  0
SECTION
  2
HEADER
  9
$ACADVER
  1
AC1015
  9
$ACADMAINTVER
 70
    20
  9
$DWGCODEPAGE
  3
ANSI_1252
  9
$INSBASE
 10
0.0
 20
0.0
 30
0.0
  9
$EXTMIN
 10
-141.2945591014706
 20
-19.08828405907723
 30
0.0
  9
$EXTMAX
 10
583.7244709667707
 20
155.9895375416561
 30
0.0
  9
$LIMMIN
 10
0.0
 20
0.0
  9
$LIMMAX
 10
12.0
 20
9.0
  9
$ORTHOMODE
 70
     1
  9
$REGENMODE
 70
     1
  9
$FILLMODE
 70
     1
  9
$QTEXTMODE
 70
     0
  9
$MIRRTEXT
 70
     0
  9
$LTSCALE
 40
1.0
  9
$ATTMODE
 70
     1
  9
$TEXTSIZE
 40
0.2
  9
$TRACEWID
 40
0.05
  9
$TEXTSTYLE
  7
Standard
  9
$CLAYER
  8
0
  9
$CELTYPE
  6
ByLayer
  9
$CECOLOR
 62
   256
  9
$CELTSCALE
 40
1.0
  9
$DISPSILH
 70
     0
  9
$DIMSCALE
 40
1.0
  9
$DIMASZ
 40
0.18
  9
$DIMEXO
 40
0.0625
  9
$DIMDLI
 40
0.38
  9
$DIMRND
 40
0.0
  9
$DIMDLE
 40
0.0
  9
$DIMEXE
 40
0.18
  9
$DIMTP
 40
0.0
  9
$DIMTM
 40
0.0
  9
$DIMTXT
 40
0.18
  9
$DIMCEN
 40
0.09
  9
$DIMTSZ
 40
0.0
  9
$DIMTOL
 70
     0
  9
$DIMLIM
 70
     0
  9
$DIMTIH
 70
     1
  9
$DIMTOH
 70
     1
  9
$DIMSE1
 70
     0
  9
$DIMSE2
 70
     0
  9
$DIMTAD
 70
     0
  9
$DIMZIN
 70
     0
  9
$DIMBLK
  1

  9
$DIMASO
 70
     1
  9
$DIMSHO
 70
     1
  9
$DIMPOST
  1

  9
$DIMAPOST
  1

  9
$DIMALT
 70
     0
  9
$DIMALTD
 70
     2
  9
$DIMALTF
 40
25.4
  9
$DIMLFAC
 40
1.0
  9
$DIMTOFL
 70
     0
  9
$DIMTVP
 40
0.0
  9
$DIMTIX
 70
     0
  9
$DIMSOXD
 70
     0
  9
$DIMSAH
 70
     0
  9
$DIMBLK1
  1

  9
$DIMBLK2
  1

  9
$DIMSTYLE
  2
Standard
  9
$DIMCLRD
 70
     0
  9
$DIMCLRE
 70
     0
  9
$DIMCLRT
 70
     0
  9
$DIMTFAC
 40
1.0
  9
$DIMGAP
 40
0.09
  9
$DIMJUST
 70
     0
  9
$DIMSD1
 70
     0
  9
$DIMSD2
 70
     0
  9
$DIMTOLJ
 70
     1
  9
$DIMTZIN
 70
     0
  9
$DIMALTZ
 70
     0
  9
$DIMALTTZ
 70
     0
  9
$DIMUPT
 70
     0
  9
$DIMDEC
 70
     4
  9
$DIMTDEC
 70
     4
  9
$DIMALTU
 70
     2
  9
$DIMALTTD
 70
     2
  9
$DIMTXSTY
  7
Standard
  9
$DIMAUNIT
 70
     0
  9
$DIMADEC
 70
     0
  9
$DIMALTRND
 40
0.0
  9
$DIMAZIN
 70
     0
  9
$DIMDSEP
 70
    46
  9
$DIMATFIT
 70
     3
  9
$DIMFRAC
 70
     0
  9
$DIMLDRBLK
  1

  9
$DIMLUNIT
 70
     2
  9
$DIMLWD
 70
    -2
  9
$DIMLWE
 70
    -2
  9
$DIMTMOVE
 70
     0
  9
$LUNITS
 70
     2
  9
$LUPREC
 70
     4
  9
$SKETCHINC
 40
0.1
  9
$FILLETRAD
 40
0.0
  9
$AUNITS
 70
     0
  9
$AUPREC
 70
     0
  9
$MENU
  1
.
  9
$ELEVATION
 40
0.0
  9
$PELEVATION
 40
0.0
  9
$THICKNESS
 40
0.0
  9
$LIMCHECK
 70
     0
  9
$CHAMFERA
 40
0.0
  9
$CHAMFERB
 40
0.0
  9
$CHAMFERC
 40
0.0
  9
$CHAMFERD
 40
0.0
  9
$SKPOLY
 70
     0
  9
$TDCREATE
 40
2455098.373449479
  9
$TDUCREATE
 40
2455098.290116146
  9
$TDUPDATE
 40
2457233.393536239
  9
$TDUUPDATE
 40
2457233.310202905
  9
$TDINDWG
 40
0.0134471412
  9
$TDUSRTIMER
 40
0.0134470602
  9
$USRTIMER
 70
     1
  9
$ANGBASE
 50
0.0
  9
$ANGDIR
 70
     0
  9
$PDMODE
 70
     0
  9
$PDSIZE
 40
0.0
  9
$PLINEWID
 40
0.0
  9
$SPLFRAME
 70
     0
  9
$SPLINETYPE
 70
     6
  9
$SPLINESEGS
 70
     8
  9
$HANDSEED
  5
903
  9
$SURFTAB1
 70
     6
  9
$SURFTAB2
 70
     6
  9
$SURFTYPE
 70
     6
  9
$SURFU
 70
     6
  9
$SURFV
 70
     6
  9
$UCSBASE
  2

  9
$UCSNAME
  2

  9
$UCSORG
 10
0.0
 20
0.0
 30
0.0
  9
$UCSXDIR
 10
1.0
 20
0.0
 30
0.0
  9
$UCSYDIR
 10
0.0
 20
1.0
 30
0.0
  9
$UCSORTHOREF
  2

  9
$UCSORTHOVIEW
 70
     0
  9
$UCSORGTOP
 10
0.0
 20
0.0
 30
0.0
  9
$UCSORGBOTTOM
 10
0.0
 20
0.0
 30
0.0
  9
$UCSORGLEFT
 10
0.0
 20
0.0
 30
0.0
  9
$UCSORGRIGHT
 10
0.0
 20
0.0
 30
0.0
  9
$UCSORGFRONT
 10
0.0
 20
0.0
 30
0.0
  9
$UCSORGBACK
 10
0.0
 20
0.0
 30
0.0
  9
$PUCSBASE
  2

  9
$PUCSNAME
  2

  9
$PUCSORG
 10
0.0
 20
0.0
 30
0.0
  9
$PUCSXDIR
 10
1.0
 20
0.0
 30
0.0
  9
$PUCSYDIR
 10
0.0
 20
1.0
 30
0.0
  9
$PUCSORTHOREF
  2

  9
$PUCSORTHOVIEW
 70
     0
  9
$PUCSORGTOP
 10
0.0
 20
0.0
 30
0.0
  9
$PUCSORGBOTTOM
 10
0.0
 20
0.0
 30
0.0
  9
$PUCSORGLEFT
 10
0.0
 20
0.0
 30
0.0
  9
$PUCSORGRIGHT
 10
0.0
 20
0.0
 30
0.0
  9
$PUCSORGFRONT
 10
0.0
 20
0.0
 30
0.0
  9
$PUCSORGBACK
 10
0.0
 20
0.0
 30
0.0
  9
$USERI1
 70
     0
  9
$USERI2
 70
     0
  9
$USERI3
 70
     0
  9
$USERI4
 70
     0
  9
$USERI5
 70
     0
  9
$USERR1
 40
0.0
  9
$USERR2
 40
0.0
  9
$USERR3
 40
0.0
  9
$USERR4
 40
0.0
  9
$USERR5
 40
0.0
  9
$WORLDVIEW
 70
     1
  9
$SHADEDGE
 70
     3
  9
$SHADEDIF
 70
    70
  9
$TILEMODE
 70
     1
  9
$MAXACTVP
 70
    64
  9
$PINSBASE
 10
0.0
 20
0.0
 30
0.0
  9
$PLIMCHECK
 70
     0
  9
$PEXTMIN
 10
0.0
 20
0.0
 30
0.0
  9
$PEXTMAX
 10
0.0
 20
0.0
 30
0.0
  9
$PLIMMIN
 10
0.0
 20
0.0
  9
$PLIMMAX
 10
12.0
 20
9.0
  9
$UNITMODE
 70
     0
  9
$VISRETAIN
 70
     1
  9
$PLINEGEN
 70
     0
  9
$PSLTSCALE
 70
     1
  9
$TREEDEPTH
 70
  3020
  9
$CMLSTYLE
  2
Standard
  9
$CMLJUST
 70
     0
  9
$CMLSCALE
 40
1.0
  9
$PROXYGRAPHICS
 70
     1
  9
$MEASUREMENT
 70
     0
  9
$CELWEIGHT
370
    -1
  9
$ENDCAPS
280
     0
  9
$JOINSTYLE
280
     0
  9
$LWDISPLAY
290
     0
  9
$INSUNITS
 70
     1
  9
$HYPERLINKBASE
  1

  9
$STYLESHEET
  1

  9
$XEDIT
290
     1
  9
$CEPSNTYPE
380
     0
  9
$PSTYLEMODE
290
     1
  9
$FINGERPRINTGUID
  2
{4E634B6C-DD5F-492F-BDB6-580C5028518A}
  9
$VERSIONGUID
  2
{B1A98EBA-79E1-47EC-8482-D91BA94C5E09}
  9
$EXTNAMES
290
     1
  9
$PSVPSCALE
 40
0.0
  9
$OLESTARTUP
290
     0
  0
ENDSEC
  0
SECTION
  2
CLASSES
  0
CLASS
  1
ACDBDICTIONARYWDFLT
  2
AcDbDictionaryWithDefault
  3
ObjectDBX Classes
 90
        0
280
     0
281
     0
  0
CLASS
  1
ACDBPLACEHOLDER
  2
AcDbPlaceHolder
  3
ObjectDBX Classes
 90
        0
280
     0
281
     0
  0
CLASS
  1
LAYOUT
  2
AcDbLayout
  3
ObjectDBX Classes
 90
        0
280
     0
281
     0
  0
CLASS
  1
DICTIONARYVAR
  2
AcDbDictionaryVar
  3
ObjectDBX Classes
 90
        0
280
     0
281
     0
  0
CLASS
  1
TABLESTYLE
  2
AcDbTableStyle
  3
ObjectDBX Classes
 90
     4095
280
     0
281
     0
  0
CLASS
  1
MATERIAL
  2
AcDbMaterial
  3
ObjectDBX Classes
 90
     1153
280
     0
281
     0
  0
CLASS
  1
VISUALSTYLE
  2
AcDbVisualStyle
  3
ObjectDBX Classes
 90
     4095
280
     0
281
     0
  0
CLASS
  1
SCALE
  2
AcDbScale
  3
ObjectDBX Classes
 90
     1153
280
     0
281
     0
  0
CLASS
  1
MLEADERSTYLE
  2
AcDbMLeaderStyle
  3
ACDB_MLEADERSTYLE_CLASS
 90
     4095
280
     0
281
     0
  0
CLASS
  1
CELLSTYLEMAP
  2
AcDbCellStyleMap
  3
ObjectDBX Classes
 90
     1152
280
     0
281
     0
  0
CLASS
  1
SORTENTSTABLE
  2
AcDbSortentsTable
  3
ObjectDBX Classes
 90
    32768
280
     0
281
     0
  0
CLASS
  1
ACDBSECTIONVIEWSTYLE
  2
AcDbSectionViewStyle
  3
ObjectDBX Classes
 90
     1025
280
     0
281
     0
  0
CLASS
  1
ACDBDETAILVIEWSTYLE
  2
AcDbDetailViewStyle
  3
ObjectDBX Classes
 90
     1025
280
     0
281
     0
  0
ENDSEC
  0
SECTION
  2
TABLES
  0
TABLE
  2
VPORT
  5
8
330
0
100
AcDbSymbolTable
 70
     1
  0
VPORT
  5
94
330
8
100
AcDbSymbolTableRecord
100
AcDbViewportTableRecord
  2
*Active
 70
     0
 10
0.0
 20
0.0
 11
1.0
 21
1.0
 12
428.0573270665778
 22
34.7207064021975
 13
0.0
 23
0.0
 14
0.5
 24
0.5
 15
0.5
 25
0.5
 16
0.0
 26
0.0
 36
1.0
 17
0.0
 27
0.0
 37
0.0
 40
366.5921658201264
 41
1.55
 42
50.0
 43
0.0
 44
0.0
 50
0.0
 51
0.0
 71
     0
 72
  1000
 73
     1
 74
     3
 75
     0
 76
     0
 77
     0
 78
     0
281
     0
 65
     1
110
0.0
120
0.0
130
0.0
111
1.0
121
0.0
131
0.0
112
0.0
122
1.0
132
0.0
 79
     0
146
0.0
1001
ACAD_NAV_VCDISPLAY
1070
     3
  0
ENDTAB
  0
TABLE
  2
LTYPE
  5
5
330
0
100
AcDbSymbolTable
 70
     3
  0
LTYPE
  5
14
330
5
100
AcDbSymbolTableRecord
100
AcDbLinetypeTableRecord
  2
ByBlock
 70
     0
  3

 72
    65
 73
     0
 40
0.0
  0
LTYPE
  5
15
330
5
100
AcDbSymbolTableRecord
100
AcDbLinetypeTableRecord
  2
ByLayer
 70
     0
  3

 72
    65
 73
     0
 40
0.0
  0
LTYPE
  5
16
330
5
100
AcDbSymbolTableRecord
100
AcDbLinetypeTableRecord
  2
Continuous
 70
     0
  3
Solid line
 72
    65
 73
     0
 40
0.0
  0
LTYPE
  5
14D
330
5
100
AcDbSymbolTableRecord
100
AcDbLinetypeTableRecord
  2
CONTINUA
 70
     0
  3
Linea continua
 72
    65
 73
     0
 40
0.0
  0
ENDTAB
  0
TABLE
  2
LAYER
  5
2
102
{ACAD_XDICTIONARY
360
33F
102
}
330
0
100
AcDbSymbolTable
 70
     2
  0
LAYER
  5
10
102
{ACAD_XDICTIONARY
360
E6
102
}
330
2
100
AcDbSymbolTableRecord
100
AcDbLayerTableRecord
  2
0
 70
     0
 62
     7
  6
Continuous
370
    -3
390
F
  0
LAYER
  5
33E
330
2
100
AcDbSymbolTableRecord
100
AcDbLayerTableRecord
  2
Defpoints
 70
     0
 62
     7
  6
Continuous
290
     0
370
    -3
390
F
  0
ENDTAB
  0
TABLE
  2
STYLE
  5
3
330
0
100
AcDbSymbolTable
 70
     4
  0
STYLE
  5
11
330
3
100
AcDbSymbolTableRecord
100
AcDbTextStyleTableRecord
  2
Standard
 70
     0
 40
0.0
 41
1.0
 50
0.0
 71
     0
 42
0.2
  3
txt.shx
  4

  0
STYLE
  5
DC
330
3
100
AcDbSymbolTableRecord
100
AcDbTextStyleTableRecord
  2
Annotativa
 70
     0
 40
0.0
 41
1.0
 50
0.0
 71
     0
 42
0.2
  3
txt.shx
  4

1001
AcadAnnotative
1000
AnnotativeData
1002
{
1070
     1
1070
     1
1002
}
  0
STYLE
  5
14E
330
3
100
AcDbSymbolTableRecord
100
AcDbTextStyleTableRecord
  2
H
 70
     0
 40
1.75
 41
1.0
 50
0.0
 71
     0
 42
1.75
  3
swiss.ttf
  4

1001
ACAD
1000
Swis721 BT
1071
       34
  0
STYLE
  5
14F
330
3
100
AcDbSymbolTableRecord
100
AcDbTextStyleTableRecord
  2
ZD
 70
     0
 40
0.0
 41
1.0
 50
0.0
 71
     0
 42
3.0
  3
SIMPLEX
  4

  0
ENDTAB
  0
TABLE
  2
VIEW
  5
6
330
0
100
AcDbSymbolTable
 70
     0
  0
ENDTAB
  0
TABLE
  2
UCS
  5
7
330
0
100
AcDbSymbolTable
 70
     0
  0
ENDTAB
  0
TABLE
  2
APPID
  5
9
330
0
100
AcDbSymbolTable
 70
    15
  0
APPID
  5
12
330
9
100
AcDbSymbolTableRecord
100
AcDbRegAppTableRecord
  2
ACAD
 70
     0
  0
APPID
  5
DD
330
9
100
AcDbSymbolTableRecord
100
AcDbRegAppTableRecord
  2
AcadAnnoPO
 70
     0
  0
APPID
  5
DE
330
9
100
AcDbSymbolTableRecord
100
AcDbRegAppTableRecord
  2
AcadAnnotative
 70
     0
  0
APPID
  5
DF
330
9
100
AcDbSymbolTableRecord
100
AcDbRegAppTableRecord
  2
ACAD_DSTYLE_DIMJAG
 70
     0
  0
APPID
  5
E0
330
9
100
AcDbSymbolTableRecord
100
AcDbRegAppTableRecord
  2
ACAD_DSTYLE_DIMTALN
 70
     0
  0
APPID
  5
107
330
9
100
AcDbSymbolTableRecord
100
AcDbRegAppTableRecord
  2
ACAD_MLEADERVER
 70
     0
  0
APPID
  5
26C
330
9
100
AcDbSymbolTableRecord
100
AcDbRegAppTableRecord
  2
ACAD_EXEMPT_FROM_CAD_STANDARDS
 70
     0
  0
APPID
  5
292
330
9
100
AcDbSymbolTableRecord
100
AcDbRegAppTableRecord
  2
VDEXTRAPARAM
 70
     0
  0
APPID
  5
293
330
9
100
AcDbSymbolTableRecord
100
AcDbRegAppTableRecord
  2
ACAD_NAV_VCDISPLAY
 70
     0
  0
APPID
  5
492
330
9
100
AcDbSymbolTableRecord
100
AcDbRegAppTableRecord
  2
ACAD_PSEXT
 70
     0
  0
APPID
  5
493
330
9
100
AcDbSymbolTableRecord
100
AcDbRegAppTableRecord
  2
VD_EX_PRINTER_DWG_STYLE_SHEET
 70
     0
  0
APPID
  5
494
330
9
100
AcDbSymbolTableRecord
100
AcDbRegAppTableRecord
  2
VD_EX_PRINTER_SIZEX
 70
     0
  0
APPID
  5
495
330
9
100
AcDbSymbolTableRecord
100
AcDbRegAppTableRecord
  2
VD_EX_PRINTER_AVSIZEX
 70
     0
  0
APPID
  5
496
330
9
100
AcDbSymbolTableRecord
100
AcDbRegAppTableRecord
  2
VD_EX_PRINTER_SIZEY
 70
     0
  0
APPID
  5
497
330
9
100
AcDbSymbolTableRecord
100
AcDbRegAppTableRecord
  2
VD_EX_PRINTER_AVSIZEY
 70
     0
  0
ENDTAB
  0
TABLE
  2
DIMSTYLE
  5
A
330
0
100
AcDbSymbolTable
 70
     5
100
AcDbDimStyleTable
 71
     2
340
27
340
E1
  0
DIMSTYLE
105
27
102
{ACAD_REACTORS
330
34A
330
34B
330
3B8
330
3E4
330
82B
330
82C
330
82F
330
830
102
}
330
A
100
AcDbSymbolTableRecord
100
AcDbDimStyleTableRecord
  2
Standard
 70
     0
340
11
  0
DIMSTYLE
105
E1
330
A
100
AcDbSymbolTableRecord
100
AcDbDimStyleTableRecord
  2
Annotativa
 70
     0
 40
0.0
340
11
1001
AcadAnnotative
1000
AnnotativeData
1002
{
1070
     1
1070
     1
1002
}
1001
ACAD_DSTYLE_DIMJAG
1070
   388
1040
1.5
1001
ACAD_DSTYLE_DIMTALN
1070
   392
1070
     0
  0
DIMSTYLE
105
150
330
A
100
AcDbSymbolTableRecord
100
AcDbDimStyleTableRecord
  2
GEWISS
 70
     0
 41
1.7
 42
1.0
 43
7.0
 44
0.3
 73
     0
 74
     0
 77
     1
140
1.75
141
1.5
147
0.5
172
     1
176
     1
177
     1
340
14E
  0
DIMSTYLE
105
491
330
A
100
AcDbSymbolTableRecord
100
AcDbDimStyleTableRecord
  2
ISO-25
 70
     0
 41
2.5
 42
0.625
 44
1.25
 47
1.0
 48
1.0
 73
     0
 77
     1
 78
     8
140
2.5
147
0.625
271
     2
340
11
  0
ENDTAB
  0
TABLE
  2
BLOCK_RECORD
  5
1
330
0
100
AcDbSymbolTable
 70
    26
  0
BLOCK_RECORD
  5
1F
330
1
100
AcDbSymbolTableRecord
100
AcDbBlockTableRecord
  2
*Model_Space
340
22
  0
BLOCK_RECORD
  5
58
330
1
100
AcDbSymbolTableRecord
100
AcDbBlockTableRecord
  2
*Paper_Space
340
59
  0
BLOCK_RECORD
  5
5D
330
1
100
AcDbSymbolTableRecord
100
AcDbBlockTableRecord
  2
*Paper_Space0
340
5E
  0
BLOCK_RECORD
  5
28E
330
1
100
AcDbSymbolTableRecord
100
AcDbBlockTableRecord
  2
VDDIM_DEFAULT
340
0
  0
BLOCK_RECORD
  5
324
330
1
100
AcDbSymbolTableRecord
100
AcDbBlockTableRecord
  2
*D2
340
0
  0
BLOCK_RECORD
  5
331
330
1
100
AcDbSymbolTableRecord
100
AcDbBlockTableRecord
  2
*D3
340
0
  0
BLOCK_RECORD
  5
34C
330
1
100
AcDbSymbolTableRecord
100
AcDbBlockTableRecord
  2
*D4
340
0
  0
BLOCK_RECORD
  5
359
330
1
100
AcDbSymbolTableRecord
100
AcDbBlockTableRecord
  2
*D5
340
0
  0
BLOCK_RECORD
  5
3B9
330
1
100
AcDbSymbolTableRecord
100
AcDbBlockTableRecord
  2
*D6
340
0
  0
BLOCK_RECORD
  5
3E5
330
1
100
AcDbSymbolTableRecord
100
AcDbBlockTableRecord
  2
*D7
340
0
  0
BLOCK_RECORD
  5
6A8
330
1
100
AcDbSymbolTableRecord
100
AcDbBlockTableRecord
  2
*D8
340
0
  0
BLOCK_RECORD
  5
6B5
330
1
100
AcDbSymbolTableRecord
100
AcDbBlockTableRecord
  2
*D9
340
0
  0
BLOCK_RECORD
  5
6C2
330
1
100
AcDbSymbolTableRecord
100
AcDbBlockTableRecord
  2
*D10
340
0
  0
BLOCK_RECORD
  5
6CF
330
1
100
AcDbSymbolTableRecord
100
AcDbBlockTableRecord
  2
*D11
340
0
  0
BLOCK_RECORD
  5
701
330
1
100
AcDbSymbolTableRecord
100
AcDbBlockTableRecord
  2
*D12
340
0
  0
BLOCK_RECORD
  5
70E
330
1
100
AcDbSymbolTableRecord
100
AcDbBlockTableRecord
  2
*D13
340
0
  0
BLOCK_RECORD
  5
71B
330
1
100
AcDbSymbolTableRecord
100
AcDbBlockTableRecord
  2
*D14
340
0
  0
BLOCK_RECORD
  5
728
330
1
100
AcDbSymbolTableRecord
100
AcDbBlockTableRecord
  2
*D15
340
0
  0
BLOCK_RECORD
  5
7D8
330
1
100
AcDbSymbolTableRecord
100
AcDbBlockTableRecord
  2
*D16
340
0
  0
BLOCK_RECORD
  5
7E5
330
1
100
AcDbSymbolTableRecord
100
AcDbBlockTableRecord
  2
*D17
340
0
  0
BLOCK_RECORD
  5
7F2
330
1
100
AcDbSymbolTableRecord
100
AcDbBlockTableRecord
  2
*D18
340
0
  0
BLOCK_RECORD
  5
7FF
330
1
100
AcDbSymbolTableRecord
100
AcDbBlockTableRecord
  2
*D19
340
0
  0
BLOCK_RECORD
  5
831
330
1
100
AcDbSymbolTableRecord
100
AcDbBlockTableRecord
  2
*D21
340
0
  0
BLOCK_RECORD
  5
83E
330
1
100
AcDbSymbolTableRecord
100
AcDbBlockTableRecord
  2
*D22
340
0
  0
BLOCK_RECORD
  5
84B
330
1
100
AcDbSymbolTableRecord
100
AcDbBlockTableRecord
  2
*D23
340
0
  0
BLOCK_RECORD
  5
858
330
1
100
AcDbSymbolTableRecord
100
AcDbBlockTableRecord
  2
*D24
340
0
  0
ENDTAB
  0
ENDSEC
  0
SECTION
  2
BLOCKS
  0
BLOCK
  5
20
330
1F
100
AcDbEntity
  8
0
100
AcDbBlockBegin
  2
*Model_Space
 70
     0
 10
0.0
 20
0.0
 30
0.0
  3
*Model_Space
  1

  0
ENDBLK
  5
21
330
1F
100
AcDbEntity
  8
0
100
AcDbBlockEnd
  0
BLOCK
  5
5A
330
58
100
AcDbEntity
 67
     1
  8
0
100
AcDbBlockBegin
  2
*Paper_Space
 70
     0
 10
0.0
 20
0.0
 30
0.0
  3
*Paper_Space
  1

  0
ENDBLK
  5
5B
330
58
100
AcDbEntity
 67
     1
  8
0
100
AcDbBlockEnd
  0
BLOCK
  5
5F
330
5D
100
AcDbEntity
 67
     1
  8
0
100
AcDbBlockBegin
  2
*Paper_Space0
 70
     0
 10
0.0
 20
0.0
 30
0.0
  3
*Paper_Space0
  1

  0
ENDBLK
  5
60
330
5D
100
AcDbEntity
 67
     1
  8
0
100
AcDbBlockEnd
  0
BLOCK
  5
28F
330
28E
100
AcDbEntity
  8
0
100
AcDbBlockBegin
  2
VDDIM_DEFAULT
 70
     0
 10
0.0
 20
0.0
 30
0.0
  3
VDDIM_DEFAULT
  1

  0
HATCH
  5
290
330
28E
100
AcDbEntity
  8
0
 62
     0
370
    -2
100
AcDbHatch
 10
0.0
 20
0.0
 30
0.0
210
0.0
220
0.0
230
-1.0
  2
SOLID
 70
     1
 71
     0
 91
        1
 92
        2
 72
     0
 73
     1
 93
        3
 10
0.0
 20
0.0
 10
1.0
 20
-0.1665
 10
1.0
 20
0.1665
 97
        0
 75
     0
 76
     1
 98
        1
 10
0.0
 20
0.0
  0
ENDBLK
  5
291
330
28E
100
AcDbEntity
  8
0
100
AcDbBlockEnd
  0
BLOCK
  5
325
330
324
100
AcDbEntity
  8
0
100
AcDbBlockBegin
  2
*D2
 70
     1
 10
0.0
 20
0.0
 30
0.0
  3
*D2
  1

  0
LINE
  5
326
330
324
100
AcDbEntity
  8
0
 62
     0
370
    -2
100
AcDbLine
 10
222.1911288071556
 20
37.43274451007421
 30
0.0
 11
222.1911288071556
 21
2.545143134359318
 31
0.0
  0
LINE
  5
327
330
324
100
AcDbEntity
  8
0
 62
     0
370
    -2
100
AcDbLine
 10
293.1911288071556
 20
37.37024451007421
 30
0.0
 11
293.1911288071556
 21
2.545143134359318
 31
0.0
  0
LINE
  5
328
330
324
100
AcDbEntity
  8
0
 62
     0
370
    -2
100
AcDbLine
 10
228.1911288071556
 20
2.725143134359321
 30
0.0
 11
246.055932283707
 21
2.725143134359321
 31
0.0
  0
LINE
  5
329
330
324
100
AcDbEntity
  8
0
 62
     0
370
    -2
100
AcDbLine
 10
287.1911288071556
 20
2.725143134359321
 30
0.0
 11
263.735932283707
 21
2.725143134359321
 31
0.0
  0
SOLID
  5
32A
330
324
100
AcDbEntity
  8
0
 62
     0
100
AcDbTrace
 10
228.1911288071556
 20
3.725143134359321
 30
0.0
 11
228.1911288071556
 21
1.725143134359321
 31
0.0
 12
222.1911288071556
 22
2.725143134359321
 32
0.0
 13
222.1911288071556
 23
2.725143134359321
 33
0.0
  0
SOLID
  5
32B
330
324
100
AcDbEntity
  8
0
 62
     0
100
AcDbTrace
 10
287.1911288071556
 20
3.725143134359321
 30
0.0
 11
287.1911288071556
 21
1.725143134359321
 31
0.0
 12
293.1911288071556
 22
2.725143134359321
 32
0.0
 13
293.1911288071556
 23
2.725143134359321
 33
0.0
  0
MTEXT
  5
32C
330
324
100
AcDbEntity
  8
0
 62
     0
100
AcDbMText
 10
254.895932283707
 20
2.725143134359321
 30
0.0
 40
7.0
 41
0.0
 71
     5
 72
     1
  1
\A1;71.0
 73
     1
 44
1.0
1001
ACAD
1000
MTEXTBEGIN
1070
    73
1070
     1
1070
    44
1040
1.0
1070
    74
1070
     0
1000
MTEXTEND
  0
POINT
  5
32D
330
324
100
AcDbEntity
  8
Defpoints
 62
     0
100
AcDbPoint
 10
222.1911288071556
 20
37.49524451007421
 30
0.0
  0
POINT
  5
32E
330
324
100
AcDbEntity
  8
Defpoints
 62
     0
100
AcDbPoint
 10
293.1911288071556
 20
37.43274451007421
 30
0.0
  0
POINT
  5
32F
330
324
100
AcDbEntity
  8
Defpoints
 62
     0
100
AcDbPoint
 10
293.1911288071556
 20
2.725143134359321
 30
0.0
  0
ENDBLK
  5
330
330
324
100
AcDbEntity
  8
0
100
AcDbBlockEnd
  0
BLOCK
  5
332
330
331
100
AcDbEntity
  8
0
100
AcDbBlockBegin
  2
*D3
 70
     1
 10
0.0
 20
0.0
 30
0.0
  3
*D3
  1

  0
LINE
  5
333
330
331
100
AcDbEntity
  8
0
 62
     0
370
    -2
100
AcDbLine
 10
227.1911288071556
 20
32.4327445100742
 30
0.0
 11
185.0566458713053
 21
32.43274451007421
 31
0.0
  0
LINE
  5
334
330
331
100
AcDbEntity
  8
0
 62
     0
370
    -2
100
AcDbLine
 10
227.1286288071556
 20
164.4327445100743
 30
0.0
 11
185.0566458713053
 21
164.4327445100743
 31
0.0
  0
LINE
  5
335
330
331
100
AcDbEntity
  8
0
 62
     0
370
    -2
100
AcDbLine
 10
185.2366458713053
 20
38.43274451007421
 30
0.0
 11
185.2366458713053
 21
94.84274451007424
 31
0.0
  0
LINE
  5
336
330
331
100
AcDbEntity
  8
0
 62
     0
370
    -2
100
AcDbLine
 10
185.2366458713053
 20
158.4327445100743
 30
0.0
 11
185.2366458713053
 21
102.0227445100742
 31
0.0
  0
SOLID
  5
337
330
331
100
AcDbEntity
  8
0
 62
     0
100
AcDbTrace
 10
184.2366458713053
 20
38.43274451007421
 30
0.0
 11
186.2366458713053
 21
38.43274451007421
 31
0.0
 12
185.2366458713053
 22
32.43274451007421
 32
0.0
 13
185.2366458713053
 23
32.43274451007421
 33
0.0
  0
SOLID
  5
338
330
331
100
AcDbEntity
  8
0
 62
     0
100
AcDbTrace
 10
184.2366458713053
 20
158.4327445100743
 30
0.0
 11
186.2366458713053
 21
158.4327445100743
 31
0.0
 12
185.2366458713053
 22
164.4327445100743
 32
0.0
 13
185.2366458713053
 23
164.4327445100743
 33
0.0
  0
MTEXT
  5
339
330
331
100
AcDbEntity
  8
0
 62
     0
100
AcDbMText
 10
185.2366458713053
 20
98.43274451007427
 30
0.0
 40
7.0
 41
0.0
 71
     5
 72
     1
  1
\A1;132.0
 73
     1
 44
1.0
1001
ACAD
1000
MTEXTBEGIN
1070
    73
1070
     1
1070
    44
1040
1.0
1070
    74
1070
     0
1000
MTEXTEND
  0
POINT
  5
33A
330
331
100
AcDbEntity
  8
Defpoints
 62
     0
100
AcDbPoint
 10
227.2536288071556
 20
32.4327445100742
 30
0.0
  0
POINT
  5
33B
330
331
100
AcDbEntity
  8
Defpoints
 62
     0
100
AcDbPoint
 10
227.1911288071556
 20
164.4327445100743
 30
0.0
  0
POINT
  5
33C
330
331
100
AcDbEntity
  8
Defpoints
 62
     0
100
AcDbPoint
 10
185.2366458713053
 20
164.4327445100743
 30
0.0
  0
ENDBLK
  5
33D
330
331
100
AcDbEntity
  8
0
100
AcDbBlockEnd
  0
BLOCK
  5
34D
330
34C
100
AcDbEntity
  8
0
100
AcDbBlockBegin
  2
*D4
 70
     1
 10
0.0
 20
0.0
 30
0.0
  3
*D4
  1

  0
LINE
  5
38E
330
34C
100
AcDbEntity
  8
0
 62
     0
370
    -2
100
AcDbLine
 10
20.36449744536722
 20
19.11931731663766
 30
0.0
 11
20.36449744536722
 21
-15.76828405907723
 31
0.0
  0
LINE
  5
38F
330
34C
100
AcDbEntity
  8
0
 62
     0
370
    -2
100
AcDbLine
 10
175.3589370453672
 20
19.05681731663766
 30
0.0
 11
175.3589370453672
 21
-15.76828405907723
 31
0.0
  0
LINE
  5
390
330
34C
100
AcDbEntity
  8
0
 62
     0
370
    -2
100
AcDbLine
 10
26.36449744536722
 20
-15.58828405907723
 30
0.0
 11
82.32936855359131
 21
-15.58828405907723
 31
0.0
  0
LINE
  5
391
330
34C
100
AcDbEntity
  8
0
 62
     0
370
    -2
100
AcDbLine
 10
169.3589370453672
 20
-15.58828405907723
 30
0.0
 11
107.0093685535913
 21
-15.58828405907723
 31
0.0
  0
SOLID
  5
392
330
34C
100
AcDbEntity
  8
0
 62
     0
100
AcDbTrace
 10
26.36449744536722
 20
-14.58828405907723
 30
0.0
 11
26.36449744536722
 21
-16.58828405907723
 31
0.0
 12
20.36449744536722
 22
-15.58828405907723
 32
0.0
 13
20.36449744536722
 23
-15.58828405907723
 33
0.0
  0
SOLID
  5
393
330
34C
100
AcDbEntity
  8
0
 62
     0
100
AcDbTrace
 10
169.3589370453672
 20
-14.58828405907723
 30
0.0
 11
169.3589370453672
 21
-16.58828405907723
 31
0.0
 12
175.3589370453672
 22
-15.58828405907723
 32
0.0
 13
175.3589370453672
 23
-15.58828405907723
 33
0.0
  0
MTEXT
  5
394
330
34C
100
AcDbEntity
  8
0
 62
     0
100
AcDbMText
 10
94.66936855359131
 20
-15.58828405907723
 30
0.0
 40
7.0
 41
0.0
 71
     5
 72
     1
  1
\A1;155.0
 73
     1
 44
1.0
1001
ACAD
1000
MTEXTBEGIN
1070
    73
1070
     1
1070
    44
1040
1.0
1070
    74
1070
     0
1000
MTEXTEND
  0
POINT
  5
395
330
34C
100
AcDbEntity
  8
Defpoints
 62
     0
100
AcDbPoint
 10
20.36449744536722
 20
19.18181731663766
 30
0.0
  0
POINT
  5
396
330
34C
100
AcDbEntity
  8
Defpoints
 62
     0
100
AcDbPoint
 10
175.3589370453672
 20
19.11931731663766
 30
0.0
  0
POINT
  5
397
330
34C
100
AcDbEntity
  8
Defpoints
 62
     0
100
AcDbPoint
 10
175.3589370453672
 20
-15.58828405907723
 30
0.0
  0
ENDBLK
  5
34E
330
34C
100
AcDbEntity
  8
0
100
AcDbBlockEnd
  0
BLOCK
  5
35A
330
359
100
AcDbEntity
  8
0
100
AcDbBlockBegin
  2
*D5
 70
     1
 10
0.0
 20
0.0
 30
0.0
  3
*D5
  1

  0
LINE
  5
3AC
330
359
100
AcDbEntity
  8
0
 62
     0
370
    -2
100
AcDbLine
 10
169.4601124453671
 20
13.15799271663766
 30
0.0
 11
223.6830184012375
 21
13.15799271663764
 31
0.0
  0
LINE
  5
3AD
330
359
100
AcDbEntity
  8
0
 62
     0
370
    -2
100
AcDbLine
 10
169.4573322453671
 20
128.1579927166376
 30
0.0
 11
223.6830184012375
 21
128.1579927166375
 31
0.0
  0
LINE
  5
3AE
330
359
100
AcDbEntity
  8
0
 62
     0
370
    -2
100
AcDbLine
 10
223.5030184012375
 20
19.15799271663764
 30
0.0
 11
223.5030184012375
 21
65.70161832346129
 31
0.0
  0
LINE
  5
3AF
330
359
100
AcDbEntity
  8
0
 62
     0
370
    -2
100
AcDbLine
 10
223.5030184012375
 20
122.1579927166375
 30
0.0
 11
223.5030184012375
 21
72.8816183234613
 31
0.0
  0
SOLID
  5
3B0
330
359
100
AcDbEntity
  8
0
 62
     0
100
AcDbTrace
 10
222.5030184012375
 20
19.15799271663764
 30
0.0
 11
224.5030184012375
 21
19.15799271663764
 31
0.0
 12
223.5030184012375
 22
13.15799271663764
 32
0.0
 13
223.5030184012375
 23
13.15799271663764
 33
0.0
  0
SOLID
  5
3B1
330
359
100
AcDbEntity
  8
0
 62
     0
100
AcDbTrace
 10
222.5030184012375
 20
122.1579927166375
 30
0.0
 11
224.5030184012375
 21
122.1579927166375
 31
0.0
 12
223.5030184012375
 22
128.1579927166375
 32
0.0
 13
223.5030184012375
 23
128.1579927166375
 33
0.0
  0
MTEXT
  5
3B2
330
359
100
AcDbEntity
  8
0
 62
     0
100
AcDbMText
 10
223.5030184012375
 20
69.29161832346132
 30
0.0
 40
7.0
 41
0.0
 71
     5
 72
     1
  1
\A1;115.0
 73
     1
 44
1.0
1001
ACAD
1000
MTEXTBEGIN
1070
    73
1070
     1
1070
    44
1040
1.0
1070
    74
1070
     0
1000
MTEXTEND
  0
POINT
  5
3B3
330
359
100
AcDbEntity
  8
Defpoints
 62
     0
100
AcDbPoint
 10
169.3976124453671
 20
13.15799271663766
 30
0.0
  0
POINT
  5
3B4
330
359
100
AcDbEntity
  8
Defpoints
 62
     0
100
AcDbPoint
 10
169.3948322453671
 20
128.1579927166376
 30
0.0
  0
POINT
  5
3B5
330
359
100
AcDbEntity
  8
Defpoints
 62
     0
100
AcDbPoint
 10
223.5030184012375
 20
128.1579927166375
 30
0.0
  0
ENDBLK
  5
35B
330
359
100
AcDbEntity
  8
0
100
AcDbBlockEnd
  0
BLOCK
  5
3BA
330
3B9
100
AcDbEntity
  8
0
100
AcDbBlockBegin
  2
*D6
 70
     1
 10
0.0
 20
0.0
 30
0.0
  3
*D6
  1

  0
LINE
  5
63A
330
3B9
100
AcDbEntity
  8
0
 62
     0
370
    -2
100
AcDbLine
 10
-141.2945177876792
 20
68.29439467988561
 30
0.0
 11
-141.2945177876792
 21
-15.56773957702126
 31
0.0
  0
LINE
  5
63B
330
3B9
100
AcDbEntity
  8
0
 62
     0
370
    -2
100
AcDbLine
 10
-86.32367701007948
 20
8.869000716637543
 30
0.0
 11
-86.32367701007948
 21
-15.56773957702125
 31
0.0
  0
LINE
  5
63C
330
3B9
100
AcDbEntity
  8
0
 62
     0
370
    -2
100
AcDbLine
 10
-135.2945177876792
 20
-15.38773957702125
 30
0.0
 11
-123.815764065546
 21
-15.38773957702125
 31
0.0
  0
LINE
  5
63D
330
3B9
100
AcDbEntity
  8
0
 62
     0
370
    -2
100
AcDbLine
 10
-92.3236770100795
 20
-15.38773957702125
 30
0.0
 11
-103.8024307322127
 21
-15.38773957702125
 31
0.0
  0
SOLID
  5
63E
330
3B9
100
AcDbEntity
  8
0
 62
     0
100
AcDbTrace
 10
-135.2945177876792
 20
-14.38773957702125
 30
0.0
 11
-135.2945177876792
 21
-16.38773957702125
 31
0.0
 12
-141.2945177876792
 22
-15.38773957702125
 32
0.0
 13
-141.2945177876792
 23
-15.38773957702125
 33
0.0
  0
SOLID
  5
63F
330
3B9
100
AcDbEntity
  8
0
 62
     0
100
AcDbTrace
 10
-92.3236770100795
 20
-14.38773957702125
 30
0.0
 11
-92.3236770100795
 21
-16.38773957702125
 31
0.0
 12
-86.32367701007948
 22
-15.38773957702125
 32
0.0
 13
-86.32367701007948
 23
-15.38773957702125
 33
0.0
  0
MTEXT
  5
640
330
3B9
100
AcDbEntity
  8
0
 62
     0
100
AcDbMText
 10
-113.8090973988793
 20
-15.38773957702125
 30
0.0
 40
7.0
 41
0.0
 71
     5
 72
     1
  1
\A1;55.0
 73
     1
 44
1.0
1001
ACAD
1000
MTEXTBEGIN
1070
    73
1070
     1
1070
    44
1040
1.0
1070
    74
1070
     0
1000
MTEXTEND
  0
POINT
  5
641
330
3B9
100
AcDbEntity
  8
Defpoints
 62
     0
100
AcDbPoint
 10
-141.2945177876792
 20
68.35689467988562
 30
0.0
  0
POINT
  5
642
330
3B9
100
AcDbEntity
  8
Defpoints
 62
     0
100
AcDbPoint
 10
-86.32367701007948
 20
8.931500716637543
 30
0.0
  0
POINT
  5
643
330
3B9
100
AcDbEntity
  8
Defpoints
 62
     0
100
AcDbPoint
 10
-86.32367701007948
 20
-15.38773957702125
 30
0.0
  0
ENDBLK
  5
3BB
330
3B9
100
AcDbEntity
  8
0
100
AcDbBlockEnd
  0
BLOCK
  5
3E6
330
3E5
100
AcDbEntity
  8
0
100
AcDbBlockBegin
  2
*D7
 70
     1
 10
0.0
 20
0.0
 30
0.0
  3
*D7
  1

  0
LINE
  5
653
330
3E5
100
AcDbEntity
  8
0
 62
     0
370
    -2
100
AcDbLine
 10
-86.32367701007948
 20
13.09549271663773
 30
0.0
 11
-86.32367701007948
 21
-15.56773957702125
 31
0.0
  0
LINE
  5
654
330
3E5
100
AcDbEntity
  8
0
 62
     0
370
    -2
100
AcDbLine
 10
-46.3236770100801
 20
47.61761061663721
 30
0.0
 11
-46.32367701008011
 21
-15.56773957702125
 31
0.0
  0
LINE
  5
655
330
3E5
100
AcDbEntity
  8
0
 62
     0
370
    -2
100
AcDbLine
 10
-80.32367701007952
 20
-15.38773957702125
 30
0.0
 11
-76.88974543265787
 21
-15.38773957702125
 31
0.0
  0
LINE
  5
656
330
3E5
100
AcDbEntity
  8
0
 62
     0
370
    -2
100
AcDbLine
 10
-52.32367701008011
 20
-15.38773957702125
 30
0.0
 11
-58.04307876599121
 21
-15.38773957702125
 31
0.0
  0
SOLID
  5
657
330
3E5
100
AcDbEntity
  8
0
 62
     0
100
AcDbTrace
 10
-80.32367701007952
 20
-14.38773957702125
 30
0.0
 11
-80.32367701007952
 21
-16.38773957702125
 31
0.0
 12
-86.32367701007948
 22
-15.38773957702125
 32
0.0
 13
-86.32367701007948
 23
-15.38773957702125
 33
0.0
  0
SOLID
  5
658
330
3E5
100
AcDbEntity
  8
0
 62
     0
100
AcDbTrace
 10
-52.32367701008011
 20
-14.38773957702125
 30
0.0
 11
-52.32367701008011
 21
-16.38773957702125
 31
0.0
 12
-46.32367701008011
 22
-15.38773957702125
 32
0.0
 13
-46.32367701008011
 23
-15.38773957702125
 33
0.0
  0
MTEXT
  5
659
330
3E5
100
AcDbEntity
  8
0
 62
     0
100
AcDbMText
 10
-67.46641209932454
 20
-15.38773957702125
 30
0.0
 40
7.0
 41
0.0
 71
     5
 72
     1
  1
\A1;40.0
 73
     1
 44
1.0
1001
ACAD
1000
MTEXTBEGIN
1070
    73
1070
     1
1070
    44
1040
1.0
1070
    74
1070
     0
1000
MTEXTEND
  0
POINT
  5
65A
330
3E5
100
AcDbEntity
  8
Defpoints
 62
     0
100
AcDbPoint
 10
-86.32367701007948
 20
13.15799271663773
 30
0.0
  0
POINT
  5
65B
330
3E5
100
AcDbEntity
  8
Defpoints
 62
     0
100
AcDbPoint
 10
-46.3236770100801
 20
47.68011061663719
 30
0.0
  0
POINT
  5
65C
330
3E5
100
AcDbEntity
  8
Defpoints
 62
     0
100
AcDbPoint
 10
-46.32367701008011
 20
-15.38773957702125
 30
0.0
  0
ENDBLK
  5
3E7
330
3E5
100
AcDbEntity
  8
0
100
AcDbBlockEnd
  0
BLOCK
  5
6A9
330
6A8
100
AcDbEntity
  8
0
100
AcDbBlockBegin
  2
*D8
 70
     1
 10
0.0
 20
0.0
 30
0.0
  3
*D8
  1

  0
LINE
  5
6AA
330
6A8
100
AcDbEntity
  8
0
 62
     0
370
    -2
100
AcDbLine
 10
-0.0000002106614545
 20
118.8129276222296
 30
0.0
 11
-0.0000002106614525
 21
152.0115445974132
 31
0.0
  0
LINE
  5
6AB
330
6A8
100
AcDbEntity
  8
0
 62
     0
370
    -2
100
AcDbLine
 10
186.9958435337984
 20
118.8129276222296
 30
0.0
 11
186.9958435337984
 21
152.0115445974132
 31
0.0
  0
LINE
  5
6AC
330
6A8
100
AcDbEntity
  8
0
 62
     0
370
    -2
100
AcDbLine
 10
4.999999789338547
 20
151.8315445974132
 30
0.0
 11
88.10730587874784
 21
151.8315445974132
 31
0.0
  0
LINE
  5
6AD
330
6A8
100
AcDbEntity
  8
0
 62
     0
370
    -2
100
AcDbLine
 10
181.9958435337984
 20
151.8315445974132
 30
0.0
 11
104.6720262061694
 21
151.8315445974132
 31
0.0
  0
SOLID
  5
6AE
330
6A8
100
AcDbEntity
  8
0
 62
     0
100
AcDbTrace
 10
4.999999789338547
 20
152.6648779307465
 30
0.0
 11
4.999999789338547
 21
150.9982112640798
 31
0.0
 12
-0.0000002106614525
 22
151.8315445974132
 32
0.0
 13
-0.0000002106614525
 23
151.8315445974132
 33
0.0
  0
SOLID
  5
6AF
330
6A8
100
AcDbEntity
  8
0
 62
     0
100
AcDbTrace
 10
181.9958435337984
 20
152.6648779307465
 30
0.0
 11
181.9958435337984
 21
150.9982112640798
 31
0.0
 12
186.9958435337984
 22
151.8315445974132
 32
0.0
 13
186.9958435337984
 23
151.8315445974132
 33
0.0
  0
MTEXT
  5
6B0
330
6A8
100
AcDbEntity
  8
0
 62
     0
100
AcDbMText
 10
96.38966604245865
 20
151.8315445974132
 30
0.0
 40
5.0
 41
0.0
 71
     5
 72
     1
  1
\A1;187.0
 73
     1
 44
1.0
1001
ACAD
1000
MTEXTBEGIN
1070
    73
1070
     1
1070
    44
1040
1.0
1070
    74
1070
     0
1000
MTEXTEND
  0
POINT
  5
6B1
330
6A8
100
AcDbEntity
  8
Defpoints
 62
     0
100
AcDbPoint
 10
-0.0000002106614545
 20
118.7504276222296
 30
0.0
  0
POINT
  5
6B2
330
6A8
100
AcDbEntity
  8
Defpoints
 62
     0
100
AcDbPoint
 10
186.9958435337984
 20
118.7504276222296
 30
0.0
  0
POINT
  5
6B3
330
6A8
100
AcDbEntity
  8
Defpoints
 62
     0
100
AcDbPoint
 10
186.9958435337984
 20
151.8315445974132
 30
0.0
  0
ENDBLK
  5
6B4
330
6A8
100
AcDbEntity
  8
0
100
AcDbBlockEnd
  0
BLOCK
  5
6B6
330
6B5
100
AcDbEntity
  8
0
100
AcDbBlockBegin
  2
*D9
 70
     1
 10
0.0
 20
0.0
 30
0.0
  3
*D9
  1

  0
LINE
  5
6B7
330
6B5
100
AcDbEntity
  8
0
 62
     0
370
    -2
100
AcDbLine
 10
167.8087713836336
 20
-0.0000002276052555
 30
0.0
 11
206.4800954617526
 21
-0.0000002276052665
 31
0.0
  0
LINE
  5
6B8
330
6B5
100
AcDbEntity
  8
0
 62
     0
370
    -2
100
AcDbLine
 10
167.8712713836336
 20
137.9999997723947
 30
0.0
 11
206.4800954617526
 21
137.9999997723946
 31
0.0
  0
LINE
  5
6B9
330
6B5
100
AcDbEntity
  8
0
 62
     0
370
    -2
100
AcDbLine
 10
206.3000954617526
 20
4.999999772394732
 30
0.0
 11
206.3000954617526
 21
71.8062247179447
 31
0.0
  0
LINE
  5
6BA
330
6B5
100
AcDbEntity
  8
0
 62
     0
370
    -2
100
AcDbLine
 10
206.3000954617526
 20
132.9999997723946
 30
0.0
 11
206.3000954617526
 21
77.09536523636216
 31
0.0
  0
SOLID
  5
6BB
330
6B5
100
AcDbEntity
  8
0
 62
     0
100
AcDbTrace
 10
205.4667621284192
 20
4.999999772394733
 30
0.0
 11
207.1334287950859
 21
4.999999772394732
 31
0.0
 12
206.3000954617526
 22
-0.0000002276052665
 32
0.0
 13
206.3000954617526
 23
-0.0000002276052665
 33
0.0
  0
SOLID
  5
6BC
330
6B5
100
AcDbEntity
  8
0
 62
     0
100
AcDbTrace
 10
205.4667621284192
 20
132.9999997723946
 30
0.0
 11
207.1334287950859
 21
132.9999997723946
 31
0.0
 12
206.3000954617526
 22
137.9999997723946
 32
0.0
 13
206.3000954617526
 23
137.9999997723946
 33
0.0
  0
MTEXT
  5
6BD
330
6B5
100
AcDbEntity
  8
0
 62
     0
100
AcDbMText
 10
206.3000954617526
 20
74.45079497715345
 30
0.0
 40
5.0
 41
0.0
 71
     5
 72
     1
  1
\A1;138.0
 73
     1
 44
1.0
1001
ACAD
1000
MTEXTBEGIN
1070
    73
1070
     1
1070
    44
1040
1.0
1070
    74
1070
     0
1000
MTEXTEND
  0
POINT
  5
6BE
330
6B5
100
AcDbEntity
  8
Defpoints
 62
     0
100
AcDbPoint
 10
167.7462713836336
 20
-0.0000002276052555
 30
0.0
  0
POINT
  5
6BF
330
6B5
100
AcDbEntity
  8
Defpoints
 62
     0
100
AcDbPoint
 10
167.8087713836336
 20
137.9999997723947
 30
0.0
  0
POINT
  5
6C0
330
6B5
100
AcDbEntity
  8
Defpoints
 62
     0
100
AcDbPoint
 10
206.3000954617526
 20
137.9999997723946
 30
0.0
  0
ENDBLK
  5
6C1
330
6B5
100
AcDbEntity
  8
0
100
AcDbBlockEnd
  0
BLOCK
  5
6C3
330
6C2
100
AcDbEntity
  8
0
100
AcDbBlockBegin
  2
*D10
 70
     1
 10
0.0
 20
0.0
 30
0.0
  3
*D10
  1

  0
LINE
  5
6C4
330
6C2
100
AcDbEntity
  8
0
 62
     0
370
    -2
100
AcDbLine
 10
3.999999789338545
 20
2.437499772394955
 30
0.0
 11
3.999999789338544
 21
-14.00739574242782
 31
0.0
  0
LINE
  5
6C5
330
6C2
100
AcDbEntity
  8
0
 62
     0
370
    -2
100
AcDbLine
 10
182.9999997893386
 20
2.437499772394954
 30
0.0
 11
182.9999997893386
 21
-14.00739574242782
 31
0.0
  0
LINE
  5
6C6
330
6C2
100
AcDbEntity
  8
0
 62
     0
370
    -2
100
AcDbLine
 10
8.999999789338543
 20
-13.82739574242782
 30
0.0
 11
89.94964135789976
 21
-13.82739574242782
 31
0.0
  0
LINE
  5
6C7
330
6C2
100
AcDbEntity
  8
0
 62
     0
370
    -2
100
AcDbLine
 10
177.9999997893386
 20
-13.82739574242782
 30
0.0
 11
106.5143616853213
 21
-13.82739574242782
 31
0.0
  0
SOLID
  5
6C8
330
6C2
100
AcDbEntity
  8
0
 62
     0
100
AcDbTrace
 10
8.999999789338543
 20
-12.99406240909449
 30
0.0
 11
8.999999789338543
 21
-14.66072907576116
 31
0.0
 12
3.999999789338544
 22
-13.82739574242782
 32
0.0
 13
3.999999789338544
 23
-13.82739574242782
 33
0.0
  0
SOLID
  5
6C9
330
6C2
100
AcDbEntity
  8
0
 62
     0
100
AcDbTrace
 10
177.9999997893386
 20
-12.99406240909449
 30
0.0
 11
177.9999997893386
 21
-14.66072907576116
 31
0.0
 12
182.9999997893386
 22
-13.82739574242782
 32
0.0
 13
182.9999997893386
 23
-13.82739574242782
 33
0.0
  0
MTEXT
  5
6CA
330
6C2
100
AcDbEntity
  8
0
 62
     0
100
AcDbMText
 10
98.23200152161051
 20
-13.82739574242782
 30
0.0
 40
5.0
 41
0.0
 71
     5
 72
     1
  1
\A1;179.0
 73
     1
 44
1.0
1001
ACAD
1000
MTEXTBEGIN
1070
    73
1070
     1
1070
    44
1040
1.0
1070
    74
1070
     0
1000
MTEXTEND
  0
POINT
  5
6CB
330
6C2
100
AcDbEntity
  8
Defpoints
 62
     0
100
AcDbPoint
 10
3.999999789338545
 20
2.499999772394955
 30
0.0
  0
POINT
  5
6CC
330
6C2
100
AcDbEntity
  8
Defpoints
 62
     0
100
AcDbPoint
 10
182.9999997893386
 20
2.499999772394954
 30
0.0
  0
POINT
  5
6CD
330
6C2
100
AcDbEntity
  8
Defpoints
 62
     0
100
AcDbPoint
 10
182.9999997893386
 20
-13.82739574242782
 30
0.0
  0
ENDBLK
  5
6CE
330
6C2
100
AcDbEntity
  8
0
100
AcDbBlockEnd
  0
BLOCK
  5
6D0
330
6CF
100
AcDbEntity
  8
0
100
AcDbBlockBegin
  2
*D11
 70
     1
 10
0.0
 20
0.0
 30
0.0
  3
*D11
  1

  0
LINE
  5
6D1
330
6CF
100
AcDbEntity
  8
0
 62
     0
370
    -2
100
AcDbLine
 10
3.937499789338545
 20
2.499999772394955
 30
0.0
 11
-16.8102579584783
 21
2.499999772394962
 31
0.0
  0
LINE
  5
6D2
330
6CF
100
AcDbEntity
  8
0
 62
     0
370
    -2
100
AcDbLine
 10
3.999999789338545
 20
135.4999997723947
 30
0.0
 11
-16.81025795847826
 21
135.4999997723947
 31
0.0
  0
LINE
  5
6D3
330
6CF
100
AcDbEntity
  8
0
 62
     0
370
    -2
100
AcDbLine
 10
-16.6302579584783
 20
7.499999772394962
 30
0.0
 11
-16.63025795847828
 21
64.32228688527462
 31
0.0
  0
LINE
  5
6D4
330
6CF
100
AcDbEntity
  8
0
 62
     0
370
    -2
100
AcDbLine
 10
-16.63025795847827
 20
130.4999997723947
 30
0.0
 11
-16.63025795847828
 21
69.61142740369209
 31
0.0
  0
SOLID
  5
6D5
330
6CF
100
AcDbEntity
  8
0
 62
     0
100
AcDbTrace
 10
-17.46359129181163
 20
7.499999772394962
 30
0.0
 11
-15.79692462514496
 21
7.499999772394962
 31
0.0
 12
-16.6302579584783
 22
2.499999772394962
 32
0.0
 13
-16.6302579584783
 23
2.499999772394962
 33
0.0
  0
SOLID
  5
6D6
330
6CF
100
AcDbEntity
  8
0
 62
     0
100
AcDbTrace
 10
-17.4635912918116
 20
130.4999997723947
 30
0.0
 11
-15.79692462514494
 21
130.4999997723947
 31
0.0
 12
-16.63025795847827
 22
135.4999997723947
 32
0.0
 13
-16.63025795847827
 23
135.4999997723947
 33
0.0
  0
MTEXT
  5
6D7
330
6CF
100
AcDbEntity
  8
0
 62
     0
100
AcDbMText
 10
-16.63025795847829
 20
66.96685714448334
 30
0.0
 40
5.0
 41
0.0
 71
     5
 72
     1
  1
\A1;133.0
 73
     1
 44
1.0
1001
ACAD
1000
MTEXTBEGIN
1070
    73
1070
     1
1070
    44
1040
1.0
1070
    74
1070
     0
1000
MTEXTEND
  0
POINT
  5
6D8
330
6CF
100
AcDbEntity
  8
Defpoints
 62
     0
100
AcDbPoint
 10
3.999999789338545
 20
2.499999772394955
 30
0.0
  0
POINT
  5
6D9
330
6CF
100
AcDbEntity
  8
Defpoints
 62
     0
100
AcDbPoint
 10
4.062499789338545
 20
135.4999997723947
 30
0.0
  0
POINT
  5
6DA
330
6CF
100
AcDbEntity
  8
Defpoints
 62
     0
100
AcDbPoint
 10
-16.63025795847827
 20
135.4999997723947
 30
0.0
  0
ENDBLK
  5
6DB
330
6CF
100
AcDbEntity
  8
0
100
AcDbBlockEnd
  0
BLOCK
  5
702
330
701
100
AcDbEntity
  8
0
100
AcDbBlockBegin
  2
*D12
 70
     1
 10
0.0
 20
0.0
 30
0.0
  3
*D12
  1

  0
LINE
  5
764
330
701
100
AcDbEntity
  8
0
 62
     0
370
    -2
100
AcDbLine
 10
328.0002171386284
 20
120.4709205664725
 30
0.0
 11
328.0002171386284
 21
153.6695375416561
 31
0.0
  0
LINE
  5
765
330
701
100
AcDbEntity
  8
0
 62
     0
370
    -2
100
AcDbLine
 10
514.9960608830881
 20
120.4709205664725
 30
0.0
 11
514.9960608830881
 21
153.6695375416561
 31
0.0
  0
LINE
  5
766
330
701
100
AcDbEntity
  8
0
 62
     0
370
    -2
100
AcDbLine
 10
333.0002171386284
 20
153.4895375416561
 30
0.0
 11
415.5498833917484
 21
153.4895375416561
 31
0.0
  0
LINE
  5
767
330
701
100
AcDbEntity
  8
0
 62
     0
370
    -2
100
AcDbLine
 10
509.9960608830881
 20
153.4895375416561
 30
0.0
 11
433.2298833917485
 21
153.4895375416561
 31
0.0
  0
SOLID
  5
768
330
701
100
AcDbEntity
  8
0
 62
     0
100
AcDbTrace
 10
333.0002171386284
 20
154.3228708749894
 30
0.0
 11
333.0002171386284
 21
152.6562042083227
 31
0.0
 12
328.0002171386284
 22
153.4895375416561
 32
0.0
 13
328.0002171386284
 23
153.4895375416561
 33
0.0
  0
SOLID
  5
769
330
701
100
AcDbEntity
  8
0
 62
     0
100
AcDbTrace
 10
509.9960608830881
 20
154.3228708749894
 30
0.0
 11
509.9960608830881
 21
152.6562042083227
 31
0.0
 12
514.9960608830881
 22
153.4895375416561
 32
0.0
 13
514.9960608830881
 23
153.4895375416561
 33
0.0
  0
MTEXT
  5
76A
330
701
100
AcDbEntity
  8
0
 62
     0
100
AcDbMText
 10
424.3898833917485
 20
153.4895375416561
 30
0.0
 40
5.0
 41
0.0
 71
     5
 72
     1
  1
\A1;187.0
 73
     1
 44
1.0
1001
ACAD
1000
MTEXTBEGIN
1070
    73
1070
     1
1070
    44
1040
1.0
1070
    74
1070
     0
1000
MTEXTEND
  0
POINT
  5
76B
330
701
100
AcDbEntity
  8
Defpoints
 62
     0
100
AcDbPoint
 10
328.0002171386284
 20
120.4084205664725
 30
0.0
  0
POINT
  5
76C
330
701
100
AcDbEntity
  8
Defpoints
 62
     0
100
AcDbPoint
 10
514.9960608830881
 20
120.4084205664725
 30
0.0
  0
POINT
  5
76D
330
701
100
AcDbEntity
  8
Defpoints
 62
     0
100
AcDbPoint
 10
514.9960608830881
 20
153.4895375416561
 30
0.0
  0
ENDBLK
  5
703
330
701
100
AcDbEntity
  8
0
100
AcDbBlockEnd
  0
BLOCK
  5
70F
330
70E
100
AcDbEntity
  8
0
100
AcDbBlockBegin
  2
*D13
 70
     1
 10
0.0
 20
0.0
 30
0.0
  3
*D13
  1

  0
LINE
  5
76E
330
70E
100
AcDbEntity
  8
0
 62
     0
370
    -2
100
AcDbLine
 10
495.8089887329235
 20
1.657992716637621
 30
0.0
 11
534.4803128110424
 21
1.65799271663761
 31
0.0
  0
LINE
  5
76F
330
70E
100
AcDbEntity
  8
0
 62
     0
370
    -2
100
AcDbLine
 10
495.8714887329233
 20
139.6579927166376
 30
0.0
 11
534.4803128110424
 21
139.6579927166376
 31
0.0
  0
LINE
  5
770
330
70E
100
AcDbEntity
  8
0
 62
     0
370
    -2
100
AcDbLine
 10
534.3003128110423
 20
6.657992716637609
 30
0.0
 11
534.3003128110423
 21
73.51878792139624
 31
0.0
  0
LINE
  5
771
330
70E
100
AcDbEntity
  8
0
 62
     0
370
    -2
100
AcDbLine
 10
534.3003128110423
 20
134.6579927166376
 30
0.0
 11
534.3003128110423
 21
78.69878792139623
 31
0.0
  0
SOLID
  5
772
330
70E
100
AcDbEntity
  8
0
 62
     0
100
AcDbTrace
 10
533.4669794777092
 20
6.657992716637611
 30
0.0
 11
535.1336461443756
 21
6.657992716637609
 31
0.0
 12
534.3003128110423
 22
1.65799271663761
 32
0.0
 13
534.3003128110423
 23
1.65799271663761
 33
0.0
  0
SOLID
  5
773
330
70E
100
AcDbEntity
  8
0
 62
     0
100
AcDbTrace
 10
533.4669794777092
 20
134.6579927166376
 30
0.0
 11
535.1336461443756
 21
134.6579927166376
 31
0.0
 12
534.3003128110423
 22
139.6579927166376
 32
0.0
 13
534.3003128110423
 23
139.6579927166376
 33
0.0
  0
MTEXT
  5
774
330
70E
100
AcDbEntity
  8
0
 62
     0
100
AcDbMText
 10
534.3003128110423
 20
76.10878792139633
 30
0.0
 40
5.0
 41
0.0
 71
     5
 72
     1
  1
\A1;138.0
 73
     1
 44
1.0
1001
ACAD
1000
MTEXTBEGIN
1070
    73
1070
     1
1070
    44
1040
1.0
1070
    74
1070
     0
1000
MTEXTEND
  0
POINT
  5
775
330
70E
100
AcDbEntity
  8
Defpoints
 62
     0
100
AcDbPoint
 10
495.7464887329233
 20
1.657992716637621
 30
0.0
  0
POINT
  5
776
330
70E
100
AcDbEntity
  8
Defpoints
 62
     0
100
AcDbPoint
 10
495.8089887329235
 20
139.6579927166376
 30
0.0
  0
POINT
  5
777
330
70E
100
AcDbEntity
  8
Defpoints
 62
     0
100
AcDbPoint
 10
534.3003128110423
 20
139.6579927166376
 30
0.0
  0
ENDBLK
  5
710
330
70E
100
AcDbEntity
  8
0
100
AcDbBlockEnd
  0
BLOCK
  5
71C
330
71B
100
AcDbEntity
  8
0
100
AcDbBlockBegin
  2
*D14
 70
     1
 10
0.0
 20
0.0
 30
0.0
  3
*D14
  1

  0
LINE
  5
778
330
71B
100
AcDbEntity
  8
0
 62
     0
370
    -2
100
AcDbLine
 10
332.0002171386284
 20
4.095492716637834
 30
0.0
 11
332.0002171386284
 21
-12.34940279818494
 31
0.0
  0
LINE
  5
779
330
71B
100
AcDbEntity
  8
0
 62
     0
370
    -2
100
AcDbLine
 10
511.0002171386284
 20
4.095492716637834
 30
0.0
 11
511.0002171386284
 21
-12.34940279818494
 31
0.0
  0
LINE
  5
77A
330
71B
100
AcDbEntity
  8
0
 62
     0
370
    -2
100
AcDbLine
 10
337.0002171386284
 20
-12.16940279818494
 30
0.0
 11
417.3922188709004
 21
-12.16940279818494
 31
0.0
  0
LINE
  5
77B
330
71B
100
AcDbEntity
  8
0
 62
     0
370
    -2
100
AcDbLine
 10
506.0002171386284
 20
-12.16940279818494
 30
0.0
 11
435.0722188709004
 21
-12.16940279818494
 31
0.0
  0
SOLID
  5
77C
330
71B
100
AcDbEntity
  8
0
 62
     0
100
AcDbTrace
 10
337.0002171386284
 20
-11.33606946485161
 30
0.0
 11
337.0002171386284
 21
-13.00273613151827
 31
0.0
 12
332.0002171386284
 22
-12.16940279818494
 32
0.0
 13
332.0002171386284
 23
-12.16940279818494
 33
0.0
  0
SOLID
  5
77D
330
71B
100
AcDbEntity
  8
0
 62
     0
100
AcDbTrace
 10
506.0002171386284
 20
-11.33606946485161
 30
0.0
 11
506.0002171386284
 21
-13.00273613151827
 31
0.0
 12
511.0002171386284
 22
-12.16940279818494
 32
0.0
 13
511.0002171386284
 23
-12.16940279818494
 33
0.0
  0
MTEXT
  5
77E
330
71B
100
AcDbEntity
  8
0
 62
     0
100
AcDbMText
 10
426.2322188709003
 20
-12.16940279818494
 30
0.0
 40
5.0
 41
0.0
 71
     5
 72
     1
  1
\A1;179.0
 73
     1
 44
1.0
1001
ACAD
1000
MTEXTBEGIN
1070
    73
1070
     1
1070
    44
1040
1.0
1070
    74
1070
     0
1000
MTEXTEND
  0
POINT
  5
77F
330
71B
100
AcDbEntity
  8
Defpoints
 62
     0
100
AcDbPoint
 10
332.0002171386284
 20
4.157992716637834
 30
0.0
  0
POINT
  5
780
330
71B
100
AcDbEntity
  8
Defpoints
 62
     0
100
AcDbPoint
 10
511.0002171386284
 20
4.157992716637834
 30
0.0
  0
POINT
  5
781
330
71B
100
AcDbEntity
  8
Defpoints
 62
     0
100
AcDbPoint
 10
511.0002171386284
 20
-12.16940279818494
 30
0.0
  0
ENDBLK
  5
71D
330
71B
100
AcDbEntity
  8
0
100
AcDbBlockEnd
  0
BLOCK
  5
729
330
728
100
AcDbEntity
  8
0
100
AcDbBlockBegin
  2
*D15
 70
     1
 10
0.0
 20
0.0
 30
0.0
  3
*D15
  1

  0
LINE
  5
782
330
728
100
AcDbEntity
  8
0
 62
     0
370
    -2
100
AcDbLine
 10
331.9377171386284
 20
4.157992716637834
 30
0.0
 11
311.1899593908116
 21
4.157992716637839
 31
0.0
  0
LINE
  5
783
330
728
100
AcDbEntity
  8
0
 62
     0
370
    -2
100
AcDbLine
 10
332.0002171386284
 20
137.1579927166376
 30
0.0
 11
311.1899593908116
 21
137.1579927166376
 31
0.0
  0
LINE
  5
784
330
728
100
AcDbEntity
  8
0
 62
     0
370
    -2
100
AcDbLine
 10
311.3699593908116
 20
9.15799271663784
 30
0.0
 11
311.3699593908116
 21
66.03485008872616
 31
0.0
  0
LINE
  5
785
330
728
100
AcDbEntity
  8
0
 62
     0
370
    -2
100
AcDbLine
 10
311.3699593908116
 20
132.1579927166375
 30
0.0
 11
311.3699593908116
 21
71.21485008872617
 31
0.0
  0
SOLID
  5
786
330
728
100
AcDbEntity
  8
0
 62
     0
100
AcDbTrace
 10
310.5366260574783
 20
9.15799271663784
 30
0.0
 11
312.2032927241449
 21
9.15799271663784
 31
0.0
 12
311.3699593908116
 22
4.157992716637839
 32
0.0
 13
311.3699593908116
 23
4.157992716637839
 33
0.0
  0
SOLID
  5
787
330
728
100
AcDbEntity
  8
0
 62
     0
100
AcDbTrace
 10
310.5366260574783
 20
132.1579927166375
 30
0.0
 11
312.2032927241449
 21
132.1579927166375
 31
0.0
 12
311.3699593908116
 22
137.1579927166376
 32
0.0
 13
311.3699593908116
 23
137.1579927166376
 33
0.0
  0
MTEXT
  5
788
330
728
100
AcDbEntity
  8
0
 62
     0
100
AcDbMText
 10
311.3699593908116
 20
68.62485008872622
 30
0.0
 40
5.0
 41
0.0
 71
     5
 72
     1
  1
\A1;133.0
 73
     1
 44
1.0
1001
ACAD
1000
MTEXTBEGIN
1070
    73
1070
     1
1070
    44
1040
1.0
1070
    74
1070
     0
1000
MTEXTEND
  0
POINT
  5
789
330
728
100
AcDbEntity
  8
Defpoints
 62
     0
100
AcDbPoint
 10
332.0002171386284
 20
4.157992716637834
 30
0.0
  0
POINT
  5
78A
330
728
100
AcDbEntity
  8
Defpoints
 62
     0
100
AcDbPoint
 10
332.0627171386284
 20
137.1579927166376
 30
0.0
  0
POINT
  5
78B
330
728
100
AcDbEntity
  8
Defpoints
 62
     0
100
AcDbPoint
 10
311.3699593908116
 20
137.1579927166376
 30
0.0
  0
ENDBLK
  5
72A
330
728
100
AcDbEntity
  8
0
100
AcDbBlockEnd
  0
BLOCK
  5
7D9
330
7D8
100
AcDbEntity
  8
0
100
AcDbBlockBegin
  2
*D16
 70
     1
 10
0.0
 20
0.0
 30
0.0
  3
*D16
  1

  0
LINE
  5
7DA
330
7D8
100
AcDbEntity
  8
0
 62
     0
370
    -2
100
AcDbLine
 10
0.2683701315451969
 20
88.52006607475336
 30
0.0
 11
0.2683701315451982
 21
108.1067136196686
 31
0.0
  0
LINE
  5
7DB
330
7D8
100
AcDbEntity
  8
0
 62
     0
370
    -2
100
AcDbLine
 10
143.2683701315451
 20
88.52006607475336
 30
0.0
 11
143.2683701315451
 21
108.1067136196686
 31
0.0
  0
LINE
  5
7DC
330
7D8
100
AcDbEntity
  8
0
 62
     0
370
    -2
100
AcDbLine
 10
5.268370131545196
 20
107.9267136196686
 30
0.0
 11
62.0258065568462
 21
107.9267136196686
 31
0.0
  0
LINE
  5
7DD
330
7D8
100
AcDbEntity
  8
0
 62
     0
370
    -2
100
AcDbLine
 10
138.2683701315452
 20
107.9267136196686
 30
0.0
 11
78.59052688426777
 21
107.9267136196686
 31
0.0
  0
SOLID
  5
7DE
330
7D8
100
AcDbEntity
  8
0
 62
     0
100
AcDbTrace
 10
5.268370131545196
 20
108.7600469530019
 30
0.0
 11
5.268370131545196
 21
107.0933802863352
 31
0.0
 12
0.2683701315451981
 22
107.9267136196686
 32
0.0
 13
0.2683701315451981
 23
107.9267136196686
 33
0.0
  0
SOLID
  5
7DF
330
7D8
100
AcDbEntity
  8
0
 62
     0
100
AcDbTrace
 10
138.2683701315452
 20
108.7600469530019
 30
0.0
 11
138.2683701315452
 21
107.0933802863352
 31
0.0
 12
143.2683701315451
 22
107.9267136196686
 32
0.0
 13
143.2683701315451
 23
107.9267136196686
 33
0.0
  0
MTEXT
  5
7E0
330
7D8
100
AcDbEntity
  8
0
 62
     0
100
AcDbMText
 10
70.30816672055697
 20
107.9267136196686
 30
0.0
 40
5.0
 41
0.0
 71
     5
 72
     1
  1
\A1;143.0
 73
     1
 44
1.0
1001
ACAD
1000
MTEXTBEGIN
1070
    73
1070
     1
1070
    44
1040
1.0
1070
    74
1070
     0
1000
MTEXTEND
  0
POINT
  5
7E1
330
7D8
100
AcDbEntity
  8
Defpoints
 62
     0
100
AcDbPoint
 10
0.2683701315451969
 20
88.45756607475337
 30
0.0
  0
POINT
  5
7E2
330
7D8
100
AcDbEntity
  8
Defpoints
 62
     0
100
AcDbPoint
 10
143.2683701315451
 20
88.45756607475337
 30
0.0
  0
POINT
  5
7E3
330
7D8
100
AcDbEntity
  8
Defpoints
 62
     0
100
AcDbPoint
 10
143.2683701315451
 20
107.9267136196686
 30
0.0
  0
ENDBLK
  5
7E4
330
7D8
100
AcDbEntity
  8
0
100
AcDbBlockEnd
  0
BLOCK
  5
7E6
330
7E5
100
AcDbEntity
  8
0
100
AcDbBlockBegin
  2
*D17
 70
     1
 10
0.0
 20
0.0
 30
0.0
  3
*D17
  1

  0
LINE
  5
7E7
330
7E5
100
AcDbEntity
  8
0
 62
     0
370
    -2
100
AcDbLine
 10
136.5170349495452
 20
5.268370074753612
 30
0.0
 11
155.3169571831001
 21
5.268370074753605
 31
0.0
  0
LINE
  5
7E8
330
7E5
100
AcDbEntity
  8
0
 62
     0
370
    -2
100
AcDbLine
 10
136.4545349495452
 20
95.26837007475336
 30
0.0
 11
155.3169571831001
 21
95.26837007475336
 31
0.0
  0
LINE
  5
7E9
330
7E5
100
AcDbEntity
  8
0
 62
     0
370
    -2
100
AcDbLine
 10
155.1369571831001
 20
10.2683700747536
 30
0.0
 11
155.1369571831001
 21
47.48851186756698
 31
0.0
  0
LINE
  5
7EA
330
7E5
100
AcDbEntity
  8
0
 62
     0
370
    -2
100
AcDbLine
 10
155.1369571831001
 20
90.26837007475336
 30
0.0
 11
155.1369571831001
 21
52.7742417447839
 31
0.0
  0
SOLID
  5
7EB
330
7E5
100
AcDbEntity
  8
0
 62
     0
100
AcDbTrace
 10
154.3036238497667
 20
10.2683700747536
 30
0.0
 11
155.9702905164334
 21
10.2683700747536
 31
0.0
 12
155.1369571831001
 22
5.268370074753605
 32
0.0
 13
155.1369571831001
 23
5.268370074753605
 33
0.0
  0
SOLID
  5
7EC
330
7E5
100
AcDbEntity
  8
0
 62
     0
100
AcDbTrace
 10
154.3036238497668
 20
90.26837007475336
 30
0.0
 11
155.9702905164335
 21
90.26837007475336
 31
0.0
 12
155.1369571831001
 22
95.26837007475336
 32
0.0
 13
155.1369571831001
 23
95.26837007475336
 33
0.0
  0
MTEXT
  5
7ED
330
7E5
100
AcDbEntity
  8
0
 62
     0
100
AcDbMText
 10
155.1369571831001
 20
50.13137680617546
 30
0.0
 40
5.0
 41
0.0
 71
     5
 72
     1
  1
\A1;90.0
 73
     1
 44
1.0
1001
ACAD
1000
MTEXTBEGIN
1070
    73
1070
     1
1070
    44
1040
1.0
1070
    74
1070
     0
1000
MTEXTEND
  0
POINT
  5
7EE
330
7E5
100
AcDbEntity
  8
Defpoints
 62
     0
100
AcDbPoint
 10
136.4545349495452
 20
5.268370074753612
 30
0.0
  0
POINT
  5
7EF
330
7E5
100
AcDbEntity
  8
Defpoints
 62
     0
100
AcDbPoint
 10
136.3920349495452
 20
95.26837007475336
 30
0.0
  0
POINT
  5
7F0
330
7E5
100
AcDbEntity
  8
Defpoints
 62
     0
100
AcDbPoint
 10
155.1369571831001
 20
95.26837007475336
 30
0.0
  0
ENDBLK
  5
7F1
330
7E5
100
AcDbEntity
  8
0
100
AcDbBlockEnd
  0
BLOCK
  5
7F3
330
7F2
100
AcDbEntity
  8
0
100
AcDbBlockBegin
  2
*D18
 70
     1
 10
0.0
 20
0.0
 30
0.0
  3
*D18
  1

  0
LINE
  5
7F4
330
7F2
100
AcDbEntity
  8
0
 62
     0
370
    -2
100
AcDbLine
 10
1.268370131545196
 20
1.20587007475376
 30
0.0
 11
1.268370131545195
 21
-6.445764989344461
 31
0.0
  0
LINE
  5
7F5
330
7F2
100
AcDbEntity
  8
0
 62
     0
370
    -2
100
AcDbLine
 10
139.2683701315451
 20
1.205870074753518
 30
0.0
 11
139.2683701315451
 21
-6.445764989344461
 31
0.0
  0
LINE
  5
7F6
330
7F2
100
AcDbEntity
  8
0
 62
     0
370
    -2
100
AcDbLine
 10
6.268370131545195
 20
-6.265764989344461
 30
0.0
 11
63.02580655684621
 21
-6.265764989344461
 31
0.0
  0
LINE
  5
7F7
330
7F2
100
AcDbEntity
  8
0
 62
     0
370
    -2
100
AcDbLine
 10
134.2683701315452
 20
-6.265764989344461
 30
0.0
 11
79.59052688426777
 21
-6.265764989344461
 31
0.0
  0
SOLID
  5
7F8
330
7F2
100
AcDbEntity
  8
0
 62
     0
100
AcDbTrace
 10
6.268370131545195
 20
-5.432431656011128
 30
0.0
 11
6.268370131545195
 21
-7.099098322677793
 31
0.0
 12
1.268370131545195
 22
-6.265764989344461
 32
0.0
 13
1.268370131545195
 23
-6.265764989344461
 33
0.0
  0
SOLID
  5
7F9
330
7F2
100
AcDbEntity
  8
0
 62
     0
100
AcDbTrace
 10
134.2683701315452
 20
-5.432431656011128
 30
0.0
 11
134.2683701315452
 21
-7.099098322677793
 31
0.0
 12
139.2683701315451
 22
-6.265764989344461
 32
0.0
 13
139.2683701315451
 23
-6.265764989344461
 33
0.0
  0
MTEXT
  5
7FA
330
7F2
100
AcDbEntity
  8
0
 62
     0
100
AcDbMText
 10
71.30816672055698
 20
-6.265764989344461
 30
0.0
 40
5.0
 41
0.0
 71
     5
 72
     1
  1
\A1;138.0
 73
     1
 44
1.0
1001
ACAD
1000
MTEXTBEGIN
1070
    73
1070
     1
1070
    44
1040
1.0
1070
    74
1070
     0
1000
MTEXTEND
  0
POINT
  5
7FB
330
7F2
100
AcDbEntity
  8
Defpoints
 62
     0
100
AcDbPoint
 10
1.268370131545196
 20
1.26837007475376
 30
0.0
  0
POINT
  5
7FC
330
7F2
100
AcDbEntity
  8
Defpoints
 62
     0
100
AcDbPoint
 10
139.2683701315451
 20
1.268370074753518
 30
0.0
  0
POINT
  5
7FD
330
7F2
100
AcDbEntity
  8
Defpoints
 62
     0
100
AcDbPoint
 10
139.2683701315451
 20
-6.265764989344461
 30
0.0
  0
ENDBLK
  5
7FE
330
7F2
100
AcDbEntity
  8
0
100
AcDbBlockEnd
  0
BLOCK
  5
800
330
7FF
100
AcDbEntity
  8
0
100
AcDbBlockBegin
  2
*D19
 70
     1
 10
0.0
 20
0.0
 30
0.0
  3
*D19
  1

  0
LINE
  5
801
330
7FF
100
AcDbEntity
  8
0
 62
     0
370
    -2
100
AcDbLine
 10
1.205870131545196
 20
1.26837007475376
 30
0.0
 11
-9.998660980268763
 21
1.268370074753764
 31
0.0
  0
LINE
  5
802
330
7FF
100
AcDbEntity
  8
0
 62
     0
370
    -2
100
AcDbLine
 10
1.143370131545196
 20
99.26837007475352
 30
0.0
 11
-9.99866098026874
 21
99.26837007475352
 31
0.0
  0
LINE
  5
803
330
7FF
100
AcDbEntity
  8
0
 62
     0
370
    -2
100
AcDbLine
 10
-9.818660980268759
 20
6.268370074753764
 30
0.0
 11
-9.818660980268751
 21
51.48851186756715
 31
0.0
  0
LINE
  5
804
330
7FF
100
AcDbEntity
  8
0
 62
     0
370
    -2
100
AcDbLine
 10
-9.818660980268742
 20
94.26837007475352
 30
0.0
 11
-9.818660980268751
 21
56.77424174478407
 31
0.0
  0
SOLID
  5
805
330
7FF
100
AcDbEntity
  8
0
 62
     0
100
AcDbTrace
 10
-10.65199431360209
 20
6.268370074753764
 30
0.0
 11
-8.985327646935427
 21
6.268370074753764
 31
0.0
 12
-9.818660980268763
 22
1.268370074753764
 32
0.0
 13
-9.818660980268763
 23
1.268370074753764
 33
0.0
  0
SOLID
  5
806
330
7FF
100
AcDbEntity
  8
0
 62
     0
100
AcDbTrace
 10
-10.65199431360207
 20
94.26837007475352
 30
0.0
 11
-8.985327646935408
 21
94.26837007475352
 31
0.0
 12
-9.818660980268742
 22
99.26837007475352
 32
0.0
 13
-9.818660980268742
 23
99.26837007475352
 33
0.0
  0
MTEXT
  5
807
330
7FF
100
AcDbEntity
  8
0
 62
     0
100
AcDbMText
 10
-9.818660980268759
 20
54.13137680617563
 30
0.0
 40
5.0
 41
0.0
 71
     5
 72
     1
  1
\A1;98.0
 73
     1
 44
1.0
1001
ACAD
1000
MTEXTBEGIN
1070
    73
1070
     1
1070
    44
1040
1.0
1070
    74
1070
     0
1000
MTEXTEND
  0
POINT
  5
808
330
7FF
100
AcDbEntity
  8
Defpoints
 62
     0
100
AcDbPoint
 10
1.268370131545196
 20
1.26837007475376
 30
0.0
  0
POINT
  5
809
330
7FF
100
AcDbEntity
  8
Defpoints
 62
     0
100
AcDbPoint
 10
1.205870131545196
 20
99.26837007475352
 30
0.0
  0
POINT
  5
80A
330
7FF
100
AcDbEntity
  8
Defpoints
 62
     0
100
AcDbPoint
 10
-9.818660980268742
 20
99.26837007475352
 30
0.0
  0
ENDBLK
  5
80B
330
7FF
100
AcDbEntity
  8
0
100
AcDbBlockEnd
  0
BLOCK
  5
832
330
831
100
AcDbEntity
  8
0
100
AcDbBlockBegin
  2
*D21
 70
     1
 10
0.0
 20
0.0
 30
0.0
  3
*D21
  1

  0
LINE
  5
894
330
831
100
AcDbEntity
  8
0
 62
     0
370
    -2
100
AcDbLine
 10
333.70640532738
 20
108.9096887166375
 30
0.0
 11
333.70640532738
 21
128.4963362615527
 31
0.0
  0
LINE
  5
895
330
831
100
AcDbEntity
  8
0
 62
     0
370
    -2
100
AcDbLine
 10
476.70640532738
 20
108.9096887166375
 30
0.0
 11
476.70640532738
 21
128.4963362615527
 31
0.0
  0
LINE
  5
896
330
831
100
AcDbEntity
  8
0
 62
     0
370
    -2
100
AcDbLine
 10
338.70640532738
 20
128.3163362615527
 30
0.0
 11
394.9062019163918
 21
128.3163362615527
 31
0.0
  0
LINE
  5
897
330
831
100
AcDbEntity
  8
0
 62
     0
370
    -2
100
AcDbLine
 10
471.70640532738
 20
128.3163362615527
 30
0.0
 11
412.5862019163917
 21
128.3163362615527
 31
0.0
  0
SOLID
  5
898
330
831
100
AcDbEntity
  8
0
 62
     0
100
AcDbTrace
 10
338.70640532738
 20
129.149669594886
 30
0.0
 11
338.70640532738
 21
127.4830029282193
 31
0.0
 12
333.70640532738
 22
128.3163362615527
 32
0.0
 13
333.70640532738
 23
128.3163362615527
 33
0.0
  0
SOLID
  5
899
330
831
100
AcDbEntity
  8
0
 62
     0
100
AcDbTrace
 10
471.70640532738
 20
129.149669594886
 30
0.0
 11
471.70640532738
 21
127.4830029282193
 31
0.0
 12
476.70640532738
 22
128.3163362615527
 32
0.0
 13
476.70640532738
 23
128.3163362615527
 33
0.0
  0
MTEXT
  5
89A
330
831
100
AcDbEntity
  8
0
 62
     0
100
AcDbMText
 10
403.7462019163918
 20
128.3163362615527
 30
0.0
 40
5.0
 41
0.0
 71
     5
 72
     1
  1
\A1;143.0
 73
     1
 44
1.0
1001
ACAD
1000
MTEXTBEGIN
1070
    73
1070
     1
1070
    44
1040
1.0
1070
    74
1070
     0
1000
MTEXTEND
  0
POINT
  5
89B
330
831
100
AcDbEntity
  8
Defpoints
 62
     0
100
AcDbPoint
 10
333.70640532738
 20
108.8471887166375
 30
0.0
  0
POINT
  5
89C
330
831
100
AcDbEntity
  8
Defpoints
 62
     0
100
AcDbPoint
 10
476.70640532738
 20
108.8471887166375
 30
0.0
  0
POINT
  5
89D
330
831
100
AcDbEntity
  8
Defpoints
 62
     0
100
AcDbPoint
 10
476.70640532738
 20
128.3163362615527
 30
0.0
  0
ENDBLK
  5
833
330
831
100
AcDbEntity
  8
0
100
AcDbBlockEnd
  0
BLOCK
  5
83F
330
83E
100
AcDbEntity
  8
0
100
AcDbBlockBegin
  2
*D22
 70
     1
 10
0.0
 20
0.0
 30
0.0
  3
*D22
  1

  0
LINE
  5
89E
330
83E
100
AcDbEntity
  8
0
 62
     0
370
    -2
100
AcDbLine
 10
469.95507014538
 20
25.65799271663772
 30
0.0
 11
488.7549923789348
 21
25.65799271663771
 31
0.0
  0
LINE
  5
89F
330
83E
100
AcDbEntity
  8
0
 62
     0
370
    -2
100
AcDbLine
 10
469.8925701453799
 20
115.6579927166374
 30
0.0
 11
488.7549923789348
 21
115.6579927166374
 31
0.0
  0
LINE
  5
8A0
330
83E
100
AcDbEntity
  8
0
 62
     0
370
    -2
100
AcDbLine
 10
488.5749923789348
 20
30.65799271663771
 30
0.0
 11
488.5749923789348
 21
67.93099944805948
 31
0.0
  0
LINE
  5
8A1
330
83E
100
AcDbEntity
  8
0
 62
     0
370
    -2
100
AcDbLine
 10
488.5749923789348
 20
110.6579927166374
 30
0.0
 11
488.5749923789348
 21
73.11099944805949
 31
0.0
  0
SOLID
  5
8A2
330
83E
100
AcDbEntity
  8
0
 62
     0
100
AcDbTrace
 10
487.7416590456015
 20
30.65799271663771
 30
0.0
 11
489.4083257122682
 21
30.65799271663771
 31
0.0
 12
488.5749923789348
 22
25.65799271663771
 32
0.0
 13
488.5749923789348
 23
25.65799271663771
 33
0.0
  0
SOLID
  5
8A3
330
83E
100
AcDbEntity
  8
0
 62
     0
100
AcDbTrace
 10
487.7416590456015
 20
110.6579927166374
 30
0.0
 11
489.4083257122682
 21
110.6579927166374
 31
0.0
 12
488.5749923789348
 22
115.6579927166374
 32
0.0
 13
488.5749923789348
 23
115.6579927166374
 33
0.0
  0
MTEXT
  5
8A4
330
83E
100
AcDbEntity
  8
0
 62
     0
100
AcDbMText
 10
488.5749923789348
 20
70.52099944805957
 30
0.0
 40
5.0
 41
0.0
 71
     5
 72
     1
  1
\A1;90.0
 73
     1
 44
1.0
1001
ACAD
1000
MTEXTBEGIN
1070
    73
1070
     1
1070
    44
1040
1.0
1070
    74
1070
     0
1000
MTEXTEND
  0
POINT
  5
8A5
330
83E
100
AcDbEntity
  8
Defpoints
 62
     0
100
AcDbPoint
 10
469.8925701453799
 20
25.65799271663772
 30
0.0
  0
POINT
  5
8A6
330
83E
100
AcDbEntity
  8
Defpoints
 62
     0
100
AcDbPoint
 10
469.8300701453799
 20
115.6579927166374
 30
0.0
  0
POINT
  5
8A7
330
83E
100
AcDbEntity
  8
Defpoints
 62
     0
100
AcDbPoint
 10
488.5749923789348
 20
115.6579927166374
 30
0.0
  0
ENDBLK
  5
840
330
83E
100
AcDbEntity
  8
0
100
AcDbBlockEnd
  0
BLOCK
  5
84C
330
84B
100
AcDbEntity
  8
0
100
AcDbBlockBegin
  2
*D23
 70
     1
 10
0.0
 20
0.0
 30
0.0
  3
*D23
  1

  0
LINE
  5
8A8
330
84B
100
AcDbEntity
  8
0
 62
     0
370
    -2
100
AcDbLine
 10
334.70640532738
 20
21.59549271663786
 30
0.0
 11
334.70640532738
 21
13.94385765253964
 31
0.0
  0
LINE
  5
8A9
330
84B
100
AcDbEntity
  8
0
 62
     0
370
    -2
100
AcDbLine
 10
472.7064053273799
 20
21.59549271663762
 30
0.0
 11
472.7064053273799
 21
13.94385765253964
 31
0.0
  0
LINE
  5
8AA
330
84B
100
AcDbEntity
  8
0
 62
     0
370
    -2
100
AcDbLine
 10
339.70640532738
 20
14.12385765253964
 30
0.0
 11
395.9062019163918
 21
14.12385765253964
 31
0.0
  0
LINE
  5
8AB
330
84B
100
AcDbEntity
  8
0
 62
     0
370
    -2
100
AcDbLine
 10
467.7064053273799
 20
14.12385765253964
 30
0.0
 11
413.5862019163917
 21
14.12385765253964
 31
0.0
  0
SOLID
  5
8AC
330
84B
100
AcDbEntity
  8
0
 62
     0
100
AcDbTrace
 10
339.70640532738
 20
14.95719098587297
 30
0.0
 11
339.70640532738
 21
13.2905243192063
 31
0.0
 12
334.70640532738
 22
14.12385765253964
 32
0.0
 13
334.70640532738
 23
14.12385765253964
 33
0.0
  0
SOLID
  5
8AD
330
84B
100
AcDbEntity
  8
0
 62
     0
100
AcDbTrace
 10
467.7064053273799
 20
14.95719098587297
 30
0.0
 11
467.7064053273799
 21
13.2905243192063
 31
0.0
 12
472.7064053273799
 22
14.12385765253964
 32
0.0
 13
472.7064053273799
 23
14.12385765253964
 33
0.0
  0
MTEXT
  5
8AE
330
84B
100
AcDbEntity
  8
0
 62
     0
100
AcDbMText
 10
404.7462019163917
 20
14.12385765253964
 30
0.0
 40
5.0
 41
0.0
 71
     5
 72
     1
  1
\A1;138.0
 73
     1
 44
1.0
1001
ACAD
1000
MTEXTBEGIN
1070
    73
1070
     1
1070
    44
1040
1.0
1070
    74
1070
     0
1000
MTEXTEND
  0
POINT
  5
8AF
330
84B
100
AcDbEntity
  8
Defpoints
 62
     0
100
AcDbPoint
 10
334.70640532738
 20
21.65799271663786
 30
0.0
  0
POINT
  5
8B0
330
84B
100
AcDbEntity
  8
Defpoints
 62
     0
100
AcDbPoint
 10
472.7064053273799
 20
21.65799271663762
 30
0.0
  0
POINT
  5
8B1
330
84B
100
AcDbEntity
  8
Defpoints
 62
     0
100
AcDbPoint
 10
472.7064053273799
 20
14.12385765253964
 30
0.0
  0
ENDBLK
  5
84D
330
84B
100
AcDbEntity
  8
0
100
AcDbBlockEnd
  0
BLOCK
  5
859
330
858
100
AcDbEntity
  8
0
100
AcDbBlockBegin
  2
*D24
 70
     1
 10
0.0
 20
0.0
 30
0.0
  3
*D24
  1

  0
LINE
  5
8B2
330
858
100
AcDbEntity
  8
0
 62
     0
370
    -2
100
AcDbLine
 10
334.64390532738
 20
21.65799271663786
 30
0.0
 11
323.439374215566
 21
21.65799271663787
 31
0.0
  0
LINE
  5
8B3
330
858
100
AcDbEntity
  8
0
 62
     0
370
    -2
100
AcDbLine
 10
334.58140532738
 20
119.6579927166376
 30
0.0
 11
323.439374215566
 21
119.6579927166376
 31
0.0
  0
LINE
  5
8B4
330
858
100
AcDbEntity
  8
0
 62
     0
370
    -2
100
AcDbLine
 10
323.6193742155661
 20
26.65799271663787
 30
0.0
 11
323.6193742155661
 21
71.93099944805968
 31
0.0
  0
LINE
  5
8B5
330
858
100
AcDbEntity
  8
0
 62
     0
370
    -2
100
AcDbLine
 10
323.6193742155661
 20
114.6579927166376
 30
0.0
 11
323.6193742155661
 21
77.11099944805969
 31
0.0
  0
SOLID
  5
8B6
330
858
100
AcDbEntity
  8
0
 62
     0
100
AcDbTrace
 10
322.7860408822327
 20
26.65799271663787
 30
0.0
 11
324.4527075488993
 21
26.65799271663787
 31
0.0
 12
323.6193742155661
 22
21.65799271663787
 32
0.0
 13
323.6193742155661
 23
21.65799271663787
 33
0.0
  0
SOLID
  5
8B7
330
858
100
AcDbEntity
  8
0
 62
     0
100
AcDbTrace
 10
322.7860408822327
 20
114.6579927166376
 30
0.0
 11
324.4527075488993
 21
114.6579927166376
 31
0.0
 12
323.6193742155661
 22
119.6579927166376
 32
0.0
 13
323.6193742155661
 23
119.6579927166376
 33
0.0
  0
MTEXT
  5
8B8
330
858
100
AcDbEntity
  8
0
 62
     0
100
AcDbMText
 10
323.6193742155661
 20
74.52099944805974
 30
0.0
 40
5.0
 41
0.0
 71
     5
 72
     1
  1
\A1;98.0
 73
     1
 44
1.0
1001
ACAD
1000
MTEXTBEGIN
1070
    73
1070
     1
1070
    44
1040
1.0
1070
    74
1070
     0
1000
MTEXTEND
  0
POINT
  5
8B9
330
858
100
AcDbEntity
  8
Defpoints
 62
     0
100
AcDbPoint
 10
334.70640532738
 20
21.65799271663786
 30
0.0
  0
POINT
  5
8BA
330
858
100
AcDbEntity
  8
Defpoints
 62
     0
100
AcDbPoint
 10
334.64390532738
 20
119.6579927166376
 30
0.0
  0
POINT
  5
8BB
330
858
100
AcDbEntity
  8
Defpoints
 62
     0
100
AcDbPoint
 10
323.6193742155661
 20
119.6579927166376
 30
0.0
  0
ENDBLK
  5
85A
330
858
100
AcDbEntity
  8
0
100
AcDbBlockEnd
  0
ENDSEC
  0
SECTION
  2
ENTITIES
  0
CIRCLE
  5
1CD
330
1F
100
AcDbEntity
  8
0
 62
     7
100
AcDbCircle
 10
124.4549628696977
 20
56.62209751663766
 30
0.0
 40
1.950157717199999
  0
LINE
  5
1CE
330
1F
100
AcDbEntity
  8
0
 62
     7
100
AcDbLine
 10
20.36449744536728
 20
122.1966681166376
 30
0.0
 11
20.36449744536728
 21
19.11931731663766
 31
0.0
  0
LINE
  5
1CF
330
1F
100
AcDbEntity
  8
0
 62
     7
100
AcDbLine
 10
175.3589370453672
 20
122.1966681166376
 30
0.0
 11
175.3589370453672
 21
19.11931731663766
 31
0.0
  0
LINE
  5
1D0
330
1F
100
AcDbEntity
  8
0
 62
     7
100
AcDbLine
 10
26.32304184536728
 20
128.1579927166376
 30
0.0
 11
169.3948322453671
 21
128.1579927166376
 31
0.0
  0
LINE
  5
1D1
330
1F
100
AcDbEntity
  8
0
 62
     7
100
AcDbLine
 10
26.32582204536723
 20
13.15799271663773
 30
0.0
 11
169.3976124453671
 21
13.15799271663773
 31
0.0
  0
LINE
  5
1D2
330
1F
100
AcDbEntity
  8
0
 62
     7
100
AcDbLine
 10
26.32304184536728
 20
125.1773304166368
 30
0.0
 11
169.3948322453671
 21
125.1773304166368
 31
0.0
  0
LINE
  5
1D3
330
1F
100
AcDbEntity
  8
0
 62
     7
100
AcDbLine
 10
172.3782747453671
 20
122.1966681166376
 30
0.0
 11
172.3782747453671
 21
19.11931731663766
 31
0.0
  0
LINE
  5
1D4
330
1F
100
AcDbEntity
  8
0
 62
     7
100
AcDbLine
 10
23.34515974536728
 20
122.1966681166376
 30
0.0
 11
23.34515974536728
 21
19.11931731663766
 31
0.0
  0
LINE
  5
1D5
330
1F
100
AcDbEntity
  8
0
 62
     7
100
AcDbLine
 10
26.32582204536723
 20
16.13865501663757
 30
0.0
 11
169.3976124453671
 21
16.13865501663757
 31
0.0
  0
ARC
  5
1D6
330
1F
100
AcDbEntity
  8
0
 62
     7
100
AcDbCircle
 10
26.32582204536723
 20
122.1966681166376
 30
0.0
 40
2.9806623
100
AcDbArc
 50
90.0
 51
180.0
  0
ARC
  5
1D7
330
1F
100
AcDbEntity
  8
0
 62
     7
100
AcDbCircle
 10
26.32582204536723
 20
122.1966681166376
 30
0.0
 40
5.9613246
100
AcDbArc
 50
90.0
 51
180.0
  0
ARC
  5
1D8
330
1F
100
AcDbEntity
  8
0
 62
     7
100
AcDbCircle
 10
169.3976124453671
 20
19.11931731663766
 30
0.0
 40
5.9613246
100
AcDbArc
 50
270.0
 51
0.0
  0
ARC
  5
1D9
330
1F
100
AcDbEntity
  8
0
 62
     7
100
AcDbCircle
 10
26.32582204536723
 20
19.11931731663766
 30
0.0
 40
5.9613246
100
AcDbArc
 50
180.0
 51
270.0
  0
ARC
  5
1DA
330
1F
100
AcDbEntity
  8
0
 62
     7
100
AcDbCircle
 10
26.32582204536723
 20
19.11931731663766
 30
0.0
 40
2.9806623
100
AcDbArc
 50
180.0
 51
270.0
  0
ARC
  5
1DB
330
1F
100
AcDbEntity
  8
0
 62
     7
100
AcDbCircle
 10
169.3976124453671
 20
19.11931731663766
 30
0.0
 40
2.9806623
100
AcDbArc
 50
270.0
 51
0.0
  0
LINE
  5
1DC
330
1F
100
AcDbEntity
  8
0
 62
     7
100
AcDbLine
 10
26.18968566056723
 20
118.8918639370367
 30
0.0
 11
26.18968566056723
 21
117.4122579322377
 31
0.0
  0
LINE
  5
1DD
330
1F
100
AcDbEntity
  8
0
 62
     7
100
AcDbLine
 10
31.52819591456719
 20
118.8918639370367
 30
0.0
 11
31.52819591456719
 21
117.4122579322377
 31
0.0
  0
LINE
  5
1DE
330
1F
100
AcDbEntity
  8
0
 62
     7
100
AcDbLine
 10
29.59874004776729
 20
118.8918639370367
 30
0.0
 11
31.52819591456719
 21
118.8918639370367
 31
0.0
  0
LINE
  5
1DF
330
1F
100
AcDbEntity
  8
0
 62
     7
100
AcDbLine
 10
28.11914152736731
 20
117.4122579322377
 30
0.0
 11
28.11914152736731
 21
113.7753409870375
 31
0.0
  0
LINE
  5
1E0
330
1F
100
AcDbEntity
  8
0
 62
     7
100
AcDbLine
 10
28.11914152736731
 20
117.4122579322377
 30
0.0
 11
26.18968566056723
 21
117.4122579322377
 31
0.0
  0
LINE
  5
1E1
330
1F
100
AcDbEntity
  8
0
 62
     7
100
AcDbLine
 10
29.59242321416733
 20
117.4185747658368
 30
0.0
 11
29.56086898376728
 21
113.7691139662369
 31
0.0
  0
LINE
  5
1E2
330
1F
100
AcDbEntity
  8
0
 62
     7
100
AcDbLine
 10
29.63655123656728
 20
122.5222170634375
 30
0.0
 11
29.6051616629674
 21
118.8918639370367
 31
0.0
  0
LINE
  5
1E3
330
1F
100
AcDbEntity
  8
0
 62
     7
100
AcDbLine
 10
31.52819591456719
 20
117.4122579322377
 30
0.0
 11
29.59237082336724
 21
117.4122579322377
 31
0.0
  0
LINE
  5
1E4
330
1F
100
AcDbEntity
  8
0
 62
     7
100
AcDbLine
 10
28.11914152736731
 20
122.5287808822375
 30
0.0
 11
28.11914152736731
 21
118.8918639370367
 31
0.0
  0
LINE
  5
1E5
330
1F
100
AcDbEntity
  8
0
 62
     7
100
AcDbLine
 10
26.18968566056723
 20
118.8918639370367
 30
0.0
 11
28.11914152736731
 21
118.8918639370367
 31
0.0
  0
CIRCLE
  5
1E6
330
1F
100
AcDbEntity
  8
0
 62
     7
100
AcDbCircle
 10
28.8589370453673
 20
118.1520609346375
 30
0.0
 40
4.438803045600001
  0
CIRCLE
  5
1E7
330
1F
100
AcDbEntity
  8
0
 62
     7
100
AcDbCircle
 10
28.8589370453673
 20
23.16392449863768
 30
0.0
 40
4.438803045600001
  0
LINE
  5
1E8
330
1F
100
AcDbEntity
  8
0
 62
     7
100
AcDbLine
 10
26.18968566056723
 20
22.42412149623774
 30
0.0
 11
28.11914152736731
 21
22.42412149623774
 31
0.0
  0
LINE
  5
1E9
330
1F
100
AcDbEntity
  8
0
 62
     7
100
AcDbLine
 10
28.11914152736731
 20
18.78720455103765
 30
0.0
 11
28.11914152736731
 21
22.42412149623774
 31
0.0
  0
LINE
  5
1EA
330
1F
100
AcDbEntity
  8
0
 62
     7
100
AcDbLine
 10
31.52819591456719
 20
23.90372750103707
 30
0.0
 11
29.59237082336724
 21
23.90372750103707
 31
0.0
  0
LINE
  5
1EB
330
1F
100
AcDbEntity
  8
0
 62
     7
100
AcDbLine
 10
29.63655123656728
 20
18.79376836983766
 30
0.0
 11
29.6051616629674
 21
22.42412149623774
 31
0.0
  0
LINE
  5
1EC
330
1F
100
AcDbEntity
  8
0
 62
     7
100
AcDbLine
 10
29.59242321416733
 20
23.89741066743775
 30
0.0
 11
29.56086898376728
 21
27.54687895143768
 31
0.0
  0
LINE
  5
1ED
330
1F
100
AcDbEntity
  8
0
 62
     7
100
AcDbLine
 10
28.11914152736731
 20
23.90372750103707
 30
0.0
 11
26.18968566056723
 21
23.90372750103707
 31
0.0
  0
LINE
  5
1EE
330
1F
100
AcDbEntity
  8
0
 62
     7
100
AcDbLine
 10
28.11914152736731
 20
23.90372750103707
 30
0.0
 11
28.11914152736731
 21
27.54064444623759
 31
0.0
  0
LINE
  5
1EF
330
1F
100
AcDbEntity
  8
0
 62
     7
100
AcDbLine
 10
29.59874004776729
 20
22.42412149623774
 30
0.0
 11
31.52819591456719
 21
22.42412149623774
 31
0.0
  0
LINE
  5
1F0
330
1F
100
AcDbEntity
  8
0
 62
     7
100
AcDbLine
 10
31.52819591456719
 20
22.42412149623774
 30
0.0
 11
31.52819591456719
 21
23.90372750103707
 31
0.0
  0
LINE
  5
1F1
330
1F
100
AcDbEntity
  8
0
 62
     7
100
AcDbLine
 10
26.18968566056723
 20
22.42412149623774
 30
0.0
 11
26.18968566056723
 21
23.90372750103707
 31
0.0
  0
LINE
  5
1F2
330
1F
100
AcDbEntity
  8
0
 62
     7
100
AcDbLine
 10
168.2336984325671
 20
22.42412149623774
 30
0.0
 11
168.2336984325671
 21
23.90372750103707
 31
0.0
  0
LINE
  5
1F3
330
1F
100
AcDbEntity
  8
0
 62
     7
100
AcDbLine
 10
162.8951881785671
 20
22.42412149623774
 30
0.0
 11
162.8951881785671
 21
23.90372750103707
 31
0.0
  0
LINE
  5
1F4
330
1F
100
AcDbEntity
  8
0
 62
     7
100
AcDbLine
 10
164.8246440453672
 20
22.42412149623774
 30
0.0
 11
162.8951881785671
 21
22.42412149623774
 31
0.0
  0
LINE
  5
1F5
330
1F
100
AcDbEntity
  8
0
 62
     7
100
AcDbLine
 10
166.3042425657673
 20
23.90372750103707
 30
0.0
 11
166.3042425657673
 21
27.54064444623759
 31
0.0
  0
LINE
  5
1F6
330
1F
100
AcDbEntity
  8
0
 62
     7
100
AcDbLine
 10
166.3042425657673
 20
23.90372750103707
 30
0.0
 11
168.2336984325671
 21
23.90372750103707
 31
0.0
  0
LINE
  5
1F7
330
1F
100
AcDbEntity
  8
0
 62
     7
100
AcDbLine
 10
164.8309608789671
 20
23.89741066743775
 30
0.0
 11
164.8625151093675
 21
27.54687895143768
 31
0.0
  0
LINE
  5
1F8
330
1F
100
AcDbEntity
  8
0
 62
     7
100
AcDbLine
 10
164.7868253721674
 20
18.79376836983766
 30
0.0
 11
164.8182224301671
 21
22.42412149623774
 31
0.0
  0
LINE
  5
1F9
330
1F
100
AcDbEntity
  8
0
 62
     7
100
AcDbLine
 10
162.8951881785671
 20
23.90372750103707
 30
0.0
 11
164.8310132697671
 21
23.90372750103707
 31
0.0
  0
LINE
  5
1FA
330
1F
100
AcDbEntity
  8
0
 62
     7
100
AcDbLine
 10
166.3042425657673
 20
18.78720455103765
 30
0.0
 11
166.3042425657673
 21
22.42412149623774
 31
0.0
  0
LINE
  5
1FB
330
1F
100
AcDbEntity
  8
0
 62
     7
100
AcDbLine
 10
168.2336984325671
 20
22.42412149623774
 30
0.0
 11
166.3042425657673
 21
22.42412149623774
 31
0.0
  0
CIRCLE
  5
1FC
330
1F
100
AcDbEntity
  8
0
 62
     7
100
AcDbCircle
 10
165.5644470477673
 20
23.16392449863768
 30
0.0
 40
4.438803045600001
  0
ARC
  5
1FD
330
1F
100
AcDbEntity
  8
0
 62
     7
100
AcDbCircle
 10
141.0313072080978
 20
56.62209751663766
 30
0.0
 40
21.8838467232
100
AcDbArc
 50
253.3898740000014
 51
286.6101259999989
  0
ARC
  5
1FE
330
1F
100
AcDbEntity
  8
0
 62
     7
100
AcDbCircle
 10
284.7053148852978
 20
56.25945588343757
 30
0.0
 40
151.3393505315999
100
AcDbArc
 50
171.8844229999992
 51
187.8263409999997
  0
ARC
  5
1FF
330
1F
100
AcDbEntity
  8
0
 62
     7
100
AcDbCircle
 10
-2.642707953502025
 20
56.25945588343757
 30
0.0
 40
151.3393505315999
100
AcDbArc
 50
352.1736590000003
 51
8.11557699999995
  0
ARC
  5
200
330
1F
100
AcDbEntity
  8
0
 62
     7
100
AcDbCircle
 10
141.0313072080978
 20
56.62209751663766
 30
0.0
 40
20.0954493432
100
AcDbArc
 50
256.6480710000011
 51
283.3519289999989
  0
ARC
  5
201
330
1F
100
AcDbEntity
  8
0
 62
     7
100
AcDbCircle
 10
284.7053148852978
 20
56.25945588343757
 30
0.0
 40
149.5509531516
100
AcDbArc
 50
172.3385319999998
 51
187.3722309999999
  0
ARC
  5
202
330
1F
100
AcDbEntity
  8
0
 62
     7
100
AcDbCircle
 10
-2.642707953502025
 20
56.25945588343757
 30
0.0
 40
149.5509531516
100
AcDbArc
 50
352.6277690000003
 51
7.661468000000128
  0
ARC
  5
203
330
1F
100
AcDbEntity
  8
0
 62
     7
100
AcDbCircle
 10
141.0313072080978
 20
56.62209751663766
 30
0.0
 40
20.0954493432
100
AcDbArc
 50
76.93730799999876
 51
103.0626920000012
  0
ARC
  5
204
330
1F
100
AcDbEntity
  8
0
 62
     7
100
AcDbCircle
 10
141.0313072080978
 20
56.62209751663766
 30
0.0
 40
21.8838467232
100
AcDbArc
 50
73.67910999999951
 51
106.3208900000005
  0
LINE
  5
205
330
1F
100
AcDbEntity
  8
0
 62
     7
100
AcDbLine
 10
135.4256936868979
 20
77.77581856663767
 30
0.0
 11
136.6941423144978
 21
81.10541856343767
 31
0.0
  0
LINE
  5
206
330
1F
100
AcDbEntity
  8
0
 62
     7
100
AcDbLine
 10
146.6369207292979
 20
77.77581856663767
 30
0.0
 11
145.3684646172978
 21
81.10541856343767
 31
0.0
  0
LINE
  5
207
330
1F
100
AcDbEntity
  8
0
 62
     7
100
AcDbLine
 10
146.6369207292979
 20
35.46837646663686
 30
0.0
 11
145.3684646172978
 21
32.13878395423755
 31
0.0
  0
LINE
  5
208
330
1F
100
AcDbEntity
  8
0
 62
     7
100
AcDbLine
 10
135.4256936868979
 20
35.46837646663686
 30
0.0
 11
136.6941423144978
 21
32.13878395423755
 31
0.0
  0
CIRCLE
  5
209
330
1F
100
AcDbEntity
  8
0
 62
     7
100
AcDbCircle
 10
166.8589370453672
 20
118.1520609346375
 30
0.0
 40
4.438803045600001
  0
LINE
  5
20A
330
1F
100
AcDbEntity
  8
0
 62
     7
100
AcDbLine
 10
167.5987325633672
 20
117.4122579322377
 30
0.0
 11
167.5987325633672
 21
113.7753409870375
 31
0.0
  0
LINE
  5
20B
330
1F
100
AcDbEntity
  8
0
 62
     7
100
AcDbLine
 10
166.1254508765671
 20
117.4185747658368
 30
0.0
 11
166.1570051069672
 21
113.7691139662369
 31
0.0
  0
LINE
  5
20C
330
1F
100
AcDbEntity
  8
0
 62
     7
100
AcDbLine
 10
164.1896781761672
 20
117.4122579322377
 30
0.0
 11
166.1255032673672
 21
117.4122579322377
 31
0.0
  0
LINE
  5
20D
330
1F
100
AcDbEntity
  8
0
 62
     7
100
AcDbLine
 10
166.1191340429672
 20
118.8918639370367
 30
0.0
 11
164.1896781761672
 21
118.8918639370367
 31
0.0
  0
LINE
  5
20E
330
1F
100
AcDbEntity
  8
0
 62
     7
100
AcDbLine
 10
169.5281884301671
 20
118.8918639370367
 30
0.0
 11
167.5987325633672
 21
118.8918639370367
 31
0.0
  0
LINE
  5
20F
330
1F
100
AcDbEntity
  8
0
 62
     7
100
AcDbLine
 10
167.5987325633672
 20
117.4122579322377
 30
0.0
 11
169.5281884301671
 21
117.4122579322377
 31
0.0
  0
LINE
  5
210
330
1F
100
AcDbEntity
  8
0
 62
     7
100
AcDbLine
 10
169.5281884301671
 20
118.8918639370367
 30
0.0
 11
169.5281884301671
 21
117.4122579322377
 31
0.0
  0
LINE
  5
211
330
1F
100
AcDbEntity
  8
0
 62
     7
100
AcDbLine
 10
167.5987325633672
 20
122.5287808822375
 30
0.0
 11
167.5987325633672
 21
118.8918639370367
 31
0.0
  0
LINE
  5
212
330
1F
100
AcDbEntity
  8
0
 62
     7
100
AcDbLine
 10
166.0813228541671
 20
122.5222170634375
 30
0.0
 11
166.1127124277671
 21
118.8918639370367
 31
0.0
  0
LINE
  5
213
330
1F
100
AcDbEntity
  8
0
 62
     7
100
AcDbLine
 10
164.1896781761672
 20
118.8918639370367
 30
0.0
 11
164.1896781761672
 21
117.4122579322377
 31
0.0
  0
ARC
  5
214
330
1F
100
AcDbEntity
  8
0
 62
     7
100
AcDbCircle
 10
169.3920520453671
 20
122.1966681166376
 30
0.0
 40
2.9806623
100
AcDbArc
 50
0.0
 51
90.0
  0
ARC
  5
215
330
1F
100
AcDbEntity
  8
0
 62
     7
100
AcDbCircle
 10
169.3920520453671
 20
122.1966681166376
 30
0.0
 40
5.9613246
100
AcDbArc
 50
0.0
 51
90.0
  0
CIRCLE
  5
216
330
1F
100
AcDbEntity
  8
0
 62
     7
100
AcDbCircle
 10
141.0313072080978
 20
56.62209751663766
 30
0.0
 40
27.14218782659995
  0
CIRCLE
  5
217
330
1F
100
AcDbEntity
  8
0
 62
     7
100
AcDbCircle
 10
140.7037861218979
 20
56.62209751663766
 30
0.0
 40
25.19203010939992
  0
CIRCLE
  5
218
330
1F
100
AcDbEntity
  8
0
 62
     7
100
AcDbCircle
 10
124.4549628696977
 20
56.62209751663766
 30
0.0
 40
4.875390550800004
  0
CIRCLE
  5
219
330
1F
100
AcDbEntity
  8
0
 62
     7
100
AcDbCircle
 10
141.0313072080978
 20
56.62209751663766
 30
0.0
 40
2.437699017600009
  0
LINE
  5
234
330
1F
100
AcDbEntity
  8
0
 62
     7
100
AcDbLine
 10
40.96708179596177
 20
112.8846282982493
 30
0.0
 11
97.28259899596183
 21
112.8846282982493
 31
0.0
  0
LINE
  5
23A
330
1F
100
AcDbEntity
  8
0
 62
     7
100
AcDbLine
 10
119.0317961793378
 20
112.8846282982493
 30
0.0
 11
119.0317961793378
 21
92.24924283233317
 31
0.0
  0
LINE
  5
23B
330
1F
100
AcDbEntity
  8
0
 62
     7
100
AcDbLine
 10
163.030818236858
 20
112.8846282982493
 30
0.0
 11
163.0308182368579
 21
92.24924283233317
 31
0.0
  0
LINE
  5
23C
330
1F
100
AcDbEntity
  8
0
 62
     7
100
AcDbLine
 10
163.030818236858
 20
112.8846282982493
 30
0.0
 11
119.0317961793379
 21
112.8846282982493
 31
0.0
  0
LINE
  5
23D
330
1F
100
AcDbEntity
  8
0
 62
     7
100
AcDbLine
 10
163.0308182368579
 20
92.24924283233317
 30
0.0
 11
119.0317961793378
 21
92.24924283233317
 31
0.0
  0
LINE
  5
2DF
330
1F
100
AcDbEntity
  8
0
 62
     7
100
AcDbLine
 10
-86.32367701007948
 20
128.1579927166376
 30
0.0
 11
-86.32367701007948
 21
128.1579927166376
 31
0.0
  0
LINE
  5
2E0
330
1F
100
AcDbEntity
  8
0
 62
     7
100
AcDbLine
 10
-86.32367701007948
 20
128.1579927166376
 30
0.0
 11
-86.32367701007948
 21
13.15799271663773
 31
0.0
  0
LINE
  5
2E1
330
1F
100
AcDbEntity
  8
0
 62
     7
100
AcDbLine
 10
-89.30433931007938
 20
127.3317598630375
 30
0.0
 11
-89.30433931007938
 21
13.984226933302
 31
0.0
  0
LINE
  5
2E2
330
1F
100
AcDbEntity
  8
0
 62
     7
100
AcDbLine
 10
-90.1981937176794
 20
126.9284929066376
 30
0.0
 11
-105.0748995851676
 21
126.0492989779266
 31
0.0
  0
LINE
  5
2E3
330
1F
100
AcDbEntity
  8
0
 62
     7
100
AcDbLine
 10
-106.7577891014706
 20
124.2640165690375
 30
0.0
 11
-106.7577891014706
 21
104.0317823314366
 31
0.0
  0
ARC
  5
2E4
330
1F
100
AcDbEntity
  8
0
 62
     7
100
AcDbCircle
 10
-104.9693917214705
 20
124.2640165690375
 30
0.0
 40
1.788397379999999
100
AcDbArc
 50
89.99999999999348
 51
180.0
  0
LINE
  5
2E5
330
1F
100
AcDbEntity
  8
0
 62
     7
100
AcDbLine
 10
-106.7577891014706
 20
17.05196886423778
 30
0.0
 11
-106.7577891014706
 21
104.0317823314366
 31
0.0
  0
LINE
  5
2E6
330
1F
100
AcDbEntity
  8
0
 62
     7
100
AcDbLine
 10
-46.3236770100801
 20
47.68011061663719
 30
0.0
 11
-86.32367701007948
 21
47.68011061663719
 31
0.0
  0
LINE
  5
2E7
330
1F
100
AcDbEntity
  8
0
 62
     7
100
AcDbLine
 10
-46.32367701008013
 20
56.62209751663717
 30
0.0
 11
-86.32367701007948
 21
56.62209751663717
 31
0.0
  0
LINE
  5
2E8
330
1F
100
AcDbEntity
  8
0
 62
     7
100
AcDbLine
 10
-46.3236770100801
 20
65.56408441663714
 30
0.0
 11
-86.32367701007948
 21
65.56408441663714
 31
0.0
  0
LINE
  5
2E9
330
1F
100
AcDbEntity
  8
0
 62
     7
100
AcDbLine
 10
-46.3236770100801
 20
74.50607131663722
 30
0.0
 11
-58.24632621007961
 21
74.50607131663722
 31
0.0
  0
LINE
  5
2EA
330
1F
100
AcDbEntity
  8
0
 62
     7
100
AcDbLine
 10
-46.3236770100801
 20
74.50607131663722
 30
0.0
 11
-46.3236770100801
 21
47.68011061663719
 31
0.0
  0
LINE
  5
2EC
330
1F
100
AcDbEntity
  8
0
 62
     7
100
AcDbLine
 10
-58.24632621007961
 20
74.50607131663722
 30
0.0
 11
-86.32367701007948
 21
74.50607131663722
 31
0.0
  0
LINE
  5
2ED
330
1F
100
AcDbEntity
  8
0
 62
     7
100
AcDbLine
 10
-58.24632621007961
 20
74.50607131663722
 30
0.0
 11
-58.24632621007961
 21
83.44805821663724
 31
0.0
  0
LINE
  5
2EE
330
1F
100
AcDbEntity
  8
0
 62
     7
100
AcDbLine
 10
-58.24632621007961
 20
83.44805821663724
 30
0.0
 11
-86.32367701007948
 21
83.44805821663724
 31
0.0
  0
LINE
  5
2F0
330
1F
100
AcDbEntity
  8
0
 62
     7
100
AcDbLine
 10
-76.65660301807958
 20
64.12050082903815
 30
0.0
 11
-58.18187804167958
 21
64.12050082903815
 31
0.0
  0
LINE
  5
2F1
330
1F
100
AcDbEntity
  8
0
 62
     7
100
AcDbLine
 10
-58.18187804167958
 20
58.05281542063718
 30
0.0
 11
-76.65660301807958
 21
58.05281542063718
 31
0.0
  0
LINE
  5
2F2
330
1F
100
AcDbEntity
  8
0
 62
     7
100
AcDbLine
 10
-76.65660301807958
 20
64.12050082903815
 30
0.0
 11
-76.65660301807958
 21
58.05281542063718
 31
0.0
  0
LINE
  5
2F3
330
1F
100
AcDbEntity
  8
0
 62
     7
100
AcDbLine
 10
-58.18187804167958
 20
64.12050082903815
 30
0.0
 11
-58.18187804167958
 21
58.05281542063718
 31
0.0
  0
LINE
  5
2F4
330
1F
100
AcDbEntity
  8
0
 62
     7
100
AcDbLine
 10
-74.7948136116795
 20
82.0044746290373
 30
0.0
 11
-74.7948136116795
 21
75.93678922063626
 31
0.0
  0
LINE
  5
2F5
330
1F
100
AcDbEntity
  8
0
 62
     7
100
AcDbLine
 10
-74.7948136116795
 20
75.93678922063626
 30
0.0
 11
-86.32367701007948
 21
75.93678922063626
 31
0.0
  0
LINE
  5
2F6
330
1F
100
AcDbEntity
  8
0
 62
     7
100
AcDbLine
 10
-86.32367701007948
 20
82.0044746290373
 30
0.0
 11
-74.7948136116795
 21
82.0044746290373
 31
0.0
  0
LINE
  5
301
330
1F
100
AcDbEntity
  8
0
 62
     7
100
AcDbLine
 10
-86.32367701007948
 20
128.1579927166376
 30
0.0
 11
-88.11207439007938
 21
128.1579927166376
 31
0.0
  0
ARC
  5
302
330
1F
100
AcDbEntity
  8
0
 62
     7
100
AcDbCircle
 10
-88.11207439007938
 20
126.9657277966375
 30
0.0
 40
1.192264919999999
100
AcDbArc
 50
89.99999999999348
 51
151.0277979999996
  0
ARC
  5
303
330
1F
100
AcDbEntity
  8
0
 62
     7
100
AcDbCircle
 10
-90.1981937176794
 20
128.1207578266376
 30
0.0
 40
1.192264919999999
100
AcDbArc
 50
269.9999999999821
 51
331.0277979999996
  0
ARC
  5
304
330
1F
100
AcDbEntity
  8
0
 62
     7
100
AcDbCircle
 10
-90.1981937176794
 20
13.19522760663774
 30
0.0
 40
1.192264919999999
100
AcDbArc
 50
28.97220200000051
 51
89.99999999999348
  0
ARC
  5
305
330
1F
100
AcDbEntity
  8
0
 62
     7
100
AcDbCircle
 10
-88.11207439007938
 20
14.35025763663774
 30
0.0
 40
1.192264919999999
100
AcDbArc
 50
208.9722020000004
 51
269.9999999999821
  0
LINE
  5
306
330
1F
100
AcDbEntity
  8
0
 62
     7
100
AcDbLine
 10
-86.32367701007948
 20
13.15799271663773
 30
0.0
 11
-88.11207439007938
 21
13.15799271663773
 31
0.0
  0
ARC
  5
307
330
1F
100
AcDbEntity
  8
0
 62
     7
100
AcDbCircle
 10
-104.9693917214705
 20
17.05196886423778
 30
0.0
 40
1.788397379999999
100
AcDbArc
 50
180.0
 51
269.9999999999821
  0
LINE
  5
308
330
1F
100
AcDbEntity
  8
0
 62
     7
100
AcDbLine
 10
-90.1981937176794
 20
14.38749252663775
 30
0.0
 11
-104.9693917214705
 21
15.26357148423779
 31
0.0
  0
LINE
  5
309
330
1F
100
AcDbEntity
  8
0
 62
     7
100
AcDbLine
 10
-86.32367701007948
 20
13.15799271663773
 30
0.0
 11
-86.32367701007948
 21
13.15799271663773
 31
0.0
  0
DIMENSION
  5
34A
330
1F
100
AcDbEntity
  8
0
 62
     1
100
AcDbDimension
  2
*D4
 10
175.3589370453672
 20
-15.58828405907723
 30
0.0
 11
94.66936855359131
 21
-15.58828405907723
 31
0.0
 70
   160
 71
     0
 42
154.9944396
  3
Standard
100
AcDbAlignedDimension
 13
20.36449744536722
 23
19.18181731663766
 33
0.0
 14
175.3589370453672
 24
19.11931731663766
 34
0.0
100
AcDbRotatedDimension
1001
ACAD
1000
DSTYLE
1002
{
1070
    41
1040
6.0
1070
   140
1040
7.0
1070
   271
1070
     1
1002
}
  0
DIMENSION
  5
34B
330
1F
100
AcDbEntity
  8
0
 62
     1
100
AcDbDimension
  2
*D5
 10
223.5030184012375
 20
128.1579927166375
 30
0.0
 11
223.5030184012375
 21
69.29161832346132
 31
0.0
 70
   160
 71
     0
 42
114.9999999999999
  3
Standard
100
AcDbAlignedDimension
 13
169.3976124453671
 23
13.15799271663766
 33
0.0
 14
169.3948322453671
 24
128.1579927166376
 34
0.0
 50
90.0
100
AcDbRotatedDimension
1001
ACAD
1000
DSTYLE
1002
{
1070
    41
1040
6.0
1070
   140
1040
7.0
1070
   271
1070
     1
1002
}
  0
DIMENSION
  5
3B8
330
1F
100
AcDbEntity
  8
0
 62
     1
100
AcDbDimension
  2
*D6
 10
-86.32367701007948
 20
-15.38773957702125
 30
0.0
 11
-113.8090973988793
 21
-15.38773957702125
 31
0.0
 70
   160
 71
     0
 42
54.97084077759971
  3
Standard
100
AcDbAlignedDimension
 13
-141.2945177876792
 23
68.35689467988562
 33
0.0
 14
-86.32367701007948
 24
8.931500716637543
 34
0.0
100
AcDbRotatedDimension
1001
ACAD
1000
DSTYLE
1002
{
1070
    41
1040
6.0
1070
   140
1040
7.0
1070
   271
1070
     1
1002
}
  0
DIMENSION
  5
3E4
330
1F
100
AcDbEntity
  8
0
 62
     1
100
AcDbDimension
  2
*D7
 10
-46.32367701008011
 20
-15.38773957702125
 30
0.0
 11
-67.46641209932454
 21
-15.38773957702125
 31
0.0
 70
   160
 71
     0
 42
39.99999999999941
  3
Standard
100
AcDbAlignedDimension
 13
-86.32367701007948
 23
13.15799271663773
 33
0.0
 14
-46.3236770100801
 24
47.68011061663719
 34
0.0
100
AcDbRotatedDimension
1001
ACAD
1000
DSTYLE
1002
{
1070
    41
1040
6.0
1070
   140
1040
7.0
1070
   271
1070
     1
1002
}
  0
POINT
  5
502
330
1F
100
AcDbEntity
  8
0
 62
     7
370
     5
100
AcDbPoint
 10
69.12484039596178
 20
83.10246329824931
 30
0.0
  0
LINE
  5
503
330
1F
100
AcDbEntity
  8
0
 62
     7
370
    70
100
AcDbLine
 10
85.6248403959618
 20
83.73168779824943
 30
0.0
 11
85.6248403959618
 21
95.8084722982493
 31
0.0
  0
LINE
  5
504
330
1F
100
AcDbEntity
  8
0
 62
     7
370
    70
100
AcDbLine
 10
69.12124373060286
 20
27.61537062317843
 30
0.0
 11
98.70155223060296
 21
27.91233062317843
 31
0.0
  0
LINE
  5
505
330
1F
100
AcDbEntity
  8
0
 62
     7
370
    70
100
AcDbLine
 10
106.6248403959619
 20
104.8685897982493
 30
0.0
 11
106.6248403959619
 21
35.55366229824935
 31
0.0
  0
ARC
  5
506
330
1F
100
AcDbEntity
  8
0
 62
     7
370
    70
100
AcDbCircle
 10
98.62124373060286
 20
35.91192762317842
 30
0.0
 40
8.0
100
AcDbArc
 50
270.5751790000002
 51
0.0
  0
LINE
  5
507
330
1F
100
AcDbEntity
  8
0
 62
     7
370
    70
100
AcDbLine
 10
31.6248403959618
 20
104.8685897982493
 30
0.0
 11
31.6248403959618
 21
35.55366179824935
 31
0.0
  0
LINE
  5
508
330
1F
100
AcDbEntity
  8
0
 62
     7
370
    70
100
AcDbLine
 10
69.12124373060286
 20
27.61537062317843
 30
0.0
 11
39.54093473060292
 21
27.91233062317843
 31
0.0
  0
ARC
  5
509
330
1F
100
AcDbEntity
  8
0
 62
     7
370
    70
100
AcDbCircle
 10
39.62124373060291
 20
35.91192712317843
 30
0.0
 40
8.0
100
AcDbArc
 50
180.0
 51
269.4248209999998
  0
CIRCLE
  5
50A
330
1F
100
AcDbEntity
  8
0
 62
     7
370
    70
100
AcDbCircle
 10
99.12478939596182
 20
100.5595227982493
 30
0.0
 40
2.0901075
  0
CIRCLE
  5
50B
330
1F
100
AcDbEntity
  8
0
 62
     7
370
    70
100
AcDbCircle
 10
39.12489139596189
 20
100.5595227982493
 30
0.0
 40
2.0718885
  0
CIRCLE
  5
50C
330
1F
100
AcDbEntity
  8
0
 62
     7
370
    70
100
AcDbCircle
 10
39.12502939596189
 20
40.55103029824932
 30
0.0
 40
2.0681655
  0
CIRCLE
  5
50D
330
1F
100
AcDbEntity
  8
0
 62
     7
370
    70
100
AcDbCircle
 10
99.12465089596189
 20
40.55103029824932
 30
0.0
 40
2.0750345
  0
LINE
  5
50E
330
1F
100
AcDbEntity
  8
0
 62
     7
 48
0.334324
370
    70
100
AcDbLine
 10
85.6248403959618
 20
83.73168779824943
 30
0.0
 11
85.62486639596185
 21
77.04520679824941
 31
0.0
  0
LINE
  5
50F
330
1F
100
AcDbEntity
  8
0
 62
     7
 48
0.334319
370
    70
100
AcDbLine
 10
52.6248403959618
 20
83.73168779824943
 30
0.0
 11
52.6248143959618
 21
77.04530829824931
 31
0.0
  0
ARC
  5
510
330
1F
100
AcDbEntity
  8
0
 62
     7
370
    70
100
AcDbCircle
 10
69.12478039596185
 20
57.60055829824934
 30
0.0
 40
25.5019055
100
AcDbArc
 50
49.68316499999772
 51
130.3164809999982
  0
ELLIPSE
  5
511
330
1F
100
AcDbEntity
  8
0
 62
     7
370
    70
100
AcDbEllipse
 10
69.12476139596177
 20
59.48852129824931
 30
0.0
 11
25.19991874694824
 21
-0.0011966138841687
 31
0.0
210
0.0
220
0.0
230
1.0
 40
0.984811
 41
2.286072745738822
 42
3.240960417328945
  0
ELLIPSE
  5
512
330
1F
100
AcDbEntity
  8
0
 62
     7
370
    70
100
AcDbEllipse
 10
69.12484039596178
 20
59.48857829824929
 30
0.0
 11
-25.20000076293945
 21
0.0
 31
0.0
210
0.0
220
0.0
230
0.9999999999999998
 40
0.9848079999999999
 41
3.042428282708312
 42
3.997154389276201
  0
ELLIPSE
  5
513
330
1F
100
AcDbEntity
  8
0
 62
     7
370
    70
100
AcDbEllipse
 10
69.12484039596178
 20
58.32696429824934
 30
0.0
 11
-25.08323478698731
 21
0.0
 31
0.0
210
0.0
220
0.0
230
0.9999999999999998
 40
0.9848080000000001
 41
3.039935981844807
 42
3.042428282708314
  0
LINE
  5
514
330
1F
100
AcDbEntity
  8
0
 62
     7
 48
0.384586
370
    70
100
AcDbLine
 10
52.6248403959618
 20
83.73168829824932
 30
0.0
 11
52.6248403959618
 21
99.11512429824933
 31
0.0
  0
LINE
  5
515
330
1F
100
AcDbEntity
  8
0
 62
     7
 48
0.000102
370
    70
100
AcDbLine
 10
52.71439339596188
 20
85.0894352982493
 30
0.0
 11
52.7143773959618
 21
85.09352129824931
 31
0.0
  0
ELLIPSE
  5
516
330
1F
100
AcDbEntity
  8
0
 62
     7
370
    70
100
AcDbEllipse
 10
53.62500439596185
 20
99.11101229824932
 30
0.0
 11
0.0793691575527328
 21
-1.023235797882077
 31
0.0
210
0.0
220
0.0
230
0.9999999999999998
 40
0.974369
 41
3.06615800755616
 42
4.632947828720072
  0
LINE
  5
517
330
1F
100
AcDbEntity
  8
0
 62
     7
 48
0.066346
370
    70
100
AcDbLine
 10
53.6209983959619
 20
100.1371682982493
 30
0.0
 11
56.2748403959619
 21
100.1371682982493
 31
0.0
  0
LINE
  5
518
330
1F
100
AcDbEntity
  8
0
 62
     7
 48
0.000132
370
    70
100
AcDbLine
 10
56.2748403959619
 20
100.1371682982493
 30
0.0
 11
56.28013639596182
 21
100.1371682982493
 31
0.0
  0
LINE
  5
519
330
1F
100
AcDbEntity
  8
0
 62
     7
 48
0.012608
370
    70
100
AcDbLine
 10
56.28013639596182
 20
100.1371682982493
 30
0.0
 11
56.78445439596188
 21
100.1371682982493
 31
0.0
  0
LINE
  5
51A
330
1F
100
AcDbEntity
  8
0
 62
     7
370
    70
100
AcDbLine
 10
81.4662003959618
 20
100.1371682982493
 30
0.0
 11
56.78445439596188
 21
100.1371682982493
 31
0.0
  0
LINE
  5
51B
330
1F
100
AcDbEntity
  8
0
 62
     7
 48
0.002372
370
    70
100
AcDbLine
 10
53.09825539596189
 20
84.99894729824928
 30
0.0
 11
53.00357139596179
 21
85.00522129824929
 31
0.0
  0
SPLINE
  5
51C
330
1F
100
AcDbEntity
  8
0
 62
     7
370
    70
100
AcDbSpline
210
0.0
220
0.0
230
1.0
 70
  1064
 71
     3
 72
    15
 73
    11
 74
     9
 42
0.000000001
 43
0.0000000001
 44
0.0000000001
 40
0.0
 40
0.0
 40
0.0
 40
0.0
 40
0.0625976651478748
 40
0.1231805366396849
 40
0.1827531732390772
 40
0.2499379572371904
 40
0.2895607550385785
 40
0.2988191891426253
 40
0.3061441677757232
 40
0.3125641846782052
 40
0.3125641846782052
 40
0.3125641846782052
 40
0.3125641846782052
 10
53.00357112574207
 20
85.00522097686102
 30
0.0
 10
52.98277704661656
 20
85.00689935712591
 30
0.0
 10
52.94185817496924
 20
85.01020209663264
 30
0.0
 10
52.88131038644884
 20
85.017853252776
 30
0.0
 10
52.82022503398177
 20
85.02950923507238
 30
0.0
 10
52.76492923707444
 20
85.04091688839782
 30
0.0
 10
52.73260903770847
 20
85.06332268044877
 30
0.0
 10
52.71864894070289
 20
85.07579110392867
 30
0.0
 10
52.7145227562856
 20
85.0826176429488
 30
0.0
 10
52.7144346639123
 20
85.08726479441881
 30
0.0
 10
52.71439351769847
 20
85.08943538741091
 30
0.0
 11
53.00357112574207
 21
85.00522097686102
 31
0.0
 11
52.94121678902993
 21
85.01073499310642
 31
0.0
 11
52.88113583404597
 21
85.0185172271307
 31
0.0
 11
52.82253128229669
 21
85.02921327993858
 31
0.0
 11
52.75804623092497
 21
85.04806728085243
 31
0.0
 11
52.7251201219996
 21
85.07010900167101
 31
0.0
 11
52.71852538089061
 21
85.07660730850929
 31
0.0
 11
52.71503561575595
 21
85.08304756093293
 31
0.0
 11
52.71439351769847
 21
85.08943538741091
 31
0.0
  0
SPLINE
  5
51D
330
1F
100
AcDbEntity
  8
0
 62
     7
370
    70
100
AcDbSpline
210
0.0
220
0.0
230
1.0
 70
  1064
 71
     3
 72
    18
 73
    14
 74
    12
 42
0.000000001
 43
0.0000000001
 44
0.0000000001
 40
0.0
 40
0.0
 40
0.0
 40
0.0
 40
0.0240382688841572
 40
0.0478117484726832
 40
0.0654716299915336
 40
0.1624404897373119
 40
0.2538096180376952
 40
0.3211159167774523
 40
0.3727152501636658
 40
0.39916455912177
 40
0.401874010296177
 40
0.4044068392156839
 40
0.4068227071419081
 40
0.4068227071419081
 40
0.4068227071419081
 40
0.4068227071419081
 10
53.0980573194054
 20
85.00090218452703
 30
0.0
 10
53.09005159227186
 20
85.00124289643734
 30
0.0
 10
53.07412832367485
 20
85.00192056720624
 30
0.0
 10
53.05234447481015
 20
85.00324202027096
 30
0.0
 10
53.00631340867215
 20
85.00642199849668
 30
0.0
 10
52.93796187997971
 20
85.01114982593188
 30
0.0
 10
52.85286151191421
 20
85.02350016511092
 30
0.0
 10
52.78613829856893
 20
85.03882965677616
 30
0.0
 10
52.73541879194182
 20
85.05134721083827
 30
0.0
 10
52.72111773618457
 20
85.07546943136237
 30
0.0
 10
52.71584722227763
 20
85.08461303965091
 30
0.0
 10
52.71493013329487
 20
85.08701547292504
 30
0.0
 10
52.71464115721359
 20
85.08864201361605
 30
0.0
 10
52.71450008410525
 20
85.08943606255632
 30
0.0
 11
53.0980573194054
 21
85.00090218452703
 31
0.0
 11
53.07404399286873
 21
85.00199695372208
 31
0.0
 11
53.05031215914143
 21
85.00340350968802
 31
0.0
 11
53.03269283598218
 21
85.00459969808044
 31
0.0
 11
52.93604998539663
 21
85.01254445679892
 31
0.0
 11
52.84567058929977
 21
85.02595648004442
 31
0.0
 11
52.7799495311407
 21
85.04047820048304
 31
0.0
 11
52.73250542780997
 21
85.06076485286941
 31
0.0
 11
52.71717235972587
 21
85.08231625578174
 31
0.0
 11
52.71588304028099
 21
85.08469927509251
 31
0.0
 11
52.71499566928324
 21
85.08707157251228
 31
0.0
 11
52.71450008410525
 21
85.08943606255632
 31
0.0
  0
LINE
  5
51E
330
1F
100
AcDbEntity
  8
0
 62
     7
 48
0.066346
370
    70
100
AcDbLine
 10
81.97484039596188
 20
100.1371682982493
 30
0.0
 11
84.6286783959619
 21
100.1371682982493
 31
0.0
  0
LINE
  5
51F
330
1F
100
AcDbEntity
  8
0
 62
     7
 48
0.000108
370
    70
100
AcDbLine
 10
81.97053439596178
 20
100.1371682982493
 30
0.0
 11
81.97484039596188
 21
100.1371682982493
 31
0.0
  0
LINE
  5
520
330
1F
100
AcDbEntity
  8
0
 62
     7
 48
0.012608
370
    70
100
AcDbLine
 10
81.4662003959618
 20
100.1371682982493
 30
0.0
 11
81.97053439596178
 21
100.1371682982493
 31
0.0
  0
SPLINE
  5
521
330
1F
100
AcDbEntity
  8
0
 62
     7
370
    70
100
AcDbSpline
210
0.0
220
0.0
230
1.0
 70
  1064
 71
     3
 72
    21
 73
    17
 74
    15
 42
0.000000001
 43
0.0000000001
 44
0.0000000001
 40
0.0
 40
0.0
 40
0.0
 40
0.0
 40
2.044012825489032
 40
4.055319841559064
 40
6.018045603928533
 40
9.233024767372896
 40
12.37663611441205
 40
13.58826734339176
 40
17.29401543236349
 40
21.00059217033729
 40
23.50318437847727
 40
26.72120307931662
 40
30.03811203794594
 40
30.71110414190105
 40
31.38797172319367
 40
32.06851156015707
 40
32.06851156015707
 40
32.06851156015707
 40
32.06851156015707
 10
85.15335924683043
 20
85.00413274609632
 30
0.0
 10
84.47278277685084
 20
84.97191747969287
 30
0.0
 10
83.12251959455103
 20
84.90800241643212
 30
0.0
 10
81.11815082928885
 20
84.82619552513979
 30
0.0
 10
78.72318151703042
 20
84.74523400853804
 30
0.0
 10
75.95051441938676
 20
84.66436046751443
 30
0.0
 10
73.4272616179749
 20
84.63044909082343
 30
0.0
 10
70.74041769594271
 20
84.6034404648482
 30
0.0
 10
67.86573978645549
 20
84.58072912814605
 30
0.0
 10
64.56084631211232
 20
84.62076183170438
 30
0.0
 10
61.41907792296539
 20
84.68337471286526
 30
0.0
 10
58.40776895514157
 20
84.77165668698015
 30
0.0
 10
56.00726710154138
 20
84.87365313983813
 30
0.0
 10
54.4530150640165
 20
84.93812336036432
 30
0.0
 10
53.7768640709743
 20
84.96777333062388
 30
0.0
 10
53.32487156889715
 20
84.98853713331603
 30
0.0
 10
53.09826391998107
 20
84.99894712128931
 30
0.0
 11
85.15335924683043
 21
85.00413274609632
 31
0.0
 11
83.11152805711847
 21
84.90971969888823
 31
0.0
 11
81.10188558165729
 21
84.82790873559599
 31
0.0
 11
79.14031824442948
 21
84.76048470583082
 31
0.0
 11
75.92655193229315
 21
84.67218344672843
 31
0.0
 11
72.78330442625153
 21
84.62435649829442
 31
0.0
 11
71.57173609247715
 21
84.61201114961344
 31
0.0
 11
67.86603630485675
 21
84.59309071231158
 31
0.0
 11
64.15965739033278
 21
84.63138505210972
 31
0.0
 11
61.65757801180389
 21
84.68204611983869
 31
0.0
 11
58.44097932379703
 21
84.77763502748166
 31
0.0
 11
55.12671810019018
 21
84.9101400520333
 31
0.0
 11
54.45431683927918
 21
84.93833431228653
 31
0.0
 11
53.77809763862368
 21
84.96795382054953
 31
0.0
 11
53.09826391998107
 21
84.99894712128931
 31
0.0
  0
SPLINE
  5
522
330
1F
100
AcDbEntity
  8
0
 62
     7
370
    70
100
AcDbSpline
210
0.0
220
0.0
230
1.0
 70
  1064
 71
     3
 72
    15
 73
    11
 74
     9
 42
0.000000001
 43
0.0000000001
 44
0.0000000001
 40
0.0
 40
0.0
 40
0.0
 40
0.0
 40
0.0624031759240626
 40
0.122778046677811
 40
0.1821062140767906
 40
0.2489430127747751
 40
0.2883595172937038
 40
0.2975750235512842
 40
0.3048759966548963
 40
0.3112805238211699
 40
0.3112805238211699
 40
0.3112805238211699
 40
0.3112805238211699
 10
85.2479571642759
 20
85.01046789896795
 30
0.0
 10
85.26868530016123
 20
85.01215711983567
 30
0.0
 10
85.30946784043406
 20
85.01548065642621
 30
0.0
 10
85.36979538740347
 20
85.02315654966883
 30
0.0
 10
85.43060564257734
 20
85.03482911011538
 30
0.0
 10
85.48562484923511
 20
85.04626136592543
 30
0.0
 10
85.5177289832026
 20
85.06862621963584
 30
0.0
 10
85.53159030895971
 20
85.08107006263893
 30
0.0
 10
85.53568555538289
 20
85.08787910522489
 30
0.0
 10
85.53577497481494
 20
85.09251218345323
 30
0.0
 10
85.53581676016902
 20
85.0946772029558
 30
0.0
 11
85.2479571642759
 21
85.01046789896795
 31
0.0
 11
85.31011340556124
 21
85.01601389163729
 31
0.0
 11
85.36998117004579
 21
85.02382259153895
 31
0.0
 11
85.42833332650181
 21
85.03453974059331
 31
0.0
 11
85.49245539950829
 21
85.0533949100051
 31
0.0
 11
85.52516064186006
 21
85.07539554525051
 31
0.0
 11
85.53170919643381
 21
85.08187952462881
 31
0.0
 11
85.53517621125237
 21
85.08830478855394
 31
0.0
 11
85.53581676016902
 21
85.0946772029558
 31
0.0
  0
LINE
  5
523
330
1F
100
AcDbEntity
  8
0
 62
     7
 48
0.00237
370
    70
100
AcDbLine
 10
85.15336739596184
 20
85.00413229824932
 30
0.0
 11
85.24795739596189
 21
85.01046829824929
 31
0.0
  0
SPLINE
  5
524
330
1F
100
AcDbEntity
  8
0
 62
     7
370
    70
100
AcDbSpline
210
0.0
220
0.0
230
1.0
 70
  1064
 71
     3
 72
    15
 73
    11
 74
     9
 42
0.000000001
 43
0.0000000001
 44
0.0000000001
 40
0.0
 40
0.0
 40
0.0
 40
0.0
 40
0.0863799498204337
 40
0.171785437058343
 40
0.2603184382630912
 40
0.3443699354400247
 40
0.38736682028804
 40
0.3941767013472228
 40
0.3998775000390784
 40
0.404941195028705
 40
0.404941195028705
 40
0.404941195028705
 40
0.404941195028705
 10
85.15356596145696
 20
85.00609356563892
 30
0.0
 10
85.18232708891487
 20
85.00716869670581
 30
0.0
 10
85.23952488609941
 20
85.00930683015694
 30
0.0
 10
85.32622687727849
 20
85.01712909068556
 30
0.0
 10
85.41042525169652
 20
85.02996256078452
 30
0.0
 10
85.48387808658146
 20
85.04187058103033
 30
0.0
 10
85.51883505848854
 20
85.07114797444074
 30
0.0
 10
85.53188227827014
 20
85.0842555123096
 30
0.0
 10
85.53493872345464
 20
85.08941836143018
 30
0.0
 10
85.53546327850579
 20
85.09299527381172
 30
0.0
 10
85.53571003296195
 20
85.09467787903593
 30
0.0
 11
85.15356596145696
 21
85.00609356563892
 31
0.0
 11
85.23985371289381
 21
85.01008351337722
 31
0.0
 11
85.32490432996869
 21
85.01786103133131
 31
0.0
 11
85.41253987627706
 21
85.03043494581934
 31
0.0
 11
85.49344160001519
 21
85.05322892032763
 31
0.0
 11
85.52731662461079
 21
85.07970938133722
 31
0.0
 11
85.53191634512248
 21
85.08473103955484
 31
0.0
 11
85.53467157970109
 21
85.08972180985029
 31
0.0
 11
85.53571003296195
 21
85.09467787903593
 31
0.0
  0
LINE
  5
525
330
1F
100
AcDbEntity
  8
0
 62
     7
 48
0.000103
370
    70
100
AcDbLine
 10
85.53581639596194
 20
85.09467729824931
 30
0.0
 11
85.5358333959618
 21
85.0987922982493
 31
0.0
  0
ELLIPSE
  5
526
330
1F
100
AcDbEntity
  8
0
 62
     7
370
    70
100
AcDbEllipse
 10
84.62467339596187
 20
99.11101229824932
 30
0.0
 11
-0.0794053971767282
 21
-1.023235321044922
 31
0.0
210
0.0
220
0.0
230
1.0
 40
0.97437
 41
1.65027359513605
 42
3.217068570146972
  0
ELLIPSE
  5
527
330
1F
100
AcDbEntity
  8
0
 62
     7
370
    70
100
AcDbEllipse
 10
69.12484039596178
 20
57.87255029824932
 30
0.0
 11
19.65517997741699
 21
0.0
 31
0.0
210
0.0
220
0.0
230
1.0
 40
0.9848079999999999
 41
2.070796326794904
 42
8.353981633974488
  0
LINE
  5
528
330
1F
100
AcDbEntity
  8
0
 62
     7
 48
0.4633720000000002
370
    70
100
AcDbLine
 10
54.12484039596179
 20
49.59802129824935
 30
0.0
 11
54.12484039596179
 21
68.13290429824928
 31
0.0
  0
LINE
  5
529
330
1F
100
AcDbEntity
  8
0
 62
     7
 48
0.05718
370
    70
100
AcDbLine
 10
84.12484039596179
 20
68.13290429824928
 30
0.0
 11
84.12484039596179
 21
65.84571029824933
 31
0.0
  0
LINE
  5
52A
330
1F
100
AcDbEntity
  8
0
 62
     7
 48
0.459844
370
    70
100
AcDbLine
 10
84.12484039596179
 20
65.84571029824933
 30
0.0
 11
84.12484039596179
 21
47.45194129824936
 31
0.0
  0
SPLINE
  5
52B
330
1F
100
AcDbEntity
  8
0
 62
     7
370
    70
100
AcDbSpline
210
0.0
220
0.0
230
1.0
 70
  1064
 71
     3
 72
    15
 73
    11
 74
     9
 42
0.000000001
 43
0.0000000001
 44
0.0000000001
 40
0.0
 40
0.0
 40
0.0
 40
0.0
 40
0.1267557750621862
 40
0.2461576087021054
 40
0.3571745235010648
 40
0.5102454992120411
 40
0.6825583627383698
 40
0.7187308661693433
 40
0.7565866117564947
 40
0.7966840217609626
 40
0.7966840217609626
 40
0.7966840217609626
 40
0.7966840217609626
 10
84.12484039596179
 20
47.45194152514311
 30
0.0
 10
84.12870230959541
 20
47.40912382820673
 30
0.0
 10
84.13620208169332
 20
47.3259725723147
 30
0.0
 10
84.08368529962812
 20
47.21460812771389
 30
0.0
 10
84.00977520575208
 20
47.11166416368603
 30
0.0
 10
83.90295581184924
 20
47.00511343362117
 30
0.0
 10
83.78102312916439
 20
46.98021421376185
 30
0.0
 10
83.70186959464822
 20
46.95906505787712
 30
0.0
 10
83.66418677633541
 20
46.95294046584283
 30
0.0
 10
83.63820490580614
 20
46.95197905789224
 30
0.0
 10
83.62484039596191
 20
46.95148453052534
 30
0.0
 11
84.12484039596179
 21
47.45194152514311
 31
0.0
 11
84.12484039596179
 21
47.32518575008092
 31
0.0
 11
84.07962504152422
 21
47.21467615954842
 31
0.0
 11
84.01545148124105
 21
47.12408637241952
 31
0.0
 11
83.90100697889954
 21
47.0224341245894
 31
0.0
 11
83.73737890468023
 21
46.96841953152492
 31
0.0
 11
83.70225366604309
 21
46.95977848904452
 31
0.0
 11
83.66486969865567
 21
46.95382059878571
 31
0.0
 11
83.62484039596191
 21
46.95148453052534
 31
0.0
  0
ELLIPSE
  5
52C
330
1F
100
AcDbEntity
  8
0
 62
     7
370
    70
100
AcDbEllipse
 10
69.12484039596178
 20
55.94195029824932
 30
0.0
 11
-53.76615905761719
 21
0.0
 31
0.0
210
0.0
220
0.0
230
1.0
 40
0.173648
 41
1.297729019780975
 42
1.84386363380883
  0
SPLINE
  5
52D
330
1F
100
AcDbEntity
  8
0
 62
     7
370
    70
100
AcDbSpline
210
0.0
220
0.0
230
1.0
 70
  1064
 71
     3
 72
    15
 73
    11
 74
     9
 42
0.000000001
 43
0.0000000001
 44
0.0000000001
 40
0.0
 40
0.0
 40
0.0
 40
0.0
 40
0.0803842643991109
 40
0.1526112538170056
 40
0.2188945000635018
 40
0.3757244306611862
 40
0.5219542945239765
 40
0.6069426216734143
 40
0.6956274326223119
 40
0.7896673544961198
 40
0.7896673544961198
 40
0.7896673544961198
 40
0.7896673544961198
 10
54.6248403959618
 20
46.95148453052284
 30
0.0
 10
54.59791928503476
 20
46.95171809235857
 30
0.0
 10
54.546808977272
 20
46.9521615145241
 30
0.0
 10
54.47616567130818
 20
46.97338645918306
 30
0.0
 10
54.38655760025512
 20
47.0133469315109
 30
0.0
 10
54.27519401187066
 20
47.07192127402384
 30
0.0
 10
54.19688455272494
 20
47.17876153373526
 30
0.0
 10
54.14706962095415
 20
47.27263980520278
 30
0.0
 10
54.1187854104886
 20
47.35908987846952
 30
0.0
 10
54.12278301489385
 20
47.42039211555413
 30
0.0
 10
54.12484039596179
 20
47.45194152595452
 30
0.0
 11
54.6248403959618
 21
46.95148453052284
 31
0.0
 11
54.54459266797382
 21
46.95616770420682
 31
0.0
 11
54.47497516406954
 21
46.97540675695143
 31
0.0
 11
54.41406721925623
 21
47.00155424232942
 31
0.0
 11
54.28009050219738
 21
47.0830764259202
 31
0.0
 11
54.18878772556549
 21
47.19729978633582
 31
0.0
 11
54.14972753219823
 21
47.27278036029874
 31
0.0
 11
54.12484039596179
 21
47.35790160408071
 31
0.0
 11
54.12484039596179
 21
47.45194152595452
 31
0.0
  0
LINE
  5
52E
330
1F
100
AcDbEntity
  8
0
 62
     7
 48
0.053652
370
    70
100
AcDbLine
 10
54.12484039596179
 20
47.45194129824936
 30
0.0
 11
54.12484039596179
 21
49.59802129824935
 31
0.0
  0
LINE
  5
52F
330
1F
100
AcDbEntity
  8
0
 62
     7
 48
0.000276
370
    70
100
AcDbLine
 10
83.62484039596191
 20
46.95148429824934
 30
0.0
 11
83.62484039596191
 21
46.96250929824933
 31
0.0
  0
ELLIPSE
  5
530
330
1F
100
AcDbEntity
  8
0
 62
     7
370
    70
100
AcDbEllipse
 10
83.6248853959618
 20
47.44076629824933
 30
0.0
 11
0.4685574769973754
 21
0.1851061433553698
 31
0.0
210
0.0
220
0.0
230
1.0
 40
0.9420659999999998
 41
4.356013998880478
 42
5.926905707884865
  0
LINE
  5
531
330
1F
100
AcDbEntity
  8
0
 62
     7
 48
0.000276
370
    70
100
AcDbLine
 10
54.6248403959618
 20
46.95148429824934
 30
0.0
 11
54.6248403959618
 21
46.96250929824933
 31
0.0
  0
ELLIPSE
  5
532
330
1F
100
AcDbEntity
  8
0
 62
     7
370
    70
100
AcDbEllipse
 10
54.6247953959618
 20
47.44076629824933
 30
0.0
 11
0.4685574471950557
 21
-0.1851061880588467
 31
0.0
210
0.0
220
0.0
230
1.0
 40
0.9420659999999999
 41
3.497872362755571
 42
5.068764088829128
  0
LINE
  5
533
330
1F
100
AcDbEntity
  8
0
 62
     7
 48
0.012658
370
    70
100
AcDbLine
 10
85.6248403959618
 20
98.60879529824932
 30
0.0
 11
85.6248403959618
 21
99.11512429824933
 31
0.0
  0
LINE
  5
534
330
1F
100
AcDbEntity
  8
0
 62
     7
 48
0.028902
370
    70
100
AcDbLine
 10
44.16522539596181
 20
55.87752929824934
 30
0.0
 11
44.04903539596172
 21
57.02774129824931
 31
0.0
  0
LINE
  5
535
330
1F
100
AcDbEntity
  8
0
 62
     7
 48
0.028902
370
    70
100
AcDbLine
 10
94.08484739596188
 20
55.88140129824934
 30
0.0
 11
94.20103839596178
 21
57.03163229824934
 31
0.0
  0
ARC
  5
536
330
1F
100
AcDbEntity
  8
0
 62
     7
370
    70
100
AcDbCircle
 10
68.48525839596177
 20
58.34712329824935
 30
0.0
 40
24.445385
100
AcDbArc
 50
185.804959
 51
209.0442130000002
  0
ARC
  5
537
330
1F
100
AcDbEntity
  8
0
 62
     7
370
    70
100
AcDbCircle
 10
68.77681339596179
 20
58.51131329824934
 30
0.0
 40
24.78066
100
AcDbArc
 50
209.048828999999
 51
229.3803290000006
  0
ARC
  5
538
330
1F
100
AcDbEntity
  8
0
 62
     7
370
    70
100
AcDbCircle
 10
67.74455039596185
 20
47.05316129824935
 30
0.0
 40
16.75389
100
AcDbArc
 50
206.6205739999994
 51
209.119659999998
  0
SPLINE
  5
539
330
1F
100
AcDbEntity
  8
0
 62
     7
370
    70
100
AcDbSpline
210
0.0
220
0.0
230
1.0
 70
  1064
 71
     3
 72
    49
 73
    45
 74
    43
 42
0.000000001
 43
0.0000000001
 44
0.0000000001
 40
0.0
 40
0.0
 40
0.0
 40
0.0
 40
0.3002265070733036
 40
0.9036756353970655
 40
1.813276230242269
 40
2.73145137436653
 40
3.658095065377167
 40
4.593020139893723
 40
5.536016430114216
 40
6.486824377359337
 40
7.445146410293304
 40
8.410631830063644
 40
9.382866146888373
 40
10.36137535326211
 40
11.34564128645034
 40
12.33512227181072
 40
13.32926016843034
 40
14.32747900361399
 40
15.32918186098058
 40
16.33374834773849
 40
17.34053057699435
 40
18.34884911397508
 40
19.35798732813162
 40
20.3671904133403
 40
21.37568804894836
 40
22.38272390405044
 40
23.3875796435009
 40
24.38957459521791
 40
25.38806041087474
 40
26.38241680069752
 40
27.37204888559897
 40
28.35638412843886
 40
29.33487311762799
 40
30.30700070508341
 40
31.27230238134922
 40
32.23037455212987
 40
33.1808725904698
 40
34.12350253294094
 40
35.05786928518646
 40
35.98376585412104
 40
36.90101362771447
 40
37.80963543324207
 40
38.41241673340255
 40
38.71229627633197
 40
38.71229627633197
 40
38.71229627633197
 40
38.71229627633197
 10
85.14263985747907
 20
38.90232385127133
 30
0.0
 10
85.09424871702774
 20
38.81472586298427
 30
0.0
 10
84.94859237568331
 20
38.5510577129049
 30
0.0
 10
84.64131011011172
 20
38.03031912115159
 30
0.0
 10
84.18938511054617
 20
37.35701300356768
 30
0.0
 10
83.64092313303217
 20
36.62025144854538
 30
0.0
 10
83.0477435598061
 20
35.90781489490125
 30
0.0
 10
82.41210932184031
 20
35.22172013255595
 30
0.0
 10
81.73500273573594
 20
34.56486793177571
 30
0.0
 10
81.01802444774367
 20
33.93985457629394
 30
0.0
 10
80.26288103947029
 20
33.34927468003589
 30
0.0
 10
79.47152727068726
 20
32.79561868562285
 30
0.0
 10
78.64612749375766
 20
32.28128407542647
 30
0.0
 10
77.78906149275724
 20
31.80854398760712
 30
0.0
 10
76.90290695176358
 20
31.37951398022099
 30
0.0
 10
75.9904114249164
 20
30.99613742255795
 30
0.0
 10
75.05447299135845
 20
30.66016639586506
 30
0.0
 10
74.09812479650648
 20
30.3731519433919
 30
0.0
 10
73.1245230963388
 20
30.13643408031005
 30
0.0
 10
72.13693548752385
 20
29.95113240909064
 30
0.0
 10
71.13872896719763
 20
29.81813635114184
 30
0.0
 10
70.13335819787062
 20
29.73809529967454
 30
0.0
 10
69.12435186623975
 20
29.71140893713449
 30
0.0
 10
68.11528891843263
 20
29.73821682573215
 30
0.0
 10
67.10976270460799
 20
29.8183979432872
 30
0.0
 10
66.11133501095918
 20
29.95155785484458
 30
0.0
 10
65.12349936192193
 20
30.13704812048694
 30
0.0
 10
64.1496569613735
 20
30.37397385185903
 30
0.0
 10
63.19310325748095
 20
30.66120584961469
 30
0.0
 10
62.25701613903046
 20
30.99739108579727
 30
0.0
 10
61.34444424653747
 20
31.38096366607109
 30
0.0
 10
60.45829379748297
 20
31.8101551556688
 30
0.0
 10
59.60131287552967
 20
32.28300935305054
 30
0.0
 10
58.7760685474542
 20
32.79739694569081
 30
0.0
 10
57.98492544177904
 20
33.35103921454293
 30
0.0
 10
57.23003593192572
 20
33.9415408536946
 30
0.0
 10
56.51334187812358
 20
34.56640972171588
 30
0.0
 10
55.8365711152404
 20
35.22301636626269
 30
0.0
 10
55.20134467648029
 20
35.90872838469229
 30
0.0
 10
54.60864694370036
 20
36.62059608447007
 30
0.0
 10
54.06067969654661
 20
37.35662205161661
 30
0.0
 10
53.6091733567743
 20
38.02917404651854
 30
0.0
 10
53.30215251666908
 20
38.54929450884531
 30
0.0
 10
53.15661330474153
 20
38.81264091180776
 30
0.0
 10
53.10826266154563
 20
38.90012914125411
 30
0.0
 11
85.14263985747907
 21
38.90232385127133
 31
0.0
 11
84.99664052204265
 21
38.63998790329324
 31
0.0
 11
84.68923914663982
 21
38.12070450776133
 31
0.0
 11
84.18498700743915
 21
37.36366882679622
 31
0.0
 11
83.63608697067119
 21
36.62762919136635
 31
0.0
 11
83.0433994602067
 21
35.91531602636852
 31
0.0
 11
82.40801569056626
 21
35.22947904848144
 31
0.0
 11
81.73123042987468
 21
34.57281801394364
 31
0.0
 11
81.01455774056935
 21
33.94798522915372
 31
0.0
 11
80.25972178490738
 21
33.35755843534555
 31
0.0
 11
79.46866515433995
 21
32.80403201048001
 31
0.0
 11
78.64355317427274
 21
32.28980464135115
 31
0.0
 11
77.78676823748823
 21
31.81715271968222
 31
0.0
 11
76.90089183094305
 21
31.38819768758502
 31
0.0
 11
75.9886728567329
 21
31.0048842864617
 31
0.0
 11
75.05300803491858
 21
30.66896539935583
 31
0.0
 11
74.09692885930606
 21
30.38199248621682
 31
0.0
 11
73.12359014711862
 21
30.14530626816922
 31
0.0
 11
72.13625765800658
 21
29.96002706733712
 31
0.0
 11
71.1382965885194
 21
29.8270452605612
 31
0.0
 11
70.13315935016639
 21
29.74701149209403
 31
0.0
 11
69.12437400764625
 21
29.72032689002554
 31
0.0
 11
68.11552700011033
 21
29.74713328069152
 31
0.0
 11
67.11022125410957
 21
29.82730707993362
 31
0.0
 11
66.11202632934922
 21
29.96045401247002
 31
0.0
 11
65.12443524773297
 21
30.14592345097292
 31
0.0
 11
64.15084697737595
 21
30.38281955286061
 31
0.0
 11
63.1945550077095
 21
30.67001215864872
 31
0.0
 11
62.25873573753784
 21
31.00614743432913
 31
0.0
 11
61.34643602048718
 21
31.38965869848663
 31
0.0
 11
60.46056152097648
 21
31.81877667924873
 31
0.0
 11
59.60386213539326
 21
32.29154180561244
 31
0.0
 11
58.77890801360821
 21
32.80582066308352
 31
0.0
 11
57.98806532432789
 21
33.35933233144603
 31
0.0
 11
57.23348464817823
 21
33.94967993041283
 31
0.0
 11
56.51709664277224
 21
34.57436764967622
 31
0.0
 11
55.84061532996624
 21
35.23081585164451
 31
0.0
 11
55.20563907454552
 21
35.91626926563682
 31
0.0
 11
54.61343339869026
 21
36.62801141968535
 31
0.0
 11
54.0650557687222
 21
37.36328378630382
 31
0.0
 11
53.56127544545628
 21
38.11945768916633
 31
0.0
 11
53.25413860138596
 21
38.63812160234873
 31
0.0
 11
53.10826266154563
 21
38.90012914125411
 31
0.0
  0
ARC
  5
53A
330
1F
100
AcDbEntity
  8
0
 62
     7
370
    70
100
AcDbCircle
 10
70.50460439596188
 20
47.05337229824933
 30
0.0
 40
16.754456
100
AcDbArc
 50
330.8891770000002
 51
333.3795469999996
  0
ARC
  5
53B
330
1F
100
AcDbEntity
  8
0
 62
     7
370
    70
100
AcDbCircle
 10
85.93166939596178
 20
39.31579629824934
 30
0.0
 40
0.5044390000000001
100
AcDbArc
 50
130.1732049999982
 51
152.8322730000006
  0
ELLIPSE
  5
53C
330
1F
100
AcDbEntity
  8
0
 62
     7
370
    70
100
AcDbEllipse
 10
69.1247923959618
 20
58.32861129824933
 30
0.0
 11
25.08335876464845
 21
-0.0043395636599638
 31
0.0
210
0.0
220
0.0
230
0.9999999999999998
 40
0.9851129999999999
 41
5.42947761827206
 42
6.181669334023661
  0
SPLINE
  5
53D
330
1F
100
AcDbEntity
  8
0
 62
     7
370
    70
100
AcDbSpline
210
0.0
220
0.0
230
1.0
 70
  1064
 71
     3
 72
    41
 73
    37
 74
    35
 42
0.000000001
 43
0.0000000001
 44
0.0000000001
 40
0.0
 40
0.0
 40
0.0
 40
0.0
 40
0.0088363568544594
 40
0.0262832910378227
 40
0.0521406451695928
 40
0.0773901194462701
 40
0.1021042767604214
 40
0.1263467668657118
 40
0.1501754478288855
 40
0.1736426169085605
 40
0.1967975784605067
 40
0.2196850464299883
 40
0.2423485217834636
 40
0.2648274987524374
 40
0.2871626593043082
 40
0.3093922278419261
 40
0.3315570213232837
 40
0.3536954896135487
 40
0.375849233224788
 40
0.3980575165201483
 40
0.4203636617712533
 40
0.4428090360139995
 40
0.4654412366128319
 40
0.4883075997543758
 40
0.5114645448217371
 40
0.5349685637108096
 40
0.558886277926078
 40
0.5832887094714386
 40
0.6082594972813612
 40
0.6338921766015431
 40
0.6602947522243643
 40
0.6875931742242117
 40
0.7159352258974693
 40
0.7454992974762178
 40
0.7656323955183937
 40
0.7759330187384977
 40
0.7759330187384977
 40
0.7759330187384977
 40
0.7759330187384977
 10
54.12484039596179
 20
68.13290434235454
 30
0.0
 10
54.12483154747076
 20
68.13584977965785
 30
0.0
 10
54.12480522808722
 20
68.14461083210868
 30
0.0
 10
54.1252189237926
 20
68.16199174759993
 30
0.0
 10
54.12702288163695
 20
68.18478440975306
 30
0.0
 10
54.13015494540313
 20
68.20987148598804
 30
0.0
 10
54.13444516404689
 20
68.23424268048035
 30
0.0
 10
54.13979655514232
 20
68.25791622779886
 30
0.0
 10
54.14616663619181
 20
68.28090525512266
 30
0.0
 10
54.15350870289517
 20
68.30322084528536
 30
0.0
 10
54.16178557819755
 20
68.32487113049783
 30
0.0
 10
54.17096522239481
 20
68.34586209893385
 30
0.0
 10
54.18102042905586
 20
68.36619680660884
 30
0.0
 10
54.19192874653717
 20
68.38587658367072
 30
0.0
 10
54.20367166394182
 20
68.40490022630797
 30
0.0
 10
54.21623526042208
 20
68.42326538184754
 30
0.0
 10
54.22960922594374
 20
68.44096700538347
 30
0.0
 10
54.24378757927106
 20
68.45799833963845
 30
0.0
 10
54.25876732810015
 20
68.47434905739944
 30
0.0
 10
54.27454947530423
 20
68.49000633250385
 30
0.0
 10
54.29113750717906
 20
68.50495299311709
 30
0.0
 10
54.30853904842675
 20
68.51916887234721
 30
0.0
 10
54.32676450172663
 20
68.53262903380109
 30
0.0
 10
54.34582964878369
 20
68.54530503918022
 30
0.0
 10
54.36575373330721
 20
68.55716249822069
 30
0.0
 10
54.38656208276676
 20
68.56816133964385
 30
0.0
 10
54.40828420747968
 20
68.57825341981419
 30
0.0
 10
54.4309569281209
 20
68.58738241867889
 30
0.0
 10
54.45462357863822
 20
68.59548079764519
 30
0.0
 10
54.479336150243
 20
68.60246899186567
 30
0.0
 10
54.50515561415352
 20
68.60824623421056
 30
0.0
 10
54.53215354767709
 20
68.61270770681037
 30
0.0
 10
54.56041450712871
 20
68.61565856191148
 30
0.0
 10
54.586417682946
 20
68.61694372448795
 30
0.0
 10
54.60642339754836
 20
68.61656462452043
 30
0.0
 10
54.61655405702186
 20
68.61603364016345
 30
0.0
 10
54.61998288865597
 20
68.61585392274573
 30
0.0
 11
54.12484039596179
 21
68.13290434235454
 31
0.0
 11
54.12484039596179
 21
68.14174069920899
 31
0.0
 11
54.12528139264306
 21
68.15918205908504
 31
0.0
 11
54.12723503821164
 21
68.1849655040001
 31
0.0
 11
54.13038767803588
 21
68.21001738643211
 31
0.0
 11
54.13466840911119
 21
68.23435798858591
 31
0.0
 11
54.14001673733249
 21
68.25800315113013
 31
0.0
 11
54.14638096331524
 21
68.28096622287772
 31
0.0
 11
54.15371676588589
 21
68.3032573427522
 31
0.0
 11
54.16198665736184
 21
68.32488512903393
 31
0.0
 11
54.17115842504781
 21
68.34585450831823
 31
0.0
 11
54.18120531532125
 21
68.36616935783602
 31
0.0
 11
54.19210415758951
 21
68.38582946065324
 31
0.0
 11
54.20383706109848
 21
68.40483468025542
 31
0.0
 11
54.21638922707277
 21
68.42318125614092
 31
0.0
 11
54.22975128062674
 21
68.44086553149764
 31
0.0
 11
54.24391612546038
 21
68.45787931852692
 31
0.0
 11
54.25888192882817
 21
68.47421373267464
 31
0.0
 11
54.27464823377166
 21
68.48985443199904
 31
0.0
 11
54.29121991759657
 21
68.50478572166773
 31
0.0
 11
54.30860253003189
 21
68.51898570792901
 31
0.0
 11
54.32680808036685
 21
68.53243094652661
 31
0.0
 11
54.3458497498938
 21
68.54509133297205
 31
0.0
 11
54.36574920176283
 21
68.5569343022013
 31
0.0
 11
54.38652876655996
 21
68.56791831744072
 31
0.0
 11
54.40821950829231
 21
68.57799645101711
 31
0.0
 11
54.43085561959017
 21
68.58711155554954
 31
0.0
 11
54.45448110802114
 21
68.59519713161103
 31
0.0
 11
54.47914636098713
 21
68.60217277102653
 31
0.0
 11
54.50491100095897
 21
68.60794159470561
 31
0.0
 11
54.53184512155624
 21
68.6123864784311
 31
0.0
 11
54.56003030717195
 21
68.61536426365799
 31
0.0
 11
54.58956426605928
 21
68.61669828043263
 31
0.0
 11
54.60969442497688
 21
68.61635427646722
 31
0.0
 11
54.61998288865597
 21
68.61585392274573
 31
0.0
  0
ELLIPSE
  5
53E
330
1F
100
AcDbEntity
  8
0
 62
     7
370
    70
100
AcDbEllipse
 10
69.12484039596178
 20
77.61229829824931
 30
0.0
 11
53.79239654541016
 21
0.0
 31
0.0
210
0.0
220
0.0
230
1.0
 40
0.173677
 41
4.439364490818736
 42
4.985413470555136
  0
SPLINE
  5
53F
330
1F
100
AcDbEntity
  8
0
 62
     7
370
    70
100
AcDbSpline
210
0.0
220
0.0
230
1.0
 70
  1064
 71
     3
 72
    41
 73
    37
 74
    35
 42
0.000000001
 43
0.0000000001
 44
0.0000000001
 40
0.0
 40
0.0
 40
0.0
 40
0.0
 40
0.0103005308412688
 40
0.0304331489572877
 40
0.0599964327202176
 40
0.0883378335984047
 40
0.1156358989214573
 40
0.1420384601022942
 40
0.1676714010530386
 40
0.1926428629184422
 40
0.2170459144614202
 40
0.2409638962945525
 40
0.2644679976372944
 40
0.2876252495280341
 40
0.3104919294522526
 40
0.3331236967808321
 40
0.3555674471420343
 40
0.3778711082262721
 40
0.4000770439130389
 40
0.4222294752300648
 40
0.4443681233147585
 40
0.4665346039546076
 40
0.4887669096042994
 40
0.5111049190229643
 40
0.5335858163622591
 40
0.5562499298866637
 40
0.5791372094379433
 40
0.6022919254112313
 40
0.6257590615729009
 40
0.649587628685055
 40
0.6738297082966521
 40
0.6985433348299656
 40
0.7237925624100311
 40
0.7496498225230644
 40
0.767096741117828
 40
0.7759329869475432
 40
0.7759329869475432
 40
0.7759329869475432
 40
0.7759329869475432
 10
83.62969790272476
 20
68.61585392278954
 30
0.0
 10
83.63312670356073
 20
68.61603363953631
 30
0.0
 10
83.6432571723874
 20
68.61656461668772
 30
0.0
 10
83.66326243565115
 20
68.61694366450445
 30
0.0
 10
83.68926496437651
 20
68.61565848276888
 30
0.0
 10
83.71752535711978
 20
68.61270798684111
 30
0.0
 10
83.74452297835793
 20
68.60824668111884
 30
0.0
 10
83.77034240281998
 20
68.60246944333322
 30
0.0
 10
83.79505534318612
 20
68.59548143602129
 30
0.0
 10
83.81872254789019
 20
68.58738305806825
 30
0.0
 10
83.84139572437815
 20
68.57825379325271
 30
0.0
 10
83.86311814242349
 20
68.56816157961273
 30
0.0
 10
83.88392669290269
 20
68.55716265247358
 30
0.0
 10
83.90385103686053
 20
68.54530516806182
 30
0.0
 10
83.92291622372235
 20
68.53262910478187
 30
0.0
 10
83.9411411909478
 20
68.51916926182567
 30
0.0
 10
83.95854152474234
 20
68.50495429915412
 30
0.0
 10
83.97512800414236
 20
68.49000913612904
 30
0.0
 10
83.9909088816764
 20
68.47435349451143
 30
0.0
 10
84.00588814998407
 20
68.4580039127637
 30
0.0
 10
84.02006698198347
 20
68.44097273631098
 30
0.0
 10
84.03344220183106
 20
68.42327013408627
 30
0.0
 10
84.04600738741649
 20
68.40490312362831
 30
0.0
 10
84.05775168504931
 20
68.38587738806968
 30
0.0
 10
84.06866082486851
 20
68.36619600375328
 30
0.0
 10
84.07871629167889
 20
68.3458605426302
 30
0.0
 10
84.08789586516148
 20
68.32486946997781
 30
0.0
 10
84.09617265706089
 20
68.30321932008465
 30
0.0
 10
84.10351461855084
 20
68.28090383217793
 30
0.0
 10
84.10988455762234
 20
68.25791495785683
 30
0.0
 10
84.11523574843824
 20
68.23424172595074
 30
0.0
 10
84.11952586700058
 20
68.20987092016672
 30
0.0
 10
84.12265804236492
 20
68.1847841482802
 30
0.0
 10
84.12446184745475
 20
68.16199159354167
 30
0.0
 10
84.12487560338476
 20
68.1446107539044
 30
0.0
 10
84.12484925435213
 20
68.13584974351065
 30
0.0
 10
84.12484039596179
 20
68.13290434316595
 30
0.0
 11
83.62969790272476
 21
68.61585392278954
 31
0.0
 11
83.63998627415394
 21
68.61635427161495
 31
0.0
 11
83.66011595378623
 21
68.61669823397742
 31
0.0
 11
83.68964912581628
 21
68.6153642562072
 31
0.0
 11
83.71783368643766
 21
68.6123867494788
 31
0.0
 11
83.7447674754336
 21
68.60794204693494
 31
0.0
 11
83.77053211590938
 21
68.60217329160453
 31
0.0
 11
83.79519768057518
 21
68.59519779294844
 31
0.0
 11
83.81882385643123
 21
68.58711214380232
 31
0.0
 11
83.84146053420378
 21
68.57799678621024
 31
0.0
 11
83.86315151451825
 21
68.56791853100573
 31
0.0
 11
83.88393116695366
 21
68.55693450512295
 31
0.0
 11
83.90383092001227
 21
68.54509144203364
 31
0.0
 11
83.9228728489658
 21
68.5324308736228
 31
0.0
 11
83.9410780251957
 21
68.51898585778596
 31
0.0
 11
83.95845935634
 21
68.5047868698668
 31
0.0
 11
83.97502924913036
 21
68.489857303541
 31
0.0
 11
83.99079407235181
 21
68.47421844397512
 31
0.0
 11
84.00575928953756
 21
68.4578852725795
 31
0.0
 11
84.01992460378506
 21
68.44087164241756
 31
0.0
 11
84.03328799813387
 21
68.42318626553621
 31
0.0
 11
84.04584192558846
 21
68.40483757839064
 31
0.0
 11
84.05757639473298
 21
68.3858299773141
 31
0.0
 11
84.06847612207494
 21
68.36616816943561
 31
0.0
 11
84.07852320292297
 21
68.34585270221774
 31
0.0
 11
84.0876948068554
 21
68.32488345696273
 31
0.0
 11
84.09596456557681
 21
68.30325588283862
 31
0.0
 11
84.10330029573819
 21
68.28096477378974
 31
0.0
 11
84.10966439746884
 21
68.25800178574853
 31
0.0
 11
84.11501253093119
 21
68.23435700001543
 31
0.0
 11
84.11929315266721
 21
68.2100169175591
 31
0.0
 11
84.12244583033375
 21
68.18496528853181
 31
0.0
 11
84.1243994109392
 21
68.15918193298272
 31
0.0
 11
84.12484041930239
 21
68.14174058899563
 31
0.0
 11
84.12484039596179
 21
68.13290434316595
 31
0.0
  0
ARC
  5
540
330
1F
100
AcDbEntity
  8
0
 62
     7
370
    70
100
AcDbCircle
 10
51.6254703959618
 20
81.75244929824932
 30
0.0
 40
0.9993629999999999
100
AcDbArc
 50
312.289777000001
 51
0.0076139999992352
  0
ELLIPSE
  5
541
330
1F
100
AcDbEntity
  8
0
 62
     7
370
    70
100
AcDbEllipse
 10
69.12487739596182
 20
62.20088229824932
 30
0.0
 11
1.22920751571689
 21
-25.37220764160155
 31
0.0
210
0.0
220
0.0
230
0.9999999999999998
 40
0.98414
 41
3.83076660909843
 42
4.647769990126461
  0
ARC
  5
542
330
1F
100
AcDbEntity
  8
0
 62
     7
370
    70
100
AcDbCircle
 10
47.46840039596189
 20
73.71080129824931
 30
0.0
 40
0.005936
100
AcDbArc
 50
341.0477489999995
 51
75.7594129999991
  0
LINE
  5
543
330
1F
100
AcDbEntity
  8
0
 62
     7
 48
0.024465
370
    70
100
AcDbLine
 10
56.12484039596179
 20
111.9060272982493
 30
0.0
 11
56.12484039596179
 21
112.8846282982493
 31
0.0
  0
LINE
  5
544
330
1F
100
AcDbEntity
  8
0
 62
     7
 48
0.012227
370
    70
100
AcDbLine
 10
56.12484039596179
 20
111.4169532982493
 30
0.0
 11
56.12484039596179
 21
111.9060272982493
 31
0.0
  0
LINE
  5
545
330
1F
100
AcDbEntity
  8
0
 62
     7
 48
0.281995
370
    70
100
AcDbLine
 10
56.12484039596179
 20
100.1371532982493
 30
0.0
 11
56.12484039596179
 21
111.4169532982493
 31
0.0
  0
ELLIPSE
  5
546
330
1F
100
AcDbEntity
  8
0
 62
     7
370
    70
100
AcDbEllipse
 10
69.12480339596189
 20
62.20088229824932
 30
0.0
 11
-1.229207515716203
 21
-25.37220764160157
 31
0.0
210
0.0
220
0.0
230
1.0
 40
0.98414
 41
1.635414054601285
 42
2.452418697628464
  0
ARC
  5
547
330
1F
100
AcDbEntity
  8
0
 62
     7
370
    70
100
AcDbCircle
 10
90.78128039596178
 20
73.71080129824931
 30
0.0
 40
0.005936
100
AcDbArc
 50
104.2405870000009
 51
198.9522510000004
  0
LINE
  5
548
330
1F
100
AcDbEntity
  8
0
 62
     7
370
    70
100
AcDbLine
 10
56.12484039596179
 20
112.8846282982493
 30
0.0
 11
82.1248403959618
 21
112.8846282982493
 31
0.0
  0
LINE
  5
549
330
1F
100
AcDbEntity
  8
0
 62
     7
 48
0.024465
370
    70
100
AcDbLine
 10
82.1248403959618
 20
111.9060272982493
 30
0.0
 11
82.1248403959618
 21
112.8846282982493
 31
0.0
  0
LINE
  5
54A
330
1F
100
AcDbEntity
  8
0
 62
     7
 48
0.012227
370
    70
100
AcDbLine
 10
82.1248403959618
 20
111.4169532982493
 30
0.0
 11
82.1248403959618
 21
111.9060272982493
 31
0.0
  0
LINE
  5
54B
330
1F
100
AcDbEntity
  8
0
 62
     7
 48
0.281995
370
    70
100
AcDbLine
 10
82.1248403959618
 20
100.1371532982493
 30
0.0
 11
82.1248403959618
 21
111.4169532982493
 31
0.0
  0
ARC
  5
54C
330
1F
100
AcDbEntity
  8
0
 62
     7
370
    70
100
AcDbCircle
 10
86.62421039596191
 20
81.75244929824932
 30
0.0
 40
0.9993629999999999
100
AcDbArc
 50
179.9923860000007
 51
227.7102229999989
  0
ELLIPSE
  5
54D
330
1F
100
AcDbEntity
  8
0
 62
     7
370
    70
100
AcDbEllipse
 10
85.12484039596179
 20
96.0377032982493
 30
0.0
 11
0.5
 21
0.0
 31
0.0
210
0.0
220
0.0
230
1.0
 40
0.070279
 41
0.0
 42
0.36790458908381
  0
LINE
  5
54E
330
1F
100
AcDbEntity
  8
0
 62
     7
 48
0.064277
370
    70
100
AcDbLine
 10
85.6248403959618
 20
96.03770229824931
 30
0.0
 11
85.6248403959618
 21
98.60879529824932
 31
0.0
  0
LINE
  5
54F
330
1F
100
AcDbEntity
  8
0
 62
     7
 48
0.003804
370
    70
100
AcDbLine
 10
85.6248403959618
 20
95.8084722982493
 30
0.0
 11
85.6248403959618
 21
95.6562942982493
 31
0.0
  0
LINE
  5
550
330
1F
100
AcDbEntity
  8
0
 62
     7
 48
0.003192
370
    70
100
AcDbLine
 10
85.6248403959618
 20
95.9493552982493
 30
0.0
 11
85.6248403959618
 21
96.0770482982493
 31
0.0
  0
LINE
  5
551
330
1F
100
AcDbEntity
  8
0
 62
     7
 48
0.004501
370
    70
100
AcDbLine
 10
85.6248403959618
 20
96.35514829824932
 30
0.0
 11
85.6248403959618
 21
96.17510529824933
 31
0.0
  0
LINE
  5
552
330
1F
100
AcDbEntity
  8
0
 62
     7
 48
0.002099
370
    70
100
AcDbLine
 10
85.6248403959618
 20
96.4880402982493
 30
0.0
 11
85.6248403959618
 21
96.5719952982493
 31
0.0
  0
LINE
  5
553
330
1F
100
AcDbEntity
  8
0
 62
     7
 48
0.004891
370
    70
100
AcDbLine
 10
85.6248403959618
 20
96.85672129824929
 30
0.0
 11
85.6248403959618
 21
96.66108529824931
 31
0.0
  0
LINE
  5
554
330
1F
100
AcDbEntity
  8
0
 62
     7
 48
0.000862
370
    70
100
AcDbLine
 10
85.6248403959618
 20
96.9725672982493
 30
0.0
 11
85.6248403959618
 21
97.00706329824932
 31
0.0
  0
LINE
  5
555
330
1F
100
AcDbEntity
  8
0
 62
     7
 48
0.004947
370
    70
100
AcDbLine
 10
85.6248403959618
 20
97.27901229824929
 30
0.0
 11
85.6248403959618
 21
97.08111429824931
 31
0.0
  0
LINE
  5
556
330
1F
100
AcDbEntity
  8
0
 62
     7
 48
0.004667
370
    70
100
AcDbLine
 10
85.6248403959618
 20
97.59324229824933
 30
0.0
 11
85.6248403959618
 21
97.4065682982493
 31
0.0
  0
LINE
  5
557
330
1F
100
AcDbEntity
  8
0
 62
     7
 48
0.002974
370
    70
100
AcDbLine
 10
85.6248403959618
 20
97.77799629824933
 30
0.0
 11
85.6248403959618
 21
97.6590402982493
 31
0.0
  0
LINE
  5
558
330
1F
100
AcDbEntity
  8
0
 62
     7
 48
0.003522
370
    70
100
AcDbLine
 10
85.6248403959618
 20
95.9493552982493
 30
0.0
 11
85.6248403959618
 21
95.8084722982493
 31
0.0
  0
LINE
  5
559
330
1F
100
AcDbEntity
  8
0
 62
     7
 48
0.003322
370
    70
100
AcDbLine
 10
85.6248403959618
 20
96.4880402982493
 30
0.0
 11
85.6248403959618
 21
96.35514829824932
 31
0.0
  0
LINE
  5
55A
330
1F
100
AcDbEntity
  8
0
 62
     7
 48
0.002896
370
    70
100
AcDbLine
 10
85.6248403959618
 20
96.9725672982493
 30
0.0
 11
85.6248403959618
 21
96.85672129824929
 31
0.0
  0
LINE
  5
55B
330
1F
100
AcDbEntity
  8
0
 62
     7
 48
0.002282
370
    70
100
AcDbLine
 10
85.6248403959618
 20
97.3702972982493
 30
0.0
 11
85.6248403959618
 21
97.27901229824929
 31
0.0
  0
LINE
  5
55C
330
1F
100
AcDbEntity
  8
0
 62
     7
 48
0.001645
370
    70
100
AcDbLine
 10
85.6248403959618
 20
97.6590402982493
 30
0.0
 11
85.6248403959618
 21
97.59324229824933
 31
0.0
  0
LINE
  5
55D
330
1F
100
AcDbEntity
  8
0
 62
     7
 48
0.001066
370
    70
100
AcDbLine
 10
85.6248403959618
 20
97.82063829824933
 30
0.0
 11
85.6248403959618
 21
97.77799629824933
 31
0.0
  0
LINE
  5
55E
330
1F
100
AcDbEntity
  8
0
 62
     7
 48
0.000585
370
    70
100
AcDbLine
 10
85.6248403959618
 20
97.84407929824929
 30
0.0
 11
85.6248403959618
 21
97.82068429824931
 31
0.0
  0
LINE
  5
55F
330
1F
100
AcDbEntity
  8
0
 62
     7
 48
0.002451
370
    70
100
AcDbLine
 10
85.6248403959618
 20
96.17510529824933
 30
0.0
 11
85.6248403959618
 21
96.0770482982493
 31
0.0
  0
LINE
  5
560
330
1F
100
AcDbEntity
  8
0
 62
     7
 48
0.002227
370
    70
100
AcDbLine
 10
85.6248403959618
 20
96.66108529824931
 30
0.0
 11
85.6248403959618
 21
96.5719952982493
 31
0.0
  0
LINE
  5
561
330
1F
100
AcDbEntity
  8
0
 62
     7
 48
0.001851
370
    70
100
AcDbLine
 10
85.6248403959618
 20
97.08111429824931
 30
0.0
 11
85.6248403959618
 21
97.00706329824932
 31
0.0
  0
LINE
  5
562
330
1F
100
AcDbEntity
  8
0
 62
     7
 48
0.000895
370
    70
100
AcDbLine
 10
85.6248403959618
 20
97.4065682982493
 30
0.0
 11
85.6248403959618
 21
97.37076429824933
 31
0.0
  0
LINE
  5
563
330
1F
100
AcDbEntity
  8
0
 62
     7
 48
0.000249
370
    70
100
AcDbLine
 10
85.6248403959618
 20
93.9066562982493
 30
0.0
 11
85.6248403959618
 21
93.8966832982493
 31
0.0
  0
ARC
  5
564
330
1F
100
AcDbEntity
  8
0
 62
     7
370
    70
100
AcDbCircle
 10
39.6248403959618
 20
104.8685902982493
 30
0.0
 40
8.0
100
AcDbArc
 50
89.99999999999348
 51
180.0
  0
LINE
  5
565
330
1F
100
AcDbEntity
  8
0
 62
     7
 48
0.4125
370
    70
100
AcDbLine
 10
39.6248403959618
 20
112.8685902982493
 30
0.0
 11
56.12484039596179
 21
112.8685902982493
 31
0.0
  0
LINE
  5
566
330
1F
100
AcDbEntity
  8
0
 62
     7
 48
0.4125
370
    70
100
AcDbLine
 10
82.1248403959618
 20
112.8685902982493
 30
0.0
 11
98.62484039596191
 21
112.8685902982493
 31
0.0
  0
ARC
  5
567
330
1F
100
AcDbEntity
  8
0
 62
     7
370
    70
100
AcDbCircle
 10
98.62484039596191
 20
104.8685902982493
 30
0.0
 40
8.0
100
AcDbArc
 50
0.0
 51
89.99999999999348
  0
CIRCLE
  5
5D3
330
1F
100
AcDbEntity
  8
0
 62
     7
370
    70
100
AcDbCircle
 10
-123.8697501014706
 20
95.67729629824929
 30
0.0
 40
2.1
  0
LINE
  5
5D4
330
1F
100
AcDbEntity
  8
0
 62
     7
 48
0.154383
370
    70
100
AcDbLine
 10
-130.4196176014706
 20
79.54632979824933
 30
0.0
 11
-130.6366161014706
 21
76.46629879824931
 31
0.0
  0
LINE
  5
5D5
330
1F
100
AcDbEntity
  8
0
 62
     7
 48
0.055837
370
    70
100
AcDbLine
 10
-130.7511181014705
 20
90.25771629824928
 30
0.0
 11
-129.6513126014706
 21
90.45146879824939
 31
0.0
  0
LINE
  5
5D6
330
1F
100
AcDbEntity
  8
0
 62
     7
 48
0.25872
370
    70
100
AcDbLine
 10
-129.7380926014706
 20
71.3705182982493
 30
0.0
 11
-130.6366161014706
 21
76.46629879824931
 31
0.0
  0
LINE
  5
5D7
330
1F
100
AcDbEntity
  8
0
 62
     7
 48
0.046992
370
    70
100
AcDbLine
 10
-111.7577896014706
 20
94.3524982982494
 30
0.0
 11
-111.6094706014706
 21
93.42444229824929
 31
0.0
  0
LINE
  5
5D8
330
1F
100
AcDbEntity
  8
0
 62
     7
 48
0.284875
370
    70
100
AcDbLine
 10
-130.3407551014706
 20
100.1211297982493
 30
0.0
 11
-124.7131751014705
 21
101.0110222982493
 31
0.0
  0
LINE
  5
5D9
330
1F
100
AcDbEntity
  8
0
 62
     7
 48
0.259026
370
    70
100
AcDbLine
 10
-124.3167121014706
 20
40.62434329824933
 30
0.0
 11
-122.5175371014705
 21
30.42071129824933
 31
0.0
  0
LINE
  5
5DA
330
1F
100
AcDbEntity
  8
0
 62
     7
 48
0.00401
370
    70
100
AcDbLine
 10
-124.3167121014706
 20
40.62434329824933
 30
0.0
 11
-124.3445651014706
 21
40.78230429824933
 31
0.0
  0
LINE
  5
5DB
330
1F
100
AcDbEntity
  8
0
 62
     7
370
    70
100
AcDbLine
 10
-129.7380921014706
 20
71.3705182982493
 30
0.0
 11
-124.3445651014706
 21
40.78230429824933
 31
0.0
  0
LINE
  5
5DC
330
1F
100
AcDbEntity
  8
0
 62
     7
 48
0.037912
370
    70
100
AcDbLine
 10
-132.0859931014706
 20
99.7501682982493
 30
0.0
 11
-133.5693521014706
 21
99.43487029824932
 31
0.0
  0
LINE
  5
5DD
330
1F
100
AcDbEntity
  8
0
 62
     7
 48
0.043885
370
    70
100
AcDbLine
 10
-130.3407551014706
 20
100.1211302982493
 30
0.0
 11
-132.0577921014706
 21
99.75616229824929
 31
0.0
  0
ARC
  5
5DE
330
1F
100
AcDbEntity
  8
0
 62
     7
370
    70
100
AcDbCircle
 10
-131.4209851014706
 20
97.73472629824929
 30
0.0
 40
0.5000270000000003
100
AcDbArc
 50
100.0116459999997
 51
168.0042080000003
  0
LINE
  5
5DF
330
1F
100
AcDbEntity
  8
0
 62
     7
 48
0.188184
370
    70
100
AcDbLine
 10
-133.4748951014706
 20
90.47574829824929
 30
0.0
 11
-131.9100951014706
 21
97.83865229824929
 31
0.0
  0
ARC
  5
5E0
330
1F
100
AcDbEntity
  8
0
 62
     7
370
    70
100
AcDbCircle
 10
-132.9857981014705
 20
90.37173929824929
 30
0.0
 40
0.5000210000000001
100
AcDbArc
 50
167.9945430000003
 51
279.9807399999993
  0
LINE
  5
5E1
330
1F
100
AcDbEntity
  8
0
 62
     7
 48
0.025555
370
    70
100
AcDbLine
 10
-130.3585951014706
 20
99.09908629824929
 30
0.0
 11
-130.3407551014706
 21
100.1211302982493
 31
0.0
  0
ARC
  5
5E2
330
1F
100
AcDbEntity
  8
0
 62
     7
370
    70
100
AcDbCircle
 10
-86.31773910147058
 20
66.75879729824933
 30
0.0
 40
52.878716
100
AcDbArc
 50
178.5256290000003
 51
201.4743889999996
  0
LINE
  5
5E3
330
1F
100
AcDbEntity
  8
0
 62
     7
 48
0.049034
370
    70
100
AcDbLine
 10
-139.2456521014706
 20
68.59587129824928
 30
0.0
 11
-141.1772011014706
 21
68.25528729824928
 31
0.0
  0
LINE
  5
5E4
330
1F
100
AcDbEntity
  8
0
 62
     7
 48
0.000096
370
    70
100
AcDbLine
 10
-139.1789491014705
 20
68.11933929824928
 30
0.0
 11
-139.1828051014706
 21
68.11943929824932
 31
0.0
  0
LINE
  5
5E5
330
1F
100
AcDbEntity
  8
0
 62
     7
 48
0.000096
370
    70
100
AcDbLine
 10
-135.5256951014705
 20
47.40070729824934
 30
0.0
 11
-135.5292851014705
 21
47.39929529824933
 31
0.0
  0
LINE
  5
5E6
330
1F
100
AcDbEntity
  8
0
 62
     7
 48
0.049034
370
    70
100
AcDbLine
 10
-137.3569411014706
 20
46.58951629824932
 30
0.0
 11
-135.4253921014705
 21
46.93010029824931
 31
0.0
  0
LINE
  5
5E7
330
1F
100
AcDbEntity
  8
0
 62
     7
 48
0.054527
370
    70
100
AcDbLine
 10
-132.8991391014705
 20
89.87929929824932
 30
0.0
 11
-130.7511181014705
 21
90.25771629824928
 31
0.0
  0
LINE
  5
5E8
330
1F
100
AcDbEntity
  8
0
 62
     7
 48
0.024758
370
    70
100
AcDbLine
 10
-131.5079141014706
 20
98.22713829824929
 30
0.0
 11
-130.5326751014705
 21
98.39925229824933
 31
0.0
  0
LINE
  5
5E9
330
1F
100
AcDbEntity
  8
0
 62
     7
 48
0.000857
370
    70
100
AcDbLine
 10
-130.5326751014705
 20
98.39925229824933
 30
0.0
 11
-130.5332731014706
 21
98.36499629824928
 31
0.0
  0
LINE
  5
5EA
330
1F
100
AcDbEntity
  8
0
 62
     7
 48
0.01266
370
    70
100
AcDbLine
 10
-130.3674331014707
 20
98.59275729824929
 30
0.0
 11
-130.3585951014706
 21
99.09908629824929
 31
0.0
  0
ARC
  5
5EB
330
1F
100
AcDbEntity
  8
0
 62
     7
370
    70
100
AcDbCircle
 10
-130.5674491014706
 20
98.59625329824933
 30
0.0
 40
0.200047
100
AcDbArc
 50
280.0107360000005
 51
358.9984710000007
  0
LINE
  5
5EC
330
1F
100
AcDbEntity
  8
0
 62
     7
 48
0.000815
370
    70
100
AcDbLine
 10
-130.3674331014707
 20
98.59275729824929
 30
0.0
 11
-130.3680011014705
 21
98.5601782982493
 31
0.0
  0
LINE
  5
5ED
330
1F
100
AcDbEntity
  8
0
 62
     7
 48
0.112083
370
    70
100
AcDbLine
 10
-126.9456781014706
 20
29.71936229824934
 30
0.0
 11
-122.5175371014705
 21
30.42071129824933
 31
0.0
  0
ARC
  5
5EE
330
1F
100
AcDbEntity
  8
0
 62
     7
370
    70
100
AcDbCircle
 10
-127.0238951014706
 20
30.21321029824932
 30
0.0
 40
0.5000040000000002
100
AcDbArc
 50
217.0663470000007
 51
278.9999079999995
  0
ARC
  5
5EF
330
1F
100
AcDbEntity
  8
0
 62
     7
370
    70
100
AcDbCircle
 10
-86.31774510147058
 20
66.75879929824929
 30
0.0
 40
54.999994
100
AcDbArc
 50
162.7305499999999
 51
164.1117509999997
  0
ARC
  5
5F0
330
1F
100
AcDbEntity
  8
0
 62
     7
370
    70
100
AcDbCircle
 10
-86.31774310147056
 20
66.75879529824934
 30
0.0
 40
54.99999599999998
100
AcDbArc
 50
215.888248999999
 51
217.2654789999995
  0
LINE
  5
5F1
330
1F
100
AcDbEntity
  8
0
 62
     7
 48
0.110819
370
    70
100
AcDbLine
 10
-127.4240861014706
 20
29.91345729824934
 30
0.0
 11
-130.0888541014706
 21
33.45580229824932
 31
0.0
  0
LINE
  5
5F2
330
1F
100
AcDbEntity
  8
0
 62
     7
 48
0.039294
370
    70
100
AcDbLine
 10
-138.3795451014706
 20
84.58971629824933
 30
0.0
 11
-138.8382951014706
 21
83.08641429824929
 31
0.0
  0
LINE
  5
5F3
330
1F
100
AcDbEntity
  8
0
 62
     7
 48
0.309685
370
    70
100
AcDbLine
 10
-137.0770561014706
 20
69.39278929824931
 30
0.0
 11
-139.2281061014706
 21
81.59200029824933
 31
0.0
  0
ARC
  5
5F4
330
1F
100
AcDbEntity
  8
0
 62
     7
370
    70
100
AcDbCircle
 10
-138.7342791014706
 20
81.67887029824928
 30
0.0
 40
0.5013770000000001
100
AcDbArc
 50
164.161337999999
 51
189.9769569999987
  0
LINE
  5
5F5
330
1F
100
AcDbEntity
  8
0
 62
     7
370
    70
100
AcDbLine
 10
-131.4698161014706
 20
37.59255329824933
 30
0.0
 11
-137.0770561014706
 21
69.39278929824931
 31
0.0
  0
LINE
  5
5F6
330
1F
100
AcDbEntity
  8
0
 62
     7
 48
0.072827
370
    70
100
AcDbLine
 10
-130.9639661014706
 20
34.72373529824932
 30
0.0
 11
-131.4698161014706
 21
37.59255329824933
 31
0.0
  0
ARC
  5
5F7
330
1F
100
AcDbEntity
  8
0
 62
     7
370
    70
100
AcDbCircle
 10
-130.4702091014706
 20
34.81100229824932
 30
0.0
 40
0.5013770000000001
100
AcDbArc
 50
190.0230429999993
 51
215.8386620000004
  0
LINE
  5
5F8
330
1F
100
AcDbEntity
  8
0
 62
     7
 48
0.379004
370
    70
100
AcDbLine
 10
-133.9437121014706
 20
99.09171129824933
 30
0.0
 11
-138.3684951014706
 21
84.5916652982493
 31
0.0
  0
SPLINE
  5
5F9
330
1F
100
AcDbEntity
  8
0
 62
     7
370
    70
100
AcDbSpline
210
0.0
220
0.0
230
1.0
 70
  1064
 71
     3
 72
    27
 73
    23
 74
    21
 42
0.000000001
 43
0.0000000001
 44
0.0000000001
 40
0.0
 40
0.0
 40
0.0
 40
0.0
 40
0.0066070694287783
 40
0.0193994538259944
 40
0.0379541798483807
 40
0.055240061162332
 40
0.0712536675277226
 40
0.0859917960141246
 40
0.0994514723233381
 40
0.1116299521938726
 40
0.1225417607410122
 40
0.1321748766090507
 40
0.1405174910554013
 40
0.1475409805175646
 40
0.1532525385491873
 40
0.157608828003603
 40
0.1631547095448559
 40
0.1701523931784149
 40
0.2449044904350806
 40
0.4238159656477502
 40
0.6033974459197398
 40
0.7081048599214262
 40
0.7081048599214262
 40
0.7081048599214262
 40
0.7081048599214262
 10
-133.4095554150721
 20
99.4688361665548
 30
0.0
 10
-133.4117096447763
 20
99.46837827090083
 30
0.0
 10
-133.4180348211844
 20
99.46703381316627
 30
0.0
 10
-133.4304097511501
 20
99.46440344050426
 30
0.0
 10
-133.44626649911
 20
99.46103298418583
 30
0.0
 10
-133.463173523799
 20
99.4574392840766
 30
0.0
 10
-133.478836149921
 20
99.45411008909474
 30
0.0
 10
-133.4932512445723
 20
99.45104606316419
 30
0.0
 10
-133.5064159002366
 20
99.44824783098276
 30
0.0
 10
-133.5183329839161
 20
99.44571476117351
 30
0.0
 10
-133.529002431351
 20
99.44344693858855
 30
0.0
 10
-133.5384211636715
 20
99.44144479148176
 30
0.0
 10
-133.5465722177511
 20
99.43971262582316
 30
0.0
 10
-133.5534443871615
 20
99.43825096476295
 30
0.0
 10
-133.5590174021168
 20
99.43706840936579
 30
0.0
 10
-133.5641073868926
 20
99.43598207464361
 30
0.0
 10
-133.5696202734334
 20
99.43482455104822
 30
0.0
 10
-133.5980460419637
 20
99.42857943432834
 30
0.0
 10
-133.6826326309664
 20
99.41047336035243
 30
0.0
 10
-133.8216685416525
 20
99.35325189202346
 30
0.0
 10
-133.9110792646847
 20
99.2170838585821
 30
0.0
 10
-133.9349280832992
 20
99.12545831451536
 30
0.0
 10
-133.9437119231692
 20
99.0917113973161
 30
0.0
 11
-133.4095554150721
 21
99.4688361665548
 31
0.0
 11
-133.4160181041833
 21
99.46746247958571
 31
0.0
 11
-133.4285309442667
 21
99.46480279321079
 31
0.0
 11
-133.4466802048893
 21
99.46094504819349
 31
0.0
 11
-133.4635883480215
 21
99.45735111043379
 31
0.0
 11
-133.4792520183813
 21
99.45402169311449
 31
0.0
 11
-133.4936680830342
 21
99.4509574621825
 31
0.0
 11
-133.5068336326649
 21
99.44815903596943
 31
0.0
 11
-133.5187459830232
 21
99.44562698523952
 31
0.0
 11
-133.5294193416811
 21
99.44335828941829
 31
0.0
 11
-133.5388419503992
 21
99.441355449866
 31
0.0
 11
-133.5470022674786
 21
99.43962096407354
 31
0.0
 11
-133.5538722541373
 21
99.43816059167772
 31
0.0
 11
-133.5594590641552
 21
99.43697338951608
 31
0.0
 11
-133.563719998707
 21
99.43606691582322
 31
0.0
 11
-133.5691452534546
 21
99.43491651893808
 31
0.0
 11
-133.5759827490339
 21
99.43342781801501
 31
0.0
 11
-133.6487530208739
 21
99.4163291753612
 31
0.0
 11
-133.8100344749649
 21
99.33888494685408
 31
0.0
 11
-133.913151449909
 21
99.19185978732329
 31
0.0
 11
-133.9437119231692
 21
99.0917113973161
 31
0.0
  0
ARC
  5
5FA
330
1F
100
AcDbEntity
  8
0
 62
     7
370
    70
100
AcDbCircle
 10
-134.9715401014706
 20
34.82500729824932
 30
0.0
 40
4.000001
100
AcDbArc
 50
20.80698999999994
 51
66.74152999999977
  0
ARC
  5
5FB
330
1F
100
AcDbEntity
  8
0
 62
     7
370
    70
100
AcDbCircle
 10
-142.9593561014707
 20
80.12616429824928
 30
0.0
 40
4.000001
100
AcDbArc
 50
313.2584699999997
 51
359.1858980000002
  0
ARC
  5
5FC
330
1F
100
AcDbEntity
  8
0
 62
     7
370
    70
100
AcDbCircle
 10
-133.1945811014706
 20
38.95930529824932
 30
0.0
 40
0.5
100
AcDbArc
 50
210.6693150000007
 51
246.7415379999998
  0
ARC
  5
5FD
330
1F
100
AcDbEntity
  8
0
 62
     7
370
    70
100
AcDbCircle
 10
-139.8755481014706
 20
76.84895029824931
 30
0.0
 40
0.5
100
AcDbArc
 50
133.2584620000001
 51
169.3306840000001
  0
ARC
  5
5FE
330
1F
100
AcDbEntity
  8
0
 62
     7
370
    70
100
AcDbCircle
 10
-86.3177401014706
 20
66.75879729824933
 30
0.0
 40
55.0
100
AcDbArc
 50
169.3306799999995
 51
178.3351929999998
  0
ARC
  5
5FF
330
1F
100
AcDbEntity
  8
0
 62
     7
370
    70
100
AcDbCircle
 10
-86.3177401014706
 20
66.75879729824933
 30
0.0
 40
55.0
100
AcDbArc
 50
201.6648069999992
 51
210.6693200000007
  0
ARC
  5
600
330
1F
100
AcDbEntity
  8
0
 62
     7
370
    70
100
AcDbCircle
 10
-141.1945391014706
 20
68.35379829824929
 30
0.0
 40
0.10002
100
AcDbArc
 50
178.3531399999992
 51
279.9820380000005
  0
SPLINE
  5
601
330
1F
100
AcDbEntity
  8
0
 62
     7
370
    70
100
AcDbSpline
210
0.0
220
0.0
230
1.0
 70
  1064
 71
     3
 72
    24
 73
    20
 74
    18
 42
0.000000001
 43
0.0000000001
 44
0.0000000001
 40
0.0
 40
0.0
 40
0.0
 40
0.0
 40
0.0069999871944669
 40
0.0139999743887048
 40
0.0215176626590233
 40
0.0337372352844794
 40
0.0459506477389651
 40
0.0511628759398283
 40
0.0696060753141702
 40
0.0880589149938562
 40
0.1012930762165421
 40
0.1400137224507794
 40
0.1787539015038203
 40
0.2042458292163997
 40
0.2790726602086692
 40
0.3539446484152136
 40
0.403362914967478
 40
0.4526898125935212
 40
0.5020167102194507
 40
0.5020167102194507
 40
0.5020167102194507
 40
0.5020167102194507
 10
-139.2549948241084
 20
68.61008019336949
 30
0.0
 10
-139.2534992180924
 20
68.60831338515488
 30
0.0
 10
-139.2505080060604
 20
68.60477976872569
 30
0.0
 10
-139.2445955740051
 20
68.60004709285437
 30
0.0
 10
-139.2440265849635
 20
68.5905667002746
 30
0.0
 10
-139.2379468342283
 20
68.5816086030874
 30
0.0
 10
-139.2347515647915
 20
68.57222089140631
 30
0.0
 10
-139.2304692222282
 20
68.56106301828401
 30
0.0
 10
-139.225631604708
 20
68.54787601482072
 30
0.0
 10
-139.2209732684746
 20
68.53181947505331
 30
0.0
 10
-139.2149610972901
 20
68.50913610834637
 30
0.0
 10
-139.2075365682835
 20
68.47980992954214
 30
0.0
 10
-139.201743375435
 20
68.44595964200073
 30
0.0
 10
-139.1949126000222
 20
68.40012324682918
 30
0.0
 10
-139.186667811605
 20
68.34223484209363
 30
0.0
 10
-139.1841657173441
 20
68.27587877175732
 30
0.0
 10
-139.1796277777157
 20
68.21811806164189
 30
0.0
 10
-139.1819957772266
 20
68.16875030954955
 30
0.0
 10
-139.1825353639151
 20
68.13587636300184
 30
0.0
 10
-139.1828051572594
 20
68.119439389728
 30
0.0
 11
-139.2549948241084
 21
68.61008019336949
 31
0.0
 11
-139.2502941119424
 21
68.60489337104221
 31
0.0
 11
-139.2455933997767
 21
68.59970654871492
 31
0.0
 11
-139.2436427167153
 21
68.59244635088541
 31
0.0
 11
-139.2384498579381
 21
68.58138505923982
 31
0.0
 11
-139.2338976077405
 21
68.57005172513543
 31
0.0
 11
-139.2320540261058
 21
68.56517642723949
 31
0.0
 11
-139.2258351699988
 21
68.54781332176028
 31
0.0
 11
-139.2205692827142
 21
68.53012779877253
 31
0.0
 11
-139.2171493047714
 21
68.51734316838528
 31
0.0
 11
-139.2080335159062
 21
68.47971085729279
 31
0.0
 11
-139.2011649285205
 21
68.44158443626501
 31
0.0
 11
-139.1973493435034
 21
68.41637968097002
 31
0.0
 11
-139.1879601544975
 21
68.34214425973354
 31
0.0
 11
-139.1832337492109
 21
68.26742160111471
 31
0.0
 11
-139.1806673444314
 21
68.21807001921971
 31
0.0
 11
-139.1817362508454
 21
68.1687547044738
 31
0.0
 11
-139.1828051572594
 21
68.119439389728
 31
0.0
  0
ARC
  5
602
330
1F
100
AcDbEntity
  8
0
 62
     7
370
    70
100
AcDbCircle
 10
-86.31773910147058
 20
66.75879729824933
 30
0.0
 40
52.882573
100
AcDbArc
 50
178.5256459999999
 51
201.4743540000003
  0
SPLINE
  5
603
330
1F
100
AcDbEntity
  8
0
 62
     7
370
    70
100
AcDbSpline
210
0.0
220
0.0
230
1.0
 70
  1064
 71
     3
 72
    24
 73
    20
 74
    18
 42
0.000000001
 43
0.0000000001
 44
0.0000000001
 40
0.0
 40
0.0
 40
0.0
 40
0.0
 40
0.0070007751868931
 40
0.0140015503735317
 40
0.0215196928362115
 40
0.0337400375949798
 40
0.0459542215491437
 40
0.0511664326991323
 40
0.0696110815179588
 40
0.0880653733126714
 40
0.1013010026444054
 40
0.1400210742534409
 40
0.1787606685636196
 40
0.204250551091976
 40
0.2790751641270259
 40
0.3539449353793624
 40
0.4033630257051028
 40
0.4526897513066476
 40
0.5020164769083585
 40
0.5020164769083585
 40
0.5020164769083585
 40
0.5020164769083585
 10
-135.4293117178331
 20
46.91355306361109
 30
0.0
 10
-135.4285106315193
 20
46.91572515367398
 30
0.0
 10
-135.426908458892
 20
46.92006933379967
 30
0.0
 10
-135.4229717929923
 20
46.92653961156722
 30
0.0
 10
-135.4256781233465
 20
46.93564358174281
 30
0.0
 10
-135.4230296852518
 20
46.94614150903521
 30
0.0
 10
-135.4232378251395
 20
46.95605643215913
 30
0.0
 10
-135.4230301082451
 20
46.96800678668485
 30
0.0
 10
-135.4229945500884
 20
46.98205404191788
 30
0.0
 10
-135.4241090686685
 20
46.99873694236338
 30
0.0
 10
-135.4262179504357
 20
47.02210937562761
 30
0.0
 10
-135.4292718198714
 20
47.05220635913165
 30
0.0
 10
-135.4354055892469
 20
47.08599550073841
 30
0.0
 10
-135.4446635650711
 20
47.13140227237273
 30
0.0
 10
-135.4567147376974
 20
47.18861730068112
 30
0.0
 10
-135.4770580662594
 20
47.25182594497574
 30
0.0
 10
-135.4925490613859
 20
47.30765444884738
 30
0.0
 10
-135.5116588805483
 20
47.35323492209038
 30
0.0
 10
-135.5234094251437
 20
47.38394167552534
 30
0.0
 10
-135.5292846974414
 20
47.39929505224283
 30
0.0
 11
-135.4293117178331
 21
46.91355306361109
 31
0.0
 11
-135.4266686650059
 21
46.92003574245322
 31
0.0
 11
-135.424025612179
 21
46.92651842129517
 31
0.0
 11
-135.4246750275158
 21
46.93400846307139
 31
0.0
 11
-135.4235786600681
 21
46.94617952729942
 31
0.0
 11
-135.4231773067114
 21
46.95838711531464
 31
0.0
 11
-135.4231124129591
 21
46.96359892247463
 31
0.0
 11
-135.4232073070938
 21
46.9820433271859
 31
0.0
 11
-135.4243080564244
 21
47.0004647613471
 31
0.0
 11
-135.4254671982212
 21
47.01364953567592
 31
0.0
 11
-135.429772627343
 21
47.05212949442702
 31
0.0
 11
-135.4363585211135
 21
47.090305169543
 31
0.0
 11
-135.4413932804769
 21
47.11529287270799
 31
0.0
 11
-135.457960025866
 21
47.18826043853733
 31
0.0
 11
-135.4790746945609
 21
47.26009116603804
 31
0.0
 11
-135.4935423266821
 21
47.3073440524287
 31
0.0
 11
-135.5114135120617
 21
47.35331955233569
 31
0.0
 11
-135.5292846974414
 21
47.39929505224283
 31
0.0
  0
ARC
  5
604
330
1F
100
AcDbEntity
  8
0
 62
     7
370
    70
100
AcDbCircle
 10
-137.3395411014706
 20
46.49101629824932
 30
0.0
 40
0.10002
100
AcDbArc
 50
100.017962
 51
201.6468599999993
  0
ARC
  5
605
330
1F
100
AcDbEntity
  8
0
 62
     7
370
    70
100
AcDbCircle
 10
-141.0996581014706
 20
68.1673912982493
 30
0.0
 40
0.10002
100
AcDbArc
 50
358.5448290000006
 51
99.98210499999956
  0
ARC
  5
606
330
1F
100
AcDbEntity
  8
0
 62
     7
370
    70
100
AcDbCircle
 10
-137.3141371014706
 20
46.69863229824932
 30
0.0
 40
0.10002
100
AcDbArc
 50
280.0178950000006
 51
21.45517099999956
  0
ARC
  5
607
330
1F
100
AcDbEntity
  8
0
 62
     7
370
    70
100
AcDbCircle
 10
-86.31773610147069
 20
66.75879729824933
 30
0.0
 40
54.700004
100
AcDbArc
 50
190.0000000000002
 51
201.4729389999993
  0
ARC
  5
608
330
1F
100
AcDbEntity
  8
0
 62
     7
370
    70
100
AcDbCircle
 10
-86.31773610147069
 20
66.75879829824933
 30
0.0
 40
54.700004
100
AcDbArc
 50
178.527061
 51
190.0000000000002
  0
LINE
  5
609
330
1F
100
AcDbEntity
  8
0
 62
     7
 48
0.133796
370
    70
100
AcDbLine
 10
-111.7577891014706
 20
33.09289929824932
 30
0.0
 11
-111.7577891014706
 21
27.74104829824933
 31
0.0
  0
ARC
  5
60A
330
1F
100
AcDbEntity
  8
0
 62
     7
370
    70
100
AcDbCircle
 10
-111.2578191014706
 20
27.74103629824933
 30
0.0
 40
0.499969
100
AcDbArc
 50
179.9985629999991
 51
278.0014369999998
  0
SPLINE
  5
60B
330
1F
100
AcDbEntity
  8
0
 62
     7
370
    70
100
AcDbSpline
210
0.0
220
0.0
230
1.0
 70
  1064
 71
     3
 72
    18
 73
    14
 74
    12
 42
0.000000001
 43
0.0000000001
 44
0.0000000001
 40
0.0
 40
0.0
 40
0.0
 40
0.0
 40
0.0006958083394317
 40
0.0021936459453237
 40
0.0047860347454553
 40
0.0427281315886559
 40
0.2005791990417434
 40
0.439395039152225
 40
1.100705372797319
 40
2.08153505813437
 40
2.645048418754646
 40
3.263469221642646
 40
3.920701009549644
 40
3.920701009549644
 40
3.920701009549644
 40
3.920701009549644
 10
-111.7577894306553
 20
33.09289913725363
 30
0.0
 10
-111.7575456473976
 20
33.09293147895756
 30
0.0
 10
-111.7567770820837
 20
33.09303344129933
 30
0.0
 10
-111.7563369605158
 20
33.09487281287994
 30
0.0
 10
-111.7527166171968
 20
33.10765842124265
 30
0.0
 10
-111.7420494823097
 20
33.17500774708425
 30
0.0
 10
-111.743284903966
 20
33.31836672493769
 30
0.0
 10
-111.7306459443177
 20
33.67197284500482
 30
0.0
 10
-111.7237705280887
 20
34.29809148575201
 30
0.0
 10
-111.7166584476164
 20
35.03362694966742
 30
0.0
 10
-111.7115523605767
 20
35.75446856201093
 30
0.0
 10
-111.7083040996102
 20
36.36753023447769
 30
0.0
 10
-111.7068029879649
 20
36.79274307766666
 30
0.0
 10
-111.7060295969198
 20
37.01181792546353
 30
0.0
 11
-111.7577894306553
 21
33.09289913725363
 31
0.0
 11
-111.7571151111795
 21
33.09307072539363
 31
0.0
 11
-111.7564408111921
 21
33.09440819951323
 31
0.0
 11
-111.7557667366945
 21
33.09691141809393
 31
0.0
 11
-111.7489132053973
 21
33.13422940064413
 31
0.0
 11
-111.7421257730984
 21
33.29193447430654
 31
0.0
 11
-111.7362185399497
 21
33.53067724400691
 31
0.0
 11
-111.7250531898497
 21
34.19189331485133
 31
0.0
 11
-111.7158507689517
 21
35.17267982938341
 31
0.0
 11
-111.711841781599
 21
35.7361789293099
 31
0.0
 11
-111.7085493556998
 21
36.35459096782172
 31
0.0
 11
-111.7060295969198
 21
37.01181792546353
 31
0.0
  0
SPLINE
  5
60C
330
1F
100
AcDbEntity
  8
0
 62
     7
370
    70
100
AcDbSpline
210
0.0
220
0.0
230
1.0
 70
  1064
 71
     3
 72
    27
 73
    23
 74
    21
 42
0.000000001
 43
0.0000000001
 44
0.0000000001
 40
0.0
 40
0.0
 40
0.0
 40
0.0
 40
0.2490333265578402
 40
0.550908225825174
 40
0.9046474306009631
 40
2.211589959486314
 40
4.028062963860697
 40
5.506371436502404
 40
8.873850286535923
 40
12.90259922762423
 40
15.0621462075668
 40
19.57733664764664
 40
24.3192563441313
 40
26.7100379030459
 40
31.65815347163965
 40
36.33122175858655
 40
38.64249799965485
 40
41.16303494808899
 40
43.38015203758598
 40
43.71135866549386
 40
44.03500538898756
 40
44.3508633044339
 40
44.3508633044339
 40
44.3508633044339
 40
44.3508633044339
 10
-111.7060296201589
 20
37.01181728022012
 30
0.0
 10
-111.702957770569
 20
37.09477185916102
 30
0.0
 10
-111.6961622656021
 20
37.27828287971428
 30
0.0
 10
-111.6876952566495
 20
37.57971665868144
 30
0.0
 10
-111.6721603954384
 20
38.23371676531218
 30
0.0
 10
-111.647067349201
 20
39.39250714009033
 30
0.0
 10
-111.6281632592001
 20
40.92631352279628
 30
0.0
 10
-111.6040530945813
 20
43.14693201770222
 30
0.0
 10
-111.5782518787802
 20
46.10500735631807
 30
0.0
 10
-111.562822171531
 20
49.29023224642725
 30
0.0
 10
-111.5481008315414
 20
52.85802993679306
 30
0.0
 10
-111.5361584472066
 20
56.66356688189924
 30
0.0
 10
-111.5337378831196
 20
60.54619956266647
 30
0.0
 10
-111.5341753382806
 20
64.57313785910695
 30
0.0
 10
-111.5372711551233
 20
68.5771285090616
 30
0.0
 10
-111.5512127980579
 20
72.55459458272451
 30
0.0
 10
-111.5654483623813
 20
75.72285590100669
 30
0.0
 10
-111.5790460637196
 20
78.07246290166673
 30
0.0
 10
-111.5939052910878
 20
79.76201895022524
 30
0.0
 10
-111.6020828726858
 20
80.71930747349394
 30
0.0
 10
-111.6050052404197
 20
81.04286472071034
 30
0.0
 10
-111.6070394701162
 20
81.25602322902784
 30
0.0
 10
-111.6080441970758
 20
81.36130440761073
 30
0.0
 11
-111.7060296201589
 21
37.01181728022012
 31
0.0
 11
-111.6971490489022
 21
37.26069221505812
 31
0.0
 11
-111.6883813669661
 21
37.56243976278822
 31
0.0
 11
-111.6797582701297
 21
37.91607384937541
 31
0.0
 11
-111.6524443414444
 21
39.2227309287612
 31
0.0
 11
-111.6272639040715
 21
41.03902939575241
 31
0.0
 11
-111.6112107617485
 21
42.51725070425321
 31
0.0
 11
-111.5821562754115
 21
45.88460421142271
 31
0.0
 11
-111.5604316706202
 21
49.91329457826239
 31
0.0
 11
-111.5515708341045
 21
52.07282337968073
 31
0.0
 11
-111.5382416692334
 21
56.58799414539405
 31
0.0
 11
-111.5340185682162
 21
61.32991196135489
 31
0.0
 11
-111.5342552619729
 21
63.72069350855285
 31
0.0
 11
-111.5396594559142
 21
68.6688061259907
 31
0.0
 11
-111.5550019697418
 21
73.34184922676971
 31
0.0
 11
-111.5656118280929
 21
75.65310111555911
 31
0.0
 11
-111.5809756118372
 21
78.1735912390412
 31
0.0
 11
-111.5992715684237
 21
80.39063283687202
 31
0.0
 11
-111.602131731361
 21
80.72182711495978
 31
0.0
 11
-111.6050566000353
 21
81.04546062183359
 31
0.0
 11
-111.6080441970758
 21
81.36130440761073
 31
0.0
  0
LINE
  5
60D
330
1F
100
AcDbEntity
  8
0
 62
     7
 48
0.009381
370
    70
100
AcDbLine
 10
-111.6094711014706
 20
81.73654329824932
 30
0.0
 11
-111.6080441014706
 21
81.36130429824929
 31
0.0
  0
LINE
  5
60E
330
1F
100
AcDbEntity
  8
0
 62
     7
 48
0.292197
370
    70
100
AcDbLine
 10
-111.6094711014706
 20
93.42444229824929
 30
0.0
 11
-111.6094711014706
 21
81.73654329824932
 31
0.0
  0
LINE
  5
60F
330
1F
100
AcDbEntity
  8
0
 62
     7
 48
0.000798
370
    70
100
AcDbLine
 10
-111.6443401014706
 20
94.6696322982493
 30
0.0
 11
-111.6181971014706
 21
94.65132729824928
 31
0.0
  0
ARC
  5
610
330
1F
100
AcDbEntity
  8
0
 62
     7
370
    70
100
AcDbCircle
 10
-112.2577921014705
 20
33.09288729824934
 30
0.0
 40
0.5000040000000002
100
AcDbArc
 50
0.0013709999993688
 51
100.0018110000003
  0
LINE
  5
611
330
1F
100
AcDbEntity
  8
0
 62
     7
 48
0.088855
370
    70
100
AcDbLine
 10
-123.3691271014706
 20
35.25041929824935
 30
0.0
 11
-122.7519451014706
 21
31.75020529824934
 31
0.0
  0
LINE
  5
612
330
1F
100
AcDbEntity
  8
0
 62
     7
 48
0.007061
370
    70
100
AcDbLine
 10
-123.4181741014706
 20
35.52857929824935
 30
0.0
 11
-123.3691271014706
 21
35.25041929824935
 31
0.0
  0
LINE
  5
613
330
1F
100
AcDbEntity
  8
0
 62
     7
 48
0.2824849999999999
370
    70
100
AcDbLine
 10
-112.2904501014706
 20
37.49069729824932
 30
0.0
 11
-123.4181741014706
 21
35.52857929824935
 31
0.0
  0
ARC
  5
614
330
1F
100
AcDbEntity
  8
0
 62
     7
370
    70
100
AcDbCircle
 10
-118.8910341014706
 20
73.20036629824929
 30
0.0
 40
0.5
100
AcDbArc
 50
10.00000000000021
 51
100.0000000000001
  0
LINE
  5
615
330
1F
100
AcDbEntity
  8
0
 62
     7
370
    70
100
AcDbLine
 10
-118.3986301014706
 20
73.28719029824928
 30
0.0
 11
-114.2310741014705
 21
49.65180429824933
 31
0.0
  0
ARC
  5
616
330
1F
100
AcDbEntity
  8
0
 62
     7
370
    70
100
AcDbCircle
 10
-114.7234781014706
 20
49.56498029824934
 30
0.0
 40
0.5
100
AcDbArc
 50
280.0000000000002
 51
10.00000000000021
  0
LINE
  5
617
330
1F
100
AcDbEntity
  8
0
 62
     7
 48
0.2
370
    70
100
AcDbLine
 10
-114.6366541014706
 20
49.07257629824933
 30
0.0
 11
-122.5151161014706
 21
47.68339029824931
 31
0.0
  0
ARC
  5
618
330
1F
100
AcDbEntity
  8
0
 62
     7
370
    70
100
AcDbCircle
 10
-122.6019401014706
 20
48.17579429824933
 30
0.0
 40
0.5
100
AcDbArc
 50
190.0000000000002
 51
280.0000000000002
  0
LINE
  5
619
330
1F
100
AcDbEntity
  8
0
 62
     7
370
    70
100
AcDbLine
 10
-123.0943441014705
 20
48.08897029824933
 30
0.0
 11
-127.2619001014706
 21
71.72435629824929
 31
0.0
  0
ARC
  5
61A
330
1F
100
AcDbEntity
  8
0
 62
     7
370
    70
100
AcDbCircle
 10
-126.7694961014706
 20
71.81118029824929
 30
0.0
 40
0.5
100
AcDbArc
 50
100.0000000000001
 51
190.0000000000002
  0
LINE
  5
61B
330
1F
100
AcDbEntity
  8
0
 62
     7
 48
0.2
370
    70
100
AcDbLine
 10
-126.8563201014706
 20
72.30358429824931
 30
0.0
 11
-118.9778581014706
 21
73.69277029824932
 31
0.0
  0
SPLINE
  5
61C
330
1F
100
AcDbEntity
  8
0
 62
     7
370
    70
100
AcDbSpline
210
0.0
220
0.0
230
1.0
 70
  1064
 71
     3
 72
    18
 73
    14
 74
    12
 42
0.000000001
 43
0.0000000001
 44
0.0000000001
 40
0.0
 40
0.0
 40
0.0
 40
0.0
 40
0.1237498919016918
 40
0.2468580419681095
 40
0.3687951862564975
 40
0.5934640570491148
 40
0.8007562048559972
 40
0.896630211795675
 40
1.031175743905174
 40
1.141846346313136
 40
1.184800514230661
 40
1.230914877879553
 40
1.280347521986251
 40
1.280347521986251
 40
1.280347521986251
 40
1.280347521986251
 10
-130.4196173645919
 20
79.54632925797753
 30
0.0
 10
-130.4229496262406
 20
79.50520981087945
 30
0.0
 10
-130.4295968691052
 20
79.42318415379438
 30
0.0
 10
-130.431800788071
 20
79.30013273543034
 30
0.0
 10
-130.4239265289971
 20
79.14381047517912
 30
0.0
 10
-130.4110198028102
 20
78.95897793467426
 30
0.0
 10
-130.356396993949
 20
78.78922146946109
 30
0.0
 10
-130.300213281922
 20
78.65695837469771
 30
0.0
 10
-130.2380105599277
 20
78.55061285076374
 30
0.0
 10
-130.135462684527
 20
78.53319710152141
 30
0.0
 10
-130.0690242282185
 20
78.53831605540043
 30
0.0
 10
-130.0257900415498
 20
78.55676687805917
 30
0.0
 10
-129.9996652682229
 20
78.57497792470389
 30
0.0
 10
-129.9861492340469
 20
78.58439967645461
 30
0.0
 11
-130.4196173645919
 21
79.54632925797753
 31
0.0
 11
-130.428314413127
 21
79.422885355364
 31
0.0
 11
-130.4304013613738
 21
79.29979489570205
 31
0.0
 11
-130.4253682643681
 21
79.17796166915142
 31
0.0
 11
-130.4012452430026
 21
78.95459161443631
 31
0.0
 11
-130.3413414650269
 21
78.75614370709882
 31
0.0
 11
-130.3030226570047
 21
78.6682602947935
 31
0.0
 11
-130.220848829038
 21
78.56172409339731
 31
0.0
 11
-130.1132174543677
 21
78.53596619317392
 31
0.0
 11
-130.0704994001766
 21
78.54046379115668
 31
0.0
 11
-130.0276879546075
 21
78.5576018967412
 31
0.0
 11
-129.9861492340469
 21
78.58439967645461
 31
0.0
  0
LINE
  5
61D
330
1F
100
AcDbEntity
  8
0
 62
     7
 48
0.000963
370
    70
100
AcDbLine
 10
-130.2832581014706
 20
81.4894952982493
 30
0.0
 11
-130.2800111014706
 21
81.52787029824933
 31
0.0
  0
LINE
  5
61E
330
1F
100
AcDbEntity
  8
0
 62
     7
 48
0.11767
370
    70
100
AcDbLine
 10
-111.3617451014706
 20
111.8899892982492
 30
0.0
 11
-106.7577891014706
 21
112.8685902982493
 31
0.0
  0
ARC
  5
61F
330
1F
100
AcDbEntity
  8
0
 62
     7
370
    70
100
AcDbCircle
 10
-111.2577891014705
 20
111.4009152982493
 30
0.0
 40
0.5
100
AcDbArc
 50
101.9999999999996
 51
180.0
  0
LINE
  5
620
330
1F
100
AcDbEntity
  8
0
 62
     7
 48
0.111849
370
    70
100
AcDbLine
 10
-106.7577891014706
 20
27.86859029824933
 30
0.0
 11
-111.1882241014706
 21
27.24593329824933
 31
0.0
  0
LINE
  5
621
330
1F
100
AcDbEntity
  8
0
 62
     7
 48
0.000401
370
    70
100
AcDbLine
 10
-106.7577891014706
 20
112.8685902982493
 30
0.0
 11
-106.7577891014706
 21
112.8525382982493
 31
0.0
  0
LINE
  5
622
330
1F
100
AcDbEntity
  8
0
 62
     7
 48
0.4262100000000001
370
    70
100
AcDbLine
 10
-111.7577891014706
 20
94.35249829824929
 30
0.0
 11
-111.7577891014706
 21
111.4009152982493
 31
0.0
  0
ELLIPSE
  5
623
330
1F
100
AcDbEntity
  8
0
 62
     7
370
    70
100
AcDbEllipse
 10
-112.2060101014705
 20
37.01181729824935
 30
0.0
 11
-0.4996819794178009
 21
0.0178300831466913
 31
0.0
210
0.0
220
0.0
230
1.0
 40
0.9713369999999999
 41
3.178311978079575
 42
4.916733224811341
  0
LINE
  5
624
330
1F
100
AcDbEntity
  8
0
 62
     7
 48
0.0125
370
    70
100
AcDbLine
 10
-112.1094521014706
 20
81.73654329824932
 30
0.0
 11
-111.6094711014706
 21
81.73654329824932
 31
0.0
  0
ARC
  5
625
330
1F
100
AcDbEntity
  8
0
 62
     7
370
    70
100
AcDbCircle
 10
-112.1443291014706
 20
94.66959129824928
 30
0.0
 40
0.499961
100
AcDbArc
 50
235.00003
 51
320.6366960000004
  0
LINE
  5
626
330
1F
100
AcDbEntity
  8
0
 62
     7
 48
0.4538120000000001
370
    70
100
AcDbLine
 10
-129.9861491014705
 20
78.58439929824928
 30
0.0
 11
-112.1094521014706
 21
81.73654329824932
 31
0.0
  0
LINE
  5
627
330
1F
100
AcDbEntity
  8
0
 62
     7
 48
0.4137850000000002
370
    70
100
AcDbLine
 10
-130.4196171014706
 20
79.54632929824928
 30
0.0
 11
-129.2563971014706
 21
96.05680429824928
 31
0.0
  0
LINE
  5
628
330
1F
100
AcDbEntity
  8
0
 62
     7
 48
0.009836
370
    70
100
AcDbLine
 10
-106.7577891014706
 20
35.85393629824932
 30
0.0
 11
-106.7577891014706
 21
36.24737929824933
 31
0.0
  0
LINE
  5
629
330
1F
100
AcDbEntity
  8
0
 62
     7
370
    70
100
AcDbLine
 10
-106.7577891014706
 20
104.4865752982492
 30
0.0
 11
-106.7577891014706
 21
36.24737929824933
 31
0.0
  0
LINE
  5
62A
330
1F
100
AcDbEntity
  8
0
 62
     7
 48
0.102271
370
    70
100
AcDbLine
 10
-114.2483821014706
 20
93.10172329824933
 30
0.0
 11
-117.5993891014706
 21
95.44812329824926
 31
0.0
  0
ARC
  5
62B
330
1F
100
AcDbEntity
  8
0
 62
     7
370
    70
100
AcDbCircle
 10
-115.1137961014707
 20
91.86578329824929
 30
0.0
 40
1.508804
100
AcDbArc
 50
0.0
 51
55.00000000000088
  0
LINE
  5
62C
330
1F
100
AcDbEntity
  8
0
 62
     7
 48
0.188978
370
    70
100
AcDbLine
 10
-113.6049921014706
 20
91.86578329824929
 30
0.0
 11
-113.6049921014706
 21
84.3066462982493
 31
0.0
  0
ARC
  5
62D
330
1F
100
AcDbEntity
  8
0
 62
     7
370
    70
100
AcDbCircle
 10
-115.1137961014707
 20
84.3066462982493
 30
0.0
 40
1.508804
100
AcDbArc
 50
280.0000000000002
 51
0.0
  0
LINE
  5
62E
330
1F
100
AcDbEntity
  8
0
 62
     7
 48
0.294625
370
    70
100
AcDbLine
 10
-114.8517951014706
 20
82.82076429824929
 30
0.0
 11
-126.4577391014706
 21
80.77432329824928
 31
0.0
  0
ARC
  5
62F
330
1F
100
AcDbEntity
  8
0
 62
     7
370
    70
100
AcDbCircle
 10
-126.7197401014706
 20
82.26020529824934
 30
0.0
 40
1.508804
100
AcDbArc
 50
175.9699740000007
 51
280.0000000000002
  0
LINE
  5
630
330
1F
100
AcDbEntity
  8
0
 62
     7
 48
0.20791
370
    70
100
AcDbLine
 10
-127.6403431014706
 20
90.66206329824932
 30
0.0
 11
-128.2248131014706
 21
82.36624229824929
 31
0.0
  0
ARC
  5
631
330
1F
100
AcDbEntity
  8
0
 62
     7
370
    70
100
AcDbCircle
 10
-126.1352711014706
 20
90.55602529824929
 30
0.0
 40
1.508804
100
AcDbArc
 50
66.13662599999916
 51
175.9699740000007
  0
ARC
  5
632
330
1F
100
AcDbEntity
  8
0
 62
     7
370
    70
100
AcDbCircle
 10
-123.8697501014707
 20
95.67729629824929
 30
0.0
 40
4.091196
100
AcDbArc
 50
246.1366120000002
 51
344.8333620000001
  0
ARC
  5
633
330
1F
100
AcDbEntity
  8
0
 62
     7
370
    70
100
AcDbCircle
 10
-118.4648031014706
 20
94.21218329824929
 30
0.0
 40
1.508804
100
AcDbArc
 50
55.00001400000098
 51
164.833362
  0
LINE
  5
634
330
1F
100
AcDbEntity
  8
0
 62
     7
 48
0.25537
370
    70
100
AcDbLine
 10
-120.7724371014706
 20
100.1007172982493
 30
0.0
 11
-112.4049671014706
 21
94.24175129824929
 31
0.0
  0
ARC
  5
635
330
1F
100
AcDbEntity
  8
0
 62
     7
370
    70
100
AcDbCircle
 10
-123.8697501014707
 20
95.67729629824929
 30
0.0
 40
5.4
100
AcDbArc
 50
55.00000000000088
 51
175.9699740000007
  0
LINE
  5
636
330
1F
100
AcDbEntity
  8
0
 62
     7
 48
0.264197
370
    70
100
AcDbLine
 10
-112.3446321014706
 20
33.58529529824932
 30
0.0
 11
-122.7519451014706
 21
31.75020529824934
 31
0.0
  0
LINE
  5
637
330
1F
100
AcDbEntity
  8
0
 62
     7
 48
0.2
370
    70
100
AcDbLine
 10
-106.7577891014706
 20
104.8525522982493
 30
0.0
 11
-106.7577891014706
 21
112.8525522982493
 31
0.0
  0
LINE
  5
638
330
1F
100
AcDbEntity
  8
0
 62
     7
370
    70
100
AcDbLine
 10
-106.7577891014706
 20
104.8525522982493
 30
0.0
 11
-106.7577891014706
 21
35.85255229824932
 31
0.0
  0
LINE
  5
639
330
1F
100
AcDbEntity
  8
0
 62
     7
 48
0.2
370
    70
100
AcDbLine
 10
-106.7577891014706
 20
27.85255229824932
 30
0.0
 11
-106.7577891014706
 21
35.85255229824932
 31
0.0
  0
LINE
  5
64E
330
1F
100
AcDbEntity
  8
0
 62
     7
100
AcDbLine
 10
-58.24632621007961
 20
47.66724493303811
 30
0.0
 11
-58.24632621007961
 21
38.7252580330381
 31
0.0
  0
LINE
  5
64F
330
1F
100
AcDbEntity
  8
0
 62
     7
100
AcDbLine
 10
-58.24632621007961
 20
38.7252580330381
 30
0.0
 11
-86.32367701007948
 21
38.7252580330381
 31
0.0
  0
LINE
  5
650
330
1F
100
AcDbEntity
  8
0
 62
     7
100
AcDbLine
 10
-74.7948136116795
 20
40.16884162063806
 30
0.0
 11
-74.7948136116795
 21
46.23652702903908
 31
0.0
  0
LINE
  5
651
330
1F
100
AcDbEntity
  8
0
 62
     7
100
AcDbLine
 10
-74.7948136116795
 20
46.23652702903908
 30
0.0
 11
-86.32367701007948
 21
46.23652702903908
 31
0.0
  0
LINE
  5
652
330
1F
100
AcDbEntity
  8
0
 62
     7
100
AcDbLine
 10
-86.32367701007948
 20
40.16884162063806
 30
0.0
 11
-74.7948136116795
 21
40.16884162063806
 31
0.0
  0
LINE
  5
821
330
1F
100
AcDbEntity
  8
0
 62
     7
100
AcDbLine
 10
333.70640532738
 20
108.8471887166375
 30
0.0
 11
333.70640532738
 21
32.46879671663776
 31
0.0
  0
LINE
  5
822
330
1F
100
AcDbEntity
  8
0
 62
     7
100
AcDbLine
 10
476.70640532738
 20
108.8471887166375
 30
0.0
 11
476.70640532738
 21
32.46879671663772
 31
0.0
  0
LINE
  5
823
330
1F
100
AcDbEntity
  8
0
 62
     7
100
AcDbLine
 10
340.52024050938
 20
25.65799271663776
 30
0.0
 11
469.8925701453799
 21
25.65799271663767
 31
0.0
  0
CIRCLE
  5
824
330
1F
100
AcDbEntity
  8
0
 62
     7
100
AcDbCircle
 10
334.70640532738
 20
21.65799271663786
 30
0.0
 40
1.5
  0
LINE
  5
825
330
1F
100
AcDbEntity
  8
0
 62
     7
100
AcDbLine
 10
333.70640532738
 20
32.46879671663776
 30
0.0
 11
340.52024050938
 21
25.65799271663776
 31
0.0
  0
LINE
  5
826
330
1F
100
AcDbEntity
  8
0
 62
     7
100
AcDbLine
 10
476.70640532738
 20
32.46879671663772
 30
0.0
 11
469.8925701453799
 21
25.65799271663772
 31
0.0
  0
LINE
  5
827
330
1F
100
AcDbEntity
  8
0
 62
     7
100
AcDbLine
 10
476.70640532738
 20
108.8471887166375
 30
0.0
 11
469.8925701453799
 21
115.6579927166375
 31
0.0
  0
LINE
  5
828
330
1F
100
AcDbEntity
  8
0
 62
     7
100
AcDbLine
 10
333.70640532738
 20
108.8471887166375
 30
0.0
 11
340.52024050938
 21
115.6579927166374
 31
0.0
  0
LINE
  5
829
330
1F
100
AcDbEntity
  8
0
 62
     7
100
AcDbLine
 10
469.8925701453799
 20
115.6579927166374
 30
0.0
 11
340.52024050938
 21
115.6579927166374
 31
0.0
  0
CIRCLE
  5
82A
330
1F
100
AcDbEntity
  8
0
 62
     7
100
AcDbCircle
 10
472.7064053273799
 20
21.65799271663762
 30
0.0
 40
1.5
  0
DIMENSION
  5
82B
330
1F
100
AcDbEntity
  8
0
 62
     1
100
AcDbDimension
  2
*D21
 10
476.70640532738
 20
128.3163362615527
 30
0.0
 11
403.7462019163918
 21
128.3163362615527
 31
0.0
 70
   160
 71
     0
 42
143.0
  3
Standard
100
AcDbAlignedDimension
 13
333.70640532738
 23
108.8471887166375
 33
0.0
 14
476.70640532738
 24
108.8471887166375
 34
0.0
100
AcDbRotatedDimension
1001
ACAD
1000
DSTYLE
1002
{
1070
    41
1040
5.0
1070
   140
1040
5.0
1070
   271
1070
     1
1002
}
  0
DIMENSION
  5
82C
330
1F
100
AcDbEntity
  8
0
 62
     1
100
AcDbDimension
  2
*D22
 10
488.5749923789348
 20
115.6579927166374
 30
0.0
 11
488.5749923789348
 21
70.52099944805957
 31
0.0
 70
   160
 71
     0
 42
89.99999999999975
  3
Standard
100
AcDbAlignedDimension
 13
469.8925701453799
 23
25.65799271663772
 33
0.0
 14
469.8300701453799
 24
115.6579927166374
 34
0.0
 50
90.0
100
AcDbRotatedDimension
1001
ACAD
1000
DSTYLE
1002
{
1070
    41
1040
5.0
1070
   140
1040
5.0
1070
   271
1070
     1
1002
}
  0
CIRCLE
  5
82D
330
1F
100
AcDbEntity
  8
0
 62
     7
100
AcDbCircle
 10
334.70640532738
 20
119.6579927166376
 30
0.0
 40
1.5
  0
CIRCLE
  5
82E
330
1F
100
AcDbEntity
  8
0
 62
     7
100
AcDbCircle
 10
472.7064053273799
 20
119.6579927166373
 30
0.0
 40
1.5
  0
DIMENSION
  5
82F
330
1F
100
AcDbEntity
  8
0
 62
     1
100
AcDbDimension
  2
*D23
 10
472.7064053273799
 20
14.12385765253964
 30
0.0
 11
404.7462019163917
 21
14.12385765253964
 31
0.0
 70
   160
 71
     0
 42
137.9999999999999
  3
Standard
100
AcDbAlignedDimension
 13
334.70640532738
 23
21.65799271663786
 33
0.0
 14
472.7064053273799
 24
21.65799271663762
 34
0.0
100
AcDbRotatedDimension
1001
ACAD
1000
DSTYLE
1002
{
1070
    41
1040
5.0
1070
   140
1040
5.0
1070
   271
1070
     1
1002
}
  0
DIMENSION
  5
830
330
1F
100
AcDbEntity
  8
0
 62
     1
100
AcDbDimension
  2
*D24
 10
323.6193742155661
 20
119.6579927166376
 30
0.0
 11
323.6193742155661
 21
74.52099944805974
 31
0.0
 70
   160
 71
     0
 42
97.99999999999975
  3
Standard
100
AcDbAlignedDimension
 13
334.70640532738
 23
21.65799271663786
 33
0.0
 14
334.64390532738
 24
119.6579927166376
 34
0.0
 50
90.0
100
AcDbRotatedDimension
1001
ACAD
1000
DSTYLE
1002
{
1070
    41
1040
5.0
1070
   140
1040
5.0
1070
   271
1070
     1
1002
}
  0
ENDSEC
  0
SECTION
  2
OBJECTS
  0
DICTIONARY
  5
C
330
0
100
AcDbDictionary
281
     1
  3
ACAD_CIP_PREVIOUS_PRODUCT_INFO
350
28D
  3
ACAD_COLOR
350
73
  3
ACAD_DETAILVIEWSTYLE
350
28A
  3
ACAD_GROUP
350
D
  3
ACAD_LAYOUT
350
1A
  3
ACAD_MATERIAL
350
72
  3
ACAD_MLEADERSTYLE
350
D7
  3
ACAD_MLINESTYLE
350
17
  3
ACAD_PLOTSETTINGS
350
19
  3
ACAD_PLOTSTYLENAME
350
E
  3
ACAD_SCALELIST
350
B6
  3
ACAD_SECTIONVIEWSTYLE
350
288
  3
ACAD_TABLESTYLE
350
86
  3
ACAD_VISUALSTYLE
350
99
  3
ACDB_RECOMPOSE_DATA
350
8BE
  3
AcDbVariableDictionary
350
66
  3
DWGPROPS
350
8BF
  0
DICTIONARY
  5
33F
330
2
100
AcDbDictionary
280
     1
281
     1
  3
ACAD_LAYERSTATES
360
340
  0
DICTIONARY
  5
E6
330
10
100
AcDbDictionary
280
     1
281
     1
  3
ADSK_XREC_LAYER_RECONCILED
360
243
  0
XRECORD
  5
28D
102
{ACAD_REACTORS
330
C
102
}
330
C
100
AcDbXrecord
280
     1
300
ACD
300
2016
300
ACD_F_S_TL
  0
DICTIONARY
  5
73
102
{ACAD_REACTORS
330
C
102
}
330
C
100
AcDbDictionary
281
     1
  0
DICTIONARY
  5
28A
102
{ACAD_REACTORS
330
C
102
}
330
C
100
AcDbDictionary
281
     1
  3
Imperial24
350
28B
  3
Metric50
350
295
  0
DICTIONARY
  5
D
102
{ACAD_REACTORS
330
C
102
}
330
C
100
AcDbDictionary
281
     1
  0
DICTIONARY
  5
1A
102
{ACAD_REACTORS
330
C
102
}
330
C
100
AcDbDictionary
281
     1
  3
Layout1
350
59
  3
Layout2
350
5E
  3
Model
350
22
  0
DICTIONARY
  5
72
102
{ACAD_REACTORS
330
C
102
}
330
C
100
AcDbDictionary
281
     1
  3
ByBlock
350
97
  3
ByLayer
350
96
  3
Global
350
98
  0
DICTIONARY
  5
D7
102
{ACAD_REACTORS
330
C
102
}
330
C
100
AcDbDictionary
281
     1
  3
Annotativa
350
E5
  3
Standard
350
D8
  0
DICTIONARY
  5
17
102
{ACAD_REACTORS
330
C
102
}
330
C
100
AcDbDictionary
281
     1
  3
Standard
350
18
  0
DICTIONARY
  5
19
102
{ACAD_REACTORS
330
C
102
}
330
C
100
AcDbDictionary
281
     1
  0
ACDBDICTIONARYWDFLT
  5
E
102
{ACAD_REACTORS
330
C
102
}
330
C
100
AcDbDictionary
281
     1
  3
Normal
350
F
100
AcDbDictionaryWithDefault
340
F
  0
DICTIONARY
  5
B6
102
{ACAD_REACTORS
330
C
102
}
330
C
100
AcDbDictionary
281
     1
  3
A0
350
B7
  3
A1
350
124
  3
A2
350
125
  3
A3
350
126
  3
A4
350
127
  3
A5
350
128
  3
A6
350
129
  3
A7
350
12A
  3
A8
350
12B
  3
A9
350
12C
  3
B0
350
12D
  3
B1
350
12E
  3
B2
350
12F
  3
B3
350
130
  3
B4
350
131
  3
B5
350
132
  3
B6
350
133
  3
B7
350
134
  3
B8
350
135
  3
B9
350
136
  3
C0
350
137
  3
C1
350
138
  3
C2
350
139
  3
C3
350
13A
  3
C4
350
13B
  3
C5
350
13C
  3
C6
350
13D
  3
C7
350
13E
  3
C8
350
13F
  3
C9
350
140
  3
D0
350
141
  3
D1
350
142
  3
D2
350
143
  0
DICTIONARY
  5
288
102
{ACAD_REACTORS
330
C
102
}
330
C
100
AcDbDictionary
281
     1
  3
Imperial24
350
289
  3
Metric50
350
294
  0
DICTIONARY
  5
86
102
{ACAD_REACTORS
330
C
102
}
330
C
100
AcDbDictionary
281
     1
  3
Standard
350
87
  0
DICTIONARY
  5
99
102
{ACAD_REACTORS
330
C
102
}
330
C
100
AcDbDictionary
281
     1
  3
2dWireframe
350
9F
  3
3D Hidden
350
A1
  3
3dWireframe
350
A0
  3
Basic
350
9E
  3
Brighten
350
A5
  3
ColorChange
350
A9
  3
Conceptual
350
A2
  3
Dim
350
A4
  3
EdgeColorOff
350
287
  3
Facepattern
350
A8
  3
Flat
350
9A
  3
FlatWithEdges
350
9B
  3
Gouraud
350
9C
  3
GouraudWithEdges
350
9D
  3
Hidden
350
27F
  3
JitterOff
350
285
  3
Linepattern
350
A7
  3
OverhangOff
350
286
  3
Realistic
350
A3
  3
Shaded
350
284
  3
Shaded with edges
350
283
  3
Shades of Gray
350
280
  3
Sketchy
350
281
  3
Thicken
350
A6
  3
Wireframe
350
27E
  3
X-Ray
350
282
  0
XRECORD
  5
8BE
102
{ACAD_REACTORS
330
C
102
}
330
C
100
AcDbXrecord
280
     1
 90
        1
330
87
  0
DICTIONARY
  5
66
102
{ACAD_REACTORS
330
C
102
}
330
C
100
AcDbDictionary
281
     1
  3
CANNOSCALE
350
F0
  3
CMLEADERSTYLE
350
EF
  3
CTABLESTYLE
350
89
  3
CVIEWDETAILSTYLE
350
448
  3
CVIEWSECTIONSTYLE
350
449
  3
DIMASSOC
350
67
  3
HIDETEXT
350
6B
  3
INDEXCTL
350
247
  3
LIGHTINGUNITS
350
245
  3
MSLTSCALE
350
244
  3
SORTENTS
350
246
  3
XCLIPFRAME
350
8BC
  0
XRECORD
  5
8BF
102
{ACAD_REACTORS
330
C
102
}
330
C
100
AcDbXrecord
280
     1
  1
DWGPROPS COOKIE
  2

  3

  4

  6

  7

  8
admx2760
  9

300
=
301
=
302
=
303
=
304
=
305
=
306
=
307
=
308
=
309
=
 40
0.0134455555555556
 41
2455098.373449479
 42
2457233.393536239
  1

 90
        0
  0
DICTIONARY
  5
340
102
{ACAD_REACTORS
330
33F
102
}
330
33F
100
AcDbDictionary
281
     1
  0
XRECORD
  5
243
102
{ACAD_REACTORS
330
E6
102
}
330
E6
100
AcDbXrecord
280
     1
290
     1
  0
ACDBDETAILVIEWSTYLE
  5
28B
102
{ACAD_XDICTIONARY
360
8FD
102
}
102
{ACAD_REACTORS
330
28A
102
}
330
28A
100
AcDbModelDocViewStyle
 70
     0
  3
Imperial24
290
     0
100
AcDbDetailViewStyle
 70
     0
 71
     0
 90
        3
 71
     1
340
11
 40
0.24
340
0
 40
0.24
300

 40
0.36
280
     3
 71
     2
340
16
 90
       25
 71
     3
340
11
 40
0.24
 90
        1
 40
0.75
 90
        1
300
%<\AcVar ViewType \f "%tc1">% %<\AcVar ViewDetailId>%\PSCALA %<\AcVar ViewScale \f "%sn">%
 71
     4
340
16
 90
       25
340
16
 90
       25
280
     0
  0
ACDBDETAILVIEWSTYLE
  5
295
102
{ACAD_XDICTIONARY
360
901
102
}
102
{ACAD_REACTORS
330
28A
102
}
330
28A
100
AcDbModelDocViewStyle
 70
     0
  3
Metric50
290
     0
100
AcDbDetailViewStyle
 70
     0
 71
     0
 90
        3
 71
     1
340
11
 40
5.0
340
0
 40
5.0
300

 40
0.0
280
     1
 71
     2
340
16
 90
       25
 71
     3
340
11
 40
5.0
 90
        0
 40
15.0
 90
        1
300
%<\AcVar ViewDetailId>% (%<\AcVar ViewScale \f "%sn">%)
 71
     4
340
16
 90
       25
340
16
 90
       25
280
     0
  0
LAYOUT
  5
59
102
{ACAD_XDICTIONARY
360
8C2
102
}
102
{ACAD_REACTORS
330
1A
102
}
330
1A
100
AcDbPlotSettings
  1

  2
None
  4

  6

 40
0.0
 41
0.0
 42
0.0
 43
0.0
 44
0.0
 45
0.0
 46
0.0
 47
0.0
 48
0.0
 49
0.0
140
0.0
141
0.0
142
1.0
143
1.0
 70
   688
 72
     0
 73
     0
 74
     5
  7

 75
    16
147
1.0
148
0.0
149
0.0
100
AcDbLayout
  1
Layout1
 70
     1
 71
     1
 10
0.0
 20
0.0
 11
12.0
 21
9.0
 12
0.0
 22
0.0
 32
0.0
 14
0.0
 24
0.0
 34
0.0
 15
0.0
 25
0.0
 35
0.0
146
0.0
 13
0.0
 23
0.0
 33
0.0
 16
1.0
 26
0.0
 36
0.0
 17
0.0
 27
1.0
 37
0.0
 76
     0
330
58
  0
LAYOUT
  5
5E
102
{ACAD_XDICTIONARY
360
8C4
102
}
102
{ACAD_REACTORS
330
1A
102
}
330
1A
100
AcDbPlotSettings
  1

  2
None
  4

  6

 40
0.0
 41
0.0
 42
0.0
 43
0.0
 44
0.0
 45
0.0
 46
0.0
 47
0.0
 48
0.0
 49
0.0
140
0.0
141
0.0
142
1.0
143
1.0
 70
   688
 72
     0
 73
     0
 74
     5
  7

 75
    16
147
1.0
148
0.0
149
0.0
100
AcDbLayout
  1
Layout2
 70
     1
 71
     2
 10
0.0
 20
0.0
 11
12.0
 21
9.0
 12
0.0
 22
0.0
 32
0.0
 14
0.0
 24
0.0
 34
0.0
 15
0.0
 25
0.0
 35
0.0
146
0.0
 13
0.0
 23
0.0
 33
0.0
 16
1.0
 26
0.0
 36
0.0
 17
0.0
 27
1.0
 37
0.0
 76
     0
330
5D
  0
LAYOUT
  5
22
102
{ACAD_XDICTIONARY
360
8C0
102
}
102
{ACAD_REACTORS
330
1A
102
}
330
1A
100
AcDbPlotSettings
  1

  2
none_device
  4
ANSI_A_(8.50_x_11.00_Inches)
  6

 40
6.349999904632567
 41
19.04999923706055
 42
6.350006103515625
 43
19.04998779296875
 44
215.8999938964844
 45
279.3999938964844
 46
0.0
 47
0.0
 48
0.0
 49
0.0
140
0.0
141
0.0
142
1.0
143
2.584895464708373
 70
 11952
 72
     0
 73
     1
 74
     0
  7

 75
     0
147
0.3868628397755418
148
0.0
149
0.0
100
AcDbLayout
  1
Model
 70
     1
 71
     0
 10
0.0
 20
0.0
 11
12.0
 21
9.0
 12
0.0
 22
0.0
 32
0.0
 14
0.0
 24
0.0
 34
0.0
 15
0.0
 25
0.0
 35
0.0
146
0.0
 13
0.0
 23
0.0
 33
0.0
 16
1.0
 26
0.0
 36
0.0
 17
0.0
 27
1.0
 37
0.0
 76
     0
330
1F
331
94
  0
MATERIAL
  5
97
102
{ACAD_XDICTIONARY
360
253
102
}
102
{ACAD_REACTORS
330
72
102
}
330
72
100
AcDbMaterial
  1
ByBlock
  0
MATERIAL
  5
96
102
{ACAD_XDICTIONARY
360
251
102
}
102
{ACAD_REACTORS
330
72
102
}
330
72
100
AcDbMaterial
  1
ByLayer
  0
MATERIAL
  5
98
102
{ACAD_XDICTIONARY
360
110
102
}
102
{ACAD_REACTORS
330
72
102
}
330
72
100
AcDbMaterial
  1
Global
 43
0.0208000000566244
 43
0.0
 43
0.0
 43
0.0
 43
0.0
 43
0.0208000000566244
 43
0.0
 43
0.0
 43
0.0
 43
0.0
 43
1.0
 43
0.0
 43
0.0
 43
0.0
 43
0.0
 43
1.0
 49
0.0208000000566244
 49
0.0
 49
0.0
 49
0.0
 49
0.0
 49
0.0208000000566244
 49
0.0
 49
0.0
 49
0.0
 49
0.0
 49
1.0
 49
0.0
 49
0.0
 49
0.0
 49
0.0
 49
1.0
142
0.0208000000566244
142
0.0
142
0.0
142
0.0
142
0.0
142
0.0208000000566244
142
0.0
142
0.0
142
0.0
142
0.0
142
1.0
142
0.0
142
0.0
142
0.0
142
0.0
142
1.0
144
0.0208000000566244
144
0.0
144
0.0
144
0.0
144
0.0
144
0.0208000000566244
144
0.0
144
0.0
144
0.0
144
0.0
144
1.0
144
0.0
144
0.0
144
0.0
144
0.0
144
1.0
1001
ACAD
1070
    -1
1070
     3
1070
     0
1000

1071
        0
1070
     0
  0
MLEADERSTYLE
  5
E5
102
{ACAD_REACTORS
330
D7
102
}
330
D7
100
AcDbMLeaderStyle
170
     2
171
     1
172
     0
 90
        2
 40
0.0
 41
0.0
173
     1
 91
-1056964608
340
14
 92
       -2
290
     1
 42
0.09
291
     1
 43
0.36
  3
Standard
 44
0.18
300

342
11
174
     1
178
     1
175
     1
176
     0
 93
-1056964608
 45
0.18
292
     0
297
     0
 46
0.18
 94
-1056964608
 47
1.0
 49
1.0
140
1.0
293
     1
141
0.0
294
     1
177
     0
142
1.0
295
     0
296
     1
143
0.125
1001
ACAD_MLEADERVER
1070
     2
  0
MLEADERSTYLE
  5
D8
102
{ACAD_REACTORS
330
D7
102
}
330
D7
100
AcDbMLeaderStyle
170
     2
171
     1
172
     0
 90
        2
 40
0.0
 41
0.0
173
     1
 91
-1056964608
340
14
 92
       -2
290
     1
 42
0.09
291
     1
 43
0.36
  3
Standard
 44
0.18
300

342
11
174
     1
178
     1
175
     1
176
     0
 93
-1056964608
 45
0.18
292
     0
297
     0
 46
0.18
 94
-1056964608
 47
1.0
 49
1.0
140
1.0
293
     1
141
0.0
294
     1
177
     0
142
1.0
295
     0
296
     0
143
0.125
1001
ACAD_MLEADERVER
1070
     2
  0
MLINESTYLE
  5
18
102
{ACAD_REACTORS
330
17
102
}
330
17
100
AcDbMlineStyle
  2
STANDARD
 70
     0
  3

 62
   256
 51
90.0
 52
90.0
 71
     2
 49
0.5
 62
   256
  6
BYLAYER
 49
-0.5
 62
   256
  6
BYLAYER
  0
ACDBPLACEHOLDER
  5
F
102
{ACAD_REACTORS
330
E
102
}
330
E
  0
SCALE
  5
B7
102
{ACAD_REACTORS
330
B6
102
}
330
B6
100
AcDbScale
 70
     0
300
1:1
140
1.0
141
1.0
290
     1
  0
SCALE
  5
124
102
{ACAD_REACTORS
330
B6
102
}
330
B6
100
AcDbScale
 70
     0
300
1:2
140
1.0
141
2.0
290
     0
  0
SCALE
  5
125
102
{ACAD_REACTORS
330
B6
102
}
330
B6
100
AcDbScale
 70
     0
300
1:4
140
1.0
141
4.0
290
     0
  0
SCALE
  5
126
102
{ACAD_REACTORS
330
B6
102
}
330
B6
100
AcDbScale
 70
     0
300
1:5
140
1.0
141
5.0
290
     0
  0
SCALE
  5
127
102
{ACAD_REACTORS
330
B6
102
}
330
B6
100
AcDbScale
 70
     0
300
1:8
140
1.0
141
8.0
290
     0
  0
SCALE
  5
128
102
{ACAD_REACTORS
330
B6
102
}
330
B6
100
AcDbScale
 70
     0
300
1:10
140
1.0
141
10.0
290
     0
  0
SCALE
  5
129
102
{ACAD_REACTORS
330
B6
102
}
330
B6
100
AcDbScale
 70
     0
300
1:16
140
1.0
141
16.0
290
     0
  0
SCALE
  5
12A
102
{ACAD_REACTORS
330
B6
102
}
330
B6
100
AcDbScale
 70
     0
300
1:20
140
1.0
141
20.0
290
     0
  0
SCALE
  5
12B
102
{ACAD_REACTORS
330
B6
102
}
330
B6
100
AcDbScale
 70
     0
300
1:30
140
1.0
141
30.0
290
     0
  0
SCALE
  5
12C
102
{ACAD_REACTORS
330
B6
102
}
330
B6
100
AcDbScale
 70
     0
300
1:40
140
1.0
141
40.0
290
     0
  0
SCALE
  5
12D
102
{ACAD_REACTORS
330
B6
102
}
330
B6
100
AcDbScale
 70
     0
300
1:50
140
1.0
141
50.0
290
     0
  0
SCALE
  5
12E
102
{ACAD_REACTORS
330
B6
102
}
330
B6
100
AcDbScale
 70
     0
300
1:100
140
1.0
141
100.0
290
     0
  0
SCALE
  5
12F
102
{ACAD_REACTORS
330
B6
102
}
330
B6
100
AcDbScale
 70
     0
300
2:1
140
2.0
141
1.0
290
     0
  0
SCALE
  5
130
102
{ACAD_REACTORS
330
B6
102
}
330
B6
100
AcDbScale
 70
     0
300
4:1
140
4.0
141
1.0
290
     0
  0
SCALE
  5
131
102
{ACAD_REACTORS
330
B6
102
}
330
B6
100
AcDbScale
 70
     0
300
8:1
140
8.0
141
1.0
290
     0
  0
SCALE
  5
132
102
{ACAD_REACTORS
330
B6
102
}
330
B6
100
AcDbScale
 70
     0
300
10:1
140
10.0
141
1.0
290
     0
  0
SCALE
  5
133
102
{ACAD_REACTORS
330
B6
102
}
330
B6
100
AcDbScale
 70
     0
300
100:1
140
100.0
141
1.0
290
     0
  0
SCALE
  5
134
102
{ACAD_REACTORS
330
B6
102
}
330
B6
100
AcDbScale
 70
     0
300
1/128" = 1'-0"
140
0.0078125
141
12.0
290
     0
  0
SCALE
  5
135
102
{ACAD_REACTORS
330
B6
102
}
330
B6
100
AcDbScale
 70
     0
300
1/64" = 1'-0"
140
0.015625
141
12.0
290
     0
  0
SCALE
  5
136
102
{ACAD_REACTORS
330
B6
102
}
330
B6
100
AcDbScale
 70
     0
300
1/32" = 1'-0"
140
0.03125
141
12.0
290
     0
  0
SCALE
  5
137
102
{ACAD_REACTORS
330
B6
102
}
330
B6
100
AcDbScale
 70
     0
300
1/16" = 1'-0"
140
0.0625
141
12.0
290
     0
  0
SCALE
  5
138
102
{ACAD_REACTORS
330
B6
102
}
330
B6
100
AcDbScale
 70
     0
300
3/32" = 1'-0"
140
0.09375
141
12.0
290
     0
  0
SCALE
  5
139
102
{ACAD_REACTORS
330
B6
102
}
330
B6
100
AcDbScale
 70
     0
300
1/8" = 1'-0"
140
0.125
141
12.0
290
     0
  0
SCALE
  5
13A
102
{ACAD_REACTORS
330
B6
102
}
330
B6
100
AcDbScale
 70
     0
300
3/16" = 1'-0"
140
0.1875
141
12.0
290
     0
  0
SCALE
  5
13B
102
{ACAD_REACTORS
330
B6
102
}
330
B6
100
AcDbScale
 70
     0
300
1/4" = 1'-0"
140
0.25
141
12.0
290
     0
  0
SCALE
  5
13C
102
{ACAD_REACTORS
330
B6
102
}
330
B6
100
AcDbScale
 70
     0
300
3/8" = 1'-0"
140
0.375
141
12.0
290
     0
  0
SCALE
  5
13D
102
{ACAD_REACTORS
330
B6
102
}
330
B6
100
AcDbScale
 70
     0
300
1/2" = 1'-0"
140
0.5
141
12.0
290
     0
  0
SCALE
  5
13E
102
{ACAD_REACTORS
330
B6
102
}
330
B6
100
AcDbScale
 70
     0
300
3/4" = 1'-0"
140
0.75
141
12.0
290
     0
  0
SCALE
  5
13F
102
{ACAD_REACTORS
330
B6
102
}
330
B6
100
AcDbScale
 70
     0
300
1" = 1'-0"
140
1.0
141
12.0
290
     0
  0
SCALE
  5
140
102
{ACAD_REACTORS
330
B6
102
}
330
B6
100
AcDbScale
 70
     0
300
1-1/2" = 1'-0"
140
1.5
141
12.0
290
     0
  0
SCALE
  5
141
102
{ACAD_REACTORS
330
B6
102
}
330
B6
100
AcDbScale
 70
     0
300
3" = 1'-0"
140
3.0
141
12.0
290
     0
  0
SCALE
  5
142
102
{ACAD_REACTORS
330
B6
102
}
330
B6
100
AcDbScale
 70
     0
300
6" = 1'-0"
140
6.0
141
12.0
290
     0
  0
SCALE
  5
143
102
{ACAD_REACTORS
330
B6
102
}
330
B6
100
AcDbScale
 70
     0
300
1'-0" = 1'-0"
140
12.0
141
12.0
290
     0
  0
ACDBSECTIONVIEWSTYLE
  5
289
102
{ACAD_XDICTIONARY
360
8FB
102
}
102
{ACAD_REACTORS
330
288
102
}
330
288
100
AcDbModelDocViewStyle
 70
     0
  3
Imperial24
290
     0
100
AcDbSectionViewStyle
 70
     0
 71
     0
 90
       78
 71
     1
340
11
 40
0.24
340
0
340
0
 40
0.24
300
I, O, Q, S, X, Z
 40
0.48
 90
        3
 40
0.18
 90
        1
 71
     2
340
16
 90
       25
340
16
 90
       50
 40
0.24
 40
0.0
 40
0.24
 71
     3
340
11
 40
0.24
 90
        1
 40
0.75
 90
        1
300
%<\AcVar ViewType \f "%tc1">% %<\AcVar ViewSectionStartId>%-%<\AcVar ViewSectionEndId>%\PSCALA %<\AcVar ViewScale \f "%sn">%
 71
     4
300
ANSI31
 40
1.0
 90
        0
290
     0
290
     0
 90
        6
 40
0.0
 40
1.570796326794896
 40
0.2617993877991494
 40
1.308996938995747
 40
-0.2617993877991494
 40
1.832595714594044
  0
ACDBSECTIONVIEWSTYLE
  5
294
102
{ACAD_XDICTIONARY
360
8FF
102
}
102
{ACAD_REACTORS
330
288
102
}
330
288
100
AcDbModelDocViewStyle
 70
     0
  3
Metric50
290
     0
100
AcDbSectionViewStyle
 70
     0
 71
     0
 90
      102
 71
     1
340
11
 40
5.0
340
0
340
0
 40
5.0
300
I, O, Q, S, X, Z
 40
10.0
 90
        0
 40
2.5
 90
        0
 71
     2
340
16
 90
       25
340
16
 90
       50
 40
5.0
 40
2.5
 40
5.0
 71
     3
340
11
 40
5.0
 90
        0
 40
15.0
 90
        1
300
%<\AcVar ViewSectionStartId>%-%<\AcVar ViewSectionEndId>% (%<\AcVar ViewScale \f "%sn">%)
 71
     4
300
ANSI31
 40
1.0
 90
        0
290
     0
290
     0
 90
        6
 40
0.0
 40
1.570796326794896
 40
0.2617993877991494
 40
1.308996938995747
 40
-0.2617993877991494
 40
1.832595714594044
  0
TABLESTYLE
  5
87
102
{ACAD_XDICTIONARY
360
104
102
}
102
{ACAD_REACTORS
330
86
102
}
330
86
100
AcDbTableStyle
  3
Standard
 70
     0
 71
     0
 40
0.06
 41
0.06
280
     0
281
     0
  7
Standard
140
0.18
170
     2
 62
     0
 63
     7
283
     0
274
    -2
284
     1
 64
     0
275
    -2
285
     1
 65
     0
276
    -2
286
     1
 66
     0
277
    -2
287
     1
 67
     0
278
    -2
288
     1
 68
     0
279
    -2
289
     1
 69
     0
  7
Standard
140
0.25
170
     5
 62
     0
 63
     7
283
     0
274
    -2
284
     1
 64
     0
275
    -2
285
     1
 65
     0
276
    -2
286
     1
 66
     0
277
    -2
287
     1
 67
     0
278
    -2
288
     1
 68
     0
279
    -2
289
     1
 69
     0
  7
Standard
140
0.18
170
     5
 62
     0
 63
     7
283
     0
274
    -2
284
     1
 64
     0
275
    -2
285
     1
 65
     0
276
    -2
286
     1
 66
     0
277
    -2
287
     1
 67
     0
278
    -2
288
     1
 68
     0
279
    -2
289
     1
 69
     0
  0
VISUALSTYLE
  5
9F
102
{ACAD_XDICTIONARY
360
8D1
102
}
102
{ACAD_REACTORS
330
99
102
}
330
99
100
AcDbVisualStyle
  2

 70
     4
 71
     0
 72
     2
 73
     1
 90
        0
 40
-0.6
 41
-30.0
 62
     5
 63
     7
 74
     1
 91
        4
 64
     7
 65
   257
 75
     1
175
     1
 42
1.0
 92
        0
 66
   257
 43
1.0
 76
     1
 77
     6
 78
     2
 67
     7
 79
     5
170
     0
171
     0
290
     0
174
     0
 93
        1
 44
0.0
173
     0
291
     0
 45
0.0
1001
ACAD
1000
AcDbSavedByObjectVersion
1070
     0
  0
VISUALSTYLE
  5
A1
102
{ACAD_XDICTIONARY
360
8D5
102
}
102
{ACAD_REACTORS
330
99
102
}
330
99
100
AcDbVisualStyle
  2

 70
     6
 71
     1
 72
     2
 73
     2
 90
        0
 40
-0.6
 41
-30.0
 62
     5
 63
     7
 74
     2
 91
        2
 64
     7
 65
   257
 75
     2
175
     1
 42
40.0
 92
        0
 66
   257
 43
1.0
 76
     1
 77
     6
 78
     2
 67
     7
 79
     3
170
     0
171
     0
290
     0
174
     0
 93
        1
 44
0.0
173
     0
291
     0
 45
0.0
1001
ACAD
1000
AcDbSavedByObjectVersion
1070
     0
  0
VISUALSTYLE
  5
A0
102
{ACAD_XDICTIONARY
360
8D3
102
}
102
{ACAD_REACTORS
330
99
102
}
330
99
100
AcDbVisualStyle
  2

 70
     5
 71
     0
 72
     2
 73
     1
 90
        0
 40
-0.6
 41
-30.0
 62
     5
 63
     7
 74
     1
 91
        4
 64
     7
 65
   257
 75
     1
175
     1
 42
1.0
 92
        0
 66
   257
 43
1.0
 76
     1
 77
     6
 78
     2
 67
     7
 79
     5
170
     0
171
     0
290
     0
174
     0
 93
        1
 44
0.0
173
     0
291
     0
 45
0.0
1001
ACAD
1000
AcDbSavedByObjectVersion
1070
     0
  0
VISUALSTYLE
  5
9E
102
{ACAD_XDICTIONARY
360
8CF
102
}
102
{ACAD_REACTORS
330
99
102
}
330
99
100
AcDbVisualStyle
  2

 70
     7
 71
     1
 72
     0
 73
     1
 90
        0
 40
-0.6
 41
-30.0
 62
     5
 63
     7
 74
     0
 91
        4
 64
     7
 65
   257
 75
     1
175
     1
 42
1.0
 92
        8
 66
     7
 43
1.0
 76
     1
 77
     6
 78
     2
 67
     7
 79
     5
170
     0
171
     0
290
     0
174
     0
 93
        1
 44
0.0
173
     0
291
     1
 45
0.0
1001
ACAD
1000
AcDbSavedByObjectVersion
1070
     0
  0
VISUALSTYLE
  5
A5
102
{ACAD_XDICTIONARY
360
8DD
102
}
102
{ACAD_REACTORS
330
99
102
}
330
99
100
AcDbVisualStyle
  2

 70
    12
 71
     2
 72
     2
 73
     1
 90
        0
 40
-0.6
 41
-30.0
 62
     5
 63
     7
 74
     1
 91
        4
 64
     7
 65
   257
 75
     1
175
     1
 42
1.0
 92
        8
 66
     7
 43
1.0
 76
     1
 77
     6
 78
     2
 67
     7
 79
     5
170
     0
171
     0
290
     0
174
     0
 93
        1
 44
50.0
173
     0
291
     1
 45
0.0
1001
ACAD
1000
AcDbSavedByObjectVersion
1070
     0
  0
VISUALSTYLE
  5
A9
102
{ACAD_XDICTIONARY
360
8E5
102
}
102
{ACAD_REACTORS
330
99
102
}
330
99
100
AcDbVisualStyle
  2

 70
    16
 71
     2
 72
     2
 73
     3
 90
        0
 40
-0.6
 41
-30.0
 62
     5
 63
     8
 74
     1
 91
        4
 64
     7
 65
   257
 75
     1
175
     1
 42
1.0
 92
        8
 66
     8
 43
1.0
 76
     1
 77
     6
 78
     2
 67
     7
 79
     5
170
     0
171
     0
290
     0
174
     0
 93
        1
 44
0.0
173
     0
291
     1
 45
0.0
1001
ACAD
1000
AcDbSavedByObjectVersion
1070
     0
  0
VISUALSTYLE
  5
A2
102
{ACAD_XDICTIONARY
360
8D7
102
}
102
{ACAD_REACTORS
330
99
102
}
330
99
100
AcDbVisualStyle
  2

 70
     9
 71
     3
 72
     2
 73
     1
 90
        0
 40
-0.6
 41
-30.0
 62
     5
 63
     7
 74
     2
 91
        2
 64
     7
 65
   257
 75
     1
175
     1
 42
40.0
 92
        8
 66
     7
 43
1.0
 76
     1
 77
     6
 78
     2
 67
     7
 79
     3
170
     0
171
     0
290
     0
174
     0
 93
        1
 44
0.0
173
     0
291
     0
 45
0.0
1001
ACAD
1000
AcDbSavedByObjectVersion
1070
     0
  0
VISUALSTYLE
  5
A4
102
{ACAD_XDICTIONARY
360
8DB
102
}
102
{ACAD_REACTORS
330
99
102
}
330
99
100
AcDbVisualStyle
  2

 70
    11
 71
     2
 72
     2
 73
     1
 90
        0
 40
-0.6
 41
-30.0
 62
     5
 63
     7
 74
     1
 91
        4
 64
     7
 65
   257
 75
     1
175
     1
 42
1.0
 92
        8
 66
     7
 43
1.0
 76
     1
 77
     6
 78
     2
 67
     7
 79
     5
170
     0
171
     0
290
     0
174
     0
 93
        1
 44
-50.0
173
     0
291
     1
 45
0.0
1001
ACAD
1000
AcDbSavedByObjectVersion
1070
     0
  0
VISUALSTYLE
  5
287
102
{ACAD_XDICTIONARY
360
8F9
102
}
102
{ACAD_REACTORS
330
99
102
}
330
99
100
AcDbVisualStyle
  2

 70
    22
 71
     2
 72
     2
 73
     0
 90
        0
 40
-0.6
 41
-30.0
 62
     5
 63
     7
 74
     1
 91
        4
 64
     7
 65
   257
 75
     1
175
     1
 42
1.0
 92
        8
 66
     7
 43
1.0
 76
     1
 77
     6
 78
     2
 67
     7
 79
     5
170
     0
171
     0
290
     0
174
     0
 93
        1
 44
0.0
173
     0
291
     1
 45
0.0
1001
ACAD
1000
AcDbSavedByObjectVersion
1070
     0
  0
VISUALSTYLE
  5
A8
102
{ACAD_XDICTIONARY
360
8E3
102
}
102
{ACAD_REACTORS
330
99
102
}
330
99
100
AcDbVisualStyle
  2

 70
    15
 71
     2
 72
     2
 73
     1
 90
        0
 40
-0.6
 41
-30.0
 62
     5
 63
     7
 74
     1
 91
        4
 64
     7
 65
   257
 75
     1
175
     1
 42
1.0
 92
        8
 66
     7
 43
1.0
 76
     1
 77
     6
 78
     2
 67
     7
 79
     5
170
     0
171
     0
290
     0
174
     0
 93
        1
 44
0.0
173
     0
291
     1
 45
0.0
1001
ACAD
1000
AcDbSavedByObjectVersion
1070
     0
  0
VISUALSTYLE
  5
9A
102
{ACAD_XDICTIONARY
360
8C7
102
}
102
{ACAD_REACTORS
330
99
102
}
330
99
100
AcDbVisualStyle
  2

 70
     0
 71
     2
 72
     1
 73
     1
 90
        2
 40
-0.6
 41
30.0
 62
     5
 63
     7
 74
     0
 91
        4
 64
     7
 65
   257
 75
     1
175
     1
 42
1.0
 92
        8
 66
     7
 43
1.0
 76
     1
 77
     6
 78
     2
 67
     7
 79
     5
170
     0
171
     0
290
     0
174
     0
 93
        1
 44
0.0
173
     0
291
     1
 45
0.0
1001
ACAD
1000
AcDbSavedByObjectVersion
1070
     0
  0
VISUALSTYLE
  5
9B
102
{ACAD_XDICTIONARY
360
8C9
102
}
102
{ACAD_REACTORS
330
99
102
}
330
99
100
AcDbVisualStyle
  2

 70
     1
 71
     2
 72
     1
 73
     1
 90
        2
 40
-0.6
 41
30.0
 62
     5
 63
     7
 74
     1
 91
        4
 64
     7
 65
   257
 75
     1
175
     1
 42
1.0
 92
        0
 66
   257
 43
1.0
 76
     1
 77
     6
 78
     2
 67
     7
 79
     5
170
     0
171
     0
290
     0
174
     0
 93
        1
 44
0.0
173
     0
291
     1
 45
0.0
1001
ACAD
1000
AcDbSavedByObjectVersion
1070
     0
  0
VISUALSTYLE
  5
9C
102
{ACAD_XDICTIONARY
360
8CB
102
}
102
{ACAD_REACTORS
330
99
102
}
330
99
100
AcDbVisualStyle
  2

 70
     2
 71
     2
 72
     2
 73
     1
 90
        2
 40
-0.6
 41
30.0
 62
     5
 63
     7
 74
     0
 91
        4
 64
     7
 65
   257
 75
     1
175
     1
 42
1.0
 92
        0
 66
     7
 43
1.0
 76
     1
 77
     6
 78
     2
 67
     7
 79
     5
170
     0
171
     0
290
     0
174
     0
 93
        1
 44
0.0
173
     0
291
     1
 45
0.0
1001
ACAD
1000
AcDbSavedByObjectVersion
1070
     0
  0
VISUALSTYLE
  5
9D
102
{ACAD_XDICTIONARY
360
8CD
102
}
102
{ACAD_REACTORS
330
99
102
}
330
99
100
AcDbVisualStyle
  2

 70
     3
 71
     2
 72
     2
 73
     1
 90
        2
 40
-0.6
 41
30.0
 62
     5
 63
     7
 74
     1
 91
        4
 64
     7
 65
   257
 75
     1
175
     1
 42
1.0
 92
        0
 66
   257
 43
1.0
 76
     1
 77
     6
 78
     2
 67
     7
 79
     5
170
     0
171
     0
290
     0
174
     0
 93
        1
 44
0.0
173
     0
291
     1
 45
0.0
1001
ACAD
1000
AcDbSavedByObjectVersion
1070
     0
  0
VISUALSTYLE
  5
27F
102
{ACAD_XDICTIONARY
360
8E9
102
}
102
{ACAD_REACTORS
330
99
102
}
330
99
100
AcDbVisualStyle
  2

 70
     6
 71
     1
 72
     2
 73
     2
 90
        0
 40
-0.6
 41
-30.0
 62
     5
 63
     7
 74
     2
 91
        2
 64
     7
 65
   257
 75
     2
175
     1
 42
40.0
 92
        0
 66
   257
 43
1.0
 76
     1
 77
     6
 78
     2
 67
     7
 79
     3
170
     0
171
     0
290
     0
174
     0
 93
        1
 44
0.0
173
     0
291
     0
 45
0.0
1001
ACAD
1000
AcDbSavedByObjectVersion
1070
     0
  0
VISUALSTYLE
  5
285
102
{ACAD_XDICTIONARY
360
8F5
102
}
102
{ACAD_REACTORS
330
99
102
}
330
99
100
AcDbVisualStyle
  2

 70
    20
 71
     2
 72
     2
 73
     0
 90
        0
 40
-0.6
 41
-30.0
 62
     5
 63
     7
 74
     1
 91
        4
 64
     7
 65
   257
 75
     1
175
     1
 42
1.0
 92
       10
 66
     7
 43
1.0
 76
     1
 77
     6
 78
     2
 67
     7
 79
     5
170
     0
171
     0
290
     0
174
     0
 93
        1
 44
0.0
173
     0
291
     1
 45
0.0
1001
ACAD
1000
AcDbSavedByObjectVersion
1070
     0
  0
VISUALSTYLE
  5
A7
102
{ACAD_XDICTIONARY
360
8E1
102
}
102
{ACAD_REACTORS
330
99
102
}
330
99
100
AcDbVisualStyle
  2

 70
    14
 71
     2
 72
     2
 73
     1
 90
        0
 40
-0.6
 41
-30.0
 62
     5
 63
     7
 74
     1
 91
        4
 64
     7
 65
   257
 75
     7
175
     7
 42
1.0
 92
        8
 66
     7
 43
1.0
 76
     1
 77
     6
 78
     2
 67
     7
 79
     5
170
     0
171
     0
290
     0
174
     0
 93
        1
 44
0.0
173
     0
291
     1
 45
0.0
1001
ACAD
1000
AcDbSavedByObjectVersion
1070
     0
  0
VISUALSTYLE
  5
286
102
{ACAD_XDICTIONARY
360
8F7
102
}
102
{ACAD_REACTORS
330
99
102
}
330
99
100
AcDbVisualStyle
  2

 70
    21
 71
     2
 72
     2
 73
     0
 90
        0
 40
-0.6
 41
-30.0
 62
     5
 63
     7
 74
     1
 91
        4
 64
     7
 65
   257
 75
     1
175
     1
 42
1.0
 92
        9
 66
     7
 43
1.0
 76
     1
 77
     6
 78
     2
 67
     7
 79
     5
170
     0
171
     0
290
     0
174
     0
 93
        1
 44
0.0
173
     0
291
     1
 45
0.0
1001
ACAD
1000
AcDbSavedByObjectVersion
1070
     0
  0
VISUALSTYLE
  5
A3
102
{ACAD_XDICTIONARY
360
8D9
102
}
102
{ACAD_REACTORS
330
99
102
}
330
99
100
AcDbVisualStyle
  2

 70
     8
 71
     2
 72
     2
 73
     1
 90
        0
 40
-0.6
 41
-30.0
 62
     5
 63
     7
 74
     1
 91
        0
 64
     7
 65
   257
 75
     1
175
     1
 42
1.0
 92
        8
 66
     8
 43
1.0
 76
     1
 77
     6
 78
     2
 67
     7
 79
     5
170
     0
171
     0
290
     0
174
     0
 93
       13
 44
0.0
173
     0
291
     0
 45
0.0
1001
ACAD
1000
AcDbSavedByObjectVersion
1070
     0
  0
VISUALSTYLE
  5
284
102
{ACAD_XDICTIONARY
360
8F3
102
}
102
{ACAD_REACTORS
330
99
102
}
330
99
100
AcDbVisualStyle
  2

 70
    27
 71
     2
 72
     2
 73
     1
 90
        2
 40
-0.6
 41
30.0
 62
     5
 63
     7
 74
     0
 91
        4
 64
     7
 65
   257
 75
     1
175
     1
 42
1.0
 92
        8
 66
   257
 43
1.0
 76
     1
 77
     6
 78
     2
 67
     8
 79
     3
170
     0
171
     0
290
     0
174
     0
 93
        5
 44
0.0
173
     0
291
     0
 45
0.0
1001
ACAD
1000
AcDbSavedByObjectVersion
1070
     0
  0
VISUALSTYLE
  5
283
102
{ACAD_XDICTIONARY
360
8F1
102
}
102
{ACAD_REACTORS
330
99
102
}
330
99
100
AcDbVisualStyle
  2

 70
    26
 71
     2
 72
     2
 73
     1
 90
        2
 40
-0.6
 41
30.0
 62
     5
 63
     7
 74
     1
 91
       10
 64
     7
 65
   257
 75
     2
175
     1
 42
1.0
 92
        8
 66
   257
 43
1.0
 76
     1
 77
     6
 78
     2
 67
     7
 79
     3
170
     0
171
     0
290
     0
174
     0
 93
        5
 44
0.0
173
     0
291
     0
 45
0.0
1001
ACAD
1000
AcDbSavedByObjectVersion
1070
     0
  0
VISUALSTYLE
  5
280
102
{ACAD_XDICTIONARY
360
8EB
102
}
102
{ACAD_REACTORS
330
99
102
}
330
99
100
AcDbVisualStyle
  2

 70
    23
 71
     2
 72
     2
 73
     3
 90
        0
 40
-0.6
 41
-30.0
 62
     5
 63
     7
 74
     2
 91
        2
 64
     7
 65
     7
 75
     1
175
     1
 42
40.0
 92
        8
 66
     7
 43
1.0
 76
     1
 77
     6
 78
     2
 67
     7
 79
     3
170
     0
171
     0
290
     0
174
     0
 93
        1
 44
0.0
173
     0
291
     0
 45
0.0
1001
ACAD
1000
AcDbSavedByObjectVersion
1070
     0
  0
VISUALSTYLE
  5
281
102
{ACAD_XDICTIONARY
360
8ED
102
}
102
{ACAD_REACTORS
330
99
102
}
330
99
100
AcDbVisualStyle
  2

 70
    24
 71
     1
 72
     2
 73
     2
 90
        0
 40
-0.6
 41
-30.0
 62
     5
 63
     7
 74
     2
 91
        2
 64
     7
 65
     7
 75
     1
175
     1
 42
40.0
 92
       11
 66
     7
 43
1.0
 76
     1
 77
     6
 78
     2
 67
     7
 79
     6
170
     0
171
     0
290
     0
174
     0
 93
        1
 44
0.0
173
     0
291
     0
 45
0.0
1001
ACAD
1000
AcDbSavedByObjectVersion
1070
     0
  0
VISUALSTYLE
  5
A6
102
{ACAD_XDICTIONARY
360
8DF
102
}
102
{ACAD_REACTORS
330
99
102
}
330
99
100
AcDbVisualStyle
  2

 70
    13
 71
     2
 72
     2
 73
     1
 90
        0
 40
-0.6
 41
-30.0
 62
     5
 63
     7
 74
     1
 91
        4
 64
     7
 65
   257
 75
     1
175
     1
 42
1.0
 92
       12
 66
     7
 43
1.0
 76
     1
 77
     6
 78
     2
 67
     7
 79
     5
170
     0
171
     0
290
     0
174
     0
 93
        1
 44
0.0
173
     0
291
     1
 45
0.0
1001
ACAD
1000
AcDbSavedByObjectVersion
1070
     0
  0
VISUALSTYLE
  5
27E
102
{ACAD_XDICTIONARY
360
8E7
102
}
102
{ACAD_REACTORS
330
99
102
}
330
99
100
AcDbVisualStyle
  2

 70
     5
 71
     0
 72
     2
 73
     0
 90
        0
 40
-0.6
 41
-30.0
 62
     5
 63
     7
 74
     1
 91
        4
 64
     7
 65
   257
 75
     1
175
     1
 42
1.0
 92
        0
 66
   257
 43
1.0
 76
     1
 77
     6
 78
     2
 67
     7
 79
     3
170
     0
171
     0
290
     0
174
     0
 93
        1
 44
0.0
173
     0
291
     0
 45
0.0
1001
ACAD
1000
AcDbSavedByObjectVersion
1070
     0
  0
VISUALSTYLE
  5
282
102
{ACAD_XDICTIONARY
360
8EF
102
}
102
{ACAD_REACTORS
330
99
102
}
330
99
100
AcDbVisualStyle
  2

 70
    25
 71
     2
 72
     2
 73
     1
 90
        1
 40
0.5
 41
-30.0
 62
     5
 63
     7
 74
     1
 91
        0
 64
     7
 65
   257
 75
     1
175
     1
 42
1.0
 92
        8
 66
     7
 43
1.0
 76
     1
 77
     6
 78
     2
 67
     7
 79
     3
170
     0
171
     0
290
     0
174
     0
 93
       13
 44
0.0
173
     0
291
     0
 45
0.0
1001
ACAD
1000
AcDbSavedByObjectVersion
1070
     0
  0
DICTIONARYVAR
  5
F0
102
{ACAD_REACTORS
330
66
102
}
330
66
100
DictionaryVariables
280
     0
  1
1:1
  0
DICTIONARYVAR
  5
EF
102
{ACAD_REACTORS
330
66
102
}
330
66
100
DictionaryVariables
280
     0
  1
STANDARD
  0
DICTIONARYVAR
  5
89
102
{ACAD_REACTORS
330
66
102
}
330
66
100
DictionaryVariables
280
     0
  1
STANDARD
  0
DICTIONARYVAR
  5
448
102
{ACAD_REACTORS
330
66
102
}
330
66
100
DictionaryVariables
280
     0
  1
Imperial24
  0
DICTIONARYVAR
  5
449
102
{ACAD_REACTORS
330
66
102
}
330
66
100
DictionaryVariables
280
     0
  1
Imperial24
  0
DICTIONARYVAR
  5
67
102
{ACAD_REACTORS
330
66
102
}
330
66
100
DictionaryVariables
280
     0
  1
2
  0
DICTIONARYVAR
  5
6B
102
{ACAD_REACTORS
330
66
102
}
330
66
100
DictionaryVariables
280
     0
  1
1
  0
DICTIONARYVAR
  5
247
102
{ACAD_REACTORS
330
66
102
}
330
66
100
DictionaryVariables
280
     0
  1
0
  0
DICTIONARYVAR
  5
245
102
{ACAD_REACTORS
330
66
102
}
330
66
100
DictionaryVariables
280
     0
  1
2
  0
DICTIONARYVAR
  5
244
102
{ACAD_REACTORS
330
66
102
}
330
66
100
DictionaryVariables
280
     0
  1
1
  0
DICTIONARYVAR
  5
246
102
{ACAD_REACTORS
330
66
102
}
330
66
100
DictionaryVariables
280
     0
  1
127
  0
DICTIONARYVAR
  5
8BC
102
{ACAD_REACTORS
330
66
102
}
330
66
100
DictionaryVariables
280
     0
  1
2
  0
DICTIONARY
  5
8FD
330
28B
100
AcDbDictionary
280
     1
281
     1
  3
ACAD_XREC_ROUNDTRIP
360
8FE
  0
DICTIONARY
  5
901
330
295
100
AcDbDictionary
280
     1
281
     1
  3
ACAD_XREC_ROUNDTRIP
360
902
  0
DICTIONARY
  5
8C2
330
59
100
AcDbDictionary
280
     1
281
     1
  3
ACAD_XREC_ROUNDTRIP
360
8C3
  0
DICTIONARY
  5
8C4
330
5E
100
AcDbDictionary
280
     1
281
     1
  3
ACAD_XREC_ROUNDTRIP
360
8C5
  0
DICTIONARY
  5
8C0
330
22
100
AcDbDictionary
280
     1
281
     1
  3
ACAD_XREC_ROUNDTRIP
360
8C1
  0
DICTIONARY
  5
253
330
97
100
AcDbDictionary
280
     1
281
     1
  3
ACAD_XREC_ROUNDTRIP
360
254
  0
DICTIONARY
  5
251
330
96
100
AcDbDictionary
280
     1
281
     1
  3
ACAD_XREC_ROUNDTRIP
360
252
  0
DICTIONARY
  5
110
330
98
100
AcDbDictionary
280
     1
281
     1
  3
ACAD_XREC_ROUNDTRIP
360
255
  3
BUMPTILE
360
112
  3
DIFFUSETILE
360
111
  3
OPACITYTILE
360
113
  3
REFLECTIONTILE
360
114
  0
DICTIONARY
  5
8FB
330
289
100
AcDbDictionary
280
     1
281
     1
  3
ACAD_XREC_ROUNDTRIP
360
8FC
  0
DICTIONARY
  5
8FF
330
294
100
AcDbDictionary
280
     1
281
     1
  3
ACAD_XREC_ROUNDTRIP
360
900
  0
DICTIONARY
  5
104
330
87
100
AcDbDictionary
280
     1
281
     1
  3
ACAD_ROUNDTRIP_2008_TABLESTYLE_CELLSTYLEMAP
360
8BD
  3
ACAD_XREC_ROUNDTRIP
360
8C6
  0
DICTIONARY
  5
8D1
330
9F
100
AcDbDictionary
280
     1
281
     1
  3
ACAD_XREC_ROUNDTRIP
360
8D2
  0
DICTIONARY
  5
8D5
330
A1
100
AcDbDictionary
280
     1
281
     1
  3
ACAD_XREC_ROUNDTRIP
360
8D6
  0
DICTIONARY
  5
8D3
330
A0
100
AcDbDictionary
280
     1
281
     1
  3
ACAD_XREC_ROUNDTRIP
360
8D4
  0
DICTIONARY
  5
8CF
330
9E
100
AcDbDictionary
280
     1
281
     1
  3
ACAD_XREC_ROUNDTRIP
360
8D0
  0
DICTIONARY
  5
8DD
330
A5
100
AcDbDictionary
280
     1
281
     1
  3
ACAD_XREC_ROUNDTRIP
360
8DE
  0
DICTIONARY
  5
8E5
330
A9
100
AcDbDictionary
280
     1
281
     1
  3
ACAD_XREC_ROUNDTRIP
360
8E6
  0
DICTIONARY
  5
8D7
330
A2
100
AcDbDictionary
280
     1
281
     1
  3
ACAD_XREC_ROUNDTRIP
360
8D8
  0
DICTIONARY
  5
8DB
330
A4
100
AcDbDictionary
280
     1
281
     1
  3
ACAD_XREC_ROUNDTRIP
360
8DC
  0
DICTIONARY
  5
8F9
330
287
100
AcDbDictionary
280
     1
281
     1
  3
ACAD_XREC_ROUNDTRIP
360
8FA
  0
DICTIONARY
  5
8E3
330
A8
100
AcDbDictionary
280
     1
281
     1
  3
ACAD_XREC_ROUNDTRIP
360
8E4
  0
DICTIONARY
  5
8C7
330
9A
100
AcDbDictionary
280
     1
281
     1
  3
ACAD_XREC_ROUNDTRIP
360
8C8
  0
DICTIONARY
  5
8C9
330
9B
100
AcDbDictionary
280
     1
281
     1
  3
ACAD_XREC_ROUNDTRIP
360
8CA
  0
DICTIONARY
  5
8CB
330
9C
100
AcDbDictionary
280
     1
281
     1
  3
ACAD_XREC_ROUNDTRIP
360
8CC
  0
DICTIONARY
  5
8CD
330
9D
100
AcDbDictionary
280
     1
281
     1
  3
ACAD_XREC_ROUNDTRIP
360
8CE
  0
DICTIONARY
  5
8E9
330
27F
100
AcDbDictionary
280
     1
281
     1
  3
ACAD_XREC_ROUNDTRIP
360
8EA
  0
DICTIONARY
  5
8F5
330
285
100
AcDbDictionary
280
     1
281
     1
  3
ACAD_XREC_ROUNDTRIP
360
8F6
  0
DICTIONARY
  5
8E1
330
A7
100
AcDbDictionary
280
     1
281
     1
  3
ACAD_XREC_ROUNDTRIP
360
8E2
  0
DICTIONARY
  5
8F7
330
286
100
AcDbDictionary
280
     1
281
     1
  3
ACAD_XREC_ROUNDTRIP
360
8F8
  0
DICTIONARY
  5
8D9
330
A3
100
AcDbDictionary
280
     1
281
     1
  3
ACAD_XREC_ROUNDTRIP
360
8DA
  0
DICTIONARY
  5
8F3
330
284
100
AcDbDictionary
280
     1
281
     1
  3
ACAD_XREC_ROUNDTRIP
360
8F4
  0
DICTIONARY
  5
8F1
330
283
100
AcDbDictionary
280
     1
281
     1
  3
ACAD_XREC_ROUNDTRIP
360
8F2
  0
DICTIONARY
  5
8EB
330
280
100
AcDbDictionary
280
     1
281
     1
  3
ACAD_XREC_ROUNDTRIP
360
8EC
  0
DICTIONARY
  5
8ED
330
281
100
AcDbDictionary
280
     1
281
     1
  3
ACAD_XREC_ROUNDTRIP
360
8EE
  0
DICTIONARY
  5
8DF
330
A6
100
AcDbDictionary
280
     1
281
     1
  3
ACAD_XREC_ROUNDTRIP
360
8E0
  0
DICTIONARY
  5
8E7
330
27E
100
AcDbDictionary
280
     1
281
     1
  3
ACAD_XREC_ROUNDTRIP
360
8E8
  0
DICTIONARY
  5
8EF
330
282
100
AcDbDictionary
280
     1
281
     1
  3
ACAD_XREC_ROUNDTRIP
360
8F0
  0
XRECORD
  5
8FE
102
{ACAD_REACTORS
330
8FD
102
}
330
8FD
100
AcDbXrecord
280
     1
102
DISPLAYNAME
  1
Imperial24
102
FLAGS
 90
        0
  0
XRECORD
  5
902
102
{ACAD_REACTORS
330
901
102
}
330
901
100
AcDbXrecord
280
     1
102
DISPLAYNAME
  1
Metric50
102
FLAGS
 90
        0
  0
XRECORD
  5
8C3
102
{ACAD_REACTORS
330
8C2
102
}
330
8C2
100
AcDbXrecord
280
     1
102
SHADEPLOT
 70
     0
102
SHADEPLOTRESLEVEL
 70
     2
102
SHADEPLOTCUSTOMDPI
 70
   300
  0
XRECORD
  5
8C5
102
{ACAD_REACTORS
330
8C4
102
}
330
8C4
100
AcDbXrecord
280
     1
102
SHADEPLOT
 70
     0
102
SHADEPLOTRESLEVEL
 70
     2
102
SHADEPLOTCUSTOMDPI
 70
   300
  0
XRECORD
  5
8C1
102
{ACAD_REACTORS
330
8C0
102
}
330
8C0
100
AcDbXrecord
280
     1
102
SHADEPLOT
 70
     0
102
SHADEPLOTRESLEVEL
 70
     2
102
SHADEPLOTCUSTOMDPI
 70
   300
  0
XRECORD
  5
254
102
{ACAD_REACTORS
330
253
102
}
330
253
100
AcDbXrecord
280
     1
102
MATERIAL
148
0.0
149
0.0
149
0.0
 93
        0
 94
      127
282
     0
 72
     1
 77
     1
171
     1
175
     1
179
     1
273
     0
  0
XRECORD
  5
252
102
{ACAD_REACTORS
330
251
102
}
330
251
100
AcDbXrecord
280
     1
102
MATERIAL
148
0.0
149
0.0
149
0.0
 93
        0
 94
      127
282
     0
 72
     1
 77
     1
171
     1
175
     1
179
     1
273
     0
  0
XRECORD
  5
255
102
{ACAD_REACTORS
330
110
102
}
330
110
100
AcDbXrecord
280
     1
102
MATERIAL
148
0.0
149
0.0
149
0.0
 93
        0
 94
      127
282
     0
 72
     1
 77
     1
171
     1
175
     1
179
     1
273
     0
  0
XRECORD
  5
112
102
{ACAD_REACTORS
330
110
102
}
330
110
100
AcDbXrecord
280
     1
270
     1
271
     1
  0
XRECORD
  5
111
102
{ACAD_REACTORS
330
110
102
}
330
110
100
AcDbXrecord
280
     1
270
     1
271
     1
  0
XRECORD
  5
113
102
{ACAD_REACTORS
330
110
102
}
330
110
100
AcDbXrecord
280
     1
270
     1
271
     1
  0
XRECORD
  5
114
102
{ACAD_REACTORS
330
110
102
}
330
110
100
AcDbXrecord
280
     1
270
     1
271
     1
  0
XRECORD
  5
8FC
102
{ACAD_REACTORS
330
8FB
102
}
330
8FB
100
AcDbXrecord
280
     1
102
DISPLAYNAME
  1
Imperial24
102
FLAGS
 90
        0
  0
XRECORD
  5
900
102
{ACAD_REACTORS
330
8FF
102
}
330
8FF
100
AcDbXrecord
280
     1
102
DISPLAYNAME
  1
Metric50
102
FLAGS
 90
        0
  0
CELLSTYLEMAP
  5
8BD
102
{ACAD_REACTORS
330
104
102
}
330
104
100
AcDbCellStyleMap
 90
        3
300
CELLSTYLE
  1
TABLEFORMAT_BEGIN
 90
        5
170
     1
 91
        0
 92
    32768
 62
   257
 93
        1
300
CONTENTFORMAT
  1
CONTENTFORMAT_BEGIN
 90
        0
 91
        0
 92
      512
 93
        0
300

 40
0.0
140
1.0
 94
        5
 62
     0
340
11
144
0.25
309
CONTENTFORMAT_END
171
     1
301
MARGIN
  1
CELLMARGIN_BEGIN
 40
0.06
 40
0.06
 40
0.06
 40
0.06
 40
0.18
 40
0.18
309
CELLMARGIN_END
 94
        6
 95
        1
302
GRIDFORMAT
  1
GRIDFORMAT_BEGIN
 90
        0
 91
        1
 62
     0
 92
       -2
340
0
 93
        0
 40
0.045
309
GRIDFORMAT_END
 95
        2
302
GRIDFORMAT
  1
GRIDFORMAT_BEGIN
 90
        0
 91
        1
 62
     0
 92
       -2
340
0
 93
        0
 40
0.045
309
GRIDFORMAT_END
 95
        4
302
GRIDFORMAT
  1
GRIDFORMAT_BEGIN
 90
        0
 91
        1
 62
     0
 92
       -2
340
0
 93
        0
 40
0.045
309
GRIDFORMAT_END
 95
        8
302
GRIDFORMAT
  1
GRIDFORMAT_BEGIN
 90
        0
 91
        1
 62
     0
 92
       -2
340
0
 93
        0
 40
0.045
309
GRIDFORMAT_END
 95
       16
302
GRIDFORMAT
  1
GRIDFORMAT_BEGIN
 90
        0
 91
        1
 62
     0
 92
       -2
340
0
 93
        0
 40
0.045
309
GRIDFORMAT_END
 95
       32
302
GRIDFORMAT
  1
GRIDFORMAT_BEGIN
 90
        0
 91
        1
 62
     0
 92
       -2
340
0
 93
        0
 40
0.045
309
GRIDFORMAT_END
309
TABLEFORMAT_END
  1
CELLSTYLE_BEGIN
 90
        1
 91
        1
300
_TITLE
309
CELLSTYLE_END
300
CELLSTYLE
  1
TABLEFORMAT_BEGIN
 90
        5
170
     1
 91
        0
 92
        0
 62
   257
 93
        1
300
CONTENTFORMAT
  1
CONTENTFORMAT_BEGIN
 90
        0
 91
        0
 92
      512
 93
        0
300

 40
0.0
140
1.0
 94
        5
 62
     0
340
11
144
0.18
309
CONTENTFORMAT_END
171
     1
301
MARGIN
  1
CELLMARGIN_BEGIN
 40
0.06
 40
0.06
 40
0.06
 40
0.06
 40
0.18
 40
0.18
309
CELLMARGIN_END
 94
        6
 95
        1
302
GRIDFORMAT
  1
GRIDFORMAT_BEGIN
 90
        0
 91
        1
 62
     0
 92
       -2
340
0
 93
        0
 40
0.045
309
GRIDFORMAT_END
 95
        2
302
GRIDFORMAT
  1
GRIDFORMAT_BEGIN
 90
        0
 91
        1
 62
     0
 92
       -2
340
0
 93
        0
 40
0.045
309
GRIDFORMAT_END
 95
        4
302
GRIDFORMAT
  1
GRIDFORMAT_BEGIN
 90
        0
 91
        1
 62
     0
 92
       -2
340
0
 93
        0
 40
0.045
309
GRIDFORMAT_END
 95
        8
302
GRIDFORMAT
  1
GRIDFORMAT_BEGIN
 90
        0
 91
        1
 62
     0
 92
       -2
340
0
 93
        0
 40
0.045
309
GRIDFORMAT_END
 95
       16
302
GRIDFORMAT
  1
GRIDFORMAT_BEGIN
 90
        0
 91
        1
 62
     0
 92
       -2
340
0
 93
        0
 40
0.045
309
GRIDFORMAT_END
 95
       32
302
GRIDFORMAT
  1
GRIDFORMAT_BEGIN
 90
        0
 91
        1
 62
     0
 92
       -2
340
0
 93
        0
 40
0.045
309
GRIDFORMAT_END
309
TABLEFORMAT_END
  1
CELLSTYLE_BEGIN
 90
        2
 91
        1
300
_HEADER
309
CELLSTYLE_END
300
CELLSTYLE
  1
TABLEFORMAT_BEGIN
 90
        5
170
     1
 91
        0
 92
        0
 62
   257
 93
        1
300
CONTENTFORMAT
  1
CONTENTFORMAT_BEGIN
 90
        0
 91
        0
 92
      512
 93
        0
300

 40
0.0
140
1.0
 94
        2
 62
     0
340
11
144
0.18
309
CONTENTFORMAT_END
171
     1
301
MARGIN
  1
CELLMARGIN_BEGIN
 40
0.06
 40
0.06
 40
0.06
 40
0.06
 40
0.18
 40
0.18
309
CELLMARGIN_END
 94
        6
 95
        1
302
GRIDFORMAT
  1
GRIDFORMAT_BEGIN
 90
        0
 91
        1
 62
     0
 92
       -2
340
0
 93
        0
 40
0.045
309
GRIDFORMAT_END
 95
        2
302
GRIDFORMAT
  1
GRIDFORMAT_BEGIN
 90
        0
 91
        1
 62
     0
 92
       -2
340
0
 93
        0
 40
0.045
309
GRIDFORMAT_END
 95
        4
302
GRIDFORMAT
  1
GRIDFORMAT_BEGIN
 90
        0
 91
        1
 62
     0
 92
       -2
340
0
 93
        0
 40
0.045
309
GRIDFORMAT_END
 95
        8
302
GRIDFORMAT
  1
GRIDFORMAT_BEGIN
 90
        0
 91
        1
 62
     0
 92
       -2
340
0
 93
        0
 40
0.045
309
GRIDFORMAT_END
 95
       16
302
GRIDFORMAT
  1
GRIDFORMAT_BEGIN
 90
        0
 91
        1
 62
     0
 92
       -2
340
0
 93
        0
 40
0.045
309
GRIDFORMAT_END
 95
       32
302
GRIDFORMAT
  1
GRIDFORMAT_BEGIN
 90
        0
 91
        1
 62
     0
 92
       -2
340
0
 93
        0
 40
0.045
309
GRIDFORMAT_END
309
TABLEFORMAT_END
  1
CELLSTYLE_BEGIN
 90
        3
 91
        2
300
_DATA
309
CELLSTYLE_END
  0
XRECORD
  5
8C6
102
{ACAD_REACTORS
330
104
102
}
330
104
100
AcDbXrecord
280
     1
102
ACAD_ROUNDTRIP_PRE2007_TABLESTYLE
 90
      512
 91
        0
  1

 92
      512
 93
        0
  2

 94
      512
 95
        0
  3

  0
XRECORD
  5
8D2
102
{ACAD_REACTORS
330
8D1
102
}
330
8D1
100
AcDbXrecord
280
     1
102
RTVSPost2010Prop28
280
     1
102
RTVSPost2010PropOp28
 70
     1
102
RTVSPost2010Prop29
280
     1
102
RTVSPost2010PropOp29
 70
     1
102
RTVSPost2010Prop30
280
     0
102
RTVSPost2010PropOp30
 70
     1
102
RTVSPost2010Prop31
280
     0
102
RTVSPost2010PropOp31
 70
     1
102
RTVSPost2010Prop32
280
     0
102
RTVSPost2010PropOp32
 70
     1
102
RTVSPost2010Prop33
280
     0
102
RTVSPost2010PropOp33
 70
     1
102
RTVSPost2010Prop34
280
     0
102
RTVSPost2010PropOp34
 70
     1
102
RTVSPost2010Prop35
280
     0
102
RTVSPost2010PropOp35
 70
     1
102
RTVSPost2010Prop36
280
     0
102
RTVSPost2010PropOp36
 70
     1
102
RTVSPost2010Prop37
 90
       50
102
RTVSPost2010PropOp37
 70
     1
102
RTVSPost2010Prop38
140
0.0
102
RTVSPost2010PropOp38
 70
     1
102
RTVSPost2010Prop39
140
1.0
102
RTVSPost2010PropOp39
 70
     1
102
RTVSPost2010Prop40
 90
        0
102
RTVSPost2010PropOp40
 70
     1
102
RTVSPost2010Prop41ColorIndex
 90
       18
102
RTVSPost2010Prop41ColorRGB
 90
        0
102
RTVSPost2010PropOp41
 70
     1
102
RTVSPost2010Prop42
 90
       50
102
RTVSPost2010PropOp42
 70
     1
102
RTVSPost2010Prop43
 90
        3
102
RTVSPost2010PropOp43
 70
     1
102
RTVSPost2010Prop44ColorIndex
 90
        5
102
RTVSPost2010Prop44ColorRGB
 90
      255
102
RTVSPost2010PropOp44
 70
     1
102
RTVSPost2010Prop45
280
     0
102
RTVSPost2010PropOp45
 70
     1
102
RTVSPost2010Prop46
 90
       50
102
RTVSPost2010PropOp46
 70
     1
102
RTVSPost2010Prop47
 90
       50
102
RTVSPost2010PropOp47
 70
     1
102
RTVSPost2010Prop48
 90
       50
102
RTVSPost2010PropOp48
 70
     1
102
RTVSPost2010Prop49
280
     0
102
RTVSPost2010PropOp49
 70
     1
102
RTVSPost2010Prop50
 90
       50
102
RTVSPost2010PropOp50
 70
     1
102
RTVSPost2010Prop51ColorIndex
 90
      256
102
RTVSPost2010Prop51ColorRGB
 90
-16777216
102
RTVSPost2010PropOp51
 70
     0
102
RTVSPost2010Prop52
140
1.0
102
RTVSPost2010PropOp52
 70
     0
102
RTVSPost2010Prop53
 90
        2
102
RTVSPost2010PropOp53
 70
     1
102
RTVSPost2010Prop54
  1
strokes_ogs.tif
102
RTVSPost2010PropOp54
 70
     1
102
RTVSPost2010Prop55
280
     0
102
RTVSPost2010PropOp55
 70
     1
102
RTVSPost2010Prop56
140
1.0
102
RTVSPost2010PropOp56
 70
     1
102
RTVSPost2010Prop57
140
1.0
102
RTVSPost2010PropOp57
 70
     1
102
RTVSPropertyOp0
 70
     1
102
RTVSPropertyOp1
 70
     1
102
RTVSPropertyOp2
 70
     1
102
RTVSPropertyOp3
 70
     1
102
RTVSPropertyOp4
 70
     1
102
RTVSPropertyOp5
 70
     1
102
RTVSPropertyOp6
 70
     1
102
RTVSPropertyOp7
 70
     1
102
RTVSPropertyOp8
 70
     1
102
RTVSPropertyOp9
 70
     1
102
RTVSPropertyOp10
 70
     1
102
RTVSPropertyOp11
 70
     1
102
RTVSPropertyOp12
 70
     1
102
RTVSPropertyOp13
 70
     1
102
RTVSPropertyOp14
 70
     1
102
RTVSPropertyOp15
 70
     1
102
RTVSPropertyOp16
 70
     1
102
RTVSPropertyOp17
 70
     1
102
RTVSPropertyOp18
 70
     1
102
RTVSPropertyOp19
 70
     1
102
RTVSPropertyOp20
 70
     1
102
RTVSPropertyOp21
 70
     1
102
RTVSPropertyOp22
 70
     1
102
RTVSPropertyOp23
 70
     1
102
RTVSPropertyOp24
 70
     1
102
RTVSPropertyOp25
 70
     1
102
RTVSPropertyOp26
 70
     1
102
RTVSPropertyOp27
 70
     1
102
RTVSPropertyOp28
 70
     1
102
RTVSPropertyOp29
 70
     1
102
RTVSPropertyOp30
 70
     1
102
RTVSPropertyOp31
 70
     1
102
RTVSPropertyOp32
 70
     1
102
RTVSPropertyOp33
 70
     1
102
RTVSPropertyOp34
 70
     1
102
RTVSPropertyOp35
 70
     1
102
RTVSPropertyOp36
 70
     1
102
RTVSPropertyOp37
 70
     1
102
RTVSPropertyOp38
 70
     1
102
RTVSPropertyOp39
 70
     1
102
RTVSPropertyOp40
 70
     1
102
RTVSPropertyOp41
 70
     1
102
RTVSPropertyOp42
 70
     1
102
RTVSPropertyOp43
 70
     1
102
RTVSPropertyOp44
 70
     1
102
RTVSPropertyOp45
 70
     1
102
RTVSPropertyOp46
 70
     1
102
RTVSPropertyOp47
 70
     1
102
RTVSPropertyOp48
 70
     1
102
RTVSPropertyOp49
 70
     1
102
RTVSPropertyOp50
 70
     1
102
RTVSPropertyOp51
 70
     0
102
RTVSPropertyOp52
 70
     0
102
RTVSPropertyOp53
 70
     1
102
RTVSPropertyOp54
 70
     1
102
RTVSPropertyOp55
 70
     1
102
RTVSPropertyOp56
 70
     1
102
RTVSPropertyOp57
 70
     1
102
RTVSPropertyOp58
 70
     1
102
RTVSPropertyOp59
 70
     1
102
RTVSPropertyOp60
 70
     1
102
RTVSPropertyOp61
 70
     1
102
RTVSPropertyOp62
 70
     1
  0
XRECORD
  5
8D6
102
{ACAD_REACTORS
330
8D5
102
}
330
8D5
100
AcDbXrecord
280
     1
102
RTVSPost2010Prop28
280
     0
102
RTVSPost2010PropOp28
 70
     1
102
RTVSPost2010Prop29
280
     1
102
RTVSPost2010PropOp29
 70
     1
102
RTVSPost2010Prop30
280
     1
102
RTVSPost2010PropOp30
 70
     1
102
RTVSPost2010Prop31
280
     0
102
RTVSPost2010PropOp31
 70
     1
102
RTVSPost2010Prop32
280
     0
102
RTVSPost2010PropOp32
 70
     1
102
RTVSPost2010Prop33
280
     0
102
RTVSPost2010PropOp33
 70
     1
102
RTVSPost2010Prop34
280
     0
102
RTVSPost2010PropOp34
 70
     1
102
RTVSPost2010Prop35
280
     0
102
RTVSPost2010PropOp35
 70
     1
102
RTVSPost2010Prop36
280
     0
102
RTVSPost2010PropOp36
 70
     1
102
RTVSPost2010Prop37
 90
       50
102
RTVSPost2010PropOp37
 70
     1
102
RTVSPost2010Prop38
140
0.0
102
RTVSPost2010PropOp38
 70
     1
102
RTVSPost2010Prop39
140
1.0
102
RTVSPost2010PropOp39
 70
     1
102
RTVSPost2010Prop40
 90
        0
102
RTVSPost2010PropOp40
 70
     1
102
RTVSPost2010Prop41ColorIndex
 90
       18
102
RTVSPost2010Prop41ColorRGB
 90
        0
102
RTVSPost2010PropOp41
 70
     1
102
RTVSPost2010Prop42
 90
       50
102
RTVSPost2010PropOp42
 70
     1
102
RTVSPost2010Prop43
 90
        3
102
RTVSPost2010PropOp43
 70
     1
102
RTVSPost2010Prop44ColorIndex
 90
        5
102
RTVSPost2010Prop44ColorRGB
 90
      255
102
RTVSPost2010PropOp44
 70
     1
102
RTVSPost2010Prop45
280
     0
102
RTVSPost2010PropOp45
 70
     1
102
RTVSPost2010Prop46
 90
       50
102
RTVSPost2010PropOp46
 70
     1
102
RTVSPost2010Prop47
 90
       50
102
RTVSPost2010PropOp47
 70
     1
102
RTVSPost2010Prop48
 90
       50
102
RTVSPost2010PropOp48
 70
     1
102
RTVSPost2010Prop49
280
     0
102
RTVSPost2010PropOp49
 70
     1
102
RTVSPost2010Prop50
 90
       50
102
RTVSPost2010PropOp50
 70
     1
102
RTVSPost2010Prop51ColorIndex
 90
      256
102
RTVSPost2010Prop51ColorRGB
 90
-16777216
102
RTVSPost2010PropOp51
 70
     0
102
RTVSPost2010Prop52
140
1.0
102
RTVSPost2010PropOp52
 70
     0
102
RTVSPost2010Prop53
 90
        2
102
RTVSPost2010PropOp53
 70
     1
102
RTVSPost2010Prop54
  1
strokes_ogs.tif
102
RTVSPost2010PropOp54
 70
     1
102
RTVSPost2010Prop55
280
     0
102
RTVSPost2010PropOp55
 70
     1
102
RTVSPost2010Prop56
140
1.0
102
RTVSPost2010PropOp56
 70
     1
102
RTVSPost2010Prop57
140
1.0
102
RTVSPost2010PropOp57
 70
     1
102
RTVSPropertyOp0
 70
     1
102
RTVSPropertyOp1
 70
     1
102
RTVSPropertyOp2
 70
     1
102
RTVSPropertyOp3
 70
     1
102
RTVSPropertyOp4
 70
     1
102
RTVSPropertyOp5
 70
     1
102
RTVSPropertyOp6
 70
     1
102
RTVSPropertyOp7
 70
     1
102
RTVSPropertyOp8
 70
     1
102
RTVSPropertyOp9
 70
     1
102
RTVSPropertyOp10
 70
     1
102
RTVSPropertyOp11
 70
     1
102
RTVSPropertyOp12
 70
     1
102
RTVSPropertyOp13
 70
     1
102
RTVSPropertyOp14
 70
     1
102
RTVSPropertyOp15
 70
     1
102
RTVSPropertyOp16
 70
     1
102
RTVSPropertyOp17
 70
     1
102
RTVSPropertyOp18
 70
     1
102
RTVSPropertyOp19
 70
     1
102
RTVSPropertyOp20
 70
     1
102
RTVSPropertyOp21
 70
     1
102
RTVSPropertyOp22
 70
     1
102
RTVSPropertyOp23
 70
     1
102
RTVSPropertyOp24
 70
     1
102
RTVSPropertyOp25
 70
     1
102
RTVSPropertyOp26
 70
     1
102
RTVSPropertyOp27
 70
     1
102
RTVSPropertyOp28
 70
     1
102
RTVSPropertyOp29
 70
     1
102
RTVSPropertyOp30
 70
     1
102
RTVSPropertyOp31
 70
     1
102
RTVSPropertyOp32
 70
     1
102
RTVSPropertyOp33
 70
     1
102
RTVSPropertyOp34
 70
     1
102
RTVSPropertyOp35
 70
     1
102
RTVSPropertyOp36
 70
     1
102
RTVSPropertyOp37
 70
     1
102
RTVSPropertyOp38
 70
     1
102
RTVSPropertyOp39
 70
     1
102
RTVSPropertyOp40
 70
     1
102
RTVSPropertyOp41
 70
     1
102
RTVSPropertyOp42
 70
     1
102
RTVSPropertyOp43
 70
     1
102
RTVSPropertyOp44
 70
     1
102
RTVSPropertyOp45
 70
     1
102
RTVSPropertyOp46
 70
     1
102
RTVSPropertyOp47
 70
     1
102
RTVSPropertyOp48
 70
     1
102
RTVSPropertyOp49
 70
     1
102
RTVSPropertyOp50
 70
     1
102
RTVSPropertyOp51
 70
     0
102
RTVSPropertyOp52
 70
     0
102
RTVSPropertyOp53
 70
     1
102
RTVSPropertyOp54
 70
     1
102
RTVSPropertyOp55
 70
     1
102
RTVSPropertyOp56
 70
     1
102
RTVSPropertyOp57
 70
     1
102
RTVSPropertyOp58
 70
     1
102
RTVSPropertyOp59
 70
     1
102
RTVSPropertyOp60
 70
     1
102
RTVSPropertyOp61
 70
     1
102
RTVSPropertyOp62
 70
     1
  0
XRECORD
  5
8D4
102
{ACAD_REACTORS
330
8D3
102
}
330
8D3
100
AcDbXrecord
280
     1
102
RTVSPost2010Prop28
280
     0
102
RTVSPost2010PropOp28
 70
     1
102
RTVSPost2010Prop29
280
     1
102
RTVSPost2010PropOp29
 70
     1
102
RTVSPost2010Prop30
280
     1
102
RTVSPost2010PropOp30
 70
     1
102
RTVSPost2010Prop31
280
     0
102
RTVSPost2010PropOp31
 70
     1
102
RTVSPost2010Prop32
280
     0
102
RTVSPost2010PropOp32
 70
     1
102
RTVSPost2010Prop33
280
     0
102
RTVSPost2010PropOp33
 70
     1
102
RTVSPost2010Prop34
280
     0
102
RTVSPost2010PropOp34
 70
     1
102
RTVSPost2010Prop35
280
     0
102
RTVSPost2010PropOp35
 70
     1
102
RTVSPost2010Prop36
280
     0
102
RTVSPost2010PropOp36
 70
     1
102
RTVSPost2010Prop37
 90
       50
102
RTVSPost2010PropOp37
 70
     1
102
RTVSPost2010Prop38
140
0.0
102
RTVSPost2010PropOp38
 70
     1
102
RTVSPost2010Prop39
140
1.0
102
RTVSPost2010PropOp39
 70
     1
102
RTVSPost2010Prop40
 90
        0
102
RTVSPost2010PropOp40
 70
     1
102
RTVSPost2010Prop41ColorIndex
 90
       18
102
RTVSPost2010Prop41ColorRGB
 90
        0
102
RTVSPost2010PropOp41
 70
     1
102
RTVSPost2010Prop42
 90
       50
102
RTVSPost2010PropOp42
 70
     1
102
RTVSPost2010Prop43
 90
        3
102
RTVSPost2010PropOp43
 70
     1
102
RTVSPost2010Prop44ColorIndex
 90
        5
102
RTVSPost2010Prop44ColorRGB
 90
      255
102
RTVSPost2010PropOp44
 70
     1
102
RTVSPost2010Prop45
280
     0
102
RTVSPost2010PropOp45
 70
     1
102
RTVSPost2010Prop46
 90
       50
102
RTVSPost2010PropOp46
 70
     1
102
RTVSPost2010Prop47
 90
       50
102
RTVSPost2010PropOp47
 70
     1
102
RTVSPost2010Prop48
 90
       50
102
RTVSPost2010PropOp48
 70
     1
102
RTVSPost2010Prop49
280
     0
102
RTVSPost2010PropOp49
 70
     1
102
RTVSPost2010Prop50
 90
       50
102
RTVSPost2010PropOp50
 70
     1
102
RTVSPost2010Prop51ColorIndex
 90
      256
102
RTVSPost2010Prop51ColorRGB
 90
-16777216
102
RTVSPost2010PropOp51
 70
     0
102
RTVSPost2010Prop52
140
1.0
102
RTVSPost2010PropOp52
 70
     0
102
RTVSPost2010Prop53
 90
        2
102
RTVSPost2010PropOp53
 70
     1
102
RTVSPost2010Prop54
  1
strokes_ogs.tif
102
RTVSPost2010PropOp54
 70
     1
102
RTVSPost2010Prop55
280
     0
102
RTVSPost2010PropOp55
 70
     1
102
RTVSPost2010Prop56
140
1.0
102
RTVSPost2010PropOp56
 70
     1
102
RTVSPost2010Prop57
140
1.0
102
RTVSPost2010PropOp57
 70
     1
102
RTVSPropertyOp0
 70
     1
102
RTVSPropertyOp1
 70
     1
102
RTVSPropertyOp2
 70
     1
102
RTVSPropertyOp3
 70
     1
102
RTVSPropertyOp4
 70
     1
102
RTVSPropertyOp5
 70
     1
102
RTVSPropertyOp6
 70
     1
102
RTVSPropertyOp7
 70
     1
102
RTVSPropertyOp8
 70
     1
102
RTVSPropertyOp9
 70
     1
102
RTVSPropertyOp10
 70
     1
102
RTVSPropertyOp11
 70
     1
102
RTVSPropertyOp12
 70
     1
102
RTVSPropertyOp13
 70
     1
102
RTVSPropertyOp14
 70
     1
102
RTVSPropertyOp15
 70
     1
102
RTVSPropertyOp16
 70
     1
102
RTVSPropertyOp17
 70
     1
102
RTVSPropertyOp18
 70
     1
102
RTVSPropertyOp19
 70
     1
102
RTVSPropertyOp20
 70
     1
102
RTVSPropertyOp21
 70
     1
102
RTVSPropertyOp22
 70
     1
102
RTVSPropertyOp23
 70
     1
102
RTVSPropertyOp24
 70
     1
102
RTVSPropertyOp25
 70
     1
102
RTVSPropertyOp26
 70
     1
102
RTVSPropertyOp27
 70
     1
102
RTVSPropertyOp28
 70
     1
102
RTVSPropertyOp29
 70
     1
102
RTVSPropertyOp30
 70
     1
102
RTVSPropertyOp31
 70
     1
102
RTVSPropertyOp32
 70
     1
102
RTVSPropertyOp33
 70
     1
102
RTVSPropertyOp34
 70
     1
102
RTVSPropertyOp35
 70
     1
102
RTVSPropertyOp36
 70
     1
102
RTVSPropertyOp37
 70
     1
102
RTVSPropertyOp38
 70
     1
102
RTVSPropertyOp39
 70
     1
102
RTVSPropertyOp40
 70
     1
102
RTVSPropertyOp41
 70
     1
102
RTVSPropertyOp42
 70
     1
102
RTVSPropertyOp43
 70
     1
102
RTVSPropertyOp44
 70
     1
102
RTVSPropertyOp45
 70
     1
102
RTVSPropertyOp46
 70
     1
102
RTVSPropertyOp47
 70
     1
102
RTVSPropertyOp48
 70
     1
102
RTVSPropertyOp49
 70
     1
102
RTVSPropertyOp50
 70
     1
102
RTVSPropertyOp51
 70
     0
102
RTVSPropertyOp52
 70
     0
102
RTVSPropertyOp53
 70
     1
102
RTVSPropertyOp54
 70
     1
102
RTVSPropertyOp55
 70
     1
102
RTVSPropertyOp56
 70
     1
102
RTVSPropertyOp57
 70
     1
102
RTVSPropertyOp58
 70
     1
102
RTVSPropertyOp59
 70
     1
102
RTVSPropertyOp60
 70
     1
102
RTVSPropertyOp61
 70
     1
102
RTVSPropertyOp62
 70
     1
  0
XRECORD
  5
8D0
102
{ACAD_REACTORS
330
8CF
102
}
330
8CF
100
AcDbXrecord
280
     1
102
RTVSPost2010Prop28
280
     0
102
RTVSPost2010PropOp28
 70
     1
102
RTVSPost2010Prop29
280
     1
102
RTVSPost2010PropOp29
 70
     1
102
RTVSPost2010Prop30
280
     1
102
RTVSPost2010PropOp30
 70
     1
102
RTVSPost2010Prop31
280
     0
102
RTVSPost2010PropOp31
 70
     1
102
RTVSPost2010Prop32
280
     0
102
RTVSPost2010PropOp32
 70
     1
102
RTVSPost2010Prop33
280
     0
102
RTVSPost2010PropOp33
 70
     1
102
RTVSPost2010Prop34
280
     0
102
RTVSPost2010PropOp34
 70
     1
102
RTVSPost2010Prop35
280
     0
102
RTVSPost2010PropOp35
 70
     1
102
RTVSPost2010Prop36
280
     0
102
RTVSPost2010PropOp36
 70
     1
102
RTVSPost2010Prop37
 90
       50
102
RTVSPost2010PropOp37
 70
     1
102
RTVSPost2010Prop38
140
0.0
102
RTVSPost2010PropOp38
 70
     1
102
RTVSPost2010Prop39
140
1.0
102
RTVSPost2010PropOp39
 70
     1
102
RTVSPost2010Prop40
 90
        0
102
RTVSPost2010PropOp40
 70
     1
102
RTVSPost2010Prop41ColorIndex
 90
       18
102
RTVSPost2010Prop41ColorRGB
 90
        0
102
RTVSPost2010PropOp41
 70
     1
102
RTVSPost2010Prop42
 90
       50
102
RTVSPost2010PropOp42
 70
     1
102
RTVSPost2010Prop43
 90
        3
102
RTVSPost2010PropOp43
 70
     1
102
RTVSPost2010Prop44ColorIndex
 90
        5
102
RTVSPost2010Prop44ColorRGB
 90
      255
102
RTVSPost2010PropOp44
 70
     1
102
RTVSPost2010Prop45
280
     0
102
RTVSPost2010PropOp45
 70
     1
102
RTVSPost2010Prop46
 90
       50
102
RTVSPost2010PropOp46
 70
     1
102
RTVSPost2010Prop47
 90
       50
102
RTVSPost2010PropOp47
 70
     1
102
RTVSPost2010Prop48
 90
       50
102
RTVSPost2010PropOp48
 70
     1
102
RTVSPost2010Prop49
280
     0
102
RTVSPost2010PropOp49
 70
     1
102
RTVSPost2010Prop50
 90
       50
102
RTVSPost2010PropOp50
 70
     1
102
RTVSPost2010Prop51ColorIndex
 90
      256
102
RTVSPost2010Prop51ColorRGB
 90
-16777216
102
RTVSPost2010PropOp51
 70
     0
102
RTVSPost2010Prop52
140
1.0
102
RTVSPost2010PropOp52
 70
     0
102
RTVSPost2010Prop53
 90
        2
102
RTVSPost2010PropOp53
 70
     1
102
RTVSPost2010Prop54
  1
strokes_ogs.tif
102
RTVSPost2010PropOp54
 70
     1
102
RTVSPost2010Prop55
280
     0
102
RTVSPost2010PropOp55
 70
     1
102
RTVSPost2010Prop56
140
1.0
102
RTVSPost2010PropOp56
 70
     1
102
RTVSPost2010Prop57
140
1.0
102
RTVSPost2010PropOp57
 70
     1
102
RTVSPropertyOp0
 70
     1
102
RTVSPropertyOp1
 70
     1
102
RTVSPropertyOp2
 70
     1
102
RTVSPropertyOp3
 70
     1
102
RTVSPropertyOp4
 70
     1
102
RTVSPropertyOp5
 70
     1
102
RTVSPropertyOp6
 70
     1
102
RTVSPropertyOp7
 70
     1
102
RTVSPropertyOp8
 70
     1
102
RTVSPropertyOp9
 70
     1
102
RTVSPropertyOp10
 70
     1
102
RTVSPropertyOp11
 70
     1
102
RTVSPropertyOp12
 70
     1
102
RTVSPropertyOp13
 70
     1
102
RTVSPropertyOp14
 70
     1
102
RTVSPropertyOp15
 70
     1
102
RTVSPropertyOp16
 70
     1
102
RTVSPropertyOp17
 70
     1
102
RTVSPropertyOp18
 70
     1
102
RTVSPropertyOp19
 70
     1
102
RTVSPropertyOp20
 70
     1
102
RTVSPropertyOp21
 70
     1
102
RTVSPropertyOp22
 70
     1
102
RTVSPropertyOp23
 70
     1
102
RTVSPropertyOp24
 70
     1
102
RTVSPropertyOp25
 70
     1
102
RTVSPropertyOp26
 70
     1
102
RTVSPropertyOp27
 70
     1
102
RTVSPropertyOp28
 70
     1
102
RTVSPropertyOp29
 70
     1
102
RTVSPropertyOp30
 70
     1
102
RTVSPropertyOp31
 70
     1
102
RTVSPropertyOp32
 70
     1
102
RTVSPropertyOp33
 70
     1
102
RTVSPropertyOp34
 70
     1
102
RTVSPropertyOp35
 70
     1
102
RTVSPropertyOp36
 70
     1
102
RTVSPropertyOp37
 70
     1
102
RTVSPropertyOp38
 70
     1
102
RTVSPropertyOp39
 70
     1
102
RTVSPropertyOp40
 70
     1
102
RTVSPropertyOp41
 70
     1
102
RTVSPropertyOp42
 70
     1
102
RTVSPropertyOp43
 70
     1
102
RTVSPropertyOp44
 70
     1
102
RTVSPropertyOp45
 70
     1
102
RTVSPropertyOp46
 70
     1
102
RTVSPropertyOp47
 70
     1
102
RTVSPropertyOp48
 70
     1
102
RTVSPropertyOp49
 70
     1
102
RTVSPropertyOp50
 70
     1
102
RTVSPropertyOp51
 70
     0
102
RTVSPropertyOp52
 70
     0
102
RTVSPropertyOp53
 70
     1
102
RTVSPropertyOp54
 70
     1
102
RTVSPropertyOp55
 70
     1
102
RTVSPropertyOp56
 70
     1
102
RTVSPropertyOp57
 70
     1
102
RTVSPropertyOp58
 70
     1
102
RTVSPropertyOp59
 70
     1
102
RTVSPropertyOp60
 70
     1
102
RTVSPropertyOp61
 70
     1
102
RTVSPropertyOp62
 70
     1
  0
XRECORD
  5
8DE
102
{ACAD_REACTORS
330
8DD
102
}
330
8DD
100
AcDbXrecord
280
     1
102
RTVSPost2010Prop28
280
     0
102
RTVSPost2010PropOp28
 70
     1
102
RTVSPost2010Prop29
280
     1
102
RTVSPost2010PropOp29
 70
     1
102
RTVSPost2010Prop30
280
     1
102
RTVSPost2010PropOp30
 70
     1
102
RTVSPost2010Prop31
280
     0
102
RTVSPost2010PropOp31
 70
     1
102
RTVSPost2010Prop32
280
     0
102
RTVSPost2010PropOp32
 70
     1
102
RTVSPost2010Prop33
280
     0
102
RTVSPost2010PropOp33
 70
     1
102
RTVSPost2010Prop34
280
     0
102
RTVSPost2010PropOp34
 70
     1
102
RTVSPost2010Prop35
280
     0
102
RTVSPost2010PropOp35
 70
     1
102
RTVSPost2010Prop36
280
     0
102
RTVSPost2010PropOp36
 70
     1
102
RTVSPost2010Prop37
 90
       50
102
RTVSPost2010PropOp37
 70
     1
102
RTVSPost2010Prop38
140
0.0
102
RTVSPost2010PropOp38
 70
     1
102
RTVSPost2010Prop39
140
1.0
102
RTVSPost2010PropOp39
 70
     1
102
RTVSPost2010Prop40
 90
        0
102
RTVSPost2010PropOp40
 70
     1
102
RTVSPost2010Prop41ColorIndex
 90
       18
102
RTVSPost2010Prop41ColorRGB
 90
        0
102
RTVSPost2010PropOp41
 70
     1
102
RTVSPost2010Prop42
 90
       50
102
RTVSPost2010PropOp42
 70
     1
102
RTVSPost2010Prop43
 90
        3
102
RTVSPost2010PropOp43
 70
     1
102
RTVSPost2010Prop44ColorIndex
 90
        5
102
RTVSPost2010Prop44ColorRGB
 90
      255
102
RTVSPost2010PropOp44
 70
     1
102
RTVSPost2010Prop45
280
     0
102
RTVSPost2010PropOp45
 70
     1
102
RTVSPost2010Prop46
 90
       50
102
RTVSPost2010PropOp46
 70
     1
102
RTVSPost2010Prop47
 90
       50
102
RTVSPost2010PropOp47
 70
     1
102
RTVSPost2010Prop48
 90
       50
102
RTVSPost2010PropOp48
 70
     1
102
RTVSPost2010Prop49
280
     0
102
RTVSPost2010PropOp49
 70
     1
102
RTVSPost2010Prop50
 90
       50
102
RTVSPost2010PropOp50
 70
     1
102
RTVSPost2010Prop51ColorIndex
 90
      256
102
RTVSPost2010Prop51ColorRGB
 90
-16777216
102
RTVSPost2010PropOp51
 70
     0
102
RTVSPost2010Prop52
140
1.0
102
RTVSPost2010PropOp52
 70
     0
102
RTVSPost2010Prop53
 90
        2
102
RTVSPost2010PropOp53
 70
     1
102
RTVSPost2010Prop54
  1
strokes_ogs.tif
102
RTVSPost2010PropOp54
 70
     1
102
RTVSPost2010Prop55
280
     0
102
RTVSPost2010PropOp55
 70
     1
102
RTVSPost2010Prop56
140
1.0
102
RTVSPost2010PropOp56
 70
     1
102
RTVSPost2010Prop57
140
1.0
102
RTVSPost2010PropOp57
 70
     1
102
RTVSPropertyOp0
 70
     1
102
RTVSPropertyOp1
 70
     1
102
RTVSPropertyOp2
 70
     1
102
RTVSPropertyOp3
 70
     1
102
RTVSPropertyOp4
 70
     1
102
RTVSPropertyOp5
 70
     1
102
RTVSPropertyOp6
 70
     1
102
RTVSPropertyOp7
 70
     1
102
RTVSPropertyOp8
 70
     1
102
RTVSPropertyOp9
 70
     1
102
RTVSPropertyOp10
 70
     1
102
RTVSPropertyOp11
 70
     1
102
RTVSPropertyOp12
 70
     1
102
RTVSPropertyOp13
 70
     1
102
RTVSPropertyOp14
 70
     1
102
RTVSPropertyOp15
 70
     1
102
RTVSPropertyOp16
 70
     1
102
RTVSPropertyOp17
 70
     1
102
RTVSPropertyOp18
 70
     1
102
RTVSPropertyOp19
 70
     1
102
RTVSPropertyOp20
 70
     1
102
RTVSPropertyOp21
 70
     1
102
RTVSPropertyOp22
 70
     1
102
RTVSPropertyOp23
 70
     1
102
RTVSPropertyOp24
 70
     1
102
RTVSPropertyOp25
 70
     1
102
RTVSPropertyOp26
 70
     1
102
RTVSPropertyOp27
 70
     1
102
RTVSPropertyOp28
 70
     1
102
RTVSPropertyOp29
 70
     1
102
RTVSPropertyOp30
 70
     1
102
RTVSPropertyOp31
 70
     1
102
RTVSPropertyOp32
 70
     1
102
RTVSPropertyOp33
 70
     1
102
RTVSPropertyOp34
 70
     1
102
RTVSPropertyOp35
 70
     1
102
RTVSPropertyOp36
 70
     1
102
RTVSPropertyOp37
 70
     1
102
RTVSPropertyOp38
 70
     1
102
RTVSPropertyOp39
 70
     1
102
RTVSPropertyOp40
 70
     1
102
RTVSPropertyOp41
 70
     1
102
RTVSPropertyOp42
 70
     1
102
RTVSPropertyOp43
 70
     1
102
RTVSPropertyOp44
 70
     1
102
RTVSPropertyOp45
 70
     1
102
RTVSPropertyOp46
 70
     1
102
RTVSPropertyOp47
 70
     1
102
RTVSPropertyOp48
 70
     1
102
RTVSPropertyOp49
 70
     1
102
RTVSPropertyOp50
 70
     1
102
RTVSPropertyOp51
 70
     0
102
RTVSPropertyOp52
 70
     0
102
RTVSPropertyOp53
 70
     1
102
RTVSPropertyOp54
 70
     1
102
RTVSPropertyOp55
 70
     1
102
RTVSPropertyOp56
 70
     1
102
RTVSPropertyOp57
 70
     1
102
RTVSPropertyOp58
 70
     1
102
RTVSPropertyOp59
 70
     1
102
RTVSPropertyOp60
 70
     1
102
RTVSPropertyOp61
 70
     1
102
RTVSPropertyOp62
 70
     1
  0
XRECORD
  5
8E6
102
{ACAD_REACTORS
330
8E5
102
}
330
8E5
100
AcDbXrecord
280
     1
102
RTVSPost2010Prop28
280
     0
102
RTVSPost2010PropOp28
 70
     1
102
RTVSPost2010Prop29
280
     1
102
RTVSPost2010PropOp29
 70
     1
102
RTVSPost2010Prop30
280
     1
102
RTVSPost2010PropOp30
 70
     1
102
RTVSPost2010Prop31
280
     0
102
RTVSPost2010PropOp31
 70
     1
102
RTVSPost2010Prop32
280
     0
102
RTVSPost2010PropOp32
 70
     1
102
RTVSPost2010Prop33
280
     0
102
RTVSPost2010PropOp33
 70
     1
102
RTVSPost2010Prop34
280
     0
102
RTVSPost2010PropOp34
 70
     1
102
RTVSPost2010Prop35
280
     0
102
RTVSPost2010PropOp35
 70
     1
102
RTVSPost2010Prop36
280
     0
102
RTVSPost2010PropOp36
 70
     1
102
RTVSPost2010Prop37
 90
       50
102
RTVSPost2010PropOp37
 70
     1
102
RTVSPost2010Prop38
140
0.0
102
RTVSPost2010PropOp38
 70
     1
102
RTVSPost2010Prop39
140
1.0
102
RTVSPost2010PropOp39
 70
     1
102
RTVSPost2010Prop40
 90
        0
102
RTVSPost2010PropOp40
 70
     1
102
RTVSPost2010Prop41ColorIndex
 90
       18
102
RTVSPost2010Prop41ColorRGB
 90
        0
102
RTVSPost2010PropOp41
 70
     1
102
RTVSPost2010Prop42
 90
       50
102
RTVSPost2010PropOp42
 70
     1
102
RTVSPost2010Prop43
 90
        3
102
RTVSPost2010PropOp43
 70
     1
102
RTVSPost2010Prop44ColorIndex
 90
        5
102
RTVSPost2010Prop44ColorRGB
 90
      255
102
RTVSPost2010PropOp44
 70
     1
102
RTVSPost2010Prop45
280
     0
102
RTVSPost2010PropOp45
 70
     1
102
RTVSPost2010Prop46
 90
       50
102
RTVSPost2010PropOp46
 70
     1
102
RTVSPost2010Prop47
 90
       50
102
RTVSPost2010PropOp47
 70
     1
102
RTVSPost2010Prop48
 90
       50
102
RTVSPost2010PropOp48
 70
     1
102
RTVSPost2010Prop49
280
     0
102
RTVSPost2010PropOp49
 70
     1
102
RTVSPost2010Prop50
 90
       50
102
RTVSPost2010PropOp50
 70
     1
102
RTVSPost2010Prop51ColorIndex
 90
      256
102
RTVSPost2010Prop51ColorRGB
 90
-16777216
102
RTVSPost2010PropOp51
 70
     0
102
RTVSPost2010Prop52
140
1.0
102
RTVSPost2010PropOp52
 70
     0
102
RTVSPost2010Prop53
 90
        2
102
RTVSPost2010PropOp53
 70
     1
102
RTVSPost2010Prop54
  1
strokes_ogs.tif
102
RTVSPost2010PropOp54
 70
     1
102
RTVSPost2010Prop55
280
     0
102
RTVSPost2010PropOp55
 70
     1
102
RTVSPost2010Prop56
140
1.0
102
RTVSPost2010PropOp56
 70
     1
102
RTVSPost2010Prop57
140
1.0
102
RTVSPost2010PropOp57
 70
     1
102
RTVSPropertyOp0
 70
     1
102
RTVSPropertyOp1
 70
     1
102
RTVSPropertyOp2
 70
     1
102
RTVSPropertyOp3
 70
     1
102
RTVSPropertyOp4
 70
     1
102
RTVSPropertyOp5
 70
     1
102
RTVSPropertyOp6
 70
     1
102
RTVSPropertyOp7
 70
     1
102
RTVSPropertyOp8
 70
     1
102
RTVSPropertyOp9
 70
     1
102
RTVSPropertyOp10
 70
     1
102
RTVSPropertyOp11
 70
     1
102
RTVSPropertyOp12
 70
     1
102
RTVSPropertyOp13
 70
     1
102
RTVSPropertyOp14
 70
     1
102
RTVSPropertyOp15
 70
     1
102
RTVSPropertyOp16
 70
     1
102
RTVSPropertyOp17
 70
     1
102
RTVSPropertyOp18
 70
     1
102
RTVSPropertyOp19
 70
     1
102
RTVSPropertyOp20
 70
     1
102
RTVSPropertyOp21
 70
     1
102
RTVSPropertyOp22
 70
     1
102
RTVSPropertyOp23
 70
     1
102
RTVSPropertyOp24
 70
     1
102
RTVSPropertyOp25
 70
     1
102
RTVSPropertyOp26
 70
     1
102
RTVSPropertyOp27
 70
     1
102
RTVSPropertyOp28
 70
     1
102
RTVSPropertyOp29
 70
     1
102
RTVSPropertyOp30
 70
     1
102
RTVSPropertyOp31
 70
     1
102
RTVSPropertyOp32
 70
     1
102
RTVSPropertyOp33
 70
     1
102
RTVSPropertyOp34
 70
     1
102
RTVSPropertyOp35
 70
     1
102
RTVSPropertyOp36
 70
     1
102
RTVSPropertyOp37
 70
     1
102
RTVSPropertyOp38
 70
     1
102
RTVSPropertyOp39
 70
     1
102
RTVSPropertyOp40
 70
     1
102
RTVSPropertyOp41
 70
     1
102
RTVSPropertyOp42
 70
     1
102
RTVSPropertyOp43
 70
     1
102
RTVSPropertyOp44
 70
     1
102
RTVSPropertyOp45
 70
     1
102
RTVSPropertyOp46
 70
     1
102
RTVSPropertyOp47
 70
     1
102
RTVSPropertyOp48
 70
     1
102
RTVSPropertyOp49
 70
     1
102
RTVSPropertyOp50
 70
     1
102
RTVSPropertyOp51
 70
     0
102
RTVSPropertyOp52
 70
     0
102
RTVSPropertyOp53
 70
     1
102
RTVSPropertyOp54
 70
     1
102
RTVSPropertyOp55
 70
     1
102
RTVSPropertyOp56
 70
     1
102
RTVSPropertyOp57
 70
     1
102
RTVSPropertyOp58
 70
     1
102
RTVSPropertyOp59
 70
     1
102
RTVSPropertyOp60
 70
     1
102
RTVSPropertyOp61
 70
     1
102
RTVSPropertyOp62
 70
     1
  0
XRECORD
  5
8D8
102
{ACAD_REACTORS
330
8D7
102
}
330
8D7
100
AcDbXrecord
280
     1
102
RTVSPost2010Prop28
280
     0
102
RTVSPost2010PropOp28
 70
     1
102
RTVSPost2010Prop29
280
     1
102
RTVSPost2010PropOp29
 70
     1
102
RTVSPost2010Prop30
280
     1
102
RTVSPost2010PropOp30
 70
     1
102
RTVSPost2010Prop31
280
     0
102
RTVSPost2010PropOp31
 70
     1
102
RTVSPost2010Prop32
280
     0
102
RTVSPost2010PropOp32
 70
     1
102
RTVSPost2010Prop33
280
     0
102
RTVSPost2010PropOp33
 70
     1
102
RTVSPost2010Prop34
280
     0
102
RTVSPost2010PropOp34
 70
     1
102
RTVSPost2010Prop35
280
     0
102
RTVSPost2010PropOp35
 70
     1
102
RTVSPost2010Prop36
280
     0
102
RTVSPost2010PropOp36
 70
     1
102
RTVSPost2010Prop37
 90
       50
102
RTVSPost2010PropOp37
 70
     1
102
RTVSPost2010Prop38
140
0.0
102
RTVSPost2010PropOp38
 70
     1
102
RTVSPost2010Prop39
140
1.0
102
RTVSPost2010PropOp39
 70
     1
102
RTVSPost2010Prop40
 90
        0
102
RTVSPost2010PropOp40
 70
     1
102
RTVSPost2010Prop41ColorIndex
 90
       18
102
RTVSPost2010Prop41ColorRGB
 90
        0
102
RTVSPost2010PropOp41
 70
     1
102
RTVSPost2010Prop42
 90
       50
102
RTVSPost2010PropOp42
 70
     1
102
RTVSPost2010Prop43
 90
        3
102
RTVSPost2010PropOp43
 70
     1
102
RTVSPost2010Prop44ColorIndex
 90
        5
102
RTVSPost2010Prop44ColorRGB
 90
      255
102
RTVSPost2010PropOp44
 70
     1
102
RTVSPost2010Prop45
280
     0
102
RTVSPost2010PropOp45
 70
     1
102
RTVSPost2010Prop46
 90
       50
102
RTVSPost2010PropOp46
 70
     1
102
RTVSPost2010Prop47
 90
       50
102
RTVSPost2010PropOp47
 70
     1
102
RTVSPost2010Prop48
 90
       50
102
RTVSPost2010PropOp48
 70
     1
102
RTVSPost2010Prop49
280
     0
102
RTVSPost2010PropOp49
 70
     1
102
RTVSPost2010Prop50
 90
       50
102
RTVSPost2010PropOp50
 70
     1
102
RTVSPost2010Prop51ColorIndex
 90
      256
102
RTVSPost2010Prop51ColorRGB
 90
-16777216
102
RTVSPost2010PropOp51
 70
     0
102
RTVSPost2010Prop52
140
1.0
102
RTVSPost2010PropOp52
 70
     0
102
RTVSPost2010Prop53
 90
        2
102
RTVSPost2010PropOp53
 70
     1
102
RTVSPost2010Prop54
  1
strokes_ogs.tif
102
RTVSPost2010PropOp54
 70
     1
102
RTVSPost2010Prop55
280
     0
102
RTVSPost2010PropOp55
 70
     1
102
RTVSPost2010Prop56
140
1.0
102
RTVSPost2010PropOp56
 70
     1
102
RTVSPost2010Prop57
140
1.0
102
RTVSPost2010PropOp57
 70
     1
102
RTVSPropertyOp0
 70
     1
102
RTVSPropertyOp1
 70
     1
102
RTVSPropertyOp2
 70
     1
102
RTVSPropertyOp3
 70
     1
102
RTVSPropertyOp4
 70
     1
102
RTVSPropertyOp5
 70
     1
102
RTVSPropertyOp6
 70
     1
102
RTVSPropertyOp7
 70
     1
102
RTVSPropertyOp8
 70
     1
102
RTVSPropertyOp9
 70
     1
102
RTVSPropertyOp10
 70
     1
102
RTVSPropertyOp11
 70
     1
102
RTVSPropertyOp12
 70
     1
102
RTVSPropertyOp13
 70
     1
102
RTVSPropertyOp14
 70
     1
102
RTVSPropertyOp15
 70
     1
102
RTVSPropertyOp16
 70
     1
102
RTVSPropertyOp17
 70
     1
102
RTVSPropertyOp18
 70
     1
102
RTVSPropertyOp19
 70
     1
102
RTVSPropertyOp20
 70
     1
102
RTVSPropertyOp21
 70
     1
102
RTVSPropertyOp22
 70
     1
102
RTVSPropertyOp23
 70
     1
102
RTVSPropertyOp24
 70
     1
102
RTVSPropertyOp25
 70
     1
102
RTVSPropertyOp26
 70
     1
102
RTVSPropertyOp27
 70
     1
102
RTVSPropertyOp28
 70
     1
102
RTVSPropertyOp29
 70
     1
102
RTVSPropertyOp30
 70
     1
102
RTVSPropertyOp31
 70
     1
102
RTVSPropertyOp32
 70
     1
102
RTVSPropertyOp33
 70
     1
102
RTVSPropertyOp34
 70
     1
102
RTVSPropertyOp35
 70
     1
102
RTVSPropertyOp36
 70
     1
102
RTVSPropertyOp37
 70
     1
102
RTVSPropertyOp38
 70
     1
102
RTVSPropertyOp39
 70
     1
102
RTVSPropertyOp40
 70
     1
102
RTVSPropertyOp41
 70
     1
102
RTVSPropertyOp42
 70
     1
102
RTVSPropertyOp43
 70
     1
102
RTVSPropertyOp44
 70
     1
102
RTVSPropertyOp45
 70
     1
102
RTVSPropertyOp46
 70
     1
102
RTVSPropertyOp47
 70
     1
102
RTVSPropertyOp48
 70
     1
102
RTVSPropertyOp49
 70
     1
102
RTVSPropertyOp50
 70
     1
102
RTVSPropertyOp51
 70
     0
102
RTVSPropertyOp52
 70
     0
102
RTVSPropertyOp53
 70
     1
102
RTVSPropertyOp54
 70
     1
102
RTVSPropertyOp55
 70
     1
102
RTVSPropertyOp56
 70
     1
102
RTVSPropertyOp57
 70
     1
102
RTVSPropertyOp58
 70
     1
102
RTVSPropertyOp59
 70
     1
102
RTVSPropertyOp60
 70
     1
102
RTVSPropertyOp61
 70
     1
102
RTVSPropertyOp62
 70
     1
  0
XRECORD
  5
8DC
102
{ACAD_REACTORS
330
8DB
102
}
330
8DB
100
AcDbXrecord
280
     1
102
RTVSPost2010Prop28
280
     0
102
RTVSPost2010PropOp28
 70
     1
102
RTVSPost2010Prop29
280
     1
102
RTVSPost2010PropOp29
 70
     1
102
RTVSPost2010Prop30
280
     1
102
RTVSPost2010PropOp30
 70
     1
102
RTVSPost2010Prop31
280
     0
102
RTVSPost2010PropOp31
 70
     1
102
RTVSPost2010Prop32
280
     0
102
RTVSPost2010PropOp32
 70
     1
102
RTVSPost2010Prop33
280
     0
102
RTVSPost2010PropOp33
 70
     1
102
RTVSPost2010Prop34
280
     0
102
RTVSPost2010PropOp34
 70
     1
102
RTVSPost2010Prop35
280
     0
102
RTVSPost2010PropOp35
 70
     1
102
RTVSPost2010Prop36
280
     0
102
RTVSPost2010PropOp36
 70
     1
102
RTVSPost2010Prop37
 90
       50
102
RTVSPost2010PropOp37
 70
     1
102
RTVSPost2010Prop38
140
0.0
102
RTVSPost2010PropOp38
 70
     1
102
RTVSPost2010Prop39
140
1.0
102
RTVSPost2010PropOp39
 70
     1
102
RTVSPost2010Prop40
 90
        0
102
RTVSPost2010PropOp40
 70
     1
102
RTVSPost2010Prop41ColorIndex
 90
       18
102
RTVSPost2010Prop41ColorRGB
 90
        0
102
RTVSPost2010PropOp41
 70
     1
102
RTVSPost2010Prop42
 90
       50
102
RTVSPost2010PropOp42
 70
     1
102
RTVSPost2010Prop43
 90
        3
102
RTVSPost2010PropOp43
 70
     1
102
RTVSPost2010Prop44ColorIndex
 90
        5
102
RTVSPost2010Prop44ColorRGB
 90
      255
102
RTVSPost2010PropOp44
 70
     1
102
RTVSPost2010Prop45
280
     0
102
RTVSPost2010PropOp45
 70
     1
102
RTVSPost2010Prop46
 90
       50
102
RTVSPost2010PropOp46
 70
     1
102
RTVSPost2010Prop47
 90
       50
102
RTVSPost2010PropOp47
 70
     1
102
RTVSPost2010Prop48
 90
       50
102
RTVSPost2010PropOp48
 70
     1
102
RTVSPost2010Prop49
280
     0
102
RTVSPost2010PropOp49
 70
     1
102
RTVSPost2010Prop50
 90
       50
102
RTVSPost2010PropOp50
 70
     1
102
RTVSPost2010Prop51ColorIndex
 90
      256
102
RTVSPost2010Prop51ColorRGB
 90
-16777216
102
RTVSPost2010PropOp51
 70
     0
102
RTVSPost2010Prop52
140
1.0
102
RTVSPost2010PropOp52
 70
     0
102
RTVSPost2010Prop53
 90
        2
102
RTVSPost2010PropOp53
 70
     1
102
RTVSPost2010Prop54
  1
strokes_ogs.tif
102
RTVSPost2010PropOp54
 70
     1
102
RTVSPost2010Prop55
280
     0
102
RTVSPost2010PropOp55
 70
     1
102
RTVSPost2010Prop56
140
1.0
102
RTVSPost2010PropOp56
 70
     1
102
RTVSPost2010Prop57
140
1.0
102
RTVSPost2010PropOp57
 70
     1
102
RTVSPropertyOp0
 70
     1
102
RTVSPropertyOp1
 70
     1
102
RTVSPropertyOp2
 70
     1
102
RTVSPropertyOp3
 70
     1
102
RTVSPropertyOp4
 70
     1
102
RTVSPropertyOp5
 70
     1
102
RTVSPropertyOp6
 70
     1
102
RTVSPropertyOp7
 70
     1
102
RTVSPropertyOp8
 70
     1
102
RTVSPropertyOp9
 70
     1
102
RTVSPropertyOp10
 70
     1
102
RTVSPropertyOp11
 70
     1
102
RTVSPropertyOp12
 70
     1
102
RTVSPropertyOp13
 70
     1
102
RTVSPropertyOp14
 70
     1
102
RTVSPropertyOp15
 70
     1
102
RTVSPropertyOp16
 70
     1
102
RTVSPropertyOp17
 70
     1
102
RTVSPropertyOp18
 70
     1
102
RTVSPropertyOp19
 70
     1
102
RTVSPropertyOp20
 70
     1
102
RTVSPropertyOp21
 70
     1
102
RTVSPropertyOp22
 70
     1
102
RTVSPropertyOp23
 70
     1
102
RTVSPropertyOp24
 70
     1
102
RTVSPropertyOp25
 70
     1
102
RTVSPropertyOp26
 70
     1
102
RTVSPropertyOp27
 70
     1
102
RTVSPropertyOp28
 70
     1
102
RTVSPropertyOp29
 70
     1
102
RTVSPropertyOp30
 70
     1
102
RTVSPropertyOp31
 70
     1
102
RTVSPropertyOp32
 70
     1
102
RTVSPropertyOp33
 70
     1
102
RTVSPropertyOp34
 70
     1
102
RTVSPropertyOp35
 70
     1
102
RTVSPropertyOp36
 70
     1
102
RTVSPropertyOp37
 70
     1
102
RTVSPropertyOp38
 70
     1
102
RTVSPropertyOp39
 70
     1
102
RTVSPropertyOp40
 70
     1
102
RTVSPropertyOp41
 70
     1
102
RTVSPropertyOp42
 70
     1
102
RTVSPropertyOp43
 70
     1
102
RTVSPropertyOp44
 70
     1
102
RTVSPropertyOp45
 70
     1
102
RTVSPropertyOp46
 70
     1
102
RTVSPropertyOp47
 70
     1
102
RTVSPropertyOp48
 70
     1
102
RTVSPropertyOp49
 70
     1
102
RTVSPropertyOp50
 70
     1
102
RTVSPropertyOp51
 70
     0
102
RTVSPropertyOp52
 70
     0
102
RTVSPropertyOp53
 70
     1
102
RTVSPropertyOp54
 70
     1
102
RTVSPropertyOp55
 70
     1
102
RTVSPropertyOp56
 70
     1
102
RTVSPropertyOp57
 70
     1
102
RTVSPropertyOp58
 70
     1
102
RTVSPropertyOp59
 70
     1
102
RTVSPropertyOp60
 70
     1
102
RTVSPropertyOp61
 70
     1
102
RTVSPropertyOp62
 70
     1
  0
XRECORD
  5
8FA
102
{ACAD_REACTORS
330
8F9
102
}
330
8F9
100
AcDbXrecord
280
     1
102
RTVSPost2010Prop28
280
     0
102
RTVSPost2010PropOp28
 70
     1
102
RTVSPost2010Prop29
280
     1
102
RTVSPost2010PropOp29
 70
     1
102
RTVSPost2010Prop30
280
     1
102
RTVSPost2010PropOp30
 70
     1
102
RTVSPost2010Prop31
280
     0
102
RTVSPost2010PropOp31
 70
     1
102
RTVSPost2010Prop32
280
     0
102
RTVSPost2010PropOp32
 70
     1
102
RTVSPost2010Prop33
280
     0
102
RTVSPost2010PropOp33
 70
     1
102
RTVSPost2010Prop34
280
     0
102
RTVSPost2010PropOp34
 70
     1
102
RTVSPost2010Prop35
280
     0
102
RTVSPost2010PropOp35
 70
     1
102
RTVSPost2010Prop36
280
     0
102
RTVSPost2010PropOp36
 70
     1
102
RTVSPost2010Prop37
 90
       50
102
RTVSPost2010PropOp37
 70
     0
102
RTVSPost2010Prop38
140
0.0
102
RTVSPost2010PropOp38
 70
     0
102
RTVSPost2010Prop39
140
1.0
102
RTVSPost2010PropOp39
 70
     0
102
RTVSPost2010Prop40
 90
        0
102
RTVSPost2010PropOp40
 70
     0
102
RTVSPost2010Prop41ColorIndex
 90
       18
102
RTVSPost2010Prop41ColorRGB
 90
        0
102
RTVSPost2010PropOp41
 70
     0
102
RTVSPost2010Prop42
 90
       50
102
RTVSPost2010PropOp42
 70
     0
102
RTVSPost2010Prop43
 90
        3
102
RTVSPost2010PropOp43
 70
     0
102
RTVSPost2010Prop44ColorIndex
 90
        5
102
RTVSPost2010Prop44ColorRGB
 90
      255
102
RTVSPost2010PropOp44
 70
     0
102
RTVSPost2010Prop45
280
     0
102
RTVSPost2010PropOp45
 70
     1
102
RTVSPost2010Prop46
 90
       50
102
RTVSPost2010PropOp46
 70
     0
102
RTVSPost2010Prop47
 90
       50
102
RTVSPost2010PropOp47
 70
     0
102
RTVSPost2010Prop48
 90
       50
102
RTVSPost2010PropOp48
 70
     0
102
RTVSPost2010Prop49
280
     0
102
RTVSPost2010PropOp49
 70
     1
102
RTVSPost2010Prop50
 90
       50
102
RTVSPost2010PropOp50
 70
     0
102
RTVSPost2010Prop51ColorIndex
 90
      256
102
RTVSPost2010Prop51ColorRGB
 90
-16777216
102
RTVSPost2010PropOp51
 70
     0
102
RTVSPost2010Prop52
140
1.0
102
RTVSPost2010PropOp52
 70
     0
102
RTVSPost2010Prop53
 90
        2
102
RTVSPost2010PropOp53
 70
     0
102
RTVSPost2010Prop54
  1
strokes_ogs.tif
102
RTVSPost2010PropOp54
 70
     0
102
RTVSPost2010Prop55
280
     0
102
RTVSPost2010PropOp55
 70
     1
102
RTVSPost2010Prop56
140
1.0
102
RTVSPost2010PropOp56
 70
     0
102
RTVSPost2010Prop57
140
1.0
102
RTVSPost2010PropOp57
 70
     0
102
RTVSPropertyOp0
 70
     0
102
RTVSPropertyOp1
 70
     0
102
RTVSPropertyOp2
 70
     0
102
RTVSPropertyOp3
 70
     0
102
RTVSPropertyOp4
 70
     0
102
RTVSPropertyOp5
 70
     0
102
RTVSPropertyOp6
 70
     0
102
RTVSPropertyOp7
 70
     0
102
RTVSPropertyOp8
 70
     0
102
RTVSPropertyOp9
 70
     0
102
RTVSPropertyOp10
 70
     0
102
RTVSPropertyOp11
 70
     0
102
RTVSPropertyOp12
 70
     0
102
RTVSPropertyOp13
 70
     0
102
RTVSPropertyOp14
 70
     2
102
RTVSPropertyOp15
 70
     0
102
RTVSPropertyOp16
 70
     0
102
RTVSPropertyOp17
 70
     0
102
RTVSPropertyOp18
 70
     0
102
RTVSPropertyOp19
 70
     0
102
RTVSPropertyOp20
 70
     0
102
RTVSPropertyOp21
 70
     0
102
RTVSPropertyOp22
 70
     0
102
RTVSPropertyOp23
 70
     0
102
RTVSPropertyOp24
 70
     0
102
RTVSPropertyOp25
 70
     0
102
RTVSPropertyOp26
 70
     0
102
RTVSPropertyOp27
 70
     0
102
RTVSPropertyOp28
 70
     1
102
RTVSPropertyOp29
 70
     1
102
RTVSPropertyOp30
 70
     1
102
RTVSPropertyOp31
 70
     1
102
RTVSPropertyOp32
 70
     1
102
RTVSPropertyOp33
 70
     1
102
RTVSPropertyOp34
 70
     1
102
RTVSPropertyOp35
 70
     1
102
RTVSPropertyOp36
 70
     1
102
RTVSPropertyOp37
 70
     0
102
RTVSPropertyOp38
 70
     0
102
RTVSPropertyOp39
 70
     0
102
RTVSPropertyOp40
 70
     0
102
RTVSPropertyOp41
 70
     0
102
RTVSPropertyOp42
 70
     0
102
RTVSPropertyOp43
 70
     0
102
RTVSPropertyOp44
 70
     0
102
RTVSPropertyOp45
 70
     1
102
RTVSPropertyOp46
 70
     0
102
RTVSPropertyOp47
 70
     0
102
RTVSPropertyOp48
 70
     0
102
RTVSPropertyOp49
 70
     1
102
RTVSPropertyOp50
 70
     0
102
RTVSPropertyOp51
 70
     0
102
RTVSPropertyOp52
 70
     0
102
RTVSPropertyOp53
 70
     0
102
RTVSPropertyOp54
 70
     0
102
RTVSPropertyOp55
 70
     1
102
RTVSPropertyOp56
 70
     0
102
RTVSPropertyOp57
 70
     0
102
RTVSPropertyOp58
 70
     0
102
RTVSPropertyOp59
 70
     0
102
RTVSPropertyOp60
 70
     0
102
RTVSPropertyOp61
 70
     0
102
RTVSPropertyOp62
 70
     0
  0
XRECORD
  5
8E4
102
{ACAD_REACTORS
330
8E3
102
}
330
8E3
100
AcDbXrecord
280
     1
102
RTVSPost2010Prop28
280
     0
102
RTVSPost2010PropOp28
 70
     1
102
RTVSPost2010Prop29
280
     1
102
RTVSPost2010PropOp29
 70
     1
102
RTVSPost2010Prop30
280
     1
102
RTVSPost2010PropOp30
 70
     1
102
RTVSPost2010Prop31
280
     0
102
RTVSPost2010PropOp31
 70
     1
102
RTVSPost2010Prop32
280
     0
102
RTVSPost2010PropOp32
 70
     1
102
RTVSPost2010Prop33
280
     0
102
RTVSPost2010PropOp33
 70
     1
102
RTVSPost2010Prop34
280
     0
102
RTVSPost2010PropOp34
 70
     1
102
RTVSPost2010Prop35
280
     0
102
RTVSPost2010PropOp35
 70
     1
102
RTVSPost2010Prop36
280
     0
102
RTVSPost2010PropOp36
 70
     1
102
RTVSPost2010Prop37
 90
       50
102
RTVSPost2010PropOp37
 70
     1
102
RTVSPost2010Prop38
140
0.0
102
RTVSPost2010PropOp38
 70
     1
102
RTVSPost2010Prop39
140
1.0
102
RTVSPost2010PropOp39
 70
     1
102
RTVSPost2010Prop40
 90
        0
102
RTVSPost2010PropOp40
 70
     1
102
RTVSPost2010Prop41ColorIndex
 90
       18
102
RTVSPost2010Prop41ColorRGB
 90
        0
102
RTVSPost2010PropOp41
 70
     1
102
RTVSPost2010Prop42
 90
       50
102
RTVSPost2010PropOp42
 70
     1
102
RTVSPost2010Prop43
 90
        3
102
RTVSPost2010PropOp43
 70
     1
102
RTVSPost2010Prop44ColorIndex
 90
        5
102
RTVSPost2010Prop44ColorRGB
 90
      255
102
RTVSPost2010PropOp44
 70
     1
102
RTVSPost2010Prop45
280
     0
102
RTVSPost2010PropOp45
 70
     1
102
RTVSPost2010Prop46
 90
       50
102
RTVSPost2010PropOp46
 70
     1
102
RTVSPost2010Prop47
 90
       50
102
RTVSPost2010PropOp47
 70
     1
102
RTVSPost2010Prop48
 90
       50
102
RTVSPost2010PropOp48
 70
     1
102
RTVSPost2010Prop49
280
     0
102
RTVSPost2010PropOp49
 70
     1
102
RTVSPost2010Prop50
 90
       50
102
RTVSPost2010PropOp50
 70
     1
102
RTVSPost2010Prop51ColorIndex
 90
      256
102
RTVSPost2010Prop51ColorRGB
 90
-16777216
102
RTVSPost2010PropOp51
 70
     0
102
RTVSPost2010Prop52
140
1.0
102
RTVSPost2010PropOp52
 70
     0
102
RTVSPost2010Prop53
 90
        2
102
RTVSPost2010PropOp53
 70
     1
102
RTVSPost2010Prop54
  1
strokes_ogs.tif
102
RTVSPost2010PropOp54
 70
     1
102
RTVSPost2010Prop55
280
     0
102
RTVSPost2010PropOp55
 70
     1
102
RTVSPost2010Prop56
140
1.0
102
RTVSPost2010PropOp56
 70
     1
102
RTVSPost2010Prop57
140
1.0
102
RTVSPost2010PropOp57
 70
     1
102
RTVSPropertyOp0
 70
     1
102
RTVSPropertyOp1
 70
     1
102
RTVSPropertyOp2
 70
     1
102
RTVSPropertyOp3
 70
     1
102
RTVSPropertyOp4
 70
     1
102
RTVSPropertyOp5
 70
     1
102
RTVSPropertyOp6
 70
     1
102
RTVSPropertyOp7
 70
     1
102
RTVSPropertyOp8
 70
     1
102
RTVSPropertyOp9
 70
     1
102
RTVSPropertyOp10
 70
     1
102
RTVSPropertyOp11
 70
     1
102
RTVSPropertyOp12
 70
     1
102
RTVSPropertyOp13
 70
     1
102
RTVSPropertyOp14
 70
     1
102
RTVSPropertyOp15
 70
     1
102
RTVSPropertyOp16
 70
     1
102
RTVSPropertyOp17
 70
     1
102
RTVSPropertyOp18
 70
     1
102
RTVSPropertyOp19
 70
     1
102
RTVSPropertyOp20
 70
     1
102
RTVSPropertyOp21
 70
     1
102
RTVSPropertyOp22
 70
     1
102
RTVSPropertyOp23
 70
     1
102
RTVSPropertyOp24
 70
     1
102
RTVSPropertyOp25
 70
     1
102
RTVSPropertyOp26
 70
     1
102
RTVSPropertyOp27
 70
     1
102
RTVSPropertyOp28
 70
     1
102
RTVSPropertyOp29
 70
     1
102
RTVSPropertyOp30
 70
     1
102
RTVSPropertyOp31
 70
     1
102
RTVSPropertyOp32
 70
     1
102
RTVSPropertyOp33
 70
     1
102
RTVSPropertyOp34
 70
     1
102
RTVSPropertyOp35
 70
     1
102
RTVSPropertyOp36
 70
     1
102
RTVSPropertyOp37
 70
     1
102
RTVSPropertyOp38
 70
     1
102
RTVSPropertyOp39
 70
     1
102
RTVSPropertyOp40
 70
     1
102
RTVSPropertyOp41
 70
     1
102
RTVSPropertyOp42
 70
     1
102
RTVSPropertyOp43
 70
     1
102
RTVSPropertyOp44
 70
     1
102
RTVSPropertyOp45
 70
     1
102
RTVSPropertyOp46
 70
     1
102
RTVSPropertyOp47
 70
     1
102
RTVSPropertyOp48
 70
     1
102
RTVSPropertyOp49
 70
     1
102
RTVSPropertyOp50
 70
     1
102
RTVSPropertyOp51
 70
     0
102
RTVSPropertyOp52
 70
     0
102
RTVSPropertyOp53
 70
     1
102
RTVSPropertyOp54
 70
     1
102
RTVSPropertyOp55
 70
     1
102
RTVSPropertyOp56
 70
     1
102
RTVSPropertyOp57
 70
     1
102
RTVSPropertyOp58
 70
     1
102
RTVSPropertyOp59
 70
     1
102
RTVSPropertyOp60
 70
     1
102
RTVSPropertyOp61
 70
     1
102
RTVSPropertyOp62
 70
     1
  0
XRECORD
  5
8C8
102
{ACAD_REACTORS
330
8C7
102
}
330
8C7
100
AcDbXrecord
280
     1
102
RTVSPost2010Prop28
280
     0
102
RTVSPost2010PropOp28
 70
     1
102
RTVSPost2010Prop29
280
     1
102
RTVSPost2010PropOp29
 70
     1
102
RTVSPost2010Prop30
280
     1
102
RTVSPost2010PropOp30
 70
     1
102
RTVSPost2010Prop31
280
     0
102
RTVSPost2010PropOp31
 70
     1
102
RTVSPost2010Prop32
280
     0
102
RTVSPost2010PropOp32
 70
     1
102
RTVSPost2010Prop33
280
     0
102
RTVSPost2010PropOp33
 70
     1
102
RTVSPost2010Prop34
280
     0
102
RTVSPost2010PropOp34
 70
     1
102
RTVSPost2010Prop35
280
     0
102
RTVSPost2010PropOp35
 70
     1
102
RTVSPost2010Prop36
280
     0
102
RTVSPost2010PropOp36
 70
     1
102
RTVSPost2010Prop37
 90
       50
102
RTVSPost2010PropOp37
 70
     1
102
RTVSPost2010Prop38
140
0.0
102
RTVSPost2010PropOp38
 70
     1
102
RTVSPost2010Prop39
140
1.0
102
RTVSPost2010PropOp39
 70
     1
102
RTVSPost2010Prop40
 90
        0
102
RTVSPost2010PropOp40
 70
     1
102
RTVSPost2010Prop41ColorIndex
 90
       18
102
RTVSPost2010Prop41ColorRGB
 90
        0
102
RTVSPost2010PropOp41
 70
     1
102
RTVSPost2010Prop42
 90
       50
102
RTVSPost2010PropOp42
 70
     1
102
RTVSPost2010Prop43
 90
        3
102
RTVSPost2010PropOp43
 70
     1
102
RTVSPost2010Prop44ColorIndex
 90
        5
102
RTVSPost2010Prop44ColorRGB
 90
      255
102
RTVSPost2010PropOp44
 70
     1
102
RTVSPost2010Prop45
280
     0
102
RTVSPost2010PropOp45
 70
     1
102
RTVSPost2010Prop46
 90
       50
102
RTVSPost2010PropOp46
 70
     1
102
RTVSPost2010Prop47
 90
       50
102
RTVSPost2010PropOp47
 70
     1
102
RTVSPost2010Prop48
 90
       50
102
RTVSPost2010PropOp48
 70
     1
102
RTVSPost2010Prop49
280
     0
102
RTVSPost2010PropOp49
 70
     1
102
RTVSPost2010Prop50
 90
       50
102
RTVSPost2010PropOp50
 70
     1
102
RTVSPost2010Prop51ColorIndex
 90
      256
102
RTVSPost2010Prop51ColorRGB
 90
-16777216
102
RTVSPost2010PropOp51
 70
     0
102
RTVSPost2010Prop52
140
1.0
102
RTVSPost2010PropOp52
 70
     0
102
RTVSPost2010Prop53
 90
        2
102
RTVSPost2010PropOp53
 70
     1
102
RTVSPost2010Prop54
  1
strokes_ogs.tif
102
RTVSPost2010PropOp54
 70
     1
102
RTVSPost2010Prop55
280
     0
102
RTVSPost2010PropOp55
 70
     1
102
RTVSPost2010Prop56
140
1.0
102
RTVSPost2010PropOp56
 70
     1
102
RTVSPost2010Prop57
140
1.0
102
RTVSPost2010PropOp57
 70
     1
102
RTVSPropertyOp0
 70
     1
102
RTVSPropertyOp1
 70
     1
102
RTVSPropertyOp2
 70
     1
102
RTVSPropertyOp3
 70
     1
102
RTVSPropertyOp4
 70
     1
102
RTVSPropertyOp5
 70
     1
102
RTVSPropertyOp6
 70
     1
102
RTVSPropertyOp7
 70
     1
102
RTVSPropertyOp8
 70
     1
102
RTVSPropertyOp9
 70
     1
102
RTVSPropertyOp10
 70
     1
102
RTVSPropertyOp11
 70
     1
102
RTVSPropertyOp12
 70
     1
102
RTVSPropertyOp13
 70
     1
102
RTVSPropertyOp14
 70
     1
102
RTVSPropertyOp15
 70
     1
102
RTVSPropertyOp16
 70
     1
102
RTVSPropertyOp17
 70
     1
102
RTVSPropertyOp18
 70
     1
102
RTVSPropertyOp19
 70
     1
102
RTVSPropertyOp20
 70
     1
102
RTVSPropertyOp21
 70
     1
102
RTVSPropertyOp22
 70
     1
102
RTVSPropertyOp23
 70
     1
102
RTVSPropertyOp24
 70
     1
102
RTVSPropertyOp25
 70
     1
102
RTVSPropertyOp26
 70
     1
102
RTVSPropertyOp27
 70
     1
102
RTVSPropertyOp28
 70
     1
102
RTVSPropertyOp29
 70
     1
102
RTVSPropertyOp30
 70
     1
102
RTVSPropertyOp31
 70
     1
102
RTVSPropertyOp32
 70
     1
102
RTVSPropertyOp33
 70
     1
102
RTVSPropertyOp34
 70
     1
102
RTVSPropertyOp35
 70
     1
102
RTVSPropertyOp36
 70
     1
102
RTVSPropertyOp37
 70
     1
102
RTVSPropertyOp38
 70
     1
102
RTVSPropertyOp39
 70
     1
102
RTVSPropertyOp40
 70
     1
102
RTVSPropertyOp41
 70
     1
102
RTVSPropertyOp42
 70
     1
102
RTVSPropertyOp43
 70
     1
102
RTVSPropertyOp44
 70
     1
102
RTVSPropertyOp45
 70
     1
102
RTVSPropertyOp46
 70
     1
102
RTVSPropertyOp47
 70
     1
102
RTVSPropertyOp48
 70
     1
102
RTVSPropertyOp49
 70
     1
102
RTVSPropertyOp50
 70
     1
102
RTVSPropertyOp51
 70
     0
102
RTVSPropertyOp52
 70
     0
102
RTVSPropertyOp53
 70
     1
102
RTVSPropertyOp54
 70
     1
102
RTVSPropertyOp55
 70
     1
102
RTVSPropertyOp56
 70
     1
102
RTVSPropertyOp57
 70
     1
102
RTVSPropertyOp58
 70
     1
102
RTVSPropertyOp59
 70
     1
102
RTVSPropertyOp60
 70
     1
102
RTVSPropertyOp61
 70
     1
102
RTVSPropertyOp62
 70
     1
  0
XRECORD
  5
8CA
102
{ACAD_REACTORS
330
8C9
102
}
330
8C9
100
AcDbXrecord
280
     1
102
RTVSPost2010Prop28
280
     0
102
RTVSPost2010PropOp28
 70
     1
102
RTVSPost2010Prop29
280
     1
102
RTVSPost2010PropOp29
 70
     1
102
RTVSPost2010Prop30
280
     1
102
RTVSPost2010PropOp30
 70
     1
102
RTVSPost2010Prop31
280
     0
102
RTVSPost2010PropOp31
 70
     1
102
RTVSPost2010Prop32
280
     0
102
RTVSPost2010PropOp32
 70
     1
102
RTVSPost2010Prop33
280
     0
102
RTVSPost2010PropOp33
 70
     1
102
RTVSPost2010Prop34
280
     0
102
RTVSPost2010PropOp34
 70
     1
102
RTVSPost2010Prop35
280
     0
102
RTVSPost2010PropOp35
 70
     1
102
RTVSPost2010Prop36
280
     0
102
RTVSPost2010PropOp36
 70
     1
102
RTVSPost2010Prop37
 90
       50
102
RTVSPost2010PropOp37
 70
     1
102
RTVSPost2010Prop38
140
0.0
102
RTVSPost2010PropOp38
 70
     1
102
RTVSPost2010Prop39
140
1.0
102
RTVSPost2010PropOp39
 70
     1
102
RTVSPost2010Prop40
 90
        0
102
RTVSPost2010PropOp40
 70
     1
102
RTVSPost2010Prop41ColorIndex
 90
       18
102
RTVSPost2010Prop41ColorRGB
 90
        0
102
RTVSPost2010PropOp41
 70
     1
102
RTVSPost2010Prop42
 90
       50
102
RTVSPost2010PropOp42
 70
     1
102
RTVSPost2010Prop43
 90
        3
102
RTVSPost2010PropOp43
 70
     1
102
RTVSPost2010Prop44ColorIndex
 90
        5
102
RTVSPost2010Prop44ColorRGB
 90
      255
102
RTVSPost2010PropOp44
 70
     1
102
RTVSPost2010Prop45
280
     0
102
RTVSPost2010PropOp45
 70
     1
102
RTVSPost2010Prop46
 90
       50
102
RTVSPost2010PropOp46
 70
     1
102
RTVSPost2010Prop47
 90
       50
102
RTVSPost2010PropOp47
 70
     1
102
RTVSPost2010Prop48
 90
       50
102
RTVSPost2010PropOp48
 70
     1
102
RTVSPost2010Prop49
280
     0
102
RTVSPost2010PropOp49
 70
     1
102
RTVSPost2010Prop50
 90
       50
102
RTVSPost2010PropOp50
 70
     1
102
RTVSPost2010Prop51ColorIndex
 90
      256
102
RTVSPost2010Prop51ColorRGB
 90
-16777216
102
RTVSPost2010PropOp51
 70
     0
102
RTVSPost2010Prop52
140
1.0
102
RTVSPost2010PropOp52
 70
     0
102
RTVSPost2010Prop53
 90
        2
102
RTVSPost2010PropOp53
 70
     1
102
RTVSPost2010Prop54
  1
strokes_ogs.tif
102
RTVSPost2010PropOp54
 70
     1
102
RTVSPost2010Prop55
280
     0
102
RTVSPost2010PropOp55
 70
     1
102
RTVSPost2010Prop56
140
1.0
102
RTVSPost2010PropOp56
 70
     1
102
RTVSPost2010Prop57
140
1.0
102
RTVSPost2010PropOp57
 70
     1
102
RTVSPropertyOp0
 70
     1
102
RTVSPropertyOp1
 70
     1
102
RTVSPropertyOp2
 70
     1
102
RTVSPropertyOp3
 70
     1
102
RTVSPropertyOp4
 70
     1
102
RTVSPropertyOp5
 70
     1
102
RTVSPropertyOp6
 70
     1
102
RTVSPropertyOp7
 70
     1
102
RTVSPropertyOp8
 70
     1
102
RTVSPropertyOp9
 70
     1
102
RTVSPropertyOp10
 70
     1
102
RTVSPropertyOp11
 70
     1
102
RTVSPropertyOp12
 70
     1
102
RTVSPropertyOp13
 70
     1
102
RTVSPropertyOp14
 70
     1
102
RTVSPropertyOp15
 70
     1
102
RTVSPropertyOp16
 70
     1
102
RTVSPropertyOp17
 70
     1
102
RTVSPropertyOp18
 70
     1
102
RTVSPropertyOp19
 70
     1
102
RTVSPropertyOp20
 70
     1
102
RTVSPropertyOp21
 70
     1
102
RTVSPropertyOp22
 70
     1
102
RTVSPropertyOp23
 70
     1
102
RTVSPropertyOp24
 70
     1
102
RTVSPropertyOp25
 70
     1
102
RTVSPropertyOp26
 70
     1
102
RTVSPropertyOp27
 70
     1
102
RTVSPropertyOp28
 70
     1
102
RTVSPropertyOp29
 70
     1
102
RTVSPropertyOp30
 70
     1
102
RTVSPropertyOp31
 70
     1
102
RTVSPropertyOp32
 70
     1
102
RTVSPropertyOp33
 70
     1
102
RTVSPropertyOp34
 70
     1
102
RTVSPropertyOp35
 70
     1
102
RTVSPropertyOp36
 70
     1
102
RTVSPropertyOp37
 70
     1
102
RTVSPropertyOp38
 70
     1
102
RTVSPropertyOp39
 70
     1
102
RTVSPropertyOp40
 70
     1
102
RTVSPropertyOp41
 70
     1
102
RTVSPropertyOp42
 70
     1
102
RTVSPropertyOp43
 70
     1
102
RTVSPropertyOp44
 70
     1
102
RTVSPropertyOp45
 70
     1
102
RTVSPropertyOp46
 70
     1
102
RTVSPropertyOp47
 70
     1
102
RTVSPropertyOp48
 70
     1
102
RTVSPropertyOp49
 70
     1
102
RTVSPropertyOp50
 70
     1
102
RTVSPropertyOp51
 70
     0
102
RTVSPropertyOp52
 70
     0
102
RTVSPropertyOp53
 70
     1
102
RTVSPropertyOp54
 70
     1
102
RTVSPropertyOp55
 70
     1
102
RTVSPropertyOp56
 70
     1
102
RTVSPropertyOp57
 70
     1
102
RTVSPropertyOp58
 70
     1
102
RTVSPropertyOp59
 70
     1
102
RTVSPropertyOp60
 70
     1
102
RTVSPropertyOp61
 70
     1
102
RTVSPropertyOp62
 70
     1
  0
XRECORD
  5
8CC
102
{ACAD_REACTORS
330
8CB
102
}
330
8CB
100
AcDbXrecord
280
     1
102
RTVSPost2010Prop28
280
     0
102
RTVSPost2010PropOp28
 70
     1
102
RTVSPost2010Prop29
280
     1
102
RTVSPost2010PropOp29
 70
     1
102
RTVSPost2010Prop30
280
     1
102
RTVSPost2010PropOp30
 70
     1
102
RTVSPost2010Prop31
280
     0
102
RTVSPost2010PropOp31
 70
     1
102
RTVSPost2010Prop32
280
     0
102
RTVSPost2010PropOp32
 70
     1
102
RTVSPost2010Prop33
280
     0
102
RTVSPost2010PropOp33
 70
     1
102
RTVSPost2010Prop34
280
     0
102
RTVSPost2010PropOp34
 70
     1
102
RTVSPost2010Prop35
280
     0
102
RTVSPost2010PropOp35
 70
     1
102
RTVSPost2010Prop36
280
     0
102
RTVSPost2010PropOp36
 70
     1
102
RTVSPost2010Prop37
 90
       50
102
RTVSPost2010PropOp37
 70
     1
102
RTVSPost2010Prop38
140
0.0
102
RTVSPost2010PropOp38
 70
     1
102
RTVSPost2010Prop39
140
1.0
102
RTVSPost2010PropOp39
 70
     1
102
RTVSPost2010Prop40
 90
        0
102
RTVSPost2010PropOp40
 70
     1
102
RTVSPost2010Prop41ColorIndex
 90
       18
102
RTVSPost2010Prop41ColorRGB
 90
        0
102
RTVSPost2010PropOp41
 70
     1
102
RTVSPost2010Prop42
 90
       50
102
RTVSPost2010PropOp42
 70
     1
102
RTVSPost2010Prop43
 90
        3
102
RTVSPost2010PropOp43
 70
     1
102
RTVSPost2010Prop44ColorIndex
 90
        5
102
RTVSPost2010Prop44ColorRGB
 90
      255
102
RTVSPost2010PropOp44
 70
     1
102
RTVSPost2010Prop45
280
     0
102
RTVSPost2010PropOp45
 70
     1
102
RTVSPost2010Prop46
 90
       50
102
RTVSPost2010PropOp46
 70
     1
102
RTVSPost2010Prop47
 90
       50
102
RTVSPost2010PropOp47
 70
     1
102
RTVSPost2010Prop48
 90
       50
102
RTVSPost2010PropOp48
 70
     1
102
RTVSPost2010Prop49
280
     0
102
RTVSPost2010PropOp49
 70
     1
102
RTVSPost2010Prop50
 90
       50
102
RTVSPost2010PropOp50
 70
     1
102
RTVSPost2010Prop51ColorIndex
 90
      256
102
RTVSPost2010Prop51ColorRGB
 90
-16777216
102
RTVSPost2010PropOp51
 70
     0
102
RTVSPost2010Prop52
140
1.0
102
RTVSPost2010PropOp52
 70
     0
102
RTVSPost2010Prop53
 90
        2
102
RTVSPost2010PropOp53
 70
     1
102
RTVSPost2010Prop54
  1
strokes_ogs.tif
102
RTVSPost2010PropOp54
 70
     1
102
RTVSPost2010Prop55
280
     0
102
RTVSPost2010PropOp55
 70
     1
102
RTVSPost2010Prop56
140
1.0
102
RTVSPost2010PropOp56
 70
     1
102
RTVSPost2010Prop57
140
1.0
102
RTVSPost2010PropOp57
 70
     1
102
RTVSPropertyOp0
 70
     1
102
RTVSPropertyOp1
 70
     1
102
RTVSPropertyOp2
 70
     1
102
RTVSPropertyOp3
 70
     1
102
RTVSPropertyOp4
 70
     1
102
RTVSPropertyOp5
 70
     1
102
RTVSPropertyOp6
 70
     1
102
RTVSPropertyOp7
 70
     1
102
RTVSPropertyOp8
 70
     1
102
RTVSPropertyOp9
 70
     1
102
RTVSPropertyOp10
 70
     1
102
RTVSPropertyOp11
 70
     1
102
RTVSPropertyOp12
 70
     1
102
RTVSPropertyOp13
 70
     1
102
RTVSPropertyOp14
 70
     1
102
RTVSPropertyOp15
 70
     1
102
RTVSPropertyOp16
 70
     1
102
RTVSPropertyOp17
 70
     1
102
RTVSPropertyOp18
 70
     1
102
RTVSPropertyOp19
 70
     1
102
RTVSPropertyOp20
 70
     1
102
RTVSPropertyOp21
 70
     1
102
RTVSPropertyOp22
 70
     1
102
RTVSPropertyOp23
 70
     1
102
RTVSPropertyOp24
 70
     1
102
RTVSPropertyOp25
 70
     1
102
RTVSPropertyOp26
 70
     1
102
RTVSPropertyOp27
 70
     1
102
RTVSPropertyOp28
 70
     1
102
RTVSPropertyOp29
 70
     1
102
RTVSPropertyOp30
 70
     1
102
RTVSPropertyOp31
 70
     1
102
RTVSPropertyOp32
 70
     1
102
RTVSPropertyOp33
 70
     1
102
RTVSPropertyOp34
 70
     1
102
RTVSPropertyOp35
 70
     1
102
RTVSPropertyOp36
 70
     1
102
RTVSPropertyOp37
 70
     1
102
RTVSPropertyOp38
 70
     1
102
RTVSPropertyOp39
 70
     1
102
RTVSPropertyOp40
 70
     1
102
RTVSPropertyOp41
 70
     1
102
RTVSPropertyOp42
 70
     1
102
RTVSPropertyOp43
 70
     1
102
RTVSPropertyOp44
 70
     1
102
RTVSPropertyOp45
 70
     1
102
RTVSPropertyOp46
 70
     1
102
RTVSPropertyOp47
 70
     1
102
RTVSPropertyOp48
 70
     1
102
RTVSPropertyOp49
 70
     1
102
RTVSPropertyOp50
 70
     1
102
RTVSPropertyOp51
 70
     0
102
RTVSPropertyOp52
 70
     0
102
RTVSPropertyOp53
 70
     1
102
RTVSPropertyOp54
 70
     1
102
RTVSPropertyOp55
 70
     1
102
RTVSPropertyOp56
 70
     1
102
RTVSPropertyOp57
 70
     1
102
RTVSPropertyOp58
 70
     1
102
RTVSPropertyOp59
 70
     1
102
RTVSPropertyOp60
 70
     1
102
RTVSPropertyOp61
 70
     1
102
RTVSPropertyOp62
 70
     1
  0
XRECORD
  5
8CE
102
{ACAD_REACTORS
330
8CD
102
}
330
8CD
100
AcDbXrecord
280
     1
102
RTVSPost2010Prop28
280
     0
102
RTVSPost2010PropOp28
 70
     1
102
RTVSPost2010Prop29
280
     1
102
RTVSPost2010PropOp29
 70
     1
102
RTVSPost2010Prop30
280
     1
102
RTVSPost2010PropOp30
 70
     1
102
RTVSPost2010Prop31
280
     0
102
RTVSPost2010PropOp31
 70
     1
102
RTVSPost2010Prop32
280
     0
102
RTVSPost2010PropOp32
 70
     1
102
RTVSPost2010Prop33
280
     0
102
RTVSPost2010PropOp33
 70
     1
102
RTVSPost2010Prop34
280
     0
102
RTVSPost2010PropOp34
 70
     1
102
RTVSPost2010Prop35
280
     0
102
RTVSPost2010PropOp35
 70
     1
102
RTVSPost2010Prop36
280
     0
102
RTVSPost2010PropOp36
 70
     1
102
RTVSPost2010Prop37
 90
       50
102
RTVSPost2010PropOp37
 70
     1
102
RTVSPost2010Prop38
140
0.0
102
RTVSPost2010PropOp38
 70
     1
102
RTVSPost2010Prop39
140
1.0
102
RTVSPost2010PropOp39
 70
     1
102
RTVSPost2010Prop40
 90
        0
102
RTVSPost2010PropOp40
 70
     1
102
RTVSPost2010Prop41ColorIndex
 90
       18
102
RTVSPost2010Prop41ColorRGB
 90
        0
102
RTVSPost2010PropOp41
 70
     1
102
RTVSPost2010Prop42
 90
       50
102
RTVSPost2010PropOp42
 70
     1
102
RTVSPost2010Prop43
 90
        3
102
RTVSPost2010PropOp43
 70
     1
102
RTVSPost2010Prop44ColorIndex
 90
        5
102
RTVSPost2010Prop44ColorRGB
 90
      255
102
RTVSPost2010PropOp44
 70
     1
102
RTVSPost2010Prop45
280
     0
102
RTVSPost2010PropOp45
 70
     1
102
RTVSPost2010Prop46
 90
       50
102
RTVSPost2010PropOp46
 70
     1
102
RTVSPost2010Prop47
 90
       50
102
RTVSPost2010PropOp47
 70
     1
102
RTVSPost2010Prop48
 90
       50
102
RTVSPost2010PropOp48
 70
     1
102
RTVSPost2010Prop49
280
     0
102
RTVSPost2010PropOp49
 70
     1
102
RTVSPost2010Prop50
 90
       50
102
RTVSPost2010PropOp50
 70
     1
102
RTVSPost2010Prop51ColorIndex
 90
      256
102
RTVSPost2010Prop51ColorRGB
 90
-16777216
102
RTVSPost2010PropOp51
 70
     0
102
RTVSPost2010Prop52
140
1.0
102
RTVSPost2010PropOp52
 70
     0
102
RTVSPost2010Prop53
 90
        2
102
RTVSPost2010PropOp53
 70
     1
102
RTVSPost2010Prop54
  1
strokes_ogs.tif
102
RTVSPost2010PropOp54
 70
     1
102
RTVSPost2010Prop55
280
     0
102
RTVSPost2010PropOp55
 70
     1
102
RTVSPost2010Prop56
140
1.0
102
RTVSPost2010PropOp56
 70
     1
102
RTVSPost2010Prop57
140
1.0
102
RTVSPost2010PropOp57
 70
     1
102
RTVSPropertyOp0
 70
     1
102
RTVSPropertyOp1
 70
     1
102
RTVSPropertyOp2
 70
     1
102
RTVSPropertyOp3
 70
     1
102
RTVSPropertyOp4
 70
     1
102
RTVSPropertyOp5
 70
     1
102
RTVSPropertyOp6
 70
     1
102
RTVSPropertyOp7
 70
     1
102
RTVSPropertyOp8
 70
     1
102
RTVSPropertyOp9
 70
     1
102
RTVSPropertyOp10
 70
     1
102
RTVSPropertyOp11
 70
     1
102
RTVSPropertyOp12
 70
     1
102
RTVSPropertyOp13
 70
     1
102
RTVSPropertyOp14
 70
     1
102
RTVSPropertyOp15
 70
     1
102
RTVSPropertyOp16
 70
     1
102
RTVSPropertyOp17
 70
     1
102
RTVSPropertyOp18
 70
     1
102
RTVSPropertyOp19
 70
     1
102
RTVSPropertyOp20
 70
     1
102
RTVSPropertyOp21
 70
     1
102
RTVSPropertyOp22
 70
     1
102
RTVSPropertyOp23
 70
     1
102
RTVSPropertyOp24
 70
     1
102
RTVSPropertyOp25
 70
     1
102
RTVSPropertyOp26
 70
     1
102
RTVSPropertyOp27
 70
     1
102
RTVSPropertyOp28
 70
     1
102
RTVSPropertyOp29
 70
     1
102
RTVSPropertyOp30
 70
     1
102
RTVSPropertyOp31
 70
     1
102
RTVSPropertyOp32
 70
     1
102
RTVSPropertyOp33
 70
     1
102
RTVSPropertyOp34
 70
     1
102
RTVSPropertyOp35
 70
     1
102
RTVSPropertyOp36
 70
     1
102
RTVSPropertyOp37
 70
     1
102
RTVSPropertyOp38
 70
     1
102
RTVSPropertyOp39
 70
     1
102
RTVSPropertyOp40
 70
     1
102
RTVSPropertyOp41
 70
     1
102
RTVSPropertyOp42
 70
     1
102
RTVSPropertyOp43
 70
     1
102
RTVSPropertyOp44
 70
     1
102
RTVSPropertyOp45
 70
     1
102
RTVSPropertyOp46
 70
     1
102
RTVSPropertyOp47
 70
     1
102
RTVSPropertyOp48
 70
     1
102
RTVSPropertyOp49
 70
     1
102
RTVSPropertyOp50
 70
     1
102
RTVSPropertyOp51
 70
     0
102
RTVSPropertyOp52
 70
     0
102
RTVSPropertyOp53
 70
     1
102
RTVSPropertyOp54
 70
     1
102
RTVSPropertyOp55
 70
     1
102
RTVSPropertyOp56
 70
     1
102
RTVSPropertyOp57
 70
     1
102
RTVSPropertyOp58
 70
     1
102
RTVSPropertyOp59
 70
     1
102
RTVSPropertyOp60
 70
     1
102
RTVSPropertyOp61
 70
     1
102
RTVSPropertyOp62
 70
     1
  0
XRECORD
  5
8EA
102
{ACAD_REACTORS
330
8E9
102
}
330
8E9
100
AcDbXrecord
280
     1
102
RTVSPost2010Prop28
280
     0
102
RTVSPost2010PropOp28
 70
     1
102
RTVSPost2010Prop29
280
     1
102
RTVSPost2010PropOp29
 70
     1
102
RTVSPost2010Prop30
280
     1
102
RTVSPost2010PropOp30
 70
     1
102
RTVSPost2010Prop31
280
     0
102
RTVSPost2010PropOp31
 70
     1
102
RTVSPost2010Prop32
280
     0
102
RTVSPost2010PropOp32
 70
     1
102
RTVSPost2010Prop33
280
     0
102
RTVSPost2010PropOp33
 70
     1
102
RTVSPost2010Prop34
280
     0
102
RTVSPost2010PropOp34
 70
     1
102
RTVSPost2010Prop35
280
     0
102
RTVSPost2010PropOp35
 70
     1
102
RTVSPost2010Prop36
280
     0
102
RTVSPost2010PropOp36
 70
     1
102
RTVSPost2010Prop37
 90
       50
102
RTVSPost2010PropOp37
 70
     1
102
RTVSPost2010Prop38
140
0.0
102
RTVSPost2010PropOp38
 70
     1
102
RTVSPost2010Prop39
140
1.0
102
RTVSPost2010PropOp39
 70
     1
102
RTVSPost2010Prop40
 90
        0
102
RTVSPost2010PropOp40
 70
     1
102
RTVSPost2010Prop41ColorIndex
 90
       18
102
RTVSPost2010Prop41ColorRGB
 90
        0
102
RTVSPost2010PropOp41
 70
     1
102
RTVSPost2010Prop42
 90
       50
102
RTVSPost2010PropOp42
 70
     1
102
RTVSPost2010Prop43
 90
        3
102
RTVSPost2010PropOp43
 70
     1
102
RTVSPost2010Prop44ColorIndex
 90
        5
102
RTVSPost2010Prop44ColorRGB
 90
      255
102
RTVSPost2010PropOp44
 70
     1
102
RTVSPost2010Prop45
280
     0
102
RTVSPost2010PropOp45
 70
     1
102
RTVSPost2010Prop46
 90
       50
102
RTVSPost2010PropOp46
 70
     1
102
RTVSPost2010Prop47
 90
       50
102
RTVSPost2010PropOp47
 70
     1
102
RTVSPost2010Prop48
 90
       50
102
RTVSPost2010PropOp48
 70
     1
102
RTVSPost2010Prop49
280
     0
102
RTVSPost2010PropOp49
 70
     1
102
RTVSPost2010Prop50
 90
       50
102
RTVSPost2010PropOp50
 70
     1
102
RTVSPost2010Prop51ColorIndex
 90
      256
102
RTVSPost2010Prop51ColorRGB
 90
-16777216
102
RTVSPost2010PropOp51
 70
     0
102
RTVSPost2010Prop52
140
1.0
102
RTVSPost2010PropOp52
 70
     0
102
RTVSPost2010Prop53
 90
        2
102
RTVSPost2010PropOp53
 70
     1
102
RTVSPost2010Prop54
  1
strokes_ogs.tif
102
RTVSPost2010PropOp54
 70
     1
102
RTVSPost2010Prop55
280
     0
102
RTVSPost2010PropOp55
 70
     1
102
RTVSPost2010Prop56
140
1.0
102
RTVSPost2010PropOp56
 70
     1
102
RTVSPost2010Prop57
140
1.0
102
RTVSPost2010PropOp57
 70
     1
102
RTVSPropertyOp0
 70
     1
102
RTVSPropertyOp1
 70
     1
102
RTVSPropertyOp2
 70
     1
102
RTVSPropertyOp3
 70
     1
102
RTVSPropertyOp4
 70
     1
102
RTVSPropertyOp5
 70
     1
102
RTVSPropertyOp6
 70
     1
102
RTVSPropertyOp7
 70
     1
102
RTVSPropertyOp8
 70
     1
102
RTVSPropertyOp9
 70
     1
102
RTVSPropertyOp10
 70
     1
102
RTVSPropertyOp11
 70
     1
102
RTVSPropertyOp12
 70
     1
102
RTVSPropertyOp13
 70
     1
102
RTVSPropertyOp14
 70
     1
102
RTVSPropertyOp15
 70
     1
102
RTVSPropertyOp16
 70
     1
102
RTVSPropertyOp17
 70
     1
102
RTVSPropertyOp18
 70
     1
102
RTVSPropertyOp19
 70
     1
102
RTVSPropertyOp20
 70
     1
102
RTVSPropertyOp21
 70
     1
102
RTVSPropertyOp22
 70
     1
102
RTVSPropertyOp23
 70
     1
102
RTVSPropertyOp24
 70
     1
102
RTVSPropertyOp25
 70
     1
102
RTVSPropertyOp26
 70
     1
102
RTVSPropertyOp27
 70
     1
102
RTVSPropertyOp28
 70
     1
102
RTVSPropertyOp29
 70
     1
102
RTVSPropertyOp30
 70
     1
102
RTVSPropertyOp31
 70
     1
102
RTVSPropertyOp32
 70
     1
102
RTVSPropertyOp33
 70
     1
102
RTVSPropertyOp34
 70
     1
102
RTVSPropertyOp35
 70
     1
102
RTVSPropertyOp36
 70
     1
102
RTVSPropertyOp37
 70
     1
102
RTVSPropertyOp38
 70
     1
102
RTVSPropertyOp39
 70
     1
102
RTVSPropertyOp40
 70
     1
102
RTVSPropertyOp41
 70
     1
102
RTVSPropertyOp42
 70
     1
102
RTVSPropertyOp43
 70
     1
102
RTVSPropertyOp44
 70
     1
102
RTVSPropertyOp45
 70
     1
102
RTVSPropertyOp46
 70
     1
102
RTVSPropertyOp47
 70
     1
102
RTVSPropertyOp48
 70
     1
102
RTVSPropertyOp49
 70
     1
102
RTVSPropertyOp50
 70
     1
102
RTVSPropertyOp51
 70
     0
102
RTVSPropertyOp52
 70
     0
102
RTVSPropertyOp53
 70
     1
102
RTVSPropertyOp54
 70
     1
102
RTVSPropertyOp55
 70
     1
102
RTVSPropertyOp56
 70
     1
102
RTVSPropertyOp57
 70
     1
102
RTVSPropertyOp58
 70
     1
102
RTVSPropertyOp59
 70
     1
102
RTVSPropertyOp60
 70
     1
102
RTVSPropertyOp61
 70
     1
102
RTVSPropertyOp62
 70
     1
  0
XRECORD
  5
8F6
102
{ACAD_REACTORS
330
8F5
102
}
330
8F5
100
AcDbXrecord
280
     1
102
RTVSPost2010Prop28
280
     0
102
RTVSPost2010PropOp28
 70
     1
102
RTVSPost2010Prop29
280
     1
102
RTVSPost2010PropOp29
 70
     1
102
RTVSPost2010Prop30
280
     1
102
RTVSPost2010PropOp30
 70
     1
102
RTVSPost2010Prop31
280
     0
102
RTVSPost2010PropOp31
 70
     1
102
RTVSPost2010Prop32
280
     0
102
RTVSPost2010PropOp32
 70
     1
102
RTVSPost2010Prop33
280
     0
102
RTVSPost2010PropOp33
 70
     1
102
RTVSPost2010Prop34
280
     0
102
RTVSPost2010PropOp34
 70
     1
102
RTVSPost2010Prop35
280
     0
102
RTVSPost2010PropOp35
 70
     1
102
RTVSPost2010Prop36
280
     0
102
RTVSPost2010PropOp36
 70
     1
102
RTVSPost2010Prop37
 90
       50
102
RTVSPost2010PropOp37
 70
     0
102
RTVSPost2010Prop38
140
0.0
102
RTVSPost2010PropOp38
 70
     0
102
RTVSPost2010Prop39
140
1.0
102
RTVSPost2010PropOp39
 70
     0
102
RTVSPost2010Prop40
 90
        0
102
RTVSPost2010PropOp40
 70
     0
102
RTVSPost2010Prop41ColorIndex
 90
       18
102
RTVSPost2010Prop41ColorRGB
 90
        0
102
RTVSPost2010PropOp41
 70
     0
102
RTVSPost2010Prop42
 90
       50
102
RTVSPost2010PropOp42
 70
     0
102
RTVSPost2010Prop43
 90
        3
102
RTVSPost2010PropOp43
 70
     0
102
RTVSPost2010Prop44ColorIndex
 90
        5
102
RTVSPost2010Prop44ColorRGB
 90
      255
102
RTVSPost2010PropOp44
 70
     0
102
RTVSPost2010Prop45
280
     0
102
RTVSPost2010PropOp45
 70
     1
102
RTVSPost2010Prop46
 90
       50
102
RTVSPost2010PropOp46
 70
     0
102
RTVSPost2010Prop47
 90
       50
102
RTVSPost2010PropOp47
 70
     0
102
RTVSPost2010Prop48
 90
       50
102
RTVSPost2010PropOp48
 70
     0
102
RTVSPost2010Prop49
280
     0
102
RTVSPost2010PropOp49
 70
     1
102
RTVSPost2010Prop50
 90
       50
102
RTVSPost2010PropOp50
 70
     0
102
RTVSPost2010Prop51ColorIndex
 90
      256
102
RTVSPost2010Prop51ColorRGB
 90
-16777216
102
RTVSPost2010PropOp51
 70
     0
102
RTVSPost2010Prop52
140
1.0
102
RTVSPost2010PropOp52
 70
     0
102
RTVSPost2010Prop53
 90
        2
102
RTVSPost2010PropOp53
 70
     0
102
RTVSPost2010Prop54
  1
strokes_ogs.tif
102
RTVSPost2010PropOp54
 70
     0
102
RTVSPost2010Prop55
280
     0
102
RTVSPost2010PropOp55
 70
     1
102
RTVSPost2010Prop56
140
1.0
102
RTVSPost2010PropOp56
 70
     0
102
RTVSPost2010Prop57
140
1.0
102
RTVSPost2010PropOp57
 70
     0
102
RTVSPropertyOp0
 70
     0
102
RTVSPropertyOp1
 70
     0
102
RTVSPropertyOp2
 70
     0
102
RTVSPropertyOp3
 70
     0
102
RTVSPropertyOp4
 70
     0
102
RTVSPropertyOp5
 70
     0
102
RTVSPropertyOp6
 70
     0
102
RTVSPropertyOp7
 70
     0
102
RTVSPropertyOp8
 70
     0
102
RTVSPropertyOp9
 70
     0
102
RTVSPropertyOp10
 70
     0
102
RTVSPropertyOp11
 70
     0
102
RTVSPropertyOp12
 70
     0
102
RTVSPropertyOp13
 70
     0
102
RTVSPropertyOp14
 70
     2
102
RTVSPropertyOp15
 70
     0
102
RTVSPropertyOp16
 70
     0
102
RTVSPropertyOp17
 70
     0
102
RTVSPropertyOp18
 70
     0
102
RTVSPropertyOp19
 70
     0
102
RTVSPropertyOp20
 70
     0
102
RTVSPropertyOp21
 70
     0
102
RTVSPropertyOp22
 70
     0
102
RTVSPropertyOp23
 70
     0
102
RTVSPropertyOp24
 70
     0
102
RTVSPropertyOp25
 70
     0
102
RTVSPropertyOp26
 70
     0
102
RTVSPropertyOp27
 70
     0
102
RTVSPropertyOp28
 70
     1
102
RTVSPropertyOp29
 70
     1
102
RTVSPropertyOp30
 70
     1
102
RTVSPropertyOp31
 70
     1
102
RTVSPropertyOp32
 70
     1
102
RTVSPropertyOp33
 70
     1
102
RTVSPropertyOp34
 70
     1
102
RTVSPropertyOp35
 70
     1
102
RTVSPropertyOp36
 70
     1
102
RTVSPropertyOp37
 70
     0
102
RTVSPropertyOp38
 70
     0
102
RTVSPropertyOp39
 70
     0
102
RTVSPropertyOp40
 70
     0
102
RTVSPropertyOp41
 70
     0
102
RTVSPropertyOp42
 70
     0
102
RTVSPropertyOp43
 70
     0
102
RTVSPropertyOp44
 70
     0
102
RTVSPropertyOp45
 70
     1
102
RTVSPropertyOp46
 70
     0
102
RTVSPropertyOp47
 70
     0
102
RTVSPropertyOp48
 70
     0
102
RTVSPropertyOp49
 70
     1
102
RTVSPropertyOp50
 70
     0
102
RTVSPropertyOp51
 70
     0
102
RTVSPropertyOp52
 70
     0
102
RTVSPropertyOp53
 70
     0
102
RTVSPropertyOp54
 70
     0
102
RTVSPropertyOp55
 70
     1
102
RTVSPropertyOp56
 70
     0
102
RTVSPropertyOp57
 70
     0
102
RTVSPropertyOp58
 70
     0
102
RTVSPropertyOp59
 70
     0
102
RTVSPropertyOp60
 70
     0
102
RTVSPropertyOp61
 70
     0
102
RTVSPropertyOp62
 70
     0
  0
XRECORD
  5
8E2
102
{ACAD_REACTORS
330
8E1
102
}
330
8E1
100
AcDbXrecord
280
     1
102
RTVSPost2010Prop28
280
     0
102
RTVSPost2010PropOp28
 70
     1
102
RTVSPost2010Prop29
280
     1
102
RTVSPost2010PropOp29
 70
     1
102
RTVSPost2010Prop30
280
     1
102
RTVSPost2010PropOp30
 70
     1
102
RTVSPost2010Prop31
280
     0
102
RTVSPost2010PropOp31
 70
     1
102
RTVSPost2010Prop32
280
     0
102
RTVSPost2010PropOp32
 70
     1
102
RTVSPost2010Prop33
280
     0
102
RTVSPost2010PropOp33
 70
     1
102
RTVSPost2010Prop34
280
     0
102
RTVSPost2010PropOp34
 70
     1
102
RTVSPost2010Prop35
280
     0
102
RTVSPost2010PropOp35
 70
     1
102
RTVSPost2010Prop36
280
     0
102
RTVSPost2010PropOp36
 70
     1
102
RTVSPost2010Prop37
 90
       50
102
RTVSPost2010PropOp37
 70
     1
102
RTVSPost2010Prop38
140
0.0
102
RTVSPost2010PropOp38
 70
     1
102
RTVSPost2010Prop39
140
1.0
102
RTVSPost2010PropOp39
 70
     1
102
RTVSPost2010Prop40
 90
        0
102
RTVSPost2010PropOp40
 70
     1
102
RTVSPost2010Prop41ColorIndex
 90
       18
102
RTVSPost2010Prop41ColorRGB
 90
        0
102
RTVSPost2010PropOp41
 70
     1
102
RTVSPost2010Prop42
 90
       50
102
RTVSPost2010PropOp42
 70
     1
102
RTVSPost2010Prop43
 90
        3
102
RTVSPost2010PropOp43
 70
     1
102
RTVSPost2010Prop44ColorIndex
 90
        5
102
RTVSPost2010Prop44ColorRGB
 90
      255
102
RTVSPost2010PropOp44
 70
     1
102
RTVSPost2010Prop45
280
     0
102
RTVSPost2010PropOp45
 70
     1
102
RTVSPost2010Prop46
 90
       50
102
RTVSPost2010PropOp46
 70
     1
102
RTVSPost2010Prop47
 90
       50
102
RTVSPost2010PropOp47
 70
     1
102
RTVSPost2010Prop48
 90
       50
102
RTVSPost2010PropOp48
 70
     1
102
RTVSPost2010Prop49
280
     0
102
RTVSPost2010PropOp49
 70
     1
102
RTVSPost2010Prop50
 90
       50
102
RTVSPost2010PropOp50
 70
     1
102
RTVSPost2010Prop51ColorIndex
 90
      256
102
RTVSPost2010Prop51ColorRGB
 90
-16777216
102
RTVSPost2010PropOp51
 70
     0
102
RTVSPost2010Prop52
140
1.0
102
RTVSPost2010PropOp52
 70
     0
102
RTVSPost2010Prop53
 90
        2
102
RTVSPost2010PropOp53
 70
     1
102
RTVSPost2010Prop54
  1
strokes_ogs.tif
102
RTVSPost2010PropOp54
 70
     1
102
RTVSPost2010Prop55
280
     0
102
RTVSPost2010PropOp55
 70
     1
102
RTVSPost2010Prop56
140
1.0
102
RTVSPost2010PropOp56
 70
     1
102
RTVSPost2010Prop57
140
1.0
102
RTVSPost2010PropOp57
 70
     1
102
RTVSPropertyOp0
 70
     1
102
RTVSPropertyOp1
 70
     1
102
RTVSPropertyOp2
 70
     1
102
RTVSPropertyOp3
 70
     1
102
RTVSPropertyOp4
 70
     1
102
RTVSPropertyOp5
 70
     1
102
RTVSPropertyOp6
 70
     1
102
RTVSPropertyOp7
 70
     1
102
RTVSPropertyOp8
 70
     1
102
RTVSPropertyOp9
 70
     1
102
RTVSPropertyOp10
 70
     1
102
RTVSPropertyOp11
 70
     1
102
RTVSPropertyOp12
 70
     1
102
RTVSPropertyOp13
 70
     1
102
RTVSPropertyOp14
 70
     1
102
RTVSPropertyOp15
 70
     1
102
RTVSPropertyOp16
 70
     1
102
RTVSPropertyOp17
 70
     1
102
RTVSPropertyOp18
 70
     1
102
RTVSPropertyOp19
 70
     1
102
RTVSPropertyOp20
 70
     1
102
RTVSPropertyOp21
 70
     1
102
RTVSPropertyOp22
 70
     1
102
RTVSPropertyOp23
 70
     1
102
RTVSPropertyOp24
 70
     1
102
RTVSPropertyOp25
 70
     1
102
RTVSPropertyOp26
 70
     1
102
RTVSPropertyOp27
 70
     1
102
RTVSPropertyOp28
 70
     1
102
RTVSPropertyOp29
 70
     1
102
RTVSPropertyOp30
 70
     1
102
RTVSPropertyOp31
 70
     1
102
RTVSPropertyOp32
 70
     1
102
RTVSPropertyOp33
 70
     1
102
RTVSPropertyOp34
 70
     1
102
RTVSPropertyOp35
 70
     1
102
RTVSPropertyOp36
 70
     1
102
RTVSPropertyOp37
 70
     1
102
RTVSPropertyOp38
 70
     1
102
RTVSPropertyOp39
 70
     1
102
RTVSPropertyOp40
 70
     1
102
RTVSPropertyOp41
 70
     1
102
RTVSPropertyOp42
 70
     1
102
RTVSPropertyOp43
 70
     1
102
RTVSPropertyOp44
 70
     1
102
RTVSPropertyOp45
 70
     1
102
RTVSPropertyOp46
 70
     1
102
RTVSPropertyOp47
 70
     1
102
RTVSPropertyOp48
 70
     1
102
RTVSPropertyOp49
 70
     1
102
RTVSPropertyOp50
 70
     1
102
RTVSPropertyOp51
 70
     0
102
RTVSPropertyOp52
 70
     0
102
RTVSPropertyOp53
 70
     1
102
RTVSPropertyOp54
 70
     1
102
RTVSPropertyOp55
 70
     1
102
RTVSPropertyOp56
 70
     1
102
RTVSPropertyOp57
 70
     1
102
RTVSPropertyOp58
 70
     1
102
RTVSPropertyOp59
 70
     1
102
RTVSPropertyOp60
 70
     1
102
RTVSPropertyOp61
 70
     1
102
RTVSPropertyOp62
 70
     1
  0
XRECORD
  5
8F8
102
{ACAD_REACTORS
330
8F7
102
}
330
8F7
100
AcDbXrecord
280
     1
102
RTVSPost2010Prop28
280
     0
102
RTVSPost2010PropOp28
 70
     1
102
RTVSPost2010Prop29
280
     1
102
RTVSPost2010PropOp29
 70
     1
102
RTVSPost2010Prop30
280
     1
102
RTVSPost2010PropOp30
 70
     1
102
RTVSPost2010Prop31
280
     0
102
RTVSPost2010PropOp31
 70
     1
102
RTVSPost2010Prop32
280
     0
102
RTVSPost2010PropOp32
 70
     1
102
RTVSPost2010Prop33
280
     0
102
RTVSPost2010PropOp33
 70
     1
102
RTVSPost2010Prop34
280
     0
102
RTVSPost2010PropOp34
 70
     1
102
RTVSPost2010Prop35
280
     0
102
RTVSPost2010PropOp35
 70
     1
102
RTVSPost2010Prop36
280
     0
102
RTVSPost2010PropOp36
 70
     1
102
RTVSPost2010Prop37
 90
       50
102
RTVSPost2010PropOp37
 70
     0
102
RTVSPost2010Prop38
140
0.0
102
RTVSPost2010PropOp38
 70
     0
102
RTVSPost2010Prop39
140
1.0
102
RTVSPost2010PropOp39
 70
     0
102
RTVSPost2010Prop40
 90
        0
102
RTVSPost2010PropOp40
 70
     0
102
RTVSPost2010Prop41ColorIndex
 90
       18
102
RTVSPost2010Prop41ColorRGB
 90
        0
102
RTVSPost2010PropOp41
 70
     0
102
RTVSPost2010Prop42
 90
       50
102
RTVSPost2010PropOp42
 70
     0
102
RTVSPost2010Prop43
 90
        3
102
RTVSPost2010PropOp43
 70
     0
102
RTVSPost2010Prop44ColorIndex
 90
        5
102
RTVSPost2010Prop44ColorRGB
 90
      255
102
RTVSPost2010PropOp44
 70
     0
102
RTVSPost2010Prop45
280
     0
102
RTVSPost2010PropOp45
 70
     1
102
RTVSPost2010Prop46
 90
       50
102
RTVSPost2010PropOp46
 70
     0
102
RTVSPost2010Prop47
 90
       50
102
RTVSPost2010PropOp47
 70
     0
102
RTVSPost2010Prop48
 90
       50
102
RTVSPost2010PropOp48
 70
     0
102
RTVSPost2010Prop49
280
     0
102
RTVSPost2010PropOp49
 70
     1
102
RTVSPost2010Prop50
 90
       50
102
RTVSPost2010PropOp50
 70
     0
102
RTVSPost2010Prop51ColorIndex
 90
      256
102
RTVSPost2010Prop51ColorRGB
 90
-16777216
102
RTVSPost2010PropOp51
 70
     0
102
RTVSPost2010Prop52
140
1.0
102
RTVSPost2010PropOp52
 70
     0
102
RTVSPost2010Prop53
 90
        2
102
RTVSPost2010PropOp53
 70
     0
102
RTVSPost2010Prop54
  1
strokes_ogs.tif
102
RTVSPost2010PropOp54
 70
     0
102
RTVSPost2010Prop55
280
     0
102
RTVSPost2010PropOp55
 70
     1
102
RTVSPost2010Prop56
140
1.0
102
RTVSPost2010PropOp56
 70
     0
102
RTVSPost2010Prop57
140
1.0
102
RTVSPost2010PropOp57
 70
     0
102
RTVSPropertyOp0
 70
     0
102
RTVSPropertyOp1
 70
     0
102
RTVSPropertyOp2
 70
     0
102
RTVSPropertyOp3
 70
     0
102
RTVSPropertyOp4
 70
     0
102
RTVSPropertyOp5
 70
     0
102
RTVSPropertyOp6
 70
     0
102
RTVSPropertyOp7
 70
     0
102
RTVSPropertyOp8
 70
     0
102
RTVSPropertyOp9
 70
     0
102
RTVSPropertyOp10
 70
     0
102
RTVSPropertyOp11
 70
     0
102
RTVSPropertyOp12
 70
     0
102
RTVSPropertyOp13
 70
     0
102
RTVSPropertyOp14
 70
     2
102
RTVSPropertyOp15
 70
     0
102
RTVSPropertyOp16
 70
     0
102
RTVSPropertyOp17
 70
     0
102
RTVSPropertyOp18
 70
     0
102
RTVSPropertyOp19
 70
     0
102
RTVSPropertyOp20
 70
     0
102
RTVSPropertyOp21
 70
     0
102
RTVSPropertyOp22
 70
     0
102
RTVSPropertyOp23
 70
     0
102
RTVSPropertyOp24
 70
     0
102
RTVSPropertyOp25
 70
     0
102
RTVSPropertyOp26
 70
     0
102
RTVSPropertyOp27
 70
     0
102
RTVSPropertyOp28
 70
     1
102
RTVSPropertyOp29
 70
     1
102
RTVSPropertyOp30
 70
     1
102
RTVSPropertyOp31
 70
     1
102
RTVSPropertyOp32
 70
     1
102
RTVSPropertyOp33
 70
     1
102
RTVSPropertyOp34
 70
     1
102
RTVSPropertyOp35
 70
     1
102
RTVSPropertyOp36
 70
     1
102
RTVSPropertyOp37
 70
     0
102
RTVSPropertyOp38
 70
     0
102
RTVSPropertyOp39
 70
     0
102
RTVSPropertyOp40
 70
     0
102
RTVSPropertyOp41
 70
     0
102
RTVSPropertyOp42
 70
     0
102
RTVSPropertyOp43
 70
     0
102
RTVSPropertyOp44
 70
     0
102
RTVSPropertyOp45
 70
     1
102
RTVSPropertyOp46
 70
     0
102
RTVSPropertyOp47
 70
     0
102
RTVSPropertyOp48
 70
     0
102
RTVSPropertyOp49
 70
     1
102
RTVSPropertyOp50
 70
     0
102
RTVSPropertyOp51
 70
     0
102
RTVSPropertyOp52
 70
     0
102
RTVSPropertyOp53
 70
     0
102
RTVSPropertyOp54
 70
     0
102
RTVSPropertyOp55
 70
     1
102
RTVSPropertyOp56
 70
     0
102
RTVSPropertyOp57
 70
     0
102
RTVSPropertyOp58
 70
     0
102
RTVSPropertyOp59
 70
     0
102
RTVSPropertyOp60
 70
     0
102
RTVSPropertyOp61
 70
     0
102
RTVSPropertyOp62
 70
     0
  0
XRECORD
  5
8DA
102
{ACAD_REACTORS
330
8D9
102
}
330
8D9
100
AcDbXrecord
280
     1
102
RTVSPost2010Prop28
280
     0
102
RTVSPost2010PropOp28
 70
     1
102
RTVSPost2010Prop29
280
     1
102
RTVSPost2010PropOp29
 70
     1
102
RTVSPost2010Prop30
280
     1
102
RTVSPost2010PropOp30
 70
     1
102
RTVSPost2010Prop31
280
     0
102
RTVSPost2010PropOp31
 70
     1
102
RTVSPost2010Prop32
280
     0
102
RTVSPost2010PropOp32
 70
     1
102
RTVSPost2010Prop33
280
     0
102
RTVSPost2010PropOp33
 70
     1
102
RTVSPost2010Prop34
280
     0
102
RTVSPost2010PropOp34
 70
     1
102
RTVSPost2010Prop35
280
     0
102
RTVSPost2010PropOp35
 70
     1
102
RTVSPost2010Prop36
280
     0
102
RTVSPost2010PropOp36
 70
     1
102
RTVSPost2010Prop37
 90
       50
102
RTVSPost2010PropOp37
 70
     1
102
RTVSPost2010Prop38
140
0.0
102
RTVSPost2010PropOp38
 70
     1
102
RTVSPost2010Prop39
140
1.0
102
RTVSPost2010PropOp39
 70
     1
102
RTVSPost2010Prop40
 90
        0
102
RTVSPost2010PropOp40
 70
     1
102
RTVSPost2010Prop41ColorIndex
 90
       18
102
RTVSPost2010Prop41ColorRGB
 90
        0
102
RTVSPost2010PropOp41
 70
     1
102
RTVSPost2010Prop42
 90
       50
102
RTVSPost2010PropOp42
 70
     1
102
RTVSPost2010Prop43
 90
        3
102
RTVSPost2010PropOp43
 70
     1
102
RTVSPost2010Prop44ColorIndex
 90
        5
102
RTVSPost2010Prop44ColorRGB
 90
      255
102
RTVSPost2010PropOp44
 70
     1
102
RTVSPost2010Prop45
280
     0
102
RTVSPost2010PropOp45
 70
     1
102
RTVSPost2010Prop46
 90
       50
102
RTVSPost2010PropOp46
 70
     1
102
RTVSPost2010Prop47
 90
       50
102
RTVSPost2010PropOp47
 70
     1
102
RTVSPost2010Prop48
 90
       50
102
RTVSPost2010PropOp48
 70
     1
102
RTVSPost2010Prop49
280
     0
102
RTVSPost2010PropOp49
 70
     1
102
RTVSPost2010Prop50
 90
       50
102
RTVSPost2010PropOp50
 70
     1
102
RTVSPost2010Prop51ColorIndex
 90
      256
102
RTVSPost2010Prop51ColorRGB
 90
-16777216
102
RTVSPost2010PropOp51
 70
     0
102
RTVSPost2010Prop52
140
1.0
102
RTVSPost2010PropOp52
 70
     0
102
RTVSPost2010Prop53
 90
        2
102
RTVSPost2010PropOp53
 70
     1
102
RTVSPost2010Prop54
  1
strokes_ogs.tif
102
RTVSPost2010PropOp54
 70
     1
102
RTVSPost2010Prop55
280
     0
102
RTVSPost2010PropOp55
 70
     1
102
RTVSPost2010Prop56
140
1.0
102
RTVSPost2010PropOp56
 70
     1
102
RTVSPost2010Prop57
140
1.0
102
RTVSPost2010PropOp57
 70
     1
102
RTVSPropertyOp0
 70
     1
102
RTVSPropertyOp1
 70
     1
102
RTVSPropertyOp2
 70
     1
102
RTVSPropertyOp3
 70
     1
102
RTVSPropertyOp4
 70
     1
102
RTVSPropertyOp5
 70
     1
102
RTVSPropertyOp6
 70
     1
102
RTVSPropertyOp7
 70
     1
102
RTVSPropertyOp8
 70
     1
102
RTVSPropertyOp9
 70
     1
102
RTVSPropertyOp10
 70
     1
102
RTVSPropertyOp11
 70
     1
102
RTVSPropertyOp12
 70
     1
102
RTVSPropertyOp13
 70
     1
102
RTVSPropertyOp14
 70
     1
102
RTVSPropertyOp15
 70
     1
102
RTVSPropertyOp16
 70
     1
102
RTVSPropertyOp17
 70
     1
102
RTVSPropertyOp18
 70
     1
102
RTVSPropertyOp19
 70
     1
102
RTVSPropertyOp20
 70
     1
102
RTVSPropertyOp21
 70
     1
102
RTVSPropertyOp22
 70
     1
102
RTVSPropertyOp23
 70
     1
102
RTVSPropertyOp24
 70
     1
102
RTVSPropertyOp25
 70
     1
102
RTVSPropertyOp26
 70
     1
102
RTVSPropertyOp27
 70
     1
102
RTVSPropertyOp28
 70
     1
102
RTVSPropertyOp29
 70
     1
102
RTVSPropertyOp30
 70
     1
102
RTVSPropertyOp31
 70
     1
102
RTVSPropertyOp32
 70
     1
102
RTVSPropertyOp33
 70
     1
102
RTVSPropertyOp34
 70
     1
102
RTVSPropertyOp35
 70
     1
102
RTVSPropertyOp36
 70
     1
102
RTVSPropertyOp37
 70
     1
102
RTVSPropertyOp38
 70
     1
102
RTVSPropertyOp39
 70
     1
102
RTVSPropertyOp40
 70
     1
102
RTVSPropertyOp41
 70
     1
102
RTVSPropertyOp42
 70
     1
102
RTVSPropertyOp43
 70
     1
102
RTVSPropertyOp44
 70
     1
102
RTVSPropertyOp45
 70
     1
102
RTVSPropertyOp46
 70
     1
102
RTVSPropertyOp47
 70
     1
102
RTVSPropertyOp48
 70
     1
102
RTVSPropertyOp49
 70
     1
102
RTVSPropertyOp50
 70
     1
102
RTVSPropertyOp51
 70
     0
102
RTVSPropertyOp52
 70
     0
102
RTVSPropertyOp53
 70
     1
102
RTVSPropertyOp54
 70
     1
102
RTVSPropertyOp55
 70
     1
102
RTVSPropertyOp56
 70
     1
102
RTVSPropertyOp57
 70
     1
102
RTVSPropertyOp58
 70
     1
102
RTVSPropertyOp59
 70
     1
102
RTVSPropertyOp60
 70
     1
102
RTVSPropertyOp61
 70
     1
102
RTVSPropertyOp62
 70
     1
  0
XRECORD
  5
8F4
102
{ACAD_REACTORS
330
8F3
102
}
330
8F3
100
AcDbXrecord
280
     1
102
RTVSPost2010Prop28
280
     0
102
RTVSPost2010PropOp28
 70
     1
102
RTVSPost2010Prop29
280
     1
102
RTVSPost2010PropOp29
 70
     1
102
RTVSPost2010Prop30
280
     1
102
RTVSPost2010PropOp30
 70
     1
102
RTVSPost2010Prop31
280
     0
102
RTVSPost2010PropOp31
 70
     1
102
RTVSPost2010Prop32
280
     0
102
RTVSPost2010PropOp32
 70
     1
102
RTVSPost2010Prop33
280
     0
102
RTVSPost2010PropOp33
 70
     1
102
RTVSPost2010Prop34
280
     0
102
RTVSPost2010PropOp34
 70
     1
102
RTVSPost2010Prop35
280
     0
102
RTVSPost2010PropOp35
 70
     1
102
RTVSPost2010Prop36
280
     0
102
RTVSPost2010PropOp36
 70
     1
102
RTVSPost2010Prop37
 90
       50
102
RTVSPost2010PropOp37
 70
     1
102
RTVSPost2010Prop38
140
0.0
102
RTVSPost2010PropOp38
 70
     1
102
RTVSPost2010Prop39
140
1.0
102
RTVSPost2010PropOp39
 70
     1
102
RTVSPost2010Prop40
 90
        0
102
RTVSPost2010PropOp40
 70
     1
102
RTVSPost2010Prop41ColorIndex
 90
       18
102
RTVSPost2010Prop41ColorRGB
 90
        0
102
RTVSPost2010PropOp41
 70
     1
102
RTVSPost2010Prop42
 90
       50
102
RTVSPost2010PropOp42
 70
     1
102
RTVSPost2010Prop43
 90
        3
102
RTVSPost2010PropOp43
 70
     1
102
RTVSPost2010Prop44ColorIndex
 90
        5
102
RTVSPost2010Prop44ColorRGB
 90
      255
102
RTVSPost2010PropOp44
 70
     1
102
RTVSPost2010Prop45
280
     0
102
RTVSPost2010PropOp45
 70
     1
102
RTVSPost2010Prop46
 90
       50
102
RTVSPost2010PropOp46
 70
     1
102
RTVSPost2010Prop47
 90
       50
102
RTVSPost2010PropOp47
 70
     1
102
RTVSPost2010Prop48
 90
       50
102
RTVSPost2010PropOp48
 70
     1
102
RTVSPost2010Prop49
280
     0
102
RTVSPost2010PropOp49
 70
     1
102
RTVSPost2010Prop50
 90
       50
102
RTVSPost2010PropOp50
 70
     1
102
RTVSPost2010Prop51ColorIndex
 90
      256
102
RTVSPost2010Prop51ColorRGB
 90
-16777216
102
RTVSPost2010PropOp51
 70
     0
102
RTVSPost2010Prop52
140
1.0
102
RTVSPost2010PropOp52
 70
     0
102
RTVSPost2010Prop53
 90
        2
102
RTVSPost2010PropOp53
 70
     1
102
RTVSPost2010Prop54
  1
strokes_ogs.tif
102
RTVSPost2010PropOp54
 70
     1
102
RTVSPost2010Prop55
280
     0
102
RTVSPost2010PropOp55
 70
     1
102
RTVSPost2010Prop56
140
1.0
102
RTVSPost2010PropOp56
 70
     1
102
RTVSPost2010Prop57
140
1.0
102
RTVSPost2010PropOp57
 70
     1
102
RTVSPropertyOp0
 70
     1
102
RTVSPropertyOp1
 70
     1
102
RTVSPropertyOp2
 70
     1
102
RTVSPropertyOp3
 70
     1
102
RTVSPropertyOp4
 70
     1
102
RTVSPropertyOp5
 70
     1
102
RTVSPropertyOp6
 70
     1
102
RTVSPropertyOp7
 70
     1
102
RTVSPropertyOp8
 70
     1
102
RTVSPropertyOp9
 70
     1
102
RTVSPropertyOp10
 70
     1
102
RTVSPropertyOp11
 70
     1
102
RTVSPropertyOp12
 70
     1
102
RTVSPropertyOp13
 70
     1
102
RTVSPropertyOp14
 70
     1
102
RTVSPropertyOp15
 70
     1
102
RTVSPropertyOp16
 70
     1
102
RTVSPropertyOp17
 70
     1
102
RTVSPropertyOp18
 70
     1
102
RTVSPropertyOp19
 70
     1
102
RTVSPropertyOp20
 70
     1
102
RTVSPropertyOp21
 70
     1
102
RTVSPropertyOp22
 70
     1
102
RTVSPropertyOp23
 70
     1
102
RTVSPropertyOp24
 70
     1
102
RTVSPropertyOp25
 70
     1
102
RTVSPropertyOp26
 70
     1
102
RTVSPropertyOp27
 70
     1
102
RTVSPropertyOp28
 70
     1
102
RTVSPropertyOp29
 70
     1
102
RTVSPropertyOp30
 70
     1
102
RTVSPropertyOp31
 70
     1
102
RTVSPropertyOp32
 70
     1
102
RTVSPropertyOp33
 70
     1
102
RTVSPropertyOp34
 70
     1
102
RTVSPropertyOp35
 70
     1
102
RTVSPropertyOp36
 70
     1
102
RTVSPropertyOp37
 70
     1
102
RTVSPropertyOp38
 70
     1
102
RTVSPropertyOp39
 70
     1
102
RTVSPropertyOp40
 70
     1
102
RTVSPropertyOp41
 70
     1
102
RTVSPropertyOp42
 70
     1
102
RTVSPropertyOp43
 70
     1
102
RTVSPropertyOp44
 70
     1
102
RTVSPropertyOp45
 70
     1
102
RTVSPropertyOp46
 70
     1
102
RTVSPropertyOp47
 70
     1
102
RTVSPropertyOp48
 70
     1
102
RTVSPropertyOp49
 70
     1
102
RTVSPropertyOp50
 70
     1
102
RTVSPropertyOp51
 70
     0
102
RTVSPropertyOp52
 70
     0
102
RTVSPropertyOp53
 70
     1
102
RTVSPropertyOp54
 70
     1
102
RTVSPropertyOp55
 70
     1
102
RTVSPropertyOp56
 70
     1
102
RTVSPropertyOp57
 70
     1
102
RTVSPropertyOp58
 70
     1
102
RTVSPropertyOp59
 70
     1
102
RTVSPropertyOp60
 70
     1
102
RTVSPropertyOp61
 70
     1
102
RTVSPropertyOp62
 70
     1
  0
XRECORD
  5
8F2
102
{ACAD_REACTORS
330
8F1
102
}
330
8F1
100
AcDbXrecord
280
     1
102
RTVSPost2010Prop28
280
     0
102
RTVSPost2010PropOp28
 70
     1
102
RTVSPost2010Prop29
280
     1
102
RTVSPost2010PropOp29
 70
     1
102
RTVSPost2010Prop30
280
     1
102
RTVSPost2010PropOp30
 70
     1
102
RTVSPost2010Prop31
280
     0
102
RTVSPost2010PropOp31
 70
     1
102
RTVSPost2010Prop32
280
     0
102
RTVSPost2010PropOp32
 70
     1
102
RTVSPost2010Prop33
280
     0
102
RTVSPost2010PropOp33
 70
     1
102
RTVSPost2010Prop34
280
     0
102
RTVSPost2010PropOp34
 70
     1
102
RTVSPost2010Prop35
280
     0
102
RTVSPost2010PropOp35
 70
     1
102
RTVSPost2010Prop36
280
     0
102
RTVSPost2010PropOp36
 70
     1
102
RTVSPost2010Prop37
 90
       50
102
RTVSPost2010PropOp37
 70
     1
102
RTVSPost2010Prop38
140
0.0
102
RTVSPost2010PropOp38
 70
     1
102
RTVSPost2010Prop39
140
1.0
102
RTVSPost2010PropOp39
 70
     1
102
RTVSPost2010Prop40
 90
        0
102
RTVSPost2010PropOp40
 70
     1
102
RTVSPost2010Prop41ColorIndex
 90
       18
102
RTVSPost2010Prop41ColorRGB
 90
        0
102
RTVSPost2010PropOp41
 70
     1
102
RTVSPost2010Prop42
 90
       50
102
RTVSPost2010PropOp42
 70
     1
102
RTVSPost2010Prop43
 90
        3
102
RTVSPost2010PropOp43
 70
     1
102
RTVSPost2010Prop44ColorIndex
 90
        5
102
RTVSPost2010Prop44ColorRGB
 90
      255
102
RTVSPost2010PropOp44
 70
     1
102
RTVSPost2010Prop45
280
     0
102
RTVSPost2010PropOp45
 70
     1
102
RTVSPost2010Prop46
 90
       50
102
RTVSPost2010PropOp46
 70
     1
102
RTVSPost2010Prop47
 90
       50
102
RTVSPost2010PropOp47
 70
     1
102
RTVSPost2010Prop48
 90
       50
102
RTVSPost2010PropOp48
 70
     1
102
RTVSPost2010Prop49
280
     0
102
RTVSPost2010PropOp49
 70
     1
102
RTVSPost2010Prop50
 90
       50
102
RTVSPost2010PropOp50
 70
     1
102
RTVSPost2010Prop51ColorIndex
 90
      256
102
RTVSPost2010Prop51ColorRGB
 90
-16777216
102
RTVSPost2010PropOp51
 70
     0
102
RTVSPost2010Prop52
140
1.0
102
RTVSPost2010PropOp52
 70
     0
102
RTVSPost2010Prop53
 90
        2
102
RTVSPost2010PropOp53
 70
     1
102
RTVSPost2010Prop54
  1
strokes_ogs.tif
102
RTVSPost2010PropOp54
 70
     1
102
RTVSPost2010Prop55
280
     0
102
RTVSPost2010PropOp55
 70
     1
102
RTVSPost2010Prop56
140
1.0
102
RTVSPost2010PropOp56
 70
     1
102
RTVSPost2010Prop57
140
1.0
102
RTVSPost2010PropOp57
 70
     1
102
RTVSPropertyOp0
 70
     1
102
RTVSPropertyOp1
 70
     1
102
RTVSPropertyOp2
 70
     1
102
RTVSPropertyOp3
 70
     1
102
RTVSPropertyOp4
 70
     1
102
RTVSPropertyOp5
 70
     1
102
RTVSPropertyOp6
 70
     1
102
RTVSPropertyOp7
 70
     1
102
RTVSPropertyOp8
 70
     1
102
RTVSPropertyOp9
 70
     1
102
RTVSPropertyOp10
 70
     1
102
RTVSPropertyOp11
 70
     1
102
RTVSPropertyOp12
 70
     1
102
RTVSPropertyOp13
 70
     1
102
RTVSPropertyOp14
 70
     1
102
RTVSPropertyOp15
 70
     1
102
RTVSPropertyOp16
 70
     1
102
RTVSPropertyOp17
 70
     1
102
RTVSPropertyOp18
 70
     1
102
RTVSPropertyOp19
 70
     1
102
RTVSPropertyOp20
 70
     1
102
RTVSPropertyOp21
 70
     1
102
RTVSPropertyOp22
 70
     1
102
RTVSPropertyOp23
 70
     1
102
RTVSPropertyOp24
 70
     1
102
RTVSPropertyOp25
 70
     1
102
RTVSPropertyOp26
 70
     1
102
RTVSPropertyOp27
 70
     1
102
RTVSPropertyOp28
 70
     1
102
RTVSPropertyOp29
 70
     1
102
RTVSPropertyOp30
 70
     1
102
RTVSPropertyOp31
 70
     1
102
RTVSPropertyOp32
 70
     1
102
RTVSPropertyOp33
 70
     1
102
RTVSPropertyOp34
 70
     1
102
RTVSPropertyOp35
 70
     1
102
RTVSPropertyOp36
 70
     1
102
RTVSPropertyOp37
 70
     1
102
RTVSPropertyOp38
 70
     1
102
RTVSPropertyOp39
 70
     1
102
RTVSPropertyOp40
 70
     1
102
RTVSPropertyOp41
 70
     1
102
RTVSPropertyOp42
 70
     1
102
RTVSPropertyOp43
 70
     1
102
RTVSPropertyOp44
 70
     1
102
RTVSPropertyOp45
 70
     1
102
RTVSPropertyOp46
 70
     1
102
RTVSPropertyOp47
 70
     1
102
RTVSPropertyOp48
 70
     1
102
RTVSPropertyOp49
 70
     1
102
RTVSPropertyOp50
 70
     1
102
RTVSPropertyOp51
 70
     0
102
RTVSPropertyOp52
 70
     0
102
RTVSPropertyOp53
 70
     1
102
RTVSPropertyOp54
 70
     1
102
RTVSPropertyOp55
 70
     1
102
RTVSPropertyOp56
 70
     1
102
RTVSPropertyOp57
 70
     1
102
RTVSPropertyOp58
 70
     1
102
RTVSPropertyOp59
 70
     1
102
RTVSPropertyOp60
 70
     1
102
RTVSPropertyOp61
 70
     1
102
RTVSPropertyOp62
 70
     1
  0
XRECORD
  5
8EC
102
{ACAD_REACTORS
330
8EB
102
}
330
8EB
100
AcDbXrecord
280
     1
102
RTVSPost2010Prop28
280
     0
102
RTVSPost2010PropOp28
 70
     1
102
RTVSPost2010Prop29
280
     1
102
RTVSPost2010PropOp29
 70
     1
102
RTVSPost2010Prop30
280
     1
102
RTVSPost2010PropOp30
 70
     1
102
RTVSPost2010Prop31
280
     0
102
RTVSPost2010PropOp31
 70
     1
102
RTVSPost2010Prop32
280
     0
102
RTVSPost2010PropOp32
 70
     1
102
RTVSPost2010Prop33
280
     0
102
RTVSPost2010PropOp33
 70
     1
102
RTVSPost2010Prop34
280
     0
102
RTVSPost2010PropOp34
 70
     1
102
RTVSPost2010Prop35
280
     0
102
RTVSPost2010PropOp35
 70
     1
102
RTVSPost2010Prop36
280
     0
102
RTVSPost2010PropOp36
 70
     1
102
RTVSPost2010Prop37
 90
       50
102
RTVSPost2010PropOp37
 70
     1
102
RTVSPost2010Prop38
140
0.0
102
RTVSPost2010PropOp38
 70
     1
102
RTVSPost2010Prop39
140
1.0
102
RTVSPost2010PropOp39
 70
     1
102
RTVSPost2010Prop40
 90
        0
102
RTVSPost2010PropOp40
 70
     1
102
RTVSPost2010Prop41ColorIndex
 90
       18
102
RTVSPost2010Prop41ColorRGB
 90
        0
102
RTVSPost2010PropOp41
 70
     1
102
RTVSPost2010Prop42
 90
       50
102
RTVSPost2010PropOp42
 70
     1
102
RTVSPost2010Prop43
 90
        3
102
RTVSPost2010PropOp43
 70
     1
102
RTVSPost2010Prop44ColorIndex
 90
        5
102
RTVSPost2010Prop44ColorRGB
 90
      255
102
RTVSPost2010PropOp44
 70
     1
102
RTVSPost2010Prop45
280
     0
102
RTVSPost2010PropOp45
 70
     1
102
RTVSPost2010Prop46
 90
       50
102
RTVSPost2010PropOp46
 70
     1
102
RTVSPost2010Prop47
 90
       50
102
RTVSPost2010PropOp47
 70
     1
102
RTVSPost2010Prop48
 90
       50
102
RTVSPost2010PropOp48
 70
     1
102
RTVSPost2010Prop49
280
     0
102
RTVSPost2010PropOp49
 70
     1
102
RTVSPost2010Prop50
 90
       50
102
RTVSPost2010PropOp50
 70
     1
102
RTVSPost2010Prop51ColorIndex
 90
      256
102
RTVSPost2010Prop51ColorRGB
 90
-16777216
102
RTVSPost2010PropOp51
 70
     0
102
RTVSPost2010Prop52
140
1.0
102
RTVSPost2010PropOp52
 70
     0
102
RTVSPost2010Prop53
 90
        2
102
RTVSPost2010PropOp53
 70
     1
102
RTVSPost2010Prop54
  1
strokes_ogs.tif
102
RTVSPost2010PropOp54
 70
     1
102
RTVSPost2010Prop55
280
     0
102
RTVSPost2010PropOp55
 70
     1
102
RTVSPost2010Prop56
140
1.0
102
RTVSPost2010PropOp56
 70
     1
102
RTVSPost2010Prop57
140
1.0
102
RTVSPost2010PropOp57
 70
     1
102
RTVSPropertyOp0
 70
     1
102
RTVSPropertyOp1
 70
     1
102
RTVSPropertyOp2
 70
     1
102
RTVSPropertyOp3
 70
     1
102
RTVSPropertyOp4
 70
     1
102
RTVSPropertyOp5
 70
     1
102
RTVSPropertyOp6
 70
     1
102
RTVSPropertyOp7
 70
     1
102
RTVSPropertyOp8
 70
     1
102
RTVSPropertyOp9
 70
     1
102
RTVSPropertyOp10
 70
     1
102
RTVSPropertyOp11
 70
     1
102
RTVSPropertyOp12
 70
     1
102
RTVSPropertyOp13
 70
     1
102
RTVSPropertyOp14
 70
     1
102
RTVSPropertyOp15
 70
     1
102
RTVSPropertyOp16
 70
     1
102
RTVSPropertyOp17
 70
     1
102
RTVSPropertyOp18
 70
     1
102
RTVSPropertyOp19
 70
     1
102
RTVSPropertyOp20
 70
     1
102
RTVSPropertyOp21
 70
     1
102
RTVSPropertyOp22
 70
     1
102
RTVSPropertyOp23
 70
     1
102
RTVSPropertyOp24
 70
     1
102
RTVSPropertyOp25
 70
     1
102
RTVSPropertyOp26
 70
     1
102
RTVSPropertyOp27
 70
     1
102
RTVSPropertyOp28
 70
     1
102
RTVSPropertyOp29
 70
     1
102
RTVSPropertyOp30
 70
     1
102
RTVSPropertyOp31
 70
     1
102
RTVSPropertyOp32
 70
     1
102
RTVSPropertyOp33
 70
     1
102
RTVSPropertyOp34
 70
     1
102
RTVSPropertyOp35
 70
     1
102
RTVSPropertyOp36
 70
     1
102
RTVSPropertyOp37
 70
     1
102
RTVSPropertyOp38
 70
     1
102
RTVSPropertyOp39
 70
     1
102
RTVSPropertyOp40
 70
     1
102
RTVSPropertyOp41
 70
     1
102
RTVSPropertyOp42
 70
     1
102
RTVSPropertyOp43
 70
     1
102
RTVSPropertyOp44
 70
     1
102
RTVSPropertyOp45
 70
     1
102
RTVSPropertyOp46
 70
     1
102
RTVSPropertyOp47
 70
     1
102
RTVSPropertyOp48
 70
     1
102
RTVSPropertyOp49
 70
     1
102
RTVSPropertyOp50
 70
     1
102
RTVSPropertyOp51
 70
     0
102
RTVSPropertyOp52
 70
     0
102
RTVSPropertyOp53
 70
     1
102
RTVSPropertyOp54
 70
     1
102
RTVSPropertyOp55
 70
     1
102
RTVSPropertyOp56
 70
     1
102
RTVSPropertyOp57
 70
     1
102
RTVSPropertyOp58
 70
     1
102
RTVSPropertyOp59
 70
     1
102
RTVSPropertyOp60
 70
     1
102
RTVSPropertyOp61
 70
     1
102
RTVSPropertyOp62
 70
     1
  0
XRECORD
  5
8EE
102
{ACAD_REACTORS
330
8ED
102
}
330
8ED
100
AcDbXrecord
280
     1
102
RTVSPost2010Prop28
280
     0
102
RTVSPost2010PropOp28
 70
     1
102
RTVSPost2010Prop29
280
     1
102
RTVSPost2010PropOp29
 70
     1
102
RTVSPost2010Prop30
280
     1
102
RTVSPost2010PropOp30
 70
     1
102
RTVSPost2010Prop31
280
     0
102
RTVSPost2010PropOp31
 70
     1
102
RTVSPost2010Prop32
280
     0
102
RTVSPost2010PropOp32
 70
     1
102
RTVSPost2010Prop33
280
     0
102
RTVSPost2010PropOp33
 70
     1
102
RTVSPost2010Prop34
280
     0
102
RTVSPost2010PropOp34
 70
     1
102
RTVSPost2010Prop35
280
     0
102
RTVSPost2010PropOp35
 70
     1
102
RTVSPost2010Prop36
280
     0
102
RTVSPost2010PropOp36
 70
     1
102
RTVSPost2010Prop37
 90
       50
102
RTVSPost2010PropOp37
 70
     1
102
RTVSPost2010Prop38
140
0.0
102
RTVSPost2010PropOp38
 70
     1
102
RTVSPost2010Prop39
140
1.0
102
RTVSPost2010PropOp39
 70
     1
102
RTVSPost2010Prop40
 90
        0
102
RTVSPost2010PropOp40
 70
     1
102
RTVSPost2010Prop41ColorIndex
 90
       18
102
RTVSPost2010Prop41ColorRGB
 90
        0
102
RTVSPost2010PropOp41
 70
     1
102
RTVSPost2010Prop42
 90
       50
102
RTVSPost2010PropOp42
 70
     1
102
RTVSPost2010Prop43
 90
        3
102
RTVSPost2010PropOp43
 70
     1
102
RTVSPost2010Prop44ColorIndex
 90
        5
102
RTVSPost2010Prop44ColorRGB
 90
      255
102
RTVSPost2010PropOp44
 70
     1
102
RTVSPost2010Prop45
280
     0
102
RTVSPost2010PropOp45
 70
     1
102
RTVSPost2010Prop46
 90
       50
102
RTVSPost2010PropOp46
 70
     1
102
RTVSPost2010Prop47
 90
       50
102
RTVSPost2010PropOp47
 70
     1
102
RTVSPost2010Prop48
 90
       50
102
RTVSPost2010PropOp48
 70
     1
102
RTVSPost2010Prop49
280
     0
102
RTVSPost2010PropOp49
 70
     1
102
RTVSPost2010Prop50
 90
       50
102
RTVSPost2010PropOp50
 70
     1
102
RTVSPost2010Prop51ColorIndex
 90
      256
102
RTVSPost2010Prop51ColorRGB
 90
-16777216
102
RTVSPost2010PropOp51
 70
     0
102
RTVSPost2010Prop52
140
1.0
102
RTVSPost2010PropOp52
 70
     0
102
RTVSPost2010Prop53
 90
        2
102
RTVSPost2010PropOp53
 70
     1
102
RTVSPost2010Prop54
  1
strokes_ogs.tif
102
RTVSPost2010PropOp54
 70
     1
102
RTVSPost2010Prop55
280
     0
102
RTVSPost2010PropOp55
 70
     1
102
RTVSPost2010Prop56
140
1.0
102
RTVSPost2010PropOp56
 70
     1
102
RTVSPost2010Prop57
140
1.0
102
RTVSPost2010PropOp57
 70
     1
102
RTVSPropertyOp0
 70
     1
102
RTVSPropertyOp1
 70
     1
102
RTVSPropertyOp2
 70
     1
102
RTVSPropertyOp3
 70
     1
102
RTVSPropertyOp4
 70
     1
102
RTVSPropertyOp5
 70
     1
102
RTVSPropertyOp6
 70
     1
102
RTVSPropertyOp7
 70
     1
102
RTVSPropertyOp8
 70
     1
102
RTVSPropertyOp9
 70
     1
102
RTVSPropertyOp10
 70
     1
102
RTVSPropertyOp11
 70
     1
102
RTVSPropertyOp12
 70
     1
102
RTVSPropertyOp13
 70
     1
102
RTVSPropertyOp14
 70
     1
102
RTVSPropertyOp15
 70
     1
102
RTVSPropertyOp16
 70
     1
102
RTVSPropertyOp17
 70
     1
102
RTVSPropertyOp18
 70
     1
102
RTVSPropertyOp19
 70
     1
102
RTVSPropertyOp20
 70
     1
102
RTVSPropertyOp21
 70
     1
102
RTVSPropertyOp22
 70
     1
102
RTVSPropertyOp23
 70
     1
102
RTVSPropertyOp24
 70
     1
102
RTVSPropertyOp25
 70
     1
102
RTVSPropertyOp26
 70
     1
102
RTVSPropertyOp27
 70
     1
102
RTVSPropertyOp28
 70
     1
102
RTVSPropertyOp29
 70
     1
102
RTVSPropertyOp30
 70
     1
102
RTVSPropertyOp31
 70
     1
102
RTVSPropertyOp32
 70
     1
102
RTVSPropertyOp33
 70
     1
102
RTVSPropertyOp34
 70
     1
102
RTVSPropertyOp35
 70
     1
102
RTVSPropertyOp36
 70
     1
102
RTVSPropertyOp37
 70
     1
102
RTVSPropertyOp38
 70
     1
102
RTVSPropertyOp39
 70
     1
102
RTVSPropertyOp40
 70
     1
102
RTVSPropertyOp41
 70
     1
102
RTVSPropertyOp42
 70
     1
102
RTVSPropertyOp43
 70
     1
102
RTVSPropertyOp44
 70
     1
102
RTVSPropertyOp45
 70
     1
102
RTVSPropertyOp46
 70
     1
102
RTVSPropertyOp47
 70
     1
102
RTVSPropertyOp48
 70
     1
102
RTVSPropertyOp49
 70
     1
102
RTVSPropertyOp50
 70
     1
102
RTVSPropertyOp51
 70
     0
102
RTVSPropertyOp52
 70
     0
102
RTVSPropertyOp53
 70
     1
102
RTVSPropertyOp54
 70
     1
102
RTVSPropertyOp55
 70
     1
102
RTVSPropertyOp56
 70
     1
102
RTVSPropertyOp57
 70
     1
102
RTVSPropertyOp58
 70
     1
102
RTVSPropertyOp59
 70
     1
102
RTVSPropertyOp60
 70
     1
102
RTVSPropertyOp61
 70
     1
102
RTVSPropertyOp62
 70
     1
  0
XRECORD
  5
8E0
102
{ACAD_REACTORS
330
8DF
102
}
330
8DF
100
AcDbXrecord
280
     1
102
RTVSPost2010Prop28
280
     0
102
RTVSPost2010PropOp28
 70
     1
102
RTVSPost2010Prop29
280
     1
102
RTVSPost2010PropOp29
 70
     1
102
RTVSPost2010Prop30
280
     1
102
RTVSPost2010PropOp30
 70
     1
102
RTVSPost2010Prop31
280
     0
102
RTVSPost2010PropOp31
 70
     1
102
RTVSPost2010Prop32
280
     0
102
RTVSPost2010PropOp32
 70
     1
102
RTVSPost2010Prop33
280
     0
102
RTVSPost2010PropOp33
 70
     1
102
RTVSPost2010Prop34
280
     0
102
RTVSPost2010PropOp34
 70
     1
102
RTVSPost2010Prop35
280
     0
102
RTVSPost2010PropOp35
 70
     1
102
RTVSPost2010Prop36
280
     0
102
RTVSPost2010PropOp36
 70
     1
102
RTVSPost2010Prop37
 90
       50
102
RTVSPost2010PropOp37
 70
     1
102
RTVSPost2010Prop38
140
0.0
102
RTVSPost2010PropOp38
 70
     1
102
RTVSPost2010Prop39
140
1.0
102
RTVSPost2010PropOp39
 70
     1
102
RTVSPost2010Prop40
 90
        0
102
RTVSPost2010PropOp40
 70
     1
102
RTVSPost2010Prop41ColorIndex
 90
       18
102
RTVSPost2010Prop41ColorRGB
 90
        0
102
RTVSPost2010PropOp41
 70
     1
102
RTVSPost2010Prop42
 90
       50
102
RTVSPost2010PropOp42
 70
     1
102
RTVSPost2010Prop43
 90
        3
102
RTVSPost2010PropOp43
 70
     1
102
RTVSPost2010Prop44ColorIndex
 90
        5
102
RTVSPost2010Prop44ColorRGB
 90
      255
102
RTVSPost2010PropOp44
 70
     1
102
RTVSPost2010Prop45
280
     0
102
RTVSPost2010PropOp45
 70
     1
102
RTVSPost2010Prop46
 90
       50
102
RTVSPost2010PropOp46
 70
     1
102
RTVSPost2010Prop47
 90
       50
102
RTVSPost2010PropOp47
 70
     1
102
RTVSPost2010Prop48
 90
       50
102
RTVSPost2010PropOp48
 70
     1
102
RTVSPost2010Prop49
280
     0
102
RTVSPost2010PropOp49
 70
     1
102
RTVSPost2010Prop50
 90
       50
102
RTVSPost2010PropOp50
 70
     1
102
RTVSPost2010Prop51ColorIndex
 90
      256
102
RTVSPost2010Prop51ColorRGB
 90
-16777216
102
RTVSPost2010PropOp51
 70
     0
102
RTVSPost2010Prop52
140
1.0
102
RTVSPost2010PropOp52
 70
     0
102
RTVSPost2010Prop53
 90
        2
102
RTVSPost2010PropOp53
 70
     1
102
RTVSPost2010Prop54
  1
strokes_ogs.tif
102
RTVSPost2010PropOp54
 70
     1
102
RTVSPost2010Prop55
280
     0
102
RTVSPost2010PropOp55
 70
     1
102
RTVSPost2010Prop56
140
1.0
102
RTVSPost2010PropOp56
 70
     1
102
RTVSPost2010Prop57
140
1.0
102
RTVSPost2010PropOp57
 70
     1
102
RTVSPropertyOp0
 70
     1
102
RTVSPropertyOp1
 70
     1
102
RTVSPropertyOp2
 70
     1
102
RTVSPropertyOp3
 70
     1
102
RTVSPropertyOp4
 70
     1
102
RTVSPropertyOp5
 70
     1
102
RTVSPropertyOp6
 70
     1
102
RTVSPropertyOp7
 70
     1
102
RTVSPropertyOp8
 70
     1
102
RTVSPropertyOp9
 70
     1
102
RTVSPropertyOp10
 70
     1
102
RTVSPropertyOp11
 70
     1
102
RTVSPropertyOp12
 70
     1
102
RTVSPropertyOp13
 70
     1
102
RTVSPropertyOp14
 70
     1
102
RTVSPropertyOp15
 70
     1
102
RTVSPropertyOp16
 70
     1
102
RTVSPropertyOp17
 70
     1
102
RTVSPropertyOp18
 70
     1
102
RTVSPropertyOp19
 70
     1
102
RTVSPropertyOp20
 70
     1
102
RTVSPropertyOp21
 70
     1
102
RTVSPropertyOp22
 70
     1
102
RTVSPropertyOp23
 70
     1
102
RTVSPropertyOp24
 70
     1
102
RTVSPropertyOp25
 70
     1
102
RTVSPropertyOp26
 70
     1
102
RTVSPropertyOp27
 70
     1
102
RTVSPropertyOp28
 70
     1
102
RTVSPropertyOp29
 70
     1
102
RTVSPropertyOp30
 70
     1
102
RTVSPropertyOp31
 70
     1
102
RTVSPropertyOp32
 70
     1
102
RTVSPropertyOp33
 70
     1
102
RTVSPropertyOp34
 70
     1
102
RTVSPropertyOp35
 70
     1
102
RTVSPropertyOp36
 70
     1
102
RTVSPropertyOp37
 70
     1
102
RTVSPropertyOp38
 70
     1
102
RTVSPropertyOp39
 70
     1
102
RTVSPropertyOp40
 70
     1
102
RTVSPropertyOp41
 70
     1
102
RTVSPropertyOp42
 70
     1
102
RTVSPropertyOp43
 70
     1
102
RTVSPropertyOp44
 70
     1
102
RTVSPropertyOp45
 70
     1
102
RTVSPropertyOp46
 70
     1
102
RTVSPropertyOp47
 70
     1
102
RTVSPropertyOp48
 70
     1
102
RTVSPropertyOp49
 70
     1
102
RTVSPropertyOp50
 70
     1
102
RTVSPropertyOp51
 70
     0
102
RTVSPropertyOp52
 70
     0
102
RTVSPropertyOp53
 70
     1
102
RTVSPropertyOp54
 70
     1
102
RTVSPropertyOp55
 70
     1
102
RTVSPropertyOp56
 70
     1
102
RTVSPropertyOp57
 70
     1
102
RTVSPropertyOp58
 70
     1
102
RTVSPropertyOp59
 70
     1
102
RTVSPropertyOp60
 70
     1
102
RTVSPropertyOp61
 70
     1
102
RTVSPropertyOp62
 70
     1
  0
XRECORD
  5
8E8
102
{ACAD_REACTORS
330
8E7
102
}
330
8E7
100
AcDbXrecord
280
     1
102
RTVSPost2010Prop28
280
     0
102
RTVSPost2010PropOp28
 70
     1
102
RTVSPost2010Prop29
280
     1
102
RTVSPost2010PropOp29
 70
     1
102
RTVSPost2010Prop30
280
     1
102
RTVSPost2010PropOp30
 70
     1
102
RTVSPost2010Prop31
280
     0
102
RTVSPost2010PropOp31
 70
     1
102
RTVSPost2010Prop32
280
     0
102
RTVSPost2010PropOp32
 70
     1
102
RTVSPost2010Prop33
280
     0
102
RTVSPost2010PropOp33
 70
     1
102
RTVSPost2010Prop34
280
     0
102
RTVSPost2010PropOp34
 70
     1
102
RTVSPost2010Prop35
280
     0
102
RTVSPost2010PropOp35
 70
     1
102
RTVSPost2010Prop36
280
     0
102
RTVSPost2010PropOp36
 70
     1
102
RTVSPost2010Prop37
 90
       50
102
RTVSPost2010PropOp37
 70
     1
102
RTVSPost2010Prop38
140
0.0
102
RTVSPost2010PropOp38
 70
     1
102
RTVSPost2010Prop39
140
1.0
102
RTVSPost2010PropOp39
 70
     1
102
RTVSPost2010Prop40
 90
        0
102
RTVSPost2010PropOp40
 70
     1
102
RTVSPost2010Prop41ColorIndex
 90
       18
102
RTVSPost2010Prop41ColorRGB
 90
        0
102
RTVSPost2010PropOp41
 70
     1
102
RTVSPost2010Prop42
 90
       50
102
RTVSPost2010PropOp42
 70
     1
102
RTVSPost2010Prop43
 90
        3
102
RTVSPost2010PropOp43
 70
     1
102
RTVSPost2010Prop44ColorIndex
 90
        5
102
RTVSPost2010Prop44ColorRGB
 90
      255
102
RTVSPost2010PropOp44
 70
     1
102
RTVSPost2010Prop45
280
     0
102
RTVSPost2010PropOp45
 70
     1
102
RTVSPost2010Prop46
 90
       50
102
RTVSPost2010PropOp46
 70
     1
102
RTVSPost2010Prop47
 90
       50
102
RTVSPost2010PropOp47
 70
     1
102
RTVSPost2010Prop48
 90
       50
102
RTVSPost2010PropOp48
 70
     1
102
RTVSPost2010Prop49
280
     0
102
RTVSPost2010PropOp49
 70
     1
102
RTVSPost2010Prop50
 90
       50
102
RTVSPost2010PropOp50
 70
     1
102
RTVSPost2010Prop51ColorIndex
 90
      256
102
RTVSPost2010Prop51ColorRGB
 90
-16777216
102
RTVSPost2010PropOp51
 70
     0
102
RTVSPost2010Prop52
140
1.0
102
RTVSPost2010PropOp52
 70
     0
102
RTVSPost2010Prop53
 90
        2
102
RTVSPost2010PropOp53
 70
     1
102
RTVSPost2010Prop54
  1
strokes_ogs.tif
102
RTVSPost2010PropOp54
 70
     1
102
RTVSPost2010Prop55
280
     0
102
RTVSPost2010PropOp55
 70
     1
102
RTVSPost2010Prop56
140
1.0
102
RTVSPost2010PropOp56
 70
     1
102
RTVSPost2010Prop57
140
1.0
102
RTVSPost2010PropOp57
 70
     1
102
RTVSPropertyOp0
 70
     1
102
RTVSPropertyOp1
 70
     1
102
RTVSPropertyOp2
 70
     1
102
RTVSPropertyOp3
 70
     1
102
RTVSPropertyOp4
 70
     1
102
RTVSPropertyOp5
 70
     1
102
RTVSPropertyOp6
 70
     1
102
RTVSPropertyOp7
 70
     1
102
RTVSPropertyOp8
 70
     1
102
RTVSPropertyOp9
 70
     1
102
RTVSPropertyOp10
 70
     1
102
RTVSPropertyOp11
 70
     1
102
RTVSPropertyOp12
 70
     1
102
RTVSPropertyOp13
 70
     1
102
RTVSPropertyOp14
 70
     1
102
RTVSPropertyOp15
 70
     1
102
RTVSPropertyOp16
 70
     1
102
RTVSPropertyOp17
 70
     1
102
RTVSPropertyOp18
 70
     1
102
RTVSPropertyOp19
 70
     1
102
RTVSPropertyOp20
 70
     1
102
RTVSPropertyOp21
 70
     1
102
RTVSPropertyOp22
 70
     1
102
RTVSPropertyOp23
 70
     1
102
RTVSPropertyOp24
 70
     1
102
RTVSPropertyOp25
 70
     1
102
RTVSPropertyOp26
 70
     1
102
RTVSPropertyOp27
 70
     1
102
RTVSPropertyOp28
 70
     1
102
RTVSPropertyOp29
 70
     1
102
RTVSPropertyOp30
 70
     1
102
RTVSPropertyOp31
 70
     1
102
RTVSPropertyOp32
 70
     1
102
RTVSPropertyOp33
 70
     1
102
RTVSPropertyOp34
 70
     1
102
RTVSPropertyOp35
 70
     1
102
RTVSPropertyOp36
 70
     1
102
RTVSPropertyOp37
 70
     1
102
RTVSPropertyOp38
 70
     1
102
RTVSPropertyOp39
 70
     1
102
RTVSPropertyOp40
 70
     1
102
RTVSPropertyOp41
 70
     1
102
RTVSPropertyOp42
 70
     1
102
RTVSPropertyOp43
 70
     1
102
RTVSPropertyOp44
 70
     1
102
RTVSPropertyOp45
 70
     1
102
RTVSPropertyOp46
 70
     1
102
RTVSPropertyOp47
 70
     1
102
RTVSPropertyOp48
 70
     1
102
RTVSPropertyOp49
 70
     1
102
RTVSPropertyOp50
 70
     1
102
RTVSPropertyOp51
 70
     0
102
RTVSPropertyOp52
 70
     0
102
RTVSPropertyOp53
 70
     1
102
RTVSPropertyOp54
 70
     1
102
RTVSPropertyOp55
 70
     1
102
RTVSPropertyOp56
 70
     1
102
RTVSPropertyOp57
 70
     1
102
RTVSPropertyOp58
 70
     1
102
RTVSPropertyOp59
 70
     1
102
RTVSPropertyOp60
 70
     1
102
RTVSPropertyOp61
 70
     1
102
RTVSPropertyOp62
 70
     1
  0
XRECORD
  5
8F0
102
{ACAD_REACTORS
330
8EF
102
}
330
8EF
100
AcDbXrecord
280
     1
102
RTVSPost2010Prop28
280
     0
102
RTVSPost2010PropOp28
 70
     1
102
RTVSPost2010Prop29
280
     1
102
RTVSPost2010PropOp29
 70
     1
102
RTVSPost2010Prop30
280
     1
102
RTVSPost2010PropOp30
 70
     1
102
RTVSPost2010Prop31
280
     0
102
RTVSPost2010PropOp31
 70
     1
102
RTVSPost2010Prop32
280
     0
102
RTVSPost2010PropOp32
 70
     1
102
RTVSPost2010Prop33
280
     0
102
RTVSPost2010PropOp33
 70
     1
102
RTVSPost2010Prop34
280
     0
102
RTVSPost2010PropOp34
 70
     1
102
RTVSPost2010Prop35
280
     0
102
RTVSPost2010PropOp35
 70
     1
102
RTVSPost2010Prop36
280
     0
102
RTVSPost2010PropOp36
 70
     1
102
RTVSPost2010Prop37
 90
       50
102
RTVSPost2010PropOp37
 70
     1
102
RTVSPost2010Prop38
140
0.0
102
RTVSPost2010PropOp38
 70
     1
102
RTVSPost2010Prop39
140
1.0
102
RTVSPost2010PropOp39
 70
     1
102
RTVSPost2010Prop40
 90
        0
102
RTVSPost2010PropOp40
 70
     1
102
RTVSPost2010Prop41ColorIndex
 90
       18
102
RTVSPost2010Prop41ColorRGB
 90
        0
102
RTVSPost2010PropOp41
 70
     1
102
RTVSPost2010Prop42
 90
       50
102
RTVSPost2010PropOp42
 70
     1
102
RTVSPost2010Prop43
 90
        3
102
RTVSPost2010PropOp43
 70
     1
102
RTVSPost2010Prop44ColorIndex
 90
        5
102
RTVSPost2010Prop44ColorRGB
 90
      255
102
RTVSPost2010PropOp44
 70
     1
102
RTVSPost2010Prop45
280
     0
102
RTVSPost2010PropOp45
 70
     1
102
RTVSPost2010Prop46
 90
       50
102
RTVSPost2010PropOp46
 70
     1
102
RTVSPost2010Prop47
 90
       50
102
RTVSPost2010PropOp47
 70
     1
102
RTVSPost2010Prop48
 90
       50
102
RTVSPost2010PropOp48
 70
     1
102
RTVSPost2010Prop49
280
     0
102
RTVSPost2010PropOp49
 70
     1
102
RTVSPost2010Prop50
 90
       50
102
RTVSPost2010PropOp50
 70
     1
102
RTVSPost2010Prop51ColorIndex
 90
      256
102
RTVSPost2010Prop51ColorRGB
 90
-16777216
102
RTVSPost2010PropOp51
 70
     0
102
RTVSPost2010Prop52
140
1.0
102
RTVSPost2010PropOp52
 70
     0
102
RTVSPost2010Prop53
 90
        2
102
RTVSPost2010PropOp53
 70
     1
102
RTVSPost2010Prop54
  1
strokes_ogs.tif
102
RTVSPost2010PropOp54
 70
     1
102
RTVSPost2010Prop55
280
     0
102
RTVSPost2010PropOp55
 70
     1
102
RTVSPost2010Prop56
140
1.0
102
RTVSPost2010PropOp56
 70
     1
102
RTVSPost2010Prop57
140
1.0
102
RTVSPost2010PropOp57
 70
     1
102
RTVSPropertyOp0
 70
     1
102
RTVSPropertyOp1
 70
     1
102
RTVSPropertyOp2
 70
     1
102
RTVSPropertyOp3
 70
     1
102
RTVSPropertyOp4
 70
     1
102
RTVSPropertyOp5
 70
     1
102
RTVSPropertyOp6
 70
     1
102
RTVSPropertyOp7
 70
     1
102
RTVSPropertyOp8
 70
     1
102
RTVSPropertyOp9
 70
     1
102
RTVSPropertyOp10
 70
     1
102
RTVSPropertyOp11
 70
     1
102
RTVSPropertyOp12
 70
     1
102
RTVSPropertyOp13
 70
     1
102
RTVSPropertyOp14
 70
     1
102
RTVSPropertyOp15
 70
     1
102
RTVSPropertyOp16
 70
     1
102
RTVSPropertyOp17
 70
     1
102
RTVSPropertyOp18
 70
     1
102
RTVSPropertyOp19
 70
     1
102
RTVSPropertyOp20
 70
     1
102
RTVSPropertyOp21
 70
     1
102
RTVSPropertyOp22
 70
     1
102
RTVSPropertyOp23
 70
     1
102
RTVSPropertyOp24
 70
     1
102
RTVSPropertyOp25
 70
     1
102
RTVSPropertyOp26
 70
     1
102
RTVSPropertyOp27
 70
     1
102
RTVSPropertyOp28
 70
     1
102
RTVSPropertyOp29
 70
     1
102
RTVSPropertyOp30
 70
     1
102
RTVSPropertyOp31
 70
     1
102
RTVSPropertyOp32
 70
     1
102
RTVSPropertyOp33
 70
     1
102
RTVSPropertyOp34
 70
     1
102
RTVSPropertyOp35
 70
     1
102
RTVSPropertyOp36
 70
     1
102
RTVSPropertyOp37
 70
     1
102
RTVSPropertyOp38
 70
     1
102
RTVSPropertyOp39
 70
     1
102
RTVSPropertyOp40
 70
     1
102
RTVSPropertyOp41
 70
     1
102
RTVSPropertyOp42
 70
     1
102
RTVSPropertyOp43
 70
     1
102
RTVSPropertyOp44
 70
     1
102
RTVSPropertyOp45
 70
     1
102
RTVSPropertyOp46
 70
     1
102
RTVSPropertyOp47
 70
     1
102
RTVSPropertyOp48
 70
     1
102
RTVSPropertyOp49
 70
     1
102
RTVSPropertyOp50
 70
     1
102
RTVSPropertyOp51
 70
     0
102
RTVSPropertyOp52
 70
     0
102
RTVSPropertyOp53
 70
     1
102
RTVSPropertyOp54
 70
     1
102
RTVSPropertyOp55
 70
     1
102
RTVSPropertyOp56
 70
     1
102
RTVSPropertyOp57
 70
     1
102
RTVSPropertyOp58
 70
     1
102
RTVSPropertyOp59
 70
     1
102
RTVSPropertyOp60
 70
     1
102
RTVSPropertyOp61
 70
     1
102
RTVSPropertyOp62
 70
     1
  0
ENDSEC
  0
EOF
