  0
SECTION
  2
HEADER
  9
$ACADVER
  1
AC1015
  9
$ACADMAINTVER
 70
    20
  9
$DWGCODEPAGE
  3
ANSI_1252
  9
$INSBASE
 10
0.0
 20
0.0
 30
0.0
  9
$EXTMIN
 10
-367.7272728244101
 20
-45.01016598415001
 30
0.0
  9
$EXTMAX
 10
277.5756963404687
 20
180.1711458815191
 30
0.0
  9
$LIMMIN
 10
0.0
 20
0.0
  9
$LIMMAX
 10
12.0
 20
9.0
  9
$ORTHOMODE
 70
     1
  9
$REGENMODE
 70
     1
  9
$FILLMODE
 70
     1
  9
$QTEXTMODE
 70
     0
  9
$MIRRTEXT
 70
     0
  9
$LTSCALE
 40
1.0
  9
$ATTMODE
 70
     1
  9
$TEXTSIZE
 40
0.2
  9
$TRACEWID
 40
0.05
  9
$TEXTSTYLE
  7
Standard
  9
$CLAYER
  8
0
  9
$CELTYPE
  6
ByLayer
  9
$CECOLOR
 62
   256
  9
$CELTSCALE
 40
1.0
  9
$DISPSILH
 70
     0
  9
$DIMSCALE
 40
1.0
  9
$DIMASZ
 40
0.18
  9
$DIMEXO
 40
0.0625
  9
$DIMDLI
 40
0.38
  9
$DIMRND
 40
0.0
  9
$DIMDLE
 40
0.0
  9
$DIMEXE
 40
0.18
  9
$DIMTP
 40
0.0
  9
$DIMTM
 40
0.0
  9
$DIMTXT
 40
0.18
  9
$DIMCEN
 40
0.09
  9
$DIMTSZ
 40
0.0
  9
$DIMTOL
 70
     0
  9
$DIMLIM
 70
     0
  9
$DIMTIH
 70
     1
  9
$DIMTOH
 70
     1
  9
$DIMSE1
 70
     0
  9
$DIMSE2
 70
     0
  9
$DIMTAD
 70
     0
  9
$DIMZIN
 70
     0
  9
$DIMBLK
  1

  9
$DIMASO
 70
     1
  9
$DIMSHO
 70
     1
  9
$DIMPOST
  1

  9
$DIMAPOST
  1

  9
$DIMALT
 70
     0
  9
$DIMALTD
 70
     2
  9
$DIMALTF
 40
25.4
  9
$DIMLFAC
 40
1.0
  9
$DIMTOFL
 70
     0
  9
$DIMTVP
 40
0.0
  9
$DIMTIX
 70
     0
  9
$DIMSOXD
 70
     0
  9
$DIMSAH
 70
     0
  9
$DIMBLK1
  1

  9
$DIMBLK2
  1

  9
$DIMSTYLE
  2
Standard
  9
$DIMCLRD
 70
     0
  9
$DIMCLRE
 70
     0
  9
$DIMCLRT
 70
     0
  9
$DIMTFAC
 40
1.0
  9
$DIMGAP
 40
0.09
  9
$DIMJUST
 70
     0
  9
$DIMSD1
 70
     0
  9
$DIMSD2
 70
     0
  9
$DIMTOLJ
 70
     1
  9
$DIMTZIN
 70
     0
  9
$DIMALTZ
 70
     0
  9
$DIMALTTZ
 70
     0
  9
$DIMUPT
 70
     0
  9
$DIMDEC
 70
     4
  9
$DIMTDEC
 70
     4
  9
$DIMALTU
 70
     2
  9
$DIMALTTD
 70
     2
  9
$DIMTXSTY
  7
Standard
  9
$DIMAUNIT
 70
     0
  9
$DIMADEC
 70
     0
  9
$DIMALTRND
 40
0.0
  9
$DIMAZIN
 70
     0
  9
$DIMDSEP
 70
    46
  9
$DIMATFIT
 70
     3
  9
$DIMFRAC
 70
     0
  9
$DIMLDRBLK
  1

  9
$DIMLUNIT
 70
     2
  9
$DIMLWD
 70
    -2
  9
$DIMLWE
 70
    -2
  9
$DIMTMOVE
 70
     0
  9
$LUNITS
 70
     2
  9
$LUPREC
 70
     4
  9
$SKETCHINC
 40
0.1
  9
$FILLETRAD
 40
0.0
  9
$AUNITS
 70
     0
  9
$AUPREC
 70
     0
  9
$MENU
  1
.
  9
$ELEVATION
 40
0.0
  9
$PELEVATION
 40
0.0
  9
$THICKNESS
 40
0.0
  9
$LIMCHECK
 70
     0
  9
$CHAMFERA
 40
0.0
  9
$CHAMFERB
 40
0.0
  9
$CHAMFERC
 40
0.0
  9
$CHAMFERD
 40
0.0
  9
$SKPOLY
 70
     0
  9
$TDCREATE
 40
2455098.373449479
  9
$TDUCREATE
 40
2455098.290116146
  9
$TDUPDATE
 40
2457171.379089352
  9
$TDUUPDATE
 40
2457171.295756019
  9
$TDINDWG
 40
0.0232184722
  9
$TDUSRTIMER
 40
0.0232182870
  9
$USRTIMER
 70
     1
  9
$ANGBASE
 50
0.0
  9
$ANGDIR
 70
     0
  9
$PDMODE
 70
     0
  9
$PDSIZE
 40
0.0
  9
$PLINEWID
 40
0.0
  9
$SPLFRAME
 70
     0
  9
$SPLINETYPE
 70
     6
  9
$SPLINESEGS
 70
     8
  9
$HANDSEED
  5
169A
  9
$SURFTAB1
 70
     6
  9
$SURFTAB2
 70
     6
  9
$SURFTYPE
 70
     6
  9
$SURFU
 70
     6
  9
$SURFV
 70
     6
  9
$UCSBASE
  2

  9
$UCSNAME
  2

  9
$UCSORG
 10
0.0
 20
0.0
 30
0.0
  9
$UCSXDIR
 10
1.0
 20
0.0
 30
0.0
  9
$UCSYDIR
 10
0.0
 20
1.0
 30
0.0
  9
$UCSORTHOREF
  2

  9
$UCSORTHOVIEW
 70
     0
  9
$UCSORGTOP
 10
0.0
 20
0.0
 30
0.0
  9
$UCSORGBOTTOM
 10
0.0
 20
0.0
 30
0.0
  9
$UCSORGLEFT
 10
0.0
 20
0.0
 30
0.0
  9
$UCSORGRIGHT
 10
0.0
 20
0.0
 30
0.0
  9
$UCSORGFRONT
 10
0.0
 20
0.0
 30
0.0
  9
$UCSORGBACK
 10
0.0
 20
0.0
 30
0.0
  9
$PUCSBASE
  2

  9
$PUCSNAME
  2

  9
$PUCSORG
 10
0.0
 20
0.0
 30
0.0
  9
$PUCSXDIR
 10
1.0
 20
0.0
 30
0.0
  9
$PUCSYDIR
 10
0.0
 20
1.0
 30
0.0
  9
$PUCSORTHOREF
  2

  9
$PUCSORTHOVIEW
 70
     0
  9
$PUCSORGTOP
 10
0.0
 20
0.0
 30
0.0
  9
$PUCSORGBOTTOM
 10
0.0
 20
0.0
 30
0.0
  9
$PUCSORGLEFT
 10
0.0
 20
0.0
 30
0.0
  9
$PUCSORGRIGHT
 10
0.0
 20
0.0
 30
0.0
  9
$PUCSORGFRONT
 10
0.0
 20
0.0
 30
0.0
  9
$PUCSORGBACK
 10
0.0
 20
0.0
 30
0.0
  9
$USERI1
 70
     0
  9
$USERI2
 70
     0
  9
$USERI3
 70
     0
  9
$USERI4
 70
     0
  9
$USERI5
 70
     0
  9
$USERR1
 40
0.0
  9
$USERR2
 40
0.0
  9
$USERR3
 40
0.0
  9
$USERR4
 40
0.0
  9
$USERR5
 40
0.0
  9
$WORLDVIEW
 70
     1
  9
$SHADEDGE
 70
     3
  9
$SHADEDIF
 70
    70
  9
$TILEMODE
 70
     1
  9
$MAXACTVP
 70
    64
  9
$PINSBASE
 10
0.0
 20
0.0
 30
0.0
  9
$PLIMCHECK
 70
     0
  9
$PEXTMIN
 10
0.0
 20
0.0
 30
0.0
  9
$PEXTMAX
 10
0.0
 20
0.0
 30
0.0
  9
$PLIMMIN
 10
0.0
 20
0.0
  9
$PLIMMAX
 10
12.0
 20
9.0
  9
$UNITMODE
 70
     0
  9
$VISRETAIN
 70
     1
  9
$PLINEGEN
 70
     0
  9
$PSLTSCALE
 70
     1
  9
$TREEDEPTH
 70
  3020
  9
$CMLSTYLE
  2
Standard
  9
$CMLJUST
 70
     0
  9
$CMLSCALE
 40
1.0
  9
$PROXYGRAPHICS
 70
     1
  9
$MEASUREMENT
 70
     0
  9
$CELWEIGHT
370
    -1
  9
$ENDCAPS
280
     0
  9
$JOINSTYLE
280
     0
  9
$LWDISPLAY
290
     0
  9
$INSUNITS
 70
     1
  9
$HYPERLINKBASE
  1

  9
$STYLESHEET
  1

  9
$XEDIT
290
     1
  9
$CEPSNTYPE
380
     0
  9
$PSTYLEMODE
290
     1
  9
$FINGERPRINTGUID
  2
{4E634B6C-DD5F-492F-BDB6-580C5028518A}
  9
$VERSIONGUID
  2
{210900AD-5631-4598-B780-1E8251DD05C1}
  9
$EXTNAMES
290
     1
  9
$PSVPSCALE
 40
0.0
  9
$OLESTARTUP
290
     0
  0
ENDSEC
  0
SECTION
  2
CLASSES
  0
CLASS
  1
ACDBDICTIONARYWDFLT
  2
AcDbDictionaryWithDefault
  3
ObjectDBX Classes
 90
        0
280
     0
281
     0
  0
CLASS
  1
ACDBPLACEHOLDER
  2
AcDbPlaceHolder
  3
ObjectDBX Classes
 90
        0
280
     0
281
     0
  0
CLASS
  1
LAYOUT
  2
AcDbLayout
  3
ObjectDBX Classes
 90
        0
280
     0
281
     0
  0
CLASS
  1
DICTIONARYVAR
  2
AcDbDictionaryVar
  3
ObjectDBX Classes
 90
        0
280
     0
281
     0
  0
CLASS
  1
TABLESTYLE
  2
AcDbTableStyle
  3
ObjectDBX Classes
 90
     4095
280
     0
281
     0
  0
CLASS
  1
MATERIAL
  2
AcDbMaterial
  3
ObjectDBX Classes
 90
     1153
280
     0
281
     0
  0
CLASS
  1
VISUALSTYLE
  2
AcDbVisualStyle
  3
ObjectDBX Classes
 90
     4095
280
     0
281
     0
  0
CLASS
  1
SCALE
  2
AcDbScale
  3
ObjectDBX Classes
 90
     1153
280
     0
281
     0
  0
CLASS
  1
MLEADERSTYLE
  2
AcDbMLeaderStyle
  3
ACDB_MLEADERSTYLE_CLASS
 90
     4095
280
     0
281
     0
  0
CLASS
  1
CELLSTYLEMAP
  2
AcDbCellStyleMap
  3
ObjectDBX Classes
 90
     1152
280
     0
281
     0
  0
CLASS
  1
ACDBSECTIONVIEWSTYLE
  2
AcDbSectionViewStyle
  3
ObjectDBX Classes
 90
     1025
280
     0
281
     0
  0
CLASS
  1
ACDBDETAILVIEWSTYLE
  2
AcDbDetailViewStyle
  3
ObjectDBX Classes
 90
     1025
280
     0
281
     0
  0
ENDSEC
  0
SECTION
  2
TABLES
  0
TABLE
  2
VPORT
  5
8
330
0
100
AcDbSymbolTable
 70
     1
  0
VPORT
  5
94
330
8
100
AcDbSymbolTableRecord
100
AcDbViewportTableRecord
  2
*Active
 70
     0
 10
0.0
 20
0.0
 11
1.0
 21
1.0
 12
147.4028487675878
 22
121.3375661146252
 13
0.0
 23
0.0
 14
0.5
 24
0.5
 15
0.5
 25
0.5
 16
0.0
 26
0.0
 36
1.0
 17
0.0
 27
0.0
 37
0.0
 40
412.0100331006189
 41
2.28548644338118
 42
50.0
 43
0.0
 44
0.0
 50
0.0
 51
0.0
 71
     0
 72
  1000
 73
     1
 74
     3
 75
     0
 76
     0
 77
     0
 78
     0
281
     0
 65
     1
110
0.0
120
0.0
130
0.0
111
1.0
121
0.0
131
0.0
112
0.0
122
1.0
132
0.0
 79
     0
146
0.0
1001
ACAD_NAV_VCDISPLAY
1070
     3
  0
ENDTAB
  0
TABLE
  2
LTYPE
  5
5
330
0
100
AcDbSymbolTable
 70
     2
  0
LTYPE
  5
14
330
5
100
AcDbSymbolTableRecord
100
AcDbLinetypeTableRecord
  2
ByBlock
 70
     0
  3

 72
    65
 73
     0
 40
0.0
  0
LTYPE
  5
15
330
5
100
AcDbSymbolTableRecord
100
AcDbLinetypeTableRecord
  2
ByLayer
 70
     0
  3

 72
    65
 73
     0
 40
0.0
  0
LTYPE
  5
16
330
5
100
AcDbSymbolTableRecord
100
AcDbLinetypeTableRecord
  2
Continuous
 70
     0
  3
Solid line
 72
    65
 73
     0
 40
0.0
  0
LTYPE
  5
14D
330
5
100
AcDbSymbolTableRecord
100
AcDbLinetypeTableRecord
  2
CONTINUA
 70
     0
  3
Linea continua
 72
    65
 73
     0
 40
0.0
  0
ENDTAB
  0
TABLE
  2
LAYER
  5
2
102
{ACAD_XDICTIONARY
360
F20
102
}
330
0
100
AcDbSymbolTable
 70
     2
  0
LAYER
  5
10
102
{ACAD_XDICTIONARY
360
E6
102
}
330
2
100
AcDbSymbolTableRecord
100
AcDbLayerTableRecord
  2
0
 70
     0
 62
     7
  6
Continuous
370
    -3
390
F
  0
LAYER
  5
F1F
330
2
100
AcDbSymbolTableRecord
100
AcDbLayerTableRecord
  2
Defpoints
 70
     0
 62
     7
  6
Continuous
290
     0
370
    -3
390
F
  0
ENDTAB
  0
TABLE
  2
STYLE
  5
3
330
0
100
AcDbSymbolTable
 70
     4
  0
STYLE
  5
11
330
3
100
AcDbSymbolTableRecord
100
AcDbTextStyleTableRecord
  2
Standard
 70
     0
 40
0.0
 41
1.0
 50
0.0
 71
     0
 42
0.2
  3
txt.shx
  4

  0
STYLE
  5
DC
330
3
100
AcDbSymbolTableRecord
100
AcDbTextStyleTableRecord
  2
Annotativa
 70
     0
 40
0.0
 41
1.0
 50
0.0
 71
     0
 42
0.2
  3
txt.shx
  4

1001
AcadAnnotative
1000
AnnotativeData
1002
{
1070
     1
1070
     1
1002
}
  0
STYLE
  5
14E
330
3
100
AcDbSymbolTableRecord
100
AcDbTextStyleTableRecord
  2
H
 70
     0
 40
1.75
 41
1.0
 50
0.0
 71
     0
 42
1.75
  3
swiss.ttf
  4

1001
ACAD
1000
Swis721 BT
1071
       34
  0
STYLE
  5
14F
330
3
100
AcDbSymbolTableRecord
100
AcDbTextStyleTableRecord
  2
ZD
 70
     0
 40
0.0
 41
1.0
 50
0.0
 71
     0
 42
3.0
  3
SIMPLEX
  4

  0
ENDTAB
  0
TABLE
  2
VIEW
  5
6
330
0
100
AcDbSymbolTable
 70
     0
  0
ENDTAB
  0
TABLE
  2
UCS
  5
7
330
0
100
AcDbSymbolTable
 70
     0
  0
ENDTAB
  0
TABLE
  2
APPID
  5
9
330
0
100
AcDbSymbolTable
 70
    16
  0
APPID
  5
12
330
9
100
AcDbSymbolTableRecord
100
AcDbRegAppTableRecord
  2
ACAD
 70
     0
  0
APPID
  5
DD
330
9
100
AcDbSymbolTableRecord
100
AcDbRegAppTableRecord
  2
AcadAnnoPO
 70
     0
  0
APPID
  5
DE
330
9
100
AcDbSymbolTableRecord
100
AcDbRegAppTableRecord
  2
AcadAnnotative
 70
     0
  0
APPID
  5
DF
330
9
100
AcDbSymbolTableRecord
100
AcDbRegAppTableRecord
  2
ACAD_DSTYLE_DIMJAG
 70
     0
  0
APPID
  5
E0
330
9
100
AcDbSymbolTableRecord
100
AcDbRegAppTableRecord
  2
ACAD_DSTYLE_DIMTALN
 70
     0
  0
APPID
  5
107
330
9
100
AcDbSymbolTableRecord
100
AcDbRegAppTableRecord
  2
ACAD_MLEADERVER
 70
     0
  0
APPID
  5
E5F
330
9
100
AcDbSymbolTableRecord
100
AcDbRegAppTableRecord
  2
VDEXTRAPARAM
 70
     0
  0
APPID
  5
E60
330
9
100
AcDbSymbolTableRecord
100
AcDbRegAppTableRecord
  2
ACAD_NAV_VCDISPLAY
 70
     0
  0
APPID
  5
10CB
330
9
100
AcDbSymbolTableRecord
100
AcDbRegAppTableRecord
  2
ACAD_EXEMPT_FROM_CAD_STANDARDS
 70
     0
  0
APPID
  5
13CA
330
9
100
AcDbSymbolTableRecord
100
AcDbRegAppTableRecord
  2
ACAD_PSEXT
 70
     0
  0
APPID
  5
13CB
330
9
100
AcDbSymbolTableRecord
100
AcDbRegAppTableRecord
  2
VD_EX_PRINTER_DWG_STYLE_SHEET
 70
     0
  0
APPID
  5
13CC
330
9
100
AcDbSymbolTableRecord
100
AcDbRegAppTableRecord
  2
VD_EX_PRINTER_SIZEX
 70
     0
  0
APPID
  5
13CD
330
9
100
AcDbSymbolTableRecord
100
AcDbRegAppTableRecord
  2
VD_EX_PRINTER_AVSIZEX
 70
     0
  0
APPID
  5
13CE
330
9
100
AcDbSymbolTableRecord
100
AcDbRegAppTableRecord
  2
VD_EX_PRINTER_SIZEY
 70
     0
  0
APPID
  5
13CF
330
9
100
AcDbSymbolTableRecord
100
AcDbRegAppTableRecord
  2
VD_EX_PRINTER_AVSIZEY
 70
     0
  0
APPID
  5
15C9
330
9
100
AcDbSymbolTableRecord
100
AcDbRegAppTableRecord
  2
ACAD_DSTYLE_DIMRADIAL_EXTENSION
 70
     0
  0
ENDTAB
  0
TABLE
  2
DIMSTYLE
  5
A
330
0
100
AcDbSymbolTable
 70
     4
100
AcDbDimStyleTable
 71
     2
340
27
340
E1
  0
DIMSTYLE
105
27
102
{ACAD_REACTORS
330
F2B
330
F2C
330
F2D
330
15F0
330
15F1
330
15E0
102
}
330
A
100
AcDbSymbolTableRecord
100
AcDbDimStyleTableRecord
  2
Standard
 70
     0
340
11
  0
DIMSTYLE
105
E1
330
A
100
AcDbSymbolTableRecord
100
AcDbDimStyleTableRecord
  2
Annotativa
 70
     0
 40
0.0
340
11
1001
AcadAnnotative
1000
AnnotativeData
1002
{
1070
     1
1070
     1
1002
}
1001
ACAD_DSTYLE_DIMJAG
1070
   388
1040
1.5
1001
ACAD_DSTYLE_DIMTALN
1070
   392
1070
     0
  0
DIMSTYLE
105
150
330
A
100
AcDbSymbolTableRecord
100
AcDbDimStyleTableRecord
  2
GEWISS
 70
     0
 41
1.7
 42
1.0
 43
7.0
 44
0.3
 73
     0
 74
     0
 77
     1
140
1.75
141
1.5
147
0.5
172
     1
176
     1
177
     1
340
14E
  0
DIMSTYLE
105
13C9
330
A
100
AcDbSymbolTableRecord
100
AcDbDimStyleTableRecord
  2
ISO-25
 70
     0
 41
2.5
 42
0.625
 44
1.25
 47
1.0
 48
1.0
 73
     0
 77
     1
 78
     8
140
2.5
147
0.625
271
     2
340
11
  0
ENDTAB
  0
TABLE
  2
BLOCK_RECORD
  5
1
330
0
100
AcDbSymbolTable
 70
    19
  0
BLOCK_RECORD
  5
1F
330
1
100
AcDbSymbolTableRecord
100
AcDbBlockTableRecord
  2
*Model_Space
340
22
  0
BLOCK_RECORD
  5
58
330
1
100
AcDbSymbolTableRecord
100
AcDbBlockTableRecord
  2
*Paper_Space
340
59
  0
BLOCK_RECORD
  5
5D
330
1
100
AcDbSymbolTableRecord
100
AcDbBlockTableRecord
  2
*Paper_Space0
340
5E
  0
BLOCK_RECORD
  5
E5B
330
1
100
AcDbSymbolTableRecord
100
AcDbBlockTableRecord
  2
VDDIM_DEFAULT
340
0
  0
BLOCK_RECORD
  5
EEB
330
1
100
AcDbSymbolTableRecord
100
AcDbBlockTableRecord
  2
*D2
340
0
  0
BLOCK_RECORD
  5
EF8
330
1
100
AcDbSymbolTableRecord
100
AcDbBlockTableRecord
  2
*D3
340
0
  0
BLOCK_RECORD
  5
F05
330
1
100
AcDbSymbolTableRecord
100
AcDbBlockTableRecord
  2
*D4
340
0
  0
BLOCK_RECORD
  5
F12
330
1
100
AcDbSymbolTableRecord
100
AcDbBlockTableRecord
  2
*D5
340
0
  0
BLOCK_RECORD
  5
F2F
330
1
100
AcDbSymbolTableRecord
100
AcDbBlockTableRecord
  2
*D6
340
0
  0
BLOCK_RECORD
  5
F3C
330
1
100
AcDbSymbolTableRecord
100
AcDbBlockTableRecord
  2
*D7
340
0
  0
BLOCK_RECORD
  5
F49
330
1
100
AcDbSymbolTableRecord
100
AcDbBlockTableRecord
  2
*D8
340
0
  0
BLOCK_RECORD
  5
F56
330
1
100
AcDbSymbolTableRecord
100
AcDbBlockTableRecord
  2
*D9
340
0
  0
BLOCK_RECORD
  5
10D2
330
1
100
AcDbSymbolTableRecord
100
AcDbBlockTableRecord
  2
*D10
340
0
  0
BLOCK_RECORD
  5
11A7
330
1
100
AcDbSymbolTableRecord
100
AcDbBlockTableRecord
  2
*D11
340
0
  0
BLOCK_RECORD
  5
15A4
330
1
100
AcDbSymbolTableRecord
100
AcDbBlockTableRecord
  2
*D12
340
0
  0
BLOCK_RECORD
  5
15B1
330
1
100
AcDbSymbolTableRecord
100
AcDbBlockTableRecord
  2
*D13
340
0
  0
BLOCK_RECORD
  5
15BE
330
1
100
AcDbSymbolTableRecord
100
AcDbBlockTableRecord
  2
*D14
340
0
  0
BLOCK_RECORD
  5
15F2
330
1
100
AcDbSymbolTableRecord
100
AcDbBlockTableRecord
  2
*D16
340
0
  0
BLOCK_RECORD
  5
15FF
330
1
100
AcDbSymbolTableRecord
100
AcDbBlockTableRecord
  2
*D17
340
0
  0
BLOCK_RECORD
  5
160A
330
1
100
AcDbSymbolTableRecord
100
AcDbBlockTableRecord
  2
*D18
340
0
  0
ENDTAB
  0
ENDSEC
  0
SECTION
  2
BLOCKS
  0
BLOCK
  5
20
330
1F
100
AcDbEntity
  8
0
100
AcDbBlockBegin
  2
*Model_Space
 70
     0
 10
0.0
 20
0.0
 30
0.0
  3
*Model_Space
  1

  0
ENDBLK
  5
21
330
1F
100
AcDbEntity
  8
0
100
AcDbBlockEnd
  0
BLOCK
  5
5A
330
58
100
AcDbEntity
 67
     1
  8
0
100
AcDbBlockBegin
  2
*Paper_Space
 70
     0
 10
0.0
 20
0.0
 30
0.0
  3
*Paper_Space
  1

  0
ENDBLK
  5
5B
330
58
100
AcDbEntity
 67
     1
  8
0
100
AcDbBlockEnd
  0
BLOCK
  5
5F
330
5D
100
AcDbEntity
 67
     1
  8
0
100
AcDbBlockBegin
  2
*Paper_Space0
 70
     0
 10
0.0
 20
0.0
 30
0.0
  3
*Paper_Space0
  1

  0
ENDBLK
  5
60
330
5D
100
AcDbEntity
 67
     1
  8
0
100
AcDbBlockEnd
  0
BLOCK
  5
E5C
330
E5B
100
AcDbEntity
  8
0
100
AcDbBlockBegin
  2
VDDIM_DEFAULT
 70
     0
 10
0.0
 20
0.0
 30
0.0
  3
VDDIM_DEFAULT
  1

  0
HATCH
  5
E5D
330
E5B
100
AcDbEntity
  8
0
 62
     0
370
    -2
100
AcDbHatch
 10
0.0
 20
0.0
 30
0.0
210
0.0
220
0.0
230
-1.0
  2
SOLID
 70
     1
 71
     0
 91
        1
 92
        2
 72
     0
 73
     1
 93
        3
 10
0.0
 20
0.0
 10
1.0
 20
-0.1665
 10
1.0
 20
0.1665
 97
        0
 75
     0
 76
     1
 98
        1
 10
0.0
 20
0.0
  0
ENDBLK
  5
E5E
330
E5B
100
AcDbEntity
  8
0
100
AcDbBlockEnd
  0
BLOCK
  5
EEC
330
EEB
100
AcDbEntity
  8
0
100
AcDbBlockBegin
  2
*D2
 70
     1
 10
0.0
 20
0.0
 30
0.0
  3
*D2
  1

  0
LINE
  5
EED
330
EEB
100
AcDbEntity
  8
0
 62
     0
370
    -2
100
AcDbLine
 10
20.36449744536722
 20
19.11931731663766
 30
0.0
 11
20.36449744536722
 21
-15.76828405907723
 31
0.0
  0
LINE
  5
EEE
330
EEB
100
AcDbEntity
  8
0
 62
     0
370
    -2
100
AcDbLine
 10
175.3589370453672
 20
19.05681731663766
 30
0.0
 11
175.3589370453672
 21
-15.76828405907723
 31
0.0
  0
LINE
  5
EEF
330
EEB
100
AcDbEntity
  8
0
 62
     0
370
    -2
100
AcDbLine
 10
26.36449744536722
 20
-15.58828405907723
 30
0.0
 11
82.32936855359131
 21
-15.58828405907723
 31
0.0
  0
LINE
  5
EF0
330
EEB
100
AcDbEntity
  8
0
 62
     0
370
    -2
100
AcDbLine
 10
169.3589370453672
 20
-15.58828405907723
 30
0.0
 11
107.0093685535913
 21
-15.58828405907723
 31
0.0
  0
SOLID
  5
EF1
330
EEB
100
AcDbEntity
  8
0
 62
     0
100
AcDbTrace
 10
26.36449744536722
 20
-14.58828405907723
 30
0.0
 11
26.36449744536722
 21
-16.58828405907723
 31
0.0
 12
20.36449744536722
 22
-15.58828405907723
 32
0.0
 13
20.36449744536722
 23
-15.58828405907723
 33
0.0
  0
SOLID
  5
EF2
330
EEB
100
AcDbEntity
  8
0
 62
     0
100
AcDbTrace
 10
169.3589370453672
 20
-14.58828405907723
 30
0.0
 11
169.3589370453672
 21
-16.58828405907723
 31
0.0
 12
175.3589370453672
 22
-15.58828405907723
 32
0.0
 13
175.3589370453672
 23
-15.58828405907723
 33
0.0
  0
MTEXT
  5
EF3
330
EEB
100
AcDbEntity
  8
0
 62
     0
100
AcDbMText
 10
94.66936855359131
 20
-15.58828405907723
 30
0.0
 40
7.0
 41
0.0
 71
     5
 72
     1
  1
\A1;155.0
 73
     1
 44
1.0
1001
ACAD
1000
MTEXTBEGIN
1070
    73
1070
     1
1070
    44
1040
1.0
1070
    74
1070
     0
1000
MTEXTEND
  0
POINT
  5
EF4
330
EEB
100
AcDbEntity
  8
Defpoints
 62
     0
100
AcDbPoint
 10
20.36449744536722
 20
19.18181731663766
 30
0.0
  0
POINT
  5
EF5
330
EEB
100
AcDbEntity
  8
Defpoints
 62
     0
100
AcDbPoint
 10
175.3589370453672
 20
19.11931731663766
 30
0.0
  0
POINT
  5
EF6
330
EEB
100
AcDbEntity
  8
Defpoints
 62
     0
100
AcDbPoint
 10
175.3589370453672
 20
-15.58828405907723
 30
0.0
  0
ENDBLK
  5
EF7
330
EEB
100
AcDbEntity
  8
0
100
AcDbBlockEnd
  0
BLOCK
  5
EF9
330
EF8
100
AcDbEntity
  8
0
100
AcDbBlockBegin
  2
*D3
 70
     1
 10
0.0
 20
0.0
 30
0.0
  3
*D3
  1

  0
LINE
  5
EFA
330
EF8
100
AcDbEntity
  8
0
 62
     0
370
    -2
100
AcDbLine
 10
169.4601124453671
 20
13.15799271663766
 30
0.0
 11
223.6830184012375
 21
13.15799271663764
 31
0.0
  0
LINE
  5
EFB
330
EF8
100
AcDbEntity
  8
0
 62
     0
370
    -2
100
AcDbLine
 10
169.4573322453671
 20
128.1579927166376
 30
0.0
 11
223.6830184012375
 21
128.1579927166375
 31
0.0
  0
LINE
  5
EFC
330
EF8
100
AcDbEntity
  8
0
 62
     0
370
    -2
100
AcDbLine
 10
223.5030184012375
 20
19.15799271663764
 30
0.0
 11
223.5030184012375
 21
65.70161832346129
 31
0.0
  0
LINE
  5
EFD
330
EF8
100
AcDbEntity
  8
0
 62
     0
370
    -2
100
AcDbLine
 10
223.5030184012375
 20
122.1579927166375
 30
0.0
 11
223.5030184012375
 21
72.8816183234613
 31
0.0
  0
SOLID
  5
EFE
330
EF8
100
AcDbEntity
  8
0
 62
     0
100
AcDbTrace
 10
222.5030184012375
 20
19.15799271663764
 30
0.0
 11
224.5030184012375
 21
19.15799271663764
 31
0.0
 12
223.5030184012375
 22
13.15799271663764
 32
0.0
 13
223.5030184012375
 23
13.15799271663764
 33
0.0
  0
SOLID
  5
EFF
330
EF8
100
AcDbEntity
  8
0
 62
     0
100
AcDbTrace
 10
222.5030184012375
 20
122.1579927166375
 30
0.0
 11
224.5030184012375
 21
122.1579927166375
 31
0.0
 12
223.5030184012375
 22
128.1579927166375
 32
0.0
 13
223.5030184012375
 23
128.1579927166375
 33
0.0
  0
MTEXT
  5
F00
330
EF8
100
AcDbEntity
  8
0
 62
     0
100
AcDbMText
 10
223.5030184012375
 20
69.29161832346132
 30
0.0
 40
7.0
 41
0.0
 71
     5
 72
     1
  1
\A1;115.0
 73
     1
 44
1.0
1001
ACAD
1000
MTEXTBEGIN
1070
    73
1070
     1
1070
    44
1040
1.0
1070
    74
1070
     0
1000
MTEXTEND
  0
POINT
  5
F01
330
EF8
100
AcDbEntity
  8
Defpoints
 62
     0
100
AcDbPoint
 10
169.3976124453671
 20
13.15799271663766
 30
0.0
  0
POINT
  5
F02
330
EF8
100
AcDbEntity
  8
Defpoints
 62
     0
100
AcDbPoint
 10
169.3948322453671
 20
128.1579927166376
 30
0.0
  0
POINT
  5
F03
330
EF8
100
AcDbEntity
  8
Defpoints
 62
     0
100
AcDbPoint
 10
223.5030184012375
 20
128.1579927166375
 30
0.0
  0
ENDBLK
  5
F04
330
EF8
100
AcDbEntity
  8
0
100
AcDbBlockEnd
  0
BLOCK
  5
F06
330
F05
100
AcDbEntity
  8
0
100
AcDbBlockBegin
  2
*D4
 70
     1
 10
0.0
 20
0.0
 30
0.0
  3
*D4
  1

  0
LINE
  5
F07
330
F05
100
AcDbEntity
  8
0
 62
     0
370
    -2
100
AcDbLine
 10
-141.2945177876792
 20
68.29439467988561
 30
0.0
 11
-141.2945177876792
 21
-15.56773957702126
 31
0.0
  0
LINE
  5
F08
330
F05
100
AcDbEntity
  8
0
 62
     0
370
    -2
100
AcDbLine
 10
-86.32367701007948
 20
8.869000716637543
 30
0.0
 11
-86.32367701007948
 21
-15.56773957702125
 31
0.0
  0
LINE
  5
F09
330
F05
100
AcDbEntity
  8
0
 62
     0
370
    -2
100
AcDbLine
 10
-135.2945177876792
 20
-15.38773957702125
 30
0.0
 11
-123.815764065546
 21
-15.38773957702125
 31
0.0
  0
LINE
  5
F0A
330
F05
100
AcDbEntity
  8
0
 62
     0
370
    -2
100
AcDbLine
 10
-92.3236770100795
 20
-15.38773957702125
 30
0.0
 11
-103.8024307322127
 21
-15.38773957702125
 31
0.0
  0
SOLID
  5
F0B
330
F05
100
AcDbEntity
  8
0
 62
     0
100
AcDbTrace
 10
-135.2945177876792
 20
-14.38773957702125
 30
0.0
 11
-135.2945177876792
 21
-16.38773957702125
 31
0.0
 12
-141.2945177876792
 22
-15.38773957702125
 32
0.0
 13
-141.2945177876792
 23
-15.38773957702125
 33
0.0
  0
SOLID
  5
F0C
330
F05
100
AcDbEntity
  8
0
 62
     0
100
AcDbTrace
 10
-92.3236770100795
 20
-14.38773957702125
 30
0.0
 11
-92.3236770100795
 21
-16.38773957702125
 31
0.0
 12
-86.32367701007948
 22
-15.38773957702125
 32
0.0
 13
-86.32367701007948
 23
-15.38773957702125
 33
0.0
  0
MTEXT
  5
F0D
330
F05
100
AcDbEntity
  8
0
 62
     0
100
AcDbMText
 10
-113.8090973988793
 20
-15.38773957702125
 30
0.0
 40
7.0
 41
0.0
 71
     5
 72
     1
  1
\A1;55.0
 73
     1
 44
1.0
1001
ACAD
1000
MTEXTBEGIN
1070
    73
1070
     1
1070
    44
1040
1.0
1070
    74
1070
     0
1000
MTEXTEND
  0
POINT
  5
F0E
330
F05
100
AcDbEntity
  8
Defpoints
 62
     0
100
AcDbPoint
 10
-141.2945177876792
 20
68.35689467988562
 30
0.0
  0
POINT
  5
F0F
330
F05
100
AcDbEntity
  8
Defpoints
 62
     0
100
AcDbPoint
 10
-86.32367701007948
 20
8.931500716637543
 30
0.0
  0
POINT
  5
F10
330
F05
100
AcDbEntity
  8
Defpoints
 62
     0
100
AcDbPoint
 10
-86.32367701007948
 20
-15.38773957702125
 30
0.0
  0
ENDBLK
  5
F11
330
F05
100
AcDbEntity
  8
0
100
AcDbBlockEnd
  0
BLOCK
  5
F13
330
F12
100
AcDbEntity
  8
0
100
AcDbBlockBegin
  2
*D5
 70
     1
 10
0.0
 20
0.0
 30
0.0
  3
*D5
  1

  0
LINE
  5
F14
330
F12
100
AcDbEntity
  8
0
 62
     0
370
    -2
100
AcDbLine
 10
-86.32367701007948
 20
13.09549271663773
 30
0.0
 11
-86.32367701007948
 21
-15.56773957702125
 31
0.0
  0
LINE
  5
F15
330
F12
100
AcDbEntity
  8
0
 62
     0
370
    -2
100
AcDbLine
 10
-33.32367701007928
 20
24.96457713663654
 30
0.0
 11
-33.32367701007928
 21
-15.56773957702125
 31
0.0
  0
LINE
  5
F16
330
F12
100
AcDbEntity
  8
0
 62
     0
370
    -2
100
AcDbLine
 10
-80.32367701007952
 20
-15.38773957702125
 30
0.0
 11
-67.46641209932461
 21
-15.38773957702125
 31
0.0
  0
LINE
  5
F17
330
F12
100
AcDbEntity
  8
0
 62
     0
370
    -2
100
AcDbLine
 10
-39.32367701007928
 20
-15.38773957702125
 30
0.0
 11
-47.45307876599127
 21
-15.38773957702125
 31
0.0
  0
SOLID
  5
F18
330
F12
100
AcDbEntity
  8
0
 62
     0
100
AcDbTrace
 10
-80.32367701007952
 20
-14.38773957702125
 30
0.0
 11
-80.32367701007952
 21
-16.38773957702125
 31
0.0
 12
-86.32367701007948
 22
-15.38773957702125
 32
0.0
 13
-86.32367701007948
 23
-15.38773957702125
 33
0.0
  0
SOLID
  5
F19
330
F12
100
AcDbEntity
  8
0
 62
     0
100
AcDbTrace
 10
-39.32367701007928
 20
-14.38773957702125
 30
0.0
 11
-39.32367701007928
 21
-16.38773957702125
 31
0.0
 12
-33.32367701007928
 22
-15.38773957702125
 32
0.0
 13
-33.32367701007928
 23
-15.38773957702125
 33
0.0
  0
MTEXT
  5
F1A
330
F12
100
AcDbEntity
  8
0
 62
     0
100
AcDbMText
 10
-57.45974543265794
 20
-15.38773957702125
 30
0.0
 40
7.0
 41
0.0
 71
     5
 72
     1
  1
\A1;53.0
 73
     1
 44
1.0
1001
ACAD
1000
MTEXTBEGIN
1070
    73
1070
     1
1070
    44
1040
1.0
1070
    74
1070
     0
1000
MTEXTEND
  0
POINT
  5
F1B
330
F12
100
AcDbEntity
  8
Defpoints
 62
     0
100
AcDbPoint
 10
-86.32367701007948
 20
13.15799271663773
 30
0.0
  0
POINT
  5
F1C
330
F12
100
AcDbEntity
  8
Defpoints
 62
     0
100
AcDbPoint
 10
-33.32367701007928
 20
25.02707713663653
 30
0.0
  0
POINT
  5
F1D
330
F12
100
AcDbEntity
  8
Defpoints
 62
     0
100
AcDbPoint
 10
-33.32367701007928
 20
-15.38773957702125
 30
0.0
  0
ENDBLK
  5
F1E
330
F12
100
AcDbEntity
  8
0
100
AcDbBlockEnd
  0
BLOCK
  5
F30
330
F2F
100
AcDbEntity
  8
0
100
AcDbBlockBegin
  2
*D6
 70
     1
 10
0.0
 20
0.0
 30
0.0
  3
*D6
  1

  0
LINE
  5
FEF
330
F2F
100
AcDbEntity
  8
0
 62
     0
370
    -2
100
AcDbLine
 10
18.02988794178822
 20
16.2560666927116
 30
0.0
 11
18.02988794178821
 21
-13.39285912244497
 31
0.0
  0
LINE
  5
FF0
330
F2F
100
AcDbEntity
  8
0
 62
     0
370
    -2
100
AcDbLine
 10
214.0298879417882
 20
16.1935666927116
 30
0.0
 11
214.0298879417882
 21
-13.39285912244497
 31
0.0
  0
LINE
  5
FF1
330
F2F
100
AcDbEntity
  8
0
 62
     0
370
    -2
100
AcDbLine
 10
24.02988794178821
 20
-13.21285912244497
 30
0.0
 11
109.4355786392675
 21
-13.21285912244497
 31
0.0
  0
LINE
  5
FF2
330
F2F
100
AcDbEntity
  8
0
 62
     0
370
    -2
100
AcDbLine
 10
208.0298879417882
 20
-13.21285912244497
 30
0.0
 11
134.1155786392675
 21
-13.21285912244497
 31
0.0
  0
SOLID
  5
FF3
330
F2F
100
AcDbEntity
  8
0
 62
     0
100
AcDbTrace
 10
24.02988794178821
 20
-12.21285912244497
 30
0.0
 11
24.02988794178821
 21
-14.21285912244497
 31
0.0
 12
18.02988794178821
 22
-13.21285912244497
 32
0.0
 13
18.02988794178821
 23
-13.21285912244497
 33
0.0
  0
SOLID
  5
FF4
330
F2F
100
AcDbEntity
  8
0
 62
     0
100
AcDbTrace
 10
208.0298879417882
 20
-12.21285912244497
 30
0.0
 11
208.0298879417882
 21
-14.21285912244497
 31
0.0
 12
214.0298879417882
 22
-13.21285912244497
 32
0.0
 13
214.0298879417882
 23
-13.21285912244497
 33
0.0
  0
MTEXT
  5
FF5
330
F2F
100
AcDbEntity
  8
0
 62
     0
100
AcDbMText
 10
121.7755786392675
 20
-13.21285912244497
 30
0.0
 40
7.0
 41
0.0
 71
     5
 72
     1
  1
\A1;196.0
 73
     1
 44
1.0
1001
ACAD
1000
MTEXTBEGIN
1070
    73
1070
     1
1070
    44
1040
1.0
1070
    74
1070
     0
1000
MTEXTEND
  0
POINT
  5
FF6
330
F2F
100
AcDbEntity
  8
Defpoints
 62
     0
100
AcDbPoint
 10
18.02988794178822
 20
16.3185666927116
 30
0.0
  0
POINT
  5
FF7
330
F2F
100
AcDbEntity
  8
Defpoints
 62
     0
100
AcDbPoint
 10
214.0298879417882
 20
16.2560666927116
 30
0.0
  0
POINT
  5
FF8
330
F2F
100
AcDbEntity
  8
Defpoints
 62
     0
100
AcDbPoint
 10
214.0298879417882
 20
-13.21285912244497
 30
0.0
  0
ENDBLK
  5
F31
330
F2F
100
AcDbEntity
  8
0
100
AcDbBlockEnd
  0
BLOCK
  5
F3D
330
F3C
100
AcDbEntity
  8
0
100
AcDbBlockBegin
  2
*D7
 70
     1
 10
0.0
 20
0.0
 30
0.0
  3
*D7
  1

  0
LINE
  5
F95
330
F3C
100
AcDbEntity
  8
0
 62
     0
370
    -2
100
AcDbLine
 10
208.5327903845982
 20
10.7561889355216
 30
0.0
 11
262.7556963404686
 21
10.75618893552158
 31
0.0
  0
LINE
  5
F96
330
F3C
100
AcDbEntity
  8
0
 62
     0
370
    -2
100
AcDbLine
 10
208.5300101845982
 20
160.7561889355215
 30
0.0
 11
262.7556963404686
 21
160.7561889355215
 31
0.0
  0
LINE
  5
F97
330
F3C
100
AcDbEntity
  8
0
 62
     0
370
    -2
100
AcDbLine
 10
262.5756963404686
 20
16.75618893552158
 30
0.0
 11
262.5756963404686
 21
98.29981454234522
 31
0.0
  0
LINE
  5
F98
330
F3C
100
AcDbEntity
  8
0
 62
     0
370
    -2
100
AcDbLine
 10
262.5756963404687
 20
154.7561889355215
 30
0.0
 11
262.5756963404686
 21
105.4798145423452
 31
0.0
  0
SOLID
  5
F99
330
F3C
100
AcDbEntity
  8
0
 62
     0
100
AcDbTrace
 10
261.5756963404686
 20
16.75618893552158
 30
0.0
 11
263.5756963404686
 21
16.75618893552158
 31
0.0
 12
262.5756963404686
 22
10.75618893552158
 32
0.0
 13
262.5756963404686
 23
10.75618893552158
 33
0.0
  0
SOLID
  5
F9A
330
F3C
100
AcDbEntity
  8
0
 62
     0
100
AcDbTrace
 10
261.5756963404686
 20
154.7561889355215
 30
0.0
 11
263.5756963404686
 21
154.7561889355215
 31
0.0
 12
262.5756963404687
 22
160.7561889355215
 32
0.0
 13
262.5756963404687
 23
160.7561889355215
 33
0.0
  0
MTEXT
  5
F9B
330
F3C
100
AcDbEntity
  8
0
 62
     0
100
AcDbMText
 10
262.5756963404686
 20
101.8898145423452
 30
0.0
 40
7.0
 41
0.0
 71
     5
 72
     1
  1
\A1;150.0
 73
     1
 44
1.0
1001
ACAD
1000
MTEXTBEGIN
1070
    73
1070
     1
1070
    44
1040
1.0
1070
    74
1070
     0
1000
MTEXTEND
  0
POINT
  5
F9C
330
F3C
100
AcDbEntity
  8
Defpoints
 62
     0
100
AcDbPoint
 10
208.4702903845982
 20
10.7561889355216
 30
0.0
  0
POINT
  5
F9D
330
F3C
100
AcDbEntity
  8
Defpoints
 62
     0
100
AcDbPoint
 10
208.4675101845982
 20
160.7561889355215
 30
0.0
  0
POINT
  5
F9E
330
F3C
100
AcDbEntity
  8
Defpoints
 62
     0
100
AcDbPoint
 10
262.5756963404687
 20
160.7561889355215
 30
0.0
  0
ENDBLK
  5
F3E
330
F3C
100
AcDbEntity
  8
0
100
AcDbBlockEnd
  0
BLOCK
  5
F4A
330
F49
100
AcDbEntity
  8
0
100
AcDbBlockBegin
  2
*D8
 70
     1
 10
0.0
 20
0.0
 30
0.0
  3
*D8
  1

  0
LINE
  5
13B9
330
F49
100
AcDbEntity
  8
0
 62
     0
370
    -2
100
AcDbLine
 10
-177.7840604235475
 20
101.953728567519
 30
0.0
 11
-177.7840604235475
 21
-13.68055135813827
 31
0.0
  0
LINE
  5
13BA
330
F49
100
AcDbEntity
  8
0
 62
     0
370
    -2
100
AcDbLine
 10
-113.7840604235475
 20
10.75618893552052
 30
0.0
 11
-113.7840604235475
 21
-13.68055135813827
 31
0.0
  0
LINE
  5
13BB
330
F49
100
AcDbEntity
  8
0
 62
     0
370
    -2
100
AcDbLine
 10
-171.7840604235474
 20
-13.50055135813827
 30
0.0
 11
-151.276147479014
 21
-13.50055135813827
 31
0.0
  0
LINE
  5
13BC
330
F49
100
AcDbEntity
  8
0
 62
     0
370
    -2
100
AcDbLine
 10
-119.7840604235475
 20
-13.50055135813827
 30
0.0
 11
-131.2628141456807
 21
-13.50055135813827
 31
0.0
  0
SOLID
  5
13BD
330
F49
100
AcDbEntity
  8
0
 62
     0
100
AcDbTrace
 10
-171.7840604235474
 20
-12.50055135813827
 30
0.0
 11
-171.7840604235474
 21
-14.50055135813827
 31
0.0
 12
-177.7840604235475
 22
-13.50055135813827
 32
0.0
 13
-177.7840604235475
 23
-13.50055135813827
 33
0.0
  0
SOLID
  5
13BE
330
F49
100
AcDbEntity
  8
0
 62
     0
100
AcDbTrace
 10
-119.7840604235475
 20
-12.50055135813827
 30
0.0
 11
-119.7840604235475
 21
-14.50055135813827
 31
0.0
 12
-113.7840604235475
 22
-13.50055135813827
 32
0.0
 13
-113.7840604235475
 23
-13.50055135813827
 33
0.0
  0
MTEXT
  5
13BF
330
F49
100
AcDbEntity
  8
0
 62
     0
100
AcDbMText
 10
-141.2694808123474
 20
-13.50055135813827
 30
0.0
 40
7.0
 41
0.0
 71
     5
 72
     1
  1
\A1;64.0
 73
     1
 44
1.0
1001
ACAD
1000
MTEXTBEGIN
1070
    73
1070
     1
1070
    44
1040
1.0
1070
    74
1070
     0
1000
MTEXTEND
  0
POINT
  5
13C0
330
F49
100
AcDbEntity
  8
Defpoints
 62
     0
100
AcDbPoint
 10
-177.7840604235475
 20
102.016228567519
 30
0.0
  0
POINT
  5
13C1
330
F49
100
AcDbEntity
  8
Defpoints
 62
     0
100
AcDbPoint
 10
-113.7840604235475
 20
10.81868893552052
 30
0.0
  0
POINT
  5
13C2
330
F49
100
AcDbEntity
  8
Defpoints
 62
     0
100
AcDbPoint
 10
-113.7840604235475
 20
-13.50055135813827
 30
0.0
  0
ENDBLK
  5
F4B
330
F49
100
AcDbEntity
  8
0
100
AcDbBlockEnd
  0
BLOCK
  5
F57
330
F56
100
AcDbEntity
  8
0
100
AcDbBlockBegin
  2
*D9
 70
     1
 10
0.0
 20
0.0
 30
0.0
  3
*D9
  1

  0
LINE
  5
FE5
330
F56
100
AcDbEntity
  8
0
 62
     0
370
    -2
100
AcDbLine
 10
-113.7840604235475
 20
10.75618893552052
 30
0.0
 11
-113.7840604235475
 21
-13.68055135813827
 31
0.0
  0
LINE
  5
FE6
330
F56
100
AcDbEntity
  8
0
 62
     0
370
    -2
100
AcDbLine
 10
-73.78406042354756
 20
107.638984134121
 30
0.0
 11
-73.78406042354758
 21
-13.68055135813827
 31
0.0
  0
LINE
  5
FE7
330
F56
100
AcDbEntity
  8
0
 62
     0
370
    -2
100
AcDbLine
 10
-107.7840604235475
 20
-13.50055135813827
 30
0.0
 11
-104.842262004363
 21
-13.50055135813827
 31
0.0
  0
LINE
  5
FE8
330
F56
100
AcDbEntity
  8
0
 62
     0
370
    -2
100
AcDbLine
 10
-79.78406042354759
 20
-13.50055135813827
 30
0.0
 11
-85.99559533769634
 21
-13.50055135813827
 31
0.0
  0
SOLID
  5
FE9
330
F56
100
AcDbEntity
  8
0
 62
     0
100
AcDbTrace
 10
-107.7840604235475
 20
-12.50055135813826
 30
0.0
 11
-107.7840604235475
 21
-14.50055135813826
 31
0.0
 12
-113.7840604235475
 22
-13.50055135813827
 32
0.0
 13
-113.7840604235475
 23
-13.50055135813827
 33
0.0
  0
SOLID
  5
FEA
330
F56
100
AcDbEntity
  8
0
 62
     0
100
AcDbTrace
 10
-79.78406042354759
 20
-12.50055135813826
 30
0.0
 11
-79.78406042354759
 21
-14.50055135813826
 31
0.0
 12
-73.78406042354758
 22
-13.50055135813827
 32
0.0
 13
-73.78406042354758
 23
-13.50055135813827
 33
0.0
  0
MTEXT
  5
FEB
330
F56
100
AcDbEntity
  8
0
 62
     0
100
AcDbMText
 10
-95.41892867102966
 20
-13.50055135813827
 30
0.0
 40
7.0
 41
0.0
 71
     5
 72
     1
  1
\A1;40.0
 73
     1
 44
1.0
1001
ACAD
1000
MTEXTBEGIN
1070
    73
1070
     1
1070
    44
1040
1.0
1070
    74
1070
     0
1000
MTEXTEND
  0
POINT
  5
FEC
330
F56
100
AcDbEntity
  8
Defpoints
 62
     0
100
AcDbPoint
 10
-113.7840604235475
 20
10.81868893552052
 30
0.0
  0
POINT
  5
FED
330
F56
100
AcDbEntity
  8
Defpoints
 62
     0
100
AcDbPoint
 10
-73.78406042354756
 20
107.701484134121
 30
0.0
  0
POINT
  5
FEE
330
F56
100
AcDbEntity
  8
Defpoints
 62
     0
100
AcDbPoint
 10
-73.78406042354758
 20
-13.50055135813827
 30
0.0
  0
ENDBLK
  5
F58
330
F56
100
AcDbEntity
  8
0
100
AcDbBlockEnd
  0
BLOCK
  5
10D3
330
10D2
100
AcDbEntity
  8
0
100
AcDbBlockBegin
  2
*D10
 70
     1
 10
0.0
 20
0.0
 30
0.0
  3
*D10
  1

  0
LINE
  5
10D4
330
10D2
100
AcDbEntity
  8
0
 62
     0
370
    -2
100
AcDbLine
 10
-141.2945177876792
 20
68.29439467988561
 30
0.0
 11
-141.2945177876792
 21
-15.56773957702126
 31
0.0
  0
LINE
  5
10D5
330
10D2
100
AcDbEntity
  8
0
 62
     0
370
    -2
100
AcDbLine
 10
-86.32367701007948
 20
8.869000716637543
 30
0.0
 11
-86.32367701007948
 21
-15.56773957702125
 31
0.0
  0
LINE
  5
10D6
330
10D2
100
AcDbEntity
  8
0
 62
     0
370
    -2
100
AcDbLine
 10
-135.2945177876792
 20
-15.38773957702125
 30
0.0
 11
-123.815764065546
 21
-15.38773957702125
 31
0.0
  0
LINE
  5
10D7
330
10D2
100
AcDbEntity
  8
0
 62
     0
370
    -2
100
AcDbLine
 10
-92.3236770100795
 20
-15.38773957702125
 30
0.0
 11
-103.8024307322127
 21
-15.38773957702125
 31
0.0
  0
SOLID
  5
10D8
330
10D2
100
AcDbEntity
  8
0
 62
     0
100
AcDbTrace
 10
-135.2945177876792
 20
-14.38773957702125
 30
0.0
 11
-135.2945177876792
 21
-16.38773957702125
 31
0.0
 12
-141.2945177876792
 22
-15.38773957702125
 32
0.0
 13
-141.2945177876792
 23
-15.38773957702125
 33
0.0
  0
SOLID
  5
10D9
330
10D2
100
AcDbEntity
  8
0
 62
     0
100
AcDbTrace
 10
-92.3236770100795
 20
-14.38773957702125
 30
0.0
 11
-92.3236770100795
 21
-16.38773957702125
 31
0.0
 12
-86.32367701007948
 22
-15.38773957702125
 32
0.0
 13
-86.32367701007948
 23
-15.38773957702125
 33
0.0
  0
MTEXT
  5
10DA
330
10D2
100
AcDbEntity
  8
0
 62
     0
100
AcDbMText
 10
-113.8090973988793
 20
-15.38773957702125
 30
0.0
 40
7.0
 41
0.0
 71
     5
 72
     1
  1
\A1;55.0
 73
     1
 44
1.0
1001
ACAD
1000
MTEXTBEGIN
1070
    73
1070
     1
1070
    44
1040
1.0
1070
    74
1070
     0
1000
MTEXTEND
  0
POINT
  5
10DB
330
10D2
100
AcDbEntity
  8
Defpoints
 62
     0
100
AcDbPoint
 10
-141.2945177876792
 20
68.35689467988562
 30
0.0
  0
POINT
  5
10DC
330
10D2
100
AcDbEntity
  8
Defpoints
 62
     0
100
AcDbPoint
 10
-86.32367701007948
 20
8.931500716637543
 30
0.0
  0
POINT
  5
10DD
330
10D2
100
AcDbEntity
  8
Defpoints
 62
     0
100
AcDbPoint
 10
-86.32367701007948
 20
-15.38773957702125
 30
0.0
  0
ENDBLK
  5
10DE
330
10D2
100
AcDbEntity
  8
0
100
AcDbBlockEnd
  0
BLOCK
  5
11A8
330
11A7
100
AcDbEntity
  8
0
100
AcDbBlockBegin
  2
*D11
 70
     1
 10
0.0
 20
0.0
 30
0.0
  3
*D11
  1

  0
LINE
  5
11CC
330
11A7
100
AcDbEntity
  8
0
 62
     0
370
    -2
100
AcDbLine
 10
-171.6829542044477
 20
99.42081961902331
 30
0.0
 11
-171.6829542044477
 21
15.55868536211642
 31
0.0
  0
LINE
  5
11CD
330
11A7
100
AcDbEntity
  8
0
 62
     0
370
    -2
100
AcDbLine
 10
-116.712113426848
 20
39.99542565577522
 30
0.0
 11
-116.712113426848
 21
15.55868536211643
 31
0.0
  0
LINE
  5
11CE
330
11A7
100
AcDbEntity
  8
0
 62
     0
370
    -2
100
AcDbLine
 10
-165.6829542044477
 20
15.73868536211643
 30
0.0
 11
-154.2042004823145
 21
15.73868536211643
 31
0.0
  0
LINE
  5
11CF
330
11A7
100
AcDbEntity
  8
0
 62
     0
370
    -2
100
AcDbLine
 10
-122.712113426848
 20
15.73868536211643
 30
0.0
 11
-134.1908671489811
 21
15.73868536211643
 31
0.0
  0
SOLID
  5
11D0
330
11A7
100
AcDbEntity
  8
0
 62
     0
100
AcDbTrace
 10
-165.6829542044477
 20
16.73868536211642
 30
0.0
 11
-165.6829542044477
 21
14.73868536211643
 31
0.0
 12
-171.6829542044477
 22
15.73868536211643
 32
0.0
 13
-171.6829542044477
 23
15.73868536211643
 33
0.0
  0
SOLID
  5
11D1
330
11A7
100
AcDbEntity
  8
0
 62
     0
100
AcDbTrace
 10
-122.712113426848
 20
16.73868536211642
 30
0.0
 11
-122.712113426848
 21
14.73868536211643
 31
0.0
 12
-116.712113426848
 22
15.73868536211643
 32
0.0
 13
-116.712113426848
 23
15.73868536211643
 33
0.0
  0
MTEXT
  5
11D2
330
11A7
100
AcDbEntity
  8
0
 62
     0
100
AcDbMText
 10
-144.1975338156478
 20
15.73868536211643
 30
0.0
 40
7.0
 41
0.0
 71
     5
 72
     1
  1
\A1;55.0
 73
     1
 44
1.0
1001
ACAD
1000
MTEXTBEGIN
1070
    73
1070
     1
1070
    44
1040
1.0
1070
    74
1070
     0
1000
MTEXTEND
  0
POINT
  5
11D3
330
11A7
100
AcDbEntity
  8
Defpoints
 62
     0
100
AcDbPoint
 10
-171.6829542044477
 20
99.48331961902329
 30
0.0
  0
POINT
  5
11D4
330
11A7
100
AcDbEntity
  8
Defpoints
 62
     0
100
AcDbPoint
 10
-116.712113426848
 20
40.05792565577521
 30
0.0
  0
POINT
  5
11D5
330
11A7
100
AcDbEntity
  8
Defpoints
 62
     0
100
AcDbPoint
 10
-116.712113426848
 20
15.73868536211643
 30
0.0
  0
ENDBLK
  5
11A9
330
11A7
100
AcDbEntity
  8
0
100
AcDbBlockEnd
  0
BLOCK
  5
15A5
330
15A4
100
AcDbEntity
  8
0
100
AcDbBlockBegin
  2
*D12
 70
     1
 10
0.0
 20
0.0
 30
0.0
  3
*D12
  1

  0
LINE
  5
15A6
330
15A4
100
AcDbEntity
  8
0
 62
     0
370
    -2
100
AcDbLine
 10
-72.82312583223689
 20
111.8998244954207
 30
0.0
 11
-72.82312583223689
 21
176.8511458815191
 31
0.0
  0
LINE
  5
15A7
330
15A4
100
AcDbEntity
  8
0
 62
     0
370
    -2
100
AcDbLine
 10
-47.78406042354705
 20
141.7157795566414
 30
0.0
 11
-47.78406042354705
 21
176.8511458815191
 31
0.0
  0
LINE
  5
15A8
330
15A4
100
AcDbEntity
  8
0
 62
     0
370
    -2
100
AcDbLine
 10
-53.78406042354706
 20
176.6711458815191
 30
0.0
 11
-66.82312583223688
 21
176.6711458815191
 31
0.0
  0
LINE
  5
15A9
330
15A4
100
AcDbEntity
  8
0
 62
     0
370
    -2
100
AcDbLine
 10
-72.82312583223689
 20
176.6711458815191
 30
0.0
 11
-79.31645916557022
 21
176.6711458815191
 31
0.0
  0
SOLID
  5
15AA
330
15A4
100
AcDbEntity
  8
0
 62
     0
100
AcDbTrace
 10
-53.78406042354706
 20
177.6711458815191
 30
0.0
 11
-53.78406042354706
 21
175.6711458815191
 31
0.0
 12
-47.78406042354705
 22
176.6711458815191
 32
0.0
 13
-47.78406042354705
 23
176.6711458815191
 33
0.0
  0
SOLID
  5
15AB
330
15A4
100
AcDbEntity
  8
0
 62
     0
100
AcDbTrace
 10
-66.82312583223688
 20
177.6711458815191
 30
0.0
 11
-66.82312583223688
 21
175.6711458815191
 31
0.0
 12
-72.82312583223689
 22
176.6711458815191
 32
0.0
 13
-72.82312583223689
 23
176.6711458815191
 33
0.0
  0
MTEXT
  5
15AC
330
15A4
100
AcDbEntity
  8
0
 62
     0
100
AcDbMText
 10
-89.32312583223689
 20
176.6711458815191
 30
0.0
 40
7.0
 41
0.0
 71
     5
 72
     1
  1
\A1;25.0
 73
     1
 44
1.0
1001
ACAD
1000
MTEXTBEGIN
1070
    73
1070
     1
1070
    44
1040
1.0
1070
    74
1070
     0
1000
MTEXTEND
  0
POINT
  5
15AD
330
15A4
100
AcDbEntity
  8
Defpoints
 62
     0
100
AcDbPoint
 10
-72.82312583223689
 20
111.8373244954207
 30
0.0
  0
POINT
  5
15AE
330
15A4
100
AcDbEntity
  8
Defpoints
 62
     0
100
AcDbPoint
 10
-47.78406042354705
 20
141.6532795566414
 30
0.0
  0
POINT
  5
15AF
330
15A4
100
AcDbEntity
  8
Defpoints
 62
     0
100
AcDbPoint
 10
-47.78406042354705
 20
176.6711458815191
 30
0.0
  0
ENDBLK
  5
15B0
330
15A4
100
AcDbEntity
  8
0
100
AcDbBlockEnd
  0
BLOCK
  5
15B2
330
15B1
100
AcDbEntity
  8
0
100
AcDbBlockBegin
  2
*D13
 70
     1
 10
0.0
 20
0.0
 30
0.0
  3
*D13
  1

  0
LINE
  5
15B3
330
15B1
100
AcDbEntity
  8
0
 62
     0
370
    -2
100
AcDbLine
 10
-113.7840604235475
 20
10.75618893552052
 30
0.0
 11
-113.7840604235475
 21
-13.68055135813827
 31
0.0
  0
LINE
  5
15B4
330
15B1
100
AcDbEntity
  8
0
 62
     0
370
    -2
100
AcDbLine
 10
-47.78406042354705
 20
28.42162887510042
 30
0.0
 11
-47.78406042354705
 21
-13.68055135813827
 31
0.0
  0
LINE
  5
15B5
330
15B1
100
AcDbEntity
  8
0
 62
     0
370
    -2
100
AcDbLine
 10
-107.7840604235475
 20
-13.50055135813827
 30
0.0
 11
-95.41892867102969
 21
-13.50055135813827
 31
0.0
  0
LINE
  5
15B6
330
15B1
100
AcDbEntity
  8
0
 62
     0
370
    -2
100
AcDbLine
 10
-53.78406042354706
 20
-13.50055135813827
 30
0.0
 11
-75.40559533769634
 21
-13.50055135813827
 31
0.0
  0
SOLID
  5
15B7
330
15B1
100
AcDbEntity
  8
0
 62
     0
100
AcDbTrace
 10
-107.7840604235475
 20
-12.50055135813826
 30
0.0
 11
-107.7840604235475
 21
-14.50055135813826
 31
0.0
 12
-113.7840604235475
 22
-13.50055135813827
 32
0.0
 13
-113.7840604235475
 23
-13.50055135813827
 33
0.0
  0
SOLID
  5
15B8
330
15B1
100
AcDbEntity
  8
0
 62
     0
100
AcDbTrace
 10
-53.78406042354706
 20
-12.50055135813826
 30
0.0
 11
-53.78406042354706
 21
-14.50055135813826
 31
0.0
 12
-47.78406042354705
 22
-13.50055135813827
 32
0.0
 13
-47.78406042354705
 23
-13.50055135813827
 33
0.0
  0
MTEXT
  5
15B9
330
15B1
100
AcDbEntity
  8
0
 62
     0
100
AcDbMText
 10
-85.41226200436302
 20
-13.50055135813827
 30
0.0
 40
7.0
 41
0.0
 71
     5
 72
     1
  1
\A1;66.0
 73
     1
 44
1.0
1001
ACAD
1000
MTEXTBEGIN
1070
    73
1070
     1
1070
    44
1040
1.0
1070
    74
1070
     0
1000
MTEXTEND
  0
POINT
  5
15BA
330
15B1
100
AcDbEntity
  8
Defpoints
 62
     0
100
AcDbPoint
 10
-113.7840604235475
 20
10.81868893552052
 30
0.0
  0
POINT
  5
15BB
330
15B1
100
AcDbEntity
  8
Defpoints
 62
     0
100
AcDbPoint
 10
-47.78406042354705
 20
28.48412887510042
 30
0.0
  0
POINT
  5
15BC
330
15B1
100
AcDbEntity
  8
Defpoints
 62
     0
100
AcDbPoint
 10
-47.78406042354705
 20
-13.50055135813827
 30
0.0
  0
ENDBLK
  5
15BD
330
15B1
100
AcDbEntity
  8
0
100
AcDbBlockEnd
  0
BLOCK
  5
15BF
330
15BE
100
AcDbEntity
  8
0
100
AcDbBlockBegin
  2
*D14
 70
     1
 10
0.0
 20
0.0
 30
0.0
  3
*D14
  1

  0
LINE
  5
15C0
330
15BE
100
AcDbEntity
  8
0
 62
     0
370
    -2
100
AcDbLine
 10
-39.5038946771834
 20
132.1705200644032
 30
0.0
 11
-45.50389467718338
 21
132.1705200644032
 31
0.0
  0
LINE
  5
15C1
330
15BE
100
AcDbEntity
  8
0
 62
     0
370
    -2
100
AcDbLine
 10
-45.50389467718338
 20
132.1705200644032
 30
0.0
 11
-58.76930140426513
 21
122.3276727369202
 31
0.0
  0
MTEXT
  5
15C2
102
{ACAD_XDICTIONARY
360
1696
102
}
330
15BE
100
AcDbEntity
  8
0
 62
     0
100
AcDbMText
 10
-25.99722801051673
 20
132.1705200644032
 30
0.0
 40
7.0
 41
0.0
 71
     5
 72
     1
  1
\A1;\U+220523.0
 73
     1
 44
1.0
1001
ACAD
1000
MTEXTBEGIN
1070
    73
1070
     1
1070
    44
1040
1.0
1070
    74
1070
     0
1000
MTEXTEND
  0
SOLID
  5
15C3
330
15BE
100
AcDbEntity
  8
0
 62
     0
100
AcDbTrace
 10
-59.36517844663654
 20
123.1307484185186
 30
0.0
 11
-58.17342436189374
 21
121.5245970553219
 31
0.0
 12
-63.58775549385543
 22
118.7524104826918
 32
0.0
 13
-63.58775549385543
 23
118.7524104826918
 33
0.0
  0
LINE
  5
15C4
330
15BE
100
AcDbEntity
  8
0
 62
     0
370
    -2
100
AcDbLine
 10
-72.91312583223687
 20
111.8998244954206
 30
0.0
 11
-72.73312583223685
 21
111.8998244954206
 31
0.0
  0
LINE
  5
15C5
330
15BE
100
AcDbEntity
  8
0
 62
     0
370
    -2
100
AcDbLine
 10
-72.82312583223687
 20
111.8098244954206
 30
0.0
 11
-72.82312583223689
 21
111.9898244954206
 31
0.0
  0
POINT
  5
15C6
330
15BE
100
AcDbEntity
  8
Defpoints
 62
     0
100
AcDbPoint
 10
-63.58775549385543
 20
118.7524104826918
 30
0.0
  0
POINT
  5
15C7
330
15BE
100
AcDbEntity
  8
Defpoints
 62
     0
100
AcDbPoint
 10
-82.05849617061829
 20
105.0472385081495
 30
0.0
  0
ENDBLK
  5
15C8
330
15BE
100
AcDbEntity
  8
0
100
AcDbBlockEnd
  0
BLOCK
  5
15F3
330
15F2
100
AcDbEntity
  8
0
100
AcDbBlockBegin
  2
*D16
 70
     1
 10
0.0
 20
0.0
 30
0.0
  3
*D16
  1

  0
LINE
  5
163D
330
15F2
100
AcDbEntity
  8
0
 62
     0
370
    -2
100
AcDbLine
 10
-72.82312583223689
 20
111.8998244954207
 30
0.0
 11
-72.82312583223689
 21
176.8511458815191
 31
0.0
  0
LINE
  5
163E
330
15F2
100
AcDbEntity
  8
0
 62
     0
370
    -2
100
AcDbLine
 10
-47.78406042354709
 20
141.7157795566414
 30
0.0
 11
-47.78406042354709
 21
176.8511458815191
 31
0.0
  0
LINE
  5
163F
330
15F2
100
AcDbEntity
  8
0
 62
     0
370
    -2
100
AcDbLine
 10
-53.78406042354709
 20
176.6711458815191
 30
0.0
 11
-66.82312583223688
 21
176.6711458815191
 31
0.0
  0
LINE
  5
1640
330
15F2
100
AcDbEntity
  8
0
 62
     0
370
    -2
100
AcDbLine
 10
-72.82312583223689
 20
176.6711458815191
 30
0.0
 11
-79.31645916557022
 21
176.6711458815191
 31
0.0
  0
SOLID
  5
1641
330
15F2
100
AcDbEntity
  8
0
 62
     0
100
AcDbTrace
 10
-53.78406042354709
 20
177.6711458815191
 30
0.0
 11
-53.78406042354709
 21
175.6711458815191
 31
0.0
 12
-47.78406042354709
 22
176.6711458815191
 32
0.0
 13
-47.78406042354709
 23
176.6711458815191
 33
0.0
  0
SOLID
  5
1642
330
15F2
100
AcDbEntity
  8
0
 62
     0
100
AcDbTrace
 10
-66.82312583223688
 20
177.6711458815191
 30
0.0
 11
-66.82312583223688
 21
175.6711458815191
 31
0.0
 12
-72.82312583223689
 22
176.6711458815191
 32
0.0
 13
-72.82312583223689
 23
176.6711458815191
 33
0.0
  0
MTEXT
  5
1643
330
15F2
100
AcDbEntity
  8
0
 62
     0
100
AcDbMText
 10
-89.32312583223689
 20
176.6711458815191
 30
0.0
 40
7.0
 41
0.0
 71
     5
 72
     1
  1
\A1;25.0
 73
     1
 44
1.0
1001
ACAD
1000
MTEXTBEGIN
1070
    73
1070
     1
1070
    44
1040
1.0
1070
    74
1070
     0
1000
MTEXTEND
  0
POINT
  5
1644
330
15F2
100
AcDbEntity
  8
Defpoints
 62
     0
100
AcDbPoint
 10
-72.82312583223689
 20
111.8373244954207
 30
0.0
  0
POINT
  5
1645
330
15F2
100
AcDbEntity
  8
Defpoints
 62
     0
100
AcDbPoint
 10
-47.78406042354709
 20
141.6532795566414
 30
0.0
  0
POINT
  5
1646
330
15F2
100
AcDbEntity
  8
Defpoints
 62
     0
100
AcDbPoint
 10
-47.78406042354709
 20
176.6711458815191
 30
0.0
  0
ENDBLK
  5
15F4
330
15F2
100
AcDbEntity
  8
0
100
AcDbBlockEnd
  0
BLOCK
  5
1600
330
15FF
100
AcDbEntity
  8
0
100
AcDbBlockBegin
  2
*D17
 70
     1
 10
0.0
 20
0.0
 30
0.0
  3
*D17
  1

  0
LINE
  5
1647
330
15FF
100
AcDbEntity
  8
0
 62
     0
370
    -2
100
AcDbLine
 10
-39.5038946771834
 20
132.1705200644032
 30
0.0
 11
-45.50389467718338
 21
132.1705200644032
 31
0.0
  0
LINE
  5
1648
330
15FF
100
AcDbEntity
  8
0
 62
     0
370
    -2
100
AcDbLine
 10
-45.50389467718338
 20
132.1705200644032
 30
0.0
 11
-58.76930140426511
 21
122.3276727369203
 31
0.0
  0
MTEXT
  5
1649
102
{ACAD_XDICTIONARY
360
1698
102
}
330
15FF
100
AcDbEntity
  8
0
 62
     0
100
AcDbMText
 10
-25.99722801051672
 20
132.1705200644032
 30
0.0
 40
7.0
 41
0.0
 71
     5
 72
     1
  1
\A1;\U+220523.0
 73
     1
 44
1.0
1001
ACAD
1000
MTEXTBEGIN
1070
    73
1070
     1
1070
    44
1040
1.0
1070
    74
1070
     0
1000
MTEXTEND
  0
SOLID
  5
164A
330
15FF
100
AcDbEntity
  8
0
 62
     0
100
AcDbTrace
 10
-59.36517844663653
 20
123.1307484185186
 30
0.0
 11
-58.17342436189371
 21
121.5245970553219
 31
0.0
 12
-63.58775549385542
 22
118.7524104826918
 32
0.0
 13
-63.58775549385542
 23
118.7524104826918
 33
0.0
  0
LINE
  5
164B
330
15FF
100
AcDbEntity
  8
0
 62
     0
370
    -2
100
AcDbLine
 10
-72.91312583223685
 20
111.8998244954207
 30
0.0
 11
-72.73312583223685
 21
111.8998244954207
 31
0.0
  0
LINE
  5
164C
330
15FF
100
AcDbEntity
  8
0
 62
     0
370
    -2
100
AcDbLine
 10
-72.82312583223685
 20
111.8098244954207
 30
0.0
 11
-72.82312583223685
 21
111.9898244954207
 31
0.0
  0
POINT
  5
164D
330
15FF
100
AcDbEntity
  8
Defpoints
 62
     0
100
AcDbPoint
 10
-63.58775549385542
 20
118.7524104826918
 30
0.0
  0
POINT
  5
164E
330
15FF
100
AcDbEntity
  8
Defpoints
 62
     0
100
AcDbPoint
 10
-82.05849617061829
 20
105.0472385081495
 30
0.0
  0
ENDBLK
  5
1601
330
15FF
100
AcDbEntity
  8
0
100
AcDbBlockEnd
  0
BLOCK
  5
160B
330
160A
100
AcDbEntity
  8
0
100
AcDbBlockBegin
  2
*D18
 70
     1
 10
0.0
 20
0.0
 30
0.0
  3
*D18
  1

  0
LINE
  5
1633
330
160A
100
AcDbEntity
  8
0
 62
     0
370
    -2
100
AcDbLine
 10
-113.7840604235475
 20
10.75618893552052
 30
0.0
 11
-113.7840604235475
 21
-13.68055135813827
 31
0.0
  0
LINE
  5
1634
330
160A
100
AcDbEntity
  8
0
 62
     0
370
    -2
100
AcDbLine
 10
-47.78406042354709
 20
28.42162887510042
 30
0.0
 11
-47.78406042354709
 21
-13.68055135813827
 31
0.0
  0
LINE
  5
1635
330
160A
100
AcDbEntity
  8
0
 62
     0
370
    -2
100
AcDbLine
 10
-107.7840604235475
 20
-13.50055135813827
 30
0.0
 11
-95.41892867102969
 21
-13.50055135813827
 31
0.0
  0
LINE
  5
1636
330
160A
100
AcDbEntity
  8
0
 62
     0
370
    -2
100
AcDbLine
 10
-53.78406042354709
 20
-13.50055135813827
 30
0.0
 11
-75.40559533769634
 21
-13.50055135813827
 31
0.0
  0
SOLID
  5
1637
330
160A
100
AcDbEntity
  8
0
 62
     0
100
AcDbTrace
 10
-107.7840604235475
 20
-12.50055135813826
 30
0.0
 11
-107.7840604235475
 21
-14.50055135813826
 31
0.0
 12
-113.7840604235475
 22
-13.50055135813827
 32
0.0
 13
-113.7840604235475
 23
-13.50055135813827
 33
0.0
  0
SOLID
  5
1638
330
160A
100
AcDbEntity
  8
0
 62
     0
100
AcDbTrace
 10
-53.78406042354709
 20
-12.50055135813826
 30
0.0
 11
-53.78406042354709
 21
-14.50055135813826
 31
0.0
 12
-47.78406042354709
 22
-13.50055135813827
 32
0.0
 13
-47.78406042354709
 23
-13.50055135813827
 33
0.0
  0
MTEXT
  5
1639
330
160A
100
AcDbEntity
  8
0
 62
     0
100
AcDbMText
 10
-85.41226200436302
 20
-13.50055135813827
 30
0.0
 40
7.0
 41
0.0
 71
     5
 72
     1
  1
\A1;66.0
 73
     1
 44
1.0
1001
ACAD
1000
MTEXTBEGIN
1070
    73
1070
     1
1070
    44
1040
1.0
1070
    74
1070
     0
1000
MTEXTEND
  0
POINT
  5
163A
330
160A
100
AcDbEntity
  8
Defpoints
 62
     0
100
AcDbPoint
 10
-113.7840604235475
 20
10.81868893552052
 30
0.0
  0
POINT
  5
163B
330
160A
100
AcDbEntity
  8
Defpoints
 62
     0
100
AcDbPoint
 10
-47.78406042354709
 20
28.48412887510042
 30
0.0
  0
POINT
  5
163C
330
160A
100
AcDbEntity
  8
Defpoints
 62
     0
100
AcDbPoint
 10
-47.78406042354709
 20
-13.50055135813827
 30
0.0
  0
ENDBLK
  5
160C
330
160A
100
AcDbEntity
  8
0
100
AcDbBlockEnd
  0
ENDSEC
  0
SECTION
  2
ENTITIES
  0
CIRCLE
  5
DA2
330
1F
100
AcDbEntity
  8
0
 62
     7
100
AcDbCircle
 10
151.9877138406985
 20
124.7294201074182
 30
0.0
 40
1.7992031784502
  0
CIRCLE
  5
DA3
330
1F
100
AcDbEntity
  8
0
 62
     7
100
AcDbCircle
 10
151.9877138406985
 20
124.7294201074182
 30
0.0
 40
4.4980079461255
  0
CIRCLE
  5
DA4
330
1F
100
AcDbEntity
  8
0
 62
     7
100
AcDbCircle
 10
167.2809270056734
 20
124.7294201074182
 30
0.0
 40
2.249000510099798
  0
LINE
  5
DA5
330
1F
100
AcDbEntity
  8
0
 62
     7
100
AcDbLine
 10
173.578138130249
 20
102.6708447825837
 30
0.0
 11
173.578138130249
 21
146.787995432254
 31
0.0
  0
LINE
  5
DA6
330
1F
100
AcDbEntity
  8
0
 62
     7
100
AcDbLine
 10
160.9837228070236
 20
102.6708447825837
 30
0.0
 11
160.9837228070236
 21
146.787995432254
 31
0.0
  0
CIRCLE
  5
DA7
330
1F
100
AcDbEntity
  8
0
 62
     7
100
AcDbCircle
 10
167.2809270056734
 20
124.7294201074182
 30
0.0
 40
22.9398301363512
  0
CIRCLE
  5
DA8
330
1F
100
AcDbEntity
  8
0
 62
     7
100
AcDbCircle
 10
167.2809270056734
 20
124.7294201074182
 30
0.0
 40
24.7390333148014
  0
LINE
  5
DA9
330
1F
100
AcDbEntity
  8
0
 62
     7
100
AcDbLine
 10
148.6190612236788
 20
29.35265660926143
 30
0.0
 11
185.942792787668
 21
29.35265660926143
 31
0.0
  0
LINE
  5
DAA
330
1F
100
AcDbEntity
  8
0
 62
     7
100
AcDbLine
 10
191.9949230983463
 20
18.31968435426503
 30
0.0
 11
197.5427074849865
 21
18.31968435426503
 31
0.0
  0
LINE
  5
DAB
330
1F
100
AcDbEntity
  8
0
 62
     7
100
AcDbLine
 10
197.5427074849865
 20
16.74405698979274
 30
0.0
 11
137.0191465263602
 21
16.74405698979274
 31
0.0
  0
ARC
  5
DAC
330
1F
100
AcDbEntity
  8
0
 62
     7
100
AcDbCircle
 10
185.942792787668
 20
23.30052629858307
 30
0.0
 40
6.052130310678297
100
AcDbArc
 50
0.0
 51
90.0
  0
ARC
  5
DAD
330
1F
100
AcDbEntity
  8
0
 62
     7
100
AcDbCircle
 10
148.6190612236788
 20
23.30052629858307
 30
0.0
 40
6.052130310678297
100
AcDbArc
 50
90.0
 51
180.0
  0
LINE
  5
DAE
330
1F
100
AcDbEntity
  8
0
 62
     7
100
AcDbLine
 10
137.0191465263602
 20
16.74405698979274
 30
0.0
 11
137.0191465263602
 21
18.31968435426503
 31
0.0
  0
LINE
  5
DAF
330
1F
100
AcDbEntity
  8
0
 62
     7
100
AcDbLine
 10
197.5427074849865
 20
16.74405698979274
 30
0.0
 11
197.5427074849865
 21
18.31968435426503
 31
0.0
  0
LINE
  5
DB0
330
1F
100
AcDbEntity
  8
0
 62
     7
100
AcDbLine
 10
191.9949230983463
 20
18.31968435426503
 30
0.0
 11
191.9949230983463
 21
23.30052629858307
 31
0.0
  0
LINE
  5
DB1
330
1F
100
AcDbEntity
  8
0
 62
     7
100
AcDbLine
 10
142.5669378389263
 20
18.31968435426503
 30
0.0
 11
142.5669378389263
 21
23.30052629858307
 31
0.0
  0
LINE
  5
DB2
330
1F
100
AcDbEntity
  8
0
 62
     7
100
AcDbLine
 10
137.0191465263602
 20
18.31968435426503
 30
0.0
 11
142.5669378389263
 21
18.31968435426503
 31
0.0
  0
ARC
  5
DB3
330
1F
100
AcDbEntity
  8
0
 62
     7
100
AcDbCircle
 10
124.8793212755071
 20
78.27403809279916
 30
0.0
 40
2.0173767702261
100
AcDbArc
 50
90.0
 51
180.0
  0
ARC
  5
DB4
330
1F
100
AcDbEntity
  8
0
 62
     7
100
AcDbCircle
 10
124.8793212755071
 20
16.72363243431363
 30
0.0
 40
2.0173767702261
100
AcDbArc
 50
180.0
 51
270.0
  0
ARC
  5
DB5
330
1F
100
AcDbEntity
  8
0
 62
     7
100
AcDbCircle
 10
208.0525991863855
 20
16.72363243431363
 30
0.0
 40
2.0173767702261
100
AcDbArc
 50
270.0
 51
0.0
  0
ARC
  5
DB6
330
1F
100
AcDbEntity
  8
0
 62
     7
100
AcDbCircle
 10
208.0525991863855
 20
78.27403809279916
 30
0.0
 40
2.0173767702261
100
AcDbArc
 50
0.0
 51
90.0
  0
LINE
  5
DB7
330
1F
100
AcDbEntity
  8
0
 62
     7
100
AcDbLine
 10
210.0699759566116
 20
16.72363243431363
 30
0.0
 11
210.0699759566116
 21
78.27403809279916
 31
0.0
  0
LINE
  5
DB8
330
1F
100
AcDbEntity
  8
0
 62
     7
100
AcDbLine
 10
122.861944505281
 20
16.72363243431363
 30
0.0
 11
122.861944505281
 21
78.27403809279916
 31
0.0
  0
LINE
  5
DB9
330
1F
100
AcDbEntity
  8
0
 62
     7
100
AcDbLine
 10
124.8793212755071
 20
14.70625566408751
 30
0.0
 11
208.0525991863855
 21
14.70625566408751
 31
0.0
  0
LINE
  5
DBA
330
1F
100
AcDbEntity
  8
0
 62
     7
100
AcDbLine
 10
208.5300101845982
 20
80.29141486302529
 30
0.0
 11
124.8793212755071
 21
80.29141486302529
 31
0.0
  0
LINE
  5
DBB
330
1F
100
AcDbEntity
  8
0
 62
     7
100
AcDbLine
 10
18.02988794178822
 20
155.2563111783316
 30
0.0
 11
18.02988794178822
 21
16.2560666927116
 31
0.0
  0
LINE
  5
DBC
330
1F
100
AcDbEntity
  8
0
 62
     7
100
AcDbLine
 10
214.0298879417882
 20
155.2563111783316
 30
0.0
 11
214.0298879417882
 21
16.2560666927116
 31
0.0
  0
LINE
  5
DBD
330
1F
100
AcDbEntity
  8
0
 62
     7
100
AcDbLine
 10
23.52976569897823
 20
160.7561889355215
 30
0.0
 11
208.5300101845982
 21
160.7561889355215
 31
0.0
  0
LINE
  5
DBE
330
1F
100
AcDbEntity
  8
0
 62
     7
100
AcDbLine
 10
23.52976569897823
 20
10.7561889355216
 30
0.0
 11
208.5300101845982
 21
10.7561889355216
 31
0.0
  0
LINE
  5
DBF
330
1F
100
AcDbEntity
  8
0
 62
     7
100
AcDbLine
 10
23.52976569897823
 20
158.0062500569271
 30
0.0
 11
208.5300101845982
 21
158.0062500569265
 31
0.0
  0
LINE
  5
DC0
330
1F
100
AcDbEntity
  8
0
 62
     7
100
AcDbLine
 10
211.2799490631934
 20
155.2563111783316
 30
0.0
 11
211.2799490631934
 21
16.2560666927116
 31
0.0
  0
LINE
  5
DC1
330
1F
100
AcDbEntity
  8
0
 62
     7
100
AcDbLine
 10
20.77982682038322
 20
155.2563111783316
 30
0.0
 11
20.77982682038322
 21
16.2560666927116
 31
0.0
  0
LINE
  5
DC2
330
1F
100
AcDbEntity
  8
0
 62
     7
100
AcDbLine
 10
23.52976569897823
 20
13.50612781411664
 30
0.0
 11
208.5300101845982
 21
13.5061278141166
 31
0.0
  0
ARC
  5
DC3
330
1F
100
AcDbEntity
  8
0
 62
     7
100
AcDbCircle
 10
23.52976569897823
 20
155.2563111783316
 30
0.0
 40
2.749938878595
100
AcDbArc
 50
90.0
 51
180.0
  0
ARC
  5
DC4
330
1F
100
AcDbEntity
  8
0
 62
     7
100
AcDbCircle
 10
23.52976569897823
 20
155.2563111783316
 30
0.0
 40
5.499877757190001
100
AcDbArc
 50
90.0
 51
180.0
  0
ARC
  5
DC5
330
1F
100
AcDbEntity
  8
0
 62
     7
100
AcDbCircle
 10
208.5300101845982
 20
155.2563111783316
 30
0.0
 40
5.499877757190001
100
AcDbArc
 50
0.0
 51
90.0
  0
ARC
  5
DC6
330
1F
100
AcDbEntity
  8
0
 62
     7
100
AcDbCircle
 10
208.5300101845982
 20
16.2560666927116
 30
0.0
 40
5.499877757190001
100
AcDbArc
 50
270.0
 51
0.0
  0
ARC
  5
DC7
330
1F
100
AcDbEntity
  8
0
 62
     7
100
AcDbCircle
 10
23.52976569897823
 20
16.2560666927116
 30
0.0
 40
5.499877757190001
100
AcDbArc
 50
180.0
 51
270.0
  0
ARC
  5
DC8
330
1F
100
AcDbEntity
  8
0
 62
     7
100
AcDbCircle
 10
208.5300101845982
 20
155.2563111783316
 30
0.0
 40
2.749938878595
100
AcDbArc
 50
0.0
 51
90.0
  0
ARC
  5
DC9
330
1F
100
AcDbEntity
  8
0
 62
     7
100
AcDbCircle
 10
23.52976569897823
 20
16.2560666927116
 30
0.0
 40
2.749938878595
100
AcDbArc
 50
180.0
 51
270.0
  0
ARC
  5
DCA
330
1F
100
AcDbEntity
  8
0
 62
     7
100
AcDbCircle
 10
208.5300101845982
 20
16.2560666927116
 30
0.0
 40
2.749938878595
100
AcDbArc
 50
270.0
 51
0.0
  0
LINE
  5
DCB
330
1F
100
AcDbEntity
  8
0
 62
     7
100
AcDbLine
 10
24.06725032137706
 20
152.9387250811149
 30
0.0
 11
24.06725032137706
 21
151.5736527899283
 31
0.0
  0
LINE
  5
DCC
330
1F
100
AcDbEntity
  8
0
 62
     7
100
AcDbLine
 10
28.99252556219943
 20
152.9387250811149
 30
0.0
 11
28.99252556219943
 21
151.5736527899283
 31
0.0
  0
LINE
  5
DCD
330
1F
100
AcDbEntity
  8
0
 62
     7
100
AcDbLine
 10
27.21242408738124
 20
152.9387250811149
 30
0.0
 11
28.99252556219943
 21
152.9387250811149
 31
0.0
  0
LINE
  5
DCE
330
1F
100
AcDbEntity
  8
0
 62
     7
100
AcDbLine
 10
25.84735179619503
 20
151.5736527899283
 30
0.0
 11
25.84735179619503
 21
148.2182563950819
 31
0.0
  0
LINE
  5
DCF
330
1F
100
AcDbEntity
  8
0
 62
     7
100
AcDbLine
 10
25.84735179619503
 20
151.5736527899283
 30
0.0
 11
24.06725032137706
 21
151.5736527899283
 31
0.0
  0
LINE
  5
DD0
330
1F
100
AcDbEntity
  8
0
 62
     7
100
AcDbLine
 10
27.20659938369954
 20
151.5794774936102
 30
0.0
 11
27.17748279121588
 21
148.2125078765844
 31
0.0
  0
LINE
  5
DD1
330
1F
100
AcDbEntity
  8
0
 62
     7
100
AcDbLine
 10
27.24730997613972
 20
156.2880682167252
 30
0.0
 11
27.21835267995181
 21
152.9387250811149
 31
0.0
  0
LINE
  5
DD2
330
1F
100
AcDbEntity
  8
0
 62
     7
100
AcDbLine
 10
28.99252556219943
 20
151.5736527899283
 30
0.0
 11
27.20654397629221
 21
151.5736527899283
 31
0.0
  0
LINE
  5
DD3
330
1F
100
AcDbEntity
  8
0
 62
     7
100
AcDbLine
 10
25.84735179619503
 20
156.2941214759616
 30
0.0
 11
25.84735179619503
 21
152.9387250811149
 31
0.0
  0
LINE
  5
DD4
330
1F
100
AcDbEntity
  8
0
 62
     7
100
AcDbLine
 10
24.06725032137706
 20
152.9387250811149
 30
0.0
 11
25.84735179619503
 21
152.9387250811149
 31
0.0
  0
LINE
  5
DD8
330
1F
100
AcDbEntity
  8
0
 62
     7
100
AcDbLine
 10
89.52829878525824
 20
27.0106236524539
 30
0.0
 11
45.52927672773819
 21
27.0106236524539
 31
0.0
  0
CIRCLE
  5
DD9
330
1F
100
AcDbEntity
  8
0
 62
     7
100
AcDbCircle
 10
26.52988794178822
 20
152.2561889355215
 30
0.0
 40
4.095209947633298
  0
CIRCLE
  5
DDA
330
1F
100
AcDbEntity
  8
0
 62
     7
100
AcDbCircle
 10
205.5298879417882
 20
152.2561889355215
 30
0.0
 40
4.095209947633298
  0
LINE
  5
DDB
330
1F
100
AcDbEntity
  8
0
 62
     7
100
AcDbLine
 10
206.2124240873815
 20
156.2941214759616
 30
0.0
 11
206.2124240873815
 21
152.9387250811149
 31
0.0
  0
LINE
  5
DDC
330
1F
100
AcDbEntity
  8
0
 62
     7
100
AcDbLine
 10
204.8124659074366
 20
156.2880682167252
 30
0.0
 11
204.8414232036245
 21
152.9387250811149
 31
0.0
  0
LINE
  5
DDD
330
1F
100
AcDbEntity
  8
0
 62
     7
100
AcDbLine
 10
207.9925255621994
 20
152.9387250811149
 30
0.0
 11
207.9925255621994
 21
151.5736527899283
 31
0.0
  0
LINE
  5
DDE
330
1F
100
AcDbEntity
  8
0
 62
     7
100
AcDbLine
 10
206.2124240873815
 20
151.5736527899283
 30
0.0
 11
207.9925255621994
 21
151.5736527899283
 31
0.0
  0
LINE
  5
DDF
330
1F
100
AcDbEntity
  8
0
 62
     7
100
AcDbLine
 10
207.9925255621994
 20
152.9387250811149
 30
0.0
 11
206.2124240873815
 21
152.9387250811149
 31
0.0
  0
LINE
  5
DE0
330
1F
100
AcDbEntity
  8
0
 62
     7
100
AcDbLine
 10
206.2124240873815
 20
151.5736527899283
 30
0.0
 11
206.2124240873815
 21
148.2182563950819
 31
0.0
  0
LINE
  5
DE1
330
1F
100
AcDbEntity
  8
0
 62
     7
100
AcDbLine
 10
203.0672503213771
 20
152.9387250811149
 30
0.0
 11
203.0672503213771
 21
151.5736527899283
 31
0.0
  0
LINE
  5
DE2
330
1F
100
AcDbEntity
  8
0
 62
     7
100
AcDbLine
 10
204.853176499877
 20
151.5794774936102
 30
0.0
 11
204.8822930923606
 21
148.2125078765844
 31
0.0
  0
LINE
  5
DE3
330
1F
100
AcDbEntity
  8
0
 62
     7
100
AcDbLine
 10
204.8473517961951
 20
152.9387250811149
 30
0.0
 11
203.0672503213771
 21
152.9387250811149
 31
0.0
  0
LINE
  5
DE4
330
1F
100
AcDbEntity
  8
0
 62
     7
100
AcDbLine
 10
203.0672503213771
 20
151.5736527899283
 30
0.0
 11
204.8532319072841
 21
151.5736527899283
 31
0.0
  0
CIRCLE
  5
DE5
330
1F
100
AcDbEntity
  8
0
 62
     7
100
AcDbCircle
 10
26.52988794178822
 20
19.25618893552158
 30
0.0
 40
4.095209947633298
  0
LINE
  5
DE6
330
1F
100
AcDbEntity
  8
0
 62
     7
100
AcDbLine
 10
27.24730997613972
 20
15.22430965431787
 30
0.0
 11
27.21835267995181
 21
18.57365278992832
 31
0.0
  0
LINE
  5
DE7
330
1F
100
AcDbEntity
  8
0
 62
     7
100
AcDbLine
 10
25.84735179619503
 20
15.2182563950813
 30
0.0
 11
25.84735179619503
 21
18.57365278992832
 31
0.0
  0
LINE
  5
DE8
330
1F
100
AcDbEntity
  8
0
 62
     7
100
AcDbLine
 10
28.99252556219943
 20
19.93872508111474
 30
0.0
 11
27.20654397629221
 21
19.93872508111474
 31
0.0
  0
LINE
  5
DE9
330
1F
100
AcDbEntity
  8
0
 62
     7
100
AcDbLine
 10
27.21242408738124
 20
18.57365278992832
 30
0.0
 11
28.99252556219943
 21
18.57365278992832
 31
0.0
  0
LINE
  5
DEA
330
1F
100
AcDbEntity
  8
0
 62
     7
100
AcDbLine
 10
28.99252556219943
 20
18.57365278992832
 30
0.0
 11
28.99252556219943
 21
19.93872508111474
 31
0.0
  0
LINE
  5
DEB
330
1F
100
AcDbEntity
  8
0
 62
     7
100
AcDbLine
 10
24.06725032137706
 20
18.57365278992832
 30
0.0
 11
25.84735179619503
 21
18.57365278992832
 31
0.0
  0
LINE
  5
DEC
330
1F
100
AcDbEntity
  8
0
 62
     7
100
AcDbLine
 10
25.84735179619503
 20
19.93872508111474
 30
0.0
 11
24.06725032137706
 21
19.93872508111474
 31
0.0
  0
LINE
  5
DED
330
1F
100
AcDbEntity
  8
0
 62
     7
100
AcDbLine
 10
24.06725032137706
 20
18.57365278992832
 30
0.0
 11
24.06725032137706
 21
19.93872508111474
 31
0.0
  0
LINE
  5
DEE
330
1F
100
AcDbEntity
  8
0
 62
     7
100
AcDbLine
 10
27.20659938369954
 20
19.93290037743288
 30
0.0
 11
27.17748279121588
 21
23.29986999445881
 31
0.0
  0
LINE
  5
DEF
330
1F
100
AcDbEntity
  8
0
 62
     7
100
AcDbLine
 10
25.84735179619503
 20
19.93872508111474
 30
0.0
 11
25.84735179619503
 21
23.29412147596116
 31
0.0
  0
CIRCLE
  5
DF0
330
1F
100
AcDbEntity
  8
0
 62
     7
100
AcDbCircle
 10
205.5298879417882
 20
19.25618893552158
 30
0.0
 40
4.095209947633298
  0
LINE
  5
DF1
330
1F
100
AcDbEntity
  8
0
 62
     7
100
AcDbLine
 10
204.8124659074366
 20
15.22430965431787
 30
0.0
 11
204.8414232036245
 21
18.57365278992832
 31
0.0
  0
LINE
  5
DF2
330
1F
100
AcDbEntity
  8
0
 62
     7
100
AcDbLine
 10
203.0672503213771
 20
18.57365278992832
 30
0.0
 11
203.0672503213771
 21
19.93872508111474
 31
0.0
  0
LINE
  5
DF3
330
1F
100
AcDbEntity
  8
0
 62
     7
100
AcDbLine
 10
204.853176499877
 20
19.93290037743288
 30
0.0
 11
204.8822930923606
 21
23.29986999445881
 31
0.0
  0
LINE
  5
DF4
330
1F
100
AcDbEntity
  8
0
 62
     7
100
AcDbLine
 10
204.8473517961951
 20
18.57365278992832
 30
0.0
 11
203.0672503213771
 21
18.57365278992832
 31
0.0
  0
LINE
  5
DF5
330
1F
100
AcDbEntity
  8
0
 62
     7
100
AcDbLine
 10
203.0672503213771
 20
19.93872508111474
 30
0.0
 11
204.8532319072841
 21
19.93872508111474
 31
0.0
  0
LINE
  5
DF6
330
1F
100
AcDbEntity
  8
0
 62
     7
100
AcDbLine
 10
206.2124240873815
 20
15.2182563950813
 30
0.0
 11
206.2124240873815
 21
18.57365278992832
 31
0.0
  0
LINE
  5
DF7
330
1F
100
AcDbEntity
  8
0
 62
     7
100
AcDbLine
 10
207.9925255621994
 20
18.57365278992832
 30
0.0
 11
207.9925255621994
 21
19.93872508111474
 31
0.0
  0
LINE
  5
DF8
330
1F
100
AcDbEntity
  8
0
 62
     7
100
AcDbLine
 10
206.2124240873815
 20
19.93872508111474
 30
0.0
 11
207.9925255621994
 21
19.93872508111474
 31
0.0
  0
LINE
  5
DF9
330
1F
100
AcDbEntity
  8
0
 62
     7
100
AcDbLine
 10
207.9925255621994
 20
18.57365278992832
 30
0.0
 11
206.2124240873815
 21
18.57365278992832
 31
0.0
  0
LINE
  5
DFA
330
1F
100
AcDbEntity
  8
0
 62
     7
100
AcDbLine
 10
206.2124240873815
 20
19.93872508111474
 30
0.0
 11
206.2124240873815
 21
23.29412147596116
 31
0.0
  0
CIRCLE
  5
E1A
330
1F
100
AcDbEntity
  8
0
 62
     7
100
AcDbCircle
 10
139.7930421826433
 20
51.16350126534404
 30
0.0
 40
9.851341735613726
  0
CIRCLE
  5
E1B
330
1F
100
AcDbEntity
  8
0
 62
     7
100
AcDbCircle
 10
194.7688152916664
 20
51.16350126534413
 30
0.0
 40
9.851341735613726
  0
LINE
  5
E3A
330
1F
100
AcDbEntity
  8
0
 62
     7
100
AcDbLine
 10
45.52927669018958
 20
47.6460090601872
 30
0.0
 11
45.52927669018958
 21
27.01062359427108
 31
0.0
  0
LINE
  5
E3B
330
1F
100
AcDbEntity
  8
0
 62
     7
100
AcDbLine
 10
89.52829874770978
 20
47.6460090601872
 30
0.0
 11
89.52829874770969
 21
27.01062359427108
 31
0.0
  0
LINE
  5
E3C
330
1F
100
AcDbEntity
  8
0
 62
     7
100
AcDbLine
 10
89.52829874770978
 20
47.6460090601872
 30
0.0
 11
45.52927669018967
 21
47.6460090601872
 31
0.0
  0
LINE
  5
EA6
330
1F
100
AcDbEntity
  8
0
 62
     7
100
AcDbLine
 10
-113.7840604235475
 20
160.7561889355205
 30
0.0
 11
-113.7840604235475
 21
160.7561889355205
 31
0.0
  0
LINE
  5
EA7
330
1F
100
AcDbEntity
  8
0
 62
     7
100
AcDbLine
 10
-113.7840604235475
 20
10.75618893552052
 30
0.0
 11
-113.7840604235475
 21
10.75618893552052
 31
0.0
  0
LINE
  5
EA8
330
1F
100
AcDbEntity
  8
0
 62
     7
100
AcDbLine
 10
-113.7840604235475
 20
160.7561889355205
 30
0.0
 11
-113.7840604235475
 21
10.75618893552052
 31
0.0
  0
LINE
  5
EA9
330
1F
100
AcDbEntity
  8
0
 62
     7
100
AcDbLine
 10
-116.5339993021425
 20
158.0062500569265
 30
0.0
 11
-116.5339993021425
 21
14.8810972534136
 31
0.0
  0
LINE
  5
EAA
330
1F
100
AcDbEntity
  8
0
 62
     7
100
AcDbLine
 10
-116.5339993021425
 20
156.6312806176285
 30
0.0
 11
-130.6585162372722
 21
156.6312802932263
 31
0.0
  0
ARC
  5
EAB
330
1F
100
AcDbEntity
  8
0
 62
     7
100
AcDbCircle
 10
-113.7840604235475
 20
158.0062500569265
 30
0.0
 40
2.749938878595
100
AcDbArc
 50
89.99999999999348
 51
180.0
  0
ARC
  5
EAC
330
1F
100
AcDbEntity
  8
0
 62
     7
100
AcDbCircle
 10
-113.6529271339177
 20
13.82271158041857
 30
0.0
 40
3.06932518174925
100
AcDbArc
 50
159.828774805459
 51
267.5513602465038
  0
LINE
  5
EAD
330
1F
100
AcDbEntity
  8
0
 62
     7
100
AcDbLine
 10
-132.308479526534
 20
154.9813169660693
 30
0.0
 11
-132.308479526534
 21
87.88280832835129
 31
0.0
  0
ARC
  5
EAE
330
1F
100
AcDbEntity
  8
0
 62
     7
100
AcDbCircle
 10
-130.658516199377
 20
154.9813169660693
 30
0.0
 40
1.649963327156999
100
AcDbArc
 50
89.99999999999348
 51
180.0
  0
ARC
  5
EAF
330
1F
100
AcDbEntity
  8
0
 62
     7
100
AcDbCircle
 10
-130.658516199377
 20
16.53106025616832
 30
0.0
 40
1.649963327156999
100
AcDbArc
 50
180.0
 51
269.9999999999821
  0
LINE
  5
EB0
330
1F
100
AcDbEntity
  8
0
 62
     7
100
AcDbLine
 10
-132.308479526534
 20
16.53106025616832
 30
0.0
 11
-132.308479526534
 21
87.88280832835129
 31
0.0
  0
LINE
  5
EB1
330
1F
100
AcDbEntity
  8
0
 62
     7
100
AcDbLine
 10
-116.5339994213143
 20
14.88109692901135
 30
0.0
 11
-130.6585161993776
 21
14.88109692901132
 31
0.0
  0
DIMENSION
  5
F2B
330
1F
100
AcDbEntity
  8
0
 62
     1
100
AcDbDimension
  2
*D6
 10
214.0298879417882
 20
-13.21285912244497
 30
0.0
 11
121.7755786392675
 21
-13.21285912244497
 31
0.0
 70
   160
 71
     0
 42
196.0
  3
Standard
100
AcDbAlignedDimension
 13
18.02988794178822
 23
16.3185666927116
 33
0.0
 14
214.0298879417882
 24
16.2560666927116
 34
0.0
100
AcDbRotatedDimension
1001
ACAD
1000
DSTYLE
1002
{
1070
    41
1040
6.0
1070
   140
1040
7.0
1070
   271
1070
     1
1002
}
  0
DIMENSION
  5
F2C
330
1F
100
AcDbEntity
  8
0
 62
     1
100
AcDbDimension
  2
*D7
 10
262.5756963404687
 20
160.7561889355215
 30
0.0
 11
262.5756963404686
 21
101.8898145423452
 31
0.0
 70
   160
 71
     0
 42
149.9999999999999
  3
Standard
100
AcDbAlignedDimension
 13
208.4702903845982
 23
10.7561889355216
 33
0.0
 14
208.4675101845982
 24
160.7561889355215
 34
0.0
 50
90.0
100
AcDbRotatedDimension
1001
ACAD
1000
DSTYLE
1002
{
1070
    41
1040
6.0
1070
   140
1040
7.0
1070
   271
1070
     1
1002
}
  0
DIMENSION
  5
F2D
330
1F
100
AcDbEntity
  8
0
 62
     1
100
AcDbDimension
  2
*D8
 10
-113.7840604235475
 20
-13.50055135813827
 30
0.0
 11
-141.2694808123474
 21
-13.50055135813827
 31
0.0
 70
   160
 71
     0
 42
63.99999999999998
  3
Standard
100
AcDbAlignedDimension
 13
-177.7840604235475
 23
102.016228567519
 33
0.0
 14
-113.7840604235475
 24
10.81868893552052
 34
0.0
100
AcDbRotatedDimension
1001
ACAD
1000
DSTYLE
1002
{
1070
    41
1040
6.0
1070
   140
1040
7.0
1070
   271
1070
     1
1002
}
  0
CIRCLE
  5
125C
330
1F
100
AcDbEntity
  8
0
 62
     7
100
AcDbCircle
 10
167.2809270056735
 20
51.16350126534393
 30
0.0
 40
9.851341735613726
  0
LINE
  5
1351
330
1F
100
AcDbEntity
  8
0
 62
     7
100
AcDbLine
 10
-132.308479526534
 20
154.9813169660693
 30
0.0
 11
-132.308479526534
 21
87.88280832835129
 31
0.0
  0
ARC
  5
1352
330
1F
100
AcDbEntity
  8
0
 62
     7
100
AcDbCircle
 10
-130.658516199377
 20
154.9813169660693
 30
0.0
 40
1.649963327156999
100
AcDbArc
 50
89.99999999999348
 51
180.0
  0
LINE
  5
1353
330
1F
100
AcDbEntity
  8
0
 62
     7
 48
0.4125
370
    70
100
AcDbLine
 10
37.22072857868653
 20
146.4116580353485
 30
0.0
 11
83.02897212244237
 21
146.4276960353485
 31
0.0
  0
CIRCLE
  5
1354
330
1F
100
AcDbEntity
  8
0
 62
     7
370
    70
100
AcDbCircle
 10
-154.758466016066
 20
138.1184815341115
 30
0.0
 40
2.774999999999995
  0
LINE
  5
1355
330
1F
100
AcDbEntity
  8
0
 62
     7
 48
0.154383
370
    70
100
AcDbLine
 10
-163.4136480696374
 20
116.8025615162543
 30
0.0
 11
-163.7003960874947
 21
112.7325205519684
 31
0.0
  0
LINE
  5
1356
330
1F
100
AcDbEntity
  8
0
 62
     7
 48
0.055837
370
    70
100
AcDbLine
 10
-163.8517023017804
 20
130.9568936769685
 30
0.0
 11
-162.3983878910661
 21
131.2129237662543
 31
0.0
  0
LINE
  5
1357
330
1F
100
AcDbEntity
  8
0
 62
     7
 48
0.25872
370
    70
100
AcDbLine
 10
-162.5130614624947
 20
105.99881060554
 30
0.0
 11
-163.7003960874947
 21
112.7325205519684
 31
0.0
  0
LINE
  5
1358
330
1F
100
AcDbEntity
  8
0
 62
     7
 48
0.284875
370
    70
100
AcDbLine
 10
-163.3094369089232
 20
143.9906900876826
 30
0.0
 11
-155.8729919089232
 21
145.1666194626826
 31
0.0
  0
LINE
  5
1359
330
1F
100
AcDbEntity
  8
0
 62
     7
 48
0.259026
370
    70
100
AcDbLine
 10
-155.349094373209
 20
65.36993649839725
 30
0.0
 11
-152.9716131232088
 21
51.88656564125443
 31
0.0
  0
LINE
  5
135A
330
1F
100
AcDbEntity
  8
0
 62
     7
 48
0.00401
370
    70
100
AcDbLine
 10
-155.349094373209
 20
65.36993649839725
 30
0.0
 11
-155.3859001232089
 21
65.57867067696864
 31
0.0
  0
LINE
  5
135B
330
1F
100
AcDbEntity
  8
0
 62
     7
370
    70
100
AcDbLine
 10
-162.5130608017804
 20
105.99881060554
 30
0.0
 11
-155.3859001232089
 21
65.57867067696864
 31
0.0
  0
LINE
  5
135C
330
1F
100
AcDbEntity
  8
0
 62
     7
 48
0.037912
370
    70
100
AcDbLine
 10
-165.6156442660662
 20
143.5004909626826
 30
0.0
 11
-167.5757972303519
 21
143.0838471769684
 31
0.0
  0
LINE
  5
135D
330
1F
100
AcDbEntity
  8
0
 62
     7
 48
0.043885
370
    70
100
AcDbLine
 10
-163.3094369089232
 20
143.9906907483971
 30
0.0
 11
-165.5783786589232
 21
143.5084116055399
 31
0.0
  0
ARC
  5
135E
330
1F
100
AcDbEntity
  8
0
 62
     7
370
    70
100
AcDbCircle
 10
-164.7368836946376
 20
140.8372283198256
 30
0.0
 40
0.660749964285714
100
AcDbArc
 50
100.011645999998
 51
168.0042080000003
  0
LINE
  5
135F
330
1F
100
AcDbEntity
  8
0
 62
     7
 48
0.188184
370
    70
100
AcDbLine
 10
-167.4509790517803
 20
131.2450073912542
 30
0.0
 11
-165.383207623209
 21
140.97455910554
 31
0.0
  0
ARC
  5
1360
330
1F
100
AcDbEntity
  8
0
 62
     7
370
    70
100
AcDbCircle
 10
-166.8046723017804
 20
131.1075669269684
 30
0.0
 40
0.6607420357142853
100
AcDbArc
 50
167.9945430000005
 51
279.9807399999977
  0
LINE
  5
1361
330
1F
100
AcDbEntity
  8
0
 62
     7
 48
0.025555
370
    70
100
AcDbLine
 10
-163.3330111946376
 20
142.6401326055398
 30
0.0
 11
-163.3094369089232
 21
143.9906907483971
 31
0.0
  0
ARC
  5
1362
330
1F
100
AcDbEntity
  8
0
 62
     7
370
    70
100
AcDbCircle
 10
-105.136165766066
 20
99.90475071268285
 30
0.0
 40
69.8754461428571
100
AcDbArc
 50
178.5256290000003
 51
201.4743889999997
  0
LINE
  5
1363
330
1F
100
AcDbEntity
  8
0
 62
     7
 48
0.049034
370
    70
100
AcDbLine
 10
-175.0766222303518
 20
102.3323127841114
 30
0.0
 11
-177.7840604235475
 21
102.016228567519
 31
0.0
  0
LINE
  5
1364
330
1F
100
AcDbEntity
  8
0
 62
     7
 48
0.000096
370
    70
100
AcDbLine
 10
-174.9884789803519
 20
101.7026097841114
 30
0.0
 11
-174.9935744089232
 21
101.7027419269685
 31
0.0
  0
LINE
  5
1365
330
1F
100
AcDbEntity
  8
0
 62
     7
 48
0.000096
370
    70
100
AcDbLine
 10
-170.160964766066
 20
74.32441749839724
 30
0.0
 11
-170.1657086946374
 21
74.32255164125423
 31
0.0
  0
LINE
  5
1366
330
1F
100
AcDbEntity
  8
0
 62
     7
 48
0.049034
370
    70
100
AcDbLine
 10
-172.5808255517805
 20
73.25248653411143
 30
0.0
 11
-170.028421516066
 21
73.70254396268285
 31
0.0
  0
LINE
  5
1367
330
1F
100
AcDbEntity
  8
0
 62
     7
 48
0.054527
370
    70
100
AcDbLine
 10
-166.690158623209
 20
130.4568426412542
 30
0.0
 11
-163.8517023017804
 21
130.9568936769685
 31
0.0
  0
LINE
  5
1368
330
1F
100
AcDbEntity
  8
0
 62
     7
 48
0.024758
370
    70
100
AcDbLine
 10
-164.8517541589232
 20
141.4879156055401
 30
0.0
 11
-163.5630454803519
 21
141.7153519626825
 31
0.0
  0
LINE
  5
1369
330
1F
100
AcDbEntity
  8
0
 62
     7
 48
0.000857
370
    70
100
AcDbLine
 10
-163.5630454803519
 20
141.7153519626825
 30
0.0
 11
-163.5638356946376
 21
141.6700851055398
 31
0.0
  0
LINE
  5
136A
330
1F
100
AcDbEntity
  8
0
 62
     7
 48
0.01266
370
    70
100
AcDbLine
 10
-163.3446899803521
 20
141.971054998397
 30
0.0
 11
-163.3330111946376
 21
142.6401326055398
 31
0.0
  0
ARC
  5
136B
330
1F
100
AcDbEntity
  8
0
 62
     7
370
    70
100
AcDbCircle
 10
-163.6089968374947
 20
141.9756747126827
 30
0.0
 40
0.2643478214285712
100
AcDbArc
 50
280.0107359999989
 51
358.9984710000007
  0
LINE
  5
136C
330
1F
100
AcDbEntity
  8
0
 62
     7
 48
0.000815
370
    70
100
AcDbLine
 10
-163.3446899803521
 20
141.971054998397
 30
0.0
 11
-163.3454405517805
 21
141.9280041769684
 31
0.0
  0
LINE
  5
136D
330
1F
100
AcDbEntity
  8
0
 62
     7
 48
0.112083
370
    70
100
AcDbLine
 10
-158.8230851589232
 20
50.95978303411157
 30
0.0
 11
-152.9716131232088
 21
51.88656564125443
 31
0.0
  0
ARC
  5
136E
330
1F
100
AcDbEntity
  8
0
 62
     7
370
    70
100
AcDbCircle
 10
-158.9264433374947
 20
51.61236789125442
 30
0.0
 40
0.6607195714285714
100
AcDbArc
 50
217.0663470000013
 51
278.9999079999996
  0
ARC
  5
136F
330
1F
100
AcDbEntity
  8
0
 62
     7
370
    70
100
AcDbCircle
 10
-105.1361736946375
 20
99.90475335554002
 30
0.0
 40
72.67856349999992
100
AcDbArc
 50
162.7305499999998
 51
164.1117509999987
  0
ARC
  5
1370
330
1F
100
AcDbEntity
  8
0
 62
     7
370
    70
100
AcDbCircle
 10
-105.1361710517802
 20
99.90474806982565
 30
0.0
 40
72.67856614285706
100
AcDbArc
 50
215.8882489999983
 51
217.2654789999996
  0
LINE
  5
1371
330
1F
100
AcDbEntity
  8
0
 62
     7
 48
0.110819
370
    70
100
AcDbLine
 10
-159.4552671589233
 20
51.21626571268301
 30
0.0
 11
-162.9765677303518
 21
55.89722160554007
 31
0.0
  0
LINE
  5
1372
330
1F
100
AcDbEntity
  8
0
 62
     7
 48
0.039294
370
    70
100
AcDbLine
 10
-173.9321236946376
 20
123.4670365341115
 30
0.0
 11
-174.5383290517804
 21
121.4805303198255
 31
0.0
  0
LINE
  5
1373
330
1F
100
AcDbEntity
  8
0
 62
     7
 48
0.309685
370
    70
100
AcDbLine
 10
-172.210977516066
 20
103.3853829983971
 30
0.0
 11
-175.0534364446376
 21
119.5057689626827
 31
0.0
  0
ARC
  5
1374
330
1F
100
AcDbEntity
  8
0
 62
     7
370
    70
100
AcDbCircle
 10
-174.4008793374947
 20
119.6205614626828
 30
0.0
 40
0.6625338928571427
100
AcDbArc
 50
164.1613379999981
 51
189.9769569999986
  0
LINE
  5
1375
330
1F
100
AcDbEntity
  8
0
 62
     7
370
    70
100
AcDbLine
 10
-164.801410373209
 20
61.36364256982566
 30
0.0
 11
-172.210977516066
 21
103.3853829983971
 31
0.0
  0
LINE
  5
1376
330
1F
100
AcDbEntity
  8
0
 62
     7
 48
0.072827
370
    70
100
AcDbLine
 10
-164.1329657303519
 20
57.57270449839715
 30
0.0
 11
-164.801410373209
 21
61.36364256982566
 31
0.0
  0
ARC
  5
1377
330
1F
100
AcDbEntity
  8
0
 62
     7
370
    70
100
AcDbCircle
 10
-163.480501123209
 20
57.68802160554015
 30
0.0
 40
0.6625338928571427
100
AcDbArc
 50
190.0230429999995
 51
215.8386620000017
  0
LINE
  5
1378
330
1F
100
AcDbEntity
  8
0
 62
     7
 48
0.379004
370
    70
100
AcDbLine
 10
-168.0704872303519
 20
142.6303870698256
 30
0.0
 11
-173.9175219089232
 21
123.4696119983972
 31
0.0
  0
SPLINE
  5
1379
330
1F
100
AcDbEntity
  8
0
 62
     7
370
    70
100
AcDbSpline
210
0.0
220
0.0
230
1.0
 70
  1064
 71
     3
 72
    27
 73
    23
 74
    21
 42
0.000000001
 43
0.0000000001
 44
0.0000000001
 40
0.0
 40
0.0
 40
0.0
 40
0.0
 40
0.0087307703167091
 40
0.0256349925558845
 40
0.0501537376568615
 40
0.0729957951073027
 40
0.0941566320903942
 40
0.113632016161541
 40
0.1314180169987098
 40
0.1475110082560888
 40
0.1619301838362715
 40
0.1746596583762922
 40
0.1856838274660759
 40
0.1949648671125773
 40
0.202512283082855
 40
0.2082688084333144
 40
0.215597294755605
 40
0.2248442338429109
 40
0.3236237909320478
 40
0.5600425260345854
 40
0.7973466249654404
 40
0.9357099934675691
 40
0.9357099934675691
 40
0.9357099934675691
 40
0.9357099934675691
 10
-167.3646373233252
 20
143.1287306458006
 30
0.0
 10
-167.3674839840058
 20
143.1281255694007
 30
0.0
 10
-167.3758422528309
 20
143.1263489645374
 30
0.0
 10
-167.3921948388569
 20
143.1228731149481
 30
0.0
 10
-167.413148398661
 20
143.1184192976703
 30
0.0
 10
-167.435489824143
 20
143.1136704796688
 30
0.0
 10
-167.4561868658041
 20
143.1092711862999
 30
0.0
 10
-167.4752353837362
 20
143.1052222948914
 30
0.0
 10
-167.4926315358639
 20
143.1015246309377
 30
0.0
 10
-167.5083791107263
 20
143.0981773601183
 30
0.0
 10
-167.522478023408
 20
143.0951805945598
 30
0.0
 10
-167.534924205403
 20
143.0925349001685
 30
0.0
 10
-167.545695241151
 20
143.0902459669767
 30
0.0
 10
-167.5547763221577
 20
143.0883144862901
 30
0.0
 10
-167.5621406633486
 20
143.086751823801
 30
0.0
 10
-167.5688667146594
 20
143.0853163100606
 30
0.0
 10
-167.5761516004455
 20
143.08378672531
 30
0.0
 10
-167.6137142231458
 20
143.0755342496436
 30
0.0
 10
-167.7254893586145
 20
143.0516083661771
 30
0.0
 10
-167.909215383449
 20
142.9759942830267
 30
0.0
 10
-168.0273652674562
 20
142.7960579531225
 30
0.0
 10
-168.0588797777684
 20
142.67498134132
 30
0.0
 10
-168.0704869947395
 20
142.6303872007354
 30
0.0
 11
-167.3646373233252
 21
143.1287306458006
 31
0.0
 11
-167.3731773053651
 21
143.1269154165916
 31
0.0
 11
-167.389712129761
 21
143.1234008310247
 31
0.0
 11
-167.413695081298
 21
143.1183030965376
 31
0.0
 11
-167.4360379847226
 21
143.113553964498
 31
0.0
 11
-167.4567364062697
 21
143.109154377326
 31
0.0
 11
-167.4757862059894
 21
143.1051052150229
 31
0.0
 11
-167.49318353943
 21
143.1014072946701
 31
0.0
 11
-167.5089248595462
 21
143.0980613704913
 31
0.0
 11
-167.5230289406299
 21
143.0950634510133
 31
0.0
 11
-167.5354802450075
 21
143.0924168416048
 31
0.0
 11
-167.5462635211481
 21
143.0901248425219
 31
0.0
 11
-167.5553417178043
 21
143.0881950647132
 31
0.0
 11
-167.562724288185
 21
143.0866262618567
 31
0.0
 11
-167.5683548088427
 21
143.0854284216195
 31
0.0
 11
-167.5755238954734
 21
143.0839082543072
 31
0.0
 11
-167.584559157489
 21
143.0819410423731
 31
0.0
 11
-167.680719873849
 21
143.0593464074378
 31
0.0
 11
-167.8938417953264
 21
142.9570093911961
 31
0.0
 11
-168.0301035122169
 21
142.7627261446733
 31
0.0
 11
-168.0704869947395
 21
142.6303872007354
 31
0.0
  0
ARC
  5
137A
330
1F
100
AcDbEntity
  8
0
 62
     7
370
    70
100
AcDbCircle
 10
-169.428688516066
 20
57.70652821268296
 30
0.0
 40
5.285715607142851
100
AcDbArc
 50
20.80698999999851
 51
66.74152999999981
  0
ARC
  5
137B
330
1F
100
AcDbEntity
  8
0
 62
     7
370
    70
100
AcDbCircle
 10
-179.9840168017807
 20
117.5687713912542
 30
0.0
 40
5.285715607142851
100
AcDbArc
 50
313.2584700000019
 51
359.1858980000002
  0
ARC
  5
137C
330
1F
100
AcDbEntity
  8
0
 62
     7
370
    70
100
AcDbCircle
 10
-167.080564123209
 20
63.16970771268294
 30
0.0
 40
0.6607142857142853
100
AcDbArc
 50
210.6693149999981
 51
246.7415380000017
  0
ARC
  5
137D
330
1F
100
AcDbEntity
  8
0
 62
     7
370
    70
100
AcDbCircle
 10
-175.9089848017805
 20
113.2381671769685
 30
0.0
 40
0.6607142857142853
100
AcDbArc
 50
133.2584620000001
 51
169.3306839999999
  0
ARC
  5
137E
330
1F
100
AcDbEntity
  8
0
 62
     7
370
    70
100
AcDbCircle
 10
-105.1361670874948
 20
99.90475071268285
 30
0.0
 40
72.67857142857135
100
AcDbArc
 50
169.3306799999991
 51
178.3351929999998
  0
ARC
  5
137F
330
1F
100
AcDbEntity
  8
0
 62
     7
370
    70
100
AcDbCircle
 10
-105.1361670874948
 20
99.90475071268285
 30
0.0
 40
72.67857142857135
100
AcDbArc
 50
201.6648069999996
 51
210.6693200000008
  0
SPLINE
  5
1380
330
1F
100
AcDbEntity
  8
0
 62
     7
370
    70
100
AcDbSpline
210
0.0
220
0.0
230
1.0
 70
  1064
 71
     3
 72
    24
 73
    20
 74
    18
 42
0.000000001
 43
0.0000000001
 44
0.0000000001
 40
0.0
 40
0.0
 40
0.0
 40
0.0
 40
0.0092499830783611
 40
0.0184999661565261
 40
0.0284340542280631
 40
0.0445813466259133
 40
0.0607204987979587
 40
0.0676080860633555
 40
0.0919794566650776
 40
0.1163635662418469
 40
0.1338515650004323
 40
0.1850181332384227
 40
0.2362105127014594
 40
0.2698962743217704
 40
0.3687745867043825
 40
0.4677125711200364
 40
0.5330152804926173
 40
0.598197252355681
 40
0.6633792242185296
 40
0.6633792242185296
 40
0.6633792242185296
 40
0.6633792242185296
 10
-175.0889679709804
 20
102.3510888240916
 30
0.0
 10
-175.0869916344592
 20
102.3487541132366
 30
0.0
 10
-175.0830389614169
 20
102.3440846915266
 30
0.0
 10
-175.0752261047724
 20
102.3378307984108
 30
0.0
 10
-175.0744742263961
 20
102.3253031367876
 30
0.0
 10
-175.0664402700673
 20
102.3134656512188
 30
0.0
 10
-175.0622179497401
 20
102.3010604607831
 30
0.0
 10
-175.0565591399243
 20
102.2863161284429
 30
0.0
 10
-175.0501665739156
 20
102.268890445295
 30
0.0
 10
-175.0440109153215
 20
102.2476728748881
 30
0.0
 10
-175.0360662605418
 20
102.2176984260255
 30
0.0
 10
-175.0262552757832
 20
102.1789459754626
 30
0.0
 10
-175.0185999852333
 20
102.1342152383543
 30
0.0
 10
-175.0095736034379
 20
102.0736457161632
 30
0.0
 10
-174.9986787044582
 20
101.9971503241913
 30
0.0
 10
-174.9953723656133
 20
101.9094655169613
 30
0.0
 10
-174.989375802533
 20
101.8331388643087
 30
0.0
 10
-174.9925049447437
 20
101.7679029061867
 30
0.0
 10
-174.9932179700106
 20
101.7244623339629
 30
0.0
 10
-174.9935744826441
 20
101.7027420478511
 30
0.0
 11
-175.0889679709804
 21
102.3510888240916
 31
0.0
 11
-175.0827563156181
 21
102.3442348088735
 31
0.0
 11
-175.0765446602563
 21
102.3373807936552
 31
0.0
 11
-175.0739669719252
 21
102.327786960809
 31
0.0
 11
-175.0671049799696
 21
102.3131702539917
 31
0.0
 11
-175.0610895064941
 21
102.2981940624966
 31
0.0
 11
-175.0586533450483
 21
102.2917517045627
 31
0.0
 11
-175.050435570907
 21
102.2688076008938
 31
0.0
 11
-175.0434770769952
 21
102.2454374455171
 31
0.0
 11
-175.0389578204278
 21
102.2285434696482
 31
0.0
 11
-175.0269119565703
 21
102.1788150585618
 31
0.0
 11
-175.0178356089535
 21
102.1284337164893
 31
0.0
 11
-175.0127935858952
 21
102.0951274327065
 31
0.0
 11
-175.0003864432804
 21
101.9970306260726
 31
0.0
 11
-174.9941408362944
 21
101.8982899700407
 31
0.0
 11
-174.990749515693
 21
101.8330753796795
 31
0.0
 11
-174.9921619991686
 21
101.7679087137652
 31
0.0
 11
-174.9935744826441
 21
101.7027420478511
 31
0.0
  0
ARC
  5
1381
330
1F
100
AcDbEntity
  8
0
 62
     7
370
    70
100
AcDbCircle
 10
-105.136165766066
 20
99.90475071268285
 30
0.0
 40
69.8805428928571
100
AcDbArc
 50
178.5256459999999
 51
201.4743540000003
  0
SPLINE
  5
1382
330
1F
100
AcDbEntity
  8
0
 62
     7
370
    70
100
AcDbSpline
210
0.0
220
0.0
230
1.0
 70
  1064
 71
     3
 72
    24
 73
    20
 74
    18
 42
0.000000001
 43
0.0000000001
 44
0.0000000001
 40
0.0
 40
0.0
 40
0.0
 40
0.0
 40
0.0092510243540227
 40
0.0185020487078927
 40
0.0284367369620622
 40
0.0445850496789168
 40
0.0607252213326728
 40
0.0676127860666367
 40
0.0919860720058191
 40
0.1163721004488172
 40
0.1338620392085821
 40
0.1850278481204787
 40
0.2362194548876112
 40
0.2699025139428244
 40
0.3687778954534374
 40
0.4677129503226868
 40
0.5330154268245275
 40
0.5981971713694662
 40
0.663378915914608
 40
0.663378915914608
 40
0.663378915914608
 40
0.663378915914608
 10
-170.0336010091165
 20
73.68067797405384
 30
0.0
 10
-170.0325424307733
 20
73.68354823592262
 30
0.0
 10
-170.0304252740871
 20
73.68928875966012
 30
0.0
 10
-170.0252232512913
 20
73.69783876956728
 30
0.0
 10
-170.028799473545
 20
73.70986901587073
 30
0.0
 10
-170.0252997517769
 20
73.72374127693563
 30
0.0
 10
-170.0255747937716
 20
73.73684313963508
 30
0.0
 10
-170.0253003107321
 20
73.75263467954413
 30
0.0
 10
-170.0252533231687
 20
73.77119712395921
 30
0.0
 10
-170.0267260798634
 20
73.79324238526217
 30
0.0
 10
-170.0295128164846
 20
73.82412738636137
 30
0.0
 10
-170.0335482868095
 20
73.86389840027745
 30
0.0
 10
-170.0416536249136
 20
73.90854833740057
 30
0.0
 10
-170.053887378681
 20
73.96855014277456
 30
0.0
 10
-170.0698121425087
 20
74.0441557158963
 30
0.0
 10
-170.0966943981086
 20
74.12768142442853
 30
0.0
 10
-170.1171646416684
 20
74.20145480454471
 30
0.0
 10
-170.1424169027045
 20
74.2616861441872
 30
0.0
 10
-170.1579444080627
 20
74.30226292551195
 30
0.0
 10
-170.1657081607419
 20
74.32255131617437
 30
0.0
 11
-170.0336010091165
 21
73.68067797405384
 31
0.0
 11
-170.0301084035949
 21
73.68924437109514
 31
0.0
 11
-170.0266157980737
 21
73.69781076813644
 31
0.0
 11
-170.0274739540544
 21
73.70770832334064
 31
0.0
 11
-170.0260251827842
 21
73.72379151535615
 31
0.0
 11
-170.0254948229915
 21
73.73992297094773
 31
0.0
 11
-170.0254090705329
 21
73.74681000183777
 31
0.0
 11
-170.0255344663541
 21
73.77118296520625
 31
0.0
 11
-170.0269890279695
 21
73.79552557463354
 31
0.0
 11
-170.0285207510582
 21
73.81294831213946
 31
0.0
 11
-170.0342100681116
 21
73.86379682906055
 31
0.0
 11
-170.0429128563086
 21
73.91424325689245
 31
0.0
 11
-170.0495659311816
 21
73.94726272178894
 31
0.0
 11
-170.0714577018743
 21
74.04368414806343
 31
0.0
 11
-170.0993592283641
 21
74.13860332368945
 31
0.0
 11
-170.1184771708098
 21
74.20104463784856
 31
0.0
 11
-170.1420926657758
 21
74.26179797701137
 31
0.0
 11
-170.1657081607419
 21
74.32255131617437
 31
0.0
  0
ARC
  5
1383
330
1F
100
AcDbEntity
  8
0
 62
     7
370
    70
100
AcDbCircle
 10
-172.5578326946376
 20
73.12232581982566
 30
0.0
 40
0.1321692857142855
100
AcDbArc
 50
100.017962
 51
201.6468599999989
  0
ARC
  5
1384
330
1F
100
AcDbEntity
  8
0
 62
     7
370
    70
100
AcDbCircle
 10
-172.524263123209
 20
73.39667553411145
 30
0.0
 40
0.1321692857142855
100
AcDbArc
 50
280.017894999999
 51
21.45517099999919
  0
ARC
  5
1385
330
1F
100
AcDbEntity
  8
0
 62
     7
370
    70
100
AcDbCircle
 10
-105.1361618017806
 20
99.90475071268285
 30
0.0
 40
72.2821481428571
100
AcDbArc
 50
190.0000000000002
 51
201.4729389999994
  0
ARC
  5
1386
330
1F
100
AcDbEntity
  8
0
 62
     7
370
    70
100
AcDbCircle
 10
-106.4235072902809
 20
99.74367983932385
 30
0.0
 40
70.98642011793727
100
AcDbArc
 50
178.126577460122
 51
190.0523993954208
  0
LINE
  5
1387
330
1F
100
AcDbEntity
  8
0
 62
     7
 48
0.133796
370
    70
100
AcDbLine
 10
-137.308479526534
 20
62.22460258953187
 30
0.0
 11
-137.3084785263769
 21
51.29544670403801
 31
0.0
  0
ARC
  5
1388
330
1F
100
AcDbEntity
  8
0
 62
     7
370
    70
100
AcDbCircle
 10
-136.8085095265342
 20
51.29543416462482
 30
0.0
 40
0.499969
100
AcDbArc
 50
179.9985629999991
 51
278.0014369999998
  0
LINE
  5
1389
330
1F
100
AcDbEntity
  8
0
 62
     7
 48
0.088855
370
    70
100
AcDbLine
 10
-154.0969284803518
 20
58.26867978411145
 30
0.0
 11
-153.2813665517805
 21
53.64339699839732
 31
0.0
  0
LINE
  5
138A
330
1F
100
AcDbEntity
  8
0
 62
     7
 48
0.007061
370
    70
100
AcDbLine
 10
-154.1617405874946
 20
58.63624835554007
 30
0.0
 11
-154.0969284803518
 21
58.26867978411145
 31
0.0
  0
LINE
  5
138B
330
1F
100
AcDbEntity
  8
0
 62
     7
 48
0.2824849999999999
370
    70
100
AcDbLine
 10
-137.3084798010737
 20
62.22460254112307
 30
0.0
 11
-154.2672198067061
 21
59.23431881431683
 31
0.0
  0
ARC
  5
138C
330
1F
100
AcDbEntity
  8
0
 62
     7
370
    70
100
AcDbCircle
 10
-149.9955642109941
 20
108.0965936900414
 30
0.0
 40
0.6607142857142853
100
AcDbArc
 50
10.00000000000021
 51
99.99999999999857
  0
LINE
  5
138D
330
1F
100
AcDbEntity
  8
0
 62
     7
370
    70
100
AcDbLine
 10
-149.3448874967084
 20
108.2113254043272
 30
0.0
 11
-143.8377599252799
 21
76.97885104718444
 31
0.0
  0
ARC
  5
138E
330
1F
100
AcDbEntity
  8
0
 62
     7
370
    70
100
AcDbCircle
 10
-144.4884366395656
 20
76.86411933289865
 30
0.0
 40
0.6607142857142853
100
AcDbArc
 50
280.0000000000018
 51
10.00000000000021
  0
LINE
  5
138F
330
1F
100
AcDbEntity
  8
0
 62
     7
 48
0.2
370
    70
100
AcDbLine
 10
-144.3737048078927
 20
76.21344278180123
 30
0.0
 11
-152.9684139446376
 21
74.69796289125426
 31
0.0
  0
ARC
  5
1390
330
1F
100
AcDbEntity
  8
0
 62
     7
370
    70
100
AcDbCircle
 10
-153.0831456589232
 20
75.34863960554007
 30
0.0
 40
0.6607142857142853
100
AcDbArc
 50
190.0000000000002
 51
280.0000000000018
  0
LINE
  5
1391
330
1F
100
AcDbEntity
  8
0
 62
     7
370
    70
100
AcDbLine
 10
-153.733822373209
 20
75.23390789125425
 30
0.0
 11
-159.2409499446375
 21
106.4663822483971
 31
0.0
  0
ARC
  5
1392
330
1F
100
AcDbEntity
  8
0
 62
     7
370
    70
100
AcDbCircle
 10
-158.5902732303517
 20
106.5811139626827
 30
0.0
 40
0.6607142857142853
100
AcDbArc
 50
99.99999999999857
 51
190.0000000000002
  0
LINE
  5
1393
330
1F
100
AcDbEntity
  8
0
 62
     7
 48
0.2
370
    70
100
AcDbLine
 10
-158.7050049446375
 20
107.2317906769684
 30
0.0
 11
-150.1102961388694
 21
108.7472702241758
 31
0.0
  0
SPLINE
  5
1394
330
1F
100
AcDbEntity
  8
0
 62
     7
370
    70
100
AcDbSpline
210
0.0
220
0.0
230
1.0
 70
  1064
 71
     3
 72
    18
 73
    14
 74
    12
 42
0.000000001
 43
0.0000000001
 44
0.0000000001
 40
0.0
 40
0.0
 40
0.0
 40
0.0
 40
0.1635266428700004
 40
0.3262052697436064
 40
0.487336496124663
 40
0.784220361100603
 40
1.058142127845291
 40
1.184832779872672
 40
1.362625090160297
 40
1.508868386199365
 40
1.565629250947673
 40
1.626566088626498
 40
1.691887796910403
 40
1.691887796910403
 40
1.691887796910403
 40
1.691887796910403
 10
-163.4136477566192
 20
116.8025608023236
 30
0.0
 10
-163.4180511023693
 20
116.7482243900868
 30
0.0
 10
-163.4268349590116
 20
116.6398333432244
 30
0.0
 10
-163.4297472805023
 20
116.4772296832434
 30
0.0
 10
-163.4193420095833
 20
116.2706609821971
 30
0.0
 10
-163.4022866928365
 20
116.0264179822442
 30
0.0
 10
-163.330106552555
 20
115.8020969389272
 30
0.0
 10
-163.2558637902344
 20
115.6273207065608
 30
0.0
 10
-163.17366733617
 20
115.4867926927913
 30
0.0
 10
-163.0381576436764
 20
115.4637790241495
 30
0.0
 10
-162.9503639692686
 20
115.470543356061
 30
0.0
 10
-162.893233079742
 20
115.4949248002885
 30
0.0
 10
-162.8587110578458
 20
115.5189893976405
 30
0.0
 10
-162.8408505841133
 20
115.5314395695969
 30
0.0
 11
-163.4136477566192
 21
116.8025608023236
 31
0.0
 11
-163.4251402850405
 21
116.6394385024415
 31
0.0
 11
-163.427898038081
 21
116.4767832521738
 31
0.0
 11
-163.4212471598949
 21
116.3157893456605
 31
0.0
 11
-163.3893703102334
 21
116.0206217733584
 31
0.0
 11
-163.3102117464797
 21
115.7583870386626
 31
0.0
 11
-163.2595761787364
 21
115.6422553866876
 31
0.0
 11
-163.1509893346373
 21
115.5014754062713
 31
0.0
 11
-163.0087621609659
 21
115.467438180976
 31
0.0
 11
-162.9523133036418
 21
115.4733814354532
 31
0.0
 11
-162.8957410362827
 21
115.4960282178327
 31
0.0
 11
-162.8408505841133
 21
115.5314395695969
 31
0.0
  0
LINE
  5
1395
330
1F
100
AcDbEntity
  8
0
 62
     7
 48
0.000963
370
    70
100
AcDbLine
 10
-163.2334587303518
 20
119.3703159269685
 30
0.0
 11
-163.2291680517804
 21
119.4210257483971
 31
0.0
  0
LINE
  5
1396
330
1F
100
AcDbEntity
  8
0
 62
     7
 48
0.11767
370
    70
100
AcDbLine
 10
-136.912435526534
 20
145.4443871646248
 30
0.0
 11
-132.308479526534
 21
146.4229881646248
 31
0.0
  0
ARC
  5
1397
330
1F
100
AcDbEntity
  8
0
 62
     7
370
    70
100
AcDbCircle
 10
-136.8084795265339
 20
144.9553131646245
 30
0.0
 40
0.5
100
AcDbArc
 50
101.9999999999996
 51
180.0
  0
LINE
  5
1398
330
1F
100
AcDbEntity
  8
0
 62
     7
 48
0.111849
370
    70
100
AcDbLine
 10
-132.3084795265342
 20
51.4229881646248
 30
0.0
 11
-136.7389145265341
 21
50.80033116462479
 31
0.0
  0
LINE
  5
1399
330
1F
100
AcDbEntity
  8
0
 62
     7
 48
0.000401
370
    70
100
AcDbLine
 10
-132.308479526534
 20
146.4229881646248
 30
0.0
 11
-132.308479526534
 21
146.4069361646247
 31
0.0
  0
LINE
  5
139A
330
1F
100
AcDbEntity
  8
0
 62
     7
 48
0.4262100000000001
370
    70
100
AcDbLine
 10
-137.308479526534
 20
62.22460258953187
 30
0.0
 11
-137.308479526534
 21
144.9553131646245
 31
0.0
  0
LINE
  5
139B
330
1F
100
AcDbEntity
  8
0
 62
     7
 48
0.4538120000000001
370
    70
100
AcDbLine
 10
-164.2509124909878
 20
115.3668196294996
 30
0.0
 11
-137.3084798010737
 21
120.0228212189194
 31
0.0
  0
LINE
  5
139C
330
1F
100
AcDbEntity
  8
0
 62
     7
 48
0.4137850000000002
370
    70
100
AcDbLine
 10
-163.4136474089232
 20
116.80256085554
 30
0.0
 11
-161.876535266066
 21
138.619974248397
 31
0.0
  0
LINE
  5
139D
330
1F
100
AcDbEntity
  8
0
 62
     7
 48
0.009836
370
    70
100
AcDbLine
 10
-132.308479526534
 20
64.98563958953186
 30
0.0
 11
-132.308479526534
 21
65.37908258953186
 31
0.0
  0
LINE
  5
139E
330
1F
100
AcDbEntity
  8
0
 62
     7
370
    70
100
AcDbLine
 10
-132.308479526534
 20
133.6182785895317
 30
0.0
 11
-132.308479526534
 21
65.37908258953186
 31
0.0
  0
ARC
  5
139F
330
1F
100
AcDbEntity
  8
0
 62
     7
370
    70
100
AcDbCircle
 10
-155.1128055889851
 20
130.3501212369934
 30
0.0
 40
11.41869779000926
100
AcDbArc
 50
11.37146249992455
 51
40.82858903234305
  0
LINE
  5
13A0
330
1F
100
AcDbEntity
  8
0
 62
     7
 48
0.188978
370
    70
100
AcDbLine
 10
-143.9182625359249
 20
132.6015350748523
 30
0.0
 11
-143.9182625359249
 21
122.6126754677093
 31
0.0
  0
ARC
  5
13A1
330
1F
100
AcDbEntity
  8
0
 62
     7
370
    70
100
AcDbCircle
 10
-145.9120392502106
 20
122.6126754677093
 30
0.0
 40
1.993776714285711
100
AcDbArc
 50
280.0000000000018
 51
0.0
  0
LINE
  5
13A2
330
1F
100
AcDbEntity
  8
0
 62
     7
 48
0.294625
370
    70
100
AcDbLine
 10
-145.5658236706195
 20
120.6491886816893
 30
0.0
 11
-158.178308623209
 21
118.4252672126828
 31
0.0
  0
ARC
  5
13A3
330
1F
100
AcDbEntity
  8
0
 62
     7
370
    70
100
AcDbCircle
 10
-158.5245242303517
 20
120.3887541412542
 30
0.0
 40
1.993776714285711
100
AcDbArc
 50
175.9699739999998
 51
280.0000000000018
  0
LINE
  5
13A4
330
1F
100
AcDbEntity
  8
0
 62
     7
 48
0.20791
370
    70
100
AcDbLine
 10
-159.7410353374947
 20
131.4912093555399
 30
0.0
 11
-160.5133706946376
 21
120.5288744626827
 31
0.0
  0
ARC
  5
13A5
330
1F
100
AcDbEntity
  8
0
 62
     7
370
    70
100
AcDbCircle
 10
-157.7521901946374
 20
131.3510877126828
 30
0.0
 40
1.993776714285711
100
AcDbArc
 50
66.13662599999923
 51
175.9699739999998
  0
ARC
  5
13A6
330
1F
100
AcDbEntity
  8
0
 62
     7
370
    70
100
AcDbCircle
 10
-154.7584660160663
 20
138.1184815341115
 30
0.0
 40
5.406223285714282
100
AcDbArc
 50
246.1366119999985
 51
344.8333619999997
  0
ARC
  5
13A7
330
1F
100
AcDbEntity
  8
0
 62
     7
370
    70
100
AcDbCircle
 10
-147.616214623209
 20
136.1824393555399
 30
0.0
 40
1.993776714285711
100
AcDbArc
 50
55.000014000001
 51
164.8333619999997
  0
LINE
  5
13A8
330
1F
100
AcDbEntity
  8
0
 62
     7
 48
0.25537
370
    70
100
AcDbLine
 10
-150.6655884452471
 20
143.9637164787164
 30
0.0
 11
-137.308479526534
 21
135.7341452458844
 31
0.0
  0
ARC
  5
13A9
330
1F
100
AcDbEntity
  8
0
 62
     7
370
    70
100
AcDbCircle
 10
-154.7584660160663
 20
138.1184815341115
 30
0.0
 40
7.135714285714277
100
AcDbArc
 50
54.99999999999904
 51
175.9699739999998
  0
LINE
  5
13AA
330
1F
100
AcDbEntity
  8
0
 62
     7
 48
0.264197
370
    70
100
AcDbLine
 10
-137.3084798010737
 20
57.15894763173274
 30
0.0
 11
-153.386845716415
 21
54.24146751321288
 31
0.0
  0
LINE
  5
13AB
330
1F
100
AcDbEntity
  8
0
 62
     7
 48
0.2
370
    70
100
AcDbLine
 10
-132.308479526534
 20
133.9842555895316
 30
0.0
 11
-132.3084795265341
 21
146.4069501646247
 31
0.0
  0
LINE
  5
13AC
330
1F
100
AcDbEntity
  8
0
 62
     7
370
    70
100
AcDbLine
 10
-132.308479526534
 20
133.9842555895316
 30
0.0
 11
-132.308479526534
 21
64.98425558953186
 31
0.0
  0
LINE
  5
13AD
330
1F
100
AcDbEntity
  8
0
 62
     7
 48
0.2
370
    70
100
AcDbLine
 10
-132.3084795265342
 20
51.4229881646248
 30
0.0
 11
-132.308479526534
 21
64.98425558953186
 31
0.0
  0
LINE
  5
147B
330
1F
100
AcDbEntity
  8
0
 62
     7
 48
0.4125
370
    70
100
AcDbLine
 10
35.5289721224424
 20
146.4276960353485
 30
0.0
 11
54.5237840396479
 21
146.4437340353485
 31
0.0
  0
POINT
  5
1513
330
1F
100
AcDbEntity
  8
0
 62
     7
370
     5
100
AcDbPoint
 10
67.52878771894841
 20
121.3777877479747
 30
0.0
  0
LINE
  5
1514
330
1F
100
AcDbEntity
  8
0
 62
     7
370
    70
100
AcDbLine
 10
89.33235914751973
 20
122.2092629801178
 30
0.0
 11
89.33235896918338
 21
142.5373759657099
 31
0.0
  0
LINE
  5
1515
330
1F
100
AcDbEntity
  8
0
 62
     7
370
    70
100
AcDbLine
 10
72.67531772946296
 20
51.38146275429797
 30
0.0
 11
99.60568395708252
 21
51.47143636027769
 31
0.0
  0
LINE
  5
1516
330
1F
100
AcDbEntity
  8
0
 62
     7
370
    70
100
AcDbLine
 10
107.5289721224415
 20
138.4276960353485
 30
0.0
 11
107.5289721224412
 21
59.1127680353486
 31
0.0
  0
ARC
  5
1517
330
1F
100
AcDbEntity
  8
0
 62
     7
370
    70
100
AcDbCircle
 10
99.5253754570823
 20
59.47103336027769
 30
0.0
 40
8.0
100
AcDbArc
 50
270.5751790000002
 51
0.0
  0
LINE
  5
1518
330
1F
100
AcDbEntity
  8
0
 62
     7
370
    70
100
AcDbLine
 10
27.52897212244155
 20
138.4276960353485
 30
0.0
 11
27.5289721224412
 21
59.1127675353486
 31
0.0
  0
LINE
  5
1519
330
1F
100
AcDbEntity
  8
0
 62
     7
370
    70
100
AcDbLine
 10
62.63767534527058
 20
51.32967767524782
 30
0.0
 11
35.44506645708241
 21
51.47143636027769
 31
0.0
  0
ARC
  5
151A
330
1F
100
AcDbEntity
  8
0
 62
     7
370
    70
100
AcDbCircle
 10
35.52537545708229
 20
59.47103286027768
 30
0.0
 40
8.0
100
AcDbArc
 50
180.0
 51
269.4248209999998
  0
CIRCLE
  5
151B
330
1F
100
AcDbEntity
  8
0
 62
     7
370
    70
100
AcDbCircle
 10
97.5237330396467
 20
134.1186285353483
 30
0.0
 40
2.0901075
  0
CIRCLE
  5
151C
330
1F
100
AcDbEntity
  8
0
 62
     7
370
    70
100
AcDbCircle
 10
37.52383503964701
 20
134.1186285353483
 30
0.0
 40
2.0718885
  0
CIRCLE
  5
151D
330
1F
100
AcDbEntity
  8
0
 62
     7
370
    70
100
AcDbCircle
 10
37.52397303964669
 20
64.1101360353486
 30
0.0
 40
2.0681655
  0
CIRCLE
  5
151E
330
1F
100
AcDbEntity
  8
0
 62
     7
370
    70
100
AcDbCircle
 10
97.5235945396465
 20
64.1101360353486
 30
0.0
 40
2.0750345
  0
LINE
  5
151F
330
1F
100
AcDbEntity
  8
0
 62
     7
 48
0.334324
370
    70
100
AcDbLine
 10
89.33235914751973
 20
122.2092629801178
 30
0.0
 11
89.33239350466271
 21
113.3735559444035
 31
0.0
  0
LINE
  5
1520
330
1F
100
AcDbEntity
  8
0
 62
     7
 48
0.334319
370
    70
100
AcDbLine
 10
45.72521629037727
 20
122.2092629801178
 30
0.0
 11
45.72518193323447
 21
113.3736900694035
 31
0.0
  0
ARC
  5
1521
330
1F
100
AcDbEntity
  8
0
 62
     7
370
    70
100
AcDbCircle
 10
67.52870843323414
 20
87.67884185511787
 30
0.0
 40
33.69894655357141
100
AcDbArc
 50
49.6831649999979
 51
130.3164809999976
  0
ELLIPSE
  5
1522
330
1F
100
AcDbEntity
  8
0
 62
     7
370
    70
100
AcDbEllipse
 10
67.52868332609127
 20
90.17365010511776
 30
0.0
 11
33.29989262989587
 21
-0.0015812397755086
 31
0.0
210
0.0
220
0.0
230
1.0
 40
0.984811
 41
2.286072745738822
 42
3.240960417328945
  0
ELLIPSE
  5
1523
330
1F
100
AcDbEntity
  8
0
 62
     7
370
    70
100
AcDbEllipse
 10
67.52878771894841
 20
90.17372542654639
 30
0.0
 11
-33.30000100816997
 21
0.0
 31
0.0
210
0.0
220
0.0
230
1.0
 40
0.9848080000000004
 41
3.042428282708312
 42
3.997154389276202
  0
LINE
  5
1524
330
1F
100
AcDbEntity
  8
0
 62
     7
 48
0.384586
370
    70
100
AcDbLine
 10
45.72521629037727
 20
122.209263640832
 30
0.0
 11
45.72521629037727
 21
142.5373754979749
 31
0.0
  0
LINE
  5
1525
330
1F
100
AcDbEntity
  8
0
 62
     7
 48
0.000102
370
    70
100
AcDbLine
 10
45.8435541832345
 20
124.0034293194034
 30
0.0
 11
45.84353304037708
 21
124.0088286765463
 31
0.0
  0
ELLIPSE
  5
1526
330
1F
100
AcDbEntity
  8
0
 62
     7
370
    70
100
AcDbEllipse
 10
47.04686157609161
 20
142.5319417836892
 30
0.0
 11
0.1048806724803979
 21
-1.352133018629883
 31
0.0
210
0.0
220
0.0
230
1.0
 40
0.974369
 41
3.06615800755616
 42
4.632947828720072
  0
LINE
  5
1527
330
1F
100
AcDbEntity
  8
0
 62
     7
 48
0.066346
370
    70
100
AcDbLine
 10
47.0415679332345
 20
143.887933640832
 30
0.0
 11
50.54843057609163
 21
143.887933640832
 31
0.0
  0
LINE
  5
1528
330
1F
100
AcDbEntity
  8
0
 62
     7
 48
0.000132
370
    70
100
AcDbLine
 10
50.54843057609163
 20
143.887933640832
 30
0.0
 11
50.55542886180605
 21
143.887933640832
 31
0.0
  0
LINE
  5
1529
330
1F
100
AcDbEntity
  8
0
 62
     7
 48
0.012608
370
    70
100
AcDbLine
 10
50.55542886180605
 20
143.887933640832
 30
0.0
 11
51.22184907609163
 21
143.887933640832
 31
0.0
  0
LINE
  5
152A
330
1F
100
AcDbEntity
  8
0
 62
     7
370
    70
100
AcDbLine
 10
83.83701343323405
 20
143.887933640832
 30
0.0
 11
51.22184907609163
 21
143.887933640832
 31
0.0
  0
LINE
  5
152B
330
1F
100
AcDbEntity
  8
0
 62
     7
 48
0.002372
370
    70
100
AcDbLine
 10
46.35080039752017
 20
123.883855890832
 30
0.0
 11
46.22568225466297
 21
123.8921465336893
 31
0.0
  0
SPLINE
  5
152C
330
1F
100
AcDbEntity
  8
0
 62
     7
370
    70
100
AcDbSpline
210
0.0
220
0.0
230
1.0
 70
  1064
 71
     3
 72
    15
 73
    11
 74
     9
 42
0.000000001
 43
0.0000000001
 44
0.0000000001
 40
0.0
 40
0.0
 40
0.0
 40
0.0
 40
0.0827183432312202
 40
0.1627742805596879
 40
0.2414952646374083
 40
0.3302751577777598
 40
0.3826338548723021
 40
0.3948682142241222
 40
0.4045476502748369
 40
0.4130312440390953
 40
0.4130312440390953
 40
0.4130312440390953
 40
0.4130312440390953
 10
46.22568189758682
 20
123.8921461089975
 30
0.0
 10
46.19820400731381
 20
123.8943639686332
 30
0.0
 10
46.1441326412084
 20
123.8987283029814
 30
0.0
 10
46.06412306352062
 20
123.9088387593135
 30
0.0
 10
45.98340313347491
 20
123.924241307348
 30
0.0
 10
45.91033368756177
 20
123.9393157063854
 30
0.0
 10
45.86762485268538
 20
123.9689233601671
 30
0.0
 10
45.84917758164237
 20
123.985399491194
 30
0.0
 10
45.84372512366212
 20
123.9944202748991
 30
0.0
 10
45.84360871588322
 20
124.0005611536274
 30
0.0
 10
45.8435543441007
 20
124.0034294372242
 30
0.0
 11
46.22568189758682
 21
123.8921461089975
 31
0.0
 11
46.14328509550282
 21
123.8994324876075
 31
0.0
 11
46.06389240498828
 21
123.9097161539966
 31
0.0
 11
45.98645067589106
 21
123.9238502237784
 31
0.0
 11
45.9012382865785
 21
123.9487644392719
 31
0.0
 11
45.8577287854987
 21
123.977890998925
 31
0.0
 11
45.84901430617605
 21
123.986478047247
 31
0.0
 11
45.84440283081947
 21
123.9949883808066
 31
0.0
 11
45.8435543441007
 21
124.0034294372242
 31
0.0
  0
SPLINE
  5
152D
330
1F
100
AcDbEntity
  8
0
 62
     7
370
    70
100
AcDbSpline
210
0.0
220
0.0
230
1.0
 70
  1064
 71
     3
 72
    18
 73
    14
 74
    12
 42
0.000000001
 43
0.0000000001
 44
0.0000000001
 40
0.0
 40
0.0
 40
0.0
 40
0.0
 40
0.0317648553109219
 40
0.0631798104814319
 40
0.0865160824887505
 40
0.2146535042957113
 40
0.3353912809783592
 40
0.4243317471700913
 40
0.4925165805733003
 40
0.527467453125055
 40
0.531047799319838
 40
0.5343947518205648
 40
0.5375871487230114
 40
0.5375871487230114
 40
0.5375871487230114
 40
0.5375871487230114
 10
46.35053865349902
 20
123.8864391334132
 30
0.0
 10
46.3399596569298
 20
123.8868893598662
 30
0.0
 10
46.31891819485528
 20
123.8877848533823
 30
0.0
 10
46.29013239456978
 20
123.8895310592177
 30
0.0
 10
46.22930562860166
 20
123.8937331733015
 30
0.0
 10
46.13898396568653
 20
123.8999806595557
 30
0.0
 10
46.02652990788572
 20
123.9163007506133
 30
0.0
 10
45.93835994739373
 20
123.9365575788854
 30
0.0
 10
45.87133774220804
 20
123.9530986324675
 30
0.0
 10
45.85243991852872
 20
123.9849744238743
 30
0.0
 10
45.84547531086586
 20
123.9970570491126
 30
0.0
 10
45.8442634432818
 20
124.0002316930821
 30
0.0
 10
45.84388158203151
 20
124.0023810504237
 30
0.0
 10
45.8436951639955
 20
124.0034303293805
 30
0.0
 11
46.35053865349902
 21
123.8864391334132
 31
0.0
 11
46.31880675771872
 21
123.8878857927068
 31
0.0
 11
46.28744683457909
 21
123.8897444559474
 31
0.0
 11
46.26416415754697
 21
123.8913251334659
 31
0.0
 11
46.13645753355889
 21
123.9018235646298
 31
0.0
 11
46.01702761728803
 21
123.919546595347
 31
0.0
 11
45.9301819332922
 21
123.9387360116409
 31
0.0
 11
45.86748793960519
 21
123.9655433737229
 31
0.0
 11
45.84722638535106
 21
123.9940220132855
 31
0.0
 11
45.84552264179892
 21
123.9971710030891
 31
0.0
 11
45.84435004440925
 21
124.0003058246795
 31
0.0
 11
45.8436951639955
 21
124.0034303293805
 31
0.0
  0
LINE
  5
152E
330
1F
100
AcDbEntity
  8
0
 62
     7
 48
0.066346
370
    70
100
AcDbLine
 10
84.50914486180575
 20
143.887933640832
 30
0.0
 11
88.01600221894856
 21
143.887933640832
 31
0.0
  0
LINE
  5
152F
330
1F
100
AcDbEntity
  8
0
 62
     7
 48
0.000108
370
    70
100
AcDbLine
 10
84.50345479037709
 20
143.887933640832
 30
0.0
 11
84.50914486180575
 21
143.887933640832
 31
0.0
  0
LINE
  5
1530
330
1F
100
AcDbEntity
  8
0
 62
     7
 48
0.012608
370
    70
100
AcDbLine
 10
83.83701343323405
 20
143.887933640832
 30
0.0
 11
84.50345479037709
 21
143.887933640832
 31
0.0
  0
SPLINE
  5
1531
330
1F
100
AcDbEntity
  8
0
 62
     7
370
    70
100
AcDbSpline
210
0.0
220
0.0
230
1.0
 70
  1064
 71
     3
 72
    21
 73
    17
 74
    15
 42
0.000000001
 43
0.0000000001
 44
0.0000000001
 40
0.0
 40
0.0
 40
0.0
 40
0.0
 40
2.70101694796786
 40
5.358815504917505
 40
7.952417405191347
 40
12.20078272831414
 40
16.35484057975859
 40
17.95592470376797
 40
22.85280610705188
 40
27.7507825108027
 40
31.0577793572735
 40
35.31016121195398
 40
39.69321947871423
 40
40.58253047322636
 40
41.4769626342202
 40
42.37624741877879
 40
42.37624741877879
 40
42.37624741877879
 40
42.37624741877879
 10
88.70933048616787
 20
123.8907080897726
 30
0.0
 10
87.80999729369478
 20
123.8481379163109
 30
0.0
 10
86.02572094565571
 20
123.7636787255736
 30
0.0
 10
83.37709079155922
 20
123.6555767620801
 30
0.0
 10
80.21230991464632
 20
123.5485919008564
 30
0.0
 10
76.54842839276023
 20
123.4417232930751
 30
0.0
 10
73.2141300480373
 20
123.396911831019
 30
0.0
 10
69.66365772249473
 20
123.3612218609806
 30
0.0
 10
65.86497619924376
 20
123.3312104517669
 30
0.0
 10
61.49779553671894
 20
123.3841108100405
 30
0.0
 10
57.34617302248913
 20
123.466849260146
 30
0.0
 10
53.36694331500767
 20
123.5835075830835
 30
0.0
 10
50.1948515798931
 20
123.7182886100741
 30
0.0
 10
48.14101853030661
 20
123.8034814014838
 30
0.0
 10
47.2475332895009
 20
123.8426617193272
 30
0.0
 10
46.65025748318473
 20
123.8700996014559
 30
0.0
 10
46.35081166140283
 20
123.8838556569919
 30
0.0
 11
88.70933048616787
 21
123.8907080897726
 31
0.0
 11
86.01119641404828
 21
123.7659479916763
 31
0.0
 11
83.35559742861748
 21
123.6578406473258
 31
0.0
 11
80.76352630442368
 21
123.5687446079933
 31
0.0
 11
76.51676367767222
 21
123.4520608013222
 31
0.0
 11
72.36318661611737
 21
123.3888609051772
 31
0.0
 11
70.76218560362931
 21
123.372547408706
 31
0.0
 11
65.86536802713109
 21
123.3475454022714
 31
0.0
 11
60.96765303293897
 21
123.3981486370047
 31
0.0
 11
57.66133385416853
 21
123.4650936193609
 31
0.0
 11
53.41082844501672
 21
123.5914075330319
 31
0.0
 11
49.03126897096472
 21
123.7665034583321
 31
0.0
 11
48.14273873333231
 21
123.8037601593811
 31
0.0
 11
47.2491633610375
 21
123.8429002238717
 31
0.0
 11
46.35081166140283
 21
123.8838556569919
 31
0.0
  0
SPLINE
  5
1532
330
1F
100
AcDbEntity
  8
0
 62
     7
370
    70
100
AcDbSpline
210
0.0
220
0.0
230
1.0
 70
  1064
 71
     3
 72
    15
 73
    11
 74
     9
 42
0.000000001
 43
0.0000000001
 44
0.0000000001
 40
0.0
 40
0.0
 40
0.0
 40
0.0
 40
0.0824613396135687
 40
0.1622424188241605
 40
0.2406403543155852
 40
0.3289604097379957
 40
0.3810465049952864
 40
0.3932241382643108
 40
0.4028718527225971
 40
0.4113349779063909
 40
0.4113349779063909
 40
0.4113349779063909
 40
0.4113349779063909
 10
88.83433487707792
 20
123.8990795417815
 30
0.0
 10
88.86172562806914
 20
123.9013117264996
 30
0.0
 10
88.91561684200103
 20
123.9057035427087
 30
0.0
 10
88.99533538621051
 20
123.9158466873508
 30
0.0
 10
89.07569179483338
 20
123.9312711422262
 30
0.0
 10
89.14839574648794
 20
123.94637805169
 30
0.0
 10
89.19081906637424
 20
123.9759316083783
 30
0.0
 10
89.20913581826718
 20
123.9923752580613
 30
0.0
 10
89.21454739389787
 20
124.0013729214783
 30
0.0
 10
89.21466555529004
 20
124.0074952034228
 30
0.0
 10
89.21472077165068
 20
124.0103561220512
 30
0.0
 11
88.83433487707792
 21
123.8990795417815
 31
0.0
 11
88.91646991020458
 21
123.9064081749519
 31
0.0
 11
88.9955808847023
 21
123.9167268141077
 31
0.0
 11
89.07268909144772
 21
123.9308887610722
 31
0.0
 11
89.15742183077773
 21
123.9558045206522
 31
0.0
 11
89.20063947245708
 21
123.984876788655
 31
0.0
 11
89.20929291957234
 21
123.9934449042622
 31
0.0
 11
89.21387433201109
 21
124.0019354315918
 31
0.0
 11
89.21472077165068
 21
124.0103561220512
 31
0.0
  0
LINE
  5
1533
330
1F
100
AcDbEntity
  8
0
 62
     7
 48
0.00237
370
    70
100
AcDbLine
 10
88.7093412546627
 20
123.8907074979749
 30
0.0
 11
88.83433518323428
 21
123.8990800694034
 31
0.0
  0
SPLINE
  5
1534
330
1F
100
AcDbEntity
  8
0
 62
     7
370
    70
100
AcDbSpline
210
0.0
220
0.0
230
1.0
 70
  1064
 71
     3
 72
    15
 73
    11
 74
     9
 42
0.000000001
 43
0.0000000001
 44
0.0000000001
 40
0.0
 40
0.0
 40
0.0
 40
0.0
 40
0.1141449336910635
 40
0.227002184684133
 40
0.3439922219905238
 40
0.4550602718311335
 40
0.5118775839520331
 40
0.5208763553517228
 40
0.5284095536230005
 40
0.5351008648590627
 40
0.5351008648590627
 40
0.5351008648590627
 40
0.5351008648590627
 10
88.70960364478143
 20
123.8932991727396
 30
0.0
 10
88.74760942035072
 20
123.8947198816494
 30
0.0
 10
88.82319222377317
 20
123.8975452722813
 30
0.0
 10
88.9377627121169
 20
123.9078818308369
 30
0.0
 10
89.04902484974069
 20
123.9248403448961
 30
0.0
 10
89.1460875244102
 20
123.9405759430783
 30
0.0
 10
89.19228066585864
 20
123.979263927228
 30
0.0
 10
89.20952163485603
 20
123.9965846022688
 30
0.0
 10
89.2135605088497
 20
124.0034069386067
 30
0.0
 10
89.21425367088145
 20
124.008133572825
 30
0.0
 10
89.21457973926992
 20
124.0103570154427
 30
0.0
 11
88.70960364478143
 21
123.8932991727396
 31
0.0
 11
88.82362674489419
 21
123.8985716036795
 31
0.0
 11
88.93601506031469
 21
123.9088490381188
 31
0.0
 11
89.05181917507944
 21
123.925464567978
 31
0.0
 11
89.15872502430445
 21
123.9555851771497
 31
0.0
 11
89.20348844966325
 21
123.9905772149125
 31
0.0
 11
89.20956665176806
 21
123.9972129775572
 31
0.0
 11
89.21320749746106
 21
124.003807924019
 31
0.0
 11
89.21457973926992
 21
124.0103570154427
 31
0.0
  0
LINE
  5
1535
330
1F
100
AcDbEntity
  8
0
 62
     7
 48
0.000103
370
    70
100
AcDbLine
 10
89.21472029037708
 20
124.0103562479748
 30
0.0
 11
89.21474275466287
 21
124.0157939265463
 31
0.0
  0
ELLIPSE
  5
1536
330
1F
100
AcDbEntity
  8
0
 62
     7
370
    70
100
AcDbEllipse
 10
88.01070989752004
 20
142.5319417836892
 30
0.0
 11
-0.1049285605549621
 21
-1.352132388523646
 31
0.0
210
0.0
220
0.0
230
1.0
 40
0.97437
 41
1.65027359513605
 42
3.217068570146972
  0
ELLIPSE
  5
1537
330
1F
100
AcDbEntity
  8
0
 62
     7
370
    70
100
AcDbEllipse
 10
67.52878771894841
 20
88.03825985511776
 30
0.0
 11
25.97291639872957
 21
0.0
 31
0.0
210
0.0
220
0.0
230
1.0
 40
0.9848079999999995
 41
2.070796326794904
 42
8.353981633974488
  0
LINE
  5
1538
330
1F
100
AcDbEntity
  8
0
 62
     7
 48
0.4633720000000002
370
    70
100
AcDbLine
 10
47.70735914752019
 20
77.10406081940355
 30
0.0
 11
47.70735914752019
 21
101.5965847836892
 31
0.0
  0
LINE
  5
1539
330
1F
100
AcDbEntity
  8
0
 62
     7
 48
0.05718
370
    70
100
AcDbLine
 10
87.35021629037687
 20
101.5965847836892
 30
0.0
 11
87.35021629037687
 21
98.57422128368916
 31
0.0
  0
LINE
  5
153A
330
1F
100
AcDbEntity
  8
0
 62
     7
 48
0.459844
370
    70
100
AcDbLine
 10
87.35021629037687
 20
98.57422128368916
 30
0.0
 11
87.35021629037687
 21
74.26816939083209
 31
0.0
  0
SPLINE
  5
153B
330
1F
100
AcDbEntity
  8
0
 62
     7
370
    70
100
AcDbSpline
210
0.0
220
0.0
230
1.0
 70
  1064
 71
     3
 72
    15
 73
    11
 74
     9
 42
0.000000001
 43
0.0000000001
 44
0.0000000001
 40
0.0
 40
0.0
 40
0.0
 40
0.0
 40
0.1674987027607813
 40
0.3252796972136298
 40
0.4719806203406712
 40
0.6742529811015958
 40
0.9019521221899536
 40
0.9497515017235762
 40
0.9997751655352306
 40
1.052761028755718
 40
1.052761028755718
 40
1.052761028755718
 40
1.052761028755718
 10
87.35021629037687
 20
74.26816969065609
 30
0.0
 10
87.3553195333927
 20
74.21158916256159
 30
0.0
 10
87.3652299465221
 20
74.10171071727565
 30
0.0
 10
87.2958327702217
 20
73.95455055833884
 30
0.0
 10
87.19816586045693
 20
73.81851746301633
 30
0.0
 10
87.05701166137114
 20
73.67771828400214
 30
0.0
 10
86.89588633068053
 20
73.64481574347355
 30
0.0
 10
86.79129058864132
 20
73.61686864462592
 30
0.0
 10
86.74149543587077
 20
73.60877543372345
 30
0.0
 10
86.70716224981413
 20
73.60750500178875
 30
0.0
 10
86.68950200466269
 20
73.60685151919679
 30
0.0
 11
87.35021629037687
 21
74.26816969065609
 31
0.0
 11
87.35021629037687
 21
74.10067098789531
 31
0.0
 11
87.29046742915581
 21
73.95464045754869
 31
0.0
 11
87.20566665306739
 21
73.83493252455706
 31
0.0
 11
87.05443641783045
 21
73.70060633992437
 31
0.0
 11
86.83821360546925
 21
73.62922991337477
 31
0.0
 11
86.79179811155604
 21
73.61781139295429
 31
0.0
 11
86.74239786893691
 21
73.60993846654086
 31
0.0
 11
86.68950200466269
 21
73.60685151919679
 31
0.0
  0
ELLIPSE
  5
153C
330
1F
100
AcDbEntity
  8
0
 62
     7
370
    70
100
AcDbEllipse
 10
67.52878771894841
 20
85.4871098551178
 30
0.0
 11
-71.04813875470836
 21
0.0
 31
0.0
210
0.0
220
0.0
230
1.0
 40
0.173648
 41
1.297729019780975
 42
1.84386363380883
  0
SPLINE
  5
153D
330
1F
100
AcDbEntity
  8
0
 62
     7
370
    70
100
AcDbSpline
210
0.0
220
0.0
230
1.0
 70
  1064
 71
     3
 72
    15
 73
    11
 74
     9
 42
0.000000001
 43
0.0000000001
 44
0.0000000001
 40
0.0
 40
0.0
 40
0.0
 40
0.0
 40
0.1062220636703643
 40
0.2016648711154011
 40
0.2892534465127529
 40
0.4964929976596489
 40
0.6897253177637479
 40
0.8020313214969768
 40
0.9192219645366646
 40
1.04348900415555
 40
1.04348900415555
 40
1.04348900415555
 40
1.04348900415555
 10
48.36807343323449
 20
73.60685151919347
 30
0.0
 10
48.33249910808088
 20
73.60716015447647
 30
0.0
 10
48.26496048710868
 20
73.60774610519538
 30
0.0
 10
48.17161040422774
 20
73.63579335349446
 30
0.0
 10
48.05319973890755
 20
73.68859826335621
 30
0.0
 10
47.90604071139959
 20
73.76600007310556
 30
0.0
 10
47.80256035467174
 20
73.90718184486722
 30
0.0
 10
47.73673348054578
 20
74.03123527502053
 30
0.0
 10
47.69935791671634
 20
74.14547287183729
 30
0.0
 10
47.70464046539472
 20
74.22647939941341
 30
0.0
 10
47.70735914752019
 20
74.26816969172818
 30
0.0
 11
48.36807343323449
 21
73.60685151919347
 31
0.0
 11
48.26203179267885
 21
73.61303999870461
 31
0.0
 11
48.17003723394819
 21
73.63846303268838
 31
0.0
 11
48.08955173544468
 21
73.67301506693789
 31
0.0
 11
47.91251107361704
 21
73.78074080954011
 31
0.0
 11
47.79186097592527
 21
73.93167882151781
 31
0.0
 11
47.74024572040406
 21
74.03142100854019
 31
0.0
 11
47.70735914752019
 21
74.1439026521093
 31
0.0
 11
47.70735914752019
 21
74.26816969172818
 31
0.0
  0
LINE
  5
153E
330
1F
100
AcDbEntity
  8
0
 62
     7
 48
0.053652
370
    70
100
AcDbLine
 10
47.70735914752019
 20
74.26816939083209
 30
0.0
 11
47.70735914752019
 21
77.10406081940355
 31
0.0
  0
LINE
  5
153F
330
1F
100
AcDbEntity
  8
0
 62
     7
 48
0.000276
370
    70
100
AcDbLine
 10
86.68950200466269
 20
73.60685121226065
 30
0.0
 11
86.68950200466269
 21
73.62141996226069
 31
0.0
  0
ELLIPSE
  5
1540
330
1F
100
AcDbEntity
  8
0
 62
     7
370
    70
100
AcDbEllipse
 10
86.68956146894847
 20
74.25340242654647
 30
0.0
 11
0.6191652374608172
 21
0.2446045465767384
 31
0.0
210
0.0
220
0.0
230
1.0
 40
0.9420659999999999
 41
4.356013998880479
 42
5.926905707884865
  0
LINE
  5
1541
330
1F
100
AcDbEntity
  8
0
 62
     7
 48
0.000276
370
    70
100
AcDbLine
 10
48.36807343323449
 20
73.60685121226065
 30
0.0
 11
48.36807343323449
 21
73.62141996226069
 31
0.0
  0
ELLIPSE
  5
1542
330
1F
100
AcDbEntity
  8
0
 62
     7
370
    70
100
AcDbEllipse
 10
48.36801396894857
 20
74.25340242654647
 30
0.0
 11
0.6191651980791803
 21
-0.24460460564919
 31
0.0
210
0.0
220
0.0
230
1.0
 40
0.9420659999999996
 41
3.497872362755571
 42
5.068764088829128
  0
LINE
  5
1543
330
1F
100
AcDbEntity
  8
0
 62
     7
 48
0.028902
370
    70
100
AcDbLine
 10
34.54643932609163
 20
85.4019821051178
 30
0.0
 11
34.39290254037711
 21
86.92190510511791
 31
0.0
  0
ARC
  5
1544
330
1F
100
AcDbEntity
  8
0
 62
     7
370
    70
100
AcDbCircle
 10
66.68362579037712
 20
88.66537417654646
 30
0.0
 40
32.30283017857143
100
AcDbArc
 50
185.8049590000002
 51
209.0442130000001
  0
ARC
  5
1545
330
1F
100
AcDbEntity
  8
0
 62
     7
370
    70
100
AcDbCircle
 10
67.06889489751974
 20
88.8823395336893
 30
0.0
 40
32.74587214285713
100
AcDbArc
 50
209.0488289999993
 51
229.3803290000003
  0
ARC
  5
1546
330
1F
100
AcDbEntity
  8
0
 62
     7
370
    70
100
AcDbCircle
 10
65.70483307609127
 20
73.74121010511777
 30
0.0
 40
22.1390689285714
100
AcDbArc
 50
206.6205739999995
 51
209.1196599999996
  0
SPLINE
  5
1547
330
1F
100
AcDbEntity
  8
0
 62
     7
370
    70
100
AcDbSpline
210
0.0
220
0.0
230
1.0
 70
  1064
 71
     3
 72
    49
 73
    45
 74
    43
 42
0.000000001
 43
0.0000000001
 44
0.0000000001
 40
0.0
 40
0.0
 40
0.0
 40
0.0
 40
1.605049995921558
 40
2.402464915492142
 40
3.604437130108899
 40
4.817739999130457
 40
6.042233447965855
 40
7.27767015357703
 40
8.5237723942256
 40
9.780197181656568
 40
11.04655129660477
 40
12.32237131558741
 40
13.60710951996273
 40
14.90013954267083
 40
16.20077666866982
 40
17.50830511361036
 40
18.82198733414322
 40
20.1410622234929
 40
21.46474099929895
 40
22.79220385680054
 40
24.12259465974578
 40
25.45501558361323
 40
26.78851965231991
 40
28.12210944348835
 40
29.45476703339901
 40
30.78549298478369
 40
32.11333806905769
 40
33.43740282668353
 40
34.75683051165859
 40
36.07080145535339
 40
37.37852956754445
 40
38.67925828129698
 40
39.97226158843994
 40
41.25685875757732
 40
42.5324359726429
 40
43.79845991260301
 40
45.0544751775523
 40
46.30009331581764
 40
47.53479223842781
 40
48.75829841880552
 40
49.97037583391144
 40
51.1710546483586
 40
51.96758708071342
 40
52.36385647672729
 40
52.36385647672729
 40
52.36385647672729
 40
52.36385647672729
 10
89.28276934172561
 20
64.02628453833597
 30
0.0
 10
89.02544012125732
 20
63.55721115183055
 30
0.0
 10
88.6402655625352
 20
62.85509448460281
 30
0.0
 10
88.0336661976484
 20
61.81762958766359
 30
0.0
 10
87.43520081957599
 20
60.92861279895167
 30
0.0
 10
86.71083751968707
 20
59.95481873710136
 30
0.0
 10
85.9268871268704
 20
59.01344347891049
 30
0.0
 10
85.08697065703914
 20
58.1068023008477
 30
0.0
 10
84.19221485827204
 20
57.23882336661771
 30
0.0
 10
83.24478138223112
 20
56.41291168616004
 30
0.0
 10
82.24691273251691
 20
55.632502856124
 30
0.0
 10
81.20119540801047
 20
54.90088592003559
 30
0.0
 10
80.11048851777266
 20
54.22122949422327
 30
0.0
 10
78.97793702785555
 20
53.5965372289945
 30
0.0
 10
77.80694709560215
 20
53.02960472094395
 30
0.0
 10
76.60114943595814
 20
52.52299998357052
 30
0.0
 10
75.36437364853199
 20
52.07903826985081
 30
0.0
 10
74.10062781968105
 20
51.69976917190644
 30
0.0
 10
72.81408271587178
 20
51.38696342427131
 30
0.0
 10
71.50905623279911
 20
51.14210050158639
 30
0.0
 10
70.1899976166526
 20
50.96635571072582
 30
0.0
 10
68.86147195718509
 20
50.86058717842971
 30
0.0
 10
67.52814216181571
 20
50.82532305650179
 30
0.0
 10
66.19473755221361
 20
50.86074776643444
 30
0.0
 10
64.86600648394542
 20
50.96670138606074
 30
0.0
 10
63.54665560305242
 20
51.1426626977617
 30
0.0
 10
62.24130135253893
 20
51.38777483450324
 30
0.0
 10
60.95443818038575
 20
51.70085526524506
 30
0.0
 10
59.69042078595621
 20
52.08041183370786
 30
0.0
 10
58.45344852228937
 20
52.52465661009177
 30
0.0
 10
57.24754995006645
 20
53.03152037688228
 30
0.0
 10
56.07656542810168
 20
53.59866627385082
 30
0.0
 10
54.94412635266332
 20
54.2235093203907
 30
0.0
 10
53.85362491913504
 20
54.90323578209403
 30
0.0
 10
52.80818581520725
 20
55.63483449450583
 30
0.0
 10
51.81065324861524
 20
56.41514023195617
 30
0.0
 10
50.86359324894811
 20
57.24085980755564
 30
0.0
 10
49.96928902656685
 20
58.10851858784977
 30
0.0
 10
49.12988266106239
 20
59.01463804077447
 30
0.0
 10
48.34667494274618
 20
59.95532035833817
 30
0.0
 10
47.62257536614977
 20
60.92792610063873
 30
0.0
 10
47.02594198859372
 20
61.81665552247368
 30
0.0
 10
46.6202358784547
 20
62.50395756197683
 30
0.0
 10
46.42791620555047
 20
62.85195102303436
 30
0.0
 10
46.36402428418447
 20
62.96756046908847
 30
0.0
 11
89.28276934172561
 21
64.02628453833597
 31
0.0
 11
88.50223788555508
 21
62.62380240464011
 31
0.0
 11
88.09602892520151
 21
61.93760648911581
 31
0.0
 11
87.42969574125806
 21
60.93723791069757
 31
0.0
 11
86.70436354981431
 21
59.96461410673669
 31
0.0
 11
85.92116933955775
 21
59.02334313870389
 31
0.0
 11
85.08155507253285
 21
58.11705856078169
 31
0.0
 11
84.18723169233329
 21
57.24932790799948
 31
0.0
 11
83.24019992432269
 21
56.42365601381289
 31
0.0
 11
82.24273812576972
 21
55.64344917913778
 31
0.0
 11
81.19741329251949
 21
54.91200354627968
 31
0.0
 11
80.10708674743083
 21
54.23248880850238
 31
0.0
 11
78.9749066523942
 21
53.60791305486848
 31
0.0
 11
77.8042842580307
 21
53.04107961959707
 31
0.0
 11
76.59885204211004
 21
52.53455833954139
 31
0.0
 11
75.36243781328419
 21
52.0906655244372
 31
0.0
 11
74.09904747408205
 21
51.71145131778931
 31
0.0
 11
72.81284989011992
 21
51.39868738679768
 31
0.0
 11
71.50816052950751
 21
51.1538541571268
 31
0.0
 11
70.18942625911375
 21
50.97812819817278
 31
0.0
 11
68.86120919414722
 21
50.87236928984117
 31
0.0
 11
67.5281714201029
 21
50.83710749425069
 31
0.0
 11
66.1950521601449
 21
50.87253022477359
 31
0.0
 11
64.86661242435818
 21
50.97847417377209
 31
0.0
 11
63.54756913092508
 21
51.15441833462381
 31
0.0
 11
62.24253805878915
 21
51.39950294978837
 31
0.0
 11
60.95601070153186
 21
51.71254422728281
 31
0.0
 11
59.69233917018694
 21
52.09204874207419
 31
0.0
 11
58.45572084888821
 21
52.53622749922328
 31
0.0
 11
57.25018193707142
 21
53.04301024114568
 31
0.0
 11
56.07956206271821
 21
53.61005900143847
 31
0.0
 11
54.94749501748301
 21
54.23478434699049
 31
0.0
 11
53.85737707083862
 21
54.91436712293438
 31
0.0
 11
52.81233494571818
 21
55.64579325612777
 31
0.0
 11
51.8152104808061
 21
56.42589544047666
 31
0.0
 11
50.86855490223381
 21
57.25137564093188
 31
0.0
 11
49.97463316745457
 21
58.11882505067568
 31
0.0
 11
49.13555740136289
 21
59.0246027763084
 31
0.0
 11
48.3529999011257
 21
59.96511919415818
 31
0.0
 11
47.62835803295327
 21
60.93672910718986
 31
0.0
 11
46.96264832006632
 21
61.9359589074011
 31
0.0
 11
46.55678891897347
 21
62.6213362212492
 31
0.0
 11
46.36402428418447
 21
62.96756046908847
 31
0.0
  0
ELLIPSE
  5
1548
330
1F
100
AcDbEntity
  8
0
 62
     7
370
    70
100
AcDbEllipse
 10
67.52872429037686
 20
88.64091189083206
 30
0.0
 11
32.9398381459017
 21
4.114295063908159
 31
0.0
210
0.0
220
0.0
230
1.0
 40
0.9855340874459368
 41
5.305708689701755
 42
6.104721786036713
  0
SPLINE
  5
1549
330
1F
100
AcDbEntity
  8
0
 62
     7
370
    70
100
AcDbSpline
210
0.0
220
0.0
230
1.0
 70
  1064
 71
     3
 72
    41
 73
    37
 74
    35
 42
0.000000001
 43
0.0000000001
 44
0.0000000001
 40
0.0
 40
0.0
 40
0.0
 40
0.0
 40
0.0116766144149949
 40
0.0347314917286552
 40
0.0689001382599051
 40
0.1022655149826077
 40
0.1349235085763818
 40
0.16695822764414
 40
0.1984461274882132
 40
0.2294563152008064
 40
0.2600539429659152
 40
0.2902980970682028
 40
0.3202462609284918
 40
0.3499506233515022
 40
0.3794649426520624
 40
0.4088397296484171
 40
0.4381289210343035
 40
0.4673833255609218
 40
0.4966579153329257
 40
0.5260045754016655
 40
0.5554805530548946
 40
0.5851405118759726
 40
0.6150473483815194
 40
0.6452636139611539
 40
0.6758638628002617
 40
0.7069227449037705
 40
0.738528295831011
 40
0.7707743660871712
 40
0.8037714785504205
 40
0.8376432333665864
 40
0.8725323511539512
 40
0.9086052659392784
 40
0.946057262793303
 40
0.9851240716651943
 40
1.011728522649261
 40
1.025340060475927
 40
1.025340060475927
 40
1.025340060475927
 40
1.025340060475927
 10
47.70735914752019
 20
101.596584841971
 30
0.0
 10
47.70734745487132
 20
101.600477026979
 30
0.0
 10
47.70731267568596
 20
101.6120541320033
 30
0.0
 10
47.70785934501072
 20
101.6350217703311
 30
0.0
 10
47.71024314644807
 20
101.6651406453191
 30
0.0
 10
47.71438194499611
 20
101.6982914246296
 30
0.0
 10
47.72005116248917
 20
101.7304962173517
 30
0.0
 10
47.72712264358005
 20
101.7617791191653
 30
0.0
 10
47.73554025068125
 20
101.7921574767004
 30
0.0
 10
47.74524226739646
 20
101.8216459351297
 30
0.0
 10
47.75617956690306
 20
101.850255240589
 30
0.0
 10
47.76830981102072
 20
101.8779933060225
 30
0.0
 10
47.78159704839464
 20
101.9048641697356
 30
0.0
 10
47.79601161078039
 20
101.9308695894246
 30
0.0
 10
47.81152903735083
 20
101.956007974338
 30
0.0
 10
47.82813093269961
 20
101.9802762155868
 30
0.0
 10
47.84580367285334
 20
102.0036676466878
 30
0.0
 10
47.86453935403599
 20
102.0261733383819
 30
0.0
 10
47.88433402213143
 20
102.0477796439948
 30
0.0
 10
47.90518900236563
 20
102.0684696146681
 30
0.0
 10
47.92710890162838
 20
102.0882205590506
 30
0.0
 10
47.95010379542043
 20
102.1070058280327
 30
0.0
 10
47.97418743013806
 20
102.124792469954
 30
0.0
 10
47.99938066017758
 20
102.1415429056337
 30
0.0
 10
48.02570891472654
 20
102.1572116907942
 30
0.0
 10
48.05320566222673
 20
102.1717458741034
 30
0.0
 10
48.08190989845442
 20
102.1850818371856
 30
0.0
 10
48.11187027930175
 20
102.1971451571139
 30
0.0
 10
48.1431440674853
 20
102.2078465864624
 30
0.0
 10
48.17579996567751
 20
102.2170809859679
 30
0.0
 10
48.20991854298785
 20
102.2247151990665
 30
0.0
 10
48.24559438371537
 20
102.230610716431
 30
0.0
 10
48.28293922299074
 20
102.2345100606712
 30
0.0
 10
48.3173005624635
 20
102.2362083112191
 30
0.0
 10
48.34373668533086
 20
102.23570735769
 30
0.0
 10
48.3571236282065
 20
102.23500569979
 30
0.0
 10
48.36165458429447
 20
102.2347682160595
 30
0.0
 11
47.70735914752019
 21
101.596584841971
 31
0.0
 11
47.70735914752019
 21
101.608261456386
 31
0.0
 11
47.70794189313461
 21
101.6313089676507
 31
0.0
 11
47.71052349620743
 21
101.6653799484313
 31
0.0
 11
47.71468948454645
 21
101.698484221645
 31
0.0
 11
47.72034616489571
 21
101.7306485887769
 31
0.0
 11
47.72741359861702
 21
101.7618939821389
 31
0.0
 11
47.73582346866574
 21
101.7922380412338
 31
0.0
 11
47.74551720777703
 21
101.8216941639252
 31
0.0
 11
47.7564452786559
 21
101.8502737386547
 31
0.0
 11
47.76856511452647
 21
101.8779832755659
 31
0.0
 11
47.78184136238819
 21
101.9048278981432
 31
0.0
 11
47.79624340395671
 21
101.9308073197229
 31
0.0
 11
47.81174759787919
 21
101.9559213599114
 31
0.0
 11
47.82833438863099
 21
101.9801650494746
 31
0.0
 11
47.8459913879701
 21
102.0035335561958
 31
0.0
 11
47.86470921864331
 21
102.0260160604846
 31
0.0
 11
47.88448545880783
 21
102.047600822037
 31
0.0
 11
47.90531950462599
 21
102.0682688890012
 31
0.0
 11
47.92721780110871
 21
102.0879995217779
 31
0.0
 11
47.95018768182724
 21
102.1067637893374
 31
0.0
 11
47.97424501619842
 21
102.1245307117699
 31
0.0
 11
47.99940722235872
 21
102.1412605081442
 31
0.0
 11
48.02570292661433
 21
102.1569101460543
 31
0.0
 11
48.0531616372392
 21
102.1714247376207
 31
0.0
 11
48.08182440309973
 21
102.1847422712752
 31
0.0
 11
48.11173640731457
 21
102.1967872308358
 31
0.0
 11
48.1429558027413
 21
102.2074717420601
 31
0.0
 11
48.17554917273229
 21
102.2166895512877
 31
0.0
 11
48.20959530412371
 21
102.2243126397208
 31
0.0
 11
48.24518682062704
 21
102.2301862360725
 31
0.0
 11
48.28243153019076
 21
102.2341211665507
 31
0.0
 11
48.32145854729184
 21
102.2358839744315
 31
0.0
 11
48.34805911443271
 21
102.2354293977627
 31
0.0
 11
48.36165458429447
 21
102.2347682160595
 31
0.0
  0
ELLIPSE
  5
154A
330
1F
100
AcDbEntity
  8
0
 62
     7
370
    70
100
AcDbEllipse
 10
67.52878771894841
 20
114.1229268551176
 30
0.0
 11
71.08280972072051
 21
0.0
 31
0.0
210
0.0
220
0.0
230
1.0
 40
0.173677
 41
4.439364490818736
 42
4.985413470555136
  0
SPLINE
  5
154B
330
1F
100
AcDbEntity
  8
0
 62
     7
370
    70
100
AcDbSpline
210
0.0
220
0.0
230
1.0
 70
  1064
 71
     3
 72
    41
 73
    37
 74
    35
 42
0.000000001
 43
0.0000000001
 44
0.0000000001
 40
0.0
 40
0.0
 40
0.0
 40
0.0
 40
0.0136114157546147
 40
0.0402152325506134
 40
0.0792810003803924
 40
0.1167321372551664
 40
0.1528045807175949
 40
0.1876936794210098
 40
0.2215657799631127
 40
0.2545637831422931
 40
0.2868106726814404
 40
0.3184165772462177
 40
0.3494755683064399
 40
0.3800762225907779
 40
0.4102929067759963
 40
0.4401991707461312
 40
0.469856983723408
 40
0.4993296787276399
 40
0.5286732365993844
 40
0.5579460922682064
 40
0.5872007343803995
 40
0.6164921552257738
 40
0.6458705591200271
 40
0.6753886429944963
 40
0.7050955430500503
 40
0.7350445502074355
 40
0.765288455328763
 40
0.7958857585791727
 40
0.8268959027926747
 40
0.8583836521909171
 40
0.8904178288207827
 40
0.9230751210253879
 40
0.956440171756081
 40
0.9906086940484176
 40
1.013663550762985
 40
1.025340018466549
 40
1.025340018466549
 40
1.025340018466549
 40
1.025340018466549
 10
86.6959208528852
 20
102.2347682161174
 30
0.0
 10
86.70045176827562
 20
102.2350056989613
 30
0.0
 10
86.71383845922512
 20
102.2357073473399
 30
0.0
 10
86.74027398568084
 20
102.2362082319548
 30
0.0
 10
86.77463447006791
 20
102.2345099560899
 30
0.0
 10
86.81197856047871
 20
102.2306110864712
 30
0.0
 10
86.84765398854336
 20
102.2247157896237
 30
0.0
 10
86.88177251372543
 20
102.2170815825501
 30
0.0
 10
86.91442889920933
 20
102.2078474300308
 30
0.0
 10
86.94570341971104
 20
102.1971460020211
 30
0.0
 10
86.97566440292744
 20
102.1850823306582
 30
0.0
 10
87.00436902677273
 20
102.1717461912049
 30
0.0
 10
87.03186603990614
 20
102.1572118946285
 30
0.0
 10
87.05819463727893
 20
102.1415430759414
 30
0.0
 10
87.08338791991776
 20
102.1247925637501
 30
0.0
 10
87.1074709123226
 20
102.1070063427006
 30
0.0
 10
87.13046421055153
 20
102.088222284885
 30
0.0
 10
87.15238205832994
 20
102.0684733194588
 30
0.0
 10
87.17323536078543
 20
102.0477855073211
 30
0.0
 10
87.19302939390653
 20
102.0261807028689
 30
0.0
 10
87.21176570762006
 20
102.0036752196993
 30
0.0
 10
87.22944010527569
 20
101.9802824953308
 30
0.0
 10
87.24604410051359
 20
101.95601180294
 30
0.0
 10
87.26156335095698
 20
101.9308706523804
 30
0.0
 10
87.27597900000374
 20
101.9048631088195
 30
0.0
 10
87.2892665811462
 20
101.8779912494783
 30
0.0
 10
87.30139673181955
 20
101.8502530463304
 30
0.0
 10
87.31233392111493
 20
101.8216439196858
 30
0.0
 10
87.32203579879831
 20
101.7921555963806
 30
0.0
 10
87.3304532182853
 20
101.7617774410276
 30
0.0
 10
87.33752443472118
 20
101.7304949560089
 30
0.0
 10
87.34319351996402
 20
101.6982906769371
 30
0.0
 10
87.34733246598123
 20
101.6651402998014
 30
0.0
 10
87.34971606556417
 20
101.635021566754
 30
0.0
 10
87.35026281447188
 20
101.6120540286618
 30
0.0
 10
87.35022799610707
 20
101.600476979213
 30
0.0
 10
87.35021629037687
 20
101.5965848430432
 30
0.0
 11
86.6959208528852
 21
102.2347682161174
 31
0.0
 11
86.70951620084528
 21
102.2354293913509
 31
0.0
 11
86.73611613464492
 21
102.2358839130441
 31
0.0
 11
86.77514211197054
 21
102.2341211567049
 31
0.0
 11
86.81238599564883
 21
102.2301865942424
 31
0.0
 11
86.84797707396471
 21
102.2243132373094
 31
0.0
 11
86.88202320602217
 21
102.2166902391943
 31
0.0
 11
86.91461698790204
 21
102.2074726159702
 31
0.0
 11
86.94583729171169
 21
102.1967880081699
 31
0.0
 11
86.9757500444828
 21
102.184742714209
 31
0.0
 11
87.00441312561215
 21
102.1714250198316
 31
0.0
 11
87.03187195204487
 21
102.1569104142008
 31
0.0
 11
87.05816805430101
 21
102.1412606522613
 31
0.0
 11
87.08333060327497
 21
102.1245306154328
 31
0.0
 11
87.1073874432932
 21
102.1067639873625
 31
0.0
 11
87.13035563087691
 21
102.088001039041
 31
0.0
 11
87.15225156063555
 21
102.0682726835389
 31
0.0
 11
87.17308364846372
 21
102.0476070476839
 31
0.0
 11
87.19285911403067
 21
102.0260239283399
 31
0.0
 11
87.21157756500081
 21
102.00354163134
 31
0.0
 11
87.22923633610445
 21
101.9801716690326
 31
0.0
 11
87.2458254545266
 21
101.9559251895902
 31
0.0
 11
87.26133171732458
 21
101.9308080024535
 31
0.0
 11
87.27573492845513
 21
101.9048263277569
 31
0.0
 11
87.28901142814725
 21
101.8779808889332
 31
0.0
 11
87.30113104762933
 21
101.8502715291319
 31
0.0
 11
87.31205894308249
 21
101.8216922347536
 31
0.0
 11
87.32175258651007
 21
101.7922361263677
 31
0.0
 11
87.33016229236829
 21
101.7618921778846
 31
0.0
 11
87.33722946872958
 21
101.7306472824514
 31
0.0
 11
87.34288600459498
 21
101.6984836020628
 31
0.0
 11
87.34705204294
 21
101.6653796637054
 31
0.0
 11
87.34963356016868
 21
101.6313088010154
 31
0.0
 11
87.35021632122005
 21
101.6082613107467
 31
0.0
 11
87.35021629037687
 21
101.5965848430432
 31
0.0
  0
ARC
  5
154C
330
1F
100
AcDbEntity
  8
0
 62
     7
370
    70
100
AcDbCircle
 10
44.40462021894857
 20
119.5938406765463
 30
0.0
 40
1.320586821428569
100
AcDbArc
 50
312.2897770000018
 51
0.0076139999992351
  0
ELLIPSE
  5
154D
330
1F
100
AcDbEntity
  8
0
 62
     7
370
    70
100
AcDbEllipse
 10
67.52883661180577
 20
93.75784142654646
 30
0.0
 11
1.624309931483036
 21
-33.52756009783063
 31
0.0
210
0.0
220
0.0
230
0.9999999999999998
 40
0.9841399999999993
 41
3.83076660909843
 42
4.647769990126462
  0
LINE
  5
154E
330
1F
100
AcDbEntity
  8
0
 62
     7
 48
0.281995
370
    70
100
AcDbLine
 10
52.72878771894856
 20
143.887933640832
 30
0.0
 11
52.72878771894856
 21
146.4422184556672
 31
0.0
  0
ELLIPSE
  5
154F
330
1F
100
AcDbEntity
  8
0
 62
     7
370
    70
100
AcDbEllipse
 10
67.52873882609161
 20
93.75784142654646
 30
0.0
 11
-1.624309931482096
 21
-33.52756009783066
 31
0.0
210
0.0
220
0.0
230
1.0
 40
0.9841399999999993
 41
1.635414054601285
 42
2.452418697628466
  0
LINE
  5
1550
330
1F
100
AcDbEntity
  8
0
 62
     7
370
    70
100
AcDbLine
 10
54.52378403964708
 20
146.4437340353484
 30
0.0
 11
83.02897212244149
 21
146.4276960353485
 31
0.0
  0
LINE
  5
1551
330
1F
100
AcDbEntity
  8
0
 62
     7
 48
0.281995
370
    70
100
AcDbLine
 10
82.32878771894844
 20
143.887933640832
 30
0.0
 11
82.32878771894844
 21
146.4422184556672
 31
0.0
  0
ARC
  5
1552
330
1F
100
AcDbEntity
  8
0
 62
     7
370
    70
100
AcDbCircle
 10
90.65295521894841
 20
119.5938406765463
 30
0.0
 40
1.320586821428569
100
AcDbArc
 50
179.9923860000007
 51
227.7102229999981
  0
LINE
  5
1553
330
1F
100
AcDbEntity
  8
0
 62
     7
 48
0.000249
370
    70
100
AcDbLine
 10
89.33235914751973
 20
138.0448828765833
 30
0.0
 11
89.33235914751973
 21
138.0317042694402
 31
0.0
  0
ARC
  5
1554
330
1F
100
AcDbEntity
  8
0
 62
     7
370
    70
100
AcDbCircle
 10
35.5289721224415
 20
138.4276960353485
 30
0.0
 40
8.0
100
AcDbArc
 50
89.99999999999348
 51
180.0
  0
LINE
  5
1555
330
1F
100
AcDbEntity
  8
0
 62
     7
 48
0.4125
370
    70
100
AcDbLine
 10
35.5289721224415
 20
146.4276960353485
 30
0.0
 11
54.52378403964708
 21
146.4437340353484
 31
0.0
  0
LINE
  5
1556
330
1F
100
AcDbEntity
  8
0
 62
     7
 48
0.4125
370
    70
100
AcDbLine
 10
83.02897212244149
 20
146.4276960353485
 30
0.0
 11
99.52897212244149
 21
146.4276960353485
 31
0.0
  0
ARC
  5
1557
330
1F
100
AcDbEntity
  8
0
 62
     7
370
    70
100
AcDbCircle
 10
99.52897212244149
 20
138.4276960353485
 30
0.0
 40
8.0
100
AcDbArc
 50
0.0
 51
89.99999999999348
  0
DIMENSION
  5
15E0
330
1F
100
AcDbEntity
  8
0
 62
     1
100
AcDbDimension
  2
*D18
 10
-47.78406042354709
 20
-13.50055135813827
 30
0.0
 11
-85.41226200436302
 21
-13.50055135813827
 31
0.0
 70
   160
 71
     0
 42
66.0000000000004
  3
Standard
100
AcDbAlignedDimension
 13
-113.7840604235475
 23
10.81868893552052
 33
0.0
 14
-47.78406042354709
 24
28.48412887510042
 34
0.0
100
AcDbRotatedDimension
1001
ACAD
1000
DSTYLE
1002
{
1070
    41
1040
6.0
1070
   140
1040
7.0
1070
   271
1070
     1
1002
}
  0
LINE
  5
15E1
330
1F
100
AcDbEntity
  8
0
 62
     7
100
AcDbLine
 10
-113.7840604235475
 20
160.7561889355205
 30
0.0
 11
-113.7840604235475
 21
10.75618893552052
 31
0.0
  0
LINE
  5
15E2
330
1F
100
AcDbEntity
  8
0
 62
     7
100
AcDbLine
 10
-113.7840604235475
 20
10.75618893552052
 30
0.0
 11
-51.08398707786108
 21
10.75618893552052
 31
0.0
  0
LINE
  5
15E3
330
1F
100
AcDbEntity
  8
0
 62
     7
100
AcDbLine
 10
-49.43402375070502
 20
159.1062256083624
 30
0.0
 11
-49.43402375070411
 21
12.40615226267851
 31
0.0
  0
ARC
  5
15E4
330
1F
100
AcDbEntity
  8
0
 62
     7
100
AcDbCircle
 10
-51.08398707786108
 20
12.40615226267851
 30
0.0
 40
1.649963327156999
100
AcDbArc
 50
269.9999999999838
 51
0.0
  0
LINE
  5
15E5
330
1F
100
AcDbEntity
  8
0
 62
     7
100
AcDbLine
 10
-47.78406042354709
 20
141.6532795566414
 30
0.0
 11
-47.78406042354709
 21
28.48412887510042
 31
0.0
  0
LINE
  5
15E6
330
1F
100
AcDbEntity
  8
0
 62
     7
100
AcDbLine
 10
-49.43402375070502
 20
27.38415332366239
 30
0.0
 11
-48.88403597498506
 21
27.38415332366239
 31
0.0
  0
ARC
  5
15E7
330
1F
100
AcDbEntity
  8
0
 62
     7
100
AcDbCircle
 10
-48.88403597498506
 20
28.48412887510042
 30
0.0
 40
1.099975551438
100
AcDbArc
 50
269.9999999999838
 51
0.0
  0
CIRCLE
  5
15E8
330
1F
100
AcDbEntity
  8
0
 62
     7
100
AcDbCircle
 10
-72.78406042354743
 20
58.30008393632084
 30
0.0
 40
11.5
  0
CIRCLE
  5
15E9
330
1F
100
AcDbEntity
  8
0
 62
     7
100
AcDbCircle
 10
-72.82312583223689
 20
58.42540193152387
 30
0.0
 40
10.0
  0
ARC
  5
15EA
330
1F
100
AcDbEntity
  8
0
 62
     7
100
AcDbCircle
 10
-48.88403597498506
 20
141.6532795566414
 30
0.0
 40
1.099975551438
100
AcDbArc
 50
0.0
 51
89.99999999999349
  0
LINE
  5
15EB
330
1F
100
AcDbEntity
  8
0
 62
     7
100
AcDbLine
 10
-49.43402375070502
 20
142.7532551080794
 30
0.0
 11
-48.88403597498506
 21
142.7532551080794
 31
0.0
  0
ARC
  5
15EC
330
1F
100
AcDbEntity
  8
0
 62
     7
100
AcDbCircle
 10
-51.08398707786108
 20
159.1062256083624
 30
0.0
 40
1.649963327156999
100
AcDbArc
 50
0.0
 51
89.99999999999349
  0
LINE
  5
15ED
330
1F
100
AcDbEntity
  8
0
 62
     7
100
AcDbLine
 10
-113.7840604235475
 20
160.7561889355205
 30
0.0
 11
-51.08398707786108
 21
160.7561889355205
 31
0.0
  0
CIRCLE
  5
15EE
330
1F
100
AcDbEntity
  8
0
 62
     7
100
AcDbCircle
 10
-72.82312583223689
 20
111.8373244954207
 30
0.0
 40
10.0
  0
CIRCLE
  5
15EF
330
1F
100
AcDbEntity
  8
0
 62
     7
100
AcDbCircle
 10
-72.78406042354743
 20
111.9626424906227
 30
0.0
 40
11.5
  0
DIMENSION
  5
15F0
330
1F
100
AcDbEntity
  8
0
 62
     1
100
AcDbDimension
  2
*D16
 10
-47.78406042354709
 20
176.6711458815191
 30
0.0
 11
-89.32312583223689
 21
176.6711458815191
 31
0.0
 70
   160
 71
     0
 42
25.0390654086898
  3
Standard
100
AcDbAlignedDimension
 13
-72.82312583223689
 23
111.8373244954207
 33
0.0
 14
-47.78406042354709
 24
141.6532795566414
 34
0.0
100
AcDbRotatedDimension
1001
ACAD
1000
DSTYLE
1002
{
1070
    41
1040
6.0
1070
   140
1040
7.0
1070
   271
1070
     1
1002
}
  0
DIMENSION
  5
15F1
330
1F
100
AcDbEntity
  8
0
 62
     1
100
AcDbDimension
  2
*D17
 10
-82.05849617061829
 20
105.0472385081495
 30
0.0
 11
-25.99722801051672
 21
132.1705200644032
 31
0.0
 70
   163
 71
     5
 42
23.00000000000007
  3
Standard
100
AcDbDiametricDimension
 15
-63.58775549385542
 25
118.7524104826918
 35
0.0
 40
0.0
1001
ACAD_DSTYLE_DIMRADIAL_EXTENSION
1070
   387
1070
     1
1070
   388
1040
0.0
1070
   390
1040
0.0
1001
ACAD
1000
DSTYLE
1002
{
1070
    41
1040
6.0
1070
   140
1040
7.0
1070
   271
1070
     1
1070
   288
1070
     1
1002
}
  0
ENDSEC
  0
SECTION
  2
OBJECTS
  0
DICTIONARY
  5
C
330
0
100
AcDbDictionary
281
     1
  3
ACAD_CIP_PREVIOUS_PRODUCT_INFO
350
E5A
  3
ACAD_COLOR
350
73
  3
ACAD_DETAILVIEWSTYLE
350
E57
  3
ACAD_GROUP
350
D
  3
ACAD_LAYOUT
350
1A
  3
ACAD_MATERIAL
350
72
  3
ACAD_MLEADERSTYLE
350
D7
  3
ACAD_MLINESTYLE
350
17
  3
ACAD_PLOTSETTINGS
350
19
  3
ACAD_PLOTSTYLENAME
350
E
  3
ACAD_SCALELIST
350
B6
  3
ACAD_SECTIONVIEWSTYLE
350
E55
  3
ACAD_TABLESTYLE
350
86
  3
ACAD_VISUALSTYLE
350
99
  3
ACDB_RECOMPOSE_DATA
350
1651
  3
AcDbVariableDictionary
350
66
  3
DWGPROPS
350
1652
  0
DICTIONARY
  5
F20
330
2
100
AcDbDictionary
280
     1
281
     1
  3
ACAD_LAYERSTATES
360
F21
  0
DICTIONARY
  5
E6
330
10
100
AcDbDictionary
280
     1
281
     1
  3
ADSK_XREC_LAYER_RECONCILED
360
243
  0
DICTIONARY
  5
1696
330
15C2
100
AcDbDictionary
280
     1
281
     1
  3
ACAD_MTEXT_RT
360
1697
  0
DICTIONARY
  5
1698
330
1649
100
AcDbDictionary
280
     1
281
     1
  3
ACAD_MTEXT_RT
360
1699
  0
XRECORD
  5
E5A
102
{ACAD_REACTORS
330
C
102
}
330
C
100
AcDbXrecord
280
     1
300
ACDLT
300
2014
300
ACDLT_F_S
  0
DICTIONARY
  5
73
102
{ACAD_REACTORS
330
C
102
}
330
C
100
AcDbDictionary
281
     1
  0
DICTIONARY
  5
E57
102
{ACAD_REACTORS
330
C
102
}
330
C
100
AcDbDictionary
281
     1
  3
Imperial24
350
E58
  3
Metric50
350
E62
  0
DICTIONARY
  5
D
102
{ACAD_REACTORS
330
C
102
}
330
C
100
AcDbDictionary
281
     1
  0
DICTIONARY
  5
1A
102
{ACAD_REACTORS
330
C
102
}
330
C
100
AcDbDictionary
281
     1
  3
Layout1
350
59
  3
Layout2
350
5E
  3
Model
350
22
  0
DICTIONARY
  5
72
102
{ACAD_REACTORS
330
C
102
}
330
C
100
AcDbDictionary
281
     1
  3
ByBlock
350
97
  3
ByLayer
350
96
  3
Global
350
98
  0
DICTIONARY
  5
D7
102
{ACAD_REACTORS
330
C
102
}
330
C
100
AcDbDictionary
281
     1
  3
Annotativa
350
E5
  3
Standard
350
D8
  0
DICTIONARY
  5
17
102
{ACAD_REACTORS
330
C
102
}
330
C
100
AcDbDictionary
281
     1
  3
Standard
350
18
  0
DICTIONARY
  5
19
102
{ACAD_REACTORS
330
C
102
}
330
C
100
AcDbDictionary
281
     1
  0
ACDBDICTIONARYWDFLT
  5
E
102
{ACAD_REACTORS
330
C
102
}
330
C
100
AcDbDictionary
281
     1
  3
Normal
350
F
100
AcDbDictionaryWithDefault
340
F
  0
DICTIONARY
  5
B6
102
{ACAD_REACTORS
330
C
102
}
330
C
100
AcDbDictionary
281
     1
  3
A0
350
B7
  3
A1
350
124
  3
A2
350
125
  3
A3
350
126
  3
A4
350
127
  3
A5
350
128
  3
A6
350
129
  3
A7
350
12A
  3
A8
350
12B
  3
A9
350
12C
  3
B0
350
12D
  3
B1
350
12E
  3
B2
350
12F
  3
B3
350
130
  3
B4
350
131
  3
B5
350
132
  3
B6
350
133
  3
B7
350
134
  3
B8
350
135
  3
B9
350
136
  3
C0
350
137
  3
C1
350
138
  3
C2
350
139
  3
C3
350
13A
  3
C4
350
13B
  3
C5
350
13C
  3
C6
350
13D
  3
C7
350
13E
  3
C8
350
13F
  3
C9
350
140
  3
D0
350
141
  3
D1
350
142
  3
D2
350
143
  0
DICTIONARY
  5
E55
102
{ACAD_REACTORS
330
C
102
}
330
C
100
AcDbDictionary
281
     1
  3
Imperial24
350
E56
  3
Metric50
350
E61
  0
DICTIONARY
  5
86
102
{ACAD_REACTORS
330
C
102
}
330
C
100
AcDbDictionary
281
     1
  3
Standard
350
87
  0
DICTIONARY
  5
99
102
{ACAD_REACTORS
330
C
102
}
330
C
100
AcDbDictionary
281
     1
  3
2dWireframe
350
9F
  3
3D Hidden
350
A1
  3
3dWireframe
350
A0
  3
Basic
350
9E
  3
Brighten
350
A5
  3
ColorChange
350
A9
  3
Conceptual
350
A2
  3
Dim
350
A4
  3
EdgeColorOff
350
E54
  3
Facepattern
350
A8
  3
Flat
350
9A
  3
FlatWithEdges
350
9B
  3
Gouraud
350
9C
  3
GouraudWithEdges
350
9D
  3
Hidden
350
E4C
  3
JitterOff
350
E52
  3
Linepattern
350
A7
  3
OverhangOff
350
E53
  3
Realistic
350
A3
  3
Shaded
350
E51
  3
Shaded with edges
350
E50
  3
Shades of Gray
350
E4D
  3
Sketchy
350
E4E
  3
Thicken
350
A6
  3
Wireframe
350
E4B
  3
X-Ray
350
E4F
  0
XRECORD
  5
1651
102
{ACAD_REACTORS
330
C
102
}
330
C
100
AcDbXrecord
280
     1
 90
        1
330
87
  0
DICTIONARY
  5
66
102
{ACAD_REACTORS
330
C
102
}
330
C
100
AcDbDictionary
281
     1
  3
CANNOSCALE
350
F0
  3
CMLEADERSTYLE
350
EF
  3
CTABLESTYLE
350
89
  3
CVIEWDETAILSTYLE
350
11EC
  3
CVIEWSECTIONSTYLE
350
11ED
  3
DIMASSOC
350
67
  3
HIDETEXT
350
6B
  3
INDEXCTL
350
247
  3
LIGHTINGUNITS
350
245
  3
MSLTSCALE
350
244
  3
SORTENTS
350
246
  3
XCLIPFRAME
350
164F
  0
XRECORD
  5
1652
102
{ACAD_REACTORS
330
C
102
}
330
C
100
AcDbXrecord
280
     1
  1
DWGPROPS COOKIE
  2

  3

  4

  6

  7

  8
FontanaNZ
  9

300
=
301
=
302
=
303
=
304
=
305
=
306
=
307
=
308
=
309
=
 40
0.0232152777777778
 41
2455098.373449479
 42
2457171.379089352
  1

 90
        0
  0
DICTIONARY
  5
F21
102
{ACAD_REACTORS
330
F20
102
}
330
F20
100
AcDbDictionary
281
     1
  0
XRECORD
  5
243
102
{ACAD_REACTORS
330
E6
102
}
330
E6
100
AcDbXrecord
280
     1
290
     1
  0
XRECORD
  5
1697
102
{ACAD_REACTORS
330
1696
102
}
330
1696
100
AcDbXrecord
280
     1
 40
6416.0
  1
\A1;\U+220523.0
  0
XRECORD
  5
1699
102
{ACAD_REACTORS
330
1698
102
}
330
1698
100
AcDbXrecord
280
     1
 40
6416.0
  1
\A1;\U+220523.0
  0
ACDBDETAILVIEWSTYLE
  5
E58
102
{ACAD_XDICTIONARY
360
1690
102
}
102
{ACAD_REACTORS
330
E57
102
}
330
E57
100
AcDbModelDocViewStyle
 70
     0
  3
Imperial24
290
     0
100
AcDbDetailViewStyle
 70
     0
 71
     0
 90
        3
 71
     1
340
11
 40
0.24
340
0
 40
0.24
300

 40
0.36
280
     3
 71
     2
340
16
 90
       25
 71
     3
340
11
 40
0.24
 90
        1
 40
0.75
 90
        1
300
%<\AcVar ViewType \f "%tc1">% %<\AcVar ViewDetailId>%\PSCALA %<\AcVar ViewScale \f "%sn">%
 71
     4
340
16
 90
       25
340
16
 90
       25
280
     0
  0
ACDBDETAILVIEWSTYLE
  5
E62
102
{ACAD_XDICTIONARY
360
1694
102
}
102
{ACAD_REACTORS
330
E57
102
}
330
E57
100
AcDbModelDocViewStyle
 70
     0
  3
Metric50
290
     0
100
AcDbDetailViewStyle
 70
     0
 71
     0
 90
        3
 71
     1
340
11
 40
5.0
340
0
 40
5.0
300

 40
0.0
280
     1
 71
     2
340
16
 90
       25
 71
     3
340
11
 40
5.0
 90
        0
 40
15.0
 90
        1
300
%<\AcVar ViewDetailId>% (%<\AcVar ViewScale \f "%sn">%)
 71
     4
340
16
 90
       25
340
16
 90
       25
280
     0
  0
LAYOUT
  5
59
102
{ACAD_XDICTIONARY
360
1655
102
}
102
{ACAD_REACTORS
330
1A
102
}
330
1A
100
AcDbPlotSettings
  1

  2
None
  4

  6

 40
0.0
 41
0.0
 42
0.0
 43
0.0
 44
0.0
 45
0.0
 46
0.0
 47
0.0
 48
0.0
 49
0.0
140
0.0
141
0.0
142
1.0
143
1.0
 70
   688
 72
     0
 73
     0
 74
     5
  7

 75
    16
147
1.0
148
0.0
149
0.0
100
AcDbLayout
  1
Layout1
 70
     1
 71
     1
 10
0.0
 20
0.0
 11
12.0
 21
9.0
 12
0.0
 22
0.0
 32
0.0
 14
0.0
 24
0.0
 34
0.0
 15
0.0
 25
0.0
 35
0.0
146
0.0
 13
0.0
 23
0.0
 33
0.0
 16
1.0
 26
0.0
 36
0.0
 17
0.0
 27
1.0
 37
0.0
 76
     0
330
58
  0
LAYOUT
  5
5E
102
{ACAD_XDICTIONARY
360
1657
102
}
102
{ACAD_REACTORS
330
1A
102
}
330
1A
100
AcDbPlotSettings
  1

  2
None
  4

  6

 40
0.0
 41
0.0
 42
0.0
 43
0.0
 44
0.0
 45
0.0
 46
0.0
 47
0.0
 48
0.0
 49
0.0
140
0.0
141
0.0
142
1.0
143
1.0
 70
   688
 72
     0
 73
     0
 74
     5
  7

 75
    16
147
1.0
148
0.0
149
0.0
100
AcDbLayout
  1
Layout2
 70
     1
 71
     2
 10
0.0
 20
0.0
 11
12.0
 21
9.0
 12
0.0
 22
0.0
 32
0.0
 14
0.0
 24
0.0
 34
0.0
 15
0.0
 25
0.0
 35
0.0
146
0.0
 13
0.0
 23
0.0
 33
0.0
 16
1.0
 26
0.0
 36
0.0
 17
0.0
 27
1.0
 37
0.0
 76
     0
330
5D
  0
LAYOUT
  5
22
102
{ACAD_XDICTIONARY
360
1653
102
}
102
{ACAD_REACTORS
330
1A
102
}
330
1A
100
AcDbPlotSettings
  1

  2
none_device
  4
ANSI_A_(8.50_x_11.00_Inches)
  6

 40
6.349999904632567
 41
19.04999923706055
 42
6.350006103515625
 43
19.04998779296875
 44
215.8999938964844
 45
279.3999938964844
 46
0.0
 47
0.0
 48
0.0
 49
0.0
140
0.0
141
0.0
142
1.0
143
2.584895464708373
 70
 11952
 72
     0
 73
     1
 74
     0
  7

 75
     0
147
0.3868628397755418
148
0.0
149
0.0
100
AcDbLayout
  1
Model
 70
     1
 71
     0
 10
0.0
 20
0.0
 11
12.0
 21
9.0
 12
0.0
 22
0.0
 32
0.0
 14
0.0
 24
0.0
 34
0.0
 15
0.0
 25
0.0
 35
0.0
146
0.0
 13
0.0
 23
0.0
 33
0.0
 16
1.0
 26
0.0
 36
0.0
 17
0.0
 27
1.0
 37
0.0
 76
     0
330
1F
331
94
  0
MATERIAL
  5
97
102
{ACAD_XDICTIONARY
360
944
102
}
102
{ACAD_REACTORS
330
72
102
}
330
72
100
AcDbMaterial
  1
ByBlock
  0
MATERIAL
  5
96
102
{ACAD_XDICTIONARY
360
942
102
}
102
{ACAD_REACTORS
330
72
102
}
330
72
100
AcDbMaterial
  1
ByLayer
  0
MATERIAL
  5
98
102
{ACAD_XDICTIONARY
360
110
102
}
102
{ACAD_REACTORS
330
72
102
}
330
72
100
AcDbMaterial
  1
Global
 43
0.0208000000566244
 43
0.0
 43
0.0
 43
0.0
 43
0.0
 43
0.0208000000566244
 43
0.0
 43
0.0
 43
0.0
 43
0.0
 43
1.0
 43
0.0
 43
0.0
 43
0.0
 43
0.0
 43
1.0
 49
0.0208000000566244
 49
0.0
 49
0.0
 49
0.0
 49
0.0
 49
0.0208000000566244
 49
0.0
 49
0.0
 49
0.0
 49
0.0
 49
1.0
 49
0.0
 49
0.0
 49
0.0
 49
0.0
 49
1.0
142
0.0208000000566244
142
0.0
142
0.0
142
0.0
142
0.0
142
0.0208000000566244
142
0.0
142
0.0
142
0.0
142
0.0
142
1.0
142
0.0
142
0.0
142
0.0
142
0.0
142
1.0
144
0.0208000000566244
144
0.0
144
0.0
144
0.0
144
0.0
144
0.0208000000566244
144
0.0
144
0.0
144
0.0
144
0.0
144
1.0
144
0.0
144
0.0
144
0.0
144
0.0
144
1.0
1001
ACAD
1070
    -1
1070
     3
1070
     0
1000

1071
        0
1070
     0
  0
MLEADERSTYLE
  5
E5
102
{ACAD_REACTORS
330
D7
102
}
330
D7
100
AcDbMLeaderStyle
170
     2
171
     1
172
     0
 90
        2
 40
0.0
 41
0.0
173
     1
 91
-1056964608
340
14
 92
       -2
290
     1
 42
0.09
291
     1
 43
0.36
  3
Standard
 44
0.18
300

342
11
174
     1
178
     1
175
     1
176
     0
 93
-1056964608
 45
0.18
292
     0
297
     0
 46
0.18
 94
-1056964608
 47
1.0
 49
1.0
140
1.0
293
     1
141
0.0
294
     1
177
     0
142
1.0
295
     0
296
     1
143
0.125
1001
ACAD_MLEADERVER
1070
     2
  0
MLEADERSTYLE
  5
D8
102
{ACAD_REACTORS
330
D7
102
}
330
D7
100
AcDbMLeaderStyle
170
     2
171
     1
172
     0
 90
        2
 40
0.0
 41
0.0
173
     1
 91
-1056964608
340
14
 92
       -2
290
     1
 42
0.09
291
     1
 43
0.36
  3
Standard
 44
0.18
300

342
11
174
     1
178
     1
175
     1
176
     0
 93
-1056964608
 45
0.18
292
     0
297
     0
 46
0.18
 94
-1056964608
 47
1.0
 49
1.0
140
1.0
293
     1
141
0.0
294
     1
177
     0
142
1.0
295
     0
296
     0
143
0.125
1001
ACAD_MLEADERVER
1070
     2
  0
MLINESTYLE
  5
18
102
{ACAD_REACTORS
330
17
102
}
330
17
100
AcDbMlineStyle
  2
STANDARD
 70
     0
  3

 62
   256
 51
90.0
 52
90.0
 71
     2
 49
0.5
 62
   256
  6
BYLAYER
 49
-0.5
 62
   256
  6
BYLAYER
  0
ACDBPLACEHOLDER
  5
F
102
{ACAD_REACTORS
330
E
102
}
330
E
  0
SCALE
  5
B7
102
{ACAD_REACTORS
330
B6
102
}
330
B6
100
AcDbScale
 70
     0
300
1:1
140
1.0
141
1.0
290
     1
  0
SCALE
  5
124
102
{ACAD_REACTORS
330
B6
102
}
330
B6
100
AcDbScale
 70
     0
300
1:2
140
1.0
141
2.0
290
     0
  0
SCALE
  5
125
102
{ACAD_REACTORS
330
B6
102
}
330
B6
100
AcDbScale
 70
     0
300
1:4
140
1.0
141
4.0
290
     0
  0
SCALE
  5
126
102
{ACAD_REACTORS
330
B6
102
}
330
B6
100
AcDbScale
 70
     0
300
1:5
140
1.0
141
5.0
290
     0
  0
SCALE
  5
127
102
{ACAD_REACTORS
330
B6
102
}
330
B6
100
AcDbScale
 70
     0
300
1:8
140
1.0
141
8.0
290
     0
  0
SCALE
  5
128
102
{ACAD_REACTORS
330
B6
102
}
330
B6
100
AcDbScale
 70
     0
300
1:10
140
1.0
141
10.0
290
     0
  0
SCALE
  5
129
102
{ACAD_REACTORS
330
B6
102
}
330
B6
100
AcDbScale
 70
     0
300
1:16
140
1.0
141
16.0
290
     0
  0
SCALE
  5
12A
102
{ACAD_REACTORS
330
B6
102
}
330
B6
100
AcDbScale
 70
     0
300
1:20
140
1.0
141
20.0
290
     0
  0
SCALE
  5
12B
102
{ACAD_REACTORS
330
B6
102
}
330
B6
100
AcDbScale
 70
     0
300
1:30
140
1.0
141
30.0
290
     0
  0
SCALE
  5
12C
102
{ACAD_REACTORS
330
B6
102
}
330
B6
100
AcDbScale
 70
     0
300
1:40
140
1.0
141
40.0
290
     0
  0
SCALE
  5
12D
102
{ACAD_REACTORS
330
B6
102
}
330
B6
100
AcDbScale
 70
     0
300
1:50
140
1.0
141
50.0
290
     0
  0
SCALE
  5
12E
102
{ACAD_REACTORS
330
B6
102
}
330
B6
100
AcDbScale
 70
     0
300
1:100
140
1.0
141
100.0
290
     0
  0
SCALE
  5
12F
102
{ACAD_REACTORS
330
B6
102
}
330
B6
100
AcDbScale
 70
     0
300
2:1
140
2.0
141
1.0
290
     0
  0
SCALE
  5
130
102
{ACAD_REACTORS
330
B6
102
}
330
B6
100
AcDbScale
 70
     0
300
4:1
140
4.0
141
1.0
290
     0
  0
SCALE
  5
131
102
{ACAD_REACTORS
330
B6
102
}
330
B6
100
AcDbScale
 70
     0
300
8:1
140
8.0
141
1.0
290
     0
  0
SCALE
  5
132
102
{ACAD_REACTORS
330
B6
102
}
330
B6
100
AcDbScale
 70
     0
300
10:1
140
10.0
141
1.0
290
     0
  0
SCALE
  5
133
102
{ACAD_REACTORS
330
B6
102
}
330
B6
100
AcDbScale
 70
     0
300
100:1
140
100.0
141
1.0
290
     0
  0
SCALE
  5
134
102
{ACAD_REACTORS
330
B6
102
}
330
B6
100
AcDbScale
 70
     0
300
1/128" = 1'-0"
140
0.0078125
141
12.0
290
     0
  0
SCALE
  5
135
102
{ACAD_REACTORS
330
B6
102
}
330
B6
100
AcDbScale
 70
     0
300
1/64" = 1'-0"
140
0.015625
141
12.0
290
     0
  0
SCALE
  5
136
102
{ACAD_REACTORS
330
B6
102
}
330
B6
100
AcDbScale
 70
     0
300
1/32" = 1'-0"
140
0.03125
141
12.0
290
     0
  0
SCALE
  5
137
102
{ACAD_REACTORS
330
B6
102
}
330
B6
100
AcDbScale
 70
     0
300
1/16" = 1'-0"
140
0.0625
141
12.0
290
     0
  0
SCALE
  5
138
102
{ACAD_REACTORS
330
B6
102
}
330
B6
100
AcDbScale
 70
     0
300
3/32" = 1'-0"
140
0.09375
141
12.0
290
     0
  0
SCALE
  5
139
102
{ACAD_REACTORS
330
B6
102
}
330
B6
100
AcDbScale
 70
     0
300
1/8" = 1'-0"
140
0.125
141
12.0
290
     0
  0
SCALE
  5
13A
102
{ACAD_REACTORS
330
B6
102
}
330
B6
100
AcDbScale
 70
     0
300
3/16" = 1'-0"
140
0.1875
141
12.0
290
     0
  0
SCALE
  5
13B
102
{ACAD_REACTORS
330
B6
102
}
330
B6
100
AcDbScale
 70
     0
300
1/4" = 1'-0"
140
0.25
141
12.0
290
     0
  0
SCALE
  5
13C
102
{ACAD_REACTORS
330
B6
102
}
330
B6
100
AcDbScale
 70
     0
300
3/8" = 1'-0"
140
0.375
141
12.0
290
     0
  0
SCALE
  5
13D
102
{ACAD_REACTORS
330
B6
102
}
330
B6
100
AcDbScale
 70
     0
300
1/2" = 1'-0"
140
0.5
141
12.0
290
     0
  0
SCALE
  5
13E
102
{ACAD_REACTORS
330
B6
102
}
330
B6
100
AcDbScale
 70
     0
300
3/4" = 1'-0"
140
0.75
141
12.0
290
     0
  0
SCALE
  5
13F
102
{ACAD_REACTORS
330
B6
102
}
330
B6
100
AcDbScale
 70
     0
300
1" = 1'-0"
140
1.0
141
12.0
290
     0
  0
SCALE
  5
140
102
{ACAD_REACTORS
330
B6
102
}
330
B6
100
AcDbScale
 70
     0
300
1-1/2" = 1'-0"
140
1.5
141
12.0
290
     0
  0
SCALE
  5
141
102
{ACAD_REACTORS
330
B6
102
}
330
B6
100
AcDbScale
 70
     0
300
3" = 1'-0"
140
3.0
141
12.0
290
     0
  0
SCALE
  5
142
102
{ACAD_REACTORS
330
B6
102
}
330
B6
100
AcDbScale
 70
     0
300
6" = 1'-0"
140
6.0
141
12.0
290
     0
  0
SCALE
  5
143
102
{ACAD_REACTORS
330
B6
102
}
330
B6
100
AcDbScale
 70
     0
300
1'-0" = 1'-0"
140
12.0
141
12.0
290
     0
  0
ACDBSECTIONVIEWSTYLE
  5
E56
102
{ACAD_XDICTIONARY
360
168E
102
}
102
{ACAD_REACTORS
330
E55
102
}
330
E55
100
AcDbModelDocViewStyle
 70
     0
  3
Imperial24
290
     0
100
AcDbSectionViewStyle
 70
     0
 71
     0
 90
       78
 71
     1
340
11
 40
0.24
340
0
340
0
 40
0.24
300
I, O, Q, S, X, Z
 40
0.48
 90
        3
 40
0.18
 90
        1
 71
     2
340
16
 90
       25
340
16
 90
       50
 40
0.24
 40
0.0
 40
0.24
 71
     3
340
11
 40
0.24
 90
        1
 40
0.75
 90
        1
300
%<\AcVar ViewType \f "%tc1">% %<\AcVar ViewSectionStartId>%-%<\AcVar ViewSectionEndId>%\PSCALA %<\AcVar ViewScale \f "%sn">%
 71
     4
300
ANSI31
 40
1.0
 90
        0
290
     0
290
     0
 90
        6
 40
0.0
 40
1.570796326794896
 40
0.2617993877991494
 40
1.308996938995747
 40
-0.2617993877991494
 40
1.832595714594044
  0
ACDBSECTIONVIEWSTYLE
  5
E61
102
{ACAD_XDICTIONARY
360
1692
102
}
102
{ACAD_REACTORS
330
E55
102
}
330
E55
100
AcDbModelDocViewStyle
 70
     0
  3
Metric50
290
     0
100
AcDbSectionViewStyle
 70
     0
 71
     0
 90
      102
 71
     1
340
11
 40
5.0
340
0
340
0
 40
5.0
300
I, O, Q, S, X, Z
 40
10.0
 90
        0
 40
2.5
 90
        0
 71
     2
340
16
 90
       25
340
16
 90
       50
 40
5.0
 40
2.5
 40
5.0
 71
     3
340
11
 40
5.0
 90
        0
 40
15.0
 90
        1
300
%<\AcVar ViewSectionStartId>%-%<\AcVar ViewSectionEndId>% (%<\AcVar ViewScale \f "%sn">%)
 71
     4
300
ANSI31
 40
1.0
 90
        0
290
     0
290
     0
 90
        6
 40
0.0
 40
1.570796326794896
 40
0.2617993877991494
 40
1.308996938995747
 40
-0.2617993877991494
 40
1.832595714594044
  0
TABLESTYLE
  5
87
102
{ACAD_XDICTIONARY
360
104
102
}
102
{ACAD_REACTORS
330
86
102
}
330
86
100
AcDbTableStyle
  3
Standard
 70
     0
 71
     0
 40
0.06
 41
0.06
280
     0
281
     0
  7
Standard
140
0.18
170
     2
 62
     0
 63
     7
283
     0
274
    -2
284
     1
 64
     0
275
    -2
285
     1
 65
     0
276
    -2
286
     1
 66
     0
277
    -2
287
     1
 67
     0
278
    -2
288
     1
 68
     0
279
    -2
289
     1
 69
     0
  7
Standard
140
0.25
170
     5
 62
     0
 63
     7
283
     0
274
    -2
284
     1
 64
     0
275
    -2
285
     1
 65
     0
276
    -2
286
     1
 66
     0
277
    -2
287
     1
 67
     0
278
    -2
288
     1
 68
     0
279
    -2
289
     1
 69
     0
  7
Standard
140
0.18
170
     5
 62
     0
 63
     7
283
     0
274
    -2
284
     1
 64
     0
275
    -2
285
     1
 65
     0
276
    -2
286
     1
 66
     0
277
    -2
287
     1
 67
     0
278
    -2
288
     1
 68
     0
279
    -2
289
     1
 69
     0
  0
VISUALSTYLE
  5
9F
102
{ACAD_XDICTIONARY
360
1664
102
}
102
{ACAD_REACTORS
330
99
102
}
330
99
100
AcDbVisualStyle
  2

 70
     4
 71
     0
 72
     2
 73
     1
 90
        0
 40
-0.6
 41
-30.0
 62
     5
 63
     7
 74
     1
 91
        4
 64
     7
 65
   257
 75
     1
175
     1
 42
1.0
 92
        0
 66
   257
 43
1.0
 76
     1
 77
     6
 78
     2
 67
     7
 79
     5
170
     0
171
     0
290
     0
174
     0
 93
        1
 44
0.0
173
     0
291
     0
 45
0.0
1001
ACAD
1000
AcDbSavedByObjectVersion
1070
     0
  0
VISUALSTYLE
  5
A1
102
{ACAD_XDICTIONARY
360
1668
102
}
102
{ACAD_REACTORS
330
99
102
}
330
99
100
AcDbVisualStyle
  2

 70
     6
 71
     1
 72
     2
 73
     2
 90
        0
 40
-0.6
 41
-30.0
 62
     5
 63
     7
 74
     2
 91
        2
 64
     7
 65
   257
 75
     2
175
     1
 42
40.0
 92
        0
 66
   257
 43
1.0
 76
     1
 77
     6
 78
     2
 67
     7
 79
     3
170
     0
171
     0
290
     0
174
     0
 93
        1
 44
0.0
173
     0
291
     0
 45
0.0
1001
ACAD
1000
AcDbSavedByObjectVersion
1070
     0
  0
VISUALSTYLE
  5
A0
102
{ACAD_XDICTIONARY
360
1666
102
}
102
{ACAD_REACTORS
330
99
102
}
330
99
100
AcDbVisualStyle
  2

 70
     5
 71
     0
 72
     2
 73
     1
 90
        0
 40
-0.6
 41
-30.0
 62
     5
 63
     7
 74
     1
 91
        4
 64
     7
 65
   257
 75
     1
175
     1
 42
1.0
 92
        0
 66
   257
 43
1.0
 76
     1
 77
     6
 78
     2
 67
     7
 79
     5
170
     0
171
     0
290
     0
174
     0
 93
        1
 44
0.0
173
     0
291
     0
 45
0.0
1001
ACAD
1000
AcDbSavedByObjectVersion
1070
     0
  0
VISUALSTYLE
  5
9E
102
{ACAD_XDICTIONARY
360
1662
102
}
102
{ACAD_REACTORS
330
99
102
}
330
99
100
AcDbVisualStyle
  2

 70
     7
 71
     1
 72
     0
 73
     1
 90
        0
 40
-0.6
 41
-30.0
 62
     5
 63
     7
 74
     0
 91
        4
 64
     7
 65
   257
 75
     1
175
     1
 42
1.0
 92
        8
 66
     7
 43
1.0
 76
     1
 77
     6
 78
     2
 67
     7
 79
     5
170
     0
171
     0
290
     0
174
     0
 93
        1
 44
0.0
173
     0
291
     1
 45
0.0
1001
ACAD
1000
AcDbSavedByObjectVersion
1070
     0
  0
VISUALSTYLE
  5
A5
102
{ACAD_XDICTIONARY
360
1670
102
}
102
{ACAD_REACTORS
330
99
102
}
330
99
100
AcDbVisualStyle
  2

 70
    12
 71
     2
 72
     2
 73
     1
 90
        0
 40
-0.6
 41
-30.0
 62
     5
 63
     7
 74
     1
 91
        4
 64
     7
 65
   257
 75
     1
175
     1
 42
1.0
 92
        8
 66
     7
 43
1.0
 76
     1
 77
     6
 78
     2
 67
     7
 79
     5
170
     0
171
     0
290
     0
174
     0
 93
        1
 44
50.0
173
     0
291
     1
 45
0.0
1001
ACAD
1000
AcDbSavedByObjectVersion
1070
     0
  0
VISUALSTYLE
  5
A9
102
{ACAD_XDICTIONARY
360
1678
102
}
102
{ACAD_REACTORS
330
99
102
}
330
99
100
AcDbVisualStyle
  2

 70
    16
 71
     2
 72
     2
 73
     3
 90
        0
 40
-0.6
 41
-30.0
 62
     5
 63
     8
 74
     1
 91
        4
 64
     7
 65
   257
 75
     1
175
     1
 42
1.0
 92
        8
 66
     8
 43
1.0
 76
     1
 77
     6
 78
     2
 67
     7
 79
     5
170
     0
171
     0
290
     0
174
     0
 93
        1
 44
0.0
173
     0
291
     1
 45
0.0
1001
ACAD
1000
AcDbSavedByObjectVersion
1070
     0
  0
VISUALSTYLE
  5
A2
102
{ACAD_XDICTIONARY
360
166A
102
}
102
{ACAD_REACTORS
330
99
102
}
330
99
100
AcDbVisualStyle
  2

 70
     9
 71
     3
 72
     2
 73
     1
 90
        0
 40
-0.6
 41
-30.0
 62
     5
 63
     7
 74
     2
 91
        2
 64
     7
 65
   257
 75
     1
175
     1
 42
40.0
 92
        8
 66
     7
 43
1.0
 76
     1
 77
     6
 78
     2
 67
     7
 79
     3
170
     0
171
     0
290
     0
174
     0
 93
        1
 44
0.0
173
     0
291
     0
 45
0.0
1001
ACAD
1000
AcDbSavedByObjectVersion
1070
     0
  0
VISUALSTYLE
  5
A4
102
{ACAD_XDICTIONARY
360
166E
102
}
102
{ACAD_REACTORS
330
99
102
}
330
99
100
AcDbVisualStyle
  2

 70
    11
 71
     2
 72
     2
 73
     1
 90
        0
 40
-0.6
 41
-30.0
 62
     5
 63
     7
 74
     1
 91
        4
 64
     7
 65
   257
 75
     1
175
     1
 42
1.0
 92
        8
 66
     7
 43
1.0
 76
     1
 77
     6
 78
     2
 67
     7
 79
     5
170
     0
171
     0
290
     0
174
     0
 93
        1
 44
-50.0
173
     0
291
     1
 45
0.0
1001
ACAD
1000
AcDbSavedByObjectVersion
1070
     0
  0
VISUALSTYLE
  5
E54
102
{ACAD_XDICTIONARY
360
168C
102
}
102
{ACAD_REACTORS
330
99
102
}
330
99
100
AcDbVisualStyle
  2

 70
    22
 71
     2
 72
     2
 73
     0
 90
        0
 40
-0.6
 41
-30.0
 62
     5
 63
     7
 74
     1
 91
        4
 64
     7
 65
   257
 75
     1
175
     1
 42
1.0
 92
        8
 66
     7
 43
1.0
 76
     1
 77
     6
 78
     2
 67
     7
 79
     5
170
     0
171
     0
290
     0
174
     0
 93
        1
 44
0.0
173
     0
291
     1
 45
0.0
1001
ACAD
1000
AcDbSavedByObjectVersion
1070
     0
  0
VISUALSTYLE
  5
A8
102
{ACAD_XDICTIONARY
360
1676
102
}
102
{ACAD_REACTORS
330
99
102
}
330
99
100
AcDbVisualStyle
  2

 70
    15
 71
     2
 72
     2
 73
     1
 90
        0
 40
-0.6
 41
-30.0
 62
     5
 63
     7
 74
     1
 91
        4
 64
     7
 65
   257
 75
     1
175
     1
 42
1.0
 92
        8
 66
     7
 43
1.0
 76
     1
 77
     6
 78
     2
 67
     7
 79
     5
170
     0
171
     0
290
     0
174
     0
 93
        1
 44
0.0
173
     0
291
     1
 45
0.0
1001
ACAD
1000
AcDbSavedByObjectVersion
1070
     0
  0
VISUALSTYLE
  5
9A
102
{ACAD_XDICTIONARY
360
165A
102
}
102
{ACAD_REACTORS
330
99
102
}
330
99
100
AcDbVisualStyle
  2

 70
     0
 71
     2
 72
     1
 73
     1
 90
        2
 40
-0.6
 41
30.0
 62
     5
 63
     7
 74
     0
 91
        4
 64
     7
 65
   257
 75
     1
175
     1
 42
1.0
 92
        8
 66
     7
 43
1.0
 76
     1
 77
     6
 78
     2
 67
     7
 79
     5
170
     0
171
     0
290
     0
174
     0
 93
        1
 44
0.0
173
     0
291
     1
 45
0.0
1001
ACAD
1000
AcDbSavedByObjectVersion
1070
     0
  0
VISUALSTYLE
  5
9B
102
{ACAD_XDICTIONARY
360
165C
102
}
102
{ACAD_REACTORS
330
99
102
}
330
99
100
AcDbVisualStyle
  2

 70
     1
 71
     2
 72
     1
 73
     1
 90
        2
 40
-0.6
 41
30.0
 62
     5
 63
     7
 74
     1
 91
        4
 64
     7
 65
   257
 75
     1
175
     1
 42
1.0
 92
        0
 66
   257
 43
1.0
 76
     1
 77
     6
 78
     2
 67
     7
 79
     5
170
     0
171
     0
290
     0
174
     0
 93
        1
 44
0.0
173
     0
291
     1
 45
0.0
1001
ACAD
1000
AcDbSavedByObjectVersion
1070
     0
  0
VISUALSTYLE
  5
9C
102
{ACAD_XDICTIONARY
360
165E
102
}
102
{ACAD_REACTORS
330
99
102
}
330
99
100
AcDbVisualStyle
  2

 70
     2
 71
     2
 72
     2
 73
     1
 90
        2
 40
-0.6
 41
30.0
 62
     5
 63
     7
 74
     0
 91
        4
 64
     7
 65
   257
 75
     1
175
     1
 42
1.0
 92
        0
 66
     7
 43
1.0
 76
     1
 77
     6
 78
     2
 67
     7
 79
     5
170
     0
171
     0
290
     0
174
     0
 93
        1
 44
0.0
173
     0
291
     1
 45
0.0
1001
ACAD
1000
AcDbSavedByObjectVersion
1070
     0
  0
VISUALSTYLE
  5
9D
102
{ACAD_XDICTIONARY
360
1660
102
}
102
{ACAD_REACTORS
330
99
102
}
330
99
100
AcDbVisualStyle
  2

 70
     3
 71
     2
 72
     2
 73
     1
 90
        2
 40
-0.6
 41
30.0
 62
     5
 63
     7
 74
     1
 91
        4
 64
     7
 65
   257
 75
     1
175
     1
 42
1.0
 92
        0
 66
   257
 43
1.0
 76
     1
 77
     6
 78
     2
 67
     7
 79
     5
170
     0
171
     0
290
     0
174
     0
 93
        1
 44
0.0
173
     0
291
     1
 45
0.0
1001
ACAD
1000
AcDbSavedByObjectVersion
1070
     0
  0
VISUALSTYLE
  5
E4C
102
{ACAD_XDICTIONARY
360
167C
102
}
102
{ACAD_REACTORS
330
99
102
}
330
99
100
AcDbVisualStyle
  2

 70
     6
 71
     1
 72
     2
 73
     2
 90
        0
 40
-0.6
 41
-30.0
 62
     5
 63
     7
 74
     2
 91
        2
 64
     7
 65
   257
 75
     2
175
     1
 42
40.0
 92
        0
 66
   257
 43
1.0
 76
     1
 77
     6
 78
     2
 67
     7
 79
     3
170
     0
171
     0
290
     0
174
     0
 93
        1
 44
0.0
173
     0
291
     0
 45
0.0
1001
ACAD
1000
AcDbSavedByObjectVersion
1070
     0
  0
VISUALSTYLE
  5
E52
102
{ACAD_XDICTIONARY
360
1688
102
}
102
{ACAD_REACTORS
330
99
102
}
330
99
100
AcDbVisualStyle
  2

 70
    20
 71
     2
 72
     2
 73
     0
 90
        0
 40
-0.6
 41
-30.0
 62
     5
 63
     7
 74
     1
 91
        4
 64
     7
 65
   257
 75
     1
175
     1
 42
1.0
 92
       10
 66
     7
 43
1.0
 76
     1
 77
     6
 78
     2
 67
     7
 79
     5
170
     0
171
     0
290
     0
174
     0
 93
        1
 44
0.0
173
     0
291
     1
 45
0.0
1001
ACAD
1000
AcDbSavedByObjectVersion
1070
     0
  0
VISUALSTYLE
  5
A7
102
{ACAD_XDICTIONARY
360
1674
102
}
102
{ACAD_REACTORS
330
99
102
}
330
99
100
AcDbVisualStyle
  2

 70
    14
 71
     2
 72
     2
 73
     1
 90
        0
 40
-0.6
 41
-30.0
 62
     5
 63
     7
 74
     1
 91
        4
 64
     7
 65
   257
 75
     7
175
     7
 42
1.0
 92
        8
 66
     7
 43
1.0
 76
     1
 77
     6
 78
     2
 67
     7
 79
     5
170
     0
171
     0
290
     0
174
     0
 93
        1
 44
0.0
173
     0
291
     1
 45
0.0
1001
ACAD
1000
AcDbSavedByObjectVersion
1070
     0
  0
VISUALSTYLE
  5
E53
102
{ACAD_XDICTIONARY
360
168A
102
}
102
{ACAD_REACTORS
330
99
102
}
330
99
100
AcDbVisualStyle
  2

 70
    21
 71
     2
 72
     2
 73
     0
 90
        0
 40
-0.6
 41
-30.0
 62
     5
 63
     7
 74
     1
 91
        4
 64
     7
 65
   257
 75
     1
175
     1
 42
1.0
 92
        9
 66
     7
 43
1.0
 76
     1
 77
     6
 78
     2
 67
     7
 79
     5
170
     0
171
     0
290
     0
174
     0
 93
        1
 44
0.0
173
     0
291
     1
 45
0.0
1001
ACAD
1000
AcDbSavedByObjectVersion
1070
     0
  0
VISUALSTYLE
  5
A3
102
{ACAD_XDICTIONARY
360
166C
102
}
102
{ACAD_REACTORS
330
99
102
}
330
99
100
AcDbVisualStyle
  2

 70
     8
 71
     2
 72
     2
 73
     1
 90
        0
 40
-0.6
 41
-30.0
 62
     5
 63
     7
 74
     1
 91
        0
 64
     7
 65
   257
 75
     1
175
     1
 42
1.0
 92
        8
 66
     8
 43
1.0
 76
     1
 77
     6
 78
     2
 67
     7
 79
     5
170
     0
171
     0
290
     0
174
     0
 93
       13
 44
0.0
173
     0
291
     0
 45
0.0
1001
ACAD
1000
AcDbSavedByObjectVersion
1070
     0
  0
VISUALSTYLE
  5
E51
102
{ACAD_XDICTIONARY
360
1686
102
}
102
{ACAD_REACTORS
330
99
102
}
330
99
100
AcDbVisualStyle
  2

 70
    27
 71
     2
 72
     2
 73
     1
 90
        2
 40
-0.6
 41
30.0
 62
     5
 63
     7
 74
     0
 91
        4
 64
     7
 65
   257
 75
     1
175
     1
 42
1.0
 92
        8
 66
   257
 43
1.0
 76
     1
 77
     6
 78
     2
 67
     8
 79
     3
170
     0
171
     0
290
     0
174
     0
 93
        5
 44
0.0
173
     0
291
     0
 45
0.0
1001
ACAD
1000
AcDbSavedByObjectVersion
1070
     0
  0
VISUALSTYLE
  5
E50
102
{ACAD_XDICTIONARY
360
1684
102
}
102
{ACAD_REACTORS
330
99
102
}
330
99
100
AcDbVisualStyle
  2

 70
    26
 71
     2
 72
     2
 73
     1
 90
        2
 40
-0.6
 41
30.0
 62
     5
 63
     7
 74
     1
 91
       10
 64
     7
 65
   257
 75
     2
175
     1
 42
1.0
 92
        8
 66
   257
 43
1.0
 76
     1
 77
     6
 78
     2
 67
     7
 79
     3
170
     0
171
     0
290
     0
174
     0
 93
        5
 44
0.0
173
     0
291
     0
 45
0.0
1001
ACAD
1000
AcDbSavedByObjectVersion
1070
     0
  0
VISUALSTYLE
  5
E4D
102
{ACAD_XDICTIONARY
360
167E
102
}
102
{ACAD_REACTORS
330
99
102
}
330
99
100
AcDbVisualStyle
  2

 70
    23
 71
     2
 72
     2
 73
     3
 90
        0
 40
-0.6
 41
-30.0
 62
     5
 63
     7
 74
     2
 91
        2
 64
     7
 65
     7
 75
     1
175
     1
 42
40.0
 92
        8
 66
     7
 43
1.0
 76
     1
 77
     6
 78
     2
 67
     7
 79
     3
170
     0
171
     0
290
     0
174
     0
 93
        1
 44
0.0
173
     0
291
     0
 45
0.0
1001
ACAD
1000
AcDbSavedByObjectVersion
1070
     0
  0
VISUALSTYLE
  5
E4E
102
{ACAD_XDICTIONARY
360
1680
102
}
102
{ACAD_REACTORS
330
99
102
}
330
99
100
AcDbVisualStyle
  2

 70
    24
 71
     1
 72
     2
 73
     2
 90
        0
 40
-0.6
 41
-30.0
 62
     5
 63
     7
 74
     2
 91
        2
 64
     7
 65
     7
 75
     1
175
     1
 42
40.0
 92
       11
 66
     7
 43
1.0
 76
     1
 77
     6
 78
     2
 67
     7
 79
     6
170
     0
171
     0
290
     0
174
     0
 93
        1
 44
0.0
173
     0
291
     0
 45
0.0
1001
ACAD
1000
AcDbSavedByObjectVersion
1070
     0
  0
VISUALSTYLE
  5
A6
102
{ACAD_XDICTIONARY
360
1672
102
}
102
{ACAD_REACTORS
330
99
102
}
330
99
100
AcDbVisualStyle
  2

 70
    13
 71
     2
 72
     2
 73
     1
 90
        0
 40
-0.6
 41
-30.0
 62
     5
 63
     7
 74
     1
 91
        4
 64
     7
 65
   257
 75
     1
175
     1
 42
1.0
 92
       12
 66
     7
 43
1.0
 76
     1
 77
     6
 78
     2
 67
     7
 79
     5
170
     0
171
     0
290
     0
174
     0
 93
        1
 44
0.0
173
     0
291
     1
 45
0.0
1001
ACAD
1000
AcDbSavedByObjectVersion
1070
     0
  0
VISUALSTYLE
  5
E4B
102
{ACAD_XDICTIONARY
360
167A
102
}
102
{ACAD_REACTORS
330
99
102
}
330
99
100
AcDbVisualStyle
  2

 70
     5
 71
     0
 72
     2
 73
     0
 90
        0
 40
-0.6
 41
-30.0
 62
     5
 63
     7
 74
     1
 91
        4
 64
     7
 65
   257
 75
     1
175
     1
 42
1.0
 92
        0
 66
   257
 43
1.0
 76
     1
 77
     6
 78
     2
 67
     7
 79
     3
170
     0
171
     0
290
     0
174
     0
 93
        1
 44
0.0
173
     0
291
     0
 45
0.0
1001
ACAD
1000
AcDbSavedByObjectVersion
1070
     0
  0
VISUALSTYLE
  5
E4F
102
{ACAD_XDICTIONARY
360
1682
102
}
102
{ACAD_REACTORS
330
99
102
}
330
99
100
AcDbVisualStyle
  2

 70
    25
 71
     2
 72
     2
 73
     1
 90
        1
 40
0.5
 41
-30.0
 62
     5
 63
     7
 74
     1
 91
        0
 64
     7
 65
   257
 75
     1
175
     1
 42
1.0
 92
        8
 66
     7
 43
1.0
 76
     1
 77
     6
 78
     2
 67
     7
 79
     3
170
     0
171
     0
290
     0
174
     0
 93
       13
 44
0.0
173
     0
291
     0
 45
0.0
1001
ACAD
1000
AcDbSavedByObjectVersion
1070
     0
  0
DICTIONARYVAR
  5
F0
102
{ACAD_REACTORS
330
66
102
}
330
66
100
DictionaryVariables
280
     0
  1
1:1
  0
DICTIONARYVAR
  5
EF
102
{ACAD_REACTORS
330
66
102
}
330
66
100
DictionaryVariables
280
     0
  1
STANDARD
  0
DICTIONARYVAR
  5
89
102
{ACAD_REACTORS
330
66
102
}
330
66
100
DictionaryVariables
280
     0
  1
STANDARD
  0
DICTIONARYVAR
  5
11EC
102
{ACAD_REACTORS
330
66
102
}
330
66
100
DictionaryVariables
280
     0
  1
Imperial24
  0
DICTIONARYVAR
  5
11ED
102
{ACAD_REACTORS
330
66
102
}
330
66
100
DictionaryVariables
280
     0
  1
Imperial24
  0
DICTIONARYVAR
  5
67
102
{ACAD_REACTORS
330
66
102
}
330
66
100
DictionaryVariables
280
     0
  1
2
  0
DICTIONARYVAR
  5
6B
102
{ACAD_REACTORS
330
66
102
}
330
66
100
DictionaryVariables
280
     0
  1
1
  0
DICTIONARYVAR
  5
247
102
{ACAD_REACTORS
330
66
102
}
330
66
100
DictionaryVariables
280
     0
  1
0
  0
DICTIONARYVAR
  5
245
102
{ACAD_REACTORS
330
66
102
}
330
66
100
DictionaryVariables
280
     0
  1
2
  0
DICTIONARYVAR
  5
244
102
{ACAD_REACTORS
330
66
102
}
330
66
100
DictionaryVariables
280
     0
  1
1
  0
DICTIONARYVAR
  5
246
102
{ACAD_REACTORS
330
66
102
}
330
66
100
DictionaryVariables
280
     0
  1
127
  0
DICTIONARYVAR
  5
164F
102
{ACAD_REACTORS
330
66
102
}
330
66
100
DictionaryVariables
280
     0
  1
2
  0
DICTIONARY
  5
1690
330
E58
100
AcDbDictionary
280
     1
281
     1
  3
ACAD_XREC_ROUNDTRIP
360
1691
  0
DICTIONARY
  5
1694
330
E62
100
AcDbDictionary
280
     1
281
     1
  3
ACAD_XREC_ROUNDTRIP
360
1695
  0
DICTIONARY
  5
1655
330
59
100
AcDbDictionary
280
     1
281
     1
  3
ACAD_XREC_ROUNDTRIP
360
1656
  0
DICTIONARY
  5
1657
330
5E
100
AcDbDictionary
280
     1
281
     1
  3
ACAD_XREC_ROUNDTRIP
360
1658
  0
DICTIONARY
  5
1653
330
22
100
AcDbDictionary
280
     1
281
     1
  3
ACAD_XREC_ROUNDTRIP
360
1654
  0
DICTIONARY
  5
944
330
97
100
AcDbDictionary
280
     1
281
     1
  3
ACAD_XREC_ROUNDTRIP
360
945
  0
DICTIONARY
  5
942
330
96
100
AcDbDictionary
280
     1
281
     1
  3
ACAD_XREC_ROUNDTRIP
360
943
  0
DICTIONARY
  5
110
330
98
100
AcDbDictionary
280
     1
281
     1
  3
ACAD_XREC_ROUNDTRIP
360
946
  3
BUMPTILE
360
112
  3
DIFFUSETILE
360
111
  3
OPACITYTILE
360
113
  3
REFLECTIONTILE
360
114
  0
DICTIONARY
  5
168E
330
E56
100
AcDbDictionary
280
     1
281
     1
  3
ACAD_XREC_ROUNDTRIP
360
168F
  0
DICTIONARY
  5
1692
330
E61
100
AcDbDictionary
280
     1
281
     1
  3
ACAD_XREC_ROUNDTRIP
360
1693
  0
DICTIONARY
  5
104
330
87
100
AcDbDictionary
280
     1
281
     1
  3
ACAD_ROUNDTRIP_2008_TABLESTYLE_CELLSTYLEMAP
360
1650
  3
ACAD_XREC_ROUNDTRIP
360
1659
  0
DICTIONARY
  5
1664
330
9F
100
AcDbDictionary
280
     1
281
     1
  3
ACAD_XREC_ROUNDTRIP
360
1665
  0
DICTIONARY
  5
1668
330
A1
100
AcDbDictionary
280
     1
281
     1
  3
ACAD_XREC_ROUNDTRIP
360
1669
  0
DICTIONARY
  5
1666
330
A0
100
AcDbDictionary
280
     1
281
     1
  3
ACAD_XREC_ROUNDTRIP
360
1667
  0
DICTIONARY
  5
1662
330
9E
100
AcDbDictionary
280
     1
281
     1
  3
ACAD_XREC_ROUNDTRIP
360
1663
  0
DICTIONARY
  5
1670
330
A5
100
AcDbDictionary
280
     1
281
     1
  3
ACAD_XREC_ROUNDTRIP
360
1671
  0
DICTIONARY
  5
1678
330
A9
100
AcDbDictionary
280
     1
281
     1
  3
ACAD_XREC_ROUNDTRIP
360
1679
  0
DICTIONARY
  5
166A
330
A2
100
AcDbDictionary
280
     1
281
     1
  3
ACAD_XREC_ROUNDTRIP
360
166B
  0
DICTIONARY
  5
166E
330
A4
100
AcDbDictionary
280
     1
281
     1
  3
ACAD_XREC_ROUNDTRIP
360
166F
  0
DICTIONARY
  5
168C
330
E54
100
AcDbDictionary
280
     1
281
     1
  3
ACAD_XREC_ROUNDTRIP
360
168D
  0
DICTIONARY
  5
1676
330
A8
100
AcDbDictionary
280
     1
281
     1
  3
ACAD_XREC_ROUNDTRIP
360
1677
  0
DICTIONARY
  5
165A
330
9A
100
AcDbDictionary
280
     1
281
     1
  3
ACAD_XREC_ROUNDTRIP
360
165B
  0
DICTIONARY
  5
165C
330
9B
100
AcDbDictionary
280
     1
281
     1
  3
ACAD_XREC_ROUNDTRIP
360
165D
  0
DICTIONARY
  5
165E
330
9C
100
AcDbDictionary
280
     1
281
     1
  3
ACAD_XREC_ROUNDTRIP
360
165F
  0
DICTIONARY
  5
1660
330
9D
100
AcDbDictionary
280
     1
281
     1
  3
ACAD_XREC_ROUNDTRIP
360
1661
  0
DICTIONARY
  5
167C
330
E4C
100
AcDbDictionary
280
     1
281
     1
  3
ACAD_XREC_ROUNDTRIP
360
167D
  0
DICTIONARY
  5
1688
330
E52
100
AcDbDictionary
280
     1
281
     1
  3
ACAD_XREC_ROUNDTRIP
360
1689
  0
DICTIONARY
  5
1674
330
A7
100
AcDbDictionary
280
     1
281
     1
  3
ACAD_XREC_ROUNDTRIP
360
1675
  0
DICTIONARY
  5
168A
330
E53
100
AcDbDictionary
280
     1
281
     1
  3
ACAD_XREC_ROUNDTRIP
360
168B
  0
DICTIONARY
  5
166C
330
A3
100
AcDbDictionary
280
     1
281
     1
  3
ACAD_XREC_ROUNDTRIP
360
166D
  0
DICTIONARY
  5
1686
330
E51
100
AcDbDictionary
280
     1
281
     1
  3
ACAD_XREC_ROUNDTRIP
360
1687
  0
DICTIONARY
  5
1684
330
E50
100
AcDbDictionary
280
     1
281
     1
  3
ACAD_XREC_ROUNDTRIP
360
1685
  0
DICTIONARY
  5
167E
330
E4D
100
AcDbDictionary
280
     1
281
     1
  3
ACAD_XREC_ROUNDTRIP
360
167F
  0
DICTIONARY
  5
1680
330
E4E
100
AcDbDictionary
280
     1
281
     1
  3
ACAD_XREC_ROUNDTRIP
360
1681
  0
DICTIONARY
  5
1672
330
A6
100
AcDbDictionary
280
     1
281
     1
  3
ACAD_XREC_ROUNDTRIP
360
1673
  0
DICTIONARY
  5
167A
330
E4B
100
AcDbDictionary
280
     1
281
     1
  3
ACAD_XREC_ROUNDTRIP
360
167B
  0
DICTIONARY
  5
1682
330
E4F
100
AcDbDictionary
280
     1
281
     1
  3
ACAD_XREC_ROUNDTRIP
360
1683
  0
XRECORD
  5
1691
102
{ACAD_REACTORS
330
1690
102
}
330
1690
100
AcDbXrecord
280
     1
102
DISPLAYNAME
  1
Imperial24
102
FLAGS
 90
        0
  0
XRECORD
  5
1695
102
{ACAD_REACTORS
330
1694
102
}
330
1694
100
AcDbXrecord
280
     1
102
DISPLAYNAME
  1
Metric50
102
FLAGS
 90
        0
  0
XRECORD
  5
1656
102
{ACAD_REACTORS
330
1655
102
}
330
1655
100
AcDbXrecord
280
     1
102
SHADEPLOT
 70
     0
102
SHADEPLOTRESLEVEL
 70
     2
102
SHADEPLOTCUSTOMDPI
 70
   300
  0
XRECORD
  5
1658
102
{ACAD_REACTORS
330
1657
102
}
330
1657
100
AcDbXrecord
280
     1
102
SHADEPLOT
 70
     0
102
SHADEPLOTRESLEVEL
 70
     2
102
SHADEPLOTCUSTOMDPI
 70
   300
  0
XRECORD
  5
1654
102
{ACAD_REACTORS
330
1653
102
}
330
1653
100
AcDbXrecord
280
     1
102
SHADEPLOT
 70
     0
102
SHADEPLOTRESLEVEL
 70
     2
102
SHADEPLOTCUSTOMDPI
 70
   300
  0
XRECORD
  5
945
102
{ACAD_REACTORS
330
944
102
}
330
944
100
AcDbXrecord
280
     1
102
MATERIAL
148
0.0
149
0.0
149
0.0
 93
        0
 94
      127
282
     0
 72
     1
 77
     1
171
     1
175
     1
179
     1
273
     0
  0
XRECORD
  5
943
102
{ACAD_REACTORS
330
942
102
}
330
942
100
AcDbXrecord
280
     1
102
MATERIAL
148
0.0
149
0.0
149
0.0
 93
        0
 94
      127
282
     0
 72
     1
 77
     1
171
     1
175
     1
179
     1
273
     0
  0
XRECORD
  5
946
102
{ACAD_REACTORS
330
110
102
}
330
110
100
AcDbXrecord
280
     1
102
MATERIAL
148
0.0
149
0.0
149
0.0
 93
        0
 94
      127
282
     0
 72
     1
 77
     1
171
     1
175
     1
179
     1
273
     0
  0
XRECORD
  5
112
102
{ACAD_REACTORS
330
110
102
}
330
110
100
AcDbXrecord
280
     1
270
     1
271
     1
  0
XRECORD
  5
111
102
{ACAD_REACTORS
330
110
102
}
330
110
100
AcDbXrecord
280
     1
270
     1
271
     1
  0
XRECORD
  5
113
102
{ACAD_REACTORS
330
110
102
}
330
110
100
AcDbXrecord
280
     1
270
     1
271
     1
  0
XRECORD
  5
114
102
{ACAD_REACTORS
330
110
102
}
330
110
100
AcDbXrecord
280
     1
270
     1
271
     1
  0
XRECORD
  5
168F
102
{ACAD_REACTORS
330
168E
102
}
330
168E
100
AcDbXrecord
280
     1
102
DISPLAYNAME
  1
Imperial24
102
FLAGS
 90
        0
  0
XRECORD
  5
1693
102
{ACAD_REACTORS
330
1692
102
}
330
1692
100
AcDbXrecord
280
     1
102
DISPLAYNAME
  1
Metric50
102
FLAGS
 90
        0
  0
CELLSTYLEMAP
  5
1650
102
{ACAD_REACTORS
330
104
102
}
330
104
100
AcDbCellStyleMap
 90
        3
300
CELLSTYLE
  1
TABLEFORMAT_BEGIN
 90
        5
170
     1
 91
        0
 92
    32768
 62
   257
 93
        1
300
CONTENTFORMAT
  1
CONTENTFORMAT_BEGIN
 90
        0
 91
        0
 92
      512
 93
        0
300

 40
0.0
140
1.0
 94
        5
 62
     0
340
11
144
0.25
309
CONTENTFORMAT_END
171
     1
301
MARGIN
  1
CELLMARGIN_BEGIN
 40
0.06
 40
0.06
 40
0.06
 40
0.06
 40
0.18
 40
0.18
309
CELLMARGIN_END
 94
        6
 95
        1
302
GRIDFORMAT
  1
GRIDFORMAT_BEGIN
 90
        0
 91
        1
 62
     0
 92
       -2
340
0
 93
        0
 40
0.045
309
GRIDFORMAT_END
 95
        2
302
GRIDFORMAT
  1
GRIDFORMAT_BEGIN
 90
        0
 91
        1
 62
     0
 92
       -2
340
0
 93
        0
 40
0.045
309
GRIDFORMAT_END
 95
        4
302
GRIDFORMAT
  1
GRIDFORMAT_BEGIN
 90
        0
 91
        1
 62
     0
 92
       -2
340
0
 93
        0
 40
0.045
309
GRIDFORMAT_END
 95
        8
302
GRIDFORMAT
  1
GRIDFORMAT_BEGIN
 90
        0
 91
        1
 62
     0
 92
       -2
340
0
 93
        0
 40
0.045
309
GRIDFORMAT_END
 95
       16
302
GRIDFORMAT
  1
GRIDFORMAT_BEGIN
 90
        0
 91
        1
 62
     0
 92
       -2
340
0
 93
        0
 40
0.045
309
GRIDFORMAT_END
 95
       32
302
GRIDFORMAT
  1
GRIDFORMAT_BEGIN
 90
        0
 91
        1
 62
     0
 92
       -2
340
0
 93
        0
 40
0.045
309
GRIDFORMAT_END
309
TABLEFORMAT_END
  1
CELLSTYLE_BEGIN
 90
        1
 91
        1
300
_TITLE
309
CELLSTYLE_END
300
CELLSTYLE
  1
TABLEFORMAT_BEGIN
 90
        5
170
     1
 91
        0
 92
        0
 62
   257
 93
        1
300
CONTENTFORMAT
  1
CONTENTFORMAT_BEGIN
 90
        0
 91
        0
 92
      512
 93
        0
300

 40
0.0
140
1.0
 94
        5
 62
     0
340
11
144
0.18
309
CONTENTFORMAT_END
171
     1
301
MARGIN
  1
CELLMARGIN_BEGIN
 40
0.06
 40
0.06
 40
0.06
 40
0.06
 40
0.18
 40
0.18
309
CELLMARGIN_END
 94
        6
 95
        1
302
GRIDFORMAT
  1
GRIDFORMAT_BEGIN
 90
        0
 91
        1
 62
     0
 92
       -2
340
0
 93
        0
 40
0.045
309
GRIDFORMAT_END
 95
        2
302
GRIDFORMAT
  1
GRIDFORMAT_BEGIN
 90
        0
 91
        1
 62
     0
 92
       -2
340
0
 93
        0
 40
0.045
309
GRIDFORMAT_END
 95
        4
302
GRIDFORMAT
  1
GRIDFORMAT_BEGIN
 90
        0
 91
        1
 62
     0
 92
       -2
340
0
 93
        0
 40
0.045
309
GRIDFORMAT_END
 95
        8
302
GRIDFORMAT
  1
GRIDFORMAT_BEGIN
 90
        0
 91
        1
 62
     0
 92
       -2
340
0
 93
        0
 40
0.045
309
GRIDFORMAT_END
 95
       16
302
GRIDFORMAT
  1
GRIDFORMAT_BEGIN
 90
        0
 91
        1
 62
     0
 92
       -2
340
0
 93
        0
 40
0.045
309
GRIDFORMAT_END
 95
       32
302
GRIDFORMAT
  1
GRIDFORMAT_BEGIN
 90
        0
 91
        1
 62
     0
 92
       -2
340
0
 93
        0
 40
0.045
309
GRIDFORMAT_END
309
TABLEFORMAT_END
  1
CELLSTYLE_BEGIN
 90
        2
 91
        1
300
_HEADER
309
CELLSTYLE_END
300
CELLSTYLE
  1
TABLEFORMAT_BEGIN
 90
        5
170
     1
 91
        0
 92
        0
 62
   257
 93
        1
300
CONTENTFORMAT
  1
CONTENTFORMAT_BEGIN
 90
        0
 91
        0
 92
      512
 93
        0
300

 40
0.0
140
1.0
 94
        2
 62
     0
340
11
144
0.18
309
CONTENTFORMAT_END
171
     1
301
MARGIN
  1
CELLMARGIN_BEGIN
 40
0.06
 40
0.06
 40
0.06
 40
0.06
 40
0.18
 40
0.18
309
CELLMARGIN_END
 94
        6
 95
        1
302
GRIDFORMAT
  1
GRIDFORMAT_BEGIN
 90
        0
 91
        1
 62
     0
 92
       -2
340
0
 93
        0
 40
0.045
309
GRIDFORMAT_END
 95
        2
302
GRIDFORMAT
  1
GRIDFORMAT_BEGIN
 90
        0
 91
        1
 62
     0
 92
       -2
340
0
 93
        0
 40
0.045
309
GRIDFORMAT_END
 95
        4
302
GRIDFORMAT
  1
GRIDFORMAT_BEGIN
 90
        0
 91
        1
 62
     0
 92
       -2
340
0
 93
        0
 40
0.045
309
GRIDFORMAT_END
 95
        8
302
GRIDFORMAT
  1
GRIDFORMAT_BEGIN
 90
        0
 91
        1
 62
     0
 92
       -2
340
0
 93
        0
 40
0.045
309
GRIDFORMAT_END
 95
       16
302
GRIDFORMAT
  1
GRIDFORMAT_BEGIN
 90
        0
 91
        1
 62
     0
 92
       -2
340
0
 93
        0
 40
0.045
309
GRIDFORMAT_END
 95
       32
302
GRIDFORMAT
  1
GRIDFORMAT_BEGIN
 90
        0
 91
        1
 62
     0
 92
       -2
340
0
 93
        0
 40
0.045
309
GRIDFORMAT_END
309
TABLEFORMAT_END
  1
CELLSTYLE_BEGIN
 90
        3
 91
        2
300
_DATA
309
CELLSTYLE_END
  0
XRECORD
  5
1659
102
{ACAD_REACTORS
330
104
102
}
330
104
100
AcDbXrecord
280
     1
102
ACAD_ROUNDTRIP_PRE2007_TABLESTYLE
 90
      512
 91
        0
  1

 92
      512
 93
        0
  2

 94
      512
 95
        0
  3

  0
XRECORD
  5
1665
102
{ACAD_REACTORS
330
1664
102
}
330
1664
100
AcDbXrecord
280
     1
102
RTVSPost2010Prop28
280
     1
102
RTVSPost2010PropOp28
 70
     1
102
RTVSPost2010Prop29
280
     1
102
RTVSPost2010PropOp29
 70
     1
102
RTVSPost2010Prop30
280
     0
102
RTVSPost2010PropOp30
 70
     1
102
RTVSPost2010Prop31
280
     0
102
RTVSPost2010PropOp31
 70
     1
102
RTVSPost2010Prop32
280
     0
102
RTVSPost2010PropOp32
 70
     1
102
RTVSPost2010Prop33
280
     0
102
RTVSPost2010PropOp33
 70
     1
102
RTVSPost2010Prop34
280
     0
102
RTVSPost2010PropOp34
 70
     1
102
RTVSPost2010Prop35
280
     0
102
RTVSPost2010PropOp35
 70
     1
102
RTVSPost2010Prop36
280
     0
102
RTVSPost2010PropOp36
 70
     1
102
RTVSPost2010Prop37
 90
       50
102
RTVSPost2010PropOp37
 70
     1
102
RTVSPost2010Prop38
140
0.0
102
RTVSPost2010PropOp38
 70
     1
102
RTVSPost2010Prop39
140
1.0
102
RTVSPost2010PropOp39
 70
     1
102
RTVSPost2010Prop40
 90
        0
102
RTVSPost2010PropOp40
 70
     1
102
RTVSPost2010Prop41ColorIndex
 90
       18
102
RTVSPost2010Prop41ColorRGB
 90
        0
102
RTVSPost2010PropOp41
 70
     1
102
RTVSPost2010Prop42
 90
       50
102
RTVSPost2010PropOp42
 70
     1
102
RTVSPost2010Prop43
 90
        3
102
RTVSPost2010PropOp43
 70
     1
102
RTVSPost2010Prop44ColorIndex
 90
        5
102
RTVSPost2010Prop44ColorRGB
 90
      255
102
RTVSPost2010PropOp44
 70
     1
102
RTVSPost2010Prop45
280
     0
102
RTVSPost2010PropOp45
 70
     1
102
RTVSPost2010Prop46
 90
       50
102
RTVSPost2010PropOp46
 70
     1
102
RTVSPost2010Prop47
 90
       50
102
RTVSPost2010PropOp47
 70
     1
102
RTVSPost2010Prop48
 90
       50
102
RTVSPost2010PropOp48
 70
     1
102
RTVSPost2010Prop49
280
     0
102
RTVSPost2010PropOp49
 70
     1
102
RTVSPost2010Prop50
 90
       50
102
RTVSPost2010PropOp50
 70
     1
102
RTVSPost2010Prop51ColorIndex
 90
      256
102
RTVSPost2010Prop51ColorRGB
 90
-16777216
102
RTVSPost2010PropOp51
 70
     0
102
RTVSPost2010Prop52
140
1.0
102
RTVSPost2010PropOp52
 70
     0
102
RTVSPost2010Prop53
 90
        2
102
RTVSPost2010PropOp53
 70
     1
102
RTVSPost2010Prop54
  1
strokes_ogs.tif
102
RTVSPost2010PropOp54
 70
     1
102
RTVSPost2010Prop55
280
     0
102
RTVSPost2010PropOp55
 70
     1
102
RTVSPost2010Prop56
140
1.0
102
RTVSPost2010PropOp56
 70
     1
102
RTVSPost2010Prop57
140
1.0
102
RTVSPost2010PropOp57
 70
     1
102
RTVSPropertyOp0
 70
     1
102
RTVSPropertyOp1
 70
     1
102
RTVSPropertyOp2
 70
     1
102
RTVSPropertyOp3
 70
     1
102
RTVSPropertyOp4
 70
     1
102
RTVSPropertyOp5
 70
     1
102
RTVSPropertyOp6
 70
     1
102
RTVSPropertyOp7
 70
     1
102
RTVSPropertyOp8
 70
     1
102
RTVSPropertyOp9
 70
     1
102
RTVSPropertyOp10
 70
     1
102
RTVSPropertyOp11
 70
     1
102
RTVSPropertyOp12
 70
     1
102
RTVSPropertyOp13
 70
     1
102
RTVSPropertyOp14
 70
     1
102
RTVSPropertyOp15
 70
     1
102
RTVSPropertyOp16
 70
     1
102
RTVSPropertyOp17
 70
     1
102
RTVSPropertyOp18
 70
     1
102
RTVSPropertyOp19
 70
     1
102
RTVSPropertyOp20
 70
     1
102
RTVSPropertyOp21
 70
     1
102
RTVSPropertyOp22
 70
     1
102
RTVSPropertyOp23
 70
     1
102
RTVSPropertyOp24
 70
     1
102
RTVSPropertyOp25
 70
     1
102
RTVSPropertyOp26
 70
     1
102
RTVSPropertyOp27
 70
     1
102
RTVSPropertyOp28
 70
     1
102
RTVSPropertyOp29
 70
     1
102
RTVSPropertyOp30
 70
     1
102
RTVSPropertyOp31
 70
     1
102
RTVSPropertyOp32
 70
     1
102
RTVSPropertyOp33
 70
     1
102
RTVSPropertyOp34
 70
     1
102
RTVSPropertyOp35
 70
     1
102
RTVSPropertyOp36
 70
     1
102
RTVSPropertyOp37
 70
     1
102
RTVSPropertyOp38
 70
     1
102
RTVSPropertyOp39
 70
     1
102
RTVSPropertyOp40
 70
     1
102
RTVSPropertyOp41
 70
     1
102
RTVSPropertyOp42
 70
     1
102
RTVSPropertyOp43
 70
     1
102
RTVSPropertyOp44
 70
     1
102
RTVSPropertyOp45
 70
     1
102
RTVSPropertyOp46
 70
     1
102
RTVSPropertyOp47
 70
     1
102
RTVSPropertyOp48
 70
     1
102
RTVSPropertyOp49
 70
     1
102
RTVSPropertyOp50
 70
     1
102
RTVSPropertyOp51
 70
     0
102
RTVSPropertyOp52
 70
     0
102
RTVSPropertyOp53
 70
     1
102
RTVSPropertyOp54
 70
     1
102
RTVSPropertyOp55
 70
     1
102
RTVSPropertyOp56
 70
     1
102
RTVSPropertyOp57
 70
     1
102
RTVSPropertyOp58
 70
     1
102
RTVSPropertyOp59
 70
     1
102
RTVSPropertyOp60
 70
     1
102
RTVSPropertyOp61
 70
     1
102
RTVSPropertyOp62
 70
     1
  0
XRECORD
  5
1669
102
{ACAD_REACTORS
330
1668
102
}
330
1668
100
AcDbXrecord
280
     1
102
RTVSPost2010Prop28
280
     0
102
RTVSPost2010PropOp28
 70
     1
102
RTVSPost2010Prop29
280
     1
102
RTVSPost2010PropOp29
 70
     1
102
RTVSPost2010Prop30
280
     1
102
RTVSPost2010PropOp30
 70
     1
102
RTVSPost2010Prop31
280
     0
102
RTVSPost2010PropOp31
 70
     1
102
RTVSPost2010Prop32
280
     0
102
RTVSPost2010PropOp32
 70
     1
102
RTVSPost2010Prop33
280
     0
102
RTVSPost2010PropOp33
 70
     1
102
RTVSPost2010Prop34
280
     0
102
RTVSPost2010PropOp34
 70
     1
102
RTVSPost2010Prop35
280
     0
102
RTVSPost2010PropOp35
 70
     1
102
RTVSPost2010Prop36
280
     0
102
RTVSPost2010PropOp36
 70
     1
102
RTVSPost2010Prop37
 90
       50
102
RTVSPost2010PropOp37
 70
     1
102
RTVSPost2010Prop38
140
0.0
102
RTVSPost2010PropOp38
 70
     1
102
RTVSPost2010Prop39
140
1.0
102
RTVSPost2010PropOp39
 70
     1
102
RTVSPost2010Prop40
 90
        0
102
RTVSPost2010PropOp40
 70
     1
102
RTVSPost2010Prop41ColorIndex
 90
       18
102
RTVSPost2010Prop41ColorRGB
 90
        0
102
RTVSPost2010PropOp41
 70
     1
102
RTVSPost2010Prop42
 90
       50
102
RTVSPost2010PropOp42
 70
     1
102
RTVSPost2010Prop43
 90
        3
102
RTVSPost2010PropOp43
 70
     1
102
RTVSPost2010Prop44ColorIndex
 90
        5
102
RTVSPost2010Prop44ColorRGB
 90
      255
102
RTVSPost2010PropOp44
 70
     1
102
RTVSPost2010Prop45
280
     0
102
RTVSPost2010PropOp45
 70
     1
102
RTVSPost2010Prop46
 90
       50
102
RTVSPost2010PropOp46
 70
     1
102
RTVSPost2010Prop47
 90
       50
102
RTVSPost2010PropOp47
 70
     1
102
RTVSPost2010Prop48
 90
       50
102
RTVSPost2010PropOp48
 70
     1
102
RTVSPost2010Prop49
280
     0
102
RTVSPost2010PropOp49
 70
     1
102
RTVSPost2010Prop50
 90
       50
102
RTVSPost2010PropOp50
 70
     1
102
RTVSPost2010Prop51ColorIndex
 90
      256
102
RTVSPost2010Prop51ColorRGB
 90
-16777216
102
RTVSPost2010PropOp51
 70
     0
102
RTVSPost2010Prop52
140
1.0
102
RTVSPost2010PropOp52
 70
     0
102
RTVSPost2010Prop53
 90
        2
102
RTVSPost2010PropOp53
 70
     1
102
RTVSPost2010Prop54
  1
strokes_ogs.tif
102
RTVSPost2010PropOp54
 70
     1
102
RTVSPost2010Prop55
280
     0
102
RTVSPost2010PropOp55
 70
     1
102
RTVSPost2010Prop56
140
1.0
102
RTVSPost2010PropOp56
 70
     1
102
RTVSPost2010Prop57
140
1.0
102
RTVSPost2010PropOp57
 70
     1
102
RTVSPropertyOp0
 70
     1
102
RTVSPropertyOp1
 70
     1
102
RTVSPropertyOp2
 70
     1
102
RTVSPropertyOp3
 70
     1
102
RTVSPropertyOp4
 70
     1
102
RTVSPropertyOp5
 70
     1
102
RTVSPropertyOp6
 70
     1
102
RTVSPropertyOp7
 70
     1
102
RTVSPropertyOp8
 70
     1
102
RTVSPropertyOp9
 70
     1
102
RTVSPropertyOp10
 70
     1
102
RTVSPropertyOp11
 70
     1
102
RTVSPropertyOp12
 70
     1
102
RTVSPropertyOp13
 70
     1
102
RTVSPropertyOp14
 70
     1
102
RTVSPropertyOp15
 70
     1
102
RTVSPropertyOp16
 70
     1
102
RTVSPropertyOp17
 70
     1
102
RTVSPropertyOp18
 70
     1
102
RTVSPropertyOp19
 70
     1
102
RTVSPropertyOp20
 70
     1
102
RTVSPropertyOp21
 70
     1
102
RTVSPropertyOp22
 70
     1
102
RTVSPropertyOp23
 70
     1
102
RTVSPropertyOp24
 70
     1
102
RTVSPropertyOp25
 70
     1
102
RTVSPropertyOp26
 70
     1
102
RTVSPropertyOp27
 70
     1
102
RTVSPropertyOp28
 70
     1
102
RTVSPropertyOp29
 70
     1
102
RTVSPropertyOp30
 70
     1
102
RTVSPropertyOp31
 70
     1
102
RTVSPropertyOp32
 70
     1
102
RTVSPropertyOp33
 70
     1
102
RTVSPropertyOp34
 70
     1
102
RTVSPropertyOp35
 70
     1
102
RTVSPropertyOp36
 70
     1
102
RTVSPropertyOp37
 70
     1
102
RTVSPropertyOp38
 70
     1
102
RTVSPropertyOp39
 70
     1
102
RTVSPropertyOp40
 70
     1
102
RTVSPropertyOp41
 70
     1
102
RTVSPropertyOp42
 70
     1
102
RTVSPropertyOp43
 70
     1
102
RTVSPropertyOp44
 70
     1
102
RTVSPropertyOp45
 70
     1
102
RTVSPropertyOp46
 70
     1
102
RTVSPropertyOp47
 70
     1
102
RTVSPropertyOp48
 70
     1
102
RTVSPropertyOp49
 70
     1
102
RTVSPropertyOp50
 70
     1
102
RTVSPropertyOp51
 70
     0
102
RTVSPropertyOp52
 70
     0
102
RTVSPropertyOp53
 70
     1
102
RTVSPropertyOp54
 70
     1
102
RTVSPropertyOp55
 70
     1
102
RTVSPropertyOp56
 70
     1
102
RTVSPropertyOp57
 70
     1
102
RTVSPropertyOp58
 70
     1
102
RTVSPropertyOp59
 70
     1
102
RTVSPropertyOp60
 70
     1
102
RTVSPropertyOp61
 70
     1
102
RTVSPropertyOp62
 70
     1
  0
XRECORD
  5
1667
102
{ACAD_REACTORS
330
1666
102
}
330
1666
100
AcDbXrecord
280
     1
102
RTVSPost2010Prop28
280
     0
102
RTVSPost2010PropOp28
 70
     1
102
RTVSPost2010Prop29
280
     1
102
RTVSPost2010PropOp29
 70
     1
102
RTVSPost2010Prop30
280
     1
102
RTVSPost2010PropOp30
 70
     1
102
RTVSPost2010Prop31
280
     0
102
RTVSPost2010PropOp31
 70
     1
102
RTVSPost2010Prop32
280
     0
102
RTVSPost2010PropOp32
 70
     1
102
RTVSPost2010Prop33
280
     0
102
RTVSPost2010PropOp33
 70
     1
102
RTVSPost2010Prop34
280
     0
102
RTVSPost2010PropOp34
 70
     1
102
RTVSPost2010Prop35
280
     0
102
RTVSPost2010PropOp35
 70
     1
102
RTVSPost2010Prop36
280
     0
102
RTVSPost2010PropOp36
 70
     1
102
RTVSPost2010Prop37
 90
       50
102
RTVSPost2010PropOp37
 70
     1
102
RTVSPost2010Prop38
140
0.0
102
RTVSPost2010PropOp38
 70
     1
102
RTVSPost2010Prop39
140
1.0
102
RTVSPost2010PropOp39
 70
     1
102
RTVSPost2010Prop40
 90
        0
102
RTVSPost2010PropOp40
 70
     1
102
RTVSPost2010Prop41ColorIndex
 90
       18
102
RTVSPost2010Prop41ColorRGB
 90
        0
102
RTVSPost2010PropOp41
 70
     1
102
RTVSPost2010Prop42
 90
       50
102
RTVSPost2010PropOp42
 70
     1
102
RTVSPost2010Prop43
 90
        3
102
RTVSPost2010PropOp43
 70
     1
102
RTVSPost2010Prop44ColorIndex
 90
        5
102
RTVSPost2010Prop44ColorRGB
 90
      255
102
RTVSPost2010PropOp44
 70
     1
102
RTVSPost2010Prop45
280
     0
102
RTVSPost2010PropOp45
 70
     1
102
RTVSPost2010Prop46
 90
       50
102
RTVSPost2010PropOp46
 70
     1
102
RTVSPost2010Prop47
 90
       50
102
RTVSPost2010PropOp47
 70
     1
102
RTVSPost2010Prop48
 90
       50
102
RTVSPost2010PropOp48
 70
     1
102
RTVSPost2010Prop49
280
     0
102
RTVSPost2010PropOp49
 70
     1
102
RTVSPost2010Prop50
 90
       50
102
RTVSPost2010PropOp50
 70
     1
102
RTVSPost2010Prop51ColorIndex
 90
      256
102
RTVSPost2010Prop51ColorRGB
 90
-16777216
102
RTVSPost2010PropOp51
 70
     0
102
RTVSPost2010Prop52
140
1.0
102
RTVSPost2010PropOp52
 70
     0
102
RTVSPost2010Prop53
 90
        2
102
RTVSPost2010PropOp53
 70
     1
102
RTVSPost2010Prop54
  1
strokes_ogs.tif
102
RTVSPost2010PropOp54
 70
     1
102
RTVSPost2010Prop55
280
     0
102
RTVSPost2010PropOp55
 70
     1
102
RTVSPost2010Prop56
140
1.0
102
RTVSPost2010PropOp56
 70
     1
102
RTVSPost2010Prop57
140
1.0
102
RTVSPost2010PropOp57
 70
     1
102
RTVSPropertyOp0
 70
     1
102
RTVSPropertyOp1
 70
     1
102
RTVSPropertyOp2
 70
     1
102
RTVSPropertyOp3
 70
     1
102
RTVSPropertyOp4
 70
     1
102
RTVSPropertyOp5
 70
     1
102
RTVSPropertyOp6
 70
     1
102
RTVSPropertyOp7
 70
     1
102
RTVSPropertyOp8
 70
     1
102
RTVSPropertyOp9
 70
     1
102
RTVSPropertyOp10
 70
     1
102
RTVSPropertyOp11
 70
     1
102
RTVSPropertyOp12
 70
     1
102
RTVSPropertyOp13
 70
     1
102
RTVSPropertyOp14
 70
     1
102
RTVSPropertyOp15
 70
     1
102
RTVSPropertyOp16
 70
     1
102
RTVSPropertyOp17
 70
     1
102
RTVSPropertyOp18
 70
     1
102
RTVSPropertyOp19
 70
     1
102
RTVSPropertyOp20
 70
     1
102
RTVSPropertyOp21
 70
     1
102
RTVSPropertyOp22
 70
     1
102
RTVSPropertyOp23
 70
     1
102
RTVSPropertyOp24
 70
     1
102
RTVSPropertyOp25
 70
     1
102
RTVSPropertyOp26
 70
     1
102
RTVSPropertyOp27
 70
     1
102
RTVSPropertyOp28
 70
     1
102
RTVSPropertyOp29
 70
     1
102
RTVSPropertyOp30
 70
     1
102
RTVSPropertyOp31
 70
     1
102
RTVSPropertyOp32
 70
     1
102
RTVSPropertyOp33
 70
     1
102
RTVSPropertyOp34
 70
     1
102
RTVSPropertyOp35
 70
     1
102
RTVSPropertyOp36
 70
     1
102
RTVSPropertyOp37
 70
     1
102
RTVSPropertyOp38
 70
     1
102
RTVSPropertyOp39
 70
     1
102
RTVSPropertyOp40
 70
     1
102
RTVSPropertyOp41
 70
     1
102
RTVSPropertyOp42
 70
     1
102
RTVSPropertyOp43
 70
     1
102
RTVSPropertyOp44
 70
     1
102
RTVSPropertyOp45
 70
     1
102
RTVSPropertyOp46
 70
     1
102
RTVSPropertyOp47
 70
     1
102
RTVSPropertyOp48
 70
     1
102
RTVSPropertyOp49
 70
     1
102
RTVSPropertyOp50
 70
     1
102
RTVSPropertyOp51
 70
     0
102
RTVSPropertyOp52
 70
     0
102
RTVSPropertyOp53
 70
     1
102
RTVSPropertyOp54
 70
     1
102
RTVSPropertyOp55
 70
     1
102
RTVSPropertyOp56
 70
     1
102
RTVSPropertyOp57
 70
     1
102
RTVSPropertyOp58
 70
     1
102
RTVSPropertyOp59
 70
     1
102
RTVSPropertyOp60
 70
     1
102
RTVSPropertyOp61
 70
     1
102
RTVSPropertyOp62
 70
     1
  0
XRECORD
  5
1663
102
{ACAD_REACTORS
330
1662
102
}
330
1662
100
AcDbXrecord
280
     1
102
RTVSPost2010Prop28
280
     0
102
RTVSPost2010PropOp28
 70
     1
102
RTVSPost2010Prop29
280
     1
102
RTVSPost2010PropOp29
 70
     1
102
RTVSPost2010Prop30
280
     1
102
RTVSPost2010PropOp30
 70
     1
102
RTVSPost2010Prop31
280
     0
102
RTVSPost2010PropOp31
 70
     1
102
RTVSPost2010Prop32
280
     0
102
RTVSPost2010PropOp32
 70
     1
102
RTVSPost2010Prop33
280
     0
102
RTVSPost2010PropOp33
 70
     1
102
RTVSPost2010Prop34
280
     0
102
RTVSPost2010PropOp34
 70
     1
102
RTVSPost2010Prop35
280
     0
102
RTVSPost2010PropOp35
 70
     1
102
RTVSPost2010Prop36
280
     0
102
RTVSPost2010PropOp36
 70
     1
102
RTVSPost2010Prop37
 90
       50
102
RTVSPost2010PropOp37
 70
     1
102
RTVSPost2010Prop38
140
0.0
102
RTVSPost2010PropOp38
 70
     1
102
RTVSPost2010Prop39
140
1.0
102
RTVSPost2010PropOp39
 70
     1
102
RTVSPost2010Prop40
 90
        0
102
RTVSPost2010PropOp40
 70
     1
102
RTVSPost2010Prop41ColorIndex
 90
       18
102
RTVSPost2010Prop41ColorRGB
 90
        0
102
RTVSPost2010PropOp41
 70
     1
102
RTVSPost2010Prop42
 90
       50
102
RTVSPost2010PropOp42
 70
     1
102
RTVSPost2010Prop43
 90
        3
102
RTVSPost2010PropOp43
 70
     1
102
RTVSPost2010Prop44ColorIndex
 90
        5
102
RTVSPost2010Prop44ColorRGB
 90
      255
102
RTVSPost2010PropOp44
 70
     1
102
RTVSPost2010Prop45
280
     0
102
RTVSPost2010PropOp45
 70
     1
102
RTVSPost2010Prop46
 90
       50
102
RTVSPost2010PropOp46
 70
     1
102
RTVSPost2010Prop47
 90
       50
102
RTVSPost2010PropOp47
 70
     1
102
RTVSPost2010Prop48
 90
       50
102
RTVSPost2010PropOp48
 70
     1
102
RTVSPost2010Prop49
280
     0
102
RTVSPost2010PropOp49
 70
     1
102
RTVSPost2010Prop50
 90
       50
102
RTVSPost2010PropOp50
 70
     1
102
RTVSPost2010Prop51ColorIndex
 90
      256
102
RTVSPost2010Prop51ColorRGB
 90
-16777216
102
RTVSPost2010PropOp51
 70
     0
102
RTVSPost2010Prop52
140
1.0
102
RTVSPost2010PropOp52
 70
     0
102
RTVSPost2010Prop53
 90
        2
102
RTVSPost2010PropOp53
 70
     1
102
RTVSPost2010Prop54
  1
strokes_ogs.tif
102
RTVSPost2010PropOp54
 70
     1
102
RTVSPost2010Prop55
280
     0
102
RTVSPost2010PropOp55
 70
     1
102
RTVSPost2010Prop56
140
1.0
102
RTVSPost2010PropOp56
 70
     1
102
RTVSPost2010Prop57
140
1.0
102
RTVSPost2010PropOp57
 70
     1
102
RTVSPropertyOp0
 70
     1
102
RTVSPropertyOp1
 70
     1
102
RTVSPropertyOp2
 70
     1
102
RTVSPropertyOp3
 70
     1
102
RTVSPropertyOp4
 70
     1
102
RTVSPropertyOp5
 70
     1
102
RTVSPropertyOp6
 70
     1
102
RTVSPropertyOp7
 70
     1
102
RTVSPropertyOp8
 70
     1
102
RTVSPropertyOp9
 70
     1
102
RTVSPropertyOp10
 70
     1
102
RTVSPropertyOp11
 70
     1
102
RTVSPropertyOp12
 70
     1
102
RTVSPropertyOp13
 70
     1
102
RTVSPropertyOp14
 70
     1
102
RTVSPropertyOp15
 70
     1
102
RTVSPropertyOp16
 70
     1
102
RTVSPropertyOp17
 70
     1
102
RTVSPropertyOp18
 70
     1
102
RTVSPropertyOp19
 70
     1
102
RTVSPropertyOp20
 70
     1
102
RTVSPropertyOp21
 70
     1
102
RTVSPropertyOp22
 70
     1
102
RTVSPropertyOp23
 70
     1
102
RTVSPropertyOp24
 70
     1
102
RTVSPropertyOp25
 70
     1
102
RTVSPropertyOp26
 70
     1
102
RTVSPropertyOp27
 70
     1
102
RTVSPropertyOp28
 70
     1
102
RTVSPropertyOp29
 70
     1
102
RTVSPropertyOp30
 70
     1
102
RTVSPropertyOp31
 70
     1
102
RTVSPropertyOp32
 70
     1
102
RTVSPropertyOp33
 70
     1
102
RTVSPropertyOp34
 70
     1
102
RTVSPropertyOp35
 70
     1
102
RTVSPropertyOp36
 70
     1
102
RTVSPropertyOp37
 70
     1
102
RTVSPropertyOp38
 70
     1
102
RTVSPropertyOp39
 70
     1
102
RTVSPropertyOp40
 70
     1
102
RTVSPropertyOp41
 70
     1
102
RTVSPropertyOp42
 70
     1
102
RTVSPropertyOp43
 70
     1
102
RTVSPropertyOp44
 70
     1
102
RTVSPropertyOp45
 70
     1
102
RTVSPropertyOp46
 70
     1
102
RTVSPropertyOp47
 70
     1
102
RTVSPropertyOp48
 70
     1
102
RTVSPropertyOp49
 70
     1
102
RTVSPropertyOp50
 70
     1
102
RTVSPropertyOp51
 70
     0
102
RTVSPropertyOp52
 70
     0
102
RTVSPropertyOp53
 70
     1
102
RTVSPropertyOp54
 70
     1
102
RTVSPropertyOp55
 70
     1
102
RTVSPropertyOp56
 70
     1
102
RTVSPropertyOp57
 70
     1
102
RTVSPropertyOp58
 70
     1
102
RTVSPropertyOp59
 70
     1
102
RTVSPropertyOp60
 70
     1
102
RTVSPropertyOp61
 70
     1
102
RTVSPropertyOp62
 70
     1
  0
XRECORD
  5
1671
102
{ACAD_REACTORS
330
1670
102
}
330
1670
100
AcDbXrecord
280
     1
102
RTVSPost2010Prop28
280
     0
102
RTVSPost2010PropOp28
 70
     1
102
RTVSPost2010Prop29
280
     1
102
RTVSPost2010PropOp29
 70
     1
102
RTVSPost2010Prop30
280
     1
102
RTVSPost2010PropOp30
 70
     1
102
RTVSPost2010Prop31
280
     0
102
RTVSPost2010PropOp31
 70
     1
102
RTVSPost2010Prop32
280
     0
102
RTVSPost2010PropOp32
 70
     1
102
RTVSPost2010Prop33
280
     0
102
RTVSPost2010PropOp33
 70
     1
102
RTVSPost2010Prop34
280
     0
102
RTVSPost2010PropOp34
 70
     1
102
RTVSPost2010Prop35
280
     0
102
RTVSPost2010PropOp35
 70
     1
102
RTVSPost2010Prop36
280
     0
102
RTVSPost2010PropOp36
 70
     1
102
RTVSPost2010Prop37
 90
       50
102
RTVSPost2010PropOp37
 70
     1
102
RTVSPost2010Prop38
140
0.0
102
RTVSPost2010PropOp38
 70
     1
102
RTVSPost2010Prop39
140
1.0
102
RTVSPost2010PropOp39
 70
     1
102
RTVSPost2010Prop40
 90
        0
102
RTVSPost2010PropOp40
 70
     1
102
RTVSPost2010Prop41ColorIndex
 90
       18
102
RTVSPost2010Prop41ColorRGB
 90
        0
102
RTVSPost2010PropOp41
 70
     1
102
RTVSPost2010Prop42
 90
       50
102
RTVSPost2010PropOp42
 70
     1
102
RTVSPost2010Prop43
 90
        3
102
RTVSPost2010PropOp43
 70
     1
102
RTVSPost2010Prop44ColorIndex
 90
        5
102
RTVSPost2010Prop44ColorRGB
 90
      255
102
RTVSPost2010PropOp44
 70
     1
102
RTVSPost2010Prop45
280
     0
102
RTVSPost2010PropOp45
 70
     1
102
RTVSPost2010Prop46
 90
       50
102
RTVSPost2010PropOp46
 70
     1
102
RTVSPost2010Prop47
 90
       50
102
RTVSPost2010PropOp47
 70
     1
102
RTVSPost2010Prop48
 90
       50
102
RTVSPost2010PropOp48
 70
     1
102
RTVSPost2010Prop49
280
     0
102
RTVSPost2010PropOp49
 70
     1
102
RTVSPost2010Prop50
 90
       50
102
RTVSPost2010PropOp50
 70
     1
102
RTVSPost2010Prop51ColorIndex
 90
      256
102
RTVSPost2010Prop51ColorRGB
 90
-16777216
102
RTVSPost2010PropOp51
 70
     0
102
RTVSPost2010Prop52
140
1.0
102
RTVSPost2010PropOp52
 70
     0
102
RTVSPost2010Prop53
 90
        2
102
RTVSPost2010PropOp53
 70
     1
102
RTVSPost2010Prop54
  1
strokes_ogs.tif
102
RTVSPost2010PropOp54
 70
     1
102
RTVSPost2010Prop55
280
     0
102
RTVSPost2010PropOp55
 70
     1
102
RTVSPost2010Prop56
140
1.0
102
RTVSPost2010PropOp56
 70
     1
102
RTVSPost2010Prop57
140
1.0
102
RTVSPost2010PropOp57
 70
     1
102
RTVSPropertyOp0
 70
     1
102
RTVSPropertyOp1
 70
     1
102
RTVSPropertyOp2
 70
     1
102
RTVSPropertyOp3
 70
     1
102
RTVSPropertyOp4
 70
     1
102
RTVSPropertyOp5
 70
     1
102
RTVSPropertyOp6
 70
     1
102
RTVSPropertyOp7
 70
     1
102
RTVSPropertyOp8
 70
     1
102
RTVSPropertyOp9
 70
     1
102
RTVSPropertyOp10
 70
     1
102
RTVSPropertyOp11
 70
     1
102
RTVSPropertyOp12
 70
     1
102
RTVSPropertyOp13
 70
     1
102
RTVSPropertyOp14
 70
     1
102
RTVSPropertyOp15
 70
     1
102
RTVSPropertyOp16
 70
     1
102
RTVSPropertyOp17
 70
     1
102
RTVSPropertyOp18
 70
     1
102
RTVSPropertyOp19
 70
     1
102
RTVSPropertyOp20
 70
     1
102
RTVSPropertyOp21
 70
     1
102
RTVSPropertyOp22
 70
     1
102
RTVSPropertyOp23
 70
     1
102
RTVSPropertyOp24
 70
     1
102
RTVSPropertyOp25
 70
     1
102
RTVSPropertyOp26
 70
     1
102
RTVSPropertyOp27
 70
     1
102
RTVSPropertyOp28
 70
     1
102
RTVSPropertyOp29
 70
     1
102
RTVSPropertyOp30
 70
     1
102
RTVSPropertyOp31
 70
     1
102
RTVSPropertyOp32
 70
     1
102
RTVSPropertyOp33
 70
     1
102
RTVSPropertyOp34
 70
     1
102
RTVSPropertyOp35
 70
     1
102
RTVSPropertyOp36
 70
     1
102
RTVSPropertyOp37
 70
     1
102
RTVSPropertyOp38
 70
     1
102
RTVSPropertyOp39
 70
     1
102
RTVSPropertyOp40
 70
     1
102
RTVSPropertyOp41
 70
     1
102
RTVSPropertyOp42
 70
     1
102
RTVSPropertyOp43
 70
     1
102
RTVSPropertyOp44
 70
     1
102
RTVSPropertyOp45
 70
     1
102
RTVSPropertyOp46
 70
     1
102
RTVSPropertyOp47
 70
     1
102
RTVSPropertyOp48
 70
     1
102
RTVSPropertyOp49
 70
     1
102
RTVSPropertyOp50
 70
     1
102
RTVSPropertyOp51
 70
     0
102
RTVSPropertyOp52
 70
     0
102
RTVSPropertyOp53
 70
     1
102
RTVSPropertyOp54
 70
     1
102
RTVSPropertyOp55
 70
     1
102
RTVSPropertyOp56
 70
     1
102
RTVSPropertyOp57
 70
     1
102
RTVSPropertyOp58
 70
     1
102
RTVSPropertyOp59
 70
     1
102
RTVSPropertyOp60
 70
     1
102
RTVSPropertyOp61
 70
     1
102
RTVSPropertyOp62
 70
     1
  0
XRECORD
  5
1679
102
{ACAD_REACTORS
330
1678
102
}
330
1678
100
AcDbXrecord
280
     1
102
RTVSPost2010Prop28
280
     0
102
RTVSPost2010PropOp28
 70
     1
102
RTVSPost2010Prop29
280
     1
102
RTVSPost2010PropOp29
 70
     1
102
RTVSPost2010Prop30
280
     1
102
RTVSPost2010PropOp30
 70
     1
102
RTVSPost2010Prop31
280
     0
102
RTVSPost2010PropOp31
 70
     1
102
RTVSPost2010Prop32
280
     0
102
RTVSPost2010PropOp32
 70
     1
102
RTVSPost2010Prop33
280
     0
102
RTVSPost2010PropOp33
 70
     1
102
RTVSPost2010Prop34
280
     0
102
RTVSPost2010PropOp34
 70
     1
102
RTVSPost2010Prop35
280
     0
102
RTVSPost2010PropOp35
 70
     1
102
RTVSPost2010Prop36
280
     0
102
RTVSPost2010PropOp36
 70
     1
102
RTVSPost2010Prop37
 90
       50
102
RTVSPost2010PropOp37
 70
     1
102
RTVSPost2010Prop38
140
0.0
102
RTVSPost2010PropOp38
 70
     1
102
RTVSPost2010Prop39
140
1.0
102
RTVSPost2010PropOp39
 70
     1
102
RTVSPost2010Prop40
 90
        0
102
RTVSPost2010PropOp40
 70
     1
102
RTVSPost2010Prop41ColorIndex
 90
       18
102
RTVSPost2010Prop41ColorRGB
 90
        0
102
RTVSPost2010PropOp41
 70
     1
102
RTVSPost2010Prop42
 90
       50
102
RTVSPost2010PropOp42
 70
     1
102
RTVSPost2010Prop43
 90
        3
102
RTVSPost2010PropOp43
 70
     1
102
RTVSPost2010Prop44ColorIndex
 90
        5
102
RTVSPost2010Prop44ColorRGB
 90
      255
102
RTVSPost2010PropOp44
 70
     1
102
RTVSPost2010Prop45
280
     0
102
RTVSPost2010PropOp45
 70
     1
102
RTVSPost2010Prop46
 90
       50
102
RTVSPost2010PropOp46
 70
     1
102
RTVSPost2010Prop47
 90
       50
102
RTVSPost2010PropOp47
 70
     1
102
RTVSPost2010Prop48
 90
       50
102
RTVSPost2010PropOp48
 70
     1
102
RTVSPost2010Prop49
280
     0
102
RTVSPost2010PropOp49
 70
     1
102
RTVSPost2010Prop50
 90
       50
102
RTVSPost2010PropOp50
 70
     1
102
RTVSPost2010Prop51ColorIndex
 90
      256
102
RTVSPost2010Prop51ColorRGB
 90
-16777216
102
RTVSPost2010PropOp51
 70
     0
102
RTVSPost2010Prop52
140
1.0
102
RTVSPost2010PropOp52
 70
     0
102
RTVSPost2010Prop53
 90
        2
102
RTVSPost2010PropOp53
 70
     1
102
RTVSPost2010Prop54
  1
strokes_ogs.tif
102
RTVSPost2010PropOp54
 70
     1
102
RTVSPost2010Prop55
280
     0
102
RTVSPost2010PropOp55
 70
     1
102
RTVSPost2010Prop56
140
1.0
102
RTVSPost2010PropOp56
 70
     1
102
RTVSPost2010Prop57
140
1.0
102
RTVSPost2010PropOp57
 70
     1
102
RTVSPropertyOp0
 70
     1
102
RTVSPropertyOp1
 70
     1
102
RTVSPropertyOp2
 70
     1
102
RTVSPropertyOp3
 70
     1
102
RTVSPropertyOp4
 70
     1
102
RTVSPropertyOp5
 70
     1
102
RTVSPropertyOp6
 70
     1
102
RTVSPropertyOp7
 70
     1
102
RTVSPropertyOp8
 70
     1
102
RTVSPropertyOp9
 70
     1
102
RTVSPropertyOp10
 70
     1
102
RTVSPropertyOp11
 70
     1
102
RTVSPropertyOp12
 70
     1
102
RTVSPropertyOp13
 70
     1
102
RTVSPropertyOp14
 70
     1
102
RTVSPropertyOp15
 70
     1
102
RTVSPropertyOp16
 70
     1
102
RTVSPropertyOp17
 70
     1
102
RTVSPropertyOp18
 70
     1
102
RTVSPropertyOp19
 70
     1
102
RTVSPropertyOp20
 70
     1
102
RTVSPropertyOp21
 70
     1
102
RTVSPropertyOp22
 70
     1
102
RTVSPropertyOp23
 70
     1
102
RTVSPropertyOp24
 70
     1
102
RTVSPropertyOp25
 70
     1
102
RTVSPropertyOp26
 70
     1
102
RTVSPropertyOp27
 70
     1
102
RTVSPropertyOp28
 70
     1
102
RTVSPropertyOp29
 70
     1
102
RTVSPropertyOp30
 70
     1
102
RTVSPropertyOp31
 70
     1
102
RTVSPropertyOp32
 70
     1
102
RTVSPropertyOp33
 70
     1
102
RTVSPropertyOp34
 70
     1
102
RTVSPropertyOp35
 70
     1
102
RTVSPropertyOp36
 70
     1
102
RTVSPropertyOp37
 70
     1
102
RTVSPropertyOp38
 70
     1
102
RTVSPropertyOp39
 70
     1
102
RTVSPropertyOp40
 70
     1
102
RTVSPropertyOp41
 70
     1
102
RTVSPropertyOp42
 70
     1
102
RTVSPropertyOp43
 70
     1
102
RTVSPropertyOp44
 70
     1
102
RTVSPropertyOp45
 70
     1
102
RTVSPropertyOp46
 70
     1
102
RTVSPropertyOp47
 70
     1
102
RTVSPropertyOp48
 70
     1
102
RTVSPropertyOp49
 70
     1
102
RTVSPropertyOp50
 70
     1
102
RTVSPropertyOp51
 70
     0
102
RTVSPropertyOp52
 70
     0
102
RTVSPropertyOp53
 70
     1
102
RTVSPropertyOp54
 70
     1
102
RTVSPropertyOp55
 70
     1
102
RTVSPropertyOp56
 70
     1
102
RTVSPropertyOp57
 70
     1
102
RTVSPropertyOp58
 70
     1
102
RTVSPropertyOp59
 70
     1
102
RTVSPropertyOp60
 70
     1
102
RTVSPropertyOp61
 70
     1
102
RTVSPropertyOp62
 70
     1
  0
XRECORD
  5
166B
102
{ACAD_REACTORS
330
166A
102
}
330
166A
100
AcDbXrecord
280
     1
102
RTVSPost2010Prop28
280
     0
102
RTVSPost2010PropOp28
 70
     1
102
RTVSPost2010Prop29
280
     1
102
RTVSPost2010PropOp29
 70
     1
102
RTVSPost2010Prop30
280
     1
102
RTVSPost2010PropOp30
 70
     1
102
RTVSPost2010Prop31
280
     0
102
RTVSPost2010PropOp31
 70
     1
102
RTVSPost2010Prop32
280
     0
102
RTVSPost2010PropOp32
 70
     1
102
RTVSPost2010Prop33
280
     0
102
RTVSPost2010PropOp33
 70
     1
102
RTVSPost2010Prop34
280
     0
102
RTVSPost2010PropOp34
 70
     1
102
RTVSPost2010Prop35
280
     0
102
RTVSPost2010PropOp35
 70
     1
102
RTVSPost2010Prop36
280
     0
102
RTVSPost2010PropOp36
 70
     1
102
RTVSPost2010Prop37
 90
       50
102
RTVSPost2010PropOp37
 70
     1
102
RTVSPost2010Prop38
140
0.0
102
RTVSPost2010PropOp38
 70
     1
102
RTVSPost2010Prop39
140
1.0
102
RTVSPost2010PropOp39
 70
     1
102
RTVSPost2010Prop40
 90
        0
102
RTVSPost2010PropOp40
 70
     1
102
RTVSPost2010Prop41ColorIndex
 90
       18
102
RTVSPost2010Prop41ColorRGB
 90
        0
102
RTVSPost2010PropOp41
 70
     1
102
RTVSPost2010Prop42
 90
       50
102
RTVSPost2010PropOp42
 70
     1
102
RTVSPost2010Prop43
 90
        3
102
RTVSPost2010PropOp43
 70
     1
102
RTVSPost2010Prop44ColorIndex
 90
        5
102
RTVSPost2010Prop44ColorRGB
 90
      255
102
RTVSPost2010PropOp44
 70
     1
102
RTVSPost2010Prop45
280
     0
102
RTVSPost2010PropOp45
 70
     1
102
RTVSPost2010Prop46
 90
       50
102
RTVSPost2010PropOp46
 70
     1
102
RTVSPost2010Prop47
 90
       50
102
RTVSPost2010PropOp47
 70
     1
102
RTVSPost2010Prop48
 90
       50
102
RTVSPost2010PropOp48
 70
     1
102
RTVSPost2010Prop49
280
     0
102
RTVSPost2010PropOp49
 70
     1
102
RTVSPost2010Prop50
 90
       50
102
RTVSPost2010PropOp50
 70
     1
102
RTVSPost2010Prop51ColorIndex
 90
      256
102
RTVSPost2010Prop51ColorRGB
 90
-16777216
102
RTVSPost2010PropOp51
 70
     0
102
RTVSPost2010Prop52
140
1.0
102
RTVSPost2010PropOp52
 70
     0
102
RTVSPost2010Prop53
 90
        2
102
RTVSPost2010PropOp53
 70
     1
102
RTVSPost2010Prop54
  1
strokes_ogs.tif
102
RTVSPost2010PropOp54
 70
     1
102
RTVSPost2010Prop55
280
     0
102
RTVSPost2010PropOp55
 70
     1
102
RTVSPost2010Prop56
140
1.0
102
RTVSPost2010PropOp56
 70
     1
102
RTVSPost2010Prop57
140
1.0
102
RTVSPost2010PropOp57
 70
     1
102
RTVSPropertyOp0
 70
     1
102
RTVSPropertyOp1
 70
     1
102
RTVSPropertyOp2
 70
     1
102
RTVSPropertyOp3
 70
     1
102
RTVSPropertyOp4
 70
     1
102
RTVSPropertyOp5
 70
     1
102
RTVSPropertyOp6
 70
     1
102
RTVSPropertyOp7
 70
     1
102
RTVSPropertyOp8
 70
     1
102
RTVSPropertyOp9
 70
     1
102
RTVSPropertyOp10
 70
     1
102
RTVSPropertyOp11
 70
     1
102
RTVSPropertyOp12
 70
     1
102
RTVSPropertyOp13
 70
     1
102
RTVSPropertyOp14
 70
     1
102
RTVSPropertyOp15
 70
     1
102
RTVSPropertyOp16
 70
     1
102
RTVSPropertyOp17
 70
     1
102
RTVSPropertyOp18
 70
     1
102
RTVSPropertyOp19
 70
     1
102
RTVSPropertyOp20
 70
     1
102
RTVSPropertyOp21
 70
     1
102
RTVSPropertyOp22
 70
     1
102
RTVSPropertyOp23
 70
     1
102
RTVSPropertyOp24
 70
     1
102
RTVSPropertyOp25
 70
     1
102
RTVSPropertyOp26
 70
     1
102
RTVSPropertyOp27
 70
     1
102
RTVSPropertyOp28
 70
     1
102
RTVSPropertyOp29
 70
     1
102
RTVSPropertyOp30
 70
     1
102
RTVSPropertyOp31
 70
     1
102
RTVSPropertyOp32
 70
     1
102
RTVSPropertyOp33
 70
     1
102
RTVSPropertyOp34
 70
     1
102
RTVSPropertyOp35
 70
     1
102
RTVSPropertyOp36
 70
     1
102
RTVSPropertyOp37
 70
     1
102
RTVSPropertyOp38
 70
     1
102
RTVSPropertyOp39
 70
     1
102
RTVSPropertyOp40
 70
     1
102
RTVSPropertyOp41
 70
     1
102
RTVSPropertyOp42
 70
     1
102
RTVSPropertyOp43
 70
     1
102
RTVSPropertyOp44
 70
     1
102
RTVSPropertyOp45
 70
     1
102
RTVSPropertyOp46
 70
     1
102
RTVSPropertyOp47
 70
     1
102
RTVSPropertyOp48
 70
     1
102
RTVSPropertyOp49
 70
     1
102
RTVSPropertyOp50
 70
     1
102
RTVSPropertyOp51
 70
     0
102
RTVSPropertyOp52
 70
     0
102
RTVSPropertyOp53
 70
     1
102
RTVSPropertyOp54
 70
     1
102
RTVSPropertyOp55
 70
     1
102
RTVSPropertyOp56
 70
     1
102
RTVSPropertyOp57
 70
     1
102
RTVSPropertyOp58
 70
     1
102
RTVSPropertyOp59
 70
     1
102
RTVSPropertyOp60
 70
     1
102
RTVSPropertyOp61
 70
     1
102
RTVSPropertyOp62
 70
     1
  0
XRECORD
  5
166F
102
{ACAD_REACTORS
330
166E
102
}
330
166E
100
AcDbXrecord
280
     1
102
RTVSPost2010Prop28
280
     0
102
RTVSPost2010PropOp28
 70
     1
102
RTVSPost2010Prop29
280
     1
102
RTVSPost2010PropOp29
 70
     1
102
RTVSPost2010Prop30
280
     1
102
RTVSPost2010PropOp30
 70
     1
102
RTVSPost2010Prop31
280
     0
102
RTVSPost2010PropOp31
 70
     1
102
RTVSPost2010Prop32
280
     0
102
RTVSPost2010PropOp32
 70
     1
102
RTVSPost2010Prop33
280
     0
102
RTVSPost2010PropOp33
 70
     1
102
RTVSPost2010Prop34
280
     0
102
RTVSPost2010PropOp34
 70
     1
102
RTVSPost2010Prop35
280
     0
102
RTVSPost2010PropOp35
 70
     1
102
RTVSPost2010Prop36
280
     0
102
RTVSPost2010PropOp36
 70
     1
102
RTVSPost2010Prop37
 90
       50
102
RTVSPost2010PropOp37
 70
     1
102
RTVSPost2010Prop38
140
0.0
102
RTVSPost2010PropOp38
 70
     1
102
RTVSPost2010Prop39
140
1.0
102
RTVSPost2010PropOp39
 70
     1
102
RTVSPost2010Prop40
 90
        0
102
RTVSPost2010PropOp40
 70
     1
102
RTVSPost2010Prop41ColorIndex
 90
       18
102
RTVSPost2010Prop41ColorRGB
 90
        0
102
RTVSPost2010PropOp41
 70
     1
102
RTVSPost2010Prop42
 90
       50
102
RTVSPost2010PropOp42
 70
     1
102
RTVSPost2010Prop43
 90
        3
102
RTVSPost2010PropOp43
 70
     1
102
RTVSPost2010Prop44ColorIndex
 90
        5
102
RTVSPost2010Prop44ColorRGB
 90
      255
102
RTVSPost2010PropOp44
 70
     1
102
RTVSPost2010Prop45
280
     0
102
RTVSPost2010PropOp45
 70
     1
102
RTVSPost2010Prop46
 90
       50
102
RTVSPost2010PropOp46
 70
     1
102
RTVSPost2010Prop47
 90
       50
102
RTVSPost2010PropOp47
 70
     1
102
RTVSPost2010Prop48
 90
       50
102
RTVSPost2010PropOp48
 70
     1
102
RTVSPost2010Prop49
280
     0
102
RTVSPost2010PropOp49
 70
     1
102
RTVSPost2010Prop50
 90
       50
102
RTVSPost2010PropOp50
 70
     1
102
RTVSPost2010Prop51ColorIndex
 90
      256
102
RTVSPost2010Prop51ColorRGB
 90
-16777216
102
RTVSPost2010PropOp51
 70
     0
102
RTVSPost2010Prop52
140
1.0
102
RTVSPost2010PropOp52
 70
     0
102
RTVSPost2010Prop53
 90
        2
102
RTVSPost2010PropOp53
 70
     1
102
RTVSPost2010Prop54
  1
strokes_ogs.tif
102
RTVSPost2010PropOp54
 70
     1
102
RTVSPost2010Prop55
280
     0
102
RTVSPost2010PropOp55
 70
     1
102
RTVSPost2010Prop56
140
1.0
102
RTVSPost2010PropOp56
 70
     1
102
RTVSPost2010Prop57
140
1.0
102
RTVSPost2010PropOp57
 70
     1
102
RTVSPropertyOp0
 70
     1
102
RTVSPropertyOp1
 70
     1
102
RTVSPropertyOp2
 70
     1
102
RTVSPropertyOp3
 70
     1
102
RTVSPropertyOp4
 70
     1
102
RTVSPropertyOp5
 70
     1
102
RTVSPropertyOp6
 70
     1
102
RTVSPropertyOp7
 70
     1
102
RTVSPropertyOp8
 70
     1
102
RTVSPropertyOp9
 70
     1
102
RTVSPropertyOp10
 70
     1
102
RTVSPropertyOp11
 70
     1
102
RTVSPropertyOp12
 70
     1
102
RTVSPropertyOp13
 70
     1
102
RTVSPropertyOp14
 70
     1
102
RTVSPropertyOp15
 70
     1
102
RTVSPropertyOp16
 70
     1
102
RTVSPropertyOp17
 70
     1
102
RTVSPropertyOp18
 70
     1
102
RTVSPropertyOp19
 70
     1
102
RTVSPropertyOp20
 70
     1
102
RTVSPropertyOp21
 70
     1
102
RTVSPropertyOp22
 70
     1
102
RTVSPropertyOp23
 70
     1
102
RTVSPropertyOp24
 70
     1
102
RTVSPropertyOp25
 70
     1
102
RTVSPropertyOp26
 70
     1
102
RTVSPropertyOp27
 70
     1
102
RTVSPropertyOp28
 70
     1
102
RTVSPropertyOp29
 70
     1
102
RTVSPropertyOp30
 70
     1
102
RTVSPropertyOp31
 70
     1
102
RTVSPropertyOp32
 70
     1
102
RTVSPropertyOp33
 70
     1
102
RTVSPropertyOp34
 70
     1
102
RTVSPropertyOp35
 70
     1
102
RTVSPropertyOp36
 70
     1
102
RTVSPropertyOp37
 70
     1
102
RTVSPropertyOp38
 70
     1
102
RTVSPropertyOp39
 70
     1
102
RTVSPropertyOp40
 70
     1
102
RTVSPropertyOp41
 70
     1
102
RTVSPropertyOp42
 70
     1
102
RTVSPropertyOp43
 70
     1
102
RTVSPropertyOp44
 70
     1
102
RTVSPropertyOp45
 70
     1
102
RTVSPropertyOp46
 70
     1
102
RTVSPropertyOp47
 70
     1
102
RTVSPropertyOp48
 70
     1
102
RTVSPropertyOp49
 70
     1
102
RTVSPropertyOp50
 70
     1
102
RTVSPropertyOp51
 70
     0
102
RTVSPropertyOp52
 70
     0
102
RTVSPropertyOp53
 70
     1
102
RTVSPropertyOp54
 70
     1
102
RTVSPropertyOp55
 70
     1
102
RTVSPropertyOp56
 70
     1
102
RTVSPropertyOp57
 70
     1
102
RTVSPropertyOp58
 70
     1
102
RTVSPropertyOp59
 70
     1
102
RTVSPropertyOp60
 70
     1
102
RTVSPropertyOp61
 70
     1
102
RTVSPropertyOp62
 70
     1
  0
XRECORD
  5
168D
102
{ACAD_REACTORS
330
168C
102
}
330
168C
100
AcDbXrecord
280
     1
102
RTVSPost2010Prop28
280
     0
102
RTVSPost2010PropOp28
 70
     1
102
RTVSPost2010Prop29
280
     1
102
RTVSPost2010PropOp29
 70
     1
102
RTVSPost2010Prop30
280
     1
102
RTVSPost2010PropOp30
 70
     1
102
RTVSPost2010Prop31
280
     0
102
RTVSPost2010PropOp31
 70
     1
102
RTVSPost2010Prop32
280
     0
102
RTVSPost2010PropOp32
 70
     1
102
RTVSPost2010Prop33
280
     0
102
RTVSPost2010PropOp33
 70
     1
102
RTVSPost2010Prop34
280
     0
102
RTVSPost2010PropOp34
 70
     1
102
RTVSPost2010Prop35
280
     0
102
RTVSPost2010PropOp35
 70
     1
102
RTVSPost2010Prop36
280
     0
102
RTVSPost2010PropOp36
 70
     1
102
RTVSPost2010Prop37
 90
       50
102
RTVSPost2010PropOp37
 70
     0
102
RTVSPost2010Prop38
140
0.0
102
RTVSPost2010PropOp38
 70
     0
102
RTVSPost2010Prop39
140
1.0
102
RTVSPost2010PropOp39
 70
     0
102
RTVSPost2010Prop40
 90
        0
102
RTVSPost2010PropOp40
 70
     0
102
RTVSPost2010Prop41ColorIndex
 90
       18
102
RTVSPost2010Prop41ColorRGB
 90
        0
102
RTVSPost2010PropOp41
 70
     0
102
RTVSPost2010Prop42
 90
       50
102
RTVSPost2010PropOp42
 70
     0
102
RTVSPost2010Prop43
 90
        3
102
RTVSPost2010PropOp43
 70
     0
102
RTVSPost2010Prop44ColorIndex
 90
        5
102
RTVSPost2010Prop44ColorRGB
 90
      255
102
RTVSPost2010PropOp44
 70
     0
102
RTVSPost2010Prop45
280
     0
102
RTVSPost2010PropOp45
 70
     1
102
RTVSPost2010Prop46
 90
       50
102
RTVSPost2010PropOp46
 70
     0
102
RTVSPost2010Prop47
 90
       50
102
RTVSPost2010PropOp47
 70
     0
102
RTVSPost2010Prop48
 90
       50
102
RTVSPost2010PropOp48
 70
     0
102
RTVSPost2010Prop49
280
     0
102
RTVSPost2010PropOp49
 70
     1
102
RTVSPost2010Prop50
 90
       50
102
RTVSPost2010PropOp50
 70
     0
102
RTVSPost2010Prop51ColorIndex
 90
      256
102
RTVSPost2010Prop51ColorRGB
 90
-16777216
102
RTVSPost2010PropOp51
 70
     0
102
RTVSPost2010Prop52
140
1.0
102
RTVSPost2010PropOp52
 70
     0
102
RTVSPost2010Prop53
 90
        2
102
RTVSPost2010PropOp53
 70
     0
102
RTVSPost2010Prop54
  1
strokes_ogs.tif
102
RTVSPost2010PropOp54
 70
     0
102
RTVSPost2010Prop55
280
     0
102
RTVSPost2010PropOp55
 70
     1
102
RTVSPost2010Prop56
140
1.0
102
RTVSPost2010PropOp56
 70
     0
102
RTVSPost2010Prop57
140
1.0
102
RTVSPost2010PropOp57
 70
     0
102
RTVSPropertyOp0
 70
     0
102
RTVSPropertyOp1
 70
     0
102
RTVSPropertyOp2
 70
     0
102
RTVSPropertyOp3
 70
     0
102
RTVSPropertyOp4
 70
     0
102
RTVSPropertyOp5
 70
     0
102
RTVSPropertyOp6
 70
     0
102
RTVSPropertyOp7
 70
     0
102
RTVSPropertyOp8
 70
     0
102
RTVSPropertyOp9
 70
     0
102
RTVSPropertyOp10
 70
     0
102
RTVSPropertyOp11
 70
     0
102
RTVSPropertyOp12
 70
     0
102
RTVSPropertyOp13
 70
     0
102
RTVSPropertyOp14
 70
     2
102
RTVSPropertyOp15
 70
     0
102
RTVSPropertyOp16
 70
     0
102
RTVSPropertyOp17
 70
     0
102
RTVSPropertyOp18
 70
     0
102
RTVSPropertyOp19
 70
     0
102
RTVSPropertyOp20
 70
     0
102
RTVSPropertyOp21
 70
     0
102
RTVSPropertyOp22
 70
     0
102
RTVSPropertyOp23
 70
     0
102
RTVSPropertyOp24
 70
     0
102
RTVSPropertyOp25
 70
     0
102
RTVSPropertyOp26
 70
     0
102
RTVSPropertyOp27
 70
     0
102
RTVSPropertyOp28
 70
     1
102
RTVSPropertyOp29
 70
     1
102
RTVSPropertyOp30
 70
     1
102
RTVSPropertyOp31
 70
     1
102
RTVSPropertyOp32
 70
     1
102
RTVSPropertyOp33
 70
     1
102
RTVSPropertyOp34
 70
     1
102
RTVSPropertyOp35
 70
     1
102
RTVSPropertyOp36
 70
     1
102
RTVSPropertyOp37
 70
     0
102
RTVSPropertyOp38
 70
     0
102
RTVSPropertyOp39
 70
     0
102
RTVSPropertyOp40
 70
     0
102
RTVSPropertyOp41
 70
     0
102
RTVSPropertyOp42
 70
     0
102
RTVSPropertyOp43
 70
     0
102
RTVSPropertyOp44
 70
     0
102
RTVSPropertyOp45
 70
     1
102
RTVSPropertyOp46
 70
     0
102
RTVSPropertyOp47
 70
     0
102
RTVSPropertyOp48
 70
     0
102
RTVSPropertyOp49
 70
     1
102
RTVSPropertyOp50
 70
     0
102
RTVSPropertyOp51
 70
     0
102
RTVSPropertyOp52
 70
     0
102
RTVSPropertyOp53
 70
     0
102
RTVSPropertyOp54
 70
     0
102
RTVSPropertyOp55
 70
     1
102
RTVSPropertyOp56
 70
     0
102
RTVSPropertyOp57
 70
     0
102
RTVSPropertyOp58
 70
     0
102
RTVSPropertyOp59
 70
     0
102
RTVSPropertyOp60
 70
     0
102
RTVSPropertyOp61
 70
     0
102
RTVSPropertyOp62
 70
     0
  0
XRECORD
  5
1677
102
{ACAD_REACTORS
330
1676
102
}
330
1676
100
AcDbXrecord
280
     1
102
RTVSPost2010Prop28
280
     0
102
RTVSPost2010PropOp28
 70
     1
102
RTVSPost2010Prop29
280
     1
102
RTVSPost2010PropOp29
 70
     1
102
RTVSPost2010Prop30
280
     1
102
RTVSPost2010PropOp30
 70
     1
102
RTVSPost2010Prop31
280
     0
102
RTVSPost2010PropOp31
 70
     1
102
RTVSPost2010Prop32
280
     0
102
RTVSPost2010PropOp32
 70
     1
102
RTVSPost2010Prop33
280
     0
102
RTVSPost2010PropOp33
 70
     1
102
RTVSPost2010Prop34
280
     0
102
RTVSPost2010PropOp34
 70
     1
102
RTVSPost2010Prop35
280
     0
102
RTVSPost2010PropOp35
 70
     1
102
RTVSPost2010Prop36
280
     0
102
RTVSPost2010PropOp36
 70
     1
102
RTVSPost2010Prop37
 90
       50
102
RTVSPost2010PropOp37
 70
     1
102
RTVSPost2010Prop38
140
0.0
102
RTVSPost2010PropOp38
 70
     1
102
RTVSPost2010Prop39
140
1.0
102
RTVSPost2010PropOp39
 70
     1
102
RTVSPost2010Prop40
 90
        0
102
RTVSPost2010PropOp40
 70
     1
102
RTVSPost2010Prop41ColorIndex
 90
       18
102
RTVSPost2010Prop41ColorRGB
 90
        0
102
RTVSPost2010PropOp41
 70
     1
102
RTVSPost2010Prop42
 90
       50
102
RTVSPost2010PropOp42
 70
     1
102
RTVSPost2010Prop43
 90
        3
102
RTVSPost2010PropOp43
 70
     1
102
RTVSPost2010Prop44ColorIndex
 90
        5
102
RTVSPost2010Prop44ColorRGB
 90
      255
102
RTVSPost2010PropOp44
 70
     1
102
RTVSPost2010Prop45
280
     0
102
RTVSPost2010PropOp45
 70
     1
102
RTVSPost2010Prop46
 90
       50
102
RTVSPost2010PropOp46
 70
     1
102
RTVSPost2010Prop47
 90
       50
102
RTVSPost2010PropOp47
 70
     1
102
RTVSPost2010Prop48
 90
       50
102
RTVSPost2010PropOp48
 70
     1
102
RTVSPost2010Prop49
280
     0
102
RTVSPost2010PropOp49
 70
     1
102
RTVSPost2010Prop50
 90
       50
102
RTVSPost2010PropOp50
 70
     1
102
RTVSPost2010Prop51ColorIndex
 90
      256
102
RTVSPost2010Prop51ColorRGB
 90
-16777216
102
RTVSPost2010PropOp51
 70
     0
102
RTVSPost2010Prop52
140
1.0
102
RTVSPost2010PropOp52
 70
     0
102
RTVSPost2010Prop53
 90
        2
102
RTVSPost2010PropOp53
 70
     1
102
RTVSPost2010Prop54
  1
strokes_ogs.tif
102
RTVSPost2010PropOp54
 70
     1
102
RTVSPost2010Prop55
280
     0
102
RTVSPost2010PropOp55
 70
     1
102
RTVSPost2010Prop56
140
1.0
102
RTVSPost2010PropOp56
 70
     1
102
RTVSPost2010Prop57
140
1.0
102
RTVSPost2010PropOp57
 70
     1
102
RTVSPropertyOp0
 70
     1
102
RTVSPropertyOp1
 70
     1
102
RTVSPropertyOp2
 70
     1
102
RTVSPropertyOp3
 70
     1
102
RTVSPropertyOp4
 70
     1
102
RTVSPropertyOp5
 70
     1
102
RTVSPropertyOp6
 70
     1
102
RTVSPropertyOp7
 70
     1
102
RTVSPropertyOp8
 70
     1
102
RTVSPropertyOp9
 70
     1
102
RTVSPropertyOp10
 70
     1
102
RTVSPropertyOp11
 70
     1
102
RTVSPropertyOp12
 70
     1
102
RTVSPropertyOp13
 70
     1
102
RTVSPropertyOp14
 70
     1
102
RTVSPropertyOp15
 70
     1
102
RTVSPropertyOp16
 70
     1
102
RTVSPropertyOp17
 70
     1
102
RTVSPropertyOp18
 70
     1
102
RTVSPropertyOp19
 70
     1
102
RTVSPropertyOp20
 70
     1
102
RTVSPropertyOp21
 70
     1
102
RTVSPropertyOp22
 70
     1
102
RTVSPropertyOp23
 70
     1
102
RTVSPropertyOp24
 70
     1
102
RTVSPropertyOp25
 70
     1
102
RTVSPropertyOp26
 70
     1
102
RTVSPropertyOp27
 70
     1
102
RTVSPropertyOp28
 70
     1
102
RTVSPropertyOp29
 70
     1
102
RTVSPropertyOp30
 70
     1
102
RTVSPropertyOp31
 70
     1
102
RTVSPropertyOp32
 70
     1
102
RTVSPropertyOp33
 70
     1
102
RTVSPropertyOp34
 70
     1
102
RTVSPropertyOp35
 70
     1
102
RTVSPropertyOp36
 70
     1
102
RTVSPropertyOp37
 70
     1
102
RTVSPropertyOp38
 70
     1
102
RTVSPropertyOp39
 70
     1
102
RTVSPropertyOp40
 70
     1
102
RTVSPropertyOp41
 70
     1
102
RTVSPropertyOp42
 70
     1
102
RTVSPropertyOp43
 70
     1
102
RTVSPropertyOp44
 70
     1
102
RTVSPropertyOp45
 70
     1
102
RTVSPropertyOp46
 70
     1
102
RTVSPropertyOp47
 70
     1
102
RTVSPropertyOp48
 70
     1
102
RTVSPropertyOp49
 70
     1
102
RTVSPropertyOp50
 70
     1
102
RTVSPropertyOp51
 70
     0
102
RTVSPropertyOp52
 70
     0
102
RTVSPropertyOp53
 70
     1
102
RTVSPropertyOp54
 70
     1
102
RTVSPropertyOp55
 70
     1
102
RTVSPropertyOp56
 70
     1
102
RTVSPropertyOp57
 70
     1
102
RTVSPropertyOp58
 70
     1
102
RTVSPropertyOp59
 70
     1
102
RTVSPropertyOp60
 70
     1
102
RTVSPropertyOp61
 70
     1
102
RTVSPropertyOp62
 70
     1
  0
XRECORD
  5
165B
102
{ACAD_REACTORS
330
165A
102
}
330
165A
100
AcDbXrecord
280
     1
102
RTVSPost2010Prop28
280
     0
102
RTVSPost2010PropOp28
 70
     1
102
RTVSPost2010Prop29
280
     1
102
RTVSPost2010PropOp29
 70
     1
102
RTVSPost2010Prop30
280
     1
102
RTVSPost2010PropOp30
 70
     1
102
RTVSPost2010Prop31
280
     0
102
RTVSPost2010PropOp31
 70
     1
102
RTVSPost2010Prop32
280
     0
102
RTVSPost2010PropOp32
 70
     1
102
RTVSPost2010Prop33
280
     0
102
RTVSPost2010PropOp33
 70
     1
102
RTVSPost2010Prop34
280
     0
102
RTVSPost2010PropOp34
 70
     1
102
RTVSPost2010Prop35
280
     0
102
RTVSPost2010PropOp35
 70
     1
102
RTVSPost2010Prop36
280
     0
102
RTVSPost2010PropOp36
 70
     1
102
RTVSPost2010Prop37
 90
       50
102
RTVSPost2010PropOp37
 70
     1
102
RTVSPost2010Prop38
140
0.0
102
RTVSPost2010PropOp38
 70
     1
102
RTVSPost2010Prop39
140
1.0
102
RTVSPost2010PropOp39
 70
     1
102
RTVSPost2010Prop40
 90
        0
102
RTVSPost2010PropOp40
 70
     1
102
RTVSPost2010Prop41ColorIndex
 90
       18
102
RTVSPost2010Prop41ColorRGB
 90
        0
102
RTVSPost2010PropOp41
 70
     1
102
RTVSPost2010Prop42
 90
       50
102
RTVSPost2010PropOp42
 70
     1
102
RTVSPost2010Prop43
 90
        3
102
RTVSPost2010PropOp43
 70
     1
102
RTVSPost2010Prop44ColorIndex
 90
        5
102
RTVSPost2010Prop44ColorRGB
 90
      255
102
RTVSPost2010PropOp44
 70
     1
102
RTVSPost2010Prop45
280
     0
102
RTVSPost2010PropOp45
 70
     1
102
RTVSPost2010Prop46
 90
       50
102
RTVSPost2010PropOp46
 70
     1
102
RTVSPost2010Prop47
 90
       50
102
RTVSPost2010PropOp47
 70
     1
102
RTVSPost2010Prop48
 90
       50
102
RTVSPost2010PropOp48
 70
     1
102
RTVSPost2010Prop49
280
     0
102
RTVSPost2010PropOp49
 70
     1
102
RTVSPost2010Prop50
 90
       50
102
RTVSPost2010PropOp50
 70
     1
102
RTVSPost2010Prop51ColorIndex
 90
      256
102
RTVSPost2010Prop51ColorRGB
 90
-16777216
102
RTVSPost2010PropOp51
 70
     0
102
RTVSPost2010Prop52
140
1.0
102
RTVSPost2010PropOp52
 70
     0
102
RTVSPost2010Prop53
 90
        2
102
RTVSPost2010PropOp53
 70
     1
102
RTVSPost2010Prop54
  1
strokes_ogs.tif
102
RTVSPost2010PropOp54
 70
     1
102
RTVSPost2010Prop55
280
     0
102
RTVSPost2010PropOp55
 70
     1
102
RTVSPost2010Prop56
140
1.0
102
RTVSPost2010PropOp56
 70
     1
102
RTVSPost2010Prop57
140
1.0
102
RTVSPost2010PropOp57
 70
     1
102
RTVSPropertyOp0
 70
     1
102
RTVSPropertyOp1
 70
     1
102
RTVSPropertyOp2
 70
     1
102
RTVSPropertyOp3
 70
     1
102
RTVSPropertyOp4
 70
     1
102
RTVSPropertyOp5
 70
     1
102
RTVSPropertyOp6
 70
     1
102
RTVSPropertyOp7
 70
     1
102
RTVSPropertyOp8
 70
     1
102
RTVSPropertyOp9
 70
     1
102
RTVSPropertyOp10
 70
     1
102
RTVSPropertyOp11
 70
     1
102
RTVSPropertyOp12
 70
     1
102
RTVSPropertyOp13
 70
     1
102
RTVSPropertyOp14
 70
     1
102
RTVSPropertyOp15
 70
     1
102
RTVSPropertyOp16
 70
     1
102
RTVSPropertyOp17
 70
     1
102
RTVSPropertyOp18
 70
     1
102
RTVSPropertyOp19
 70
     1
102
RTVSPropertyOp20
 70
     1
102
RTVSPropertyOp21
 70
     1
102
RTVSPropertyOp22
 70
     1
102
RTVSPropertyOp23
 70
     1
102
RTVSPropertyOp24
 70
     1
102
RTVSPropertyOp25
 70
     1
102
RTVSPropertyOp26
 70
     1
102
RTVSPropertyOp27
 70
     1
102
RTVSPropertyOp28
 70
     1
102
RTVSPropertyOp29
 70
     1
102
RTVSPropertyOp30
 70
     1
102
RTVSPropertyOp31
 70
     1
102
RTVSPropertyOp32
 70
     1
102
RTVSPropertyOp33
 70
     1
102
RTVSPropertyOp34
 70
     1
102
RTVSPropertyOp35
 70
     1
102
RTVSPropertyOp36
 70
     1
102
RTVSPropertyOp37
 70
     1
102
RTVSPropertyOp38
 70
     1
102
RTVSPropertyOp39
 70
     1
102
RTVSPropertyOp40
 70
     1
102
RTVSPropertyOp41
 70
     1
102
RTVSPropertyOp42
 70
     1
102
RTVSPropertyOp43
 70
     1
102
RTVSPropertyOp44
 70
     1
102
RTVSPropertyOp45
 70
     1
102
RTVSPropertyOp46
 70
     1
102
RTVSPropertyOp47
 70
     1
102
RTVSPropertyOp48
 70
     1
102
RTVSPropertyOp49
 70
     1
102
RTVSPropertyOp50
 70
     1
102
RTVSPropertyOp51
 70
     0
102
RTVSPropertyOp52
 70
     0
102
RTVSPropertyOp53
 70
     1
102
RTVSPropertyOp54
 70
     1
102
RTVSPropertyOp55
 70
     1
102
RTVSPropertyOp56
 70
     1
102
RTVSPropertyOp57
 70
     1
102
RTVSPropertyOp58
 70
     1
102
RTVSPropertyOp59
 70
     1
102
RTVSPropertyOp60
 70
     1
102
RTVSPropertyOp61
 70
     1
102
RTVSPropertyOp62
 70
     1
  0
XRECORD
  5
165D
102
{ACAD_REACTORS
330
165C
102
}
330
165C
100
AcDbXrecord
280
     1
102
RTVSPost2010Prop28
280
     0
102
RTVSPost2010PropOp28
 70
     1
102
RTVSPost2010Prop29
280
     1
102
RTVSPost2010PropOp29
 70
     1
102
RTVSPost2010Prop30
280
     1
102
RTVSPost2010PropOp30
 70
     1
102
RTVSPost2010Prop31
280
     0
102
RTVSPost2010PropOp31
 70
     1
102
RTVSPost2010Prop32
280
     0
102
RTVSPost2010PropOp32
 70
     1
102
RTVSPost2010Prop33
280
     0
102
RTVSPost2010PropOp33
 70
     1
102
RTVSPost2010Prop34
280
     0
102
RTVSPost2010PropOp34
 70
     1
102
RTVSPost2010Prop35
280
     0
102
RTVSPost2010PropOp35
 70
     1
102
RTVSPost2010Prop36
280
     0
102
RTVSPost2010PropOp36
 70
     1
102
RTVSPost2010Prop37
 90
       50
102
RTVSPost2010PropOp37
 70
     1
102
RTVSPost2010Prop38
140
0.0
102
RTVSPost2010PropOp38
 70
     1
102
RTVSPost2010Prop39
140
1.0
102
RTVSPost2010PropOp39
 70
     1
102
RTVSPost2010Prop40
 90
        0
102
RTVSPost2010PropOp40
 70
     1
102
RTVSPost2010Prop41ColorIndex
 90
       18
102
RTVSPost2010Prop41ColorRGB
 90
        0
102
RTVSPost2010PropOp41
 70
     1
102
RTVSPost2010Prop42
 90
       50
102
RTVSPost2010PropOp42
 70
     1
102
RTVSPost2010Prop43
 90
        3
102
RTVSPost2010PropOp43
 70
     1
102
RTVSPost2010Prop44ColorIndex
 90
        5
102
RTVSPost2010Prop44ColorRGB
 90
      255
102
RTVSPost2010PropOp44
 70
     1
102
RTVSPost2010Prop45
280
     0
102
RTVSPost2010PropOp45
 70
     1
102
RTVSPost2010Prop46
 90
       50
102
RTVSPost2010PropOp46
 70
     1
102
RTVSPost2010Prop47
 90
       50
102
RTVSPost2010PropOp47
 70
     1
102
RTVSPost2010Prop48
 90
       50
102
RTVSPost2010PropOp48
 70
     1
102
RTVSPost2010Prop49
280
     0
102
RTVSPost2010PropOp49
 70
     1
102
RTVSPost2010Prop50
 90
       50
102
RTVSPost2010PropOp50
 70
     1
102
RTVSPost2010Prop51ColorIndex
 90
      256
102
RTVSPost2010Prop51ColorRGB
 90
-16777216
102
RTVSPost2010PropOp51
 70
     0
102
RTVSPost2010Prop52
140
1.0
102
RTVSPost2010PropOp52
 70
     0
102
RTVSPost2010Prop53
 90
        2
102
RTVSPost2010PropOp53
 70
     1
102
RTVSPost2010Prop54
  1
strokes_ogs.tif
102
RTVSPost2010PropOp54
 70
     1
102
RTVSPost2010Prop55
280
     0
102
RTVSPost2010PropOp55
 70
     1
102
RTVSPost2010Prop56
140
1.0
102
RTVSPost2010PropOp56
 70
     1
102
RTVSPost2010Prop57
140
1.0
102
RTVSPost2010PropOp57
 70
     1
102
RTVSPropertyOp0
 70
     1
102
RTVSPropertyOp1
 70
     1
102
RTVSPropertyOp2
 70
     1
102
RTVSPropertyOp3
 70
     1
102
RTVSPropertyOp4
 70
     1
102
RTVSPropertyOp5
 70
     1
102
RTVSPropertyOp6
 70
     1
102
RTVSPropertyOp7
 70
     1
102
RTVSPropertyOp8
 70
     1
102
RTVSPropertyOp9
 70
     1
102
RTVSPropertyOp10
 70
     1
102
RTVSPropertyOp11
 70
     1
102
RTVSPropertyOp12
 70
     1
102
RTVSPropertyOp13
 70
     1
102
RTVSPropertyOp14
 70
     1
102
RTVSPropertyOp15
 70
     1
102
RTVSPropertyOp16
 70
     1
102
RTVSPropertyOp17
 70
     1
102
RTVSPropertyOp18
 70
     1
102
RTVSPropertyOp19
 70
     1
102
RTVSPropertyOp20
 70
     1
102
RTVSPropertyOp21
 70
     1
102
RTVSPropertyOp22
 70
     1
102
RTVSPropertyOp23
 70
     1
102
RTVSPropertyOp24
 70
     1
102
RTVSPropertyOp25
 70
     1
102
RTVSPropertyOp26
 70
     1
102
RTVSPropertyOp27
 70
     1
102
RTVSPropertyOp28
 70
     1
102
RTVSPropertyOp29
 70
     1
102
RTVSPropertyOp30
 70
     1
102
RTVSPropertyOp31
 70
     1
102
RTVSPropertyOp32
 70
     1
102
RTVSPropertyOp33
 70
     1
102
RTVSPropertyOp34
 70
     1
102
RTVSPropertyOp35
 70
     1
102
RTVSPropertyOp36
 70
     1
102
RTVSPropertyOp37
 70
     1
102
RTVSPropertyOp38
 70
     1
102
RTVSPropertyOp39
 70
     1
102
RTVSPropertyOp40
 70
     1
102
RTVSPropertyOp41
 70
     1
102
RTVSPropertyOp42
 70
     1
102
RTVSPropertyOp43
 70
     1
102
RTVSPropertyOp44
 70
     1
102
RTVSPropertyOp45
 70
     1
102
RTVSPropertyOp46
 70
     1
102
RTVSPropertyOp47
 70
     1
102
RTVSPropertyOp48
 70
     1
102
RTVSPropertyOp49
 70
     1
102
RTVSPropertyOp50
 70
     1
102
RTVSPropertyOp51
 70
     0
102
RTVSPropertyOp52
 70
     0
102
RTVSPropertyOp53
 70
     1
102
RTVSPropertyOp54
 70
     1
102
RTVSPropertyOp55
 70
     1
102
RTVSPropertyOp56
 70
     1
102
RTVSPropertyOp57
 70
     1
102
RTVSPropertyOp58
 70
     1
102
RTVSPropertyOp59
 70
     1
102
RTVSPropertyOp60
 70
     1
102
RTVSPropertyOp61
 70
     1
102
RTVSPropertyOp62
 70
     1
  0
XRECORD
  5
165F
102
{ACAD_REACTORS
330
165E
102
}
330
165E
100
AcDbXrecord
280
     1
102
RTVSPost2010Prop28
280
     0
102
RTVSPost2010PropOp28
 70
     1
102
RTVSPost2010Prop29
280
     1
102
RTVSPost2010PropOp29
 70
     1
102
RTVSPost2010Prop30
280
     1
102
RTVSPost2010PropOp30
 70
     1
102
RTVSPost2010Prop31
280
     0
102
RTVSPost2010PropOp31
 70
     1
102
RTVSPost2010Prop32
280
     0
102
RTVSPost2010PropOp32
 70
     1
102
RTVSPost2010Prop33
280
     0
102
RTVSPost2010PropOp33
 70
     1
102
RTVSPost2010Prop34
280
     0
102
RTVSPost2010PropOp34
 70
     1
102
RTVSPost2010Prop35
280
     0
102
RTVSPost2010PropOp35
 70
     1
102
RTVSPost2010Prop36
280
     0
102
RTVSPost2010PropOp36
 70
     1
102
RTVSPost2010Prop37
 90
       50
102
RTVSPost2010PropOp37
 70
     1
102
RTVSPost2010Prop38
140
0.0
102
RTVSPost2010PropOp38
 70
     1
102
RTVSPost2010Prop39
140
1.0
102
RTVSPost2010PropOp39
 70
     1
102
RTVSPost2010Prop40
 90
        0
102
RTVSPost2010PropOp40
 70
     1
102
RTVSPost2010Prop41ColorIndex
 90
       18
102
RTVSPost2010Prop41ColorRGB
 90
        0
102
RTVSPost2010PropOp41
 70
     1
102
RTVSPost2010Prop42
 90
       50
102
RTVSPost2010PropOp42
 70
     1
102
RTVSPost2010Prop43
 90
        3
102
RTVSPost2010PropOp43
 70
     1
102
RTVSPost2010Prop44ColorIndex
 90
        5
102
RTVSPost2010Prop44ColorRGB
 90
      255
102
RTVSPost2010PropOp44
 70
     1
102
RTVSPost2010Prop45
280
     0
102
RTVSPost2010PropOp45
 70
     1
102
RTVSPost2010Prop46
 90
       50
102
RTVSPost2010PropOp46
 70
     1
102
RTVSPost2010Prop47
 90
       50
102
RTVSPost2010PropOp47
 70
     1
102
RTVSPost2010Prop48
 90
       50
102
RTVSPost2010PropOp48
 70
     1
102
RTVSPost2010Prop49
280
     0
102
RTVSPost2010PropOp49
 70
     1
102
RTVSPost2010Prop50
 90
       50
102
RTVSPost2010PropOp50
 70
     1
102
RTVSPost2010Prop51ColorIndex
 90
      256
102
RTVSPost2010Prop51ColorRGB
 90
-16777216
102
RTVSPost2010PropOp51
 70
     0
102
RTVSPost2010Prop52
140
1.0
102
RTVSPost2010PropOp52
 70
     0
102
RTVSPost2010Prop53
 90
        2
102
RTVSPost2010PropOp53
 70
     1
102
RTVSPost2010Prop54
  1
strokes_ogs.tif
102
RTVSPost2010PropOp54
 70
     1
102
RTVSPost2010Prop55
280
     0
102
RTVSPost2010PropOp55
 70
     1
102
RTVSPost2010Prop56
140
1.0
102
RTVSPost2010PropOp56
 70
     1
102
RTVSPost2010Prop57
140
1.0
102
RTVSPost2010PropOp57
 70
     1
102
RTVSPropertyOp0
 70
     1
102
RTVSPropertyOp1
 70
     1
102
RTVSPropertyOp2
 70
     1
102
RTVSPropertyOp3
 70
     1
102
RTVSPropertyOp4
 70
     1
102
RTVSPropertyOp5
 70
     1
102
RTVSPropertyOp6
 70
     1
102
RTVSPropertyOp7
 70
     1
102
RTVSPropertyOp8
 70
     1
102
RTVSPropertyOp9
 70
     1
102
RTVSPropertyOp10
 70
     1
102
RTVSPropertyOp11
 70
     1
102
RTVSPropertyOp12
 70
     1
102
RTVSPropertyOp13
 70
     1
102
RTVSPropertyOp14
 70
     1
102
RTVSPropertyOp15
 70
     1
102
RTVSPropertyOp16
 70
     1
102
RTVSPropertyOp17
 70
     1
102
RTVSPropertyOp18
 70
     1
102
RTVSPropertyOp19
 70
     1
102
RTVSPropertyOp20
 70
     1
102
RTVSPropertyOp21
 70
     1
102
RTVSPropertyOp22
 70
     1
102
RTVSPropertyOp23
 70
     1
102
RTVSPropertyOp24
 70
     1
102
RTVSPropertyOp25
 70
     1
102
RTVSPropertyOp26
 70
     1
102
RTVSPropertyOp27
 70
     1
102
RTVSPropertyOp28
 70
     1
102
RTVSPropertyOp29
 70
     1
102
RTVSPropertyOp30
 70
     1
102
RTVSPropertyOp31
 70
     1
102
RTVSPropertyOp32
 70
     1
102
RTVSPropertyOp33
 70
     1
102
RTVSPropertyOp34
 70
     1
102
RTVSPropertyOp35
 70
     1
102
RTVSPropertyOp36
 70
     1
102
RTVSPropertyOp37
 70
     1
102
RTVSPropertyOp38
 70
     1
102
RTVSPropertyOp39
 70
     1
102
RTVSPropertyOp40
 70
     1
102
RTVSPropertyOp41
 70
     1
102
RTVSPropertyOp42
 70
     1
102
RTVSPropertyOp43
 70
     1
102
RTVSPropertyOp44
 70
     1
102
RTVSPropertyOp45
 70
     1
102
RTVSPropertyOp46
 70
     1
102
RTVSPropertyOp47
 70
     1
102
RTVSPropertyOp48
 70
     1
102
RTVSPropertyOp49
 70
     1
102
RTVSPropertyOp50
 70
     1
102
RTVSPropertyOp51
 70
     0
102
RTVSPropertyOp52
 70
     0
102
RTVSPropertyOp53
 70
     1
102
RTVSPropertyOp54
 70
     1
102
RTVSPropertyOp55
 70
     1
102
RTVSPropertyOp56
 70
     1
102
RTVSPropertyOp57
 70
     1
102
RTVSPropertyOp58
 70
     1
102
RTVSPropertyOp59
 70
     1
102
RTVSPropertyOp60
 70
     1
102
RTVSPropertyOp61
 70
     1
102
RTVSPropertyOp62
 70
     1
  0
XRECORD
  5
1661
102
{ACAD_REACTORS
330
1660
102
}
330
1660
100
AcDbXrecord
280
     1
102
RTVSPost2010Prop28
280
     0
102
RTVSPost2010PropOp28
 70
     1
102
RTVSPost2010Prop29
280
     1
102
RTVSPost2010PropOp29
 70
     1
102
RTVSPost2010Prop30
280
     1
102
RTVSPost2010PropOp30
 70
     1
102
RTVSPost2010Prop31
280
     0
102
RTVSPost2010PropOp31
 70
     1
102
RTVSPost2010Prop32
280
     0
102
RTVSPost2010PropOp32
 70
     1
102
RTVSPost2010Prop33
280
     0
102
RTVSPost2010PropOp33
 70
     1
102
RTVSPost2010Prop34
280
     0
102
RTVSPost2010PropOp34
 70
     1
102
RTVSPost2010Prop35
280
     0
102
RTVSPost2010PropOp35
 70
     1
102
RTVSPost2010Prop36
280
     0
102
RTVSPost2010PropOp36
 70
     1
102
RTVSPost2010Prop37
 90
       50
102
RTVSPost2010PropOp37
 70
     1
102
RTVSPost2010Prop38
140
0.0
102
RTVSPost2010PropOp38
 70
     1
102
RTVSPost2010Prop39
140
1.0
102
RTVSPost2010PropOp39
 70
     1
102
RTVSPost2010Prop40
 90
        0
102
RTVSPost2010PropOp40
 70
     1
102
RTVSPost2010Prop41ColorIndex
 90
       18
102
RTVSPost2010Prop41ColorRGB
 90
        0
102
RTVSPost2010PropOp41
 70
     1
102
RTVSPost2010Prop42
 90
       50
102
RTVSPost2010PropOp42
 70
     1
102
RTVSPost2010Prop43
 90
        3
102
RTVSPost2010PropOp43
 70
     1
102
RTVSPost2010Prop44ColorIndex
 90
        5
102
RTVSPost2010Prop44ColorRGB
 90
      255
102
RTVSPost2010PropOp44
 70
     1
102
RTVSPost2010Prop45
280
     0
102
RTVSPost2010PropOp45
 70
     1
102
RTVSPost2010Prop46
 90
       50
102
RTVSPost2010PropOp46
 70
     1
102
RTVSPost2010Prop47
 90
       50
102
RTVSPost2010PropOp47
 70
     1
102
RTVSPost2010Prop48
 90
       50
102
RTVSPost2010PropOp48
 70
     1
102
RTVSPost2010Prop49
280
     0
102
RTVSPost2010PropOp49
 70
     1
102
RTVSPost2010Prop50
 90
       50
102
RTVSPost2010PropOp50
 70
     1
102
RTVSPost2010Prop51ColorIndex
 90
      256
102
RTVSPost2010Prop51ColorRGB
 90
-16777216
102
RTVSPost2010PropOp51
 70
     0
102
RTVSPost2010Prop52
140
1.0
102
RTVSPost2010PropOp52
 70
     0
102
RTVSPost2010Prop53
 90
        2
102
RTVSPost2010PropOp53
 70
     1
102
RTVSPost2010Prop54
  1
strokes_ogs.tif
102
RTVSPost2010PropOp54
 70
     1
102
RTVSPost2010Prop55
280
     0
102
RTVSPost2010PropOp55
 70
     1
102
RTVSPost2010Prop56
140
1.0
102
RTVSPost2010PropOp56
 70
     1
102
RTVSPost2010Prop57
140
1.0
102
RTVSPost2010PropOp57
 70
     1
102
RTVSPropertyOp0
 70
     1
102
RTVSPropertyOp1
 70
     1
102
RTVSPropertyOp2
 70
     1
102
RTVSPropertyOp3
 70
     1
102
RTVSPropertyOp4
 70
     1
102
RTVSPropertyOp5
 70
     1
102
RTVSPropertyOp6
 70
     1
102
RTVSPropertyOp7
 70
     1
102
RTVSPropertyOp8
 70
     1
102
RTVSPropertyOp9
 70
     1
102
RTVSPropertyOp10
 70
     1
102
RTVSPropertyOp11
 70
     1
102
RTVSPropertyOp12
 70
     1
102
RTVSPropertyOp13
 70
     1
102
RTVSPropertyOp14
 70
     1
102
RTVSPropertyOp15
 70
     1
102
RTVSPropertyOp16
 70
     1
102
RTVSPropertyOp17
 70
     1
102
RTVSPropertyOp18
 70
     1
102
RTVSPropertyOp19
 70
     1
102
RTVSPropertyOp20
 70
     1
102
RTVSPropertyOp21
 70
     1
102
RTVSPropertyOp22
 70
     1
102
RTVSPropertyOp23
 70
     1
102
RTVSPropertyOp24
 70
     1
102
RTVSPropertyOp25
 70
     1
102
RTVSPropertyOp26
 70
     1
102
RTVSPropertyOp27
 70
     1
102
RTVSPropertyOp28
 70
     1
102
RTVSPropertyOp29
 70
     1
102
RTVSPropertyOp30
 70
     1
102
RTVSPropertyOp31
 70
     1
102
RTVSPropertyOp32
 70
     1
102
RTVSPropertyOp33
 70
     1
102
RTVSPropertyOp34
 70
     1
102
RTVSPropertyOp35
 70
     1
102
RTVSPropertyOp36
 70
     1
102
RTVSPropertyOp37
 70
     1
102
RTVSPropertyOp38
 70
     1
102
RTVSPropertyOp39
 70
     1
102
RTVSPropertyOp40
 70
     1
102
RTVSPropertyOp41
 70
     1
102
RTVSPropertyOp42
 70
     1
102
RTVSPropertyOp43
 70
     1
102
RTVSPropertyOp44
 70
     1
102
RTVSPropertyOp45
 70
     1
102
RTVSPropertyOp46
 70
     1
102
RTVSPropertyOp47
 70
     1
102
RTVSPropertyOp48
 70
     1
102
RTVSPropertyOp49
 70
     1
102
RTVSPropertyOp50
 70
     1
102
RTVSPropertyOp51
 70
     0
102
RTVSPropertyOp52
 70
     0
102
RTVSPropertyOp53
 70
     1
102
RTVSPropertyOp54
 70
     1
102
RTVSPropertyOp55
 70
     1
102
RTVSPropertyOp56
 70
     1
102
RTVSPropertyOp57
 70
     1
102
RTVSPropertyOp58
 70
     1
102
RTVSPropertyOp59
 70
     1
102
RTVSPropertyOp60
 70
     1
102
RTVSPropertyOp61
 70
     1
102
RTVSPropertyOp62
 70
     1
  0
XRECORD
  5
167D
102
{ACAD_REACTORS
330
167C
102
}
330
167C
100
AcDbXrecord
280
     1
102
RTVSPost2010Prop28
280
     0
102
RTVSPost2010PropOp28
 70
     1
102
RTVSPost2010Prop29
280
     1
102
RTVSPost2010PropOp29
 70
     1
102
RTVSPost2010Prop30
280
     1
102
RTVSPost2010PropOp30
 70
     1
102
RTVSPost2010Prop31
280
     0
102
RTVSPost2010PropOp31
 70
     1
102
RTVSPost2010Prop32
280
     0
102
RTVSPost2010PropOp32
 70
     1
102
RTVSPost2010Prop33
280
     0
102
RTVSPost2010PropOp33
 70
     1
102
RTVSPost2010Prop34
280
     0
102
RTVSPost2010PropOp34
 70
     1
102
RTVSPost2010Prop35
280
     0
102
RTVSPost2010PropOp35
 70
     1
102
RTVSPost2010Prop36
280
     0
102
RTVSPost2010PropOp36
 70
     1
102
RTVSPost2010Prop37
 90
       50
102
RTVSPost2010PropOp37
 70
     1
102
RTVSPost2010Prop38
140
0.0
102
RTVSPost2010PropOp38
 70
     1
102
RTVSPost2010Prop39
140
1.0
102
RTVSPost2010PropOp39
 70
     1
102
RTVSPost2010Prop40
 90
        0
102
RTVSPost2010PropOp40
 70
     1
102
RTVSPost2010Prop41ColorIndex
 90
       18
102
RTVSPost2010Prop41ColorRGB
 90
        0
102
RTVSPost2010PropOp41
 70
     1
102
RTVSPost2010Prop42
 90
       50
102
RTVSPost2010PropOp42
 70
     1
102
RTVSPost2010Prop43
 90
        3
102
RTVSPost2010PropOp43
 70
     1
102
RTVSPost2010Prop44ColorIndex
 90
        5
102
RTVSPost2010Prop44ColorRGB
 90
      255
102
RTVSPost2010PropOp44
 70
     1
102
RTVSPost2010Prop45
280
     0
102
RTVSPost2010PropOp45
 70
     1
102
RTVSPost2010Prop46
 90
       50
102
RTVSPost2010PropOp46
 70
     1
102
RTVSPost2010Prop47
 90
       50
102
RTVSPost2010PropOp47
 70
     1
102
RTVSPost2010Prop48
 90
       50
102
RTVSPost2010PropOp48
 70
     1
102
RTVSPost2010Prop49
280
     0
102
RTVSPost2010PropOp49
 70
     1
102
RTVSPost2010Prop50
 90
       50
102
RTVSPost2010PropOp50
 70
     1
102
RTVSPost2010Prop51ColorIndex
 90
      256
102
RTVSPost2010Prop51ColorRGB
 90
-16777216
102
RTVSPost2010PropOp51
 70
     0
102
RTVSPost2010Prop52
140
1.0
102
RTVSPost2010PropOp52
 70
     0
102
RTVSPost2010Prop53
 90
        2
102
RTVSPost2010PropOp53
 70
     1
102
RTVSPost2010Prop54
  1
strokes_ogs.tif
102
RTVSPost2010PropOp54
 70
     1
102
RTVSPost2010Prop55
280
     0
102
RTVSPost2010PropOp55
 70
     1
102
RTVSPost2010Prop56
140
1.0
102
RTVSPost2010PropOp56
 70
     1
102
RTVSPost2010Prop57
140
1.0
102
RTVSPost2010PropOp57
 70
     1
102
RTVSPropertyOp0
 70
     1
102
RTVSPropertyOp1
 70
     1
102
RTVSPropertyOp2
 70
     1
102
RTVSPropertyOp3
 70
     1
102
RTVSPropertyOp4
 70
     1
102
RTVSPropertyOp5
 70
     1
102
RTVSPropertyOp6
 70
     1
102
RTVSPropertyOp7
 70
     1
102
RTVSPropertyOp8
 70
     1
102
RTVSPropertyOp9
 70
     1
102
RTVSPropertyOp10
 70
     1
102
RTVSPropertyOp11
 70
     1
102
RTVSPropertyOp12
 70
     1
102
RTVSPropertyOp13
 70
     1
102
RTVSPropertyOp14
 70
     1
102
RTVSPropertyOp15
 70
     1
102
RTVSPropertyOp16
 70
     1
102
RTVSPropertyOp17
 70
     1
102
RTVSPropertyOp18
 70
     1
102
RTVSPropertyOp19
 70
     1
102
RTVSPropertyOp20
 70
     1
102
RTVSPropertyOp21
 70
     1
102
RTVSPropertyOp22
 70
     1
102
RTVSPropertyOp23
 70
     1
102
RTVSPropertyOp24
 70
     1
102
RTVSPropertyOp25
 70
     1
102
RTVSPropertyOp26
 70
     1
102
RTVSPropertyOp27
 70
     1
102
RTVSPropertyOp28
 70
     1
102
RTVSPropertyOp29
 70
     1
102
RTVSPropertyOp30
 70
     1
102
RTVSPropertyOp31
 70
     1
102
RTVSPropertyOp32
 70
     1
102
RTVSPropertyOp33
 70
     1
102
RTVSPropertyOp34
 70
     1
102
RTVSPropertyOp35
 70
     1
102
RTVSPropertyOp36
 70
     1
102
RTVSPropertyOp37
 70
     1
102
RTVSPropertyOp38
 70
     1
102
RTVSPropertyOp39
 70
     1
102
RTVSPropertyOp40
 70
     1
102
RTVSPropertyOp41
 70
     1
102
RTVSPropertyOp42
 70
     1
102
RTVSPropertyOp43
 70
     1
102
RTVSPropertyOp44
 70
     1
102
RTVSPropertyOp45
 70
     1
102
RTVSPropertyOp46
 70
     1
102
RTVSPropertyOp47
 70
     1
102
RTVSPropertyOp48
 70
     1
102
RTVSPropertyOp49
 70
     1
102
RTVSPropertyOp50
 70
     1
102
RTVSPropertyOp51
 70
     0
102
RTVSPropertyOp52
 70
     0
102
RTVSPropertyOp53
 70
     1
102
RTVSPropertyOp54
 70
     1
102
RTVSPropertyOp55
 70
     1
102
RTVSPropertyOp56
 70
     1
102
RTVSPropertyOp57
 70
     1
102
RTVSPropertyOp58
 70
     1
102
RTVSPropertyOp59
 70
     1
102
RTVSPropertyOp60
 70
     1
102
RTVSPropertyOp61
 70
     1
102
RTVSPropertyOp62
 70
     1
  0
XRECORD
  5
1689
102
{ACAD_REACTORS
330
1688
102
}
330
1688
100
AcDbXrecord
280
     1
102
RTVSPost2010Prop28
280
     0
102
RTVSPost2010PropOp28
 70
     1
102
RTVSPost2010Prop29
280
     1
102
RTVSPost2010PropOp29
 70
     1
102
RTVSPost2010Prop30
280
     1
102
RTVSPost2010PropOp30
 70
     1
102
RTVSPost2010Prop31
280
     0
102
RTVSPost2010PropOp31
 70
     1
102
RTVSPost2010Prop32
280
     0
102
RTVSPost2010PropOp32
 70
     1
102
RTVSPost2010Prop33
280
     0
102
RTVSPost2010PropOp33
 70
     1
102
RTVSPost2010Prop34
280
     0
102
RTVSPost2010PropOp34
 70
     1
102
RTVSPost2010Prop35
280
     0
102
RTVSPost2010PropOp35
 70
     1
102
RTVSPost2010Prop36
280
     0
102
RTVSPost2010PropOp36
 70
     1
102
RTVSPost2010Prop37
 90
       50
102
RTVSPost2010PropOp37
 70
     0
102
RTVSPost2010Prop38
140
0.0
102
RTVSPost2010PropOp38
 70
     0
102
RTVSPost2010Prop39
140
1.0
102
RTVSPost2010PropOp39
 70
     0
102
RTVSPost2010Prop40
 90
        0
102
RTVSPost2010PropOp40
 70
     0
102
RTVSPost2010Prop41ColorIndex
 90
       18
102
RTVSPost2010Prop41ColorRGB
 90
        0
102
RTVSPost2010PropOp41
 70
     0
102
RTVSPost2010Prop42
 90
       50
102
RTVSPost2010PropOp42
 70
     0
102
RTVSPost2010Prop43
 90
        3
102
RTVSPost2010PropOp43
 70
     0
102
RTVSPost2010Prop44ColorIndex
 90
        5
102
RTVSPost2010Prop44ColorRGB
 90
      255
102
RTVSPost2010PropOp44
 70
     0
102
RTVSPost2010Prop45
280
     0
102
RTVSPost2010PropOp45
 70
     1
102
RTVSPost2010Prop46
 90
       50
102
RTVSPost2010PropOp46
 70
     0
102
RTVSPost2010Prop47
 90
       50
102
RTVSPost2010PropOp47
 70
     0
102
RTVSPost2010Prop48
 90
       50
102
RTVSPost2010PropOp48
 70
     0
102
RTVSPost2010Prop49
280
     0
102
RTVSPost2010PropOp49
 70
     1
102
RTVSPost2010Prop50
 90
       50
102
RTVSPost2010PropOp50
 70
     0
102
RTVSPost2010Prop51ColorIndex
 90
      256
102
RTVSPost2010Prop51ColorRGB
 90
-16777216
102
RTVSPost2010PropOp51
 70
     0
102
RTVSPost2010Prop52
140
1.0
102
RTVSPost2010PropOp52
 70
     0
102
RTVSPost2010Prop53
 90
        2
102
RTVSPost2010PropOp53
 70
     0
102
RTVSPost2010Prop54
  1
strokes_ogs.tif
102
RTVSPost2010PropOp54
 70
     0
102
RTVSPost2010Prop55
280
     0
102
RTVSPost2010PropOp55
 70
     1
102
RTVSPost2010Prop56
140
1.0
102
RTVSPost2010PropOp56
 70
     0
102
RTVSPost2010Prop57
140
1.0
102
RTVSPost2010PropOp57
 70
     0
102
RTVSPropertyOp0
 70
     0
102
RTVSPropertyOp1
 70
     0
102
RTVSPropertyOp2
 70
     0
102
RTVSPropertyOp3
 70
     0
102
RTVSPropertyOp4
 70
     0
102
RTVSPropertyOp5
 70
     0
102
RTVSPropertyOp6
 70
     0
102
RTVSPropertyOp7
 70
     0
102
RTVSPropertyOp8
 70
     0
102
RTVSPropertyOp9
 70
     0
102
RTVSPropertyOp10
 70
     0
102
RTVSPropertyOp11
 70
     0
102
RTVSPropertyOp12
 70
     0
102
RTVSPropertyOp13
 70
     0
102
RTVSPropertyOp14
 70
     2
102
RTVSPropertyOp15
 70
     0
102
RTVSPropertyOp16
 70
     0
102
RTVSPropertyOp17
 70
     0
102
RTVSPropertyOp18
 70
     0
102
RTVSPropertyOp19
 70
     0
102
RTVSPropertyOp20
 70
     0
102
RTVSPropertyOp21
 70
     0
102
RTVSPropertyOp22
 70
     0
102
RTVSPropertyOp23
 70
     0
102
RTVSPropertyOp24
 70
     0
102
RTVSPropertyOp25
 70
     0
102
RTVSPropertyOp26
 70
     0
102
RTVSPropertyOp27
 70
     0
102
RTVSPropertyOp28
 70
     1
102
RTVSPropertyOp29
 70
     1
102
RTVSPropertyOp30
 70
     1
102
RTVSPropertyOp31
 70
     1
102
RTVSPropertyOp32
 70
     1
102
RTVSPropertyOp33
 70
     1
102
RTVSPropertyOp34
 70
     1
102
RTVSPropertyOp35
 70
     1
102
RTVSPropertyOp36
 70
     1
102
RTVSPropertyOp37
 70
     0
102
RTVSPropertyOp38
 70
     0
102
RTVSPropertyOp39
 70
     0
102
RTVSPropertyOp40
 70
     0
102
RTVSPropertyOp41
 70
     0
102
RTVSPropertyOp42
 70
     0
102
RTVSPropertyOp43
 70
     0
102
RTVSPropertyOp44
 70
     0
102
RTVSPropertyOp45
 70
     1
102
RTVSPropertyOp46
 70
     0
102
RTVSPropertyOp47
 70
     0
102
RTVSPropertyOp48
 70
     0
102
RTVSPropertyOp49
 70
     1
102
RTVSPropertyOp50
 70
     0
102
RTVSPropertyOp51
 70
     0
102
RTVSPropertyOp52
 70
     0
102
RTVSPropertyOp53
 70
     0
102
RTVSPropertyOp54
 70
     0
102
RTVSPropertyOp55
 70
     1
102
RTVSPropertyOp56
 70
     0
102
RTVSPropertyOp57
 70
     0
102
RTVSPropertyOp58
 70
     0
102
RTVSPropertyOp59
 70
     0
102
RTVSPropertyOp60
 70
     0
102
RTVSPropertyOp61
 70
     0
102
RTVSPropertyOp62
 70
     0
  0
XRECORD
  5
1675
102
{ACAD_REACTORS
330
1674
102
}
330
1674
100
AcDbXrecord
280
     1
102
RTVSPost2010Prop28
280
     0
102
RTVSPost2010PropOp28
 70
     1
102
RTVSPost2010Prop29
280
     1
102
RTVSPost2010PropOp29
 70
     1
102
RTVSPost2010Prop30
280
     1
102
RTVSPost2010PropOp30
 70
     1
102
RTVSPost2010Prop31
280
     0
102
RTVSPost2010PropOp31
 70
     1
102
RTVSPost2010Prop32
280
     0
102
RTVSPost2010PropOp32
 70
     1
102
RTVSPost2010Prop33
280
     0
102
RTVSPost2010PropOp33
 70
     1
102
RTVSPost2010Prop34
280
     0
102
RTVSPost2010PropOp34
 70
     1
102
RTVSPost2010Prop35
280
     0
102
RTVSPost2010PropOp35
 70
     1
102
RTVSPost2010Prop36
280
     0
102
RTVSPost2010PropOp36
 70
     1
102
RTVSPost2010Prop37
 90
       50
102
RTVSPost2010PropOp37
 70
     1
102
RTVSPost2010Prop38
140
0.0
102
RTVSPost2010PropOp38
 70
     1
102
RTVSPost2010Prop39
140
1.0
102
RTVSPost2010PropOp39
 70
     1
102
RTVSPost2010Prop40
 90
        0
102
RTVSPost2010PropOp40
 70
     1
102
RTVSPost2010Prop41ColorIndex
 90
       18
102
RTVSPost2010Prop41ColorRGB
 90
        0
102
RTVSPost2010PropOp41
 70
     1
102
RTVSPost2010Prop42
 90
       50
102
RTVSPost2010PropOp42
 70
     1
102
RTVSPost2010Prop43
 90
        3
102
RTVSPost2010PropOp43
 70
     1
102
RTVSPost2010Prop44ColorIndex
 90
        5
102
RTVSPost2010Prop44ColorRGB
 90
      255
102
RTVSPost2010PropOp44
 70
     1
102
RTVSPost2010Prop45
280
     0
102
RTVSPost2010PropOp45
 70
     1
102
RTVSPost2010Prop46
 90
       50
102
RTVSPost2010PropOp46
 70
     1
102
RTVSPost2010Prop47
 90
       50
102
RTVSPost2010PropOp47
 70
     1
102
RTVSPost2010Prop48
 90
       50
102
RTVSPost2010PropOp48
 70
     1
102
RTVSPost2010Prop49
280
     0
102
RTVSPost2010PropOp49
 70
     1
102
RTVSPost2010Prop50
 90
       50
102
RTVSPost2010PropOp50
 70
     1
102
RTVSPost2010Prop51ColorIndex
 90
      256
102
RTVSPost2010Prop51ColorRGB
 90
-16777216
102
RTVSPost2010PropOp51
 70
     0
102
RTVSPost2010Prop52
140
1.0
102
RTVSPost2010PropOp52
 70
     0
102
RTVSPost2010Prop53
 90
        2
102
RTVSPost2010PropOp53
 70
     1
102
RTVSPost2010Prop54
  1
strokes_ogs.tif
102
RTVSPost2010PropOp54
 70
     1
102
RTVSPost2010Prop55
280
     0
102
RTVSPost2010PropOp55
 70
     1
102
RTVSPost2010Prop56
140
1.0
102
RTVSPost2010PropOp56
 70
     1
102
RTVSPost2010Prop57
140
1.0
102
RTVSPost2010PropOp57
 70
     1
102
RTVSPropertyOp0
 70
     1
102
RTVSPropertyOp1
 70
     1
102
RTVSPropertyOp2
 70
     1
102
RTVSPropertyOp3
 70
     1
102
RTVSPropertyOp4
 70
     1
102
RTVSPropertyOp5
 70
     1
102
RTVSPropertyOp6
 70
     1
102
RTVSPropertyOp7
 70
     1
102
RTVSPropertyOp8
 70
     1
102
RTVSPropertyOp9
 70
     1
102
RTVSPropertyOp10
 70
     1
102
RTVSPropertyOp11
 70
     1
102
RTVSPropertyOp12
 70
     1
102
RTVSPropertyOp13
 70
     1
102
RTVSPropertyOp14
 70
     1
102
RTVSPropertyOp15
 70
     1
102
RTVSPropertyOp16
 70
     1
102
RTVSPropertyOp17
 70
     1
102
RTVSPropertyOp18
 70
     1
102
RTVSPropertyOp19
 70
     1
102
RTVSPropertyOp20
 70
     1
102
RTVSPropertyOp21
 70
     1
102
RTVSPropertyOp22
 70
     1
102
RTVSPropertyOp23
 70
     1
102
RTVSPropertyOp24
 70
     1
102
RTVSPropertyOp25
 70
     1
102
RTVSPropertyOp26
 70
     1
102
RTVSPropertyOp27
 70
     1
102
RTVSPropertyOp28
 70
     1
102
RTVSPropertyOp29
 70
     1
102
RTVSPropertyOp30
 70
     1
102
RTVSPropertyOp31
 70
     1
102
RTVSPropertyOp32
 70
     1
102
RTVSPropertyOp33
 70
     1
102
RTVSPropertyOp34
 70
     1
102
RTVSPropertyOp35
 70
     1
102
RTVSPropertyOp36
 70
     1
102
RTVSPropertyOp37
 70
     1
102
RTVSPropertyOp38
 70
     1
102
RTVSPropertyOp39
 70
     1
102
RTVSPropertyOp40
 70
     1
102
RTVSPropertyOp41
 70
     1
102
RTVSPropertyOp42
 70
     1
102
RTVSPropertyOp43
 70
     1
102
RTVSPropertyOp44
 70
     1
102
RTVSPropertyOp45
 70
     1
102
RTVSPropertyOp46
 70
     1
102
RTVSPropertyOp47
 70
     1
102
RTVSPropertyOp48
 70
     1
102
RTVSPropertyOp49
 70
     1
102
RTVSPropertyOp50
 70
     1
102
RTVSPropertyOp51
 70
     0
102
RTVSPropertyOp52
 70
     0
102
RTVSPropertyOp53
 70
     1
102
RTVSPropertyOp54
 70
     1
102
RTVSPropertyOp55
 70
     1
102
RTVSPropertyOp56
 70
     1
102
RTVSPropertyOp57
 70
     1
102
RTVSPropertyOp58
 70
     1
102
RTVSPropertyOp59
 70
     1
102
RTVSPropertyOp60
 70
     1
102
RTVSPropertyOp61
 70
     1
102
RTVSPropertyOp62
 70
     1
  0
XRECORD
  5
168B
102
{ACAD_REACTORS
330
168A
102
}
330
168A
100
AcDbXrecord
280
     1
102
RTVSPost2010Prop28
280
     0
102
RTVSPost2010PropOp28
 70
     1
102
RTVSPost2010Prop29
280
     1
102
RTVSPost2010PropOp29
 70
     1
102
RTVSPost2010Prop30
280
     1
102
RTVSPost2010PropOp30
 70
     1
102
RTVSPost2010Prop31
280
     0
102
RTVSPost2010PropOp31
 70
     1
102
RTVSPost2010Prop32
280
     0
102
RTVSPost2010PropOp32
 70
     1
102
RTVSPost2010Prop33
280
     0
102
RTVSPost2010PropOp33
 70
     1
102
RTVSPost2010Prop34
280
     0
102
RTVSPost2010PropOp34
 70
     1
102
RTVSPost2010Prop35
280
     0
102
RTVSPost2010PropOp35
 70
     1
102
RTVSPost2010Prop36
280
     0
102
RTVSPost2010PropOp36
 70
     1
102
RTVSPost2010Prop37
 90
       50
102
RTVSPost2010PropOp37
 70
     0
102
RTVSPost2010Prop38
140
0.0
102
RTVSPost2010PropOp38
 70
     0
102
RTVSPost2010Prop39
140
1.0
102
RTVSPost2010PropOp39
 70
     0
102
RTVSPost2010Prop40
 90
        0
102
RTVSPost2010PropOp40
 70
     0
102
RTVSPost2010Prop41ColorIndex
 90
       18
102
RTVSPost2010Prop41ColorRGB
 90
        0
102
RTVSPost2010PropOp41
 70
     0
102
RTVSPost2010Prop42
 90
       50
102
RTVSPost2010PropOp42
 70
     0
102
RTVSPost2010Prop43
 90
        3
102
RTVSPost2010PropOp43
 70
     0
102
RTVSPost2010Prop44ColorIndex
 90
        5
102
RTVSPost2010Prop44ColorRGB
 90
      255
102
RTVSPost2010PropOp44
 70
     0
102
RTVSPost2010Prop45
280
     0
102
RTVSPost2010PropOp45
 70
     1
102
RTVSPost2010Prop46
 90
       50
102
RTVSPost2010PropOp46
 70
     0
102
RTVSPost2010Prop47
 90
       50
102
RTVSPost2010PropOp47
 70
     0
102
RTVSPost2010Prop48
 90
       50
102
RTVSPost2010PropOp48
 70
     0
102
RTVSPost2010Prop49
280
     0
102
RTVSPost2010PropOp49
 70
     1
102
RTVSPost2010Prop50
 90
       50
102
RTVSPost2010PropOp50
 70
     0
102
RTVSPost2010Prop51ColorIndex
 90
      256
102
RTVSPost2010Prop51ColorRGB
 90
-16777216
102
RTVSPost2010PropOp51
 70
     0
102
RTVSPost2010Prop52
140
1.0
102
RTVSPost2010PropOp52
 70
     0
102
RTVSPost2010Prop53
 90
        2
102
RTVSPost2010PropOp53
 70
     0
102
RTVSPost2010Prop54
  1
strokes_ogs.tif
102
RTVSPost2010PropOp54
 70
     0
102
RTVSPost2010Prop55
280
     0
102
RTVSPost2010PropOp55
 70
     1
102
RTVSPost2010Prop56
140
1.0
102
RTVSPost2010PropOp56
 70
     0
102
RTVSPost2010Prop57
140
1.0
102
RTVSPost2010PropOp57
 70
     0
102
RTVSPropertyOp0
 70
     0
102
RTVSPropertyOp1
 70
     0
102
RTVSPropertyOp2
 70
     0
102
RTVSPropertyOp3
 70
     0
102
RTVSPropertyOp4
 70
     0
102
RTVSPropertyOp5
 70
     0
102
RTVSPropertyOp6
 70
     0
102
RTVSPropertyOp7
 70
     0
102
RTVSPropertyOp8
 70
     0
102
RTVSPropertyOp9
 70
     0
102
RTVSPropertyOp10
 70
     0
102
RTVSPropertyOp11
 70
     0
102
RTVSPropertyOp12
 70
     0
102
RTVSPropertyOp13
 70
     0
102
RTVSPropertyOp14
 70
     2
102
RTVSPropertyOp15
 70
     0
102
RTVSPropertyOp16
 70
     0
102
RTVSPropertyOp17
 70
     0
102
RTVSPropertyOp18
 70
     0
102
RTVSPropertyOp19
 70
     0
102
RTVSPropertyOp20
 70
     0
102
RTVSPropertyOp21
 70
     0
102
RTVSPropertyOp22
 70
     0
102
RTVSPropertyOp23
 70
     0
102
RTVSPropertyOp24
 70
     0
102
RTVSPropertyOp25
 70
     0
102
RTVSPropertyOp26
 70
     0
102
RTVSPropertyOp27
 70
     0
102
RTVSPropertyOp28
 70
     1
102
RTVSPropertyOp29
 70
     1
102
RTVSPropertyOp30
 70
     1
102
RTVSPropertyOp31
 70
     1
102
RTVSPropertyOp32
 70
     1
102
RTVSPropertyOp33
 70
     1
102
RTVSPropertyOp34
 70
     1
102
RTVSPropertyOp35
 70
     1
102
RTVSPropertyOp36
 70
     1
102
RTVSPropertyOp37
 70
     0
102
RTVSPropertyOp38
 70
     0
102
RTVSPropertyOp39
 70
     0
102
RTVSPropertyOp40
 70
     0
102
RTVSPropertyOp41
 70
     0
102
RTVSPropertyOp42
 70
     0
102
RTVSPropertyOp43
 70
     0
102
RTVSPropertyOp44
 70
     0
102
RTVSPropertyOp45
 70
     1
102
RTVSPropertyOp46
 70
     0
102
RTVSPropertyOp47
 70
     0
102
RTVSPropertyOp48
 70
     0
102
RTVSPropertyOp49
 70
     1
102
RTVSPropertyOp50
 70
     0
102
RTVSPropertyOp51
 70
     0
102
RTVSPropertyOp52
 70
     0
102
RTVSPropertyOp53
 70
     0
102
RTVSPropertyOp54
 70
     0
102
RTVSPropertyOp55
 70
     1
102
RTVSPropertyOp56
 70
     0
102
RTVSPropertyOp57
 70
     0
102
RTVSPropertyOp58
 70
     0
102
RTVSPropertyOp59
 70
     0
102
RTVSPropertyOp60
 70
     0
102
RTVSPropertyOp61
 70
     0
102
RTVSPropertyOp62
 70
     0
  0
XRECORD
  5
166D
102
{ACAD_REACTORS
330
166C
102
}
330
166C
100
AcDbXrecord
280
     1
102
RTVSPost2010Prop28
280
     0
102
RTVSPost2010PropOp28
 70
     1
102
RTVSPost2010Prop29
280
     1
102
RTVSPost2010PropOp29
 70
     1
102
RTVSPost2010Prop30
280
     1
102
RTVSPost2010PropOp30
 70
     1
102
RTVSPost2010Prop31
280
     0
102
RTVSPost2010PropOp31
 70
     1
102
RTVSPost2010Prop32
280
     0
102
RTVSPost2010PropOp32
 70
     1
102
RTVSPost2010Prop33
280
     0
102
RTVSPost2010PropOp33
 70
     1
102
RTVSPost2010Prop34
280
     0
102
RTVSPost2010PropOp34
 70
     1
102
RTVSPost2010Prop35
280
     0
102
RTVSPost2010PropOp35
 70
     1
102
RTVSPost2010Prop36
280
     0
102
RTVSPost2010PropOp36
 70
     1
102
RTVSPost2010Prop37
 90
       50
102
RTVSPost2010PropOp37
 70
     1
102
RTVSPost2010Prop38
140
0.0
102
RTVSPost2010PropOp38
 70
     1
102
RTVSPost2010Prop39
140
1.0
102
RTVSPost2010PropOp39
 70
     1
102
RTVSPost2010Prop40
 90
        0
102
RTVSPost2010PropOp40
 70
     1
102
RTVSPost2010Prop41ColorIndex
 90
       18
102
RTVSPost2010Prop41ColorRGB
 90
        0
102
RTVSPost2010PropOp41
 70
     1
102
RTVSPost2010Prop42
 90
       50
102
RTVSPost2010PropOp42
 70
     1
102
RTVSPost2010Prop43
 90
        3
102
RTVSPost2010PropOp43
 70
     1
102
RTVSPost2010Prop44ColorIndex
 90
        5
102
RTVSPost2010Prop44ColorRGB
 90
      255
102
RTVSPost2010PropOp44
 70
     1
102
RTVSPost2010Prop45
280
     0
102
RTVSPost2010PropOp45
 70
     1
102
RTVSPost2010Prop46
 90
       50
102
RTVSPost2010PropOp46
 70
     1
102
RTVSPost2010Prop47
 90
       50
102
RTVSPost2010PropOp47
 70
     1
102
RTVSPost2010Prop48
 90
       50
102
RTVSPost2010PropOp48
 70
     1
102
RTVSPost2010Prop49
280
     0
102
RTVSPost2010PropOp49
 70
     1
102
RTVSPost2010Prop50
 90
       50
102
RTVSPost2010PropOp50
 70
     1
102
RTVSPost2010Prop51ColorIndex
 90
      256
102
RTVSPost2010Prop51ColorRGB
 90
-16777216
102
RTVSPost2010PropOp51
 70
     0
102
RTVSPost2010Prop52
140
1.0
102
RTVSPost2010PropOp52
 70
     0
102
RTVSPost2010Prop53
 90
        2
102
RTVSPost2010PropOp53
 70
     1
102
RTVSPost2010Prop54
  1
strokes_ogs.tif
102
RTVSPost2010PropOp54
 70
     1
102
RTVSPost2010Prop55
280
     0
102
RTVSPost2010PropOp55
 70
     1
102
RTVSPost2010Prop56
140
1.0
102
RTVSPost2010PropOp56
 70
     1
102
RTVSPost2010Prop57
140
1.0
102
RTVSPost2010PropOp57
 70
     1
102
RTVSPropertyOp0
 70
     1
102
RTVSPropertyOp1
 70
     1
102
RTVSPropertyOp2
 70
     1
102
RTVSPropertyOp3
 70
     1
102
RTVSPropertyOp4
 70
     1
102
RTVSPropertyOp5
 70
     1
102
RTVSPropertyOp6
 70
     1
102
RTVSPropertyOp7
 70
     1
102
RTVSPropertyOp8
 70
     1
102
RTVSPropertyOp9
 70
     1
102
RTVSPropertyOp10
 70
     1
102
RTVSPropertyOp11
 70
     1
102
RTVSPropertyOp12
 70
     1
102
RTVSPropertyOp13
 70
     1
102
RTVSPropertyOp14
 70
     1
102
RTVSPropertyOp15
 70
     1
102
RTVSPropertyOp16
 70
     1
102
RTVSPropertyOp17
 70
     1
102
RTVSPropertyOp18
 70
     1
102
RTVSPropertyOp19
 70
     1
102
RTVSPropertyOp20
 70
     1
102
RTVSPropertyOp21
 70
     1
102
RTVSPropertyOp22
 70
     1
102
RTVSPropertyOp23
 70
     1
102
RTVSPropertyOp24
 70
     1
102
RTVSPropertyOp25
 70
     1
102
RTVSPropertyOp26
 70
     1
102
RTVSPropertyOp27
 70
     1
102
RTVSPropertyOp28
 70
     1
102
RTVSPropertyOp29
 70
     1
102
RTVSPropertyOp30
 70
     1
102
RTVSPropertyOp31
 70
     1
102
RTVSPropertyOp32
 70
     1
102
RTVSPropertyOp33
 70
     1
102
RTVSPropertyOp34
 70
     1
102
RTVSPropertyOp35
 70
     1
102
RTVSPropertyOp36
 70
     1
102
RTVSPropertyOp37
 70
     1
102
RTVSPropertyOp38
 70
     1
102
RTVSPropertyOp39
 70
     1
102
RTVSPropertyOp40
 70
     1
102
RTVSPropertyOp41
 70
     1
102
RTVSPropertyOp42
 70
     1
102
RTVSPropertyOp43
 70
     1
102
RTVSPropertyOp44
 70
     1
102
RTVSPropertyOp45
 70
     1
102
RTVSPropertyOp46
 70
     1
102
RTVSPropertyOp47
 70
     1
102
RTVSPropertyOp48
 70
     1
102
RTVSPropertyOp49
 70
     1
102
RTVSPropertyOp50
 70
     1
102
RTVSPropertyOp51
 70
     0
102
RTVSPropertyOp52
 70
     0
102
RTVSPropertyOp53
 70
     1
102
RTVSPropertyOp54
 70
     1
102
RTVSPropertyOp55
 70
     1
102
RTVSPropertyOp56
 70
     1
102
RTVSPropertyOp57
 70
     1
102
RTVSPropertyOp58
 70
     1
102
RTVSPropertyOp59
 70
     1
102
RTVSPropertyOp60
 70
     1
102
RTVSPropertyOp61
 70
     1
102
RTVSPropertyOp62
 70
     1
  0
XRECORD
  5
1687
102
{ACAD_REACTORS
330
1686
102
}
330
1686
100
AcDbXrecord
280
     1
102
RTVSPost2010Prop28
280
     0
102
RTVSPost2010PropOp28
 70
     1
102
RTVSPost2010Prop29
280
     1
102
RTVSPost2010PropOp29
 70
     1
102
RTVSPost2010Prop30
280
     1
102
RTVSPost2010PropOp30
 70
     1
102
RTVSPost2010Prop31
280
     0
102
RTVSPost2010PropOp31
 70
     1
102
RTVSPost2010Prop32
280
     0
102
RTVSPost2010PropOp32
 70
     1
102
RTVSPost2010Prop33
280
     0
102
RTVSPost2010PropOp33
 70
     1
102
RTVSPost2010Prop34
280
     0
102
RTVSPost2010PropOp34
 70
     1
102
RTVSPost2010Prop35
280
     0
102
RTVSPost2010PropOp35
 70
     1
102
RTVSPost2010Prop36
280
     0
102
RTVSPost2010PropOp36
 70
     1
102
RTVSPost2010Prop37
 90
       50
102
RTVSPost2010PropOp37
 70
     1
102
RTVSPost2010Prop38
140
0.0
102
RTVSPost2010PropOp38
 70
     1
102
RTVSPost2010Prop39
140
1.0
102
RTVSPost2010PropOp39
 70
     1
102
RTVSPost2010Prop40
 90
        0
102
RTVSPost2010PropOp40
 70
     1
102
RTVSPost2010Prop41ColorIndex
 90
       18
102
RTVSPost2010Prop41ColorRGB
 90
        0
102
RTVSPost2010PropOp41
 70
     1
102
RTVSPost2010Prop42
 90
       50
102
RTVSPost2010PropOp42
 70
     1
102
RTVSPost2010Prop43
 90
        3
102
RTVSPost2010PropOp43
 70
     1
102
RTVSPost2010Prop44ColorIndex
 90
        5
102
RTVSPost2010Prop44ColorRGB
 90
      255
102
RTVSPost2010PropOp44
 70
     1
102
RTVSPost2010Prop45
280
     0
102
RTVSPost2010PropOp45
 70
     1
102
RTVSPost2010Prop46
 90
       50
102
RTVSPost2010PropOp46
 70
     1
102
RTVSPost2010Prop47
 90
       50
102
RTVSPost2010PropOp47
 70
     1
102
RTVSPost2010Prop48
 90
       50
102
RTVSPost2010PropOp48
 70
     1
102
RTVSPost2010Prop49
280
     0
102
RTVSPost2010PropOp49
 70
     1
102
RTVSPost2010Prop50
 90
       50
102
RTVSPost2010PropOp50
 70
     1
102
RTVSPost2010Prop51ColorIndex
 90
      256
102
RTVSPost2010Prop51ColorRGB
 90
-16777216
102
RTVSPost2010PropOp51
 70
     0
102
RTVSPost2010Prop52
140
1.0
102
RTVSPost2010PropOp52
 70
     0
102
RTVSPost2010Prop53
 90
        2
102
RTVSPost2010PropOp53
 70
     1
102
RTVSPost2010Prop54
  1
strokes_ogs.tif
102
RTVSPost2010PropOp54
 70
     1
102
RTVSPost2010Prop55
280
     0
102
RTVSPost2010PropOp55
 70
     1
102
RTVSPost2010Prop56
140
1.0
102
RTVSPost2010PropOp56
 70
     1
102
RTVSPost2010Prop57
140
1.0
102
RTVSPost2010PropOp57
 70
     1
102
RTVSPropertyOp0
 70
     1
102
RTVSPropertyOp1
 70
     1
102
RTVSPropertyOp2
 70
     1
102
RTVSPropertyOp3
 70
     1
102
RTVSPropertyOp4
 70
     1
102
RTVSPropertyOp5
 70
     1
102
RTVSPropertyOp6
 70
     1
102
RTVSPropertyOp7
 70
     1
102
RTVSPropertyOp8
 70
     1
102
RTVSPropertyOp9
 70
     1
102
RTVSPropertyOp10
 70
     1
102
RTVSPropertyOp11
 70
     1
102
RTVSPropertyOp12
 70
     1
102
RTVSPropertyOp13
 70
     1
102
RTVSPropertyOp14
 70
     1
102
RTVSPropertyOp15
 70
     1
102
RTVSPropertyOp16
 70
     1
102
RTVSPropertyOp17
 70
     1
102
RTVSPropertyOp18
 70
     1
102
RTVSPropertyOp19
 70
     1
102
RTVSPropertyOp20
 70
     1
102
RTVSPropertyOp21
 70
     1
102
RTVSPropertyOp22
 70
     1
102
RTVSPropertyOp23
 70
     1
102
RTVSPropertyOp24
 70
     1
102
RTVSPropertyOp25
 70
     1
102
RTVSPropertyOp26
 70
     1
102
RTVSPropertyOp27
 70
     1
102
RTVSPropertyOp28
 70
     1
102
RTVSPropertyOp29
 70
     1
102
RTVSPropertyOp30
 70
     1
102
RTVSPropertyOp31
 70
     1
102
RTVSPropertyOp32
 70
     1
102
RTVSPropertyOp33
 70
     1
102
RTVSPropertyOp34
 70
     1
102
RTVSPropertyOp35
 70
     1
102
RTVSPropertyOp36
 70
     1
102
RTVSPropertyOp37
 70
     1
102
RTVSPropertyOp38
 70
     1
102
RTVSPropertyOp39
 70
     1
102
RTVSPropertyOp40
 70
     1
102
RTVSPropertyOp41
 70
     1
102
RTVSPropertyOp42
 70
     1
102
RTVSPropertyOp43
 70
     1
102
RTVSPropertyOp44
 70
     1
102
RTVSPropertyOp45
 70
     1
102
RTVSPropertyOp46
 70
     1
102
RTVSPropertyOp47
 70
     1
102
RTVSPropertyOp48
 70
     1
102
RTVSPropertyOp49
 70
     1
102
RTVSPropertyOp50
 70
     1
102
RTVSPropertyOp51
 70
     0
102
RTVSPropertyOp52
 70
     0
102
RTVSPropertyOp53
 70
     1
102
RTVSPropertyOp54
 70
     1
102
RTVSPropertyOp55
 70
     1
102
RTVSPropertyOp56
 70
     1
102
RTVSPropertyOp57
 70
     1
102
RTVSPropertyOp58
 70
     1
102
RTVSPropertyOp59
 70
     1
102
RTVSPropertyOp60
 70
     1
102
RTVSPropertyOp61
 70
     1
102
RTVSPropertyOp62
 70
     1
  0
XRECORD
  5
1685
102
{ACAD_REACTORS
330
1684
102
}
330
1684
100
AcDbXrecord
280
     1
102
RTVSPost2010Prop28
280
     0
102
RTVSPost2010PropOp28
 70
     1
102
RTVSPost2010Prop29
280
     1
102
RTVSPost2010PropOp29
 70
     1
102
RTVSPost2010Prop30
280
     1
102
RTVSPost2010PropOp30
 70
     1
102
RTVSPost2010Prop31
280
     0
102
RTVSPost2010PropOp31
 70
     1
102
RTVSPost2010Prop32
280
     0
102
RTVSPost2010PropOp32
 70
     1
102
RTVSPost2010Prop33
280
     0
102
RTVSPost2010PropOp33
 70
     1
102
RTVSPost2010Prop34
280
     0
102
RTVSPost2010PropOp34
 70
     1
102
RTVSPost2010Prop35
280
     0
102
RTVSPost2010PropOp35
 70
     1
102
RTVSPost2010Prop36
280
     0
102
RTVSPost2010PropOp36
 70
     1
102
RTVSPost2010Prop37
 90
       50
102
RTVSPost2010PropOp37
 70
     1
102
RTVSPost2010Prop38
140
0.0
102
RTVSPost2010PropOp38
 70
     1
102
RTVSPost2010Prop39
140
1.0
102
RTVSPost2010PropOp39
 70
     1
102
RTVSPost2010Prop40
 90
        0
102
RTVSPost2010PropOp40
 70
     1
102
RTVSPost2010Prop41ColorIndex
 90
       18
102
RTVSPost2010Prop41ColorRGB
 90
        0
102
RTVSPost2010PropOp41
 70
     1
102
RTVSPost2010Prop42
 90
       50
102
RTVSPost2010PropOp42
 70
     1
102
RTVSPost2010Prop43
 90
        3
102
RTVSPost2010PropOp43
 70
     1
102
RTVSPost2010Prop44ColorIndex
 90
        5
102
RTVSPost2010Prop44ColorRGB
 90
      255
102
RTVSPost2010PropOp44
 70
     1
102
RTVSPost2010Prop45
280
     0
102
RTVSPost2010PropOp45
 70
     1
102
RTVSPost2010Prop46
 90
       50
102
RTVSPost2010PropOp46
 70
     1
102
RTVSPost2010Prop47
 90
       50
102
RTVSPost2010PropOp47
 70
     1
102
RTVSPost2010Prop48
 90
       50
102
RTVSPost2010PropOp48
 70
     1
102
RTVSPost2010Prop49
280
     0
102
RTVSPost2010PropOp49
 70
     1
102
RTVSPost2010Prop50
 90
       50
102
RTVSPost2010PropOp50
 70
     1
102
RTVSPost2010Prop51ColorIndex
 90
      256
102
RTVSPost2010Prop51ColorRGB
 90
-16777216
102
RTVSPost2010PropOp51
 70
     0
102
RTVSPost2010Prop52
140
1.0
102
RTVSPost2010PropOp52
 70
     0
102
RTVSPost2010Prop53
 90
        2
102
RTVSPost2010PropOp53
 70
     1
102
RTVSPost2010Prop54
  1
strokes_ogs.tif
102
RTVSPost2010PropOp54
 70
     1
102
RTVSPost2010Prop55
280
     0
102
RTVSPost2010PropOp55
 70
     1
102
RTVSPost2010Prop56
140
1.0
102
RTVSPost2010PropOp56
 70
     1
102
RTVSPost2010Prop57
140
1.0
102
RTVSPost2010PropOp57
 70
     1
102
RTVSPropertyOp0
 70
     1
102
RTVSPropertyOp1
 70
     1
102
RTVSPropertyOp2
 70
     1
102
RTVSPropertyOp3
 70
     1
102
RTVSPropertyOp4
 70
     1
102
RTVSPropertyOp5
 70
     1
102
RTVSPropertyOp6
 70
     1
102
RTVSPropertyOp7
 70
     1
102
RTVSPropertyOp8
 70
     1
102
RTVSPropertyOp9
 70
     1
102
RTVSPropertyOp10
 70
     1
102
RTVSPropertyOp11
 70
     1
102
RTVSPropertyOp12
 70
     1
102
RTVSPropertyOp13
 70
     1
102
RTVSPropertyOp14
 70
     1
102
RTVSPropertyOp15
 70
     1
102
RTVSPropertyOp16
 70
     1
102
RTVSPropertyOp17
 70
     1
102
RTVSPropertyOp18
 70
     1
102
RTVSPropertyOp19
 70
     1
102
RTVSPropertyOp20
 70
     1
102
RTVSPropertyOp21
 70
     1
102
RTVSPropertyOp22
 70
     1
102
RTVSPropertyOp23
 70
     1
102
RTVSPropertyOp24
 70
     1
102
RTVSPropertyOp25
 70
     1
102
RTVSPropertyOp26
 70
     1
102
RTVSPropertyOp27
 70
     1
102
RTVSPropertyOp28
 70
     1
102
RTVSPropertyOp29
 70
     1
102
RTVSPropertyOp30
 70
     1
102
RTVSPropertyOp31
 70
     1
102
RTVSPropertyOp32
 70
     1
102
RTVSPropertyOp33
 70
     1
102
RTVSPropertyOp34
 70
     1
102
RTVSPropertyOp35
 70
     1
102
RTVSPropertyOp36
 70
     1
102
RTVSPropertyOp37
 70
     1
102
RTVSPropertyOp38
 70
     1
102
RTVSPropertyOp39
 70
     1
102
RTVSPropertyOp40
 70
     1
102
RTVSPropertyOp41
 70
     1
102
RTVSPropertyOp42
 70
     1
102
RTVSPropertyOp43
 70
     1
102
RTVSPropertyOp44
 70
     1
102
RTVSPropertyOp45
 70
     1
102
RTVSPropertyOp46
 70
     1
102
RTVSPropertyOp47
 70
     1
102
RTVSPropertyOp48
 70
     1
102
RTVSPropertyOp49
 70
     1
102
RTVSPropertyOp50
 70
     1
102
RTVSPropertyOp51
 70
     0
102
RTVSPropertyOp52
 70
     0
102
RTVSPropertyOp53
 70
     1
102
RTVSPropertyOp54
 70
     1
102
RTVSPropertyOp55
 70
     1
102
RTVSPropertyOp56
 70
     1
102
RTVSPropertyOp57
 70
     1
102
RTVSPropertyOp58
 70
     1
102
RTVSPropertyOp59
 70
     1
102
RTVSPropertyOp60
 70
     1
102
RTVSPropertyOp61
 70
     1
102
RTVSPropertyOp62
 70
     1
  0
XRECORD
  5
167F
102
{ACAD_REACTORS
330
167E
102
}
330
167E
100
AcDbXrecord
280
     1
102
RTVSPost2010Prop28
280
     0
102
RTVSPost2010PropOp28
 70
     1
102
RTVSPost2010Prop29
280
     1
102
RTVSPost2010PropOp29
 70
     1
102
RTVSPost2010Prop30
280
     1
102
RTVSPost2010PropOp30
 70
     1
102
RTVSPost2010Prop31
280
     0
102
RTVSPost2010PropOp31
 70
     1
102
RTVSPost2010Prop32
280
     0
102
RTVSPost2010PropOp32
 70
     1
102
RTVSPost2010Prop33
280
     0
102
RTVSPost2010PropOp33
 70
     1
102
RTVSPost2010Prop34
280
     0
102
RTVSPost2010PropOp34
 70
     1
102
RTVSPost2010Prop35
280
     0
102
RTVSPost2010PropOp35
 70
     1
102
RTVSPost2010Prop36
280
     0
102
RTVSPost2010PropOp36
 70
     1
102
RTVSPost2010Prop37
 90
       50
102
RTVSPost2010PropOp37
 70
     1
102
RTVSPost2010Prop38
140
0.0
102
RTVSPost2010PropOp38
 70
     1
102
RTVSPost2010Prop39
140
1.0
102
RTVSPost2010PropOp39
 70
     1
102
RTVSPost2010Prop40
 90
        0
102
RTVSPost2010PropOp40
 70
     1
102
RTVSPost2010Prop41ColorIndex
 90
       18
102
RTVSPost2010Prop41ColorRGB
 90
        0
102
RTVSPost2010PropOp41
 70
     1
102
RTVSPost2010Prop42
 90
       50
102
RTVSPost2010PropOp42
 70
     1
102
RTVSPost2010Prop43
 90
        3
102
RTVSPost2010PropOp43
 70
     1
102
RTVSPost2010Prop44ColorIndex
 90
        5
102
RTVSPost2010Prop44ColorRGB
 90
      255
102
RTVSPost2010PropOp44
 70
     1
102
RTVSPost2010Prop45
280
     0
102
RTVSPost2010PropOp45
 70
     1
102
RTVSPost2010Prop46
 90
       50
102
RTVSPost2010PropOp46
 70
     1
102
RTVSPost2010Prop47
 90
       50
102
RTVSPost2010PropOp47
 70
     1
102
RTVSPost2010Prop48
 90
       50
102
RTVSPost2010PropOp48
 70
     1
102
RTVSPost2010Prop49
280
     0
102
RTVSPost2010PropOp49
 70
     1
102
RTVSPost2010Prop50
 90
       50
102
RTVSPost2010PropOp50
 70
     1
102
RTVSPost2010Prop51ColorIndex
 90
      256
102
RTVSPost2010Prop51ColorRGB
 90
-16777216
102
RTVSPost2010PropOp51
 70
     0
102
RTVSPost2010Prop52
140
1.0
102
RTVSPost2010PropOp52
 70
     0
102
RTVSPost2010Prop53
 90
        2
102
RTVSPost2010PropOp53
 70
     1
102
RTVSPost2010Prop54
  1
strokes_ogs.tif
102
RTVSPost2010PropOp54
 70
     1
102
RTVSPost2010Prop55
280
     0
102
RTVSPost2010PropOp55
 70
     1
102
RTVSPost2010Prop56
140
1.0
102
RTVSPost2010PropOp56
 70
     1
102
RTVSPost2010Prop57
140
1.0
102
RTVSPost2010PropOp57
 70
     1
102
RTVSPropertyOp0
 70
     1
102
RTVSPropertyOp1
 70
     1
102
RTVSPropertyOp2
 70
     1
102
RTVSPropertyOp3
 70
     1
102
RTVSPropertyOp4
 70
     1
102
RTVSPropertyOp5
 70
     1
102
RTVSPropertyOp6
 70
     1
102
RTVSPropertyOp7
 70
     1
102
RTVSPropertyOp8
 70
     1
102
RTVSPropertyOp9
 70
     1
102
RTVSPropertyOp10
 70
     1
102
RTVSPropertyOp11
 70
     1
102
RTVSPropertyOp12
 70
     1
102
RTVSPropertyOp13
 70
     1
102
RTVSPropertyOp14
 70
     1
102
RTVSPropertyOp15
 70
     1
102
RTVSPropertyOp16
 70
     1
102
RTVSPropertyOp17
 70
     1
102
RTVSPropertyOp18
 70
     1
102
RTVSPropertyOp19
 70
     1
102
RTVSPropertyOp20
 70
     1
102
RTVSPropertyOp21
 70
     1
102
RTVSPropertyOp22
 70
     1
102
RTVSPropertyOp23
 70
     1
102
RTVSPropertyOp24
 70
     1
102
RTVSPropertyOp25
 70
     1
102
RTVSPropertyOp26
 70
     1
102
RTVSPropertyOp27
 70
     1
102
RTVSPropertyOp28
 70
     1
102
RTVSPropertyOp29
 70
     1
102
RTVSPropertyOp30
 70
     1
102
RTVSPropertyOp31
 70
     1
102
RTVSPropertyOp32
 70
     1
102
RTVSPropertyOp33
 70
     1
102
RTVSPropertyOp34
 70
     1
102
RTVSPropertyOp35
 70
     1
102
RTVSPropertyOp36
 70
     1
102
RTVSPropertyOp37
 70
     1
102
RTVSPropertyOp38
 70
     1
102
RTVSPropertyOp39
 70
     1
102
RTVSPropertyOp40
 70
     1
102
RTVSPropertyOp41
 70
     1
102
RTVSPropertyOp42
 70
     1
102
RTVSPropertyOp43
 70
     1
102
RTVSPropertyOp44
 70
     1
102
RTVSPropertyOp45
 70
     1
102
RTVSPropertyOp46
 70
     1
102
RTVSPropertyOp47
 70
     1
102
RTVSPropertyOp48
 70
     1
102
RTVSPropertyOp49
 70
     1
102
RTVSPropertyOp50
 70
     1
102
RTVSPropertyOp51
 70
     0
102
RTVSPropertyOp52
 70
     0
102
RTVSPropertyOp53
 70
     1
102
RTVSPropertyOp54
 70
     1
102
RTVSPropertyOp55
 70
     1
102
RTVSPropertyOp56
 70
     1
102
RTVSPropertyOp57
 70
     1
102
RTVSPropertyOp58
 70
     1
102
RTVSPropertyOp59
 70
     1
102
RTVSPropertyOp60
 70
     1
102
RTVSPropertyOp61
 70
     1
102
RTVSPropertyOp62
 70
     1
  0
XRECORD
  5
1681
102
{ACAD_REACTORS
330
1680
102
}
330
1680
100
AcDbXrecord
280
     1
102
RTVSPost2010Prop28
280
     0
102
RTVSPost2010PropOp28
 70
     1
102
RTVSPost2010Prop29
280
     1
102
RTVSPost2010PropOp29
 70
     1
102
RTVSPost2010Prop30
280
     1
102
RTVSPost2010PropOp30
 70
     1
102
RTVSPost2010Prop31
280
     0
102
RTVSPost2010PropOp31
 70
     1
102
RTVSPost2010Prop32
280
     0
102
RTVSPost2010PropOp32
 70
     1
102
RTVSPost2010Prop33
280
     0
102
RTVSPost2010PropOp33
 70
     1
102
RTVSPost2010Prop34
280
     0
102
RTVSPost2010PropOp34
 70
     1
102
RTVSPost2010Prop35
280
     0
102
RTVSPost2010PropOp35
 70
     1
102
RTVSPost2010Prop36
280
     0
102
RTVSPost2010PropOp36
 70
     1
102
RTVSPost2010Prop37
 90
       50
102
RTVSPost2010PropOp37
 70
     1
102
RTVSPost2010Prop38
140
0.0
102
RTVSPost2010PropOp38
 70
     1
102
RTVSPost2010Prop39
140
1.0
102
RTVSPost2010PropOp39
 70
     1
102
RTVSPost2010Prop40
 90
        0
102
RTVSPost2010PropOp40
 70
     1
102
RTVSPost2010Prop41ColorIndex
 90
       18
102
RTVSPost2010Prop41ColorRGB
 90
        0
102
RTVSPost2010PropOp41
 70
     1
102
RTVSPost2010Prop42
 90
       50
102
RTVSPost2010PropOp42
 70
     1
102
RTVSPost2010Prop43
 90
        3
102
RTVSPost2010PropOp43
 70
     1
102
RTVSPost2010Prop44ColorIndex
 90
        5
102
RTVSPost2010Prop44ColorRGB
 90
      255
102
RTVSPost2010PropOp44
 70
     1
102
RTVSPost2010Prop45
280
     0
102
RTVSPost2010PropOp45
 70
     1
102
RTVSPost2010Prop46
 90
       50
102
RTVSPost2010PropOp46
 70
     1
102
RTVSPost2010Prop47
 90
       50
102
RTVSPost2010PropOp47
 70
     1
102
RTVSPost2010Prop48
 90
       50
102
RTVSPost2010PropOp48
 70
     1
102
RTVSPost2010Prop49
280
     0
102
RTVSPost2010PropOp49
 70
     1
102
RTVSPost2010Prop50
 90
       50
102
RTVSPost2010PropOp50
 70
     1
102
RTVSPost2010Prop51ColorIndex
 90
      256
102
RTVSPost2010Prop51ColorRGB
 90
-16777216
102
RTVSPost2010PropOp51
 70
     0
102
RTVSPost2010Prop52
140
1.0
102
RTVSPost2010PropOp52
 70
     0
102
RTVSPost2010Prop53
 90
        2
102
RTVSPost2010PropOp53
 70
     1
102
RTVSPost2010Prop54
  1
strokes_ogs.tif
102
RTVSPost2010PropOp54
 70
     1
102
RTVSPost2010Prop55
280
     0
102
RTVSPost2010PropOp55
 70
     1
102
RTVSPost2010Prop56
140
1.0
102
RTVSPost2010PropOp56
 70
     1
102
RTVSPost2010Prop57
140
1.0
102
RTVSPost2010PropOp57
 70
     1
102
RTVSPropertyOp0
 70
     1
102
RTVSPropertyOp1
 70
     1
102
RTVSPropertyOp2
 70
     1
102
RTVSPropertyOp3
 70
     1
102
RTVSPropertyOp4
 70
     1
102
RTVSPropertyOp5
 70
     1
102
RTVSPropertyOp6
 70
     1
102
RTVSPropertyOp7
 70
     1
102
RTVSPropertyOp8
 70
     1
102
RTVSPropertyOp9
 70
     1
102
RTVSPropertyOp10
 70
     1
102
RTVSPropertyOp11
 70
     1
102
RTVSPropertyOp12
 70
     1
102
RTVSPropertyOp13
 70
     1
102
RTVSPropertyOp14
 70
     1
102
RTVSPropertyOp15
 70
     1
102
RTVSPropertyOp16
 70
     1
102
RTVSPropertyOp17
 70
     1
102
RTVSPropertyOp18
 70
     1
102
RTVSPropertyOp19
 70
     1
102
RTVSPropertyOp20
 70
     1
102
RTVSPropertyOp21
 70
     1
102
RTVSPropertyOp22
 70
     1
102
RTVSPropertyOp23
 70
     1
102
RTVSPropertyOp24
 70
     1
102
RTVSPropertyOp25
 70
     1
102
RTVSPropertyOp26
 70
     1
102
RTVSPropertyOp27
 70
     1
102
RTVSPropertyOp28
 70
     1
102
RTVSPropertyOp29
 70
     1
102
RTVSPropertyOp30
 70
     1
102
RTVSPropertyOp31
 70
     1
102
RTVSPropertyOp32
 70
     1
102
RTVSPropertyOp33
 70
     1
102
RTVSPropertyOp34
 70
     1
102
RTVSPropertyOp35
 70
     1
102
RTVSPropertyOp36
 70
     1
102
RTVSPropertyOp37
 70
     1
102
RTVSPropertyOp38
 70
     1
102
RTVSPropertyOp39
 70
     1
102
RTVSPropertyOp40
 70
     1
102
RTVSPropertyOp41
 70
     1
102
RTVSPropertyOp42
 70
     1
102
RTVSPropertyOp43
 70
     1
102
RTVSPropertyOp44
 70
     1
102
RTVSPropertyOp45
 70
     1
102
RTVSPropertyOp46
 70
     1
102
RTVSPropertyOp47
 70
     1
102
RTVSPropertyOp48
 70
     1
102
RTVSPropertyOp49
 70
     1
102
RTVSPropertyOp50
 70
     1
102
RTVSPropertyOp51
 70
     0
102
RTVSPropertyOp52
 70
     0
102
RTVSPropertyOp53
 70
     1
102
RTVSPropertyOp54
 70
     1
102
RTVSPropertyOp55
 70
     1
102
RTVSPropertyOp56
 70
     1
102
RTVSPropertyOp57
 70
     1
102
RTVSPropertyOp58
 70
     1
102
RTVSPropertyOp59
 70
     1
102
RTVSPropertyOp60
 70
     1
102
RTVSPropertyOp61
 70
     1
102
RTVSPropertyOp62
 70
     1
  0
XRECORD
  5
1673
102
{ACAD_REACTORS
330
1672
102
}
330
1672
100
AcDbXrecord
280
     1
102
RTVSPost2010Prop28
280
     0
102
RTVSPost2010PropOp28
 70
     1
102
RTVSPost2010Prop29
280
     1
102
RTVSPost2010PropOp29
 70
     1
102
RTVSPost2010Prop30
280
     1
102
RTVSPost2010PropOp30
 70
     1
102
RTVSPost2010Prop31
280
     0
102
RTVSPost2010PropOp31
 70
     1
102
RTVSPost2010Prop32
280
     0
102
RTVSPost2010PropOp32
 70
     1
102
RTVSPost2010Prop33
280
     0
102
RTVSPost2010PropOp33
 70
     1
102
RTVSPost2010Prop34
280
     0
102
RTVSPost2010PropOp34
 70
     1
102
RTVSPost2010Prop35
280
     0
102
RTVSPost2010PropOp35
 70
     1
102
RTVSPost2010Prop36
280
     0
102
RTVSPost2010PropOp36
 70
     1
102
RTVSPost2010Prop37
 90
       50
102
RTVSPost2010PropOp37
 70
     1
102
RTVSPost2010Prop38
140
0.0
102
RTVSPost2010PropOp38
 70
     1
102
RTVSPost2010Prop39
140
1.0
102
RTVSPost2010PropOp39
 70
     1
102
RTVSPost2010Prop40
 90
        0
102
RTVSPost2010PropOp40
 70
     1
102
RTVSPost2010Prop41ColorIndex
 90
       18
102
RTVSPost2010Prop41ColorRGB
 90
        0
102
RTVSPost2010PropOp41
 70
     1
102
RTVSPost2010Prop42
 90
       50
102
RTVSPost2010PropOp42
 70
     1
102
RTVSPost2010Prop43
 90
        3
102
RTVSPost2010PropOp43
 70
     1
102
RTVSPost2010Prop44ColorIndex
 90
        5
102
RTVSPost2010Prop44ColorRGB
 90
      255
102
RTVSPost2010PropOp44
 70
     1
102
RTVSPost2010Prop45
280
     0
102
RTVSPost2010PropOp45
 70
     1
102
RTVSPost2010Prop46
 90
       50
102
RTVSPost2010PropOp46
 70
     1
102
RTVSPost2010Prop47
 90
       50
102
RTVSPost2010PropOp47
 70
     1
102
RTVSPost2010Prop48
 90
       50
102
RTVSPost2010PropOp48
 70
     1
102
RTVSPost2010Prop49
280
     0
102
RTVSPost2010PropOp49
 70
     1
102
RTVSPost2010Prop50
 90
       50
102
RTVSPost2010PropOp50
 70
     1
102
RTVSPost2010Prop51ColorIndex
 90
      256
102
RTVSPost2010Prop51ColorRGB
 90
-16777216
102
RTVSPost2010PropOp51
 70
     0
102
RTVSPost2010Prop52
140
1.0
102
RTVSPost2010PropOp52
 70
     0
102
RTVSPost2010Prop53
 90
        2
102
RTVSPost2010PropOp53
 70
     1
102
RTVSPost2010Prop54
  1
strokes_ogs.tif
102
RTVSPost2010PropOp54
 70
     1
102
RTVSPost2010Prop55
280
     0
102
RTVSPost2010PropOp55
 70
     1
102
RTVSPost2010Prop56
140
1.0
102
RTVSPost2010PropOp56
 70
     1
102
RTVSPost2010Prop57
140
1.0
102
RTVSPost2010PropOp57
 70
     1
102
RTVSPropertyOp0
 70
     1
102
RTVSPropertyOp1
 70
     1
102
RTVSPropertyOp2
 70
     1
102
RTVSPropertyOp3
 70
     1
102
RTVSPropertyOp4
 70
     1
102
RTVSPropertyOp5
 70
     1
102
RTVSPropertyOp6
 70
     1
102
RTVSPropertyOp7
 70
     1
102
RTVSPropertyOp8
 70
     1
102
RTVSPropertyOp9
 70
     1
102
RTVSPropertyOp10
 70
     1
102
RTVSPropertyOp11
 70
     1
102
RTVSPropertyOp12
 70
     1
102
RTVSPropertyOp13
 70
     1
102
RTVSPropertyOp14
 70
     1
102
RTVSPropertyOp15
 70
     1
102
RTVSPropertyOp16
 70
     1
102
RTVSPropertyOp17
 70
     1
102
RTVSPropertyOp18
 70
     1
102
RTVSPropertyOp19
 70
     1
102
RTVSPropertyOp20
 70
     1
102
RTVSPropertyOp21
 70
     1
102
RTVSPropertyOp22
 70
     1
102
RTVSPropertyOp23
 70
     1
102
RTVSPropertyOp24
 70
     1
102
RTVSPropertyOp25
 70
     1
102
RTVSPropertyOp26
 70
     1
102
RTVSPropertyOp27
 70
     1
102
RTVSPropertyOp28
 70
     1
102
RTVSPropertyOp29
 70
     1
102
RTVSPropertyOp30
 70
     1
102
RTVSPropertyOp31
 70
     1
102
RTVSPropertyOp32
 70
     1
102
RTVSPropertyOp33
 70
     1
102
RTVSPropertyOp34
 70
     1
102
RTVSPropertyOp35
 70
     1
102
RTVSPropertyOp36
 70
     1
102
RTVSPropertyOp37
 70
     1
102
RTVSPropertyOp38
 70
     1
102
RTVSPropertyOp39
 70
     1
102
RTVSPropertyOp40
 70
     1
102
RTVSPropertyOp41
 70
     1
102
RTVSPropertyOp42
 70
     1
102
RTVSPropertyOp43
 70
     1
102
RTVSPropertyOp44
 70
     1
102
RTVSPropertyOp45
 70
     1
102
RTVSPropertyOp46
 70
     1
102
RTVSPropertyOp47
 70
     1
102
RTVSPropertyOp48
 70
     1
102
RTVSPropertyOp49
 70
     1
102
RTVSPropertyOp50
 70
     1
102
RTVSPropertyOp51
 70
     0
102
RTVSPropertyOp52
 70
     0
102
RTVSPropertyOp53
 70
     1
102
RTVSPropertyOp54
 70
     1
102
RTVSPropertyOp55
 70
     1
102
RTVSPropertyOp56
 70
     1
102
RTVSPropertyOp57
 70
     1
102
RTVSPropertyOp58
 70
     1
102
RTVSPropertyOp59
 70
     1
102
RTVSPropertyOp60
 70
     1
102
RTVSPropertyOp61
 70
     1
102
RTVSPropertyOp62
 70
     1
  0
XRECORD
  5
167B
102
{ACAD_REACTORS
330
167A
102
}
330
167A
100
AcDbXrecord
280
     1
102
RTVSPost2010Prop28
280
     0
102
RTVSPost2010PropOp28
 70
     1
102
RTVSPost2010Prop29
280
     1
102
RTVSPost2010PropOp29
 70
     1
102
RTVSPost2010Prop30
280
     1
102
RTVSPost2010PropOp30
 70
     1
102
RTVSPost2010Prop31
280
     0
102
RTVSPost2010PropOp31
 70
     1
102
RTVSPost2010Prop32
280
     0
102
RTVSPost2010PropOp32
 70
     1
102
RTVSPost2010Prop33
280
     0
102
RTVSPost2010PropOp33
 70
     1
102
RTVSPost2010Prop34
280
     0
102
RTVSPost2010PropOp34
 70
     1
102
RTVSPost2010Prop35
280
     0
102
RTVSPost2010PropOp35
 70
     1
102
RTVSPost2010Prop36
280
     0
102
RTVSPost2010PropOp36
 70
     1
102
RTVSPost2010Prop37
 90
       50
102
RTVSPost2010PropOp37
 70
     1
102
RTVSPost2010Prop38
140
0.0
102
RTVSPost2010PropOp38
 70
     1
102
RTVSPost2010Prop39
140
1.0
102
RTVSPost2010PropOp39
 70
     1
102
RTVSPost2010Prop40
 90
        0
102
RTVSPost2010PropOp40
 70
     1
102
RTVSPost2010Prop41ColorIndex
 90
       18
102
RTVSPost2010Prop41ColorRGB
 90
        0
102
RTVSPost2010PropOp41
 70
     1
102
RTVSPost2010Prop42
 90
       50
102
RTVSPost2010PropOp42
 70
     1
102
RTVSPost2010Prop43
 90
        3
102
RTVSPost2010PropOp43
 70
     1
102
RTVSPost2010Prop44ColorIndex
 90
        5
102
RTVSPost2010Prop44ColorRGB
 90
      255
102
RTVSPost2010PropOp44
 70
     1
102
RTVSPost2010Prop45
280
     0
102
RTVSPost2010PropOp45
 70
     1
102
RTVSPost2010Prop46
 90
       50
102
RTVSPost2010PropOp46
 70
     1
102
RTVSPost2010Prop47
 90
       50
102
RTVSPost2010PropOp47
 70
     1
102
RTVSPost2010Prop48
 90
       50
102
RTVSPost2010PropOp48
 70
     1
102
RTVSPost2010Prop49
280
     0
102
RTVSPost2010PropOp49
 70
     1
102
RTVSPost2010Prop50
 90
       50
102
RTVSPost2010PropOp50
 70
     1
102
RTVSPost2010Prop51ColorIndex
 90
      256
102
RTVSPost2010Prop51ColorRGB
 90
-16777216
102
RTVSPost2010PropOp51
 70
     0
102
RTVSPost2010Prop52
140
1.0
102
RTVSPost2010PropOp52
 70
     0
102
RTVSPost2010Prop53
 90
        2
102
RTVSPost2010PropOp53
 70
     1
102
RTVSPost2010Prop54
  1
strokes_ogs.tif
102
RTVSPost2010PropOp54
 70
     1
102
RTVSPost2010Prop55
280
     0
102
RTVSPost2010PropOp55
 70
     1
102
RTVSPost2010Prop56
140
1.0
102
RTVSPost2010PropOp56
 70
     1
102
RTVSPost2010Prop57
140
1.0
102
RTVSPost2010PropOp57
 70
     1
102
RTVSPropertyOp0
 70
     1
102
RTVSPropertyOp1
 70
     1
102
RTVSPropertyOp2
 70
     1
102
RTVSPropertyOp3
 70
     1
102
RTVSPropertyOp4
 70
     1
102
RTVSPropertyOp5
 70
     1
102
RTVSPropertyOp6
 70
     1
102
RTVSPropertyOp7
 70
     1
102
RTVSPropertyOp8
 70
     1
102
RTVSPropertyOp9
 70
     1
102
RTVSPropertyOp10
 70
     1
102
RTVSPropertyOp11
 70
     1
102
RTVSPropertyOp12
 70
     1
102
RTVSPropertyOp13
 70
     1
102
RTVSPropertyOp14
 70
     1
102
RTVSPropertyOp15
 70
     1
102
RTVSPropertyOp16
 70
     1
102
RTVSPropertyOp17
 70
     1
102
RTVSPropertyOp18
 70
     1
102
RTVSPropertyOp19
 70
     1
102
RTVSPropertyOp20
 70
     1
102
RTVSPropertyOp21
 70
     1
102
RTVSPropertyOp22
 70
     1
102
RTVSPropertyOp23
 70
     1
102
RTVSPropertyOp24
 70
     1
102
RTVSPropertyOp25
 70
     1
102
RTVSPropertyOp26
 70
     1
102
RTVSPropertyOp27
 70
     1
102
RTVSPropertyOp28
 70
     1
102
RTVSPropertyOp29
 70
     1
102
RTVSPropertyOp30
 70
     1
102
RTVSPropertyOp31
 70
     1
102
RTVSPropertyOp32
 70
     1
102
RTVSPropertyOp33
 70
     1
102
RTVSPropertyOp34
 70
     1
102
RTVSPropertyOp35
 70
     1
102
RTVSPropertyOp36
 70
     1
102
RTVSPropertyOp37
 70
     1
102
RTVSPropertyOp38
 70
     1
102
RTVSPropertyOp39
 70
     1
102
RTVSPropertyOp40
 70
     1
102
RTVSPropertyOp41
 70
     1
102
RTVSPropertyOp42
 70
     1
102
RTVSPropertyOp43
 70
     1
102
RTVSPropertyOp44
 70
     1
102
RTVSPropertyOp45
 70
     1
102
RTVSPropertyOp46
 70
     1
102
RTVSPropertyOp47
 70
     1
102
RTVSPropertyOp48
 70
     1
102
RTVSPropertyOp49
 70
     1
102
RTVSPropertyOp50
 70
     1
102
RTVSPropertyOp51
 70
     0
102
RTVSPropertyOp52
 70
     0
102
RTVSPropertyOp53
 70
     1
102
RTVSPropertyOp54
 70
     1
102
RTVSPropertyOp55
 70
     1
102
RTVSPropertyOp56
 70
     1
102
RTVSPropertyOp57
 70
     1
102
RTVSPropertyOp58
 70
     1
102
RTVSPropertyOp59
 70
     1
102
RTVSPropertyOp60
 70
     1
102
RTVSPropertyOp61
 70
     1
102
RTVSPropertyOp62
 70
     1
  0
XRECORD
  5
1683
102
{ACAD_REACTORS
330
1682
102
}
330
1682
100
AcDbXrecord
280
     1
102
RTVSPost2010Prop28
280
     0
102
RTVSPost2010PropOp28
 70
     1
102
RTVSPost2010Prop29
280
     1
102
RTVSPost2010PropOp29
 70
     1
102
RTVSPost2010Prop30
280
     1
102
RTVSPost2010PropOp30
 70
     1
102
RTVSPost2010Prop31
280
     0
102
RTVSPost2010PropOp31
 70
     1
102
RTVSPost2010Prop32
280
     0
102
RTVSPost2010PropOp32
 70
     1
102
RTVSPost2010Prop33
280
     0
102
RTVSPost2010PropOp33
 70
     1
102
RTVSPost2010Prop34
280
     0
102
RTVSPost2010PropOp34
 70
     1
102
RTVSPost2010Prop35
280
     0
102
RTVSPost2010PropOp35
 70
     1
102
RTVSPost2010Prop36
280
     0
102
RTVSPost2010PropOp36
 70
     1
102
RTVSPost2010Prop37
 90
       50
102
RTVSPost2010PropOp37
 70
     1
102
RTVSPost2010Prop38
140
0.0
102
RTVSPost2010PropOp38
 70
     1
102
RTVSPost2010Prop39
140
1.0
102
RTVSPost2010PropOp39
 70
     1
102
RTVSPost2010Prop40
 90
        0
102
RTVSPost2010PropOp40
 70
     1
102
RTVSPost2010Prop41ColorIndex
 90
       18
102
RTVSPost2010Prop41ColorRGB
 90
        0
102
RTVSPost2010PropOp41
 70
     1
102
RTVSPost2010Prop42
 90
       50
102
RTVSPost2010PropOp42
 70
     1
102
RTVSPost2010Prop43
 90
        3
102
RTVSPost2010PropOp43
 70
     1
102
RTVSPost2010Prop44ColorIndex
 90
        5
102
RTVSPost2010Prop44ColorRGB
 90
      255
102
RTVSPost2010PropOp44
 70
     1
102
RTVSPost2010Prop45
280
     0
102
RTVSPost2010PropOp45
 70
     1
102
RTVSPost2010Prop46
 90
       50
102
RTVSPost2010PropOp46
 70
     1
102
RTVSPost2010Prop47
 90
       50
102
RTVSPost2010PropOp47
 70
     1
102
RTVSPost2010Prop48
 90
       50
102
RTVSPost2010PropOp48
 70
     1
102
RTVSPost2010Prop49
280
     0
102
RTVSPost2010PropOp49
 70
     1
102
RTVSPost2010Prop50
 90
       50
102
RTVSPost2010PropOp50
 70
     1
102
RTVSPost2010Prop51ColorIndex
 90
      256
102
RTVSPost2010Prop51ColorRGB
 90
-16777216
102
RTVSPost2010PropOp51
 70
     0
102
RTVSPost2010Prop52
140
1.0
102
RTVSPost2010PropOp52
 70
     0
102
RTVSPost2010Prop53
 90
        2
102
RTVSPost2010PropOp53
 70
     1
102
RTVSPost2010Prop54
  1
strokes_ogs.tif
102
RTVSPost2010PropOp54
 70
     1
102
RTVSPost2010Prop55
280
     0
102
RTVSPost2010PropOp55
 70
     1
102
RTVSPost2010Prop56
140
1.0
102
RTVSPost2010PropOp56
 70
     1
102
RTVSPost2010Prop57
140
1.0
102
RTVSPost2010PropOp57
 70
     1
102
RTVSPropertyOp0
 70
     1
102
RTVSPropertyOp1
 70
     1
102
RTVSPropertyOp2
 70
     1
102
RTVSPropertyOp3
 70
     1
102
RTVSPropertyOp4
 70
     1
102
RTVSPropertyOp5
 70
     1
102
RTVSPropertyOp6
 70
     1
102
RTVSPropertyOp7
 70
     1
102
RTVSPropertyOp8
 70
     1
102
RTVSPropertyOp9
 70
     1
102
RTVSPropertyOp10
 70
     1
102
RTVSPropertyOp11
 70
     1
102
RTVSPropertyOp12
 70
     1
102
RTVSPropertyOp13
 70
     1
102
RTVSPropertyOp14
 70
     1
102
RTVSPropertyOp15
 70
     1
102
RTVSPropertyOp16
 70
     1
102
RTVSPropertyOp17
 70
     1
102
RTVSPropertyOp18
 70
     1
102
RTVSPropertyOp19
 70
     1
102
RTVSPropertyOp20
 70
     1
102
RTVSPropertyOp21
 70
     1
102
RTVSPropertyOp22
 70
     1
102
RTVSPropertyOp23
 70
     1
102
RTVSPropertyOp24
 70
     1
102
RTVSPropertyOp25
 70
     1
102
RTVSPropertyOp26
 70
     1
102
RTVSPropertyOp27
 70
     1
102
RTVSPropertyOp28
 70
     1
102
RTVSPropertyOp29
 70
     1
102
RTVSPropertyOp30
 70
     1
102
RTVSPropertyOp31
 70
     1
102
RTVSPropertyOp32
 70
     1
102
RTVSPropertyOp33
 70
     1
102
RTVSPropertyOp34
 70
     1
102
RTVSPropertyOp35
 70
     1
102
RTVSPropertyOp36
 70
     1
102
RTVSPropertyOp37
 70
     1
102
RTVSPropertyOp38
 70
     1
102
RTVSPropertyOp39
 70
     1
102
RTVSPropertyOp40
 70
     1
102
RTVSPropertyOp41
 70
     1
102
RTVSPropertyOp42
 70
     1
102
RTVSPropertyOp43
 70
     1
102
RTVSPropertyOp44
 70
     1
102
RTVSPropertyOp45
 70
     1
102
RTVSPropertyOp46
 70
     1
102
RTVSPropertyOp47
 70
     1
102
RTVSPropertyOp48
 70
     1
102
RTVSPropertyOp49
 70
     1
102
RTVSPropertyOp50
 70
     1
102
RTVSPropertyOp51
 70
     0
102
RTVSPropertyOp52
 70
     0
102
RTVSPropertyOp53
 70
     1
102
RTVSPropertyOp54
 70
     1
102
RTVSPropertyOp55
 70
     1
102
RTVSPropertyOp56
 70
     1
102
RTVSPropertyOp57
 70
     1
102
RTVSPropertyOp58
 70
     1
102
RTVSPropertyOp59
 70
     1
102
RTVSPropertyOp60
 70
     1
102
RTVSPropertyOp61
 70
     1
102
RTVSPropertyOp62
 70
     1
  0
ENDSEC
  0
EOF
