  0
SECTION
  2
HEADER
  9
$ACADVER
  1
AC1015
  9
$ACADMAINTVER
 70
    20
  9
$DWGCODEPAGE
  3
ANSI_1252
  9
$INSBASE
 10
0.0
 20
0.0
 30
0.0
  9
$EXTMIN
 10
-6.655143123429926
 20
-6.700787825784828
 30
0.0
  9
$EXTMAX
 10
163.7932472247612
 20
109.1431255363833
 30
0.0
  9
$LIMMIN
 10
0.0
 20
0.0
  9
$LIMMAX
 10
12.0
 20
9.0
  9
$ORTHOMODE
 70
     0
  9
$REGENMODE
 70
     1
  9
$FILLMODE
 70
     1
  9
$QTEXTMODE
 70
     0
  9
$MIRRTEXT
 70
     0
  9
$LTSCALE
 40
1.0
  9
$ATTMODE
 70
     1
  9
$TEXTSIZE
 40
0.2
  9
$TRACEWID
 40
0.05
  9
$TEXTSTYLE
  7
Standard
  9
$CLAYER
  8
0
  9
$CELTYPE
  6
ByLayer
  9
$CECOLOR
 62
   256
  9
$CELTSCALE
 40
1.0
  9
$DISPSILH
 70
     0
  9
$DIMSCALE
 40
1.0
  9
$DIMASZ
 40
0.18
  9
$DIMEXO
 40
0.0625
  9
$DIMDLI
 40
0.38
  9
$DIMRND
 40
0.0
  9
$DIMDLE
 40
0.0
  9
$DIMEXE
 40
0.18
  9
$DIMTP
 40
0.0
  9
$DIMTM
 40
0.0
  9
$DIMTXT
 40
0.18
  9
$DIMCEN
 40
0.09
  9
$DIMTSZ
 40
0.0
  9
$DIMTOL
 70
     0
  9
$DIMLIM
 70
     0
  9
$DIMTIH
 70
     1
  9
$DIMTOH
 70
     1
  9
$DIMSE1
 70
     0
  9
$DIMSE2
 70
     0
  9
$DIMTAD
 70
     0
  9
$DIMZIN
 70
     0
  9
$DIMBLK
  1

  9
$DIMASO
 70
     1
  9
$DIMSHO
 70
     1
  9
$DIMPOST
  1

  9
$DIMAPOST
  1

  9
$DIMALT
 70
     0
  9
$DIMALTD
 70
     2
  9
$DIMALTF
 40
25.4
  9
$DIMLFAC
 40
1.0
  9
$DIMTOFL
 70
     0
  9
$DIMTVP
 40
0.0
  9
$DIMTIX
 70
     0
  9
$DIMSOXD
 70
     0
  9
$DIMSAH
 70
     0
  9
$DIMBLK1
  1

  9
$DIMBLK2
  1

  9
$DIMSTYLE
  2
Standard
  9
$DIMCLRD
 70
     0
  9
$DIMCLRE
 70
     0
  9
$DIMCLRT
 70
     0
  9
$DIMTFAC
 40
1.0
  9
$DIMGAP
 40
0.09
  9
$DIMJUST
 70
     0
  9
$DIMSD1
 70
     0
  9
$DIMSD2
 70
     0
  9
$DIMTOLJ
 70
     1
  9
$DIMTZIN
 70
     0
  9
$DIMALTZ
 70
     0
  9
$DIMALTTZ
 70
     0
  9
$DIMUPT
 70
     0
  9
$DIMDEC
 70
     4
  9
$DIMTDEC
 70
     4
  9
$DIMALTU
 70
     2
  9
$DIMALTTD
 70
     2
  9
$DIMTXSTY
  7
Standard
  9
$DIMAUNIT
 70
     0
  9
$DIMADEC
 70
     0
  9
$DIMALTRND
 40
0.0
  9
$DIMAZIN
 70
     0
  9
$DIMDSEP
 70
    46
  9
$DIMATFIT
 70
     3
  9
$DIMFRAC
 70
     0
  9
$DIMLDRBLK
  1

  9
$DIMLUNIT
 70
     2
  9
$DIMLWD
 70
    -2
  9
$DIMLWE
 70
    -2
  9
$DIMTMOVE
 70
     0
  9
$LUNITS
 70
     2
  9
$LUPREC
 70
     4
  9
$SKETCHINC
 40
0.1
  9
$FILLETRAD
 40
0.0
  9
$AUNITS
 70
     0
  9
$AUPREC
 70
     0
  9
$MENU
  1
.
  9
$ELEVATION
 40
0.0
  9
$PELEVATION
 40
0.0
  9
$THICKNESS
 40
0.0
  9
$LIMCHECK
 70
     0
  9
$CHAMFERA
 40
0.0
  9
$CHAMFERB
 40
0.0
  9
$CHAMFERC
 40
0.0
  9
$CHAMFERD
 40
0.0
  9
$SKPOLY
 70
     0
  9
$TDCREATE
 40
2456457.613044271
  9
$TDUCREATE
 40
2456457.529710938
  9
$TDUPDATE
 40
2456457.613486644
  9
$TDUUPDATE
 40
2456457.530153310
  9
$TDINDWG
 40
0.0004425579
  9
$TDUSRTIMER
 40
0.0004425579
  9
$USRTIMER
 70
     1
  9
$ANGBASE
 50
0.0
  9
$ANGDIR
 70
     0
  9
$PDMODE
 70
     0
  9
$PDSIZE
 40
0.0
  9
$PLINEWID
 40
0.0
  9
$SPLFRAME
 70
     0
  9
$SPLINETYPE
 70
     6
  9
$SPLINESEGS
 70
     8
  9
$HANDSEED
  5
54E
  9
$SURFTAB1
 70
     6
  9
$SURFTAB2
 70
     6
  9
$SURFTYPE
 70
     6
  9
$SURFU
 70
     6
  9
$SURFV
 70
     6
  9
$UCSBASE
  2

  9
$UCSNAME
  2

  9
$UCSORG
 10
0.0
 20
0.0
 30
0.0
  9
$UCSXDIR
 10
1.0
 20
0.0
 30
0.0
  9
$UCSYDIR
 10
0.0
 20
1.0
 30
0.0
  9
$UCSORTHOREF
  2

  9
$UCSORTHOVIEW
 70
     0
  9
$UCSORGTOP
 10
0.0
 20
0.0
 30
0.0
  9
$UCSORGBOTTOM
 10
0.0
 20
0.0
 30
0.0
  9
$UCSORGLEFT
 10
0.0
 20
0.0
 30
0.0
  9
$UCSORGRIGHT
 10
0.0
 20
0.0
 30
0.0
  9
$UCSORGFRONT
 10
0.0
 20
0.0
 30
0.0
  9
$UCSORGBACK
 10
0.0
 20
0.0
 30
0.0
  9
$PUCSBASE
  2

  9
$PUCSNAME
  2

  9
$PUCSORG
 10
0.0
 20
0.0
 30
0.0
  9
$PUCSXDIR
 10
1.0
 20
0.0
 30
0.0
  9
$PUCSYDIR
 10
0.0
 20
1.0
 30
0.0
  9
$PUCSORTHOREF
  2

  9
$PUCSORTHOVIEW
 70
     0
  9
$PUCSORGTOP
 10
0.0
 20
0.0
 30
0.0
  9
$PUCSORGBOTTOM
 10
0.0
 20
0.0
 30
0.0
  9
$PUCSORGLEFT
 10
0.0
 20
0.0
 30
0.0
  9
$PUCSORGRIGHT
 10
0.0
 20
0.0
 30
0.0
  9
$PUCSORGFRONT
 10
0.0
 20
0.0
 30
0.0
  9
$PUCSORGBACK
 10
0.0
 20
0.0
 30
0.0
  9
$USERI1
 70
     0
  9
$USERI2
 70
     0
  9
$USERI3
 70
     0
  9
$USERI4
 70
     0
  9
$USERI5
 70
     0
  9
$USERR1
 40
0.0
  9
$USERR2
 40
0.0
  9
$USERR3
 40
0.0
  9
$USERR4
 40
0.0
  9
$USERR5
 40
0.0
  9
$WORLDVIEW
 70
     1
  9
$SHADEDGE
 70
     3
  9
$SHADEDIF
 70
    70
  9
$TILEMODE
 70
     1
  9
$MAXACTVP
 70
    64
  9
$PINSBASE
 10
0.0
 20
0.0
 30
0.0
  9
$PLIMCHECK
 70
     0
  9
$PEXTMIN
 10
0.0
 20
0.0
 30
0.0
  9
$PEXTMAX
 10
0.0
 20
0.0
 30
0.0
  9
$PLIMMIN
 10
0.0
 20
0.0
  9
$PLIMMAX
 10
12.0
 20
9.0
  9
$UNITMODE
 70
     0
  9
$VISRETAIN
 70
     1
  9
$PLINEGEN
 70
     0
  9
$PSLTSCALE
 70
     1
  9
$TREEDEPTH
 70
  3020
  9
$CMLSTYLE
  2
Standard
  9
$CMLJUST
 70
     0
  9
$CMLSCALE
 40
1.0
  9
$PROXYGRAPHICS
 70
     1
  9
$MEASUREMENT
 70
     0
  9
$CELWEIGHT
370
    -1
  9
$ENDCAPS
280
     0
  9
$JOINSTYLE
280
     0
  9
$LWDISPLAY
290
     0
  9
$INSUNITS
 70
     1
  9
$HYPERLINKBASE
  1

  9
$STYLESHEET
  1

  9
$XEDIT
290
     1
  9
$CEPSNTYPE
380
     0
  9
$PSTYLEMODE
290
     1
  9
$FINGERPRINTGUID
  2
{0E504D39-0C8D-4A00-AD54-A69C4AD223C5}
  9
$VERSIONGUID
  2
{EED3B261-9FDD-4A64-B79E-E00C011E21AB}
  9
$EXTNAMES
290
     1
  9
$PSVPSCALE
 40
0.0
  9
$OLESTARTUP
290
     0
  0
ENDSEC
  0
SECTION
  2
CLASSES
  0
CLASS
  1
ACDBDICTIONARYWDFLT
  2
AcDbDictionaryWithDefault
  3
ObjectDBX Classes
 90
        0
280
     0
281
     0
  0
CLASS
  1
ACDBPLACEHOLDER
  2
AcDbPlaceHolder
  3
ObjectDBX Classes
 90
        0
280
     0
281
     0
  0
CLASS
  1
LAYOUT
  2
AcDbLayout
  3
ObjectDBX Classes
 90
        0
280
     0
281
     0
  0
CLASS
  1
DICTIONARYVAR
  2
AcDbDictionaryVar
  3
ObjectDBX Classes
 90
        0
280
     0
281
     0
  0
CLASS
  1
TABLESTYLE
  2
AcDbTableStyle
  3
ObjectDBX Classes
 90
     4095
280
     0
281
     0
  0
CLASS
  1
MATERIAL
  2
AcDbMaterial
  3
ObjectDBX Classes
 90
     1153
280
     0
281
     0
  0
CLASS
  1
VISUALSTYLE
  2
AcDbVisualStyle
  3
ObjectDBX Classes
 90
     4095
280
     0
281
     0
  0
CLASS
  1
SCALE
  2
AcDbScale
  3
ObjectDBX Classes
 90
     1153
280
     0
281
     0
  0
CLASS
  1
MLEADERSTYLE
  2
AcDbMLeaderStyle
  3
ACDB_MLEADERSTYLE_CLASS
 90
     4095
280
     0
281
     0
  0
CLASS
  1
CELLSTYLEMAP
  2
AcDbCellStyleMap
  3
ObjectDBX Classes
 90
     1152
280
     0
281
     0
  0
CLASS
  1
SORTENTSTABLE
  2
AcDbSortentsTable
  3
ObjectDBX Classes
 90
        0
280
     0
281
     0
  0
ENDSEC
  0
SECTION
  2
TABLES
  0
TABLE
  2
VPORT
  5
8
330
0
100
AcDbSymbolTable
 70
     1
  0
VPORT
  5
94
330
8
100
AcDbSymbolTableRecord
100
AcDbViewportTableRecord
  2
*Active
 70
     0
 10
0.0
 20
0.0
 11
1.0
 21
1.0
 12
68.77154175020099
 22
57.09939899057554
 13
0.0
 23
0.0
 14
0.5
 24
0.5
 15
0.5
 25
0.5
 16
0.0
 26
0.0
 36
1.0
 17
0.0
 27
0.0
 37
0.0
 40
179.8835541939813
 41
1.207207207207207
 42
50.0
 43
0.0
 44
0.0
 50
0.0
 51
0.0
 71
     0
 72
  1000
 73
     1
 74
     3
 75
     0
 76
     0
 77
     0
 78
     0
281
     0
 65
     1
110
0.0
120
0.0
130
0.0
111
1.0
121
0.0
131
0.0
112
0.0
122
1.0
132
0.0
 79
     0
146
0.0
  0
ENDTAB
  0
TABLE
  2
LTYPE
  5
5
330
0
100
AcDbSymbolTable
 70
     1
  0
LTYPE
  5
14
330
5
100
AcDbSymbolTableRecord
100
AcDbLinetypeTableRecord
  2
ByBlock
 70
     0
  3

 72
    65
 73
     0
 40
0.0
  0
LTYPE
  5
15
330
5
100
AcDbSymbolTableRecord
100
AcDbLinetypeTableRecord
  2
ByLayer
 70
     0
  3

 72
    65
 73
     0
 40
0.0
  0
LTYPE
  5
16
330
5
100
AcDbSymbolTableRecord
100
AcDbLinetypeTableRecord
  2
Continuous
 70
     0
  3
Solid line
 72
    65
 73
     0
 40
0.0
  0
ENDTAB
  0
TABLE
  2
LAYER
  5
2
330
0
100
AcDbSymbolTable
 70
     3
  0
LAYER
  5
10
102
{ACAD_XDICTIONARY
360
E6
102
}
330
2
100
AcDbSymbolTableRecord
100
AcDbLayerTableRecord
  2
0
 70
     0
 62
     7
  6
Continuous
370
    -3
390
F
  0
LAYER
  5
189
330
2
100
AcDbSymbolTableRecord
100
AcDbLayerTableRecord
  2
Defpoints
 70
     0
 62
     7
  6
Continuous
290
     0
370
    -3
390
F
  0
LAYER
  5
18A
102
{ACAD_XDICTIONARY
360
53A
102
}
330
2
100
AcDbSymbolTableRecord
100
AcDbLayerTableRecord
  2
QUOTE
 70
     0
 62
     7
  6
Continuous
370
    13
390
F
1001
AcAecLayerStandard
1000

1000

  0
ENDTAB
  0
TABLE
  2
STYLE
  5
3
330
0
100
AcDbSymbolTable
 70
     2
  0
STYLE
  5
11
330
3
100
AcDbSymbolTableRecord
100
AcDbTextStyleTableRecord
  2
Standard
 70
     0
 40
0.0
 41
1.0
 50
0.0
 71
     0
 42
0.2
  3
txt.shx
  4

  0
STYLE
  5
DC
330
3
100
AcDbSymbolTableRecord
100
AcDbTextStyleTableRecord
  2
Annotativa
 70
     0
 40
0.0
 41
1.0
 50
0.0
 71
     0
 42
0.2
  3
txt.shx
  4

1001
AcadAnnotative
1000
AnnotativeData
1002
{
1070
     1
1070
     1
1002
}
  0
ENDTAB
  0
TABLE
  2
VIEW
  5
6
330
0
100
AcDbSymbolTable
 70
     0
  0
ENDTAB
  0
TABLE
  2
UCS
  5
7
330
0
100
AcDbSymbolTable
 70
     0
  0
ENDTAB
  0
TABLE
  2
APPID
  5
9
330
0
100
AcDbSymbolTable
 70
     7
  0
APPID
  5
12
330
9
100
AcDbSymbolTableRecord
100
AcDbRegAppTableRecord
  2
ACAD
 70
     0
  0
APPID
  5
DD
330
9
100
AcDbSymbolTableRecord
100
AcDbRegAppTableRecord
  2
AcadAnnoPO
 70
     0
  0
APPID
  5
DE
330
9
100
AcDbSymbolTableRecord
100
AcDbRegAppTableRecord
  2
AcadAnnotative
 70
     0
  0
APPID
  5
DF
330
9
100
AcDbSymbolTableRecord
100
AcDbRegAppTableRecord
  2
ACAD_DSTYLE_DIMJAG
 70
     0
  0
APPID
  5
E0
330
9
100
AcDbSymbolTableRecord
100
AcDbRegAppTableRecord
  2
ACAD_DSTYLE_DIMTALN
 70
     0
  0
APPID
  5
107
330
9
100
AcDbSymbolTableRecord
100
AcDbRegAppTableRecord
  2
ACAD_MLEADERVER
 70
     0
  0
APPID
  5
18B
330
9
100
AcDbSymbolTableRecord
100
AcDbRegAppTableRecord
  2
AcAecLayerStandard
 70
     0
  0
ENDTAB
  0
TABLE
  2
DIMSTYLE
  5
A
330
0
100
AcDbSymbolTable
 70
     2
100
AcDbDimStyleTable
 71
     2
340
27
340
E1
  0
DIMSTYLE
105
27
102
{ACAD_REACTORS
330
377
330
378
330
3FE
330
3FF
330
400
102
}
330
A
100
AcDbSymbolTableRecord
100
AcDbDimStyleTableRecord
  2
Standard
 70
     0
340
11
  0
DIMSTYLE
105
E1
330
A
100
AcDbSymbolTableRecord
100
AcDbDimStyleTableRecord
  2
Annotativa
 70
     0
 40
0.0
340
11
1001
AcadAnnotative
1000
AnnotativeData
1002
{
1070
     1
1070
     1
1002
}
1001
ACAD_DSTYLE_DIMJAG
1070
   388
1040
1.5
1001
ACAD_DSTYLE_DIMTALN
1070
   392
1070
     0
  0
ENDTAB
  0
TABLE
  2
BLOCK_RECORD
  5
1
330
0
100
AcDbSymbolTable
 70
    12
  0
BLOCK_RECORD
  5
1F
330
1
100
AcDbSymbolTableRecord
100
AcDbBlockTableRecord
  2
*Model_Space
340
22
  0
BLOCK_RECORD
  5
58
330
1
100
AcDbSymbolTableRecord
100
AcDbBlockTableRecord
  2
*Paper_Space
340
59
  0
BLOCK_RECORD
  5
5D
330
1
100
AcDbSymbolTableRecord
100
AcDbBlockTableRecord
  2
*Paper_Space0
340
5E
  0
BLOCK_RECORD
  5
14D
330
1
100
AcDbSymbolTableRecord
100
AcDbBlockTableRecord
  2
*D1
340
0
  0
BLOCK_RECORD
  5
159
330
1
100
AcDbSymbolTableRecord
100
AcDbBlockTableRecord
  2
*D2
340
0
  0
BLOCK_RECORD
  5
165
330
1
100
AcDbSymbolTableRecord
100
AcDbBlockTableRecord
  2
*D3
340
0
  0
BLOCK_RECORD
  5
171
330
1
100
AcDbSymbolTableRecord
100
AcDbBlockTableRecord
  2
*D4
340
0
  0
BLOCK_RECORD
  5
17D
330
1
100
AcDbSymbolTableRecord
100
AcDbBlockTableRecord
  2
*D5
340
0
  0
BLOCK_RECORD
  5
462
330
1
100
AcDbSymbolTableRecord
100
AcDbBlockTableRecord
  2
*D7
340
0
  0
BLOCK_RECORD
  5
46F
330
1
100
AcDbSymbolTableRecord
100
AcDbBlockTableRecord
  2
*D8
340
0
  0
BLOCK_RECORD
  5
47C
330
1
100
AcDbSymbolTableRecord
100
AcDbBlockTableRecord
  2
*D9
340
0
  0
BLOCK_RECORD
  5
489
330
1
100
AcDbSymbolTableRecord
100
AcDbBlockTableRecord
  2
*D10
340
0
  0
BLOCK_RECORD
  5
496
330
1
100
AcDbSymbolTableRecord
100
AcDbBlockTableRecord
  2
*D11
340
0
  0
ENDTAB
  0
ENDSEC
  0
SECTION
  2
BLOCKS
  0
BLOCK
  5
20
330
1F
100
AcDbEntity
  8
0
100
AcDbBlockBegin
  2
*Model_Space
 70
     0
 10
0.0
 20
0.0
 30
0.0
  3
*Model_Space
  1

  0
ENDBLK
  5
21
330
1F
100
AcDbEntity
  8
0
100
AcDbBlockEnd
  0
BLOCK
  5
5A
330
58
100
AcDbEntity
 67
     1
  8
0
100
AcDbBlockBegin
  2
*Paper_Space
 70
     0
 10
0.0
 20
0.0
 30
0.0
  3
*Paper_Space
  1

  0
ENDBLK
  5
5B
330
58
100
AcDbEntity
 67
     1
  8
0
100
AcDbBlockEnd
  0
BLOCK
  5
5F
330
5D
100
AcDbEntity
 67
     1
  8
0
100
AcDbBlockBegin
  2
*Paper_Space0
 70
     0
 10
0.0
 20
0.0
 30
0.0
  3
*Paper_Space0
  1

  0
ENDBLK
  5
60
330
5D
100
AcDbEntity
 67
     1
  8
0
100
AcDbBlockEnd
  0
BLOCK
  5
14E
330
14D
100
AcDbEntity
  8
0
 62
     1
100
AcDbBlockBegin
  2
*D1
 70
     1
 10
0.0
 20
0.0
 30
0.0
  3
*D1
  1

  0
LINE
  5
14F
330
14D
100
AcDbEntity
  8
QUOTE
 62
     0
370
    -2
100
AcDbLine
 10
-334.0280502379843
 20
-306.3153758974785
 30
0.0
 11
-339.8498885697317
 21
-306.3153758974785
 31
0.0
  0
LINE
  5
150
330
14D
100
AcDbEntity
  8
QUOTE
 62
     0
370
    -2
100
AcDbLine
 10
-328.4247700699589
 20
-215.8153758974785
 30
0.0
 11
-339.8498885697317
 21
-215.8153758974785
 31
0.0
  0
LINE
  5
151
330
14D
100
AcDbEntity
  8
QUOTE
 62
     0
370
    -2
100
AcDbLine
 10
-338.5998885697317
 20
-303.8153758974785
 30
0.0
 11
-338.5998885697317
 21
-218.3153758974785
 31
0.0
  0
SOLID
  5
152
330
14D
100
AcDbEntity
  8
QUOTE
 62
     0
100
AcDbTrace
 10
-339.0165552363984
 20
-303.8153758974785
 30
0.0
 11
-338.183221903065
 21
-303.8153758974785
 31
0.0
 12
-338.5998885697317
 22
-306.3153758974785
 32
0.0
 13
-338.5998885697317
 23
-306.3153758974785
 33
0.0
  0
SOLID
  5
153
330
14D
100
AcDbEntity
  8
QUOTE
 62
     0
100
AcDbTrace
 10
-339.0165552363984
 20
-218.3153758974785
 30
0.0
 11
-338.183221903065
 21
-218.3153758974785
 31
0.0
 12
-338.5998885697317
 22
-215.8153758974785
 32
0.0
 13
-338.5998885697317
 23
-215.8153758974785
 33
0.0
  0
MTEXT
  5
154
330
14D
100
AcDbEntity
  8
QUOTE
 62
     0
100
AcDbMText
 10
-342.0986801721824
 20
-261.0653758974785
 30
0.0
 40
5.0
 41
0.0
 71
     5
 72
     1
  1
90,5
 11
0.0000000000000001
 21
1.0
 31
0.0
 73
     1
 44
1.0
1001
ACAD
1000
MTEXTBEGIN
1070
    73
1070
     1
1070
    44
1040
1.0
1070
    74
1070
     0
1000
MTEXTEND
  0
POINT
  5
155
330
14D
100
AcDbEntity
  8
Defpoints
 62
     0
100
AcDbPoint
 10
-333.4030502379843
 20
-306.3153758974785
 30
0.0
  0
POINT
  5
156
330
14D
100
AcDbEntity
  8
Defpoints
 62
     0
100
AcDbPoint
 10
-327.7997700699589
 20
-215.8153758974785
 30
0.0
  0
POINT
  5
157
330
14D
100
AcDbEntity
  8
Defpoints
 62
     0
100
AcDbPoint
 10
-338.5998885697317
 20
-215.8153758974785
 30
0.0
  0
ENDBLK
  5
158
330
14D
100
AcDbEntity
  8
0
 62
     1
100
AcDbBlockEnd
  0
BLOCK
  5
15A
330
159
100
AcDbEntity
  8
0
 62
     1
100
AcDbBlockBegin
  2
*D2
 70
     1
 10
0.0
 20
0.0
 30
0.0
  3
*D2
  1

  0
LINE
  5
15B
330
159
100
AcDbEntity
  8
QUOTE
 62
     0
370
    -2
100
AcDbLine
 10
-327.7997700699589
 20
-215.1903758974785
 30
0.0
 11
-327.7997700699589
 21
-206.8889581410169
 31
0.0
  0
LINE
  5
15C
330
159
100
AcDbEntity
  8
QUOTE
 62
     0
370
    -2
100
AcDbLine
 10
-283.8030502379843
 20
-217.6507397299476
 30
0.0
 11
-283.8030502379843
 21
-206.8889581410169
 31
0.0
  0
LINE
  5
15D
330
159
100
AcDbEntity
  8
QUOTE
 62
     0
370
    -2
100
AcDbLine
 10
-325.2997700699589
 20
-208.1389581410169
 30
0.0
 11
-286.3030502379843
 21
-208.1389581410169
 31
0.0
  0
SOLID
  5
15E
330
159
100
AcDbEntity
  8
QUOTE
 62
     0
100
AcDbTrace
 10
-325.2997700699589
 20
-207.7222914743503
 30
0.0
 11
-325.2997700699589
 21
-208.5556248076835
 31
0.0
 12
-327.7997700699589
 22
-208.1389581410169
 32
0.0
 13
-327.7997700699589
 23
-208.1389581410169
 33
0.0
  0
SOLID
  5
15F
330
159
100
AcDbEntity
  8
QUOTE
 62
     0
100
AcDbTrace
 10
-286.3030502379843
 20
-207.7222914743503
 30
0.0
 11
-286.3030502379843
 21
-208.5556248076835
 31
0.0
 12
-283.8030502379843
 22
-208.1389581410169
 32
0.0
 13
-283.8030502379843
 23
-208.1389581410169
 33
0.0
  0
MTEXT
  5
160
330
159
100
AcDbEntity
  8
QUOTE
 62
     0
100
AcDbMText
 10
-305.8014101539716
 20
-205.0139581410169
 30
0.0
 40
5.0
 41
0.0
 71
     5
 72
     1
  1
44
 73
     1
 44
1.0
1001
ACAD
1000
MTEXTBEGIN
1070
    73
1070
     1
1070
    44
1040
1.0
1070
    74
1070
     0
1000
MTEXTEND
  0
POINT
  5
161
330
159
100
AcDbEntity
  8
Defpoints
 62
     0
100
AcDbPoint
 10
-327.7997700699589
 20
-215.8153758974785
 30
0.0
  0
POINT
  5
162
330
159
100
AcDbEntity
  8
Defpoints
 62
     0
100
AcDbPoint
 10
-283.8030502379843
 20
-218.2757397299476
 30
0.0
  0
POINT
  5
163
330
159
100
AcDbEntity
  8
Defpoints
 62
     0
100
AcDbPoint
 10
-283.8030502379843
 20
-208.1389581410169
 30
0.0
  0
ENDBLK
  5
164
330
159
100
AcDbEntity
  8
0
 62
     1
100
AcDbBlockEnd
  0
BLOCK
  5
166
330
165
100
AcDbEntity
  8
0
 62
     1
100
AcDbBlockBegin
  2
*D3
 70
     1
 10
0.0
 20
0.0
 30
0.0
  3
*D3
  1

  0
LINE
  5
167
330
165
100
AcDbEntity
  8
QUOTE
 62
     0
370
    -2
100
AcDbLine
 10
-327.7997700699589
 20
-301.2522867299476
 30
0.0
 11
-327.7997700699589
 21
-317.107871503185
 31
0.0
  0
LINE
  5
168
330
165
100
AcDbEntity
  8
QUOTE
 62
     0
370
    -2
100
AcDbLine
 10
-264.799770069959
 20
-279.1247977299476
 30
0.0
 11
-264.799770069959
 21
-317.107871503185
 31
0.0
  0
LINE
  5
169
330
165
100
AcDbEntity
  8
QUOTE
 62
     0
370
    -2
100
AcDbLine
 10
-325.2997700699589
 20
-315.857871503185
 30
0.0
 11
-267.299770069959
 21
-315.857871503185
 31
0.0
  0
SOLID
  5
16A
330
165
100
AcDbEntity
  8
QUOTE
 62
     0
100
AcDbTrace
 10
-325.2997700699589
 20
-315.4412048365184
 30
0.0
 11
-325.2997700699589
 21
-316.2745381698517
 31
0.0
 12
-327.7997700699589
 22
-315.857871503185
 32
0.0
 13
-327.7997700699589
 23
-315.857871503185
 33
0.0
  0
SOLID
  5
16B
330
165
100
AcDbEntity
  8
QUOTE
 62
     0
100
AcDbTrace
 10
-267.299770069959
 20
-315.4412048365184
 30
0.0
 11
-267.299770069959
 21
-316.2745381698517
 31
0.0
 12
-264.799770069959
 22
-315.857871503185
 32
0.0
 13
-264.799770069959
 23
-315.857871503185
 33
0.0
  0
MTEXT
  5
16C
330
165
100
AcDbEntity
  8
QUOTE
 62
     0
100
AcDbMText
 10
-296.2997700699589
 20
-312.732871503185
 30
0.0
 40
5.0
 41
0.0
 71
     5
 72
     1
  1
63
 73
     1
 44
1.0
1001
ACAD
1000
MTEXTBEGIN
1070
    73
1070
     1
1070
    44
1040
1.0
1070
    74
1070
     0
1000
MTEXTEND
  0
POINT
  5
16D
330
165
100
AcDbEntity
  8
Defpoints
 62
     0
100
AcDbPoint
 10
-327.7997700699589
 20
-300.6272867299476
 30
0.0
  0
POINT
  5
16E
330
165
100
AcDbEntity
  8
Defpoints
 62
     0
100
AcDbPoint
 10
-264.799770069959
 20
-278.4997977299476
 30
0.0
  0
POINT
  5
16F
330
165
100
AcDbEntity
  8
Defpoints
 62
     0
100
AcDbPoint
 10
-264.799770069959
 20
-315.857871503185
 30
0.0
  0
ENDBLK
  5
170
330
165
100
AcDbEntity
  8
0
 62
     1
100
AcDbBlockEnd
  0
BLOCK
  5
172
330
171
100
AcDbEntity
  8
0
 62
     1
100
AcDbBlockBegin
  2
*D4
 70
     1
 10
0.0
 20
0.0
 30
0.0
  3
*D4
  1

  0
LINE
  5
173
330
171
100
AcDbEntity
  8
QUOTE
 62
     0
370
    -2
100
AcDbLine
 10
-411.1722059270437
 20
-215.3081307299252
 30
0.0
 11
-411.1722059270437
 21
-206.9831401409945
 31
0.0
  0
LINE
  5
174
330
171
100
AcDbEntity
  8
QUOTE
 62
     0
370
    -2
100
AcDbLine
 10
-366.1722069270437
 20
-215.3081307299252
 30
0.0
 11
-366.1722069270437
 21
-206.9831401409945
 31
0.0
  0
LINE
  5
175
330
171
100
AcDbEntity
  8
QUOTE
 62
     0
370
    -2
100
AcDbLine
 10
-408.6722059270437
 20
-208.2331401409945
 30
0.0
 11
-368.6722069270438
 21
-208.2331401409945
 31
0.0
  0
SOLID
  5
176
330
171
100
AcDbEntity
  8
QUOTE
 62
     0
100
AcDbTrace
 10
-408.6722059270437
 20
-207.8164734743279
 30
0.0
 11
-408.6722059270437
 21
-208.6498068076612
 31
0.0
 12
-411.1722059270437
 22
-208.2331401409945
 32
0.0
 13
-411.1722059270437
 23
-208.2331401409945
 33
0.0
  0
SOLID
  5
177
330
171
100
AcDbEntity
  8
QUOTE
 62
     0
100
AcDbTrace
 10
-368.6722069270438
 20
-207.8164734743279
 30
0.0
 11
-368.6722069270438
 21
-208.6498068076612
 31
0.0
 12
-366.1722069270437
 22
-208.2331401409945
 32
0.0
 13
-366.1722069270437
 23
-208.2331401409945
 33
0.0
  0
MTEXT
  5
178
330
171
100
AcDbEntity
  8
QUOTE
 62
     0
100
AcDbMText
 10
-388.6722064270438
 20
-205.1081401409945
 30
0.0
 40
5.0
 41
0.0
 71
     5
 72
     1
  1
45
 73
     1
 44
1.0
1001
ACAD
1000
MTEXTBEGIN
1070
    73
1070
     1
1070
    44
1040
1.0
1070
    74
1070
     0
1000
MTEXTEND
  0
POINT
  5
179
330
171
100
AcDbEntity
  8
Defpoints
 62
     0
100
AcDbPoint
 10
-411.1722059270437
 20
-215.9331307299252
 30
0.0
  0
POINT
  5
17A
330
171
100
AcDbEntity
  8
Defpoints
 62
     0
100
AcDbPoint
 10
-366.1722069270437
 20
-215.9331307299252
 30
0.0
  0
POINT
  5
17B
330
171
100
AcDbEntity
  8
Defpoints
 62
     0
100
AcDbPoint
 10
-366.1722069270437
 20
-208.2331401409945
 30
0.0
  0
ENDBLK
  5
17C
330
171
100
AcDbEntity
  8
0
 62
     1
100
AcDbBlockEnd
  0
BLOCK
  5
17E
330
17D
100
AcDbEntity
  8
0
 62
     1
100
AcDbBlockBegin
  2
*D5
 70
     1
 10
0.0
 20
0.0
 30
0.0
  3
*D5
  1

  0
LINE
  5
17F
330
17D
100
AcDbEntity
  8
QUOTE
 62
     0
370
    -2
100
AcDbLine
 10
-411.3472097530693
 20
-300.7331097298404
 30
0.0
 11
-423.1648270848167
 21
-300.7331097298404
 31
0.0
  0
LINE
  5
180
330
17D
100
AcDbEntity
  8
QUOTE
 62
     0
370
    -2
100
AcDbLine
 10
-411.3472069270438
 20
-215.7331177299253
 30
0.0
 11
-423.1648270848167
 21
-215.7331177299253
 31
0.0
  0
LINE
  5
181
330
17D
100
AcDbEntity
  8
QUOTE
 62
     0
370
    -2
100
AcDbLine
 10
-421.9148270848167
 20
-298.2331097298403
 30
0.0
 11
-421.9148270848167
 21
-218.2331177299253
 31
0.0
  0
SOLID
  5
182
330
17D
100
AcDbEntity
  8
QUOTE
 62
     0
100
AcDbTrace
 10
-422.3314937514833
 20
-298.2331097298403
 30
0.0
 11
-421.4981604181501
 21
-298.2331097298403
 31
0.0
 12
-421.9148270848167
 22
-300.7331097298404
 32
0.0
 13
-421.9148270848167
 23
-300.7331097298404
 33
0.0
  0
SOLID
  5
183
330
17D
100
AcDbEntity
  8
QUOTE
 62
     0
100
AcDbTrace
 10
-422.3314937514833
 20
-218.2331177299253
 30
0.0
 11
-421.4981604181501
 21
-218.2331177299253
 31
0.0
 12
-421.9148270848167
 22
-215.7331177299253
 32
0.0
 13
-421.9148270848167
 23
-215.7331177299253
 33
0.0
  0
MTEXT
  5
184
330
17D
100
AcDbEntity
  8
QUOTE
 62
     0
100
AcDbMText
 10
-425.0398270848166
 20
-258.2331137298829
 30
0.0
 40
5.0
 41
0.0
 71
     5
 72
     1
  1
85
 11
0.0000000000000001
 21
1.0
 31
0.0
 73
     1
 44
1.0
1001
ACAD
1000
MTEXTBEGIN
1070
    73
1070
     1
1070
    44
1040
1.0
1070
    74
1070
     0
1000
MTEXTEND
  0
POINT
  5
185
330
17D
100
AcDbEntity
  8
Defpoints
 62
     0
100
AcDbPoint
 10
-410.7222097530693
 20
-300.7331097298404
 30
0.0
  0
POINT
  5
186
330
17D
100
AcDbEntity
  8
Defpoints
 62
     0
100
AcDbPoint
 10
-410.7222069270437
 20
-215.7331177299253
 30
0.0
  0
POINT
  5
187
330
17D
100
AcDbEntity
  8
Defpoints
 62
     0
100
AcDbPoint
 10
-421.9148270848167
 20
-215.7331177299253
 30
0.0
  0
ENDBLK
  5
188
330
17D
100
AcDbEntity
  8
0
 62
     1
100
AcDbBlockEnd
  0
BLOCK
  5
463
330
462
100
AcDbEntity
  8
0
100
AcDbBlockBegin
  2
*D7
 70
     1
 10
0.0
 20
0.0
 30
0.0
  3
*D7
  1

  0
LINE
  5
511
330
462
100
AcDbEntity
  8
QUOTE
 62
     0
370
    -2
100
AcDbLine
 10
17.4208113676764
 20
95.786452947475
 30
0.0
 11
17.4208113676764
 21
103.6039435364057
 31
0.0
  0
LINE
  5
512
330
462
100
AcDbEntity
  8
QUOTE
 62
     0
370
    -2
100
AcDbLine
 10
62.42081036767641
 20
95.786452947475
 30
0.0
 11
62.42081036767641
 21
103.6039435364057
 31
0.0
  0
LINE
  5
513
330
462
100
AcDbEntity
  8
QUOTE
 62
     0
370
    -2
100
AcDbLine
 10
22.42081136767641
 20
103.4239435364057
 30
0.0
 11
32.74747753434308
 21
103.4239435364057
 31
0.0
  0
LINE
  5
514
330
462
100
AcDbEntity
  8
QUOTE
 62
     0
370
    -2
100
AcDbLine
 10
57.42081036767641
 20
103.4239435364057
 30
0.0
 11
47.09414420100974
 21
103.4239435364057
 31
0.0
  0
SOLID
  5
515
330
462
100
AcDbEntity
  8
QUOTE
 62
     0
100
AcDbTrace
 10
22.42081136767641
 20
104.257276869739
 30
0.0
 11
22.42081136767641
 21
102.5906102030723
 31
0.0
 12
17.4208113676764
 22
103.4239435364057
 32
0.0
 13
17.4208113676764
 23
103.4239435364057
 33
0.0
  0
SOLID
  5
516
330
462
100
AcDbEntity
  8
QUOTE
 62
     0
100
AcDbTrace
 10
57.42081036767641
 20
104.257276869739
 30
0.0
 11
57.42081036767641
 21
102.5906102030723
 31
0.0
 12
62.42081036767641
 22
103.4239435364057
 32
0.0
 13
62.42081036767641
 23
103.4239435364057
 33
0.0
  0
MTEXT
  5
517
330
462
100
AcDbEntity
  8
QUOTE
 62
     0
100
AcDbMText
 10
39.92081086767641
 20
103.4239435364057
 30
0.0
 40
5.0
 41
0.0
 71
     5
 72
     1
  1
\A1;45.0
 73
     1
 44
1.0
1001
ACAD
1000
MTEXTBEGIN
1070
    73
1070
     1
1070
    44
1040
1.0
1070
    74
1070
     0
1000
MTEXTEND
  0
POINT
  5
518
330
462
100
AcDbEntity
  8
Defpoints
 62
     0
100
AcDbPoint
 10
17.4208113676764
 20
95.72395294747499
 30
0.0
  0
POINT
  5
519
330
462
100
AcDbEntity
  8
Defpoints
 62
     0
100
AcDbPoint
 10
62.42081036767641
 20
95.72395294747499
 30
0.0
  0
POINT
  5
51A
330
462
100
AcDbEntity
  8
Defpoints
 62
     0
100
AcDbPoint
 10
62.42081036767641
 20
103.4239435364057
 30
0.0
  0
ENDBLK
  5
464
330
462
100
AcDbEntity
  8
0
100
AcDbBlockEnd
  0
BLOCK
  5
470
330
46F
100
AcDbEntity
  8
0
100
AcDbBlockBegin
  2
*D8
 70
     1
 10
0.0
 20
0.0
 30
0.0
  3
*D8
  1

  0
LINE
  5
507
330
46F
100
AcDbEntity
  8
QUOTE
 62
     0
370
    -2
100
AcDbLine
 10
17.80830754165086
 20
10.92397394755986
 30
0.0
 11
6.498190209903401
 21
10.92397394755986
 31
0.0
  0
LINE
  5
508
330
46F
100
AcDbEntity
  8
QUOTE
 62
     0
370
    -2
100
AcDbLine
 10
17.8083103676764
 20
95.92396594747496
 30
0.0
 11
6.49819020990342
 21
95.92396594747496
 31
0.0
  0
LINE
  5
509
330
46F
100
AcDbEntity
  8
QUOTE
 62
     0
370
    -2
100
AcDbLine
 10
6.678190209903402
 20
15.92397394755986
 30
0.0
 11
6.67819020990341
 21
50.83396994751741
 31
0.0
  0
LINE
  5
50A
330
46F
100
AcDbEntity
  8
QUOTE
 62
     0
370
    -2
100
AcDbLine
 10
6.678190209903418
 20
90.92396594747496
 30
0.0
 11
6.67819020990341
 21
56.01396994751741
 31
0.0
  0
SOLID
  5
50B
330
46F
100
AcDbEntity
  8
QUOTE
 62
     0
100
AcDbTrace
 10
5.844856876570069
 20
15.92397394755986
 30
0.0
 11
7.511523543236735
 21
15.92397394755986
 31
0.0
 12
6.678190209903401
 22
10.92397394755986
 32
0.0
 13
6.678190209903401
 23
10.92397394755986
 33
0.0
  0
SOLID
  5
50C
330
46F
100
AcDbEntity
  8
QUOTE
 62
     0
100
AcDbTrace
 10
5.844856876570085
 20
90.92396594747496
 30
0.0
 11
7.511523543236751
 21
90.92396594747496
 31
0.0
 12
6.678190209903419
 22
95.92396594747496
 32
0.0
 13
6.678190209903419
 23
95.92396594747496
 33
0.0
  0
MTEXT
  5
50D
330
46F
100
AcDbEntity
  8
QUOTE
 62
     0
100
AcDbMText
 10
6.678190209903402
 20
53.42396994751741
 30
0.0
 40
5.0
 41
0.0
 71
     5
 72
     1
  1
\A1;85.0
 73
     1
 44
1.0
1001
ACAD
1000
MTEXTBEGIN
1070
    73
1070
     1
1070
    44
1040
1.0
1070
    74
1070
     0
1000
MTEXTEND
  0
POINT
  5
50E
330
46F
100
AcDbEntity
  8
Defpoints
 62
     0
100
AcDbPoint
 10
17.87080754165086
 20
10.92397394755986
 30
0.0
  0
POINT
  5
50F
330
46F
100
AcDbEntity
  8
Defpoints
 62
     0
100
AcDbPoint
 10
17.8708103676764
 20
95.92396594747496
 30
0.0
  0
POINT
  5
510
330
46F
100
AcDbEntity
  8
Defpoints
 62
     0
100
AcDbPoint
 10
6.678190209903419
 20
95.92396594747496
 30
0.0
  0
ENDBLK
  5
471
330
46F
100
AcDbEntity
  8
0
100
AcDbBlockEnd
  0
BLOCK
  5
47D
330
47C
100
AcDbEntity
  8
0
100
AcDbBlockBegin
  2
*D9
 70
     1
 10
0.0
 20
0.0
 30
0.0
  3
*D9
  1

  0
LINE
  5
525
330
47C
100
AcDbEntity
  8
QUOTE
 62
     0
370
    -2
100
AcDbLine
 10
95.12746705673587
 20
5.341707779921733
 30
0.0
 11
89.81312872498845
 21
5.341707779921735
 31
0.0
  0
LINE
  5
526
330
47C
100
AcDbEntity
  8
QUOTE
 62
     0
370
    -2
100
AcDbLine
 10
100.7307472247612
 20
95.84170777992174
 30
0.0
 11
89.81312872498845
 21
95.84170777992175
 31
0.0
  0
LINE
  5
527
330
47C
100
AcDbEntity
  8
QUOTE
 62
     0
370
    -2
100
AcDbLine
 10
89.99312872498844
 20
10.34170777992173
 30
0.0
 11
89.99312872498846
 21
48.00170777992174
 31
0.0
  0
LINE
  5
528
330
47C
100
AcDbEntity
  8
QUOTE
 62
     0
370
    -2
100
AcDbLine
 10
89.99312872498846
 20
90.84170777992175
 30
0.0
 11
89.99312872498846
 21
53.18170777992174
 31
0.0
  0
SOLID
  5
529
330
47C
100
AcDbEntity
  8
QUOTE
 62
     0
100
AcDbTrace
 10
89.1597953916551
 20
10.34170777992173
 30
0.0
 11
90.82646205832176
 21
10.34170777992173
 31
0.0
 12
89.99312872498844
 22
5.341707779921735
 32
0.0
 13
89.99312872498844
 23
5.341707779921735
 33
0.0
  0
SOLID
  5
52A
330
47C
100
AcDbEntity
  8
QUOTE
 62
     0
100
AcDbTrace
 10
89.15979539165512
 20
90.84170777992175
 30
0.0
 11
90.82646205832178
 21
90.84170777992175
 31
0.0
 12
89.99312872498846
 22
95.84170777992175
 32
0.0
 13
89.99312872498846
 23
95.84170777992175
 33
0.0
  0
MTEXT
  5
52B
330
47C
100
AcDbEntity
  8
QUOTE
 62
     0
100
AcDbMText
 10
89.99312872498844
 20
50.59170777992175
 30
0.0
 40
5.0
 41
0.0
 71
     5
 72
     1
  1
\A1;90.5
 73
     1
 44
1.0
1001
ACAD
1000
MTEXTBEGIN
1070
    73
1070
     1
1070
    44
1040
1.0
1070
    74
1070
     0
1000
MTEXTEND
  0
POINT
  5
52C
330
47C
100
AcDbEntity
  8
Defpoints
 62
     0
100
AcDbPoint
 10
95.18996705673586
 20
5.341707779921733
 30
0.0
  0
POINT
  5
52D
330
47C
100
AcDbEntity
  8
Defpoints
 62
     0
100
AcDbPoint
 10
100.7932472247612
 20
95.84170777992174
 30
0.0
  0
POINT
  5
52E
330
47C
100
AcDbEntity
  8
Defpoints
 62
     0
100
AcDbPoint
 10
89.99312872498846
 20
95.84170777992175
 30
0.0
  0
ENDBLK
  5
47E
330
47C
100
AcDbEntity
  8
0
100
AcDbBlockEnd
  0
BLOCK
  5
48A
330
489
100
AcDbEntity
  8
0
100
AcDbBlockBegin
  2
*D10
 70
     1
 10
0.0
 20
0.0
 30
0.0
  3
*D10
  1

  0
LINE
  5
51B
330
489
100
AcDbEntity
  8
QUOTE
 62
     0
370
    -2
100
AcDbLine
 10
100.7932472247612
 20
95.90420777992173
 30
0.0
 11
100.7932472247612
 21
103.6981255363833
 31
0.0
  0
LINE
  5
51C
330
489
100
AcDbEntity
  8
QUOTE
 62
     0
370
    -2
100
AcDbLine
 10
144.7899670567359
 20
93.44384394745262
 30
0.0
 11
144.7899670567359
 21
103.6981255363833
 31
0.0
  0
LINE
  5
51D
330
489
100
AcDbEntity
  8
QUOTE
 62
     0
370
    -2
100
AcDbLine
 10
105.7932472247612
 20
103.5181255363833
 30
0.0
 11
115.6182738074152
 21
103.5181255363833
 31
0.0
  0
LINE
  5
51E
330
489
100
AcDbEntity
  8
QUOTE
 62
     0
370
    -2
100
AcDbLine
 10
139.7899670567359
 20
103.5181255363833
 30
0.0
 11
129.9649404740819
 21
103.5181255363833
 31
0.0
  0
SOLID
  5
51F
330
489
100
AcDbEntity
  8
QUOTE
 62
     0
100
AcDbTrace
 10
105.7932472247612
 20
104.3514588697166
 30
0.0
 11
105.7932472247612
 21
102.68479220305
 31
0.0
 12
100.7932472247612
 22
103.5181255363833
 32
0.0
 13
100.7932472247612
 23
103.5181255363833
 33
0.0
  0
SOLID
  5
520
330
489
100
AcDbEntity
  8
QUOTE
 62
     0
100
AcDbTrace
 10
139.7899670567359
 20
104.3514588697166
 30
0.0
 11
139.7899670567359
 21
102.68479220305
 31
0.0
 12
144.7899670567359
 22
103.5181255363833
 32
0.0
 13
144.7899670567359
 23
103.5181255363833
 33
0.0
  0
MTEXT
  5
521
330
489
100
AcDbEntity
  8
QUOTE
 62
     0
100
AcDbMText
 10
122.7916071407485
 20
103.5181255363833
 30
0.0
 40
5.0
 41
0.0
 71
     5
 72
     1
  1
\A1;44.0
 73
     1
 44
1.0
1001
ACAD
1000
MTEXTBEGIN
1070
    73
1070
     1
1070
    44
1040
1.0
1070
    74
1070
     0
1000
MTEXTEND
  0
POINT
  5
522
330
489
100
AcDbEntity
  8
Defpoints
 62
     0
100
AcDbPoint
 10
100.7932472247612
 20
95.84170777992174
 30
0.0
  0
POINT
  5
523
330
489
100
AcDbEntity
  8
Defpoints
 62
     0
100
AcDbPoint
 10
144.7899670567359
 20
93.38134394745262
 30
0.0
  0
POINT
  5
524
330
489
100
AcDbEntity
  8
Defpoints
 62
     0
100
AcDbPoint
 10
144.7899670567359
 20
103.5181255363833
 30
0.0
  0
ENDBLK
  5
48B
330
489
100
AcDbEntity
  8
0
100
AcDbBlockEnd
  0
BLOCK
  5
497
330
496
100
AcDbEntity
  8
0
100
AcDbBlockBegin
  2
*D11
 70
     1
 10
0.0
 20
0.0
 30
0.0
  3
*D11
  1

  0
LINE
  5
52F
330
496
100
AcDbEntity
  8
QUOTE
 62
     0
370
    -2
100
AcDbLine
 10
100.7932472247612
 20
10.96729694745258
 30
0.0
 11
100.7932472247612
 21
-4.380787825784828
 31
0.0
  0
LINE
  5
530
330
496
100
AcDbEntity
  8
QUOTE
 62
     0
370
    -2
100
AcDbLine
 10
163.7932472247612
 20
33.09478594745261
 30
0.0
 11
163.7932472247612
 21
-4.380787825784828
 31
0.0
  0
LINE
  5
531
330
496
100
AcDbEntity
  8
QUOTE
 62
     0
370
    -2
100
AcDbLine
 10
105.7932472247612
 20
-4.200787825784829
 30
0.0
 11
125.1199138914279
 21
-4.200787825784829
 31
0.0
  0
LINE
  5
532
330
496
100
AcDbEntity
  8
QUOTE
 62
     0
370
    -2
100
AcDbLine
 10
158.7932472247612
 20
-4.200787825784829
 30
0.0
 11
139.4665805580946
 21
-4.200787825784829
 31
0.0
  0
SOLID
  5
533
330
496
100
AcDbEntity
  8
QUOTE
 62
     0
100
AcDbTrace
 10
105.7932472247612
 20
-3.367454492451495
 30
0.0
 11
105.7932472247612
 21
-5.034121159118162
 31
0.0
 12
100.7932472247612
 22
-4.200787825784829
 32
0.0
 13
100.7932472247612
 23
-4.200787825784829
 33
0.0
  0
SOLID
  5
534
330
496
100
AcDbEntity
  8
QUOTE
 62
     0
100
AcDbTrace
 10
158.7932472247612
 20
-3.367454492451495
 30
0.0
 11
158.7932472247612
 21
-5.034121159118162
 31
0.0
 12
163.7932472247612
 22
-4.200787825784829
 32
0.0
 13
163.7932472247612
 23
-4.200787825784829
 33
0.0
  0
MTEXT
  5
535
330
496
100
AcDbEntity
  8
QUOTE
 62
     0
100
AcDbMText
 10
132.2932472247612
 20
-4.200787825784829
 30
0.0
 40
5.0
 41
0.0
 71
     5
 72
     1
  1
\A1;63.0
 73
     1
 44
1.0
1001
ACAD
1000
MTEXTBEGIN
1070
    73
1070
     1
1070
    44
1040
1.0
1070
    74
1070
     0
1000
MTEXTEND
  0
POINT
  5
536
330
496
100
AcDbEntity
  8
Defpoints
 62
     0
100
AcDbPoint
 10
100.7932472247612
 20
11.02979694745258
 30
0.0
  0
POINT
  5
537
330
496
100
AcDbEntity
  8
Defpoints
 62
     0
100
AcDbPoint
 10
163.7932472247612
 20
33.15728594745261
 30
0.0
  0
POINT
  5
538
330
496
100
AcDbEntity
  8
Defpoints
 62
     0
100
AcDbPoint
 10
163.7932472247612
 20
-4.200787825784829
 30
0.0
  0
ENDBLK
  5
498
330
496
100
AcDbEntity
  8
0
100
AcDbBlockEnd
  0
ENDSEC
  0
SECTION
  2
ENTITIES
  0
LINE
  5
2FA
330
1F
100
AcDbEntity
  8
0
 62
     7
 48
0.40625
370
    13
100
AcDbLine
 10
43.92080337112756
 20
73.79632030025348
 30
0.0
 11
60.17080337112756
 21
73.79632030025348
 31
0.0
  0
LINE
  5
2FB
330
1F
100
AcDbEntity
  8
0
 62
     7
 48
0.40625
370
    13
100
AcDbLine
 10
19.67080337112756
 20
73.79632030025348
 30
0.0
 11
43.92080337112756
 21
73.79632030025348
 31
0.0
  0
LINE
  5
2FC
330
1F
100
AcDbEntity
  8
0
 62
     7
370
    35
100
AcDbLine
 10
17.87081537112757
 20
75.92382230025354
 30
0.0
 11
61.97079137112755
 21
75.92382230025354
 31
0.0
  0
LINE
  5
2FD
330
1F
100
AcDbEntity
  8
0
 62
     7
 48
0.0525
370
    35
100
AcDbLine
 10
39.92080336765278
 20
86.12398694755981
 30
0.0
 11
37.82079736765278
 21
86.12398694755981
 31
0.0
  0
LINE
  5
2FE
330
1F
100
AcDbEntity
  8
0
 62
     7
 48
0.0525
370
    35
100
AcDbLine
 10
39.92080336765278
 20
86.12398694755981
 30
0.0
 11
42.02080936765272
 21
86.12398694755981
 31
0.0
  0
LINE
  5
2FF
330
1F
100
AcDbEntity
  8
0
 62
     7
 48
0.01625
370
    35
100
AcDbLine
 10
42.02080936765272
 20
86.12398694755981
 30
0.0
 11
42.02080936765272
 21
86.77398094755981
 31
0.0
  0
LINE
  5
300
330
1F
100
AcDbEntity
  8
0
 62
     7
 48
0.0525
370
    35
100
AcDbLine
 10
39.92080336765278
 20
86.77398094755981
 30
0.0
 11
42.02080936765272
 21
86.77398094755981
 31
0.0
  0
LINE
  5
301
330
1F
100
AcDbEntity
  8
0
 62
     7
 48
0.0525
370
    35
100
AcDbLine
 10
39.92080336765278
 20
86.77398094755981
 30
0.0
 11
37.82079736765278
 21
86.77398094755981
 31
0.0
  0
LINE
  5
302
330
1F
100
AcDbEntity
  8
0
 62
     7
 48
0.01625
370
    35
100
AcDbLine
 10
37.82079736765278
 20
86.12398694755981
 30
0.0
 11
37.82079736765278
 21
86.77398094755981
 31
0.0
  0
LINE
  5
303
330
1F
100
AcDbEntity
  8
0
 62
     7
370
    13
100
AcDbLine
 10
17.42080336765278
 20
93.2755369475598
 30
0.0
 11
62.42080336765273
 21
93.2755369475598
 31
0.0
  0
LINE
  5
304
330
1F
100
AcDbEntity
  8
0
 62
     7
370
    35
100
AcDbLine
 10
17.42080336765272
 20
75.92382230023563
 30
0.0
 11
62.42080336765273
 21
75.92382230027141
 31
0.0
  0
CIRCLE
  5
305
330
1F
100
AcDbEntity
  8
0
 62
     7
370
    35
100
AcDbCircle
 10
39.92080336765278
 20
87.4239749475598
 30
0.0
 40
3.25
  0
LINE
  5
306
330
1F
100
AcDbEntity
  8
0
 62
     7
 48
0.085422
370
    35
100
AcDbLine
 10
38.21236836765277
 20
38.1739749475598
 30
0.0
 11
41.62923836765273
 21
38.1739749475598
 31
0.0
  0
LINE
  5
307
330
1F
100
AcDbEntity
  8
0
 62
     7
 48
0.085422
370
    35
100
AcDbLine
 10
38.21236836765277
 20
68.6739749475598
 30
0.0
 11
41.62923836765273
 21
68.6739749475598
 31
0.0
  0
CIRCLE
  5
308
330
1F
100
AcDbEntity
  8
0
 62
     7
370
    13
100
AcDbCircle
 10
30.42080336765278
 20
53.4239749475598
 30
0.0
 40
3.049999999999999
  0
CIRCLE
  5
309
330
1F
100
AcDbEntity
  8
0
 62
     7
370
    13
100
AcDbCircle
 10
49.42080336765278
 20
53.4239749475598
 30
0.0
 40
3.049999999999999
  0
LINE
  5
30A
330
1F
100
AcDbEntity
  8
0
 62
     7
 48
0.0391
370
    13
100
AcDbLine
 10
58.51842936765277
 20
51.39028294755982
 30
0.0
 11
56.95441836765272
 21
51.39028294755982
 31
0.0
  0
LINE
  5
30B
330
1F
100
AcDbEntity
  8
0
 62
     7
 48
0.165157
370
    13
100
AcDbLine
 10
55.95451036765272
 20
56.45760494755982
 30
0.0
 11
55.95451036765272
 21
63.06389794755981
 31
0.0
  0
ARC
  5
30C
330
1F
100
AcDbEntity
  8
0
 62
     7
370
    13
100
AcDbCircle
 10
56.95438836765274
 20
56.4575439475598
 30
0.0
 40
0.999873
100
AcDbArc
 50
179.9977779999979
 51
270.0022379999984
  0
ARC
  5
30D
330
1F
100
AcDbEntity
  8
0
 62
     7
370
    13
100
AcDbCircle
 10
22.88721836765276
 20
50.39040494755986
 30
0.0
 40
0.999873
100
AcDbArc
 50
359.9977699999997
 51
90.0022219999988
  0
LINE
  5
30E
330
1F
100
AcDbEntity
  8
0
 62
     7
 48
0.0391
370
    13
100
AcDbLine
 10
22.88718836765273
 20
51.39028294755982
 30
0.0
 11
21.32317736765279
 21
51.39028294755982
 31
0.0
  0
ARC
  5
30F
330
1F
100
AcDbEntity
  8
0
 62
     7
370
    13
100
AcDbCircle
 10
22.88721836765276
 20
56.4575439475598
 30
0.0
 40
0.999873
100
AcDbArc
 50
269.997757000001
 51
0.0022220000020657
  0
ARC
  5
310
330
1F
100
AcDbEntity
  8
0
 62
     7
370
    13
100
AcDbCircle
 10
56.95438836765274
 20
50.39040494755986
 30
0.0
 40
0.999873
100
AcDbArc
 50
89.9977899999985
 51
180.0021939999986
  0
ARC
  5
311
330
1F
100
AcDbEntity
  8
0
 62
     7
370
    35
100
AcDbCircle
 10
38.21220036765274
 20
69.17415794755985
 30
0.0
 40
0.5001520000000001
100
AcDbArc
 50
180.0201709999988
 51
270.020159999999
  0
ARC
  5
312
330
1F
100
AcDbEntity
  8
0
 62
     7
370
    35
100
AcDbCircle
 10
41.6294063676527
 20
69.17415794755985
 30
0.0
 40
0.5001520000000001
100
AcDbArc
 50
269.9798350000002
 51
359.9798199999977
  0
ARC
  5
313
330
1F
100
AcDbEntity
  8
0
 62
     7
370
    35
100
AcDbCircle
 10
41.6294063676527
 20
37.67379094755981
 30
0.0
 40
0.5001520000000001
100
AcDbArc
 50
0.0201680000009717
 51
90.0201649999998
  0
ARC
  5
314
330
1F
100
AcDbEntity
  8
0
 62
     7
370
    35
100
AcDbCircle
 10
38.21220036765274
 20
37.67379094755981
 30
0.0
 40
0.5001520000000001
100
AcDbArc
 50
89.97983300000049
 51
179.9798290000011
  0
LINE
  5
315
330
1F
100
AcDbEntity
  8
0
 62
     7
 48
0.070692
370
    35
100
AcDbLine
 10
42.12952836765274
 20
69.1739749475598
 30
0.0
 11
42.12952836765274
 21
72.00164194755982
 31
0.0
  0
ARC
  5
316
330
1F
100
AcDbEntity
  8
0
 62
     7
370
    13
100
AcDbCircle
 10
39.92080336765278
 20
53.4239749475598
 30
0.0
 40
18.708498
100
AcDbArc
 50
31.01550300000076
 51
83.21982400000097
  0
LINE
  5
317
330
1F
100
AcDbEntity
  8
0
 62
     7
 48
0.0391
370
    13
100
AcDbLine
 10
58.51842936765277
 20
55.45766594755983
 30
0.0
 11
56.95441836765272
 21
55.45766594755983
 31
0.0
  0
ARC
  5
318
330
1F
100
AcDbEntity
  8
0
 62
     7
370
    13
100
AcDbCircle
 10
39.92080336765278
 20
53.4239749475598
 30
0.0
 40
18.708498
100
AcDbArc
 50
353.7593480000012
 51
6.240662999999849
  0
LINE
  5
319
330
1F
100
AcDbEntity
  8
0
 62
     7
 48
0.165157
370
    13
100
AcDbLine
 10
55.95451036765272
 20
50.39034394755979
 30
0.0
 11
55.95451036765272
 21
43.78405094755985
 31
0.0
  0
ARC
  5
31A
330
1F
100
AcDbEntity
  8
0
 62
     7
370
    13
100
AcDbCircle
 10
39.92080336765278
 20
53.4239749475598
 30
0.0
 40
18.708498
100
AcDbArc
 50
276.7801620000007
 51
328.9845040000025
  0
LINE
  5
31B
330
1F
100
AcDbEntity
  8
0
 62
     7
 48
0.070692
370
    35
100
AcDbLine
 10
42.12952836765274
 20
34.84630694755978
 30
0.0
 11
42.12952836765274
 21
37.6739749475598
 31
0.0
  0
LINE
  5
31C
330
1F
100
AcDbEntity
  8
0
 62
     7
 48
0.070692
370
    35
100
AcDbLine
 10
37.71207836765271
 20
34.84630694755978
 30
0.0
 11
37.71207836765271
 21
37.6739749475598
 31
0.0
  0
ARC
  5
31D
330
1F
100
AcDbEntity
  8
0
 62
     7
370
    13
100
AcDbCircle
 10
39.92080336765278
 20
53.4239749475598
 30
0.0
 40
18.708498
100
AcDbArc
 50
211.0155020000001
 51
263.2198390000016
  0
LINE
  5
31E
330
1F
100
AcDbEntity
  8
0
 62
     7
 48
0.165157
370
    13
100
AcDbLine
 10
23.88709636765273
 20
50.39034394755979
 30
0.0
 11
23.88709636765273
 21
43.78405094755985
 31
0.0
  0
ARC
  5
31F
330
1F
100
AcDbEntity
  8
0
 62
     7
370
    13
100
AcDbCircle
 10
39.92080336765278
 20
53.4239749475598
 30
0.0
 40
18.708498
100
AcDbArc
 50
173.7593430000024
 51
186.2406709999981
  0
LINE
  5
320
330
1F
100
AcDbEntity
  8
0
 62
     7
 48
0.0391
370
    13
100
AcDbLine
 10
21.32317736765279
 20
55.45766594755983
 30
0.0
 11
22.88718836765273
 21
55.45766594755983
 31
0.0
  0
LINE
  5
321
330
1F
100
AcDbEntity
  8
0
 62
     7
 48
0.165157
370
    13
100
AcDbLine
 10
23.88709636765273
 20
56.45760494755982
 30
0.0
 11
23.88709636765273
 21
63.06389794755981
 31
0.0
  0
ARC
  5
322
330
1F
100
AcDbEntity
  8
0
 62
     7
370
    13
100
AcDbCircle
 10
39.92080336765278
 20
53.4239749475598
 30
0.0
 40
18.708498
100
AcDbArc
 50
96.78017400000058
 51
148.9844979999998
  0
LINE
  5
323
330
1F
100
AcDbEntity
  8
0
 62
     7
 48
0.070692
370
    35
100
AcDbLine
 10
37.71207836765271
 20
69.1739749475598
 30
0.0
 11
37.71207836765271
 21
72.00164194755982
 31
0.0
  0
LINE
  5
324
330
1F
100
AcDbEntity
  8
0
 62
     7
 48
0.4512500000000001
370
    13
100
AcDbLine
 10
17.42080336765272
 20
33.05147694755979
 30
0.0
 11
35.92080336765278
 21
33.05147694755979
 31
0.0
  0
LINE
  5
325
330
1F
100
AcDbEntity
  8
0
 62
     7
 48
0.4512500000000001
370
    13
100
AcDbLine
 10
17.42080336765272
 20
73.79647194755978
 30
0.0
 11
35.92080336765278
 21
73.79647194755981
 31
0.0
  0
LINE
  5
326
330
1F
100
AcDbEntity
  8
0
 62
     7
 48
0.057497
370
    35
100
AcDbLine
 10
17.42080336765272
 20
11.27251594755981
 30
0.0
 11
17.42080336765272
 21
13.5724119475598
 31
0.0
  0
LINE
  5
327
330
1F
100
AcDbEntity
  8
0
 62
     7
370
    35
100
AcDbLine
 10
17.42080336765272
 20
75.72570194755982
 30
0.0
 11
17.42080336765272
 21
33.05147694755979
 31
0.0
  0
LINE
  5
328
330
1F
100
AcDbEntity
  8
0
 62
     7
 48
0.044999
370
    35
100
AcDbLine
 10
17.42080336765272
 20
31.25151994755984
 30
0.0
 11
17.42080336765272
 21
33.05147694755979
 31
0.0
  0
LINE
  5
329
330
1F
100
AcDbEntity
  8
0
 62
     7
 48
0.057497
370
    35
100
AcDbLine
 10
17.42080336765272
 20
93.2755369475598
 30
0.0
 11
17.42080336765272
 21
95.57543294755985
 31
0.0
  0
LINE
  5
32A
330
1F
100
AcDbEntity
  8
0
 62
     7
 48
0.438746
370
    35
100
AcDbLine
 10
17.42080336765272
 20
75.72570194755982
 30
0.0
 11
17.42080336765272
 21
93.2755369475598
 31
0.0
  0
LINE
  5
32B
330
1F
100
AcDbEntity
  8
0
 62
     7
 48
0.003713
370
    35
100
AcDbLine
 10
17.42080336765272
 20
95.72396194755985
 30
0.0
 11
17.42080336765272
 21
95.57543294755985
 31
0.0
  0
ARC
  5
32C
330
1F
100
AcDbEntity
  8
0
 62
     7
370
    35
100
AcDbCircle
 10
17.62081536765268
 20
95.72396194755985
 30
0.0
 40
0.200004
100
AcDbArc
 50
90.00166900000079
 51
180.0008829999983
  0
LINE
  5
32D
330
1F
100
AcDbEntity
  8
0
 62
     7
 48
0.003232
370
    35
100
AcDbLine
 10
17.42080336765272
 20
31.25151994755984
 30
0.0
 11
17.42080336765272
 21
31.12224694755983
 31
0.0
  0
ARC
  5
32E
330
1F
100
AcDbEntity
  8
0
 62
     7
370
    35
100
AcDbCircle
 10
17.61977836765268
 20
31.12322394755981
 30
0.0
 40
0.199099
100
AcDbArc
 50
180.2805110000001
 51
270.295827000001
  0
LINE
  5
32F
330
1F
100
AcDbEntity
  8
0
 62
     7
 48
0.003713
370
    35
100
AcDbLine
 10
17.42080336765272
 20
11.12398694755981
 30
0.0
 11
17.42080336765272
 21
11.27251594755981
 31
0.0
  0
ARC
  5
330
330
1F
100
AcDbEntity
  8
0
 62
     7
370
    35
100
AcDbCircle
 10
17.62081536765268
 20
11.12398694755981
 30
0.0
 40
0.200004
100
AcDbArc
 50
179.9991170000016
 51
269.9983309999992
  0
LINE
  5
331
330
1F
100
AcDbEntity
  8
0
 62
     7
 48
0.438746
370
    35
100
AcDbLine
 10
17.42080336765272
 20
13.5724119475598
 30
0.0
 11
17.42080336765272
 21
31.12224694755983
 31
0.0
  0
LINE
  5
332
330
1F
100
AcDbEntity
  8
0
 62
     7
 48
0.4512500000000001
370
    13
100
AcDbLine
 10
43.92080336765277
 20
73.79647194755981
 30
0.0
 11
62.42080336765273
 21
73.79647194755981
 31
0.0
  0
LINE
  5
333
330
1F
100
AcDbEntity
  8
0
 62
     7
 48
0.4512500000000001
370
    13
100
AcDbLine
 10
43.92080336765277
 20
33.05147694755979
 30
0.0
 11
62.42080336765266
 21
33.05147694755979
 31
0.0
  0
LINE
  5
334
330
1F
100
AcDbEntity
  8
0
 62
     7
370
    35
100
AcDbLine
 10
17.6208095416271
 20
95.92396594747496
 30
0.0
 11
62.22079720065974
 21
95.92396594747478
 31
0.0
  0
LINE
  5
335
330
1F
100
AcDbEntity
  8
0
 62
     7
370
    35
100
AcDbLine
 10
17.6208095416271
 20
10.92398294764464
 30
0.0
 11
62.22079717622463
 21
10.92398294764413
 31
0.0
  0
LINE
  5
336
330
1F
100
AcDbEntity
  8
0
 62
     7
370
    13
100
AcDbLine
 10
17.42080336765272
 20
13.5724119475598
 30
0.0
 11
62.42080336765273
 21
13.5724119475598
 31
0.0
  0
LINE
  5
337
330
1F
100
AcDbEntity
  8
0
 62
     7
 48
0.057497
370
    35
100
AcDbLine
 10
62.42080336765273
 20
11.27251594755981
 30
0.0
 11
62.42080336765273
 21
13.5724119475598
 31
0.0
  0
LINE
  5
338
330
1F
100
AcDbEntity
  8
0
 62
     7
370
    35
100
AcDbLine
 10
62.42080336765273
 20
75.72570194755982
 30
0.0
 11
62.42080336765273
 21
33.05147694755979
 31
0.0
  0
LINE
  5
339
330
1F
100
AcDbEntity
  8
0
 62
     7
 48
0.044999
370
    35
100
AcDbLine
 10
62.42080336765273
 20
31.25151994755984
 30
0.0
 11
62.42080336765273
 21
33.05147694755979
 31
0.0
  0
LINE
  5
33A
330
1F
100
AcDbEntity
  8
0
 62
     7
 48
0.057497
370
    35
100
AcDbLine
 10
62.42080336765273
 20
93.2755369475598
 30
0.0
 11
62.42080336765273
 21
95.57543294755985
 31
0.0
  0
LINE
  5
33B
330
1F
100
AcDbEntity
  8
0
 62
     7
 48
0.438746
370
    35
100
AcDbLine
 10
62.42080336765273
 20
93.2755369475598
 30
0.0
 11
62.42080336765273
 21
75.72570194755982
 31
0.0
  0
LINE
  5
33C
330
1F
100
AcDbEntity
  8
0
 62
     7
 48
0.003713
370
    35
100
AcDbLine
 10
62.42080336765273
 20
95.57543294755985
 30
0.0
 11
62.42080336765273
 21
95.72396194755985
 31
0.0
  0
ARC
  5
33D
330
1F
100
AcDbEntity
  8
0
 62
     7
370
    35
100
AcDbCircle
 10
62.22079136765271
 20
95.72396194755985
 30
0.0
 40
0.200004
100
AcDbArc
 50
359.9991079999987
 51
89.99832899999965
  0
LINE
  5
33E
330
1F
100
AcDbEntity
  8
0
 62
     7
 48
0.003232
370
    35
100
AcDbLine
 10
62.42080336765273
 20
31.25151994755984
 30
0.0
 11
62.42080336765273
 21
31.12224694755983
 31
0.0
  0
ARC
  5
33F
330
1F
100
AcDbEntity
  8
0
 62
     7
370
    35
100
AcDbCircle
 10
62.2218283676527
 20
31.12322394755981
 30
0.0
 40
0.199099
100
AcDbArc
 50
269.7041680000002
 51
359.7194799999999
  0
LINE
  5
340
330
1F
100
AcDbEntity
  8
0
 62
     7
 48
0.003713
370
    35
100
AcDbLine
 10
62.42080336765273
 20
11.27251594755981
 30
0.0
 11
62.42080336765273
 21
11.12398694755981
 31
0.0
  0
ARC
  5
341
330
1F
100
AcDbEntity
  8
0
 62
     7
370
    35
100
AcDbCircle
 10
62.22079136765271
 20
11.12398694755981
 30
0.0
 40
0.200004
100
AcDbArc
 50
270.0016640000003
 51
0.0008839999997646
  0
LINE
  5
342
330
1F
100
AcDbEntity
  8
0
 62
     7
 48
0.438746
370
    35
100
AcDbLine
 10
62.42080336765273
 20
31.12224694755983
 30
0.0
 11
62.42080336765273
 21
13.5724119475598
 31
0.0
  0
CIRCLE
  5
343
330
1F
100
AcDbEntity
  8
0
 62
     7
370
    35
100
AcDbCircle
 10
39.92080336765278
 20
79.42397494755979
 30
0.0
 40
3.150000000000005
  0
CIRCLE
  5
344
330
1F
100
AcDbEntity
  8
0
 62
     7
370
    35
100
AcDbCircle
 10
50.92080336765278
 20
27.4239749475598
 30
0.0
 40
3.150000000000005
  0
CIRCLE
  5
345
330
1F
100
AcDbEntity
  8
0
 62
     7
370
    35
100
AcDbCircle
 10
28.92080336765278
 20
27.4239749475598
 30
0.0
 40
3.150000000000005
  0
LINE
  5
346
330
1F
100
AcDbEntity
  8
0
 62
     7
370
    35
100
AcDbLine
 10
17.61965942281622
 20
30.92412498308957
 30
0.0
 11
62.22080037581517
 21
30.92412760145121
 31
0.0
  0
ARC
  5
347
330
1F
100
AcDbEntity
  8
0
 62
     7
370
    35
100
AcDbCircle
 10
39.92080336765278
 20
53.4239749475598
 30
0.0
 40
20.5
100
AcDbArc
 50
101.2518439999992
 51
258.7481690000008
  0
ARC
  5
348
330
1F
100
AcDbEntity
  8
0
 62
     7
370
    35
100
AcDbCircle
 10
39.92080336765278
 20
53.4239749475598
 30
0.0
 40
20.5
100
AcDbArc
 50
281.2518329999996
 51
78.74815400000032
  0
LINE
  5
349
330
1F
100
AcDbEntity
  8
0
 62
     7
 48
0.000355
370
    35
100
AcDbLine
 10
35.92080336765278
 20
31.25914894755985
 30
0.0
 11
35.92080336765278
 21
31.27333994755978
 31
0.0
  0
LINE
  5
34A
330
1F
100
AcDbEntity
  8
0
 62
     7
 48
0.044998
370
    35
100
AcDbLine
 10
35.92080336765278
 20
33.0732669475598
 30
0.0
 11
35.92080336765278
 21
31.27333994755978
 31
0.0
  0
LINE
  5
34B
330
1F
100
AcDbEntity
  8
0
 62
     7
 48
0.006119
370
    35
100
AcDbLine
 10
35.92080336765278
 20
33.31801794755981
 30
0.0
 11
35.92080336765278
 21
33.0732669475598
 31
0.0
  0
LINE
  5
34C
330
1F
100
AcDbEntity
  8
0
 62
     7
 48
0.005
370
    13
100
AcDbLine
 10
36.12080036765272
 20
33.0732669475598
 30
0.0
 11
35.92080336765278
 21
33.0732669475598
 31
0.0
  0
POLYLINE
  5
34D
330
1F
100
AcDbEntity
  8
0
 62
     7
370
    13
100
AcDb2dPolyline
 66
     1
 10
0.0
 20
0.0
 30
0.0
  0
VERTEX
  5
34E
330
34D
100
AcDbEntity
  8
0
370
     0
100
AcDbVertex
100
AcDb2dVertex
 10
35.92080336765278
 20
31.27333994755978
 30
0.0
  0
VERTEX
  5
34F
330
34D
100
AcDbEntity
  8
0
370
     0
100
AcDbVertex
100
AcDb2dVertex
 10
35.93122536765273
 20
31.20961894755979
 30
0.0
  0
VERTEX
  5
350
330
34D
100
AcDbEntity
  8
0
370
     0
100
AcDbVertex
100
AcDb2dVertex
 10
35.9614073676527
 20
31.15255094755983
 30
0.0
  0
VERTEX
  5
351
330
34D
100
AcDbEntity
  8
0
370
     0
100
AcDbVertex
100
AcDb2dVertex
 10
36.0081903676527
 20
31.10808694755983
 30
0.0
  0
VERTEX
  5
352
330
34D
100
AcDbEntity
  8
0
370
     0
100
AcDbVertex
100
AcDb2dVertex
 10
36.12080036765272
 20
31.0733579475598
 30
0.0
  0
SEQEND
  5
353
330
34D
100
AcDbEntity
  8
0
370
     0
  0
LINE
  5
354
330
1F
100
AcDbEntity
  8
0
 62
     7
 48
0.006119
370
    35
100
AcDbLine
 10
43.92080336765277
 20
33.31801794755981
 30
0.0
 11
43.92080336765277
 21
33.0732669475598
 31
0.0
  0
LINE
  5
355
330
1F
100
AcDbEntity
  8
0
 62
     7
 48
0.044998
370
    35
100
AcDbLine
 10
43.92080336765277
 20
33.0732669475598
 30
0.0
 11
43.92080336765277
 21
31.27333994755978
 31
0.0
  0
LINE
  5
356
330
1F
100
AcDbEntity
  8
0
 62
     7
 48
0.000355
370
    35
100
AcDbLine
 10
43.92080336765277
 20
31.25914894755985
 30
0.0
 11
43.92080336765277
 21
31.27333994755978
 31
0.0
  0
LINE
  5
357
330
1F
100
AcDbEntity
  8
0
 62
     7
 48
0.19
370
    13
100
AcDbLine
 10
36.12080036765272
 20
31.0733579475598
 30
0.0
 11
43.72080636765272
 21
31.0733579475598
 31
0.0
  0
LINE
  5
358
330
1F
100
AcDbEntity
  8
0
 62
     7
 48
0.19
370
    13
100
AcDbLine
 10
36.12080036765272
 20
33.0732669475598
 30
0.0
 11
43.72080636765272
 21
33.0732669475598
 31
0.0
  0
POLYLINE
  5
359
330
1F
100
AcDbEntity
  8
0
 62
     7
370
    13
100
AcDb2dPolyline
 66
     1
 10
0.0
 20
0.0
 30
0.0
  0
VERTEX
  5
35A
330
359
100
AcDbEntity
  8
0
370
     0
100
AcDbVertex
100
AcDb2dVertex
 10
43.72080636765272
 20
31.0733579475598
 30
0.0
  0
VERTEX
  5
35B
330
359
100
AcDbEntity
  8
0
370
     0
100
AcDbVertex
100
AcDb2dVertex
 10
43.78452736765271
 20
31.08376494755979
 30
0.0
  0
VERTEX
  5
35C
330
359
100
AcDbEntity
  8
0
370
     0
100
AcDbVertex
100
AcDb2dVertex
 10
43.84159536765273
 20
31.11394594755982
 30
0.0
  0
VERTEX
  5
35D
330
359
100
AcDbEntity
  8
0
370
     0
100
AcDbVertex
100
AcDb2dVertex
 10
43.88608936765277
 20
31.16072994755981
 30
0.0
  0
VERTEX
  5
35E
330
359
100
AcDbEntity
  8
0
370
     0
100
AcDbVertex
100
AcDb2dVertex
 10
43.92080336765277
 20
31.27333994755978
 30
0.0
  0
SEQEND
  5
35F
330
359
100
AcDbEntity
  8
0
370
     0
  0
LINE
  5
360
330
1F
100
AcDbEntity
  8
0
 62
     7
 48
0.005
370
    13
100
AcDbLine
 10
43.72080636765272
 20
33.0732669475598
 30
0.0
 11
43.92080336765277
 21
33.0732669475598
 31
0.0
  0
LINE
  5
361
330
1F
100
AcDbEntity
  8
0
 62
     7
 48
0.006119
370
    35
100
AcDbLine
 10
43.92080336765277
 20
73.77468294755979
 30
0.0
 11
43.92080336765277
 21
73.52993194755979
 31
0.0
  0
LINE
  5
362
330
1F
100
AcDbEntity
  8
0
 62
     7
 48
0.005
370
    13
100
AcDbLine
 10
43.72080636765272
 20
73.77468294755979
 30
0.0
 11
43.92080336765277
 21
73.77468294755979
 31
0.0
  0
LINE
  5
363
330
1F
100
AcDbEntity
  8
0
 62
     7
 48
0.006119
370
    35
100
AcDbLine
 10
35.92080336765278
 20
73.77468294755979
 30
0.0
 11
35.92080336765278
 21
73.52993194755979
 31
0.0
  0
LINE
  5
364
330
1F
100
AcDbEntity
  8
0
 62
     7
 48
0.19
370
    13
100
AcDbLine
 10
36.12080036765272
 20
73.77468294755979
 30
0.0
 11
43.72080636765272
 21
73.77468294755979
 31
0.0
  0
LINE
  5
365
330
1F
100
AcDbEntity
  8
0
 62
     7
 48
0.005
370
    13
100
AcDbLine
 10
36.12080036765272
 20
73.77468294755979
 30
0.0
 11
35.92080336765278
 21
73.77468294755979
 31
0.0
  0
LINE
  5
366
330
1F
100
AcDbEntity
  8
0
 62
     7
 48
0.03625
370
    35
100
AcDbLine
 10
39.92080336765278
 20
84.82396794755985
 30
0.0
 11
38.47080636765273
 21
84.82396794755985
 31
0.0
  0
LINE
  5
367
330
1F
100
AcDbEntity
  8
0
 62
     7
 48
0.03625
370
    35
100
AcDbLine
 10
39.92080336765278
 20
84.82396794755985
 30
0.0
 11
41.37080036765271
 21
84.82396794755985
 31
0.0
  0
LINE
  5
368
330
1F
100
AcDbEntity
  8
0
 62
     7
 48
0.01625
370
    35
100
AcDbLine
 10
41.37080036765271
 20
84.82396794755985
 30
0.0
 11
41.37080036765271
 21
85.47396194755984
 31
0.0
  0
LINE
  5
369
330
1F
100
AcDbEntity
  8
0
 62
     7
 48
0.03625
370
    35
100
AcDbLine
 10
39.92080336765278
 20
85.47396194755984
 30
0.0
 11
41.37080036765271
 21
85.47396194755984
 31
0.0
  0
LINE
  5
36A
330
1F
100
AcDbEntity
  8
0
 62
     7
 48
0.03625
370
    35
100
AcDbLine
 10
39.92080336765278
 20
85.47396194755984
 30
0.0
 11
38.47080636765273
 21
85.47396194755984
 31
0.0
  0
LINE
  5
36B
330
1F
100
AcDbEntity
  8
0
 62
     7
 48
0.01625
370
    35
100
AcDbLine
 10
38.47080636765273
 20
84.82396794755985
 30
0.0
 11
38.47080636765273
 21
85.47396194755984
 31
0.0
  0
LINE
  5
36C
330
1F
100
AcDbEntity
  8
0
 62
     7
 48
0.060625
370
    35
100
AcDbLine
 10
40.24580036765271
 20
88.07396794755986
 30
0.0
 11
42.67080336765277
 21
88.07396794755986
 31
0.0
  0
LINE
  5
36D
330
1F
100
AcDbEntity
  8
0
 62
     7
 48
0.055
370
    35
100
AcDbLine
 10
40.24580036765271
 20
88.07396794755986
 30
0.0
 11
40.24580036765271
 21
90.2739809475598
 31
0.0
  0
LINE
  5
36E
330
1F
100
AcDbEntity
  8
0
 62
     7
 48
0.008125
370
    35
100
AcDbLine
 10
39.92080336765278
 20
90.2739809475598
 30
0.0
 11
40.24580036765271
 21
90.2739809475598
 31
0.0
  0
LINE
  5
36F
330
1F
100
AcDbEntity
  8
0
 62
     7
 48
0.008125
370
    35
100
AcDbLine
 10
39.92080336765278
 20
90.2739809475598
 30
0.0
 11
39.59580636765273
 21
90.2739809475598
 31
0.0
  0
LINE
  5
370
330
1F
100
AcDbEntity
  8
0
 62
     7
 48
0.055
370
    35
100
AcDbLine
 10
39.59580636765273
 20
88.07396794755986
 30
0.0
 11
39.59580636765273
 21
90.2739809475598
 31
0.0
  0
LINE
  5
371
330
1F
100
AcDbEntity
  8
0
 62
     7
 48
0.060625
370
    35
100
AcDbLine
 10
39.59580636765273
 20
88.07396794755986
 30
0.0
 11
37.17080336765278
 21
88.07396794755986
 31
0.0
  0
LINE
  5
372
330
1F
100
AcDbEntity
  8
0
 62
     7
 48
0.01625
370
    35
100
AcDbLine
 10
37.17080336765278
 20
87.4239749475598
 30
0.0
 11
37.17080336765278
 21
88.07396794755986
 31
0.0
  0
LINE
  5
373
330
1F
100
AcDbEntity
  8
0
 62
     7
 48
0.06875
370
    35
100
AcDbLine
 10
39.92080336765278
 20
87.4239749475598
 30
0.0
 11
37.17080336765278
 21
87.4239749475598
 31
0.0
  0
LINE
  5
374
330
1F
100
AcDbEntity
  8
0
 62
     7
 48
0.06875
370
    35
100
AcDbLine
 10
39.92080336765278
 20
87.4239749475598
 30
0.0
 11
42.67080336765277
 21
87.4239749475598
 31
0.0
  0
LINE
  5
375
330
1F
100
AcDbEntity
  8
0
 62
     7
 48
0.01625
370
    35
100
AcDbLine
 10
42.67080336765277
 20
87.4239749475598
 30
0.0
 11
42.67080336765277
 21
88.07396794755986
 31
0.0
  0
POINT
  5
376
330
1F
100
AcDbEntity
  8
0
 62
     7
370
     5
100
AcDbPoint
 10
39.92080336765278
 20
87.4239749475598
 30
0.0
  0
DIMENSION
  5
377
330
1F
100
AcDbEntity
  8
QUOTE
 62
     1
100
AcDbDimension
  2
*D7
 10
62.42081036767641
 20
103.4239435364057
 30
0.0
 11
39.92081086767641
 21
103.4239435364057
 31
0.0
 70
    32
 71
     5
 42
44.999999
  3
Standard
100
AcDbAlignedDimension
 13
17.4208113676764
 23
95.72395294747499
 33
0.0
 14
62.42081036767641
 24
95.72395294747499
 34
0.0
100
AcDbRotatedDimension
1001
ACAD
1000
DSTYLE
1002
{
1070
   271
1070
     1
1070
    41
1040
5.0
1070
   140
1040
5.0
1002
}
  0
DIMENSION
  5
378
330
1F
100
AcDbEntity
  8
QUOTE
 62
     1
100
AcDbDimension
  2
*D8
 10
6.678190209903419
 20
95.92396594747496
 30
0.0
 11
6.678190209903402
 21
53.42396994751741
 31
0.0
 70
    32
 71
     5
 42
84.9999919999151
  3
Standard
100
AcDbAlignedDimension
 13
17.87080754165086
 23
10.92397394755986
 33
0.0
 14
17.8708103676764
 24
95.92396594747496
 34
0.0
 50
90.0
100
AcDbRotatedDimension
1001
ACAD
1000
DSTYLE
1002
{
1070
   271
1070
     1
1070
    41
1040
5.0
1070
   140
1040
5.0
1002
}
  0
ARC
  5
379
330
1F
100
AcDbEntity
  8
0
 62
     7
370
    35
100
AcDbCircle
 10
42.50248535892589
 20
7.841707779921733
 30
0.0
 40
0.5
100
AcDbArc
 50
269.9999969999991
 51
344.9999999999993
  0
ARC
  5
37A
330
1F
100
AcDbEntity
  8
0
 62
     7
370
    35
100
AcDbCircle
 10
37.3391203589259
 20
7.841707779921733
 30
0.0
 40
0.5
100
AcDbArc
 50
195.0000060000005
 51
269.9999969999991
  0
LINE
  5
37B
330
1F
100
AcDbEntity
  8
0
 62
     7
 48
0.129084
370
    35
100
AcDbLine
 10
42.50248535892589
 20
7.341707779921733
 30
0.0
 11
37.3391203589259
 21
7.341707779921733
 31
0.0
  0
LINE
  5
37C
330
1F
100
AcDbEntity
  8
0
 62
     7
 48
0.019411
370
    35
100
AcDbLine
 10
42.98544835892593
 20
7.712297779921726
 30
0.0
 11
43.18641035892594
 21
8.462297779921726
 31
0.0
  0
ARC
  5
37D
330
1F
100
AcDbEntity
  8
0
 62
     7
370
    35
100
AcDbCircle
 10
42.7034473589259
 20
8.591707779921733
 30
0.0
 40
0.5
100
AcDbArc
 50
344.9999999999993
 51
90.00000300000095
  0
LINE
  5
37E
330
1F
100
AcDbEntity
  8
0
 62
     7
 48
0.019411
370
    35
100
AcDbLine
 10
36.85615735892592
 20
7.712297779921726
 30
0.0
 11
36.65519635892591
 21
8.462297779921726
 31
0.0
  0
ARC
  5
37F
330
1F
100
AcDbEntity
  8
0
 62
     7
370
    35
100
AcDbCircle
 10
37.13815835892595
 20
8.591707779921733
 30
0.0
 40
0.5
100
AcDbArc
 50
90.00000300000095
 51
195.0000060000005
  0
LINE
  5
380
330
1F
100
AcDbEntity
  8
0
 62
     7
 48
0.018868
370
    35
100
AcDbLine
 10
37.89287335892593
 20
9.091707779921733
 30
0.0
 11
37.13815835892595
 21
9.091707779921733
 31
0.0
  0
ARC
  5
381
330
1F
100
AcDbEntity
  8
0
 62
     7
370
    35
100
AcDbCircle
 10
37.89287335892593
 20
9.39170677992169
 30
0.0
 40
0.3
100
AcDbArc
 50
269.9999969999991
 51
351.5850319999997
  0
LINE
  5
382
330
1F
100
AcDbEntity
  8
0
 62
     7
 48
0.018868
370
    35
100
AcDbLine
 10
42.7034473589259
 20
9.091707779921733
 30
0.0
 11
41.94873335892592
 21
9.091707779921733
 31
0.0
  0
ARC
  5
383
330
1F
100
AcDbEntity
  8
0
 62
     7
370
    35
100
AcDbCircle
 10
39.9208033589259
 20
9.091707779921733
 30
0.0
 40
1.75
100
AcDbArc
 50
8.414968000000305
 51
171.5850339999998
  0
ARC
  5
384
330
1F
100
AcDbEntity
  8
0
 62
     7
370
    35
100
AcDbCircle
 10
41.94873335892592
 20
9.39170677992169
 30
0.0
 40
0.3
100
AcDbArc
 50
188.4149660000002
 51
269.9999969999991
  0
LINE
  5
385
330
1F
100
AcDbEntity
  8
0
 62
     7
 48
0.061249
370
    35
100
AcDbLine
 10
45.26058035892591
 20
8.475801779921738
 30
0.0
 11
45.89467335892592
 21
10.9239829476443
 31
0.0
  0
LINE
  5
386
330
1F
100
AcDbEntity
  8
0
 62
     7
 48
0.033158
370
    35
100
AcDbLine
 10
45.26058035892591
 20
8.475801779921738
 30
0.0
 11
44.91730035892593
 21
7.194658779921695
 31
0.0
  0
ARC
  5
387
330
1F
100
AcDbEntity
  8
0
 62
     7
370
    35
100
AcDbCircle
 10
42.50248535892589
 20
7.841707779921733
 30
0.0
 40
2.5
100
AcDbArc
 50
269.9999969999991
 51
344.9999999999993
  0
LINE
  5
388
330
1F
100
AcDbEntity
  8
0
 62
     7
 48
0.129084
370
    35
100
AcDbLine
 10
37.3391203589259
 20
5.341707779921733
 30
0.0
 11
42.50248535892589
 21
5.341707779921733
 31
0.0
  0
ARC
  5
389
330
1F
100
AcDbEntity
  8
0
 62
     7
370
    35
100
AcDbCircle
 10
37.3391203589259
 20
7.841707779921733
 30
0.0
 40
2.5
100
AcDbArc
 50
195.0000060000005
 51
269.9999969999991
  0
LINE
  5
38A
330
1F
100
AcDbEntity
  8
0
 62
     7
 48
0.033158
370
    35
100
AcDbLine
 10
34.58102535892593
 20
8.475801779921738
 30
0.0
 11
34.92430535892592
 21
7.194658779921695
 31
0.0
  0
LINE
  5
38B
330
1F
100
AcDbEntity
  8
0
 62
     7
 48
0.061234
370
    35
100
AcDbLine
 10
34.58102535892593
 20
8.475801779921738
 30
0.0
 11
33.94708335892594
 21
10.92398294764447
 31
0.0
  0
LINE
  5
38C
330
1F
100
AcDbEntity
  8
0
 62
     7
 48
0.4337890000000001
370
    35
100
AcDbLine
 10
144.7899670567359
 20
76.02979694745261
 30
0.0
 11
144.7899670567359
 21
93.38134394745262
 31
0.0
  0
ARC
  5
38D
330
1F
100
AcDbEntity
  8
0
 62
     7
370
    35
100
AcDbCircle
 10
142.2899670567359
 20
93.38134394745262
 30
0.0
 40
2.5
100
AcDbArc
 50
0.0
 51
89.49999900000152
  0
LINE
  5
38E
330
1F
100
AcDbEntity
  8
0
 62
     7
 48
0.36545
370
    35
100
AcDbLine
 10
161.8107002247612
 20
75.9022319474526
 30
0.0
 11
144.7899670567359
 21
76.02979694745261
 31
0.0
  0
LINE
  5
38F
330
1F
100
AcDbEntity
  8
0
 62
     7
370
    35
100
AcDbLine
 10
163.7932472247612
 20
73.90230794745261
 30
0.0
 11
163.7932472247612
 21
33.15728594745261
 31
0.0
  0
ARC
  5
390
330
1F
100
AcDbEntity
  8
0
 62
     7
370
    35
100
AcDbCircle
 10
161.7932472247612
 20
73.90230794745261
 30
0.0
 40
2.0
100
AcDbArc
 50
0.0
 51
89.49999900000152
  0
LINE
  5
391
330
1F
100
AcDbEntity
  8
0
 62
     7
 48
0.4255620000000001
370
    35
100
AcDbLine
 10
125.2899670567359
 20
96.02979694745261
 30
0.0
 11
142.3117840567359
 21
95.88124894745261
 31
0.0
  0
ARC
  5
392
330
1F
100
AcDbEntity
  8
0
 62
     7
370
    35
100
AcDbCircle
 10
142.5899760567359
 20
20.92980594745265
 30
0.0
 40
0.199989
100
AcDbArc
 50
359.9993879999977
 51
90.00057600000067
  0
LINE
  5
393
330
1F
100
AcDbEntity
  8
0
 62
     7
 48
0.188726
370
    35
100
AcDbLine
 10
142.7899670567359
 20
20.92980594745265
 30
0.0
 11
142.7899670567359
 21
13.38077194745264
 31
0.0
  0
ARC
  5
394
330
1F
100
AcDbEntity
  8
0
 62
     7
370
    35
100
AcDbCircle
 10
142.5899770567359
 20
13.3807679474526
 30
0.0
 40
0.199989
100
AcDbArc
 50
270.4994070000007
 51
0.0005610000024053
  0
ARC
  5
395
330
1F
100
AcDbEntity
  8
0
 62
     7
370
    35
100
AcDbCircle
 10
127.4899570567358
 20
13.24899294745259
 30
0.0
 40
0.199989
100
AcDbArc
 50
179.9993770000017
 51
270.5005890000015
  0
LINE
  5
396
330
1F
100
AcDbEntity
  8
0
 62
     7
 48
0.377515
370
    35
100
AcDbLine
 10
142.5917190567358
 20
13.18078694745262
 30
0.0
 11
127.4917040567358
 21
13.04901194745261
 31
0.0
  0
LINE
  5
397
330
1F
100
AcDbEntity
  8
0
 62
     7
 48
0.19202
370
    35
100
AcDbLine
 10
127.2899670567359
 20
13.24899694745258
 30
0.0
 11
127.2899670567359
 21
20.92980594745265
 31
0.0
  0
ARC
  5
398
330
1F
100
AcDbEntity
  8
0
 62
     7
370
    35
100
AcDbCircle
 10
127.4899570567358
 20
20.92980594745265
 30
0.0
 40
0.199989
100
AcDbArc
 50
89.99938800000093
 51
180.0005819999993
  0
LINE
  5
399
330
1F
100
AcDbEntity
  8
0
 62
     7
 48
0.3775
370
    35
100
AcDbLine
 10
127.4899590567358
 20
21.12979494745261
 30
0.0
 11
142.5899740567358
 21
21.12979494745261
 31
0.0
  0
ARC
  5
39A
330
1F
100
AcDbEntity
  8
0
 62
     7
370
    35
100
AcDbCircle
 10
133.8899680567358
 20
25.72979794745263
 30
0.0
 40
0.2
100
AcDbArc
 50
269.9999969999991
 51
0.0
  0
LINE
  5
39B
330
1F
100
AcDbEntity
  8
0
 62
     7
 48
0.14
370
    35
100
AcDbLine
 10
134.0899670567358
 20
25.72979794745263
 30
0.0
 11
134.0899670567358
 21
31.3297959474526
 31
0.0
  0
ARC
  5
39C
330
1F
100
AcDbEntity
  8
0
 62
     7
370
    35
100
AcDbCircle
 10
133.8899680567358
 20
31.3297959474526
 30
0.0
 40
0.2
100
AcDbArc
 50
0.0
 51
90.00000300000095
  0
ARC
  5
39D
330
1F
100
AcDbEntity
  8
0
 62
     7
370
    35
100
AcDbCircle
 10
130.2899670567359
 20
31.3297959474526
 30
0.0
 40
0.2
100
AcDbArc
 50
90.00000300000095
 51
180.0000050000005
  0
LINE
  5
39E
330
1F
100
AcDbEntity
  8
0
 62
     7
 48
0.14
370
    35
100
AcDbLine
 10
130.0899670567358
 20
25.72979794745263
 30
0.0
 11
130.0899670567358
 21
31.3297959474526
 31
0.0
  0
ARC
  5
39F
330
1F
100
AcDbEntity
  8
0
 62
     7
370
    35
100
AcDbCircle
 10
130.2899670567359
 20
25.72979794745263
 30
0.0
 40
0.2
100
AcDbArc
 50
180.0000050000005
 51
269.9999969999991
  0
LINE
  5
3A0
330
1F
100
AcDbEntity
  8
0
 62
     7
 48
0.09
370
    35
100
AcDbLine
 10
133.8899680567358
 20
25.52979694745258
 30
0.0
 11
130.2899670567359
 21
25.52979694745258
 31
0.0
  0
LINE
  5
3A1
330
1F
100
AcDbEntity
  8
0
 62
     7
 48
0.09
370
    35
100
AcDbLine
 10
133.8899680567358
 20
31.52979694745258
 30
0.0
 11
130.2899670567359
 21
31.52979694745258
 31
0.0
  0
ARC
  5
3A2
330
1F
100
AcDbEntity
  8
0
 62
     7
370
    35
100
AcDbCircle
 10
130.2899670567359
 20
81.32979594745259
 30
0.0
 40
0.2
100
AcDbArc
 50
90.00000300000095
 51
180.0000050000005
  0
LINE
  5
3A3
330
1F
100
AcDbEntity
  8
0
 62
     7
 48
0.14
370
    35
100
AcDbLine
 10
130.0899670567358
 20
81.32979594745259
 30
0.0
 11
130.0899670567358
 21
75.72979794745262
 31
0.0
  0
ARC
  5
3A4
330
1F
100
AcDbEntity
  8
0
 62
     7
370
    35
100
AcDbCircle
 10
130.2899670567359
 20
75.72979794745262
 30
0.0
 40
0.2
100
AcDbArc
 50
180.0000050000005
 51
269.9999969999991
  0
ARC
  5
3A5
330
1F
100
AcDbEntity
  8
0
 62
     7
370
    35
100
AcDbCircle
 10
133.8899680567358
 20
81.32979594745259
 30
0.0
 40
0.2
100
AcDbArc
 50
0.0
 51
90.00000300000095
  0
LINE
  5
3A6
330
1F
100
AcDbEntity
  8
0
 62
     7
 48
0.14
370
    35
100
AcDbLine
 10
134.0899670567358
 20
81.32979594745259
 30
0.0
 11
134.0899670567358
 21
75.72979794745262
 31
0.0
  0
ARC
  5
3A7
330
1F
100
AcDbEntity
  8
0
 62
     7
370
    35
100
AcDbCircle
 10
133.8899680567358
 20
75.72979794745262
 30
0.0
 40
0.2
100
AcDbArc
 50
269.9999969999991
 51
0.0
  0
LINE
  5
3A8
330
1F
100
AcDbEntity
  8
0
 62
     7
 48
0.09
370
    35
100
AcDbLine
 10
133.8899680567358
 20
81.5297969474526
 30
0.0
 11
130.2899670567359
 21
81.5297969474526
 31
0.0
  0
LINE
  5
3A9
330
1F
100
AcDbEntity
  8
0
 62
     7
 48
0.09
370
    35
100
AcDbLine
 10
133.8899680567358
 20
75.5297969474526
 30
0.0
 11
130.2899670567359
 21
75.5297969474526
 31
0.0
  0
LINE
  5
3AA
330
1F
100
AcDbEntity
  8
0
 62
     7
370
    35
100
AcDbLine
 10
125.2899670567359
 20
11.2298049474526
 30
0.0
 11
125.2882289227431
 21
96.029781841367
 31
0.0
  0
LINE
  5
3AB
330
1F
100
AcDbEntity
  8
0
 62
     7
 48
0.4255620000000001
370
    35
100
AcDbLine
 10
125.2899670567359
 20
11.02979694745258
 30
0.0
 11
142.3117840567359
 21
11.17834494745258
 31
0.0
  0
LINE
  5
3AC
330
1F
100
AcDbEntity
  8
0
 62
     7
 48
0.005
370
    35
100
AcDbLine
 10
125.2899670567359
 20
11.02979694745258
 30
0.0
 11
125.2899670567359
 21
11.2298049474526
 31
0.0
  0
ARC
  5
3AD
330
1F
100
AcDbEntity
  8
0
 62
     7
370
    35
100
AcDbCircle
 10
142.2899670567359
 20
13.6782499474526
 30
0.0
 40
2.5
100
AcDbArc
 50
270.5000009999984
 51
0.0
  0
LINE
  5
3AE
330
1F
100
AcDbEntity
  8
0
 62
     7
 48
0.4337890000000001
370
    35
100
AcDbLine
 10
144.7899670567359
 20
13.6782499474526
 30
0.0
 11
144.7899670567359
 21
31.02979694745258
 31
0.0
  0
LINE
  5
3AF
330
1F
100
AcDbEntity
  8
0
 62
     7
 48
0.36545
370
    35
100
AcDbLine
 10
161.8107003306631
 20
31.15736210162888
 30
0.0
 11
144.7899670567359
 21
31.02979694745258
 31
0.0
  0
ARC
  5
3B0
330
1F
100
AcDbEntity
  8
0
 62
     7
370
    35
100
AcDbCircle
 10
161.7932472247612
 20
33.15728594745261
 30
0.0
 40
2.0
100
AcDbArc
 50
270.5000009999984
 51
0.0
  0
LINE
  5
3B1
330
1F
100
AcDbEntity
  8
0
 62
     7
 48
0.062502
370
    35
100
AcDbLine
 10
161.8107002247612
 20
31.15736194745259
 30
0.0
 11
163.7932472247612
 21
31.17466323861223
 31
0.0
  0
LINE
  5
3B2
330
1F
100
AcDbEntity
  8
0
 62
     7
 48
0.01625
370
    35
100
AcDbLine
 10
144.7899670567359
 20
87.52979694745262
 30
0.0
 11
144.7899670567359
 21
88.17979894745262
 31
0.0
  0
LINE
  5
3B3
330
1F
100
AcDbEntity
  8
0
 62
     7
 48
0.055
370
    35
100
AcDbLine
 10
144.7899670567359
 20
88.17979894745262
 30
0.0
 11
144.7899670567359
 21
90.37979494745261
 31
0.0
  0
LINE
  5
3B4
330
1F
100
AcDbEntity
  8
0
 62
     7
 48
0.01625
370
    35
100
AcDbLine
 10
144.7899670567359
 20
84.92979694745262
 30
0.0
 11
144.7899670567359
 21
85.5797959474526
 31
0.0
  0
LINE
  5
3B5
330
1F
100
AcDbEntity
  8
0
 62
     7
 48
0.01625
370
    35
100
AcDbLine
 10
144.7899670567359
 20
86.22979794745262
 30
0.0
 11
144.7899670567359
 21
86.87979494745261
 31
0.0
  0
LINE
  5
3B6
330
1F
100
AcDbEntity
  8
0
 62
     7
 48
0.003739
370
    35
100
AcDbLine
 10
133.9403830567358
 20
76.02979694745261
 30
0.0
 11
134.0899420567358
 21
76.02979694745261
 31
0.0
  0
LINE
  5
3B7
330
1F
100
AcDbEntity
  8
0
 62
     7
 48
0.003739
370
    35
100
AcDbLine
 10
133.9403830567358
 20
81.02979694745261
 30
0.0
 11
134.0899420567358
 21
81.02979694745261
 31
0.0
  0
LINE
  5
3B8
330
1F
100
AcDbEntity
  8
0
 62
     7
 48
0.002467
370
    35
100
AcDbLine
 10
130.0912770567359
 20
76.02979694745261
 30
0.0
 11
130.1899670567358
 21
76.02979694745261
 31
0.0
  0
LINE
  5
3B9
330
1F
100
AcDbEntity
  8
0
 62
     7
 48
0.057147
370
    35
100
AcDbLine
 10
131.6544850567358
 20
76.02979694745261
 30
0.0
 11
133.9403830567358
 21
76.02979694745261
 31
0.0
  0
LINE
  5
3BA
330
1F
100
AcDbEntity
  8
0
 62
     7
 48
0.025
370
    35
100
AcDbLine
 10
130.6544850567358
 20
76.02979694745261
 30
0.0
 11
131.6544850567358
 21
76.02979694745261
 31
0.0
  0
LINE
  5
3BB
330
1F
100
AcDbEntity
  8
0
 62
     7
 48
0.011603
370
    35
100
AcDbLine
 10
130.6544850567358
 20
76.02979694745261
 30
0.0
 11
130.1903830567358
 21
76.02979694745261
 31
0.0
  0
LINE
  5
3BC
330
1F
100
AcDbEntity
  8
0
 62
     7
 48
0.002467
370
    35
100
AcDbLine
 10
130.0912770567359
 20
81.02979694745261
 30
0.0
 11
130.1899670567358
 21
81.02979694745261
 31
0.0
  0
LINE
  5
3BD
330
1F
100
AcDbEntity
  8
0
 62
     7
 48
0.125
370
    13
100
AcDbLine
 10
130.0912770567359
 20
76.02979694745261
 30
0.0
 11
130.0912770567359
 21
81.02979694745261
 31
0.0
  0
LINE
  5
3BE
330
1F
100
AcDbEntity
  8
0
 62
     7
 48
0.151237
370
    13
100
AcDbLine
 10
102.5899690567358
 20
75.50504894745259
 30
0.0
 11
102.5899690567358
 21
81.55454494745262
 31
0.0
  0
LINE
  5
3BF
330
1F
100
AcDbEntity
  8
0
 62
     7
370
    13
100
AcDbLine
 10
102.9969470567358
 20
81.9544829474526
 30
0.0
 11
125.2899670567359
 21
81.56710294745261
 31
0.0
  0
ARC
  5
3C0
330
1F
100
AcDbEntity
  8
0
 62
     7
370
    13
100
AcDbCircle
 10
102.9899660567359
 20
81.55454494745262
 30
0.0
 40
0.4
100
AcDbArc
 50
89.00000099999884
 51
179.9999639999983
  0
ARC
  5
3C1
330
1F
100
AcDbEntity
  8
0
 62
     7
370
    13
100
AcDbCircle
 10
102.9899660567359
 20
75.50504894745259
 30
0.0
 40
0.4
100
AcDbArc
 50
179.9999949999995
 51
270.9999580000015
  0
LINE
  5
3C2
330
1F
100
AcDbEntity
  8
0
 62
     7
370
    13
100
AcDbLine
 10
102.9969470567358
 20
75.10511094745263
 30
0.0
 11
125.2899670567359
 21
75.49249094745261
 31
0.0
  0
LINE
  5
3C3
330
1F
100
AcDbEntity
  8
0
 62
     7
370
    13
100
AcDbLine
 10
102.9969470567358
 20
31.95448294745265
 30
0.0
 11
125.2899670567359
 21
31.56710294745264
 31
0.0
  0
ARC
  5
3C4
330
1F
100
AcDbEntity
  8
0
 62
     7
370
    13
100
AcDbCircle
 10
102.9899660567359
 20
31.55454494745263
 30
0.0
 40
0.4
100
AcDbArc
 50
89.00000099999884
 51
179.9999639999983
  0
LINE
  5
3C5
330
1F
100
AcDbEntity
  8
0
 62
     7
 48
0.151237
370
    13
100
AcDbLine
 10
102.5899690567358
 20
25.50504894745265
 30
0.0
 11
102.5899690567358
 21
31.55454494745263
 31
0.0
  0
ARC
  5
3C6
330
1F
100
AcDbEntity
  8
0
 62
     7
370
    13
100
AcDbCircle
 10
102.9899660567359
 20
25.50504894745265
 30
0.0
 40
0.4
100
AcDbArc
 50
179.9999949999995
 51
270.9999580000015
  0
LINE
  5
3C7
330
1F
100
AcDbEntity
  8
0
 62
     7
370
    13
100
AcDbLine
 10
102.9969470567358
 20
25.10511094745263
 30
0.0
 11
125.2899670567359
 21
25.49249094745264
 31
0.0
  0
LINE
  5
3C8
330
1F
100
AcDbEntity
  8
0
 62
     7
370
    35
100
AcDbLine
 10
125.2899670567359
 20
96.02979694745261
 30
0.0
 11
100.9357480567359
 21
95.81813494745262
 31
0.0
  0
ARC
  5
3C9
330
1F
100
AcDbEntity
  8
0
 62
     7
370
    35
100
AcDbCircle
 10
101.5509900567358
 20
95.02979694745262
 30
0.0
 40
1.0
100
AcDbArc
 50
127.9696589999996
 51
164.5439969999997
  0
LINE
  5
3CA
330
1F
100
AcDbEntity
  8
0
 62
     7
370
    35
100
AcDbLine
 10
125.2899670567359
 20
11.02979694745258
 30
0.0
 11
95.7899650567359
 21
11.02979694745258
 31
0.0
  0
ARC
  5
3CB
330
1F
100
AcDbEntity
  8
0
 62
     7
370
    35
100
AcDbCircle
 10
95.7899650567359
 20
12.02979694745258
 30
0.0
 40
1.0
100
AcDbArc
 50
180.0000050000005
 51
269.9999969999991
  0
LINE
  5
3CC
330
1F
100
AcDbEntity
  8
0
 62
     7
370
    35
100
AcDbLine
 10
94.7899650567359
 20
12.02979694745258
 30
0.0
 11
94.7899650567359
 21
34.82979594745259
 31
0.0
  0
LINE
  5
3CD
330
1F
100
AcDbEntity
  8
0
 62
     7
 48
0.1
370
    35
100
AcDbLine
 10
94.7899650567359
 20
70.3297959474526
 30
0.0
 11
94.7899650567359
 21
74.32979594745259
 31
0.0
  0
ARC
  5
3CE
330
1F
100
AcDbEntity
  8
0
 62
     7
370
    35
100
AcDbCircle
 10
95.79038105673587
 20
70.33021194745263
 30
0.0
 40
1.000413999999999
100
AcDbArc
 50
180.023722999998
 51
269.9762760000005
  0
LINE
  5
3CF
330
1F
100
AcDbEntity
  8
0
 62
     7
 48
0.0425
370
    35
100
AcDbLine
 10
97.48996605673589
 20
69.32979694745259
 30
0.0
 11
95.7899650567359
 21
69.32979694745259
 31
0.0
  0
LINE
  5
3D0
330
1F
100
AcDbEntity
  8
0
 62
     7
 48
0.070711
370
    35
100
AcDbLine
 10
97.48996605673589
 20
69.32979694745259
 30
0.0
 11
99.48996605673588
 21
71.32979594745259
 31
0.0
  0
LINE
  5
3D1
330
1F
100
AcDbEntity
  8
0
 62
     7
 48
0.0325
370
    35
100
AcDbLine
 10
100.7899650567359
 20
71.32979594745259
 30
0.0
 11
99.48996605673588
 21
71.32979594745259
 31
0.0
  0
LINE
  5
3D2
330
1F
100
AcDbEntity
  8
0
 62
     7
370
    35
100
AcDbLine
 10
100.7899650567359
 20
35.8297959474526
 30
0.0
 11
100.7899650567359
 21
71.32979594745259
 31
0.0
  0
LINE
  5
3D3
330
1F
100
AcDbEntity
  8
0
 62
     7
 48
0.125
370
    35
100
AcDbLine
 10
100.7899650567359
 20
35.8297959474526
 30
0.0
 11
95.7899650567359
 21
35.8297959474526
 31
0.0
  0
ARC
  5
3D4
330
1F
100
AcDbEntity
  8
0
 62
     7
370
    35
100
AcDbCircle
 10
95.7899650567359
 20
34.82979594745259
 30
0.0
 40
1.0
100
AcDbArc
 50
90.00000300000095
 51
180.0000050000005
  0
LINE
  5
3D5
330
1F
100
AcDbEntity
  8
0
 62
     7
370
    35
100
AcDbLine
 10
100.5871570567359
 20
95.29629594745259
 30
0.0
 11
94.7899650567359
 21
74.32979594745259
 31
0.0
  0
LINE
  5
3D6
330
1F
100
AcDbEntity
  8
0
 62
     7
 48
0.125
370
    13
100
AcDbLine
 10
130.0912770567359
 20
26.02979694745258
 30
0.0
 11
130.0912770567359
 21
31.02979694745258
 31
0.0
  0
LINE
  5
3D7
330
1F
100
AcDbEntity
  8
0
 62
     7
 48
0.002467
370
    35
100
AcDbLine
 10
130.0912770567359
 20
26.02979694745258
 30
0.0
 11
130.1899670567358
 21
26.02979694745258
 31
0.0
  0
LINE
  5
3D8
330
1F
100
AcDbEntity
  8
0
 62
     7
 48
0.002467
370
    35
100
AcDbLine
 10
130.0912770567359
 20
31.02979694745258
 30
0.0
 11
130.1899670567358
 21
31.02979694745258
 31
0.0
  0
LINE
  5
3D9
330
1F
100
AcDbEntity
  8
0
 62
     7
 48
0.003739
370
    35
100
AcDbLine
 10
133.9403830567358
 20
31.02979694745258
 30
0.0
 11
134.0899420567358
 21
31.02979694745258
 31
0.0
  0
LINE
  5
3DA
330
1F
100
AcDbEntity
  8
0
 62
     7
 48
0.057147
370
    35
100
AcDbLine
 10
131.6544850567358
 20
31.02979694745258
 30
0.0
 11
133.9403830567358
 21
31.02979694745258
 31
0.0
  0
LINE
  5
3DB
330
1F
100
AcDbEntity
  8
0
 62
     7
 48
0.025
370
    35
100
AcDbLine
 10
130.6544850567358
 20
31.02979694745258
 30
0.0
 11
131.6544850567358
 21
31.02979694745258
 31
0.0
  0
LINE
  5
3DC
330
1F
100
AcDbEntity
  8
0
 62
     7
 48
0.011603
370
    35
100
AcDbLine
 10
130.6544850567358
 20
31.02979694745258
 30
0.0
 11
130.1903830567358
 21
31.02979694745258
 31
0.0
  0
LINE
  5
3DD
330
1F
100
AcDbEntity
  8
0
 62
     7
 48
0.003739
370
    35
100
AcDbLine
 10
133.9403830567358
 20
26.02979694745258
 30
0.0
 11
134.0899420567358
 21
26.02979694745258
 31
0.0
  0
LINE
  5
3DE
330
1F
100
AcDbEntity
  8
0
 62
     7
 48
0.125
370
    13
100
AcDbLine
 10
131.6544850567358
 20
31.02979694745258
 30
0.0
 11
131.6544850567358
 21
26.02979694745258
 31
0.0
  0
LINE
  5
3DF
330
1F
100
AcDbEntity
  8
0
 62
     7
 48
0.057147
370
    35
100
AcDbLine
 10
131.6544850567358
 20
26.02979694745258
 30
0.0
 11
133.9403830567358
 21
26.02979694745258
 31
0.0
  0
LINE
  5
3E0
330
1F
100
AcDbEntity
  8
0
 62
     7
 48
0.025
370
    35
100
AcDbLine
 10
130.6544850567358
 20
26.02979694745258
 30
0.0
 11
131.6544850567358
 21
26.02979694745258
 31
0.0
  0
LINE
  5
3E1
330
1F
100
AcDbEntity
  8
0
 62
     7
 48
0.011603
370
    35
100
AcDbLine
 10
130.6544850567358
 20
26.02979694745258
 30
0.0
 11
130.1903830567358
 21
26.02979694745258
 31
0.0
  0
LINE
  5
3E2
330
1F
100
AcDbEntity
  8
0
 62
     7
 48
0.125
370
    13
100
AcDbLine
 10
131.6544850567358
 20
76.02979694745261
 30
0.0
 11
131.6544850567358
 21
81.02979694745261
 31
0.0
  0
LINE
  5
3E3
330
1F
100
AcDbEntity
  8
0
 62
     7
 48
0.057147
370
    35
100
AcDbLine
 10
131.6544850567358
 20
81.02979694745261
 30
0.0
 11
133.9403830567358
 21
81.02979694745261
 31
0.0
  0
LINE
  5
3E4
330
1F
100
AcDbEntity
  8
0
 62
     7
 48
0.025
370
    35
100
AcDbLine
 10
130.6544850567358
 20
81.02979694745261
 30
0.0
 11
131.6544850567358
 21
81.02979694745261
 31
0.0
  0
LINE
  5
3E5
330
1F
100
AcDbEntity
  8
0
 62
     7
 48
0.011603
370
    35
100
AcDbLine
 10
130.6544850567358
 20
81.02979694745261
 30
0.0
 11
130.1903830567358
 21
81.02979694745261
 31
0.0
  0
LINE
  5
3E6
330
1F
100
AcDbEntity
  8
0
 62
     7
 48
0.0425
370
    35
100
AcDbLine
 10
95.18996705673586
 20
7.341707779921733
 30
0.0
 11
96.88996805673586
 21
7.341707779921733
 31
0.0
  0
LINE
  5
3E7
330
1F
100
AcDbEntity
  8
0
 62
     7
 48
0.035
370
    35
100
AcDbLine
 10
94.88996805673584
 20
7.041708779921719
 30
0.0
 11
94.88996805673584
 21
5.64170677992169
 31
0.0
  0
ARC
  5
3E8
330
1F
100
AcDbEntity
  8
0
 62
     7
370
    35
100
AcDbCircle
 10
95.18996705673586
 20
5.64170677992169
 30
0.0
 40
0.3
100
AcDbArc
 50
179.9999949999995
 51
269.9999969999991
  0
ARC
  5
3E9
330
1F
100
AcDbEntity
  8
0
 62
     7
370
    35
100
AcDbCircle
 10
95.18996705673586
 20
7.041708779921719
 30
0.0
 40
0.3
100
AcDbArc
 50
90.00000300000095
 51
147.9869899999986
  0
LINE
  5
3EA
330
1F
100
AcDbEntity
  8
0
 62
     7
 48
0.055
370
    13
100
AcDbLine
 10
98.08996905673584
 20
35.82978694745262
 30
0.0
 11
98.08996905673584
 21
38.02979694745258
 31
0.0
  0
LINE
  5
3EB
330
1F
100
AcDbEntity
  8
0
 62
     7
 48
0.035
370
    35
100
AcDbLine
 10
99.48996605673588
 20
38.02979694745258
 30
0.0
 11
98.08996905673584
 21
38.02979694745258
 31
0.0
  0
LINE
  5
3EC
330
1F
100
AcDbEntity
  8
0
 62
     7
 48
0.055
370
    13
100
AcDbLine
 10
99.48996605673588
 20
35.82978694745262
 30
0.0
 11
99.48996605673588
 21
38.02979694745258
 31
0.0
  0
LINE
  5
3ED
330
1F
100
AcDbEntity
  8
0
 62
     7
 48
0.057206
370
    35
100
AcDbLine
 10
100.6899670567358
 20
8.553446779921699
 30
0.0
 11
100.6899670567359
 21
11.02979694745258
 31
0.0
  0
LINE
  5
3EE
330
1F
100
AcDbEntity
  8
0
 62
     7
 48
0.040765
370
    35
100
AcDbLine
 10
100.6899670567358
 20
7.272306779921763
 30
0.0
 11
100.6899670567358
 21
5.64170677992169
 31
0.0
  0
LINE
  5
3EF
330
1F
100
AcDbEntity
  8
0
 62
     7
 48
0.032028
370
    35
100
AcDbLine
 10
100.6899670567358
 20
8.553446779921699
 30
0.0
 11
100.6899670567358
 21
7.272306779921763
 31
0.0
  0
ARC
  5
3F0
330
1F
100
AcDbEntity
  8
0
 62
     7
370
    35
100
AcDbCircle
 10
100.3899680567358
 20
5.64170677992169
 30
0.0
 40
0.3
100
AcDbArc
 50
269.9999969999991
 51
0.0
  0
LINE
  5
3F1
330
1F
100
AcDbEntity
  8
0
 62
     7
 48
0.046324
370
    13
100
AcDbLine
 10
100.3899680567358
 20
7.194658779921695
 30
0.0
 11
100.3899680567358
 21
5.341707779921733
 31
0.0
  0
LINE
  5
3F2
330
1F
100
AcDbEntity
  8
0
 62
     7
 48
0.032029
370
    13
100
AcDbLine
 10
100.3899680567358
 20
8.475801779921738
 30
0.0
 11
100.3899680567358
 21
7.194658779921695
 31
0.0
  0
ELLIPSE
  5
3F3
330
1F
100
AcDbEntity
  8
0
 62
     7
370
    13
100
AcDbEllipse
 10
99.49026805673586
 20
8.476251779921739
 30
0.0
 11
0.0456021784715514
 21
3.005565308731606
 31
0.0
210
0.0
220
0.0
230
1.0
 40
0.2992814881343077
 41
-1.566405148222047
 42
-0.5510350119106358
  0
LINE
  5
3F4
330
1F
100
AcDbEntity
  8
0
 62
     7
 48
0.032028
370
    35
100
AcDbLine
 10
96.88996805673586
 20
7.272306779921763
 30
0.0
 11
96.88996805673586
 21
8.553446779921699
 31
0.0
  0
LINE
  5
3F5
330
1F
100
AcDbEntity
  8
0
 62
     7
 48
0.040765
370
    35
100
AcDbLine
 10
96.88996805673586
 20
7.272306779921763
 30
0.0
 11
96.88996805673586
 21
5.64170677992169
 31
0.0
  0
LINE
  5
3F6
330
1F
100
AcDbEntity
  8
0
 62
     7
 48
0.057206
370
    35
100
AcDbLine
 10
96.88996805673586
 20
8.553446779921699
 30
0.0
 11
96.88996805673586
 21
11.02979694745258
 31
0.0
  0
LINE
  5
3F7
330
1F
100
AcDbEntity
  8
0
 62
     7
 48
0.046324
370
    13
100
AcDbLine
 10
97.18996705673587
 20
7.194658779921695
 30
0.0
 11
97.18996705673587
 21
5.341707779921733
 31
0.0
  0
LINE
  5
3F8
330
1F
100
AcDbEntity
  8
0
 62
     7
 48
0.08
370
    35
100
AcDbLine
 10
97.18996705673587
 20
5.341707779921733
 30
0.0
 11
100.3899680567358
 21
5.341707779921733
 31
0.0
  0
LINE
  5
3F9
330
1F
100
AcDbEntity
  8
0
 62
     7
 48
0.032029
370
    13
100
AcDbLine
 10
97.18996705673587
 20
7.194658779921695
 30
0.0
 11
97.18996705673587
 21
8.475801779921738
 31
0.0
  0
ELLIPSE
  5
3FA
330
1F
100
AcDbEntity
  8
0
 62
     7
370
    13
100
AcDbEllipse
 10
98.08968605673587
 20
8.476221779921701
 30
0.0
 11
-0.0584791183594507
 21
2.917595213434286
 31
0.0
210
0.0
220
0.0
230
1.0
 40
0.3082617645086919
 41
0.4987352716589264
 42
1.564762523621442
  0
ARC
  5
3FB
330
1F
100
AcDbEntity
  8
0
 62
     7
370
    35
100
AcDbCircle
 10
97.18996705673587
 20
5.64170677992169
 30
0.0
 40
0.3
100
AcDbArc
 50
179.9999949999995
 51
269.9999969999991
  0
LINE
  5
3FC
330
1F
100
AcDbEntity
  8
0
 62
     7
 48
0.05
370
    35
100
AcDbLine
 10
95.18996705673586
 20
5.341707779921733
 30
0.0
 11
97.18996705673587
 21
5.341707779921733
 31
0.0
  0
ARC
  5
3FD
330
1F
100
AcDbEntity
  8
0
 62
     7
370
    35
100
AcDbCircle
 10
95.19829805673586
 20
7.038908779921683
 30
0.0
 40
0.308463
100
AcDbArc
 50
148.3659289999998
 51
179.4795309999996
  0
DIMENSION
  5
3FE
330
1F
100
AcDbEntity
  8
QUOTE
 62
     1
100
AcDbDimension
  2
*D9
 10
89.99312872498846
 20
95.84170777992175
 30
0.0
 11
89.99312872498844
 21
50.59170777992175
 31
0.0
 70
    32
 71
     5
 42
90.5
  3
Standard
100
AcDbAlignedDimension
 13
95.18996705673586
 23
5.341707779921733
 33
0.0
 14
100.7932472247612
 24
95.84170777992174
 34
0.0
 50
90.0
100
AcDbRotatedDimension
1001
ACAD
1000
DSTYLE
1002
{
1070
   271
1070
     1
1070
    41
1040
5.0
1070
   140
1040
5.0
1002
}
  0
DIMENSION
  5
3FF
330
1F
100
AcDbEntity
  8
QUOTE
 62
     1
100
AcDbDimension
  2
*D10
 10
144.7899670567359
 20
103.5181255363833
 30
0.0
 11
122.7916071407485
 21
103.5181255363833
 31
0.0
 70
    32
 71
     5
 42
43.99671983197464
  3
Standard
100
AcDbAlignedDimension
 13
100.7932472247612
 23
95.84170777992174
 33
0.0
 14
144.7899670567359
 24
93.38134394745262
 34
0.0
100
AcDbRotatedDimension
1001
ACAD
1000
DSTYLE
1002
{
1070
   271
1070
     1
1070
    41
1040
5.0
1070
   140
1040
5.0
1002
}
  0
DIMENSION
  5
400
330
1F
100
AcDbEntity
  8
QUOTE
 62
     1
100
AcDbDimension
  2
*D11
 10
163.7932472247612
 20
-4.200787825784829
 30
0.0
 11
132.2932472247612
 21
-4.200787825784829
 31
0.0
 70
   160
 71
     5
 42
62.99999999999994
  3
Standard
100
AcDbAlignedDimension
 13
100.7932472247612
 23
11.02979694745258
 33
0.0
 14
163.7932472247612
 24
33.15728594745261
 34
0.0
100
AcDbRotatedDimension
1001
ACAD
1000
DSTYLE
1002
{
1070
   271
1070
     1
1070
    41
1040
5.0
1070
   140
1040
5.0
1002
}
  0
SOLID
  5
401
330
1F
100
AcDbEntity
  8
0
 62
     1
370
     5
100
AcDbTrace
 10
26.20575136765271
 20
35.01947990739265
 30
0.0
 11
26.22137236765272
 21
34.85822490739261
 31
0.0
 12
26.21745836765271
 22
34.93924890739263
 32
0.0
 13
26.21745836765271
 23
34.93924890739263
 33
0.0
  0
LINE
  5
402
330
1F
100
AcDbEntity
  8
0
 62
     1
 48
0.004117
370
    13
100
AcDbLine
 10
19.06137236765269
 20
34.01822890739263
 30
0.0
 11
18.89749736765273
 21
34.03437290739262
 31
0.0
  0
LINE
  5
403
330
1F
100
AcDbEntity
  8
0
 62
     1
 48
0.004117
370
    13
100
AcDbLine
 10
18.89749736765273
 20
34.03437290739262
 30
0.0
 11
18.73991536765274
 21
34.08216290739265
 31
0.0
  0
LINE
  5
404
330
1F
100
AcDbEntity
  8
0
 62
     1
 48
0.004117
370
    13
100
AcDbLine
 10
18.73991536765274
 20
34.08216290739265
 30
0.0
 11
18.59469436765269
 21
34.15979990739263
 31
0.0
  0
LINE
  5
405
330
1F
100
AcDbEntity
  8
0
 62
     1
 48
0.004117
370
    13
100
AcDbLine
 10
18.59469436765269
 20
34.15979990739263
 30
0.0
 11
18.46740136765274
 21
34.26426090739264
 31
0.0
  0
LINE
  5
406
330
1F
100
AcDbEntity
  8
0
 62
     1
 48
0.004117
370
    13
100
AcDbLine
 10
18.46740136765274
 20
34.26426090739264
 30
0.0
 11
18.36293936765273
 21
34.3915499073926
 31
0.0
  0
LINE
  5
407
330
1F
100
AcDbEntity
  8
0
 62
     1
 48
0.004117
370
    13
100
AcDbLine
 10
18.36293936765273
 20
34.3915499073926
 30
0.0
 11
18.28531036765273
 21
34.53678290739262
 31
0.0
  0
LINE
  5
408
330
1F
100
AcDbEntity
  8
0
 62
     1
 48
0.004116
370
    13
100
AcDbLine
 10
18.28531036765273
 20
34.53678290739262
 30
0.0
 11
18.23751236765273
 21
34.6943459073926
 31
0.0
  0
LINE
  5
409
330
1F
100
AcDbEntity
  8
0
 62
     1
 48
0.004117
370
    13
100
AcDbLine
 10
18.23751236765273
 20
34.6943459073926
 30
0.0
 11
18.22137236765272
 21
34.85822490739261
 31
0.0
  0
LINE
  5
40A
330
1F
100
AcDbEntity
  8
0
 62
     1
 48
0.004117
370
    13
100
AcDbLine
 10
18.22137236765272
 20
34.85822490739261
 30
0.0
 11
18.23751236765273
 21
35.02210390739262
 31
0.0
  0
LINE
  5
40B
330
1F
100
AcDbEntity
  8
0
 62
     1
 48
0.004117
370
    13
100
AcDbLine
 10
18.23751236765273
 20
35.02210390739262
 30
0.0
 11
18.28531036765273
 21
35.17969690739264
 31
0.0
  0
LINE
  5
40C
330
1F
100
AcDbEntity
  8
0
 62
     1
 48
0.004116
370
    13
100
AcDbLine
 10
18.28531036765273
 20
35.17969690739264
 30
0.0
 11
18.36293936765273
 21
35.32489990739262
 31
0.0
  0
LINE
  5
40D
330
1F
100
AcDbEntity
  8
0
 62
     1
 48
0.004117
370
    13
100
AcDbLine
 10
18.36293936765273
 20
35.32489990739262
 30
0.0
 11
18.46740136765274
 21
35.45221890739262
 31
0.0
  0
LINE
  5
40E
330
1F
100
AcDbEntity
  8
0
 62
     1
 48
0.004117
370
    13
100
AcDbLine
 10
18.46740136765274
 20
35.45221890739262
 30
0.0
 11
18.59469436765269
 21
35.55668090739263
 31
0.0
  0
LINE
  5
40F
330
1F
100
AcDbEntity
  8
0
 62
     1
 48
0.004116
370
    13
100
AcDbLine
 10
18.59469436765269
 20
35.55668090739263
 30
0.0
 11
18.73991536765274
 21
35.63428690739264
 31
0.0
  0
LINE
  5
410
330
1F
100
AcDbEntity
  8
0
 62
     1
 48
0.004117
370
    13
100
AcDbLine
 10
18.73991536765274
 20
35.63428690739264
 30
0.0
 11
18.89749736765273
 21
35.68210790739263
 31
0.0
  0
LINE
  5
411
330
1F
100
AcDbEntity
  8
0
 62
     1
 48
0.004117
370
    13
100
AcDbLine
 10
18.89749736765273
 20
35.68210790739263
 30
0.0
 11
19.06137236765269
 21
35.69822090739265
 31
0.0
  0
LINE
  5
412
330
1F
100
AcDbEntity
  8
0
 62
     1
 48
0.011
370
    13
100
AcDbLine
 10
19.06137236765269
 20
35.69822090739265
 30
0.0
 11
19.50137136765269
 21
35.69822090739265
 31
0.0
  0
LINE
  5
413
330
1F
100
AcDbEntity
  8
0
 62
     1
 48
0.012
370
    13
100
AcDbLine
 10
19.50137136765269
 20
35.69822090739265
 30
0.0
 11
19.50137136765269
 21
35.21824090739264
 31
0.0
  0
LINE
  5
414
330
1F
100
AcDbEntity
  8
0
 62
     1
 48
0.016
370
    13
100
AcDbLine
 10
19.50137136765269
 20
35.21824090739264
 30
0.0
 11
18.8613723676527
 21
35.21824090739264
 31
0.0
  0
LINE
  5
415
330
1F
100
AcDbEntity
  8
0
 62
     1
 48
0.018
370
    13
100
AcDbLine
 10
18.8613723676527
 20
35.21824090739264
 30
0.0
 11
18.8613723676527
 21
34.49823990739262
 31
0.0
  0
LINE
  5
416
330
1F
100
AcDbEntity
  8
0
 62
     1
 48
0.003
370
    13
100
AcDbLine
 10
18.8613723676527
 20
34.49823990739262
 30
0.0
 11
18.98137136765271
 21
34.49823990739262
 31
0.0
  0
LINE
  5
417
330
1F
100
AcDbEntity
  8
0
 62
     1
 48
0.015
370
    13
100
AcDbLine
 10
18.98137136765271
 20
34.49823990739262
 30
0.0
 11
18.98137136765271
 21
35.09824590739262
 31
0.0
  0
LINE
  5
418
330
1F
100
AcDbEntity
  8
0
 62
     1
 48
0.013
370
    13
100
AcDbLine
 10
18.98137136765271
 20
35.09824590739262
 30
0.0
 11
19.50137136765269
 21
35.09824590739262
 31
0.0
  0
LINE
  5
419
330
1F
100
AcDbEntity
  8
0
 62
     1
 48
0.027
370
    13
100
AcDbLine
 10
19.50137136765269
 20
35.09824590739262
 30
0.0
 11
19.50137136765269
 21
34.01822890739263
 31
0.0
  0
LINE
  5
41A
330
1F
100
AcDbEntity
  8
0
 62
     1
 48
0.011
370
    13
100
AcDbLine
 10
19.50137136765269
 20
34.01822890739263
 30
0.0
 11
19.06137236765269
 21
34.01822890739263
 31
0.0
  0
LINE
  5
41B
330
1F
100
AcDbEntity
  8
0
 62
     1
 48
0.032
370
    13
100
AcDbLine
 10
19.6213703676527
 20
34.01822890739263
 30
0.0
 11
20.90137236765273
 21
34.01822890739263
 31
0.0
  0
LINE
  5
41C
330
1F
100
AcDbEntity
  8
0
 62
     1
 48
0.012
370
    13
100
AcDbLine
 10
20.90137236765273
 20
34.01822890739263
 30
0.0
 11
20.90137236765273
 21
34.49823990739262
 31
0.0
  0
LINE
  5
41D
330
1F
100
AcDbEntity
  8
0
 62
     1
 48
0.019
370
    13
100
AcDbLine
 10
20.90137236765273
 20
34.49823990739262
 30
0.0
 11
20.14137436765273
 21
34.49823990739262
 31
0.0
  0
LINE
  5
41E
330
1F
100
AcDbEntity
  8
0
 62
     1
 48
0.003
370
    13
100
AcDbLine
 10
20.14137436765273
 20
34.49823990739262
 30
0.0
 11
20.14137436765273
 21
34.61823490739263
 31
0.0
  0
LINE
  5
41F
330
1F
100
AcDbEntity
  8
0
 62
     1
 48
0.019
370
    13
100
AcDbLine
 10
20.14137436765273
 20
34.61823490739263
 30
0.0
 11
20.90137236765273
 21
34.61823490739263
 31
0.0
  0
LINE
  5
420
330
1F
100
AcDbEntity
  8
0
 62
     1
 48
0.012
370
    13
100
AcDbLine
 10
20.90137236765273
 20
34.61823490739263
 30
0.0
 11
20.90137236765273
 21
35.09824590739262
 31
0.0
  0
LINE
  5
421
330
1F
100
AcDbEntity
  8
0
 62
     1
 48
0.019
370
    13
100
AcDbLine
 10
20.90137236765273
 20
35.09824590739262
 30
0.0
 11
20.14137436765273
 21
35.09824590739262
 31
0.0
  0
LINE
  5
422
330
1F
100
AcDbEntity
  8
0
 62
     1
 48
0.003
370
    13
100
AcDbLine
 10
20.14137436765273
 20
35.09824590739262
 30
0.0
 11
20.14137436765273
 21
35.21824090739264
 31
0.0
  0
LINE
  5
423
330
1F
100
AcDbEntity
  8
0
 62
     1
 48
0.005
370
    13
100
AcDbLine
 10
20.14137436765273
 20
35.21824090739264
 30
0.0
 11
20.34137136765273
 21
35.21824090739264
 31
0.0
  0
LINE
  5
424
330
1F
100
AcDbEntity
  8
0
 62
     1
 48
0.012
370
    13
100
AcDbLine
 10
20.34137136765273
 20
35.21824090739264
 30
0.0
 11
20.34137136765273
 21
35.69822090739265
 31
0.0
  0
LINE
  5
425
330
1F
100
AcDbEntity
  8
0
 62
     1
 48
0.018
370
    13
100
AcDbLine
 10
20.34137136765273
 20
35.69822090739265
 30
0.0
 11
19.6213703676527
 21
35.69822090739265
 31
0.0
  0
LINE
  5
426
330
1F
100
AcDbEntity
  8
0
 62
     1
 48
0.042
370
    13
100
AcDbLine
 10
19.6213703676527
 20
35.69822090739265
 30
0.0
 11
19.6213703676527
 21
34.01822890739263
 31
0.0
  0
LINE
  5
427
330
1F
100
AcDbEntity
  8
0
 62
     1
 48
0.012322
370
    13
100
AcDbLine
 10
21.7142653676527
 20
34.01822890739263
 30
0.0
 11
21.22137236765272
 21
34.01822890739263
 31
0.0
  0
LINE
  5
428
330
1F
100
AcDbEntity
  8
0
 62
     1
 48
0.030806
370
    13
100
AcDbLine
 10
21.22137236765272
 20
34.01822890739263
 30
0.0
 11
20.94137036765269
 21
35.21824090739264
 31
0.0
  0
LINE
  5
429
330
1F
100
AcDbEntity
  8
0
 62
     1
 48
0.012
370
    13
100
AcDbLine
 10
20.94137036765269
 20
35.21824090739264
 30
0.0
 11
20.46137436765272
 21
35.21824090739264
 31
0.0
  0
LINE
  5
42A
330
1F
100
AcDbEntity
  8
0
 62
     1
 48
0.012
370
    13
100
AcDbLine
 10
20.46137436765272
 20
35.21824090739264
 30
0.0
 11
20.46137436765272
 21
35.69822090739265
 31
0.0
  0
LINE
  5
42B
330
1F
100
AcDbEntity
  8
0
 62
     1
 48
0.021522
370
    13
100
AcDbLine
 10
20.46137436765272
 20
35.69822090739265
 30
0.0
 11
21.3222673676527
 21
35.69822090739265
 31
0.0
  0
LINE
  5
42C
330
1F
100
AcDbEntity
  8
0
 62
     1
 48
0.020423
370
    13
100
AcDbLine
 10
21.3222673676527
 20
35.69822090739265
 30
0.0
 11
21.50789436765271
 21
34.90268890739262
 31
0.0
  0
LINE
  5
42D
330
1F
100
AcDbEntity
  8
0
 62
     1
 48
0.020282
370
    13
100
AcDbLine
 10
21.50789436765271
 20
34.90268890739262
 30
0.0
 11
21.66700136765272
 21
35.69822090739265
 31
0.0
  0
LINE
  5
42E
330
1F
100
AcDbEntity
  8
0
 62
     1
 48
0.012
370
    13
100
AcDbLine
 10
21.66700136765272
 20
35.69822090739265
 30
0.0
 11
22.14700536765272
 21
35.69822090739265
 31
0.0
  0
LINE
  5
42F
330
1F
100
AcDbEntity
  8
0
 62
     1
 48
0.019008
370
    13
100
AcDbLine
 10
22.14700536765272
 20
35.69822090739265
 30
0.0
 11
22.31977636765273
 21
34.95777290739264
 31
0.0
  0
LINE
  5
430
330
1F
100
AcDbEntity
  8
0
 62
     1
 48
0.018878
370
    13
100
AcDbLine
 10
22.31977636765273
 20
34.95777290739264
 30
0.0
 11
22.4678663676527
 21
35.69822090739265
 31
0.0
  0
LINE
  5
431
330
1F
100
AcDbEntity
  8
0
 62
     1
 48
0.023838
370
    13
100
AcDbLine
 10
22.4678663676527
 20
35.69822090739265
 30
0.0
 11
23.4213733676527
 21
35.69822090739265
 31
0.0
  0
LINE
  5
432
330
1F
100
AcDbEntity
  8
0
 62
     1
 48
0.012
370
    13
100
AcDbLine
 10
23.4213733676527
 20
35.69822090739265
 30
0.0
 11
23.4213733676527
 21
35.21824090739264
 31
0.0
  0
LINE
  5
433
330
1F
100
AcDbEntity
  8
0
 62
     1
 48
0.014
370
    13
100
AcDbLine
 10
23.4213733676527
 20
35.21824090739264
 30
0.0
 11
22.86137236765271
 21
35.21824090739264
 31
0.0
  0
LINE
  5
434
330
1F
100
AcDbEntity
  8
0
 62
     1
 48
0.030594
370
    13
100
AcDbLine
 10
22.86137236765271
 20
35.21824090739264
 30
0.0
 11
22.6213703676527
 21
34.01822890739263
 31
0.0
  0
LINE
  5
435
330
1F
100
AcDbEntity
  8
0
 62
     1
 48
0.012238
370
    13
100
AcDbLine
 10
22.6213703676527
 20
34.01822890739263
 30
0.0
 11
22.13186836765268
 21
34.01822890739263
 31
0.0
  0
LINE
  5
436
330
1F
100
AcDbEntity
  8
0
 62
     1
 48
0.02474
370
    13
100
AcDbLine
 10
22.13186836765268
 20
34.01822890739263
 30
0.0
 11
21.90700736765271
 21
34.98194290739267
 31
0.0
  0
LINE
  5
437
330
1F
100
AcDbEntity
  8
0
 62
     1
 48
0.02457
370
    13
100
AcDbLine
 10
21.90700736765271
 20
34.98194290739267
 30
0.0
 11
21.7142653676527
 21
34.01822890739263
 31
0.0
  0
LINE
  5
438
330
1F
100
AcDbEntity
  8
0
 62
     1
 48
0.012
370
    13
100
AcDbLine
 10
22.9413703676527
 20
34.01822890739263
 30
0.0
 11
23.4213733676527
 21
34.01822890739263
 31
0.0
  0
LINE
  5
439
330
1F
100
AcDbEntity
  8
0
 62
     1
 48
0.027
370
    13
100
AcDbLine
 10
23.4213733676527
 20
34.01822890739263
 30
0.0
 11
23.4213733676527
 21
35.09824590739262
 31
0.0
  0
LINE
  5
43A
330
1F
100
AcDbEntity
  8
0
 62
     1
 48
0.027
370
    13
100
AcDbLine
 10
22.9413703676527
 20
35.09824590739262
 30
0.0
 11
22.9413703676527
 21
34.01822890739263
 31
0.0
  0
LINE
  5
43B
330
1F
100
AcDbEntity
  8
0
 62
     1
 48
0.032
370
    13
100
AcDbLine
 10
23.54137236765271
 20
34.01822890739263
 30
0.0
 11
24.82137136765274
 21
34.01822890739263
 31
0.0
  0
LINE
  5
43C
330
1F
100
AcDbEntity
  8
0
 62
     1
 48
0.027
370
    13
100
AcDbLine
 10
24.82137136765274
 20
34.01822890739263
 30
0.0
 11
24.82137136765274
 21
35.09824590739262
 31
0.0
  0
LINE
  5
43D
330
1F
100
AcDbEntity
  8
0
 62
     1
 48
0.019
370
    13
100
AcDbLine
 10
24.82137136765274
 20
35.09824590739262
 30
0.0
 11
24.0613723676527
 21
35.09824590739262
 31
0.0
  0
LINE
  5
43E
330
1F
100
AcDbEntity
  8
0
 62
     1
 48
0.003
370
    13
100
AcDbLine
 10
24.0613723676527
 20
35.09824590739262
 30
0.0
 11
24.0613723676527
 21
35.21824090739264
 31
0.0
  0
LINE
  5
43F
330
1F
100
AcDbEntity
  8
0
 62
     1
 48
0.019
370
    13
100
AcDbLine
 10
24.0613723676527
 20
35.21824090739264
 30
0.0
 11
24.82137136765274
 21
35.21824090739264
 31
0.0
  0
LINE
  5
440
330
1F
100
AcDbEntity
  8
0
 62
     1
 48
0.012
370
    13
100
AcDbLine
 10
24.82137136765274
 20
35.21824090739264
 30
0.0
 11
24.82137136765274
 21
35.69822090739265
 31
0.0
  0
LINE
  5
441
330
1F
100
AcDbEntity
  8
0
 62
     1
 48
0.032
370
    13
100
AcDbLine
 10
24.82137136765274
 20
35.69822090739265
 30
0.0
 11
23.54137236765271
 21
35.69822090739265
 31
0.0
  0
LINE
  5
442
330
1F
100
AcDbEntity
  8
0
 62
     1
 48
0.027
370
    13
100
AcDbLine
 10
23.54137236765271
 20
35.69822090739265
 30
0.0
 11
23.54137236765271
 21
34.61823490739263
 31
0.0
  0
LINE
  5
443
330
1F
100
AcDbEntity
  8
0
 62
     1
 48
0.019
370
    13
100
AcDbLine
 10
23.54137236765271
 20
34.61823490739263
 30
0.0
 11
24.30137036765271
 21
34.61823490739263
 31
0.0
  0
LINE
  5
444
330
1F
100
AcDbEntity
  8
0
 62
     1
 48
0.003
370
    13
100
AcDbLine
 10
24.30137036765271
 20
34.61823490739263
 30
0.0
 11
24.30137036765271
 21
34.49823990739262
 31
0.0
  0
LINE
  5
445
330
1F
100
AcDbEntity
  8
0
 62
     1
 48
0.019
370
    13
100
AcDbLine
 10
24.30137036765271
 20
34.49823990739262
 30
0.0
 11
23.54137236765271
 21
34.49823990739262
 31
0.0
  0
LINE
  5
446
330
1F
100
AcDbEntity
  8
0
 62
     1
 48
0.012
370
    13
100
AcDbLine
 10
23.54137236765271
 20
34.49823990739262
 30
0.0
 11
23.54137236765271
 21
34.01822890739263
 31
0.0
  0
LINE
  5
447
330
1F
100
AcDbEntity
  8
0
 62
     1
 48
0.004117
370
    13
100
AcDbLine
 10
25.38137236765269
 20
34.01822890739263
 30
0.0
 11
25.54524836765271
 21
34.03437290739262
 31
0.0
  0
LINE
  5
448
330
1F
100
AcDbEntity
  8
0
 62
     1
 48
0.004117
370
    13
100
AcDbLine
 10
25.54524836765271
 20
34.03437290739262
 30
0.0
 11
25.70282536765271
 21
34.08216290739265
 31
0.0
  0
LINE
  5
449
330
1F
100
AcDbEntity
  8
0
 62
     1
 48
0.004117
370
    13
100
AcDbLine
 10
25.70282536765271
 20
34.08216290739265
 30
0.0
 11
25.84805136765269
 21
34.15979990739263
 31
0.0
  0
LINE
  5
44A
330
1F
100
AcDbEntity
  8
0
 62
     1
 48
0.004117
370
    13
100
AcDbLine
 10
25.84805136765269
 20
34.15979990739263
 30
0.0
 11
25.9753433676527
 21
34.26426090739264
 31
0.0
  0
LINE
  5
44B
330
1F
100
AcDbEntity
  8
0
 62
     1
 48
0.004117
370
    13
100
AcDbLine
 10
25.9753433676527
 20
34.26426090739264
 30
0.0
 11
26.07980536765271
 21
34.3915499073926
 31
0.0
  0
LINE
  5
44C
330
1F
100
AcDbEntity
  8
0
 62
     1
 48
0.004117
370
    13
100
AcDbLine
 10
26.07980536765271
 20
34.3915499073926
 30
0.0
 11
26.15743036765272
 21
34.53678290739262
 31
0.0
  0
LINE
  5
44D
330
1F
100
AcDbEntity
  8
0
 62
     1
 48
0.004116
370
    13
100
AcDbLine
 10
26.15743036765272
 20
34.53678290739262
 30
0.0
 11
26.20523236765271
 21
34.6943459073926
 31
0.0
  0
LINE
  5
44E
330
1F
100
AcDbEntity
  8
0
 62
     1
 48
0.004117
370
    13
100
AcDbLine
 10
26.20523236765271
 20
34.6943459073926
 30
0.0
 11
26.22137236765272
 21
34.85822490739261
 31
0.0
  0
LINE
  5
44F
330
1F
100
AcDbEntity
  8
0
 62
     1
 48
0.002028
370
    13
100
AcDbLine
 10
26.22137236765272
 20
34.85822490739261
 30
0.0
 11
26.21745836765271
 21
34.93924890739263
 31
0.0
  0
LINE
  5
450
330
1F
100
AcDbEntity
  8
0
 62
     1
 48
0.002027
370
    13
100
AcDbLine
 10
26.21745836765271
 20
34.93924890739263
 30
0.0
 11
26.20575136765271
 21
35.01947990739265
 31
0.0
  0
LINE
  5
451
330
1F
100
AcDbEntity
  8
0
 62
     1
 48
0.002028
370
    13
100
AcDbLine
 10
26.20575136765271
 20
35.01947990739265
 30
0.0
 11
26.18635736765273
 21
35.09824590739262
 31
0.0
  0
LINE
  5
452
330
1F
100
AcDbEntity
  8
0
 62
     1
 48
0.018125
370
    13
100
AcDbLine
 10
26.18635736765273
 20
35.09824590739262
 30
0.0
 11
25.46137436765273
 21
35.09824590739262
 31
0.0
  0
LINE
  5
453
330
1F
100
AcDbEntity
  8
0
 62
     1
 48
0.003
370
    13
100
AcDbLine
 10
25.46137436765273
 20
35.09824590739262
 30
0.0
 11
25.46137436765273
 21
35.21824090739264
 31
0.0
  0
LINE
  5
454
330
1F
100
AcDbEntity
  8
0
 62
     1
 48
0.016974
370
    13
100
AcDbLine
 10
25.46137436765273
 20
35.21824090739264
 30
0.0
 11
26.14031736765273
 21
35.21824090739264
 31
0.0
  0
LINE
  5
455
330
1F
100
AcDbEntity
  8
0
 62
     1
 48
0.004727
370
    13
100
AcDbLine
 10
26.14031736765273
 20
35.21824090739264
 30
0.0
 11
26.04057136765275
 21
35.37885490739265
 31
0.0
  0
LINE
  5
456
330
1F
100
AcDbEntity
  8
0
 62
     1
 48
0.004728
370
    13
100
AcDbLine
 10
26.04057136765275
 20
35.37885490739265
 30
0.0
 11
25.90741936765269
 21
35.51313190739265
 31
0.0
  0
LINE
  5
457
330
1F
100
AcDbEntity
  8
0
 62
     1
 48
0.004727
370
    13
100
AcDbLine
 10
25.90741936765269
 20
35.51313190739265
 30
0.0
 11
25.74761336765275
 21
35.61417590739265
 31
0.0
  0
LINE
  5
458
330
1F
100
AcDbEntity
  8
0
 62
     1
 48
0.004727
370
    13
100
AcDbLine
 10
25.74761336765275
 20
35.61417590739265
 30
0.0
 11
25.56925436765269
 21
35.67695090739264
 31
0.0
  0
LINE
  5
459
330
1F
100
AcDbEntity
  8
0
 62
     1
 48
0.004727
370
    13
100
AcDbLine
 10
25.56925436765269
 20
35.67695090739264
 30
0.0
 11
25.38137236765269
 21
35.69822090739265
 31
0.0
  0
LINE
  5
45A
330
1F
100
AcDbEntity
  8
0
 62
     1
 48
0.011
370
    13
100
AcDbLine
 10
25.38137236765269
 20
35.69822090739265
 30
0.0
 11
24.9413703676527
 21
35.69822090739265
 31
0.0
  0
LINE
  5
45B
330
1F
100
AcDbEntity
  8
0
 62
     1
 48
0.027
370
    13
100
AcDbLine
 10
24.9413703676527
 20
35.69822090739265
 30
0.0
 11
24.9413703676527
 21
34.61823490739263
 31
0.0
  0
LINE
  5
45C
330
1F
100
AcDbEntity
  8
0
 62
     1
 48
0.016
370
    13
100
AcDbLine
 10
24.9413703676527
 20
34.61823490739263
 30
0.0
 11
25.58137336765273
 21
34.61823490739263
 31
0.0
  0
LINE
  5
45D
330
1F
100
AcDbEntity
  8
0
 62
     1
 48
0.003
370
    13
100
AcDbLine
 10
25.58137336765273
 20
34.61823490739263
 30
0.0
 11
25.58137336765273
 21
34.49823990739262
 31
0.0
  0
LINE
  5
45E
330
1F
100
AcDbEntity
  8
0
 62
     1
 48
0.016
370
    13
100
AcDbLine
 10
25.58137336765273
 20
34.49823990739262
 30
0.0
 11
24.9413703676527
 21
34.49823990739262
 31
0.0
  0
LINE
  5
45F
330
1F
100
AcDbEntity
  8
0
 62
     1
 48
0.012
370
    13
100
AcDbLine
 10
24.9413703676527
 20
34.49823990739262
 30
0.0
 11
24.9413703676527
 21
34.01822890739263
 31
0.0
  0
LINE
  5
460
330
1F
100
AcDbEntity
  8
0
 62
     1
 48
0.011
370
    13
100
AcDbLine
 10
24.9413703676527
 20
34.01822890739263
 30
0.0
 11
25.38137236765269
 21
34.01822890739263
 31
0.0
  0
LINE
  5
461
330
1F
100
AcDbEntity
  8
0
 62
     1
 48
0.012
370
    13
100
AcDbLine
 10
22.9413703676527
 20
35.09824590739262
 30
0.0
 11
23.4213733676527
 21
35.09824590739262
 31
0.0
  0
ENDSEC
  0
SECTION
  2
OBJECTS
  0
DICTIONARY
  5
C
330
0
100
AcDbDictionary
281
     1
  3
ACAD_COLOR
350
73
  3
ACAD_GROUP
350
D
  3
ACAD_LAYOUT
350
1A
  3
ACAD_MATERIAL
350
72
  3
ACAD_MLEADERSTYLE
350
D7
  3
ACAD_MLINESTYLE
350
17
  3
ACAD_PLOTSETTINGS
350
19
  3
ACAD_PLOTSTYLENAME
350
E
  3
ACAD_SCALELIST
350
B6
  3
ACAD_TABLESTYLE
350
86
  3
ACAD_VISUALSTYLE
350
99
  3
ACDB_RECOMPOSE_DATA
350
FF
  3
AcDbVariableDictionary
350
66
  3
DWGPROPS
350
541
  0
DICTIONARY
  5
E6
330
10
100
AcDbDictionary
280
     1
281
     1
  3
ADSK_XREC_LAYER_RECONCILED
360
539
  0
DICTIONARY
  5
53A
330
18A
100
AcDbDictionary
280
     1
281
     1
  3
ADSK_XREC_LAYER_RECONCILED
360
53B
  0
DICTIONARY
  5
73
102
{ACAD_REACTORS
330
C
102
}
330
C
100
AcDbDictionary
281
     1
  0
DICTIONARY
  5
D
102
{ACAD_REACTORS
330
C
102
}
330
C
100
AcDbDictionary
281
     1
  0
DICTIONARY
  5
1A
102
{ACAD_REACTORS
330
C
102
}
330
C
100
AcDbDictionary
281
     1
  3
Layout1
350
59
  3
Layout2
350
5E
  3
Model
350
22
  0
DICTIONARY
  5
72
102
{ACAD_REACTORS
330
C
102
}
330
C
100
AcDbDictionary
281
     1
  3
ByBlock
350
97
  3
ByLayer
350
96
  3
Global
350
98
  0
DICTIONARY
  5
D7
102
{ACAD_REACTORS
330
C
102
}
330
C
100
AcDbDictionary
281
     1
  3
Annotativa
350
E5
  3
Standard
350
D8
  0
DICTIONARY
  5
17
102
{ACAD_REACTORS
330
C
102
}
330
C
100
AcDbDictionary
281
     1
  3
Standard
350
18
  0
DICTIONARY
  5
19
102
{ACAD_REACTORS
330
C
102
}
330
C
100
AcDbDictionary
281
     1
  0
ACDBDICTIONARYWDFLT
  5
E
102
{ACAD_REACTORS
330
C
102
}
330
C
100
AcDbDictionary
281
     1
  3
Normal
350
F
100
AcDbDictionaryWithDefault
340
F
  0
DICTIONARY
  5
B6
102
{ACAD_REACTORS
330
C
102
}
330
C
100
AcDbDictionary
281
     1
  3
A0
350
B7
  3
A1
350
124
  3
A2
350
125
  3
A3
350
126
  3
A4
350
127
  3
A5
350
128
  3
A6
350
129
  3
A7
350
12A
  3
A8
350
12B
  3
A9
350
12C
  3
B0
350
12D
  3
B1
350
12E
  3
B2
350
12F
  3
B3
350
130
  3
B4
350
131
  3
B5
350
132
  3
B6
350
133
  3
B7
350
134
  3
B8
350
135
  3
B9
350
136
  3
C0
350
137
  3
C1
350
138
  3
C2
350
139
  3
C3
350
13A
  3
C4
350
13B
  3
C5
350
13C
  3
C6
350
13D
  3
C7
350
13E
  3
C8
350
13F
  3
C9
350
140
  3
D0
350
141
  3
D1
350
142
  3
D2
350
143
  0
DICTIONARY
  5
86
102
{ACAD_REACTORS
330
C
102
}
330
C
100
AcDbDictionary
281
     1
  3
Standard
350
87
  0
DICTIONARY
  5
99
102
{ACAD_REACTORS
330
C
102
}
330
C
100
AcDbDictionary
281
     1
  3
2dWireframe
350
9F
  3
3D Hidden
350
A1
  3
3dWireframe
350
A0
  3
Basic
350
9E
  3
Brighten
350
A5
  3
ColorChange
350
A9
  3
Conceptual
350
A2
  3
Dim
350
A4
  3
Facepattern
350
A8
  3
Flat
350
9A
  3
FlatWithEdges
350
9B
  3
Gouraud
350
9C
  3
GouraudWithEdges
350
9D
  3
Linepattern
350
A7
  3
Realistic
350
A3
  3
Thicken
350
A6
  0
XRECORD
  5
FF
102
{ACAD_REACTORS
330
C
102
}
330
C
100
AcDbXrecord
280
     1
 90
        1
330
87
  0
DICTIONARY
  5
66
102
{ACAD_REACTORS
330
C
102
}
330
C
100
AcDbDictionary
281
     1
  3
CANNOSCALE
350
F0
  3
CMLEADERSTYLE
350
EF
  3
CTABLESTYLE
350
89
  3
DIMASSOC
350
67
  3
HIDETEXT
350
6B
  3
INDEXCTL
350
53F
  3
LIGHTINGUNITS
350
53D
  3
MSLTSCALE
350
53C
  3
SORTENTS
350
53E
  0
XRECORD
  5
541
102
{ACAD_REACTORS
330
C
102
}
330
C
100
AcDbXrecord
280
     1
  1
DWGPROPS COOKIE
  2

  3

  4

  6

  7

  8
FontanaNZ
  9

300
=
301
=
302
=
303
=
304
=
305
=
306
=
307
=
308
=
309
=
 40
0.0004425578703704
 41
2456457.613044271
 42
2456457.613486644
  1

 90
        0
  0
XRECORD
  5
539
102
{ACAD_REACTORS
330
E6
102
}
330
E6
100
AcDbXrecord
280
     1
290
     1
  0
XRECORD
  5
53B
102
{ACAD_REACTORS
330
53A
102
}
330
53A
100
AcDbXrecord
280
     1
290
     1
  0
LAYOUT
  5
59
102
{ACAD_XDICTIONARY
360
544
102
}
102
{ACAD_REACTORS
330
1A
102
}
330
1A
100
AcDbPlotSettings
  1

  2
None
  4

  6

 40
0.0
 41
0.0
 42
0.0
 43
0.0
 44
0.0
 45
0.0
 46
0.0
 47
0.0
 48
0.0
 49
0.0
140
0.0
141
0.0
142
1.0
143
1.0
 70
   688
 72
     0
 73
     0
 74
     5
  7

 75
    16
147
1.0
148
0.0
149
0.0
100
AcDbLayout
  1
Layout1
 70
     1
 71
     1
 10
0.0
 20
0.0
 11
12.0
 21
9.0
 12
0.0
 22
0.0
 32
0.0
 14
0.0
 24
0.0
 34
0.0
 15
0.0
 25
0.0
 35
0.0
146
0.0
 13
0.0
 23
0.0
 33
0.0
 16
1.0
 26
0.0
 36
0.0
 17
0.0
 27
1.0
 37
0.0
 76
     0
330
58
  0
LAYOUT
  5
5E
102
{ACAD_XDICTIONARY
360
546
102
}
102
{ACAD_REACTORS
330
1A
102
}
330
1A
100
AcDbPlotSettings
  1

  2
None
  4

  6

 40
0.0
 41
0.0
 42
0.0
 43
0.0
 44
0.0
 45
0.0
 46
0.0
 47
0.0
 48
0.0
 49
0.0
140
0.0
141
0.0
142
1.0
143
1.0
 70
   688
 72
     0
 73
     0
 74
     5
  7

 75
    16
147
1.0
148
0.0
149
0.0
100
AcDbLayout
  1
Layout2
 70
     1
 71
     2
 10
0.0
 20
0.0
 11
12.0
 21
9.0
 12
0.0
 22
0.0
 32
0.0
 14
0.0
 24
0.0
 34
0.0
 15
0.0
 25
0.0
 35
0.0
146
0.0
 13
0.0
 23
0.0
 33
0.0
 16
1.0
 26
0.0
 36
0.0
 17
0.0
 27
1.0
 37
0.0
 76
     0
330
5D
  0
LAYOUT
  5
22
102
{ACAD_XDICTIONARY
360
542
102
}
102
{ACAD_REACTORS
330
1A
102
}
330
1A
100
AcDbPlotSettings
  1

  2
none_device
  4
ANSI_A_(8.50_x_11.00_Inches)
  6

 40
6.349999904632568
 41
19.04999923706055
 42
6.350006103515625
 43
19.04998779296875
 44
215.8999938964844
 45
279.3999938964844
 46
0.0
 47
0.0
 48
0.0
 49
0.0
140
0.0
141
0.0
142
1.0
143
2.584895464708373
 70
 11952
 72
     0
 73
     1
 74
     0
  7

 75
     0
147
0.3868628397755418
148
0.0
149
0.0
100
AcDbLayout
  1
Model
 70
     1
 71
     0
 10
0.0
 20
0.0
 11
12.0
 21
9.0
 12
0.0
 22
0.0
 32
0.0
 14
0.0
 24
0.0
 34
0.0
 15
0.0
 25
0.0
 35
0.0
146
0.0
 13
0.0
 23
0.0
 33
0.0
 16
1.0
 26
0.0
 36
0.0
 17
0.0
 27
1.0
 37
0.0
 76
     0
330
1F
331
94
  0
MATERIAL
  5
97
102
{ACAD_XDICTIONARY
360
54B
102
}
102
{ACAD_REACTORS
330
72
102
}
330
72
100
AcDbMaterial
  1
ByBlock
  0
MATERIAL
  5
96
102
{ACAD_XDICTIONARY
360
549
102
}
102
{ACAD_REACTORS
330
72
102
}
330
72
100
AcDbMaterial
  1
ByLayer
  0
MATERIAL
  5
98
102
{ACAD_XDICTIONARY
360
110
102
}
102
{ACAD_REACTORS
330
72
102
}
330
72
100
AcDbMaterial
  1
Global
 43
0.0208000000566244
 43
0.0
 43
0.0
 43
0.0
 43
0.0
 43
0.0208000000566244
 43
0.0
 43
0.0
 43
0.0
 43
0.0
 43
1.0
 43
0.0
 43
0.0
 43
0.0
 43
0.0
 43
1.0
 49
0.0208000000566244
 49
0.0
 49
0.0
 49
0.0
 49
0.0
 49
0.0208000000566244
 49
0.0
 49
0.0
 49
0.0
 49
0.0
 49
1.0
 49
0.0
 49
0.0
 49
0.0
 49
0.0
 49
1.0
142
0.0208000000566244
142
0.0
142
0.0
142
0.0
142
0.0
142
0.0208000000566244
142
0.0
142
0.0
142
0.0
142
0.0
142
1.0
142
0.0
142
0.0
142
0.0
142
0.0
142
1.0
144
0.0208000000566244
144
0.0
144
0.0
144
0.0
144
0.0
144
0.0208000000566244
144
0.0
144
0.0
144
0.0
144
0.0
144
1.0
144
0.0
144
0.0
144
0.0
144
0.0
144
1.0
1001
ACAD
1070
    -1
1070
     3
1070
     0
1000

1071
        0
1070
     0
  0
MLEADERSTYLE
  5
E5
102
{ACAD_REACTORS
330
D7
102
}
330
D7
100
AcDbMLeaderStyle
170
     2
171
     1
172
     0
 90
        2
 40
0.0
 41
0.0
173
     1
 91
-1056964608
340
14
 92
       -2
290
     1
 42
0.09
291
     1
 43
0.36
  3
Standard
 44
0.18
300

342
11
174
     1
178
     1
175
     1
176
     0
 93
-1056964608
 45
0.18
292
     0
297
     0
 46
0.18
 94
-1056964608
 47
1.0
 49
1.0
140
1.0
293
     1
141
0.0
294
     1
177
     0
142
1.0
295
     0
296
     1
143
0.125
1001
ACAD_MLEADERVER
1070
     2
  0
MLEADERSTYLE
  5
D8
102
{ACAD_REACTORS
330
D7
102
}
330
D7
100
AcDbMLeaderStyle
170
     2
171
     1
172
     0
 90
        2
 40
0.0
 41
0.0
173
     1
 91
-1056964608
340
14
 92
       -2
290
     1
 42
0.09
291
     1
 43
0.36
  3
Standard
 44
0.18
300

342
11
174
     1
178
     1
175
     1
176
     0
 93
-1056964608
 45
0.18
292
     0
297
     0
 46
0.18
 94
-1056964608
 47
1.0
 49
1.0
140
1.0
293
     1
141
0.0
294
     1
177
     0
142
1.0
295
     0
296
     0
143
0.125
1001
ACAD_MLEADERVER
1070
     2
  0
MLINESTYLE
  5
18
102
{ACAD_REACTORS
330
17
102
}
330
17
100
AcDbMlineStyle
  2
STANDARD
 70
     0
  3

 62
   256
 51
90.0
 52
90.0
 71
     2
 49
0.5
 62
   256
  6
BYLAYER
 49
-0.5
 62
   256
  6
BYLAYER
  0
ACDBPLACEHOLDER
  5
F
102
{ACAD_REACTORS
330
E
102
}
330
E
  0
SCALE
  5
B7
102
{ACAD_REACTORS
330
B6
102
}
330
B6
100
AcDbScale
 70
     0
300
1:1
140
1.0
141
1.0
290
     1
  0
SCALE
  5
124
102
{ACAD_REACTORS
330
B6
102
}
330
B6
100
AcDbScale
 70
     0
300
1:2
140
1.0
141
2.0
290
     0
  0
SCALE
  5
125
102
{ACAD_REACTORS
330
B6
102
}
330
B6
100
AcDbScale
 70
     0
300
1:4
140
1.0
141
4.0
290
     0
  0
SCALE
  5
126
102
{ACAD_REACTORS
330
B6
102
}
330
B6
100
AcDbScale
 70
     0
300
1:5
140
1.0
141
5.0
290
     0
  0
SCALE
  5
127
102
{ACAD_REACTORS
330
B6
102
}
330
B6
100
AcDbScale
 70
     0
300
1:8
140
1.0
141
8.0
290
     0
  0
SCALE
  5
128
102
{ACAD_REACTORS
330
B6
102
}
330
B6
100
AcDbScale
 70
     0
300
1:10
140
1.0
141
10.0
290
     0
  0
SCALE
  5
129
102
{ACAD_REACTORS
330
B6
102
}
330
B6
100
AcDbScale
 70
     0
300
1:16
140
1.0
141
16.0
290
     0
  0
SCALE
  5
12A
102
{ACAD_REACTORS
330
B6
102
}
330
B6
100
AcDbScale
 70
     0
300
1:20
140
1.0
141
20.0
290
     0
  0
SCALE
  5
12B
102
{ACAD_REACTORS
330
B6
102
}
330
B6
100
AcDbScale
 70
     0
300
1:30
140
1.0
141
30.0
290
     0
  0
SCALE
  5
12C
102
{ACAD_REACTORS
330
B6
102
}
330
B6
100
AcDbScale
 70
     0
300
1:40
140
1.0
141
40.0
290
     0
  0
SCALE
  5
12D
102
{ACAD_REACTORS
330
B6
102
}
330
B6
100
AcDbScale
 70
     0
300
1:50
140
1.0
141
50.0
290
     0
  0
SCALE
  5
12E
102
{ACAD_REACTORS
330
B6
102
}
330
B6
100
AcDbScale
 70
     0
300
1:100
140
1.0
141
100.0
290
     0
  0
SCALE
  5
12F
102
{ACAD_REACTORS
330
B6
102
}
330
B6
100
AcDbScale
 70
     0
300
2:1
140
2.0
141
1.0
290
     0
  0
SCALE
  5
130
102
{ACAD_REACTORS
330
B6
102
}
330
B6
100
AcDbScale
 70
     0
300
4:1
140
4.0
141
1.0
290
     0
  0
SCALE
  5
131
102
{ACAD_REACTORS
330
B6
102
}
330
B6
100
AcDbScale
 70
     0
300
8:1
140
8.0
141
1.0
290
     0
  0
SCALE
  5
132
102
{ACAD_REACTORS
330
B6
102
}
330
B6
100
AcDbScale
 70
     0
300
10:1
140
10.0
141
1.0
290
     0
  0
SCALE
  5
133
102
{ACAD_REACTORS
330
B6
102
}
330
B6
100
AcDbScale
 70
     0
300
100:1
140
100.0
141
1.0
290
     0
  0
SCALE
  5
134
102
{ACAD_REACTORS
330
B6
102
}
330
B6
100
AcDbScale
 70
     0
300
1/128" = 1'-0"
140
0.0078125
141
12.0
290
     0
  0
SCALE
  5
135
102
{ACAD_REACTORS
330
B6
102
}
330
B6
100
AcDbScale
 70
     0
300
1/64" = 1'-0"
140
0.015625
141
12.0
290
     0
  0
SCALE
  5
136
102
{ACAD_REACTORS
330
B6
102
}
330
B6
100
AcDbScale
 70
     0
300
1/32" = 1'-0"
140
0.03125
141
12.0
290
     0
  0
SCALE
  5
137
102
{ACAD_REACTORS
330
B6
102
}
330
B6
100
AcDbScale
 70
     0
300
1/16" = 1'-0"
140
0.0625
141
12.0
290
     0
  0
SCALE
  5
138
102
{ACAD_REACTORS
330
B6
102
}
330
B6
100
AcDbScale
 70
     0
300
3/32" = 1'-0"
140
0.09375
141
12.0
290
     0
  0
SCALE
  5
139
102
{ACAD_REACTORS
330
B6
102
}
330
B6
100
AcDbScale
 70
     0
300
1/8" = 1'-0"
140
0.125
141
12.0
290
     0
  0
SCALE
  5
13A
102
{ACAD_REACTORS
330
B6
102
}
330
B6
100
AcDbScale
 70
     0
300
3/16" = 1'-0"
140
0.1875
141
12.0
290
     0
  0
SCALE
  5
13B
102
{ACAD_REACTORS
330
B6
102
}
330
B6
100
AcDbScale
 70
     0
300
1/4" = 1'-0"
140
0.25
141
12.0
290
     0
  0
SCALE
  5
13C
102
{ACAD_REACTORS
330
B6
102
}
330
B6
100
AcDbScale
 70
     0
300
3/8" = 1'-0"
140
0.375
141
12.0
290
     0
  0
SCALE
  5
13D
102
{ACAD_REACTORS
330
B6
102
}
330
B6
100
AcDbScale
 70
     0
300
1/2" = 1'-0"
140
0.5
141
12.0
290
     0
  0
SCALE
  5
13E
102
{ACAD_REACTORS
330
B6
102
}
330
B6
100
AcDbScale
 70
     0
300
3/4" = 1'-0"
140
0.75
141
12.0
290
     0
  0
SCALE
  5
13F
102
{ACAD_REACTORS
330
B6
102
}
330
B6
100
AcDbScale
 70
     0
300
1" = 1'-0"
140
1.0
141
12.0
290
     0
  0
SCALE
  5
140
102
{ACAD_REACTORS
330
B6
102
}
330
B6
100
AcDbScale
 70
     0
300
1-1/2" = 1'-0"
140
1.5
141
12.0
290
     0
  0
SCALE
  5
141
102
{ACAD_REACTORS
330
B6
102
}
330
B6
100
AcDbScale
 70
     0
300
3" = 1'-0"
140
3.0
141
12.0
290
     0
  0
SCALE
  5
142
102
{ACAD_REACTORS
330
B6
102
}
330
B6
100
AcDbScale
 70
     0
300
6" = 1'-0"
140
6.0
141
12.0
290
     0
  0
SCALE
  5
143
102
{ACAD_REACTORS
330
B6
102
}
330
B6
100
AcDbScale
 70
     0
300
1'-0" = 1'-0"
140
12.0
141
12.0
290
     0
  0
TABLESTYLE
  5
87
102
{ACAD_XDICTIONARY
360
104
102
}
102
{ACAD_REACTORS
330
86
102
}
330
86
100
AcDbTableStyle
  3
Standard
 70
     0
 71
     0
 40
0.06
 41
0.06
280
     0
281
     0
  7
Standard
140
0.18
170
     2
 62
     0
 63
     7
283
     0
274
    -2
284
     1
 64
     0
275
    -2
285
     1
 65
     0
276
    -2
286
     1
 66
     0
277
    -2
287
     1
 67
     0
278
    -2
288
     1
 68
     0
279
    -2
289
     1
 69
     0
  7
Standard
140
0.25
170
     5
 62
     0
 63
     7
283
     0
274
    -2
284
     1
 64
     0
275
    -2
285
     1
 65
     0
276
    -2
286
     1
 66
     0
277
    -2
287
     1
 67
     0
278
    -2
288
     1
 68
     0
279
    -2
289
     1
 69
     0
  7
Standard
140
0.18
170
     5
 62
     0
 63
     7
283
     0
274
    -2
284
     1
 64
     0
275
    -2
285
     1
 65
     0
276
    -2
286
     1
 66
     0
277
    -2
287
     1
 67
     0
278
    -2
288
     1
 68
     0
279
    -2
289
     1
 69
     0
  0
VISUALSTYLE
  5
9F
102
{ACAD_REACTORS
330
99
102
}
330
99
100
AcDbVisualStyle
  2
2dWireframe
 70
     4
 71
     0
 72
     2
 73
     1
 90
        0
 40
-0.6
 41
-30.0
 62
     5
 63
     7
 74
     1
 91
        4
 64
     7
 65
   257
 75
     1
175
     1
 42
1.0
 92
        0
 66
   257
 43
1.0
 76
     1
 77
     6
 78
     2
 67
     7
 79
     5
170
     0
171
     0
290
     0
174
     0
 93
        1
 44
0.0
173
     0
291
     0
 45
0.0
1001
ACAD
1000
AcDbSavedByObjectVersion
1070
     0
  0
VISUALSTYLE
  5
A1
102
{ACAD_REACTORS
330
99
102
}
330
99
100
AcDbVisualStyle
  2
3D Hidden
 70
     6
 71
     1
 72
     2
 73
     2
 90
        0
 40
-0.6
 41
-30.0
 62
     5
 63
     7
 74
     2
 91
        2
 64
     7
 65
   257
 75
     2
175
     1
 42
40.0
 92
        0
 66
   257
 43
1.0
 76
     1
 77
     6
 78
     2
 67
     7
 79
     3
170
     0
171
     0
290
     0
174
     0
 93
        1
 44
0.0
173
     0
291
     0
 45
0.0
1001
ACAD
1000
AcDbSavedByObjectVersion
1070
     0
  0
VISUALSTYLE
  5
A0
102
{ACAD_REACTORS
330
99
102
}
330
99
100
AcDbVisualStyle
  2
3dWireframe
 70
     5
 71
     0
 72
     2
 73
     1
 90
        0
 40
-0.6
 41
-30.0
 62
     5
 63
     7
 74
     1
 91
        4
 64
     7
 65
   257
 75
     1
175
     1
 42
1.0
 92
        0
 66
   257
 43
1.0
 76
     1
 77
     6
 78
     2
 67
     7
 79
     5
170
     0
171
     0
290
     0
174
     0
 93
        1
 44
0.0
173
     0
291
     0
 45
0.0
1001
ACAD
1000
AcDbSavedByObjectVersion
1070
     0
  0
VISUALSTYLE
  5
9E
102
{ACAD_REACTORS
330
99
102
}
330
99
100
AcDbVisualStyle
  2
Basic
 70
     7
 71
     1
 72
     0
 73
     1
 90
        0
 40
-0.6
 41
-30.0
 62
     5
 63
     7
 74
     0
 91
        4
 64
     7
 65
   257
 75
     1
175
     1
 42
1.0
 92
        8
 66
     7
 43
1.0
 76
     1
 77
     6
 78
     2
 67
     7
 79
     5
170
     0
171
     0
290
     0
174
     0
 93
        1
 44
0.0
173
     0
291
     1
 45
0.0
1001
ACAD
1000
AcDbSavedByObjectVersion
1070
     0
  0
VISUALSTYLE
  5
A5
102
{ACAD_REACTORS
330
99
102
}
330
99
100
AcDbVisualStyle
  2
Brighten
 70
    12
 71
     2
 72
     2
 73
     1
 90
        0
 40
-0.6
 41
-30.0
 62
     5
 63
     7
 74
     1
 91
        4
 64
     7
 65
   257
 75
     1
175
     1
 42
1.0
 92
        8
 66
     7
 43
1.0
 76
     1
 77
     6
 78
     2
 67
     7
 79
     5
170
     0
171
     0
290
     0
174
     0
 93
        1
 44
50.0
173
     0
291
     1
 45
0.0
1001
ACAD
1000
AcDbSavedByObjectVersion
1070
     0
  0
VISUALSTYLE
  5
A9
102
{ACAD_REACTORS
330
99
102
}
330
99
100
AcDbVisualStyle
  2
ColorChange
 70
    16
 71
     2
 72
     2
 73
     3
 90
        0
 40
-0.6
 41
-30.0
 62
     5
 63
     8
 74
     1
 91
        4
 64
     7
 65
   257
 75
     1
175
     1
 42
1.0
 92
        8
 66
     8
 43
1.0
 76
     1
 77
     6
 78
     2
 67
     7
 79
     5
170
     0
171
     0
290
     0
174
     0
 93
        1
 44
0.0
173
     0
291
     1
 45
0.0
1001
ACAD
1000
AcDbSavedByObjectVersion
1070
     0
  0
VISUALSTYLE
  5
A2
102
{ACAD_REACTORS
330
99
102
}
330
99
100
AcDbVisualStyle
  2
Conceptual
 70
     9
 71
     3
 72
     2
 73
     1
 90
        0
 40
-0.6
 41
-30.0
 62
     5
 63
     7
 74
     2
 91
        2
 64
     7
 65
   257
 75
     1
175
     1
 42
40.0
 92
        8
 66
     7
 43
1.0
 76
     1
 77
     6
 78
     2
 67
     7
 79
     3
170
     0
171
     0
290
     0
174
     0
 93
        1
 44
0.0
173
     0
291
     0
 45
0.0
1001
ACAD
1000
AcDbSavedByObjectVersion
1070
     0
  0
VISUALSTYLE
  5
A4
102
{ACAD_REACTORS
330
99
102
}
330
99
100
AcDbVisualStyle
  2
Dim
 70
    11
 71
     2
 72
     2
 73
     1
 90
        0
 40
-0.6
 41
-30.0
 62
     5
 63
     7
 74
     1
 91
        4
 64
     7
 65
   257
 75
     1
175
     1
 42
1.0
 92
        8
 66
     7
 43
1.0
 76
     1
 77
     6
 78
     2
 67
     7
 79
     5
170
     0
171
     0
290
     0
174
     0
 93
        1
 44
-50.0
173
     0
291
     1
 45
0.0
1001
ACAD
1000
AcDbSavedByObjectVersion
1070
     0
  0
VISUALSTYLE
  5
A8
102
{ACAD_REACTORS
330
99
102
}
330
99
100
AcDbVisualStyle
  2
Facepattern
 70
    15
 71
     2
 72
     2
 73
     1
 90
        0
 40
-0.6
 41
-30.0
 62
     5
 63
     7
 74
     1
 91
        4
 64
     7
 65
   257
 75
     1
175
     1
 42
1.0
 92
        8
 66
     7
 43
1.0
 76
     1
 77
     6
 78
     2
 67
     7
 79
     5
170
     0
171
     0
290
     0
174
     0
 93
        1
 44
0.0
173
     0
291
     1
 45
0.0
1001
ACAD
1000
AcDbSavedByObjectVersion
1070
     0
  0
VISUALSTYLE
  5
9A
102
{ACAD_REACTORS
330
99
102
}
330
99
100
AcDbVisualStyle
  2
Flat
 70
     0
 71
     2
 72
     1
 73
     1
 90
        2
 40
-0.6
 41
30.0
 62
     5
 63
     7
 74
     0
 91
        4
 64
     7
 65
   257
 75
     1
175
     1
 42
1.0
 92
        8
 66
     7
 43
1.0
 76
     1
 77
     6
 78
     2
 67
     7
 79
     5
170
     0
171
     0
290
     0
174
     0
 93
        1
 44
0.0
173
     0
291
     1
 45
0.0
1001
ACAD
1000
AcDbSavedByObjectVersion
1070
     0
  0
VISUALSTYLE
  5
9B
102
{ACAD_REACTORS
330
99
102
}
330
99
100
AcDbVisualStyle
  2
FlatWithEdges
 70
     1
 71
     2
 72
     1
 73
     1
 90
        2
 40
-0.6
 41
30.0
 62
     5
 63
     7
 74
     1
 91
        4
 64
     7
 65
   257
 75
     1
175
     1
 42
1.0
 92
        0
 66
   257
 43
1.0
 76
     1
 77
     6
 78
     2
 67
     7
 79
     5
170
     0
171
     0
290
     0
174
     0
 93
        1
 44
0.0
173
     0
291
     1
 45
0.0
1001
ACAD
1000
AcDbSavedByObjectVersion
1070
     0
  0
VISUALSTYLE
  5
9C
102
{ACAD_REACTORS
330
99
102
}
330
99
100
AcDbVisualStyle
  2
Gouraud
 70
     2
 71
     2
 72
     2
 73
     1
 90
        2
 40
-0.6
 41
30.0
 62
     5
 63
     7
 74
     0
 91
        4
 64
     7
 65
   257
 75
     1
175
     1
 42
1.0
 92
        0
 66
     7
 43
1.0
 76
     1
 77
     6
 78
     2
 67
     7
 79
     5
170
     0
171
     0
290
     0
174
     0
 93
        1
 44
0.0
173
     0
291
     1
 45
0.0
1001
ACAD
1000
AcDbSavedByObjectVersion
1070
     0
  0
VISUALSTYLE
  5
9D
102
{ACAD_REACTORS
330
99
102
}
330
99
100
AcDbVisualStyle
  2
GouraudWithEdges
 70
     3
 71
     2
 72
     2
 73
     1
 90
        2
 40
-0.6
 41
30.0
 62
     5
 63
     7
 74
     1
 91
        4
 64
     7
 65
   257
 75
     1
175
     1
 42
1.0
 92
        0
 66
   257
 43
1.0
 76
     1
 77
     6
 78
     2
 67
     7
 79
     5
170
     0
171
     0
290
     0
174
     0
 93
        1
 44
0.0
173
     0
291
     1
 45
0.0
1001
ACAD
1000
AcDbSavedByObjectVersion
1070
     0
  0
VISUALSTYLE
  5
A7
102
{ACAD_REACTORS
330
99
102
}
330
99
100
AcDbVisualStyle
  2
Linepattern
 70
    14
 71
     2
 72
     2
 73
     1
 90
        0
 40
-0.6
 41
-30.0
 62
     5
 63
     7
 74
     1
 91
        4
 64
     7
 65
   257
 75
     7
175
     7
 42
1.0
 92
        8
 66
     7
 43
1.0
 76
     1
 77
     6
 78
     2
 67
     7
 79
     5
170
     0
171
     0
290
     0
174
     0
 93
        1
 44
0.0
173
     0
291
     1
 45
0.0
1001
ACAD
1000
AcDbSavedByObjectVersion
1070
     0
  0
VISUALSTYLE
  5
A3
102
{ACAD_REACTORS
330
99
102
}
330
99
100
AcDbVisualStyle
  2
Realistic
 70
     8
 71
     2
 72
     2
 73
     1
 90
        0
 40
-0.6
 41
-30.0
 62
     5
 63
     7
 74
     1
 91
        0
 64
     7
 65
   257
 75
     1
175
     1
 42
1.0
 92
        8
 66
     8
 43
1.0
 76
     1
 77
     6
 78
     2
 67
     7
 79
     5
170
     0
171
     0
290
     0
174
     0
 93
       13
 44
0.0
173
     0
291
     0
 45
0.0
1001
ACAD
1000
AcDbSavedByObjectVersion
1070
     0
  0
VISUALSTYLE
  5
A6
102
{ACAD_REACTORS
330
99
102
}
330
99
100
AcDbVisualStyle
  2
Thicken
 70
    13
 71
     2
 72
     2
 73
     1
 90
        0
 40
-0.6
 41
-30.0
 62
     5
 63
     7
 74
     1
 91
        4
 64
     7
 65
   257
 75
     1
175
     1
 42
1.0
 92
       12
 66
     7
 43
1.0
 76
     1
 77
     6
 78
     2
 67
     7
 79
     5
170
     0
171
     0
290
     0
174
     0
 93
        1
 44
0.0
173
     0
291
     1
 45
0.0
1001
ACAD
1000
AcDbSavedByObjectVersion
1070
     0
  0
DICTIONARYVAR
  5
F0
102
{ACAD_REACTORS
330
66
102
}
330
66
100
DictionaryVariables
280
     0
  1
1:1
  0
DICTIONARYVAR
  5
EF
102
{ACAD_REACTORS
330
66
102
}
330
66
100
DictionaryVariables
280
     0
  1
STANDARD
  0
DICTIONARYVAR
  5
89
102
{ACAD_REACTORS
330
66
102
}
330
66
100
DictionaryVariables
280
     0
  1
STANDARD
  0
DICTIONARYVAR
  5
67
102
{ACAD_REACTORS
330
66
102
}
330
66
100
DictionaryVariables
280
     0
  1
2
  0
DICTIONARYVAR
  5
6B
102
{ACAD_REACTORS
330
66
102
}
330
66
100
DictionaryVariables
280
     0
  1
1
  0
DICTIONARYVAR
  5
53F
102
{ACAD_REACTORS
330
66
102
}
330
66
100
DictionaryVariables
280
     0
  1
0
  0
DICTIONARYVAR
  5
53D
102
{ACAD_REACTORS
330
66
102
}
330
66
100
DictionaryVariables
280
     0
  1
2
  0
DICTIONARYVAR
  5
53C
102
{ACAD_REACTORS
330
66
102
}
330
66
100
DictionaryVariables
280
     0
  1
1
  0
DICTIONARYVAR
  5
53E
102
{ACAD_REACTORS
330
66
102
}
330
66
100
DictionaryVariables
280
     0
  1
127
  0
DICTIONARY
  5
544
330
59
100
AcDbDictionary
280
     1
281
     1
  3
ACAD_XREC_ROUNDTRIP
360
545
  0
DICTIONARY
  5
546
330
5E
100
AcDbDictionary
280
     1
281
     1
  3
ACAD_XREC_ROUNDTRIP
360
547
  0
DICTIONARY
  5
542
330
22
100
AcDbDictionary
280
     1
281
     1
  3
ACAD_XREC_ROUNDTRIP
360
543
  0
DICTIONARY
  5
54B
330
97
100
AcDbDictionary
280
     1
281
     1
  3
ACAD_XREC_ROUNDTRIP
360
54C
  0
DICTIONARY
  5
549
330
96
100
AcDbDictionary
280
     1
281
     1
  3
ACAD_XREC_ROUNDTRIP
360
54A
  0
DICTIONARY
  5
110
330
98
100
AcDbDictionary
280
     1
281
     1
  3
ACAD_XREC_ROUNDTRIP
360
54D
  3
BUMPTILE
360
112
  3
DIFFUSETILE
360
111
  3
OPACITYTILE
360
113
  3
REFLECTIONTILE
360
114
  0
DICTIONARY
  5
104
330
87
100
AcDbDictionary
280
     1
281
     1
  3
ACAD_ROUNDTRIP_2008_TABLESTYLE_CELLSTYLEMAP
360
540
  3
ACAD_XREC_ROUNDTRIP
360
548
  0
XRECORD
  5
545
102
{ACAD_REACTORS
330
544
102
}
330
544
100
AcDbXrecord
280
     1
102
SHADEPLOT
 70
     0
102
SHADEPLOTRESLEVEL
 70
     2
102
SHADEPLOTCUSTOMDPI
 70
   300
  0
XRECORD
  5
547
102
{ACAD_REACTORS
330
546
102
}
330
546
100
AcDbXrecord
280
     1
102
SHADEPLOT
 70
     0
102
SHADEPLOTRESLEVEL
 70
     2
102
SHADEPLOTCUSTOMDPI
 70
   300
  0
XRECORD
  5
543
102
{ACAD_REACTORS
330
542
102
}
330
542
100
AcDbXrecord
280
     1
102
SHADEPLOT
 70
     0
102
SHADEPLOTRESLEVEL
 70
     2
102
SHADEPLOTCUSTOMDPI
 70
   300
  0
XRECORD
  5
54C
102
{ACAD_REACTORS
330
54B
102
}
330
54B
100
AcDbXrecord
280
     1
102
MATERIAL
148
0.0
149
0.0
149
0.0
 93
        0
 94
       63
282
     0
 72
     1
 77
     1
171
     1
175
     1
179
     1
273
     0
  0
XRECORD
  5
54A
102
{ACAD_REACTORS
330
549
102
}
330
549
100
AcDbXrecord
280
     1
102
MATERIAL
148
0.0
149
0.0
149
0.0
 93
        0
 94
       63
282
     0
 72
     1
 77
     1
171
     1
175
     1
179
     1
273
     0
  0
XRECORD
  5
54D
102
{ACAD_REACTORS
330
110
102
}
330
110
100
AcDbXrecord
280
     1
102
MATERIAL
148
0.0
149
0.0
149
0.0
 93
        0
 94
       63
282
     0
 72
     1
 77
     1
171
     1
175
     1
179
     1
273
     0
  0
XRECORD
  5
112
102
{ACAD_REACTORS
330
110
102
}
330
110
100
AcDbXrecord
280
     1
270
     1
271
     1
  0
XRECORD
  5
111
102
{ACAD_REACTORS
330
110
102
}
330
110
100
AcDbXrecord
280
     1
270
     1
271
     1
  0
XRECORD
  5
113
102
{ACAD_REACTORS
330
110
102
}
330
110
100
AcDbXrecord
280
     1
270
     1
271
     1
  0
XRECORD
  5
114
102
{ACAD_REACTORS
330
110
102
}
330
110
100
AcDbXrecord
280
     1
270
     1
271
     1
  0
CELLSTYLEMAP
  5
540
102
{ACAD_REACTORS
330
104
102
}
330
104
100
AcDbCellStyleMap
 90
        3
300
CELLSTYLE
  1
TABLEFORMAT_BEGIN
 90
        5
170
     1
 91
        0
 92
    32768
 62
   257
 93
        1
300
CONTENTFORMAT
  1
CONTENTFORMAT_BEGIN
 90
        0
 91
        0
 92
      512
 93
        0
300

 40
0.0
140
1.0
 94
        5
 62
     0
340
11
144
0.25
309
CONTENTFORMAT_END
171
     1
301
MARGIN
  1
CELLMARGIN_BEGIN
 40
0.06
 40
0.06
 40
0.06
 40
0.06
 40
0.18
 40
0.18
309
CELLMARGIN_END
 94
        6
 95
        1
302
GRIDFORMAT
  1
GRIDFORMAT_BEGIN
 90
        0
 91
        1
 62
     0
 92
       -2
340
0
 93
        0
 40
0.045
309
GRIDFORMAT_END
 95
        2
302
GRIDFORMAT
  1
GRIDFORMAT_BEGIN
 90
        0
 91
        1
 62
     0
 92
       -2
340
0
 93
        0
 40
0.045
309
GRIDFORMAT_END
 95
        4
302
GRIDFORMAT
  1
GRIDFORMAT_BEGIN
 90
        0
 91
        1
 62
     0
 92
       -2
340
0
 93
        0
 40
0.045
309
GRIDFORMAT_END
 95
        8
302
GRIDFORMAT
  1
GRIDFORMAT_BEGIN
 90
        0
 91
        1
 62
     0
 92
       -2
340
0
 93
        0
 40
0.045
309
GRIDFORMAT_END
 95
       16
302
GRIDFORMAT
  1
GRIDFORMAT_BEGIN
 90
        0
 91
        1
 62
     0
 92
       -2
340
0
 93
        0
 40
0.045
309
GRIDFORMAT_END
 95
       32
302
GRIDFORMAT
  1
GRIDFORMAT_BEGIN
 90
        0
 91
        1
 62
     0
 92
       -2
340
0
 93
        0
 40
0.045
309
GRIDFORMAT_END
309
TABLEFORMAT_END
  1
CELLSTYLE_BEGIN
 90
        1
 91
        1
300
_TITLE
309
CELLSTYLE_END
300
CELLSTYLE
  1
TABLEFORMAT_BEGIN
 90
        5
170
     1
 91
        0
 92
        0
 62
   257
 93
        1
300
CONTENTFORMAT
  1
CONTENTFORMAT_BEGIN
 90
        0
 91
        0
 92
      512
 93
        0
300

 40
0.0
140
1.0
 94
        5
 62
     0
340
11
144
0.18
309
CONTENTFORMAT_END
171
     1
301
MARGIN
  1
CELLMARGIN_BEGIN
 40
0.06
 40
0.06
 40
0.06
 40
0.06
 40
0.18
 40
0.18
309
CELLMARGIN_END
 94
        6
 95
        1
302
GRIDFORMAT
  1
GRIDFORMAT_BEGIN
 90
        0
 91
        1
 62
     0
 92
       -2
340
0
 93
        0
 40
0.045
309
GRIDFORMAT_END
 95
        2
302
GRIDFORMAT
  1
GRIDFORMAT_BEGIN
 90
        0
 91
        1
 62
     0
 92
       -2
340
0
 93
        0
 40
0.045
309
GRIDFORMAT_END
 95
        4
302
GRIDFORMAT
  1
GRIDFORMAT_BEGIN
 90
        0
 91
        1
 62
     0
 92
       -2
340
0
 93
        0
 40
0.045
309
GRIDFORMAT_END
 95
        8
302
GRIDFORMAT
  1
GRIDFORMAT_BEGIN
 90
        0
 91
        1
 62
     0
 92
       -2
340
0
 93
        0
 40
0.045
309
GRIDFORMAT_END
 95
       16
302
GRIDFORMAT
  1
GRIDFORMAT_BEGIN
 90
        0
 91
        1
 62
     0
 92
       -2
340
0
 93
        0
 40
0.045
309
GRIDFORMAT_END
 95
       32
302
GRIDFORMAT
  1
GRIDFORMAT_BEGIN
 90
        0
 91
        1
 62
     0
 92
       -2
340
0
 93
        0
 40
0.045
309
GRIDFORMAT_END
309
TABLEFORMAT_END
  1
CELLSTYLE_BEGIN
 90
        2
 91
        1
300
_HEADER
309
CELLSTYLE_END
300
CELLSTYLE
  1
TABLEFORMAT_BEGIN
 90
        5
170
     1
 91
        0
 92
        0
 62
   257
 93
        1
300
CONTENTFORMAT
  1
CONTENTFORMAT_BEGIN
 90
        0
 91
        0
 92
      512
 93
        0
300

 40
0.0
140
1.0
 94
        2
 62
     0
340
11
144
0.18
309
CONTENTFORMAT_END
171
     1
301
MARGIN
  1
CELLMARGIN_BEGIN
 40
0.06
 40
0.06
 40
0.06
 40
0.06
 40
0.18
 40
0.18
309
CELLMARGIN_END
 94
        6
 95
        1
302
GRIDFORMAT
  1
GRIDFORMAT_BEGIN
 90
        0
 91
        1
 62
     0
 92
       -2
340
0
 93
        0
 40
0.045
309
GRIDFORMAT_END
 95
        2
302
GRIDFORMAT
  1
GRIDFORMAT_BEGIN
 90
        0
 91
        1
 62
     0
 92
       -2
340
0
 93
        0
 40
0.045
309
GRIDFORMAT_END
 95
        4
302
GRIDFORMAT
  1
GRIDFORMAT_BEGIN
 90
        0
 91
        1
 62
     0
 92
       -2
340
0
 93
        0
 40
0.045
309
GRIDFORMAT_END
 95
        8
302
GRIDFORMAT
  1
GRIDFORMAT_BEGIN
 90
        0
 91
        1
 62
     0
 92
       -2
340
0
 93
        0
 40
0.045
309
GRIDFORMAT_END
 95
       16
302
GRIDFORMAT
  1
GRIDFORMAT_BEGIN
 90
        0
 91
        1
 62
     0
 92
       -2
340
0
 93
        0
 40
0.045
309
GRIDFORMAT_END
 95
       32
302
GRIDFORMAT
  1
GRIDFORMAT_BEGIN
 90
        0
 91
        1
 62
     0
 92
       -2
340
0
 93
        0
 40
0.045
309
GRIDFORMAT_END
309
TABLEFORMAT_END
  1
CELLSTYLE_BEGIN
 90
        3
 91
        2
300
_DATA
309
CELLSTYLE_END
  0
XRECORD
  5
548
102
{ACAD_REACTORS
330
104
102
}
330
104
100
AcDbXrecord
280
     1
102
ACAD_ROUNDTRIP_PRE2007_TABLESTYLE
 90
      512
 91
        0
  1

 92
      512
 93
        0
  2

 94
      512
 95
        0
  3

  0
ENDSEC
  0
EOF
