  0
SECTION
  2
HEADER
  9
$ACADVER
  1
AC1015
  9
$ACADMAINTVER
 70
    20
  9
$DWGCODEPAGE
  3
ANSI_1252
  9
$INSBASE
 10
0.0
 20
0.0
 30
0.0
  9
$EXTMIN
 10
-3.545823725626098
 20
-2.111704527232205
 30
0.0
  9
$EXTMAX
 10
166.902566622565
 20
113.7322088349359
 30
0.0
  9
$LIMMIN
 10
0.0
 20
0.0
  9
$LIMMAX
 10
12.0
 20
9.0
  9
$ORTHOMODE
 70
     0
  9
$REGENMODE
 70
     1
  9
$FILLMODE
 70
     1
  9
$QTEXTMODE
 70
     0
  9
$MIRRTEXT
 70
     0
  9
$LTSCALE
 40
1.0
  9
$ATTMODE
 70
     1
  9
$TEXTSIZE
 40
0.2
  9
$TRACEWID
 40
0.05
  9
$TEXTSTYLE
  7
Standard
  9
$CLAYER
  8
0
  9
$CELTYPE
  6
ByLayer
  9
$CECOLOR
 62
   256
  9
$CELTSCALE
 40
1.0
  9
$DISPSILH
 70
     0
  9
$DIMSCALE
 40
1.0
  9
$DIMASZ
 40
0.18
  9
$DIMEXO
 40
0.0625
  9
$DIMDLI
 40
0.38
  9
$DIMRND
 40
0.0
  9
$DIMDLE
 40
0.0
  9
$DIMEXE
 40
0.18
  9
$DIMTP
 40
0.0
  9
$DIMTM
 40
0.0
  9
$DIMTXT
 40
0.18
  9
$DIMCEN
 40
0.09
  9
$DIMTSZ
 40
0.0
  9
$DIMTOL
 70
     0
  9
$DIMLIM
 70
     0
  9
$DIMTIH
 70
     1
  9
$DIMTOH
 70
     1
  9
$DIMSE1
 70
     0
  9
$DIMSE2
 70
     0
  9
$DIMTAD
 70
     0
  9
$DIMZIN
 70
     0
  9
$DIMBLK
  1

  9
$DIMASO
 70
     1
  9
$DIMSHO
 70
     1
  9
$DIMPOST
  1

  9
$DIMAPOST
  1

  9
$DIMALT
 70
     0
  9
$DIMALTD
 70
     2
  9
$DIMALTF
 40
25.4
  9
$DIMLFAC
 40
1.0
  9
$DIMTOFL
 70
     0
  9
$DIMTVP
 40
0.0
  9
$DIMTIX
 70
     0
  9
$DIMSOXD
 70
     0
  9
$DIMSAH
 70
     0
  9
$DIMBLK1
  1

  9
$DIMBLK2
  1

  9
$DIMSTYLE
  2
Standard
  9
$DIMCLRD
 70
     0
  9
$DIMCLRE
 70
     0
  9
$DIMCLRT
 70
     0
  9
$DIMTFAC
 40
1.0
  9
$DIMGAP
 40
0.09
  9
$DIMJUST
 70
     0
  9
$DIMSD1
 70
     0
  9
$DIMSD2
 70
     0
  9
$DIMTOLJ
 70
     1
  9
$DIMTZIN
 70
     0
  9
$DIMALTZ
 70
     0
  9
$DIMALTTZ
 70
     0
  9
$DIMUPT
 70
     0
  9
$DIMDEC
 70
     4
  9
$DIMTDEC
 70
     4
  9
$DIMALTU
 70
     2
  9
$DIMALTTD
 70
     2
  9
$DIMTXSTY
  7
Standard
  9
$DIMAUNIT
 70
     0
  9
$DIMADEC
 70
     0
  9
$DIMALTRND
 40
0.0
  9
$DIMAZIN
 70
     0
  9
$DIMDSEP
 70
    46
  9
$DIMATFIT
 70
     3
  9
$DIMFRAC
 70
     0
  9
$DIMLDRBLK
  1

  9
$DIMLUNIT
 70
     2
  9
$DIMLWD
 70
    -2
  9
$DIMLWE
 70
    -2
  9
$DIMTMOVE
 70
     0
  9
$LUNITS
 70
     2
  9
$LUPREC
 70
     4
  9
$SKETCHINC
 40
0.1
  9
$FILLETRAD
 40
0.0
  9
$AUNITS
 70
     0
  9
$AUPREC
 70
     0
  9
$MENU
  1
.
  9
$ELEVATION
 40
0.0
  9
$PELEVATION
 40
0.0
  9
$THICKNESS
 40
0.0
  9
$LIMCHECK
 70
     0
  9
$CHAMFERA
 40
0.0
  9
$CHAMFERB
 40
0.0
  9
$CHAMFERC
 40
0.0
  9
$CHAMFERD
 40
0.0
  9
$SKPOLY
 70
     0
  9
$TDCREATE
 40
2456457.615521007
  9
$TDUCREATE
 40
2456457.532187674
  9
$TDUPDATE
 40
2456457.615963553
  9
$TDUUPDATE
 40
2456457.532630220
  9
$TDINDWG
 40
0.0004427315
  9
$TDUSRTIMER
 40
0.0004427315
  9
$USRTIMER
 70
     1
  9
$ANGBASE
 50
0.0
  9
$ANGDIR
 70
     0
  9
$PDMODE
 70
     0
  9
$PDSIZE
 40
0.0
  9
$PLINEWID
 40
0.0
  9
$SPLFRAME
 70
     0
  9
$SPLINETYPE
 70
     6
  9
$SPLINESEGS
 70
     8
  9
$HANDSEED
  5
4F2
  9
$SURFTAB1
 70
     6
  9
$SURFTAB2
 70
     6
  9
$SURFTYPE
 70
     6
  9
$SURFU
 70
     6
  9
$SURFV
 70
     6
  9
$UCSBASE
  2

  9
$UCSNAME
  2

  9
$UCSORG
 10
0.0
 20
0.0
 30
0.0
  9
$UCSXDIR
 10
1.0
 20
0.0
 30
0.0
  9
$UCSYDIR
 10
0.0
 20
1.0
 30
0.0
  9
$UCSORTHOREF
  2

  9
$UCSORTHOVIEW
 70
     0
  9
$UCSORGTOP
 10
0.0
 20
0.0
 30
0.0
  9
$UCSORGBOTTOM
 10
0.0
 20
0.0
 30
0.0
  9
$UCSORGLEFT
 10
0.0
 20
0.0
 30
0.0
  9
$UCSORGRIGHT
 10
0.0
 20
0.0
 30
0.0
  9
$UCSORGFRONT
 10
0.0
 20
0.0
 30
0.0
  9
$UCSORGBACK
 10
0.0
 20
0.0
 30
0.0
  9
$PUCSBASE
  2

  9
$PUCSNAME
  2

  9
$PUCSORG
 10
0.0
 20
0.0
 30
0.0
  9
$PUCSXDIR
 10
1.0
 20
0.0
 30
0.0
  9
$PUCSYDIR
 10
0.0
 20
1.0
 30
0.0
  9
$PUCSORTHOREF
  2

  9
$PUCSORTHOVIEW
 70
     0
  9
$PUCSORGTOP
 10
0.0
 20
0.0
 30
0.0
  9
$PUCSORGBOTTOM
 10
0.0
 20
0.0
 30
0.0
  9
$PUCSORGLEFT
 10
0.0
 20
0.0
 30
0.0
  9
$PUCSORGRIGHT
 10
0.0
 20
0.0
 30
0.0
  9
$PUCSORGFRONT
 10
0.0
 20
0.0
 30
0.0
  9
$PUCSORGBACK
 10
0.0
 20
0.0
 30
0.0
  9
$USERI1
 70
     0
  9
$USERI2
 70
     0
  9
$USERI3
 70
     0
  9
$USERI4
 70
     0
  9
$USERI5
 70
     0
  9
$USERR1
 40
0.0
  9
$USERR2
 40
0.0
  9
$USERR3
 40
0.0
  9
$USERR4
 40
0.0
  9
$USERR5
 40
0.0
  9
$WORLDVIEW
 70
     1
  9
$SHADEDGE
 70
     3
  9
$SHADEDIF
 70
    70
  9
$TILEMODE
 70
     1
  9
$MAXACTVP
 70
    64
  9
$PINSBASE
 10
0.0
 20
0.0
 30
0.0
  9
$PLIMCHECK
 70
     0
  9
$PEXTMIN
 10
0.0
 20
0.0
 30
0.0
  9
$PEXTMAX
 10
0.0
 20
0.0
 30
0.0
  9
$PLIMMIN
 10
0.0
 20
0.0
  9
$PLIMMAX
 10
12.0
 20
9.0
  9
$UNITMODE
 70
     0
  9
$VISRETAIN
 70
     1
  9
$PLINEGEN
 70
     0
  9
$PSLTSCALE
 70
     1
  9
$TREEDEPTH
 70
  3020
  9
$CMLSTYLE
  2
Standard
  9
$CMLJUST
 70
     0
  9
$CMLSCALE
 40
1.0
  9
$PROXYGRAPHICS
 70
     1
  9
$MEASUREMENT
 70
     0
  9
$CELWEIGHT
370
    -1
  9
$ENDCAPS
280
     0
  9
$JOINSTYLE
280
     0
  9
$LWDISPLAY
290
     0
  9
$INSUNITS
 70
     1
  9
$HYPERLINKBASE
  1

  9
$STYLESHEET
  1

  9
$XEDIT
290
     1
  9
$CEPSNTYPE
380
     0
  9
$PSTYLEMODE
290
     1
  9
$FINGERPRINTGUID
  2
{D3F5E934-5CBB-4DBB-ADC3-89206B17F864}
  9
$VERSIONGUID
  2
{1947E388-E131-4DDC-9A5C-1EDF0BE528FB}
  9
$EXTNAMES
290
     1
  9
$PSVPSCALE
 40
0.0
  9
$OLESTARTUP
290
     0
  0
ENDSEC
  0
SECTION
  2
CLASSES
  0
CLASS
  1
ACDBDICTIONARYWDFLT
  2
AcDbDictionaryWithDefault
  3
ObjectDBX Classes
 90
        0
280
     0
281
     0
  0
CLASS
  1
ACDBPLACEHOLDER
  2
AcDbPlaceHolder
  3
ObjectDBX Classes
 90
        0
280
     0
281
     0
  0
CLASS
  1
LAYOUT
  2
AcDbLayout
  3
ObjectDBX Classes
 90
        0
280
     0
281
     0
  0
CLASS
  1
DICTIONARYVAR
  2
AcDbDictionaryVar
  3
ObjectDBX Classes
 90
        0
280
     0
281
     0
  0
CLASS
  1
TABLESTYLE
  2
AcDbTableStyle
  3
ObjectDBX Classes
 90
     4095
280
     0
281
     0
  0
CLASS
  1
MATERIAL
  2
AcDbMaterial
  3
ObjectDBX Classes
 90
     1153
280
     0
281
     0
  0
CLASS
  1
VISUALSTYLE
  2
AcDbVisualStyle
  3
ObjectDBX Classes
 90
     4095
280
     0
281
     0
  0
CLASS
  1
SCALE
  2
AcDbScale
  3
ObjectDBX Classes
 90
     1153
280
     0
281
     0
  0
CLASS
  1
MLEADERSTYLE
  2
AcDbMLeaderStyle
  3
ACDB_MLEADERSTYLE_CLASS
 90
     4095
280
     0
281
     0
  0
CLASS
  1
CELLSTYLEMAP
  2
AcDbCellStyleMap
  3
ObjectDBX Classes
 90
     1152
280
     0
281
     0
  0
CLASS
  1
SORTENTSTABLE
  2
AcDbSortentsTable
  3
ObjectDBX Classes
 90
        0
280
     0
281
     0
  0
ENDSEC
  0
SECTION
  2
TABLES
  0
TABLE
  2
VPORT
  5
8
330
0
100
AcDbSymbolTable
 70
     1
  0
VPORT
  5
94
330
8
100
AcDbSymbolTableRecord
100
AcDbViewportTableRecord
  2
*Active
 70
     0
 10
0.0
 20
0.0
 11
1.0
 21
1.0
 12
71.03505515419171
 22
64.11631806395789
 13
0.0
 23
0.0
 14
0.5
 24
0.5
 15
0.5
 25
0.5
 16
0.0
 26
0.0
 36
1.0
 17
0.0
 27
0.0
 37
0.0
 40
227.2503433926741
 41
1.207207207207207
 42
50.0
 43
0.0
 44
0.0
 50
0.0
 51
0.0
 71
     0
 72
  1000
 73
     1
 74
     3
 75
     0
 76
     0
 77
     0
 78
     0
281
     0
 65
     1
110
0.0
120
0.0
130
0.0
111
1.0
121
0.0
131
0.0
112
0.0
122
1.0
132
0.0
 79
     0
146
0.0
  0
ENDTAB
  0
TABLE
  2
LTYPE
  5
5
330
0
100
AcDbSymbolTable
 70
     1
  0
LTYPE
  5
14
330
5
100
AcDbSymbolTableRecord
100
AcDbLinetypeTableRecord
  2
ByBlock
 70
     0
  3

 72
    65
 73
     0
 40
0.0
  0
LTYPE
  5
15
330
5
100
AcDbSymbolTableRecord
100
AcDbLinetypeTableRecord
  2
ByLayer
 70
     0
  3

 72
    65
 73
     0
 40
0.0
  0
LTYPE
  5
16
330
5
100
AcDbSymbolTableRecord
100
AcDbLinetypeTableRecord
  2
Continuous
 70
     0
  3
Solid line
 72
    65
 73
     0
 40
0.0
  0
ENDTAB
  0
TABLE
  2
LAYER
  5
2
330
0
100
AcDbSymbolTable
 70
     3
  0
LAYER
  5
10
102
{ACAD_XDICTIONARY
360
E6
102
}
330
2
100
AcDbSymbolTableRecord
100
AcDbLayerTableRecord
  2
0
 70
     0
 62
     7
  6
Continuous
370
    -3
390
F
  0
LAYER
  5
189
330
2
100
AcDbSymbolTableRecord
100
AcDbLayerTableRecord
  2
Defpoints
 70
     0
 62
     7
  6
Continuous
290
     0
370
    -3
390
F
  0
LAYER
  5
18A
102
{ACAD_XDICTIONARY
360
4DE
102
}
330
2
100
AcDbSymbolTableRecord
100
AcDbLayerTableRecord
  2
QUOTE
 70
     0
 62
     7
  6
Continuous
370
    13
390
F
1001
AcAecLayerStandard
1000

1000

  0
ENDTAB
  0
TABLE
  2
STYLE
  5
3
330
0
100
AcDbSymbolTable
 70
     2
  0
STYLE
  5
11
330
3
100
AcDbSymbolTableRecord
100
AcDbTextStyleTableRecord
  2
Standard
 70
     0
 40
0.0
 41
1.0
 50
0.0
 71
     0
 42
0.2
  3
txt.shx
  4

  0
STYLE
  5
DC
330
3
100
AcDbSymbolTableRecord
100
AcDbTextStyleTableRecord
  2
Annotativa
 70
     0
 40
0.0
 41
1.0
 50
0.0
 71
     0
 42
0.2
  3
txt.shx
  4

1001
AcadAnnotative
1000
AnnotativeData
1002
{
1070
     1
1070
     1
1002
}
  0
ENDTAB
  0
TABLE
  2
VIEW
  5
6
330
0
100
AcDbSymbolTable
 70
     0
  0
ENDTAB
  0
TABLE
  2
UCS
  5
7
330
0
100
AcDbSymbolTable
 70
     0
  0
ENDTAB
  0
TABLE
  2
APPID
  5
9
330
0
100
AcDbSymbolTable
 70
     7
  0
APPID
  5
12
330
9
100
AcDbSymbolTableRecord
100
AcDbRegAppTableRecord
  2
ACAD
 70
     0
  0
APPID
  5
DD
330
9
100
AcDbSymbolTableRecord
100
AcDbRegAppTableRecord
  2
AcadAnnoPO
 70
     0
  0
APPID
  5
DE
330
9
100
AcDbSymbolTableRecord
100
AcDbRegAppTableRecord
  2
AcadAnnotative
 70
     0
  0
APPID
  5
DF
330
9
100
AcDbSymbolTableRecord
100
AcDbRegAppTableRecord
  2
ACAD_DSTYLE_DIMJAG
 70
     0
  0
APPID
  5
E0
330
9
100
AcDbSymbolTableRecord
100
AcDbRegAppTableRecord
  2
ACAD_DSTYLE_DIMTALN
 70
     0
  0
APPID
  5
107
330
9
100
AcDbSymbolTableRecord
100
AcDbRegAppTableRecord
  2
ACAD_MLEADERVER
 70
     0
  0
APPID
  5
18B
330
9
100
AcDbSymbolTableRecord
100
AcDbRegAppTableRecord
  2
AcAecLayerStandard
 70
     0
  0
ENDTAB
  0
TABLE
  2
DIMSTYLE
  5
A
330
0
100
AcDbSymbolTable
 70
     2
100
AcDbDimStyleTable
 71
     2
340
27
340
E1
  0
DIMSTYLE
105
27
102
{ACAD_REACTORS
330
30F
330
310
330
396
330
397
330
398
102
}
330
A
100
AcDbSymbolTableRecord
100
AcDbDimStyleTableRecord
  2
Standard
 70
     0
340
11
  0
DIMSTYLE
105
E1
330
A
100
AcDbSymbolTableRecord
100
AcDbDimStyleTableRecord
  2
Annotativa
 70
     0
 40
0.0
340
11
1001
AcadAnnotative
1000
AnnotativeData
1002
{
1070
     1
1070
     1
1002
}
1001
ACAD_DSTYLE_DIMJAG
1070
   388
1040
1.5
1001
ACAD_DSTYLE_DIMTALN
1070
   392
1070
     0
  0
ENDTAB
  0
TABLE
  2
BLOCK_RECORD
  5
1
330
0
100
AcDbSymbolTable
 70
    12
  0
BLOCK_RECORD
  5
1F
330
1
100
AcDbSymbolTableRecord
100
AcDbBlockTableRecord
  2
*Model_Space
340
22
  0
BLOCK_RECORD
  5
58
330
1
100
AcDbSymbolTableRecord
100
AcDbBlockTableRecord
  2
*Paper_Space
340
59
  0
BLOCK_RECORD
  5
5D
330
1
100
AcDbSymbolTableRecord
100
AcDbBlockTableRecord
  2
*Paper_Space0
340
5E
  0
BLOCK_RECORD
  5
14D
330
1
100
AcDbSymbolTableRecord
100
AcDbBlockTableRecord
  2
*D1
340
0
  0
BLOCK_RECORD
  5
159
330
1
100
AcDbSymbolTableRecord
100
AcDbBlockTableRecord
  2
*D2
340
0
  0
BLOCK_RECORD
  5
165
330
1
100
AcDbSymbolTableRecord
100
AcDbBlockTableRecord
  2
*D3
340
0
  0
BLOCK_RECORD
  5
171
330
1
100
AcDbSymbolTableRecord
100
AcDbBlockTableRecord
  2
*D4
340
0
  0
BLOCK_RECORD
  5
17D
330
1
100
AcDbSymbolTableRecord
100
AcDbBlockTableRecord
  2
*D5
340
0
  0
BLOCK_RECORD
  5
406
330
1
100
AcDbSymbolTableRecord
100
AcDbBlockTableRecord
  2
*D7
340
0
  0
BLOCK_RECORD
  5
413
330
1
100
AcDbSymbolTableRecord
100
AcDbBlockTableRecord
  2
*D8
340
0
  0
BLOCK_RECORD
  5
420
330
1
100
AcDbSymbolTableRecord
100
AcDbBlockTableRecord
  2
*D9
340
0
  0
BLOCK_RECORD
  5
42D
330
1
100
AcDbSymbolTableRecord
100
AcDbBlockTableRecord
  2
*D10
340
0
  0
BLOCK_RECORD
  5
43A
330
1
100
AcDbSymbolTableRecord
100
AcDbBlockTableRecord
  2
*D11
340
0
  0
ENDTAB
  0
ENDSEC
  0
SECTION
  2
BLOCKS
  0
BLOCK
  5
20
330
1F
100
AcDbEntity
  8
0
100
AcDbBlockBegin
  2
*Model_Space
 70
     0
 10
0.0
 20
0.0
 30
0.0
  3
*Model_Space
  1

  0
ENDBLK
  5
21
330
1F
100
AcDbEntity
  8
0
100
AcDbBlockEnd
  0
BLOCK
  5
5A
330
58
100
AcDbEntity
 67
     1
  8
0
100
AcDbBlockBegin
  2
*Paper_Space
 70
     0
 10
0.0
 20
0.0
 30
0.0
  3
*Paper_Space
  1

  0
ENDBLK
  5
5B
330
58
100
AcDbEntity
 67
     1
  8
0
100
AcDbBlockEnd
  0
BLOCK
  5
5F
330
5D
100
AcDbEntity
 67
     1
  8
0
100
AcDbBlockBegin
  2
*Paper_Space0
 70
     0
 10
0.0
 20
0.0
 30
0.0
  3
*Paper_Space0
  1

  0
ENDBLK
  5
60
330
5D
100
AcDbEntity
 67
     1
  8
0
100
AcDbBlockEnd
  0
BLOCK
  5
14E
330
14D
100
AcDbEntity
  8
0
 62
     1
100
AcDbBlockBegin
  2
*D1
 70
     1
 10
0.0
 20
0.0
 30
0.0
  3
*D1
  1

  0
LINE
  5
14F
330
14D
100
AcDbEntity
  8
QUOTE
 62
     0
370
    -2
100
AcDbLine
 10
-411.1722059270437
 20
-659.5748202041039
 30
0.0
 11
-411.1722059270437
 21
-651.2498296151732
 31
0.0
  0
LINE
  5
150
330
14D
100
AcDbEntity
  8
QUOTE
 62
     0
370
    -2
100
AcDbLine
 10
-366.1722069270437
 20
-659.5748202041039
 30
0.0
 11
-366.1722069270437
 21
-651.2498296151732
 31
0.0
  0
LINE
  5
151
330
14D
100
AcDbEntity
  8
QUOTE
 62
     0
370
    -2
100
AcDbLine
 10
-408.6722059270437
 20
-652.4998296151732
 30
0.0
 11
-368.6722069270438
 21
-652.4998296151732
 31
0.0
  0
SOLID
  5
152
330
14D
100
AcDbEntity
  8
QUOTE
 62
     0
100
AcDbTrace
 10
-408.6722059270437
 20
-652.0831629485066
 30
0.0
 11
-408.6722059270437
 21
-652.9164962818398
 31
0.0
 12
-411.1722059270437
 22
-652.4998296151732
 32
0.0
 13
-411.1722059270437
 23
-652.4998296151732
 33
0.0
  0
SOLID
  5
153
330
14D
100
AcDbEntity
  8
QUOTE
 62
     0
100
AcDbTrace
 10
-368.6722069270438
 20
-652.0831629485066
 30
0.0
 11
-368.6722069270438
 21
-652.9164962818398
 31
0.0
 12
-366.1722069270437
 22
-652.4998296151732
 32
0.0
 13
-366.1722069270437
 23
-652.4998296151732
 33
0.0
  0
MTEXT
  5
154
330
14D
100
AcDbEntity
  8
QUOTE
 62
     0
100
AcDbMText
 10
-388.6722064270438
 20
-649.3748296151732
 30
0.0
 40
5.0
 41
0.0
 71
     5
 72
     1
  1
45
 73
     1
 44
1.0
1001
ACAD
1000
MTEXTBEGIN
1070
    73
1070
     1
1070
    44
1040
1.0
1070
    74
1070
     0
1000
MTEXTEND
  0
POINT
  5
155
330
14D
100
AcDbEntity
  8
Defpoints
 62
     0
100
AcDbPoint
 10
-411.1722059270437
 20
-660.1998202041039
 30
0.0
  0
POINT
  5
156
330
14D
100
AcDbEntity
  8
Defpoints
 62
     0
100
AcDbPoint
 10
-366.1722069270437
 20
-660.1998202041039
 30
0.0
  0
POINT
  5
157
330
14D
100
AcDbEntity
  8
Defpoints
 62
     0
100
AcDbPoint
 10
-366.1722069270437
 20
-652.4998296151732
 30
0.0
  0
ENDBLK
  5
158
330
14D
100
AcDbEntity
  8
0
 62
     1
100
AcDbBlockEnd
  0
BLOCK
  5
15A
330
159
100
AcDbEntity
  8
0
 62
     1
100
AcDbBlockBegin
  2
*D2
 70
     1
 10
0.0
 20
0.0
 30
0.0
  3
*D2
  1

  0
LINE
  5
15B
330
159
100
AcDbEntity
  8
QUOTE
 62
     0
370
    -2
100
AcDbLine
 10
-411.3472097530693
 20
-744.9997992040191
 30
0.0
 11
-423.1648270848167
 21
-744.9997992040191
 31
0.0
  0
LINE
  5
15C
330
159
100
AcDbEntity
  8
QUOTE
 62
     0
370
    -2
100
AcDbLine
 10
-411.3472069270438
 20
-659.9998072041039
 30
0.0
 11
-423.1648270848167
 21
-659.9998072041039
 31
0.0
  0
LINE
  5
15D
330
159
100
AcDbEntity
  8
QUOTE
 62
     0
370
    -2
100
AcDbLine
 10
-421.9148270848167
 20
-742.4997992040191
 30
0.0
 11
-421.9148270848167
 21
-662.4998072041039
 31
0.0
  0
SOLID
  5
15E
330
159
100
AcDbEntity
  8
QUOTE
 62
     0
100
AcDbTrace
 10
-422.3314937514833
 20
-742.4997992040191
 30
0.0
 11
-421.4981604181501
 21
-742.4997992040191
 31
0.0
 12
-421.9148270848167
 22
-744.9997992040191
 32
0.0
 13
-421.9148270848167
 23
-744.9997992040191
 33
0.0
  0
SOLID
  5
15F
330
159
100
AcDbEntity
  8
QUOTE
 62
     0
100
AcDbTrace
 10
-422.3314937514833
 20
-662.4998072041039
 30
0.0
 11
-421.4981604181501
 21
-662.4998072041039
 31
0.0
 12
-421.9148270848167
 22
-659.9998072041039
 32
0.0
 13
-421.9148270848167
 23
-659.9998072041039
 33
0.0
  0
MTEXT
  5
160
330
159
100
AcDbEntity
  8
QUOTE
 62
     0
100
AcDbMText
 10
-425.0398270848166
 20
-702.4998032040616
 30
0.0
 40
5.0
 41
0.0
 71
     5
 72
     1
  1
85
 11
0.0000000000000001
 21
1.0
 31
0.0
 73
     1
 44
1.0
1001
ACAD
1000
MTEXTBEGIN
1070
    73
1070
     1
1070
    44
1040
1.0
1070
    74
1070
     0
1000
MTEXTEND
  0
POINT
  5
161
330
159
100
AcDbEntity
  8
Defpoints
 62
     0
100
AcDbPoint
 10
-410.7222097530693
 20
-744.9997992040191
 30
0.0
  0
POINT
  5
162
330
159
100
AcDbEntity
  8
Defpoints
 62
     0
100
AcDbPoint
 10
-410.7222069270437
 20
-659.9998072041039
 30
0.0
  0
POINT
  5
163
330
159
100
AcDbEntity
  8
Defpoints
 62
     0
100
AcDbPoint
 10
-421.9148270848167
 20
-659.9998072041039
 30
0.0
  0
ENDBLK
  5
164
330
159
100
AcDbEntity
  8
0
 62
     1
100
AcDbBlockEnd
  0
BLOCK
  5
166
330
165
100
AcDbEntity
  8
0
 62
     1
100
AcDbBlockBegin
  2
*D3
 70
     1
 10
0.0
 20
0.0
 30
0.0
  3
*D3
  1

  0
LINE
  5
167
330
165
100
AcDbEntity
  8
QUOTE
 62
     0
370
    -2
100
AcDbLine
 10
-334.0280502379843
 20
-750.5820653716572
 30
0.0
 11
-339.8498885697317
 21
-750.5820653716572
 31
0.0
  0
LINE
  5
168
330
165
100
AcDbEntity
  8
QUOTE
 62
     0
370
    -2
100
AcDbLine
 10
-328.4247700699589
 20
-660.0820653716572
 30
0.0
 11
-339.8498885697317
 21
-660.0820653716572
 31
0.0
  0
LINE
  5
169
330
165
100
AcDbEntity
  8
QUOTE
 62
     0
370
    -2
100
AcDbLine
 10
-338.5998885697317
 20
-748.0820653716572
 30
0.0
 11
-338.5998885697317
 21
-662.5820653716572
 31
0.0
  0
SOLID
  5
16A
330
165
100
AcDbEntity
  8
QUOTE
 62
     0
100
AcDbTrace
 10
-339.0165552363984
 20
-748.0820653716572
 30
0.0
 11
-338.183221903065
 21
-748.0820653716572
 31
0.0
 12
-338.5998885697317
 22
-750.5820653716572
 32
0.0
 13
-338.5998885697317
 23
-750.5820653716572
 33
0.0
  0
SOLID
  5
16B
330
165
100
AcDbEntity
  8
QUOTE
 62
     0
100
AcDbTrace
 10
-339.0165552363984
 20
-662.5820653716572
 30
0.0
 11
-338.183221903065
 21
-662.5820653716572
 31
0.0
 12
-338.5998885697317
 22
-660.0820653716572
 32
0.0
 13
-338.5998885697317
 23
-660.0820653716572
 33
0.0
  0
MTEXT
  5
16C
330
165
100
AcDbEntity
  8
QUOTE
 62
     0
100
AcDbMText
 10
-342.0986801721824
 20
-705.3320653716573
 30
0.0
 40
5.0
 41
0.0
 71
     5
 72
     1
  1
90,5
 11
0.0000000000000001
 21
1.0
 31
0.0
 73
     1
 44
1.0
1001
ACAD
1000
MTEXTBEGIN
1070
    73
1070
     1
1070
    44
1040
1.0
1070
    74
1070
     0
1000
MTEXTEND
  0
POINT
  5
16D
330
165
100
AcDbEntity
  8
Defpoints
 62
     0
100
AcDbPoint
 10
-333.4030502379843
 20
-750.5820653716572
 30
0.0
  0
POINT
  5
16E
330
165
100
AcDbEntity
  8
Defpoints
 62
     0
100
AcDbPoint
 10
-327.7997700699589
 20
-660.0820653716572
 30
0.0
  0
POINT
  5
16F
330
165
100
AcDbEntity
  8
Defpoints
 62
     0
100
AcDbPoint
 10
-338.5998885697317
 20
-660.0820653716572
 30
0.0
  0
ENDBLK
  5
170
330
165
100
AcDbEntity
  8
0
 62
     1
100
AcDbBlockEnd
  0
BLOCK
  5
172
330
171
100
AcDbEntity
  8
0
 62
     1
100
AcDbBlockBegin
  2
*D4
 70
     1
 10
0.0
 20
0.0
 30
0.0
  3
*D4
  1

  0
LINE
  5
173
330
171
100
AcDbEntity
  8
QUOTE
 62
     0
370
    -2
100
AcDbLine
 10
-327.7997700699589
 20
-659.4570653716572
 30
0.0
 11
-327.7997700699589
 21
-651.1556476151956
 31
0.0
  0
LINE
  5
174
330
171
100
AcDbEntity
  8
QUOTE
 62
     0
370
    -2
100
AcDbLine
 10
-283.8030502379843
 20
-661.9174292041264
 30
0.0
 11
-283.8030502379843
 21
-651.1556476151956
 31
0.0
  0
LINE
  5
175
330
171
100
AcDbEntity
  8
QUOTE
 62
     0
370
    -2
100
AcDbLine
 10
-325.2997700699589
 20
-652.4056476151956
 30
0.0
 11
-286.3030502379843
 21
-652.4056476151956
 31
0.0
  0
SOLID
  5
176
330
171
100
AcDbEntity
  8
QUOTE
 62
     0
100
AcDbTrace
 10
-325.2997700699589
 20
-651.988980948529
 30
0.0
 11
-325.2997700699589
 21
-652.8223142818623
 31
0.0
 12
-327.7997700699589
 22
-652.4056476151956
 32
0.0
 13
-327.7997700699589
 23
-652.4056476151956
 33
0.0
  0
SOLID
  5
177
330
171
100
AcDbEntity
  8
QUOTE
 62
     0
100
AcDbTrace
 10
-286.3030502379843
 20
-651.988980948529
 30
0.0
 11
-286.3030502379843
 21
-652.8223142818623
 31
0.0
 12
-283.8030502379843
 22
-652.4056476151956
 32
0.0
 13
-283.8030502379843
 23
-652.4056476151956
 33
0.0
  0
MTEXT
  5
178
330
171
100
AcDbEntity
  8
QUOTE
 62
     0
100
AcDbMText
 10
-305.8014101539716
 20
-649.2806476151956
 30
0.0
 40
5.0
 41
0.0
 71
     5
 72
     1
  1
44
 73
     1
 44
1.0
1001
ACAD
1000
MTEXTBEGIN
1070
    73
1070
     1
1070
    44
1040
1.0
1070
    74
1070
     0
1000
MTEXTEND
  0
POINT
  5
179
330
171
100
AcDbEntity
  8
Defpoints
 62
     0
100
AcDbPoint
 10
-327.7997700699589
 20
-660.0820653716572
 30
0.0
  0
POINT
  5
17A
330
171
100
AcDbEntity
  8
Defpoints
 62
     0
100
AcDbPoint
 10
-283.8030502379843
 20
-662.5424292041263
 30
0.0
  0
POINT
  5
17B
330
171
100
AcDbEntity
  8
Defpoints
 62
     0
100
AcDbPoint
 10
-283.8030502379843
 20
-652.4056476151956
 30
0.0
  0
ENDBLK
  5
17C
330
171
100
AcDbEntity
  8
0
 62
     1
100
AcDbBlockEnd
  0
BLOCK
  5
17E
330
17D
100
AcDbEntity
  8
0
 62
     1
100
AcDbBlockBegin
  2
*D5
 70
     1
 10
0.0
 20
0.0
 30
0.0
  3
*D5
  1

  0
LINE
  5
17F
330
17D
100
AcDbEntity
  8
QUOTE
 62
     0
370
    -2
100
AcDbLine
 10
-327.7997700699589
 20
-745.5189762041263
 30
0.0
 11
-327.7997700699589
 21
-761.3745609773637
 31
0.0
  0
LINE
  5
180
330
17D
100
AcDbEntity
  8
QUOTE
 62
     0
370
    -2
100
AcDbLine
 10
-264.799770069959
 20
-723.3914872041264
 30
0.0
 11
-264.799770069959
 21
-761.3745609773637
 31
0.0
  0
LINE
  5
181
330
17D
100
AcDbEntity
  8
QUOTE
 62
     0
370
    -2
100
AcDbLine
 10
-325.2997700699589
 20
-760.1245609773638
 30
0.0
 11
-267.299770069959
 21
-760.1245609773638
 31
0.0
  0
SOLID
  5
182
330
17D
100
AcDbEntity
  8
QUOTE
 62
     0
100
AcDbTrace
 10
-325.2997700699589
 20
-759.7078943106971
 30
0.0
 11
-325.2997700699589
 21
-760.5412276440304
 31
0.0
 12
-327.7997700699589
 22
-760.1245609773638
 32
0.0
 13
-327.7997700699589
 23
-760.1245609773638
 33
0.0
  0
SOLID
  5
183
330
17D
100
AcDbEntity
  8
QUOTE
 62
     0
100
AcDbTrace
 10
-267.299770069959
 20
-759.7078943106971
 30
0.0
 11
-267.299770069959
 21
-760.5412276440304
 31
0.0
 12
-264.799770069959
 22
-760.1245609773638
 32
0.0
 13
-264.799770069959
 23
-760.1245609773638
 33
0.0
  0
MTEXT
  5
184
330
17D
100
AcDbEntity
  8
QUOTE
 62
     0
100
AcDbMText
 10
-296.2997700699589
 20
-756.9995609773638
 30
0.0
 40
5.0
 41
0.0
 71
     5
 72
     1
  1
63
 73
     1
 44
1.0
1001
ACAD
1000
MTEXTBEGIN
1070
    73
1070
     1
1070
    44
1040
1.0
1070
    74
1070
     0
1000
MTEXTEND
  0
POINT
  5
185
330
17D
100
AcDbEntity
  8
Defpoints
 62
     0
100
AcDbPoint
 10
-327.7997700699589
 20
-744.8939762041264
 30
0.0
  0
POINT
  5
186
330
17D
100
AcDbEntity
  8
Defpoints
 62
     0
100
AcDbPoint
 10
-264.799770069959
 20
-722.7664872041263
 30
0.0
  0
POINT
  5
187
330
17D
100
AcDbEntity
  8
Defpoints
 62
     0
100
AcDbPoint
 10
-264.799770069959
 20
-760.1245609773638
 30
0.0
  0
ENDBLK
  5
188
330
17D
100
AcDbEntity
  8
0
 62
     1
100
AcDbBlockEnd
  0
BLOCK
  5
407
330
406
100
AcDbEntity
  8
0
100
AcDbBlockBegin
  2
*D7
 70
     1
 10
0.0
 20
0.0
 30
0.0
  3
*D7
  1

  0
LINE
  5
4B5
330
406
100
AcDbEntity
  8
QUOTE
 62
     0
370
    -2
100
AcDbLine
 10
20.53013076548024
 20
100.3755362460276
 30
0.0
 11
20.53013076548024
 21
108.1930268349583
 31
0.0
  0
LINE
  5
4B6
330
406
100
AcDbEntity
  8
QUOTE
 62
     0
370
    -2
100
AcDbLine
 10
65.53012976548024
 20
100.3755362460276
 30
0.0
 11
65.53012976548024
 21
108.1930268349583
 31
0.0
  0
LINE
  5
4B7
330
406
100
AcDbEntity
  8
QUOTE
 62
     0
370
    -2
100
AcDbLine
 10
25.53013076548024
 20
108.0130268349583
 30
0.0
 11
35.85679693214691
 21
108.0130268349583
 31
0.0
  0
LINE
  5
4B8
330
406
100
AcDbEntity
  8
QUOTE
 62
     0
370
    -2
100
AcDbLine
 10
60.53012976548024
 20
108.0130268349583
 30
0.0
 11
50.20346359881357
 21
108.0130268349583
 31
0.0
  0
SOLID
  5
4B9
330
406
100
AcDbEntity
  8
QUOTE
 62
     0
100
AcDbTrace
 10
25.53013076548024
 20
108.8463601682917
 30
0.0
 11
25.53013076548024
 21
107.179693501625
 31
0.0
 12
20.53013076548024
 22
108.0130268349583
 32
0.0
 13
20.53013076548024
 23
108.0130268349583
 33
0.0
  0
SOLID
  5
4BA
330
406
100
AcDbEntity
  8
QUOTE
 62
     0
100
AcDbTrace
 10
60.53012976548024
 20
108.8463601682917
 30
0.0
 11
60.53012976548024
 21
107.179693501625
 31
0.0
 12
65.53012976548024
 22
108.0130268349583
 32
0.0
 13
65.53012976548024
 23
108.0130268349583
 33
0.0
  0
MTEXT
  5
4BB
330
406
100
AcDbEntity
  8
QUOTE
 62
     0
100
AcDbMText
 10
43.03013026548024
 20
108.0130268349583
 30
0.0
 40
5.0
 41
0.0
 71
     5
 72
     1
  1
\A1;45.0
 73
     1
 44
1.0
1001
ACAD
1000
MTEXTBEGIN
1070
    73
1070
     1
1070
    44
1040
1.0
1070
    74
1070
     0
1000
MTEXTEND
  0
POINT
  5
4BC
330
406
100
AcDbEntity
  8
Defpoints
 62
     0
100
AcDbPoint
 10
20.53013076548024
 20
100.3130362460276
 30
0.0
  0
POINT
  5
4BD
330
406
100
AcDbEntity
  8
Defpoints
 62
     0
100
AcDbPoint
 10
65.53012976548024
 20
100.3130362460276
 30
0.0
  0
POINT
  5
4BE
330
406
100
AcDbEntity
  8
Defpoints
 62
     0
100
AcDbPoint
 10
65.53012976548024
 20
108.0130268349583
 30
0.0
  0
ENDBLK
  5
408
330
406
100
AcDbEntity
  8
0
100
AcDbBlockEnd
  0
BLOCK
  5
414
330
413
100
AcDbEntity
  8
0
100
AcDbBlockBegin
  2
*D8
 70
     1
 10
0.0
 20
0.0
 30
0.0
  3
*D8
  1

  0
LINE
  5
4AB
330
413
100
AcDbEntity
  8
QUOTE
 62
     0
370
    -2
100
AcDbLine
 10
20.91762693945469
 20
15.51305724611242
 30
0.0
 11
9.60750960770723
 21
15.51305724611243
 31
0.0
  0
LINE
  5
4AC
330
413
100
AcDbEntity
  8
QUOTE
 62
     0
370
    -2
100
AcDbLine
 10
20.91762976548023
 20
100.5130492460276
 30
0.0
 11
9.60750960770725
 21
100.5130492460276
 31
0.0
  0
LINE
  5
4AD
330
413
100
AcDbEntity
  8
QUOTE
 62
     0
370
    -2
100
AcDbLine
 10
9.787509607707232
 20
20.51305724611243
 30
0.0
 11
9.787509607707239
 21
55.42305324607003
 31
0.0
  0
LINE
  5
4AE
330
413
100
AcDbEntity
  8
QUOTE
 62
     0
370
    -2
100
AcDbLine
 10
9.787509607707248
 20
95.51304924602764
 30
0.0
 11
9.78750960770724
 21
60.60305324607003
 31
0.0
  0
SOLID
  5
4AF
330
413
100
AcDbEntity
  8
QUOTE
 62
     0
100
AcDbTrace
 10
8.954176274373898
 20
20.51305724611243
 30
0.0
 11
10.62084294104056
 21
20.51305724611243
 31
0.0
 12
9.78750960770723
 22
15.51305724611243
 32
0.0
 13
9.78750960770723
 23
15.51305724611243
 33
0.0
  0
SOLID
  5
4B0
330
413
100
AcDbEntity
  8
QUOTE
 62
     0
100
AcDbTrace
 10
8.954176274373914
 20
95.51304924602764
 30
0.0
 11
10.62084294104058
 21
95.51304924602764
 31
0.0
 12
9.787509607707249
 22
100.5130492460276
 32
0.0
 13
9.787509607707249
 23
100.5130492460276
 33
0.0
  0
MTEXT
  5
4B1
330
413
100
AcDbEntity
  8
QUOTE
 62
     0
100
AcDbMText
 10
9.78750960770723
 20
58.01305324607003
 30
0.0
 40
5.0
 41
0.0
 71
     5
 72
     1
  1
\A1;85.0
 73
     1
 44
1.0
1001
ACAD
1000
MTEXTBEGIN
1070
    73
1070
     1
1070
    44
1040
1.0
1070
    74
1070
     0
1000
MTEXTEND
  0
POINT
  5
4B2
330
413
100
AcDbEntity
  8
Defpoints
 62
     0
100
AcDbPoint
 10
20.98012693945469
 20
15.51305724611242
 30
0.0
  0
POINT
  5
4B3
330
413
100
AcDbEntity
  8
Defpoints
 62
     0
100
AcDbPoint
 10
20.98012976548023
 20
100.5130492460276
 30
0.0
  0
POINT
  5
4B4
330
413
100
AcDbEntity
  8
Defpoints
 62
     0
100
AcDbPoint
 10
9.787509607707249
 20
100.5130492460276
 30
0.0
  0
ENDBLK
  5
415
330
413
100
AcDbEntity
  8
0
100
AcDbBlockEnd
  0
BLOCK
  5
421
330
420
100
AcDbEntity
  8
0
100
AcDbBlockBegin
  2
*D9
 70
     1
 10
0.0
 20
0.0
 30
0.0
  3
*D9
  1

  0
LINE
  5
4C9
330
420
100
AcDbEntity
  8
QUOTE
 62
     0
370
    -2
100
AcDbLine
 10
98.2367864545397
 20
9.930791078474356
 30
0.0
 11
92.92244812279225
 21
9.930791078474356
 31
0.0
  0
LINE
  5
4CA
330
420
100
AcDbEntity
  8
QUOTE
 62
     0
370
    -2
100
AcDbLine
 10
103.8400666225651
 20
100.4307910784743
 30
0.0
 11
92.92244812279227
 21
100.4307910784743
 31
0.0
  0
LINE
  5
4CB
330
420
100
AcDbEntity
  8
QUOTE
 62
     0
370
    -2
100
AcDbLine
 10
93.10244812279226
 20
14.93079107847435
 30
0.0
 11
93.10244812279227
 21
52.59079107847436
 31
0.0
  0
LINE
  5
4CC
330
420
100
AcDbEntity
  8
QUOTE
 62
     0
370
    -2
100
AcDbLine
 10
93.10244812279227
 20
95.43079107847438
 30
0.0
 11
93.10244812279227
 21
57.77079107847437
 31
0.0
  0
SOLID
  5
4CD
330
420
100
AcDbEntity
  8
QUOTE
 62
     0
100
AcDbTrace
 10
92.26911478945892
 20
14.93079107847435
 30
0.0
 11
93.93578145612558
 21
14.93079107847435
 31
0.0
 12
93.10244812279226
 22
9.930791078474356
 32
0.0
 13
93.10244812279226
 23
9.930791078474356
 33
0.0
  0
SOLID
  5
4CE
330
420
100
AcDbEntity
  8
QUOTE
 62
     0
100
AcDbTrace
 10
92.26911478945893
 20
95.43079107847438
 30
0.0
 11
93.93578145612559
 21
95.43079107847438
 31
0.0
 12
93.10244812279227
 22
100.4307910784743
 32
0.0
 13
93.10244812279227
 23
100.4307910784743
 33
0.0
  0
MTEXT
  5
4CF
330
420
100
AcDbEntity
  8
QUOTE
 62
     0
100
AcDbMText
 10
93.10244812279226
 20
55.18079107847437
 30
0.0
 40
5.0
 41
0.0
 71
     5
 72
     1
  1
\A1;90.5
 73
     1
 44
1.0
1001
ACAD
1000
MTEXTBEGIN
1070
    73
1070
     1
1070
    44
1040
1.0
1070
    74
1070
     0
1000
MTEXTEND
  0
POINT
  5
4D0
330
420
100
AcDbEntity
  8
Defpoints
 62
     0
100
AcDbPoint
 10
98.2992864545397
 20
9.930791078474356
 30
0.0
  0
POINT
  5
4D1
330
420
100
AcDbEntity
  8
Defpoints
 62
     0
100
AcDbPoint
 10
103.902566622565
 20
100.4307910784743
 30
0.0
  0
POINT
  5
4D2
330
420
100
AcDbEntity
  8
Defpoints
 62
     0
100
AcDbPoint
 10
93.10244812279227
 20
100.4307910784743
 30
0.0
  0
ENDBLK
  5
422
330
420
100
AcDbEntity
  8
0
100
AcDbBlockEnd
  0
BLOCK
  5
42E
330
42D
100
AcDbEntity
  8
0
100
AcDbBlockBegin
  2
*D10
 70
     1
 10
0.0
 20
0.0
 30
0.0
  3
*D10
  1

  0
LINE
  5
4BF
330
42D
100
AcDbEntity
  8
QUOTE
 62
     0
370
    -2
100
AcDbLine
 10
103.902566622565
 20
100.4932910784743
 30
0.0
 11
103.902566622565
 21
108.2872088349359
 31
0.0
  0
LINE
  5
4C0
330
42D
100
AcDbEntity
  8
QUOTE
 62
     0
370
    -2
100
AcDbLine
 10
147.8992864545397
 20
98.03292724600519
 30
0.0
 11
147.8992864545397
 21
108.2872088349359
 31
0.0
  0
LINE
  5
4C1
330
42D
100
AcDbEntity
  8
QUOTE
 62
     0
370
    -2
100
AcDbLine
 10
108.9025666225651
 20
108.1072088349359
 30
0.0
 11
118.727593205219
 21
108.1072088349359
 31
0.0
  0
LINE
  5
4C2
330
42D
100
AcDbEntity
  8
QUOTE
 62
     0
370
    -2
100
AcDbLine
 10
142.8992864545397
 20
108.1072088349359
 30
0.0
 11
133.0742598718857
 21
108.1072088349359
 31
0.0
  0
SOLID
  5
4C3
330
42D
100
AcDbEntity
  8
QUOTE
 62
     0
100
AcDbTrace
 10
108.9025666225651
 20
108.9405421682692
 30
0.0
 11
108.9025666225651
 21
107.2738755016025
 31
0.0
 12
103.902566622565
 22
108.1072088349359
 32
0.0
 13
103.902566622565
 23
108.1072088349359
 33
0.0
  0
SOLID
  5
4C4
330
42D
100
AcDbEntity
  8
QUOTE
 62
     0
100
AcDbTrace
 10
142.8992864545397
 20
108.9405421682692
 30
0.0
 11
142.8992864545397
 21
107.2738755016025
 31
0.0
 12
147.8992864545397
 22
108.1072088349359
 32
0.0
 13
147.8992864545397
 23
108.1072088349359
 33
0.0
  0
MTEXT
  5
4C5
330
42D
100
AcDbEntity
  8
QUOTE
 62
     0
100
AcDbMText
 10
125.9009265385524
 20
108.1072088349359
 30
0.0
 40
5.0
 41
0.0
 71
     5
 72
     1
  1
\A1;44.0
 73
     1
 44
1.0
1001
ACAD
1000
MTEXTBEGIN
1070
    73
1070
     1
1070
    44
1040
1.0
1070
    74
1070
     0
1000
MTEXTEND
  0
POINT
  5
4C6
330
42D
100
AcDbEntity
  8
Defpoints
 62
     0
100
AcDbPoint
 10
103.902566622565
 20
100.4307910784743
 30
0.0
  0
POINT
  5
4C7
330
42D
100
AcDbEntity
  8
Defpoints
 62
     0
100
AcDbPoint
 10
147.8992864545397
 20
97.97042724600519
 30
0.0
  0
POINT
  5
4C8
330
42D
100
AcDbEntity
  8
Defpoints
 62
     0
100
AcDbPoint
 10
147.8992864545397
 20
108.1072088349359
 30
0.0
  0
ENDBLK
  5
42F
330
42D
100
AcDbEntity
  8
0
100
AcDbBlockEnd
  0
BLOCK
  5
43B
330
43A
100
AcDbEntity
  8
0
100
AcDbBlockBegin
  2
*D11
 70
     1
 10
0.0
 20
0.0
 30
0.0
  3
*D11
  1

  0
LINE
  5
4D3
330
43A
100
AcDbEntity
  8
QUOTE
 62
     0
370
    -2
100
AcDbLine
 10
103.902566622565
 20
15.5563802460052
 30
0.0
 11
103.902566622565
 21
0.2082954727677944
 31
0.0
  0
LINE
  5
4D4
330
43A
100
AcDbEntity
  8
QUOTE
 62
     0
370
    -2
100
AcDbLine
 10
166.902566622565
 20
37.68386924600517
 30
0.0
 11
166.902566622565
 21
0.2082954727677944
 31
0.0
  0
LINE
  5
4D5
330
43A
100
AcDbEntity
  8
QUOTE
 62
     0
370
    -2
100
AcDbLine
 10
108.9025666225651
 20
0.3882954727677941
 30
0.0
 11
128.2292332892317
 21
0.3882954727677941
 31
0.0
  0
LINE
  5
4D6
330
43A
100
AcDbEntity
  8
QUOTE
 62
     0
370
    -2
100
AcDbLine
 10
161.902566622565
 20
0.3882954727677941
 30
0.0
 11
142.5758999558984
 21
0.3882954727677941
 31
0.0
  0
SOLID
  5
4D7
330
43A
100
AcDbEntity
  8
QUOTE
 62
     0
100
AcDbTrace
 10
108.9025666225651
 20
1.221628806101127
 30
0.0
 11
108.9025666225651
 21
-0.4450378605655394
 31
0.0
 12
103.902566622565
 22
0.3882954727677941
 32
0.0
 13
103.902566622565
 23
0.3882954727677941
 33
0.0
  0
SOLID
  5
4D8
330
43A
100
AcDbEntity
  8
QUOTE
 62
     0
100
AcDbTrace
 10
161.902566622565
 20
1.221628806101127
 30
0.0
 11
161.902566622565
 21
-0.4450378605655394
 31
0.0
 12
166.902566622565
 22
0.3882954727677941
 32
0.0
 13
166.902566622565
 23
0.3882954727677941
 33
0.0
  0
MTEXT
  5
4D9
330
43A
100
AcDbEntity
  8
QUOTE
 62
     0
100
AcDbMText
 10
135.402566622565
 20
0.3882954727677941
 30
0.0
 40
5.0
 41
0.0
 71
     5
 72
     1
  1
\A1;63.0
 73
     1
 44
1.0
1001
ACAD
1000
MTEXTBEGIN
1070
    73
1070
     1
1070
    44
1040
1.0
1070
    74
1070
     0
1000
MTEXTEND
  0
POINT
  5
4DA
330
43A
100
AcDbEntity
  8
Defpoints
 62
     0
100
AcDbPoint
 10
103.902566622565
 20
15.6188802460052
 30
0.0
  0
POINT
  5
4DB
330
43A
100
AcDbEntity
  8
Defpoints
 62
     0
100
AcDbPoint
 10
166.902566622565
 20
37.74636924600518
 30
0.0
  0
POINT
  5
4DC
330
43A
100
AcDbEntity
  8
Defpoints
 62
     0
100
AcDbPoint
 10
166.902566622565
 20
0.3882954727677941
 30
0.0
  0
ENDBLK
  5
43C
330
43A
100
AcDbEntity
  8
0
100
AcDbBlockEnd
  0
ENDSEC
  0
SECTION
  2
ENTITIES
  0
LINE
  5
2CC
330
1F
100
AcDbEntity
  8
0
 62
     7
 48
0.0525
370
    35
100
AcDbLine
 10
43.0301227654566
 20
90.71307024611243
 30
0.0
 11
40.9301167654566
 21
90.71307024611243
 31
0.0
  0
LINE
  5
2CD
330
1F
100
AcDbEntity
  8
0
 62
     7
 48
0.0525
370
    35
100
AcDbLine
 10
43.0301227654566
 20
90.71307024611243
 30
0.0
 11
45.13012876545656
 21
90.71307024611243
 31
0.0
  0
LINE
  5
2CE
330
1F
100
AcDbEntity
  8
0
 62
     7
 48
0.01625
370
    35
100
AcDbLine
 10
45.13012876545656
 20
90.71307024611243
 30
0.0
 11
45.13012876545656
 21
91.36306424611243
 31
0.0
  0
LINE
  5
2CF
330
1F
100
AcDbEntity
  8
0
 62
     7
 48
0.0525
370
    35
100
AcDbLine
 10
43.0301227654566
 20
91.36306424611243
 30
0.0
 11
45.13012876545656
 21
91.36306424611243
 31
0.0
  0
LINE
  5
2D0
330
1F
100
AcDbEntity
  8
0
 62
     7
 48
0.0525
370
    35
100
AcDbLine
 10
43.0301227654566
 20
91.36306424611243
 30
0.0
 11
40.9301167654566
 21
91.36306424611243
 31
0.0
  0
LINE
  5
2D1
330
1F
100
AcDbEntity
  8
0
 62
     7
 48
0.01625
370
    35
100
AcDbLine
 10
40.9301167654566
 20
90.71307024611243
 30
0.0
 11
40.9301167654566
 21
91.36306424611243
 31
0.0
  0
LINE
  5
2D2
330
1F
100
AcDbEntity
  8
0
 62
     7
370
    13
100
AcDbLine
 10
20.53012276545661
 20
97.86462024611237
 30
0.0
 11
65.53012276545655
 21
97.86462024611237
 31
0.0
  0
LINE
  5
2D3
330
1F
100
AcDbEntity
  8
0
 62
     7
370
    35
100
AcDbLine
 10
20.73012448716742
 20
80.51290559878825
 30
0.0
 11
65.33012105069542
 21
80.51290559882406
 31
0.0
  0
CIRCLE
  5
2D4
330
1F
100
AcDbEntity
  8
0
 62
     7
370
    35
100
AcDbCircle
 10
43.0301227654566
 20
92.01305824611242
 30
0.0
 40
3.25
  0
LINE
  5
2D5
330
1F
100
AcDbEntity
  8
0
 62
     7
 48
0.4512500000000001
370
    13
100
AcDbLine
 10
20.53012276545655
 20
37.64056024611236
 30
0.0
 11
47.03012276545661
 21
37.64056024611236
 31
0.0
  0
LINE
  5
2D6
330
1F
100
AcDbEntity
  8
0
 62
     7
 48
0.4512500000000001
370
    13
100
AcDbLine
 10
20.53012276545655
 20
78.38555524611237
 30
0.0
 11
47.03012276545661
 21
78.38555524611237
 31
0.0
  0
LINE
  5
2D7
330
1F
100
AcDbEntity
  8
0
 62
     7
 48
0.057497
370
    35
100
AcDbLine
 10
20.53012276545655
 20
15.86159924611237
 30
0.0
 11
20.53012276545655
 21
18.16149524611236
 31
0.0
  0
LINE
  5
2D8
330
1F
100
AcDbEntity
  8
0
 62
     7
 48
0.044999
370
    35
100
AcDbLine
 10
20.53012276545655
 20
78.38555524611237
 30
0.0
 11
20.53012276545655
 21
80.18551224611243
 31
0.0
  0
LINE
  5
2D9
330
1F
100
AcDbEntity
  8
0
 62
     7
370
    35
100
AcDbLine
 10
20.53012276545655
 20
78.38555524611237
 30
0.0
 11
20.53012276545655
 21
37.64056024611236
 31
0.0
  0
LINE
  5
2DA
330
1F
100
AcDbEntity
  8
0
 62
     7
 48
0.044999
370
    35
100
AcDbLine
 10
20.53012276545655
 20
35.84060324611241
 30
0.0
 11
20.53012276545655
 21
37.64056024611236
 31
0.0
  0
LINE
  5
2DB
330
1F
100
AcDbEntity
  8
0
 62
     7
 48
0.057497
370
    35
100
AcDbLine
 10
20.53012276545655
 20
97.86462024611237
 30
0.0
 11
20.53012276545655
 21
100.1645162461124
 31
0.0
  0
LINE
  5
2DC
330
1F
100
AcDbEntity
  8
0
 62
     7
 48
0.438746
370
    35
100
AcDbLine
 10
20.53012276545655
 20
80.31478524611245
 30
0.0
 11
20.53012276545655
 21
97.86462024611237
 31
0.0
  0
ARC
  5
2DD
330
1F
100
AcDbEntity
  8
0
 62
     7
370
    35
100
AcDbCircle
 10
20.72909776545651
 20
80.31380824611241
 30
0.0
 40
0.1991
100
AcDbArc
 50
89.70453500000116
 51
179.7196939999971
  0
LINE
  5
2DE
330
1F
100
AcDbEntity
  8
0
 62
     7
 48
0.003713
370
    35
100
AcDbLine
 10
20.53012276545655
 20
100.3130452461124
 30
0.0
 11
20.53012276545655
 21
100.1645162461124
 31
0.0
  0
ARC
  5
2DF
330
1F
100
AcDbEntity
  8
0
 62
     7
370
    35
100
AcDbCircle
 10
20.73013476545651
 20
100.3130452461124
 30
0.0
 40
0.200004
100
AcDbArc
 50
90.00166900000079
 51
180.0008829999951
  0
LINE
  5
2E0
330
1F
100
AcDbEntity
  8
0
 62
     7
 48
0.003232
370
    35
100
AcDbLine
 10
20.53012276545655
 20
35.84060324611241
 30
0.0
 11
20.53012276545655
 21
35.7113302461124
 31
0.0
  0
ARC
  5
2E1
330
1F
100
AcDbEntity
  8
0
 62
     7
370
    35
100
AcDbCircle
 10
20.72909776545651
 20
35.71230724611243
 30
0.0
 40
0.199099
100
AcDbArc
 50
180.2805110000033
 51
270.295827000001
  0
LINE
  5
2E2
330
1F
100
AcDbEntity
  8
0
 62
     7
 48
0.003232
370
    35
100
AcDbLine
 10
20.53012276545655
 20
80.18551224611243
 30
0.0
 11
20.53012276545655
 21
80.31478524611245
 31
0.0
  0
LINE
  5
2E3
330
1F
100
AcDbEntity
  8
0
 62
     7
 48
0.003713
370
    35
100
AcDbLine
 10
20.53012276545655
 20
15.71307024611243
 30
0.0
 11
20.53012276545655
 21
15.86159924611237
 31
0.0
  0
ARC
  5
2E4
330
1F
100
AcDbEntity
  8
0
 62
     7
370
    35
100
AcDbCircle
 10
20.73013476545651
 20
15.71307024611243
 30
0.0
 40
0.200004
100
AcDbArc
 50
179.9991170000049
 51
269.9983309999992
  0
LINE
  5
2E5
330
1F
100
AcDbEntity
  8
0
 62
     7
 48
0.438746
370
    35
100
AcDbLine
 10
20.53012276545655
 20
18.16149524611236
 30
0.0
 11
20.53012276545655
 21
35.7113302461124
 31
0.0
  0
LINE
  5
2E6
330
1F
100
AcDbEntity
  8
0
 62
     7
 48
0.4512500000000001
370
    13
100
AcDbLine
 10
47.03012276545661
 20
78.38555524611237
 30
0.0
 11
65.53012276545661
 21
78.38555524611237
 31
0.0
  0
LINE
  5
2E7
330
1F
100
AcDbEntity
  8
0
 62
     7
 48
0.4512500000000001
370
    13
100
AcDbLine
 10
47.03012276545661
 20
37.64056024611236
 30
0.0
 11
65.5301227654565
 21
37.64056024611236
 31
0.0
  0
LINE
  5
2E8
330
1F
100
AcDbEntity
  8
0
 62
     7
370
    35
100
AcDbLine
 10
20.73012893943093
 20
100.5130492460276
 30
0.0
 11
65.33011659846358
 21
100.5130492460274
 31
0.0
  0
LINE
  5
2E9
330
1F
100
AcDbEntity
  8
0
 62
     7
370
    35
100
AcDbLine
 10
20.73012893943093
 20
15.51306624619732
 30
0.0
 11
65.33011657402846
 21
15.51306624619676
 31
0.0
  0
LINE
  5
2EA
330
1F
100
AcDbEntity
  8
0
 62
     7
370
    13
100
AcDbLine
 10
20.53012276545655
 20
18.16149524611236
 30
0.0
 11
65.53012276545655
 21
18.16149524611236
 31
0.0
  0
LINE
  5
2EB
330
1F
100
AcDbEntity
  8
0
 62
     7
 48
0.057497
370
    35
100
AcDbLine
 10
65.53012276545655
 20
15.86159924611237
 30
0.0
 11
65.53012276545655
 21
18.16149524611236
 31
0.0
  0
LINE
  5
2EC
330
1F
100
AcDbEntity
  8
0
 62
     7
 48
0.044999
370
    35
100
AcDbLine
 10
65.53012276545655
 20
78.38555524611237
 30
0.0
 11
65.53012276545655
 21
80.18551224611243
 31
0.0
  0
LINE
  5
2ED
330
1F
100
AcDbEntity
  8
0
 62
     7
370
    35
100
AcDbLine
 10
65.53012276545655
 20
78.38555524611237
 30
0.0
 11
65.53012276545655
 21
37.64056024611236
 31
0.0
  0
LINE
  5
2EE
330
1F
100
AcDbEntity
  8
0
 62
     7
 48
0.044999
370
    35
100
AcDbLine
 10
65.53012276545655
 20
35.84060324611241
 30
0.0
 11
65.53012276545655
 21
37.64056024611236
 31
0.0
  0
LINE
  5
2EF
330
1F
100
AcDbEntity
  8
0
 62
     7
 48
0.057497
370
    35
100
AcDbLine
 10
65.53012276545655
 20
97.86462024611237
 30
0.0
 11
65.53012276545655
 21
100.1645162461124
 31
0.0
  0
LINE
  5
2F0
330
1F
100
AcDbEntity
  8
0
 62
     7
 48
0.438746
370
    35
100
AcDbLine
 10
65.53012276545655
 20
97.86462024611237
 30
0.0
 11
65.53012276545655
 21
80.31478524611245
 31
0.0
  0
ARC
  5
2F1
330
1F
100
AcDbEntity
  8
0
 62
     7
370
    35
100
AcDbCircle
 10
65.33114776545653
 20
80.31380824611241
 30
0.0
 40
0.1991
100
AcDbArc
 50
0.2803050000025262
 51
90.29546299999873
  0
LINE
  5
2F2
330
1F
100
AcDbEntity
  8
0
 62
     7
 48
0.003713
370
    35
100
AcDbLine
 10
65.53012276545655
 20
100.1645162461124
 30
0.0
 11
65.53012276545655
 21
100.3130452461124
 31
0.0
  0
ARC
  5
2F3
330
1F
100
AcDbEntity
  8
0
 62
     7
370
    35
100
AcDbCircle
 10
65.33011076545654
 20
100.3130452461124
 30
0.0
 40
0.200004
100
AcDbArc
 50
359.9991079999988
 51
89.99832899999965
  0
LINE
  5
2F4
330
1F
100
AcDbEntity
  8
0
 62
     7
 48
0.003232
370
    35
100
AcDbLine
 10
65.53012276545655
 20
35.84060324611241
 30
0.0
 11
65.53012276545655
 21
35.7113302461124
 31
0.0
  0
ARC
  5
2F5
330
1F
100
AcDbEntity
  8
0
 62
     7
370
    35
100
AcDbCircle
 10
65.33114776545653
 20
35.71230724611243
 30
0.0
 40
0.199099
100
AcDbArc
 50
269.7041680000002
 51
359.7194799999999
  0
LINE
  5
2F6
330
1F
100
AcDbEntity
  8
0
 62
     7
 48
0.003232
370
    35
100
AcDbLine
 10
65.53012276545655
 20
80.31478524611245
 30
0.0
 11
65.53012276545655
 21
80.18551224611243
 31
0.0
  0
LINE
  5
2F7
330
1F
100
AcDbEntity
  8
0
 62
     7
 48
0.003713
370
    35
100
AcDbLine
 10
65.53012276545655
 20
15.86159924611237
 30
0.0
 11
65.53012276545655
 21
15.71307024611243
 31
0.0
  0
ARC
  5
2F8
330
1F
100
AcDbEntity
  8
0
 62
     7
370
    35
100
AcDbCircle
 10
65.33011076545654
 20
15.71307024611243
 30
0.0
 40
0.200004
100
AcDbArc
 50
270.0016640000003
 51
0.0008840000030215
  0
LINE
  5
2F9
330
1F
100
AcDbEntity
  8
0
 62
     7
 48
0.438746
370
    35
100
AcDbLine
 10
65.53012276545655
 20
35.7113302461124
 30
0.0
 11
65.53012276545655
 21
18.16149524611236
 31
0.0
  0
CIRCLE
  5
2FA
330
1F
100
AcDbEntity
  8
0
 62
     7
370
    35
100
AcDbCircle
 10
43.0301227654566
 20
84.01305824611242
 30
0.0
 40
3.150000000000005
  0
CIRCLE
  5
2FB
330
1F
100
AcDbEntity
  8
0
 62
     7
370
    35
100
AcDbCircle
 10
54.03012276545661
 20
32.01305824611242
 30
0.0
 40
3.150000000000005
  0
CIRCLE
  5
2FC
330
1F
100
AcDbEntity
  8
0
 62
     7
370
    35
100
AcDbCircle
 10
32.03012276545661
 20
32.01305824611242
 30
0.0
 40
3.150000000000005
  0
LINE
  5
2FD
330
1F
100
AcDbEntity
  8
0
 62
     7
370
    35
100
AcDbLine
 10
20.72897882062006
 20
35.51320828164225
 30
0.0
 11
65.330119773619
 21
35.51321090000383
 31
0.0
  0
LINE
  5
2FE
330
1F
100
AcDbEntity
  8
0
 62
     7
 48
0.03625
370
    35
100
AcDbLine
 10
43.0301227654566
 20
89.41305124611242
 30
0.0
 11
41.58012576545655
 21
89.41305124611242
 31
0.0
  0
LINE
  5
2FF
330
1F
100
AcDbEntity
  8
0
 62
     7
 48
0.03625
370
    35
100
AcDbLine
 10
43.0301227654566
 20
89.41305124611242
 30
0.0
 11
44.48011976545655
 21
89.41305124611242
 31
0.0
  0
LINE
  5
300
330
1F
100
AcDbEntity
  8
0
 62
     7
 48
0.01625
370
    35
100
AcDbLine
 10
44.48011976545655
 20
89.41305124611242
 30
0.0
 11
44.48011976545655
 21
90.06304524611241
 31
0.0
  0
LINE
  5
301
330
1F
100
AcDbEntity
  8
0
 62
     7
 48
0.03625
370
    35
100
AcDbLine
 10
43.0301227654566
 20
90.06304524611241
 30
0.0
 11
44.48011976545655
 21
90.06304524611241
 31
0.0
  0
LINE
  5
302
330
1F
100
AcDbEntity
  8
0
 62
     7
 48
0.03625
370
    35
100
AcDbLine
 10
43.0301227654566
 20
90.06304524611241
 30
0.0
 11
41.58012576545655
 21
90.06304524611241
 31
0.0
  0
LINE
  5
303
330
1F
100
AcDbEntity
  8
0
 62
     7
 48
0.01625
370
    35
100
AcDbLine
 10
41.58012576545655
 20
89.41305124611242
 30
0.0
 11
41.58012576545655
 21
90.06304524611241
 31
0.0
  0
LINE
  5
304
330
1F
100
AcDbEntity
  8
0
 62
     7
 48
0.060625
370
    35
100
AcDbLine
 10
43.35511976545655
 20
92.66305124611241
 30
0.0
 11
45.78012276545661
 21
92.66305124611241
 31
0.0
  0
LINE
  5
305
330
1F
100
AcDbEntity
  8
0
 62
     7
 48
0.055
370
    35
100
AcDbLine
 10
43.35511976545655
 20
92.66305124611241
 30
0.0
 11
43.35511976545655
 21
94.86306424611242
 31
0.0
  0
LINE
  5
306
330
1F
100
AcDbEntity
  8
0
 62
     7
 48
0.008125
370
    35
100
AcDbLine
 10
43.0301227654566
 20
94.86306424611242
 30
0.0
 11
43.35511976545655
 21
94.86306424611242
 31
0.0
  0
LINE
  5
307
330
1F
100
AcDbEntity
  8
0
 62
     7
 48
0.008125
370
    35
100
AcDbLine
 10
43.0301227654566
 20
94.86306424611242
 30
0.0
 11
42.70512576545655
 21
94.86306424611242
 31
0.0
  0
LINE
  5
308
330
1F
100
AcDbEntity
  8
0
 62
     7
 48
0.055
370
    35
100
AcDbLine
 10
42.70512576545655
 20
92.66305124611241
 30
0.0
 11
42.70512576545655
 21
94.86306424611242
 31
0.0
  0
LINE
  5
309
330
1F
100
AcDbEntity
  8
0
 62
     7
 48
0.060625
370
    35
100
AcDbLine
 10
42.70512576545655
 20
92.66305124611241
 30
0.0
 11
40.28012276545661
 21
92.66305124611241
 31
0.0
  0
LINE
  5
30A
330
1F
100
AcDbEntity
  8
0
 62
     7
 48
0.01625
370
    35
100
AcDbLine
 10
40.28012276545661
 20
92.01305824611242
 30
0.0
 11
40.28012276545661
 21
92.66305124611241
 31
0.0
  0
LINE
  5
30B
330
1F
100
AcDbEntity
  8
0
 62
     7
 48
0.06875
370
    35
100
AcDbLine
 10
43.0301227654566
 20
92.01305824611242
 30
0.0
 11
40.28012276545661
 21
92.01305824611242
 31
0.0
  0
LINE
  5
30C
330
1F
100
AcDbEntity
  8
0
 62
     7
 48
0.06875
370
    35
100
AcDbLine
 10
43.0301227654566
 20
92.01305824611242
 30
0.0
 11
45.78012276545661
 21
92.01305824611242
 31
0.0
  0
LINE
  5
30D
330
1F
100
AcDbEntity
  8
0
 62
     7
 48
0.01625
370
    35
100
AcDbLine
 10
45.78012276545661
 20
92.01305824611242
 30
0.0
 11
45.78012276545661
 21
92.66305124611241
 31
0.0
  0
POINT
  5
30E
330
1F
100
AcDbEntity
  8
0
 62
     7
370
     5
100
AcDbPoint
 10
43.0301227654566
 20
92.01305824611242
 30
0.0
  0
DIMENSION
  5
30F
330
1F
100
AcDbEntity
  8
QUOTE
 62
     1
100
AcDbDimension
  2
*D7
 10
65.53012976548024
 20
108.0130268349583
 30
0.0
 11
43.03013026548024
 21
108.0130268349583
 31
0.0
 70
    32
 71
     5
 42
44.999999
  3
Standard
100
AcDbAlignedDimension
 13
20.53013076548024
 23
100.3130362460276
 33
0.0
 14
65.53012976548024
 24
100.3130362460276
 34
0.0
100
AcDbRotatedDimension
1001
ACAD
1000
DSTYLE
1002
{
1070
   271
1070
     1
1070
    41
1040
5.0
1070
   140
1040
5.0
1002
}
  0
DIMENSION
  5
310
330
1F
100
AcDbEntity
  8
QUOTE
 62
     1
100
AcDbDimension
  2
*D8
 10
9.787509607707249
 20
100.5130492460276
 30
0.0
 11
9.78750960770723
 21
58.01305324607003
 31
0.0
 70
    32
 71
     5
 42
84.9999919999152
  3
Standard
100
AcDbAlignedDimension
 13
20.98012693945469
 23
15.51305724611242
 33
0.0
 14
20.98012976548023
 24
100.5130492460276
 34
0.0
 50
90.0
100
AcDbRotatedDimension
1001
ACAD
1000
DSTYLE
1002
{
1070
   271
1070
     1
1070
    41
1040
5.0
1070
   140
1040
5.0
1002
}
  0
ARC
  5
311
330
1F
100
AcDbEntity
  8
0
 62
     7
370
    35
100
AcDbCircle
 10
45.61180475672972
 20
12.43079107847435
 30
0.0
 40
0.5
100
AcDbArc
 50
269.9999969999991
 51
344.9999999999993
  0
ARC
  5
312
330
1F
100
AcDbEntity
  8
0
 62
     7
370
    35
100
AcDbCircle
 10
40.44843975672972
 20
12.43079107847435
 30
0.0
 40
0.5
100
AcDbArc
 50
195.0000060000005
 51
269.9999969999991
  0
LINE
  5
313
330
1F
100
AcDbEntity
  8
0
 62
     7
 48
0.129084
370
    35
100
AcDbLine
 10
45.61180475672972
 20
11.93079107847435
 30
0.0
 11
40.44843975672972
 21
11.93079107847435
 31
0.0
  0
LINE
  5
314
330
1F
100
AcDbEntity
  8
0
 62
     7
 48
0.019411
370
    35
100
AcDbLine
 10
46.09476775672976
 20
12.30138107847435
 30
0.0
 11
46.29572975672977
 21
13.05138107847435
 31
0.0
  0
ARC
  5
315
330
1F
100
AcDbEntity
  8
0
 62
     7
370
    35
100
AcDbCircle
 10
45.81276675672973
 20
13.18079107847436
 30
0.0
 40
0.5
100
AcDbArc
 50
344.9999999999993
 51
90.00000300000095
  0
LINE
  5
316
330
1F
100
AcDbEntity
  8
0
 62
     7
 48
0.019411
370
    35
100
AcDbLine
 10
39.96547675672974
 20
12.30138107847435
 30
0.0
 11
39.76451575672974
 21
13.05138107847435
 31
0.0
  0
ARC
  5
317
330
1F
100
AcDbEntity
  8
0
 62
     7
370
    35
100
AcDbCircle
 10
40.24747775672977
 20
13.18079107847436
 30
0.0
 40
0.5
100
AcDbArc
 50
90.00000300000095
 51
195.0000060000005
  0
LINE
  5
318
330
1F
100
AcDbEntity
  8
0
 62
     7
 48
0.018868
370
    35
100
AcDbLine
 10
41.00219275672976
 20
13.68079107847435
 30
0.0
 11
40.24747775672977
 21
13.68079107847435
 31
0.0
  0
ARC
  5
319
330
1F
100
AcDbEntity
  8
0
 62
     7
370
    35
100
AcDbCircle
 10
41.00219275672976
 20
13.98079007847431
 30
0.0
 40
0.3
100
AcDbArc
 50
269.9999969999991
 51
351.5850320000029
  0
LINE
  5
31A
330
1F
100
AcDbEntity
  8
0
 62
     7
 48
0.018868
370
    35
100
AcDbLine
 10
45.81276675672973
 20
13.68079107847435
 30
0.0
 11
45.05805275672975
 21
13.68079107847435
 31
0.0
  0
ARC
  5
31B
330
1F
100
AcDbEntity
  8
0
 62
     7
370
    35
100
AcDbCircle
 10
43.03012275672972
 20
13.68079107847435
 30
0.0
 40
1.75
100
AcDbArc
 50
8.414967999997093
 51
171.5850340000029
  0
ARC
  5
31C
330
1F
100
AcDbEntity
  8
0
 62
     7
370
    35
100
AcDbCircle
 10
45.05805275672975
 20
13.98079007847431
 30
0.0
 40
0.3
100
AcDbArc
 50
188.414965999997
 51
269.9999969999991
  0
LINE
  5
31D
330
1F
100
AcDbEntity
  8
0
 62
     7
 48
0.061249
370
    35
100
AcDbLine
 10
48.36989975672975
 20
13.06488507847436
 30
0.0
 11
49.00399275672976
 21
15.51306624619687
 31
0.0
  0
LINE
  5
31E
330
1F
100
AcDbEntity
  8
0
 62
     7
 48
0.033158
370
    35
100
AcDbLine
 10
48.36989975672975
 20
13.06488507847436
 30
0.0
 11
48.02661975672975
 21
11.78374207847432
 31
0.0
  0
ARC
  5
31F
330
1F
100
AcDbEntity
  8
0
 62
     7
370
    35
100
AcDbCircle
 10
45.61180475672972
 20
12.43079107847435
 30
0.0
 40
2.5
100
AcDbArc
 50
269.9999969999991
 51
344.9999999999993
  0
LINE
  5
320
330
1F
100
AcDbEntity
  8
0
 62
     7
 48
0.129084
370
    35
100
AcDbLine
 10
40.44843975672972
 20
9.930791078474356
 30
0.0
 11
45.61180475672972
 21
9.930791078474356
 31
0.0
  0
ARC
  5
321
330
1F
100
AcDbEntity
  8
0
 62
     7
370
    35
100
AcDbCircle
 10
40.44843975672972
 20
12.43079107847435
 30
0.0
 40
2.5
100
AcDbArc
 50
195.0000060000005
 51
269.9999969999991
  0
LINE
  5
322
330
1F
100
AcDbEntity
  8
0
 62
     7
 48
0.033158
370
    35
100
AcDbLine
 10
37.69034475672976
 20
13.06488507847436
 30
0.0
 11
38.03362475672975
 21
11.78374207847432
 31
0.0
  0
LINE
  5
323
330
1F
100
AcDbEntity
  8
0
 62
     7
 48
0.061234
370
    35
100
AcDbLine
 10
37.69034475672976
 20
13.06488507847436
 30
0.0
 11
37.05640275672977
 21
15.5130662461971
 31
0.0
  0
LINE
  5
324
330
1F
100
AcDbEntity
  8
0
 62
     7
 48
0.4337890000000001
370
    35
100
AcDbLine
 10
147.8992864545397
 20
80.6188802460052
 30
0.0
 11
147.8992864545397
 21
97.97042724600519
 31
0.0
  0
ARC
  5
325
330
1F
100
AcDbEntity
  8
0
 62
     7
370
    35
100
AcDbCircle
 10
145.3992864545397
 20
97.97042724600519
 30
0.0
 40
2.5
100
AcDbArc
 50
0.0
 51
89.49999900000154
  0
LINE
  5
326
330
1F
100
AcDbEntity
  8
0
 62
     7
 48
0.36545
370
    35
100
AcDbLine
 10
164.920019622565
 20
80.4913152460052
 30
0.0
 11
147.8992864545397
 21
80.6188802460052
 31
0.0
  0
LINE
  5
327
330
1F
100
AcDbEntity
  8
0
 62
     7
370
    35
100
AcDbLine
 10
166.902566622565
 20
78.49139124600523
 30
0.0
 11
166.902566622565
 21
37.74636924600518
 31
0.0
  0
ARC
  5
328
330
1F
100
AcDbEntity
  8
0
 62
     7
370
    35
100
AcDbCircle
 10
164.902566622565
 20
78.49139124600523
 30
0.0
 40
2.0
100
AcDbArc
 50
0.0
 51
89.49999900000154
  0
LINE
  5
329
330
1F
100
AcDbEntity
  8
0
 62
     7
 48
0.4255620000000001
370
    35
100
AcDbLine
 10
128.3992864545397
 20
100.6188802460052
 30
0.0
 11
145.4211034545397
 21
100.4703322460052
 31
0.0
  0
ARC
  5
32A
330
1F
100
AcDbEntity
  8
0
 62
     7
370
    35
100
AcDbCircle
 10
145.6992954545397
 20
25.51888924600528
 30
0.0
 40
0.199989
100
AcDbArc
 50
359.9993879999944
 51
90.00057600000067
  0
LINE
  5
32B
330
1F
100
AcDbEntity
  8
0
 62
     7
 48
0.188726
370
    35
100
AcDbLine
 10
145.8992864545397
 20
25.51888924600528
 30
0.0
 11
145.8992864545397
 21
17.96985524600527
 31
0.0
  0
ARC
  5
32C
330
1F
100
AcDbEntity
  8
0
 62
     7
370
    35
100
AcDbCircle
 10
145.6992964545397
 20
17.96985124600527
 30
0.0
 40
0.199989
100
AcDbArc
 50
270.4994070000007
 51
0.0005610000056622
  0
ARC
  5
32D
330
1F
100
AcDbEntity
  8
0
 62
     7
370
    35
100
AcDbCircle
 10
130.5992764545397
 20
17.83807624600521
 30
0.0
 40
0.199989
100
AcDbArc
 50
179.999377000005
 51
270.5005890000014
  0
LINE
  5
32E
330
1F
100
AcDbEntity
  8
0
 62
     7
 48
0.377515
370
    35
100
AcDbLine
 10
145.7010384545396
 20
17.76987024600529
 30
0.0
 11
130.6010234545397
 21
17.63809524600523
 31
0.0
  0
LINE
  5
32F
330
1F
100
AcDbEntity
  8
0
 62
     7
 48
0.19202
370
    35
100
AcDbLine
 10
130.3992864545397
 20
17.8380802460052
 30
0.0
 11
130.3992864545397
 21
25.51888924600528
 31
0.0
  0
ARC
  5
330
330
1F
100
AcDbEntity
  8
0
 62
     7
370
    35
100
AcDbCircle
 10
130.5992764545397
 20
25.51888924600528
 30
0.0
 40
0.199989
100
AcDbArc
 50
89.99938800000093
 51
180.000581999996
  0
LINE
  5
331
330
1F
100
AcDbEntity
  8
0
 62
     7
 48
0.3775
370
    35
100
AcDbLine
 10
130.5992784545396
 20
25.71887824600523
 30
0.0
 11
145.6992934545397
 21
25.71887824600523
 31
0.0
  0
ARC
  5
332
330
1F
100
AcDbEntity
  8
0
 62
     7
370
    35
100
AcDbCircle
 10
136.9992874545397
 20
30.31888124600525
 30
0.0
 40
0.2
100
AcDbArc
 50
269.9999969999991
 51
0.0
  0
LINE
  5
333
330
1F
100
AcDbEntity
  8
0
 62
     7
 48
0.14
370
    35
100
AcDbLine
 10
137.1992864545396
 20
30.31888124600525
 30
0.0
 11
137.1992864545396
 21
35.91887924600527
 31
0.0
  0
ARC
  5
334
330
1F
100
AcDbEntity
  8
0
 62
     7
370
    35
100
AcDbCircle
 10
136.9992874545397
 20
35.91887924600527
 30
0.0
 40
0.2
100
AcDbArc
 50
0.0
 51
90.00000300000095
  0
ARC
  5
335
330
1F
100
AcDbEntity
  8
0
 62
     7
370
    35
100
AcDbCircle
 10
133.3992864545397
 20
35.91887924600527
 30
0.0
 40
0.2
100
AcDbArc
 50
90.00000300000095
 51
180.0000050000005
  0
LINE
  5
336
330
1F
100
AcDbEntity
  8
0
 62
     7
 48
0.14
370
    35
100
AcDbLine
 10
133.1992864545396
 20
30.31888124600525
 30
0.0
 11
133.1992864545396
 21
35.91887924600527
 31
0.0
  0
ARC
  5
337
330
1F
100
AcDbEntity
  8
0
 62
     7
370
    35
100
AcDbCircle
 10
133.3992864545397
 20
30.31888124600525
 30
0.0
 40
0.2
100
AcDbArc
 50
180.0000050000005
 51
269.9999969999991
  0
LINE
  5
338
330
1F
100
AcDbEntity
  8
0
 62
     7
 48
0.09
370
    35
100
AcDbLine
 10
136.9992874545397
 20
30.11888024600521
 30
0.0
 11
133.3992864545397
 21
30.11888024600521
 31
0.0
  0
LINE
  5
339
330
1F
100
AcDbEntity
  8
0
 62
     7
 48
0.09
370
    35
100
AcDbLine
 10
136.9992874545397
 20
36.11888024600521
 30
0.0
 11
133.3992864545397
 21
36.11888024600521
 31
0.0
  0
ARC
  5
33A
330
1F
100
AcDbEntity
  8
0
 62
     7
370
    35
100
AcDbCircle
 10
133.3992864545397
 20
85.91887924600527
 30
0.0
 40
0.2
100
AcDbArc
 50
90.00000300000095
 51
180.0000050000005
  0
LINE
  5
33B
330
1F
100
AcDbEntity
  8
0
 62
     7
 48
0.14
370
    35
100
AcDbLine
 10
133.1992864545396
 20
85.91887924600527
 30
0.0
 11
133.1992864545396
 21
80.31888124600525
 31
0.0
  0
ARC
  5
33C
330
1F
100
AcDbEntity
  8
0
 62
     7
370
    35
100
AcDbCircle
 10
133.3992864545397
 20
80.31888124600525
 30
0.0
 40
0.2
100
AcDbArc
 50
180.0000050000005
 51
269.9999969999991
  0
ARC
  5
33D
330
1F
100
AcDbEntity
  8
0
 62
     7
370
    35
100
AcDbCircle
 10
136.9992874545397
 20
85.91887924600527
 30
0.0
 40
0.2
100
AcDbArc
 50
0.0
 51
90.00000300000095
  0
LINE
  5
33E
330
1F
100
AcDbEntity
  8
0
 62
     7
 48
0.14
370
    35
100
AcDbLine
 10
137.1992864545396
 20
85.91887924600527
 30
0.0
 11
137.1992864545396
 21
80.31888124600525
 31
0.0
  0
ARC
  5
33F
330
1F
100
AcDbEntity
  8
0
 62
     7
370
    35
100
AcDbCircle
 10
136.9992874545397
 20
80.31888124600525
 30
0.0
 40
0.2
100
AcDbArc
 50
269.9999969999991
 51
0.0
  0
LINE
  5
340
330
1F
100
AcDbEntity
  8
0
 62
     7
 48
0.09
370
    35
100
AcDbLine
 10
136.9992874545397
 20
86.11888024600521
 30
0.0
 11
133.3992864545397
 21
86.11888024600521
 31
0.0
  0
LINE
  5
341
330
1F
100
AcDbEntity
  8
0
 62
     7
 48
0.09
370
    35
100
AcDbLine
 10
136.9992874545397
 20
80.11888024600521
 30
0.0
 11
133.3992864545397
 21
80.11888024600521
 31
0.0
  0
LINE
  5
342
330
1F
100
AcDbEntity
  8
0
 62
     7
370
    35
100
AcDbLine
 10
128.3992864545397
 20
15.81888824600523
 30
0.0
 11
128.3975483205469
 21
100.6188651399196
 31
0.0
  0
LINE
  5
343
330
1F
100
AcDbEntity
  8
0
 62
     7
 48
0.4255620000000001
370
    35
100
AcDbLine
 10
128.3992864545397
 20
15.6188802460052
 30
0.0
 11
145.4211034545397
 21
15.76742824600521
 31
0.0
  0
LINE
  5
344
330
1F
100
AcDbEntity
  8
0
 62
     7
 48
0.005
370
    35
100
AcDbLine
 10
128.3992864545397
 20
15.6188802460052
 30
0.0
 11
128.3992864545397
 21
15.81888824600523
 31
0.0
  0
ARC
  5
345
330
1F
100
AcDbEntity
  8
0
 62
     7
370
    35
100
AcDbCircle
 10
145.3992864545397
 20
18.26733324600522
 30
0.0
 40
2.5
100
AcDbArc
 50
270.5000009999984
 51
0.0
  0
LINE
  5
346
330
1F
100
AcDbEntity
  8
0
 62
     7
 48
0.4337890000000001
370
    35
100
AcDbLine
 10
147.8992864545397
 20
18.26733324600522
 30
0.0
 11
147.8992864545397
 21
35.6188802460052
 31
0.0
  0
LINE
  5
347
330
1F
100
AcDbEntity
  8
0
 62
     7
 48
0.36545
370
    35
100
AcDbLine
 10
164.9200197284669
 20
35.7464454001815
 30
0.0
 11
147.8992864545397
 21
35.6188802460052
 31
0.0
  0
ARC
  5
348
330
1F
100
AcDbEntity
  8
0
 62
     7
370
    35
100
AcDbCircle
 10
164.902566622565
 20
37.74636924600518
 30
0.0
 40
2.0
100
AcDbArc
 50
270.5000009999984
 51
0.0
  0
LINE
  5
349
330
1F
100
AcDbEntity
  8
0
 62
     7
 48
0.062502
370
    35
100
AcDbLine
 10
164.920019622565
 20
35.74644524600521
 30
0.0
 11
166.902566622565
 21
35.7637465371648
 31
0.0
  0
LINE
  5
34A
330
1F
100
AcDbEntity
  8
0
 62
     7
 48
0.01625
370
    35
100
AcDbLine
 10
147.8992864545397
 20
92.1188802460052
 30
0.0
 11
147.8992864545397
 21
92.76888224600529
 31
0.0
  0
LINE
  5
34B
330
1F
100
AcDbEntity
  8
0
 62
     7
 48
0.055
370
    35
100
AcDbLine
 10
147.8992864545397
 20
92.76888224600529
 30
0.0
 11
147.8992864545397
 21
94.96887824600523
 31
0.0
  0
LINE
  5
34C
330
1F
100
AcDbEntity
  8
0
 62
     7
 48
0.01625
370
    35
100
AcDbLine
 10
147.8992864545397
 20
89.51888024600529
 30
0.0
 11
147.8992864545397
 21
90.16887924600528
 31
0.0
  0
LINE
  5
34D
330
1F
100
AcDbEntity
  8
0
 62
     7
 48
0.01625
370
    35
100
AcDbLine
 10
147.8992864545397
 20
90.81888124600524
 30
0.0
 11
147.8992864545397
 21
91.46887824600524
 31
0.0
  0
LINE
  5
34E
330
1F
100
AcDbEntity
  8
0
 62
     7
 48
0.003739
370
    35
100
AcDbLine
 10
137.0497024545396
 20
80.6188802460052
 30
0.0
 11
137.1992614545397
 21
80.6188802460052
 31
0.0
  0
LINE
  5
34F
330
1F
100
AcDbEntity
  8
0
 62
     7
 48
0.003739
370
    35
100
AcDbLine
 10
137.0497024545396
 20
85.6188802460052
 30
0.0
 11
137.1992614545397
 21
85.6188802460052
 31
0.0
  0
LINE
  5
350
330
1F
100
AcDbEntity
  8
0
 62
     7
 48
0.002467
370
    35
100
AcDbLine
 10
133.2005964545397
 20
80.6188802460052
 30
0.0
 11
133.2992864545397
 21
80.6188802460052
 31
0.0
  0
LINE
  5
351
330
1F
100
AcDbEntity
  8
0
 62
     7
 48
0.057147
370
    35
100
AcDbLine
 10
134.7638044545397
 20
80.6188802460052
 30
0.0
 11
137.0497024545396
 21
80.6188802460052
 31
0.0
  0
LINE
  5
352
330
1F
100
AcDbEntity
  8
0
 62
     7
 48
0.025
370
    35
100
AcDbLine
 10
133.7638044545397
 20
80.6188802460052
 30
0.0
 11
134.7638044545397
 21
80.6188802460052
 31
0.0
  0
LINE
  5
353
330
1F
100
AcDbEntity
  8
0
 62
     7
 48
0.011603
370
    35
100
AcDbLine
 10
133.7638044545397
 20
80.6188802460052
 30
0.0
 11
133.2997024545397
 21
80.6188802460052
 31
0.0
  0
LINE
  5
354
330
1F
100
AcDbEntity
  8
0
 62
     7
 48
0.002467
370
    35
100
AcDbLine
 10
133.2005964545397
 20
85.6188802460052
 30
0.0
 11
133.2992864545397
 21
85.6188802460052
 31
0.0
  0
LINE
  5
355
330
1F
100
AcDbEntity
  8
0
 62
     7
 48
0.125
370
    13
100
AcDbLine
 10
133.2005964545397
 20
80.6188802460052
 30
0.0
 11
133.2005964545397
 21
85.6188802460052
 31
0.0
  0
LINE
  5
356
330
1F
100
AcDbEntity
  8
0
 62
     7
 48
0.151237
370
    13
100
AcDbLine
 10
105.6992884545396
 20
80.09413224600526
 30
0.0
 11
105.6992884545396
 21
86.14362824600524
 31
0.0
  0
LINE
  5
357
330
1F
100
AcDbEntity
  8
0
 62
     7
370
    13
100
AcDbLine
 10
106.1062664545397
 20
86.54356624600527
 30
0.0
 11
128.3992864545397
 21
86.15618624600527
 31
0.0
  0
ARC
  5
358
330
1F
100
AcDbEntity
  8
0
 62
     7
370
    13
100
AcDbCircle
 10
106.0992854545397
 20
86.14362824600524
 30
0.0
 40
0.4
100
AcDbArc
 50
89.00000099999886
 51
179.999963999995
  0
ARC
  5
359
330
1F
100
AcDbEntity
  8
0
 62
     7
370
    13
100
AcDbCircle
 10
106.0992854545397
 20
80.09413224600526
 30
0.0
 40
0.4
100
AcDbArc
 50
179.9999949999995
 51
270.9999580000015
  0
LINE
  5
35A
330
1F
100
AcDbEntity
  8
0
 62
     7
370
    13
100
AcDbLine
 10
106.1062664545397
 20
79.69419424600525
 30
0.0
 11
128.3992864545397
 21
80.08157424600526
 31
0.0
  0
LINE
  5
35B
330
1F
100
AcDbEntity
  8
0
 62
     7
370
    13
100
AcDbLine
 10
106.1062664545397
 20
36.54356624600527
 30
0.0
 11
128.3992864545397
 21
36.15618624600526
 31
0.0
  0
ARC
  5
35C
330
1F
100
AcDbEntity
  8
0
 62
     7
370
    13
100
AcDbCircle
 10
106.0992854545397
 20
36.14362824600525
 30
0.0
 40
0.4
100
AcDbArc
 50
89.00000099999886
 51
179.999963999995
  0
LINE
  5
35D
330
1F
100
AcDbEntity
  8
0
 62
     7
 48
0.151237
370
    13
100
AcDbLine
 10
105.6992884545396
 20
30.09413224600527
 30
0.0
 11
105.6992884545396
 21
36.14362824600525
 31
0.0
  0
ARC
  5
35E
330
1F
100
AcDbEntity
  8
0
 62
     7
370
    13
100
AcDbCircle
 10
106.0992854545397
 20
30.09413224600527
 30
0.0
 40
0.4
100
AcDbArc
 50
179.9999949999995
 51
270.9999580000015
  0
LINE
  5
35F
330
1F
100
AcDbEntity
  8
0
 62
     7
370
    13
100
AcDbLine
 10
106.1062664545397
 20
29.69419424600526
 30
0.0
 11
128.3992864545397
 21
30.08157424600526
 31
0.0
  0
LINE
  5
360
330
1F
100
AcDbEntity
  8
0
 62
     7
370
    35
100
AcDbLine
 10
128.3992864545397
 20
100.6188802460052
 30
0.0
 11
104.0450674545397
 21
100.4072182460052
 31
0.0
  0
ARC
  5
361
330
1F
100
AcDbEntity
  8
0
 62
     7
370
    35
100
AcDbCircle
 10
104.6603094545397
 20
99.6188802460052
 30
0.0
 40
1.0
100
AcDbArc
 50
127.9696589999996
 51
164.5439969999956
  0
LINE
  5
362
330
1F
100
AcDbEntity
  8
0
 62
     7
370
    35
100
AcDbLine
 10
128.3992864545397
 20
15.6188802460052
 30
0.0
 11
98.89928445453973
 21
15.6188802460052
 31
0.0
  0
ARC
  5
363
330
1F
100
AcDbEntity
  8
0
 62
     7
370
    35
100
AcDbCircle
 10
98.89928445453973
 20
16.6188802460052
 30
0.0
 40
1.0
100
AcDbArc
 50
180.0000050000005
 51
269.9999969999991
  0
LINE
  5
364
330
1F
100
AcDbEntity
  8
0
 62
     7
370
    35
100
AcDbLine
 10
97.89928445453973
 20
16.6188802460052
 30
0.0
 11
97.89928445453973
 21
39.41887924600528
 31
0.0
  0
LINE
  5
365
330
1F
100
AcDbEntity
  8
0
 62
     7
 48
0.1
370
    35
100
AcDbLine
 10
97.89928445453973
 20
74.91887924600527
 30
0.0
 11
97.89928445453973
 21
78.91887924600528
 31
0.0
  0
ARC
  5
366
330
1F
100
AcDbEntity
  8
0
 62
     7
370
    35
100
AcDbCircle
 10
98.89970045453971
 20
74.91929524600525
 30
0.0
 40
1.000413999999999
100
AcDbArc
 50
180.0237229999947
 51
269.9762760000005
  0
LINE
  5
367
330
1F
100
AcDbEntity
  8
0
 62
     7
 48
0.0425
370
    35
100
AcDbLine
 10
100.5992854545397
 20
73.91888024600527
 30
0.0
 11
98.89928445453973
 21
73.91888024600527
 31
0.0
  0
LINE
  5
368
330
1F
100
AcDbEntity
  8
0
 62
     7
 48
0.070711
370
    35
100
AcDbLine
 10
100.5992854545397
 20
73.91888024600527
 30
0.0
 11
102.5992854545397
 21
75.91887924600527
 31
0.0
  0
LINE
  5
369
330
1F
100
AcDbEntity
  8
0
 62
     7
 48
0.0325
370
    35
100
AcDbLine
 10
103.8992844545397
 20
75.91887924600527
 30
0.0
 11
102.5992854545397
 21
75.91887924600527
 31
0.0
  0
LINE
  5
36A
330
1F
100
AcDbEntity
  8
0
 62
     7
370
    35
100
AcDbLine
 10
103.8992844545397
 20
40.41887924600527
 30
0.0
 11
103.8992844545397
 21
75.91887924600527
 31
0.0
  0
LINE
  5
36B
330
1F
100
AcDbEntity
  8
0
 62
     7
 48
0.125
370
    35
100
AcDbLine
 10
103.8992844545397
 20
40.41887924600527
 30
0.0
 11
98.89928445453973
 21
40.41887924600527
 31
0.0
  0
ARC
  5
36C
330
1F
100
AcDbEntity
  8
0
 62
     7
370
    35
100
AcDbCircle
 10
98.89928445453973
 20
39.41887924600528
 30
0.0
 40
1.0
100
AcDbArc
 50
90.00000300000095
 51
180.0000050000005
  0
LINE
  5
36D
330
1F
100
AcDbEntity
  8
0
 62
     7
370
    35
100
AcDbLine
 10
103.6964764545397
 20
99.88537924600528
 30
0.0
 11
97.89928445453973
 21
78.91887924600528
 31
0.0
  0
LINE
  5
36E
330
1F
100
AcDbEntity
  8
0
 62
     7
 48
0.125
370
    13
100
AcDbLine
 10
133.2005964545397
 20
30.6188802460052
 30
0.0
 11
133.2005964545397
 21
35.6188802460052
 31
0.0
  0
LINE
  5
36F
330
1F
100
AcDbEntity
  8
0
 62
     7
 48
0.002467
370
    35
100
AcDbLine
 10
133.2005964545397
 20
30.6188802460052
 30
0.0
 11
133.2992864545397
 21
30.6188802460052
 31
0.0
  0
LINE
  5
370
330
1F
100
AcDbEntity
  8
0
 62
     7
 48
0.002467
370
    35
100
AcDbLine
 10
133.2005964545397
 20
35.6188802460052
 30
0.0
 11
133.2992864545397
 21
35.6188802460052
 31
0.0
  0
LINE
  5
371
330
1F
100
AcDbEntity
  8
0
 62
     7
 48
0.003739
370
    35
100
AcDbLine
 10
137.0497024545396
 20
35.6188802460052
 30
0.0
 11
137.1992614545397
 21
35.6188802460052
 31
0.0
  0
LINE
  5
372
330
1F
100
AcDbEntity
  8
0
 62
     7
 48
0.057147
370
    35
100
AcDbLine
 10
134.7638044545397
 20
35.6188802460052
 30
0.0
 11
137.0497024545396
 21
35.6188802460052
 31
0.0
  0
LINE
  5
373
330
1F
100
AcDbEntity
  8
0
 62
     7
 48
0.025
370
    35
100
AcDbLine
 10
133.7638044545397
 20
35.6188802460052
 30
0.0
 11
134.7638044545397
 21
35.6188802460052
 31
0.0
  0
LINE
  5
374
330
1F
100
AcDbEntity
  8
0
 62
     7
 48
0.011603
370
    35
100
AcDbLine
 10
133.7638044545397
 20
35.6188802460052
 30
0.0
 11
133.2997024545397
 21
35.6188802460052
 31
0.0
  0
LINE
  5
375
330
1F
100
AcDbEntity
  8
0
 62
     7
 48
0.003739
370
    35
100
AcDbLine
 10
137.0497024545396
 20
30.6188802460052
 30
0.0
 11
137.1992614545397
 21
30.6188802460052
 31
0.0
  0
LINE
  5
376
330
1F
100
AcDbEntity
  8
0
 62
     7
 48
0.125
370
    13
100
AcDbLine
 10
134.7638044545397
 20
35.6188802460052
 30
0.0
 11
134.7638044545397
 21
30.6188802460052
 31
0.0
  0
LINE
  5
377
330
1F
100
AcDbEntity
  8
0
 62
     7
 48
0.057147
370
    35
100
AcDbLine
 10
134.7638044545397
 20
30.6188802460052
 30
0.0
 11
137.0497024545396
 21
30.6188802460052
 31
0.0
  0
LINE
  5
378
330
1F
100
AcDbEntity
  8
0
 62
     7
 48
0.025
370
    35
100
AcDbLine
 10
133.7638044545397
 20
30.6188802460052
 30
0.0
 11
134.7638044545397
 21
30.6188802460052
 31
0.0
  0
LINE
  5
379
330
1F
100
AcDbEntity
  8
0
 62
     7
 48
0.011603
370
    35
100
AcDbLine
 10
133.7638044545397
 20
30.6188802460052
 30
0.0
 11
133.2997024545397
 21
30.6188802460052
 31
0.0
  0
LINE
  5
37A
330
1F
100
AcDbEntity
  8
0
 62
     7
 48
0.125
370
    13
100
AcDbLine
 10
134.7638044545397
 20
80.6188802460052
 30
0.0
 11
134.7638044545397
 21
85.6188802460052
 31
0.0
  0
LINE
  5
37B
330
1F
100
AcDbEntity
  8
0
 62
     7
 48
0.057147
370
    35
100
AcDbLine
 10
134.7638044545397
 20
85.6188802460052
 30
0.0
 11
137.0497024545396
 21
85.6188802460052
 31
0.0
  0
LINE
  5
37C
330
1F
100
AcDbEntity
  8
0
 62
     7
 48
0.025
370
    35
100
AcDbLine
 10
133.7638044545397
 20
85.6188802460052
 30
0.0
 11
134.7638044545397
 21
85.6188802460052
 31
0.0
  0
LINE
  5
37D
330
1F
100
AcDbEntity
  8
0
 62
     7
 48
0.011603
370
    35
100
AcDbLine
 10
133.7638044545397
 20
85.6188802460052
 30
0.0
 11
133.2997024545397
 21
85.6188802460052
 31
0.0
  0
LINE
  5
37E
330
1F
100
AcDbEntity
  8
0
 62
     7
 48
0.0425
370
    35
100
AcDbLine
 10
98.2992864545397
 20
11.93079107847435
 30
0.0
 11
99.99928745453969
 21
11.93079107847435
 31
0.0
  0
LINE
  5
37F
330
1F
100
AcDbEntity
  8
0
 62
     7
 48
0.035
370
    35
100
AcDbLine
 10
97.99928745453968
 20
11.6307920784744
 30
0.0
 11
97.99928745453968
 21
10.23079007847431
 31
0.0
  0
ARC
  5
380
330
1F
100
AcDbEntity
  8
0
 62
     7
370
    35
100
AcDbCircle
 10
98.2992864545397
 20
10.23079007847431
 30
0.0
 40
0.3
100
AcDbArc
 50
179.9999949999995
 51
269.9999969999991
  0
ARC
  5
381
330
1F
100
AcDbEntity
  8
0
 62
     7
370
    35
100
AcDbCircle
 10
98.2992864545397
 20
11.6307920784744
 30
0.0
 40
0.3
100
AcDbArc
 50
90.00000300000095
 51
147.9869900000014
  0
LINE
  5
382
330
1F
100
AcDbEntity
  8
0
 62
     7
 48
0.055
370
    13
100
AcDbLine
 10
101.1992884545396
 20
40.41887024600518
 30
0.0
 11
101.1992884545396
 21
42.6188802460052
 31
0.0
  0
LINE
  5
383
330
1F
100
AcDbEntity
  8
0
 62
     7
 48
0.035
370
    35
100
AcDbLine
 10
102.5992854545397
 20
42.6188802460052
 30
0.0
 11
101.1992884545396
 21
42.6188802460052
 31
0.0
  0
LINE
  5
384
330
1F
100
AcDbEntity
  8
0
 62
     7
 48
0.055
370
    13
100
AcDbLine
 10
102.5992854545397
 20
40.41887024600518
 30
0.0
 11
102.5992854545397
 21
42.6188802460052
 31
0.0
  0
LINE
  5
385
330
1F
100
AcDbEntity
  8
0
 62
     7
 48
0.057206
370
    35
100
AcDbLine
 10
103.7992864545397
 20
13.14253007847432
 30
0.0
 11
103.7992864545397
 21
15.6188802460052
 31
0.0
  0
LINE
  5
386
330
1F
100
AcDbEntity
  8
0
 62
     7
 48
0.040765
370
    35
100
AcDbLine
 10
103.7992864545397
 20
11.86139007847438
 30
0.0
 11
103.7992864545397
 21
10.23079007847431
 31
0.0
  0
LINE
  5
387
330
1F
100
AcDbEntity
  8
0
 62
     7
 48
0.032028
370
    35
100
AcDbLine
 10
103.7992864545397
 20
13.14253007847432
 30
0.0
 11
103.7992864545397
 21
11.86139007847438
 31
0.0
  0
ARC
  5
388
330
1F
100
AcDbEntity
  8
0
 62
     7
370
    35
100
AcDbCircle
 10
103.4992874545397
 20
10.23079007847431
 30
0.0
 40
0.3
100
AcDbArc
 50
269.9999969999991
 51
0.0
  0
LINE
  5
389
330
1F
100
AcDbEntity
  8
0
 62
     7
 48
0.046324
370
    13
100
AcDbLine
 10
103.4992874545397
 20
11.78374207847432
 30
0.0
 11
103.4992874545397
 21
9.930791078474356
 31
0.0
  0
LINE
  5
38A
330
1F
100
AcDbEntity
  8
0
 62
     7
 48
0.032029
370
    13
100
AcDbLine
 10
103.4992874545397
 20
13.06488507847436
 30
0.0
 11
103.4992874545397
 21
11.78374207847432
 31
0.0
  0
ELLIPSE
  5
38B
330
1F
100
AcDbEntity
  8
0
 62
     7
370
    13
100
AcDbEllipse
 10
102.5995874545397
 20
13.06533507847436
 30
0.0
 11
0.0456021784715514
 21
3.005565308731606
 31
0.0
210
0.0
220
0.0
230
1.0
 40
0.2992814881343077
 41
-1.566405148222047
 42
-0.5510350119106358
  0
LINE
  5
38C
330
1F
100
AcDbEntity
  8
0
 62
     7
 48
0.032028
370
    35
100
AcDbLine
 10
99.99928745453969
 20
11.86139007847438
 30
0.0
 11
99.99928745453969
 21
13.14253007847432
 31
0.0
  0
LINE
  5
38D
330
1F
100
AcDbEntity
  8
0
 62
     7
 48
0.040765
370
    35
100
AcDbLine
 10
99.99928745453969
 20
11.86139007847438
 30
0.0
 11
99.99928745453969
 21
10.23079007847431
 31
0.0
  0
LINE
  5
38E
330
1F
100
AcDbEntity
  8
0
 62
     7
 48
0.057206
370
    35
100
AcDbLine
 10
99.99928745453969
 20
13.14253007847432
 30
0.0
 11
99.99928745453969
 21
15.6188802460052
 31
0.0
  0
LINE
  5
38F
330
1F
100
AcDbEntity
  8
0
 62
     7
 48
0.046324
370
    13
100
AcDbLine
 10
100.2992864545397
 20
11.78374207847432
 30
0.0
 11
100.2992864545397
 21
9.930791078474356
 31
0.0
  0
LINE
  5
390
330
1F
100
AcDbEntity
  8
0
 62
     7
 48
0.08
370
    35
100
AcDbLine
 10
100.2992864545397
 20
9.930791078474356
 30
0.0
 11
103.4992874545397
 21
9.930791078474356
 31
0.0
  0
LINE
  5
391
330
1F
100
AcDbEntity
  8
0
 62
     7
 48
0.032029
370
    13
100
AcDbLine
 10
100.2992864545397
 20
11.78374207847432
 30
0.0
 11
100.2992864545397
 21
13.06488507847436
 31
0.0
  0
ELLIPSE
  5
392
330
1F
100
AcDbEntity
  8
0
 62
     7
370
    13
100
AcDbEllipse
 10
101.1990054545397
 20
13.06530507847432
 30
0.0
 11
-0.0584791183594507
 21
2.917595213434286
 31
0.0
210
0.0
220
0.0
230
1.0
 40
0.3082617645086919
 41
0.4987352716589264
 42
1.564762523621442
  0
ARC
  5
393
330
1F
100
AcDbEntity
  8
0
 62
     7
370
    35
100
AcDbCircle
 10
100.2992864545397
 20
10.23079007847431
 30
0.0
 40
0.3
100
AcDbArc
 50
179.9999949999995
 51
269.9999969999991
  0
LINE
  5
394
330
1F
100
AcDbEntity
  8
0
 62
     7
 48
0.05
370
    35
100
AcDbLine
 10
98.2992864545397
 20
9.930791078474356
 30
0.0
 11
100.2992864545397
 21
9.930791078474356
 31
0.0
  0
ARC
  5
395
330
1F
100
AcDbEntity
  8
0
 62
     7
370
    35
100
AcDbCircle
 10
98.30761745453969
 20
11.6279920784743
 30
0.0
 40
0.308463
100
AcDbArc
 50
148.3659289999998
 51
179.4795309999963
  0
DIMENSION
  5
396
330
1F
100
AcDbEntity
  8
QUOTE
 62
     1
100
AcDbDimension
  2
*D9
 10
93.10244812279227
 20
100.4307910784743
 30
0.0
 11
93.10244812279226
 21
55.18079107847437
 31
0.0
 70
    32
 71
     5
 42
90.5
  3
Standard
100
AcDbAlignedDimension
 13
98.2992864545397
 23
9.930791078474356
 33
0.0
 14
103.902566622565
 24
100.4307910784743
 34
0.0
 50
90.0
100
AcDbRotatedDimension
1001
ACAD
1000
DSTYLE
1002
{
1070
   271
1070
     1
1070
    41
1040
5.0
1070
   140
1040
5.0
1002
}
  0
DIMENSION
  5
397
330
1F
100
AcDbEntity
  8
QUOTE
 62
     1
100
AcDbDimension
  2
*D10
 10
147.8992864545397
 20
108.1072088349359
 30
0.0
 11
125.9009265385524
 21
108.1072088349359
 31
0.0
 70
    32
 71
     5
 42
43.99671983197464
  3
Standard
100
AcDbAlignedDimension
 13
103.902566622565
 23
100.4307910784743
 33
0.0
 14
147.8992864545397
 24
97.97042724600519
 34
0.0
100
AcDbRotatedDimension
1001
ACAD
1000
DSTYLE
1002
{
1070
   271
1070
     1
1070
    41
1040
5.0
1070
   140
1040
5.0
1002
}
  0
DIMENSION
  5
398
330
1F
100
AcDbEntity
  8
QUOTE
 62
     1
100
AcDbDimension
  2
*D11
 10
166.902566622565
 20
0.3882954727677941
 30
0.0
 11
135.402566622565
 21
0.3882954727677941
 31
0.0
 70
   160
 71
     5
 42
62.99999999999994
  3
Standard
100
AcDbAlignedDimension
 13
103.902566622565
 23
15.6188802460052
 33
0.0
 14
166.902566622565
 24
37.74636924600518
 34
0.0
100
AcDbRotatedDimension
1001
ACAD
1000
DSTYLE
1002
{
1070
   271
1070
     1
1070
    41
1040
5.0
1070
   140
1040
5.0
1002
}
  0
SOLID
  5
399
330
1F
100
AcDbEntity
  8
0
 62
     1
370
     5
100
AcDbTrace
 10
29.31507076545654
 20
39.60856320594528
 30
0.0
 11
29.33069176545655
 21
39.44730820594518
 31
0.0
 12
29.32677776545654
 22
39.52833220594525
 32
0.0
 13
29.32677776545654
 23
39.52833220594525
 33
0.0
  0
LINE
  5
39A
330
1F
100
AcDbEntity
  8
0
 62
     1
 48
0.004117
370
    13
100
AcDbLine
 10
22.17069176545653
 20
38.60731220594525
 30
0.0
 11
22.00681676545656
 21
38.62345620594519
 31
0.0
  0
LINE
  5
39B
330
1F
100
AcDbEntity
  8
0
 62
     1
 48
0.004117
370
    13
100
AcDbLine
 10
22.00681676545656
 20
38.62345620594519
 30
0.0
 11
21.84923476545657
 21
38.67124620594527
 31
0.0
  0
LINE
  5
39C
330
1F
100
AcDbEntity
  8
0
 62
     1
 48
0.004117
370
    13
100
AcDbLine
 10
21.84923476545657
 20
38.67124620594527
 30
0.0
 11
21.70401376545652
 21
38.74888320594525
 31
0.0
  0
LINE
  5
39D
330
1F
100
AcDbEntity
  8
0
 62
     1
 48
0.004117
370
    13
100
AcDbLine
 10
21.70401376545652
 20
38.74888320594525
 30
0.0
 11
21.57672076545657
 21
38.85334420594526
 31
0.0
  0
LINE
  5
39E
330
1F
100
AcDbEntity
  8
0
 62
     1
 48
0.004117
370
    13
100
AcDbLine
 10
21.57672076545657
 20
38.85334420594526
 30
0.0
 11
21.47225876545656
 21
38.98063320594528
 31
0.0
  0
LINE
  5
39F
330
1F
100
AcDbEntity
  8
0
 62
     1
 48
0.004117
370
    13
100
AcDbLine
 10
21.47225876545656
 20
38.98063320594528
 30
0.0
 11
21.39462976545656
 21
39.12586620594524
 31
0.0
  0
LINE
  5
3A0
330
1F
100
AcDbEntity
  8
0
 62
     1
 48
0.004116
370
    13
100
AcDbLine
 10
21.39462976545656
 20
39.12586620594524
 30
0.0
 11
21.34683176545656
 21
39.28342920594523
 31
0.0
  0
LINE
  5
3A1
330
1F
100
AcDbEntity
  8
0
 62
     1
 48
0.004117
370
    13
100
AcDbLine
 10
21.34683176545656
 20
39.28342920594523
 30
0.0
 11
21.33069176545655
 21
39.44730820594518
 31
0.0
  0
LINE
  5
3A2
330
1F
100
AcDbEntity
  8
0
 62
     1
 48
0.004117
370
    13
100
AcDbLine
 10
21.33069176545655
 20
39.44730820594518
 30
0.0
 11
21.34683176545656
 21
39.61118720594524
 31
0.0
  0
LINE
  5
3A3
330
1F
100
AcDbEntity
  8
0
 62
     1
 48
0.004117
370
    13
100
AcDbLine
 10
21.34683176545656
 20
39.61118720594524
 30
0.0
 11
21.39462976545656
 21
39.76878020594526
 31
0.0
  0
LINE
  5
3A4
330
1F
100
AcDbEntity
  8
0
 62
     1
 48
0.004116
370
    13
100
AcDbLine
 10
21.39462976545656
 20
39.76878020594526
 30
0.0
 11
21.47225876545656
 21
39.9139832059453
 31
0.0
  0
LINE
  5
3A5
330
1F
100
AcDbEntity
  8
0
 62
     1
 48
0.004117
370
    13
100
AcDbLine
 10
21.47225876545656
 20
39.9139832059453
 30
0.0
 11
21.57672076545657
 21
40.04130220594524
 31
0.0
  0
LINE
  5
3A6
330
1F
100
AcDbEntity
  8
0
 62
     1
 48
0.004117
370
    13
100
AcDbLine
 10
21.57672076545657
 20
40.04130220594524
 30
0.0
 11
21.70401376545652
 21
40.14576420594525
 31
0.0
  0
LINE
  5
3A7
330
1F
100
AcDbEntity
  8
0
 62
     1
 48
0.004116
370
    13
100
AcDbLine
 10
21.70401376545652
 20
40.14576420594525
 30
0.0
 11
21.84923476545657
 21
40.22337020594531
 31
0.0
  0
LINE
  5
3A8
330
1F
100
AcDbEntity
  8
0
 62
     1
 48
0.004117
370
    13
100
AcDbLine
 10
21.84923476545657
 20
40.22337020594531
 30
0.0
 11
22.00681676545656
 21
40.2711912059452
 31
0.0
  0
LINE
  5
3A9
330
1F
100
AcDbEntity
  8
0
 62
     1
 48
0.004117
370
    13
100
AcDbLine
 10
22.00681676545656
 20
40.2711912059452
 30
0.0
 11
22.17069176545653
 21
40.28730420594533
 31
0.0
  0
LINE
  5
3AA
330
1F
100
AcDbEntity
  8
0
 62
     1
 48
0.011
370
    13
100
AcDbLine
 10
22.17069176545653
 20
40.28730420594533
 30
0.0
 11
22.61069076545652
 21
40.28730420594533
 31
0.0
  0
LINE
  5
3AB
330
1F
100
AcDbEntity
  8
0
 62
     1
 48
0.012
370
    13
100
AcDbLine
 10
22.61069076545652
 20
40.28730420594533
 30
0.0
 11
22.61069076545652
 21
39.80732420594526
 31
0.0
  0
LINE
  5
3AC
330
1F
100
AcDbEntity
  8
0
 62
     1
 48
0.016
370
    13
100
AcDbLine
 10
22.61069076545652
 20
39.80732420594526
 30
0.0
 11
21.97069176545654
 21
39.80732420594526
 31
0.0
  0
LINE
  5
3AD
330
1F
100
AcDbEntity
  8
0
 62
     1
 48
0.018
370
    13
100
AcDbLine
 10
21.97069176545654
 20
39.80732420594526
 30
0.0
 11
21.97069176545654
 21
39.08732320594524
 31
0.0
  0
LINE
  5
3AE
330
1F
100
AcDbEntity
  8
0
 62
     1
 48
0.003
370
    13
100
AcDbLine
 10
21.97069176545654
 20
39.08732320594524
 30
0.0
 11
22.09069076545654
 21
39.08732320594524
 31
0.0
  0
LINE
  5
3AF
330
1F
100
AcDbEntity
  8
0
 62
     1
 48
0.015
370
    13
100
AcDbLine
 10
22.09069076545654
 20
39.08732320594524
 30
0.0
 11
22.09069076545654
 21
39.68732920594525
 31
0.0
  0
LINE
  5
3B0
330
1F
100
AcDbEntity
  8
0
 62
     1
 48
0.013
370
    13
100
AcDbLine
 10
22.09069076545654
 20
39.68732920594525
 30
0.0
 11
22.61069076545652
 21
39.68732920594525
 31
0.0
  0
LINE
  5
3B1
330
1F
100
AcDbEntity
  8
0
 62
     1
 48
0.027
370
    13
100
AcDbLine
 10
22.61069076545652
 20
39.68732920594525
 30
0.0
 11
22.61069076545652
 21
38.60731220594525
 31
0.0
  0
LINE
  5
3B2
330
1F
100
AcDbEntity
  8
0
 62
     1
 48
0.011
370
    13
100
AcDbLine
 10
22.61069076545652
 20
38.60731220594525
 30
0.0
 11
22.17069176545653
 21
38.60731220594525
 31
0.0
  0
LINE
  5
3B3
330
1F
100
AcDbEntity
  8
0
 62
     1
 48
0.032
370
    13
100
AcDbLine
 10
22.73068976545653
 20
38.60731220594525
 30
0.0
 11
24.01069176545656
 21
38.60731220594525
 31
0.0
  0
LINE
  5
3B4
330
1F
100
AcDbEntity
  8
0
 62
     1
 48
0.012
370
    13
100
AcDbLine
 10
24.01069176545656
 20
38.60731220594525
 30
0.0
 11
24.01069176545656
 21
39.08732320594524
 31
0.0
  0
LINE
  5
3B5
330
1F
100
AcDbEntity
  8
0
 62
     1
 48
0.019
370
    13
100
AcDbLine
 10
24.01069176545656
 20
39.08732320594524
 30
0.0
 11
23.25069376545656
 21
39.08732320594524
 31
0.0
  0
LINE
  5
3B6
330
1F
100
AcDbEntity
  8
0
 62
     1
 48
0.003
370
    13
100
AcDbLine
 10
23.25069376545656
 20
39.08732320594524
 30
0.0
 11
23.25069376545656
 21
39.20731820594525
 31
0.0
  0
LINE
  5
3B7
330
1F
100
AcDbEntity
  8
0
 62
     1
 48
0.019
370
    13
100
AcDbLine
 10
23.25069376545656
 20
39.20731820594525
 30
0.0
 11
24.01069176545656
 21
39.20731820594525
 31
0.0
  0
LINE
  5
3B8
330
1F
100
AcDbEntity
  8
0
 62
     1
 48
0.012
370
    13
100
AcDbLine
 10
24.01069176545656
 20
39.20731820594525
 30
0.0
 11
24.01069176545656
 21
39.68732920594525
 31
0.0
  0
LINE
  5
3B9
330
1F
100
AcDbEntity
  8
0
 62
     1
 48
0.019
370
    13
100
AcDbLine
 10
24.01069176545656
 20
39.68732920594525
 30
0.0
 11
23.25069376545656
 21
39.68732920594525
 31
0.0
  0
LINE
  5
3BA
330
1F
100
AcDbEntity
  8
0
 62
     1
 48
0.003
370
    13
100
AcDbLine
 10
23.25069376545656
 20
39.68732920594525
 30
0.0
 11
23.25069376545656
 21
39.80732420594526
 31
0.0
  0
LINE
  5
3BB
330
1F
100
AcDbEntity
  8
0
 62
     1
 48
0.005
370
    13
100
AcDbLine
 10
23.25069376545656
 20
39.80732420594526
 30
0.0
 11
23.45069076545656
 21
39.80732420594526
 31
0.0
  0
LINE
  5
3BC
330
1F
100
AcDbEntity
  8
0
 62
     1
 48
0.012
370
    13
100
AcDbLine
 10
23.45069076545656
 20
39.80732420594526
 30
0.0
 11
23.45069076545656
 21
40.28730420594533
 31
0.0
  0
LINE
  5
3BD
330
1F
100
AcDbEntity
  8
0
 62
     1
 48
0.018
370
    13
100
AcDbLine
 10
23.45069076545656
 20
40.28730420594533
 30
0.0
 11
22.73068976545653
 21
40.28730420594533
 31
0.0
  0
LINE
  5
3BE
330
1F
100
AcDbEntity
  8
0
 62
     1
 48
0.042
370
    13
100
AcDbLine
 10
22.73068976545653
 20
40.28730420594533
 30
0.0
 11
22.73068976545653
 21
38.60731220594525
 31
0.0
  0
LINE
  5
3BF
330
1F
100
AcDbEntity
  8
0
 62
     1
 48
0.012322
370
    13
100
AcDbLine
 10
24.82358476545653
 20
38.60731220594525
 30
0.0
 11
24.33069176545655
 21
38.60731220594525
 31
0.0
  0
LINE
  5
3C0
330
1F
100
AcDbEntity
  8
0
 62
     1
 48
0.030806
370
    13
100
AcDbLine
 10
24.33069176545655
 20
38.60731220594525
 30
0.0
 11
24.05068976545653
 21
39.80732420594526
 31
0.0
  0
LINE
  5
3C1
330
1F
100
AcDbEntity
  8
0
 62
     1
 48
0.012
370
    13
100
AcDbLine
 10
24.05068976545653
 20
39.80732420594526
 30
0.0
 11
23.57069376545656
 21
39.80732420594526
 31
0.0
  0
LINE
  5
3C2
330
1F
100
AcDbEntity
  8
0
 62
     1
 48
0.012
370
    13
100
AcDbLine
 10
23.57069376545656
 20
39.80732420594526
 30
0.0
 11
23.57069376545656
 21
40.28730420594533
 31
0.0
  0
LINE
  5
3C3
330
1F
100
AcDbEntity
  8
0
 62
     1
 48
0.021522
370
    13
100
AcDbLine
 10
23.57069376545656
 20
40.28730420594533
 30
0.0
 11
24.43158676545653
 21
40.28730420594533
 31
0.0
  0
LINE
  5
3C4
330
1F
100
AcDbEntity
  8
0
 62
     1
 48
0.020423
370
    13
100
AcDbLine
 10
24.43158676545653
 20
40.28730420594533
 30
0.0
 11
24.61721376545654
 21
39.49177220594524
 31
0.0
  0
LINE
  5
3C5
330
1F
100
AcDbEntity
  8
0
 62
     1
 48
0.020282
370
    13
100
AcDbLine
 10
24.61721376545654
 20
39.49177220594524
 30
0.0
 11
24.77632076545655
 21
40.28730420594533
 31
0.0
  0
LINE
  5
3C6
330
1F
100
AcDbEntity
  8
0
 62
     1
 48
0.012
370
    13
100
AcDbLine
 10
24.77632076545655
 20
40.28730420594533
 30
0.0
 11
25.25632476545656
 21
40.28730420594533
 31
0.0
  0
LINE
  5
3C7
330
1F
100
AcDbEntity
  8
0
 62
     1
 48
0.019008
370
    13
100
AcDbLine
 10
25.25632476545656
 20
40.28730420594533
 30
0.0
 11
25.42909576545657
 21
39.54685620594532
 31
0.0
  0
LINE
  5
3C8
330
1F
100
AcDbEntity
  8
0
 62
     1
 48
0.018878
370
    13
100
AcDbLine
 10
25.42909576545657
 20
39.54685620594532
 30
0.0
 11
25.57718576545653
 21
40.28730420594533
 31
0.0
  0
LINE
  5
3C9
330
1F
100
AcDbEntity
  8
0
 62
     1
 48
0.023838
370
    13
100
AcDbLine
 10
25.57718576545653
 20
40.28730420594533
 30
0.0
 11
26.53069276545654
 21
40.28730420594533
 31
0.0
  0
LINE
  5
3CA
330
1F
100
AcDbEntity
  8
0
 62
     1
 48
0.012
370
    13
100
AcDbLine
 10
26.53069276545654
 20
40.28730420594533
 30
0.0
 11
26.53069276545654
 21
39.80732420594526
 31
0.0
  0
LINE
  5
3CB
330
1F
100
AcDbEntity
  8
0
 62
     1
 48
0.014
370
    13
100
AcDbLine
 10
26.53069276545654
 20
39.80732420594526
 30
0.0
 11
25.97069176545654
 21
39.80732420594526
 31
0.0
  0
LINE
  5
3CC
330
1F
100
AcDbEntity
  8
0
 62
     1
 48
0.030594
370
    13
100
AcDbLine
 10
25.97069176545654
 20
39.80732420594526
 30
0.0
 11
25.73068976545653
 21
38.60731220594525
 31
0.0
  0
LINE
  5
3CD
330
1F
100
AcDbEntity
  8
0
 62
     1
 48
0.012238
370
    13
100
AcDbLine
 10
25.73068976545653
 20
38.60731220594525
 30
0.0
 11
25.24118776545652
 21
38.60731220594525
 31
0.0
  0
LINE
  5
3CE
330
1F
100
AcDbEntity
  8
0
 62
     1
 48
0.02474
370
    13
100
AcDbLine
 10
25.24118776545652
 20
38.60731220594525
 30
0.0
 11
25.01632676545654
 21
39.57102620594523
 31
0.0
  0
LINE
  5
3CF
330
1F
100
AcDbEntity
  8
0
 62
     1
 48
0.02457
370
    13
100
AcDbLine
 10
25.01632676545654
 20
39.57102620594523
 30
0.0
 11
24.82358476545653
 21
38.60731220594525
 31
0.0
  0
LINE
  5
3D0
330
1F
100
AcDbEntity
  8
0
 62
     1
 48
0.012
370
    13
100
AcDbLine
 10
26.05068976545652
 20
38.60731220594525
 30
0.0
 11
26.53069276545654
 21
38.60731220594525
 31
0.0
  0
LINE
  5
3D1
330
1F
100
AcDbEntity
  8
0
 62
     1
 48
0.027
370
    13
100
AcDbLine
 10
26.53069276545654
 20
38.60731220594525
 30
0.0
 11
26.53069276545654
 21
39.68732920594525
 31
0.0
  0
LINE
  5
3D2
330
1F
100
AcDbEntity
  8
0
 62
     1
 48
0.027
370
    13
100
AcDbLine
 10
26.05068976545652
 20
39.68732920594525
 30
0.0
 11
26.05068976545652
 21
38.60731220594525
 31
0.0
  0
LINE
  5
3D3
330
1F
100
AcDbEntity
  8
0
 62
     1
 48
0.032
370
    13
100
AcDbLine
 10
26.65069176545654
 20
38.60731220594525
 30
0.0
 11
27.93069076545658
 21
38.60731220594525
 31
0.0
  0
LINE
  5
3D4
330
1F
100
AcDbEntity
  8
0
 62
     1
 48
0.027
370
    13
100
AcDbLine
 10
27.93069076545658
 20
38.60731220594525
 30
0.0
 11
27.93069076545658
 21
39.68732920594525
 31
0.0
  0
LINE
  5
3D5
330
1F
100
AcDbEntity
  8
0
 62
     1
 48
0.019
370
    13
100
AcDbLine
 10
27.93069076545658
 20
39.68732920594525
 30
0.0
 11
27.17069176545653
 21
39.68732920594525
 31
0.0
  0
LINE
  5
3D6
330
1F
100
AcDbEntity
  8
0
 62
     1
 48
0.003
370
    13
100
AcDbLine
 10
27.17069176545653
 20
39.68732920594525
 30
0.0
 11
27.17069176545653
 21
39.80732420594526
 31
0.0
  0
LINE
  5
3D7
330
1F
100
AcDbEntity
  8
0
 62
     1
 48
0.019
370
    13
100
AcDbLine
 10
27.17069176545653
 20
39.80732420594526
 30
0.0
 11
27.93069076545658
 21
39.80732420594526
 31
0.0
  0
LINE
  5
3D8
330
1F
100
AcDbEntity
  8
0
 62
     1
 48
0.012
370
    13
100
AcDbLine
 10
27.93069076545658
 20
39.80732420594526
 30
0.0
 11
27.93069076545658
 21
40.28730420594533
 31
0.0
  0
LINE
  5
3D9
330
1F
100
AcDbEntity
  8
0
 62
     1
 48
0.032
370
    13
100
AcDbLine
 10
27.93069076545658
 20
40.28730420594533
 30
0.0
 11
26.65069176545654
 21
40.28730420594533
 31
0.0
  0
LINE
  5
3DA
330
1F
100
AcDbEntity
  8
0
 62
     1
 48
0.027
370
    13
100
AcDbLine
 10
26.65069176545654
 20
40.28730420594533
 30
0.0
 11
26.65069176545654
 21
39.20731820594525
 31
0.0
  0
LINE
  5
3DB
330
1F
100
AcDbEntity
  8
0
 62
     1
 48
0.019
370
    13
100
AcDbLine
 10
26.65069176545654
 20
39.20731820594525
 30
0.0
 11
27.41068976545654
 21
39.20731820594525
 31
0.0
  0
LINE
  5
3DC
330
1F
100
AcDbEntity
  8
0
 62
     1
 48
0.003
370
    13
100
AcDbLine
 10
27.41068976545654
 20
39.20731820594525
 30
0.0
 11
27.41068976545654
 21
39.08732320594524
 31
0.0
  0
LINE
  5
3DD
330
1F
100
AcDbEntity
  8
0
 62
     1
 48
0.019
370
    13
100
AcDbLine
 10
27.41068976545654
 20
39.08732320594524
 30
0.0
 11
26.65069176545654
 21
39.08732320594524
 31
0.0
  0
LINE
  5
3DE
330
1F
100
AcDbEntity
  8
0
 62
     1
 48
0.012
370
    13
100
AcDbLine
 10
26.65069176545654
 20
39.08732320594524
 30
0.0
 11
26.65069176545654
 21
38.60731220594525
 31
0.0
  0
LINE
  5
3DF
330
1F
100
AcDbEntity
  8
0
 62
     1
 48
0.004117
370
    13
100
AcDbLine
 10
28.49069176545652
 20
38.60731220594525
 30
0.0
 11
28.65456776545654
 21
38.62345620594519
 31
0.0
  0
LINE
  5
3E0
330
1F
100
AcDbEntity
  8
0
 62
     1
 48
0.004117
370
    13
100
AcDbLine
 10
28.65456776545654
 20
38.62345620594519
 30
0.0
 11
28.81214476545654
 21
38.67124620594527
 31
0.0
  0
LINE
  5
3E1
330
1F
100
AcDbEntity
  8
0
 62
     1
 48
0.004117
370
    13
100
AcDbLine
 10
28.81214476545654
 20
38.67124620594527
 30
0.0
 11
28.95737076545652
 21
38.74888320594525
 31
0.0
  0
LINE
  5
3E2
330
1F
100
AcDbEntity
  8
0
 62
     1
 48
0.004117
370
    13
100
AcDbLine
 10
28.95737076545652
 20
38.74888320594525
 30
0.0
 11
29.08466276545653
 21
38.85334420594526
 31
0.0
  0
LINE
  5
3E3
330
1F
100
AcDbEntity
  8
0
 62
     1
 48
0.004117
370
    13
100
AcDbLine
 10
29.08466276545653
 20
38.85334420594526
 30
0.0
 11
29.18912476545654
 21
38.98063320594528
 31
0.0
  0
LINE
  5
3E4
330
1F
100
AcDbEntity
  8
0
 62
     1
 48
0.004117
370
    13
100
AcDbLine
 10
29.18912476545654
 20
38.98063320594528
 30
0.0
 11
29.26674976545655
 21
39.12586620594524
 31
0.0
  0
LINE
  5
3E5
330
1F
100
AcDbEntity
  8
0
 62
     1
 48
0.004116
370
    13
100
AcDbLine
 10
29.26674976545655
 20
39.12586620594524
 30
0.0
 11
29.31455176545654
 21
39.28342920594523
 31
0.0
  0
LINE
  5
3E6
330
1F
100
AcDbEntity
  8
0
 62
     1
 48
0.004117
370
    13
100
AcDbLine
 10
29.31455176545654
 20
39.28342920594523
 30
0.0
 11
29.33069176545655
 21
39.44730820594518
 31
0.0
  0
LINE
  5
3E7
330
1F
100
AcDbEntity
  8
0
 62
     1
 48
0.002028
370
    13
100
AcDbLine
 10
29.33069176545655
 20
39.44730820594518
 30
0.0
 11
29.32677776545654
 21
39.52833220594525
 31
0.0
  0
LINE
  5
3E8
330
1F
100
AcDbEntity
  8
0
 62
     1
 48
0.002027
370
    13
100
AcDbLine
 10
29.32677776545654
 20
39.52833220594525
 30
0.0
 11
29.31507076545654
 21
39.60856320594528
 31
0.0
  0
LINE
  5
3E9
330
1F
100
AcDbEntity
  8
0
 62
     1
 48
0.002028
370
    13
100
AcDbLine
 10
29.31507076545654
 20
39.60856320594528
 30
0.0
 11
29.29567676545656
 21
39.68732920594525
 31
0.0
  0
LINE
  5
3EA
330
1F
100
AcDbEntity
  8
0
 62
     1
 48
0.018125
370
    13
100
AcDbLine
 10
29.29567676545656
 20
39.68732920594525
 30
0.0
 11
28.57069376545656
 21
39.68732920594525
 31
0.0
  0
LINE
  5
3EB
330
1F
100
AcDbEntity
  8
0
 62
     1
 48
0.003
370
    13
100
AcDbLine
 10
28.57069376545656
 20
39.68732920594525
 30
0.0
 11
28.57069376545656
 21
39.80732420594526
 31
0.0
  0
LINE
  5
3EC
330
1F
100
AcDbEntity
  8
0
 62
     1
 48
0.016974
370
    13
100
AcDbLine
 10
28.57069376545656
 20
39.80732420594526
 30
0.0
 11
29.24963676545656
 21
39.80732420594526
 31
0.0
  0
LINE
  5
3ED
330
1F
100
AcDbEntity
  8
0
 62
     1
 48
0.004727
370
    13
100
AcDbLine
 10
29.24963676545656
 20
39.80732420594526
 30
0.0
 11
29.14989076545658
 21
39.96793820594528
 31
0.0
  0
LINE
  5
3EE
330
1F
100
AcDbEntity
  8
0
 62
     1
 48
0.004728
370
    13
100
AcDbLine
 10
29.14989076545658
 20
39.96793820594528
 30
0.0
 11
29.01673876545653
 21
40.10221520594527
 31
0.0
  0
LINE
  5
3EF
330
1F
100
AcDbEntity
  8
0
 62
     1
 48
0.004727
370
    13
100
AcDbLine
 10
29.01673876545653
 20
40.10221520594527
 30
0.0
 11
28.85693276545658
 21
40.20325920594527
 31
0.0
  0
LINE
  5
3F0
330
1F
100
AcDbEntity
  8
0
 62
     1
 48
0.004727
370
    13
100
AcDbLine
 10
28.85693276545658
 20
40.20325920594527
 30
0.0
 11
28.67857376545652
 21
40.26603420594526
 31
0.0
  0
LINE
  5
3F1
330
1F
100
AcDbEntity
  8
0
 62
     1
 48
0.004727
370
    13
100
AcDbLine
 10
28.67857376545652
 20
40.26603420594526
 30
0.0
 11
28.49069176545652
 21
40.28730420594533
 31
0.0
  0
LINE
  5
3F2
330
1F
100
AcDbEntity
  8
0
 62
     1
 48
0.011
370
    13
100
AcDbLine
 10
28.49069176545652
 20
40.28730420594533
 30
0.0
 11
28.05068976545653
 21
40.28730420594533
 31
0.0
  0
LINE
  5
3F3
330
1F
100
AcDbEntity
  8
0
 62
     1
 48
0.027
370
    13
100
AcDbLine
 10
28.05068976545653
 20
40.28730420594533
 30
0.0
 11
28.05068976545653
 21
39.20731820594525
 31
0.0
  0
LINE
  5
3F4
330
1F
100
AcDbEntity
  8
0
 62
     1
 48
0.016
370
    13
100
AcDbLine
 10
28.05068976545653
 20
39.20731820594525
 30
0.0
 11
28.69069276545656
 21
39.20731820594525
 31
0.0
  0
LINE
  5
3F5
330
1F
100
AcDbEntity
  8
0
 62
     1
 48
0.003
370
    13
100
AcDbLine
 10
28.69069276545656
 20
39.20731820594525
 30
0.0
 11
28.69069276545656
 21
39.08732320594524
 31
0.0
  0
LINE
  5
3F6
330
1F
100
AcDbEntity
  8
0
 62
     1
 48
0.016
370
    13
100
AcDbLine
 10
28.69069276545656
 20
39.08732320594524
 30
0.0
 11
28.05068976545653
 21
39.08732320594524
 31
0.0
  0
LINE
  5
3F7
330
1F
100
AcDbEntity
  8
0
 62
     1
 48
0.012
370
    13
100
AcDbLine
 10
28.05068976545653
 20
39.08732320594524
 30
0.0
 11
28.05068976545653
 21
38.60731220594525
 31
0.0
  0
LINE
  5
3F8
330
1F
100
AcDbEntity
  8
0
 62
     1
 48
0.011
370
    13
100
AcDbLine
 10
28.05068976545653
 20
38.60731220594525
 30
0.0
 11
28.49069176545652
 21
38.60731220594525
 31
0.0
  0
LINE
  5
3F9
330
1F
100
AcDbEntity
  8
0
 62
     1
 48
0.012
370
    13
100
AcDbLine
 10
26.05068976545652
 20
39.68732920594525
 30
0.0
 11
26.53069276545654
 21
39.68732920594525
 31
0.0
  0
CIRCLE
  5
3FA
330
1F
100
AcDbEntity
  8
0
 62
     7
370
    13
100
AcDbCircle
 10
52.53012276545655
 20
58.01305774611236
 30
0.0
 40
3.049999999999999
  0
CIRCLE
  5
3FB
330
1F
100
AcDbEntity
  8
0
 62
     7
370
    13
100
AcDbCircle
 10
33.53012276545655
 20
58.01305774611236
 30
0.0
 40
3.049999999999999
  0
CIRCLE
  5
3FC
330
1F
100
AcDbEntity
  8
0
 62
     7
370
    13
100
AcDbCircle
 10
43.03012276545655
 20
58.01305774611236
 30
0.0
 40
18.742785
  0
LINE
  5
3FD
330
1F
100
AcDbEntity
  8
0
 62
     7
 48
0.037906
370
    13
100
AcDbLine
 10
45.83011076545665
 20
42.91305174611236
 30
0.0
 11
47.3463457654567
 21
42.91305174611236
 31
0.0
  0
ARC
  5
3FE
330
1F
100
AcDbEntity
  8
0
 62
     7
370
    13
100
AcDbCircle
 10
43.03012276545655
 20
45.01305774611236
 30
0.0
 40
4.799999999999999
100
AcDbArc
 50
334.0555089999983
 51
25.94447999999895
  0
LINE
  5
3FF
330
1F
100
AcDbEntity
  8
0
 62
     7
 48
0.037906
370
    13
100
AcDbLine
 10
45.83011076545665
 20
47.11306474611236
 30
0.0
 11
47.3463457654567
 21
47.11306474611236
 31
0.0
  0
ARC
  5
400
330
1F
100
AcDbEntity
  8
0
 62
     7
370
    13
100
AcDbCircle
 10
43.03012276545655
 20
45.01305774611236
 30
0.0
 40
3.5
100
AcDbArc
 50
36.86989699999662
 51
143.1300970000014
  0
LINE
  5
401
330
1F
100
AcDbEntity
  8
0
 62
     7
 48
0.037906
370
    13
100
AcDbLine
 10
38.71389976545663
 20
47.11306474611236
 30
0.0
 11
40.23013476545656
 21
47.11306474611236
 31
0.0
  0
ARC
  5
402
330
1F
100
AcDbEntity
  8
0
 62
     7
370
    13
100
AcDbCircle
 10
43.03012276545655
 20
45.01305774611236
 30
0.0
 40
4.799999999999999
100
AcDbArc
 50
154.0555180000027
 51
205.9444819999973
  0
LINE
  5
403
330
1F
100
AcDbEntity
  8
0
 62
     7
 48
0.037906
370
    13
100
AcDbLine
 10
38.71389976545663
 20
42.91305174611236
 30
0.0
 11
40.23013476545656
 21
42.91305174611236
 31
0.0
  0
ARC
  5
404
330
1F
100
AcDbEntity
  8
0
 62
     7
370
    13
100
AcDbCircle
 10
43.03012276545655
 20
45.01305774611236
 30
0.0
 40
3.5
100
AcDbArc
 50
216.8699029999985
 51
323.1301029999962
  0
CIRCLE
  5
405
330
1F
100
AcDbEntity
  8
0
 62
     7
370
    13
100
AcDbCircle
 10
43.03012276545655
 20
58.01305774611236
 30
0.0
 40
19.752045
  0
ENDSEC
  0
SECTION
  2
OBJECTS
  0
DICTIONARY
  5
C
330
0
100
AcDbDictionary
281
     1
  3
ACAD_COLOR
350
73
  3
ACAD_GROUP
350
D
  3
ACAD_LAYOUT
350
1A
  3
ACAD_MATERIAL
350
72
  3
ACAD_MLEADERSTYLE
350
D7
  3
ACAD_MLINESTYLE
350
17
  3
ACAD_PLOTSETTINGS
350
19
  3
ACAD_PLOTSTYLENAME
350
E
  3
ACAD_SCALELIST
350
B6
  3
ACAD_TABLESTYLE
350
86
  3
ACAD_VISUALSTYLE
350
99
  3
ACDB_RECOMPOSE_DATA
350
FF
  3
AcDbVariableDictionary
350
66
  3
DWGPROPS
350
4E5
  0
DICTIONARY
  5
E6
330
10
100
AcDbDictionary
280
     1
281
     1
  3
ADSK_XREC_LAYER_RECONCILED
360
4DD
  0
DICTIONARY
  5
4DE
330
18A
100
AcDbDictionary
280
     1
281
     1
  3
ADSK_XREC_LAYER_RECONCILED
360
4DF
  0
DICTIONARY
  5
73
102
{ACAD_REACTORS
330
C
102
}
330
C
100
AcDbDictionary
281
     1
  0
DICTIONARY
  5
D
102
{ACAD_REACTORS
330
C
102
}
330
C
100
AcDbDictionary
281
     1
  0
DICTIONARY
  5
1A
102
{ACAD_REACTORS
330
C
102
}
330
C
100
AcDbDictionary
281
     1
  3
Layout1
350
59
  3
Layout2
350
5E
  3
Model
350
22
  0
DICTIONARY
  5
72
102
{ACAD_REACTORS
330
C
102
}
330
C
100
AcDbDictionary
281
     1
  3
ByBlock
350
97
  3
ByLayer
350
96
  3
Global
350
98
  0
DICTIONARY
  5
D7
102
{ACAD_REACTORS
330
C
102
}
330
C
100
AcDbDictionary
281
     1
  3
Annotativa
350
E5
  3
Standard
350
D8
  0
DICTIONARY
  5
17
102
{ACAD_REACTORS
330
C
102
}
330
C
100
AcDbDictionary
281
     1
  3
Standard
350
18
  0
DICTIONARY
  5
19
102
{ACAD_REACTORS
330
C
102
}
330
C
100
AcDbDictionary
281
     1
  0
ACDBDICTIONARYWDFLT
  5
E
102
{ACAD_REACTORS
330
C
102
}
330
C
100
AcDbDictionary
281
     1
  3
Normal
350
F
100
AcDbDictionaryWithDefault
340
F
  0
DICTIONARY
  5
B6
102
{ACAD_REACTORS
330
C
102
}
330
C
100
AcDbDictionary
281
     1
  3
A0
350
B7
  3
A1
350
124
  3
A2
350
125
  3
A3
350
126
  3
A4
350
127
  3
A5
350
128
  3
A6
350
129
  3
A7
350
12A
  3
A8
350
12B
  3
A9
350
12C
  3
B0
350
12D
  3
B1
350
12E
  3
B2
350
12F
  3
B3
350
130
  3
B4
350
131
  3
B5
350
132
  3
B6
350
133
  3
B7
350
134
  3
B8
350
135
  3
B9
350
136
  3
C0
350
137
  3
C1
350
138
  3
C2
350
139
  3
C3
350
13A
  3
C4
350
13B
  3
C5
350
13C
  3
C6
350
13D
  3
C7
350
13E
  3
C8
350
13F
  3
C9
350
140
  3
D0
350
141
  3
D1
350
142
  3
D2
350
143
  0
DICTIONARY
  5
86
102
{ACAD_REACTORS
330
C
102
}
330
C
100
AcDbDictionary
281
     1
  3
Standard
350
87
  0
DICTIONARY
  5
99
102
{ACAD_REACTORS
330
C
102
}
330
C
100
AcDbDictionary
281
     1
  3
2dWireframe
350
9F
  3
3D Hidden
350
A1
  3
3dWireframe
350
A0
  3
Basic
350
9E
  3
Brighten
350
A5
  3
ColorChange
350
A9
  3
Conceptual
350
A2
  3
Dim
350
A4
  3
Facepattern
350
A8
  3
Flat
350
9A
  3
FlatWithEdges
350
9B
  3
Gouraud
350
9C
  3
GouraudWithEdges
350
9D
  3
Linepattern
350
A7
  3
Realistic
350
A3
  3
Thicken
350
A6
  0
XRECORD
  5
FF
102
{ACAD_REACTORS
330
C
102
}
330
C
100
AcDbXrecord
280
     1
 90
        1
330
87
  0
DICTIONARY
  5
66
102
{ACAD_REACTORS
330
C
102
}
330
C
100
AcDbDictionary
281
     1
  3
CANNOSCALE
350
F0
  3
CMLEADERSTYLE
350
EF
  3
CTABLESTYLE
350
89
  3
DIMASSOC
350
67
  3
HIDETEXT
350
6B
  3
INDEXCTL
350
4E3
  3
LIGHTINGUNITS
350
4E1
  3
MSLTSCALE
350
4E0
  3
SORTENTS
350
4E2
  0
XRECORD
  5
4E5
102
{ACAD_REACTORS
330
C
102
}
330
C
100
AcDbXrecord
280
     1
  1
DWGPROPS COOKIE
  2

  3

  4

  6

  7

  8
FontanaNZ
  9

300
=
301
=
302
=
303
=
304
=
305
=
306
=
307
=
308
=
309
=
 40
0.0004427314814815
 41
2456457.615521007
 42
2456457.615963553
  1

 90
        0
  0
XRECORD
  5
4DD
102
{ACAD_REACTORS
330
E6
102
}
330
E6
100
AcDbXrecord
280
     1
290
     1
  0
XRECORD
  5
4DF
102
{ACAD_REACTORS
330
4DE
102
}
330
4DE
100
AcDbXrecord
280
     1
290
     1
  0
LAYOUT
  5
59
102
{ACAD_XDICTIONARY
360
4E8
102
}
102
{ACAD_REACTORS
330
1A
102
}
330
1A
100
AcDbPlotSettings
  1

  2
None
  4

  6

 40
0.0
 41
0.0
 42
0.0
 43
0.0
 44
0.0
 45
0.0
 46
0.0
 47
0.0
 48
0.0
 49
0.0
140
0.0
141
0.0
142
1.0
143
1.0
 70
   688
 72
     0
 73
     0
 74
     5
  7

 75
    16
147
1.0
148
0.0
149
0.0
100
AcDbLayout
  1
Layout1
 70
     1
 71
     1
 10
0.0
 20
0.0
 11
12.0
 21
9.0
 12
0.0
 22
0.0
 32
0.0
 14
0.0
 24
0.0
 34
0.0
 15
0.0
 25
0.0
 35
0.0
146
0.0
 13
0.0
 23
0.0
 33
0.0
 16
1.0
 26
0.0
 36
0.0
 17
0.0
 27
1.0
 37
0.0
 76
     0
330
58
  0
LAYOUT
  5
5E
102
{ACAD_XDICTIONARY
360
4EA
102
}
102
{ACAD_REACTORS
330
1A
102
}
330
1A
100
AcDbPlotSettings
  1

  2
None
  4

  6

 40
0.0
 41
0.0
 42
0.0
 43
0.0
 44
0.0
 45
0.0
 46
0.0
 47
0.0
 48
0.0
 49
0.0
140
0.0
141
0.0
142
1.0
143
1.0
 70
   688
 72
     0
 73
     0
 74
     5
  7

 75
    16
147
1.0
148
0.0
149
0.0
100
AcDbLayout
  1
Layout2
 70
     1
 71
     2
 10
0.0
 20
0.0
 11
12.0
 21
9.0
 12
0.0
 22
0.0
 32
0.0
 14
0.0
 24
0.0
 34
0.0
 15
0.0
 25
0.0
 35
0.0
146
0.0
 13
0.0
 23
0.0
 33
0.0
 16
1.0
 26
0.0
 36
0.0
 17
0.0
 27
1.0
 37
0.0
 76
     0
330
5D
  0
LAYOUT
  5
22
102
{ACAD_XDICTIONARY
360
4E6
102
}
102
{ACAD_REACTORS
330
1A
102
}
330
1A
100
AcDbPlotSettings
  1

  2
none_device
  4
ANSI_A_(8.50_x_11.00_Inches)
  6

 40
6.349999904632568
 41
19.04999923706055
 42
6.350006103515625
 43
19.04998779296875
 44
215.8999938964844
 45
279.3999938964844
 46
0.0
 47
0.0
 48
0.0
 49
0.0
140
0.0
141
0.0
142
1.0
143
2.584895464708373
 70
 11952
 72
     0
 73
     1
 74
     0
  7

 75
     0
147
0.3868628397755418
148
0.0
149
0.0
100
AcDbLayout
  1
Model
 70
     1
 71
     0
 10
0.0
 20
0.0
 11
12.0
 21
9.0
 12
0.0
 22
0.0
 32
0.0
 14
0.0
 24
0.0
 34
0.0
 15
0.0
 25
0.0
 35
0.0
146
0.0
 13
0.0
 23
0.0
 33
0.0
 16
1.0
 26
0.0
 36
0.0
 17
0.0
 27
1.0
 37
0.0
 76
     0
330
1F
331
94
  0
MATERIAL
  5
97
102
{ACAD_XDICTIONARY
360
4EF
102
}
102
{ACAD_REACTORS
330
72
102
}
330
72
100
AcDbMaterial
  1
ByBlock
  0
MATERIAL
  5
96
102
{ACAD_XDICTIONARY
360
4ED
102
}
102
{ACAD_REACTORS
330
72
102
}
330
72
100
AcDbMaterial
  1
ByLayer
  0
MATERIAL
  5
98
102
{ACAD_XDICTIONARY
360
110
102
}
102
{ACAD_REACTORS
330
72
102
}
330
72
100
AcDbMaterial
  1
Global
 43
0.0208000000566244
 43
0.0
 43
0.0
 43
0.0
 43
0.0
 43
0.0208000000566244
 43
0.0
 43
0.0
 43
0.0
 43
0.0
 43
1.0
 43
0.0
 43
0.0
 43
0.0
 43
0.0
 43
1.0
 49
0.0208000000566244
 49
0.0
 49
0.0
 49
0.0
 49
0.0
 49
0.0208000000566244
 49
0.0
 49
0.0
 49
0.0
 49
0.0
 49
1.0
 49
0.0
 49
0.0
 49
0.0
 49
0.0
 49
1.0
142
0.0208000000566244
142
0.0
142
0.0
142
0.0
142
0.0
142
0.0208000000566244
142
0.0
142
0.0
142
0.0
142
0.0
142
1.0
142
0.0
142
0.0
142
0.0
142
0.0
142
1.0
144
0.0208000000566244
144
0.0
144
0.0
144
0.0
144
0.0
144
0.0208000000566244
144
0.0
144
0.0
144
0.0
144
0.0
144
1.0
144
0.0
144
0.0
144
0.0
144
0.0
144
1.0
1001
ACAD
1070
    -1
1070
     3
1070
     0
1000

1071
        0
1070
     0
  0
MLEADERSTYLE
  5
E5
102
{ACAD_REACTORS
330
D7
102
}
330
D7
100
AcDbMLeaderStyle
170
     2
171
     1
172
     0
 90
        2
 40
0.0
 41
0.0
173
     1
 91
-1056964608
340
14
 92
       -2
290
     1
 42
0.09
291
     1
 43
0.36
  3
Standard
 44
0.18
300

342
11
174
     1
178
     1
175
     1
176
     0
 93
-1056964608
 45
0.18
292
     0
297
     0
 46
0.18
 94
-1056964608
 47
1.0
 49
1.0
140
1.0
293
     1
141
0.0
294
     1
177
     0
142
1.0
295
     0
296
     1
143
0.125
1001
ACAD_MLEADERVER
1070
     2
  0
MLEADERSTYLE
  5
D8
102
{ACAD_REACTORS
330
D7
102
}
330
D7
100
AcDbMLeaderStyle
170
     2
171
     1
172
     0
 90
        2
 40
0.0
 41
0.0
173
     1
 91
-1056964608
340
14
 92
       -2
290
     1
 42
0.09
291
     1
 43
0.36
  3
Standard
 44
0.18
300

342
11
174
     1
178
     1
175
     1
176
     0
 93
-1056964608
 45
0.18
292
     0
297
     0
 46
0.18
 94
-1056964608
 47
1.0
 49
1.0
140
1.0
293
     1
141
0.0
294
     1
177
     0
142
1.0
295
     0
296
     0
143
0.125
1001
ACAD_MLEADERVER
1070
     2
  0
MLINESTYLE
  5
18
102
{ACAD_REACTORS
330
17
102
}
330
17
100
AcDbMlineStyle
  2
STANDARD
 70
     0
  3

 62
   256
 51
90.0
 52
90.0
 71
     2
 49
0.5
 62
   256
  6
BYLAYER
 49
-0.5
 62
   256
  6
BYLAYER
  0
ACDBPLACEHOLDER
  5
F
102
{ACAD_REACTORS
330
E
102
}
330
E
  0
SCALE
  5
B7
102
{ACAD_REACTORS
330
B6
102
}
330
B6
100
AcDbScale
 70
     0
300
1:1
140
1.0
141
1.0
290
     1
  0
SCALE
  5
124
102
{ACAD_REACTORS
330
B6
102
}
330
B6
100
AcDbScale
 70
     0
300
1:2
140
1.0
141
2.0
290
     0
  0
SCALE
  5
125
102
{ACAD_REACTORS
330
B6
102
}
330
B6
100
AcDbScale
 70
     0
300
1:4
140
1.0
141
4.0
290
     0
  0
SCALE
  5
126
102
{ACAD_REACTORS
330
B6
102
}
330
B6
100
AcDbScale
 70
     0
300
1:5
140
1.0
141
5.0
290
     0
  0
SCALE
  5
127
102
{ACAD_REACTORS
330
B6
102
}
330
B6
100
AcDbScale
 70
     0
300
1:8
140
1.0
141
8.0
290
     0
  0
SCALE
  5
128
102
{ACAD_REACTORS
330
B6
102
}
330
B6
100
AcDbScale
 70
     0
300
1:10
140
1.0
141
10.0
290
     0
  0
SCALE
  5
129
102
{ACAD_REACTORS
330
B6
102
}
330
B6
100
AcDbScale
 70
     0
300
1:16
140
1.0
141
16.0
290
     0
  0
SCALE
  5
12A
102
{ACAD_REACTORS
330
B6
102
}
330
B6
100
AcDbScale
 70
     0
300
1:20
140
1.0
141
20.0
290
     0
  0
SCALE
  5
12B
102
{ACAD_REACTORS
330
B6
102
}
330
B6
100
AcDbScale
 70
     0
300
1:30
140
1.0
141
30.0
290
     0
  0
SCALE
  5
12C
102
{ACAD_REACTORS
330
B6
102
}
330
B6
100
AcDbScale
 70
     0
300
1:40
140
1.0
141
40.0
290
     0
  0
SCALE
  5
12D
102
{ACAD_REACTORS
330
B6
102
}
330
B6
100
AcDbScale
 70
     0
300
1:50
140
1.0
141
50.0
290
     0
  0
SCALE
  5
12E
102
{ACAD_REACTORS
330
B6
102
}
330
B6
100
AcDbScale
 70
     0
300
1:100
140
1.0
141
100.0
290
     0
  0
SCALE
  5
12F
102
{ACAD_REACTORS
330
B6
102
}
330
B6
100
AcDbScale
 70
     0
300
2:1
140
2.0
141
1.0
290
     0
  0
SCALE
  5
130
102
{ACAD_REACTORS
330
B6
102
}
330
B6
100
AcDbScale
 70
     0
300
4:1
140
4.0
141
1.0
290
     0
  0
SCALE
  5
131
102
{ACAD_REACTORS
330
B6
102
}
330
B6
100
AcDbScale
 70
     0
300
8:1
140
8.0
141
1.0
290
     0
  0
SCALE
  5
132
102
{ACAD_REACTORS
330
B6
102
}
330
B6
100
AcDbScale
 70
     0
300
10:1
140
10.0
141
1.0
290
     0
  0
SCALE
  5
133
102
{ACAD_REACTORS
330
B6
102
}
330
B6
100
AcDbScale
 70
     0
300
100:1
140
100.0
141
1.0
290
     0
  0
SCALE
  5
134
102
{ACAD_REACTORS
330
B6
102
}
330
B6
100
AcDbScale
 70
     0
300
1/128" = 1'-0"
140
0.0078125
141
12.0
290
     0
  0
SCALE
  5
135
102
{ACAD_REACTORS
330
B6
102
}
330
B6
100
AcDbScale
 70
     0
300
1/64" = 1'-0"
140
0.015625
141
12.0
290
     0
  0
SCALE
  5
136
102
{ACAD_REACTORS
330
B6
102
}
330
B6
100
AcDbScale
 70
     0
300
1/32" = 1'-0"
140
0.03125
141
12.0
290
     0
  0
SCALE
  5
137
102
{ACAD_REACTORS
330
B6
102
}
330
B6
100
AcDbScale
 70
     0
300
1/16" = 1'-0"
140
0.0625
141
12.0
290
     0
  0
SCALE
  5
138
102
{ACAD_REACTORS
330
B6
102
}
330
B6
100
AcDbScale
 70
     0
300
3/32" = 1'-0"
140
0.09375
141
12.0
290
     0
  0
SCALE
  5
139
102
{ACAD_REACTORS
330
B6
102
}
330
B6
100
AcDbScale
 70
     0
300
1/8" = 1'-0"
140
0.125
141
12.0
290
     0
  0
SCALE
  5
13A
102
{ACAD_REACTORS
330
B6
102
}
330
B6
100
AcDbScale
 70
     0
300
3/16" = 1'-0"
140
0.1875
141
12.0
290
     0
  0
SCALE
  5
13B
102
{ACAD_REACTORS
330
B6
102
}
330
B6
100
AcDbScale
 70
     0
300
1/4" = 1'-0"
140
0.25
141
12.0
290
     0
  0
SCALE
  5
13C
102
{ACAD_REACTORS
330
B6
102
}
330
B6
100
AcDbScale
 70
     0
300
3/8" = 1'-0"
140
0.375
141
12.0
290
     0
  0
SCALE
  5
13D
102
{ACAD_REACTORS
330
B6
102
}
330
B6
100
AcDbScale
 70
     0
300
1/2" = 1'-0"
140
0.5
141
12.0
290
     0
  0
SCALE
  5
13E
102
{ACAD_REACTORS
330
B6
102
}
330
B6
100
AcDbScale
 70
     0
300
3/4" = 1'-0"
140
0.75
141
12.0
290
     0
  0
SCALE
  5
13F
102
{ACAD_REACTORS
330
B6
102
}
330
B6
100
AcDbScale
 70
     0
300
1" = 1'-0"
140
1.0
141
12.0
290
     0
  0
SCALE
  5
140
102
{ACAD_REACTORS
330
B6
102
}
330
B6
100
AcDbScale
 70
     0
300
1-1/2" = 1'-0"
140
1.5
141
12.0
290
     0
  0
SCALE
  5
141
102
{ACAD_REACTORS
330
B6
102
}
330
B6
100
AcDbScale
 70
     0
300
3" = 1'-0"
140
3.0
141
12.0
290
     0
  0
SCALE
  5
142
102
{ACAD_REACTORS
330
B6
102
}
330
B6
100
AcDbScale
 70
     0
300
6" = 1'-0"
140
6.0
141
12.0
290
     0
  0
SCALE
  5
143
102
{ACAD_REACTORS
330
B6
102
}
330
B6
100
AcDbScale
 70
     0
300
1'-0" = 1'-0"
140
12.0
141
12.0
290
     0
  0
TABLESTYLE
  5
87
102
{ACAD_XDICTIONARY
360
104
102
}
102
{ACAD_REACTORS
330
86
102
}
330
86
100
AcDbTableStyle
  3
Standard
 70
     0
 71
     0
 40
0.06
 41
0.06
280
     0
281
     0
  7
Standard
140
0.18
170
     2
 62
     0
 63
     7
283
     0
274
    -2
284
     1
 64
     0
275
    -2
285
     1
 65
     0
276
    -2
286
     1
 66
     0
277
    -2
287
     1
 67
     0
278
    -2
288
     1
 68
     0
279
    -2
289
     1
 69
     0
  7
Standard
140
0.25
170
     5
 62
     0
 63
     7
283
     0
274
    -2
284
     1
 64
     0
275
    -2
285
     1
 65
     0
276
    -2
286
     1
 66
     0
277
    -2
287
     1
 67
     0
278
    -2
288
     1
 68
     0
279
    -2
289
     1
 69
     0
  7
Standard
140
0.18
170
     5
 62
     0
 63
     7
283
     0
274
    -2
284
     1
 64
     0
275
    -2
285
     1
 65
     0
276
    -2
286
     1
 66
     0
277
    -2
287
     1
 67
     0
278
    -2
288
     1
 68
     0
279
    -2
289
     1
 69
     0
  0
VISUALSTYLE
  5
9F
102
{ACAD_REACTORS
330
99
102
}
330
99
100
AcDbVisualStyle
  2
2dWireframe
 70
     4
 71
     0
 72
     2
 73
     1
 90
        0
 40
-0.6
 41
-30.0
 62
     5
 63
     7
 74
     1
 91
        4
 64
     7
 65
   257
 75
     1
175
     1
 42
1.0
 92
        0
 66
   257
 43
1.0
 76
     1
 77
     6
 78
     2
 67
     7
 79
     5
170
     0
171
     0
290
     0
174
     0
 93
        1
 44
0.0
173
     0
291
     0
 45
0.0
1001
ACAD
1000
AcDbSavedByObjectVersion
1070
     0
  0
VISUALSTYLE
  5
A1
102
{ACAD_REACTORS
330
99
102
}
330
99
100
AcDbVisualStyle
  2
3D Hidden
 70
     6
 71
     1
 72
     2
 73
     2
 90
        0
 40
-0.6
 41
-30.0
 62
     5
 63
     7
 74
     2
 91
        2
 64
     7
 65
   257
 75
     2
175
     1
 42
40.0
 92
        0
 66
   257
 43
1.0
 76
     1
 77
     6
 78
     2
 67
     7
 79
     3
170
     0
171
     0
290
     0
174
     0
 93
        1
 44
0.0
173
     0
291
     0
 45
0.0
1001
ACAD
1000
AcDbSavedByObjectVersion
1070
     0
  0
VISUALSTYLE
  5
A0
102
{ACAD_REACTORS
330
99
102
}
330
99
100
AcDbVisualStyle
  2
3dWireframe
 70
     5
 71
     0
 72
     2
 73
     1
 90
        0
 40
-0.6
 41
-30.0
 62
     5
 63
     7
 74
     1
 91
        4
 64
     7
 65
   257
 75
     1
175
     1
 42
1.0
 92
        0
 66
   257
 43
1.0
 76
     1
 77
     6
 78
     2
 67
     7
 79
     5
170
     0
171
     0
290
     0
174
     0
 93
        1
 44
0.0
173
     0
291
     0
 45
0.0
1001
ACAD
1000
AcDbSavedByObjectVersion
1070
     0
  0
VISUALSTYLE
  5
9E
102
{ACAD_REACTORS
330
99
102
}
330
99
100
AcDbVisualStyle
  2
Basic
 70
     7
 71
     1
 72
     0
 73
     1
 90
        0
 40
-0.6
 41
-30.0
 62
     5
 63
     7
 74
     0
 91
        4
 64
     7
 65
   257
 75
     1
175
     1
 42
1.0
 92
        8
 66
     7
 43
1.0
 76
     1
 77
     6
 78
     2
 67
     7
 79
     5
170
     0
171
     0
290
     0
174
     0
 93
        1
 44
0.0
173
     0
291
     1
 45
0.0
1001
ACAD
1000
AcDbSavedByObjectVersion
1070
     0
  0
VISUALSTYLE
  5
A5
102
{ACAD_REACTORS
330
99
102
}
330
99
100
AcDbVisualStyle
  2
Brighten
 70
    12
 71
     2
 72
     2
 73
     1
 90
        0
 40
-0.6
 41
-30.0
 62
     5
 63
     7
 74
     1
 91
        4
 64
     7
 65
   257
 75
     1
175
     1
 42
1.0
 92
        8
 66
     7
 43
1.0
 76
     1
 77
     6
 78
     2
 67
     7
 79
     5
170
     0
171
     0
290
     0
174
     0
 93
        1
 44
50.0
173
     0
291
     1
 45
0.0
1001
ACAD
1000
AcDbSavedByObjectVersion
1070
     0
  0
VISUALSTYLE
  5
A9
102
{ACAD_REACTORS
330
99
102
}
330
99
100
AcDbVisualStyle
  2
ColorChange
 70
    16
 71
     2
 72
     2
 73
     3
 90
        0
 40
-0.6
 41
-30.0
 62
     5
 63
     8
 74
     1
 91
        4
 64
     7
 65
   257
 75
     1
175
     1
 42
1.0
 92
        8
 66
     8
 43
1.0
 76
     1
 77
     6
 78
     2
 67
     7
 79
     5
170
     0
171
     0
290
     0
174
     0
 93
        1
 44
0.0
173
     0
291
     1
 45
0.0
1001
ACAD
1000
AcDbSavedByObjectVersion
1070
     0
  0
VISUALSTYLE
  5
A2
102
{ACAD_REACTORS
330
99
102
}
330
99
100
AcDbVisualStyle
  2
Conceptual
 70
     9
 71
     3
 72
     2
 73
     1
 90
        0
 40
-0.6
 41
-30.0
 62
     5
 63
     7
 74
     2
 91
        2
 64
     7
 65
   257
 75
     1
175
     1
 42
40.0
 92
        8
 66
     7
 43
1.0
 76
     1
 77
     6
 78
     2
 67
     7
 79
     3
170
     0
171
     0
290
     0
174
     0
 93
        1
 44
0.0
173
     0
291
     0
 45
0.0
1001
ACAD
1000
AcDbSavedByObjectVersion
1070
     0
  0
VISUALSTYLE
  5
A4
102
{ACAD_REACTORS
330
99
102
}
330
99
100
AcDbVisualStyle
  2
Dim
 70
    11
 71
     2
 72
     2
 73
     1
 90
        0
 40
-0.6
 41
-30.0
 62
     5
 63
     7
 74
     1
 91
        4
 64
     7
 65
   257
 75
     1
175
     1
 42
1.0
 92
        8
 66
     7
 43
1.0
 76
     1
 77
     6
 78
     2
 67
     7
 79
     5
170
     0
171
     0
290
     0
174
     0
 93
        1
 44
-50.0
173
     0
291
     1
 45
0.0
1001
ACAD
1000
AcDbSavedByObjectVersion
1070
     0
  0
VISUALSTYLE
  5
A8
102
{ACAD_REACTORS
330
99
102
}
330
99
100
AcDbVisualStyle
  2
Facepattern
 70
    15
 71
     2
 72
     2
 73
     1
 90
        0
 40
-0.6
 41
-30.0
 62
     5
 63
     7
 74
     1
 91
        4
 64
     7
 65
   257
 75
     1
175
     1
 42
1.0
 92
        8
 66
     7
 43
1.0
 76
     1
 77
     6
 78
     2
 67
     7
 79
     5
170
     0
171
     0
290
     0
174
     0
 93
        1
 44
0.0
173
     0
291
     1
 45
0.0
1001
ACAD
1000
AcDbSavedByObjectVersion
1070
     0
  0
VISUALSTYLE
  5
9A
102
{ACAD_REACTORS
330
99
102
}
330
99
100
AcDbVisualStyle
  2
Flat
 70
     0
 71
     2
 72
     1
 73
     1
 90
        2
 40
-0.6
 41
30.0
 62
     5
 63
     7
 74
     0
 91
        4
 64
     7
 65
   257
 75
     1
175
     1
 42
1.0
 92
        8
 66
     7
 43
1.0
 76
     1
 77
     6
 78
     2
 67
     7
 79
     5
170
     0
171
     0
290
     0
174
     0
 93
        1
 44
0.0
173
     0
291
     1
 45
0.0
1001
ACAD
1000
AcDbSavedByObjectVersion
1070
     0
  0
VISUALSTYLE
  5
9B
102
{ACAD_REACTORS
330
99
102
}
330
99
100
AcDbVisualStyle
  2
FlatWithEdges
 70
     1
 71
     2
 72
     1
 73
     1
 90
        2
 40
-0.6
 41
30.0
 62
     5
 63
     7
 74
     1
 91
        4
 64
     7
 65
   257
 75
     1
175
     1
 42
1.0
 92
        0
 66
   257
 43
1.0
 76
     1
 77
     6
 78
     2
 67
     7
 79
     5
170
     0
171
     0
290
     0
174
     0
 93
        1
 44
0.0
173
     0
291
     1
 45
0.0
1001
ACAD
1000
AcDbSavedByObjectVersion
1070
     0
  0
VISUALSTYLE
  5
9C
102
{ACAD_REACTORS
330
99
102
}
330
99
100
AcDbVisualStyle
  2
Gouraud
 70
     2
 71
     2
 72
     2
 73
     1
 90
        2
 40
-0.6
 41
30.0
 62
     5
 63
     7
 74
     0
 91
        4
 64
     7
 65
   257
 75
     1
175
     1
 42
1.0
 92
        0
 66
     7
 43
1.0
 76
     1
 77
     6
 78
     2
 67
     7
 79
     5
170
     0
171
     0
290
     0
174
     0
 93
        1
 44
0.0
173
     0
291
     1
 45
0.0
1001
ACAD
1000
AcDbSavedByObjectVersion
1070
     0
  0
VISUALSTYLE
  5
9D
102
{ACAD_REACTORS
330
99
102
}
330
99
100
AcDbVisualStyle
  2
GouraudWithEdges
 70
     3
 71
     2
 72
     2
 73
     1
 90
        2
 40
-0.6
 41
30.0
 62
     5
 63
     7
 74
     1
 91
        4
 64
     7
 65
   257
 75
     1
175
     1
 42
1.0
 92
        0
 66
   257
 43
1.0
 76
     1
 77
     6
 78
     2
 67
     7
 79
     5
170
     0
171
     0
290
     0
174
     0
 93
        1
 44
0.0
173
     0
291
     1
 45
0.0
1001
ACAD
1000
AcDbSavedByObjectVersion
1070
     0
  0
VISUALSTYLE
  5
A7
102
{ACAD_REACTORS
330
99
102
}
330
99
100
AcDbVisualStyle
  2
Linepattern
 70
    14
 71
     2
 72
     2
 73
     1
 90
        0
 40
-0.6
 41
-30.0
 62
     5
 63
     7
 74
     1
 91
        4
 64
     7
 65
   257
 75
     7
175
     7
 42
1.0
 92
        8
 66
     7
 43
1.0
 76
     1
 77
     6
 78
     2
 67
     7
 79
     5
170
     0
171
     0
290
     0
174
     0
 93
        1
 44
0.0
173
     0
291
     1
 45
0.0
1001
ACAD
1000
AcDbSavedByObjectVersion
1070
     0
  0
VISUALSTYLE
  5
A3
102
{ACAD_REACTORS
330
99
102
}
330
99
100
AcDbVisualStyle
  2
Realistic
 70
     8
 71
     2
 72
     2
 73
     1
 90
        0
 40
-0.6
 41
-30.0
 62
     5
 63
     7
 74
     1
 91
        0
 64
     7
 65
   257
 75
     1
175
     1
 42
1.0
 92
        8
 66
     8
 43
1.0
 76
     1
 77
     6
 78
     2
 67
     7
 79
     5
170
     0
171
     0
290
     0
174
     0
 93
       13
 44
0.0
173
     0
291
     0
 45
0.0
1001
ACAD
1000
AcDbSavedByObjectVersion
1070
     0
  0
VISUALSTYLE
  5
A6
102
{ACAD_REACTORS
330
99
102
}
330
99
100
AcDbVisualStyle
  2
Thicken
 70
    13
 71
     2
 72
     2
 73
     1
 90
        0
 40
-0.6
 41
-30.0
 62
     5
 63
     7
 74
     1
 91
        4
 64
     7
 65
   257
 75
     1
175
     1
 42
1.0
 92
       12
 66
     7
 43
1.0
 76
     1
 77
     6
 78
     2
 67
     7
 79
     5
170
     0
171
     0
290
     0
174
     0
 93
        1
 44
0.0
173
     0
291
     1
 45
0.0
1001
ACAD
1000
AcDbSavedByObjectVersion
1070
     0
  0
DICTIONARYVAR
  5
F0
102
{ACAD_REACTORS
330
66
102
}
330
66
100
DictionaryVariables
280
     0
  1
1:1
  0
DICTIONARYVAR
  5
EF
102
{ACAD_REACTORS
330
66
102
}
330
66
100
DictionaryVariables
280
     0
  1
STANDARD
  0
DICTIONARYVAR
  5
89
102
{ACAD_REACTORS
330
66
102
}
330
66
100
DictionaryVariables
280
     0
  1
STANDARD
  0
DICTIONARYVAR
  5
67
102
{ACAD_REACTORS
330
66
102
}
330
66
100
DictionaryVariables
280
     0
  1
2
  0
DICTIONARYVAR
  5
6B
102
{ACAD_REACTORS
330
66
102
}
330
66
100
DictionaryVariables
280
     0
  1
1
  0
DICTIONARYVAR
  5
4E3
102
{ACAD_REACTORS
330
66
102
}
330
66
100
DictionaryVariables
280
     0
  1
0
  0
DICTIONARYVAR
  5
4E1
102
{ACAD_REACTORS
330
66
102
}
330
66
100
DictionaryVariables
280
     0
  1
2
  0
DICTIONARYVAR
  5
4E0
102
{ACAD_REACTORS
330
66
102
}
330
66
100
DictionaryVariables
280
     0
  1
1
  0
DICTIONARYVAR
  5
4E2
102
{ACAD_REACTORS
330
66
102
}
330
66
100
DictionaryVariables
280
     0
  1
127
  0
DICTIONARY
  5
4E8
330
59
100
AcDbDictionary
280
     1
281
     1
  3
ACAD_XREC_ROUNDTRIP
360
4E9
  0
DICTIONARY
  5
4EA
330
5E
100
AcDbDictionary
280
     1
281
     1
  3
ACAD_XREC_ROUNDTRIP
360
4EB
  0
DICTIONARY
  5
4E6
330
22
100
AcDbDictionary
280
     1
281
     1
  3
ACAD_XREC_ROUNDTRIP
360
4E7
  0
DICTIONARY
  5
4EF
330
97
100
AcDbDictionary
280
     1
281
     1
  3
ACAD_XREC_ROUNDTRIP
360
4F0
  0
DICTIONARY
  5
4ED
330
96
100
AcDbDictionary
280
     1
281
     1
  3
ACAD_XREC_ROUNDTRIP
360
4EE
  0
DICTIONARY
  5
110
330
98
100
AcDbDictionary
280
     1
281
     1
  3
ACAD_XREC_ROUNDTRIP
360
4F1
  3
BUMPTILE
360
112
  3
DIFFUSETILE
360
111
  3
OPACITYTILE
360
113
  3
REFLECTIONTILE
360
114
  0
DICTIONARY
  5
104
330
87
100
AcDbDictionary
280
     1
281
     1
  3
ACAD_ROUNDTRIP_2008_TABLESTYLE_CELLSTYLEMAP
360
4E4
  3
ACAD_XREC_ROUNDTRIP
360
4EC
  0
XRECORD
  5
4E9
102
{ACAD_REACTORS
330
4E8
102
}
330
4E8
100
AcDbXrecord
280
     1
102
SHADEPLOT
 70
     0
102
SHADEPLOTRESLEVEL
 70
     2
102
SHADEPLOTCUSTOMDPI
 70
   300
  0
XRECORD
  5
4EB
102
{ACAD_REACTORS
330
4EA
102
}
330
4EA
100
AcDbXrecord
280
     1
102
SHADEPLOT
 70
     0
102
SHADEPLOTRESLEVEL
 70
     2
102
SHADEPLOTCUSTOMDPI
 70
   300
  0
XRECORD
  5
4E7
102
{ACAD_REACTORS
330
4E6
102
}
330
4E6
100
AcDbXrecord
280
     1
102
SHADEPLOT
 70
     0
102
SHADEPLOTRESLEVEL
 70
     2
102
SHADEPLOTCUSTOMDPI
 70
   300
  0
XRECORD
  5
4F0
102
{ACAD_REACTORS
330
4EF
102
}
330
4EF
100
AcDbXrecord
280
     1
102
MATERIAL
148
0.0
149
0.0
149
0.0
 93
        0
 94
       63
282
     0
 72
     1
 77
     1
171
     1
175
     1
179
     1
273
     0
  0
XRECORD
  5
4EE
102
{ACAD_REACTORS
330
4ED
102
}
330
4ED
100
AcDbXrecord
280
     1
102
MATERIAL
148
0.0
149
0.0
149
0.0
 93
        0
 94
       63
282
     0
 72
     1
 77
     1
171
     1
175
     1
179
     1
273
     0
  0
XRECORD
  5
4F1
102
{ACAD_REACTORS
330
110
102
}
330
110
100
AcDbXrecord
280
     1
102
MATERIAL
148
0.0
149
0.0
149
0.0
 93
        0
 94
       63
282
     0
 72
     1
 77
     1
171
     1
175
     1
179
     1
273
     0
  0
XRECORD
  5
112
102
{ACAD_REACTORS
330
110
102
}
330
110
100
AcDbXrecord
280
     1
270
     1
271
     1
  0
XRECORD
  5
111
102
{ACAD_REACTORS
330
110
102
}
330
110
100
AcDbXrecord
280
     1
270
     1
271
     1
  0
XRECORD
  5
113
102
{ACAD_REACTORS
330
110
102
}
330
110
100
AcDbXrecord
280
     1
270
     1
271
     1
  0
XRECORD
  5
114
102
{ACAD_REACTORS
330
110
102
}
330
110
100
AcDbXrecord
280
     1
270
     1
271
     1
  0
CELLSTYLEMAP
  5
4E4
102
{ACAD_REACTORS
330
104
102
}
330
104
100
AcDbCellStyleMap
 90
        3
300
CELLSTYLE
  1
TABLEFORMAT_BEGIN
 90
        5
170
     1
 91
        0
 92
    32768
 62
   257
 93
        1
300
CONTENTFORMAT
  1
CONTENTFORMAT_BEGIN
 90
        0
 91
        0
 92
      512
 93
        0
300

 40
0.0
140
1.0
 94
        5
 62
     0
340
11
144
0.25
309
CONTENTFORMAT_END
171
     1
301
MARGIN
  1
CELLMARGIN_BEGIN
 40
0.06
 40
0.06
 40
0.06
 40
0.06
 40
0.18
 40
0.18
309
CELLMARGIN_END
 94
        6
 95
        1
302
GRIDFORMAT
  1
GRIDFORMAT_BEGIN
 90
        0
 91
        1
 62
     0
 92
       -2
340
0
 93
        0
 40
0.045
309
GRIDFORMAT_END
 95
        2
302
GRIDFORMAT
  1
GRIDFORMAT_BEGIN
 90
        0
 91
        1
 62
     0
 92
       -2
340
0
 93
        0
 40
0.045
309
GRIDFORMAT_END
 95
        4
302
GRIDFORMAT
  1
GRIDFORMAT_BEGIN
 90
        0
 91
        1
 62
     0
 92
       -2
340
0
 93
        0
 40
0.045
309
GRIDFORMAT_END
 95
        8
302
GRIDFORMAT
  1
GRIDFORMAT_BEGIN
 90
        0
 91
        1
 62
     0
 92
       -2
340
0
 93
        0
 40
0.045
309
GRIDFORMAT_END
 95
       16
302
GRIDFORMAT
  1
GRIDFORMAT_BEGIN
 90
        0
 91
        1
 62
     0
 92
       -2
340
0
 93
        0
 40
0.045
309
GRIDFORMAT_END
 95
       32
302
GRIDFORMAT
  1
GRIDFORMAT_BEGIN
 90
        0
 91
        1
 62
     0
 92
       -2
340
0
 93
        0
 40
0.045
309
GRIDFORMAT_END
309
TABLEFORMAT_END
  1
CELLSTYLE_BEGIN
 90
        1
 91
        1
300
_TITLE
309
CELLSTYLE_END
300
CELLSTYLE
  1
TABLEFORMAT_BEGIN
 90
        5
170
     1
 91
        0
 92
        0
 62
   257
 93
        1
300
CONTENTFORMAT
  1
CONTENTFORMAT_BEGIN
 90
        0
 91
        0
 92
      512
 93
        0
300

 40
0.0
140
1.0
 94
        5
 62
     0
340
11
144
0.18
309
CONTENTFORMAT_END
171
     1
301
MARGIN
  1
CELLMARGIN_BEGIN
 40
0.06
 40
0.06
 40
0.06
 40
0.06
 40
0.18
 40
0.18
309
CELLMARGIN_END
 94
        6
 95
        1
302
GRIDFORMAT
  1
GRIDFORMAT_BEGIN
 90
        0
 91
        1
 62
     0
 92
       -2
340
0
 93
        0
 40
0.045
309
GRIDFORMAT_END
 95
        2
302
GRIDFORMAT
  1
GRIDFORMAT_BEGIN
 90
        0
 91
        1
 62
     0
 92
       -2
340
0
 93
        0
 40
0.045
309
GRIDFORMAT_END
 95
        4
302
GRIDFORMAT
  1
GRIDFORMAT_BEGIN
 90
        0
 91
        1
 62
     0
 92
       -2
340
0
 93
        0
 40
0.045
309
GRIDFORMAT_END
 95
        8
302
GRIDFORMAT
  1
GRIDFORMAT_BEGIN
 90
        0
 91
        1
 62
     0
 92
       -2
340
0
 93
        0
 40
0.045
309
GRIDFORMAT_END
 95
       16
302
GRIDFORMAT
  1
GRIDFORMAT_BEGIN
 90
        0
 91
        1
 62
     0
 92
       -2
340
0
 93
        0
 40
0.045
309
GRIDFORMAT_END
 95
       32
302
GRIDFORMAT
  1
GRIDFORMAT_BEGIN
 90
        0
 91
        1
 62
     0
 92
       -2
340
0
 93
        0
 40
0.045
309
GRIDFORMAT_END
309
TABLEFORMAT_END
  1
CELLSTYLE_BEGIN
 90
        2
 91
        1
300
_HEADER
309
CELLSTYLE_END
300
CELLSTYLE
  1
TABLEFORMAT_BEGIN
 90
        5
170
     1
 91
        0
 92
        0
 62
   257
 93
        1
300
CONTENTFORMAT
  1
CONTENTFORMAT_BEGIN
 90
        0
 91
        0
 92
      512
 93
        0
300

 40
0.0
140
1.0
 94
        2
 62
     0
340
11
144
0.18
309
CONTENTFORMAT_END
171
     1
301
MARGIN
  1
CELLMARGIN_BEGIN
 40
0.06
 40
0.06
 40
0.06
 40
0.06
 40
0.18
 40
0.18
309
CELLMARGIN_END
 94
        6
 95
        1
302
GRIDFORMAT
  1
GRIDFORMAT_BEGIN
 90
        0
 91
        1
 62
     0
 92
       -2
340
0
 93
        0
 40
0.045
309
GRIDFORMAT_END
 95
        2
302
GRIDFORMAT
  1
GRIDFORMAT_BEGIN
 90
        0
 91
        1
 62
     0
 92
       -2
340
0
 93
        0
 40
0.045
309
GRIDFORMAT_END
 95
        4
302
GRIDFORMAT
  1
GRIDFORMAT_BEGIN
 90
        0
 91
        1
 62
     0
 92
       -2
340
0
 93
        0
 40
0.045
309
GRIDFORMAT_END
 95
        8
302
GRIDFORMAT
  1
GRIDFORMAT_BEGIN
 90
        0
 91
        1
 62
     0
 92
       -2
340
0
 93
        0
 40
0.045
309
GRIDFORMAT_END
 95
       16
302
GRIDFORMAT
  1
GRIDFORMAT_BEGIN
 90
        0
 91
        1
 62
     0
 92
       -2
340
0
 93
        0
 40
0.045
309
GRIDFORMAT_END
 95
       32
302
GRIDFORMAT
  1
GRIDFORMAT_BEGIN
 90
        0
 91
        1
 62
     0
 92
       -2
340
0
 93
        0
 40
0.045
309
GRIDFORMAT_END
309
TABLEFORMAT_END
  1
CELLSTYLE_BEGIN
 90
        3
 91
        2
300
_DATA
309
CELLSTYLE_END
  0
XRECORD
  5
4EC
102
{ACAD_REACTORS
330
104
102
}
330
104
100
AcDbXrecord
280
     1
102
ACAD_ROUNDTRIP_PRE2007_TABLESTYLE
 90
      512
 91
        0
  1

 92
      512
 93
        0
  2

 94
      512
 95
        0
  3

  0
ENDSEC
  0
EOF
