  0
SECTION
  2
HEADER
  9
$ACADVER
  1
AC1015
  9
$ACADMAINTVER
 70
    20
  9
$DWGCODEPAGE
  3
ANSI_1252
  9
$INSBASE
 10
0.0
 20
0.0
 30
0.0
  9
$EXTMIN
 10
-3.061116084586648
 20
1.00245762467091
 30
0.0
  9
$EXTMAX
 10
167.3872742636044
 20
116.846370986839
 30
0.0
  9
$LIMMIN
 10
0.0
 20
0.0
  9
$LIMMAX
 10
12.0
 20
9.0
  9
$ORTHOMODE
 70
     0
  9
$REGENMODE
 70
     1
  9
$FILLMODE
 70
     1
  9
$QTEXTMODE
 70
     0
  9
$MIRRTEXT
 70
     0
  9
$LTSCALE
 40
1.0
  9
$ATTMODE
 70
     1
  9
$TEXTSIZE
 40
0.2
  9
$TRACEWID
 40
0.05
  9
$TEXTSTYLE
  7
Standard
  9
$CLAYER
  8
0
  9
$CELTYPE
  6
ByLayer
  9
$CECOLOR
 62
   256
  9
$CELTSCALE
 40
1.0
  9
$DISPSILH
 70
     0
  9
$DIMSCALE
 40
1.0
  9
$DIMASZ
 40
0.18
  9
$DIMEXO
 40
0.0625
  9
$DIMDLI
 40
0.38
  9
$DIMRND
 40
0.0
  9
$DIMDLE
 40
0.0
  9
$DIMEXE
 40
0.18
  9
$DIMTP
 40
0.0
  9
$DIMTM
 40
0.0
  9
$DIMTXT
 40
0.18
  9
$DIMCEN
 40
0.09
  9
$DIMTSZ
 40
0.0
  9
$DIMTOL
 70
     0
  9
$DIMLIM
 70
     0
  9
$DIMTIH
 70
     1
  9
$DIMTOH
 70
     1
  9
$DIMSE1
 70
     0
  9
$DIMSE2
 70
     0
  9
$DIMTAD
 70
     0
  9
$DIMZIN
 70
     0
  9
$DIMBLK
  1

  9
$DIMASO
 70
     1
  9
$DIMSHO
 70
     1
  9
$DIMPOST
  1

  9
$DIMAPOST
  1

  9
$DIMALT
 70
     0
  9
$DIMALTD
 70
     2
  9
$DIMALTF
 40
25.4
  9
$DIMLFAC
 40
1.0
  9
$DIMTOFL
 70
     0
  9
$DIMTVP
 40
0.0
  9
$DIMTIX
 70
     0
  9
$DIMSOXD
 70
     0
  9
$DIMSAH
 70
     0
  9
$DIMBLK1
  1

  9
$DIMBLK2
  1

  9
$DIMSTYLE
  2
Standard
  9
$DIMCLRD
 70
     0
  9
$DIMCLRE
 70
     0
  9
$DIMCLRT
 70
     0
  9
$DIMTFAC
 40
1.0
  9
$DIMGAP
 40
0.09
  9
$DIMJUST
 70
     0
  9
$DIMSD1
 70
     0
  9
$DIMSD2
 70
     0
  9
$DIMTOLJ
 70
     1
  9
$DIMTZIN
 70
     0
  9
$DIMALTZ
 70
     0
  9
$DIMALTTZ
 70
     0
  9
$DIMUPT
 70
     0
  9
$DIMDEC
 70
     4
  9
$DIMTDEC
 70
     4
  9
$DIMALTU
 70
     2
  9
$DIMALTTD
 70
     2
  9
$DIMTXSTY
  7
Standard
  9
$DIMAUNIT
 70
     0
  9
$DIMADEC
 70
     0
  9
$DIMALTRND
 40
0.0
  9
$DIMAZIN
 70
     0
  9
$DIMDSEP
 70
    46
  9
$DIMATFIT
 70
     3
  9
$DIMFRAC
 70
     0
  9
$DIMLDRBLK
  1

  9
$DIMLUNIT
 70
     2
  9
$DIMLWD
 70
    -2
  9
$DIMLWE
 70
    -2
  9
$DIMTMOVE
 70
     0
  9
$LUNITS
 70
     2
  9
$LUPREC
 70
     4
  9
$SKETCHINC
 40
0.1
  9
$FILLETRAD
 40
0.0
  9
$AUNITS
 70
     0
  9
$AUPREC
 70
     0
  9
$MENU
  1
.
  9
$ELEVATION
 40
0.0
  9
$PELEVATION
 40
0.0
  9
$THICKNESS
 40
0.0
  9
$LIMCHECK
 70
     0
  9
$CHAMFERA
 40
0.0
  9
$CHAMFERB
 40
0.0
  9
$CHAMFERC
 40
0.0
  9
$CHAMFERD
 40
0.0
  9
$SKPOLY
 70
     0
  9
$TDCREATE
 40
2456457.608256759
  9
$TDUCREATE
 40
2456457.524923426
  9
$TDUPDATE
 40
2456457.612023761
  9
$TDUUPDATE
 40
2456457.528690429
  9
$TDINDWG
 40
0.0037671759
  9
$TDUSRTIMER
 40
0.0037671759
  9
$USRTIMER
 70
     1
  9
$ANGBASE
 50
0.0
  9
$ANGDIR
 70
     0
  9
$PDMODE
 70
     0
  9
$PDSIZE
 40
0.0
  9
$PLINEWID
 40
0.0
  9
$SPLFRAME
 70
     0
  9
$SPLINETYPE
 70
     6
  9
$SPLINESEGS
 70
     8
  9
$HANDSEED
  5
57C
  9
$SURFTAB1
 70
     6
  9
$SURFTAB2
 70
     6
  9
$SURFTYPE
 70
     6
  9
$SURFU
 70
     6
  9
$SURFV
 70
     6
  9
$UCSBASE
  2

  9
$UCSNAME
  2

  9
$UCSORG
 10
0.0
 20
0.0
 30
0.0
  9
$UCSXDIR
 10
1.0
 20
0.0
 30
0.0
  9
$UCSYDIR
 10
0.0
 20
1.0
 30
0.0
  9
$UCSORTHOREF
  2

  9
$UCSORTHOVIEW
 70
     0
  9
$UCSORGTOP
 10
0.0
 20
0.0
 30
0.0
  9
$UCSORGBOTTOM
 10
0.0
 20
0.0
 30
0.0
  9
$UCSORGLEFT
 10
0.0
 20
0.0
 30
0.0
  9
$UCSORGRIGHT
 10
0.0
 20
0.0
 30
0.0
  9
$UCSORGFRONT
 10
0.0
 20
0.0
 30
0.0
  9
$UCSORGBACK
 10
0.0
 20
0.0
 30
0.0
  9
$PUCSBASE
  2

  9
$PUCSNAME
  2

  9
$PUCSORG
 10
0.0
 20
0.0
 30
0.0
  9
$PUCSXDIR
 10
1.0
 20
0.0
 30
0.0
  9
$PUCSYDIR
 10
0.0
 20
1.0
 30
0.0
  9
$PUCSORTHOREF
  2

  9
$PUCSORTHOVIEW
 70
     0
  9
$PUCSORGTOP
 10
0.0
 20
0.0
 30
0.0
  9
$PUCSORGBOTTOM
 10
0.0
 20
0.0
 30
0.0
  9
$PUCSORGLEFT
 10
0.0
 20
0.0
 30
0.0
  9
$PUCSORGRIGHT
 10
0.0
 20
0.0
 30
0.0
  9
$PUCSORGFRONT
 10
0.0
 20
0.0
 30
0.0
  9
$PUCSORGBACK
 10
0.0
 20
0.0
 30
0.0
  9
$USERI1
 70
     0
  9
$USERI2
 70
     0
  9
$USERI3
 70
     0
  9
$USERI4
 70
     0
  9
$USERI5
 70
     0
  9
$USERR1
 40
0.0
  9
$USERR2
 40
0.0
  9
$USERR3
 40
0.0
  9
$USERR4
 40
0.0
  9
$USERR5
 40
0.0
  9
$WORLDVIEW
 70
     1
  9
$SHADEDGE
 70
     3
  9
$SHADEDIF
 70
    70
  9
$TILEMODE
 70
     1
  9
$MAXACTVP
 70
    64
  9
$PINSBASE
 10
0.0
 20
0.0
 30
0.0
  9
$PLIMCHECK
 70
     0
  9
$PEXTMIN
 10
0.0
 20
0.0
 30
0.0
  9
$PEXTMAX
 10
0.0
 20
0.0
 30
0.0
  9
$PLIMMIN
 10
0.0
 20
0.0
  9
$PLIMMAX
 10
12.0
 20
9.0
  9
$UNITMODE
 70
     0
  9
$VISRETAIN
 70
     1
  9
$PLINEGEN
 70
     0
  9
$PSLTSCALE
 70
     1
  9
$TREEDEPTH
 70
  3020
  9
$CMLSTYLE
  2
Standard
  9
$CMLJUST
 70
     0
  9
$CMLSCALE
 40
1.0
  9
$PROXYGRAPHICS
 70
     1
  9
$MEASUREMENT
 70
     0
  9
$CELWEIGHT
370
    -1
  9
$ENDCAPS
280
     0
  9
$JOINSTYLE
280
     0
  9
$LWDISPLAY
290
     0
  9
$INSUNITS
 70
     1
  9
$HYPERLINKBASE
  1

  9
$STYLESHEET
  1

  9
$XEDIT
290
     1
  9
$CEPSNTYPE
380
     0
  9
$PSTYLEMODE
290
     1
  9
$FINGERPRINTGUID
  2
{A44FD1DB-31A6-436F-8585-6F1B9226DCF5}
  9
$VERSIONGUID
  2
{1106CCD8-3703-4048-887C-4266E5385B83}
  9
$EXTNAMES
290
     1
  9
$PSVPSCALE
 40
0.0
  9
$OLESTARTUP
290
     0
  0
ENDSEC
  0
SECTION
  2
CLASSES
  0
CLASS
  1
ACDBDICTIONARYWDFLT
  2
AcDbDictionaryWithDefault
  3
ObjectDBX Classes
 90
        0
280
     0
281
     0
  0
CLASS
  1
ACDBPLACEHOLDER
  2
AcDbPlaceHolder
  3
ObjectDBX Classes
 90
        0
280
     0
281
     0
  0
CLASS
  1
LAYOUT
  2
AcDbLayout
  3
ObjectDBX Classes
 90
        0
280
     0
281
     0
  0
CLASS
  1
DICTIONARYVAR
  2
AcDbDictionaryVar
  3
ObjectDBX Classes
 90
        0
280
     0
281
     0
  0
CLASS
  1
TABLESTYLE
  2
AcDbTableStyle
  3
ObjectDBX Classes
 90
     4095
280
     0
281
     0
  0
CLASS
  1
MATERIAL
  2
AcDbMaterial
  3
ObjectDBX Classes
 90
     1153
280
     0
281
     0
  0
CLASS
  1
VISUALSTYLE
  2
AcDbVisualStyle
  3
ObjectDBX Classes
 90
     4095
280
     0
281
     0
  0
CLASS
  1
SCALE
  2
AcDbScale
  3
ObjectDBX Classes
 90
     1153
280
     0
281
     0
  0
CLASS
  1
MLEADERSTYLE
  2
AcDbMLeaderStyle
  3
ACDB_MLEADERSTYLE_CLASS
 90
     4095
280
     0
281
     0
  0
CLASS
  1
CELLSTYLEMAP
  2
AcDbCellStyleMap
  3
ObjectDBX Classes
 90
     1152
280
     0
281
     0
  0
CLASS
  1
SORTENTSTABLE
  2
AcDbSortentsTable
  3
ObjectDBX Classes
 90
        0
280
     0
281
     0
  0
ENDSEC
  0
SECTION
  2
TABLES
  0
TABLE
  2
VPORT
  5
8
330
0
100
AcDbSymbolTable
 70
     1
  0
VPORT
  5
94
330
8
100
AcDbSymbolTableRecord
100
AcDbViewportTableRecord
  2
*Active
 70
     0
 10
0.0
 20
0.0
 11
1.0
 21
1.0
 12
102.9739241001557
 22
78.74412149081098
 13
0.0
 23
0.0
 14
0.5
 24
0.5
 15
0.5
 25
0.5
 16
0.0
 26
0.0
 36
1.0
 17
0.0
 27
0.0
 37
0.0
 40
246.4929509216856
 41
1.207207207207207
 42
50.0
 43
0.0
 44
0.0
 50
0.0
 51
0.0
 71
     0
 72
  1000
 73
     1
 74
     3
 75
     0
 76
     0
 77
     0
 78
     0
281
     0
 65
     1
110
0.0
120
0.0
130
0.0
111
1.0
121
0.0
131
0.0
112
0.0
122
1.0
132
0.0
 79
     0
146
0.0
  0
ENDTAB
  0
TABLE
  2
LTYPE
  5
5
330
0
100
AcDbSymbolTable
 70
     1
  0
LTYPE
  5
14
330
5
100
AcDbSymbolTableRecord
100
AcDbLinetypeTableRecord
  2
ByBlock
 70
     0
  3

 72
    65
 73
     0
 40
0.0
  0
LTYPE
  5
15
330
5
100
AcDbSymbolTableRecord
100
AcDbLinetypeTableRecord
  2
ByLayer
 70
     0
  3

 72
    65
 73
     0
 40
0.0
  0
LTYPE
  5
16
330
5
100
AcDbSymbolTableRecord
100
AcDbLinetypeTableRecord
  2
Continuous
 70
     0
  3
Solid line
 72
    65
 73
     0
 40
0.0
  0
ENDTAB
  0
TABLE
  2
LAYER
  5
2
330
0
100
AcDbSymbolTable
 70
     3
  0
LAYER
  5
10
102
{ACAD_XDICTIONARY
360
E6
102
}
330
2
100
AcDbSymbolTableRecord
100
AcDbLayerTableRecord
  2
0
 70
     0
 62
     7
  6
Continuous
370
    -3
390
F
  0
LAYER
  5
189
330
2
100
AcDbSymbolTableRecord
100
AcDbLayerTableRecord
  2
Defpoints
 70
     0
 62
     7
  6
Continuous
290
     0
370
    -3
390
F
  0
LAYER
  5
18A
102
{ACAD_XDICTIONARY
360
568
102
}
330
2
100
AcDbSymbolTableRecord
100
AcDbLayerTableRecord
  2
QUOTE
 70
     0
 62
     7
  6
Continuous
370
    13
390
F
1001
AcAecLayerStandard
1000

1000

  0
ENDTAB
  0
TABLE
  2
STYLE
  5
3
330
0
100
AcDbSymbolTable
 70
     2
  0
STYLE
  5
11
330
3
100
AcDbSymbolTableRecord
100
AcDbTextStyleTableRecord
  2
Standard
 70
     0
 40
0.0
 41
1.0
 50
0.0
 71
     0
 42
0.2
  3
txt.shx
  4

  0
STYLE
  5
DC
330
3
100
AcDbSymbolTableRecord
100
AcDbTextStyleTableRecord
  2
Annotativa
 70
     0
 40
0.0
 41
1.0
 50
0.0
 71
     0
 42
0.2
  3
txt.shx
  4

1001
AcadAnnotative
1000
AnnotativeData
1002
{
1070
     1
1070
     1
1002
}
  0
ENDTAB
  0
TABLE
  2
VIEW
  5
6
330
0
100
AcDbSymbolTable
 70
     0
  0
ENDTAB
  0
TABLE
  2
UCS
  5
7
330
0
100
AcDbSymbolTable
 70
     0
  0
ENDTAB
  0
TABLE
  2
APPID
  5
9
330
0
100
AcDbSymbolTable
 70
     7
  0
APPID
  5
12
330
9
100
AcDbSymbolTableRecord
100
AcDbRegAppTableRecord
  2
ACAD
 70
     0
  0
APPID
  5
DD
330
9
100
AcDbSymbolTableRecord
100
AcDbRegAppTableRecord
  2
AcadAnnoPO
 70
     0
  0
APPID
  5
DE
330
9
100
AcDbSymbolTableRecord
100
AcDbRegAppTableRecord
  2
AcadAnnotative
 70
     0
  0
APPID
  5
DF
330
9
100
AcDbSymbolTableRecord
100
AcDbRegAppTableRecord
  2
ACAD_DSTYLE_DIMJAG
 70
     0
  0
APPID
  5
E0
330
9
100
AcDbSymbolTableRecord
100
AcDbRegAppTableRecord
  2
ACAD_DSTYLE_DIMTALN
 70
     0
  0
APPID
  5
107
330
9
100
AcDbSymbolTableRecord
100
AcDbRegAppTableRecord
  2
ACAD_MLEADERVER
 70
     0
  0
APPID
  5
18B
330
9
100
AcDbSymbolTableRecord
100
AcDbRegAppTableRecord
  2
AcAecLayerStandard
 70
     0
  0
ENDTAB
  0
TABLE
  2
DIMSTYLE
  5
A
330
0
100
AcDbSymbolTable
 70
     2
100
AcDbDimStyleTable
 71
     2
340
27
340
E1
  0
DIMSTYLE
105
27
102
{ACAD_REACTORS
330
3A5
330
3A6
330
42C
330
42D
330
42E
102
}
330
A
100
AcDbSymbolTableRecord
100
AcDbDimStyleTableRecord
  2
Standard
 70
     0
340
11
  0
DIMSTYLE
105
E1
330
A
100
AcDbSymbolTableRecord
100
AcDbDimStyleTableRecord
  2
Annotativa
 70
     0
 40
0.0
340
11
1001
AcadAnnotative
1000
AnnotativeData
1002
{
1070
     1
1070
     1
1002
}
1001
ACAD_DSTYLE_DIMJAG
1070
   388
1040
1.5
1001
ACAD_DSTYLE_DIMTALN
1070
   392
1070
     0
  0
ENDTAB
  0
TABLE
  2
BLOCK_RECORD
  5
1
330
0
100
AcDbSymbolTable
 70
    12
  0
BLOCK_RECORD
  5
1F
330
1
100
AcDbSymbolTableRecord
100
AcDbBlockTableRecord
  2
*Model_Space
340
22
  0
BLOCK_RECORD
  5
58
330
1
100
AcDbSymbolTableRecord
100
AcDbBlockTableRecord
  2
*Paper_Space
340
59
  0
BLOCK_RECORD
  5
5D
330
1
100
AcDbSymbolTableRecord
100
AcDbBlockTableRecord
  2
*Paper_Space0
340
5E
  0
BLOCK_RECORD
  5
14D
330
1
100
AcDbSymbolTableRecord
100
AcDbBlockTableRecord
  2
*D1
340
0
  0
BLOCK_RECORD
  5
159
330
1
100
AcDbSymbolTableRecord
100
AcDbBlockTableRecord
  2
*D2
340
0
  0
BLOCK_RECORD
  5
165
330
1
100
AcDbSymbolTableRecord
100
AcDbBlockTableRecord
  2
*D3
340
0
  0
BLOCK_RECORD
  5
171
330
1
100
AcDbSymbolTableRecord
100
AcDbBlockTableRecord
  2
*D4
340
0
  0
BLOCK_RECORD
  5
17D
330
1
100
AcDbSymbolTableRecord
100
AcDbBlockTableRecord
  2
*D5
340
0
  0
BLOCK_RECORD
  5
490
330
1
100
AcDbSymbolTableRecord
100
AcDbBlockTableRecord
  2
*D7
340
0
  0
BLOCK_RECORD
  5
49D
330
1
100
AcDbSymbolTableRecord
100
AcDbBlockTableRecord
  2
*D8
340
0
  0
BLOCK_RECORD
  5
4AA
330
1
100
AcDbSymbolTableRecord
100
AcDbBlockTableRecord
  2
*D9
340
0
  0
BLOCK_RECORD
  5
4B7
330
1
100
AcDbSymbolTableRecord
100
AcDbBlockTableRecord
  2
*D10
340
0
  0
BLOCK_RECORD
  5
4C4
330
1
100
AcDbSymbolTableRecord
100
AcDbBlockTableRecord
  2
*D11
340
0
  0
ENDTAB
  0
ENDSEC
  0
SECTION
  2
BLOCKS
  0
BLOCK
  5
20
330
1F
100
AcDbEntity
  8
0
100
AcDbBlockBegin
  2
*Model_Space
 70
     0
 10
0.0
 20
0.0
 30
0.0
  3
*Model_Space
  1

  0
ENDBLK
  5
21
330
1F
100
AcDbEntity
  8
0
100
AcDbBlockEnd
  0
BLOCK
  5
5A
330
58
100
AcDbEntity
 67
     1
  8
0
100
AcDbBlockBegin
  2
*Paper_Space
 70
     0
 10
0.0
 20
0.0
 30
0.0
  3
*Paper_Space
  1

  0
ENDBLK
  5
5B
330
58
100
AcDbEntity
 67
     1
  8
0
100
AcDbBlockEnd
  0
BLOCK
  5
5F
330
5D
100
AcDbEntity
 67
     1
  8
0
100
AcDbBlockBegin
  2
*Paper_Space0
 70
     0
 10
0.0
 20
0.0
 30
0.0
  3
*Paper_Space0
  1

  0
ENDBLK
  5
60
330
5D
100
AcDbEntity
 67
     1
  8
0
100
AcDbBlockEnd
  0
BLOCK
  5
14E
330
14D
100
AcDbEntity
  8
0
100
AcDbBlockBegin
  2
*D1
 70
     1
 10
0.0
 20
0.0
 30
0.0
  3
*D1
  1

  0
LINE
  5
14F
330
14D
100
AcDbEntity
  8
QUOTE
 62
     0
370
    -2
100
AcDbLine
 10
-411.1722059270437
 20
-67.93268815586758
 30
0.0
 11
-411.1722059270437
 21
-59.60769756693689
 31
0.0
  0
LINE
  5
150
330
14D
100
AcDbEntity
  8
QUOTE
 62
     0
370
    -2
100
AcDbLine
 10
-366.1722069270437
 20
-67.93268815586758
 30
0.0
 11
-366.1722069270437
 21
-59.60769756693689
 31
0.0
  0
LINE
  5
151
330
14D
100
AcDbEntity
  8
QUOTE
 62
     0
370
    -2
100
AcDbLine
 10
-408.6722059270437
 20
-60.85769756693689
 30
0.0
 11
-368.6722069270438
 21
-60.85769756693689
 31
0.0
  0
SOLID
  5
152
330
14D
100
AcDbEntity
  8
QUOTE
 62
     0
100
AcDbTrace
 10
-408.6722059270437
 20
-60.44103090027022
 30
0.0
 11
-408.6722059270437
 21
-61.27436423360355
 31
0.0
 12
-411.1722059270437
 22
-60.85769756693689
 32
0.0
 13
-411.1722059270437
 23
-60.85769756693689
 33
0.0
  0
SOLID
  5
153
330
14D
100
AcDbEntity
  8
QUOTE
 62
     0
100
AcDbTrace
 10
-368.6722069270438
 20
-60.44103090027022
 30
0.0
 11
-368.6722069270438
 21
-61.27436423360355
 31
0.0
 12
-366.1722069270437
 22
-60.85769756693689
 32
0.0
 13
-366.1722069270437
 23
-60.85769756693689
 33
0.0
  0
MTEXT
  5
154
330
14D
100
AcDbEntity
  8
QUOTE
 62
     0
100
AcDbMText
 10
-388.6722064270438
 20
-57.73269756693689
 30
0.0
 40
5.0
 41
0.0
 71
     5
 72
     1
  1
45
 73
     1
 44
1.0
1001
ACAD
1000
MTEXTBEGIN
1070
    73
1070
     1
1070
    44
1040
1.0
1070
    74
1070
     0
1000
MTEXTEND
  0
POINT
  5
155
330
14D
100
AcDbEntity
  8
Defpoints
 62
     0
100
AcDbPoint
 10
-411.1722059270437
 20
-68.55768815586758
 30
0.0
  0
POINT
  5
156
330
14D
100
AcDbEntity
  8
Defpoints
 62
     0
100
AcDbPoint
 10
-366.1722069270437
 20
-68.55768815586758
 30
0.0
  0
POINT
  5
157
330
14D
100
AcDbEntity
  8
Defpoints
 62
     0
100
AcDbPoint
 10
-366.1722069270437
 20
-60.85769756693689
 30
0.0
  0
ENDBLK
  5
158
330
14D
100
AcDbEntity
  8
0
100
AcDbBlockEnd
  0
BLOCK
  5
15A
330
159
100
AcDbEntity
  8
0
100
AcDbBlockBegin
  2
*D2
 70
     1
 10
0.0
 20
0.0
 30
0.0
  3
*D2
  1

  0
LINE
  5
15B
330
159
100
AcDbEntity
  8
QUOTE
 62
     0
370
    -2
100
AcDbLine
 10
-411.3472097530693
 20
-153.3576671557827
 30
0.0
 11
-423.1648270848167
 21
-153.3576671557827
 31
0.0
  0
LINE
  5
15C
330
159
100
AcDbEntity
  8
QUOTE
 62
     0
370
    -2
100
AcDbLine
 10
-411.3472069270438
 20
-68.35767515586763
 30
0.0
 11
-423.1648270848167
 21
-68.35767515586761
 31
0.0
  0
LINE
  5
15D
330
159
100
AcDbEntity
  8
QUOTE
 62
     0
370
    -2
100
AcDbLine
 10
-421.9148270848168
 20
-150.8576671557827
 30
0.0
 11
-421.9148270848167
 21
-70.85767515586761
 31
0.0
  0
SOLID
  5
15E
330
159
100
AcDbEntity
  8
QUOTE
 62
     0
100
AcDbTrace
 10
-422.3314937514834
 20
-150.8576671557827
 30
0.0
 11
-421.4981604181501
 21
-150.8576671557827
 31
0.0
 12
-421.9148270848168
 22
-153.3576671557827
 32
0.0
 13
-421.9148270848168
 23
-153.3576671557827
 33
0.0
  0
SOLID
  5
15F
330
159
100
AcDbEntity
  8
QUOTE
 62
     0
100
AcDbTrace
 10
-422.3314937514833
 20
-70.85767515586761
 30
0.0
 11
-421.4981604181501
 21
-70.85767515586761
 31
0.0
 12
-421.9148270848167
 22
-68.35767515586761
 32
0.0
 13
-421.9148270848167
 23
-68.35767515586761
 33
0.0
  0
MTEXT
  5
160
330
159
100
AcDbEntity
  8
QUOTE
 62
     0
100
AcDbMText
 10
-425.0398270848167
 20
-110.8576711558252
 30
0.0
 40
5.0
 41
0.0
 71
     5
 72
     1
  1
85
 11
0.0000000000000001
 21
1.0
 31
0.0
 73
     1
 44
1.0
1001
ACAD
1000
MTEXTBEGIN
1070
    73
1070
     1
1070
    44
1040
1.0
1070
    74
1070
     0
1000
MTEXTEND
  0
POINT
  5
161
330
159
100
AcDbEntity
  8
Defpoints
 62
     0
100
AcDbPoint
 10
-410.7222097530693
 20
-153.3576671557827
 30
0.0
  0
POINT
  5
162
330
159
100
AcDbEntity
  8
Defpoints
 62
     0
100
AcDbPoint
 10
-410.7222069270437
 20
-68.35767515586763
 30
0.0
  0
POINT
  5
163
330
159
100
AcDbEntity
  8
Defpoints
 62
     0
100
AcDbPoint
 10
-421.9148270848167
 20
-68.35767515586761
 30
0.0
  0
ENDBLK
  5
164
330
159
100
AcDbEntity
  8
0
100
AcDbBlockEnd
  0
BLOCK
  5
166
330
165
100
AcDbEntity
  8
0
 62
     1
100
AcDbBlockBegin
  2
*D3
 70
     1
 10
0.0
 20
0.0
 30
0.0
  3
*D3
  1

  0
LINE
  5
167
330
165
100
AcDbEntity
  8
QUOTE
 62
     0
370
    -2
100
AcDbLine
 10
-334.0280502379843
 20
-158.9399333234208
 30
0.0
 11
-339.8498885697318
 21
-158.9399333234208
 31
0.0
  0
LINE
  5
168
330
165
100
AcDbEntity
  8
QUOTE
 62
     0
370
    -2
100
AcDbLine
 10
-328.4247700699589
 20
-68.43993332342087
 30
0.0
 11
-339.8498885697317
 21
-68.43993332342087
 31
0.0
  0
LINE
  5
169
330
165
100
AcDbEntity
  8
QUOTE
 62
     0
370
    -2
100
AcDbLine
 10
-338.5998885697318
 20
-156.4399333234208
 30
0.0
 11
-338.5998885697317
 21
-70.93993332342087
 31
0.0
  0
SOLID
  5
16A
330
165
100
AcDbEntity
  8
QUOTE
 62
     0
100
AcDbTrace
 10
-339.0165552363985
 20
-156.4399333234208
 30
0.0
 11
-338.1832219030651
 21
-156.4399333234208
 31
0.0
 12
-338.5998885697318
 22
-158.9399333234208
 32
0.0
 13
-338.5998885697318
 23
-158.9399333234208
 33
0.0
  0
SOLID
  5
16B
330
165
100
AcDbEntity
  8
QUOTE
 62
     0
100
AcDbTrace
 10
-339.0165552363984
 20
-70.93993332342087
 30
0.0
 11
-338.183221903065
 21
-70.93993332342087
 31
0.0
 12
-338.5998885697317
 22
-68.43993332342087
 32
0.0
 13
-338.5998885697317
 23
-68.43993332342087
 33
0.0
  0
MTEXT
  5
16C
330
165
100
AcDbEntity
  8
QUOTE
 62
     0
100
AcDbMText
 10
-342.0986801721825
 20
-113.6899333234209
 30
0.0
 40
5.0
 41
0.0
 71
     5
 72
     1
  1
90,5
 11
0.0000000000000001
 21
1.0
 31
0.0
 73
     1
 44
1.0
1001
ACAD
1000
MTEXTBEGIN
1070
    73
1070
     1
1070
    44
1040
1.0
1070
    74
1070
     0
1000
MTEXTEND
  0
POINT
  5
16D
330
165
100
AcDbEntity
  8
Defpoints
 62
     0
100
AcDbPoint
 10
-333.4030502379843
 20
-158.9399333234208
 30
0.0
  0
POINT
  5
16E
330
165
100
AcDbEntity
  8
Defpoints
 62
     0
100
AcDbPoint
 10
-327.7997700699589
 20
-68.43993332342087
 30
0.0
  0
POINT
  5
16F
330
165
100
AcDbEntity
  8
Defpoints
 62
     0
100
AcDbPoint
 10
-338.5998885697317
 20
-68.43993332342087
 30
0.0
  0
ENDBLK
  5
170
330
165
100
AcDbEntity
  8
0
 62
     1
100
AcDbBlockEnd
  0
BLOCK
  5
172
330
171
100
AcDbEntity
  8
0
 62
     1
100
AcDbBlockBegin
  2
*D4
 70
     1
 10
0.0
 20
0.0
 30
0.0
  3
*D4
  1

  0
LINE
  5
173
330
171
100
AcDbEntity
  8
QUOTE
 62
     0
370
    -2
100
AcDbLine
 10
-327.7997700699589
 20
-67.81493332342087
 30
0.0
 11
-327.7997700699589
 21
-59.51351556695929
 31
0.0
  0
LINE
  5
174
330
171
100
AcDbEntity
  8
QUOTE
 62
     0
370
    -2
100
AcDbLine
 10
-283.8030502379843
 20
-70.27529715588999
 30
0.0
 11
-283.8030502379843
 21
-59.51351556695929
 31
0.0
  0
LINE
  5
175
330
171
100
AcDbEntity
  8
QUOTE
 62
     0
370
    -2
100
AcDbLine
 10
-325.2997700699589
 20
-60.76351556695929
 30
0.0
 11
-286.3030502379843
 21
-60.76351556695929
 31
0.0
  0
SOLID
  5
176
330
171
100
AcDbEntity
  8
QUOTE
 62
     0
100
AcDbTrace
 10
-325.2997700699589
 20
-60.34684890029262
 30
0.0
 11
-325.2997700699589
 21
-61.18018223362595
 31
0.0
 12
-327.7997700699589
 22
-60.76351556695929
 32
0.0
 13
-327.7997700699589
 23
-60.76351556695929
 33
0.0
  0
SOLID
  5
177
330
171
100
AcDbEntity
  8
QUOTE
 62
     0
100
AcDbTrace
 10
-286.3030502379843
 20
-60.34684890029262
 30
0.0
 11
-286.3030502379843
 21
-61.18018223362595
 31
0.0
 12
-283.8030502379843
 22
-60.76351556695929
 32
0.0
 13
-283.8030502379843
 23
-60.76351556695929
 33
0.0
  0
MTEXT
  5
178
330
171
100
AcDbEntity
  8
QUOTE
 62
     0
100
AcDbMText
 10
-305.8014101539716
 20
-57.63851556695929
 30
0.0
 40
5.0
 41
0.0
 71
     5
 72
     1
  1
44
 73
     1
 44
1.0
1001
ACAD
1000
MTEXTBEGIN
1070
    73
1070
     1
1070
    44
1040
1.0
1070
    74
1070
     0
1000
MTEXTEND
  0
POINT
  5
179
330
171
100
AcDbEntity
  8
Defpoints
 62
     0
100
AcDbPoint
 10
-327.7997700699589
 20
-68.43993332342087
 30
0.0
  0
POINT
  5
17A
330
171
100
AcDbEntity
  8
Defpoints
 62
     0
100
AcDbPoint
 10
-283.8030502379843
 20
-70.90029715588999
 30
0.0
  0
POINT
  5
17B
330
171
100
AcDbEntity
  8
Defpoints
 62
     0
100
AcDbPoint
 10
-283.8030502379843
 20
-60.76351556695929
 30
0.0
  0
ENDBLK
  5
17C
330
171
100
AcDbEntity
  8
0
 62
     1
100
AcDbBlockEnd
  0
BLOCK
  5
17E
330
17D
100
AcDbEntity
  8
0
 62
     1
100
AcDbBlockBegin
  2
*D5
 70
     1
 10
0.0
 20
0.0
 30
0.0
  3
*D5
  1

  0
LINE
  5
17F
330
17D
100
AcDbEntity
  8
QUOTE
 62
     0
370
    -2
100
AcDbLine
 10
-327.7997700699589
 20
-153.8768441558899
 30
0.0
 11
-327.7997700699589
 21
-169.7324289291274
 31
0.0
  0
LINE
  5
180
330
17D
100
AcDbEntity
  8
QUOTE
 62
     0
370
    -2
100
AcDbLine
 10
-264.799770069959
 20
-131.74935515589
 30
0.0
 11
-264.799770069959
 21
-169.7324289291274
 31
0.0
  0
LINE
  5
181
330
17D
100
AcDbEntity
  8
QUOTE
 62
     0
370
    -2
100
AcDbLine
 10
-325.2997700699589
 20
-168.4824289291274
 30
0.0
 11
-267.299770069959
 21
-168.4824289291274
 31
0.0
  0
SOLID
  5
182
330
17D
100
AcDbEntity
  8
QUOTE
 62
     0
100
AcDbTrace
 10
-325.2997700699589
 20
-168.0657622624607
 30
0.0
 11
-325.2997700699589
 21
-168.899095595794
 31
0.0
 12
-327.7997700699589
 22
-168.4824289291274
 32
0.0
 13
-327.7997700699589
 23
-168.4824289291274
 33
0.0
  0
SOLID
  5
183
330
17D
100
AcDbEntity
  8
QUOTE
 62
     0
100
AcDbTrace
 10
-267.299770069959
 20
-168.0657622624607
 30
0.0
 11
-267.299770069959
 21
-168.899095595794
 31
0.0
 12
-264.799770069959
 22
-168.4824289291274
 32
0.0
 13
-264.799770069959
 23
-168.4824289291274
 33
0.0
  0
MTEXT
  5
184
330
17D
100
AcDbEntity
  8
QUOTE
 62
     0
100
AcDbMText
 10
-296.2997700699589
 20
-165.3574289291274
 30
0.0
 40
5.0
 41
0.0
 71
     5
 72
     1
  1
63
 73
     1
 44
1.0
1001
ACAD
1000
MTEXTBEGIN
1070
    73
1070
     1
1070
    44
1040
1.0
1070
    74
1070
     0
1000
MTEXTEND
  0
POINT
  5
185
330
17D
100
AcDbEntity
  8
Defpoints
 62
     0
100
AcDbPoint
 10
-327.7997700699589
 20
-153.25184415589
 30
0.0
  0
POINT
  5
186
330
17D
100
AcDbEntity
  8
Defpoints
 62
     0
100
AcDbPoint
 10
-264.799770069959
 20
-131.12435515589
 30
0.0
  0
POINT
  5
187
330
17D
100
AcDbEntity
  8
Defpoints
 62
     0
100
AcDbPoint
 10
-264.799770069959
 20
-168.4824289291274
 30
0.0
  0
ENDBLK
  5
188
330
17D
100
AcDbEntity
  8
0
 62
     1
100
AcDbBlockEnd
  0
BLOCK
  5
491
330
490
100
AcDbEntity
  8
0
100
AcDbBlockBegin
  2
*D7
 70
     1
 10
0.0
 20
0.0
 30
0.0
  3
*D7
  1

  0
LINE
  5
53F
330
490
100
AcDbEntity
  8
QUOTE
 62
     0
370
    -2
100
AcDbLine
 10
21.01483840651969
 20
103.4896983979307
 30
0.0
 11
21.01483840651969
 21
111.3071889868614
 31
0.0
  0
LINE
  5
540
330
490
100
AcDbEntity
  8
QUOTE
 62
     0
370
    -2
100
AcDbLine
 10
66.01483740651969
 20
103.4896983979307
 30
0.0
 11
66.01483740651969
 21
111.3071889868614
 31
0.0
  0
LINE
  5
541
330
490
100
AcDbEntity
  8
QUOTE
 62
     0
370
    -2
100
AcDbLine
 10
26.01483840651969
 20
111.1271889868614
 30
0.0
 11
36.34150457318636
 21
111.1271889868614
 31
0.0
  0
LINE
  5
542
330
490
100
AcDbEntity
  8
QUOTE
 62
     0
370
    -2
100
AcDbLine
 10
61.01483740651969
 20
111.1271889868614
 30
0.0
 11
50.68817123985302
 21
111.1271889868614
 31
0.0
  0
SOLID
  5
543
330
490
100
AcDbEntity
  8
QUOTE
 62
     0
100
AcDbTrace
 10
26.01483840651969
 20
111.9605223201947
 30
0.0
 11
26.01483840651969
 21
110.2938556535281
 31
0.0
 12
21.01483840651969
 22
111.1271889868614
 32
0.0
 13
21.01483840651969
 23
111.1271889868614
 33
0.0
  0
SOLID
  5
544
330
490
100
AcDbEntity
  8
QUOTE
 62
     0
100
AcDbTrace
 10
61.01483740651969
 20
111.9605223201947
 30
0.0
 11
61.01483740651969
 21
110.2938556535281
 31
0.0
 12
66.01483740651969
 22
111.1271889868614
 32
0.0
 13
66.01483740651969
 23
111.1271889868614
 33
0.0
  0
MTEXT
  5
545
330
490
100
AcDbEntity
  8
QUOTE
 62
     0
100
AcDbMText
 10
43.51483790651968
 20
111.1271889868614
 30
0.0
 40
5.0
 41
0.0
 71
     5
 72
     1
  1
\A1;45.0
 73
     1
 44
1.0
1001
ACAD
1000
MTEXTBEGIN
1070
    73
1070
     1
1070
    44
1040
1.0
1070
    74
1070
     0
1000
MTEXTEND
  0
POINT
  5
546
330
490
100
AcDbEntity
  8
Defpoints
 62
     0
100
AcDbPoint
 10
21.01483840651969
 20
103.4271983979307
 30
0.0
  0
POINT
  5
547
330
490
100
AcDbEntity
  8
Defpoints
 62
     0
100
AcDbPoint
 10
66.01483740651969
 20
103.4271983979307
 30
0.0
  0
POINT
  5
548
330
490
100
AcDbEntity
  8
Defpoints
 62
     0
100
AcDbPoint
 10
66.01483740651969
 20
111.1271889868614
 30
0.0
  0
ENDBLK
  5
492
330
490
100
AcDbEntity
  8
0
100
AcDbBlockEnd
  0
BLOCK
  5
49E
330
49D
100
AcDbEntity
  8
0
100
AcDbBlockBegin
  2
*D8
 70
     1
 10
0.0
 20
0.0
 30
0.0
  3
*D8
  1

  0
LINE
  5
535
330
49D
100
AcDbEntity
  8
QUOTE
 62
     0
370
    -2
100
AcDbLine
 10
21.40233458049414
 20
18.62721939801559
 30
0.0
 11
10.09221724874668
 21
18.62721939801559
 31
0.0
  0
LINE
  5
536
330
49D
100
AcDbEntity
  8
QUOTE
 62
     0
370
    -2
100
AcDbLine
 10
21.40233740651968
 20
103.6272113979307
 30
0.0
 11
10.0922172487467
 21
103.6272113979307
 31
0.0
  0
LINE
  5
537
330
49D
100
AcDbEntity
  8
QUOTE
 62
     0
370
    -2
100
AcDbLine
 10
10.27221724874668
 20
23.6272193980156
 30
0.0
 11
10.27221724874669
 21
58.53721539797316
 31
0.0
  0
LINE
  5
538
330
49D
100
AcDbEntity
  8
QUOTE
 62
     0
370
    -2
100
AcDbLine
 10
10.2722172487467
 20
98.62721139793071
 30
0.0
 11
10.27221724874669
 21
63.71721539797315
 31
0.0
  0
SOLID
  5
539
330
49D
100
AcDbEntity
  8
QUOTE
 62
     0
100
AcDbTrace
 10
9.438883915413347
 20
23.6272193980156
 30
0.0
 11
11.10555058208001
 21
23.6272193980156
 31
0.0
 12
10.27221724874668
 22
18.62721939801559
 32
0.0
 13
10.27221724874668
 23
18.62721939801559
 33
0.0
  0
SOLID
  5
53A
330
49D
100
AcDbEntity
  8
QUOTE
 62
     0
100
AcDbTrace
 10
9.438883915413363
 20
98.62721139793071
 30
0.0
 11
11.10555058208003
 21
98.62721139793071
 31
0.0
 12
10.2722172487467
 22
103.6272113979307
 32
0.0
 13
10.2722172487467
 23
103.6272113979307
 33
0.0
  0
MTEXT
  5
53B
330
49D
100
AcDbEntity
  8
QUOTE
 62
     0
100
AcDbMText
 10
10.27221724874668
 20
61.12721539797315
 30
0.0
 40
5.0
 41
0.0
 71
     5
 72
     1
  1
\A1;85.0
 73
     1
 44
1.0
1001
ACAD
1000
MTEXTBEGIN
1070
    73
1070
     1
1070
    44
1040
1.0
1070
    74
1070
     0
1000
MTEXTEND
  0
POINT
  5
53C
330
49D
100
AcDbEntity
  8
Defpoints
 62
     0
100
AcDbPoint
 10
21.46483458049414
 20
18.62721939801559
 30
0.0
  0
POINT
  5
53D
330
49D
100
AcDbEntity
  8
Defpoints
 62
     0
100
AcDbPoint
 10
21.46483740651968
 20
103.6272113979307
 30
0.0
  0
POINT
  5
53E
330
49D
100
AcDbEntity
  8
Defpoints
 62
     0
100
AcDbPoint
 10
10.2722172487467
 20
103.6272113979307
 30
0.0
  0
ENDBLK
  5
49F
330
49D
100
AcDbEntity
  8
0
100
AcDbBlockEnd
  0
BLOCK
  5
4AB
330
4AA
100
AcDbEntity
  8
0
100
AcDbBlockBegin
  2
*D9
 70
     1
 10
0.0
 20
0.0
 30
0.0
  3
*D9
  1

  0
LINE
  5
553
330
4AA
100
AcDbEntity
  8
QUOTE
 62
     0
370
    -2
100
AcDbLine
 10
98.72149409557914
 20
13.04495323037747
 30
0.0
 11
93.40715576383169
 21
13.04495323037747
 31
0.0
  0
LINE
  5
554
330
4AA
100
AcDbEntity
  8
QUOTE
 62
     0
370
    -2
100
AcDbLine
 10
104.3247742636045
 20
103.5449532303774
 30
0.0
 11
93.40715576383173
 21
103.5449532303774
 31
0.0
  0
LINE
  5
555
330
4AA
100
AcDbEntity
  8
QUOTE
 62
     0
370
    -2
100
AcDbLine
 10
93.5871557638317
 20
18.04495323037747
 30
0.0
 11
93.58715576383172
 21
55.70495323037746
 31
0.0
  0
LINE
  5
556
330
4AA
100
AcDbEntity
  8
QUOTE
 62
     0
370
    -2
100
AcDbLine
 10
93.58715576383174
 20
98.54495323037747
 30
0.0
 11
93.58715576383172
 21
60.88495323037747
 31
0.0
  0
SOLID
  5
557
330
4AA
100
AcDbEntity
  8
QUOTE
 62
     0
100
AcDbTrace
 10
92.75382243049838
 20
18.04495323037747
 30
0.0
 11
94.42048909716502
 21
18.04495323037747
 31
0.0
 12
93.5871557638317
 22
13.04495323037747
 32
0.0
 13
93.5871557638317
 23
13.04495323037747
 33
0.0
  0
SOLID
  5
558
330
4AA
100
AcDbEntity
  8
QUOTE
 62
     0
100
AcDbTrace
 10
92.7538224304984
 20
98.54495323037747
 30
0.0
 11
94.42048909716506
 21
98.54495323037747
 31
0.0
 12
93.58715576383174
 22
103.5449532303774
 32
0.0
 13
93.58715576383174
 23
103.5449532303774
 33
0.0
  0
MTEXT
  5
559
330
4AA
100
AcDbEntity
  8
QUOTE
 62
     0
100
AcDbMText
 10
93.5871557638317
 20
58.29495323037748
 30
0.0
 40
5.0
 41
0.0
 71
     5
 72
     1
  1
\A1;90.5
 73
     1
 44
1.0
1001
ACAD
1000
MTEXTBEGIN
1070
    73
1070
     1
1070
    44
1040
1.0
1070
    74
1070
     0
1000
MTEXTEND
  0
POINT
  5
55A
330
4AA
100
AcDbEntity
  8
Defpoints
 62
     0
100
AcDbPoint
 10
98.78399409557914
 20
13.04495323037747
 30
0.0
  0
POINT
  5
55B
330
4AA
100
AcDbEntity
  8
Defpoints
 62
     0
100
AcDbPoint
 10
104.3872742636045
 20
103.5449532303774
 30
0.0
  0
POINT
  5
55C
330
4AA
100
AcDbEntity
  8
Defpoints
 62
     0
100
AcDbPoint
 10
93.58715576383174
 20
103.5449532303774
 30
0.0
  0
ENDBLK
  5
4AC
330
4AA
100
AcDbEntity
  8
0
100
AcDbBlockEnd
  0
BLOCK
  5
4B8
330
4B7
100
AcDbEntity
  8
0
100
AcDbBlockBegin
  2
*D10
 70
     1
 10
0.0
 20
0.0
 30
0.0
  3
*D10
  1

  0
LINE
  5
549
330
4B7
100
AcDbEntity
  8
QUOTE
 62
     0
370
    -2
100
AcDbLine
 10
104.3872742636045
 20
103.6074532303774
 30
0.0
 11
104.3872742636045
 21
111.401370986839
 31
0.0
  0
LINE
  5
54A
330
4B7
100
AcDbEntity
  8
QUOTE
 62
     0
370
    -2
100
AcDbLine
 10
148.3839940955791
 20
101.1470893979083
 30
0.0
 11
148.3839940955791
 21
111.401370986839
 31
0.0
  0
LINE
  5
54B
330
4B7
100
AcDbEntity
  8
QUOTE
 62
     0
370
    -2
100
AcDbLine
 10
109.3872742636045
 20
111.221370986839
 30
0.0
 11
119.2123008462585
 21
111.221370986839
 31
0.0
  0
LINE
  5
54C
330
4B7
100
AcDbEntity
  8
QUOTE
 62
     0
370
    -2
100
AcDbLine
 10
143.3839940955792
 20
111.221370986839
 30
0.0
 11
133.5589675129252
 21
111.221370986839
 31
0.0
  0
SOLID
  5
54D
330
4B7
100
AcDbEntity
  8
QUOTE
 62
     0
100
AcDbTrace
 10
109.3872742636045
 20
112.0547043201723
 30
0.0
 11
109.3872742636045
 21
110.3880376535057
 31
0.0
 12
104.3872742636045
 22
111.221370986839
 32
0.0
 13
104.3872742636045
 23
111.221370986839
 33
0.0
  0
SOLID
  5
54E
330
4B7
100
AcDbEntity
  8
QUOTE
 62
     0
100
AcDbTrace
 10
143.3839940955792
 20
112.0547043201723
 30
0.0
 11
143.3839940955792
 21
110.3880376535057
 31
0.0
 12
148.3839940955791
 22
111.221370986839
 32
0.0
 13
148.3839940955791
 23
111.221370986839
 33
0.0
  0
MTEXT
  5
54F
330
4B7
100
AcDbEntity
  8
QUOTE
 62
     0
100
AcDbMText
 10
126.3856341795918
 20
111.221370986839
 30
0.0
 40
5.0
 41
0.0
 71
     5
 72
     1
  1
\A1;44.0
 73
     1
 44
1.0
1001
ACAD
1000
MTEXTBEGIN
1070
    73
1070
     1
1070
    44
1040
1.0
1070
    74
1070
     0
1000
MTEXTEND
  0
POINT
  5
550
330
4B7
100
AcDbEntity
  8
Defpoints
 62
     0
100
AcDbPoint
 10
104.3872742636045
 20
103.5449532303774
 30
0.0
  0
POINT
  5
551
330
4B7
100
AcDbEntity
  8
Defpoints
 62
     0
100
AcDbPoint
 10
148.3839940955791
 20
101.0845893979083
 30
0.0
  0
POINT
  5
552
330
4B7
100
AcDbEntity
  8
Defpoints
 62
     0
100
AcDbPoint
 10
148.3839940955791
 20
111.221370986839
 30
0.0
  0
ENDBLK
  5
4B9
330
4B7
100
AcDbEntity
  8
0
100
AcDbBlockEnd
  0
BLOCK
  5
4C5
330
4C4
100
AcDbEntity
  8
0
100
AcDbBlockBegin
  2
*D11
 70
     1
 10
0.0
 20
0.0
 30
0.0
  3
*D11
  1

  0
LINE
  5
55D
330
4C4
100
AcDbEntity
  8
QUOTE
 62
     0
370
    -2
100
AcDbLine
 10
104.3872742636045
 20
18.67054239790835
 30
0.0
 11
104.3872742636045
 21
3.32245762467091
 31
0.0
  0
LINE
  5
55E
330
4C4
100
AcDbEntity
  8
QUOTE
 62
     0
370
    -2
100
AcDbLine
 10
167.3872742636044
 20
40.79803139790834
 30
0.0
 11
167.3872742636044
 21
3.32245762467091
 31
0.0
  0
LINE
  5
55F
330
4C4
100
AcDbEntity
  8
QUOTE
 62
     0
370
    -2
100
AcDbLine
 10
109.3872742636045
 20
3.50245762467091
 30
0.0
 11
128.7139409302711
 21
3.50245762467091
 31
0.0
  0
LINE
  5
560
330
4C4
100
AcDbEntity
  8
QUOTE
 62
     0
370
    -2
100
AcDbLine
 10
162.3872742636044
 20
3.50245762467091
 30
0.0
 11
143.0606075969379
 21
3.50245762467091
 31
0.0
  0
SOLID
  5
561
330
4C4
100
AcDbEntity
  8
QUOTE
 62
     0
100
AcDbTrace
 10
109.3872742636045
 20
4.335790958004243
 30
0.0
 11
109.3872742636045
 21
2.669124291337576
 31
0.0
 12
104.3872742636045
 22
3.50245762467091
 32
0.0
 13
104.3872742636045
 23
3.50245762467091
 33
0.0
  0
SOLID
  5
562
330
4C4
100
AcDbEntity
  8
QUOTE
 62
     0
100
AcDbTrace
 10
162.3872742636044
 20
4.335790958004243
 30
0.0
 11
162.3872742636044
 21
2.669124291337576
 31
0.0
 12
167.3872742636044
 22
3.50245762467091
 32
0.0
 13
167.3872742636044
 23
3.50245762467091
 33
0.0
  0
MTEXT
  5
563
330
4C4
100
AcDbEntity
  8
QUOTE
 62
     0
100
AcDbMText
 10
135.8872742636045
 20
3.50245762467091
 30
0.0
 40
5.0
 41
0.0
 71
     5
 72
     1
  1
\A1;63.0
 73
     1
 44
1.0
1001
ACAD
1000
MTEXTBEGIN
1070
    73
1070
     1
1070
    44
1040
1.0
1070
    74
1070
     0
1000
MTEXTEND
  0
POINT
  5
564
330
4C4
100
AcDbEntity
  8
Defpoints
 62
     0
100
AcDbPoint
 10
104.3872742636045
 20
18.73304239790835
 30
0.0
  0
POINT
  5
565
330
4C4
100
AcDbEntity
  8
Defpoints
 62
     0
100
AcDbPoint
 10
167.3872742636044
 20
40.86053139790834
 30
0.0
  0
POINT
  5
566
330
4C4
100
AcDbEntity
  8
Defpoints
 62
     0
100
AcDbPoint
 10
167.3872742636044
 20
3.50245762467091
 30
0.0
  0
ENDBLK
  5
4C6
330
4C4
100
AcDbEntity
  8
0
100
AcDbBlockEnd
  0
ENDSEC
  0
SECTION
  2
ENTITIES
  0
LINE
  5
311
330
1F
100
AcDbEntity
  8
0
 62
     7
 48
0.0525
370
    35
100
AcDbLine
 10
43.51483040649606
 20
93.82723239801554
 30
0.0
 11
41.41482440649605
 21
93.82723239801554
 31
0.0
  0
LINE
  5
312
330
1F
100
AcDbEntity
  8
0
 62
     7
 48
0.0525
370
    35
100
AcDbLine
 10
43.51483040649606
 20
93.82723239801554
 30
0.0
 11
45.614836406496
 21
93.82723239801554
 31
0.0
  0
LINE
  5
313
330
1F
100
AcDbEntity
  8
0
 62
     7
 48
0.01625
370
    35
100
AcDbLine
 10
45.614836406496
 20
93.82723239801554
 30
0.0
 11
45.614836406496
 21
94.47722639801552
 31
0.0
  0
LINE
  5
314
330
1F
100
AcDbEntity
  8
0
 62
     7
 48
0.0525
370
    35
100
AcDbLine
 10
43.51483040649606
 20
94.47722639801552
 30
0.0
 11
45.614836406496
 21
94.47722639801552
 31
0.0
  0
LINE
  5
315
330
1F
100
AcDbEntity
  8
0
 62
     7
 48
0.0525
370
    35
100
AcDbLine
 10
43.51483040649606
 20
94.47722639801552
 30
0.0
 11
41.41482440649605
 21
94.47722639801552
 31
0.0
  0
LINE
  5
316
330
1F
100
AcDbEntity
  8
0
 62
     7
 48
0.01625
370
    35
100
AcDbLine
 10
41.41482440649605
 20
93.82723239801554
 30
0.0
 11
41.41482440649605
 21
94.47722639801552
 31
0.0
  0
LINE
  5
317
330
1F
100
AcDbEntity
  8
0
 62
     7
370
    13
100
AcDbLine
 10
21.01483040649606
 20
100.9787823980155
 30
0.0
 11
66.01483040649601
 21
100.9787823980155
 31
0.0
  0
LINE
  5
318
330
1F
100
AcDbEntity
  8
0
 62
     7
370
    35
100
AcDbLine
 10
21.21483212820686
 20
83.62706775069135
 30
0.0
 11
65.81482869173488
 21
83.62706775072719
 31
0.0
  0
CIRCLE
  5
319
330
1F
100
AcDbEntity
  8
0
 62
     7
370
    35
100
AcDbCircle
 10
43.51483040649606
 20
95.12722039801552
 30
0.0
 40
3.25
  0
LINE
  5
31A
330
1F
100
AcDbEntity
  8
0
 62
     7
 48
0.085422
370
    35
100
AcDbLine
 10
41.80639540649605
 20
45.87722039801552
 30
0.0
 11
45.22326540649601
 21
45.87722039801552
 31
0.0
  0
LINE
  5
31B
330
1F
100
AcDbEntity
  8
0
 62
     7
 48
0.085422
370
    35
100
AcDbLine
 10
41.80639540649605
 20
76.37722039801552
 30
0.0
 11
45.22326540649601
 21
76.37722039801552
 31
0.0
  0
CIRCLE
  5
31C
330
1F
100
AcDbEntity
  8
0
 62
     7
370
    13
100
AcDbCircle
 10
43.51483040649606
 20
61.12722039801552
 30
0.0
 40
2.5
  0
CIRCLE
  5
31D
330
1F
100
AcDbEntity
  8
0
 62
     7
370
    13
100
AcDbCircle
 10
34.01483040649606
 20
61.12722039801552
 30
0.0
 40
3.049999999999999
  0
CIRCLE
  5
31E
330
1F
100
AcDbEntity
  8
0
 62
     7
370
    13
100
AcDbCircle
 10
53.01483040649606
 20
61.12722039801552
 30
0.0
 40
3.049999999999999
  0
LINE
  5
31F
330
1F
100
AcDbEntity
  8
0
 62
     7
 48
0.0391
370
    13
100
AcDbLine
 10
62.11245640649605
 20
59.09352839801555
 30
0.0
 11
60.548445406496
 21
59.09352839801555
 31
0.0
  0
LINE
  5
320
330
1F
100
AcDbEntity
  8
0
 62
     7
 48
0.165157
370
    13
100
AcDbLine
 10
59.548537406496
 20
64.16085039801554
 30
0.0
 11
59.548537406496
 21
70.76714339801553
 31
0.0
  0
ARC
  5
321
330
1F
100
AcDbEntity
  8
0
 62
     7
370
    13
100
AcDbCircle
 10
60.54841540649602
 20
64.16078939801552
 30
0.0
 40
0.999873
100
AcDbArc
 50
179.9977779999995
 51
270.0022379999984
  0
ARC
  5
322
330
1F
100
AcDbEntity
  8
0
 62
     7
370
    13
100
AcDbCircle
 10
26.48124540649604
 20
58.09365039801559
 30
0.0
 40
0.999873
100
AcDbArc
 50
359.9977699999997
 51
90.0022219999988
  0
LINE
  5
323
330
1F
100
AcDbEntity
  8
0
 62
     7
 48
0.0391
370
    13
100
AcDbLine
 10
26.48121540649601
 20
59.09352839801555
 30
0.0
 11
24.91720440649607
 21
59.09352839801555
 31
0.0
  0
ARC
  5
324
330
1F
100
AcDbEntity
  8
0
 62
     7
370
    13
100
AcDbCircle
 10
26.48124540649604
 20
64.16078939801552
 30
0.0
 40
0.999873
100
AcDbArc
 50
269.997757000001
 51
0.0022220000004372
  0
ARC
  5
325
330
1F
100
AcDbEntity
  8
0
 62
     7
370
    13
100
AcDbCircle
 10
60.54841540649602
 20
58.09365039801559
 30
0.0
 40
0.999873
100
AcDbArc
 50
89.9977899999985
 51
180.0021940000002
  0
ARC
  5
326
330
1F
100
AcDbEntity
  8
0
 62
     7
370
    35
100
AcDbCircle
 10
41.80622740649602
 20
76.87740339801557
 30
0.0
 40
0.5001520000000001
100
AcDbArc
 50
180.0201710000004
 51
270.0201599999989
  0
ARC
  5
327
330
1F
100
AcDbEntity
  8
0
 62
     7
370
    35
100
AcDbCircle
 10
45.22343340649598
 20
76.87740339801557
 30
0.0
 40
0.5001520000000001
100
AcDbArc
 50
269.9798350000002
 51
359.9798199999993
  0
ARC
  5
328
330
1F
100
AcDbEntity
  8
0
 62
     7
370
    35
100
AcDbCircle
 10
45.22343340649598
 20
45.37703639801553
 30
0.0
 40
0.5001520000000001
100
AcDbArc
 50
0.0201679999993433
 51
90.0201649999998
  0
ARC
  5
329
330
1F
100
AcDbEntity
  8
0
 62
     7
370
    35
100
AcDbCircle
 10
41.80622740649602
 20
45.37703639801553
 30
0.0
 40
0.5001520000000001
100
AcDbArc
 50
89.97983300000049
 51
179.9798289999995
  0
LINE
  5
32A
330
1F
100
AcDbEntity
  8
0
 62
     7
 48
0.070692
370
    35
100
AcDbLine
 10
45.72355540649602
 20
76.87722039801553
 30
0.0
 11
45.72355540649602
 21
79.70488739801554
 31
0.0
  0
ARC
  5
32B
330
1F
100
AcDbEntity
  8
0
 62
     7
370
    13
100
AcDbCircle
 10
43.51483040649606
 20
61.12722039801552
 30
0.0
 40
18.708498
100
AcDbArc
 50
31.01550300000076
 51
83.21982400000095
  0
LINE
  5
32C
330
1F
100
AcDbEntity
  8
0
 62
     7
 48
0.0391
370
    13
100
AcDbLine
 10
62.11245640649605
 20
63.16091139801556
 30
0.0
 11
60.548445406496
 21
63.16091139801556
 31
0.0
  0
ARC
  5
32D
330
1F
100
AcDbEntity
  8
0
 62
     7
370
    13
100
AcDbCircle
 10
43.51483040649606
 20
61.12722039801552
 30
0.0
 40
18.708498
100
AcDbArc
 50
353.7593479999996
 51
6.240662999999823
  0
LINE
  5
32E
330
1F
100
AcDbEntity
  8
0
 62
     7
 48
0.165157
370
    13
100
AcDbLine
 10
59.548537406496
 20
58.09358939801551
 30
0.0
 11
59.548537406496
 21
51.48729639801557
 31
0.0
  0
ARC
  5
32F
330
1F
100
AcDbEntity
  8
0
 62
     7
370
    13
100
AcDbCircle
 10
43.51483040649606
 20
61.12722039801552
 30
0.0
 40
18.708498
100
AcDbArc
 50
276.7801620000006
 51
328.984504000001
  0
LINE
  5
330
330
1F
100
AcDbEntity
  8
0
 62
     7
 48
0.070692
370
    35
100
AcDbLine
 10
45.72355540649602
 20
42.54955239801552
 30
0.0
 11
45.72355540649602
 21
45.37722039801552
 31
0.0
  0
LINE
  5
331
330
1F
100
AcDbEntity
  8
0
 62
     7
 48
0.070692
370
    35
100
AcDbLine
 10
41.30610540649598
 20
42.54955239801552
 30
0.0
 11
41.30610540649598
 21
45.37722039801552
 31
0.0
  0
ARC
  5
332
330
1F
100
AcDbEntity
  8
0
 62
     7
370
    13
100
AcDbCircle
 10
43.51483040649606
 20
61.12722039801552
 30
0.0
 40
18.708498
100
AcDbArc
 50
211.0155020000001
 51
263.2198390000017
  0
LINE
  5
333
330
1F
100
AcDbEntity
  8
0
 62
     7
 48
0.165157
370
    13
100
AcDbLine
 10
27.48112340649601
 20
58.09358939801551
 30
0.0
 11
27.48112340649601
 21
51.48729639801557
 31
0.0
  0
ARC
  5
334
330
1F
100
AcDbEntity
  8
0
 62
     7
370
    13
100
AcDbCircle
 10
43.51483040649606
 20
61.12722039801552
 30
0.0
 40
18.708498
100
AcDbArc
 50
173.7593430000008
 51
186.2406709999997
  0
LINE
  5
335
330
1F
100
AcDbEntity
  8
0
 62
     7
 48
0.0391
370
    13
100
AcDbLine
 10
24.91720440649607
 20
63.16091139801556
 30
0.0
 11
26.48121540649601
 21
63.16091139801556
 31
0.0
  0
LINE
  5
336
330
1F
100
AcDbEntity
  8
0
 62
     7
 48
0.165157
370
    13
100
AcDbLine
 10
27.48112340649601
 20
64.16085039801554
 30
0.0
 11
27.48112340649601
 21
70.76714339801553
 31
0.0
  0
ARC
  5
337
330
1F
100
AcDbEntity
  8
0
 62
     7
370
    13
100
AcDbCircle
 10
43.51483040649606
 20
61.12722039801552
 30
0.0
 40
18.708498
100
AcDbArc
 50
96.78017400000058
 51
148.9844979999998
  0
LINE
  5
338
330
1F
100
AcDbEntity
  8
0
 62
     7
 48
0.070692
370
    35
100
AcDbLine
 10
41.30610540649598
 20
76.87722039801553
 30
0.0
 11
41.30610540649598
 21
79.70488739801554
 31
0.0
  0
LINE
  5
339
330
1F
100
AcDbEntity
  8
0
 62
     7
 48
0.4512500000000001
370
    13
100
AcDbLine
 10
21.01483040649601
 20
40.75472239801553
 30
0.0
 11
39.51483040649606
 21
40.75472239801553
 31
0.0
  0
LINE
  5
33A
330
1F
100
AcDbEntity
  8
0
 62
     7
 48
0.4512500000000001
370
    13
100
AcDbLine
 10
21.01483040649601
 20
81.49971739801552
 30
0.0
 11
39.51483040649606
 21
81.49971739801554
 31
0.0
  0
LINE
  5
33B
330
1F
100
AcDbEntity
  8
0
 62
     7
 48
0.057497
370
    35
100
AcDbLine
 10
21.01483040649601
 20
18.97576139801555
 30
0.0
 11
21.01483040649601
 21
21.27565739801554
 31
0.0
  0
LINE
  5
33C
330
1F
100
AcDbEntity
  8
0
 62
     7
 48
0.044999
370
    35
100
AcDbLine
 10
21.01483040649601
 20
81.49971739801554
 30
0.0
 11
21.01483040649601
 21
83.29967439801555
 31
0.0
  0
LINE
  5
33D
330
1F
100
AcDbEntity
  8
0
 62
     7
370
    35
100
AcDbLine
 10
21.01483040649601
 20
81.49971739801554
 30
0.0
 11
21.01483040649601
 21
40.75472239801553
 31
0.0
  0
LINE
  5
33E
330
1F
100
AcDbEntity
  8
0
 62
     7
 48
0.044999
370
    35
100
AcDbLine
 10
21.01483040649601
 20
38.95476539801558
 30
0.0
 11
21.01483040649601
 21
40.75472239801553
 31
0.0
  0
LINE
  5
33F
330
1F
100
AcDbEntity
  8
0
 62
     7
 48
0.057497
370
    35
100
AcDbLine
 10
21.01483040649601
 20
100.9787823980155
 30
0.0
 11
21.01483040649601
 21
103.2786783980155
 31
0.0
  0
LINE
  5
340
330
1F
100
AcDbEntity
  8
0
 62
     7
 48
0.438746
370
    35
100
AcDbLine
 10
21.01483040649601
 20
83.42894739801556
 30
0.0
 11
21.01483040649601
 21
100.9787823980155
 31
0.0
  0
ARC
  5
341
330
1F
100
AcDbEntity
  8
0
 62
     7
370
    35
100
AcDbCircle
 10
21.21380540649596
 20
83.42797039801551
 30
0.0
 40
0.1991
100
AcDbArc
 50
89.70453500000116
 51
179.7196940000004
  0
LINE
  5
342
330
1F
100
AcDbEntity
  8
0
 62
     7
 48
0.003713
370
    35
100
AcDbLine
 10
21.01483040649601
 20
103.4272073980155
 30
0.0
 11
21.01483040649601
 21
103.2786783980155
 31
0.0
  0
ARC
  5
343
330
1F
100
AcDbEntity
  8
0
 62
     7
370
    35
100
AcDbCircle
 10
21.21484240649596
 20
103.4272073980155
 30
0.0
 40
0.200004
100
AcDbArc
 50
90.00166900000079
 51
180.0008829999999
  0
LINE
  5
344
330
1F
100
AcDbEntity
  8
0
 62
     7
 48
0.003232
370
    35
100
AcDbLine
 10
21.01483040649601
 20
38.95476539801558
 30
0.0
 11
21.01483040649601
 21
38.82549239801557
 31
0.0
  0
ARC
  5
345
330
1F
100
AcDbEntity
  8
0
 62
     7
370
    35
100
AcDbCircle
 10
21.21380540649596
 20
38.82646939801555
 30
0.0
 40
0.199099
100
AcDbArc
 50
180.2805110000001
 51
270.295827000001
  0
LINE
  5
346
330
1F
100
AcDbEntity
  8
0
 62
     7
 48
0.003232
370
    35
100
AcDbLine
 10
21.01483040649601
 20
83.29967439801555
 30
0.0
 11
21.01483040649601
 21
83.42894739801556
 31
0.0
  0
LINE
  5
347
330
1F
100
AcDbEntity
  8
0
 62
     7
 48
0.003713
370
    35
100
AcDbLine
 10
21.01483040649601
 20
18.82723239801555
 30
0.0
 11
21.01483040649601
 21
18.97576139801555
 31
0.0
  0
ARC
  5
348
330
1F
100
AcDbEntity
  8
0
 62
     7
370
    35
100
AcDbCircle
 10
21.21484240649596
 20
18.82723239801555
 30
0.0
 40
0.200004
100
AcDbArc
 50
179.999117
 51
269.9983309999992
  0
LINE
  5
349
330
1F
100
AcDbEntity
  8
0
 62
     7
 48
0.438746
370
    35
100
AcDbLine
 10
21.01483040649601
 20
21.27565739801554
 30
0.0
 11
21.01483040649601
 21
38.82549239801557
 31
0.0
  0
LINE
  5
34A
330
1F
100
AcDbEntity
  8
0
 62
     7
 48
0.4512500000000001
370
    13
100
AcDbLine
 10
47.51483040649605
 20
81.49971739801554
 30
0.0
 11
66.01483040649606
 21
81.49971739801554
 31
0.0
  0
LINE
  5
34B
330
1F
100
AcDbEntity
  8
0
 62
     7
 48
0.4512500000000001
370
    13
100
AcDbLine
 10
47.51483040649605
 20
40.75472239801553
 30
0.0
 11
66.01483040649594
 21
40.75472239801553
 31
0.0
  0
LINE
  5
34C
330
1F
100
AcDbEntity
  8
0
 62
     7
370
    35
100
AcDbLine
 10
21.21483658047038
 20
103.6272113979307
 30
0.0
 11
65.81482423950302
 21
103.6272113979305
 31
0.0
  0
LINE
  5
34D
330
1F
100
AcDbEntity
  8
0
 62
     7
370
    35
100
AcDbLine
 10
21.21483658047038
 20
18.62722839810038
 30
0.0
 11
65.81482421506791
 21
18.62722839809987
 31
0.0
  0
LINE
  5
34E
330
1F
100
AcDbEntity
  8
0
 62
     7
370
    13
100
AcDbLine
 10
21.01483040649601
 20
21.27565739801554
 30
0.0
 11
66.01483040649601
 21
21.27565739801554
 31
0.0
  0
LINE
  5
34F
330
1F
100
AcDbEntity
  8
0
 62
     7
 48
0.057497
370
    35
100
AcDbLine
 10
66.01483040649601
 20
18.97576139801555
 30
0.0
 11
66.01483040649601
 21
21.27565739801554
 31
0.0
  0
LINE
  5
350
330
1F
100
AcDbEntity
  8
0
 62
     7
 48
0.044999
370
    35
100
AcDbLine
 10
66.01483040649601
 20
81.49971739801554
 30
0.0
 11
66.01483040649601
 21
83.29967439801555
 31
0.0
  0
LINE
  5
351
330
1F
100
AcDbEntity
  8
0
 62
     7
370
    35
100
AcDbLine
 10
66.01483040649601
 20
81.49971739801554
 30
0.0
 11
66.01483040649601
 21
40.75472239801553
 31
0.0
  0
LINE
  5
352
330
1F
100
AcDbEntity
  8
0
 62
     7
 48
0.044999
370
    35
100
AcDbLine
 10
66.01483040649601
 20
38.95476539801558
 30
0.0
 11
66.01483040649601
 21
40.75472239801553
 31
0.0
  0
LINE
  5
353
330
1F
100
AcDbEntity
  8
0
 62
     7
 48
0.057497
370
    35
100
AcDbLine
 10
66.01483040649601
 20
100.9787823980155
 30
0.0
 11
66.01483040649601
 21
103.2786783980155
 31
0.0
  0
LINE
  5
354
330
1F
100
AcDbEntity
  8
0
 62
     7
 48
0.438746
370
    35
100
AcDbLine
 10
66.01483040649601
 20
100.9787823980155
 30
0.0
 11
66.01483040649601
 21
83.42894739801556
 31
0.0
  0
ARC
  5
355
330
1F
100
AcDbEntity
  8
0
 62
     7
370
    35
100
AcDbCircle
 10
65.81585540649598
 20
83.42797039801551
 30
0.0
 40
0.1991
100
AcDbArc
 50
0.2803049999992694
 51
90.29546299999873
  0
LINE
  5
356
330
1F
100
AcDbEntity
  8
0
 62
     7
 48
0.003713
370
    35
100
AcDbLine
 10
66.01483040649601
 20
103.2786783980155
 30
0.0
 11
66.01483040649601
 21
103.4272073980155
 31
0.0
  0
ARC
  5
357
330
1F
100
AcDbEntity
  8
0
 62
     7
370
    35
100
AcDbCircle
 10
65.81481840649598
 20
103.4272073980155
 30
0.0
 40
0.200004
100
AcDbArc
 50
359.9991080000004
 51
89.99832899999965
  0
LINE
  5
358
330
1F
100
AcDbEntity
  8
0
 62
     7
 48
0.003232
370
    35
100
AcDbLine
 10
66.01483040649601
 20
38.95476539801558
 30
0.0
 11
66.01483040649601
 21
38.82549239801557
 31
0.0
  0
ARC
  5
359
330
1F
100
AcDbEntity
  8
0
 62
     7
370
    35
100
AcDbCircle
 10
65.81585540649598
 20
38.82646939801555
 30
0.0
 40
0.199099
100
AcDbArc
 50
269.7041680000002
 51
359.7194799999999
  0
LINE
  5
35A
330
1F
100
AcDbEntity
  8
0
 62
     7
 48
0.003232
370
    35
100
AcDbLine
 10
66.01483040649601
 20
83.42894739801556
 30
0.0
 11
66.01483040649601
 21
83.29967439801555
 31
0.0
  0
LINE
  5
35B
330
1F
100
AcDbEntity
  8
0
 62
     7
 48
0.003713
370
    35
100
AcDbLine
 10
66.01483040649601
 20
18.97576139801555
 30
0.0
 11
66.01483040649601
 21
18.82723239801555
 31
0.0
  0
ARC
  5
35C
330
1F
100
AcDbEntity
  8
0
 62
     7
370
    35
100
AcDbCircle
 10
65.81481840649598
 20
18.82723239801555
 30
0.0
 40
0.200004
100
AcDbArc
 50
270.0016640000003
 51
0.0008839999997646
  0
LINE
  5
35D
330
1F
100
AcDbEntity
  8
0
 62
     7
 48
0.438746
370
    35
100
AcDbLine
 10
66.01483040649601
 20
38.82549239801557
 30
0.0
 11
66.01483040649601
 21
21.27565739801554
 31
0.0
  0
CIRCLE
  5
35E
330
1F
100
AcDbEntity
  8
0
 62
     7
370
    35
100
AcDbCircle
 10
43.51483040649606
 20
87.12722039801553
 30
0.0
 40
3.150000000000005
  0
CIRCLE
  5
35F
330
1F
100
AcDbEntity
  8
0
 62
     7
370
    35
100
AcDbCircle
 10
54.51483040649605
 20
35.12722039801554
 30
0.0
 40
3.150000000000005
  0
CIRCLE
  5
360
330
1F
100
AcDbEntity
  8
0
 62
     7
370
    35
100
AcDbCircle
 10
32.51483040649606
 20
35.12722039801554
 30
0.0
 40
3.150000000000005
  0
LINE
  5
361
330
1F
100
AcDbEntity
  8
0
 62
     7
370
    35
100
AcDbLine
 10
21.21368646165951
 20
38.62737043354531
 30
0.0
 11
65.81482741465845
 21
38.62737305190695
 31
0.0
  0
ARC
  5
362
330
1F
100
AcDbEntity
  8
0
 62
     7
370
    35
100
AcDbCircle
 10
43.51483040649606
 20
61.12722039801552
 30
0.0
 40
20.5
100
AcDbArc
 50
101.2518439999992
 51
258.7481690000005
  0
ARC
  5
363
330
1F
100
AcDbEntity
  8
0
 62
     7
370
    35
100
AcDbCircle
 10
43.51483040649606
 20
61.12722039801552
 30
0.0
 40
20.5
100
AcDbArc
 50
281.2518329999999
 51
78.74815400000032
  0
LINE
  5
364
330
1F
100
AcDbEntity
  8
0
 62
     7
 48
0.000355
370
    35
100
AcDbLine
 10
39.51483040649606
 20
38.96239439801559
 30
0.0
 11
39.51483040649606
 21
38.97658539801552
 31
0.0
  0
LINE
  5
365
330
1F
100
AcDbEntity
  8
0
 62
     7
 48
0.044998
370
    35
100
AcDbLine
 10
39.51483040649606
 20
40.77651239801554
 30
0.0
 11
39.51483040649606
 21
38.97658539801552
 31
0.0
  0
LINE
  5
366
330
1F
100
AcDbEntity
  8
0
 62
     7
 48
0.006119
370
    35
100
AcDbLine
 10
39.51483040649606
 20
41.02126339801555
 30
0.0
 11
39.51483040649606
 21
40.77651239801554
 31
0.0
  0
LINE
  5
367
330
1F
100
AcDbEntity
  8
0
 62
     7
 48
0.005
370
    13
100
AcDbLine
 10
39.714827406496
 20
40.77651239801554
 30
0.0
 11
39.51483040649606
 21
40.77651239801554
 31
0.0
  0
POLYLINE
  5
368
330
1F
100
AcDbEntity
  8
0
 62
     7
370
    13
100
AcDb2dPolyline
 66
     1
 10
0.0
 20
0.0
 30
0.0
  0
VERTEX
  5
369
330
368
100
AcDbEntity
  8
0
370
     0
100
AcDbVertex
100
AcDb2dVertex
 10
39.51483040649606
 20
38.97658539801552
 30
0.0
  0
VERTEX
  5
36A
330
368
100
AcDbEntity
  8
0
370
     0
100
AcDbVertex
100
AcDb2dVertex
 10
39.52525240649601
 20
38.91286439801553
 30
0.0
  0
VERTEX
  5
36B
330
368
100
AcDbEntity
  8
0
370
     0
100
AcDbVertex
100
AcDb2dVertex
 10
39.55543440649598
 20
38.85579639801557
 30
0.0
  0
VERTEX
  5
36C
330
368
100
AcDbEntity
  8
0
370
     0
100
AcDbVertex
100
AcDb2dVertex
 10
39.60221740649598
 20
38.81133239801556
 30
0.0
  0
VERTEX
  5
36D
330
368
100
AcDbEntity
  8
0
370
     0
100
AcDbVertex
100
AcDb2dVertex
 10
39.714827406496
 20
38.77660339801554
 30
0.0
  0
SEQEND
  5
36E
330
368
100
AcDbEntity
  8
0
370
     0
  0
LINE
  5
36F
330
1F
100
AcDbEntity
  8
0
 62
     7
 48
0.006119
370
    35
100
AcDbLine
 10
47.51483040649605
 20
41.02126339801555
 30
0.0
 11
47.51483040649605
 21
40.77651239801554
 31
0.0
  0
LINE
  5
370
330
1F
100
AcDbEntity
  8
0
 62
     7
 48
0.044998
370
    35
100
AcDbLine
 10
47.51483040649605
 20
40.77651239801554
 30
0.0
 11
47.51483040649605
 21
38.97658539801552
 31
0.0
  0
LINE
  5
371
330
1F
100
AcDbEntity
  8
0
 62
     7
 48
0.000355
370
    35
100
AcDbLine
 10
47.51483040649605
 20
38.96239439801559
 30
0.0
 11
47.51483040649605
 21
38.97658539801552
 31
0.0
  0
LINE
  5
372
330
1F
100
AcDbEntity
  8
0
 62
     7
 48
0.19
370
    13
100
AcDbLine
 10
39.714827406496
 20
38.77660339801554
 30
0.0
 11
47.314833406496
 21
38.77660339801554
 31
0.0
  0
LINE
  5
373
330
1F
100
AcDbEntity
  8
0
 62
     7
 48
0.19
370
    13
100
AcDbLine
 10
39.714827406496
 20
40.77651239801554
 30
0.0
 11
47.314833406496
 21
40.77651239801554
 31
0.0
  0
POLYLINE
  5
374
330
1F
100
AcDbEntity
  8
0
 62
     7
370
    13
100
AcDb2dPolyline
 66
     1
 10
0.0
 20
0.0
 30
0.0
  0
VERTEX
  5
375
330
374
100
AcDbEntity
  8
0
370
     0
100
AcDbVertex
100
AcDb2dVertex
 10
47.314833406496
 20
38.77660339801554
 30
0.0
  0
VERTEX
  5
376
330
374
100
AcDbEntity
  8
0
370
     0
100
AcDbVertex
100
AcDb2dVertex
 10
47.37855440649599
 20
38.78701039801553
 30
0.0
  0
VERTEX
  5
377
330
374
100
AcDbEntity
  8
0
370
     0
100
AcDbVertex
100
AcDb2dVertex
 10
47.43562240649601
 20
38.81719139801555
 30
0.0
  0
VERTEX
  5
378
330
374
100
AcDbEntity
  8
0
370
     0
100
AcDbVertex
100
AcDb2dVertex
 10
47.48011640649605
 20
38.86397539801556
 30
0.0
  0
VERTEX
  5
379
330
374
100
AcDbEntity
  8
0
370
     0
100
AcDbVertex
100
AcDb2dVertex
 10
47.51483040649605
 20
38.97658539801552
 30
0.0
  0
SEQEND
  5
37A
330
374
100
AcDbEntity
  8
0
370
     0
  0
LINE
  5
37B
330
1F
100
AcDbEntity
  8
0
 62
     7
 48
0.005
370
    13
100
AcDbLine
 10
47.314833406496
 20
40.77651239801554
 30
0.0
 11
47.51483040649605
 21
40.77651239801554
 31
0.0
  0
LINE
  5
37C
330
1F
100
AcDbEntity
  8
0
 62
     7
 48
0.000355
370
    35
100
AcDbLine
 10
47.51483040649605
 20
83.29204539801553
 30
0.0
 11
47.51483040649605
 21
83.27785439801555
 31
0.0
  0
LINE
  5
37D
330
1F
100
AcDbEntity
  8
0
 62
     7
 48
0.044998
370
    35
100
AcDbLine
 10
47.51483040649605
 20
83.27785439801555
 30
0.0
 11
47.51483040649605
 21
81.47792839801551
 31
0.0
  0
LINE
  5
37E
330
1F
100
AcDbEntity
  8
0
 62
     7
 48
0.006119
370
    35
100
AcDbLine
 10
47.51483040649605
 20
81.47792839801551
 30
0.0
 11
47.51483040649605
 21
81.23317739801551
 31
0.0
  0
LINE
  5
37F
330
1F
100
AcDbEntity
  8
0
 62
     7
 48
0.005
370
    13
100
AcDbLine
 10
47.314833406496
 20
81.47792839801551
 30
0.0
 11
47.51483040649605
 21
81.47792839801551
 31
0.0
  0
POLYLINE
  5
380
330
1F
100
AcDbEntity
  8
0
 62
     7
370
    13
100
AcDb2dPolyline
 66
     1
 10
0.0
 20
0.0
 30
0.0
  0
VERTEX
  5
381
330
380
100
AcDbEntity
  8
0
370
     0
100
AcDbVertex
100
AcDb2dVertex
 10
47.51483040649605
 20
83.27785439801555
 30
0.0
  0
VERTEX
  5
382
330
380
100
AcDbEntity
  8
0
370
     0
100
AcDbVertex
100
AcDb2dVertex
 10
47.50440840649599
 20
83.34157539801559
 30
0.0
  0
VERTEX
  5
383
330
380
100
AcDbEntity
  8
0
370
     0
100
AcDbVertex
100
AcDb2dVertex
 10
47.47422640649602
 20
83.39864339801556
 30
0.0
  0
VERTEX
  5
384
330
380
100
AcDbEntity
  8
0
370
     0
100
AcDbVertex
100
AcDb2dVertex
 10
47.42744340649602
 20
83.44310739801555
 30
0.0
  0
VERTEX
  5
385
330
380
100
AcDbEntity
  8
0
370
     0
100
AcDbVertex
100
AcDb2dVertex
 10
47.314833406496
 20
83.47783639801553
 30
0.0
  0
SEQEND
  5
386
330
380
100
AcDbEntity
  8
0
370
     0
  0
LINE
  5
387
330
1F
100
AcDbEntity
  8
0
 62
     7
 48
0.006119
370
    35
100
AcDbLine
 10
39.51483040649606
 20
81.47792839801551
 30
0.0
 11
39.51483040649606
 21
81.23317739801551
 31
0.0
  0
LINE
  5
388
330
1F
100
AcDbEntity
  8
0
 62
     7
 48
0.044998
370
    35
100
AcDbLine
 10
39.51483040649606
 20
83.27785439801555
 30
0.0
 11
39.51483040649606
 21
81.47792839801551
 31
0.0
  0
LINE
  5
389
330
1F
100
AcDbEntity
  8
0
 62
     7
 48
0.000355
370
    35
100
AcDbLine
 10
39.51483040649606
 20
83.29204539801553
 30
0.0
 11
39.51483040649606
 21
83.27785439801555
 31
0.0
  0
LINE
  5
38A
330
1F
100
AcDbEntity
  8
0
 62
     7
 48
0.19
370
    13
100
AcDbLine
 10
39.714827406496
 20
83.47783639801553
 30
0.0
 11
47.314833406496
 21
83.47783639801553
 31
0.0
  0
LINE
  5
38B
330
1F
100
AcDbEntity
  8
0
 62
     7
 48
0.19
370
    13
100
AcDbLine
 10
39.714827406496
 20
81.47792839801551
 30
0.0
 11
47.314833406496
 21
81.47792839801551
 31
0.0
  0
POLYLINE
  5
38C
330
1F
100
AcDbEntity
  8
0
 62
     7
370
    13
100
AcDb2dPolyline
 66
     1
 10
0.0
 20
0.0
 30
0.0
  0
VERTEX
  5
38D
330
38C
100
AcDbEntity
  8
0
370
     0
100
AcDbVertex
100
AcDb2dVertex
 10
39.714827406496
 20
83.47783639801553
 30
0.0
  0
VERTEX
  5
38E
330
38C
100
AcDbEntity
  8
0
370
     0
100
AcDbVertex
100
AcDb2dVertex
 10
39.65110640649601
 20
83.46743039801554
 30
0.0
  0
VERTEX
  5
38F
330
38C
100
AcDbEntity
  8
0
370
     0
100
AcDbVertex
100
AcDb2dVertex
 10
39.59403840649605
 20
83.43724839801557
 30
0.0
  0
VERTEX
  5
390
330
38C
100
AcDbEntity
  8
0
370
     0
100
AcDbVertex
100
AcDb2dVertex
 10
39.54954440649601
 20
83.39046439801551
 30
0.0
  0
VERTEX
  5
391
330
38C
100
AcDbEntity
  8
0
370
     0
100
AcDbVertex
100
AcDb2dVertex
 10
39.51483040649606
 20
83.27785439801555
 30
0.0
  0
SEQEND
  5
392
330
38C
100
AcDbEntity
  8
0
370
     0
  0
LINE
  5
393
330
1F
100
AcDbEntity
  8
0
 62
     7
 48
0.005
370
    13
100
AcDbLine
 10
39.714827406496
 20
81.47792839801551
 30
0.0
 11
39.51483040649606
 21
81.47792839801551
 31
0.0
  0
LINE
  5
394
330
1F
100
AcDbEntity
  8
0
 62
     7
 48
0.03625
370
    35
100
AcDbLine
 10
43.51483040649606
 20
92.52721339801558
 30
0.0
 11
42.064833406496
 21
92.52721339801558
 31
0.0
  0
LINE
  5
395
330
1F
100
AcDbEntity
  8
0
 62
     7
 48
0.03625
370
    35
100
AcDbLine
 10
43.51483040649606
 20
92.52721339801558
 30
0.0
 11
44.96482740649599
 21
92.52721339801558
 31
0.0
  0
LINE
  5
396
330
1F
100
AcDbEntity
  8
0
 62
     7
 48
0.01625
370
    35
100
AcDbLine
 10
44.96482740649599
 20
92.52721339801558
 30
0.0
 11
44.96482740649599
 21
93.17720739801556
 31
0.0
  0
LINE
  5
397
330
1F
100
AcDbEntity
  8
0
 62
     7
 48
0.03625
370
    35
100
AcDbLine
 10
43.51483040649606
 20
93.17720739801556
 30
0.0
 11
44.96482740649599
 21
93.17720739801556
 31
0.0
  0
LINE
  5
398
330
1F
100
AcDbEntity
  8
0
 62
     7
 48
0.03625
370
    35
100
AcDbLine
 10
43.51483040649606
 20
93.17720739801556
 30
0.0
 11
42.064833406496
 21
93.17720739801556
 31
0.0
  0
LINE
  5
399
330
1F
100
AcDbEntity
  8
0
 62
     7
 48
0.01625
370
    35
100
AcDbLine
 10
42.064833406496
 20
92.52721339801558
 30
0.0
 11
42.064833406496
 21
93.17720739801556
 31
0.0
  0
LINE
  5
39A
330
1F
100
AcDbEntity
  8
0
 62
     7
 48
0.060625
370
    35
100
AcDbLine
 10
43.83982740649599
 20
95.77721339801557
 30
0.0
 11
46.26483040649605
 21
95.77721339801557
 31
0.0
  0
LINE
  5
39B
330
1F
100
AcDbEntity
  8
0
 62
     7
 48
0.055
370
    35
100
AcDbLine
 10
43.83982740649599
 20
95.77721339801557
 30
0.0
 11
43.83982740649599
 21
97.97722639801554
 31
0.0
  0
LINE
  5
39C
330
1F
100
AcDbEntity
  8
0
 62
     7
 48
0.008125
370
    35
100
AcDbLine
 10
43.51483040649606
 20
97.97722639801554
 30
0.0
 11
43.83982740649599
 21
97.97722639801554
 31
0.0
  0
LINE
  5
39D
330
1F
100
AcDbEntity
  8
0
 62
     7
 48
0.008125
370
    35
100
AcDbLine
 10
43.51483040649606
 20
97.97722639801554
 30
0.0
 11
43.18983340649601
 21
97.97722639801554
 31
0.0
  0
LINE
  5
39E
330
1F
100
AcDbEntity
  8
0
 62
     7
 48
0.055
370
    35
100
AcDbLine
 10
43.18983340649601
 20
95.77721339801557
 30
0.0
 11
43.18983340649601
 21
97.97722639801554
 31
0.0
  0
LINE
  5
39F
330
1F
100
AcDbEntity
  8
0
 62
     7
 48
0.060625
370
    35
100
AcDbLine
 10
43.18983340649601
 20
95.77721339801557
 30
0.0
 11
40.76483040649605
 21
95.77721339801557
 31
0.0
  0
LINE
  5
3A0
330
1F
100
AcDbEntity
  8
0
 62
     7
 48
0.01625
370
    35
100
AcDbLine
 10
40.76483040649605
 20
95.12722039801552
 30
0.0
 11
40.76483040649605
 21
95.77721339801557
 31
0.0
  0
LINE
  5
3A1
330
1F
100
AcDbEntity
  8
0
 62
     7
 48
0.06875
370
    35
100
AcDbLine
 10
43.51483040649606
 20
95.12722039801552
 30
0.0
 11
40.76483040649605
 21
95.12722039801552
 31
0.0
  0
LINE
  5
3A2
330
1F
100
AcDbEntity
  8
0
 62
     7
 48
0.06875
370
    35
100
AcDbLine
 10
43.51483040649606
 20
95.12722039801552
 30
0.0
 11
46.26483040649605
 21
95.12722039801552
 31
0.0
  0
LINE
  5
3A3
330
1F
100
AcDbEntity
  8
0
 62
     7
 48
0.01625
370
    35
100
AcDbLine
 10
46.26483040649605
 20
95.12722039801552
 30
0.0
 11
46.26483040649605
 21
95.77721339801557
 31
0.0
  0
POINT
  5
3A4
330
1F
100
AcDbEntity
  8
0
 62
     7
370
     5
100
AcDbPoint
 10
43.51483040649606
 20
95.12722039801552
 30
0.0
  0
DIMENSION
  5
3A5
330
1F
100
AcDbEntity
  8
QUOTE
 62
     1
100
AcDbDimension
  2
*D7
 10
66.01483740651969
 20
111.1271889868614
 30
0.0
 11
43.51483790651968
 21
111.1271889868614
 31
0.0
 70
    32
 71
     5
 42
44.999999
  3
Standard
100
AcDbAlignedDimension
 13
21.01483840651969
 23
103.4271983979307
 33
0.0
 14
66.01483740651969
 24
103.4271983979307
 34
0.0
100
AcDbRotatedDimension
1001
ACAD
1000
DSTYLE
1002
{
1070
   271
1070
     1
1070
    41
1040
5.0
1070
   140
1040
5.0
1002
}
  0
DIMENSION
  5
3A6
330
1F
100
AcDbEntity
  8
QUOTE
 62
     1
100
AcDbDimension
  2
*D8
 10
10.2722172487467
 20
103.6272113979307
 30
0.0
 11
10.27221724874668
 21
61.12721539797315
 31
0.0
 70
    32
 71
     5
 42
84.99999199991512
  3
Standard
100
AcDbAlignedDimension
 13
21.46483458049414
 23
18.62721939801559
 33
0.0
 14
21.46483740651968
 24
103.6272113979307
 34
0.0
 50
90.0
100
AcDbRotatedDimension
1001
ACAD
1000
DSTYLE
1002
{
1070
   271
1070
     1
1070
    41
1040
5.0
1070
   140
1040
5.0
1002
}
  0
ARC
  5
3A7
330
1F
100
AcDbEntity
  8
0
 62
     7
370
    35
100
AcDbCircle
 10
46.09651239776917
 20
15.54495323037747
 30
0.0
 40
0.5
100
AcDbArc
 50
269.9999969999991
 51
345.0000000000009
  0
ARC
  5
3A8
330
1F
100
AcDbEntity
  8
0
 62
     7
370
    35
100
AcDbCircle
 10
40.93314739776917
 20
15.54495323037747
 30
0.0
 40
0.5
100
AcDbArc
 50
195.0000060000005
 51
269.9999969999991
  0
LINE
  5
3A9
330
1F
100
AcDbEntity
  8
0
 62
     7
 48
0.129084
370
    35
100
AcDbLine
 10
46.09651239776917
 20
15.04495323037747
 30
0.0
 11
40.93314739776917
 21
15.04495323037747
 31
0.0
  0
LINE
  5
3AA
330
1F
100
AcDbEntity
  8
0
 62
     7
 48
0.019411
370
    35
100
AcDbLine
 10
46.57947539776921
 20
15.41554323037746
 30
0.0
 11
46.78043739776922
 21
16.16554323037746
 31
0.0
  0
ARC
  5
3AB
330
1F
100
AcDbEntity
  8
0
 62
     7
370
    35
100
AcDbCircle
 10
46.29747439776918
 20
16.29495323037747
 30
0.0
 40
0.5
100
AcDbArc
 50
345.0000000000009
 51
90.00000300000095
  0
LINE
  5
3AC
330
1F
100
AcDbEntity
  8
0
 62
     7
 48
0.019411
370
    35
100
AcDbLine
 10
40.45018439776919
 20
15.41554323037746
 30
0.0
 11
40.24922339776918
 21
16.16554323037746
 31
0.0
  0
ARC
  5
3AD
330
1F
100
AcDbEntity
  8
0
 62
     7
370
    35
100
AcDbCircle
 10
40.73218539776923
 20
16.29495323037747
 30
0.0
 40
0.5
100
AcDbArc
 50
90.00000300000095
 51
195.0000060000005
  0
LINE
  5
3AE
330
1F
100
AcDbEntity
  8
0
 62
     7
 48
0.018868
370
    35
100
AcDbLine
 10
41.4869003977692
 20
16.79495323037747
 30
0.0
 11
40.73218539776923
 21
16.79495323037747
 31
0.0
  0
ARC
  5
3AF
330
1F
100
AcDbEntity
  8
0
 62
     7
370
    35
100
AcDbCircle
 10
41.4869003977692
 20
17.09495223037743
 30
0.0
 40
0.3
100
AcDbArc
 50
269.9999969999991
 51
351.5850319999997
  0
LINE
  5
3B0
330
1F
100
AcDbEntity
  8
0
 62
     7
 48
0.018868
370
    35
100
AcDbLine
 10
46.29747439776918
 20
16.79495323037747
 30
0.0
 11
45.5427603977692
 21
16.79495323037747
 31
0.0
  0
ARC
  5
3B1
330
1F
100
AcDbEntity
  8
0
 62
     7
370
    35
100
AcDbCircle
 10
43.51483039776917
 20
16.79495323037747
 30
0.0
 40
1.75
100
AcDbArc
 50
8.414968000000305
 51
171.5850339999998
  0
ARC
  5
3B2
330
1F
100
AcDbEntity
  8
0
 62
     7
370
    35
100
AcDbCircle
 10
45.5427603977692
 20
17.09495223037743
 30
0.0
 40
0.3
100
AcDbArc
 50
188.4149660000002
 51
269.9999969999991
  0
LINE
  5
3B3
330
1F
100
AcDbEntity
  8
0
 62
     7
 48
0.061249
370
    35
100
AcDbLine
 10
48.8546073977692
 20
16.17904723037748
 30
0.0
 11
49.4887003977692
 21
18.62722839810004
 31
0.0
  0
LINE
  5
3B4
330
1F
100
AcDbEntity
  8
0
 62
     7
 48
0.033158
370
    35
100
AcDbLine
 10
48.8546073977692
 20
16.17904723037748
 30
0.0
 11
48.51132739776921
 21
14.89790423037743
 31
0.0
  0
ARC
  5
3B5
330
1F
100
AcDbEntity
  8
0
 62
     7
370
    35
100
AcDbCircle
 10
46.09651239776917
 20
15.54495323037747
 30
0.0
 40
2.5
100
AcDbArc
 50
269.9999969999991
 51
345.0000000000009
  0
LINE
  5
3B6
330
1F
100
AcDbEntity
  8
0
 62
     7
 48
0.129084
370
    35
100
AcDbLine
 10
40.93314739776917
 20
13.04495323037747
 30
0.0
 11
46.09651239776917
 21
13.04495323037747
 31
0.0
  0
ARC
  5
3B7
330
1F
100
AcDbEntity
  8
0
 62
     7
370
    35
100
AcDbCircle
 10
40.93314739776917
 20
15.54495323037747
 30
0.0
 40
2.5
100
AcDbArc
 50
195.0000060000005
 51
269.9999969999991
  0
LINE
  5
3B8
330
1F
100
AcDbEntity
  8
0
 62
     7
 48
0.033158
370
    35
100
AcDbLine
 10
38.17505239776921
 20
16.17904723037748
 30
0.0
 11
38.5183323977692
 21
14.89790423037743
 31
0.0
  0
LINE
  5
3B9
330
1F
100
AcDbEntity
  8
0
 62
     7
 48
0.061234
370
    35
100
AcDbLine
 10
38.17505239776921
 20
16.17904723037748
 30
0.0
 11
37.54111039776922
 21
18.62722839810021
 31
0.0
  0
LINE
  5
3BA
330
1F
100
AcDbEntity
  8
0
 62
     7
 48
0.4337890000000001
370
    35
100
AcDbLine
 10
148.3839940955791
 20
83.73304239790835
 30
0.0
 11
148.3839940955791
 21
101.0845893979083
 31
0.0
  0
ARC
  5
3BB
330
1F
100
AcDbEntity
  8
0
 62
     7
370
    35
100
AcDbCircle
 10
145.8839940955791
 20
101.0845893979083
 30
0.0
 40
2.5
100
AcDbArc
 50
0.0
 51
89.49999900000154
  0
LINE
  5
3BC
330
1F
100
AcDbEntity
  8
0
 62
     7
 48
0.36545
370
    35
100
AcDbLine
 10
165.4047272636044
 20
83.60547739790835
 30
0.0
 11
148.3839940955791
 21
83.73304239790835
 31
0.0
  0
LINE
  5
3BD
330
1F
100
AcDbEntity
  8
0
 62
     7
370
    35
100
AcDbLine
 10
167.3872742636044
 20
81.60555339790835
 30
0.0
 11
167.3872742636044
 21
40.86053139790834
 31
0.0
  0
ARC
  5
3BE
330
1F
100
AcDbEntity
  8
0
 62
     7
370
    35
100
AcDbCircle
 10
165.3872742636044
 20
81.60555339790835
 30
0.0
 40
2.0
100
AcDbArc
 50
0.0
 51
89.49999900000154
  0
LINE
  5
3BF
330
1F
100
AcDbEntity
  8
0
 62
     7
 48
0.4255620000000001
370
    35
100
AcDbLine
 10
128.8839940955792
 20
103.7330423979083
 30
0.0
 11
145.9058110955791
 21
103.5844943979083
 31
0.0
  0
ARC
  5
3C0
330
1F
100
AcDbEntity
  8
0
 62
     7
370
    35
100
AcDbCircle
 10
146.1840030955791
 20
28.63305139790836
 30
0.0
 40
0.199989
100
AcDbArc
 50
359.9993879999993
 51
90.00057600000067
  0
LINE
  5
3C1
330
1F
100
AcDbEntity
  8
0
 62
     7
 48
0.188726
370
    35
100
AcDbLine
 10
146.3839940955791
 20
28.63305139790836
 30
0.0
 11
146.3839940955791
 21
21.08401739790835
 31
0.0
  0
ARC
  5
3C2
330
1F
100
AcDbEntity
  8
0
 62
     7
370
    35
100
AcDbCircle
 10
146.1840040955791
 20
21.08401339790834
 30
0.0
 40
0.199989
100
AcDbArc
 50
270.4994070000007
 51
0.0005610000007768
  0
ARC
  5
3C3
330
1F
100
AcDbEntity
  8
0
 62
     7
370
    35
100
AcDbCircle
 10
131.0839840955791
 20
20.95223839790836
 30
0.0
 40
0.199989
100
AcDbArc
 50
179.9993770000001
 51
270.5005890000014
  0
LINE
  5
3C4
330
1F
100
AcDbEntity
  8
0
 62
     7
 48
0.377515
370
    35
100
AcDbLine
 10
146.1857460955791
 20
20.88403239790836
 30
0.0
 11
131.0857310955791
 21
20.75225739790835
 31
0.0
  0
LINE
  5
3C5
330
1F
100
AcDbEntity
  8
0
 62
     7
 48
0.19202
370
    35
100
AcDbLine
 10
130.8839940955792
 20
20.95224239790835
 30
0.0
 11
130.8839940955792
 21
28.63305139790836
 31
0.0
  0
ARC
  5
3C6
330
1F
100
AcDbEntity
  8
0
 62
     7
370
    35
100
AcDbCircle
 10
131.0839840955791
 20
28.63305139790836
 30
0.0
 40
0.199989
100
AcDbArc
 50
89.99938800000093
 51
180.0005819999992
  0
LINE
  5
3C7
330
1F
100
AcDbEntity
  8
0
 62
     7
 48
0.3775
370
    35
100
AcDbLine
 10
131.0839860955791
 20
28.83304039790835
 30
0.0
 11
146.1840010955791
 21
28.83304039790835
 31
0.0
  0
ARC
  5
3C8
330
1F
100
AcDbEntity
  8
0
 62
     7
370
    35
100
AcDbCircle
 10
137.4839950955791
 20
33.43304339790837
 30
0.0
 40
0.2
100
AcDbArc
 50
269.9999969999991
 51
0.0
  0
LINE
  5
3C9
330
1F
100
AcDbEntity
  8
0
 62
     7
 48
0.14
370
    35
100
AcDbLine
 10
137.6839940955791
 20
33.43304339790837
 30
0.0
 11
137.6839940955791
 21
39.03304139790833
 31
0.0
  0
ARC
  5
3CA
330
1F
100
AcDbEntity
  8
0
 62
     7
370
    35
100
AcDbCircle
 10
137.4839950955791
 20
39.03304139790833
 30
0.0
 40
0.2
100
AcDbArc
 50
0.0
 51
90.00000300000095
  0
ARC
  5
3CB
330
1F
100
AcDbEntity
  8
0
 62
     7
370
    35
100
AcDbCircle
 10
133.8839940955791
 20
39.03304139790833
 30
0.0
 40
0.2
100
AcDbArc
 50
90.00000300000095
 51
180.0000050000005
  0
LINE
  5
3CC
330
1F
100
AcDbEntity
  8
0
 62
     7
 48
0.14
370
    35
100
AcDbLine
 10
133.6839940955791
 20
33.43304339790837
 30
0.0
 11
133.6839940955791
 21
39.03304139790833
 31
0.0
  0
ARC
  5
3CD
330
1F
100
AcDbEntity
  8
0
 62
     7
370
    35
100
AcDbCircle
 10
133.8839940955791
 20
33.43304339790837
 30
0.0
 40
0.2
100
AcDbArc
 50
180.0000050000005
 51
269.9999969999991
  0
LINE
  5
3CE
330
1F
100
AcDbEntity
  8
0
 62
     7
 48
0.09
370
    35
100
AcDbLine
 10
137.4839950955791
 20
33.23304239790835
 30
0.0
 11
133.8839940955791
 21
33.23304239790835
 31
0.0
  0
LINE
  5
3CF
330
1F
100
AcDbEntity
  8
0
 62
     7
 48
0.09
370
    35
100
AcDbLine
 10
137.4839950955791
 20
39.23304239790835
 30
0.0
 11
133.8839940955791
 21
39.23304239790835
 31
0.0
  0
ARC
  5
3D0
330
1F
100
AcDbEntity
  8
0
 62
     7
370
    35
100
AcDbCircle
 10
133.8839940955791
 20
89.03304139790835
 30
0.0
 40
0.2
100
AcDbArc
 50
90.00000300000095
 51
180.0000050000005
  0
LINE
  5
3D1
330
1F
100
AcDbEntity
  8
0
 62
     7
 48
0.14
370
    35
100
AcDbLine
 10
133.6839940955791
 20
89.03304139790835
 30
0.0
 11
133.6839940955791
 21
83.43304339790835
 31
0.0
  0
ARC
  5
3D2
330
1F
100
AcDbEntity
  8
0
 62
     7
370
    35
100
AcDbCircle
 10
133.8839940955791
 20
83.43304339790835
 30
0.0
 40
0.2
100
AcDbArc
 50
180.0000050000005
 51
269.9999969999991
  0
ARC
  5
3D3
330
1F
100
AcDbEntity
  8
0
 62
     7
370
    35
100
AcDbCircle
 10
137.4839950955791
 20
89.03304139790835
 30
0.0
 40
0.2
100
AcDbArc
 50
0.0
 51
90.00000300000095
  0
LINE
  5
3D4
330
1F
100
AcDbEntity
  8
0
 62
     7
 48
0.14
370
    35
100
AcDbLine
 10
137.6839940955791
 20
89.03304139790835
 30
0.0
 11
137.6839940955791
 21
83.43304339790835
 31
0.0
  0
ARC
  5
3D5
330
1F
100
AcDbEntity
  8
0
 62
     7
370
    35
100
AcDbCircle
 10
137.4839950955791
 20
83.43304339790835
 30
0.0
 40
0.2
100
AcDbArc
 50
269.9999969999991
 51
0.0
  0
LINE
  5
3D6
330
1F
100
AcDbEntity
  8
0
 62
     7
 48
0.09
370
    35
100
AcDbLine
 10
137.4839950955791
 20
89.23304239790835
 30
0.0
 11
133.8839940955791
 21
89.23304239790835
 31
0.0
  0
LINE
  5
3D7
330
1F
100
AcDbEntity
  8
0
 62
     7
 48
0.09
370
    35
100
AcDbLine
 10
137.4839950955791
 20
83.23304239790834
 30
0.0
 11
133.8839940955791
 21
83.23304239790834
 31
0.0
  0
LINE
  5
3D8
330
1F
100
AcDbEntity
  8
0
 62
     7
370
    35
100
AcDbLine
 10
128.8839940955792
 20
18.93305039790834
 30
0.0
 11
128.8822559615864
 21
103.7330272918227
 31
0.0
  0
LINE
  5
3D9
330
1F
100
AcDbEntity
  8
0
 62
     7
 48
0.4255620000000001
370
    35
100
AcDbLine
 10
128.8839940955792
 20
18.73304239790835
 30
0.0
 11
145.9058110955791
 21
18.88159039790835
 31
0.0
  0
LINE
  5
3DA
330
1F
100
AcDbEntity
  8
0
 62
     7
 48
0.005
370
    35
100
AcDbLine
 10
128.8839940955792
 20
18.73304239790835
 30
0.0
 11
128.8839940955792
 21
18.93305039790834
 31
0.0
  0
ARC
  5
3DB
330
1F
100
AcDbEntity
  8
0
 62
     7
370
    35
100
AcDbCircle
 10
145.8839940955791
 20
21.38149539790834
 30
0.0
 40
2.5
100
AcDbArc
 50
270.5000009999984
 51
0.0
  0
LINE
  5
3DC
330
1F
100
AcDbEntity
  8
0
 62
     7
 48
0.4337890000000001
370
    35
100
AcDbLine
 10
148.3839940955791
 20
21.38149539790834
 30
0.0
 11
148.3839940955791
 21
38.73304239790835
 31
0.0
  0
LINE
  5
3DD
330
1F
100
AcDbEntity
  8
0
 62
     7
 48
0.36545
370
    35
100
AcDbLine
 10
165.4047273695064
 20
38.86060755208461
 30
0.0
 11
148.3839940955791
 21
38.73304239790835
 31
0.0
  0
ARC
  5
3DE
330
1F
100
AcDbEntity
  8
0
 62
     7
370
    35
100
AcDbCircle
 10
165.3872742636044
 20
40.86053139790834
 30
0.0
 40
2.0
100
AcDbArc
 50
270.5000009999984
 51
0.0
  0
LINE
  5
3DF
330
1F
100
AcDbEntity
  8
0
 62
     7
 48
0.062502
370
    35
100
AcDbLine
 10
165.4047272636044
 20
38.86060739790835
 30
0.0
 11
167.3872742636044
 21
38.87790868906797
 31
0.0
  0
LINE
  5
3E0
330
1F
100
AcDbEntity
  8
0
 62
     7
 48
0.01625
370
    35
100
AcDbLine
 10
148.3839940955791
 20
95.23304239790835
 30
0.0
 11
148.3839940955791
 21
95.88304439790835
 31
0.0
  0
LINE
  5
3E1
330
1F
100
AcDbEntity
  8
0
 62
     7
 48
0.055
370
    35
100
AcDbLine
 10
148.3839940955791
 20
95.88304439790835
 30
0.0
 11
148.3839940955791
 21
98.08304039790835
 31
0.0
  0
LINE
  5
3E2
330
1F
100
AcDbEntity
  8
0
 62
     7
 48
0.01625
370
    35
100
AcDbLine
 10
148.3839940955791
 20
92.63304239790835
 30
0.0
 11
148.3839940955791
 21
93.28304139790835
 31
0.0
  0
LINE
  5
3E3
330
1F
100
AcDbEntity
  8
0
 62
     7
 48
0.01625
370
    35
100
AcDbLine
 10
148.3839940955791
 20
93.93304339790836
 30
0.0
 11
148.3839940955791
 21
94.58304039790835
 31
0.0
  0
LINE
  5
3E4
330
1F
100
AcDbEntity
  8
0
 62
     7
 48
0.003739
370
    35
100
AcDbLine
 10
137.5344100955791
 20
83.73304239790835
 30
0.0
 11
137.6839690955791
 21
83.73304239790835
 31
0.0
  0
LINE
  5
3E5
330
1F
100
AcDbEntity
  8
0
 62
     7
 48
0.003739
370
    35
100
AcDbLine
 10
137.5344100955791
 20
88.73304239790835
 30
0.0
 11
137.6839690955791
 21
88.73304239790835
 31
0.0
  0
LINE
  5
3E6
330
1F
100
AcDbEntity
  8
0
 62
     7
 48
0.002467
370
    35
100
AcDbLine
 10
133.6853040955791
 20
83.73304239790835
 30
0.0
 11
133.7839940955791
 21
83.73304239790835
 31
0.0
  0
LINE
  5
3E7
330
1F
100
AcDbEntity
  8
0
 62
     7
 48
0.057147
370
    35
100
AcDbLine
 10
135.2485120955791
 20
83.73304239790835
 30
0.0
 11
137.5344100955791
 21
83.73304239790835
 31
0.0
  0
LINE
  5
3E8
330
1F
100
AcDbEntity
  8
0
 62
     7
 48
0.025
370
    35
100
AcDbLine
 10
134.2485120955791
 20
83.73304239790835
 30
0.0
 11
135.2485120955791
 21
83.73304239790835
 31
0.0
  0
LINE
  5
3E9
330
1F
100
AcDbEntity
  8
0
 62
     7
 48
0.011603
370
    35
100
AcDbLine
 10
134.2485120955791
 20
83.73304239790835
 30
0.0
 11
133.7844100955791
 21
83.73304239790835
 31
0.0
  0
LINE
  5
3EA
330
1F
100
AcDbEntity
  8
0
 62
     7
 48
0.002467
370
    35
100
AcDbLine
 10
133.6853040955791
 20
88.73304239790835
 30
0.0
 11
133.7839940955791
 21
88.73304239790835
 31
0.0
  0
LINE
  5
3EB
330
1F
100
AcDbEntity
  8
0
 62
     7
 48
0.125
370
    13
100
AcDbLine
 10
133.6853040955791
 20
83.73304239790835
 30
0.0
 11
133.6853040955791
 21
88.73304239790835
 31
0.0
  0
LINE
  5
3EC
330
1F
100
AcDbEntity
  8
0
 62
     7
 48
0.151237
370
    13
100
AcDbLine
 10
106.1839960955791
 20
83.20829439790834
 30
0.0
 11
106.1839960955791
 21
89.25779039790835
 31
0.0
  0
LINE
  5
3ED
330
1F
100
AcDbEntity
  8
0
 62
     7
370
    13
100
AcDbLine
 10
106.5909740955791
 20
89.65772839790835
 30
0.0
 11
128.8839940955792
 21
89.27034839790835
 31
0.0
  0
ARC
  5
3EE
330
1F
100
AcDbEntity
  8
0
 62
     7
370
    13
100
AcDbCircle
 10
106.5839930955791
 20
89.25779039790835
 30
0.0
 40
0.4
100
AcDbArc
 50
89.00000099999886
 51
179.9999639999999
  0
ARC
  5
3EF
330
1F
100
AcDbEntity
  8
0
 62
     7
370
    13
100
AcDbCircle
 10
106.5839930955791
 20
83.20829439790834
 30
0.0
 40
0.4
100
AcDbArc
 50
179.9999949999995
 51
270.9999580000015
  0
LINE
  5
3F0
330
1F
100
AcDbEntity
  8
0
 62
     7
370
    13
100
AcDbLine
 10
106.5909740955791
 20
82.80835639790835
 30
0.0
 11
128.8839940955792
 21
83.19573639790835
 31
0.0
  0
LINE
  5
3F1
330
1F
100
AcDbEntity
  8
0
 62
     7
370
    13
100
AcDbLine
 10
106.5909740955791
 20
39.65772839790836
 30
0.0
 11
128.8839940955792
 21
39.27034839790835
 31
0.0
  0
ARC
  5
3F2
330
1F
100
AcDbEntity
  8
0
 62
     7
370
    13
100
AcDbCircle
 10
106.5839930955791
 20
39.25779039790837
 30
0.0
 40
0.4
100
AcDbArc
 50
89.00000099999886
 51
179.9999639999999
  0
LINE
  5
3F3
330
1F
100
AcDbEntity
  8
0
 62
     7
 48
0.151237
370
    13
100
AcDbLine
 10
106.1839960955791
 20
33.20829439790836
 30
0.0
 11
106.1839960955791
 21
39.25779039790837
 31
0.0
  0
ARC
  5
3F4
330
1F
100
AcDbEntity
  8
0
 62
     7
370
    13
100
AcDbCircle
 10
106.5839930955791
 20
33.20829439790836
 30
0.0
 40
0.4
100
AcDbArc
 50
179.9999949999995
 51
270.9999580000015
  0
LINE
  5
3F5
330
1F
100
AcDbEntity
  8
0
 62
     7
370
    13
100
AcDbLine
 10
106.5909740955791
 20
32.80835639790834
 30
0.0
 11
128.8839940955792
 21
33.19573639790835
 31
0.0
  0
LINE
  5
3F6
330
1F
100
AcDbEntity
  8
0
 62
     7
370
    35
100
AcDbLine
 10
128.8839940955792
 20
103.7330423979083
 30
0.0
 11
104.5297750955791
 21
103.5213803979083
 31
0.0
  0
ARC
  5
3F7
330
1F
100
AcDbEntity
  8
0
 62
     7
370
    35
100
AcDbCircle
 10
105.1450170955791
 20
102.7330423979083
 30
0.0
 40
1.0
100
AcDbArc
 50
127.9696589999996
 51
164.5439970000012
  0
LINE
  5
3F8
330
1F
100
AcDbEntity
  8
0
 62
     7
370
    35
100
AcDbLine
 10
128.8839940955792
 20
18.73304239790835
 30
0.0
 11
99.38399209557918
 21
18.73304239790835
 31
0.0
  0
ARC
  5
3F9
330
1F
100
AcDbEntity
  8
0
 62
     7
370
    35
100
AcDbCircle
 10
99.38399209557918
 20
19.73304239790835
 30
0.0
 40
1.0
100
AcDbArc
 50
180.0000050000005
 51
269.9999969999991
  0
LINE
  5
3FA
330
1F
100
AcDbEntity
  8
0
 62
     7
370
    35
100
AcDbLine
 10
98.38399209557918
 20
19.73304239790835
 30
0.0
 11
98.38399209557918
 21
42.53304139790833
 31
0.0
  0
LINE
  5
3FB
330
1F
100
AcDbEntity
  8
0
 62
     7
 48
0.1
370
    35
100
AcDbLine
 10
98.38399209557918
 20
78.03304139790835
 30
0.0
 11
98.38399209557918
 21
82.03304139790835
 31
0.0
  0
ARC
  5
3FC
330
1F
100
AcDbEntity
  8
0
 62
     7
370
    35
100
AcDbCircle
 10
99.38440809557915
 20
78.03345739790835
 30
0.0
 40
1.000413999999999
100
AcDbArc
 50
180.0237229999996
 51
269.9762760000005
  0
LINE
  5
3FD
330
1F
100
AcDbEntity
  8
0
 62
     7
 48
0.0425
370
    35
100
AcDbLine
 10
101.0839930955791
 20
77.03304239790835
 30
0.0
 11
99.38399209557918
 21
77.03304239790835
 31
0.0
  0
LINE
  5
3FE
330
1F
100
AcDbEntity
  8
0
 62
     7
 48
0.070711
370
    35
100
AcDbLine
 10
101.0839930955791
 20
77.03304239790835
 30
0.0
 11
103.0839930955791
 21
79.03304139790835
 31
0.0
  0
LINE
  5
3FF
330
1F
100
AcDbEntity
  8
0
 62
     7
 48
0.0325
370
    35
100
AcDbLine
 10
104.3839920955792
 20
79.03304139790835
 30
0.0
 11
103.0839930955791
 21
79.03304139790835
 31
0.0
  0
LINE
  5
400
330
1F
100
AcDbEntity
  8
0
 62
     7
370
    35
100
AcDbLine
 10
104.3839920955792
 20
43.53304139790833
 30
0.0
 11
104.3839920955792
 21
79.03304139790835
 31
0.0
  0
LINE
  5
401
330
1F
100
AcDbEntity
  8
0
 62
     7
 48
0.125
370
    35
100
AcDbLine
 10
104.3839920955792
 20
43.53304139790833
 30
0.0
 11
99.38399209557918
 21
43.53304139790833
 31
0.0
  0
ARC
  5
402
330
1F
100
AcDbEntity
  8
0
 62
     7
370
    35
100
AcDbCircle
 10
99.38399209557918
 20
42.53304139790833
 30
0.0
 40
1.0
100
AcDbArc
 50
90.00000300000095
 51
180.0000050000005
  0
LINE
  5
403
330
1F
100
AcDbEntity
  8
0
 62
     7
370
    35
100
AcDbLine
 10
104.1811840955791
 20
102.9995413979083
 30
0.0
 11
98.38399209557918
 21
82.03304139790835
 31
0.0
  0
LINE
  5
404
330
1F
100
AcDbEntity
  8
0
 62
     7
 48
0.125
370
    13
100
AcDbLine
 10
133.6853040955791
 20
33.73304239790835
 30
0.0
 11
133.6853040955791
 21
38.73304239790835
 31
0.0
  0
LINE
  5
405
330
1F
100
AcDbEntity
  8
0
 62
     7
 48
0.002467
370
    35
100
AcDbLine
 10
133.6853040955791
 20
33.73304239790835
 30
0.0
 11
133.7839940955791
 21
33.73304239790835
 31
0.0
  0
LINE
  5
406
330
1F
100
AcDbEntity
  8
0
 62
     7
 48
0.002467
370
    35
100
AcDbLine
 10
133.6853040955791
 20
38.73304239790835
 30
0.0
 11
133.7839940955791
 21
38.73304239790835
 31
0.0
  0
LINE
  5
407
330
1F
100
AcDbEntity
  8
0
 62
     7
 48
0.003739
370
    35
100
AcDbLine
 10
137.5344100955791
 20
38.73304239790835
 30
0.0
 11
137.6839690955791
 21
38.73304239790835
 31
0.0
  0
LINE
  5
408
330
1F
100
AcDbEntity
  8
0
 62
     7
 48
0.057147
370
    35
100
AcDbLine
 10
135.2485120955791
 20
38.73304239790835
 30
0.0
 11
137.5344100955791
 21
38.73304239790835
 31
0.0
  0
LINE
  5
409
330
1F
100
AcDbEntity
  8
0
 62
     7
 48
0.025
370
    35
100
AcDbLine
 10
134.2485120955791
 20
38.73304239790835
 30
0.0
 11
135.2485120955791
 21
38.73304239790835
 31
0.0
  0
LINE
  5
40A
330
1F
100
AcDbEntity
  8
0
 62
     7
 48
0.011603
370
    35
100
AcDbLine
 10
134.2485120955791
 20
38.73304239790835
 30
0.0
 11
133.7844100955791
 21
38.73304239790835
 31
0.0
  0
LINE
  5
40B
330
1F
100
AcDbEntity
  8
0
 62
     7
 48
0.003739
370
    35
100
AcDbLine
 10
137.5344100955791
 20
33.73304239790835
 30
0.0
 11
137.6839690955791
 21
33.73304239790835
 31
0.0
  0
LINE
  5
40C
330
1F
100
AcDbEntity
  8
0
 62
     7
 48
0.125
370
    13
100
AcDbLine
 10
135.2485120955791
 20
38.73304239790835
 30
0.0
 11
135.2485120955791
 21
33.73304239790835
 31
0.0
  0
LINE
  5
40D
330
1F
100
AcDbEntity
  8
0
 62
     7
 48
0.057147
370
    35
100
AcDbLine
 10
135.2485120955791
 20
33.73304239790835
 30
0.0
 11
137.5344100955791
 21
33.73304239790835
 31
0.0
  0
LINE
  5
40E
330
1F
100
AcDbEntity
  8
0
 62
     7
 48
0.025
370
    35
100
AcDbLine
 10
134.2485120955791
 20
33.73304239790835
 30
0.0
 11
135.2485120955791
 21
33.73304239790835
 31
0.0
  0
LINE
  5
40F
330
1F
100
AcDbEntity
  8
0
 62
     7
 48
0.011603
370
    35
100
AcDbLine
 10
134.2485120955791
 20
33.73304239790835
 30
0.0
 11
133.7844100955791
 21
33.73304239790835
 31
0.0
  0
LINE
  5
410
330
1F
100
AcDbEntity
  8
0
 62
     7
 48
0.125
370
    13
100
AcDbLine
 10
135.2485120955791
 20
83.73304239790835
 30
0.0
 11
135.2485120955791
 21
88.73304239790835
 31
0.0
  0
LINE
  5
411
330
1F
100
AcDbEntity
  8
0
 62
     7
 48
0.057147
370
    35
100
AcDbLine
 10
135.2485120955791
 20
88.73304239790835
 30
0.0
 11
137.5344100955791
 21
88.73304239790835
 31
0.0
  0
LINE
  5
412
330
1F
100
AcDbEntity
  8
0
 62
     7
 48
0.025
370
    35
100
AcDbLine
 10
134.2485120955791
 20
88.73304239790835
 30
0.0
 11
135.2485120955791
 21
88.73304239790835
 31
0.0
  0
LINE
  5
413
330
1F
100
AcDbEntity
  8
0
 62
     7
 48
0.011603
370
    35
100
AcDbLine
 10
134.2485120955791
 20
88.73304239790835
 30
0.0
 11
133.7844100955791
 21
88.73304239790835
 31
0.0
  0
LINE
  5
414
330
1F
100
AcDbEntity
  8
0
 62
     7
 48
0.0425
370
    35
100
AcDbLine
 10
98.78399409557914
 20
15.04495323037747
 30
0.0
 11
100.4839950955791
 21
15.04495323037747
 31
0.0
  0
LINE
  5
415
330
1F
100
AcDbEntity
  8
0
 62
     7
 48
0.035
370
    35
100
AcDbLine
 10
98.48399509557914
 20
14.74495423037746
 30
0.0
 11
98.48399509557914
 21
13.34495223037746
 31
0.0
  0
ARC
  5
416
330
1F
100
AcDbEntity
  8
0
 62
     7
370
    35
100
AcDbCircle
 10
98.78399409557914
 20
13.34495223037746
 30
0.0
 40
0.3
100
AcDbArc
 50
179.9999949999995
 51
269.9999969999991
  0
ARC
  5
417
330
1F
100
AcDbEntity
  8
0
 62
     7
370
    35
100
AcDbCircle
 10
98.78399409557914
 20
14.74495423037746
 30
0.0
 40
0.3
100
AcDbArc
 50
90.00000300000095
 51
147.9869899999987
  0
LINE
  5
418
330
1F
100
AcDbEntity
  8
0
 62
     7
 48
0.055
370
    13
100
AcDbLine
 10
101.6839960955791
 20
43.53303239790835
 30
0.0
 11
101.6839960955791
 21
45.73304239790835
 31
0.0
  0
LINE
  5
419
330
1F
100
AcDbEntity
  8
0
 62
     7
 48
0.035
370
    35
100
AcDbLine
 10
103.0839930955791
 20
45.73304239790835
 30
0.0
 11
101.6839960955791
 21
45.73304239790835
 31
0.0
  0
LINE
  5
41A
330
1F
100
AcDbEntity
  8
0
 62
     7
 48
0.055
370
    13
100
AcDbLine
 10
103.0839930955791
 20
43.53303239790835
 30
0.0
 11
103.0839930955791
 21
45.73304239790835
 31
0.0
  0
LINE
  5
41B
330
1F
100
AcDbEntity
  8
0
 62
     7
 48
0.057206
370
    35
100
AcDbLine
 10
104.2839940955791
 20
16.25669223037746
 30
0.0
 11
104.2839940955792
 21
18.73304239790835
 31
0.0
  0
LINE
  5
41C
330
1F
100
AcDbEntity
  8
0
 62
     7
 48
0.040765
370
    35
100
AcDbLine
 10
104.2839940955791
 20
14.97555223037747
 30
0.0
 11
104.2839940955791
 21
13.34495223037746
 31
0.0
  0
LINE
  5
41D
330
1F
100
AcDbEntity
  8
0
 62
     7
 48
0.032028
370
    35
100
AcDbLine
 10
104.2839940955791
 20
16.25669223037746
 30
0.0
 11
104.2839940955791
 21
14.97555223037747
 31
0.0
  0
ARC
  5
41E
330
1F
100
AcDbEntity
  8
0
 62
     7
370
    35
100
AcDbCircle
 10
103.9839950955791
 20
13.34495223037746
 30
0.0
 40
0.3
100
AcDbArc
 50
269.9999969999991
 51
0.0
  0
LINE
  5
41F
330
1F
100
AcDbEntity
  8
0
 62
     7
 48
0.046324
370
    13
100
AcDbLine
 10
103.9839950955791
 20
14.89790423037746
 30
0.0
 11
103.9839950955791
 21
13.04495323037747
 31
0.0
  0
LINE
  5
420
330
1F
100
AcDbEntity
  8
0
 62
     7
 48
0.032029
370
    13
100
AcDbLine
 10
103.9839950955791
 20
16.17904723037745
 30
0.0
 11
103.9839950955791
 21
14.89790423037746
 31
0.0
  0
ELLIPSE
  5
421
330
1F
100
AcDbEntity
  8
0
 62
     7
370
    13
100
AcDbEllipse
 10
103.0842950955791
 20
16.17949723037745
 30
0.0
 11
0.0456021784715514
 21
3.005565308731606
 31
0.0
210
0.0
220
0.0
230
1.0
 40
0.2992814881343077
 41
-1.566405148222047
 42
-0.5510350119106358
  0
LINE
  5
422
330
1F
100
AcDbEntity
  8
0
 62
     7
 48
0.032028
370
    35
100
AcDbLine
 10
100.4839950955791
 20
14.97555223037747
 30
0.0
 11
100.4839950955791
 21
16.25669223037746
 31
0.0
  0
LINE
  5
423
330
1F
100
AcDbEntity
  8
0
 62
     7
 48
0.040765
370
    35
100
AcDbLine
 10
100.4839950955791
 20
14.97555223037747
 30
0.0
 11
100.4839950955791
 21
13.34495223037746
 31
0.0
  0
LINE
  5
424
330
1F
100
AcDbEntity
  8
0
 62
     7
 48
0.057206
370
    35
100
AcDbLine
 10
100.4839950955791
 20
16.25669223037746
 30
0.0
 11
100.4839950955791
 21
18.73304239790835
 31
0.0
  0
LINE
  5
425
330
1F
100
AcDbEntity
  8
0
 62
     7
 48
0.046324
370
    13
100
AcDbLine
 10
100.7839940955791
 20
14.89790423037746
 30
0.0
 11
100.7839940955791
 21
13.04495323037747
 31
0.0
  0
LINE
  5
426
330
1F
100
AcDbEntity
  8
0
 62
     7
 48
0.08
370
    35
100
AcDbLine
 10
100.7839940955791
 20
13.04495323037747
 30
0.0
 11
103.9839950955791
 21
13.04495323037747
 31
0.0
  0
LINE
  5
427
330
1F
100
AcDbEntity
  8
0
 62
     7
 48
0.032029
370
    13
100
AcDbLine
 10
100.7839940955791
 20
14.89790423037746
 30
0.0
 11
100.7839940955791
 21
16.17904723037745
 31
0.0
  0
ELLIPSE
  5
428
330
1F
100
AcDbEntity
  8
0
 62
     7
370
    13
100
AcDbEllipse
 10
101.6837130955791
 20
16.17946723037747
 30
0.0
 11
-0.0584791183594507
 21
2.917595213434286
 31
0.0
210
0.0
220
0.0
230
1.0
 40
0.3082617645086919
 41
0.4987352716589264
 42
1.564762523621442
  0
ARC
  5
429
330
1F
100
AcDbEntity
  8
0
 62
     7
370
    35
100
AcDbCircle
 10
100.7839940955791
 20
13.34495223037746
 30
0.0
 40
0.3
100
AcDbArc
 50
179.9999949999995
 51
269.9999969999991
  0
LINE
  5
42A
330
1F
100
AcDbEntity
  8
0
 62
     7
 48
0.05
370
    35
100
AcDbLine
 10
98.78399409557914
 20
13.04495323037747
 30
0.0
 11
100.7839940955791
 21
13.04495323037747
 31
0.0
  0
ARC
  5
42B
330
1F
100
AcDbEntity
  8
0
 62
     7
370
    35
100
AcDbCircle
 10
98.79232509557915
 20
14.74215423037745
 30
0.0
 40
0.308463
100
AcDbArc
 50
148.3659289999998
 51
179.4795309999996
  0
DIMENSION
  5
42C
330
1F
100
AcDbEntity
  8
QUOTE
 62
     1
100
AcDbDimension
  2
*D9
 10
93.58715576383174
 20
103.5449532303774
 30
0.0
 11
93.5871557638317
 21
58.29495323037748
 31
0.0
 70
    32
 71
     5
 42
90.5
  3
Standard
100
AcDbAlignedDimension
 13
98.78399409557914
 23
13.04495323037747
 33
0.0
 14
104.3872742636045
 24
103.5449532303774
 34
0.0
 50
90.0
100
AcDbRotatedDimension
1001
ACAD
1000
DSTYLE
1002
{
1070
   271
1070
     1
1070
    41
1040
5.0
1070
   140
1040
5.0
1002
}
  0
DIMENSION
  5
42D
330
1F
100
AcDbEntity
  8
QUOTE
 62
     1
100
AcDbDimension
  2
*D10
 10
148.3839940955791
 20
111.221370986839
 30
0.0
 11
126.3856341795918
 21
111.221370986839
 31
0.0
 70
    32
 71
     5
 42
43.99671983197464
  3
Standard
100
AcDbAlignedDimension
 13
104.3872742636045
 23
103.5449532303774
 33
0.0
 14
148.3839940955791
 24
101.0845893979083
 34
0.0
100
AcDbRotatedDimension
1001
ACAD
1000
DSTYLE
1002
{
1070
   271
1070
     1
1070
    41
1040
5.0
1070
   140
1040
5.0
1002
}
  0
DIMENSION
  5
42E
330
1F
100
AcDbEntity
  8
QUOTE
 62
     1
100
AcDbDimension
  2
*D11
 10
167.3872742636044
 20
3.50245762467091
 30
0.0
 11
135.8872742636045
 21
3.50245762467091
 31
0.0
 70
   160
 71
     5
 42
62.99999999999994
  3
Standard
100
AcDbAlignedDimension
 13
104.3872742636045
 23
18.73304239790835
 33
0.0
 14
167.3872742636044
 24
40.86053139790834
 34
0.0
100
AcDbRotatedDimension
1001
ACAD
1000
DSTYLE
1002
{
1070
   271
1070
     1
1070
    41
1040
5.0
1070
   140
1040
5.0
1002
}
  0
SOLID
  5
42F
330
1F
100
AcDbEntity
  8
0
 62
     1
370
     5
100
AcDbTrace
 10
29.79977840649599
 20
42.72272535784838
 30
0.0
 11
29.815399406496
 21
42.56147035784834
 31
0.0
 12
29.81148540649599
 22
42.64249435784836
 32
0.0
 13
29.81148540649599
 23
42.64249435784836
 33
0.0
  0
LINE
  5
430
330
1F
100
AcDbEntity
  8
0
 62
     1
 48
0.004117
370
    13
100
AcDbLine
 10
22.65539940649597
 20
41.72147435784836
 30
0.0
 11
22.49152440649601
 21
41.73761835784836
 31
0.0
  0
LINE
  5
431
330
1F
100
AcDbEntity
  8
0
 62
     1
 48
0.004117
370
    13
100
AcDbLine
 10
22.49152440649601
 20
41.73761835784836
 30
0.0
 11
22.33394240649602
 21
41.78540835784838
 31
0.0
  0
LINE
  5
432
330
1F
100
AcDbEntity
  8
0
 62
     1
 48
0.004117
370
    13
100
AcDbLine
 10
22.33394240649602
 20
41.78540835784838
 30
0.0
 11
22.18872140649597
 21
41.86304535784836
 31
0.0
  0
LINE
  5
433
330
1F
100
AcDbEntity
  8
0
 62
     1
 48
0.004117
370
    13
100
AcDbLine
 10
22.18872140649597
 20
41.86304535784836
 30
0.0
 11
22.06142840649602
 21
41.96750635784837
 31
0.0
  0
LINE
  5
434
330
1F
100
AcDbEntity
  8
0
 62
     1
 48
0.004117
370
    13
100
AcDbLine
 10
22.06142840649602
 20
41.96750635784837
 30
0.0
 11
21.95696640649601
 21
42.09479535784834
 31
0.0
  0
LINE
  5
435
330
1F
100
AcDbEntity
  8
0
 62
     1
 48
0.004117
370
    13
100
AcDbLine
 10
21.95696640649601
 20
42.09479535784834
 30
0.0
 11
21.87933740649601
 21
42.24002835784836
 31
0.0
  0
LINE
  5
436
330
1F
100
AcDbEntity
  8
0
 62
     1
 48
0.004116
370
    13
100
AcDbLine
 10
21.87933740649601
 20
42.24002835784836
 30
0.0
 11
21.83153940649601
 21
42.39759135784834
 31
0.0
  0
LINE
  5
437
330
1F
100
AcDbEntity
  8
0
 62
     1
 48
0.004117
370
    13
100
AcDbLine
 10
21.83153940649601
 20
42.39759135784834
 30
0.0
 11
21.815399406496
 21
42.56147035784834
 31
0.0
  0
LINE
  5
438
330
1F
100
AcDbEntity
  8
0
 62
     1
 48
0.004117
370
    13
100
AcDbLine
 10
21.815399406496
 20
42.56147035784834
 30
0.0
 11
21.83153940649601
 21
42.72534935784835
 31
0.0
  0
LINE
  5
439
330
1F
100
AcDbEntity
  8
0
 62
     1
 48
0.004117
370
    13
100
AcDbLine
 10
21.83153940649601
 20
42.72534935784835
 30
0.0
 11
21.87933740649601
 21
42.88294235784838
 31
0.0
  0
LINE
  5
43A
330
1F
100
AcDbEntity
  8
0
 62
     1
 48
0.004116
370
    13
100
AcDbLine
 10
21.87933740649601
 20
42.88294235784838
 30
0.0
 11
21.95696640649601
 21
43.02814535784835
 31
0.0
  0
LINE
  5
43B
330
1F
100
AcDbEntity
  8
0
 62
     1
 48
0.004117
370
    13
100
AcDbLine
 10
21.95696640649601
 20
43.02814535784835
 30
0.0
 11
22.06142840649602
 21
43.15546435784836
 31
0.0
  0
LINE
  5
43C
330
1F
100
AcDbEntity
  8
0
 62
     1
 48
0.004117
370
    13
100
AcDbLine
 10
22.06142840649602
 20
43.15546435784836
 30
0.0
 11
22.18872140649597
 21
43.25992635784837
 31
0.0
  0
LINE
  5
43D
330
1F
100
AcDbEntity
  8
0
 62
     1
 48
0.004116
370
    13
100
AcDbLine
 10
22.18872140649597
 20
43.25992635784837
 30
0.0
 11
22.33394240649602
 21
43.33753235784837
 31
0.0
  0
LINE
  5
43E
330
1F
100
AcDbEntity
  8
0
 62
     1
 48
0.004117
370
    13
100
AcDbLine
 10
22.33394240649602
 20
43.33753235784837
 30
0.0
 11
22.49152440649601
 21
43.38535335784837
 31
0.0
  0
LINE
  5
43F
330
1F
100
AcDbEntity
  8
0
 62
     1
 48
0.004117
370
    13
100
AcDbLine
 10
22.49152440649601
 20
43.38535335784837
 30
0.0
 11
22.65539940649597
 21
43.40146635784839
 31
0.0
  0
LINE
  5
440
330
1F
100
AcDbEntity
  8
0
 62
     1
 48
0.011
370
    13
100
AcDbLine
 10
22.65539940649597
 20
43.40146635784839
 30
0.0
 11
23.09539840649597
 21
43.40146635784839
 31
0.0
  0
LINE
  5
441
330
1F
100
AcDbEntity
  8
0
 62
     1
 48
0.012
370
    13
100
AcDbLine
 10
23.09539840649597
 20
43.40146635784839
 30
0.0
 11
23.09539840649597
 21
42.92148635784838
 31
0.0
  0
LINE
  5
442
330
1F
100
AcDbEntity
  8
0
 62
     1
 48
0.016
370
    13
100
AcDbLine
 10
23.09539840649597
 20
42.92148635784838
 30
0.0
 11
22.45539940649599
 21
42.92148635784838
 31
0.0
  0
LINE
  5
443
330
1F
100
AcDbEntity
  8
0
 62
     1
 48
0.018
370
    13
100
AcDbLine
 10
22.45539940649599
 20
42.92148635784838
 30
0.0
 11
22.45539940649599
 21
42.20148535784836
 31
0.0
  0
LINE
  5
444
330
1F
100
AcDbEntity
  8
0
 62
     1
 48
0.003
370
    13
100
AcDbLine
 10
22.45539940649599
 20
42.20148535784836
 30
0.0
 11
22.57539840649599
 21
42.20148535784836
 31
0.0
  0
LINE
  5
445
330
1F
100
AcDbEntity
  8
0
 62
     1
 48
0.015
370
    13
100
AcDbLine
 10
22.57539840649599
 20
42.20148535784836
 30
0.0
 11
22.57539840649599
 21
42.80149135784836
 31
0.0
  0
LINE
  5
446
330
1F
100
AcDbEntity
  8
0
 62
     1
 48
0.013
370
    13
100
AcDbLine
 10
22.57539840649599
 20
42.80149135784836
 30
0.0
 11
23.09539840649597
 21
42.80149135784836
 31
0.0
  0
LINE
  5
447
330
1F
100
AcDbEntity
  8
0
 62
     1
 48
0.027
370
    13
100
AcDbLine
 10
23.09539840649597
 20
42.80149135784836
 30
0.0
 11
23.09539840649597
 21
41.72147435784836
 31
0.0
  0
LINE
  5
448
330
1F
100
AcDbEntity
  8
0
 62
     1
 48
0.011
370
    13
100
AcDbLine
 10
23.09539840649597
 20
41.72147435784836
 30
0.0
 11
22.65539940649597
 21
41.72147435784836
 31
0.0
  0
LINE
  5
449
330
1F
100
AcDbEntity
  8
0
 62
     1
 48
0.032
370
    13
100
AcDbLine
 10
23.21539740649598
 20
41.72147435784836
 30
0.0
 11
24.49539940649601
 21
41.72147435784836
 31
0.0
  0
LINE
  5
44A
330
1F
100
AcDbEntity
  8
0
 62
     1
 48
0.012
370
    13
100
AcDbLine
 10
24.49539940649601
 20
41.72147435784836
 30
0.0
 11
24.49539940649601
 21
42.20148535784836
 31
0.0
  0
LINE
  5
44B
330
1F
100
AcDbEntity
  8
0
 62
     1
 48
0.019
370
    13
100
AcDbLine
 10
24.49539940649601
 20
42.20148535784836
 30
0.0
 11
23.73540140649601
 21
42.20148535784836
 31
0.0
  0
LINE
  5
44C
330
1F
100
AcDbEntity
  8
0
 62
     1
 48
0.003
370
    13
100
AcDbLine
 10
23.73540140649601
 20
42.20148535784836
 30
0.0
 11
23.73540140649601
 21
42.32148035784837
 31
0.0
  0
LINE
  5
44D
330
1F
100
AcDbEntity
  8
0
 62
     1
 48
0.019
370
    13
100
AcDbLine
 10
23.73540140649601
 20
42.32148035784837
 30
0.0
 11
24.49539940649601
 21
42.32148035784837
 31
0.0
  0
LINE
  5
44E
330
1F
100
AcDbEntity
  8
0
 62
     1
 48
0.012
370
    13
100
AcDbLine
 10
24.49539940649601
 20
42.32148035784837
 30
0.0
 11
24.49539940649601
 21
42.80149135784836
 31
0.0
  0
LINE
  5
44F
330
1F
100
AcDbEntity
  8
0
 62
     1
 48
0.019
370
    13
100
AcDbLine
 10
24.49539940649601
 20
42.80149135784836
 30
0.0
 11
23.73540140649601
 21
42.80149135784836
 31
0.0
  0
LINE
  5
450
330
1F
100
AcDbEntity
  8
0
 62
     1
 48
0.003
370
    13
100
AcDbLine
 10
23.73540140649601
 20
42.80149135784836
 30
0.0
 11
23.73540140649601
 21
42.92148635784838
 31
0.0
  0
LINE
  5
451
330
1F
100
AcDbEntity
  8
0
 62
     1
 48
0.005
370
    13
100
AcDbLine
 10
23.73540140649601
 20
42.92148635784838
 30
0.0
 11
23.93539840649601
 21
42.92148635784838
 31
0.0
  0
LINE
  5
452
330
1F
100
AcDbEntity
  8
0
 62
     1
 48
0.012
370
    13
100
AcDbLine
 10
23.93539840649601
 20
42.92148635784838
 30
0.0
 11
23.93539840649601
 21
43.40146635784839
 31
0.0
  0
LINE
  5
453
330
1F
100
AcDbEntity
  8
0
 62
     1
 48
0.018
370
    13
100
AcDbLine
 10
23.93539840649601
 20
43.40146635784839
 30
0.0
 11
23.21539740649598
 21
43.40146635784839
 31
0.0
  0
LINE
  5
454
330
1F
100
AcDbEntity
  8
0
 62
     1
 48
0.042
370
    13
100
AcDbLine
 10
23.21539740649598
 20
43.40146635784839
 30
0.0
 11
23.21539740649598
 21
41.72147435784836
 31
0.0
  0
LINE
  5
455
330
1F
100
AcDbEntity
  8
0
 62
     1
 48
0.012322
370
    13
100
AcDbLine
 10
25.30829240649598
 20
41.72147435784836
 30
0.0
 11
24.815399406496
 21
41.72147435784836
 31
0.0
  0
LINE
  5
456
330
1F
100
AcDbEntity
  8
0
 62
     1
 48
0.030806
370
    13
100
AcDbLine
 10
24.815399406496
 20
41.72147435784836
 30
0.0
 11
24.53539740649598
 21
42.92148635784838
 31
0.0
  0
LINE
  5
457
330
1F
100
AcDbEntity
  8
0
 62
     1
 48
0.012
370
    13
100
AcDbLine
 10
24.53539740649598
 20
42.92148635784838
 30
0.0
 11
24.05540140649601
 21
42.92148635784838
 31
0.0
  0
LINE
  5
458
330
1F
100
AcDbEntity
  8
0
 62
     1
 48
0.012
370
    13
100
AcDbLine
 10
24.05540140649601
 20
42.92148635784838
 30
0.0
 11
24.05540140649601
 21
43.40146635784839
 31
0.0
  0
LINE
  5
459
330
1F
100
AcDbEntity
  8
0
 62
     1
 48
0.021522
370
    13
100
AcDbLine
 10
24.05540140649601
 20
43.40146635784839
 30
0.0
 11
24.91629440649598
 21
43.40146635784839
 31
0.0
  0
LINE
  5
45A
330
1F
100
AcDbEntity
  8
0
 62
     1
 48
0.020423
370
    13
100
AcDbLine
 10
24.91629440649598
 20
43.40146635784839
 30
0.0
 11
25.10192140649599
 21
42.60593435784835
 31
0.0
  0
LINE
  5
45B
330
1F
100
AcDbEntity
  8
0
 62
     1
 48
0.020282
370
    13
100
AcDbLine
 10
25.10192140649599
 20
42.60593435784835
 30
0.0
 11
25.261028406496
 21
43.40146635784839
 31
0.0
  0
LINE
  5
45C
330
1F
100
AcDbEntity
  8
0
 62
     1
 48
0.012
370
    13
100
AcDbLine
 10
25.261028406496
 20
43.40146635784839
 30
0.0
 11
25.74103240649601
 21
43.40146635784839
 31
0.0
  0
LINE
  5
45D
330
1F
100
AcDbEntity
  8
0
 62
     1
 48
0.019008
370
    13
100
AcDbLine
 10
25.74103240649601
 20
43.40146635784839
 30
0.0
 11
25.91380340649602
 21
42.66101835784837
 31
0.0
  0
LINE
  5
45E
330
1F
100
AcDbEntity
  8
0
 62
     1
 48
0.018878
370
    13
100
AcDbLine
 10
25.91380340649602
 20
42.66101835784837
 30
0.0
 11
26.06189340649598
 21
43.40146635784839
 31
0.0
  0
LINE
  5
45F
330
1F
100
AcDbEntity
  8
0
 62
     1
 48
0.023838
370
    13
100
AcDbLine
 10
26.06189340649598
 20
43.40146635784839
 30
0.0
 11
27.01540040649599
 21
43.40146635784839
 31
0.0
  0
LINE
  5
460
330
1F
100
AcDbEntity
  8
0
 62
     1
 48
0.012
370
    13
100
AcDbLine
 10
27.01540040649599
 20
43.40146635784839
 30
0.0
 11
27.01540040649599
 21
42.92148635784838
 31
0.0
  0
LINE
  5
461
330
1F
100
AcDbEntity
  8
0
 62
     1
 48
0.014
370
    13
100
AcDbLine
 10
27.01540040649599
 20
42.92148635784838
 30
0.0
 11
26.45539940649598
 21
42.92148635784838
 31
0.0
  0
LINE
  5
462
330
1F
100
AcDbEntity
  8
0
 62
     1
 48
0.030594
370
    13
100
AcDbLine
 10
26.45539940649598
 20
42.92148635784838
 30
0.0
 11
26.21539740649598
 21
41.72147435784836
 31
0.0
  0
LINE
  5
463
330
1F
100
AcDbEntity
  8
0
 62
     1
 48
0.012238
370
    13
100
AcDbLine
 10
26.21539740649598
 20
41.72147435784836
 30
0.0
 11
25.72589540649597
 21
41.72147435784836
 31
0.0
  0
LINE
  5
464
330
1F
100
AcDbEntity
  8
0
 62
     1
 48
0.02474
370
    13
100
AcDbLine
 10
25.72589540649597
 20
41.72147435784836
 30
0.0
 11
25.50103440649599
 21
42.6851883578484
 31
0.0
  0
LINE
  5
465
330
1F
100
AcDbEntity
  8
0
 62
     1
 48
0.02457
370
    13
100
AcDbLine
 10
25.50103440649599
 20
42.6851883578484
 30
0.0
 11
25.30829240649598
 21
41.72147435784836
 31
0.0
  0
LINE
  5
466
330
1F
100
AcDbEntity
  8
0
 62
     1
 48
0.012
370
    13
100
AcDbLine
 10
26.53539740649597
 20
41.72147435784836
 30
0.0
 11
27.01540040649599
 21
41.72147435784836
 31
0.0
  0
LINE
  5
467
330
1F
100
AcDbEntity
  8
0
 62
     1
 48
0.027
370
    13
100
AcDbLine
 10
27.01540040649599
 20
41.72147435784836
 30
0.0
 11
27.01540040649599
 21
42.80149135784836
 31
0.0
  0
LINE
  5
468
330
1F
100
AcDbEntity
  8
0
 62
     1
 48
0.027
370
    13
100
AcDbLine
 10
26.53539740649597
 20
42.80149135784836
 30
0.0
 11
26.53539740649597
 21
41.72147435784836
 31
0.0
  0
LINE
  5
469
330
1F
100
AcDbEntity
  8
0
 62
     1
 48
0.032
370
    13
100
AcDbLine
 10
27.13539940649599
 20
41.72147435784836
 30
0.0
 11
28.41539840649602
 21
41.72147435784836
 31
0.0
  0
LINE
  5
46A
330
1F
100
AcDbEntity
  8
0
 62
     1
 48
0.027
370
    13
100
AcDbLine
 10
28.41539840649602
 20
41.72147435784836
 30
0.0
 11
28.41539840649602
 21
42.80149135784836
 31
0.0
  0
LINE
  5
46B
330
1F
100
AcDbEntity
  8
0
 62
     1
 48
0.019
370
    13
100
AcDbLine
 10
28.41539840649602
 20
42.80149135784836
 30
0.0
 11
27.65539940649598
 21
42.80149135784836
 31
0.0
  0
LINE
  5
46C
330
1F
100
AcDbEntity
  8
0
 62
     1
 48
0.003
370
    13
100
AcDbLine
 10
27.65539940649598
 20
42.80149135784836
 30
0.0
 11
27.65539940649598
 21
42.92148635784838
 31
0.0
  0
LINE
  5
46D
330
1F
100
AcDbEntity
  8
0
 62
     1
 48
0.019
370
    13
100
AcDbLine
 10
27.65539940649598
 20
42.92148635784838
 30
0.0
 11
28.41539840649602
 21
42.92148635784838
 31
0.0
  0
LINE
  5
46E
330
1F
100
AcDbEntity
  8
0
 62
     1
 48
0.012
370
    13
100
AcDbLine
 10
28.41539840649602
 20
42.92148635784838
 30
0.0
 11
28.41539840649602
 21
43.40146635784839
 31
0.0
  0
LINE
  5
46F
330
1F
100
AcDbEntity
  8
0
 62
     1
 48
0.032
370
    13
100
AcDbLine
 10
28.41539840649602
 20
43.40146635784839
 30
0.0
 11
27.13539940649599
 21
43.40146635784839
 31
0.0
  0
LINE
  5
470
330
1F
100
AcDbEntity
  8
0
 62
     1
 48
0.027
370
    13
100
AcDbLine
 10
27.13539940649599
 20
43.40146635784839
 30
0.0
 11
27.13539940649599
 21
42.32148035784837
 31
0.0
  0
LINE
  5
471
330
1F
100
AcDbEntity
  8
0
 62
     1
 48
0.019
370
    13
100
AcDbLine
 10
27.13539940649599
 20
42.32148035784837
 30
0.0
 11
27.89539740649599
 21
42.32148035784837
 31
0.0
  0
LINE
  5
472
330
1F
100
AcDbEntity
  8
0
 62
     1
 48
0.003
370
    13
100
AcDbLine
 10
27.89539740649599
 20
42.32148035784837
 30
0.0
 11
27.89539740649599
 21
42.20148535784836
 31
0.0
  0
LINE
  5
473
330
1F
100
AcDbEntity
  8
0
 62
     1
 48
0.019
370
    13
100
AcDbLine
 10
27.89539740649599
 20
42.20148535784836
 30
0.0
 11
27.13539940649599
 21
42.20148535784836
 31
0.0
  0
LINE
  5
474
330
1F
100
AcDbEntity
  8
0
 62
     1
 48
0.012
370
    13
100
AcDbLine
 10
27.13539940649599
 20
42.20148535784836
 30
0.0
 11
27.13539940649599
 21
41.72147435784836
 31
0.0
  0
LINE
  5
475
330
1F
100
AcDbEntity
  8
0
 62
     1
 48
0.004117
370
    13
100
AcDbLine
 10
28.97539940649597
 20
41.72147435784836
 30
0.0
 11
29.13927540649599
 21
41.73761835784836
 31
0.0
  0
LINE
  5
476
330
1F
100
AcDbEntity
  8
0
 62
     1
 48
0.004117
370
    13
100
AcDbLine
 10
29.13927540649599
 20
41.73761835784836
 30
0.0
 11
29.29685240649599
 21
41.78540835784838
 31
0.0
  0
LINE
  5
477
330
1F
100
AcDbEntity
  8
0
 62
     1
 48
0.004117
370
    13
100
AcDbLine
 10
29.29685240649599
 20
41.78540835784838
 30
0.0
 11
29.44207840649596
 21
41.86304535784836
 31
0.0
  0
LINE
  5
478
330
1F
100
AcDbEntity
  8
0
 62
     1
 48
0.004117
370
    13
100
AcDbLine
 10
29.44207840649596
 20
41.86304535784836
 30
0.0
 11
29.56937040649598
 21
41.96750635784837
 31
0.0
  0
LINE
  5
479
330
1F
100
AcDbEntity
  8
0
 62
     1
 48
0.004117
370
    13
100
AcDbLine
 10
29.56937040649598
 20
41.96750635784837
 30
0.0
 11
29.67383240649599
 21
42.09479535784834
 31
0.0
  0
LINE
  5
47A
330
1F
100
AcDbEntity
  8
0
 62
     1
 48
0.004117
370
    13
100
AcDbLine
 10
29.67383240649599
 20
42.09479535784834
 30
0.0
 11
29.751457406496
 21
42.24002835784836
 31
0.0
  0
LINE
  5
47B
330
1F
100
AcDbEntity
  8
0
 62
     1
 48
0.004116
370
    13
100
AcDbLine
 10
29.751457406496
 20
42.24002835784836
 30
0.0
 11
29.79925940649599
 21
42.39759135784834
 31
0.0
  0
LINE
  5
47C
330
1F
100
AcDbEntity
  8
0
 62
     1
 48
0.004117
370
    13
100
AcDbLine
 10
29.79925940649599
 20
42.39759135784834
 30
0.0
 11
29.815399406496
 21
42.56147035784834
 31
0.0
  0
LINE
  5
47D
330
1F
100
AcDbEntity
  8
0
 62
     1
 48
0.002028
370
    13
100
AcDbLine
 10
29.815399406496
 20
42.56147035784834
 30
0.0
 11
29.81148540649599
 21
42.64249435784836
 31
0.0
  0
LINE
  5
47E
330
1F
100
AcDbEntity
  8
0
 62
     1
 48
0.002027
370
    13
100
AcDbLine
 10
29.81148540649599
 20
42.64249435784836
 30
0.0
 11
29.79977840649599
 21
42.72272535784838
 31
0.0
  0
LINE
  5
47F
330
1F
100
AcDbEntity
  8
0
 62
     1
 48
0.002028
370
    13
100
AcDbLine
 10
29.79977840649599
 20
42.72272535784838
 30
0.0
 11
29.78038440649601
 21
42.80149135784836
 31
0.0
  0
LINE
  5
480
330
1F
100
AcDbEntity
  8
0
 62
     1
 48
0.018125
370
    13
100
AcDbLine
 10
29.78038440649601
 20
42.80149135784836
 30
0.0
 11
29.055401406496
 21
42.80149135784836
 31
0.0
  0
LINE
  5
481
330
1F
100
AcDbEntity
  8
0
 62
     1
 48
0.003
370
    13
100
AcDbLine
 10
29.055401406496
 20
42.80149135784836
 30
0.0
 11
29.055401406496
 21
42.92148635784838
 31
0.0
  0
LINE
  5
482
330
1F
100
AcDbEntity
  8
0
 62
     1
 48
0.016974
370
    13
100
AcDbLine
 10
29.055401406496
 20
42.92148635784838
 30
0.0
 11
29.73434440649601
 21
42.92148635784838
 31
0.0
  0
LINE
  5
483
330
1F
100
AcDbEntity
  8
0
 62
     1
 48
0.004727
370
    13
100
AcDbLine
 10
29.73434440649601
 20
42.92148635784838
 30
0.0
 11
29.63459840649603
 21
43.08210035784838
 31
0.0
  0
LINE
  5
484
330
1F
100
AcDbEntity
  8
0
 62
     1
 48
0.004728
370
    13
100
AcDbLine
 10
29.63459840649603
 20
43.08210035784838
 30
0.0
 11
29.50144640649597
 21
43.21637735784839
 31
0.0
  0
LINE
  5
485
330
1F
100
AcDbEntity
  8
0
 62
     1
 48
0.004727
370
    13
100
AcDbLine
 10
29.50144640649597
 20
43.21637735784839
 30
0.0
 11
29.34164040649603
 21
43.31742135784838
 31
0.0
  0
LINE
  5
486
330
1F
100
AcDbEntity
  8
0
 62
     1
 48
0.004727
370
    13
100
AcDbLine
 10
29.34164040649603
 20
43.31742135784838
 30
0.0
 11
29.16328140649597
 21
43.38019635784838
 31
0.0
  0
LINE
  5
487
330
1F
100
AcDbEntity
  8
0
 62
     1
 48
0.004727
370
    13
100
AcDbLine
 10
29.16328140649597
 20
43.38019635784838
 30
0.0
 11
28.97539940649597
 21
43.40146635784839
 31
0.0
  0
LINE
  5
488
330
1F
100
AcDbEntity
  8
0
 62
     1
 48
0.011
370
    13
100
AcDbLine
 10
28.97539940649597
 20
43.40146635784839
 30
0.0
 11
28.53539740649598
 21
43.40146635784839
 31
0.0
  0
LINE
  5
489
330
1F
100
AcDbEntity
  8
0
 62
     1
 48
0.027
370
    13
100
AcDbLine
 10
28.53539740649598
 20
43.40146635784839
 30
0.0
 11
28.53539740649598
 21
42.32148035784837
 31
0.0
  0
LINE
  5
48A
330
1F
100
AcDbEntity
  8
0
 62
     1
 48
0.016
370
    13
100
AcDbLine
 10
28.53539740649598
 20
42.32148035784837
 30
0.0
 11
29.17540040649601
 21
42.32148035784837
 31
0.0
  0
LINE
  5
48B
330
1F
100
AcDbEntity
  8
0
 62
     1
 48
0.003
370
    13
100
AcDbLine
 10
29.17540040649601
 20
42.32148035784837
 30
0.0
 11
29.17540040649601
 21
42.20148535784836
 31
0.0
  0
LINE
  5
48C
330
1F
100
AcDbEntity
  8
0
 62
     1
 48
0.016
370
    13
100
AcDbLine
 10
29.17540040649601
 20
42.20148535784836
 30
0.0
 11
28.53539740649598
 21
42.20148535784836
 31
0.0
  0
LINE
  5
48D
330
1F
100
AcDbEntity
  8
0
 62
     1
 48
0.012
370
    13
100
AcDbLine
 10
28.53539740649598
 20
42.20148535784836
 30
0.0
 11
28.53539740649598
 21
41.72147435784836
 31
0.0
  0
LINE
  5
48E
330
1F
100
AcDbEntity
  8
0
 62
     1
 48
0.011
370
    13
100
AcDbLine
 10
28.53539740649598
 20
41.72147435784836
 30
0.0
 11
28.97539940649597
 21
41.72147435784836
 31
0.0
  0
LINE
  5
48F
330
1F
100
AcDbEntity
  8
0
 62
     1
 48
0.012
370
    13
100
AcDbLine
 10
26.53539740649597
 20
42.80149135784836
 30
0.0
 11
27.01540040649599
 21
42.80149135784836
 31
0.0
  0
ENDSEC
  0
SECTION
  2
OBJECTS
  0
DICTIONARY
  5
C
330
0
100
AcDbDictionary
281
     1
  3
ACAD_COLOR
350
73
  3
ACAD_GROUP
350
D
  3
ACAD_LAYOUT
350
1A
  3
ACAD_MATERIAL
350
72
  3
ACAD_MLEADERSTYLE
350
D7
  3
ACAD_MLINESTYLE
350
17
  3
ACAD_PLOTSETTINGS
350
19
  3
ACAD_PLOTSTYLENAME
350
E
  3
ACAD_SCALELIST
350
B6
  3
ACAD_TABLESTYLE
350
86
  3
ACAD_VISUALSTYLE
350
99
  3
ACDB_RECOMPOSE_DATA
350
FF
  3
AcDbVariableDictionary
350
66
  3
DWGPROPS
350
56F
  0
DICTIONARY
  5
E6
330
10
100
AcDbDictionary
280
     1
281
     1
  3
ADSK_XREC_LAYER_RECONCILED
360
567
  0
DICTIONARY
  5
568
330
18A
100
AcDbDictionary
280
     1
281
     1
  3
ADSK_XREC_LAYER_RECONCILED
360
569
  0
DICTIONARY
  5
73
102
{ACAD_REACTORS
330
C
102
}
330
C
100
AcDbDictionary
281
     1
  0
DICTIONARY
  5
D
102
{ACAD_REACTORS
330
C
102
}
330
C
100
AcDbDictionary
281
     1
  0
DICTIONARY
  5
1A
102
{ACAD_REACTORS
330
C
102
}
330
C
100
AcDbDictionary
281
     1
  3
Layout1
350
59
  3
Layout2
350
5E
  3
Model
350
22
  0
DICTIONARY
  5
72
102
{ACAD_REACTORS
330
C
102
}
330
C
100
AcDbDictionary
281
     1
  3
ByBlock
350
97
  3
ByLayer
350
96
  3
Global
350
98
  0
DICTIONARY
  5
D7
102
{ACAD_REACTORS
330
C
102
}
330
C
100
AcDbDictionary
281
     1
  3
Annotativa
350
E5
  3
Standard
350
D8
  0
DICTIONARY
  5
17
102
{ACAD_REACTORS
330
C
102
}
330
C
100
AcDbDictionary
281
     1
  3
Standard
350
18
  0
DICTIONARY
  5
19
102
{ACAD_REACTORS
330
C
102
}
330
C
100
AcDbDictionary
281
     1
  0
ACDBDICTIONARYWDFLT
  5
E
102
{ACAD_REACTORS
330
C
102
}
330
C
100
AcDbDictionary
281
     1
  3
Normal
350
F
100
AcDbDictionaryWithDefault
340
F
  0
DICTIONARY
  5
B6
102
{ACAD_REACTORS
330
C
102
}
330
C
100
AcDbDictionary
281
     1
  3
A0
350
B7
  3
A1
350
124
  3
A2
350
125
  3
A3
350
126
  3
A4
350
127
  3
A5
350
128
  3
A6
350
129
  3
A7
350
12A
  3
A8
350
12B
  3
A9
350
12C
  3
B0
350
12D
  3
B1
350
12E
  3
B2
350
12F
  3
B3
350
130
  3
B4
350
131
  3
B5
350
132
  3
B6
350
133
  3
B7
350
134
  3
B8
350
135
  3
B9
350
136
  3
C0
350
137
  3
C1
350
138
  3
C2
350
139
  3
C3
350
13A
  3
C4
350
13B
  3
C5
350
13C
  3
C6
350
13D
  3
C7
350
13E
  3
C8
350
13F
  3
C9
350
140
  3
D0
350
141
  3
D1
350
142
  3
D2
350
143
  0
DICTIONARY
  5
86
102
{ACAD_REACTORS
330
C
102
}
330
C
100
AcDbDictionary
281
     1
  3
Standard
350
87
  0
DICTIONARY
  5
99
102
{ACAD_REACTORS
330
C
102
}
330
C
100
AcDbDictionary
281
     1
  3
2dWireframe
350
9F
  3
3D Hidden
350
A1
  3
3dWireframe
350
A0
  3
Basic
350
9E
  3
Brighten
350
A5
  3
ColorChange
350
A9
  3
Conceptual
350
A2
  3
Dim
350
A4
  3
Facepattern
350
A8
  3
Flat
350
9A
  3
FlatWithEdges
350
9B
  3
Gouraud
350
9C
  3
GouraudWithEdges
350
9D
  3
Linepattern
350
A7
  3
Realistic
350
A3
  3
Thicken
350
A6
  0
XRECORD
  5
FF
102
{ACAD_REACTORS
330
C
102
}
330
C
100
AcDbXrecord
280
     1
 90
        1
330
87
  0
DICTIONARY
  5
66
102
{ACAD_REACTORS
330
C
102
}
330
C
100
AcDbDictionary
281
     1
  3
CANNOSCALE
350
F0
  3
CMLEADERSTYLE
350
EF
  3
CTABLESTYLE
350
89
  3
DIMASSOC
350
67
  3
HIDETEXT
350
6B
  3
INDEXCTL
350
56D
  3
LIGHTINGUNITS
350
56B
  3
MSLTSCALE
350
56A
  3
SORTENTS
350
56C
  0
XRECORD
  5
56F
102
{ACAD_REACTORS
330
C
102
}
330
C
100
AcDbXrecord
280
     1
  1
DWGPROPS COOKIE
  2

  3

  4

  6

  7

  8
FontanaNZ
  9

300
=
301
=
302
=
303
=
304
=
305
=
306
=
307
=
308
=
309
=
 40
0.0037671759259259
 41
2456457.608256759
 42
2456457.612023761
  1

 90
        0
  0
XRECORD
  5
567
102
{ACAD_REACTORS
330
E6
102
}
330
E6
100
AcDbXrecord
280
     1
290
     1
  0
XRECORD
  5
569
102
{ACAD_REACTORS
330
568
102
}
330
568
100
AcDbXrecord
280
     1
290
     1
  0
LAYOUT
  5
59
102
{ACAD_XDICTIONARY
360
572
102
}
102
{ACAD_REACTORS
330
1A
102
}
330
1A
100
AcDbPlotSettings
  1

  2
None
  4

  6

 40
0.0
 41
0.0
 42
0.0
 43
0.0
 44
0.0
 45
0.0
 46
0.0
 47
0.0
 48
0.0
 49
0.0
140
0.0
141
0.0
142
1.0
143
1.0
 70
   688
 72
     0
 73
     0
 74
     5
  7

 75
    16
147
1.0
148
0.0
149
0.0
100
AcDbLayout
  1
Layout1
 70
     1
 71
     1
 10
0.0
 20
0.0
 11
12.0
 21
9.0
 12
0.0
 22
0.0
 32
0.0
 14
0.0
 24
0.0
 34
0.0
 15
0.0
 25
0.0
 35
0.0
146
0.0
 13
0.0
 23
0.0
 33
0.0
 16
1.0
 26
0.0
 36
0.0
 17
0.0
 27
1.0
 37
0.0
 76
     0
330
58
  0
LAYOUT
  5
5E
102
{ACAD_XDICTIONARY
360
574
102
}
102
{ACAD_REACTORS
330
1A
102
}
330
1A
100
AcDbPlotSettings
  1

  2
None
  4

  6

 40
0.0
 41
0.0
 42
0.0
 43
0.0
 44
0.0
 45
0.0
 46
0.0
 47
0.0
 48
0.0
 49
0.0
140
0.0
141
0.0
142
1.0
143
1.0
 70
   688
 72
     0
 73
     0
 74
     5
  7

 75
    16
147
1.0
148
0.0
149
0.0
100
AcDbLayout
  1
Layout2
 70
     1
 71
     2
 10
0.0
 20
0.0
 11
12.0
 21
9.0
 12
0.0
 22
0.0
 32
0.0
 14
0.0
 24
0.0
 34
0.0
 15
0.0
 25
0.0
 35
0.0
146
0.0
 13
0.0
 23
0.0
 33
0.0
 16
1.0
 26
0.0
 36
0.0
 17
0.0
 27
1.0
 37
0.0
 76
     0
330
5D
  0
LAYOUT
  5
22
102
{ACAD_XDICTIONARY
360
570
102
}
102
{ACAD_REACTORS
330
1A
102
}
330
1A
100
AcDbPlotSettings
  1

  2
none_device
  4
ANSI_A_(8.50_x_11.00_Inches)
  6

 40
6.349999904632568
 41
19.04999923706055
 42
6.350006103515625
 43
19.04998779296875
 44
215.8999938964844
 45
279.3999938964844
 46
0.0
 47
0.0
 48
0.0
 49
0.0
140
0.0
141
0.0
142
1.0
143
2.584895464708373
 70
 11952
 72
     0
 73
     1
 74
     0
  7

 75
     0
147
0.3868628397755418
148
0.0
149
0.0
100
AcDbLayout
  1
Model
 70
     1
 71
     0
 10
0.0
 20
0.0
 11
12.0
 21
9.0
 12
0.0
 22
0.0
 32
0.0
 14
0.0
 24
0.0
 34
0.0
 15
0.0
 25
0.0
 35
0.0
146
0.0
 13
0.0
 23
0.0
 33
0.0
 16
1.0
 26
0.0
 36
0.0
 17
0.0
 27
1.0
 37
0.0
 76
     0
330
1F
331
94
  0
MATERIAL
  5
97
102
{ACAD_XDICTIONARY
360
579
102
}
102
{ACAD_REACTORS
330
72
102
}
330
72
100
AcDbMaterial
  1
ByBlock
  0
MATERIAL
  5
96
102
{ACAD_XDICTIONARY
360
577
102
}
102
{ACAD_REACTORS
330
72
102
}
330
72
100
AcDbMaterial
  1
ByLayer
  0
MATERIAL
  5
98
102
{ACAD_XDICTIONARY
360
110
102
}
102
{ACAD_REACTORS
330
72
102
}
330
72
100
AcDbMaterial
  1
Global
 43
0.0208000000566244
 43
0.0
 43
0.0
 43
0.0
 43
0.0
 43
0.0208000000566244
 43
0.0
 43
0.0
 43
0.0
 43
0.0
 43
1.0
 43
0.0
 43
0.0
 43
0.0
 43
0.0
 43
1.0
 49
0.0208000000566244
 49
0.0
 49
0.0
 49
0.0
 49
0.0
 49
0.0208000000566244
 49
0.0
 49
0.0
 49
0.0
 49
0.0
 49
1.0
 49
0.0
 49
0.0
 49
0.0
 49
0.0
 49
1.0
142
0.0208000000566244
142
0.0
142
0.0
142
0.0
142
0.0
142
0.0208000000566244
142
0.0
142
0.0
142
0.0
142
0.0
142
1.0
142
0.0
142
0.0
142
0.0
142
0.0
142
1.0
144
0.0208000000566244
144
0.0
144
0.0
144
0.0
144
0.0
144
0.0208000000566244
144
0.0
144
0.0
144
0.0
144
0.0
144
1.0
144
0.0
144
0.0
144
0.0
144
0.0
144
1.0
1001
ACAD
1070
    -1
1070
     3
1070
     0
1000

1071
        0
1070
     0
  0
MLEADERSTYLE
  5
E5
102
{ACAD_REACTORS
330
D7
102
}
330
D7
100
AcDbMLeaderStyle
170
     2
171
     1
172
     0
 90
        2
 40
0.0
 41
0.0
173
     1
 91
-1056964608
340
14
 92
       -2
290
     1
 42
0.09
291
     1
 43
0.36
  3
Standard
 44
0.18
300

342
11
174
     1
178
     1
175
     1
176
     0
 93
-1056964608
 45
0.18
292
     0
297
     0
 46
0.18
 94
-1056964608
 47
1.0
 49
1.0
140
1.0
293
     1
141
0.0
294
     1
177
     0
142
1.0
295
     0
296
     1
143
0.125
1001
ACAD_MLEADERVER
1070
     2
  0
MLEADERSTYLE
  5
D8
102
{ACAD_REACTORS
330
D7
102
}
330
D7
100
AcDbMLeaderStyle
170
     2
171
     1
172
     0
 90
        2
 40
0.0
 41
0.0
173
     1
 91
-1056964608
340
14
 92
       -2
290
     1
 42
0.09
291
     1
 43
0.36
  3
Standard
 44
0.18
300

342
11
174
     1
178
     1
175
     1
176
     0
 93
-1056964608
 45
0.18
292
     0
297
     0
 46
0.18
 94
-1056964608
 47
1.0
 49
1.0
140
1.0
293
     1
141
0.0
294
     1
177
     0
142
1.0
295
     0
296
     0
143
0.125
1001
ACAD_MLEADERVER
1070
     2
  0
MLINESTYLE
  5
18
102
{ACAD_REACTORS
330
17
102
}
330
17
100
AcDbMlineStyle
  2
STANDARD
 70
     0
  3

 62
   256
 51
90.0
 52
90.0
 71
     2
 49
0.5
 62
   256
  6
BYLAYER
 49
-0.5
 62
   256
  6
BYLAYER
  0
ACDBPLACEHOLDER
  5
F
102
{ACAD_REACTORS
330
E
102
}
330
E
  0
SCALE
  5
B7
102
{ACAD_REACTORS
330
B6
102
}
330
B6
100
AcDbScale
 70
     0
300
1:1
140
1.0
141
1.0
290
     1
  0
SCALE
  5
124
102
{ACAD_REACTORS
330
B6
102
}
330
B6
100
AcDbScale
 70
     0
300
1:2
140
1.0
141
2.0
290
     0
  0
SCALE
  5
125
102
{ACAD_REACTORS
330
B6
102
}
330
B6
100
AcDbScale
 70
     0
300
1:4
140
1.0
141
4.0
290
     0
  0
SCALE
  5
126
102
{ACAD_REACTORS
330
B6
102
}
330
B6
100
AcDbScale
 70
     0
300
1:5
140
1.0
141
5.0
290
     0
  0
SCALE
  5
127
102
{ACAD_REACTORS
330
B6
102
}
330
B6
100
AcDbScale
 70
     0
300
1:8
140
1.0
141
8.0
290
     0
  0
SCALE
  5
128
102
{ACAD_REACTORS
330
B6
102
}
330
B6
100
AcDbScale
 70
     0
300
1:10
140
1.0
141
10.0
290
     0
  0
SCALE
  5
129
102
{ACAD_REACTORS
330
B6
102
}
330
B6
100
AcDbScale
 70
     0
300
1:16
140
1.0
141
16.0
290
     0
  0
SCALE
  5
12A
102
{ACAD_REACTORS
330
B6
102
}
330
B6
100
AcDbScale
 70
     0
300
1:20
140
1.0
141
20.0
290
     0
  0
SCALE
  5
12B
102
{ACAD_REACTORS
330
B6
102
}
330
B6
100
AcDbScale
 70
     0
300
1:30
140
1.0
141
30.0
290
     0
  0
SCALE
  5
12C
102
{ACAD_REACTORS
330
B6
102
}
330
B6
100
AcDbScale
 70
     0
300
1:40
140
1.0
141
40.0
290
     0
  0
SCALE
  5
12D
102
{ACAD_REACTORS
330
B6
102
}
330
B6
100
AcDbScale
 70
     0
300
1:50
140
1.0
141
50.0
290
     0
  0
SCALE
  5
12E
102
{ACAD_REACTORS
330
B6
102
}
330
B6
100
AcDbScale
 70
     0
300
1:100
140
1.0
141
100.0
290
     0
  0
SCALE
  5
12F
102
{ACAD_REACTORS
330
B6
102
}
330
B6
100
AcDbScale
 70
     0
300
2:1
140
2.0
141
1.0
290
     0
  0
SCALE
  5
130
102
{ACAD_REACTORS
330
B6
102
}
330
B6
100
AcDbScale
 70
     0
300
4:1
140
4.0
141
1.0
290
     0
  0
SCALE
  5
131
102
{ACAD_REACTORS
330
B6
102
}
330
B6
100
AcDbScale
 70
     0
300
8:1
140
8.0
141
1.0
290
     0
  0
SCALE
  5
132
102
{ACAD_REACTORS
330
B6
102
}
330
B6
100
AcDbScale
 70
     0
300
10:1
140
10.0
141
1.0
290
     0
  0
SCALE
  5
133
102
{ACAD_REACTORS
330
B6
102
}
330
B6
100
AcDbScale
 70
     0
300
100:1
140
100.0
141
1.0
290
     0
  0
SCALE
  5
134
102
{ACAD_REACTORS
330
B6
102
}
330
B6
100
AcDbScale
 70
     0
300
1/128" = 1'-0"
140
0.0078125
141
12.0
290
     0
  0
SCALE
  5
135
102
{ACAD_REACTORS
330
B6
102
}
330
B6
100
AcDbScale
 70
     0
300
1/64" = 1'-0"
140
0.015625
141
12.0
290
     0
  0
SCALE
  5
136
102
{ACAD_REACTORS
330
B6
102
}
330
B6
100
AcDbScale
 70
     0
300
1/32" = 1'-0"
140
0.03125
141
12.0
290
     0
  0
SCALE
  5
137
102
{ACAD_REACTORS
330
B6
102
}
330
B6
100
AcDbScale
 70
     0
300
1/16" = 1'-0"
140
0.0625
141
12.0
290
     0
  0
SCALE
  5
138
102
{ACAD_REACTORS
330
B6
102
}
330
B6
100
AcDbScale
 70
     0
300
3/32" = 1'-0"
140
0.09375
141
12.0
290
     0
  0
SCALE
  5
139
102
{ACAD_REACTORS
330
B6
102
}
330
B6
100
AcDbScale
 70
     0
300
1/8" = 1'-0"
140
0.125
141
12.0
290
     0
  0
SCALE
  5
13A
102
{ACAD_REACTORS
330
B6
102
}
330
B6
100
AcDbScale
 70
     0
300
3/16" = 1'-0"
140
0.1875
141
12.0
290
     0
  0
SCALE
  5
13B
102
{ACAD_REACTORS
330
B6
102
}
330
B6
100
AcDbScale
 70
     0
300
1/4" = 1'-0"
140
0.25
141
12.0
290
     0
  0
SCALE
  5
13C
102
{ACAD_REACTORS
330
B6
102
}
330
B6
100
AcDbScale
 70
     0
300
3/8" = 1'-0"
140
0.375
141
12.0
290
     0
  0
SCALE
  5
13D
102
{ACAD_REACTORS
330
B6
102
}
330
B6
100
AcDbScale
 70
     0
300
1/2" = 1'-0"
140
0.5
141
12.0
290
     0
  0
SCALE
  5
13E
102
{ACAD_REACTORS
330
B6
102
}
330
B6
100
AcDbScale
 70
     0
300
3/4" = 1'-0"
140
0.75
141
12.0
290
     0
  0
SCALE
  5
13F
102
{ACAD_REACTORS
330
B6
102
}
330
B6
100
AcDbScale
 70
     0
300
1" = 1'-0"
140
1.0
141
12.0
290
     0
  0
SCALE
  5
140
102
{ACAD_REACTORS
330
B6
102
}
330
B6
100
AcDbScale
 70
     0
300
1-1/2" = 1'-0"
140
1.5
141
12.0
290
     0
  0
SCALE
  5
141
102
{ACAD_REACTORS
330
B6
102
}
330
B6
100
AcDbScale
 70
     0
300
3" = 1'-0"
140
3.0
141
12.0
290
     0
  0
SCALE
  5
142
102
{ACAD_REACTORS
330
B6
102
}
330
B6
100
AcDbScale
 70
     0
300
6" = 1'-0"
140
6.0
141
12.0
290
     0
  0
SCALE
  5
143
102
{ACAD_REACTORS
330
B6
102
}
330
B6
100
AcDbScale
 70
     0
300
1'-0" = 1'-0"
140
12.0
141
12.0
290
     0
  0
TABLESTYLE
  5
87
102
{ACAD_XDICTIONARY
360
104
102
}
102
{ACAD_REACTORS
330
86
102
}
330
86
100
AcDbTableStyle
  3
Standard
 70
     0
 71
     0
 40
0.06
 41
0.06
280
     0
281
     0
  7
Standard
140
0.18
170
     2
 62
     0
 63
     7
283
     0
274
    -2
284
     1
 64
     0
275
    -2
285
     1
 65
     0
276
    -2
286
     1
 66
     0
277
    -2
287
     1
 67
     0
278
    -2
288
     1
 68
     0
279
    -2
289
     1
 69
     0
  7
Standard
140
0.25
170
     5
 62
     0
 63
     7
283
     0
274
    -2
284
     1
 64
     0
275
    -2
285
     1
 65
     0
276
    -2
286
     1
 66
     0
277
    -2
287
     1
 67
     0
278
    -2
288
     1
 68
     0
279
    -2
289
     1
 69
     0
  7
Standard
140
0.18
170
     5
 62
     0
 63
     7
283
     0
274
    -2
284
     1
 64
     0
275
    -2
285
     1
 65
     0
276
    -2
286
     1
 66
     0
277
    -2
287
     1
 67
     0
278
    -2
288
     1
 68
     0
279
    -2
289
     1
 69
     0
  0
VISUALSTYLE
  5
9F
102
{ACAD_REACTORS
330
99
102
}
330
99
100
AcDbVisualStyle
  2
2dWireframe
 70
     4
 71
     0
 72
     2
 73
     1
 90
        0
 40
-0.6
 41
-30.0
 62
     5
 63
     7
 74
     1
 91
        4
 64
     7
 65
   257
 75
     1
175
     1
 42
1.0
 92
        0
 66
   257
 43
1.0
 76
     1
 77
     6
 78
     2
 67
     7
 79
     5
170
     0
171
     0
290
     0
174
     0
 93
        1
 44
0.0
173
     0
291
     0
 45
0.0
1001
ACAD
1000
AcDbSavedByObjectVersion
1070
     0
  0
VISUALSTYLE
  5
A1
102
{ACAD_REACTORS
330
99
102
}
330
99
100
AcDbVisualStyle
  2
3D Hidden
 70
     6
 71
     1
 72
     2
 73
     2
 90
        0
 40
-0.6
 41
-30.0
 62
     5
 63
     7
 74
     2
 91
        2
 64
     7
 65
   257
 75
     2
175
     1
 42
40.0
 92
        0
 66
   257
 43
1.0
 76
     1
 77
     6
 78
     2
 67
     7
 79
     3
170
     0
171
     0
290
     0
174
     0
 93
        1
 44
0.0
173
     0
291
     0
 45
0.0
1001
ACAD
1000
AcDbSavedByObjectVersion
1070
     0
  0
VISUALSTYLE
  5
A0
102
{ACAD_REACTORS
330
99
102
}
330
99
100
AcDbVisualStyle
  2
3dWireframe
 70
     5
 71
     0
 72
     2
 73
     1
 90
        0
 40
-0.6
 41
-30.0
 62
     5
 63
     7
 74
     1
 91
        4
 64
     7
 65
   257
 75
     1
175
     1
 42
1.0
 92
        0
 66
   257
 43
1.0
 76
     1
 77
     6
 78
     2
 67
     7
 79
     5
170
     0
171
     0
290
     0
174
     0
 93
        1
 44
0.0
173
     0
291
     0
 45
0.0
1001
ACAD
1000
AcDbSavedByObjectVersion
1070
     0
  0
VISUALSTYLE
  5
9E
102
{ACAD_REACTORS
330
99
102
}
330
99
100
AcDbVisualStyle
  2
Basic
 70
     7
 71
     1
 72
     0
 73
     1
 90
        0
 40
-0.6
 41
-30.0
 62
     5
 63
     7
 74
     0
 91
        4
 64
     7
 65
   257
 75
     1
175
     1
 42
1.0
 92
        8
 66
     7
 43
1.0
 76
     1
 77
     6
 78
     2
 67
     7
 79
     5
170
     0
171
     0
290
     0
174
     0
 93
        1
 44
0.0
173
     0
291
     1
 45
0.0
1001
ACAD
1000
AcDbSavedByObjectVersion
1070
     0
  0
VISUALSTYLE
  5
A5
102
{ACAD_REACTORS
330
99
102
}
330
99
100
AcDbVisualStyle
  2
Brighten
 70
    12
 71
     2
 72
     2
 73
     1
 90
        0
 40
-0.6
 41
-30.0
 62
     5
 63
     7
 74
     1
 91
        4
 64
     7
 65
   257
 75
     1
175
     1
 42
1.0
 92
        8
 66
     7
 43
1.0
 76
     1
 77
     6
 78
     2
 67
     7
 79
     5
170
     0
171
     0
290
     0
174
     0
 93
        1
 44
50.0
173
     0
291
     1
 45
0.0
1001
ACAD
1000
AcDbSavedByObjectVersion
1070
     0
  0
VISUALSTYLE
  5
A9
102
{ACAD_REACTORS
330
99
102
}
330
99
100
AcDbVisualStyle
  2
ColorChange
 70
    16
 71
     2
 72
     2
 73
     3
 90
        0
 40
-0.6
 41
-30.0
 62
     5
 63
     8
 74
     1
 91
        4
 64
     7
 65
   257
 75
     1
175
     1
 42
1.0
 92
        8
 66
     8
 43
1.0
 76
     1
 77
     6
 78
     2
 67
     7
 79
     5
170
     0
171
     0
290
     0
174
     0
 93
        1
 44
0.0
173
     0
291
     1
 45
0.0
1001
ACAD
1000
AcDbSavedByObjectVersion
1070
     0
  0
VISUALSTYLE
  5
A2
102
{ACAD_REACTORS
330
99
102
}
330
99
100
AcDbVisualStyle
  2
Conceptual
 70
     9
 71
     3
 72
     2
 73
     1
 90
        0
 40
-0.6
 41
-30.0
 62
     5
 63
     7
 74
     2
 91
        2
 64
     7
 65
   257
 75
     1
175
     1
 42
40.0
 92
        8
 66
     7
 43
1.0
 76
     1
 77
     6
 78
     2
 67
     7
 79
     3
170
     0
171
     0
290
     0
174
     0
 93
        1
 44
0.0
173
     0
291
     0
 45
0.0
1001
ACAD
1000
AcDbSavedByObjectVersion
1070
     0
  0
VISUALSTYLE
  5
A4
102
{ACAD_REACTORS
330
99
102
}
330
99
100
AcDbVisualStyle
  2
Dim
 70
    11
 71
     2
 72
     2
 73
     1
 90
        0
 40
-0.6
 41
-30.0
 62
     5
 63
     7
 74
     1
 91
        4
 64
     7
 65
   257
 75
     1
175
     1
 42
1.0
 92
        8
 66
     7
 43
1.0
 76
     1
 77
     6
 78
     2
 67
     7
 79
     5
170
     0
171
     0
290
     0
174
     0
 93
        1
 44
-50.0
173
     0
291
     1
 45
0.0
1001
ACAD
1000
AcDbSavedByObjectVersion
1070
     0
  0
VISUALSTYLE
  5
A8
102
{ACAD_REACTORS
330
99
102
}
330
99
100
AcDbVisualStyle
  2
Facepattern
 70
    15
 71
     2
 72
     2
 73
     1
 90
        0
 40
-0.6
 41
-30.0
 62
     5
 63
     7
 74
     1
 91
        4
 64
     7
 65
   257
 75
     1
175
     1
 42
1.0
 92
        8
 66
     7
 43
1.0
 76
     1
 77
     6
 78
     2
 67
     7
 79
     5
170
     0
171
     0
290
     0
174
     0
 93
        1
 44
0.0
173
     0
291
     1
 45
0.0
1001
ACAD
1000
AcDbSavedByObjectVersion
1070
     0
  0
VISUALSTYLE
  5
9A
102
{ACAD_REACTORS
330
99
102
}
330
99
100
AcDbVisualStyle
  2
Flat
 70
     0
 71
     2
 72
     1
 73
     1
 90
        2
 40
-0.6
 41
30.0
 62
     5
 63
     7
 74
     0
 91
        4
 64
     7
 65
   257
 75
     1
175
     1
 42
1.0
 92
        8
 66
     7
 43
1.0
 76
     1
 77
     6
 78
     2
 67
     7
 79
     5
170
     0
171
     0
290
     0
174
     0
 93
        1
 44
0.0
173
     0
291
     1
 45
0.0
1001
ACAD
1000
AcDbSavedByObjectVersion
1070
     0
  0
VISUALSTYLE
  5
9B
102
{ACAD_REACTORS
330
99
102
}
330
99
100
AcDbVisualStyle
  2
FlatWithEdges
 70
     1
 71
     2
 72
     1
 73
     1
 90
        2
 40
-0.6
 41
30.0
 62
     5
 63
     7
 74
     1
 91
        4
 64
     7
 65
   257
 75
     1
175
     1
 42
1.0
 92
        0
 66
   257
 43
1.0
 76
     1
 77
     6
 78
     2
 67
     7
 79
     5
170
     0
171
     0
290
     0
174
     0
 93
        1
 44
0.0
173
     0
291
     1
 45
0.0
1001
ACAD
1000
AcDbSavedByObjectVersion
1070
     0
  0
VISUALSTYLE
  5
9C
102
{ACAD_REACTORS
330
99
102
}
330
99
100
AcDbVisualStyle
  2
Gouraud
 70
     2
 71
     2
 72
     2
 73
     1
 90
        2
 40
-0.6
 41
30.0
 62
     5
 63
     7
 74
     0
 91
        4
 64
     7
 65
   257
 75
     1
175
     1
 42
1.0
 92
        0
 66
     7
 43
1.0
 76
     1
 77
     6
 78
     2
 67
     7
 79
     5
170
     0
171
     0
290
     0
174
     0
 93
        1
 44
0.0
173
     0
291
     1
 45
0.0
1001
ACAD
1000
AcDbSavedByObjectVersion
1070
     0
  0
VISUALSTYLE
  5
9D
102
{ACAD_REACTORS
330
99
102
}
330
99
100
AcDbVisualStyle
  2
GouraudWithEdges
 70
     3
 71
     2
 72
     2
 73
     1
 90
        2
 40
-0.6
 41
30.0
 62
     5
 63
     7
 74
     1
 91
        4
 64
     7
 65
   257
 75
     1
175
     1
 42
1.0
 92
        0
 66
   257
 43
1.0
 76
     1
 77
     6
 78
     2
 67
     7
 79
     5
170
     0
171
     0
290
     0
174
     0
 93
        1
 44
0.0
173
     0
291
     1
 45
0.0
1001
ACAD
1000
AcDbSavedByObjectVersion
1070
     0
  0
VISUALSTYLE
  5
A7
102
{ACAD_REACTORS
330
99
102
}
330
99
100
AcDbVisualStyle
  2
Linepattern
 70
    14
 71
     2
 72
     2
 73
     1
 90
        0
 40
-0.6
 41
-30.0
 62
     5
 63
     7
 74
     1
 91
        4
 64
     7
 65
   257
 75
     7
175
     7
 42
1.0
 92
        8
 66
     7
 43
1.0
 76
     1
 77
     6
 78
     2
 67
     7
 79
     5
170
     0
171
     0
290
     0
174
     0
 93
        1
 44
0.0
173
     0
291
     1
 45
0.0
1001
ACAD
1000
AcDbSavedByObjectVersion
1070
     0
  0
VISUALSTYLE
  5
A3
102
{ACAD_REACTORS
330
99
102
}
330
99
100
AcDbVisualStyle
  2
Realistic
 70
     8
 71
     2
 72
     2
 73
     1
 90
        0
 40
-0.6
 41
-30.0
 62
     5
 63
     7
 74
     1
 91
        0
 64
     7
 65
   257
 75
     1
175
     1
 42
1.0
 92
        8
 66
     8
 43
1.0
 76
     1
 77
     6
 78
     2
 67
     7
 79
     5
170
     0
171
     0
290
     0
174
     0
 93
       13
 44
0.0
173
     0
291
     0
 45
0.0
1001
ACAD
1000
AcDbSavedByObjectVersion
1070
     0
  0
VISUALSTYLE
  5
A6
102
{ACAD_REACTORS
330
99
102
}
330
99
100
AcDbVisualStyle
  2
Thicken
 70
    13
 71
     2
 72
     2
 73
     1
 90
        0
 40
-0.6
 41
-30.0
 62
     5
 63
     7
 74
     1
 91
        4
 64
     7
 65
   257
 75
     1
175
     1
 42
1.0
 92
       12
 66
     7
 43
1.0
 76
     1
 77
     6
 78
     2
 67
     7
 79
     5
170
     0
171
     0
290
     0
174
     0
 93
        1
 44
0.0
173
     0
291
     1
 45
0.0
1001
ACAD
1000
AcDbSavedByObjectVersion
1070
     0
  0
DICTIONARYVAR
  5
F0
102
{ACAD_REACTORS
330
66
102
}
330
66
100
DictionaryVariables
280
     0
  1
1:1
  0
DICTIONARYVAR
  5
EF
102
{ACAD_REACTORS
330
66
102
}
330
66
100
DictionaryVariables
280
     0
  1
STANDARD
  0
DICTIONARYVAR
  5
89
102
{ACAD_REACTORS
330
66
102
}
330
66
100
DictionaryVariables
280
     0
  1
STANDARD
  0
DICTIONARYVAR
  5
67
102
{ACAD_REACTORS
330
66
102
}
330
66
100
DictionaryVariables
280
     0
  1
2
  0
DICTIONARYVAR
  5
6B
102
{ACAD_REACTORS
330
66
102
}
330
66
100
DictionaryVariables
280
     0
  1
1
  0
DICTIONARYVAR
  5
56D
102
{ACAD_REACTORS
330
66
102
}
330
66
100
DictionaryVariables
280
     0
  1
0
  0
DICTIONARYVAR
  5
56B
102
{ACAD_REACTORS
330
66
102
}
330
66
100
DictionaryVariables
280
     0
  1
2
  0
DICTIONARYVAR
  5
56A
102
{ACAD_REACTORS
330
66
102
}
330
66
100
DictionaryVariables
280
     0
  1
1
  0
DICTIONARYVAR
  5
56C
102
{ACAD_REACTORS
330
66
102
}
330
66
100
DictionaryVariables
280
     0
  1
127
  0
DICTIONARY
  5
572
330
59
100
AcDbDictionary
280
     1
281
     1
  3
ACAD_XREC_ROUNDTRIP
360
573
  0
DICTIONARY
  5
574
330
5E
100
AcDbDictionary
280
     1
281
     1
  3
ACAD_XREC_ROUNDTRIP
360
575
  0
DICTIONARY
  5
570
330
22
100
AcDbDictionary
280
     1
281
     1
  3
ACAD_XREC_ROUNDTRIP
360
571
  0
DICTIONARY
  5
579
330
97
100
AcDbDictionary
280
     1
281
     1
  3
ACAD_XREC_ROUNDTRIP
360
57A
  0
DICTIONARY
  5
577
330
96
100
AcDbDictionary
280
     1
281
     1
  3
ACAD_XREC_ROUNDTRIP
360
578
  0
DICTIONARY
  5
110
330
98
100
AcDbDictionary
280
     1
281
     1
  3
ACAD_XREC_ROUNDTRIP
360
57B
  3
BUMPTILE
360
112
  3
DIFFUSETILE
360
111
  3
OPACITYTILE
360
113
  3
REFLECTIONTILE
360
114
  0
DICTIONARY
  5
104
330
87
100
AcDbDictionary
280
     1
281
     1
  3
ACAD_ROUNDTRIP_2008_TABLESTYLE_CELLSTYLEMAP
360
56E
  3
ACAD_XREC_ROUNDTRIP
360
576
  0
XRECORD
  5
573
102
{ACAD_REACTORS
330
572
102
}
330
572
100
AcDbXrecord
280
     1
102
SHADEPLOT
 70
     0
102
SHADEPLOTRESLEVEL
 70
     2
102
SHADEPLOTCUSTOMDPI
 70
   300
  0
XRECORD
  5
575
102
{ACAD_REACTORS
330
574
102
}
330
574
100
AcDbXrecord
280
     1
102
SHADEPLOT
 70
     0
102
SHADEPLOTRESLEVEL
 70
     2
102
SHADEPLOTCUSTOMDPI
 70
   300
  0
XRECORD
  5
571
102
{ACAD_REACTORS
330
570
102
}
330
570
100
AcDbXrecord
280
     1
102
SHADEPLOT
 70
     0
102
SHADEPLOTRESLEVEL
 70
     2
102
SHADEPLOTCUSTOMDPI
 70
   300
  0
XRECORD
  5
57A
102
{ACAD_REACTORS
330
579
102
}
330
579
100
AcDbXrecord
280
     1
102
MATERIAL
148
0.0
149
0.0
149
0.0
 93
        0
 94
       63
282
     0
 72
     1
 77
     1
171
     1
175
     1
179
     1
273
     0
  0
XRECORD
  5
578
102
{ACAD_REACTORS
330
577
102
}
330
577
100
AcDbXrecord
280
     1
102
MATERIAL
148
0.0
149
0.0
149
0.0
 93
        0
 94
       63
282
     0
 72
     1
 77
     1
171
     1
175
     1
179
     1
273
     0
  0
XRECORD
  5
57B
102
{ACAD_REACTORS
330
110
102
}
330
110
100
AcDbXrecord
280
     1
102
MATERIAL
148
0.0
149
0.0
149
0.0
 93
        0
 94
       63
282
     0
 72
     1
 77
     1
171
     1
175
     1
179
     1
273
     0
  0
XRECORD
  5
112
102
{ACAD_REACTORS
330
110
102
}
330
110
100
AcDbXrecord
280
     1
270
     1
271
     1
  0
XRECORD
  5
111
102
{ACAD_REACTORS
330
110
102
}
330
110
100
AcDbXrecord
280
     1
270
     1
271
     1
  0
XRECORD
  5
113
102
{ACAD_REACTORS
330
110
102
}
330
110
100
AcDbXrecord
280
     1
270
     1
271
     1
  0
XRECORD
  5
114
102
{ACAD_REACTORS
330
110
102
}
330
110
100
AcDbXrecord
280
     1
270
     1
271
     1
  0
CELLSTYLEMAP
  5
56E
102
{ACAD_REACTORS
330
104
102
}
330
104
100
AcDbCellStyleMap
 90
        3
300
CELLSTYLE
  1
TABLEFORMAT_BEGIN
 90
        5
170
     1
 91
        0
 92
    32768
 62
   257
 93
        1
300
CONTENTFORMAT
  1
CONTENTFORMAT_BEGIN
 90
        0
 91
        0
 92
      512
 93
        0
300

 40
0.0
140
1.0
 94
        5
 62
     0
340
11
144
0.25
309
CONTENTFORMAT_END
171
     1
301
MARGIN
  1
CELLMARGIN_BEGIN
 40
0.06
 40
0.06
 40
0.06
 40
0.06
 40
0.18
 40
0.18
309
CELLMARGIN_END
 94
        6
 95
        1
302
GRIDFORMAT
  1
GRIDFORMAT_BEGIN
 90
        0
 91
        1
 62
     0
 92
       -2
340
0
 93
        0
 40
0.045
309
GRIDFORMAT_END
 95
        2
302
GRIDFORMAT
  1
GRIDFORMAT_BEGIN
 90
        0
 91
        1
 62
     0
 92
       -2
340
0
 93
        0
 40
0.045
309
GRIDFORMAT_END
 95
        4
302
GRIDFORMAT
  1
GRIDFORMAT_BEGIN
 90
        0
 91
        1
 62
     0
 92
       -2
340
0
 93
        0
 40
0.045
309
GRIDFORMAT_END
 95
        8
302
GRIDFORMAT
  1
GRIDFORMAT_BEGIN
 90
        0
 91
        1
 62
     0
 92
       -2
340
0
 93
        0
 40
0.045
309
GRIDFORMAT_END
 95
       16
302
GRIDFORMAT
  1
GRIDFORMAT_BEGIN
 90
        0
 91
        1
 62
     0
 92
       -2
340
0
 93
        0
 40
0.045
309
GRIDFORMAT_END
 95
       32
302
GRIDFORMAT
  1
GRIDFORMAT_BEGIN
 90
        0
 91
        1
 62
     0
 92
       -2
340
0
 93
        0
 40
0.045
309
GRIDFORMAT_END
309
TABLEFORMAT_END
  1
CELLSTYLE_BEGIN
 90
        1
 91
        1
300
_TITLE
309
CELLSTYLE_END
300
CELLSTYLE
  1
TABLEFORMAT_BEGIN
 90
        5
170
     1
 91
        0
 92
        0
 62
   257
 93
        1
300
CONTENTFORMAT
  1
CONTENTFORMAT_BEGIN
 90
        0
 91
        0
 92
      512
 93
        0
300

 40
0.0
140
1.0
 94
        5
 62
     0
340
11
144
0.18
309
CONTENTFORMAT_END
171
     1
301
MARGIN
  1
CELLMARGIN_BEGIN
 40
0.06
 40
0.06
 40
0.06
 40
0.06
 40
0.18
 40
0.18
309
CELLMARGIN_END
 94
        6
 95
        1
302
GRIDFORMAT
  1
GRIDFORMAT_BEGIN
 90
        0
 91
        1
 62
     0
 92
       -2
340
0
 93
        0
 40
0.045
309
GRIDFORMAT_END
 95
        2
302
GRIDFORMAT
  1
GRIDFORMAT_BEGIN
 90
        0
 91
        1
 62
     0
 92
       -2
340
0
 93
        0
 40
0.045
309
GRIDFORMAT_END
 95
        4
302
GRIDFORMAT
  1
GRIDFORMAT_BEGIN
 90
        0
 91
        1
 62
     0
 92
       -2
340
0
 93
        0
 40
0.045
309
GRIDFORMAT_END
 95
        8
302
GRIDFORMAT
  1
GRIDFORMAT_BEGIN
 90
        0
 91
        1
 62
     0
 92
       -2
340
0
 93
        0
 40
0.045
309
GRIDFORMAT_END
 95
       16
302
GRIDFORMAT
  1
GRIDFORMAT_BEGIN
 90
        0
 91
        1
 62
     0
 92
       -2
340
0
 93
        0
 40
0.045
309
GRIDFORMAT_END
 95
       32
302
GRIDFORMAT
  1
GRIDFORMAT_BEGIN
 90
        0
 91
        1
 62
     0
 92
       -2
340
0
 93
        0
 40
0.045
309
GRIDFORMAT_END
309
TABLEFORMAT_END
  1
CELLSTYLE_BEGIN
 90
        2
 91
        1
300
_HEADER
309
CELLSTYLE_END
300
CELLSTYLE
  1
TABLEFORMAT_BEGIN
 90
        5
170
     1
 91
        0
 92
        0
 62
   257
 93
        1
300
CONTENTFORMAT
  1
CONTENTFORMAT_BEGIN
 90
        0
 91
        0
 92
      512
 93
        0
300

 40
0.0
140
1.0
 94
        2
 62
     0
340
11
144
0.18
309
CONTENTFORMAT_END
171
     1
301
MARGIN
  1
CELLMARGIN_BEGIN
 40
0.06
 40
0.06
 40
0.06
 40
0.06
 40
0.18
 40
0.18
309
CELLMARGIN_END
 94
        6
 95
        1
302
GRIDFORMAT
  1
GRIDFORMAT_BEGIN
 90
        0
 91
        1
 62
     0
 92
       -2
340
0
 93
        0
 40
0.045
309
GRIDFORMAT_END
 95
        2
302
GRIDFORMAT
  1
GRIDFORMAT_BEGIN
 90
        0
 91
        1
 62
     0
 92
       -2
340
0
 93
        0
 40
0.045
309
GRIDFORMAT_END
 95
        4
302
GRIDFORMAT
  1
GRIDFORMAT_BEGIN
 90
        0
 91
        1
 62
     0
 92
       -2
340
0
 93
        0
 40
0.045
309
GRIDFORMAT_END
 95
        8
302
GRIDFORMAT
  1
GRIDFORMAT_BEGIN
 90
        0
 91
        1
 62
     0
 92
       -2
340
0
 93
        0
 40
0.045
309
GRIDFORMAT_END
 95
       16
302
GRIDFORMAT
  1
GRIDFORMAT_BEGIN
 90
        0
 91
        1
 62
     0
 92
       -2
340
0
 93
        0
 40
0.045
309
GRIDFORMAT_END
 95
       32
302
GRIDFORMAT
  1
GRIDFORMAT_BEGIN
 90
        0
 91
        1
 62
     0
 92
       -2
340
0
 93
        0
 40
0.045
309
GRIDFORMAT_END
309
TABLEFORMAT_END
  1
CELLSTYLE_BEGIN
 90
        3
 91
        2
300
_DATA
309
CELLSTYLE_END
  0
XRECORD
  5
576
102
{ACAD_REACTORS
330
104
102
}
330
104
100
AcDbXrecord
280
     1
102
ACAD_ROUNDTRIP_PRE2007_TABLESTYLE
 90
      512
 91
        0
  1

 92
      512
 93
        0
  2

 94
      512
 95
        0
  3

  0
ENDSEC
  0
EOF
