  0
SECTION
  2
HEADER
  9
$ACADVER
  1
AC1015
  9
$ACADMAINTVER
 70
    20
  9
$DWGCODEPAGE
  3
ANSI_1252
  9
$INSBASE
 10
0.0
 20
0.0
 30
0.0
  9
$EXTMIN
 10
-7.817084247170503
 20
-4.53833382073185
 30
0.0
  9
$EXTMAX
 10
162.6313061010206
 20
111.3055795414362
 30
0.0
  9
$LIMMIN
 10
0.0
 20
0.0
  9
$LIMMAX
 10
12.0
 20
9.0
  9
$ORTHOMODE
 70
     0
  9
$REGENMODE
 70
     1
  9
$FILLMODE
 70
     1
  9
$QTEXTMODE
 70
     0
  9
$MIRRTEXT
 70
     0
  9
$LTSCALE
 40
1.0
  9
$ATTMODE
 70
     1
  9
$TEXTSIZE
 40
0.2
  9
$TRACEWID
 40
0.05
  9
$TEXTSTYLE
  7
Standard
  9
$CLAYER
  8
0
  9
$CELTYPE
  6
ByLayer
  9
$CECOLOR
 62
   256
  9
$CELTSCALE
 40
1.0
  9
$DISPSILH
 70
     0
  9
$DIMSCALE
 40
1.0
  9
$DIMASZ
 40
0.18
  9
$DIMEXO
 40
0.0625
  9
$DIMDLI
 40
0.38
  9
$DIMRND
 40
0.0
  9
$DIMDLE
 40
0.0
  9
$DIMEXE
 40
0.18
  9
$DIMTP
 40
0.0
  9
$DIMTM
 40
0.0
  9
$DIMTXT
 40
0.18
  9
$DIMCEN
 40
0.09
  9
$DIMTSZ
 40
0.0
  9
$DIMTOL
 70
     0
  9
$DIMLIM
 70
     0
  9
$DIMTIH
 70
     1
  9
$DIMTOH
 70
     1
  9
$DIMSE1
 70
     0
  9
$DIMSE2
 70
     0
  9
$DIMTAD
 70
     0
  9
$DIMZIN
 70
     0
  9
$DIMBLK
  1

  9
$DIMASO
 70
     1
  9
$DIMSHO
 70
     1
  9
$DIMPOST
  1

  9
$DIMAPOST
  1

  9
$DIMALT
 70
     0
  9
$DIMALTD
 70
     2
  9
$DIMALTF
 40
25.4
  9
$DIMLFAC
 40
1.0
  9
$DIMTOFL
 70
     0
  9
$DIMTVP
 40
0.0
  9
$DIMTIX
 70
     0
  9
$DIMSOXD
 70
     0
  9
$DIMSAH
 70
     0
  9
$DIMBLK1
  1

  9
$DIMBLK2
  1

  9
$DIMSTYLE
  2
Standard
  9
$DIMCLRD
 70
     0
  9
$DIMCLRE
 70
     0
  9
$DIMCLRT
 70
     0
  9
$DIMTFAC
 40
1.0
  9
$DIMGAP
 40
0.09
  9
$DIMJUST
 70
     0
  9
$DIMSD1
 70
     0
  9
$DIMSD2
 70
     0
  9
$DIMTOLJ
 70
     1
  9
$DIMTZIN
 70
     0
  9
$DIMALTZ
 70
     0
  9
$DIMALTTZ
 70
     0
  9
$DIMUPT
 70
     0
  9
$DIMDEC
 70
     4
  9
$DIMTDEC
 70
     4
  9
$DIMALTU
 70
     2
  9
$DIMALTTD
 70
     2
  9
$DIMTXSTY
  7
Standard
  9
$DIMAUNIT
 70
     0
  9
$DIMADEC
 70
     0
  9
$DIMALTRND
 40
0.0
  9
$DIMAZIN
 70
     0
  9
$DIMDSEP
 70
    46
  9
$DIMATFIT
 70
     3
  9
$DIMFRAC
 70
     0
  9
$DIMLDRBLK
  1

  9
$DIMLUNIT
 70
     2
  9
$DIMLWD
 70
    -2
  9
$DIMLWE
 70
    -2
  9
$DIMTMOVE
 70
     0
  9
$LUNITS
 70
     2
  9
$LUPREC
 70
     4
  9
$SKETCHINC
 40
0.1
  9
$FILLETRAD
 40
0.0
  9
$AUNITS
 70
     0
  9
$AUPREC
 70
     0
  9
$MENU
  1
.
  9
$ELEVATION
 40
0.0
  9
$PELEVATION
 40
0.0
  9
$THICKNESS
 40
0.0
  9
$LIMCHECK
 70
     0
  9
$CHAMFERA
 40
0.0
  9
$CHAMFERB
 40
0.0
  9
$CHAMFERC
 40
0.0
  9
$CHAMFERD
 40
0.0
  9
$SKPOLY
 70
     0
  9
$TDCREATE
 40
2456457.614827477
  9
$TDUCREATE
 40
2456457.531494144
  9
$TDUPDATE
 40
2456457.615402916
  9
$TDUUPDATE
 40
2456457.532069583
  9
$TDINDWG
 40
0.0005756250
  9
$TDUSRTIMER
 40
0.0005756250
  9
$USRTIMER
 70
     1
  9
$ANGBASE
 50
0.0
  9
$ANGDIR
 70
     0
  9
$PDMODE
 70
     0
  9
$PDSIZE
 40
0.0
  9
$PLINEWID
 40
0.0
  9
$SPLFRAME
 70
     0
  9
$SPLINETYPE
 70
     6
  9
$SPLINESEGS
 70
     8
  9
$HANDSEED
  5
4E4
  9
$SURFTAB1
 70
     6
  9
$SURFTAB2
 70
     6
  9
$SURFTYPE
 70
     6
  9
$SURFU
 70
     6
  9
$SURFV
 70
     6
  9
$UCSBASE
  2

  9
$UCSNAME
  2

  9
$UCSORG
 10
0.0
 20
0.0
 30
0.0
  9
$UCSXDIR
 10
1.0
 20
0.0
 30
0.0
  9
$UCSYDIR
 10
0.0
 20
1.0
 30
0.0
  9
$UCSORTHOREF
  2

  9
$UCSORTHOVIEW
 70
     0
  9
$UCSORGTOP
 10
0.0
 20
0.0
 30
0.0
  9
$UCSORGBOTTOM
 10
0.0
 20
0.0
 30
0.0
  9
$UCSORGLEFT
 10
0.0
 20
0.0
 30
0.0
  9
$UCSORGRIGHT
 10
0.0
 20
0.0
 30
0.0
  9
$UCSORGFRONT
 10
0.0
 20
0.0
 30
0.0
  9
$UCSORGBACK
 10
0.0
 20
0.0
 30
0.0
  9
$PUCSBASE
  2

  9
$PUCSNAME
  2

  9
$PUCSORG
 10
0.0
 20
0.0
 30
0.0
  9
$PUCSXDIR
 10
1.0
 20
0.0
 30
0.0
  9
$PUCSYDIR
 10
0.0
 20
1.0
 30
0.0
  9
$PUCSORTHOREF
  2

  9
$PUCSORTHOVIEW
 70
     0
  9
$PUCSORGTOP
 10
0.0
 20
0.0
 30
0.0
  9
$PUCSORGBOTTOM
 10
0.0
 20
0.0
 30
0.0
  9
$PUCSORGLEFT
 10
0.0
 20
0.0
 30
0.0
  9
$PUCSORGRIGHT
 10
0.0
 20
0.0
 30
0.0
  9
$PUCSORGFRONT
 10
0.0
 20
0.0
 30
0.0
  9
$PUCSORGBACK
 10
0.0
 20
0.0
 30
0.0
  9
$USERI1
 70
     0
  9
$USERI2
 70
     0
  9
$USERI3
 70
     0
  9
$USERI4
 70
     0
  9
$USERI5
 70
     0
  9
$USERR1
 40
0.0
  9
$USERR2
 40
0.0
  9
$USERR3
 40
0.0
  9
$USERR4
 40
0.0
  9
$USERR5
 40
0.0
  9
$WORLDVIEW
 70
     1
  9
$SHADEDGE
 70
     3
  9
$SHADEDIF
 70
    70
  9
$TILEMODE
 70
     1
  9
$MAXACTVP
 70
    64
  9
$PINSBASE
 10
0.0
 20
0.0
 30
0.0
  9
$PLIMCHECK
 70
     0
  9
$PEXTMIN
 10
0.0
 20
0.0
 30
0.0
  9
$PEXTMAX
 10
0.0
 20
0.0
 30
0.0
  9
$PLIMMIN
 10
0.0
 20
0.0
  9
$PLIMMAX
 10
12.0
 20
9.0
  9
$UNITMODE
 70
     0
  9
$VISRETAIN
 70
     1
  9
$PLINEGEN
 70
     0
  9
$PSLTSCALE
 70
     1
  9
$TREEDEPTH
 70
  3020
  9
$CMLSTYLE
  2
Standard
  9
$CMLJUST
 70
     0
  9
$CMLSCALE
 40
1.0
  9
$PROXYGRAPHICS
 70
     1
  9
$MEASUREMENT
 70
     0
  9
$CELWEIGHT
370
    -1
  9
$ENDCAPS
280
     0
  9
$JOINSTYLE
280
     0
  9
$LWDISPLAY
290
     0
  9
$INSUNITS
 70
     1
  9
$HYPERLINKBASE
  1

  9
$STYLESHEET
  1

  9
$XEDIT
290
     1
  9
$CEPSNTYPE
380
     0
  9
$PSTYLEMODE
290
     1
  9
$FINGERPRINTGUID
  2
{BA284BCB-E607-4A1C-B5AF-0C951AC9F9D0}
  9
$VERSIONGUID
  2
{B2633487-8D4B-4CE5-B14F-8CCD5DAEFA4B}
  9
$EXTNAMES
290
     1
  9
$PSVPSCALE
 40
0.0
  9
$OLESTARTUP
290
     0
  0
ENDSEC
  0
SECTION
  2
CLASSES
  0
CLASS
  1
ACDBDICTIONARYWDFLT
  2
AcDbDictionaryWithDefault
  3
ObjectDBX Classes
 90
        0
280
     0
281
     0
  0
CLASS
  1
ACDBPLACEHOLDER
  2
AcDbPlaceHolder
  3
ObjectDBX Classes
 90
        0
280
     0
281
     0
  0
CLASS
  1
LAYOUT
  2
AcDbLayout
  3
ObjectDBX Classes
 90
        0
280
     0
281
     0
  0
CLASS
  1
DICTIONARYVAR
  2
AcDbDictionaryVar
  3
ObjectDBX Classes
 90
        0
280
     0
281
     0
  0
CLASS
  1
TABLESTYLE
  2
AcDbTableStyle
  3
ObjectDBX Classes
 90
     4095
280
     0
281
     0
  0
CLASS
  1
MATERIAL
  2
AcDbMaterial
  3
ObjectDBX Classes
 90
     1153
280
     0
281
     0
  0
CLASS
  1
VISUALSTYLE
  2
AcDbVisualStyle
  3
ObjectDBX Classes
 90
     4095
280
     0
281
     0
  0
CLASS
  1
SCALE
  2
AcDbScale
  3
ObjectDBX Classes
 90
     1153
280
     0
281
     0
  0
CLASS
  1
MLEADERSTYLE
  2
AcDbMLeaderStyle
  3
ACDB_MLEADERSTYLE_CLASS
 90
     4095
280
     0
281
     0
  0
CLASS
  1
CELLSTYLEMAP
  2
AcDbCellStyleMap
  3
ObjectDBX Classes
 90
     1152
280
     0
281
     0
  0
CLASS
  1
SORTENTSTABLE
  2
AcDbSortentsTable
  3
ObjectDBX Classes
 90
        0
280
     0
281
     0
  0
ENDSEC
  0
SECTION
  2
TABLES
  0
TABLE
  2
VPORT
  5
8
330
0
100
AcDbSymbolTable
 70
     1
  0
VPORT
  5
94
330
8
100
AcDbSymbolTableRecord
100
AcDbViewportTableRecord
  2
*Active
 70
     0
 10
0.0
 20
0.0
 11
1.0
 21
1.0
 12
69.55342390931784
 22
44.26135832629053
 13
0.0
 23
0.0
 14
0.5
 24
0.5
 15
0.5
 25
0.5
 16
0.0
 26
0.0
 36
1.0
 17
0.0
 27
0.0
 37
0.0
 40
141.7623427793118
 41
1.207207207207207
 42
50.0
 43
0.0
 44
0.0
 50
0.0
 51
0.0
 71
     0
 72
  1000
 73
     1
 74
     3
 75
     0
 76
     0
 77
     0
 78
     0
281
     0
 65
     1
110
0.0
120
0.0
130
0.0
111
1.0
121
0.0
131
0.0
112
0.0
122
1.0
132
0.0
 79
     0
146
0.0
  0
ENDTAB
  0
TABLE
  2
LTYPE
  5
5
330
0
100
AcDbSymbolTable
 70
     1
  0
LTYPE
  5
14
330
5
100
AcDbSymbolTableRecord
100
AcDbLinetypeTableRecord
  2
ByBlock
 70
     0
  3

 72
    65
 73
     0
 40
0.0
  0
LTYPE
  5
15
330
5
100
AcDbSymbolTableRecord
100
AcDbLinetypeTableRecord
  2
ByLayer
 70
     0
  3

 72
    65
 73
     0
 40
0.0
  0
LTYPE
  5
16
330
5
100
AcDbSymbolTableRecord
100
AcDbLinetypeTableRecord
  2
Continuous
 70
     0
  3
Solid line
 72
    65
 73
     0
 40
0.0
  0
ENDTAB
  0
TABLE
  2
LAYER
  5
2
330
0
100
AcDbSymbolTable
 70
     3
  0
LAYER
  5
10
102
{ACAD_XDICTIONARY
360
E6
102
}
330
2
100
AcDbSymbolTableRecord
100
AcDbLayerTableRecord
  2
0
 70
     0
 62
     7
  6
Continuous
370
    -3
390
F
  0
LAYER
  5
189
330
2
100
AcDbSymbolTableRecord
100
AcDbLayerTableRecord
  2
Defpoints
 70
     0
 62
     7
  6
Continuous
290
     0
370
    -3
390
F
  0
LAYER
  5
18A
102
{ACAD_XDICTIONARY
360
4D0
102
}
330
2
100
AcDbSymbolTableRecord
100
AcDbLayerTableRecord
  2
QUOTE
 70
     0
 62
     7
  6
Continuous
370
    13
390
F
1001
AcAecLayerStandard
1000

1000

  0
ENDTAB
  0
TABLE
  2
STYLE
  5
3
330
0
100
AcDbSymbolTable
 70
     2
  0
STYLE
  5
11
330
3
100
AcDbSymbolTableRecord
100
AcDbTextStyleTableRecord
  2
Standard
 70
     0
 40
0.0
 41
1.0
 50
0.0
 71
     0
 42
0.2
  3
txt.shx
  4

  0
STYLE
  5
DC
330
3
100
AcDbSymbolTableRecord
100
AcDbTextStyleTableRecord
  2
Annotativa
 70
     0
 40
0.0
 41
1.0
 50
0.0
 71
     0
 42
0.2
  3
txt.shx
  4

1001
AcadAnnotative
1000
AnnotativeData
1002
{
1070
     1
1070
     1
1002
}
  0
ENDTAB
  0
TABLE
  2
VIEW
  5
6
330
0
100
AcDbSymbolTable
 70
     0
  0
ENDTAB
  0
TABLE
  2
UCS
  5
7
330
0
100
AcDbSymbolTable
 70
     0
  0
ENDTAB
  0
TABLE
  2
APPID
  5
9
330
0
100
AcDbSymbolTable
 70
     7
  0
APPID
  5
12
330
9
100
AcDbSymbolTableRecord
100
AcDbRegAppTableRecord
  2
ACAD
 70
     0
  0
APPID
  5
DD
330
9
100
AcDbSymbolTableRecord
100
AcDbRegAppTableRecord
  2
AcadAnnoPO
 70
     0
  0
APPID
  5
DE
330
9
100
AcDbSymbolTableRecord
100
AcDbRegAppTableRecord
  2
AcadAnnotative
 70
     0
  0
APPID
  5
DF
330
9
100
AcDbSymbolTableRecord
100
AcDbRegAppTableRecord
  2
ACAD_DSTYLE_DIMJAG
 70
     0
  0
APPID
  5
E0
330
9
100
AcDbSymbolTableRecord
100
AcDbRegAppTableRecord
  2
ACAD_DSTYLE_DIMTALN
 70
     0
  0
APPID
  5
107
330
9
100
AcDbSymbolTableRecord
100
AcDbRegAppTableRecord
  2
ACAD_MLEADERVER
 70
     0
  0
APPID
  5
18B
330
9
100
AcDbSymbolTableRecord
100
AcDbRegAppTableRecord
  2
AcAecLayerStandard
 70
     0
  0
ENDTAB
  0
TABLE
  2
DIMSTYLE
  5
A
330
0
100
AcDbSymbolTable
 70
     2
100
AcDbDimStyleTable
 71
     2
340
27
340
E1
  0
DIMSTYLE
105
27
102
{ACAD_REACTORS
330
308
330
309
330
38F
330
390
330
391
102
}
330
A
100
AcDbSymbolTableRecord
100
AcDbDimStyleTableRecord
  2
Standard
 70
     0
340
11
  0
DIMSTYLE
105
E1
330
A
100
AcDbSymbolTableRecord
100
AcDbDimStyleTableRecord
  2
Annotativa
 70
     0
 40
0.0
340
11
1001
AcadAnnotative
1000
AnnotativeData
1002
{
1070
     1
1070
     1
1002
}
1001
ACAD_DSTYLE_DIMJAG
1070
   388
1040
1.5
1001
ACAD_DSTYLE_DIMTALN
1070
   392
1070
     0
  0
ENDTAB
  0
TABLE
  2
BLOCK_RECORD
  5
1
330
0
100
AcDbSymbolTable
 70
    12
  0
BLOCK_RECORD
  5
1F
330
1
100
AcDbSymbolTableRecord
100
AcDbBlockTableRecord
  2
*Model_Space
340
22
  0
BLOCK_RECORD
  5
58
330
1
100
AcDbSymbolTableRecord
100
AcDbBlockTableRecord
  2
*Paper_Space
340
59
  0
BLOCK_RECORD
  5
5D
330
1
100
AcDbSymbolTableRecord
100
AcDbBlockTableRecord
  2
*Paper_Space0
340
5E
  0
BLOCK_RECORD
  5
14D
330
1
100
AcDbSymbolTableRecord
100
AcDbBlockTableRecord
  2
*D1
340
0
  0
BLOCK_RECORD
  5
159
330
1
100
AcDbSymbolTableRecord
100
AcDbBlockTableRecord
  2
*D2
340
0
  0
BLOCK_RECORD
  5
165
330
1
100
AcDbSymbolTableRecord
100
AcDbBlockTableRecord
  2
*D3
340
0
  0
BLOCK_RECORD
  5
171
330
1
100
AcDbSymbolTableRecord
100
AcDbBlockTableRecord
  2
*D4
340
0
  0
BLOCK_RECORD
  5
17D
330
1
100
AcDbSymbolTableRecord
100
AcDbBlockTableRecord
  2
*D5
340
0
  0
BLOCK_RECORD
  5
3F8
330
1
100
AcDbSymbolTableRecord
100
AcDbBlockTableRecord
  2
*D7
340
0
  0
BLOCK_RECORD
  5
405
330
1
100
AcDbSymbolTableRecord
100
AcDbBlockTableRecord
  2
*D8
340
0
  0
BLOCK_RECORD
  5
412
330
1
100
AcDbSymbolTableRecord
100
AcDbBlockTableRecord
  2
*D9
340
0
  0
BLOCK_RECORD
  5
41F
330
1
100
AcDbSymbolTableRecord
100
AcDbBlockTableRecord
  2
*D10
340
0
  0
BLOCK_RECORD
  5
42C
330
1
100
AcDbSymbolTableRecord
100
AcDbBlockTableRecord
  2
*D11
340
0
  0
ENDTAB
  0
ENDSEC
  0
SECTION
  2
BLOCKS
  0
BLOCK
  5
20
330
1F
100
AcDbEntity
  8
0
100
AcDbBlockBegin
  2
*Model_Space
 70
     0
 10
0.0
 20
0.0
 30
0.0
  3
*Model_Space
  1

  0
ENDBLK
  5
21
330
1F
100
AcDbEntity
  8
0
100
AcDbBlockEnd
  0
BLOCK
  5
5A
330
58
100
AcDbEntity
 67
     1
  8
0
100
AcDbBlockBegin
  2
*Paper_Space
 70
     0
 10
0.0
 20
0.0
 30
0.0
  3
*Paper_Space
  1

  0
ENDBLK
  5
5B
330
58
100
AcDbEntity
 67
     1
  8
0
100
AcDbBlockEnd
  0
BLOCK
  5
5F
330
5D
100
AcDbEntity
 67
     1
  8
0
100
AcDbBlockBegin
  2
*Paper_Space0
 70
     0
 10
0.0
 20
0.0
 30
0.0
  3
*Paper_Space0
  1

  0
ENDBLK
  5
60
330
5D
100
AcDbEntity
 67
     1
  8
0
100
AcDbBlockEnd
  0
BLOCK
  5
14E
330
14D
100
AcDbEntity
  8
0
 62
     1
100
AcDbBlockBegin
  2
*D1
 70
     1
 10
0.0
 20
0.0
 30
0.0
  3
*D1
  1

  0
LINE
  5
14F
330
14D
100
AcDbEntity
  8
QUOTE
 62
     0
370
    -2
100
AcDbLine
 10
-334.0280502379843
 20
-608.812336667065
 30
0.0
 11
-339.8498885697317
 21
-608.812336667065
 31
0.0
  0
LINE
  5
150
330
14D
100
AcDbEntity
  8
QUOTE
 62
     0
370
    -2
100
AcDbLine
 10
-328.4247700699589
 20
-518.3123366670651
 30
0.0
 11
-339.8498885697317
 21
-518.3123366670651
 31
0.0
  0
LINE
  5
151
330
14D
100
AcDbEntity
  8
QUOTE
 62
     0
370
    -2
100
AcDbLine
 10
-338.5998885697317
 20
-606.3123366670651
 30
0.0
 11
-338.5998885697317
 21
-520.812336667065
 31
0.0
  0
SOLID
  5
152
330
14D
100
AcDbEntity
  8
QUOTE
 62
     0
100
AcDbTrace
 10
-339.0165552363984
 20
-606.3123366670651
 30
0.0
 11
-338.183221903065
 21
-606.3123366670651
 31
0.0
 12
-338.5998885697317
 22
-608.812336667065
 32
0.0
 13
-338.5998885697317
 23
-608.812336667065
 33
0.0
  0
SOLID
  5
153
330
14D
100
AcDbEntity
  8
QUOTE
 62
     0
100
AcDbTrace
 10
-339.0165552363984
 20
-520.812336667065
 30
0.0
 11
-338.183221903065
 21
-520.812336667065
 31
0.0
 12
-338.5998885697317
 22
-518.3123366670651
 32
0.0
 13
-338.5998885697317
 23
-518.3123366670651
 33
0.0
  0
MTEXT
  5
154
330
14D
100
AcDbEntity
  8
QUOTE
 62
     0
100
AcDbMText
 10
-342.0986801721824
 20
-563.5623366670651
 30
0.0
 40
5.0
 41
0.0
 71
     5
 72
     1
  1
90,5
 11
0.0000000000000001
 21
1.0
 31
0.0
 73
     1
 44
1.0
1001
ACAD
1000
MTEXTBEGIN
1070
    73
1070
     1
1070
    44
1040
1.0
1070
    74
1070
     0
1000
MTEXTEND
  0
POINT
  5
155
330
14D
100
AcDbEntity
  8
Defpoints
 62
     0
100
AcDbPoint
 10
-333.4030502379843
 20
-608.812336667065
 30
0.0
  0
POINT
  5
156
330
14D
100
AcDbEntity
  8
Defpoints
 62
     0
100
AcDbPoint
 10
-327.7997700699589
 20
-518.3123366670651
 30
0.0
  0
POINT
  5
157
330
14D
100
AcDbEntity
  8
Defpoints
 62
     0
100
AcDbPoint
 10
-338.5998885697317
 20
-518.3123366670651
 30
0.0
  0
ENDBLK
  5
158
330
14D
100
AcDbEntity
  8
0
 62
     1
100
AcDbBlockEnd
  0
BLOCK
  5
15A
330
159
100
AcDbEntity
  8
0
 62
     1
100
AcDbBlockBegin
  2
*D2
 70
     1
 10
0.0
 20
0.0
 30
0.0
  3
*D2
  1

  0
LINE
  5
15B
330
159
100
AcDbEntity
  8
QUOTE
 62
     0
370
    -2
100
AcDbLine
 10
-327.7997700699589
 20
-517.687336667065
 30
0.0
 11
-327.7997700699589
 21
-509.3859189106035
 31
0.0
  0
LINE
  5
15C
330
159
100
AcDbEntity
  8
QUOTE
 62
     0
370
    -2
100
AcDbLine
 10
-283.8030502379843
 20
-520.1477004995342
 30
0.0
 11
-283.8030502379843
 21
-509.3859189106035
 31
0.0
  0
LINE
  5
15D
330
159
100
AcDbEntity
  8
QUOTE
 62
     0
370
    -2
100
AcDbLine
 10
-325.2997700699589
 20
-510.6359189106036
 30
0.0
 11
-286.3030502379843
 21
-510.6359189106036
 31
0.0
  0
SOLID
  5
15E
330
159
100
AcDbEntity
  8
QUOTE
 62
     0
100
AcDbTrace
 10
-325.2997700699589
 20
-510.2192522439368
 30
0.0
 11
-325.2997700699589
 21
-511.0525855772702
 31
0.0
 12
-327.7997700699589
 22
-510.6359189106036
 32
0.0
 13
-327.7997700699589
 23
-510.6359189106036
 33
0.0
  0
SOLID
  5
15F
330
159
100
AcDbEntity
  8
QUOTE
 62
     0
100
AcDbTrace
 10
-286.3030502379843
 20
-510.2192522439368
 30
0.0
 11
-286.3030502379843
 21
-511.0525855772702
 31
0.0
 12
-283.8030502379843
 22
-510.6359189106036
 32
0.0
 13
-283.8030502379843
 23
-510.6359189106036
 33
0.0
  0
MTEXT
  5
160
330
159
100
AcDbEntity
  8
QUOTE
 62
     0
100
AcDbMText
 10
-305.8014101539716
 20
-507.5109189106036
 30
0.0
 40
5.0
 41
0.0
 71
     5
 72
     1
  1
44
 73
     1
 44
1.0
1001
ACAD
1000
MTEXTBEGIN
1070
    73
1070
     1
1070
    44
1040
1.0
1070
    74
1070
     0
1000
MTEXTEND
  0
POINT
  5
161
330
159
100
AcDbEntity
  8
Defpoints
 62
     0
100
AcDbPoint
 10
-327.7997700699589
 20
-518.3123366670651
 30
0.0
  0
POINT
  5
162
330
159
100
AcDbEntity
  8
Defpoints
 62
     0
100
AcDbPoint
 10
-283.8030502379843
 20
-520.7727004995343
 30
0.0
  0
POINT
  5
163
330
159
100
AcDbEntity
  8
Defpoints
 62
     0
100
AcDbPoint
 10
-283.8030502379843
 20
-510.6359189106036
 30
0.0
  0
ENDBLK
  5
164
330
159
100
AcDbEntity
  8
0
 62
     1
100
AcDbBlockEnd
  0
BLOCK
  5
166
330
165
100
AcDbEntity
  8
0
 62
     1
100
AcDbBlockBegin
  2
*D3
 70
     1
 10
0.0
 20
0.0
 30
0.0
  3
*D3
  1

  0
LINE
  5
167
330
165
100
AcDbEntity
  8
QUOTE
 62
     0
370
    -2
100
AcDbLine
 10
-327.7997700699589
 20
-603.7492474995342
 30
0.0
 11
-327.7997700699589
 21
-619.6048322727716
 31
0.0
  0
LINE
  5
168
330
165
100
AcDbEntity
  8
QUOTE
 62
     0
370
    -2
100
AcDbLine
 10
-264.799770069959
 20
-581.6217584995342
 30
0.0
 11
-264.799770069959
 21
-619.6048322727716
 31
0.0
  0
LINE
  5
169
330
165
100
AcDbEntity
  8
QUOTE
 62
     0
370
    -2
100
AcDbLine
 10
-325.2997700699589
 20
-618.3548322727716
 30
0.0
 11
-267.299770069959
 21
-618.3548322727716
 31
0.0
  0
SOLID
  5
16A
330
165
100
AcDbEntity
  8
QUOTE
 62
     0
100
AcDbTrace
 10
-325.2997700699589
 20
-617.938165606105
 30
0.0
 11
-325.2997700699589
 21
-618.7714989394383
 31
0.0
 12
-327.7997700699589
 22
-618.3548322727716
 32
0.0
 13
-327.7997700699589
 23
-618.3548322727716
 33
0.0
  0
SOLID
  5
16B
330
165
100
AcDbEntity
  8
QUOTE
 62
     0
100
AcDbTrace
 10
-267.299770069959
 20
-617.938165606105
 30
0.0
 11
-267.299770069959
 21
-618.7714989394383
 31
0.0
 12
-264.799770069959
 22
-618.3548322727716
 32
0.0
 13
-264.799770069959
 23
-618.3548322727716
 33
0.0
  0
MTEXT
  5
16C
330
165
100
AcDbEntity
  8
QUOTE
 62
     0
100
AcDbMText
 10
-296.2997700699589
 20
-615.2298322727716
 30
0.0
 40
5.0
 41
0.0
 71
     5
 72
     1
  1
63
 73
     1
 44
1.0
1001
ACAD
1000
MTEXTBEGIN
1070
    73
1070
     1
1070
    44
1040
1.0
1070
    74
1070
     0
1000
MTEXTEND
  0
POINT
  5
16D
330
165
100
AcDbEntity
  8
Defpoints
 62
     0
100
AcDbPoint
 10
-327.7997700699589
 20
-603.1242474995342
 30
0.0
  0
POINT
  5
16E
330
165
100
AcDbEntity
  8
Defpoints
 62
     0
100
AcDbPoint
 10
-264.799770069959
 20
-580.9967584995343
 30
0.0
  0
POINT
  5
16F
330
165
100
AcDbEntity
  8
Defpoints
 62
     0
100
AcDbPoint
 10
-264.799770069959
 20
-618.3548322727716
 30
0.0
  0
ENDBLK
  5
170
330
165
100
AcDbEntity
  8
0
 62
     1
100
AcDbBlockEnd
  0
BLOCK
  5
172
330
171
100
AcDbEntity
  8
0
 62
     1
100
AcDbBlockBegin
  2
*D4
 70
     1
 10
0.0
 20
0.0
 30
0.0
  3
*D4
  1

  0
LINE
  5
173
330
171
100
AcDbEntity
  8
QUOTE
 62
     0
370
    -2
100
AcDbLine
 10
-411.1722059270437
 20
-517.8050914995118
 30
0.0
 11
-411.1722059270437
 21
-509.4801009105811
 31
0.0
  0
LINE
  5
174
330
171
100
AcDbEntity
  8
QUOTE
 62
     0
370
    -2
100
AcDbLine
 10
-366.1722069270437
 20
-517.8050914995118
 30
0.0
 11
-366.1722069270437
 21
-509.4801009105811
 31
0.0
  0
LINE
  5
175
330
171
100
AcDbEntity
  8
QUOTE
 62
     0
370
    -2
100
AcDbLine
 10
-408.6722059270437
 20
-510.7301009105811
 30
0.0
 11
-368.6722069270438
 21
-510.7301009105811
 31
0.0
  0
SOLID
  5
176
330
171
100
AcDbEntity
  8
QUOTE
 62
     0
100
AcDbTrace
 10
-408.6722059270437
 20
-510.3134342439144
 30
0.0
 11
-408.6722059270437
 21
-511.1467675772478
 31
0.0
 12
-411.1722059270437
 22
-510.7301009105811
 32
0.0
 13
-411.1722059270437
 23
-510.7301009105811
 33
0.0
  0
SOLID
  5
177
330
171
100
AcDbEntity
  8
QUOTE
 62
     0
100
AcDbTrace
 10
-368.6722069270438
 20
-510.3134342439144
 30
0.0
 11
-368.6722069270438
 21
-511.1467675772478
 31
0.0
 12
-366.1722069270437
 22
-510.7301009105811
 32
0.0
 13
-366.1722069270437
 23
-510.7301009105811
 33
0.0
  0
MTEXT
  5
178
330
171
100
AcDbEntity
  8
QUOTE
 62
     0
100
AcDbMText
 10
-388.6722064270438
 20
-507.6051009105811
 30
0.0
 40
5.0
 41
0.0
 71
     5
 72
     1
  1
45
 73
     1
 44
1.0
1001
ACAD
1000
MTEXTBEGIN
1070
    73
1070
     1
1070
    44
1040
1.0
1070
    74
1070
     0
1000
MTEXTEND
  0
POINT
  5
179
330
171
100
AcDbEntity
  8
Defpoints
 62
     0
100
AcDbPoint
 10
-411.1722059270437
 20
-518.4300914995118
 30
0.0
  0
POINT
  5
17A
330
171
100
AcDbEntity
  8
Defpoints
 62
     0
100
AcDbPoint
 10
-366.1722069270437
 20
-518.4300914995118
 30
0.0
  0
POINT
  5
17B
330
171
100
AcDbEntity
  8
Defpoints
 62
     0
100
AcDbPoint
 10
-366.1722069270437
 20
-510.7301009105811
 30
0.0
  0
ENDBLK
  5
17C
330
171
100
AcDbEntity
  8
0
 62
     1
100
AcDbBlockEnd
  0
BLOCK
  5
17E
330
17D
100
AcDbEntity
  8
0
 62
     1
100
AcDbBlockBegin
  2
*D5
 70
     1
 10
0.0
 20
0.0
 30
0.0
  3
*D5
  1

  0
LINE
  5
17F
330
17D
100
AcDbEntity
  8
QUOTE
 62
     0
370
    -2
100
AcDbLine
 10
-411.3472097530693
 20
-603.230070499427
 30
0.0
 11
-423.1648270848167
 21
-603.230070499427
 31
0.0
  0
LINE
  5
180
330
17D
100
AcDbEntity
  8
QUOTE
 62
     0
370
    -2
100
AcDbLine
 10
-411.3472069270438
 20
-518.2300784995118
 30
0.0
 11
-423.1648270848167
 21
-518.2300784995118
 31
0.0
  0
LINE
  5
181
330
17D
100
AcDbEntity
  8
QUOTE
 62
     0
370
    -2
100
AcDbLine
 10
-421.9148270848167
 20
-600.730070499427
 30
0.0
 11
-421.9148270848167
 21
-520.7300784995118
 31
0.0
  0
SOLID
  5
182
330
17D
100
AcDbEntity
  8
QUOTE
 62
     0
100
AcDbTrace
 10
-422.3314937514833
 20
-600.730070499427
 30
0.0
 11
-421.4981604181501
 21
-600.730070499427
 31
0.0
 12
-421.9148270848167
 22
-603.230070499427
 32
0.0
 13
-421.9148270848167
 23
-603.230070499427
 33
0.0
  0
SOLID
  5
183
330
17D
100
AcDbEntity
  8
QUOTE
 62
     0
100
AcDbTrace
 10
-422.3314937514833
 20
-520.7300784995118
 30
0.0
 11
-421.4981604181501
 21
-520.7300784995118
 31
0.0
 12
-421.9148270848167
 22
-518.2300784995118
 32
0.0
 13
-421.9148270848167
 23
-518.2300784995118
 33
0.0
  0
MTEXT
  5
184
330
17D
100
AcDbEntity
  8
QUOTE
 62
     0
100
AcDbMText
 10
-425.0398270848166
 20
-560.7300744994695
 30
0.0
 40
5.0
 41
0.0
 71
     5
 72
     1
  1
85
 11
0.0000000000000001
 21
1.0
 31
0.0
 73
     1
 44
1.0
1001
ACAD
1000
MTEXTBEGIN
1070
    73
1070
     1
1070
    44
1040
1.0
1070
    74
1070
     0
1000
MTEXTEND
  0
POINT
  5
185
330
17D
100
AcDbEntity
  8
Defpoints
 62
     0
100
AcDbPoint
 10
-410.7222097530693
 20
-603.230070499427
 30
0.0
  0
POINT
  5
186
330
17D
100
AcDbEntity
  8
Defpoints
 62
     0
100
AcDbPoint
 10
-410.7222069270437
 20
-518.2300784995118
 30
0.0
  0
POINT
  5
187
330
17D
100
AcDbEntity
  8
Defpoints
 62
     0
100
AcDbPoint
 10
-421.9148270848167
 20
-518.2300784995118
 30
0.0
  0
ENDBLK
  5
188
330
17D
100
AcDbEntity
  8
0
 62
     1
100
AcDbBlockEnd
  0
BLOCK
  5
3F9
330
3F8
100
AcDbEntity
  8
0
100
AcDbBlockBegin
  2
*D7
 70
     1
 10
0.0
 20
0.0
 30
0.0
  3
*D7
  1

  0
LINE
  5
4BB
330
3F8
100
AcDbEntity
  8
QUOTE
 62
     0
370
    -2
100
AcDbLine
 10
16.25887024393583
 20
97.94890695252798
 30
0.0
 11
16.25887024393583
 21
105.7663975414586
 31
0.0
  0
LINE
  5
4BC
330
3F8
100
AcDbEntity
  8
QUOTE
 62
     0
370
    -2
100
AcDbLine
 10
61.25886924393583
 20
97.94890695252798
 30
0.0
 11
61.25886924393583
 21
105.7663975414586
 31
0.0
  0
LINE
  5
4BD
330
3F8
100
AcDbEntity
  8
QUOTE
 62
     0
370
    -2
100
AcDbLine
 10
21.25887024393583
 20
105.5863975414586
 30
0.0
 11
31.5855364106025
 21
105.5863975414586
 31
0.0
  0
LINE
  5
4BE
330
3F8
100
AcDbEntity
  8
QUOTE
 62
     0
370
    -2
100
AcDbLine
 10
56.25886924393583
 20
105.5863975414586
 30
0.0
 11
45.93220307726916
 21
105.5863975414586
 31
0.0
  0
SOLID
  5
4BF
330
3F8
100
AcDbEntity
  8
QUOTE
 62
     0
100
AcDbTrace
 10
21.25887024393583
 20
106.419730874792
 30
0.0
 11
21.25887024393583
 21
104.7530642081253
 31
0.0
 12
16.25887024393583
 22
105.5863975414586
 32
0.0
 13
16.25887024393583
 23
105.5863975414586
 33
0.0
  0
SOLID
  5
4C0
330
3F8
100
AcDbEntity
  8
QUOTE
 62
     0
100
AcDbTrace
 10
56.25886924393583
 20
106.419730874792
 30
0.0
 11
56.25886924393583
 21
104.7530642081253
 31
0.0
 12
61.25886924393583
 22
105.5863975414586
 32
0.0
 13
61.25886924393583
 23
105.5863975414586
 33
0.0
  0
MTEXT
  5
4C1
330
3F8
100
AcDbEntity
  8
QUOTE
 62
     0
100
AcDbMText
 10
38.75886974393583
 20
105.5863975414586
 30
0.0
 40
5.0
 41
0.0
 71
     5
 72
     1
  1
\A1;45.0
 73
     1
 44
1.0
1001
ACAD
1000
MTEXTBEGIN
1070
    73
1070
     1
1070
    44
1040
1.0
1070
    74
1070
     0
1000
MTEXTEND
  0
POINT
  5
4C2
330
3F8
100
AcDbEntity
  8
Defpoints
 62
     0
100
AcDbPoint
 10
16.25887024393583
 20
97.88640695252798
 30
0.0
  0
POINT
  5
4C3
330
3F8
100
AcDbEntity
  8
Defpoints
 62
     0
100
AcDbPoint
 10
61.25886924393583
 20
97.88640695252798
 30
0.0
  0
POINT
  5
4C4
330
3F8
100
AcDbEntity
  8
Defpoints
 62
     0
100
AcDbPoint
 10
61.25886924393583
 20
105.5863975414586
 30
0.0
  0
ENDBLK
  5
3FA
330
3F8
100
AcDbEntity
  8
0
100
AcDbBlockEnd
  0
BLOCK
  5
406
330
405
100
AcDbEntity
  8
0
100
AcDbBlockBegin
  2
*D8
 70
     1
 10
0.0
 20
0.0
 30
0.0
  3
*D8
  1

  0
LINE
  5
4C5
330
405
100
AcDbEntity
  8
QUOTE
 62
     0
370
    -2
100
AcDbLine
 10
16.64636641791028
 20
13.08642795261278
 30
0.0
 11
5.336249086162825
 21
13.08642795261278
 31
0.0
  0
LINE
  5
4C6
330
405
100
AcDbEntity
  8
QUOTE
 62
     0
370
    -2
100
AcDbLine
 10
16.64636924393582
 20
98.08641995252799
 30
0.0
 11
5.336249086162845
 21
98.08641995252799
 31
0.0
  0
LINE
  5
4C7
330
405
100
AcDbEntity
  8
QUOTE
 62
     0
370
    -2
100
AcDbLine
 10
5.516249086162826
 20
18.08642795261278
 30
0.0
 11
5.516249086162833
 21
52.99642395257038
 31
0.0
  0
LINE
  5
4C8
330
405
100
AcDbEntity
  8
QUOTE
 62
     0
370
    -2
100
AcDbLine
 10
5.516249086162842
 20
93.08641995252799
 30
0.0
 11
5.516249086162835
 21
58.17642395257038
 31
0.0
  0
SOLID
  5
4C9
330
405
100
AcDbEntity
  8
QUOTE
 62
     0
100
AcDbTrace
 10
4.682915752829493
 20
18.08642795261278
 30
0.0
 11
6.349582419496159
 21
18.08642795261278
 31
0.0
 12
5.516249086162824
 22
13.08642795261278
 32
0.0
 13
5.516249086162824
 23
13.08642795261278
 33
0.0
  0
SOLID
  5
4CA
330
405
100
AcDbEntity
  8
QUOTE
 62
     0
100
AcDbTrace
 10
4.682915752829509
 20
93.08641995252799
 30
0.0
 11
6.349582419496175
 21
93.08641995252799
 31
0.0
 12
5.516249086162844
 22
98.08641995252799
 32
0.0
 13
5.516249086162844
 23
98.08641995252799
 33
0.0
  0
MTEXT
  5
4CB
330
405
100
AcDbEntity
  8
QUOTE
 62
     0
100
AcDbMText
 10
5.516249086162825
 20
55.58642395257038
 30
0.0
 40
5.0
 41
0.0
 71
     5
 72
     1
  1
\A1;85.0
 73
     1
 44
1.0
1001
ACAD
1000
MTEXTBEGIN
1070
    73
1070
     1
1070
    44
1040
1.0
1070
    74
1070
     0
1000
MTEXTEND
  0
POINT
  5
4CC
330
405
100
AcDbEntity
  8
Defpoints
 62
     0
100
AcDbPoint
 10
16.70886641791028
 20
13.08642795261278
 30
0.0
  0
POINT
  5
4CD
330
405
100
AcDbEntity
  8
Defpoints
 62
     0
100
AcDbPoint
 10
16.70886924393582
 20
98.08641995252799
 30
0.0
  0
POINT
  5
4CE
330
405
100
AcDbEntity
  8
Defpoints
 62
     0
100
AcDbPoint
 10
5.516249086162844
 20
98.08641995252799
 30
0.0
  0
ENDBLK
  5
407
330
405
100
AcDbEntity
  8
0
100
AcDbBlockEnd
  0
BLOCK
  5
413
330
412
100
AcDbEntity
  8
0
100
AcDbBlockBegin
  2
*D9
 70
     1
 10
0.0
 20
0.0
 30
0.0
  3
*D9
  1

  0
LINE
  5
4A7
330
412
100
AcDbEntity
  8
QUOTE
 62
     0
370
    -2
100
AcDbLine
 10
93.9655259329953
 20
7.504161784974713
 30
0.0
 11
88.65118760124785
 21
7.504161784974714
 31
0.0
  0
LINE
  5
4A8
330
412
100
AcDbEntity
  8
QUOTE
 62
     0
370
    -2
100
AcDbLine
 10
99.56880610102068
 20
98.00416178497471
 30
0.0
 11
88.65118760124786
 21
98.00416178497473
 31
0.0
  0
LINE
  5
4A9
330
412
100
AcDbEntity
  8
QUOTE
 62
     0
370
    -2
100
AcDbLine
 10
88.83118760124785
 20
12.50416178497471
 30
0.0
 11
88.83118760124785
 21
50.16416178497472
 31
0.0
  0
LINE
  5
4AA
330
412
100
AcDbEntity
  8
QUOTE
 62
     0
370
    -2
100
AcDbLine
 10
88.83118760124785
 20
93.00416178497473
 30
0.0
 11
88.83118760124785
 21
55.34416178497473
 31
0.0
  0
SOLID
  5
4AB
330
412
100
AcDbEntity
  8
QUOTE
 62
     0
100
AcDbTrace
 10
87.99785426791451
 20
12.50416178497471
 30
0.0
 11
89.66452093458118
 21
12.50416178497471
 31
0.0
 12
88.83118760124785
 22
7.504161784974714
 32
0.0
 13
88.83118760124785
 23
7.504161784974714
 33
0.0
  0
SOLID
  5
4AC
330
412
100
AcDbEntity
  8
QUOTE
 62
     0
100
AcDbTrace
 10
87.99785426791453
 20
93.00416178497473
 30
0.0
 11
89.66452093458119
 21
93.00416178497473
 31
0.0
 12
88.83118760124787
 22
98.00416178497473
 32
0.0
 13
88.83118760124787
 23
98.00416178497473
 33
0.0
  0
MTEXT
  5
4AD
330
412
100
AcDbEntity
  8
QUOTE
 62
     0
100
AcDbMText
 10
88.83118760124785
 20
52.75416178497473
 30
0.0
 40
5.0
 41
0.0
 71
     5
 72
     1
  1
\A1;90.5
 73
     1
 44
1.0
1001
ACAD
1000
MTEXTBEGIN
1070
    73
1070
     1
1070
    44
1040
1.0
1070
    74
1070
     0
1000
MTEXTEND
  0
POINT
  5
4AE
330
412
100
AcDbEntity
  8
Defpoints
 62
     0
100
AcDbPoint
 10
94.02802593299529
 20
7.504161784974712
 30
0.0
  0
POINT
  5
4AF
330
412
100
AcDbEntity
  8
Defpoints
 62
     0
100
AcDbPoint
 10
99.63130610102068
 20
98.00416178497471
 30
0.0
  0
POINT
  5
4B0
330
412
100
AcDbEntity
  8
Defpoints
 62
     0
100
AcDbPoint
 10
88.83118760124787
 20
98.00416178497473
 30
0.0
  0
ENDBLK
  5
414
330
412
100
AcDbEntity
  8
0
100
AcDbBlockEnd
  0
BLOCK
  5
420
330
41F
100
AcDbEntity
  8
0
100
AcDbBlockBegin
  2
*D10
 70
     1
 10
0.0
 20
0.0
 30
0.0
  3
*D10
  1

  0
LINE
  5
4B1
330
41F
100
AcDbEntity
  8
QUOTE
 62
     0
370
    -2
100
AcDbLine
 10
99.63130610102068
 20
98.06666178497472
 30
0.0
 11
99.63130610102068
 21
105.8605795414362
 31
0.0
  0
LINE
  5
4B2
330
41F
100
AcDbEntity
  8
QUOTE
 62
     0
370
    -2
100
AcDbLine
 10
143.6280259329953
 20
95.60629795250553
 30
0.0
 11
143.6280259329953
 21
105.8605795414362
 31
0.0
  0
LINE
  5
4B3
330
41F
100
AcDbEntity
  8
QUOTE
 62
     0
370
    -2
100
AcDbLine
 10
104.6313061010206
 20
105.6805795414362
 30
0.0
 11
114.4563326836746
 21
105.6805795414362
 31
0.0
  0
LINE
  5
4B4
330
41F
100
AcDbEntity
  8
QUOTE
 62
     0
370
    -2
100
AcDbLine
 10
138.6280259329953
 20
105.6805795414362
 30
0.0
 11
128.8029993503413
 21
105.6805795414362
 31
0.0
  0
SOLID
  5
4B5
330
41F
100
AcDbEntity
  8
QUOTE
 62
     0
100
AcDbTrace
 10
104.6313061010206
 20
106.5139128747696
 30
0.0
 11
104.6313061010206
 21
104.8472462081029
 31
0.0
 12
99.63130610102068
 22
105.6805795414362
 32
0.0
 13
99.63130610102068
 23
105.6805795414362
 33
0.0
  0
SOLID
  5
4B6
330
41F
100
AcDbEntity
  8
QUOTE
 62
     0
100
AcDbTrace
 10
138.6280259329953
 20
106.5139128747696
 30
0.0
 11
138.6280259329953
 21
104.8472462081029
 31
0.0
 12
143.6280259329953
 22
105.6805795414362
 32
0.0
 13
143.6280259329953
 23
105.6805795414362
 33
0.0
  0
MTEXT
  5
4B7
330
41F
100
AcDbEntity
  8
QUOTE
 62
     0
100
AcDbMText
 10
121.629666017008
 20
105.6805795414362
 30
0.0
 40
5.0
 41
0.0
 71
     5
 72
     1
  1
\A1;44.0
 73
     1
 44
1.0
1001
ACAD
1000
MTEXTBEGIN
1070
    73
1070
     1
1070
    44
1040
1.0
1070
    74
1070
     0
1000
MTEXTEND
  0
POINT
  5
4B8
330
41F
100
AcDbEntity
  8
Defpoints
 62
     0
100
AcDbPoint
 10
99.63130610102068
 20
98.00416178497471
 30
0.0
  0
POINT
  5
4B9
330
41F
100
AcDbEntity
  8
Defpoints
 62
     0
100
AcDbPoint
 10
143.6280259329953
 20
95.54379795250554
 30
0.0
  0
POINT
  5
4BA
330
41F
100
AcDbEntity
  8
Defpoints
 62
     0
100
AcDbPoint
 10
143.6280259329953
 20
105.6805795414362
 30
0.0
  0
ENDBLK
  5
421
330
41F
100
AcDbEntity
  8
0
100
AcDbBlockEnd
  0
BLOCK
  5
42D
330
42C
100
AcDbEntity
  8
0
100
AcDbBlockBegin
  2
*D11
 70
     1
 10
0.0
 20
0.0
 30
0.0
  3
*D11
  1

  0
LINE
  5
49D
330
42C
100
AcDbEntity
  8
QUOTE
 62
     0
370
    -2
100
AcDbLine
 10
99.63130610102068
 20
13.12975095250556
 30
0.0
 11
99.63130610102068
 21
-2.218333820731849
 31
0.0
  0
LINE
  5
49E
330
42C
100
AcDbEntity
  8
QUOTE
 62
     0
370
    -2
100
AcDbLine
 10
162.6313061010206
 20
35.25723995250553
 30
0.0
 11
162.6313061010206
 21
-2.218333820731849
 31
0.0
  0
LINE
  5
49F
330
42C
100
AcDbEntity
  8
QUOTE
 62
     0
370
    -2
100
AcDbLine
 10
104.6313061010206
 20
-2.03833382073185
 30
0.0
 11
123.9579727676873
 21
-2.03833382073185
 31
0.0
  0
LINE
  5
4A0
330
42C
100
AcDbEntity
  8
QUOTE
 62
     0
370
    -2
100
AcDbLine
 10
157.6313061010206
 20
-2.03833382073185
 30
0.0
 11
138.304639434354
 21
-2.03833382073185
 31
0.0
  0
SOLID
  5
4A1
330
42C
100
AcDbEntity
  8
QUOTE
 62
     0
100
AcDbTrace
 10
104.6313061010206
 20
-1.205000487398516
 30
0.0
 11
104.6313061010206
 21
-2.871667154065183
 31
0.0
 12
99.63130610102068
 22
-2.03833382073185
 32
0.0
 13
99.63130610102068
 23
-2.03833382073185
 33
0.0
  0
SOLID
  5
4A2
330
42C
100
AcDbEntity
  8
QUOTE
 62
     0
100
AcDbTrace
 10
157.6313061010206
 20
-1.205000487398516
 30
0.0
 11
157.6313061010206
 21
-2.871667154065183
 31
0.0
 12
162.6313061010206
 22
-2.03833382073185
 32
0.0
 13
162.6313061010206
 23
-2.03833382073185
 33
0.0
  0
MTEXT
  5
4A3
330
42C
100
AcDbEntity
  8
QUOTE
 62
     0
100
AcDbMText
 10
131.1313061010206
 20
-2.03833382073185
 30
0.0
 40
5.0
 41
0.0
 71
     5
 72
     1
  1
\A1;63.0
 73
     1
 44
1.0
1001
ACAD
1000
MTEXTBEGIN
1070
    73
1070
     1
1070
    44
1040
1.0
1070
    74
1070
     0
1000
MTEXTEND
  0
POINT
  5
4A4
330
42C
100
AcDbEntity
  8
Defpoints
 62
     0
100
AcDbPoint
 10
99.63130610102068
 20
13.19225095250556
 30
0.0
  0
POINT
  5
4A5
330
42C
100
AcDbEntity
  8
Defpoints
 62
     0
100
AcDbPoint
 10
162.6313061010206
 20
35.31973995250553
 30
0.0
  0
POINT
  5
4A6
330
42C
100
AcDbEntity
  8
Defpoints
 62
     0
100
AcDbPoint
 10
162.6313061010206
 20
-2.03833382073185
 30
0.0
  0
ENDBLK
  5
42E
330
42C
100
AcDbEntity
  8
0
100
AcDbBlockEnd
  0
ENDSEC
  0
SECTION
  2
ENTITIES
  0
LINE
  5
2C5
330
1F
100
AcDbEntity
  8
0
 62
     7
 48
0.0525
370
    35
100
AcDbLine
 10
38.75886224391221
 20
88.2864409526128
 30
0.0
 11
36.6588562439122
 21
88.2864409526128
 31
0.0
  0
LINE
  5
2C6
330
1F
100
AcDbEntity
  8
0
 62
     7
 48
0.0525
370
    35
100
AcDbLine
 10
38.75886224391221
 20
88.2864409526128
 30
0.0
 11
40.85886824391216
 21
88.2864409526128
 31
0.0
  0
LINE
  5
2C7
330
1F
100
AcDbEntity
  8
0
 62
     7
 48
0.01625
370
    35
100
AcDbLine
 10
40.85886824391216
 20
88.2864409526128
 30
0.0
 11
40.85886824391216
 21
88.93643495261278
 31
0.0
  0
LINE
  5
2C8
330
1F
100
AcDbEntity
  8
0
 62
     7
 48
0.0525
370
    35
100
AcDbLine
 10
38.75886224391221
 20
88.93643495261278
 30
0.0
 11
40.85886824391216
 21
88.93643495261278
 31
0.0
  0
LINE
  5
2C9
330
1F
100
AcDbEntity
  8
0
 62
     7
 48
0.0525
370
    35
100
AcDbLine
 10
38.75886224391221
 20
88.93643495261278
 30
0.0
 11
36.6588562439122
 21
88.93643495261278
 31
0.0
  0
LINE
  5
2CA
330
1F
100
AcDbEntity
  8
0
 62
     7
 48
0.01625
370
    35
100
AcDbLine
 10
36.6588562439122
 20
88.2864409526128
 30
0.0
 11
36.6588562439122
 21
88.93643495261278
 31
0.0
  0
LINE
  5
2CB
330
1F
100
AcDbEntity
  8
0
 62
     7
370
    13
100
AcDbLine
 10
16.2588622439122
 20
95.43799095261272
 30
0.0
 11
61.25886224391215
 21
95.43799095261272
 31
0.0
  0
LINE
  5
2CC
330
1F
100
AcDbEntity
  8
0
 62
     7
370
    35
100
AcDbLine
 10
16.45886396562301
 20
78.0862763052886
 30
0.0
 11
61.05886052915102
 21
78.08627630532441
 31
0.0
  0
CIRCLE
  5
2CD
330
1F
100
AcDbEntity
  8
0
 62
     7
370
    35
100
AcDbCircle
 10
38.75886224391221
 20
89.58642895261277
 30
0.0
 40
3.25
  0
LINE
  5
2CE
330
1F
100
AcDbEntity
  8
0
 62
     7
 48
0.4512500000000001
370
    13
100
AcDbLine
 10
16.25886224391215
 20
35.21393095261271
 30
0.0
 11
42.75886224391221
 21
35.21393095261271
 31
0.0
  0
LINE
  5
2CF
330
1F
100
AcDbEntity
  8
0
 62
     7
 48
0.4512500000000001
370
    13
100
AcDbLine
 10
16.25886224391215
 20
75.95892595261273
 30
0.0
 11
42.75886224391221
 21
75.95892595261273
 31
0.0
  0
LINE
  5
2D0
330
1F
100
AcDbEntity
  8
0
 62
     7
 48
0.057497
370
    35
100
AcDbLine
 10
16.25886224391215
 20
13.43496995261273
 30
0.0
 11
16.25886224391215
 21
15.73486595261272
 31
0.0
  0
LINE
  5
2D1
330
1F
100
AcDbEntity
  8
0
 62
     7
 48
0.044999
370
    35
100
AcDbLine
 10
16.25886224391215
 20
75.95892595261273
 30
0.0
 11
16.25886224391215
 21
77.75888295261279
 31
0.0
  0
LINE
  5
2D2
330
1F
100
AcDbEntity
  8
0
 62
     7
370
    35
100
AcDbLine
 10
16.25886224391215
 20
75.95892595261273
 30
0.0
 11
16.25886224391215
 21
35.21393095261271
 31
0.0
  0
LINE
  5
2D3
330
1F
100
AcDbEntity
  8
0
 62
     7
 48
0.044999
370
    35
100
AcDbLine
 10
16.25886224391215
 20
33.41397395261277
 30
0.0
 11
16.25886224391215
 21
35.21393095261271
 31
0.0
  0
LINE
  5
2D4
330
1F
100
AcDbEntity
  8
0
 62
     7
 48
0.057497
370
    35
100
AcDbLine
 10
16.25886224391215
 20
95.43799095261272
 30
0.0
 11
16.25886224391215
 21
97.73788695261282
 31
0.0
  0
LINE
  5
2D5
330
1F
100
AcDbEntity
  8
0
 62
     7
 48
0.438746
370
    35
100
AcDbLine
 10
16.25886224391215
 20
77.8881559526128
 30
0.0
 11
16.25886224391215
 21
95.43799095261272
 31
0.0
  0
ARC
  5
2D6
330
1F
100
AcDbEntity
  8
0
 62
     7
370
    35
100
AcDbCircle
 10
16.45783724391211
 20
77.88717895261277
 30
0.0
 40
0.1991
100
AcDbArc
 50
89.70453500000116
 51
179.7196939999971
  0
LINE
  5
2D7
330
1F
100
AcDbEntity
  8
0
 62
     7
 48
0.003713
370
    35
100
AcDbLine
 10
16.25886224391215
 20
97.88641595261276
 30
0.0
 11
16.25886224391215
 21
97.73788695261282
 31
0.0
  0
ARC
  5
2D8
330
1F
100
AcDbEntity
  8
0
 62
     7
370
    35
100
AcDbCircle
 10
16.4588742439121
 20
97.88641595261276
 30
0.0
 40
0.200004
100
AcDbArc
 50
90.00166900000079
 51
180.0008829999951
  0
LINE
  5
2D9
330
1F
100
AcDbEntity
  8
0
 62
     7
 48
0.003232
370
    35
100
AcDbLine
 10
16.25886224391215
 20
33.41397395261277
 30
0.0
 11
16.25886224391215
 21
33.28470095261276
 31
0.0
  0
ARC
  5
2DA
330
1F
100
AcDbEntity
  8
0
 62
     7
370
    35
100
AcDbCircle
 10
16.45783724391211
 20
33.28567795261279
 30
0.0
 40
0.199099
100
AcDbArc
 50
180.2805110000033
 51
270.295827000001
  0
LINE
  5
2DB
330
1F
100
AcDbEntity
  8
0
 62
     7
 48
0.003232
370
    35
100
AcDbLine
 10
16.25886224391215
 20
77.75888295261279
 30
0.0
 11
16.25886224391215
 21
77.8881559526128
 31
0.0
  0
LINE
  5
2DC
330
1F
100
AcDbEntity
  8
0
 62
     7
 48
0.003713
370
    35
100
AcDbLine
 10
16.25886224391215
 20
13.28644095261279
 30
0.0
 11
16.25886224391215
 21
13.43496995261273
 31
0.0
  0
ARC
  5
2DD
330
1F
100
AcDbEntity
  8
0
 62
     7
370
    35
100
AcDbCircle
 10
16.4588742439121
 20
13.28644095261279
 30
0.0
 40
0.200004
100
AcDbArc
 50
179.9991170000049
 51
269.9983309999992
  0
LINE
  5
2DE
330
1F
100
AcDbEntity
  8
0
 62
     7
 48
0.438746
370
    35
100
AcDbLine
 10
16.25886224391215
 20
15.73486595261272
 30
0.0
 11
16.25886224391215
 21
33.28470095261276
 31
0.0
  0
LINE
  5
2DF
330
1F
100
AcDbEntity
  8
0
 62
     7
 48
0.4512500000000001
370
    13
100
AcDbLine
 10
42.75886224391221
 20
75.95892595261273
 30
0.0
 11
61.2588622439122
 21
75.95892595261273
 31
0.0
  0
LINE
  5
2E0
330
1F
100
AcDbEntity
  8
0
 62
     7
 48
0.4512500000000001
370
    13
100
AcDbLine
 10
42.75886224391221
 20
35.21393095261271
 30
0.0
 11
61.25886224391209
 21
35.21393095261271
 31
0.0
  0
LINE
  5
2E1
330
1F
100
AcDbEntity
  8
0
 62
     7
370
    35
100
AcDbLine
 10
16.45886841788652
 20
98.08641995252799
 30
0.0
 11
61.05885607691917
 21
98.08641995252777
 31
0.0
  0
LINE
  5
2E2
330
1F
100
AcDbEntity
  8
0
 62
     7
370
    35
100
AcDbLine
 10
16.45886841788652
 20
13.08643695269768
 30
0.0
 11
61.05885605248406
 21
13.08643695269711
 31
0.0
  0
LINE
  5
2E3
330
1F
100
AcDbEntity
  8
0
 62
     7
370
    13
100
AcDbLine
 10
16.25886224391215
 20
15.73486595261272
 30
0.0
 11
61.25886224391215
 21
15.73486595261272
 31
0.0
  0
LINE
  5
2E4
330
1F
100
AcDbEntity
  8
0
 62
     7
 48
0.057497
370
    35
100
AcDbLine
 10
61.25886224391215
 20
13.43496995261273
 30
0.0
 11
61.25886224391215
 21
15.73486595261272
 31
0.0
  0
LINE
  5
2E5
330
1F
100
AcDbEntity
  8
0
 62
     7
 48
0.044999
370
    35
100
AcDbLine
 10
61.25886224391215
 20
75.95892595261273
 30
0.0
 11
61.25886224391215
 21
77.75888295261279
 31
0.0
  0
LINE
  5
2E6
330
1F
100
AcDbEntity
  8
0
 62
     7
370
    35
100
AcDbLine
 10
61.25886224391215
 20
75.95892595261273
 30
0.0
 11
61.25886224391215
 21
35.21393095261271
 31
0.0
  0
LINE
  5
2E7
330
1F
100
AcDbEntity
  8
0
 62
     7
 48
0.044999
370
    35
100
AcDbLine
 10
61.25886224391215
 20
33.41397395261277
 30
0.0
 11
61.25886224391215
 21
35.21393095261271
 31
0.0
  0
LINE
  5
2E8
330
1F
100
AcDbEntity
  8
0
 62
     7
 48
0.057497
370
    35
100
AcDbLine
 10
61.25886224391215
 20
95.43799095261272
 30
0.0
 11
61.25886224391215
 21
97.73788695261282
 31
0.0
  0
LINE
  5
2E9
330
1F
100
AcDbEntity
  8
0
 62
     7
 48
0.438746
370
    35
100
AcDbLine
 10
61.25886224391215
 20
95.43799095261272
 30
0.0
 11
61.25886224391215
 21
77.8881559526128
 31
0.0
  0
ARC
  5
2EA
330
1F
100
AcDbEntity
  8
0
 62
     7
370
    35
100
AcDbCircle
 10
61.05988724391213
 20
77.88717895261277
 30
0.0
 40
0.1991
100
AcDbArc
 50
0.2803050000025262
 51
90.29546299999871
  0
LINE
  5
2EB
330
1F
100
AcDbEntity
  8
0
 62
     7
 48
0.003713
370
    35
100
AcDbLine
 10
61.25886224391215
 20
97.73788695261282
 30
0.0
 11
61.25886224391215
 21
97.88641595261276
 31
0.0
  0
ARC
  5
2EC
330
1F
100
AcDbEntity
  8
0
 62
     7
370
    35
100
AcDbCircle
 10
61.05885024391213
 20
97.88641595261276
 30
0.0
 40
0.200004
100
AcDbArc
 50
359.9991079999988
 51
89.99832899999965
  0
LINE
  5
2ED
330
1F
100
AcDbEntity
  8
0
 62
     7
 48
0.003232
370
    35
100
AcDbLine
 10
61.25886224391215
 20
33.41397395261277
 30
0.0
 11
61.25886224391215
 21
33.28470095261276
 31
0.0
  0
ARC
  5
2EE
330
1F
100
AcDbEntity
  8
0
 62
     7
370
    35
100
AcDbCircle
 10
61.05988724391213
 20
33.28567795261279
 30
0.0
 40
0.199099
100
AcDbArc
 50
269.7041680000002
 51
359.7194799999999
  0
LINE
  5
2EF
330
1F
100
AcDbEntity
  8
0
 62
     7
 48
0.003232
370
    35
100
AcDbLine
 10
61.25886224391215
 20
77.8881559526128
 30
0.0
 11
61.25886224391215
 21
77.75888295261279
 31
0.0
  0
LINE
  5
2F0
330
1F
100
AcDbEntity
  8
0
 62
     7
 48
0.003713
370
    35
100
AcDbLine
 10
61.25886224391215
 20
13.43496995261273
 30
0.0
 11
61.25886224391215
 21
13.28644095261279
 31
0.0
  0
ARC
  5
2F1
330
1F
100
AcDbEntity
  8
0
 62
     7
370
    35
100
AcDbCircle
 10
61.05885024391213
 20
13.28644095261279
 30
0.0
 40
0.200004
100
AcDbArc
 50
270.0016640000003
 51
0.0008840000030215
  0
LINE
  5
2F2
330
1F
100
AcDbEntity
  8
0
 62
     7
 48
0.438746
370
    35
100
AcDbLine
 10
61.25886224391215
 20
33.28470095261276
 30
0.0
 11
61.25886224391215
 21
15.73486595261272
 31
0.0
  0
CIRCLE
  5
2F3
330
1F
100
AcDbEntity
  8
0
 62
     7
370
    35
100
AcDbCircle
 10
38.75886224391221
 20
81.58642895261278
 30
0.0
 40
3.150000000000005
  0
CIRCLE
  5
2F4
330
1F
100
AcDbEntity
  8
0
 62
     7
370
    35
100
AcDbCircle
 10
49.75886224391221
 20
29.58642895261278
 30
0.0
 40
3.150000000000005
  0
CIRCLE
  5
2F5
330
1F
100
AcDbEntity
  8
0
 62
     7
370
    35
100
AcDbCircle
 10
27.75886224391221
 20
29.58642895261278
 30
0.0
 40
3.150000000000005
  0
LINE
  5
2F6
330
1F
100
AcDbEntity
  8
0
 62
     7
370
    35
100
AcDbLine
 10
16.45771829907565
 20
33.0865789881426
 30
0.0
 11
61.05885925207459
 21
33.08658160650419
 31
0.0
  0
LINE
  5
2F7
330
1F
100
AcDbEntity
  8
0
 62
     7
 48
0.03625
370
    35
100
AcDbLine
 10
38.75886224391221
 20
86.98642195261276
 30
0.0
 11
37.30886524391215
 21
86.98642195261276
 31
0.0
  0
LINE
  5
2F8
330
1F
100
AcDbEntity
  8
0
 62
     7
 48
0.03625
370
    35
100
AcDbLine
 10
38.75886224391221
 20
86.98642195261276
 30
0.0
 11
40.20885924391214
 21
86.98642195261276
 31
0.0
  0
LINE
  5
2F9
330
1F
100
AcDbEntity
  8
0
 62
     7
 48
0.01625
370
    35
100
AcDbLine
 10
40.20885924391214
 20
86.98642195261276
 30
0.0
 11
40.20885924391214
 21
87.63641595261276
 31
0.0
  0
LINE
  5
2FA
330
1F
100
AcDbEntity
  8
0
 62
     7
 48
0.03625
370
    35
100
AcDbLine
 10
38.75886224391221
 20
87.63641595261276
 30
0.0
 11
40.20885924391214
 21
87.63641595261276
 31
0.0
  0
LINE
  5
2FB
330
1F
100
AcDbEntity
  8
0
 62
     7
 48
0.03625
370
    35
100
AcDbLine
 10
38.75886224391221
 20
87.63641595261276
 30
0.0
 11
37.30886524391215
 21
87.63641595261276
 31
0.0
  0
LINE
  5
2FC
330
1F
100
AcDbEntity
  8
0
 62
     7
 48
0.01625
370
    35
100
AcDbLine
 10
37.30886524391215
 20
86.98642195261276
 30
0.0
 11
37.30886524391215
 21
87.63641595261276
 31
0.0
  0
LINE
  5
2FD
330
1F
100
AcDbEntity
  8
0
 62
     7
 48
0.060625
370
    35
100
AcDbLine
 10
39.08385924391215
 20
90.23642195261277
 30
0.0
 11
41.50886224391221
 21
90.23642195261277
 31
0.0
  0
LINE
  5
2FE
330
1F
100
AcDbEntity
  8
0
 62
     7
 48
0.055
370
    35
100
AcDbLine
 10
39.08385924391215
 20
90.23642195261277
 30
0.0
 11
39.08385924391215
 21
92.43643495261279
 31
0.0
  0
LINE
  5
2FF
330
1F
100
AcDbEntity
  8
0
 62
     7
 48
0.008125
370
    35
100
AcDbLine
 10
38.75886224391221
 20
92.43643495261279
 30
0.0
 11
39.08385924391215
 21
92.43643495261279
 31
0.0
  0
LINE
  5
300
330
1F
100
AcDbEntity
  8
0
 62
     7
 48
0.008125
370
    35
100
AcDbLine
 10
38.75886224391221
 20
92.43643495261279
 30
0.0
 11
38.43386524391215
 21
92.43643495261279
 31
0.0
  0
LINE
  5
301
330
1F
100
AcDbEntity
  8
0
 62
     7
 48
0.055
370
    35
100
AcDbLine
 10
38.43386524391215
 20
90.23642195261277
 30
0.0
 11
38.43386524391215
 21
92.43643495261279
 31
0.0
  0
LINE
  5
302
330
1F
100
AcDbEntity
  8
0
 62
     7
 48
0.060625
370
    35
100
AcDbLine
 10
38.43386524391215
 20
90.23642195261277
 30
0.0
 11
36.00886224391221
 21
90.23642195261277
 31
0.0
  0
LINE
  5
303
330
1F
100
AcDbEntity
  8
0
 62
     7
 48
0.01625
370
    35
100
AcDbLine
 10
36.00886224391221
 20
89.58642895261277
 30
0.0
 11
36.00886224391221
 21
90.23642195261277
 31
0.0
  0
LINE
  5
304
330
1F
100
AcDbEntity
  8
0
 62
     7
 48
0.06875
370
    35
100
AcDbLine
 10
38.75886224391221
 20
89.58642895261277
 30
0.0
 11
36.00886224391221
 21
89.58642895261277
 31
0.0
  0
LINE
  5
305
330
1F
100
AcDbEntity
  8
0
 62
     7
 48
0.06875
370
    35
100
AcDbLine
 10
38.75886224391221
 20
89.58642895261277
 30
0.0
 11
41.50886224391221
 21
89.58642895261277
 31
0.0
  0
LINE
  5
306
330
1F
100
AcDbEntity
  8
0
 62
     7
 48
0.01625
370
    35
100
AcDbLine
 10
41.50886224391221
 20
89.58642895261277
 30
0.0
 11
41.50886224391221
 21
90.23642195261277
 31
0.0
  0
POINT
  5
307
330
1F
100
AcDbEntity
  8
0
 62
     7
370
     5
100
AcDbPoint
 10
38.75886224391221
 20
89.58642895261277
 30
0.0
  0
DIMENSION
  5
308
330
1F
100
AcDbEntity
  8
QUOTE
 62
     1
100
AcDbDimension
  2
*D7
 10
61.25886924393583
 20
105.5863975414586
 30
0.0
 11
38.75886974393583
 21
105.5863975414586
 31
0.0
 70
    32
 71
     5
 42
44.999999
  3
Standard
100
AcDbAlignedDimension
 13
16.25887024393583
 23
97.88640695252798
 33
0.0
 14
61.25886924393583
 24
97.88640695252798
 34
0.0
100
AcDbRotatedDimension
1001
ACAD
1000
DSTYLE
1002
{
1070
   271
1070
     1
1070
    41
1040
5.0
1070
   140
1040
5.0
1002
}
  0
DIMENSION
  5
309
330
1F
100
AcDbEntity
  8
QUOTE
 62
     1
100
AcDbDimension
  2
*D8
 10
5.516249086162844
 20
98.08641995252799
 30
0.0
 11
5.516249086162825
 21
55.58642395257038
 31
0.0
 70
    32
 71
     5
 42
84.9999919999152
  3
Standard
100
AcDbAlignedDimension
 13
16.70886641791028
 23
13.08642795261278
 33
0.0
 14
16.70886924393582
 24
98.08641995252799
 34
0.0
 50
90.0
100
AcDbRotatedDimension
1001
ACAD
1000
DSTYLE
1002
{
1070
   271
1070
     1
1070
    41
1040
5.0
1070
   140
1040
5.0
1002
}
  0
ARC
  5
30A
330
1F
100
AcDbEntity
  8
0
 62
     7
370
    35
100
AcDbCircle
 10
41.34054423518532
 20
10.00416178497471
 30
0.0
 40
0.5
100
AcDbArc
 50
269.9999969999991
 51
344.9999999999993
  0
ARC
  5
30B
330
1F
100
AcDbEntity
  8
0
 62
     7
370
    35
100
AcDbCircle
 10
36.17717923518532
 20
10.00416178497471
 30
0.0
 40
0.5
100
AcDbArc
 50
195.0000060000005
 51
269.9999969999991
  0
LINE
  5
30C
330
1F
100
AcDbEntity
  8
0
 62
     7
 48
0.129084
370
    35
100
AcDbLine
 10
41.34054423518532
 20
9.504161784974712
 30
0.0
 11
36.17717923518532
 21
9.504161784974712
 31
0.0
  0
LINE
  5
30D
330
1F
100
AcDbEntity
  8
0
 62
     7
 48
0.019411
370
    35
100
AcDbLine
 10
41.82350723518536
 20
9.874751784974705
 30
0.0
 11
42.02446923518536
 21
10.6247517849747
 31
0.0
  0
ARC
  5
30E
330
1F
100
AcDbEntity
  8
0
 62
     7
370
    35
100
AcDbCircle
 10
41.54150623518532
 20
10.75416178497471
 30
0.0
 40
0.5
100
AcDbArc
 50
344.9999999999993
 51
90.00000300000095
  0
LINE
  5
30F
330
1F
100
AcDbEntity
  8
0
 62
     7
 48
0.019411
370
    35
100
AcDbLine
 10
35.69421623518534
 20
9.874751784974705
 30
0.0
 11
35.49325523518533
 21
10.6247517849747
 31
0.0
  0
ARC
  5
310
330
1F
100
AcDbEntity
  8
0
 62
     7
370
    35
100
AcDbCircle
 10
35.97621723518538
 20
10.75416178497471
 30
0.0
 40
0.5
100
AcDbArc
 50
90.00000300000095
 51
195.0000060000005
  0
LINE
  5
311
330
1F
100
AcDbEntity
  8
0
 62
     7
 48
0.018868
370
    35
100
AcDbLine
 10
36.73093223518535
 20
11.25416178497471
 30
0.0
 11
35.97621723518538
 21
11.25416178497471
 31
0.0
  0
ARC
  5
312
330
1F
100
AcDbEntity
  8
0
 62
     7
370
    35
100
AcDbCircle
 10
36.73093223518535
 20
11.55416078497467
 30
0.0
 40
0.3
100
AcDbArc
 50
269.9999969999991
 51
351.5850320000029
  0
LINE
  5
313
330
1F
100
AcDbEntity
  8
0
 62
     7
 48
0.018868
370
    35
100
AcDbLine
 10
41.54150623518532
 20
11.25416178497471
 30
0.0
 11
40.78679223518534
 21
11.25416178497471
 31
0.0
  0
ARC
  5
314
330
1F
100
AcDbEntity
  8
0
 62
     7
370
    35
100
AcDbCircle
 10
38.75886223518532
 20
11.25416178497471
 30
0.0
 40
1.75
100
AcDbArc
 50
8.41496799999709
 51
171.5850340000029
  0
ARC
  5
315
330
1F
100
AcDbEntity
  8
0
 62
     7
370
    35
100
AcDbCircle
 10
40.78679223518534
 20
11.55416078497467
 30
0.0
 40
0.3
100
AcDbArc
 50
188.414965999997
 51
269.9999969999991
  0
LINE
  5
316
330
1F
100
AcDbEntity
  8
0
 62
     7
 48
0.061249
370
    35
100
AcDbLine
 10
44.09863923518535
 20
10.63825578497471
 30
0.0
 11
44.73273223518535
 21
13.08643695269722
 31
0.0
  0
LINE
  5
317
330
1F
100
AcDbEntity
  8
0
 62
     7
 48
0.033158
370
    35
100
AcDbLine
 10
44.09863923518535
 20
10.63825578497471
 30
0.0
 11
43.75535923518535
 21
9.357112784974674
 31
0.0
  0
ARC
  5
318
330
1F
100
AcDbEntity
  8
0
 62
     7
370
    35
100
AcDbCircle
 10
41.34054423518532
 20
10.00416178497471
 30
0.0
 40
2.5
100
AcDbArc
 50
269.9999969999991
 51
344.9999999999993
  0
LINE
  5
319
330
1F
100
AcDbEntity
  8
0
 62
     7
 48
0.129084
370
    35
100
AcDbLine
 10
36.17717923518532
 20
7.504161784974712
 30
0.0
 11
41.34054423518532
 21
7.504161784974712
 31
0.0
  0
ARC
  5
31A
330
1F
100
AcDbEntity
  8
0
 62
     7
370
    35
100
AcDbCircle
 10
36.17717923518532
 20
10.00416178497471
 30
0.0
 40
2.5
100
AcDbArc
 50
195.0000060000005
 51
269.9999969999991
  0
LINE
  5
31B
330
1F
100
AcDbEntity
  8
0
 62
     7
 48
0.033158
370
    35
100
AcDbLine
 10
33.41908423518535
 20
10.63825578497471
 30
0.0
 11
33.76236423518534
 21
9.357112784974674
 31
0.0
  0
LINE
  5
31C
330
1F
100
AcDbEntity
  8
0
 62
     7
 48
0.061234
370
    35
100
AcDbLine
 10
33.41908423518535
 20
10.63825578497471
 30
0.0
 11
32.78514223518536
 21
13.08643695269745
 31
0.0
  0
LINE
  5
31D
330
1F
100
AcDbEntity
  8
0
 62
     7
 48
0.4337890000000001
370
    35
100
AcDbLine
 10
143.6280259329953
 20
78.19225095250556
 30
0.0
 11
143.6280259329953
 21
95.54379795250554
 31
0.0
  0
ARC
  5
31E
330
1F
100
AcDbEntity
  8
0
 62
     7
370
    35
100
AcDbCircle
 10
141.1280259329953
 20
95.54379795250554
 30
0.0
 40
2.5
100
AcDbArc
 50
0.0
 51
89.49999900000156
  0
LINE
  5
31F
330
1F
100
AcDbEntity
  8
0
 62
     7
 48
0.36545
370
    35
100
AcDbLine
 10
160.6487591010206
 20
78.06468595250556
 30
0.0
 11
143.6280259329953
 21
78.19225095250556
 31
0.0
  0
LINE
  5
320
330
1F
100
AcDbEntity
  8
0
 62
     7
370
    35
100
AcDbLine
 10
162.6313061010206
 20
76.06476195250559
 30
0.0
 11
162.6313061010206
 21
35.31973995250553
 31
0.0
  0
ARC
  5
321
330
1F
100
AcDbEntity
  8
0
 62
     7
370
    35
100
AcDbCircle
 10
160.6313061010206
 20
76.06476195250559
 30
0.0
 40
2.0
100
AcDbArc
 50
0.0
 51
89.49999900000156
  0
LINE
  5
322
330
1F
100
AcDbEntity
  8
0
 62
     7
 48
0.4255620000000001
370
    35
100
AcDbLine
 10
124.1280259329953
 20
98.19225095250557
 30
0.0
 11
141.1498429329953
 21
98.04370295250556
 31
0.0
  0
ARC
  5
323
330
1F
100
AcDbEntity
  8
0
 62
     7
370
    35
100
AcDbCircle
 10
141.4280349329953
 20
23.09225995250563
 30
0.0
 40
0.199989
100
AcDbArc
 50
359.9993879999944
 51
90.00057600000067
  0
LINE
  5
324
330
1F
100
AcDbEntity
  8
0
 62
     7
 48
0.188726
370
    35
100
AcDbLine
 10
141.6280259329953
 20
23.09225995250563
 30
0.0
 11
141.6280259329953
 21
15.54322595250562
 31
0.0
  0
ARC
  5
325
330
1F
100
AcDbEntity
  8
0
 62
     7
370
    35
100
AcDbCircle
 10
141.4280359329953
 20
15.54322195250563
 30
0.0
 40
0.199989
100
AcDbArc
 50
270.4994070000007
 51
0.0005610000056622
  0
ARC
  5
326
330
1F
100
AcDbEntity
  8
0
 62
     7
370
    35
100
AcDbCircle
 10
126.3280159329952
 20
15.41144695250557
 30
0.0
 40
0.199989
100
AcDbArc
 50
179.999377000005
 51
270.5005890000014
  0
LINE
  5
327
330
1F
100
AcDbEntity
  8
0
 62
     7
 48
0.377515
370
    35
100
AcDbLine
 10
141.4297779329952
 20
15.34324095250565
 30
0.0
 11
126.3297629329953
 21
15.21146595250559
 31
0.0
  0
LINE
  5
328
330
1F
100
AcDbEntity
  8
0
 62
     7
 48
0.19202
370
    35
100
AcDbLine
 10
126.1280259329953
 20
15.41145095250556
 30
0.0
 11
126.1280259329953
 21
23.09225995250563
 31
0.0
  0
ARC
  5
329
330
1F
100
AcDbEntity
  8
0
 62
     7
370
    35
100
AcDbCircle
 10
126.3280159329952
 20
23.09225995250563
 30
0.0
 40
0.199989
100
AcDbArc
 50
89.99938800000093
 51
180.000581999996
  0
LINE
  5
32A
330
1F
100
AcDbEntity
  8
0
 62
     7
 48
0.3775
370
    35
100
AcDbLine
 10
126.3280179329952
 20
23.29224895250559
 30
0.0
 11
141.4280329329953
 21
23.29224895250559
 31
0.0
  0
ARC
  5
32B
330
1F
100
AcDbEntity
  8
0
 62
     7
370
    35
100
AcDbCircle
 10
132.7280269329953
 20
27.89225195250561
 30
0.0
 40
0.2
100
AcDbArc
 50
269.9999969999991
 51
0.0
  0
LINE
  5
32C
330
1F
100
AcDbEntity
  8
0
 62
     7
 48
0.14
370
    35
100
AcDbLine
 10
132.9280259329952
 20
27.89225195250561
 30
0.0
 11
132.9280259329952
 21
33.49224995250563
 31
0.0
  0
ARC
  5
32D
330
1F
100
AcDbEntity
  8
0
 62
     7
370
    35
100
AcDbCircle
 10
132.7280269329953
 20
33.49224995250563
 30
0.0
 40
0.2
100
AcDbArc
 50
0.0
 51
90.00000300000095
  0
ARC
  5
32E
330
1F
100
AcDbEntity
  8
0
 62
     7
370
    35
100
AcDbCircle
 10
129.1280259329953
 20
33.49224995250563
 30
0.0
 40
0.2
100
AcDbArc
 50
90.00000300000095
 51
180.0000050000005
  0
LINE
  5
32F
330
1F
100
AcDbEntity
  8
0
 62
     7
 48
0.14
370
    35
100
AcDbLine
 10
128.9280259329952
 20
27.89225195250561
 30
0.0
 11
128.9280259329952
 21
33.49224995250563
 31
0.0
  0
ARC
  5
330
330
1F
100
AcDbEntity
  8
0
 62
     7
370
    35
100
AcDbCircle
 10
129.1280259329953
 20
27.89225195250561
 30
0.0
 40
0.2
100
AcDbArc
 50
180.0000050000005
 51
269.9999969999991
  0
LINE
  5
331
330
1F
100
AcDbEntity
  8
0
 62
     7
 48
0.09
370
    35
100
AcDbLine
 10
132.7280269329953
 20
27.69225095250556
 30
0.0
 11
129.1280259329953
 21
27.69225095250556
 31
0.0
  0
LINE
  5
332
330
1F
100
AcDbEntity
  8
0
 62
     7
 48
0.09
370
    35
100
AcDbLine
 10
132.7280269329953
 20
33.69225095250556
 30
0.0
 11
129.1280259329953
 21
33.69225095250556
 31
0.0
  0
ARC
  5
333
330
1F
100
AcDbEntity
  8
0
 62
     7
370
    35
100
AcDbCircle
 10
129.1280259329953
 20
83.49224995250564
 30
0.0
 40
0.2
100
AcDbArc
 50
90.00000300000095
 51
180.0000050000005
  0
LINE
  5
334
330
1F
100
AcDbEntity
  8
0
 62
     7
 48
0.14
370
    35
100
AcDbLine
 10
128.9280259329952
 20
83.49224995250564
 30
0.0
 11
128.9280259329952
 21
77.8922519525056
 31
0.0
  0
ARC
  5
335
330
1F
100
AcDbEntity
  8
0
 62
     7
370
    35
100
AcDbCircle
 10
129.1280259329953
 20
77.8922519525056
 30
0.0
 40
0.2
100
AcDbArc
 50
180.0000050000005
 51
269.9999969999991
  0
ARC
  5
336
330
1F
100
AcDbEntity
  8
0
 62
     7
370
    35
100
AcDbCircle
 10
132.7280269329953
 20
83.49224995250564
 30
0.0
 40
0.2
100
AcDbArc
 50
0.0
 51
90.00000300000095
  0
LINE
  5
337
330
1F
100
AcDbEntity
  8
0
 62
     7
 48
0.14
370
    35
100
AcDbLine
 10
132.9280259329952
 20
83.49224995250564
 30
0.0
 11
132.9280259329952
 21
77.8922519525056
 31
0.0
  0
ARC
  5
338
330
1F
100
AcDbEntity
  8
0
 62
     7
370
    35
100
AcDbCircle
 10
132.7280269329953
 20
77.8922519525056
 30
0.0
 40
0.2
100
AcDbArc
 50
269.9999969999991
 51
0.0
  0
LINE
  5
339
330
1F
100
AcDbEntity
  8
0
 62
     7
 48
0.09
370
    35
100
AcDbLine
 10
132.7280269329953
 20
83.69225095250556
 30
0.0
 11
129.1280259329953
 21
83.69225095250556
 31
0.0
  0
LINE
  5
33A
330
1F
100
AcDbEntity
  8
0
 62
     7
 48
0.09
370
    35
100
AcDbLine
 10
132.7280269329953
 20
77.69225095250556
 30
0.0
 11
129.1280259329953
 21
77.69225095250556
 31
0.0
  0
LINE
  5
33B
330
1F
100
AcDbEntity
  8
0
 62
     7
370
    35
100
AcDbLine
 10
124.1280259329953
 20
13.39225895250558
 30
0.0
 11
124.1262877990025
 21
98.19223584641997
 31
0.0
  0
LINE
  5
33C
330
1F
100
AcDbEntity
  8
0
 62
     7
 48
0.4255620000000001
370
    35
100
AcDbLine
 10
124.1280259329953
 20
13.19225095250556
 30
0.0
 11
141.1498429329953
 21
13.34079895250556
 31
0.0
  0
LINE
  5
33D
330
1F
100
AcDbEntity
  8
0
 62
     7
 48
0.005
370
    35
100
AcDbLine
 10
124.1280259329953
 20
13.19225095250556
 30
0.0
 11
124.1280259329953
 21
13.39225895250558
 31
0.0
  0
ARC
  5
33E
330
1F
100
AcDbEntity
  8
0
 62
     7
370
    35
100
AcDbCircle
 10
141.1280259329953
 20
15.84070395250558
 30
0.0
 40
2.5
100
AcDbArc
 50
270.5000009999984
 51
0.0
  0
LINE
  5
33F
330
1F
100
AcDbEntity
  8
0
 62
     7
 48
0.4337890000000001
370
    35
100
AcDbLine
 10
143.6280259329953
 20
15.84070395250558
 30
0.0
 11
143.6280259329953
 21
33.19225095250556
 31
0.0
  0
LINE
  5
340
330
1F
100
AcDbEntity
  8
0
 62
     7
 48
0.36545
370
    35
100
AcDbLine
 10
160.6487592069225
 20
33.31981610668186
 30
0.0
 11
143.6280259329953
 21
33.19225095250556
 31
0.0
  0
ARC
  5
341
330
1F
100
AcDbEntity
  8
0
 62
     7
370
    35
100
AcDbCircle
 10
160.6313061010206
 20
35.31973995250553
 30
0.0
 40
2.0
100
AcDbArc
 50
270.5000009999984
 51
0.0
  0
LINE
  5
342
330
1F
100
AcDbEntity
  8
0
 62
     7
 48
0.062502
370
    35
100
AcDbLine
 10
160.6487591010206
 20
33.31981595250557
 30
0.0
 11
162.6313061010206
 21
33.33711724366515
 31
0.0
  0
LINE
  5
343
330
1F
100
AcDbEntity
  8
0
 62
     7
 48
0.01625
370
    35
100
AcDbLine
 10
143.6280259329953
 20
89.69225095250555
 30
0.0
 11
143.6280259329953
 21
90.34225295250564
 31
0.0
  0
LINE
  5
344
330
1F
100
AcDbEntity
  8
0
 62
     7
 48
0.055
370
    35
100
AcDbLine
 10
143.6280259329953
 20
90.34225295250564
 30
0.0
 11
143.6280259329953
 21
92.54224895250558
 31
0.0
  0
LINE
  5
345
330
1F
100
AcDbEntity
  8
0
 62
     7
 48
0.01625
370
    35
100
AcDbLine
 10
143.6280259329953
 20
87.09225095250564
 30
0.0
 11
143.6280259329953
 21
87.74224995250563
 31
0.0
  0
LINE
  5
346
330
1F
100
AcDbEntity
  8
0
 62
     7
 48
0.01625
370
    35
100
AcDbLine
 10
143.6280259329953
 20
88.39225195250561
 30
0.0
 11
143.6280259329953
 21
89.04224895250559
 31
0.0
  0
LINE
  5
347
330
1F
100
AcDbEntity
  8
0
 62
     7
 48
0.003739
370
    35
100
AcDbLine
 10
132.7784419329952
 20
78.19225095250556
 30
0.0
 11
132.9280009329953
 21
78.19225095250556
 31
0.0
  0
LINE
  5
348
330
1F
100
AcDbEntity
  8
0
 62
     7
 48
0.003739
370
    35
100
AcDbLine
 10
132.7784419329952
 20
83.19225095250557
 30
0.0
 11
132.9280009329953
 21
83.19225095250557
 31
0.0
  0
LINE
  5
349
330
1F
100
AcDbEntity
  8
0
 62
     7
 48
0.002467
370
    35
100
AcDbLine
 10
128.9293359329953
 20
78.19225095250556
 30
0.0
 11
129.0280259329953
 21
78.19225095250556
 31
0.0
  0
LINE
  5
34A
330
1F
100
AcDbEntity
  8
0
 62
     7
 48
0.057147
370
    35
100
AcDbLine
 10
130.4925439329953
 20
78.19225095250556
 30
0.0
 11
132.7784419329952
 21
78.19225095250556
 31
0.0
  0
LINE
  5
34B
330
1F
100
AcDbEntity
  8
0
 62
     7
 48
0.025
370
    35
100
AcDbLine
 10
129.4925439329953
 20
78.19225095250556
 30
0.0
 11
130.4925439329953
 21
78.19225095250556
 31
0.0
  0
LINE
  5
34C
330
1F
100
AcDbEntity
  8
0
 62
     7
 48
0.011603
370
    35
100
AcDbLine
 10
129.4925439329953
 20
78.19225095250556
 30
0.0
 11
129.0284419329952
 21
78.19225095250556
 31
0.0
  0
LINE
  5
34D
330
1F
100
AcDbEntity
  8
0
 62
     7
 48
0.002467
370
    35
100
AcDbLine
 10
128.9293359329953
 20
83.19225095250557
 30
0.0
 11
129.0280259329953
 21
83.19225095250557
 31
0.0
  0
LINE
  5
34E
330
1F
100
AcDbEntity
  8
0
 62
     7
 48
0.125
370
    13
100
AcDbLine
 10
128.9293359329953
 20
78.19225095250556
 30
0.0
 11
128.9293359329953
 21
83.19225095250557
 31
0.0
  0
LINE
  5
34F
330
1F
100
AcDbEntity
  8
0
 62
     7
 48
0.151237
370
    13
100
AcDbLine
 10
101.4280279329952
 20
77.66750295250563
 30
0.0
 11
101.4280279329952
 21
83.71699895250561
 31
0.0
  0
LINE
  5
350
330
1F
100
AcDbEntity
  8
0
 62
     7
370
    13
100
AcDbLine
 10
101.8350059329953
 20
84.11693695250562
 30
0.0
 11
124.1280259329953
 21
83.72955695250562
 31
0.0
  0
ARC
  5
351
330
1F
100
AcDbEntity
  8
0
 62
     7
370
    13
100
AcDbCircle
 10
101.8280249329953
 20
83.71699895250561
 30
0.0
 40
0.4
100
AcDbArc
 50
89.00000099999884
 51
179.999963999995
  0
ARC
  5
352
330
1F
100
AcDbEntity
  8
0
 62
     7
370
    13
100
AcDbCircle
 10
101.8280249329953
 20
77.66750295250563
 30
0.0
 40
0.4
100
AcDbArc
 50
179.9999949999995
 51
270.9999580000015
  0
LINE
  5
353
330
1F
100
AcDbEntity
  8
0
 62
     7
370
    13
100
AcDbLine
 10
101.8350059329953
 20
77.26756495250561
 30
0.0
 11
124.1280259329953
 21
77.65494495250561
 31
0.0
  0
LINE
  5
354
330
1F
100
AcDbEntity
  8
0
 62
     7
370
    13
100
AcDbLine
 10
101.8350059329953
 20
34.11693695250562
 30
0.0
 11
124.1280259329953
 21
33.72955695250562
 31
0.0
  0
ARC
  5
355
330
1F
100
AcDbEntity
  8
0
 62
     7
370
    13
100
AcDbCircle
 10
101.8280249329953
 20
33.71699895250561
 30
0.0
 40
0.4
100
AcDbArc
 50
89.00000099999884
 51
179.999963999995
  0
LINE
  5
356
330
1F
100
AcDbEntity
  8
0
 62
     7
 48
0.151237
370
    13
100
AcDbLine
 10
101.4280279329952
 20
27.66750295250563
 30
0.0
 11
101.4280279329952
 21
33.71699895250561
 31
0.0
  0
ARC
  5
357
330
1F
100
AcDbEntity
  8
0
 62
     7
370
    13
100
AcDbCircle
 10
101.8280249329953
 20
27.66750295250563
 30
0.0
 40
0.4
100
AcDbArc
 50
179.9999949999995
 51
270.9999580000015
  0
LINE
  5
358
330
1F
100
AcDbEntity
  8
0
 62
     7
370
    13
100
AcDbLine
 10
101.8350059329953
 20
27.26756495250561
 30
0.0
 11
124.1280259329953
 21
27.65494495250562
 31
0.0
  0
LINE
  5
359
330
1F
100
AcDbEntity
  8
0
 62
     7
370
    35
100
AcDbLine
 10
124.1280259329953
 20
98.19225095250557
 30
0.0
 11
99.77380693299531
 21
97.98058895250562
 31
0.0
  0
ARC
  5
35A
330
1F
100
AcDbEntity
  8
0
 62
     7
370
    35
100
AcDbCircle
 10
100.3890489329952
 20
97.19225095250557
 30
0.0
 40
1.0
100
AcDbArc
 50
127.9696589999996
 51
164.5439970000019
  0
LINE
  5
35B
330
1F
100
AcDbEntity
  8
0
 62
     7
370
    35
100
AcDbLine
 10
124.1280259329953
 20
13.19225095250556
 30
0.0
 11
94.62802393299531
 21
13.19225095250556
 31
0.0
  0
ARC
  5
35C
330
1F
100
AcDbEntity
  8
0
 62
     7
370
    35
100
AcDbCircle
 10
94.62802393299531
 20
14.19225095250556
 30
0.0
 40
1.0
100
AcDbArc
 50
180.0000050000005
 51
269.9999969999991
  0
LINE
  5
35D
330
1F
100
AcDbEntity
  8
0
 62
     7
370
    35
100
AcDbLine
 10
93.62802393299531
 20
14.19225095250556
 30
0.0
 11
93.62802393299531
 21
36.99224995250563
 31
0.0
  0
LINE
  5
35E
330
1F
100
AcDbEntity
  8
0
 62
     7
 48
0.1
370
    35
100
AcDbLine
 10
93.62802393299531
 20
72.49224995250563
 30
0.0
 11
93.62802393299531
 21
76.49224995250563
 31
0.0
  0
ARC
  5
35F
330
1F
100
AcDbEntity
  8
0
 62
     7
370
    35
100
AcDbCircle
 10
94.62843993299529
 20
72.4926659525056
 30
0.0
 40
1.000413999999999
100
AcDbArc
 50
180.0237229999947
 51
269.9762760000005
  0
LINE
  5
360
330
1F
100
AcDbEntity
  8
0
 62
     7
 48
0.0425
370
    35
100
AcDbLine
 10
96.3280249329953
 20
71.49225095250563
 30
0.0
 11
94.62802393299531
 21
71.49225095250563
 31
0.0
  0
LINE
  5
361
330
1F
100
AcDbEntity
  8
0
 62
     7
 48
0.070711
370
    35
100
AcDbLine
 10
96.3280249329953
 20
71.49225095250563
 30
0.0
 11
98.32802493299531
 21
73.49224995250563
 31
0.0
  0
LINE
  5
362
330
1F
100
AcDbEntity
  8
0
 62
     7
 48
0.0325
370
    35
100
AcDbLine
 10
99.62802393299533
 20
73.49224995250563
 30
0.0
 11
98.32802493299531
 21
73.49224995250563
 31
0.0
  0
LINE
  5
363
330
1F
100
AcDbEntity
  8
0
 62
     7
370
    35
100
AcDbLine
 10
99.62802393299533
 20
37.99224995250563
 30
0.0
 11
99.62802393299533
 21
73.49224995250563
 31
0.0
  0
LINE
  5
364
330
1F
100
AcDbEntity
  8
0
 62
     7
 48
0.125
370
    35
100
AcDbLine
 10
99.62802393299533
 20
37.99224995250563
 30
0.0
 11
94.62802393299531
 21
37.99224995250563
 31
0.0
  0
ARC
  5
365
330
1F
100
AcDbEntity
  8
0
 62
     7
370
    35
100
AcDbCircle
 10
94.62802393299531
 20
36.99224995250563
 30
0.0
 40
1.0
100
AcDbArc
 50
90.00000300000095
 51
180.0000050000005
  0
LINE
  5
366
330
1F
100
AcDbEntity
  8
0
 62
     7
370
    35
100
AcDbLine
 10
99.42521593299531
 20
97.45874995250563
 30
0.0
 11
93.62802393299531
 21
76.49224995250563
 31
0.0
  0
LINE
  5
367
330
1F
100
AcDbEntity
  8
0
 62
     7
 48
0.125
370
    13
100
AcDbLine
 10
128.9293359329953
 20
28.19225095250556
 30
0.0
 11
128.9293359329953
 21
33.19225095250556
 31
0.0
  0
LINE
  5
368
330
1F
100
AcDbEntity
  8
0
 62
     7
 48
0.002467
370
    35
100
AcDbLine
 10
128.9293359329953
 20
28.19225095250556
 30
0.0
 11
129.0280259329953
 21
28.19225095250556
 31
0.0
  0
LINE
  5
369
330
1F
100
AcDbEntity
  8
0
 62
     7
 48
0.002467
370
    35
100
AcDbLine
 10
128.9293359329953
 20
33.19225095250556
 30
0.0
 11
129.0280259329953
 21
33.19225095250556
 31
0.0
  0
LINE
  5
36A
330
1F
100
AcDbEntity
  8
0
 62
     7
 48
0.003739
370
    35
100
AcDbLine
 10
132.7784419329952
 20
33.19225095250556
 30
0.0
 11
132.9280009329953
 21
33.19225095250556
 31
0.0
  0
LINE
  5
36B
330
1F
100
AcDbEntity
  8
0
 62
     7
 48
0.057147
370
    35
100
AcDbLine
 10
130.4925439329953
 20
33.19225095250556
 30
0.0
 11
132.7784419329952
 21
33.19225095250556
 31
0.0
  0
LINE
  5
36C
330
1F
100
AcDbEntity
  8
0
 62
     7
 48
0.025
370
    35
100
AcDbLine
 10
129.4925439329953
 20
33.19225095250556
 30
0.0
 11
130.4925439329953
 21
33.19225095250556
 31
0.0
  0
LINE
  5
36D
330
1F
100
AcDbEntity
  8
0
 62
     7
 48
0.011603
370
    35
100
AcDbLine
 10
129.4925439329953
 20
33.19225095250556
 30
0.0
 11
129.0284419329952
 21
33.19225095250556
 31
0.0
  0
LINE
  5
36E
330
1F
100
AcDbEntity
  8
0
 62
     7
 48
0.003739
370
    35
100
AcDbLine
 10
132.7784419329952
 20
28.19225095250556
 30
0.0
 11
132.9280009329953
 21
28.19225095250556
 31
0.0
  0
LINE
  5
36F
330
1F
100
AcDbEntity
  8
0
 62
     7
 48
0.125
370
    13
100
AcDbLine
 10
130.4925439329953
 20
33.19225095250556
 30
0.0
 11
130.4925439329953
 21
28.19225095250556
 31
0.0
  0
LINE
  5
370
330
1F
100
AcDbEntity
  8
0
 62
     7
 48
0.057147
370
    35
100
AcDbLine
 10
130.4925439329953
 20
28.19225095250556
 30
0.0
 11
132.7784419329952
 21
28.19225095250556
 31
0.0
  0
LINE
  5
371
330
1F
100
AcDbEntity
  8
0
 62
     7
 48
0.025
370
    35
100
AcDbLine
 10
129.4925439329953
 20
28.19225095250556
 30
0.0
 11
130.4925439329953
 21
28.19225095250556
 31
0.0
  0
LINE
  5
372
330
1F
100
AcDbEntity
  8
0
 62
     7
 48
0.011603
370
    35
100
AcDbLine
 10
129.4925439329953
 20
28.19225095250556
 30
0.0
 11
129.0284419329952
 21
28.19225095250556
 31
0.0
  0
LINE
  5
373
330
1F
100
AcDbEntity
  8
0
 62
     7
 48
0.125
370
    13
100
AcDbLine
 10
130.4925439329953
 20
78.19225095250556
 30
0.0
 11
130.4925439329953
 21
83.19225095250557
 31
0.0
  0
LINE
  5
374
330
1F
100
AcDbEntity
  8
0
 62
     7
 48
0.057147
370
    35
100
AcDbLine
 10
130.4925439329953
 20
83.19225095250557
 30
0.0
 11
132.7784419329952
 21
83.19225095250557
 31
0.0
  0
LINE
  5
375
330
1F
100
AcDbEntity
  8
0
 62
     7
 48
0.025
370
    35
100
AcDbLine
 10
129.4925439329953
 20
83.19225095250557
 30
0.0
 11
130.4925439329953
 21
83.19225095250557
 31
0.0
  0
LINE
  5
376
330
1F
100
AcDbEntity
  8
0
 62
     7
 48
0.011603
370
    35
100
AcDbLine
 10
129.4925439329953
 20
83.19225095250557
 30
0.0
 11
129.0284419329952
 21
83.19225095250557
 31
0.0
  0
LINE
  5
377
330
1F
100
AcDbEntity
  8
0
 62
     7
 48
0.0425
370
    35
100
AcDbLine
 10
94.02802593299529
 20
9.504161784974712
 30
0.0
 11
95.72802693299527
 21
9.504161784974712
 31
0.0
  0
LINE
  5
378
330
1F
100
AcDbEntity
  8
0
 62
     7
 48
0.035
370
    35
100
AcDbLine
 10
93.72802693299528
 20
9.204162784974755
 30
0.0
 11
93.72802693299528
 21
7.804160784974669
 31
0.0
  0
ARC
  5
379
330
1F
100
AcDbEntity
  8
0
 62
     7
370
    35
100
AcDbCircle
 10
94.02802593299529
 20
7.804160784974669
 30
0.0
 40
0.3
100
AcDbArc
 50
179.9999949999995
 51
269.9999969999991
  0
ARC
  5
37A
330
1F
100
AcDbEntity
  8
0
 62
     7
370
    35
100
AcDbCircle
 10
94.02802593299529
 20
9.204162784974755
 30
0.0
 40
0.3
100
AcDbArc
 50
90.00000300000095
 51
147.9869900000014
  0
LINE
  5
37B
330
1F
100
AcDbEntity
  8
0
 62
     7
 48
0.055
370
    13
100
AcDbLine
 10
96.92802793299527
 20
37.99224095250554
 30
0.0
 11
96.92802793299527
 21
40.19225095250556
 31
0.0
  0
LINE
  5
37C
330
1F
100
AcDbEntity
  8
0
 62
     7
 48
0.035
370
    35
100
AcDbLine
 10
98.32802493299531
 20
40.19225095250556
 30
0.0
 11
96.92802793299527
 21
40.19225095250556
 31
0.0
  0
LINE
  5
37D
330
1F
100
AcDbEntity
  8
0
 62
     7
 48
0.055
370
    13
100
AcDbLine
 10
98.32802493299531
 20
37.99224095250554
 30
0.0
 11
98.32802493299531
 21
40.19225095250556
 31
0.0
  0
LINE
  5
37E
330
1F
100
AcDbEntity
  8
0
 62
     7
 48
0.057206
370
    35
100
AcDbLine
 10
99.5280259329953
 20
10.71590078497468
 30
0.0
 11
99.52802593299535
 21
13.19225095250556
 31
0.0
  0
LINE
  5
37F
330
1F
100
AcDbEntity
  8
0
 62
     7
 48
0.040765
370
    35
100
AcDbLine
 10
99.5280259329953
 20
9.434760784974741
 30
0.0
 11
99.5280259329953
 21
7.804160784974669
 31
0.0
  0
LINE
  5
380
330
1F
100
AcDbEntity
  8
0
 62
     7
 48
0.032028
370
    35
100
AcDbLine
 10
99.5280259329953
 20
10.71590078497468
 30
0.0
 11
99.5280259329953
 21
9.434760784974741
 31
0.0
  0
ARC
  5
381
330
1F
100
AcDbEntity
  8
0
 62
     7
370
    35
100
AcDbCircle
 10
99.22802693299528
 20
7.804160784974669
 30
0.0
 40
0.3
100
AcDbArc
 50
269.9999969999991
 51
0.0
  0
LINE
  5
382
330
1F
100
AcDbEntity
  8
0
 62
     7
 48
0.046324
370
    13
100
AcDbLine
 10
99.22802693299528
 20
9.357112784974674
 30
0.0
 11
99.22802693299528
 21
7.504161784974712
 31
0.0
  0
LINE
  5
383
330
1F
100
AcDbEntity
  8
0
 62
     7
 48
0.032029
370
    13
100
AcDbLine
 10
99.22802693299528
 20
10.63825578497471
 30
0.0
 11
99.22802693299528
 21
9.357112784974674
 31
0.0
  0
ELLIPSE
  5
384
330
1F
100
AcDbEntity
  8
0
 62
     7
370
    13
100
AcDbEllipse
 10
98.32832693299529
 20
10.63870578497472
 30
0.0
 11
0.0456021784715514
 21
3.005565308731606
 31
0.0
210
0.0
220
0.0
230
1.0
 40
0.2992814881343077
 41
-1.566405148222047
 42
-0.5510350119106358
  0
LINE
  5
385
330
1F
100
AcDbEntity
  8
0
 62
     7
 48
0.032028
370
    35
100
AcDbLine
 10
95.72802693299527
 20
9.434760784974741
 30
0.0
 11
95.72802693299527
 21
10.71590078497468
 31
0.0
  0
LINE
  5
386
330
1F
100
AcDbEntity
  8
0
 62
     7
 48
0.040765
370
    35
100
AcDbLine
 10
95.72802693299527
 20
9.434760784974741
 30
0.0
 11
95.72802693299527
 21
7.804160784974669
 31
0.0
  0
LINE
  5
387
330
1F
100
AcDbEntity
  8
0
 62
     7
 48
0.057206
370
    35
100
AcDbLine
 10
95.72802693299527
 20
10.71590078497468
 30
0.0
 11
95.72802693299527
 21
13.19225095250556
 31
0.0
  0
LINE
  5
388
330
1F
100
AcDbEntity
  8
0
 62
     7
 48
0.046324
370
    13
100
AcDbLine
 10
96.02802593299529
 20
9.357112784974674
 30
0.0
 11
96.02802593299529
 21
7.504161784974712
 31
0.0
  0
LINE
  5
389
330
1F
100
AcDbEntity
  8
0
 62
     7
 48
0.08
370
    35
100
AcDbLine
 10
96.02802593299529
 20
7.504161784974712
 30
0.0
 11
99.22802693299528
 21
7.504161784974712
 31
0.0
  0
LINE
  5
38A
330
1F
100
AcDbEntity
  8
0
 62
     7
 48
0.032029
370
    13
100
AcDbLine
 10
96.02802593299529
 20
9.357112784974674
 30
0.0
 11
96.02802593299529
 21
10.63825578497471
 31
0.0
  0
ELLIPSE
  5
38B
330
1F
100
AcDbEntity
  8
0
 62
     7
370
    13
100
AcDbEllipse
 10
96.92774493299531
 20
10.63867578497468
 30
0.0
 11
-0.0584791183594507
 21
2.917595213434286
 31
0.0
210
0.0
220
0.0
230
1.0
 40
0.3082617645086919
 41
0.4987352716589264
 42
1.564762523621442
  0
ARC
  5
38C
330
1F
100
AcDbEntity
  8
0
 62
     7
370
    35
100
AcDbCircle
 10
96.02802593299529
 20
7.804160784974669
 30
0.0
 40
0.3
100
AcDbArc
 50
179.9999949999995
 51
269.9999969999991
  0
LINE
  5
38D
330
1F
100
AcDbEntity
  8
0
 62
     7
 48
0.05
370
    35
100
AcDbLine
 10
94.02802593299529
 20
7.504161784974712
 30
0.0
 11
96.02802593299529
 21
7.504161784974712
 31
0.0
  0
ARC
  5
38E
330
1F
100
AcDbEntity
  8
0
 62
     7
370
    35
100
AcDbCircle
 10
94.03635693299529
 20
9.201362784974662
 30
0.0
 40
0.308463
100
AcDbArc
 50
148.3659289999998
 51
179.4795309999963
  0
DIMENSION
  5
38F
330
1F
100
AcDbEntity
  8
QUOTE
 62
     1
100
AcDbDimension
  2
*D9
 10
88.83118760124787
 20
98.00416178497473
 30
0.0
 11
88.83118760124785
 21
52.75416178497473
 31
0.0
 70
    32
 71
     5
 42
90.5
  3
Standard
100
AcDbAlignedDimension
 13
94.02802593299529
 23
7.504161784974712
 33
0.0
 14
99.63130610102068
 24
98.00416178497471
 34
0.0
 50
90.0
100
AcDbRotatedDimension
1001
ACAD
1000
DSTYLE
1002
{
1070
   271
1070
     1
1070
    41
1040
5.0
1070
   140
1040
5.0
1002
}
  0
DIMENSION
  5
390
330
1F
100
AcDbEntity
  8
QUOTE
 62
     1
100
AcDbDimension
  2
*D10
 10
143.6280259329953
 20
105.6805795414362
 30
0.0
 11
121.629666017008
 21
105.6805795414362
 31
0.0
 70
    32
 71
     5
 42
43.99671983197464
  3
Standard
100
AcDbAlignedDimension
 13
99.63130610102068
 23
98.00416178497471
 33
0.0
 14
143.6280259329953
 24
95.54379795250554
 34
0.0
100
AcDbRotatedDimension
1001
ACAD
1000
DSTYLE
1002
{
1070
   271
1070
     1
1070
    41
1040
5.0
1070
   140
1040
5.0
1002
}
  0
DIMENSION
  5
391
330
1F
100
AcDbEntity
  8
QUOTE
 62
     1
100
AcDbDimension
  2
*D11
 10
162.6313061010206
 20
-2.03833382073185
 30
0.0
 11
131.1313061010206
 21
-2.03833382073185
 31
0.0
 70
   160
 71
     5
 42
62.99999999999994
  3
Standard
100
AcDbAlignedDimension
 13
99.63130610102068
 23
13.19225095250556
 33
0.0
 14
162.6313061010206
 24
35.31973995250553
 34
0.0
100
AcDbRotatedDimension
1001
ACAD
1000
DSTYLE
1002
{
1070
   271
1070
     1
1070
    41
1040
5.0
1070
   140
1040
5.0
1002
}
  0
SOLID
  5
392
330
1F
100
AcDbEntity
  8
0
 62
     1
370
     5
100
AcDbTrace
 10
25.04381024391213
 20
37.18193391244563
 30
0.0
 11
25.05943124391214
 21
37.02067891244553
 31
0.0
 12
25.05551724391214
 22
37.10170291244561
 32
0.0
 13
25.05551724391214
 23
37.10170291244561
 33
0.0
  0
LINE
  5
393
330
1F
100
AcDbEntity
  8
0
 62
     1
 48
0.004117
370
    13
100
AcDbLine
 10
17.89943124391212
 20
36.1806829124456
 30
0.0
 11
17.73555624391216
 21
36.19682691244554
 31
0.0
  0
LINE
  5
394
330
1F
100
AcDbEntity
  8
0
 62
     1
 48
0.004117
370
    13
100
AcDbLine
 10
17.73555624391216
 20
36.19682691244554
 30
0.0
 11
17.57797424391216
 21
36.24461691244562
 31
0.0
  0
LINE
  5
395
330
1F
100
AcDbEntity
  8
0
 62
     1
 48
0.004117
370
    13
100
AcDbLine
 10
17.57797424391216
 20
36.24461691244562
 30
0.0
 11
17.43275324391212
 21
36.3222539124456
 31
0.0
  0
LINE
  5
396
330
1F
100
AcDbEntity
  8
0
 62
     1
 48
0.004117
370
    13
100
AcDbLine
 10
17.43275324391212
 20
36.3222539124456
 30
0.0
 11
17.30546024391216
 21
36.42671491244562
 31
0.0
  0
LINE
  5
397
330
1F
100
AcDbEntity
  8
0
 62
     1
 48
0.004117
370
    13
100
AcDbLine
 10
17.30546024391216
 20
36.42671491244562
 30
0.0
 11
17.20099824391215
 21
36.55400391244564
 31
0.0
  0
LINE
  5
398
330
1F
100
AcDbEntity
  8
0
 62
     1
 48
0.004117
370
    13
100
AcDbLine
 10
17.20099824391215
 20
36.55400391244564
 30
0.0
 11
17.12336924391215
 21
36.6992369124456
 31
0.0
  0
LINE
  5
399
330
1F
100
AcDbEntity
  8
0
 62
     1
 48
0.004116
370
    13
100
AcDbLine
 10
17.12336924391215
 20
36.6992369124456
 30
0.0
 11
17.07557124391215
 21
36.85679991244558
 31
0.0
  0
LINE
  5
39A
330
1F
100
AcDbEntity
  8
0
 62
     1
 48
0.004117
370
    13
100
AcDbLine
 10
17.07557124391215
 20
36.85679991244558
 30
0.0
 11
17.05943124391214
 21
37.02067891244553
 31
0.0
  0
LINE
  5
39B
330
1F
100
AcDbEntity
  8
0
 62
     1
 48
0.004117
370
    13
100
AcDbLine
 10
17.05943124391214
 20
37.02067891244553
 30
0.0
 11
17.07557124391215
 21
37.1845579124456
 31
0.0
  0
LINE
  5
39C
330
1F
100
AcDbEntity
  8
0
 62
     1
 48
0.004117
370
    13
100
AcDbLine
 10
17.07557124391215
 20
37.1845579124456
 30
0.0
 11
17.12336924391215
 21
37.34215091244562
 31
0.0
  0
LINE
  5
39D
330
1F
100
AcDbEntity
  8
0
 62
     1
 48
0.004116
370
    13
100
AcDbLine
 10
17.12336924391215
 20
37.34215091244562
 30
0.0
 11
17.20099824391215
 21
37.48735391244566
 31
0.0
  0
LINE
  5
39E
330
1F
100
AcDbEntity
  8
0
 62
     1
 48
0.004117
370
    13
100
AcDbLine
 10
17.20099824391215
 20
37.48735391244566
 30
0.0
 11
17.30546024391216
 21
37.6146729124456
 31
0.0
  0
LINE
  5
39F
330
1F
100
AcDbEntity
  8
0
 62
     1
 48
0.004117
370
    13
100
AcDbLine
 10
17.30546024391216
 20
37.6146729124456
 30
0.0
 11
17.43275324391212
 21
37.71913491244561
 31
0.0
  0
LINE
  5
3A0
330
1F
100
AcDbEntity
  8
0
 62
     1
 48
0.004116
370
    13
100
AcDbLine
 10
17.43275324391212
 20
37.71913491244561
 30
0.0
 11
17.57797424391216
 21
37.79674091244567
 31
0.0
  0
LINE
  5
3A1
330
1F
100
AcDbEntity
  8
0
 62
     1
 48
0.004117
370
    13
100
AcDbLine
 10
17.57797424391216
 20
37.79674091244567
 30
0.0
 11
17.73555624391216
 21
37.84456191244556
 31
0.0
  0
LINE
  5
3A2
330
1F
100
AcDbEntity
  8
0
 62
     1
 48
0.004117
370
    13
100
AcDbLine
 10
17.73555624391216
 20
37.84456191244556
 30
0.0
 11
17.89943124391212
 21
37.86067491244569
 31
0.0
  0
LINE
  5
3A3
330
1F
100
AcDbEntity
  8
0
 62
     1
 48
0.011
370
    13
100
AcDbLine
 10
17.89943124391212
 20
37.86067491244569
 30
0.0
 11
18.33943024391212
 21
37.86067491244569
 31
0.0
  0
LINE
  5
3A4
330
1F
100
AcDbEntity
  8
0
 62
     1
 48
0.012
370
    13
100
AcDbLine
 10
18.33943024391212
 20
37.86067491244569
 30
0.0
 11
18.33943024391212
 21
37.38069491244562
 31
0.0
  0
LINE
  5
3A5
330
1F
100
AcDbEntity
  8
0
 62
     1
 48
0.016
370
    13
100
AcDbLine
 10
18.33943024391212
 20
37.38069491244562
 30
0.0
 11
17.69943124391213
 21
37.38069491244562
 31
0.0
  0
LINE
  5
3A6
330
1F
100
AcDbEntity
  8
0
 62
     1
 48
0.018
370
    13
100
AcDbLine
 10
17.69943124391213
 20
37.38069491244562
 30
0.0
 11
17.69943124391213
 21
36.6606939124456
 31
0.0
  0
LINE
  5
3A7
330
1F
100
AcDbEntity
  8
0
 62
     1
 48
0.003
370
    13
100
AcDbLine
 10
17.69943124391213
 20
36.6606939124456
 30
0.0
 11
17.81943024391213
 21
36.6606939124456
 31
0.0
  0
LINE
  5
3A8
330
1F
100
AcDbEntity
  8
0
 62
     1
 48
0.015
370
    13
100
AcDbLine
 10
17.81943024391213
 20
36.6606939124456
 30
0.0
 11
17.81943024391213
 21
37.2606999124456
 31
0.0
  0
LINE
  5
3A9
330
1F
100
AcDbEntity
  8
0
 62
     1
 48
0.013
370
    13
100
AcDbLine
 10
17.81943024391213
 20
37.2606999124456
 30
0.0
 11
18.33943024391212
 21
37.2606999124456
 31
0.0
  0
LINE
  5
3AA
330
1F
100
AcDbEntity
  8
0
 62
     1
 48
0.027
370
    13
100
AcDbLine
 10
18.33943024391212
 20
37.2606999124456
 30
0.0
 11
18.33943024391212
 21
36.1806829124456
 31
0.0
  0
LINE
  5
3AB
330
1F
100
AcDbEntity
  8
0
 62
     1
 48
0.011
370
    13
100
AcDbLine
 10
18.33943024391212
 20
36.1806829124456
 30
0.0
 11
17.89943124391212
 21
36.1806829124456
 31
0.0
  0
LINE
  5
3AC
330
1F
100
AcDbEntity
  8
0
 62
     1
 48
0.032
370
    13
100
AcDbLine
 10
18.45942924391212
 20
36.1806829124456
 30
0.0
 11
19.73943124391215
 21
36.1806829124456
 31
0.0
  0
LINE
  5
3AD
330
1F
100
AcDbEntity
  8
0
 62
     1
 48
0.012
370
    13
100
AcDbLine
 10
19.73943124391215
 20
36.1806829124456
 30
0.0
 11
19.73943124391215
 21
36.6606939124456
 31
0.0
  0
LINE
  5
3AE
330
1F
100
AcDbEntity
  8
0
 62
     1
 48
0.019
370
    13
100
AcDbLine
 10
19.73943124391215
 20
36.6606939124456
 30
0.0
 11
18.97943324391215
 21
36.6606939124456
 31
0.0
  0
LINE
  5
3AF
330
1F
100
AcDbEntity
  8
0
 62
     1
 48
0.003
370
    13
100
AcDbLine
 10
18.97943324391215
 20
36.6606939124456
 30
0.0
 11
18.97943324391215
 21
36.78068891244561
 31
0.0
  0
LINE
  5
3B0
330
1F
100
AcDbEntity
  8
0
 62
     1
 48
0.019
370
    13
100
AcDbLine
 10
18.97943324391215
 20
36.78068891244561
 30
0.0
 11
19.73943124391215
 21
36.78068891244561
 31
0.0
  0
LINE
  5
3B1
330
1F
100
AcDbEntity
  8
0
 62
     1
 48
0.012
370
    13
100
AcDbLine
 10
19.73943124391215
 20
36.78068891244561
 30
0.0
 11
19.73943124391215
 21
37.2606999124456
 31
0.0
  0
LINE
  5
3B2
330
1F
100
AcDbEntity
  8
0
 62
     1
 48
0.019
370
    13
100
AcDbLine
 10
19.73943124391215
 20
37.2606999124456
 30
0.0
 11
18.97943324391215
 21
37.2606999124456
 31
0.0
  0
LINE
  5
3B3
330
1F
100
AcDbEntity
  8
0
 62
     1
 48
0.003
370
    13
100
AcDbLine
 10
18.97943324391215
 20
37.2606999124456
 30
0.0
 11
18.97943324391215
 21
37.38069491244562
 31
0.0
  0
LINE
  5
3B4
330
1F
100
AcDbEntity
  8
0
 62
     1
 48
0.005
370
    13
100
AcDbLine
 10
18.97943324391215
 20
37.38069491244562
 30
0.0
 11
19.17943024391215
 21
37.38069491244562
 31
0.0
  0
LINE
  5
3B5
330
1F
100
AcDbEntity
  8
0
 62
     1
 48
0.012
370
    13
100
AcDbLine
 10
19.17943024391215
 20
37.38069491244562
 30
0.0
 11
19.17943024391215
 21
37.86067491244569
 31
0.0
  0
LINE
  5
3B6
330
1F
100
AcDbEntity
  8
0
 62
     1
 48
0.018
370
    13
100
AcDbLine
 10
19.17943024391215
 20
37.86067491244569
 30
0.0
 11
18.45942924391212
 21
37.86067491244569
 31
0.0
  0
LINE
  5
3B7
330
1F
100
AcDbEntity
  8
0
 62
     1
 48
0.042
370
    13
100
AcDbLine
 10
18.45942924391212
 20
37.86067491244569
 30
0.0
 11
18.45942924391212
 21
36.1806829124456
 31
0.0
  0
LINE
  5
3B8
330
1F
100
AcDbEntity
  8
0
 62
     1
 48
0.012322
370
    13
100
AcDbLine
 10
20.55232424391213
 20
36.1806829124456
 30
0.0
 11
20.05943124391214
 21
36.1806829124456
 31
0.0
  0
LINE
  5
3B9
330
1F
100
AcDbEntity
  8
0
 62
     1
 48
0.030806
370
    13
100
AcDbLine
 10
20.05943124391214
 20
36.1806829124456
 30
0.0
 11
19.77942924391212
 21
37.38069491244562
 31
0.0
  0
LINE
  5
3BA
330
1F
100
AcDbEntity
  8
0
 62
     1
 48
0.012
370
    13
100
AcDbLine
 10
19.77942924391212
 20
37.38069491244562
 30
0.0
 11
19.29943324391215
 21
37.38069491244562
 31
0.0
  0
LINE
  5
3BB
330
1F
100
AcDbEntity
  8
0
 62
     1
 48
0.012
370
    13
100
AcDbLine
 10
19.29943324391215
 20
37.38069491244562
 30
0.0
 11
19.29943324391215
 21
37.86067491244569
 31
0.0
  0
LINE
  5
3BC
330
1F
100
AcDbEntity
  8
0
 62
     1
 48
0.021522
370
    13
100
AcDbLine
 10
19.29943324391215
 20
37.86067491244569
 30
0.0
 11
20.16032624391213
 21
37.86067491244569
 31
0.0
  0
LINE
  5
3BD
330
1F
100
AcDbEntity
  8
0
 62
     1
 48
0.020423
370
    13
100
AcDbLine
 10
20.16032624391213
 20
37.86067491244569
 30
0.0
 11
20.34595324391213
 21
37.06514291244559
 31
0.0
  0
LINE
  5
3BE
330
1F
100
AcDbEntity
  8
0
 62
     1
 48
0.020282
370
    13
100
AcDbLine
 10
20.34595324391213
 20
37.06514291244559
 30
0.0
 11
20.50506024391214
 21
37.86067491244569
 31
0.0
  0
LINE
  5
3BF
330
1F
100
AcDbEntity
  8
0
 62
     1
 48
0.012
370
    13
100
AcDbLine
 10
20.50506024391214
 20
37.86067491244569
 30
0.0
 11
20.98506424391215
 21
37.86067491244569
 31
0.0
  0
LINE
  5
3C0
330
1F
100
AcDbEntity
  8
0
 62
     1
 48
0.019008
370
    13
100
AcDbLine
 10
20.98506424391215
 20
37.86067491244569
 30
0.0
 11
21.15783524391216
 21
37.12022691244567
 31
0.0
  0
LINE
  5
3C1
330
1F
100
AcDbEntity
  8
0
 62
     1
 48
0.018878
370
    13
100
AcDbLine
 10
21.15783524391216
 20
37.12022691244567
 30
0.0
 11
21.30592524391213
 21
37.86067491244569
 31
0.0
  0
LINE
  5
3C2
330
1F
100
AcDbEntity
  8
0
 62
     1
 48
0.023838
370
    13
100
AcDbLine
 10
21.30592524391213
 20
37.86067491244569
 30
0.0
 11
22.25943224391213
 21
37.86067491244569
 31
0.0
  0
LINE
  5
3C3
330
1F
100
AcDbEntity
  8
0
 62
     1
 48
0.012
370
    13
100
AcDbLine
 10
22.25943224391213
 20
37.86067491244569
 30
0.0
 11
22.25943224391213
 21
37.38069491244562
 31
0.0
  0
LINE
  5
3C4
330
1F
100
AcDbEntity
  8
0
 62
     1
 48
0.014
370
    13
100
AcDbLine
 10
22.25943224391213
 20
37.38069491244562
 30
0.0
 11
21.69943124391213
 21
37.38069491244562
 31
0.0
  0
LINE
  5
3C5
330
1F
100
AcDbEntity
  8
0
 62
     1
 48
0.030594
370
    13
100
AcDbLine
 10
21.69943124391213
 20
37.38069491244562
 30
0.0
 11
21.45942924391213
 21
36.1806829124456
 31
0.0
  0
LINE
  5
3C6
330
1F
100
AcDbEntity
  8
0
 62
     1
 48
0.012238
370
    13
100
AcDbLine
 10
21.45942924391213
 20
36.1806829124456
 30
0.0
 11
20.96992724391211
 21
36.1806829124456
 31
0.0
  0
LINE
  5
3C7
330
1F
100
AcDbEntity
  8
0
 62
     1
 48
0.02474
370
    13
100
AcDbLine
 10
20.96992724391211
 20
36.1806829124456
 30
0.0
 11
20.74506624391213
 21
37.14439691244559
 31
0.0
  0
LINE
  5
3C8
330
1F
100
AcDbEntity
  8
0
 62
     1
 48
0.02457
370
    13
100
AcDbLine
 10
20.74506624391213
 20
37.14439691244559
 30
0.0
 11
20.55232424391213
 21
36.1806829124456
 31
0.0
  0
LINE
  5
3C9
330
1F
100
AcDbEntity
  8
0
 62
     1
 48
0.012
370
    13
100
AcDbLine
 10
21.77942924391212
 20
36.1806829124456
 30
0.0
 11
22.25943224391213
 21
36.1806829124456
 31
0.0
  0
LINE
  5
3CA
330
1F
100
AcDbEntity
  8
0
 62
     1
 48
0.027
370
    13
100
AcDbLine
 10
22.25943224391213
 20
36.1806829124456
 30
0.0
 11
22.25943224391213
 21
37.2606999124456
 31
0.0
  0
LINE
  5
3CB
330
1F
100
AcDbEntity
  8
0
 62
     1
 48
0.027
370
    13
100
AcDbLine
 10
21.77942924391212
 20
37.2606999124456
 30
0.0
 11
21.77942924391212
 21
36.1806829124456
 31
0.0
  0
LINE
  5
3CC
330
1F
100
AcDbEntity
  8
0
 62
     1
 48
0.032
370
    13
100
AcDbLine
 10
22.37943124391214
 20
36.1806829124456
 30
0.0
 11
23.65943024391217
 21
36.1806829124456
 31
0.0
  0
LINE
  5
3CD
330
1F
100
AcDbEntity
  8
0
 62
     1
 48
0.027
370
    13
100
AcDbLine
 10
23.65943024391217
 20
36.1806829124456
 30
0.0
 11
23.65943024391217
 21
37.2606999124456
 31
0.0
  0
LINE
  5
3CE
330
1F
100
AcDbEntity
  8
0
 62
     1
 48
0.019
370
    13
100
AcDbLine
 10
23.65943024391217
 20
37.2606999124456
 30
0.0
 11
22.89943124391212
 21
37.2606999124456
 31
0.0
  0
LINE
  5
3CF
330
1F
100
AcDbEntity
  8
0
 62
     1
 48
0.003
370
    13
100
AcDbLine
 10
22.89943124391212
 20
37.2606999124456
 30
0.0
 11
22.89943124391212
 21
37.38069491244562
 31
0.0
  0
LINE
  5
3D0
330
1F
100
AcDbEntity
  8
0
 62
     1
 48
0.019
370
    13
100
AcDbLine
 10
22.89943124391212
 20
37.38069491244562
 30
0.0
 11
23.65943024391217
 21
37.38069491244562
 31
0.0
  0
LINE
  5
3D1
330
1F
100
AcDbEntity
  8
0
 62
     1
 48
0.012
370
    13
100
AcDbLine
 10
23.65943024391217
 20
37.38069491244562
 30
0.0
 11
23.65943024391217
 21
37.86067491244569
 31
0.0
  0
LINE
  5
3D2
330
1F
100
AcDbEntity
  8
0
 62
     1
 48
0.032
370
    13
100
AcDbLine
 10
23.65943024391217
 20
37.86067491244569
 30
0.0
 11
22.37943124391214
 21
37.86067491244569
 31
0.0
  0
LINE
  5
3D3
330
1F
100
AcDbEntity
  8
0
 62
     1
 48
0.027
370
    13
100
AcDbLine
 10
22.37943124391214
 20
37.86067491244569
 30
0.0
 11
22.37943124391214
 21
36.78068891244561
 31
0.0
  0
LINE
  5
3D4
330
1F
100
AcDbEntity
  8
0
 62
     1
 48
0.019
370
    13
100
AcDbLine
 10
22.37943124391214
 20
36.78068891244561
 30
0.0
 11
23.13942924391213
 21
36.78068891244561
 31
0.0
  0
LINE
  5
3D5
330
1F
100
AcDbEntity
  8
0
 62
     1
 48
0.003
370
    13
100
AcDbLine
 10
23.13942924391213
 20
36.78068891244561
 30
0.0
 11
23.13942924391213
 21
36.6606939124456
 31
0.0
  0
LINE
  5
3D6
330
1F
100
AcDbEntity
  8
0
 62
     1
 48
0.019
370
    13
100
AcDbLine
 10
23.13942924391213
 20
36.6606939124456
 30
0.0
 11
22.37943124391214
 21
36.6606939124456
 31
0.0
  0
LINE
  5
3D7
330
1F
100
AcDbEntity
  8
0
 62
     1
 48
0.012
370
    13
100
AcDbLine
 10
22.37943124391214
 20
36.6606939124456
 30
0.0
 11
22.37943124391214
 21
36.1806829124456
 31
0.0
  0
LINE
  5
3D8
330
1F
100
AcDbEntity
  8
0
 62
     1
 48
0.004117
370
    13
100
AcDbLine
 10
24.21943124391211
 20
36.1806829124456
 30
0.0
 11
24.38330724391213
 21
36.19682691244554
 31
0.0
  0
LINE
  5
3D9
330
1F
100
AcDbEntity
  8
0
 62
     1
 48
0.004117
370
    13
100
AcDbLine
 10
24.38330724391213
 20
36.19682691244554
 30
0.0
 11
24.54088424391213
 21
36.24461691244562
 31
0.0
  0
LINE
  5
3DA
330
1F
100
AcDbEntity
  8
0
 62
     1
 48
0.004117
370
    13
100
AcDbLine
 10
24.54088424391213
 20
36.24461691244562
 30
0.0
 11
24.68611024391211
 21
36.3222539124456
 31
0.0
  0
LINE
  5
3DB
330
1F
100
AcDbEntity
  8
0
 62
     1
 48
0.004117
370
    13
100
AcDbLine
 10
24.68611024391211
 20
36.3222539124456
 30
0.0
 11
24.81340224391213
 21
36.42671491244562
 31
0.0
  0
LINE
  5
3DC
330
1F
100
AcDbEntity
  8
0
 62
     1
 48
0.004117
370
    13
100
AcDbLine
 10
24.81340224391213
 20
36.42671491244562
 30
0.0
 11
24.91786424391214
 21
36.55400391244564
 31
0.0
  0
LINE
  5
3DD
330
1F
100
AcDbEntity
  8
0
 62
     1
 48
0.004117
370
    13
100
AcDbLine
 10
24.91786424391214
 20
36.55400391244564
 30
0.0
 11
24.99548924391215
 21
36.6992369124456
 31
0.0
  0
LINE
  5
3DE
330
1F
100
AcDbEntity
  8
0
 62
     1
 48
0.004116
370
    13
100
AcDbLine
 10
24.99548924391215
 20
36.6992369124456
 30
0.0
 11
25.04329124391214
 21
36.85679991244558
 31
0.0
  0
LINE
  5
3DF
330
1F
100
AcDbEntity
  8
0
 62
     1
 48
0.004117
370
    13
100
AcDbLine
 10
25.04329124391214
 20
36.85679991244558
 30
0.0
 11
25.05943124391214
 21
37.02067891244553
 31
0.0
  0
LINE
  5
3E0
330
1F
100
AcDbEntity
  8
0
 62
     1
 48
0.002028
370
    13
100
AcDbLine
 10
25.05943124391214
 20
37.02067891244553
 30
0.0
 11
25.05551724391214
 21
37.10170291244561
 31
0.0
  0
LINE
  5
3E1
330
1F
100
AcDbEntity
  8
0
 62
     1
 48
0.002027
370
    13
100
AcDbLine
 10
25.05551724391214
 20
37.10170291244561
 30
0.0
 11
25.04381024391213
 21
37.18193391244563
 31
0.0
  0
LINE
  5
3E2
330
1F
100
AcDbEntity
  8
0
 62
     1
 48
0.002028
370
    13
100
AcDbLine
 10
25.04381024391213
 20
37.18193391244563
 30
0.0
 11
25.02441624391216
 21
37.2606999124456
 31
0.0
  0
LINE
  5
3E3
330
1F
100
AcDbEntity
  8
0
 62
     1
 48
0.018125
370
    13
100
AcDbLine
 10
25.02441624391216
 20
37.2606999124456
 30
0.0
 11
24.29943324391215
 21
37.2606999124456
 31
0.0
  0
LINE
  5
3E4
330
1F
100
AcDbEntity
  8
0
 62
     1
 48
0.003
370
    13
100
AcDbLine
 10
24.29943324391215
 20
37.2606999124456
 30
0.0
 11
24.29943324391215
 21
37.38069491244562
 31
0.0
  0
LINE
  5
3E5
330
1F
100
AcDbEntity
  8
0
 62
     1
 48
0.016974
370
    13
100
AcDbLine
 10
24.29943324391215
 20
37.38069491244562
 30
0.0
 11
24.97837624391215
 21
37.38069491244562
 31
0.0
  0
LINE
  5
3E6
330
1F
100
AcDbEntity
  8
0
 62
     1
 48
0.004727
370
    13
100
AcDbLine
 10
24.97837624391215
 20
37.38069491244562
 30
0.0
 11
24.87863024391217
 21
37.54130891244563
 31
0.0
  0
LINE
  5
3E7
330
1F
100
AcDbEntity
  8
0
 62
     1
 48
0.004728
370
    13
100
AcDbLine
 10
24.87863024391217
 20
37.54130891244563
 30
0.0
 11
24.74547824391212
 21
37.67558591244563
 31
0.0
  0
LINE
  5
3E8
330
1F
100
AcDbEntity
  8
0
 62
     1
 48
0.004727
370
    13
100
AcDbLine
 10
24.74547824391212
 20
37.67558591244563
 30
0.0
 11
24.58567224391217
 21
37.77662991244563
 31
0.0
  0
LINE
  5
3E9
330
1F
100
AcDbEntity
  8
0
 62
     1
 48
0.004727
370
    13
100
AcDbLine
 10
24.58567224391217
 20
37.77662991244563
 30
0.0
 11
24.40731324391212
 21
37.83940491244562
 31
0.0
  0
LINE
  5
3EA
330
1F
100
AcDbEntity
  8
0
 62
     1
 48
0.004727
370
    13
100
AcDbLine
 10
24.40731324391212
 20
37.83940491244562
 30
0.0
 11
24.21943124391211
 21
37.86067491244569
 31
0.0
  0
LINE
  5
3EB
330
1F
100
AcDbEntity
  8
0
 62
     1
 48
0.011
370
    13
100
AcDbLine
 10
24.21943124391211
 20
37.86067491244569
 30
0.0
 11
23.77942924391212
 21
37.86067491244569
 31
0.0
  0
LINE
  5
3EC
330
1F
100
AcDbEntity
  8
0
 62
     1
 48
0.027
370
    13
100
AcDbLine
 10
23.77942924391212
 20
37.86067491244569
 30
0.0
 11
23.77942924391212
 21
36.78068891244561
 31
0.0
  0
LINE
  5
3ED
330
1F
100
AcDbEntity
  8
0
 62
     1
 48
0.016
370
    13
100
AcDbLine
 10
23.77942924391212
 20
36.78068891244561
 30
0.0
 11
24.41943224391216
 21
36.78068891244561
 31
0.0
  0
LINE
  5
3EE
330
1F
100
AcDbEntity
  8
0
 62
     1
 48
0.003
370
    13
100
AcDbLine
 10
24.41943224391216
 20
36.78068891244561
 30
0.0
 11
24.41943224391216
 21
36.6606939124456
 31
0.0
  0
LINE
  5
3EF
330
1F
100
AcDbEntity
  8
0
 62
     1
 48
0.016
370
    13
100
AcDbLine
 10
24.41943224391216
 20
36.6606939124456
 30
0.0
 11
23.77942924391212
 21
36.6606939124456
 31
0.0
  0
LINE
  5
3F0
330
1F
100
AcDbEntity
  8
0
 62
     1
 48
0.012
370
    13
100
AcDbLine
 10
23.77942924391212
 20
36.6606939124456
 30
0.0
 11
23.77942924391212
 21
36.1806829124456
 31
0.0
  0
LINE
  5
3F1
330
1F
100
AcDbEntity
  8
0
 62
     1
 48
0.011
370
    13
100
AcDbLine
 10
23.77942924391212
 20
36.1806829124456
 30
0.0
 11
24.21943124391211
 21
36.1806829124456
 31
0.0
  0
LINE
  5
3F2
330
1F
100
AcDbEntity
  8
0
 62
     1
 48
0.012
370
    13
100
AcDbLine
 10
21.77942924391212
 20
37.2606999124456
 30
0.0
 11
22.25943224391213
 21
37.2606999124456
 31
0.0
  0
CIRCLE
  5
3F3
330
1F
100
AcDbEntity
  8
0
 62
     7
370
    13
100
AcDbCircle
 10
38.75886224391215
 20
55.58642895261278
 30
0.0
 40
18.708498
  0
CIRCLE
  5
3F4
330
1F
100
AcDbEntity
  8
0
 62
     7
370
    13
100
AcDbCircle
 10
38.75886224391215
 20
65.58642895261278
 30
0.0
 40
2.799999999999999
  0
CIRCLE
  5
3F5
330
1F
100
AcDbEntity
  8
0
 62
     7
370
    13
100
AcDbCircle
 10
48.25886224391215
 20
55.58642895261278
 30
0.0
 40
3.049999999999999
  0
CIRCLE
  5
3F6
330
1F
100
AcDbEntity
  8
0
 62
     7
370
    13
100
AcDbCircle
 10
29.25886224391215
 20
55.58642895261278
 30
0.0
 40
3.049999999999999
  0
CIRCLE
  5
3F7
330
1F
100
AcDbEntity
  8
0
 62
     7
370
    13
100
AcDbCircle
 10
38.75886224391215
 20
55.58642895261278
 30
0.0
 40
19.752045
  0
ENDSEC
  0
SECTION
  2
OBJECTS
  0
DICTIONARY
  5
C
330
0
100
AcDbDictionary
281
     1
  3
ACAD_COLOR
350
73
  3
ACAD_GROUP
350
D
  3
ACAD_LAYOUT
350
1A
  3
ACAD_MATERIAL
350
72
  3
ACAD_MLEADERSTYLE
350
D7
  3
ACAD_MLINESTYLE
350
17
  3
ACAD_PLOTSETTINGS
350
19
  3
ACAD_PLOTSTYLENAME
350
E
  3
ACAD_SCALELIST
350
B6
  3
ACAD_TABLESTYLE
350
86
  3
ACAD_VISUALSTYLE
350
99
  3
ACDB_RECOMPOSE_DATA
350
FF
  3
AcDbVariableDictionary
350
66
  3
DWGPROPS
350
4D7
  0
DICTIONARY
  5
E6
330
10
100
AcDbDictionary
280
     1
281
     1
  3
ADSK_XREC_LAYER_RECONCILED
360
4CF
  0
DICTIONARY
  5
4D0
330
18A
100
AcDbDictionary
280
     1
281
     1
  3
ADSK_XREC_LAYER_RECONCILED
360
4D1
  0
DICTIONARY
  5
73
102
{ACAD_REACTORS
330
C
102
}
330
C
100
AcDbDictionary
281
     1
  0
DICTIONARY
  5
D
102
{ACAD_REACTORS
330
C
102
}
330
C
100
AcDbDictionary
281
     1
  0
DICTIONARY
  5
1A
102
{ACAD_REACTORS
330
C
102
}
330
C
100
AcDbDictionary
281
     1
  3
Layout1
350
59
  3
Layout2
350
5E
  3
Model
350
22
  0
DICTIONARY
  5
72
102
{ACAD_REACTORS
330
C
102
}
330
C
100
AcDbDictionary
281
     1
  3
ByBlock
350
97
  3
ByLayer
350
96
  3
Global
350
98
  0
DICTIONARY
  5
D7
102
{ACAD_REACTORS
330
C
102
}
330
C
100
AcDbDictionary
281
     1
  3
Annotativa
350
E5
  3
Standard
350
D8
  0
DICTIONARY
  5
17
102
{ACAD_REACTORS
330
C
102
}
330
C
100
AcDbDictionary
281
     1
  3
Standard
350
18
  0
DICTIONARY
  5
19
102
{ACAD_REACTORS
330
C
102
}
330
C
100
AcDbDictionary
281
     1
  0
ACDBDICTIONARYWDFLT
  5
E
102
{ACAD_REACTORS
330
C
102
}
330
C
100
AcDbDictionary
281
     1
  3
Normal
350
F
100
AcDbDictionaryWithDefault
340
F
  0
DICTIONARY
  5
B6
102
{ACAD_REACTORS
330
C
102
}
330
C
100
AcDbDictionary
281
     1
  3
A0
350
B7
  3
A1
350
124
  3
A2
350
125
  3
A3
350
126
  3
A4
350
127
  3
A5
350
128
  3
A6
350
129
  3
A7
350
12A
  3
A8
350
12B
  3
A9
350
12C
  3
B0
350
12D
  3
B1
350
12E
  3
B2
350
12F
  3
B3
350
130
  3
B4
350
131
  3
B5
350
132
  3
B6
350
133
  3
B7
350
134
  3
B8
350
135
  3
B9
350
136
  3
C0
350
137
  3
C1
350
138
  3
C2
350
139
  3
C3
350
13A
  3
C4
350
13B
  3
C5
350
13C
  3
C6
350
13D
  3
C7
350
13E
  3
C8
350
13F
  3
C9
350
140
  3
D0
350
141
  3
D1
350
142
  3
D2
350
143
  0
DICTIONARY
  5
86
102
{ACAD_REACTORS
330
C
102
}
330
C
100
AcDbDictionary
281
     1
  3
Standard
350
87
  0
DICTIONARY
  5
99
102
{ACAD_REACTORS
330
C
102
}
330
C
100
AcDbDictionary
281
     1
  3
2dWireframe
350
9F
  3
3D Hidden
350
A1
  3
3dWireframe
350
A0
  3
Basic
350
9E
  3
Brighten
350
A5
  3
ColorChange
350
A9
  3
Conceptual
350
A2
  3
Dim
350
A4
  3
Facepattern
350
A8
  3
Flat
350
9A
  3
FlatWithEdges
350
9B
  3
Gouraud
350
9C
  3
GouraudWithEdges
350
9D
  3
Linepattern
350
A7
  3
Realistic
350
A3
  3
Thicken
350
A6
  0
XRECORD
  5
FF
102
{ACAD_REACTORS
330
C
102
}
330
C
100
AcDbXrecord
280
     1
 90
        1
330
87
  0
DICTIONARY
  5
66
102
{ACAD_REACTORS
330
C
102
}
330
C
100
AcDbDictionary
281
     1
  3
CANNOSCALE
350
F0
  3
CMLEADERSTYLE
350
EF
  3
CTABLESTYLE
350
89
  3
DIMASSOC
350
67
  3
HIDETEXT
350
6B
  3
INDEXCTL
350
4D5
  3
LIGHTINGUNITS
350
4D3
  3
MSLTSCALE
350
4D2
  3
SORTENTS
350
4D4
  0
XRECORD
  5
4D7
102
{ACAD_REACTORS
330
C
102
}
330
C
100
AcDbXrecord
280
     1
  1
DWGPROPS COOKIE
  2

  3

  4

  6

  7

  8
FontanaNZ
  9

300
=
301
=
302
=
303
=
304
=
305
=
306
=
307
=
308
=
309
=
 40
0.0005754398148148
 41
2456457.614827477
 42
2456457.615402916
  1

 90
        0
  0
XRECORD
  5
4CF
102
{ACAD_REACTORS
330
E6
102
}
330
E6
100
AcDbXrecord
280
     1
290
     1
  0
XRECORD
  5
4D1
102
{ACAD_REACTORS
330
4D0
102
}
330
4D0
100
AcDbXrecord
280
     1
290
     1
  0
LAYOUT
  5
59
102
{ACAD_XDICTIONARY
360
4DA
102
}
102
{ACAD_REACTORS
330
1A
102
}
330
1A
100
AcDbPlotSettings
  1

  2
None
  4

  6

 40
0.0
 41
0.0
 42
0.0
 43
0.0
 44
0.0
 45
0.0
 46
0.0
 47
0.0
 48
0.0
 49
0.0
140
0.0
141
0.0
142
1.0
143
1.0
 70
   688
 72
     0
 73
     0
 74
     5
  7

 75
    16
147
1.0
148
0.0
149
0.0
100
AcDbLayout
  1
Layout1
 70
     1
 71
     1
 10
0.0
 20
0.0
 11
12.0
 21
9.0
 12
0.0
 22
0.0
 32
0.0
 14
0.0
 24
0.0
 34
0.0
 15
0.0
 25
0.0
 35
0.0
146
0.0
 13
0.0
 23
0.0
 33
0.0
 16
1.0
 26
0.0
 36
0.0
 17
0.0
 27
1.0
 37
0.0
 76
     0
330
58
  0
LAYOUT
  5
5E
102
{ACAD_XDICTIONARY
360
4DC
102
}
102
{ACAD_REACTORS
330
1A
102
}
330
1A
100
AcDbPlotSettings
  1

  2
None
  4

  6

 40
0.0
 41
0.0
 42
0.0
 43
0.0
 44
0.0
 45
0.0
 46
0.0
 47
0.0
 48
0.0
 49
0.0
140
0.0
141
0.0
142
1.0
143
1.0
 70
   688
 72
     0
 73
     0
 74
     5
  7

 75
    16
147
1.0
148
0.0
149
0.0
100
AcDbLayout
  1
Layout2
 70
     1
 71
     2
 10
0.0
 20
0.0
 11
12.0
 21
9.0
 12
0.0
 22
0.0
 32
0.0
 14
0.0
 24
0.0
 34
0.0
 15
0.0
 25
0.0
 35
0.0
146
0.0
 13
0.0
 23
0.0
 33
0.0
 16
1.0
 26
0.0
 36
0.0
 17
0.0
 27
1.0
 37
0.0
 76
     0
330
5D
  0
LAYOUT
  5
22
102
{ACAD_XDICTIONARY
360
4D8
102
}
102
{ACAD_REACTORS
330
1A
102
}
330
1A
100
AcDbPlotSettings
  1

  2
none_device
  4
ANSI_A_(8.50_x_11.00_Inches)
  6

 40
6.349999904632568
 41
19.04999923706055
 42
6.350006103515625
 43
19.04998779296875
 44
215.8999938964844
 45
279.3999938964844
 46
0.0
 47
0.0
 48
0.0
 49
0.0
140
0.0
141
0.0
142
1.0
143
2.584895464708373
 70
 11952
 72
     0
 73
     1
 74
     0
  7

 75
     0
147
0.3868628397755418
148
0.0
149
0.0
100
AcDbLayout
  1
Model
 70
     1
 71
     0
 10
0.0
 20
0.0
 11
12.0
 21
9.0
 12
0.0
 22
0.0
 32
0.0
 14
0.0
 24
0.0
 34
0.0
 15
0.0
 25
0.0
 35
0.0
146
0.0
 13
0.0
 23
0.0
 33
0.0
 16
1.0
 26
0.0
 36
0.0
 17
0.0
 27
1.0
 37
0.0
 76
     0
330
1F
331
94
  0
MATERIAL
  5
97
102
{ACAD_XDICTIONARY
360
4E1
102
}
102
{ACAD_REACTORS
330
72
102
}
330
72
100
AcDbMaterial
  1
ByBlock
  0
MATERIAL
  5
96
102
{ACAD_XDICTIONARY
360
4DF
102
}
102
{ACAD_REACTORS
330
72
102
}
330
72
100
AcDbMaterial
  1
ByLayer
  0
MATERIAL
  5
98
102
{ACAD_XDICTIONARY
360
110
102
}
102
{ACAD_REACTORS
330
72
102
}
330
72
100
AcDbMaterial
  1
Global
 43
0.0208000000566244
 43
0.0
 43
0.0
 43
0.0
 43
0.0
 43
0.0208000000566244
 43
0.0
 43
0.0
 43
0.0
 43
0.0
 43
1.0
 43
0.0
 43
0.0
 43
0.0
 43
0.0
 43
1.0
 49
0.0208000000566244
 49
0.0
 49
0.0
 49
0.0
 49
0.0
 49
0.0208000000566244
 49
0.0
 49
0.0
 49
0.0
 49
0.0
 49
1.0
 49
0.0
 49
0.0
 49
0.0
 49
0.0
 49
1.0
142
0.0208000000566244
142
0.0
142
0.0
142
0.0
142
0.0
142
0.0208000000566244
142
0.0
142
0.0
142
0.0
142
0.0
142
1.0
142
0.0
142
0.0
142
0.0
142
0.0
142
1.0
144
0.0208000000566244
144
0.0
144
0.0
144
0.0
144
0.0
144
0.0208000000566244
144
0.0
144
0.0
144
0.0
144
0.0
144
1.0
144
0.0
144
0.0
144
0.0
144
0.0
144
1.0
1001
ACAD
1070
    -1
1070
     3
1070
     0
1000

1071
        0
1070
     0
  0
MLEADERSTYLE
  5
E5
102
{ACAD_REACTORS
330
D7
102
}
330
D7
100
AcDbMLeaderStyle
170
     2
171
     1
172
     0
 90
        2
 40
0.0
 41
0.0
173
     1
 91
-1056964608
340
14
 92
       -2
290
     1
 42
0.09
291
     1
 43
0.36
  3
Standard
 44
0.18
300

342
11
174
     1
178
     1
175
     1
176
     0
 93
-1056964608
 45
0.18
292
     0
297
     0
 46
0.18
 94
-1056964608
 47
1.0
 49
1.0
140
1.0
293
     1
141
0.0
294
     1
177
     0
142
1.0
295
     0
296
     1
143
0.125
1001
ACAD_MLEADERVER
1070
     2
  0
MLEADERSTYLE
  5
D8
102
{ACAD_REACTORS
330
D7
102
}
330
D7
100
AcDbMLeaderStyle
170
     2
171
     1
172
     0
 90
        2
 40
0.0
 41
0.0
173
     1
 91
-1056964608
340
14
 92
       -2
290
     1
 42
0.09
291
     1
 43
0.36
  3
Standard
 44
0.18
300

342
11
174
     1
178
     1
175
     1
176
     0
 93
-1056964608
 45
0.18
292
     0
297
     0
 46
0.18
 94
-1056964608
 47
1.0
 49
1.0
140
1.0
293
     1
141
0.0
294
     1
177
     0
142
1.0
295
     0
296
     0
143
0.125
1001
ACAD_MLEADERVER
1070
     2
  0
MLINESTYLE
  5
18
102
{ACAD_REACTORS
330
17
102
}
330
17
100
AcDbMlineStyle
  2
STANDARD
 70
     0
  3

 62
   256
 51
90.0
 52
90.0
 71
     2
 49
0.5
 62
   256
  6
BYLAYER
 49
-0.5
 62
   256
  6
BYLAYER
  0
ACDBPLACEHOLDER
  5
F
102
{ACAD_REACTORS
330
E
102
}
330
E
  0
SCALE
  5
B7
102
{ACAD_REACTORS
330
B6
102
}
330
B6
100
AcDbScale
 70
     0
300
1:1
140
1.0
141
1.0
290
     1
  0
SCALE
  5
124
102
{ACAD_REACTORS
330
B6
102
}
330
B6
100
AcDbScale
 70
     0
300
1:2
140
1.0
141
2.0
290
     0
  0
SCALE
  5
125
102
{ACAD_REACTORS
330
B6
102
}
330
B6
100
AcDbScale
 70
     0
300
1:4
140
1.0
141
4.0
290
     0
  0
SCALE
  5
126
102
{ACAD_REACTORS
330
B6
102
}
330
B6
100
AcDbScale
 70
     0
300
1:5
140
1.0
141
5.0
290
     0
  0
SCALE
  5
127
102
{ACAD_REACTORS
330
B6
102
}
330
B6
100
AcDbScale
 70
     0
300
1:8
140
1.0
141
8.0
290
     0
  0
SCALE
  5
128
102
{ACAD_REACTORS
330
B6
102
}
330
B6
100
AcDbScale
 70
     0
300
1:10
140
1.0
141
10.0
290
     0
  0
SCALE
  5
129
102
{ACAD_REACTORS
330
B6
102
}
330
B6
100
AcDbScale
 70
     0
300
1:16
140
1.0
141
16.0
290
     0
  0
SCALE
  5
12A
102
{ACAD_REACTORS
330
B6
102
}
330
B6
100
AcDbScale
 70
     0
300
1:20
140
1.0
141
20.0
290
     0
  0
SCALE
  5
12B
102
{ACAD_REACTORS
330
B6
102
}
330
B6
100
AcDbScale
 70
     0
300
1:30
140
1.0
141
30.0
290
     0
  0
SCALE
  5
12C
102
{ACAD_REACTORS
330
B6
102
}
330
B6
100
AcDbScale
 70
     0
300
1:40
140
1.0
141
40.0
290
     0
  0
SCALE
  5
12D
102
{ACAD_REACTORS
330
B6
102
}
330
B6
100
AcDbScale
 70
     0
300
1:50
140
1.0
141
50.0
290
     0
  0
SCALE
  5
12E
102
{ACAD_REACTORS
330
B6
102
}
330
B6
100
AcDbScale
 70
     0
300
1:100
140
1.0
141
100.0
290
     0
  0
SCALE
  5
12F
102
{ACAD_REACTORS
330
B6
102
}
330
B6
100
AcDbScale
 70
     0
300
2:1
140
2.0
141
1.0
290
     0
  0
SCALE
  5
130
102
{ACAD_REACTORS
330
B6
102
}
330
B6
100
AcDbScale
 70
     0
300
4:1
140
4.0
141
1.0
290
     0
  0
SCALE
  5
131
102
{ACAD_REACTORS
330
B6
102
}
330
B6
100
AcDbScale
 70
     0
300
8:1
140
8.0
141
1.0
290
     0
  0
SCALE
  5
132
102
{ACAD_REACTORS
330
B6
102
}
330
B6
100
AcDbScale
 70
     0
300
10:1
140
10.0
141
1.0
290
     0
  0
SCALE
  5
133
102
{ACAD_REACTORS
330
B6
102
}
330
B6
100
AcDbScale
 70
     0
300
100:1
140
100.0
141
1.0
290
     0
  0
SCALE
  5
134
102
{ACAD_REACTORS
330
B6
102
}
330
B6
100
AcDbScale
 70
     0
300
1/128" = 1'-0"
140
0.0078125
141
12.0
290
     0
  0
SCALE
  5
135
102
{ACAD_REACTORS
330
B6
102
}
330
B6
100
AcDbScale
 70
     0
300
1/64" = 1'-0"
140
0.015625
141
12.0
290
     0
  0
SCALE
  5
136
102
{ACAD_REACTORS
330
B6
102
}
330
B6
100
AcDbScale
 70
     0
300
1/32" = 1'-0"
140
0.03125
141
12.0
290
     0
  0
SCALE
  5
137
102
{ACAD_REACTORS
330
B6
102
}
330
B6
100
AcDbScale
 70
     0
300
1/16" = 1'-0"
140
0.0625
141
12.0
290
     0
  0
SCALE
  5
138
102
{ACAD_REACTORS
330
B6
102
}
330
B6
100
AcDbScale
 70
     0
300
3/32" = 1'-0"
140
0.09375
141
12.0
290
     0
  0
SCALE
  5
139
102
{ACAD_REACTORS
330
B6
102
}
330
B6
100
AcDbScale
 70
     0
300
1/8" = 1'-0"
140
0.125
141
12.0
290
     0
  0
SCALE
  5
13A
102
{ACAD_REACTORS
330
B6
102
}
330
B6
100
AcDbScale
 70
     0
300
3/16" = 1'-0"
140
0.1875
141
12.0
290
     0
  0
SCALE
  5
13B
102
{ACAD_REACTORS
330
B6
102
}
330
B6
100
AcDbScale
 70
     0
300
1/4" = 1'-0"
140
0.25
141
12.0
290
     0
  0
SCALE
  5
13C
102
{ACAD_REACTORS
330
B6
102
}
330
B6
100
AcDbScale
 70
     0
300
3/8" = 1'-0"
140
0.375
141
12.0
290
     0
  0
SCALE
  5
13D
102
{ACAD_REACTORS
330
B6
102
}
330
B6
100
AcDbScale
 70
     0
300
1/2" = 1'-0"
140
0.5
141
12.0
290
     0
  0
SCALE
  5
13E
102
{ACAD_REACTORS
330
B6
102
}
330
B6
100
AcDbScale
 70
     0
300
3/4" = 1'-0"
140
0.75
141
12.0
290
     0
  0
SCALE
  5
13F
102
{ACAD_REACTORS
330
B6
102
}
330
B6
100
AcDbScale
 70
     0
300
1" = 1'-0"
140
1.0
141
12.0
290
     0
  0
SCALE
  5
140
102
{ACAD_REACTORS
330
B6
102
}
330
B6
100
AcDbScale
 70
     0
300
1-1/2" = 1'-0"
140
1.5
141
12.0
290
     0
  0
SCALE
  5
141
102
{ACAD_REACTORS
330
B6
102
}
330
B6
100
AcDbScale
 70
     0
300
3" = 1'-0"
140
3.0
141
12.0
290
     0
  0
SCALE
  5
142
102
{ACAD_REACTORS
330
B6
102
}
330
B6
100
AcDbScale
 70
     0
300
6" = 1'-0"
140
6.0
141
12.0
290
     0
  0
SCALE
  5
143
102
{ACAD_REACTORS
330
B6
102
}
330
B6
100
AcDbScale
 70
     0
300
1'-0" = 1'-0"
140
12.0
141
12.0
290
     0
  0
TABLESTYLE
  5
87
102
{ACAD_XDICTIONARY
360
104
102
}
102
{ACAD_REACTORS
330
86
102
}
330
86
100
AcDbTableStyle
  3
Standard
 70
     0
 71
     0
 40
0.06
 41
0.06
280
     0
281
     0
  7
Standard
140
0.18
170
     2
 62
     0
 63
     7
283
     0
274
    -2
284
     1
 64
     0
275
    -2
285
     1
 65
     0
276
    -2
286
     1
 66
     0
277
    -2
287
     1
 67
     0
278
    -2
288
     1
 68
     0
279
    -2
289
     1
 69
     0
  7
Standard
140
0.25
170
     5
 62
     0
 63
     7
283
     0
274
    -2
284
     1
 64
     0
275
    -2
285
     1
 65
     0
276
    -2
286
     1
 66
     0
277
    -2
287
     1
 67
     0
278
    -2
288
     1
 68
     0
279
    -2
289
     1
 69
     0
  7
Standard
140
0.18
170
     5
 62
     0
 63
     7
283
     0
274
    -2
284
     1
 64
     0
275
    -2
285
     1
 65
     0
276
    -2
286
     1
 66
     0
277
    -2
287
     1
 67
     0
278
    -2
288
     1
 68
     0
279
    -2
289
     1
 69
     0
  0
VISUALSTYLE
  5
9F
102
{ACAD_REACTORS
330
99
102
}
330
99
100
AcDbVisualStyle
  2
2dWireframe
 70
     4
 71
     0
 72
     2
 73
     1
 90
        0
 40
-0.6
 41
-30.0
 62
     5
 63
     7
 74
     1
 91
        4
 64
     7
 65
   257
 75
     1
175
     1
 42
1.0
 92
        0
 66
   257
 43
1.0
 76
     1
 77
     6
 78
     2
 67
     7
 79
     5
170
     0
171
     0
290
     0
174
     0
 93
        1
 44
0.0
173
     0
291
     0
 45
0.0
1001
ACAD
1000
AcDbSavedByObjectVersion
1070
     0
  0
VISUALSTYLE
  5
A1
102
{ACAD_REACTORS
330
99
102
}
330
99
100
AcDbVisualStyle
  2
3D Hidden
 70
     6
 71
     1
 72
     2
 73
     2
 90
        0
 40
-0.6
 41
-30.0
 62
     5
 63
     7
 74
     2
 91
        2
 64
     7
 65
   257
 75
     2
175
     1
 42
40.0
 92
        0
 66
   257
 43
1.0
 76
     1
 77
     6
 78
     2
 67
     7
 79
     3
170
     0
171
     0
290
     0
174
     0
 93
        1
 44
0.0
173
     0
291
     0
 45
0.0
1001
ACAD
1000
AcDbSavedByObjectVersion
1070
     0
  0
VISUALSTYLE
  5
A0
102
{ACAD_REACTORS
330
99
102
}
330
99
100
AcDbVisualStyle
  2
3dWireframe
 70
     5
 71
     0
 72
     2
 73
     1
 90
        0
 40
-0.6
 41
-30.0
 62
     5
 63
     7
 74
     1
 91
        4
 64
     7
 65
   257
 75
     1
175
     1
 42
1.0
 92
        0
 66
   257
 43
1.0
 76
     1
 77
     6
 78
     2
 67
     7
 79
     5
170
     0
171
     0
290
     0
174
     0
 93
        1
 44
0.0
173
     0
291
     0
 45
0.0
1001
ACAD
1000
AcDbSavedByObjectVersion
1070
     0
  0
VISUALSTYLE
  5
9E
102
{ACAD_REACTORS
330
99
102
}
330
99
100
AcDbVisualStyle
  2
Basic
 70
     7
 71
     1
 72
     0
 73
     1
 90
        0
 40
-0.6
 41
-30.0
 62
     5
 63
     7
 74
     0
 91
        4
 64
     7
 65
   257
 75
     1
175
     1
 42
1.0
 92
        8
 66
     7
 43
1.0
 76
     1
 77
     6
 78
     2
 67
     7
 79
     5
170
     0
171
     0
290
     0
174
     0
 93
        1
 44
0.0
173
     0
291
     1
 45
0.0
1001
ACAD
1000
AcDbSavedByObjectVersion
1070
     0
  0
VISUALSTYLE
  5
A5
102
{ACAD_REACTORS
330
99
102
}
330
99
100
AcDbVisualStyle
  2
Brighten
 70
    12
 71
     2
 72
     2
 73
     1
 90
        0
 40
-0.6
 41
-30.0
 62
     5
 63
     7
 74
     1
 91
        4
 64
     7
 65
   257
 75
     1
175
     1
 42
1.0
 92
        8
 66
     7
 43
1.0
 76
     1
 77
     6
 78
     2
 67
     7
 79
     5
170
     0
171
     0
290
     0
174
     0
 93
        1
 44
50.0
173
     0
291
     1
 45
0.0
1001
ACAD
1000
AcDbSavedByObjectVersion
1070
     0
  0
VISUALSTYLE
  5
A9
102
{ACAD_REACTORS
330
99
102
}
330
99
100
AcDbVisualStyle
  2
ColorChange
 70
    16
 71
     2
 72
     2
 73
     3
 90
        0
 40
-0.6
 41
-30.0
 62
     5
 63
     8
 74
     1
 91
        4
 64
     7
 65
   257
 75
     1
175
     1
 42
1.0
 92
        8
 66
     8
 43
1.0
 76
     1
 77
     6
 78
     2
 67
     7
 79
     5
170
     0
171
     0
290
     0
174
     0
 93
        1
 44
0.0
173
     0
291
     1
 45
0.0
1001
ACAD
1000
AcDbSavedByObjectVersion
1070
     0
  0
VISUALSTYLE
  5
A2
102
{ACAD_REACTORS
330
99
102
}
330
99
100
AcDbVisualStyle
  2
Conceptual
 70
     9
 71
     3
 72
     2
 73
     1
 90
        0
 40
-0.6
 41
-30.0
 62
     5
 63
     7
 74
     2
 91
        2
 64
     7
 65
   257
 75
     1
175
     1
 42
40.0
 92
        8
 66
     7
 43
1.0
 76
     1
 77
     6
 78
     2
 67
     7
 79
     3
170
     0
171
     0
290
     0
174
     0
 93
        1
 44
0.0
173
     0
291
     0
 45
0.0
1001
ACAD
1000
AcDbSavedByObjectVersion
1070
     0
  0
VISUALSTYLE
  5
A4
102
{ACAD_REACTORS
330
99
102
}
330
99
100
AcDbVisualStyle
  2
Dim
 70
    11
 71
     2
 72
     2
 73
     1
 90
        0
 40
-0.6
 41
-30.0
 62
     5
 63
     7
 74
     1
 91
        4
 64
     7
 65
   257
 75
     1
175
     1
 42
1.0
 92
        8
 66
     7
 43
1.0
 76
     1
 77
     6
 78
     2
 67
     7
 79
     5
170
     0
171
     0
290
     0
174
     0
 93
        1
 44
-50.0
173
     0
291
     1
 45
0.0
1001
ACAD
1000
AcDbSavedByObjectVersion
1070
     0
  0
VISUALSTYLE
  5
A8
102
{ACAD_REACTORS
330
99
102
}
330
99
100
AcDbVisualStyle
  2
Facepattern
 70
    15
 71
     2
 72
     2
 73
     1
 90
        0
 40
-0.6
 41
-30.0
 62
     5
 63
     7
 74
     1
 91
        4
 64
     7
 65
   257
 75
     1
175
     1
 42
1.0
 92
        8
 66
     7
 43
1.0
 76
     1
 77
     6
 78
     2
 67
     7
 79
     5
170
     0
171
     0
290
     0
174
     0
 93
        1
 44
0.0
173
     0
291
     1
 45
0.0
1001
ACAD
1000
AcDbSavedByObjectVersion
1070
     0
  0
VISUALSTYLE
  5
9A
102
{ACAD_REACTORS
330
99
102
}
330
99
100
AcDbVisualStyle
  2
Flat
 70
     0
 71
     2
 72
     1
 73
     1
 90
        2
 40
-0.6
 41
30.0
 62
     5
 63
     7
 74
     0
 91
        4
 64
     7
 65
   257
 75
     1
175
     1
 42
1.0
 92
        8
 66
     7
 43
1.0
 76
     1
 77
     6
 78
     2
 67
     7
 79
     5
170
     0
171
     0
290
     0
174
     0
 93
        1
 44
0.0
173
     0
291
     1
 45
0.0
1001
ACAD
1000
AcDbSavedByObjectVersion
1070
     0
  0
VISUALSTYLE
  5
9B
102
{ACAD_REACTORS
330
99
102
}
330
99
100
AcDbVisualStyle
  2
FlatWithEdges
 70
     1
 71
     2
 72
     1
 73
     1
 90
        2
 40
-0.6
 41
30.0
 62
     5
 63
     7
 74
     1
 91
        4
 64
     7
 65
   257
 75
     1
175
     1
 42
1.0
 92
        0
 66
   257
 43
1.0
 76
     1
 77
     6
 78
     2
 67
     7
 79
     5
170
     0
171
     0
290
     0
174
     0
 93
        1
 44
0.0
173
     0
291
     1
 45
0.0
1001
ACAD
1000
AcDbSavedByObjectVersion
1070
     0
  0
VISUALSTYLE
  5
9C
102
{ACAD_REACTORS
330
99
102
}
330
99
100
AcDbVisualStyle
  2
Gouraud
 70
     2
 71
     2
 72
     2
 73
     1
 90
        2
 40
-0.6
 41
30.0
 62
     5
 63
     7
 74
     0
 91
        4
 64
     7
 65
   257
 75
     1
175
     1
 42
1.0
 92
        0
 66
     7
 43
1.0
 76
     1
 77
     6
 78
     2
 67
     7
 79
     5
170
     0
171
     0
290
     0
174
     0
 93
        1
 44
0.0
173
     0
291
     1
 45
0.0
1001
ACAD
1000
AcDbSavedByObjectVersion
1070
     0
  0
VISUALSTYLE
  5
9D
102
{ACAD_REACTORS
330
99
102
}
330
99
100
AcDbVisualStyle
  2
GouraudWithEdges
 70
     3
 71
     2
 72
     2
 73
     1
 90
        2
 40
-0.6
 41
30.0
 62
     5
 63
     7
 74
     1
 91
        4
 64
     7
 65
   257
 75
     1
175
     1
 42
1.0
 92
        0
 66
   257
 43
1.0
 76
     1
 77
     6
 78
     2
 67
     7
 79
     5
170
     0
171
     0
290
     0
174
     0
 93
        1
 44
0.0
173
     0
291
     1
 45
0.0
1001
ACAD
1000
AcDbSavedByObjectVersion
1070
     0
  0
VISUALSTYLE
  5
A7
102
{ACAD_REACTORS
330
99
102
}
330
99
100
AcDbVisualStyle
  2
Linepattern
 70
    14
 71
     2
 72
     2
 73
     1
 90
        0
 40
-0.6
 41
-30.0
 62
     5
 63
     7
 74
     1
 91
        4
 64
     7
 65
   257
 75
     7
175
     7
 42
1.0
 92
        8
 66
     7
 43
1.0
 76
     1
 77
     6
 78
     2
 67
     7
 79
     5
170
     0
171
     0
290
     0
174
     0
 93
        1
 44
0.0
173
     0
291
     1
 45
0.0
1001
ACAD
1000
AcDbSavedByObjectVersion
1070
     0
  0
VISUALSTYLE
  5
A3
102
{ACAD_REACTORS
330
99
102
}
330
99
100
AcDbVisualStyle
  2
Realistic
 70
     8
 71
     2
 72
     2
 73
     1
 90
        0
 40
-0.6
 41
-30.0
 62
     5
 63
     7
 74
     1
 91
        0
 64
     7
 65
   257
 75
     1
175
     1
 42
1.0
 92
        8
 66
     8
 43
1.0
 76
     1
 77
     6
 78
     2
 67
     7
 79
     5
170
     0
171
     0
290
     0
174
     0
 93
       13
 44
0.0
173
     0
291
     0
 45
0.0
1001
ACAD
1000
AcDbSavedByObjectVersion
1070
     0
  0
VISUALSTYLE
  5
A6
102
{ACAD_REACTORS
330
99
102
}
330
99
100
AcDbVisualStyle
  2
Thicken
 70
    13
 71
     2
 72
     2
 73
     1
 90
        0
 40
-0.6
 41
-30.0
 62
     5
 63
     7
 74
     1
 91
        4
 64
     7
 65
   257
 75
     1
175
     1
 42
1.0
 92
       12
 66
     7
 43
1.0
 76
     1
 77
     6
 78
     2
 67
     7
 79
     5
170
     0
171
     0
290
     0
174
     0
 93
        1
 44
0.0
173
     0
291
     1
 45
0.0
1001
ACAD
1000
AcDbSavedByObjectVersion
1070
     0
  0
DICTIONARYVAR
  5
F0
102
{ACAD_REACTORS
330
66
102
}
330
66
100
DictionaryVariables
280
     0
  1
1:1
  0
DICTIONARYVAR
  5
EF
102
{ACAD_REACTORS
330
66
102
}
330
66
100
DictionaryVariables
280
     0
  1
STANDARD
  0
DICTIONARYVAR
  5
89
102
{ACAD_REACTORS
330
66
102
}
330
66
100
DictionaryVariables
280
     0
  1
STANDARD
  0
DICTIONARYVAR
  5
67
102
{ACAD_REACTORS
330
66
102
}
330
66
100
DictionaryVariables
280
     0
  1
2
  0
DICTIONARYVAR
  5
6B
102
{ACAD_REACTORS
330
66
102
}
330
66
100
DictionaryVariables
280
     0
  1
1
  0
DICTIONARYVAR
  5
4D5
102
{ACAD_REACTORS
330
66
102
}
330
66
100
DictionaryVariables
280
     0
  1
0
  0
DICTIONARYVAR
  5
4D3
102
{ACAD_REACTORS
330
66
102
}
330
66
100
DictionaryVariables
280
     0
  1
2
  0
DICTIONARYVAR
  5
4D2
102
{ACAD_REACTORS
330
66
102
}
330
66
100
DictionaryVariables
280
     0
  1
1
  0
DICTIONARYVAR
  5
4D4
102
{ACAD_REACTORS
330
66
102
}
330
66
100
DictionaryVariables
280
     0
  1
127
  0
DICTIONARY
  5
4DA
330
59
100
AcDbDictionary
280
     1
281
     1
  3
ACAD_XREC_ROUNDTRIP
360
4DB
  0
DICTIONARY
  5
4DC
330
5E
100
AcDbDictionary
280
     1
281
     1
  3
ACAD_XREC_ROUNDTRIP
360
4DD
  0
DICTIONARY
  5
4D8
330
22
100
AcDbDictionary
280
     1
281
     1
  3
ACAD_XREC_ROUNDTRIP
360
4D9
  0
DICTIONARY
  5
4E1
330
97
100
AcDbDictionary
280
     1
281
     1
  3
ACAD_XREC_ROUNDTRIP
360
4E2
  0
DICTIONARY
  5
4DF
330
96
100
AcDbDictionary
280
     1
281
     1
  3
ACAD_XREC_ROUNDTRIP
360
4E0
  0
DICTIONARY
  5
110
330
98
100
AcDbDictionary
280
     1
281
     1
  3
ACAD_XREC_ROUNDTRIP
360
4E3
  3
BUMPTILE
360
112
  3
DIFFUSETILE
360
111
  3
OPACITYTILE
360
113
  3
REFLECTIONTILE
360
114
  0
DICTIONARY
  5
104
330
87
100
AcDbDictionary
280
     1
281
     1
  3
ACAD_ROUNDTRIP_2008_TABLESTYLE_CELLSTYLEMAP
360
4D6
  3
ACAD_XREC_ROUNDTRIP
360
4DE
  0
XRECORD
  5
4DB
102
{ACAD_REACTORS
330
4DA
102
}
330
4DA
100
AcDbXrecord
280
     1
102
SHADEPLOT
 70
     0
102
SHADEPLOTRESLEVEL
 70
     2
102
SHADEPLOTCUSTOMDPI
 70
   300
  0
XRECORD
  5
4DD
102
{ACAD_REACTORS
330
4DC
102
}
330
4DC
100
AcDbXrecord
280
     1
102
SHADEPLOT
 70
     0
102
SHADEPLOTRESLEVEL
 70
     2
102
SHADEPLOTCUSTOMDPI
 70
   300
  0
XRECORD
  5
4D9
102
{ACAD_REACTORS
330
4D8
102
}
330
4D8
100
AcDbXrecord
280
     1
102
SHADEPLOT
 70
     0
102
SHADEPLOTRESLEVEL
 70
     2
102
SHADEPLOTCUSTOMDPI
 70
   300
  0
XRECORD
  5
4E2
102
{ACAD_REACTORS
330
4E1
102
}
330
4E1
100
AcDbXrecord
280
     1
102
MATERIAL
148
0.0
149
0.0
149
0.0
 93
        0
 94
       63
282
     0
 72
     1
 77
     1
171
     1
175
     1
179
     1
273
     0
  0
XRECORD
  5
4E0
102
{ACAD_REACTORS
330
4DF
102
}
330
4DF
100
AcDbXrecord
280
     1
102
MATERIAL
148
0.0
149
0.0
149
0.0
 93
        0
 94
       63
282
     0
 72
     1
 77
     1
171
     1
175
     1
179
     1
273
     0
  0
XRECORD
  5
4E3
102
{ACAD_REACTORS
330
110
102
}
330
110
100
AcDbXrecord
280
     1
102
MATERIAL
148
0.0
149
0.0
149
0.0
 93
        0
 94
       63
282
     0
 72
     1
 77
     1
171
     1
175
     1
179
     1
273
     0
  0
XRECORD
  5
112
102
{ACAD_REACTORS
330
110
102
}
330
110
100
AcDbXrecord
280
     1
270
     1
271
     1
  0
XRECORD
  5
111
102
{ACAD_REACTORS
330
110
102
}
330
110
100
AcDbXrecord
280
     1
270
     1
271
     1
  0
XRECORD
  5
113
102
{ACAD_REACTORS
330
110
102
}
330
110
100
AcDbXrecord
280
     1
270
     1
271
     1
  0
XRECORD
  5
114
102
{ACAD_REACTORS
330
110
102
}
330
110
100
AcDbXrecord
280
     1
270
     1
271
     1
  0
CELLSTYLEMAP
  5
4D6
102
{ACAD_REACTORS
330
104
102
}
330
104
100
AcDbCellStyleMap
 90
        3
300
CELLSTYLE
  1
TABLEFORMAT_BEGIN
 90
        5
170
     1
 91
        0
 92
    32768
 62
   257
 93
        1
300
CONTENTFORMAT
  1
CONTENTFORMAT_BEGIN
 90
        0
 91
        0
 92
      512
 93
        0
300

 40
0.0
140
1.0
 94
        5
 62
     0
340
11
144
0.25
309
CONTENTFORMAT_END
171
     1
301
MARGIN
  1
CELLMARGIN_BEGIN
 40
0.06
 40
0.06
 40
0.06
 40
0.06
 40
0.18
 40
0.18
309
CELLMARGIN_END
 94
        6
 95
        1
302
GRIDFORMAT
  1
GRIDFORMAT_BEGIN
 90
        0
 91
        1
 62
     0
 92
       -2
340
0
 93
        0
 40
0.045
309
GRIDFORMAT_END
 95
        2
302
GRIDFORMAT
  1
GRIDFORMAT_BEGIN
 90
        0
 91
        1
 62
     0
 92
       -2
340
0
 93
        0
 40
0.045
309
GRIDFORMAT_END
 95
        4
302
GRIDFORMAT
  1
GRIDFORMAT_BEGIN
 90
        0
 91
        1
 62
     0
 92
       -2
340
0
 93
        0
 40
0.045
309
GRIDFORMAT_END
 95
        8
302
GRIDFORMAT
  1
GRIDFORMAT_BEGIN
 90
        0
 91
        1
 62
     0
 92
       -2
340
0
 93
        0
 40
0.045
309
GRIDFORMAT_END
 95
       16
302
GRIDFORMAT
  1
GRIDFORMAT_BEGIN
 90
        0
 91
        1
 62
     0
 92
       -2
340
0
 93
        0
 40
0.045
309
GRIDFORMAT_END
 95
       32
302
GRIDFORMAT
  1
GRIDFORMAT_BEGIN
 90
        0
 91
        1
 62
     0
 92
       -2
340
0
 93
        0
 40
0.045
309
GRIDFORMAT_END
309
TABLEFORMAT_END
  1
CELLSTYLE_BEGIN
 90
        1
 91
        1
300
_TITLE
309
CELLSTYLE_END
300
CELLSTYLE
  1
TABLEFORMAT_BEGIN
 90
        5
170
     1
 91
        0
 92
        0
 62
   257
 93
        1
300
CONTENTFORMAT
  1
CONTENTFORMAT_BEGIN
 90
        0
 91
        0
 92
      512
 93
        0
300

 40
0.0
140
1.0
 94
        5
 62
     0
340
11
144
0.18
309
CONTENTFORMAT_END
171
     1
301
MARGIN
  1
CELLMARGIN_BEGIN
 40
0.06
 40
0.06
 40
0.06
 40
0.06
 40
0.18
 40
0.18
309
CELLMARGIN_END
 94
        6
 95
        1
302
GRIDFORMAT
  1
GRIDFORMAT_BEGIN
 90
        0
 91
        1
 62
     0
 92
       -2
340
0
 93
        0
 40
0.045
309
GRIDFORMAT_END
 95
        2
302
GRIDFORMAT
  1
GRIDFORMAT_BEGIN
 90
        0
 91
        1
 62
     0
 92
       -2
340
0
 93
        0
 40
0.045
309
GRIDFORMAT_END
 95
        4
302
GRIDFORMAT
  1
GRIDFORMAT_BEGIN
 90
        0
 91
        1
 62
     0
 92
       -2
340
0
 93
        0
 40
0.045
309
GRIDFORMAT_END
 95
        8
302
GRIDFORMAT
  1
GRIDFORMAT_BEGIN
 90
        0
 91
        1
 62
     0
 92
       -2
340
0
 93
        0
 40
0.045
309
GRIDFORMAT_END
 95
       16
302
GRIDFORMAT
  1
GRIDFORMAT_BEGIN
 90
        0
 91
        1
 62
     0
 92
       -2
340
0
 93
        0
 40
0.045
309
GRIDFORMAT_END
 95
       32
302
GRIDFORMAT
  1
GRIDFORMAT_BEGIN
 90
        0
 91
        1
 62
     0
 92
       -2
340
0
 93
        0
 40
0.045
309
GRIDFORMAT_END
309
TABLEFORMAT_END
  1
CELLSTYLE_BEGIN
 90
        2
 91
        1
300
_HEADER
309
CELLSTYLE_END
300
CELLSTYLE
  1
TABLEFORMAT_BEGIN
 90
        5
170
     1
 91
        0
 92
        0
 62
   257
 93
        1
300
CONTENTFORMAT
  1
CONTENTFORMAT_BEGIN
 90
        0
 91
        0
 92
      512
 93
        0
300

 40
0.0
140
1.0
 94
        2
 62
     0
340
11
144
0.18
309
CONTENTFORMAT_END
171
     1
301
MARGIN
  1
CELLMARGIN_BEGIN
 40
0.06
 40
0.06
 40
0.06
 40
0.06
 40
0.18
 40
0.18
309
CELLMARGIN_END
 94
        6
 95
        1
302
GRIDFORMAT
  1
GRIDFORMAT_BEGIN
 90
        0
 91
        1
 62
     0
 92
       -2
340
0
 93
        0
 40
0.045
309
GRIDFORMAT_END
 95
        2
302
GRIDFORMAT
  1
GRIDFORMAT_BEGIN
 90
        0
 91
        1
 62
     0
 92
       -2
340
0
 93
        0
 40
0.045
309
GRIDFORMAT_END
 95
        4
302
GRIDFORMAT
  1
GRIDFORMAT_BEGIN
 90
        0
 91
        1
 62
     0
 92
       -2
340
0
 93
        0
 40
0.045
309
GRIDFORMAT_END
 95
        8
302
GRIDFORMAT
  1
GRIDFORMAT_BEGIN
 90
        0
 91
        1
 62
     0
 92
       -2
340
0
 93
        0
 40
0.045
309
GRIDFORMAT_END
 95
       16
302
GRIDFORMAT
  1
GRIDFORMAT_BEGIN
 90
        0
 91
        1
 62
     0
 92
       -2
340
0
 93
        0
 40
0.045
309
GRIDFORMAT_END
 95
       32
302
GRIDFORMAT
  1
GRIDFORMAT_BEGIN
 90
        0
 91
        1
 62
     0
 92
       -2
340
0
 93
        0
 40
0.045
309
GRIDFORMAT_END
309
TABLEFORMAT_END
  1
CELLSTYLE_BEGIN
 90
        3
 91
        2
300
_DATA
309
CELLSTYLE_END
  0
XRECORD
  5
4DE
102
{ACAD_REACTORS
330
104
102
}
330
104
100
AcDbXrecord
280
     1
102
ACAD_ROUNDTRIP_PRE2007_TABLESTYLE
 90
      512
 91
        0
  1

 92
      512
 93
        0
  2

 94
      512
 95
        0
  3

  0
ENDSEC
  0
EOF
