  0
SECTION
  2
HEADER
  9
$ACADVER
  1
AC1015
  9
$ACADMAINTVER
 70
    20
  9
$DWGCODEPAGE
  3
ANSI_1252
  9
$INSBASE
 10
0.0
 20
0.0
 30
0.0
  9
$EXTMIN
 10
19.51859100343896
 20
14.99103536048733
 30
0.0
  9
$EXTMAX
 10
195.5717497434389
 20
594.3941419404873
 30
0.0
  9
$LIMMIN
 10
0.0
 20
0.0
  9
$LIMMAX
 10
12.0
 20
9.0
  9
$ORTHOMODE
 70
     0
  9
$REGENMODE
 70
     1
  9
$FILLMODE
 70
     1
  9
$QTEXTMODE
 70
     0
  9
$MIRRTEXT
 70
     0
  9
$LTSCALE
 40
1.0
  9
$ATTMODE
 70
     1
  9
$TEXTSIZE
 40
0.2
  9
$TRACEWID
 40
0.05
  9
$TEXTSTYLE
  7
Standard
  9
$CLAYER
  8
0
  9
$CELTYPE
  6
ByLayer
  9
$CECOLOR
 62
   256
  9
$CELTSCALE
 40
1.0
  9
$DISPSILH
 70
     0
  9
$DIMSCALE
 40
1.0
  9
$DIMASZ
 40
0.18
  9
$DIMEXO
 40
0.0625
  9
$DIMDLI
 40
0.38
  9
$DIMRND
 40
0.0
  9
$DIMDLE
 40
0.0
  9
$DIMEXE
 40
0.18
  9
$DIMTP
 40
0.0
  9
$DIMTM
 40
0.0
  9
$DIMTXT
 40
0.18
  9
$DIMCEN
 40
0.09
  9
$DIMTSZ
 40
0.0
  9
$DIMTOL
 70
     0
  9
$DIMLIM
 70
     0
  9
$DIMTIH
 70
     1
  9
$DIMTOH
 70
     1
  9
$DIMSE1
 70
     0
  9
$DIMSE2
 70
     0
  9
$DIMTAD
 70
     0
  9
$DIMZIN
 70
     0
  9
$DIMBLK
  1

  9
$DIMASO
 70
     1
  9
$DIMSHO
 70
     1
  9
$DIMPOST
  1

  9
$DIMAPOST
  1

  9
$DIMALT
 70
     0
  9
$DIMALTD
 70
     2
  9
$DIMALTF
 40
25.4
  9
$DIMLFAC
 40
1.0
  9
$DIMTOFL
 70
     0
  9
$DIMTVP
 40
0.0
  9
$DIMTIX
 70
     0
  9
$DIMSOXD
 70
     0
  9
$DIMSAH
 70
     0
  9
$DIMBLK1
  1

  9
$DIMBLK2
  1

  9
$DIMSTYLE
  2
Standard
  9
$DIMCLRD
 70
     0
  9
$DIMCLRE
 70
     0
  9
$DIMCLRT
 70
     0
  9
$DIMTFAC
 40
1.0
  9
$DIMGAP
 40
0.09
  9
$DIMJUST
 70
     0
  9
$DIMSD1
 70
     0
  9
$DIMSD2
 70
     0
  9
$DIMTOLJ
 70
     1
  9
$DIMTZIN
 70
     0
  9
$DIMALTZ
 70
     0
  9
$DIMALTTZ
 70
     0
  9
$DIMUPT
 70
     0
  9
$DIMDEC
 70
     4
  9
$DIMTDEC
 70
     4
  9
$DIMALTU
 70
     2
  9
$DIMALTTD
 70
     2
  9
$DIMTXSTY
  7
Standard
  9
$DIMAUNIT
 70
     0
  9
$DIMADEC
 70
     0
  9
$DIMALTRND
 40
0.0
  9
$DIMAZIN
 70
     0
  9
$DIMDSEP
 70
    46
  9
$DIMATFIT
 70
     3
  9
$DIMFRAC
 70
     0
  9
$DIMLDRBLK
  1

  9
$DIMLUNIT
 70
     2
  9
$DIMLWD
 70
    -2
  9
$DIMLWE
 70
    -2
  9
$DIMTMOVE
 70
     0
  9
$LUNITS
 70
     2
  9
$LUPREC
 70
     4
  9
$SKETCHINC
 40
0.1
  9
$FILLETRAD
 40
0.0
  9
$AUNITS
 70
     0
  9
$AUPREC
 70
     0
  9
$MENU
  1
.
  9
$ELEVATION
 40
0.0
  9
$PELEVATION
 40
0.0
  9
$THICKNESS
 40
0.0
  9
$LIMCHECK
 70
     0
  9
$CHAMFERA
 40
0.0
  9
$CHAMFERB
 40
0.0
  9
$CHAMFERC
 40
0.0
  9
$CHAMFERD
 40
0.0
  9
$SKPOLY
 70
     0
  9
$TDCREATE
 40
2455511.355871678
  9
$TDUCREATE
 40
2455511.314205011
  9
$TDUPDATE
 40
2455511.356033287
  9
$TDUUPDATE
 40
2455511.314366621
  9
$TDINDWG
 40
0.0001616088
  9
$TDUSRTIMER
 40
0.0001616088
  9
$USRTIMER
 70
     1
  9
$ANGBASE
 50
0.0
  9
$ANGDIR
 70
     0
  9
$PDMODE
 70
     0
  9
$PDSIZE
 40
0.0
  9
$PLINEWID
 40
0.0
  9
$SPLFRAME
 70
     0
  9
$SPLINETYPE
 70
     6
  9
$SPLINESEGS
 70
     8
  9
$HANDSEED
  5
392
  9
$SURFTAB1
 70
     6
  9
$SURFTAB2
 70
     6
  9
$SURFTYPE
 70
     6
  9
$SURFU
 70
     6
  9
$SURFV
 70
     6
  9
$UCSBASE
  2

  9
$UCSNAME
  2

  9
$UCSORG
 10
0.0
 20
0.0
 30
0.0
  9
$UCSXDIR
 10
1.0
 20
0.0
 30
0.0
  9
$UCSYDIR
 10
0.0
 20
1.0
 30
0.0
  9
$UCSORTHOREF
  2

  9
$UCSORTHOVIEW
 70
     0
  9
$UCSORGTOP
 10
0.0
 20
0.0
 30
0.0
  9
$UCSORGBOTTOM
 10
0.0
 20
0.0
 30
0.0
  9
$UCSORGLEFT
 10
0.0
 20
0.0
 30
0.0
  9
$UCSORGRIGHT
 10
0.0
 20
0.0
 30
0.0
  9
$UCSORGFRONT
 10
0.0
 20
0.0
 30
0.0
  9
$UCSORGBACK
 10
0.0
 20
0.0
 30
0.0
  9
$PUCSBASE
  2

  9
$PUCSNAME
  2

  9
$PUCSORG
 10
0.0
 20
0.0
 30
0.0
  9
$PUCSXDIR
 10
1.0
 20
0.0
 30
0.0
  9
$PUCSYDIR
 10
0.0
 20
1.0
 30
0.0
  9
$PUCSORTHOREF
  2

  9
$PUCSORTHOVIEW
 70
     0
  9
$PUCSORGTOP
 10
0.0
 20
0.0
 30
0.0
  9
$PUCSORGBOTTOM
 10
0.0
 20
0.0
 30
0.0
  9
$PUCSORGLEFT
 10
0.0
 20
0.0
 30
0.0
  9
$PUCSORGRIGHT
 10
0.0
 20
0.0
 30
0.0
  9
$PUCSORGFRONT
 10
0.0
 20
0.0
 30
0.0
  9
$PUCSORGBACK
 10
0.0
 20
0.0
 30
0.0
  9
$USERI1
 70
     0
  9
$USERI2
 70
     0
  9
$USERI3
 70
     0
  9
$USERI4
 70
     0
  9
$USERI5
 70
     0
  9
$USERR1
 40
0.0
  9
$USERR2
 40
0.0
  9
$USERR3
 40
0.0
  9
$USERR4
 40
0.0
  9
$USERR5
 40
0.0
  9
$WORLDVIEW
 70
     1
  9
$SHADEDGE
 70
     3
  9
$SHADEDIF
 70
    70
  9
$TILEMODE
 70
     1
  9
$MAXACTVP
 70
    64
  9
$PINSBASE
 10
0.0
 20
0.0
 30
0.0
  9
$PLIMCHECK
 70
     0
  9
$PEXTMIN
 10
0.0
 20
0.0
 30
0.0
  9
$PEXTMAX
 10
0.0
 20
0.0
 30
0.0
  9
$PLIMMIN
 10
0.0
 20
0.0
  9
$PLIMMAX
 10
12.0
 20
9.0
  9
$UNITMODE
 70
     0
  9
$VISRETAIN
 70
     1
  9
$PLINEGEN
 70
     0
  9
$PSLTSCALE
 70
     1
  9
$TREEDEPTH
 70
  3020
  9
$CMLSTYLE
  2
Standard
  9
$CMLJUST
 70
     0
  9
$CMLSCALE
 40
1.0
  9
$PROXYGRAPHICS
 70
     1
  9
$MEASUREMENT
 70
     0
  9
$CELWEIGHT
370
    -1
  9
$ENDCAPS
280
     0
  9
$JOINSTYLE
280
     0
  9
$LWDISPLAY
290
     0
  9
$INSUNITS
 70
     1
  9
$HYPERLINKBASE
  1

  9
$STYLESHEET
  1

  9
$XEDIT
290
     1
  9
$CEPSNTYPE
380
     0
  9
$PSTYLEMODE
290
     1
  9
$FINGERPRINTGUID
  2
{D988325E-356A-402B-BE30-074651445F29}
  9
$VERSIONGUID
  2
{92B5EBFD-268C-4481-9350-51C2B75953FD}
  9
$EXTNAMES
290
     1
  9
$PSVPSCALE
 40
0.0
  9
$OLESTARTUP
290
     0
  0
ENDSEC
  0
SECTION
  2
CLASSES
  0
CLASS
  1
ACDBDICTIONARYWDFLT
  2
AcDbDictionaryWithDefault
  3
ObjectDBX Classes
 90
        0
280
     0
281
     0
  0
CLASS
  1
ACDBPLACEHOLDER
  2
AcDbPlaceHolder
  3
ObjectDBX Classes
 90
        0
280
     0
281
     0
  0
CLASS
  1
LAYOUT
  2
AcDbLayout
  3
ObjectDBX Classes
 90
        0
280
     0
281
     0
  0
CLASS
  1
DICTIONARYVAR
  2
AcDbDictionaryVar
  3
ObjectDBX Classes
 90
        0
280
     0
281
     0
  0
CLASS
  1
TABLESTYLE
  2
AcDbTableStyle
  3
ObjectDBX Classes
 90
     4095
280
     0
281
     0
  0
CLASS
  1
MATERIAL
  2
AcDbMaterial
  3
ObjectDBX Classes
 90
     1153
280
     0
281
     0
  0
CLASS
  1
VISUALSTYLE
  2
AcDbVisualStyle
  3
ObjectDBX Classes
 90
     4095
280
     0
281
     0
  0
CLASS
  1
SCALE
  2
AcDbScale
  3
ObjectDBX Classes
 90
     1153
280
     0
281
     0
  0
CLASS
  1
MLEADERSTYLE
  2
AcDbMLeaderStyle
  3
ACDB_MLEADERSTYLE_CLASS
 90
     4095
280
     0
281
     0
  0
CLASS
  1
CELLSTYLEMAP
  2
AcDbCellStyleMap
  3
ObjectDBX Classes
 90
     1152
280
     0
281
     0
  0
ENDSEC
  0
SECTION
  2
TABLES
  0
TABLE
  2
VPORT
  5
8
330
0
100
AcDbSymbolTable
 70
     1
  0
VPORT
  5
94
330
8
100
AcDbSymbolTableRecord
100
AcDbViewportTableRecord
  2
*Active
 70
     0
 10
0.0
 20
0.0
 11
1.0
 21
1.0
 12
107.545170373439
 22
304.6925886504873
 13
0.0
 23
0.0
 14
0.5
 24
0.5
 15
0.5
 25
0.5
 16
0.0
 26
0.0
 36
1.0
 17
0.0
 27
0.0
 37
0.0
 40
584.1849754100962
 41
1.148760330578512
 42
50.0
 43
0.0
 44
0.0
 50
0.0
 51
0.0
 71
     0
 72
  1000
 73
     1
 74
     3
 75
     0
 76
     0
 77
     0
 78
     0
281
     0
 65
     1
110
0.0
120
0.0
130
0.0
111
1.0
121
0.0
131
0.0
112
0.0
122
1.0
132
0.0
 79
     0
146
0.0
  0
ENDTAB
  0
TABLE
  2
LTYPE
  5
5
330
0
100
AcDbSymbolTable
 70
     1
  0
LTYPE
  5
14
330
5
100
AcDbSymbolTableRecord
100
AcDbLinetypeTableRecord
  2
ByBlock
 70
     0
  3

 72
    65
 73
     0
 40
0.0
  0
LTYPE
  5
15
330
5
100
AcDbSymbolTableRecord
100
AcDbLinetypeTableRecord
  2
ByLayer
 70
     0
  3

 72
    65
 73
     0
 40
0.0
  0
LTYPE
  5
16
330
5
100
AcDbSymbolTableRecord
100
AcDbLinetypeTableRecord
  2
Continuous
 70
     0
  3
Solid line
 72
    65
 73
     0
 40
0.0
  0
ENDTAB
  0
TABLE
  2
LAYER
  5
2
330
0
100
AcDbSymbolTable
 70
     4
  0
LAYER
  5
10
102
{ACAD_XDICTIONARY
360
E6
102
}
330
2
100
AcDbSymbolTableRecord
100
AcDbLayerTableRecord
  2
0
 70
     0
 62
     7
  6
Continuous
370
    -3
390
F
  0
LAYER
  5
174
102
{ACAD_XDICTIONARY
360
37C
102
}
330
2
100
AcDbSymbolTableRecord
100
AcDbLayerTableRecord
  2
Q
 70
     1
 62
     7
  6
Continuous
370
    -3
390
F
1001
AcAecLayerStandard
1000

1000

  0
LAYER
  5
175
102
{ACAD_XDICTIONARY
360
37E
102
}
330
2
100
AcDbSymbolTableRecord
100
AcDbLayerTableRecord
  2
QUOTE
 70
     0
 62
     7
  6
Continuous
370
    -3
390
F
1001
AcAecLayerStandard
1000

1000

  0
LAYER
  5
349
330
2
100
AcDbSymbolTableRecord
100
AcDbLayerTableRecord
  2
Defpoints
 70
     0
 62
     7
  6
Continuous
290
     0
370
    -3
390
F
  0
ENDTAB
  0
TABLE
  2
STYLE
  5
3
330
0
100
AcDbSymbolTable
 70
     2
  0
STYLE
  5
11
330
3
100
AcDbSymbolTableRecord
100
AcDbTextStyleTableRecord
  2
Standard
 70
     0
 40
0.0
 41
1.0
 50
0.0
 71
     0
 42
0.2
  3
txt.shx
  4

  0
STYLE
  5
DC
330
3
100
AcDbSymbolTableRecord
100
AcDbTextStyleTableRecord
  2
Annotativa
 70
     0
 40
0.0
 41
1.0
 50
0.0
 71
     0
 42
0.2
  3
txt.shx
  4

1001
AcadAnnotative
1000
AnnotativeData
1002
{
1070
     1
1070
     1
1002
}
  0
ENDTAB
  0
TABLE
  2
VIEW
  5
6
330
0
100
AcDbSymbolTable
 70
     1
  0
ENDTAB
  0
TABLE
  2
UCS
  5
7
330
0
100
AcDbSymbolTable
 70
     0
  0
ENDTAB
  0
TABLE
  2
APPID
  5
9
330
0
100
AcDbSymbolTable
 70
    14
  0
APPID
  5
12
330
9
100
AcDbSymbolTableRecord
100
AcDbRegAppTableRecord
  2
ACAD
 70
     0
  0
APPID
  5
DD
330
9
100
AcDbSymbolTableRecord
100
AcDbRegAppTableRecord
  2
AcadAnnoPO
 70
     0
  0
APPID
  5
DE
330
9
100
AcDbSymbolTableRecord
100
AcDbRegAppTableRecord
  2
AcadAnnotative
 70
     0
  0
APPID
  5
DF
330
9
100
AcDbSymbolTableRecord
100
AcDbRegAppTableRecord
  2
ACAD_DSTYLE_DIMJAG
 70
     0
  0
APPID
  5
E0
330
9
100
AcDbSymbolTableRecord
100
AcDbRegAppTableRecord
  2
ACAD_DSTYLE_DIMTALN
 70
     0
  0
APPID
  5
107
330
9
100
AcDbSymbolTableRecord
100
AcDbRegAppTableRecord
  2
ACAD_MLEADERVER
 70
     0
  0
APPID
  5
176
330
9
100
AcDbSymbolTableRecord
100
AcDbRegAppTableRecord
  2
VDEXTRAPARAM
 70
     0
  0
APPID
  5
177
330
9
100
AcDbSymbolTableRecord
100
AcDbRegAppTableRecord
  2
VD_TEMPHATCH
 70
     0
  0
APPID
  5
178
330
9
100
AcDbSymbolTableRecord
100
AcDbRegAppTableRecord
  2
AcAecLayerStandard
 70
     0
  0
APPID
  5
179
330
9
100
AcDbSymbolTableRecord
100
AcDbRegAppTableRecord
  2
VD_EX_PRINTER_DWG_STYLE_SHEET
 70
     0
  0
APPID
  5
17A
330
9
100
AcDbSymbolTableRecord
100
AcDbRegAppTableRecord
  2
VD_EX_PRINTER_SIZEX
 70
     0
  0
APPID
  5
17B
330
9
100
AcDbSymbolTableRecord
100
AcDbRegAppTableRecord
  2
VD_EX_PRINTER_AVSIZEX
 70
     0
  0
APPID
  5
17C
330
9
100
AcDbSymbolTableRecord
100
AcDbRegAppTableRecord
  2
VD_EX_PRINTER_SIZEY
 70
     0
  0
APPID
  5
17D
330
9
100
AcDbSymbolTableRecord
100
AcDbRegAppTableRecord
  2
VD_EX_PRINTER_AVSIZEY
 70
     0
  0
ENDTAB
  0
TABLE
  2
DIMSTYLE
  5
A
330
0
100
AcDbSymbolTable
 70
     2
100
AcDbDimStyleTable
 71
     2
340
27
340
E1
  0
DIMSTYLE
105
27
102
{ACAD_REACTORS
330
331
330
332
102
}
330
A
100
AcDbSymbolTableRecord
100
AcDbDimStyleTableRecord
  2
Standard
 70
     0
340
11
  0
DIMSTYLE
105
E1
330
A
100
AcDbSymbolTableRecord
100
AcDbDimStyleTableRecord
  2
Annotativa
 70
     0
 40
0.0
340
11
1001
AcadAnnotative
1000
AnnotativeData
1002
{
1070
     1
1070
     1
1002
}
1001
ACAD_DSTYLE_DIMJAG
1070
   388
1040
1.5
1001
ACAD_DSTYLE_DIMTALN
1070
   392
1070
     0
  0
ENDTAB
  0
TABLE
  2
BLOCK_RECORD
  5
1
330
0
100
AcDbSymbolTable
 70
     7
  0
BLOCK_RECORD
  5
1F
330
1
100
AcDbSymbolTableRecord
100
AcDbBlockTableRecord
  2
*Model_Space
340
22
  0
BLOCK_RECORD
  5
58
330
1
100
AcDbSymbolTableRecord
100
AcDbBlockTableRecord
  2
*Paper_Space
340
59
  0
BLOCK_RECORD
  5
5D
330
1
100
AcDbSymbolTableRecord
100
AcDbBlockTableRecord
  2
*Paper_Space0
340
5E
  0
BLOCK_RECORD
  5
14C
330
1
100
AcDbSymbolTableRecord
100
AcDbBlockTableRecord
  2
VDDIM_DEFAULT
340
0
  0
BLOCK_RECORD
  5
150
330
1
100
AcDbSymbolTableRecord
100
AcDbBlockTableRecord
  2
IEC_309_oriz
340
0
102
{BLKREFS
331
25F
331
260
331
261
331
346
331
347
331
348
102
}
  0
BLOCK_RECORD
  5
168
330
1
100
AcDbSymbolTableRecord
100
AcDbBlockTableRecord
  2
*D3
340
0
  0
BLOCK_RECORD
  5
34A
330
1
100
AcDbSymbolTableRecord
100
AcDbBlockTableRecord
  2
*D5
340
0
  0
BLOCK_RECORD
  5
357
330
1
100
AcDbSymbolTableRecord
100
AcDbBlockTableRecord
  2
*D6
340
0
  0
ENDTAB
  0
ENDSEC
  0
SECTION
  2
BLOCKS
  0
BLOCK
  5
20
330
1F
100
AcDbEntity
  8
0
100
AcDbBlockBegin
  2
*Model_Space
 70
     0
 10
0.0
 20
0.0
 30
0.0
  3
*Model_Space
  1

  0
ENDBLK
  5
21
330
1F
100
AcDbEntity
  8
0
100
AcDbBlockEnd
  0
BLOCK
  5
5A
330
58
100
AcDbEntity
 67
     1
  8
0
100
AcDbBlockBegin
  2
*Paper_Space
 70
     0
 10
0.0
 20
0.0
 30
0.0
  3
*Paper_Space
  1

  0
ENDBLK
  5
5B
330
58
100
AcDbEntity
 67
     1
  8
0
100
AcDbBlockEnd
  0
BLOCK
  5
5F
330
5D
100
AcDbEntity
 67
     1
  8
0
100
AcDbBlockBegin
  2
*Paper_Space0
 70
     0
 10
0.0
 20
0.0
 30
0.0
  3
*Paper_Space0
  1

  0
ENDBLK
  5
60
330
5D
100
AcDbEntity
 67
     1
  8
0
100
AcDbBlockEnd
  0
BLOCK
  5
14D
330
14C
100
AcDbEntity
  8
0
100
AcDbBlockBegin
  2
VDDIM_DEFAULT
 70
     0
 10
0.0
 20
0.0
 30
0.0
  3
VDDIM_DEFAULT
  1

  0
HATCH
  5
14E
330
14C
100
AcDbEntity
  8
0
  6
Continuous
 62
     0
370
    -2
100
AcDbHatch
 10
0.0
 20
0.0
 30
0.0
210
0.0
220
0.0
230
-1.0
  2
SOLID
 70
     1
 71
     0
 91
        1
 92
        2
 72
     0
 73
     1
 93
        3
 10
0.0
 20
0.0
 10
1.0
 20
-0.1665
 10
1.0
 20
0.1665
 97
        0
 75
     0
 76
     1
 98
        1
 10
0.0
 20
0.0
  0
ENDBLK
  5
14F
330
14C
100
AcDbEntity
  8
0
100
AcDbBlockEnd
  0
BLOCK
  5
151
330
150
100
AcDbEntity
  8
0
100
AcDbBlockBegin
  2
IEC_309_oriz
 70
     0
 10
0.0
 20
0.0
 30
0.0
  3
IEC_309_oriz
  1

  0
ARC
  5
152
330
150
100
AcDbEntity
  8
0
100
AcDbCircle
 10
129.96716842
 20
25.60041199
 30
0.0
 40
7.123136749999999
100
AcDbArc
 50
270.0
 51
0.0
  0
ARC
  5
153
330
150
100
AcDbEntity
  8
0
100
AcDbCircle
 10
129.98116437
 20
86.36609867
 30
0.0
 40
7.123136749999999
100
AcDbArc
 50
0.0
 51
90.0
  0
LINE
  5
154
330
150
100
AcDbEntity
  8
0
100
AcDbLine
 10
137.09030517
 20
25.60041199
 30
0.0
 11
137.10430111
 21
56.7311995
 31
0.0
  0
LINE
  5
155
330
150
100
AcDbEntity
  8
0
100
AcDbLine
 10
137.10430111
 20
86.36609867
 30
0.0
 11
137.10430111
 21
56.7311995
 31
0.0
  0
ARC
  5
156
330
150
100
AcDbEntity
  8
0
100
AcDbCircle
 10
59.33810126
 20
25.60041199
 30
0.0
 40
7.123136749999999
100
AcDbArc
 50
180.0
 51
270.0
  0
LINE
  5
157
330
150
100
AcDbEntity
  8
0
100
AcDbLine
 10
59.35209720999999
 20
93.48923541000001
 30
0.0
 11
129.98116437
 21
93.48923541000001
 31
0.0
  0
CIRCLE
  5
158
330
150
100
AcDbEntity
  8
0
100
AcDbCircle
 10
129.98116437
 20
86.36609867
 30
0.0
 40
2.58835439
  0
CIRCLE
  5
159
330
150
100
AcDbEntity
  8
0
100
AcDbCircle
 10
129.96716842
 20
25.60041199
 30
0.0
 40
2.58835439
  0
CIRCLE
  5
15A
330
150
100
AcDbEntity
  8
0
100
AcDbCircle
 10
59.35209720999999
 20
86.36609867
 30
0.0
 40
2.58835439
  0
ARC
  5
15B
330
150
100
AcDbEntity
  8
0
100
AcDbCircle
 10
59.35209720999999
 20
86.36609867
 30
0.0
 40
7.123136749999999
100
AcDbArc
 50
90.0
 51
180.0
  0
LINE
  5
15C
330
150
100
AcDbEntity
  8
0
100
AcDbLine
 10
52.22896046
 20
56.7311995
 30
0.0
 11
52.21496451
 21
25.60041199
 31
0.0
  0
CIRCLE
  5
15D
330
150
100
AcDbEntity
  8
0
100
AcDbCircle
 10
59.33810126
 20
25.60041199
 30
0.0
 40
2.58835439
  0
LINE
  5
15E
330
150
100
AcDbEntity
  8
0
100
AcDbLine
 10
52.22896046
 20
56.7311995
 30
0.0
 11
52.22896046
 21
86.36609867
 31
0.0
  0
LINE
  5
15F
330
150
100
AcDbEntity
  8
0
100
AcDbLine
 10
59.33810126
 20
18.47727524
 30
0.0
 11
129.96716842
 21
18.47727524
 31
0.0
  0
LINE
  5
160
330
150
100
AcDbEntity
  8
Q
 62
     1
100
AcDbLine
 10
137.09030517
 20
13.47505278
 30
0.0
 11
137.09030517
 21
98.49145787000001
 31
0.0
  0
LINE
  5
161
330
150
100
AcDbEntity
  8
Q
 62
     1
100
AcDbLine
 10
137.09030517
 20
98.49145787000001
 30
0.0
 11
41.83978567999999
 21
98.49145787000001
 31
0.0
  0
LINE
  5
162
330
150
100
AcDbEntity
  8
Q
 62
     1
100
AcDbLine
 10
92.68110413
 20
13.47505278
 30
0.0
 11
43.62664586
 21
13.47505278
 31
0.0
  0
LINE
  5
163
330
150
100
AcDbEntity
  8
Q
 62
     1
100
AcDbLine
 10
43.62664586
 20
13.47505278
 30
0.0
 11
137.09030517
 21
13.47505278
 31
0.0
  0
LINE
  5
164
330
150
100
AcDbEntity
  8
Q
 62
     1
100
AcDbLine
 10
41.83978567999999
 20
56.7311995
 30
0.0
 11
41.83978567999999
 21
98.49145787000001
 31
0.0
  0
LINE
  5
165
330
150
100
AcDbEntity
  8
Q
 62
     1
100
AcDbLine
 10
41.83978567999999
 20
56.7311995
 30
0.0
 11
41.83978567999999
 21
13.47505278
 31
0.0
  0
LINE
  5
166
330
150
100
AcDbEntity
  8
Q
 62
     1
100
AcDbLine
 10
41.83978567999999
 20
13.47505278
 30
0.0
 11
43.62664586
 21
13.47505278
 31
0.0
  0
ENDBLK
  5
167
330
150
100
AcDbEntity
  8
0
100
AcDbBlockEnd
  0
BLOCK
  5
169
330
168
100
AcDbEntity
  8
0
100
AcDbBlockBegin
  2
*D3
 70
     0
 10
0.0
 20
0.0
 30
0.0
  3
*D3
  1

  0
LINE
  5
16A
330
168
100
AcDbEntity
  8
QUOTE
 62
     7
100
AcDbLine
 10
142.39387293
 20
-34.79333156
 30
0.0
 11
142.39387293
 21
-69.52753985
 31
0.0
  0
LINE
  5
16B
330
168
100
AcDbEntity
  8
QUOTE
 62
     7
100
AcDbLine
 10
1.953483939999999
 20
-35.38784925
 30
0.0
 11
1.953483939999999
 21
-69.52753985
 31
0.0
  0
LINE
  5
16C
330
168
100
AcDbEntity
  8
QUOTE
 62
     7
100
AcDbLine
 10
127.39387293
 20
-69.34753985
 30
0.0
 11
86.72019561
 21
-69.34753985
 31
0.0
  0
LINE
  5
16D
330
168
100
AcDbEntity
  8
QUOTE
 62
     7
100
AcDbLine
 10
16.95348394
 20
-69.34753985
 30
0.0
 11
64.87352894
 21
-69.34753985
 31
0.0
  0
LWPOLYLINE
  5
16E
102
{ACAD_REACTORS
330
16F
102
}
330
168
100
AcDbEntity
  8
QUOTE
 62
     7
100
AcDbPolyline
 90
        3
 70
     1
 43
0.0
 10
127.39387293
 20
-66.84753985
 10
127.39387293
 20
-71.84753985
 10
142.39387293
 20
-69.34753985
  0
HATCH
  5
16F
330
168
100
AcDbEntity
  8
QUOTE
 62
     7
100
AcDbHatch
 10
0.0
 20
0.0
 30
0.0
210
0.0
220
0.0
230
1.0
  2
SOLID
 70
     1
 71
     1
 91
        1
 92
        2
 72
     0
 73
     1
 93
        3
 10
127.39387293
 20
-66.84753985
 10
127.39387293
 20
-71.84753985
 10
142.39387293
 20
-69.34753985
 97
        1
330
16E
 75
     0
 76
     1
 98
        1
 10
0.0
 20
0.0
1001
VD_TEMPHATCH
1000
VD_TEMPHATCH
  0
LWPOLYLINE
  5
170
102
{ACAD_REACTORS
330
171
102
}
330
168
100
AcDbEntity
  8
QUOTE
 62
     7
100
AcDbPolyline
 90
        3
 70
     1
 43
0.0
 10
16.95348394
 20
-66.84753985
 10
16.95348394
 20
-71.84753985
 10
1.953483939999999
 20
-69.34753985
  0
HATCH
  5
171
330
168
100
AcDbEntity
  8
QUOTE
 62
     7
100
AcDbHatch
 10
0.0
 20
0.0
 30
0.0
210
0.0
220
0.0
230
1.0
  2
SOLID
 70
     1
 71
     1
 91
        1
 92
        2
 72
     0
 73
     1
 93
        3
 10
16.95348394
 20
-66.84753985
 10
16.95348394
 20
-71.84753985
 10
1.953483939999999
 20
-69.34753985
 97
        1
330
170
 75
     0
 76
     1
 98
        1
 10
0.0
 20
0.0
1001
VD_TEMPHATCH
1000
VD_TEMPHATCH
  0
MTEXT
  5
172
330
168
100
AcDbEntity
  8
QUOTE
 62
     7
100
AcDbMText
 10
75.79686227
 20
-69.34753985
 30
0.0
 40
10.0
 41
21.37064343
 71
     5
 72
     1
  1
\A1;140
 73
     1
 44
1.0
1001
ACAD
1000
MTEXTBEGIN
1070
    73
1070
     1
1070
    44
1040
1.0
1070
    74
1070
     0
1000
MTEXTEND
  0
ENDBLK
  5
173
330
168
100
AcDbEntity
  8
0
100
AcDbBlockEnd
  0
BLOCK
  5
34B
330
34A
100
AcDbEntity
  8
0
100
AcDbBlockBegin
  2
*D5
 70
     1
 10
0.0
 20
0.0
 30
0.0
  3
*D5
  1

  0
LINE
  5
364
330
34A
100
AcDbEntity
  8
QUOTE
 62
     0
370
    -2
100
AcDbLine
 10
98.80399930343896
 20
594.3941419404873
 30
0.0
 11
31.83859100343907
 21
594.3941419404873
 31
0.0
  0
LINE
  5
365
330
34A
100
AcDbEntity
  8
QUOTE
 62
     0
370
    -2
100
AcDbLine
 10
128.7890552434389
 20
34.39414194048734
 30
0.0
 11
31.83859100343893
 21
34.39414194048737
 31
0.0
  0
LINE
  5
366
330
34A
100
AcDbEntity
  8
QUOTE
 62
     0
370
    -2
100
AcDbLine
 10
32.01859100343906
 20
579.3941419404872
 30
0.0
 11
32.01859100343901
 21
322.5907770704873
 31
0.0
  0
LINE
  5
367
330
34A
100
AcDbEntity
  8
QUOTE
 62
     0
370
    -2
100
AcDbLine
 10
32.01859100343895
 20
49.39414194048737
 30
0.0
 11
32.01859100343901
 21
312.4107770704873
 31
0.0
  0
SOLID
  5
368
330
34A
100
AcDbEntity
  8
QUOTE
 62
     0
100
AcDbTrace
 10
29.51859100343906
 20
579.3941419404872
 30
0.0
 11
34.51859100343906
 21
579.3941419404872
 31
0.0
 12
32.01859100343907
 22
594.3941419404873
 32
0.0
 13
32.01859100343907
 23
594.3941419404873
 33
0.0
  0
SOLID
  5
369
330
34A
100
AcDbEntity
  8
QUOTE
 62
     0
100
AcDbTrace
 10
29.51859100343895
 20
49.39414194048737
 30
0.0
 11
34.51859100343895
 21
49.39414194048737
 31
0.0
 12
32.01859100343894
 22
34.39414194048737
 32
0.0
 13
32.01859100343894
 23
34.39414194048737
 33
0.0
  0
MTEXT
  5
36A
330
34A
100
AcDbEntity
  8
QUOTE
 62
     0
100
AcDbMText
 10
32.01859100343896
 20
317.5007770704873
 30
0.0
 40
10.0
 41
0.0
 71
     5
 72
     1
  1
\A1;560
 73
     1
 44
1.0
1001
ACAD
1000
MTEXTBEGIN
1070
    73
1070
     1
1070
    44
1040
1.0
1070
    74
1070
     0
1000
MTEXTEND
  0
POINT
  5
36B
330
34A
100
AcDbEntity
  8
Defpoints
 62
     0
100
AcDbPoint
 10
98.86649930343896
 20
594.3941419404873
 30
0.0
  0
POINT
  5
36C
330
34A
100
AcDbEntity
  8
Defpoints
 62
     0
100
AcDbPoint
 10
128.8515552434389
 20
34.39414194048734
 30
0.0
  0
POINT
  5
36D
330
34A
100
AcDbEntity
  8
Defpoints
 62
     0
100
AcDbPoint
 10
32.01859100343894
 20
34.39414194048737
 30
0.0
  0
ENDBLK
  5
34C
330
34A
100
AcDbEntity
  8
0
100
AcDbBlockEnd
  0
BLOCK
  5
358
330
357
100
AcDbEntity
  8
0
100
AcDbBlockBegin
  2
*D6
 70
     1
 10
0.0
 20
0.0
 30
0.0
  3
*D6
  1

  0
LINE
  5
36E
330
357
100
AcDbEntity
  8
QUOTE
 62
     0
370
    -2
100
AcDbLine
 10
195.5717497434389
 20
54.54524365048733
 30
0.0
 11
195.5717497434389
 21
19.81103536048733
 31
0.0
  0
LINE
  5
36F
330
357
100
AcDbEntity
  8
QUOTE
 62
     0
370
    -2
100
AcDbLine
 10
55.13136075343895
 20
53.95072596048733
 30
0.0
 11
55.13136075343895
 21
19.81103536048733
 31
0.0
  0
LINE
  5
370
330
357
100
AcDbEntity
  8
QUOTE
 62
     0
370
    -2
100
AcDbLine
 10
180.5717497434389
 20
19.99103536048733
 30
0.0
 11
160.7314057501056
 21
19.99103536048733
 31
0.0
  0
LINE
  5
371
330
357
100
AcDbEntity
  8
QUOTE
 62
     0
370
    -2
100
AcDbLine
 10
70.13136075343895
 20
19.99103536048733
 30
0.0
 11
97.21807241677232
 21
19.99103536048733
 31
0.0
  0
SOLID
  5
372
330
357
100
AcDbEntity
  8
QUOTE
 62
     0
100
AcDbTrace
 10
180.5717497434389
 20
22.49103536048733
 30
0.0
 11
180.5717497434389
 21
17.49103536048733
 31
0.0
 12
195.5717497434389
 22
19.99103536048733
 32
0.0
 13
195.5717497434389
 23
19.99103536048733
 33
0.0
  0
SOLID
  5
373
330
357
100
AcDbEntity
  8
QUOTE
 62
     0
100
AcDbTrace
 10
70.13136075343895
 20
22.49103536048733
 30
0.0
 11
70.13136075343895
 21
17.49103536048733
 31
0.0
 12
55.13136075343895
 22
19.99103536048733
 32
0.0
 13
55.13136075343895
 23
19.99103536048733
 33
0.0
  0
MTEXT
  5
374
330
357
100
AcDbEntity
  8
QUOTE
 62
     0
100
AcDbMText
 10
128.9747390834389
 20
19.99103536048733
 30
0.0
 40
10.0
 41
0.0
 71
     5
 72
     1
  1
\A1;140.4404
 73
     1
 44
1.0
1001
ACAD
1000
MTEXTBEGIN
1070
    73
1070
     1
1070
    44
1040
1.0
1070
    74
1070
     0
1000
MTEXTEND
  0
POINT
  5
375
330
357
100
AcDbEntity
  8
Defpoints
 62
     0
100
AcDbPoint
 10
195.5717497434389
 20
54.60774365048734
 30
0.0
  0
POINT
  5
376
330
357
100
AcDbEntity
  8
Defpoints
 62
     0
100
AcDbPoint
 10
55.13136075343895
 20
54.01322596048733
 30
0.0
  0
POINT
  5
377
330
357
100
AcDbEntity
  8
Defpoints
 62
     0
100
AcDbPoint
 10
55.13136075343895
 20
19.99103536048733
 30
0.0
  0
ENDBLK
  5
359
330
357
100
AcDbEntity
  8
0
100
AcDbBlockEnd
  0
ENDSEC
  0
SECTION
  2
ENTITIES
  0
LINE
  5
266
330
1F
100
AcDbEntity
  8
0
 62
   253
 48
0.250333
370
    35
100
AcDbLine
 10
120.3449022434389
 20
497.5952917704872
 30
0.0
 11
130.3582082434389
 21
497.5952917704872
 31
0.0
  0
LINE
  5
267
330
1F
100
AcDbEntity
  8
0
 62
   253
370
    35
100
AcDbLine
 10
175.4118582434389
 20
481.7448277704873
 30
0.0
 11
175.3944632434389
 21
391.6332257704874
 31
0.0
  0
ARC
  5
268
330
1F
100
AcDbEntity
  8
0
 62
     7
370
    35
100
AcDbCircle
 10
174.6672902434389
 20
390.8085487704874
 30
0.0
 40
3.001954
100
AcDbArc
 50
274.547838
 51
281.901903
  0
LINE
  5
269
330
1F
100
AcDbEntity
  8
0
 62
     7
 48
0.035165
370
    35
100
AcDbLine
 10
173.5031662434389
 20
387.7045147704873
 30
0.0
 11
174.9053272434389
 21
387.8160557704873
 31
0.0
  0
LINE
  5
26A
330
1F
100
AcDbEntity
  8
0
 62
   253
 48
0.273236
370
    35
100
AcDbLine
 10
119.8868332434389
 20
402.4181677704873
 30
0.0
 11
130.8162772434389
 21
402.4181677704873
 31
0.0
  0
LINE
  5
26B
330
1F
100
AcDbEntity
  8
0
 62
   253
370
    35
100
AcDbLine
 10
97.99904624343895
 20
401.1158307704874
 30
0.0
 11
152.7040332434389
 21
401.1158307704874
 31
0.0
  0
LINE
  5
26C
330
1F
100
AcDbEntity
  8
0
 62
   253
370
    35
100
AcDbLine
 10
147.7012862434389
 20
390.6332557704874
 30
0.0
 11
76.25963624343896
 21
390.6332557704874
 31
0.0
  0
LINE
  5
26D
330
1F
100
AcDbEntity
  8
0
 62
   253
370
    35
100
AcDbLine
 10
75.23244524343896
 20
496.5953227704873
 30
0.0
 11
75.23244524343896
 21
391.6604777704873
 31
0.0
  0
ARC
  5
26E
330
1F
100
AcDbEntity
  8
0
 62
   253
370
    35
100
AcDbCircle
 10
76.25963624343896
 20
391.6604777704873
 30
0.0
 40
1.027203
100
AcDbArc
 50
180.0
 51
270.0
  0
LINE
  5
26F
330
1F
100
AcDbEntity
  8
0
 62
     7
 48
0.035165
370
    35
100
AcDbLine
 10
77.19994424343894
 20
387.7045147704873
 30
0.0
 11
75.79778324343895
 21
387.8160557704873
 31
0.0
  0
ARC
  5
270
330
1F
100
AcDbEntity
  8
0
 62
     7
370
    35
100
AcDbCircle
 10
76.03579024343895
 20
390.8085487704874
 30
0.0
 40
3.001954
100
AcDbArc
 50
258.0981199999999
 51
265.452184
  0
LINE
  5
271
330
1F
100
AcDbEntity
  8
0
 62
   253
 48
0.063625
370
    35
100
AcDbLine
 10
172.8515552434389
 20
402.4181677704873
 30
0.0
 11
175.3965382434389
 21
402.4181677704873
 31
0.0
  0
LINE
  5
272
330
1F
100
AcDbEntity
  8
0
 62
   253
 48
0.063618
370
    35
100
AcDbLine
 10
172.8515552434389
 20
401.1096357704873
 30
0.0
 11
175.3962942434389
 21
401.1096357704873
 31
0.0
  0
LINE
  5
273
330
1F
100
AcDbEntity
  8
0
 62
   253
 48
0.065478
370
    35
100
AcDbLine
 10
77.85155524343895
 20
402.4181677704873
 30
0.0
 11
75.23244524343896
 21
402.4181677704873
 31
0.0
  0
LINE
  5
274
330
1F
100
AcDbEntity
  8
0
 62
   253
 48
0.065478
370
    35
100
AcDbLine
 10
77.85155524343895
 20
401.1096357704873
 30
0.0
 11
75.23244524343896
 21
401.1096357704873
 31
0.0
  0
LINE
  5
275
330
1F
100
AcDbEntity
  8
0
 62
     7
370
    35
100
AcDbLine
 10
173.5031662434389
 20
110.9181677704873
 30
0.0
 11
173.5031662434389
 21
386.7083287704874
 31
0.0
  0
LINE
  5
276
330
1F
100
AcDbEntity
  8
0
 62
     7
370
    35
100
AcDbLine
 10
77.19994424343894
 20
110.8887487704873
 30
0.0
 11
77.19994424343894
 21
386.7083287704874
 31
0.0
  0
LINE
  5
277
330
1F
100
AcDbEntity
  8
0
 62
     7
 48
0.024905
370
    35
100
AcDbLine
 10
77.19994424343894
 20
386.7083287704874
 30
0.0
 11
77.19994424343894
 21
387.7045147704873
 31
0.0
  0
LINE
  5
278
330
1F
100
AcDbEntity
  8
0
 62
     7
 48
0.024905
370
    35
100
AcDbLine
 10
173.5031662434389
 20
386.7083287704874
 30
0.0
 11
173.5031662434389
 21
387.7045147704873
 31
0.0
  0
LINE
  5
279
330
1F
100
AcDbEntity
  8
0
 62
     7
 48
0.00835
370
    35
100
AcDbLine
 10
77.19457324343895
 20
110.5548107704873
 30
0.0
 11
77.19994424343894
 21
110.8887487704873
 31
0.0
  0
LINE
  5
27A
330
1F
100
AcDbEntity
  8
0
 62
     7
 48
0.009085
370
    35
100
AcDbLine
 10
173.5085372434389
 20
110.5548107704873
 30
0.0
 11
173.5031662434389
 21
110.9181677704873
 31
0.0
  0
LINE
  5
27B
330
1F
100
AcDbEntity
  8
0
 62
   253
370
    35
100
AcDbLine
 10
147.7012862434389
 20
390.6332557704874
 30
0.0
 11
174.3944632434389
 21
390.6332557704874
 31
0.0
  0
LINE
  5
27C
330
1F
100
AcDbEntity
  8
0
 62
   253
370
    13
100
AcDbLine
 10
76.30861724343896
 20
390.6332557704874
 30
0.0
 11
103.0017932434389
 21
390.6332557704874
 31
0.0
  0
ARC
  5
27D
330
1F
100
AcDbEntity
  8
0
 62
   253
370
    35
100
AcDbCircle
 10
174.3944632434389
 20
391.6332557704874
 30
0.0
 40
0.9999769999999999
100
AcDbArc
 50
270.0009260000001
 51
359.9991080000004
  0
LINE
  5
27E
330
1F
100
AcDbEntity
  8
0
 62
   253
 48
0.413295
370
    13
100
AcDbLine
 10
175.3944632434389
 20
408.1650247704873
 30
0.0
 11
175.3944632434389
 21
391.6332257704874
 31
0.0
  0
LINE
  5
27F
330
1F
100
AcDbEntity
  8
0
 62
   253
 48
0.205375
370
    35
100
AcDbLine
 10
175.4118582434389
 20
489.7955787704872
 30
0.0
 11
175.4118582434389
 21
481.5805827704873
 31
0.0
  0
LINE
  5
280
330
1F
100
AcDbEntity
  8
0
 62
     7
 48
0.290076
370
    35
100
AcDbLine
 10
159.8515552434389
 20
511.5211957704873
 30
0.0
 11
159.8515552434389
 21
499.9181677704873
 31
0.0
  0
ARC
  5
281
330
1F
100
AcDbEntity
  8
0
 62
     7
370
    35
100
AcDbCircle
 10
158.3515552434389
 20
499.9181677704873
 30
0.0
 40
1.5
100
AcDbArc
 50
270.0
 51
0.0
  0
LINE
  5
282
330
1F
100
AcDbEntity
  8
0
 62
   253
370
    35
100
AcDbLine
 10
134.3515552434389
 20
498.4181677704873
 30
0.0
 11
158.3515552434389
 21
498.4181677704873
 31
0.0
  0
ARC
  5
283
330
1F
100
AcDbEntity
  8
0
 62
     7
370
    35
100
AcDbCircle
 10
134.3515552434389
 20
499.9181677704873
 30
0.0
 40
1.5
100
AcDbArc
 50
180.0
 51
270.0
  0
LINE
  5
284
330
1F
100
AcDbEntity
  8
0
 62
     7
 48
0.290076
370
    35
100
AcDbLine
 10
132.8515552434389
 20
511.5211957704873
 30
0.0
 11
132.8515552434389
 21
499.9181677704873
 31
0.0
  0
LINE
  5
285
330
1F
100
AcDbEntity
  8
0
 62
     7
370
    35
100
AcDbLine
 10
77.19994424343894
 20
387.7045147704873
 30
0.0
 11
173.5031662434389
 21
387.7045147704873
 31
0.0
  0
LINE
  5
286
330
1F
100
AcDbEntity
  8
0
 62
   253
370
    35
100
AcDbLine
 10
120.3449022434389
 20
497.5952917704872
 30
0.0
 11
76.23241424343895
 21
497.5952917704872
 31
0.0
  0
LINE
  5
287
330
1F
100
AcDbEntity
  8
0
 62
   253
370
    35
100
AcDbLine
 10
174.4706962434389
 20
497.5952917704872
 30
0.0
 11
130.3582082434389
 21
497.5952917704872
 31
0.0
  0
LINE
  5
288
330
1F
100
AcDbEntity
  8
0
 62
     7
 48
0.034421
370
    35
100
AcDbLine
 10
176.0167162434389
 20
501.1355137704874
 30
0.0
 11
174.8243332434389
 21
501.8239297704873
 31
0.0
  0
ARC
  5
289
330
1F
100
AcDbEntity
  8
0
 62
     7
370
    35
100
AcDbCircle
 10
175.3243942434389
 20
502.6901407704873
 30
0.0
 40
1.000180999999999
100
AcDbArc
 50
180.005036
 51
240.0018950000003
  0
LINE
  5
28A
330
1F
100
AcDbEntity
  8
0
 62
     7
 48
0.220779
370
    35
100
AcDbLine
 10
174.3242112434389
 20
511.5211957704873
 30
0.0
 11
174.3242112434389
 21
502.6900487704873
 31
0.0
  0
LINE
  5
28B
330
1F
100
AcDbEntity
  8
0
 62
     7
370
    35
100
AcDbLine
 10
167.8515552434389
 20
527.5205847704873
 30
0.0
 11
82.85155524343895
 21
527.5205847704873
 31
0.0
  0
LINE
  5
28C
330
1F
100
AcDbEntity
  8
0
 62
     7
 48
0.084924
370
    35
100
AcDbLine
 10
159.8515552434389
 20
511.5211957704873
 30
0.0
 11
159.8515552434389
 21
514.9181677704873
 31
0.0
  0
LINE
  5
28D
330
1F
100
AcDbEntity
  8
0
 62
     7
 48
0.000549
370
    13
100
AcDbLine
 10
159.8295822434389
 20
514.9181677704873
 30
0.0
 11
159.8515552434389
 21
514.9181677704873
 31
0.0
  0
LINE
  5
28E
330
1F
100
AcDbEntity
  8
0
 62
     7
 48
0.084924
370
    35
100
AcDbLine
 10
132.8515552434389
 20
514.9181677704873
 30
0.0
 11
132.8515552434389
 21
511.5211957704873
 31
0.0
  0
LINE
  5
28F
330
1F
100
AcDbEntity
  8
0
 62
     7
 48
0.220779
370
    35
100
AcDbLine
 10
76.37889924343895
 20
502.6900487704873
 30
0.0
 11
76.37889924343895
 21
511.5211957704873
 31
0.0
  0
ARC
  5
290
330
1F
100
AcDbEntity
  8
0
 62
     7
370
    35
100
AcDbCircle
 10
75.37871624343896
 20
502.6901407704873
 30
0.0
 40
1.000180999999999
100
AcDbArc
 50
299.9981340000001
 51
359.9950100000004
  0
LINE
  5
291
330
1F
100
AcDbEntity
  8
0
 62
     7
 48
0.034421
370
    35
100
AcDbLine
 10
75.87877724343896
 20
501.8239297704873
 30
0.0
 11
74.68639424343895
 21
501.1355137704874
 31
0.0
  0
LINE
  5
292
330
1F
100
AcDbEntity
  8
0
 62
     7
370
    13
100
AcDbLine
 10
177.6693652434389
 20
390.8103187704874
 30
0.0
 11
177.6693652434389
 21
498.4492347704873
 31
0.0
  0
ARC
  5
293
330
1F
100
AcDbEntity
  8
0
 62
     7
370
    13
100
AcDbCircle
 10
174.6694262434389
 20
498.4493267704873
 30
0.0
 40
2.99994
100
AcDbArc
 50
359.9980430000004
 51
59.99979000000021
  0
LINE
  5
294
330
1F
100
AcDbEntity
  8
0
 62
     7
 48
0.004408
370
    35
100
AcDbLine
 10
176.169426243439
 20
501.0473487704873
 30
0.0
 11
176.0167162434389
 21
501.1355137704874
 31
0.0
  0
LINE
  5
295
330
1F
100
AcDbEntity
  8
0
 62
     7
370
    13
100
AcDbLine
 10
73.03371424343897
 20
390.8103187704874
 30
0.0
 11
73.03371424343897
 21
498.4492347704873
 31
0.0
  0
ARC
  5
296
330
1F
100
AcDbEntity
  8
0
 62
     7
370
    35
100
AcDbCircle
 10
1576.285881243439
 20
512.0078587704873
 30
0.0
 40
1401.961548
100
AcDbArc
 50
179.6358469999998
 51
180.0198979999996
  0
ARC
  5
297
330
1F
100
AcDbEntity
  8
0
 62
     7
370
    35
100
AcDbCircle
 10
134.3515552434389
 20
514.9181677704873
 30
0.0
 40
1.5
100
AcDbArc
 50
90.0
 51
180.0
  0
LINE
  5
298
330
1F
100
AcDbEntity
  8
0
 62
     7
370
    35
100
AcDbLine
 10
158.3515552434389
 20
516.4181677704873
 30
0.0
 11
134.3515552434389
 21
516.4181677704873
 31
0.0
  0
ARC
  5
299
330
1F
100
AcDbEntity
  8
0
 62
     7
370
    35
100
AcDbCircle
 10
158.3515552434389
 20
514.9181677704873
 30
0.0
 40
1.5
100
AcDbArc
 50
0.0
 51
90.0
  0
ARC
  5
29A
330
1F
100
AcDbEntity
  8
0
 62
     7
370
    35
100
AcDbCircle
 10
-1325.385016756561
 20
512.0074627704873
 30
0.0
 40
1401.763672
100
AcDbArc
 50
359.9801480000001
 51
0.3642199999999562
  0
LINE
  5
29B
330
1F
100
AcDbEntity
  8
0
 62
     7
 48
0.004408
370
    35
100
AcDbLine
 10
74.53368424343896
 20
501.0473487704873
 30
0.0
 11
74.68639424343895
 21
501.1355137704874
 31
0.0
  0
ARC
  5
29C
330
1F
100
AcDbEntity
  8
0
 62
     7
370
    13
100
AcDbCircle
 10
76.03365324343895
 20
498.4493267704873
 30
0.0
 40
2.99994
100
AcDbArc
 50
120.5355450000001
 51
180.0019620000001
  0
LINE
  5
29D
330
1F
100
AcDbEntity
  8
0
 62
     7
 48
0.000701
370
    35
100
AcDbLine
 10
74.53368424343896
 20
501.0473487704873
 30
0.0
 11
74.50948324343895
 21
501.0332197704873
 31
0.0
  0
ARC
  5
29E
330
1F
100
AcDbEntity
  8
0
 62
     7
370
    35
100
AcDbCircle
 10
82.85155524343895
 20
110.9181677704873
 30
0.0
 40
4.363449
100
AcDbArc
 50
118.647885
 51
131.4570720000002
  0
ARC
  5
29F
330
1F
100
AcDbEntity
  8
0
 62
     7
370
    35
100
AcDbCircle
 10
82.83446524343895
 20
110.9318707704873
 30
0.0
 40
4.341486999999999
100
AcDbArc
 50
131.4078540000001
 51
241.636606
  0
ARC
  5
2A0
330
1F
100
AcDbEntity
  8
0
 62
     7
370
    35
100
AcDbCircle
 10
82.85155524343895
 20
110.9593057704873
 30
0.0
 40
4.374038999999999
100
AcDbArc
 50
241.6104319999997
 51
298.3895970000001
  0
ARC
  5
2A1
330
1F
100
AcDbEntity
  8
0
 62
     7
370
    35
100
AcDbCircle
 10
82.86925524343896
 20
110.9316417704873
 30
0.0
 40
4.340888999999999
100
AcDbArc
 50
298.357638
 51
26.54427200000021
  0
ARC
  5
2A2
330
1F
100
AcDbEntity
  8
0
 62
     7
370
    35
100
AcDbCircle
 10
82.85976424343896
 20
110.9269417704873
 30
0.0
 40
4.351417999999999
100
AcDbArc
 50
26.54360800000013
 51
48.54753000000023
  0
LINE
  5
2A3
330
1F
100
AcDbEntity
  8
0
 62
     7
 48
0.000395
370
    35
100
AcDbLine
 10
85.74041024343896
 20
114.1883707704873
 30
0.0
 11
85.72856924343895
 21
114.1988077704873
 31
0.0
  0
ARC
  5
2A4
330
1F
100
AcDbEntity
  8
0
 62
     7
370
    35
100
AcDbCircle
 10
82.85155524343895
 20
110.9181677704873
 30
0.0
 40
4.363449
100
AcDbArc
 50
48.75039699999993
 51
118.647885
  0
LINE
  5
2A5
330
1F
100
AcDbEntity
  8
0
 62
     7
370
    35
100
AcDbLine
 10
167.8515552434389
 20
104.1887517704873
 30
0.0
 11
82.85155524343895
 21
104.1887517704873
 31
0.0
  0
LINE
  5
2A6
330
1F
100
AcDbEntity
  8
0
 62
     7
370
    35
100
AcDbLine
 10
177.8515552434389
 20
520.9181677704873
 30
0.0
 11
177.8515552434389
 21
110.9181677704873
 31
0.0
  0
LINE
  5
2A7
330
1F
100
AcDbEntity
  8
0
 62
     7
370
    35
100
AcDbLine
 10
167.8515552434389
 20
530.9181677704873
 30
0.0
 11
82.85155524343895
 21
530.9181677704873
 31
0.0
  0
LINE
  5
2A8
330
1F
100
AcDbEntity
  8
0
 62
     7
370
    35
100
AcDbLine
 10
72.85155524343895
 20
110.9181677704873
 30
0.0
 11
72.85155524343895
 21
520.9181677704873
 31
0.0
  0
ARC
  5
2A9
330
1F
100
AcDbEntity
  8
0
 62
     7
370
    35
100
AcDbCircle
 10
167.8515552434389
 20
110.9181677704873
 30
0.0
 40
10.0
100
AcDbArc
 50
270.0
 51
0.0
  0
ARC
  5
2AA
330
1F
100
AcDbEntity
  8
0
 62
     7
370
    35
100
AcDbCircle
 10
167.8515552434389
 20
520.9181677704873
 30
0.0
 40
10.0
100
AcDbArc
 50
0.0
 51
90.0
  0
ARC
  5
2AB
330
1F
100
AcDbEntity
  8
0
 62
     7
370
    35
100
AcDbCircle
 10
82.85155524343895
 20
520.9181677704873
 30
0.0
 40
10.0
100
AcDbArc
 50
90.0
 51
180.0
  0
ARC
  5
2AC
330
1F
100
AcDbEntity
  8
0
 62
     7
370
    35
100
AcDbCircle
 10
82.85155524343895
 20
110.9181677704873
 30
0.0
 40
10.0
100
AcDbArc
 50
180.0
 51
270.0
  0
LINE
  5
2AD
330
1F
100
AcDbEntity
  8
0
 62
     7
370
    35
100
AcDbLine
 10
82.85155524343895
 20
100.9181677704873
 30
0.0
 11
167.8515552434389
 21
100.9181677704873
 31
0.0
  0
ARC
  5
2AE
330
1F
100
AcDbEntity
  8
0
 62
     7
370
    35
100
AcDbCircle
 10
167.8686452434389
 20
110.9318707704873
 30
0.0
 40
4.341483
100
AcDbArc
 50
298.3633759999999
 51
48.59219599999983
  0
ARC
  5
2AF
330
1F
100
AcDbEntity
  8
0
 62
     7
370
    35
100
AcDbCircle
 10
167.8515552434389
 20
110.9181677704873
 30
0.0
 40
4.363449
100
AcDbArc
 50
48.54293000000021
 51
131.4569899999999
  0
CIRCLE
  5
2B0
330
1F
100
AcDbEntity
  8
0
 62
     7
370
    35
100
AcDbCircle
 10
167.8515552434389
 20
381.9181677704873
 30
0.0
 40
4.363449
  0
CIRCLE
  5
2B1
330
1F
100
AcDbEntity
  8
0
 62
     7
370
    35
100
AcDbCircle
 10
82.85155524343895
 20
381.9181677704873
 30
0.0
 40
4.363449
  0
ARC
  5
2B2
330
1F
100
AcDbEntity
  8
0
 62
     7
370
    35
100
AcDbCircle
 10
167.8433152434389
 20
110.9269567704873
 30
0.0
 40
4.351414
100
AcDbArc
 50
131.4524680000003
 51
153.456415
  0
ARC
  5
2B3
330
1F
100
AcDbEntity
  8
0
 62
     7
370
    35
100
AcDbCircle
 10
174.6672902434389
 20
390.8085487704874
 30
0.0
 40
3.001954
100
AcDbArc
 50
281.6830910000001
 51
0.033796999999856
  0
ARC
  5
2B4
330
1F
100
AcDbEntity
  8
0
 62
     7
370
    35
100
AcDbCircle
 10
76.03579024343895
 20
390.8085487704874
 30
0.0
 40
3.001952
100
AcDbArc
 50
179.9660860000003
 51
258.3168769999999
  0
LINE
  5
2B5
330
1F
100
AcDbEntity
  8
0
 62
     7
370
    35
100
AcDbLine
 10
177.6694872434389
 20
390.8103187704874
 30
0.0
 11
177.6694872434389
 21
498.4492347704873
 31
0.0
  0
ARC
  5
2B6
330
1F
100
AcDbEntity
  8
0
 62
     7
370
    35
100
AcDbCircle
 10
174.6694262434389
 20
498.4492047704873
 30
0.0
 40
3.000061
100
AcDbArc
 50
0.0002859999999616
 51
60.00020699999991
  0
LINE
  5
2B7
330
1F
100
AcDbEntity
  8
0
 62
     7
370
    35
100
AcDbLine
 10
73.03365324343895
 20
390.8103187704874
 30
0.0
 11
73.03365324343895
 21
498.4492347704873
 31
0.0
  0
ARC
  5
2B8
330
1F
100
AcDbEntity
  8
0
 62
     7
370
    35
100
AcDbCircle
 10
76.03371424343897
 20
498.4492047704873
 30
0.0
 40
3.000061999999999
100
AcDbArc
 50
120.534998
 51
179.9997179999999
  0
CIRCLE
  5
2B9
330
1F
100
AcDbEntity
  8
0
 62
     7
370
    35
100
AcDbCircle
 10
167.8515552434389
 20
381.9181677704873
 30
0.0
 40
1.393407999999999
  0
CIRCLE
  5
2BA
330
1F
100
AcDbEntity
  8
0
 62
     7
370
    35
100
AcDbCircle
 10
167.8515552434389
 20
110.9181677704873
 30
0.0
 40
1.393407999999999
  0
CIRCLE
  5
2BB
330
1F
100
AcDbEntity
  8
0
 62
     7
370
    35
100
AcDbCircle
 10
82.85155524343895
 20
110.9181677704873
 30
0.0
 40
1.393407999999999
  0
CIRCLE
  5
2BC
330
1F
100
AcDbEntity
  8
0
 62
     7
370
    35
100
AcDbCircle
 10
82.85155524343895
 20
381.9181677704873
 30
0.0
 40
1.393407999999999
  0
CIRCLE
  5
2BD
330
1F
100
AcDbEntity
  8
0
 62
     7
370
    35
100
AcDbCircle
 10
167.8515552434389
 20
520.9181677704873
 30
0.0
 40
1.405629
  0
LINE
  5
2BE
330
1F
100
AcDbEntity
  8
0
 62
     7
370
    35
100
AcDbLine
 10
167.8515552434389
 20
530.9181677704873
 30
0.0
 11
82.85155524343895
 21
530.9181677704873
 31
0.0
  0
ARC
  5
2BF
330
1F
100
AcDbEntity
  8
0
 62
     7
370
    35
100
AcDbCircle
 10
167.8515552434389
 20
520.9181677704873
 30
0.0
 40
10.0
100
AcDbArc
 50
0.0
 51
90.0
  0
LINE
  5
2C0
330
1F
100
AcDbEntity
  8
0
 62
     7
370
    35
100
AcDbLine
 10
72.85155524343895
 20
110.9181677704873
 30
0.0
 11
72.85155524343895
 21
520.9181677704873
 31
0.0
  0
ARC
  5
2C1
330
1F
100
AcDbEntity
  8
0
 62
     7
370
    35
100
AcDbCircle
 10
82.85155524343895
 20
520.9181677704873
 30
0.0
 40
10.0
100
AcDbArc
 50
90.0
 51
180.0
  0
CIRCLE
  5
2C2
330
1F
100
AcDbEntity
  8
0
 62
     7
370
    35
100
AcDbCircle
 10
82.85155524343895
 20
520.9181677704873
 30
0.0
 40
1.405629
  0
LINE
  5
2C3
330
1F
100
AcDbEntity
  8
0
 62
   253
 48
0.4875
370
    35
100
AcDbLine
 10
153.3515552434389
 20
402.4181677704873
 30
0.0
 11
172.8515552434389
 21
402.4181677704873
 31
0.0
  0
LINE
  5
2C4
330
1F
100
AcDbEntity
  8
0
 62
   253
 48
0.019812
370
    35
100
AcDbLine
 10
153.3515552434389
 20
402.4181677704873
 30
0.0
 11
152.5590752434389
 21
402.4181677704873
 31
0.0
  0
LINE
  5
2C5
330
1F
100
AcDbEntity
  8
0
 62
   253
 48
0.305188
370
    35
100
AcDbLine
 10
152.5590752434389
 20
402.4181677704873
 30
0.0
 11
140.3515552434389
 21
402.4181677704873
 31
0.0
  0
LINE
  5
2C6
330
1F
100
AcDbEntity
  8
0
 62
   253
 48
0.238382
370
    35
100
AcDbLine
 10
140.3515552434389
 20
402.4181677704873
 30
0.0
 11
130.8162772434389
 21
402.4181677704873
 31
0.0
  0
LINE
  5
2C7
330
1F
100
AcDbEntity
  8
0
 62
   253
 48
0.238382
370
    35
100
AcDbLine
 10
119.8868332434389
 20
402.4181677704873
 30
0.0
 11
110.3515552434389
 21
402.4181677704873
 31
0.0
  0
LINE
  5
2C8
330
1F
100
AcDbEntity
  8
0
 62
   253
 48
0.305188
370
    35
100
AcDbLine
 10
110.3515552434389
 20
402.4181677704873
 30
0.0
 11
98.14403524343896
 21
402.4181677704873
 31
0.0
  0
LINE
  5
2C9
330
1F
100
AcDbEntity
  8
0
 62
   253
 48
0.019813
370
    35
100
AcDbLine
 10
98.14406624343895
 20
402.4181677704873
 30
0.0
 11
97.35155524343895
 21
402.4181677704873
 31
0.0
  0
LINE
  5
2CA
330
1F
100
AcDbEntity
  8
0
 62
   253
 48
0.4875
370
    35
100
AcDbLine
 10
77.85155524343895
 20
402.4181677704873
 30
0.0
 11
97.35155524343895
 21
402.4181677704873
 31
0.0
  0
ARC
  5
2CB
330
1F
100
AcDbEntity
  8
0
 62
   253
370
    35
100
AcDbCircle
 10
99.68755424343896
 20
406.5792097704872
 30
0.0
 40
1.835285999999999
100
AcDbArc
 50
131.5020009999999
 51
180.4376329999997
  0
ARC
  5
2CC
330
1F
100
AcDbEntity
  8
0
 62
   253
370
    35
100
AcDbCircle
 10
110.3455132434389
 20
394.3368687704873
 30
0.0
 40
18.067045
100
AcDbArc
 50
89.98080299999983
 51
131.0889520000002
  0
LINE
  5
2CD
330
1F
100
AcDbEntity
  8
0
 62
   253
370
    35
100
AcDbLine
 10
110.3515552434389
 20
412.4043127704872
 30
0.0
 11
140.3515552434389
 21
412.4043127704872
 31
0.0
  0
ARC
  5
2CE
330
1F
100
AcDbEntity
  8
0
 62
   253
370
    35
100
AcDbCircle
 10
140.3575972434389
 20
394.3368687704873
 30
0.0
 40
18.067057
100
AcDbArc
 50
48.9110669999998
 51
90.01918899999987
  0
ARC
  5
2CF
330
1F
100
AcDbEntity
  8
0
 62
   253
370
    35
100
AcDbCircle
 10
151.0155562434389
 20
406.5792097704872
 30
0.0
 40
1.835286999999999
100
AcDbArc
 50
359.5624129999996
 51
48.49799399999985
  0
LINE
  5
2D0
330
1F
100
AcDbEntity
  8
0
 62
   253
 48
0.091175
370
    35
100
AcDbLine
 10
97.85155524343895
 20
402.9181677704873
 30
0.0
 11
97.85155524343895
 21
406.5651707704874
 31
0.0
  0
LINE
  5
2D1
330
1F
100
AcDbEntity
  8
0
 62
   253
 48
0.091175
370
    35
100
AcDbLine
 10
152.8515552434389
 20
402.9181677704873
 30
0.0
 11
152.8515552434389
 21
406.5651707704874
 31
0.0
  0
ARC
  5
2D2
330
1F
100
AcDbEntity
  8
0
 62
   253
370
    35
100
AcDbCircle
 10
153.3515552434389
 20
402.9181677704873
 30
0.0
 40
0.5
100
AcDbArc
 50
180.0
 51
270.0
  0
ARC
  5
2D3
330
1F
100
AcDbEntity
  8
0
 62
   253
370
    35
100
AcDbCircle
 10
97.35155524343895
 20
402.9181677704873
 30
0.0
 40
0.5
100
AcDbArc
 50
270.0
 51
0.0
  0
LINE
  5
2D4
330
1F
100
AcDbEntity
  8
0
 62
   253
 48
0.001339
370
    35
100
AcDbLine
 10
152.5341112434389
 20
400.8542637704874
 30
0.0
 11
152.481499243439
 21
400.8443157704873
 31
0.0
  0
LINE
  5
2D5
330
1F
100
AcDbEntity
  8
0
 62
   253
 48
0.003185
370
    35
100
AcDbLine
 10
152.5341112434389
 20
400.8542637704874
 30
0.0
 11
152.6614922434389
 21
400.8542637704874
 31
0.0
  0
LINE
  5
2D6
330
1F
100
AcDbEntity
  8
0
 62
   253
 48
0.034277
370
    35
100
AcDbLine
 10
152.6614922434389
 20
400.8542637704874
 30
0.0
 11
154.0325852434389
 21
400.8542637704874
 31
0.0
  0
ARC
  5
2D7
330
1F
100
AcDbEntity
  8
0
 62
   253
370
    35
100
AcDbCircle
 10
153.9786302434389
 20
400.2212987704873
 30
0.0
 40
0.6345380000000001
100
AcDbArc
 50
53.41975299999989
 51
85.12413499999986
  0
ARC
  5
2D8
330
1F
100
AcDbEntity
  8
0
 62
   253
370
    35
100
AcDbCircle
 10
96.72463224343895
 20
400.2209637704872
 30
0.0
 40
0.6348630000000001
100
AcDbArc
 50
94.88537699999985
 51
126.5731589999997
  0
LINE
  5
2D9
330
1F
100
AcDbEntity
  8
0
 62
   253
 48
0.034277
370
    35
100
AcDbLine
 10
98.04158824343895
 20
400.8542637704874
 30
0.0
 11
96.67049424343895
 21
400.8542637704874
 31
0.0
  0
LINE
  5
2DA
330
1F
100
AcDbEntity
  8
0
 62
   253
 48
0.003186
370
    35
100
AcDbLine
 10
98.16902924343896
 20
400.8542637704874
 30
0.0
 11
98.04158824343895
 21
400.8542637704874
 31
0.0
  0
LINE
  5
2DB
330
1F
100
AcDbEntity
  8
0
 62
   253
 48
0.001338
370
    35
100
AcDbLine
 10
98.16902924343896
 20
400.8542637704874
 30
0.0
 11
98.22161124343896
 21
400.8443157704873
 31
0.0
  0
LINE
  5
2DC
330
1F
100
AcDbEntity
  8
0
 62
   253
370
    35
100
AcDbLine
 10
140.3515552434389
 20
397.9181677704874
 30
0.0
 11
110.3515552434389
 21
397.9181677704874
 31
0.0
  0
ARC
  5
2DD
330
1F
100
AcDbEntity
  8
0
 62
   253
370
    35
100
AcDbCircle
 10
140.3331832434389
 20
416.8985147704872
 30
0.0
 40
22.859152
100
AcDbArc
 50
270.045978
 51
280.4481110000001
  0
LINE
  5
2DE
330
1F
100
AcDbEntity
  8
0
 62
   253
370
    35
100
AcDbLine
 10
110.3515552434389
 20
394.0395977704874
 30
0.0
 11
140.3515552434389
 21
394.0395977704874
 31
0.0
  0
ARC
  5
2DF
330
1F
100
AcDbEntity
  8
0
 62
   253
370
    35
100
AcDbCircle
 10
110.3700492434389
 20
416.8977217704873
 30
0.0
 40
22.858364
100
AcDbArc
 50
259.5511739999998
 51
269.9536889999999
  0
LINE
  5
2E0
330
1F
100
AcDbEntity
  8
0
 62
   253
 48
0.00058
370
    35
100
AcDbLine
 10
98.38857324343896
 20
400.7930767704873
 30
0.0
 11
98.41021024343895
 21
400.7846837704874
 31
0.0
  0
ARC
  5
2E1
330
1F
100
AcDbEntity
  8
0
 62
   253
370
    35
100
AcDbCircle
 10
97.96416524343896
 20
399.7099157704873
 30
0.0
 40
1.163277
100
AcDbArc
 50
68.60348600000016
 51
77.21468800000001
  0
LINE
  5
2E2
330
1F
100
AcDbEntity
  8
0
 62
   253
 48
0.000734
370
    35
100
AcDbLine
 10
98.41014924343895
 20
400.7845617704873
 30
0.0
 11
98.43746224343895
 21
400.7738197704872
 31
0.0
  0
LINE
  5
2E3
330
1F
100
AcDbEntity
  8
0
 62
   253
 48
0.002258
370
    35
100
AcDbLine
 10
98.92491924343895
 20
400.4737707704873
 30
0.0
 11
98.85369124343895
 21
400.5293127704873
 31
0.0
  0
ARC
  5
2E4
330
1F
100
AcDbEntity
  8
0
 62
   253
370
    35
100
AcDbCircle
 10
97.71840724343896
 20
399.0848247704873
 30
0.0
 40
1.836344
100
AcDbArc
 50
51.83522799999997
 51
66.9390640000002
  0
LINE
  5
2E5
330
1F
100
AcDbEntity
  8
0
 62
   253
 48
0.000595
370
    35
100
AcDbLine
 10
98.90633424343896
 20
400.4889077704873
 30
0.0
 11
98.92479724343896
 21
400.4738927704872
 31
0.0
  0
ARC
  5
2E6
330
1F
100
AcDbEntity
  8
0
 62
   253
370
    35
100
AcDbCircle
 10
152.9847342434389
 20
399.0847937704873
 30
0.0
 40
1.836392999999999
100
AcDbArc
 50
113.0612070000001
 51
128.1646480000003
  0
LINE
  5
2E7
330
1F
100
AcDbEntity
  8
0
 62
   253
 48
0.002258
370
    35
100
AcDbLine
 10
151.7781912434389
 20
400.4737707704873
 30
0.0
 11
151.8494192434389
 21
400.5293127704873
 31
0.0
  0
LINE
  5
2E8
330
1F
100
AcDbEntity
  8
0
 62
   253
 48
0.000734
370
    35
100
AcDbLine
 10
152.2929612434389
 20
400.7845617704873
 30
0.0
 11
152.2656182434389
 21
400.7738197704872
 31
0.0
  0
ARC
  5
2E9
330
1F
100
AcDbEntity
  8
0
 62
   253
370
    35
100
AcDbCircle
 10
152.7390672434389
 20
399.7097937704873
 30
0.0
 40
1.163462999999999
100
AcDbArc
 50
102.7895800000001
 51
111.3993950000001
  0
LINE
  5
2EA
330
1F
100
AcDbEntity
  8
0
 62
   253
 48
0.000579
370
    35
100
AcDbLine
 10
152.3145072434389
 20
400.7930767704873
 30
0.0
 11
152.292900243439
 21
400.7846837704874
 31
0.0
  0
ARC
  5
2EB
330
1F
100
AcDbEntity
  8
0
 62
   253
370
    35
100
AcDbCircle
 10
140.3236012434389
 20
426.0817427704873
 30
0.0
 40
28.164162
100
AcDbArc
 50
270.0569340000001
 51
282.732071
  0
ARC
  5
2EC
330
1F
100
AcDbEntity
  8
0
 62
   253
370
    35
100
AcDbCircle
 10
110.3795092434389
 20
426.0818037704873
 30
0.0
 40
28.164249
100
AcDbArc
 50
257.2679849999999
 51
269.9430880000001
  0
ARC
  5
2ED
330
1F
100
AcDbEntity
  8
0
 62
   253
370
    35
100
AcDbCircle
 10
81.70458224343894
 20
20655.95149377049
 30
0.0
 40
20254.84375
100
AcDbArc
 50
269.9891239999999
 51
270.046115
  0
LINE
  5
2EE
330
1F
100
AcDbEntity
  8
0
 62
   253
 48
0.000595
370
    35
100
AcDbLine
 10
98.90633424343896
 20
400.4889077704873
 30
0.0
 11
98.92479724343896
 21
400.4738927704872
 31
0.0
  0
ARC
  5
2EF
330
1F
100
AcDbEntity
  8
0
 62
   253
370
    35
100
AcDbCircle
 10
168.9931572434389
 20
20649.60188377049
 30
0.0
 40
20248.492188
100
AcDbArc
 50
269.9539069999997
 51
270.0109259999999
  0
LINE
  5
2F0
330
1F
100
AcDbEntity
  8
0
 62
     7
 48
0.070241
370
    13
100
AcDbLine
 10
173.5031662434389
 20
114.2251287704873
 30
0.0
 11
170.6935352434389
 21
114.2292027704873
 31
0.0
  0
LINE
  5
2F1
330
1F
100
AcDbEntity
  8
0
 62
     7
 48
0.074282
370
    13
100
AcDbLine
 10
80.17122724343895
 20
114.3605047704873
 30
0.0
 11
77.19994424343894
 21
114.3648237704873
 31
0.0
  0
LINE
  5
2F2
330
1F
100
AcDbEntity
  8
0
 62
     7
370
    13
100
AcDbLine
 10
165.0192192434389
 20
114.2374427704873
 30
0.0
 11
85.54293124343896
 21
114.3527227704873
 31
0.0
  0
LINE
  5
2F3
330
1F
100
AcDbEntity
  8
0
 62
     7
 48
0.361816
370
    13
100
AcDbLine
 10
174.3242112434389
 20
510.7700357704873
 30
0.0
 11
159.8515552434389
 21
510.7700357704873
 31
0.0
  0
LINE
  5
2F4
330
1F
100
AcDbEntity
  8
0
 62
     7
370
    13
100
AcDbLine
 10
76.37889924343895
 20
510.7700357704873
 30
0.0
 11
132.8515552434389
 21
510.7700357704873
 31
0.0
  0
LINE
  5
2F5
330
1F
100
AcDbEntity
  8
0
 62
     7
100
AcDbLine
 10
80.35155524343895
 20
471.4444582504873
 30
0.0
 11
80.35155524343895
 21
426.3918772904872
 31
0.0
  0
LINE
  5
2F6
330
1F
100
AcDbEntity
  8
0
 62
     7
100
AcDbLine
 10
80.35155524343895
 20
426.3918772904872
 30
0.0
 11
170.3515552434389
 21
426.3918772904872
 31
0.0
  0
LINE
  5
2F7
330
1F
100
AcDbEntity
  8
0
 62
     7
100
AcDbLine
 10
170.3515552434389
 20
426.3918772904872
 30
0.0
 11
170.3515552434389
 21
471.4444582504873
 31
0.0
  0
LINE
  5
2F8
330
1F
100
AcDbEntity
  8
0
 62
     7
100
AcDbLine
 10
170.3515552434389
 20
471.4444582504873
 30
0.0
 11
80.35155524343895
 21
471.4444582504873
 31
0.0
  0
LWPOLYLINE
  5
2F9
330
1F
100
AcDbEntity
  8
0
  6
Continuous
 62
     2
100
AcDbPolyline
 90
        2
 70
     0
 43
0.0
 10
150.3884047234389
 20
594.3941419404873
 10
100.3147057634389
 20
594.3941419404873
  0
LWPOLYLINE
  5
2FA
330
1F
100
AcDbEntity
  8
0
  6
Continuous
 62
     2
100
AcDbPolyline
 90
       10
 70
     0
 43
0.0
 10
78.91206865343895
 20
56.98581445048733
 10
89.61338721343896
 20
53.41870826048733
 10
100.3147057634389
 20
49.85160207048733
 10
111.0160243234389
 20
47.47353128048733
 10
122.9063782734389
 20
47.47353128048733
 10
128.8515552434389
 20
47.47353128048733
 10
140.1473915034389
 20
47.47353128048733
 10
151.4432277534389
 20
48.66256668048734
 10
162.7390640034389
 20
51.63515517048733
 10
171.7910418334389
 20
56.98581445048733
  0
LWPOLYLINE
  5
2FB
330
1F
100
AcDbEntity
  8
0
  6
Continuous
 62
     2
100
AcDbPolyline
 90
        2
 70
     0
 43
0.0
 10
176.5471834134389
 20
564.5631376504873
 10
188.4375373734389
 20
559.8069960704872
  0
LWPOLYLINE
  5
2FC
330
1F
100
AcDbEntity
  8
0
  6
Continuous
 62
     2
100
AcDbPolyline
 90
       11
 70
     0
 43
0.0
 10
176.5471834134389
 20
564.5631376504873
 10
165.7116524934389
 20
568.1302438404872
 10
157.3396885734389
 20
569.5936720204872
 10
141.3364268934389
 20
572.8863854204873
 10
126.6061353634389
 20
574.0754208104873
 10
118.4155385134389
 20
573.6671626504873
 10
109.8269889234389
 20
572.8863854204873
 10
97.93663497343896
 20
570.5083146304873
 10
86.04628102343895
 20
568.1302438404872
 10
74.15592707343896
 20
564.5631376504873
 10
62.26557312343896
 20
559.8069960704872
  0
LWPOLYLINE
  5
2FD
330
1F
100
AcDbEntity
  8
0
  6
Continuous
 62
     2
100
AcDbPolyline
 90
       13
 70
     0
 43
0.0
 10
59.88750233343896
 20
54.60774365048734
 10
70.58882089343896
 20
49.85160207048733
 10
81.29013944343896
 20
45.09546049048733
 10
93.18049339343895
 20
41.52835431048734
 10
105.0708473434389
 20
39.15028352048734
 10
116.9612012934389
 20
37.96124812048733
 10
128.8515552434389
 20
37.96124812048733
 10
134.7967322234389
 20
37.96124812048733
 10
146.6870861734389
 20
38.55576582048734
 10
158.5774401234389
 20
40.33931891048733
 10
170.4677940734389
 20
43.31190740048733
 10
181.7636303234389
 20
47.47353128048733
 10
190.8156081634389
 20
54.60774365048734
  0
LWPOLYLINE
  5
2FE
330
1F
100
AcDbEntity
  8
0
  6
Continuous
 62
     2
100
AcDbPolyline
 90
        2
 70
     0
 43
0.0
 10
68.21075010343895
 20
47.47353128048733
 10
56.32039615343895
 20
52.22967286048733
  0
LWPOLYLINE
  5
2FF
330
1F
100
AcDbEntity
  8
0
  6
Continuous
 62
     2
100
AcDbPolyline
 90
       12
 70
     0
 43
0.0
 10
68.21075010343895
 20
47.47353128048733
 10
80.10110405343896
 20
42.71738970048733
 10
91.99145800343897
 20
39.15028352048734
 10
103.8818119534389
 20
36.77221273048733
 10
115.7721659034389
 20
35.58317733048734
 10
128.8515552434389
 20
34.39414194048734
 10
136.3967988134389
 20
35.14866630048734
 10
147.2816038734389
 20
36.17769503048734
 10
159.7664755134389
 20
37.96124812048733
 10
171.6568294634389
 20
40.93383661048733
 10
185.2370077534389
 20
45.77139023048733
 10
195.5717497434389
 20
54.60774365048734
  0
LWPOLYLINE
  5
300
330
1F
100
AcDbEntity
  8
0
  6
Continuous
 62
     2
100
AcDbPolyline
 90
        2
 70
     0
 43
0.0
 10
177.7362188134389
 20
90.29141959048734
 10
76.53399786343896
 20
90.29141959048734
  0
LWPOLYLINE
  5
301
330
1F
100
AcDbEntity
  8
0
  6
Continuous
 62
     2
100
AcDbPolyline
 90
        2
 70
     0
 43
0.0
 10
76.53399786343896
 20
543.1605005404873
 10
174.1691126234389
 20
543.1605005404873
  0
LWPOLYLINE
  5
302
330
1F
100
AcDbEntity
  8
0
  6
Continuous
 62
     2
100
AcDbPolyline
 90
        2
 70
     0
 43
0.0
 10
63.45460852343896
 20
99.80370275048734
 10
63.45460852343896
 20
316.4629462404873
  0
LWPOLYLINE
  5
303
330
1F
100
AcDbEntity
  8
0
  6
Continuous
 62
     2
100
AcDbPolyline
 90
        2
 70
     0
 43
0.0
 10
58.69846694343896
 20
163.0773802804873
 10
58.69846694343896
 20
56.98581445048733
  0
LWPOLYLINE
  5
304
330
1F
100
AcDbEntity
  8
0
  6
Continuous
 62
     2
100
AcDbPolyline
 90
        2
 70
     0
 43
0.0
 10
55.13136075343895
 20
54.60774365048734
 10
55.13136075343895
 20
163.0773802804873
  0
LWPOLYLINE
  5
305
330
1F
100
AcDbEntity
  8
0
  6
Continuous
 62
     2
100
AcDbPolyline
 90
        7
 70
     0
 43
0.0
 10
63.45460852343896
 20
103.3708089404873
 10
63.45460852343896
 20
99.80370275048734
 10
64.64364391343895
 20
96.23659657048733
 10
67.02171470343896
 20
93.85852578048734
 10
69.39978549343895
 20
91.48045499048732
 10
72.96689168343895
 20
90.29141959048734
 10
76.53399786343896
 20
90.29141959048734
  0
LWPOLYLINE
  5
306
330
1F
100
AcDbEntity
  8
0
  6
Continuous
 62
     2
100
AcDbPolyline
 90
        3
 70
     0
 43
0.0
 10
58.69846694343896
 20
56.98581445048733
 10
58.69846694343896
 20
55.79677905048733
 10
59.88750233343896
 20
54.60774365048734
  0
LWPOLYLINE
  5
307
330
1F
100
AcDbEntity
  8
0
  6
Continuous
 62
     2
100
AcDbPolyline
 90
        4
 70
     0
 43
0.0
 10
55.13136075343895
 20
53.41870826048733
 10
55.13136075343895
 20
54.60774365048734
 10
55.13136075343895
 20
53.41870826048733
 10
56.32039615343895
 20
52.22967286048733
  0
LWPOLYLINE
  5
308
330
1F
100
AcDbEntity
  8
0
  6
Continuous
 62
     2
100
AcDbPolyline
 90
        4
 70
     0
 43
0.0
 10
76.53399786343896
 20
61.74195603048733
 10
76.53399786343896
 20
61.74195603048733
 10
76.53399786343896
 20
61.74195603048733
 10
76.53399786343896
 20
62.93099142048733
  0
LWPOLYLINE
  5
309
330
1F
100
AcDbEntity
  8
0
  6
Continuous
 62
     2
100
AcDbPolyline
 90
        4
 70
     0
 43
0.0
 10
76.53399786343896
 20
61.74195603048733
 10
76.53399786343896
 20
60.55292063048733
 10
77.72303326343896
 20
58.17484984048733
 10
78.91206865343895
 20
56.98581445048733
  0
LWPOLYLINE
  5
30A
330
1F
100
AcDbEntity
  8
0
  6
Continuous
 62
     2
100
AcDbPolyline
 90
        4
 70
     0
 43
0.0
 10
78.91206865343895
 20
80.13210527048732
 10
77.72303326343896
 20
78.94306988048734
 10
76.53399786343896
 20
77.75403448048733
 10
76.53399786343896
 20
62.93099142048733
  0
LWPOLYLINE
  5
30B
330
1F
100
AcDbEntity
  8
0
  6
Continuous
 62
     2
100
AcDbPolyline
 90
        2
 70
     0
 43
0.0
 10
63.45460852343896
 20
530.0811112004874
 10
63.45460852343896
 20
299.4082445604874
  0
LWPOLYLINE
  5
30C
330
1F
100
AcDbEntity
  8
0
  6
Continuous
 62
     2
100
AcDbPolyline
 90
        2
 70
     0
 43
0.0
 10
93.18049339343895
 20
556.2398898904873
 10
78.91206865343895
 20
551.4837483104874
  0
LWPOLYLINE
  5
30D
330
1F
100
AcDbEntity
  8
0
  6
Continuous
 62
     2
100
AcDbPolyline
 90
        3
 70
     0
 43
0.0
 10
55.13136075343895
 20
547.9166421204872
 10
55.13136075343895
 20
452.7938105204873
 10
63.45460852343896
 20
427.8240672204873
  0
LWPOLYLINE
  5
30E
330
1F
100
AcDbEntity
  8
0
  6
Continuous
 62
     2
100
AcDbPolyline
 90
        2
 70
     0
 43
0.0
 10
72.96689168343895
 20
541.9714651504873
 10
76.53399786343896
 20
543.1605005404873
  0
LWPOLYLINE
  5
30F
330
1F
100
AcDbEntity
  8
0
  6
Continuous
 62
     2
100
AcDbPolyline
 90
        6
 70
     0
 43
0.0
 10
72.96689168343895
 20
541.9714651504873
 10
69.39978549343895
 20
540.7824297504873
 10
67.02171470343896
 20
538.4043589604873
 10
64.64364391343895
 20
536.0262881704873
 10
63.45460852343896
 20
533.6482173804872
 10
63.45460852343896
 20
530.0811112004874
  0
LWPOLYLINE
  5
310
330
1F
100
AcDbEntity
  8
0
  6
Continuous
 62
     2
100
AcDbPolyline
 90
        3
 70
     0
 43
0.0
 10
76.53399786343896
 20
545.5385713304872
 10
76.53399786343896
 20
546.7276067304872
 10
76.53399786343896
 20
546.7276067304872
  0
LWPOLYLINE
  5
311
330
1F
100
AcDbEntity
  8
0
  6
Continuous
 62
     2
100
AcDbPolyline
 90
        5
 70
     0
 43
0.0
 10
76.53399786343896
 20
544.3495359404874
 10
76.53399786343896
 20
545.5385713304872
 10
76.53399786343896
 20
544.3495359404874
 10
77.72303326343896
 20
543.1605005404873
 10
78.91206865343895
 20
543.1605005404873
  0
LWPOLYLINE
  5
312
330
1F
100
AcDbEntity
  8
0
  6
Continuous
 62
     2
100
AcDbPolyline
 90
        4
 70
     0
 43
0.0
 10
78.91206865343895
 20
551.4837483104874
 10
77.72303326343896
 20
550.2947129104873
 10
76.53399786343896
 20
549.1056775204872
 10
76.53399786343896
 20
546.7276067304872
  0
LWPOLYLINE
  5
313
330
1F
100
AcDbEntity
  8
0
  6
Continuous
 62
     2
100
AcDbPolyline
 90
        6
 70
     0
 43
0.0
 10
96.74759958343896
 20
543.1605005404873
 10
96.74759958343896
 20
553.8618191004872
 10
96.74759958343896
 20
555.0508544904873
 10
95.55856418343896
 20
556.2398898904873
 10
94.36952879343897
 20
556.2398898904873
 10
93.18049339343895
 20
556.2398898904873
  0
LWPOLYLINE
  5
314
330
1F
100
AcDbEntity
  8
0
  6
Continuous
 62
     2
100
AcDbPolyline
 90
        2
 70
     0
 43
0.0
 10
187.2485019734389
 20
99.80370275048734
 10
187.2485019734389
 20
316.4629462404873
  0
LWPOLYLINE
  5
315
330
1F
100
AcDbEntity
  8
0
  6
Continuous
 62
     2
100
AcDbPolyline
 90
        2
 70
     0
 43
0.0
 10
195.5717497434389
 20
163.0773802804873
 10
195.5717497434389
 20
54.60774365048734
  0
LWPOLYLINE
  5
316
330
1F
100
AcDbEntity
  8
0
  6
Continuous
 62
     2
100
AcDbPolyline
 90
        2
 70
     0
 43
0.0
 10
192.004643553439
 20
56.98581445048733
 10
192.004643553439
 20
163.0773802804873
  0
LWPOLYLINE
  5
317
330
1F
100
AcDbEntity
  8
0
  6
Continuous
 62
     2
100
AcDbPolyline
 90
        6
 70
     0
 43
0.0
 10
177.7362188134389
 20
90.29141959048734
 10
181.303324993439
 20
91.48045499048732
 10
183.6813957934389
 20
93.85852578048734
 10
186.0594665834389
 20
96.23659657048733
 10
187.2485019734389
 20
99.80370275048734
 10
187.2485019734389
 20
103.3708089404873
  0
LWPOLYLINE
  5
318
330
1F
100
AcDbEntity
  8
0
  6
Continuous
 62
     2
100
AcDbPolyline
 90
        4
 70
     0
 43
0.0
 10
192.004643553439
 20
55.79677905048733
 10
190.8156081634389
 20
54.60774365048734
 10
192.004643553439
 20
55.79677905048733
 10
192.004643553439
 20
56.98581445048733
  0
LWPOLYLINE
  5
319
330
1F
100
AcDbEntity
  8
0
  6
Continuous
 62
     2
100
AcDbPolyline
 90
        2
 70
     0
 43
0.0
 10
187.2485019734389
 20
299.4082445604874
 10
187.2485019734389
 20
530.0811112004874
  0
LWPOLYLINE
  5
31A
330
1F
100
AcDbEntity
  8
0
  6
Continuous
 62
     2
100
AcDbPolyline
 90
        2
 70
     0
 43
0.0
 10
187.2485019734389
 20
178.5348404204873
 10
192.004643553439
 20
163.0773802804873
  0
LWPOLYLINE
  5
31B
330
1F
100
AcDbEntity
  8
0
  6
Continuous
 62
     2
100
AcDbPolyline
 90
        2
 70
     0
 43
0.0
 10
195.5717497434389
 20
163.0773802804873
 10
187.2485019734389
 20
188.0471235804873
  0
LWPOLYLINE
  5
31C
330
1F
100
AcDbEntity
  8
0
  6
Continuous
 62
     2
100
AcDbPolyline
 90
        7
 70
     0
 43
0.0
 10
187.2485019734389
 20
530.0811112004874
 10
187.2485019734389
 20
533.6482173804872
 10
186.0594665834389
 20
536.0262881704873
 10
183.6813957934389
 20
538.4043589604873
 10
181.303324993439
 20
540.7824297504873
 10
177.7362188134389
 20
541.9714651504873
 10
174.1691126234389
 20
543.1605005404873
  0
LWPOLYLINE
  5
31D
330
1F
100
AcDbEntity
  8
0
  6
Continuous
 62
     2
100
AcDbPolyline
 90
        2
 70
     0
 43
0.0
 10
171.7910418334389
 20
551.4837483104874
 10
157.5226170934389
 20
556.2398898904873
  0
LWPOLYLINE
  5
31E
330
1F
100
AcDbEntity
  8
0
  6
Continuous
 62
     2
100
AcDbPolyline
 90
        2
 70
     0
 43
0.0
 10
153.9555109134389
 20
553.8618191004872
 10
153.9555109134389
 20
543.1605005404873
  0
LWPOLYLINE
  5
31F
330
1F
100
AcDbEntity
  8
0
  6
Continuous
 62
     2
100
AcDbPolyline
 90
        6
 70
     0
 43
0.0
 10
156.3335817034389
 20
556.2398898904873
 10
157.5226170934389
 20
556.2398898904873
 10
156.3335817034389
 20
556.2398898904873
 10
155.1445463034389
 20
556.2398898904873
 10
153.9555109134389
 20
555.0508544904873
 10
153.9555109134389
 20
553.8618191004872
  0
LWPOLYLINE
  5
320
330
1F
100
AcDbEntity
  8
0
  6
Continuous
 62
     2
100
AcDbPolyline
 90
        3
 70
     0
 43
0.0
 10
174.1691126234389
 20
546.7276067304872
 10
174.1691126234389
 20
545.5385713304872
 10
174.1691126234389
 20
546.7276067304872
  0
LWPOLYLINE
  5
321
330
1F
100
AcDbEntity
  8
0
  6
Continuous
 62
     2
100
AcDbPolyline
 90
        9
 70
     0
 43
0.0
 10
172.980077233439
 20
543.1605005404873
 10
171.7910418334389
 20
543.1605005404873
 10
172.980077233439
 20
543.1605005404873
 10
174.1691126234389
 20
544.3495359404874
 10
174.1691126234389
 20
545.5385713304872
 10
174.1691126234389
 20
546.7276067304872
 10
174.1691126234389
 20
549.1056775204872
 10
172.980077233439
 20
550.2947129104873
 10
171.7910418334389
 20
551.4837483104874
  0
LWPOLYLINE
  5
322
330
1F
100
AcDbEntity
  8
0
  6
Continuous
 62
     2
100
AcDbPolyline
 90
        3
 70
     0
 43
0.0
 10
195.5717497434389
 20
547.9166421204872
 10
195.5717497434389
 20
452.7938105204873
 10
187.2485019734389
 20
427.8240672204873
  0
LWPOLYLINE
  5
323
330
1F
100
AcDbEntity
  8
0
  6
Continuous
 62
     2
100
AcDbPolyline
 90
        6
 70
     0
 43
0.0
 10
157.3396885734389
 20
569.5936720204872
 10
156.3335817034389
 20
578.8315623904873
 10
154.621875303439
 20
585.9330272804872
 10
153.9555109134389
 20
591.9549828904873
 10
151.577440123439
 20
594.3941419404873
 10
149.1993693334389
 20
594.3941419404873
  0
LWPOLYLINE
  5
324
330
1F
100
AcDbEntity
  8
0
  6
Continuous
 62
     2
100
AcDbPolyline
 90
        5
 70
     0
 43
0.0
 10
62.26557312343896
 20
559.8069960704872
 10
59.88750233343896
 20
557.4289252804873
 10
57.50943154343896
 20
553.8618191004872
 10
56.32039615343895
 20
551.4837483104874
 10
55.13136075343895
 20
547.9166421204872
  0
LWPOLYLINE
  5
325
330
1F
100
AcDbEntity
  8
0
  6
Continuous
 62
     2
100
AcDbPolyline
 90
        5
 70
     0
 43
0.0
 10
195.5717497434389
 20
547.9166421204872
 10
194.3827143434389
 20
551.4837483104874
 10
193.193678953439
 20
553.8618191004872
 10
190.8156081634389
 20
557.4289252804873
 10
188.4375373734389
 20
559.8069960704872
  0
LINE
  5
326
330
1F
100
AcDbEntity
  8
0
  6
Continuous
 62
     2
100
AcDbLine
 10
63.45460852343896
 20
178.5348404204873
 30
0.0
 11
58.69846694343896
 21
163.0773802804873
 31
0.0
  0
LINE
  5
327
330
1F
100
AcDbEntity
  8
0
  6
Continuous
 62
     2
100
AcDbLine
 10
55.13136075343895
 20
163.0773802804873
 30
0.0
 11
63.45460852343896
 21
188.0471235804873
 31
0.0
  0
LINE
  5
328
330
1F
100
AcDbEntity
  8
0
 62
     2
100
AcDbLine
 10
78.91206865343895
 20
80.13210527048732
 30
0.0
 11
171.7910418334389
 21
80.13210527048732
 31
0.0
  0
LINE
  5
329
330
1F
100
AcDbEntity
  8
0
  6
Continuous
 62
     2
100
AcDbLine
 10
171.7910418334389
 20
56.98581445048733
 30
0.0
 11
172.980077233439
 21
58.17484984048733
 31
0.0
  0
LINE
  5
32A
330
1F
100
AcDbEntity
  8
0
  6
Continuous
 62
     2
100
AcDbLine
 10
172.980077233439
 20
58.17484984048733
 30
0.0
 11
174.1691126234389
 21
60.55292063048733
 31
0.0
  0
LINE
  5
32B
330
1F
100
AcDbEntity
  8
0
  6
Continuous
 62
     2
100
AcDbLine
 10
174.1691126234389
 20
60.55292063048733
 30
0.0
 11
174.1691126234389
 21
67.97433565048733
 31
0.0
  0
LINE
  5
32C
330
1F
100
AcDbEntity
  8
0
  6
Continuous
 62
     2
100
AcDbLine
 10
174.1691126234389
 20
67.97433565048733
 30
0.0
 11
174.1691126234389
 21
76.56499909048733
 31
0.0
  0
LINE
  5
32D
330
1F
100
AcDbEntity
  8
0
  6
Continuous
 62
     2
100
AcDbLine
 10
174.1691126234389
 20
76.56499909048733
 30
0.0
 11
174.1691126234389
 21
77.75403448048733
 31
0.0
  0
LINE
  5
32E
330
1F
100
AcDbEntity
  8
0
  6
Continuous
 62
     2
100
AcDbLine
 10
174.1691126234389
 20
77.75403448048733
 30
0.0
 11
172.980077233439
 21
78.94306988048734
 31
0.0
  0
LINE
  5
32F
330
1F
100
AcDbEntity
  8
0
  6
Continuous
 62
     2
100
AcDbLine
 10
172.980077233439
 20
78.94306988048734
 30
0.0
 11
171.7910418334389
 21
80.13210527048732
 31
0.0
  0
LWPOLYLINE
  5
330
330
1F
100
AcDbEntity
  8
0
  6
Continuous
 62
     2
100
AcDbPolyline
 90
        6
 70
     0
 43
0.0
 10
93.08475716343895
 20
569.5379390604873
 10
94.11035772343897
 20
578.8315623904873
 10
95.82206412343897
 20
585.9330272804872
 10
96.48842851343896
 20
591.9549828904873
 10
98.86649930343896
 20
594.3941419404873
 10
101.2445700934389
 20
594.3941419404873
  0
DIMENSION
  5
331
330
1F
100
AcDbEntity
  8
QUOTE
 62
     7
100
AcDbDimension
  2
*D5
 10
32.01859100343894
 20
34.39414194048737
 30
0.0
 11
32.01859100343896
 21
317.5007770704873
 31
0.0
 70
   160
 71
     0
 42
560.0
  3
Standard
100
AcDbAlignedDimension
 13
98.86649930343896
 23
594.3941419404873
 33
0.0
 14
128.8515552434389
 24
34.39414194048734
 34
0.0
 50
90.0
100
AcDbRotatedDimension
1001
ACAD
1000
DSTYLE
1002
{
1070
    41
1040
15.0
1070
   140
1040
10.0
1070
    78
1070
     8
1070
   284
1070
     8
1002
}
  0
DIMENSION
  5
332
330
1F
100
AcDbEntity
  8
QUOTE
 62
     7
100
AcDbDimension
  2
*D6
 10
55.13136075343895
 20
19.99103536048733
 30
0.0
 11
128.9747390834389
 21
19.99103536048733
 31
0.0
 70
   160
 71
     0
 42
140.44038899
  3
Standard
100
AcDbAlignedDimension
 13
195.5717497434389
 23
54.60774365048734
 33
0.0
 14
55.13136075343895
 24
54.01322596048733
 34
0.0
100
AcDbRotatedDimension
1001
ACAD
1000
DSTYLE
1002
{
1070
    41
1040
15.0
1070
   140
1040
10.0
1070
    78
1070
     8
1070
   284
1070
     8
1002
}
  0
TEXT
  5
333
330
1F
100
AcDbEntity
  8
0
 62
     7
100
AcDbText
 10
90.676315401058
 20
518.0894367504873
 30
0.0
 40
5.0
  1
GW68031N
 72
     1
 11
109.1286963534389
 21
518.0894367504873
 31
0.0
100
AcDbText
  0
LWPOLYLINE
  5
334
330
1F
100
AcDbEntity
  8
0
 62
   253
370
    35
100
AcDbPolyline
 90
        4
 70
     0
 43
0.0
 10
175.4118582434389
 20
489.7955787704872
 10
175.4290702434389
 20
494.5829627704873
 10
175.4481132434389
 20
496.0608377704873
 10
175.4706962434389
 20
496.5953227704873
  0
LWPOLYLINE
  5
335
330
1F
100
AcDbEntity
  8
0
 62
   253
370
    35
100
AcDbPolyline
 90
       12
 70
     0
 43
0.0
 10
175.4706962434389
 20
496.5953227704873
 10
175.4605642434389
 20
496.7369547704874
 10
175.4305342434389
 20
496.8757487704873
 10
175.3810962434389
 20
497.0089277704873
 10
175.3133472434389
 20
497.1336827704873
 10
175.2285692434389
 20
497.2476357704874
 10
175.1285332434389
 20
497.3484047704873
 10
175.0151902434389
 20
497.4340367704873
 10
174.8908622434389
 20
497.5027017704872
 10
174.758110243439
 20
497.5530557704874
 10
174.6194992434389
 20
497.5841227704872
 10
174.4706962434389
 20
497.5952917704872
  0
LWPOLYLINE
  5
336
330
1F
100
AcDbEntity
  8
0
 62
   253
370
    35
100
AcDbPolyline
 90
       12
 70
     0
 43
0.0
 10
76.23241424343895
 20
497.5952917704872
 10
76.09075224343896
 20
497.5851907704873
 10
75.95195824343895
 20
497.5551307704874
 10
75.81881024343896
 20
497.5057227704873
 10
75.69402324343895
 20
497.4379437704873
 10
75.58007124343896
 20
497.3531657704873
 10
75.47930224343895
 20
497.2531287704874
 10
75.39370024343895
 20
497.1397867704873
 10
75.32503524343896
 20
497.0154887704873
 10
75.27465124343895
 20
496.8827067704872
 10
75.24358424343896
 20
496.7441567704873
 10
75.23244524343896
 20
496.5953227704873
  0
LWPOLYLINE
  5
337
330
1F
100
AcDbEntity
  8
0
 62
     7
370
    35
100
AcDbPolyline
 90
       47
 70
     0
 43
0.0
 10
84.96007624343894
 20
524.7777867704873
 10
84.41915124343896
 20
525.0238197704873
 10
84.13655924343895
 20
525.1194317704873
 10
83.84822924343897
 20
525.1958777704873
 10
83.55513824343896
 20
525.2529157704873
 10
83.25887324343895
 20
525.2901777704874
 10
82.96062524343895
 20
525.3075117704873
 10
82.66185824343896
 20
525.3047647704873
 10
82.36394524343896
 20
525.2820597704872
 10
82.06816924343895
 20
525.2393957704874
 10
81.77605524343896
 20
525.1770487704873
 10
81.48876224343895
 20
525.0952307704872
 10
81.20784824343896
 20
524.9943707704873
 10
80.93428824343895
 20
524.8748327704873
 10
80.66964024343894
 20
524.7373817704873
 10
80.41478724343894
 20
524.5823527704873
 10
80.17119624343896
 20
524.4107527704873
 10
79.93965924343895
 20
524.2230997704873
 10
79.72152024343896
 20
524.0204627704874
 10
79.51744924343896
 20
523.8036047704873
 10
79.32863624343895
 20
523.5736247704872
 10
79.15566324343895
 20
523.3314067704873
 10
78.99950424343896
 20
523.0782637704873
 10
78.86068024343896
 20
522.8150187704873
 10
78.74001324343895
 20
522.5431987704873
 10
78.63787124343895
 20
522.2637187704873
 10
78.55486324343896
 20
521.9781657704873
 10
78.49126424343896
 20
521.6874547704873
 10
78.44741124343895
 20
521.3933267704873
 10
78.42345424343895
 20
521.0966957704873
 10
78.41957924343896
 20
520.7992717704873
 10
78.43572224343896
 20
520.5020917704874
 10
78.47188624343896
 20
520.2067427704873
 10
78.52785524343895
 20
519.9143537704872
 10
78.60338624343896
 20
519.6265117704873
 10
78.69814324343895
 20
519.3443157704873
 10
78.81166924343895
 20
519.0691687704872
 10
78.94347424343895
 20
518.8022017704874
 10
79.09294924343895
 20
518.5446937704873
 10
79.25945324343896
 20
518.2977757704873
 10
79.44222324343896
 20
518.0625767704873
 10
79.64043424343896
 20
517.8401647704873
 10
79.85314224343895
 20
517.6315467704873
 10
80.07949124343895
 20
517.4376387704873
 10
80.31835224343895
 20
517.2593847704873
 10
80.56868824343895
 20
517.0975507704874
 10
80.71764424343895
 20
517.0121007704873
  0
LWPOLYLINE
  5
338
330
1F
100
AcDbEntity
  8
0
 62
     7
370
    35
100
AcDbPolyline
 90
       47
 70
     0
 43
0.0
 10
84.96007624343894
 20
524.7777867704873
 10
85.45723724343895
 20
524.4659887704873
 10
85.69252824343896
 20
524.2833417704873
 10
85.91506224343895
 20
524.0852217704873
 10
86.12352824343895
 20
523.8727577704873
 10
86.31731424343895
 20
523.6466527704873
 10
86.49529324343896
 20
523.4082197704873
 10
86.65685324343895
 20
523.1581887704873
 10
86.80107924343895
 20
522.8980877704873
 10
86.92751324343896
 20
522.6286477704872
 10
87.03542324343896
 20
522.3515477704872
 10
87.12447424343896
 20
522.0675817704873
 10
87.19414524343894
 20
521.7784887704873
 10
87.24419424343896
 20
521.4851237704873
 10
87.27431524343897
 20
521.1892557704873
 10
87.28447724343896
 20
520.8918317704873
 10
87.27455924343896
 20
520.5945597704872
 10
87.24462124343896
 20
520.2984777704873
 10
87.19484724343896
 20
520.0052037704873
 10
87.12538924343895
 20
519.7158367704873
 10
87.03664424343896
 20
519.4318097704873
 10
86.92894824343895
 20
519.1543437704873
 10
86.80278824343895
 20
518.8847207704873
 10
86.65874524343896
 20
518.6241307704873
 10
86.49749024343895
 20
518.3737957704874
 10
86.31972524343897
 20
518.1347817704873
 10
86.12624424343895
 20
517.9082497704873
 10
85.91793124343896
 20
517.6951757704873
 10
85.69573224343896
 20
517.4965977704873
 10
85.46062524343895
 20
517.3133097704873
 10
85.21376824343894
 20
517.1462567704873
 10
84.95613924343896
 20
516.9961407704874
 10
84.68901824343895
 20
516.8636637704873
 10
84.41356724343895
 20
516.7494057704873
 10
84.13106524343895
 20
516.6539467704873
 10
83.84279624343895
 20
516.5776227704873
 10
83.55001124343896
 20
516.5208287704873
 10
83.25408224343895
 20
516.4838417704872
 10
82.95629124343895
 20
516.4668127704873
 10
82.65804324343895
 20
516.4697737704873
 10
82.36068024343897
 20
516.4927837704873
 10
82.06551424343896
 20
516.5356907704873
 10
81.77391824343896
 20
516.5983437704873
 10
81.48717524343895
 20
516.6804057704873
 10
81.20665824343895
 20
516.7815407704873
 10
80.93355624343896
 20
516.9012617704872
 10
80.71764424343895
 20
517.0121007704873
  0
LWPOLYLINE
  5
339
330
1F
100
AcDbEntity
  8
0
 62
     7
370
    35
100
AcDbPolyline
 90
       47
 70
     0
 43
0.0
 10
165.7430342434389
 20
524.7777867704873
 10
165.239494243439
 20
524.4613197704873
 10
165.0045092434389
 20
524.2782757704873
 10
164.7823412434389
 20
524.0797587704873
 10
164.5742112434389
 20
523.8668987704873
 10
164.3808522434389
 20
523.6404577704873
 10
164.2033012434389
 20
523.4016887704873
 10
164.0422292434389
 20
523.1514137704873
 10
163.8984302434389
 20
522.8910077704873
 10
163.772453243439
 20
522.6214147704873
 10
163.6650932434389
 20
522.3440717704873
 10
163.5765312434389
 20
522.0599827704872
 10
163.5073782434389
 20
521.7707677704872
 10
163.4578782434389
 20
521.4773107704872
 10
163.428276243439
 20
521.1813817704872
 10
163.4186332434389
 20
520.8839277704874
 10
163.4290702434389
 20
520.5866857704872
 10
163.4595262434389
 20
520.2906657704873
 10
163.5098802434389
 20
519.9974527704873
 10
163.5798262434389
 20
519.7082067704873
 10
163.6690602434389
 20
519.4243627704874
 10
163.7772752434389
 20
519.1470807704873
 10
163.9039232434389
 20
518.8777017704873
 10
164.0483932434389
 20
518.6173257704873
 10
164.2101372434389
 20
518.3672957704873
 10
164.3882982434389
 20
518.1286177704873
 10
164.5822072434389
 20
517.9024207704872
 10
164.7908862434389
 20
517.6897137704872
 10
165.0134202434389
 20
517.4915327704873
 10
165.2488942434389
 20
517.3086707704872
 10
165.4960252434389
 20
517.1420447704873
 10
165.7539602434389
 20
516.9923867704873
 10
166.0212942434389
 20
516.8603987704873
 10
166.2969292434389
 20
516.7466597704873
 10
166.5796432434389
 20
516.6516577704872
 10
166.8680342434389
 20
516.5758827704872
 10
167.1609422434389
 20
516.5196087704873
 10
167.4569022434389
 20
516.4831097704873
 10
167.7547532434389
 20
516.4666297704873
 10
168.0529712434389
 20
516.4701087704872
 10
168.3503342434389
 20
516.4936687704873
 10
168.6453782434389
 20
516.5370947704873
 10
168.9368822434389
 20
516.6002357704873
 10
169.2234422434389
 20
516.6828467704873
 10
169.503838243439
 20
516.7844707704873
 10
169.7767262434389
 20
516.9046797704872
 10
169.985466243439
 20
517.0121007704873
  0
LWPOLYLINE
  5
33A
330
1F
100
AcDbEntity
  8
0
 62
     7
370
    35
100
AcDbPolyline
 90
       48
 70
     0
 43
0.0
 10
165.7430342434389
 20
524.7777867704873
 10
166.011894243439
 20
524.9109657704873
 10
166.2889942434389
 20
525.0257117704872
 10
166.5717092434389
 20
525.1209877704873
 10
166.8601612434389
 20
525.1970987704872
 10
167.1533132434389
 20
525.2537697704873
 10
167.4496382434389
 20
525.2906657704873
 10
167.7479172434389
 20
525.3076337704873
 10
168.0466842434389
 20
525.3045507704873
 10
168.3445972434389
 20
525.2814497704873
 10
168.640251243439
 20
525.2384807704872
 10
168.932305243439
 20
525.1757367704873
 10
169.2194752434389
 20
525.0935527704873
 10
169.5002982434389
 20
524.9923567704874
 10
169.7737352434389
 20
524.8725137704873
 10
170.0382012434389
 20
524.7346967704872
 10
170.2928392434389
 20
524.5793927704872
 10
170.536186243439
 20
524.4074867704873
 10
170.7675102434389
 20
524.2195597704872
 10
170.9854052434389
 20
524.0166787704874
 10
171.1892012434389
 20
523.7995157704873
 10
171.3777392434389
 20
523.5693517704873
 10
171.5504692434389
 20
523.3269207704873
 10
171.7062912434389
 20
523.0735637704873
 10
171.8447802434389
 20
522.8101357704873
 10
171.9651412434389
 20
522.5381937704873
 10
172.0668872434389
 20
522.2585607704872
 10
172.1495902434389
 20
521.9729167704874
 10
172.2128222434389
 20
521.6821447704872
 10
172.2563402434389
 20
521.3879557704873
 10
172.2799002434389
 20
521.0913247704873
 10
172.283440243439
 20
520.7939007704872
 10
172.2668992434389
 20
520.4966897704873
 10
172.2304002434389
 20
520.2014317704874
 10
172.1740652434389
 20
519.9090737704873
 10
172.0981982434389
 20
519.6213537704872
 10
172.0031052434389
 20
519.3392497704873
 10
171.8892142434389
 20
519.0642247704873
 10
171.7570732434389
 20
518.7974407704873
 10
171.6072922434389
 20
518.5401167704873
 10
171.4404832434389
 20
518.2934117704872
 10
171.2574392434389
 20
518.0584267704873
 10
171.0589522434389
 20
517.8362587704874
 10
170.845940243439
 20
517.6278847704873
 10
170.619377243439
 20
517.4342817704873
 10
170.3803032434389
 20
517.2563027704873
 10
170.1297532434389
 20
517.0947427704873
 10
169.985466243439
 20
517.0121007704873
  0
LWPOLYLINE
  5
33B
330
1F
100
AcDbEntity
  8
0
 62
     7
370
    35
100
AcDbPolyline
 90
       30
 70
     0
 43
0.0
 10
167.8515552434389
 20
527.5205847704873
 10
168.2145312434389
 20
527.5061807704873
 10
168.5768362434389
 20
527.4717877704872
 10
168.9366382434389
 20
527.4174357704874
 10
169.2939992434389
 20
527.3430947704873
 10
169.6458672434389
 20
527.2493447704873
 10
169.9937062434389
 20
527.1356977704872
 10
170.3332442434389
 20
527.0035557704873
 10
170.667107243439
 20
526.8517927704873
 10
170.9901052434389
 20
526.6827557704873
 10
171.3057182434389
 20
526.4944927704873
 10
171.6080862434389
 20
526.2905437704874
 10
171.9014212434389
 20
526.0679787704873
 10
172.1793142434389
 20
525.8315897704873
 10
172.4465872434389
 20
525.5772257704872
 10
172.6965262434389
 20
525.3112347704873
 10
172.9342582434389
 20
525.0280317704874
 10
173.1530692434389
 20
524.7356727704873
 10
173.3579032434389
 20
524.4273237704873
 10
173.5426562434389
 20
524.1123207704873
 10
173.711846243439
 20
523.7828527704873
 10
173.8601002434389
 20
523.4492957704873
 10
173.9913262434389
 20
523.1029827704873
 10
174.1013112434389
 20
522.7550817704873
 10
174.1929252434389
 20
522.3964087704874
 10
174.263176243439
 20
522.0385297704873
 10
174.3140182434389
 20
521.6720137704872
 10
174.3437432434389
 20
521.3086097704873
 10
174.3532032434389
 20
520.9388587704872
 10
174.3530812434389
 20
520.9181677704873
  0
LWPOLYLINE
  5
33C
330
1F
100
AcDbEntity
  8
0
 62
     7
370
    35
100
AcDbPolyline
 90
       30
 70
     0
 43
0.0
 10
82.85155524343895
 20
527.5205847704873
 10
82.48824324343896
 20
527.5061807704873
 10
82.12581624343895
 20
527.4717267704873
 10
81.76604524343895
 20
527.4173747704873
 10
81.40880624343896
 20
527.3430337704873
 10
81.05687724343896
 20
527.2492537704872
 10
80.70903824343895
 20
527.1355757704873
 10
80.36946924343896
 20
527.0034037704872
 10
80.03557624343896
 20
526.8515787704873
 10
79.71260824343895
 20
526.6825117704873
 10
79.39699624343896
 20
526.4942177704873
 10
79.09465824343896
 20
526.2902687704873
 10
78.80132324343896
 20
526.0676737704873
 10
78.52343024343895
 20
525.8312537704873
 10
78.25624924343896
 20
525.5769507704873
 10
78.00637124343896
 20
525.3109907704874
 10
77.76882224343896
 20
525.0280317704874
 10
77.55007224343896
 20
524.7357337704873
 10
77.34529924343895
 20
524.4275677704873
 10
77.16060724343896
 20
524.1126867704873
 10
76.99144824343895
 20
523.7832497704873
 10
76.84313224343895
 20
523.4496617704873
 10
76.71181524343896
 20
523.1031957704873
 10
76.60183024343895
 20
522.7552037704874
 10
76.51018524343895
 20
522.3962867704873
 10
76.43987324343895
 20
522.0382847704873
 10
76.38906124343896
 20
521.6715857704874
 10
76.35933724343896
 20
521.3082127704873
 10
76.34993824343895
 20
520.9385537704873
 10
76.35002924343895
 20
520.9181677704873
  0
LWPOLYLINE
  5
33D
330
1F
100
AcDbEntity
  8
0
 62
     7
370
    35
100
AcDbPolyline
 90
       28
 70
     0
 43
0.0
 10
167.8515552434389
 20
104.1887517704873
 10
168.172783243439
 20
104.2026677704873
 10
168.4930342434389
 20
104.2366187704873
 10
168.8114552434389
 20
104.2905737704873
 10
169.1275562434389
 20
104.3645787704873
 10
169.4393852434389
 20
104.4582677704873
 10
169.7473682434389
 20
104.5719157704873
 10
170.0489432434389
 20
104.7047127704873
 10
170.3452072434389
 20
104.8573467704873
 10
170.6327442434389
 20
105.0282597704873
 10
170.9132622434389
 20
105.2187207704873
 10
171.182915243439
 20
105.4263157704873
 10
171.443901243439
 20
105.6530157704873
 10
171.6918262434389
 20
105.8953257704873
 10
171.929314243439
 20
106.1560987704873
 10
172.1516652434389
 20
106.4305127704873
 10
172.3617482434389
 20
106.7224437704873
 10
172.5548632434389
 20
107.0257427704873
 10
172.7338792434389
 20
107.3451397704873
 10
172.8943412434389
 20
107.6733107704873
 10
173.0388722434389
 20
108.0158087704873
 10
173.1638112434389
 20
108.3643047704873
 10
173.2712332434389
 20
108.7249917704873
 10
173.3582692434389
 20
109.0887157704873
 10
173.4263842434389
 20
109.4619917704873
 10
173.4738082434389
 20
109.8352827704873
 10
173.501335243439
 20
110.2151647704873
 10
173.5085372434389
 20
110.5548107704873
  0
LWPOLYLINE
  5
33E
330
1F
100
AcDbEntity
  8
0
 62
     7
370
    35
100
AcDbPolyline
 90
       28
 70
     0
 43
0.0
 10
82.85155524343895
 20
104.1887517704873
 10
82.53041924343895
 20
104.2026527704873
 10
82.21022824343895
 20
104.2366037704873
 10
81.89180824343896
 20
104.2905437704873
 10
81.57570724343896
 20
104.3645337704873
 10
81.26387824343895
 20
104.4582067704873
 10
80.95586424343895
 20
104.5718547704873
 10
80.65428924343896
 20
104.7046517704873
 10
80.35808624343896
 20
104.8572547704873
 10
80.07054924343895
 20
105.0281687704873
 10
79.79000124343895
 20
105.2186287704873
 10
79.52031724343895
 20
105.4262097704873
 10
79.25933124343896
 20
105.6528937704873
 10
79.01140624343895
 20
105.8951887704873
 10
78.77391824343895
 20
106.1559607704873
 10
78.55153724343896
 20
106.4303747704873
 10
78.34145424343896
 20
106.7222907704873
 10
78.14830824343896
 20
107.0255747704873
 10
77.96935324343896
 20
107.3449717704873
 10
77.80883024343896
 20
107.6731427704873
 10
77.66426924343895
 20
108.0156407704873
 10
77.53933024343895
 20
108.3641217704873
 10
77.43193824343896
 20
108.7248087704873
 10
77.34490224343895
 20
109.0885167704873
 10
77.27675624343895
 20
109.4618077704873
 10
77.22930224343895
 20
109.8350987704873
 10
77.20174424343895
 20
110.2149817704873
 10
77.19457324343895
 20
110.5548107704873
  0
LWPOLYLINE
  5
33F
330
1F
100
AcDbEntity
  8
0
 62
     7
370
    35
100
AcDbPolyline
 90
       38
 70
     0
 43
0.0
 10
169.9312062434389
 20
107.1113597704873
 10
169.6664352434389
 20
106.9795237704873
 10
169.3933642434389
 20
106.8659527704873
 10
169.1131522434389
 20
106.7711037704873
 10
168.8272632434389
 20
106.6954507704873
 10
168.5366142434389
 20
106.6392527704873
 10
168.2429122434389
 20
106.6028297704873
 10
167.9472582434389
 20
106.5863507704873
 10
167.6511772434389
 20
106.5898907704873
 10
167.3559502434389
 20
106.6134497704873
 10
167.0629812434389
 20
106.6569227704873
 10
166.773735243439
 20
106.7201087704873
 10
166.4893722434389
 20
106.8027197704873
 10
166.2114792434389
 20
106.9043437704873
 10
165.9410332434389
 20
107.0245827704873
 10
165.679558243439
 20
107.1627507704873
 10
165.4280322434389
 20
107.3183757704873
 10
165.1878592434389
 20
107.4905247704873
 10
164.9598312434389
 20
107.6786357704873
 10
164.7453542434389
 20
107.8815777704873
 10
164.5450362434389
 20
108.0986947704873
 10
164.3601002434389
 20
108.3286907704873
 10
164.1912162434389
 20
108.5707707704873
 10
164.0392382434389
 20
108.8236097704873
 10
163.9047782434389
 20
109.0862437704873
 10
163.7884452434389
 20
109.3572857704873
 10
163.6908492434389
 20
109.6356817704873
 10
163.6124192434389
 20
109.9199537704873
 10
163.5533982434389
 20
110.2089857704873
 10
163.5142142434389
 20
110.5012677704873
 10
163.494988243439
 20
110.7956397704873
 10
163.4957812434389
 20
111.0905467704873
 10
163.5166552434389
 20
111.3848427704873
 10
163.5574272434389
 20
111.6769727704873
 10
163.6179732434389
 20
111.9657447704873
 10
163.6979912434389
 20
112.2496957704873
 10
163.7970512434389
 20
112.5276037704873
 10
163.9506152434389
 20
112.8715067704873
  0
LWPOLYLINE
  5
340
330
1F
100
AcDbEntity
  8
0
 62
   253
370
    13
100
AcDbPolyline
 90
       10
 70
     0
 43
0.0
 10
146.548393243439
 20
398.6052107704874
 10
145.7614672434389
 20
398.4432537704874
 10
144.9690482434389
 20
398.3014997704874
 10
144.2018362434389
 20
398.1850747704873
 10
143.4260792434389
 20
398.0884867704873
 10
142.6715012434389
 20
398.0151527704874
 10
141.910332243439
 20
397.9618997704873
 10
141.163506243439
 20
397.9300087704873
 10
140.4146042434389
 20
397.9182287704873
 10
140.3515552434389
 20
397.9181677704874
  0
LWPOLYLINE
  5
341
330
1F
100
AcDbEntity
  8
0
 62
   253
370
    13
100
AcDbPolyline
 90
        7
 70
     0
 43
0.0
 10
110.3515552434389
 20
397.9181677704874
 10
109.6047292434389
 20
397.9281777704873
 10
108.859734243439
 20
397.9582377704874
 10
107.3814622434389
 20
398.0771337704873
 10
105.8967522434389
 20
398.2751017704874
 10
104.3868332434389
 20
398.5552837704873
 10
104.1546562434389
 20
398.6052407704873
  0
LWPOLYLINE
  5
342
330
1F
100
AcDbEntity
  8
0
 62
   253
370
    35
100
AcDbPolyline
 90
       20
 70
     0
 43
0.0
 10
144.4786302434389
 20
394.4181677704873
 10
145.6523972434389
 20
394.7307287704873
 10
146.8053512434389
 20
395.1201337704873
 10
147.9310232434389
 20
395.5844887704874
 10
148.4818652434389
 20
395.8441627704873
 10
149.0243462434389
 20
396.1220557704874
 10
149.5574272434389
 20
396.4176187704874
 10
150.0807422434389
 20
396.7308207704873
 10
150.5901412434389
 20
397.0590367704873
 10
151.0869072434389
 20
397.4029097704873
 10
151.5682302434389
 20
397.7604527704873
 10
152.0341722434389
 20
398.1315467704874
 10
152.4779592434389
 20
398.5106057704874
 10
152.9016042434389
 20
398.8993687704873
 10
153.2839892434389
 20
399.2775427704874
 10
153.6302422434389
 20
399.6494307704874
 10
153.8966602434389
 20
399.9639747704873
 10
154.0952072434389
 20
400.2269447704873
 10
154.2974172434389
 20
400.5636147704873
 10
154.3564382434389
 20
400.7303627704873
  0
LWPOLYLINE
  5
343
330
1F
100
AcDbEntity
  8
0
 62
   253
370
    35
100
AcDbPolyline
 90
       20
 70
     0
 43
0.0
 10
106.2244802434389
 20
394.4181677704873
 10
105.0507432434389
 20
394.7307287704873
 10
103.8978202434389
 20
395.1201337704873
 10
102.7720262434389
 20
395.5845197704873
 10
102.2212452434389
 20
395.8441627704873
 10
101.6788562434389
 20
396.1219947704874
 10
101.1458052434389
 20
396.4175577704873
 10
100.6226122434389
 20
396.7306677704873
 10
100.1131822434389
 20
397.0588847704874
 10
99.61641724343897
 20
397.4027867704873
 10
99.13515524343896
 20
397.7602087704874
 10
98.66939624343896
 20
398.1311497704874
 10
98.22551724343895
 20
398.5103007704873
 10
97.80178124343898
 20
398.8991247704873
 10
97.41930424343896
 20
399.2773907704874
 10
97.07308224343897
 20
399.6491857704873
 10
96.80638924343895
 20
399.9640667704873
 10
96.60772024343897
 20
400.2272497704873
 10
96.40541924343896
 20
400.5641637704873
 10
96.34667224343896
 20
400.7303627704873
  0
LWPOLYLINE
  5
344
330
1F
100
AcDbEntity
  8
0
 62
   253
370
    35
100
AcDbPolyline
 90
        9
 70
     0
 43
0.0
 10
146.5309372434389
 20
398.6093297704873
 10
148.020134243439
 20
398.9837807704873
 10
148.758110243439
 20
399.2002117704874
 10
149.4898002434389
 20
399.4370277704874
 10
150.143242243439
 20
399.6708837704873
 10
150.7868582434389
 20
399.9305277704873
 10
151.2081222434389
 20
400.1266027704873
 10
151.6127242434389
 20
400.3548137704873
 10
151.7783132434389
 20
400.4738927704872
  0
LWPOLYLINE
  5
345
330
1F
100
AcDbEntity
  8
0
 62
   253
370
    35
100
AcDbPolyline
 90
        7
 70
     0
 43
0.0
 10
98.92479724343896
 20
400.4738927704872
 10
99.19945524343896
 20
400.2871557704873
 10
99.67910024343897
 20
400.0373997704874
 10
100.4270252434389
 20
399.7216347704873
 10
101.5124742434389
 20
399.3373267704874
 10
102.8959582434389
 20
398.9251867704874
 10
104.1722032434389
 20
398.6093297704873
  0
INSERT
  5
346
330
1F
100
AcDbEntity
  8
0
 62
    56
100
AcDbBlockReference
  2
IEC_309_oriz
 10
31.26744665343896
 20
282.9612198804873
 30
0.0
 41
0.9998528799999988
  0
INSERT
  5
347
330
1F
100
AcDbEntity
  8
0
 62
    56
100
AcDbBlockReference
  2
IEC_309_oriz
 10
31.26744665343896
 20
189.9612198804873
 30
0.0
 41
0.9998528799999988
  0
INSERT
  5
348
330
1F
100
AcDbEntity
  8
0
 62
    56
100
AcDbBlockReference
  2
IEC_309_oriz
 10
31.26744665343896
 20
96.96121988048734
 30
0.0
 41
0.9998528799999988
  0
ENDSEC
  0
SECTION
  2
OBJECTS
  0
DICTIONARY
  5
C
330
0
100
AcDbDictionary
281
     1
  3
ACAD_COLOR
350
73
  3
ACAD_GROUP
350
D
  3
ACAD_LAYOUT
350
1A
  3
ACAD_MATERIAL
350
72
  3
ACAD_MLEADERSTYLE
350
D7
  3
ACAD_MLINESTYLE
350
17
  3
ACAD_PLOTSETTINGS
350
19
  3
ACAD_PLOTSTYLENAME
350
E
  3
ACAD_SCALELIST
350
B6
  3
ACAD_TABLESTYLE
350
86
  3
ACAD_VISUALSTYLE
350
99
  3
ACDB_RECOMPOSE_DATA
350
FF
  3
AcDbVariableDictionary
350
66
  3
DWGPROPS
350
385
  0
DICTIONARY
  5
E6
330
10
100
AcDbDictionary
280
     1
281
     1
  3
ADSK_XREC_LAYER_RECONCILED
360
37B
  0
DICTIONARY
  5
37C
330
174
100
AcDbDictionary
280
     1
281
     1
  3
ADSK_XREC_LAYER_RECONCILED
360
37D
  0
DICTIONARY
  5
37E
330
175
100
AcDbDictionary
280
     1
281
     1
  3
ADSK_XREC_LAYER_RECONCILED
360
37F
  0
DICTIONARY
  5
73
102
{ACAD_REACTORS
330
C
102
}
330
C
100
AcDbDictionary
281
     1
  0
DICTIONARY
  5
D
102
{ACAD_REACTORS
330
C
102
}
330
C
100
AcDbDictionary
281
     1
  0
DICTIONARY
  5
1A
102
{ACAD_REACTORS
330
C
102
}
330
C
100
AcDbDictionary
281
     1
  3
Layout1
350
59
  3
Layout2
350
5E
  3
Model
350
22
  0
DICTIONARY
  5
72
102
{ACAD_REACTORS
330
C
102
}
330
C
100
AcDbDictionary
281
     1
  3
ByBlock
350
97
  3
ByLayer
350
96
  3
Global
350
98
  0
DICTIONARY
  5
D7
102
{ACAD_REACTORS
330
C
102
}
330
C
100
AcDbDictionary
281
     1
  3
Annotativa
350
E5
  3
Standard
350
D8
  0
DICTIONARY
  5
17
102
{ACAD_REACTORS
330
C
102
}
330
C
100
AcDbDictionary
281
     1
  3
Standard
350
18
  0
DICTIONARY
  5
19
102
{ACAD_REACTORS
330
C
102
}
330
C
100
AcDbDictionary
281
     1
  0
ACDBDICTIONARYWDFLT
  5
E
102
{ACAD_REACTORS
330
C
102
}
330
C
100
AcDbDictionary
281
     1
  3
Normal
350
F
100
AcDbDictionaryWithDefault
340
F
  0
DICTIONARY
  5
B6
102
{ACAD_REACTORS
330
C
102
}
330
C
100
AcDbDictionary
281
     1
  3
A0
350
B7
  3
A1
350
124
  3
A2
350
125
  3
A3
350
126
  3
A4
350
127
  3
A5
350
128
  3
A6
350
129
  3
A7
350
12A
  3
A8
350
12B
  3
A9
350
12C
  3
B0
350
12D
  3
B1
350
12E
  3
B2
350
12F
  3
B3
350
130
  3
B4
350
131
  3
B5
350
132
  3
B6
350
133
  3
B7
350
134
  3
B8
350
135
  3
B9
350
136
  3
C0
350
137
  3
C1
350
138
  3
C2
350
139
  3
C3
350
13A
  3
C4
350
13B
  3
C5
350
13C
  3
C6
350
13D
  3
C7
350
13E
  3
C8
350
13F
  3
C9
350
140
  3
D0
350
141
  3
D1
350
142
  3
D2
350
143
  0
DICTIONARY
  5
86
102
{ACAD_REACTORS
330
C
102
}
330
C
100
AcDbDictionary
281
     1
  3
Standard
350
87
  0
DICTIONARY
  5
99
102
{ACAD_REACTORS
330
C
102
}
330
C
100
AcDbDictionary
281
     1
  3
2dWireframe
350
9F
  3
3D Hidden
350
A1
  3
3dWireframe
350
A0
  3
Basic
350
9E
  3
Brighten
350
A5
  3
ColorChange
350
A9
  3
Conceptual
350
A2
  3
Dim
350
A4
  3
Facepattern
350
A8
  3
Flat
350
9A
  3
FlatWithEdges
350
9B
  3
Gouraud
350
9C
  3
GouraudWithEdges
350
9D
  3
Linepattern
350
A7
  3
Realistic
350
A3
  3
Thicken
350
A6
  0
XRECORD
  5
FF
102
{ACAD_REACTORS
330
C
102
}
330
C
100
AcDbXrecord
280
     1
 90
        1
330
87
  0
DICTIONARY
  5
66
102
{ACAD_REACTORS
330
C
102
}
330
C
100
AcDbDictionary
281
     1
  3
CANNOSCALE
350
F0
  3
CMLEADERSTYLE
350
EF
  3
CTABLESTYLE
350
89
  3
DIMASSOC
350
67
  3
HIDETEXT
350
6B
  3
INDEXCTL
350
383
  3
LIGHTINGUNITS
350
381
  3
MSLTSCALE
350
380
  3
SORTENTS
350
382
  0
XRECORD
  5
385
102
{ACAD_REACTORS
330
C
102
}
330
C
100
AcDbXrecord
280
     1
  1
DWGPROPS COOKIE
  2

  3

  4

  6

  7

  8
fontanaNZ
  9

300
=
301
=
302
=
303
=
304
=
305
=
306
=
307
=
308
=
309
=
 40
0.0001616087962963
 41
2455511.355871678
 42
2455511.356033287
  1

 90
        0
  0
XRECORD
  5
37B
102
{ACAD_REACTORS
330
E6
102
}
330
E6
100
AcDbXrecord
280
     1
290
     1
  0
XRECORD
  5
37D
102
{ACAD_REACTORS
330
37C
102
}
330
37C
100
AcDbXrecord
280
     1
290
     1
  0
XRECORD
  5
37F
102
{ACAD_REACTORS
330
37E
102
}
330
37E
100
AcDbXrecord
280
     1
290
     1
  0
LAYOUT
  5
59
102
{ACAD_XDICTIONARY
360
388
102
}
102
{ACAD_REACTORS
330
1A
102
}
330
1A
100
AcDbPlotSettings
  1

  2
None
  4

  6

 40
0.0
 41
0.0
 42
0.0
 43
0.0
 44
0.0
 45
0.0
 46
0.0
 47
0.0
 48
0.0
 49
0.0
140
0.0
141
0.0
142
1.0
143
1.0
 70
   688
 72
     0
 73
     0
 74
     5
  7

 75
    16
147
1.0
148
0.0
149
0.0
100
AcDbLayout
  1
Layout1
 70
     1
 71
     1
 10
0.0
 20
0.0
 11
12.0
 21
9.0
 12
0.0
 22
0.0
 32
0.0
 14
0.0
 24
0.0
 34
0.0
 15
0.0
 25
0.0
 35
0.0
146
0.0
 13
0.0
 23
0.0
 33
0.0
 16
1.0
 26
0.0
 36
0.0
 17
0.0
 27
1.0
 37
0.0
 76
     0
330
58
  0
LAYOUT
  5
5E
102
{ACAD_XDICTIONARY
360
38A
102
}
102
{ACAD_REACTORS
330
1A
102
}
330
1A
100
AcDbPlotSettings
  1

  2
None
  4

  6

 40
0.0
 41
0.0
 42
0.0
 43
0.0
 44
0.0
 45
0.0
 46
0.0
 47
0.0
 48
0.0
 49
0.0
140
0.0
141
0.0
142
1.0
143
1.0
 70
   688
 72
     0
 73
     0
 74
     5
  7

 75
    16
147
1.0
148
0.0
149
0.0
100
AcDbLayout
  1
Layout2
 70
     1
 71
     2
 10
0.0
 20
0.0
 11
12.0
 21
9.0
 12
0.0
 22
0.0
 32
0.0
 14
0.0
 24
0.0
 34
0.0
 15
0.0
 25
0.0
 35
0.0
146
0.0
 13
0.0
 23
0.0
 33
0.0
 16
1.0
 26
0.0
 36
0.0
 17
0.0
 27
1.0
 37
0.0
 76
     0
330
5D
  0
LAYOUT
  5
22
102
{ACAD_XDICTIONARY
360
386
102
}
102
{ACAD_REACTORS
330
1A
102
}
330
1A
100
AcDbPlotSettings
  1

  2
none_device
  4
ANSI_A_(8.50_x_11.00_Inches)
  6

 40
6.349999904632568
 41
19.04999923706055
 42
6.350006103515625
 43
19.04998779296875
 44
215.8999938964844
 45
279.3999938964844
 46
0.0
 47
0.0
 48
0.0
 49
0.0
140
0.0
141
0.0
142
1.0
143
2.584895464708373
 70
 11952
 72
     0
 73
     1
 74
     0
  7

 75
     0
147
0.3868628397755418
148
0.0
149
0.0
100
AcDbLayout
  1
Model
 70
     1
 71
     0
 10
0.0
 20
0.0
 11
12.0
 21
9.0
 12
0.0
 22
0.0
 32
0.0
 14
0.0
 24
0.0
 34
0.0
 15
0.0
 25
0.0
 35
0.0
146
0.0
 13
0.0
 23
0.0
 33
0.0
 16
1.0
 26
0.0
 36
0.0
 17
0.0
 27
1.0
 37
0.0
 76
     0
330
1F
331
94
  0
MATERIAL
  5
97
102
{ACAD_XDICTIONARY
360
38F
102
}
102
{ACAD_REACTORS
330
72
102
}
330
72
100
AcDbMaterial
  1
ByBlock
  0
MATERIAL
  5
96
102
{ACAD_XDICTIONARY
360
38D
102
}
102
{ACAD_REACTORS
330
72
102
}
330
72
100
AcDbMaterial
  1
ByLayer
  0
MATERIAL
  5
98
102
{ACAD_XDICTIONARY
360
110
102
}
102
{ACAD_REACTORS
330
72
102
}
330
72
100
AcDbMaterial
  1
Global
 43
0.0208000000566244
 43
0.0
 43
0.0
 43
0.0
 43
0.0
 43
0.0208000000566244
 43
0.0
 43
0.0
 43
0.0
 43
0.0
 43
1.0
 43
0.0
 43
0.0
 43
0.0
 43
0.0
 43
1.0
 49
0.0208000000566244
 49
0.0
 49
0.0
 49
0.0
 49
0.0
 49
0.0208000000566244
 49
0.0
 49
0.0
 49
0.0
 49
0.0
 49
1.0
 49
0.0
 49
0.0
 49
0.0
 49
0.0
 49
1.0
142
0.0208000000566244
142
0.0
142
0.0
142
0.0
142
0.0
142
0.0208000000566244
142
0.0
142
0.0
142
0.0
142
0.0
142
1.0
142
0.0
142
0.0
142
0.0
142
0.0
142
1.0
144
0.0208000000566244
144
0.0
144
0.0
144
0.0
144
0.0
144
0.0208000000566244
144
0.0
144
0.0
144
0.0
144
0.0
144
1.0
144
0.0
144
0.0
144
0.0
144
0.0
144
1.0
1001
ACAD
1070
    -1
1070
     3
1070
     0
1000

1071
        0
1070
     0
  0
MLEADERSTYLE
  5
E5
102
{ACAD_REACTORS
330
D7
102
}
330
D7
100
AcDbMLeaderStyle
170
     2
171
     1
172
     0
 90
        2
 40
0.0
 41
0.0
173
     1
 91
-1056964608
340
14
 92
       -2
290
     1
 42
0.09
291
     1
 43
0.36
  3
Standard
 44
0.18
300

342
11
174
     1
178
     1
175
     1
176
     0
 93
-1056964608
 45
0.18
292
     0
297
     0
 46
0.18
 94
-1056964608
 47
1.0
 49
1.0
140
1.0
293
     1
141
0.0
294
     1
177
     0
142
1.0
295
     0
296
     1
143
0.125
1001
ACAD_MLEADERVER
1070
     2
  0
MLEADERSTYLE
  5
D8
102
{ACAD_REACTORS
330
D7
102
}
330
D7
100
AcDbMLeaderStyle
170
     2
171
     1
172
     0
 90
        2
 40
0.0
 41
0.0
173
     1
 91
-1056964608
340
14
 92
       -2
290
     1
 42
0.09
291
     1
 43
0.36
  3
Standard
 44
0.18
300

342
11
174
     1
178
     1
175
     1
176
     0
 93
-1056964608
 45
0.18
292
     0
297
     0
 46
0.18
 94
-1056964608
 47
1.0
 49
1.0
140
1.0
293
     1
141
0.0
294
     1
177
     0
142
1.0
295
     0
296
     0
143
0.125
1001
ACAD_MLEADERVER
1070
     2
  0
MLINESTYLE
  5
18
102
{ACAD_REACTORS
330
17
102
}
330
17
100
AcDbMlineStyle
  2
STANDARD
 70
     0
  3

 62
   256
 51
90.0
 52
90.0
 71
     2
 49
0.5
 62
   256
  6
BYLAYER
 49
-0.5
 62
   256
  6
BYLAYER
  0
ACDBPLACEHOLDER
  5
F
102
{ACAD_REACTORS
330
E
102
}
330
E
  0
SCALE
  5
B7
102
{ACAD_REACTORS
330
B6
102
}
330
B6
100
AcDbScale
 70
     0
300
1:1
140
1.0
141
1.0
290
     1
  0
SCALE
  5
124
102
{ACAD_REACTORS
330
B6
102
}
330
B6
100
AcDbScale
 70
     0
300
1:2
140
1.0
141
2.0
290
     0
  0
SCALE
  5
125
102
{ACAD_REACTORS
330
B6
102
}
330
B6
100
AcDbScale
 70
     0
300
1:4
140
1.0
141
4.0
290
     0
  0
SCALE
  5
126
102
{ACAD_REACTORS
330
B6
102
}
330
B6
100
AcDbScale
 70
     0
300
1:5
140
1.0
141
5.0
290
     0
  0
SCALE
  5
127
102
{ACAD_REACTORS
330
B6
102
}
330
B6
100
AcDbScale
 70
     0
300
1:8
140
1.0
141
8.0
290
     0
  0
SCALE
  5
128
102
{ACAD_REACTORS
330
B6
102
}
330
B6
100
AcDbScale
 70
     0
300
1:10
140
1.0
141
10.0
290
     0
  0
SCALE
  5
129
102
{ACAD_REACTORS
330
B6
102
}
330
B6
100
AcDbScale
 70
     0
300
1:16
140
1.0
141
16.0
290
     0
  0
SCALE
  5
12A
102
{ACAD_REACTORS
330
B6
102
}
330
B6
100
AcDbScale
 70
     0
300
1:20
140
1.0
141
20.0
290
     0
  0
SCALE
  5
12B
102
{ACAD_REACTORS
330
B6
102
}
330
B6
100
AcDbScale
 70
     0
300
1:30
140
1.0
141
30.0
290
     0
  0
SCALE
  5
12C
102
{ACAD_REACTORS
330
B6
102
}
330
B6
100
AcDbScale
 70
     0
300
1:40
140
1.0
141
40.0
290
     0
  0
SCALE
  5
12D
102
{ACAD_REACTORS
330
B6
102
}
330
B6
100
AcDbScale
 70
     0
300
1:50
140
1.0
141
50.0
290
     0
  0
SCALE
  5
12E
102
{ACAD_REACTORS
330
B6
102
}
330
B6
100
AcDbScale
 70
     0
300
1:100
140
1.0
141
100.0
290
     0
  0
SCALE
  5
12F
102
{ACAD_REACTORS
330
B6
102
}
330
B6
100
AcDbScale
 70
     0
300
2:1
140
2.0
141
1.0
290
     0
  0
SCALE
  5
130
102
{ACAD_REACTORS
330
B6
102
}
330
B6
100
AcDbScale
 70
     0
300
4:1
140
4.0
141
1.0
290
     0
  0
SCALE
  5
131
102
{ACAD_REACTORS
330
B6
102
}
330
B6
100
AcDbScale
 70
     0
300
8:1
140
8.0
141
1.0
290
     0
  0
SCALE
  5
132
102
{ACAD_REACTORS
330
B6
102
}
330
B6
100
AcDbScale
 70
     0
300
10:1
140
10.0
141
1.0
290
     0
  0
SCALE
  5
133
102
{ACAD_REACTORS
330
B6
102
}
330
B6
100
AcDbScale
 70
     0
300
100:1
140
100.0
141
1.0
290
     0
  0
SCALE
  5
134
102
{ACAD_REACTORS
330
B6
102
}
330
B6
100
AcDbScale
 70
     0
300
1/128" = 1'-0"
140
0.0078125
141
12.0
290
     0
  0
SCALE
  5
135
102
{ACAD_REACTORS
330
B6
102
}
330
B6
100
AcDbScale
 70
     0
300
1/64" = 1'-0"
140
0.015625
141
12.0
290
     0
  0
SCALE
  5
136
102
{ACAD_REACTORS
330
B6
102
}
330
B6
100
AcDbScale
 70
     0
300
1/32" = 1'-0"
140
0.03125
141
12.0
290
     0
  0
SCALE
  5
137
102
{ACAD_REACTORS
330
B6
102
}
330
B6
100
AcDbScale
 70
     0
300
1/16" = 1'-0"
140
0.0625
141
12.0
290
     0
  0
SCALE
  5
138
102
{ACAD_REACTORS
330
B6
102
}
330
B6
100
AcDbScale
 70
     0
300
3/32" = 1'-0"
140
0.09375
141
12.0
290
     0
  0
SCALE
  5
139
102
{ACAD_REACTORS
330
B6
102
}
330
B6
100
AcDbScale
 70
     0
300
1/8" = 1'-0"
140
0.125
141
12.0
290
     0
  0
SCALE
  5
13A
102
{ACAD_REACTORS
330
B6
102
}
330
B6
100
AcDbScale
 70
     0
300
3/16" = 1'-0"
140
0.1875
141
12.0
290
     0
  0
SCALE
  5
13B
102
{ACAD_REACTORS
330
B6
102
}
330
B6
100
AcDbScale
 70
     0
300
1/4" = 1'-0"
140
0.25
141
12.0
290
     0
  0
SCALE
  5
13C
102
{ACAD_REACTORS
330
B6
102
}
330
B6
100
AcDbScale
 70
     0
300
3/8" = 1'-0"
140
0.375
141
12.0
290
     0
  0
SCALE
  5
13D
102
{ACAD_REACTORS
330
B6
102
}
330
B6
100
AcDbScale
 70
     0
300
1/2" = 1'-0"
140
0.5
141
12.0
290
     0
  0
SCALE
  5
13E
102
{ACAD_REACTORS
330
B6
102
}
330
B6
100
AcDbScale
 70
     0
300
3/4" = 1'-0"
140
0.75
141
12.0
290
     0
  0
SCALE
  5
13F
102
{ACAD_REACTORS
330
B6
102
}
330
B6
100
AcDbScale
 70
     0
300
1" = 1'-0"
140
1.0
141
12.0
290
     0
  0
SCALE
  5
140
102
{ACAD_REACTORS
330
B6
102
}
330
B6
100
AcDbScale
 70
     0
300
1-1/2" = 1'-0"
140
1.5
141
12.0
290
     0
  0
SCALE
  5
141
102
{ACAD_REACTORS
330
B6
102
}
330
B6
100
AcDbScale
 70
     0
300
3" = 1'-0"
140
3.0
141
12.0
290
     0
  0
SCALE
  5
142
102
{ACAD_REACTORS
330
B6
102
}
330
B6
100
AcDbScale
 70
     0
300
6" = 1'-0"
140
6.0
141
12.0
290
     0
  0
SCALE
  5
143
102
{ACAD_REACTORS
330
B6
102
}
330
B6
100
AcDbScale
 70
     0
300
1'-0" = 1'-0"
140
12.0
141
12.0
290
     0
  0
TABLESTYLE
  5
87
102
{ACAD_XDICTIONARY
360
104
102
}
102
{ACAD_REACTORS
330
86
102
}
330
86
100
AcDbTableStyle
  3
Standard
 70
     0
 71
     0
 40
0.06
 41
0.06
280
     0
281
     0
  7
Standard
140
0.18
170
     2
 62
     0
 63
     7
283
     0
274
    -2
284
     1
 64
     0
275
    -2
285
     1
 65
     0
276
    -2
286
     1
 66
     0
277
    -2
287
     1
 67
     0
278
    -2
288
     1
 68
     0
279
    -2
289
     1
 69
     0
  7
Standard
140
0.25
170
     5
 62
     0
 63
     7
283
     0
274
    -2
284
     1
 64
     0
275
    -2
285
     1
 65
     0
276
    -2
286
     1
 66
     0
277
    -2
287
     1
 67
     0
278
    -2
288
     1
 68
     0
279
    -2
289
     1
 69
     0
  7
Standard
140
0.18
170
     5
 62
     0
 63
     7
283
     0
274
    -2
284
     1
 64
     0
275
    -2
285
     1
 65
     0
276
    -2
286
     1
 66
     0
277
    -2
287
     1
 67
     0
278
    -2
288
     1
 68
     0
279
    -2
289
     1
 69
     0
  0
VISUALSTYLE
  5
9F
102
{ACAD_REACTORS
330
99
102
}
330
99
100
AcDbVisualStyle
  2
2dWireframe
 70
     4
 71
     0
 72
     2
 73
     1
 90
        0
 40
-0.6
 41
-30.0
 62
     5
 63
     7
 74
     1
 91
        4
 64
     7
 65
   257
 75
     1
175
     1
 42
1.0
 92
        0
 66
   257
 43
1.0
 76
     1
 77
     6
 78
     2
 67
     7
 79
     5
170
     0
171
     0
290
     0
174
     0
 93
        1
 44
0.0
173
     0
291
     0
 45
0.0
1001
ACAD
1000
AcDbSavedByObjectVersion
1070
     0
  0
VISUALSTYLE
  5
A1
102
{ACAD_REACTORS
330
99
102
}
330
99
100
AcDbVisualStyle
  2
3D Hidden
 70
     6
 71
     1
 72
     2
 73
     2
 90
        0
 40
-0.6
 41
-30.0
 62
     5
 63
     7
 74
     2
 91
        2
 64
     7
 65
   257
 75
     2
175
     1
 42
40.0
 92
        0
 66
   257
 43
1.0
 76
     1
 77
     6
 78
     2
 67
     7
 79
     3
170
     0
171
     0
290
     0
174
     0
 93
        1
 44
0.0
173
     0
291
     0
 45
0.0
1001
ACAD
1000
AcDbSavedByObjectVersion
1070
     0
  0
VISUALSTYLE
  5
A0
102
{ACAD_REACTORS
330
99
102
}
330
99
100
AcDbVisualStyle
  2
3dWireframe
 70
     5
 71
     0
 72
     2
 73
     1
 90
        0
 40
-0.6
 41
-30.0
 62
     5
 63
     7
 74
     1
 91
        4
 64
     7
 65
   257
 75
     1
175
     1
 42
1.0
 92
        0
 66
   257
 43
1.0
 76
     1
 77
     6
 78
     2
 67
     7
 79
     5
170
     0
171
     0
290
     0
174
     0
 93
        1
 44
0.0
173
     0
291
     0
 45
0.0
1001
ACAD
1000
AcDbSavedByObjectVersion
1070
     0
  0
VISUALSTYLE
  5
9E
102
{ACAD_REACTORS
330
99
102
}
330
99
100
AcDbVisualStyle
  2
Basic
 70
     7
 71
     1
 72
     0
 73
     1
 90
        0
 40
-0.6
 41
-30.0
 62
     5
 63
     7
 74
     0
 91
        4
 64
     7
 65
   257
 75
     1
175
     1
 42
1.0
 92
        8
 66
     7
 43
1.0
 76
     1
 77
     6
 78
     2
 67
     7
 79
     5
170
     0
171
     0
290
     0
174
     0
 93
        1
 44
0.0
173
     0
291
     1
 45
0.0
1001
ACAD
1000
AcDbSavedByObjectVersion
1070
     0
  0
VISUALSTYLE
  5
A5
102
{ACAD_REACTORS
330
99
102
}
330
99
100
AcDbVisualStyle
  2
Brighten
 70
    12
 71
     2
 72
     2
 73
     1
 90
        0
 40
-0.6
 41
-30.0
 62
     5
 63
     7
 74
     1
 91
        4
 64
     7
 65
   257
 75
     1
175
     1
 42
1.0
 92
        8
 66
     7
 43
1.0
 76
     1
 77
     6
 78
     2
 67
     7
 79
     5
170
     0
171
     0
290
     0
174
     0
 93
        1
 44
50.0
173
     0
291
     1
 45
0.0
1001
ACAD
1000
AcDbSavedByObjectVersion
1070
     0
  0
VISUALSTYLE
  5
A9
102
{ACAD_REACTORS
330
99
102
}
330
99
100
AcDbVisualStyle
  2
ColorChange
 70
    16
 71
     2
 72
     2
 73
     3
 90
        0
 40
-0.6
 41
-30.0
 62
     5
 63
     8
 74
     1
 91
        4
 64
     7
 65
   257
 75
     1
175
     1
 42
1.0
 92
        8
 66
     8
 43
1.0
 76
     1
 77
     6
 78
     2
 67
     7
 79
     5
170
     0
171
     0
290
     0
174
     0
 93
        1
 44
0.0
173
     0
291
     1
 45
0.0
1001
ACAD
1000
AcDbSavedByObjectVersion
1070
     0
  0
VISUALSTYLE
  5
A2
102
{ACAD_REACTORS
330
99
102
}
330
99
100
AcDbVisualStyle
  2
Conceptual
 70
     9
 71
     3
 72
     2
 73
     1
 90
        0
 40
-0.6
 41
-30.0
 62
     5
 63
     7
 74
     2
 91
        2
 64
     7
 65
   257
 75
     1
175
     1
 42
40.0
 92
        8
 66
     7
 43
1.0
 76
     1
 77
     6
 78
     2
 67
     7
 79
     3
170
     0
171
     0
290
     0
174
     0
 93
        1
 44
0.0
173
     0
291
     0
 45
0.0
1001
ACAD
1000
AcDbSavedByObjectVersion
1070
     0
  0
VISUALSTYLE
  5
A4
102
{ACAD_REACTORS
330
99
102
}
330
99
100
AcDbVisualStyle
  2
Dim
 70
    11
 71
     2
 72
     2
 73
     1
 90
        0
 40
-0.6
 41
-30.0
 62
     5
 63
     7
 74
     1
 91
        4
 64
     7
 65
   257
 75
     1
175
     1
 42
1.0
 92
        8
 66
     7
 43
1.0
 76
     1
 77
     6
 78
     2
 67
     7
 79
     5
170
     0
171
     0
290
     0
174
     0
 93
        1
 44
-50.0
173
     0
291
     1
 45
0.0
1001
ACAD
1000
AcDbSavedByObjectVersion
1070
     0
  0
VISUALSTYLE
  5
A8
102
{ACAD_REACTORS
330
99
102
}
330
99
100
AcDbVisualStyle
  2
Facepattern
 70
    15
 71
     2
 72
     2
 73
     1
 90
        0
 40
-0.6
 41
-30.0
 62
     5
 63
     7
 74
     1
 91
        4
 64
     7
 65
   257
 75
     1
175
     1
 42
1.0
 92
        8
 66
     7
 43
1.0
 76
     1
 77
     6
 78
     2
 67
     7
 79
     5
170
     0
171
     0
290
     0
174
     0
 93
        1
 44
0.0
173
     0
291
     1
 45
0.0
1001
ACAD
1000
AcDbSavedByObjectVersion
1070
     0
  0
VISUALSTYLE
  5
9A
102
{ACAD_REACTORS
330
99
102
}
330
99
100
AcDbVisualStyle
  2
Flat
 70
     0
 71
     2
 72
     1
 73
     1
 90
        2
 40
-0.6
 41
30.0
 62
     5
 63
     7
 74
     0
 91
        4
 64
     7
 65
   257
 75
     1
175
     1
 42
1.0
 92
        8
 66
     7
 43
1.0
 76
     1
 77
     6
 78
     2
 67
     7
 79
     5
170
     0
171
     0
290
     0
174
     0
 93
        1
 44
0.0
173
     0
291
     1
 45
0.0
1001
ACAD
1000
AcDbSavedByObjectVersion
1070
     0
  0
VISUALSTYLE
  5
9B
102
{ACAD_REACTORS
330
99
102
}
330
99
100
AcDbVisualStyle
  2
FlatWithEdges
 70
     1
 71
     2
 72
     1
 73
     1
 90
        2
 40
-0.6
 41
30.0
 62
     5
 63
     7
 74
     1
 91
        4
 64
     7
 65
   257
 75
     1
175
     1
 42
1.0
 92
        0
 66
   257
 43
1.0
 76
     1
 77
     6
 78
     2
 67
     7
 79
     5
170
     0
171
     0
290
     0
174
     0
 93
        1
 44
0.0
173
     0
291
     1
 45
0.0
1001
ACAD
1000
AcDbSavedByObjectVersion
1070
     0
  0
VISUALSTYLE
  5
9C
102
{ACAD_REACTORS
330
99
102
}
330
99
100
AcDbVisualStyle
  2
Gouraud
 70
     2
 71
     2
 72
     2
 73
     1
 90
        2
 40
-0.6
 41
30.0
 62
     5
 63
     7
 74
     0
 91
        4
 64
     7
 65
   257
 75
     1
175
     1
 42
1.0
 92
        0
 66
     7
 43
1.0
 76
     1
 77
     6
 78
     2
 67
     7
 79
     5
170
     0
171
     0
290
     0
174
     0
 93
        1
 44
0.0
173
     0
291
     1
 45
0.0
1001
ACAD
1000
AcDbSavedByObjectVersion
1070
     0
  0
VISUALSTYLE
  5
9D
102
{ACAD_REACTORS
330
99
102
}
330
99
100
AcDbVisualStyle
  2
GouraudWithEdges
 70
     3
 71
     2
 72
     2
 73
     1
 90
        2
 40
-0.6
 41
30.0
 62
     5
 63
     7
 74
     1
 91
        4
 64
     7
 65
   257
 75
     1
175
     1
 42
1.0
 92
        0
 66
   257
 43
1.0
 76
     1
 77
     6
 78
     2
 67
     7
 79
     5
170
     0
171
     0
290
     0
174
     0
 93
        1
 44
0.0
173
     0
291
     1
 45
0.0
1001
ACAD
1000
AcDbSavedByObjectVersion
1070
     0
  0
VISUALSTYLE
  5
A7
102
{ACAD_REACTORS
330
99
102
}
330
99
100
AcDbVisualStyle
  2
Linepattern
 70
    14
 71
     2
 72
     2
 73
     1
 90
        0
 40
-0.6
 41
-30.0
 62
     5
 63
     7
 74
     1
 91
        4
 64
     7
 65
   257
 75
     7
175
     7
 42
1.0
 92
        8
 66
     7
 43
1.0
 76
     1
 77
     6
 78
     2
 67
     7
 79
     5
170
     0
171
     0
290
     0
174
     0
 93
        1
 44
0.0
173
     0
291
     1
 45
0.0
1001
ACAD
1000
AcDbSavedByObjectVersion
1070
     0
  0
VISUALSTYLE
  5
A3
102
{ACAD_REACTORS
330
99
102
}
330
99
100
AcDbVisualStyle
  2
Realistic
 70
     8
 71
     2
 72
     2
 73
     1
 90
        0
 40
-0.6
 41
-30.0
 62
     5
 63
     7
 74
     1
 91
        0
 64
     7
 65
   257
 75
     1
175
     1
 42
1.0
 92
        8
 66
     8
 43
1.0
 76
     1
 77
     6
 78
     2
 67
     7
 79
     5
170
     0
171
     0
290
     0
174
     0
 93
       13
 44
0.0
173
     0
291
     0
 45
0.0
1001
ACAD
1000
AcDbSavedByObjectVersion
1070
     0
  0
VISUALSTYLE
  5
A6
102
{ACAD_REACTORS
330
99
102
}
330
99
100
AcDbVisualStyle
  2
Thicken
 70
    13
 71
     2
 72
     2
 73
     1
 90
        0
 40
-0.6
 41
-30.0
 62
     5
 63
     7
 74
     1
 91
        4
 64
     7
 65
   257
 75
     1
175
     1
 42
1.0
 92
       12
 66
     7
 43
1.0
 76
     1
 77
     6
 78
     2
 67
     7
 79
     5
170
     0
171
     0
290
     0
174
     0
 93
        1
 44
0.0
173
     0
291
     1
 45
0.0
1001
ACAD
1000
AcDbSavedByObjectVersion
1070
     0
  0
DICTIONARYVAR
  5
F0
102
{ACAD_REACTORS
330
66
102
}
330
66
100
DictionaryVariables
280
     0
  1
1:1
  0
DICTIONARYVAR
  5
EF
102
{ACAD_REACTORS
330
66
102
}
330
66
100
DictionaryVariables
280
     0
  1
STANDARD
  0
DICTIONARYVAR
  5
89
102
{ACAD_REACTORS
330
66
102
}
330
66
100
DictionaryVariables
280
     0
  1
STANDARD
  0
DICTIONARYVAR
  5
67
102
{ACAD_REACTORS
330
66
102
}
330
66
100
DictionaryVariables
280
     0
  1
2
  0
DICTIONARYVAR
  5
6B
102
{ACAD_REACTORS
330
66
102
}
330
66
100
DictionaryVariables
280
     0
  1
1
  0
DICTIONARYVAR
  5
383
102
{ACAD_REACTORS
330
66
102
}
330
66
100
DictionaryVariables
280
     0
  1
0
  0
DICTIONARYVAR
  5
381
102
{ACAD_REACTORS
330
66
102
}
330
66
100
DictionaryVariables
280
     0
  1
2
  0
DICTIONARYVAR
  5
380
102
{ACAD_REACTORS
330
66
102
}
330
66
100
DictionaryVariables
280
     0
  1
1
  0
DICTIONARYVAR
  5
382
102
{ACAD_REACTORS
330
66
102
}
330
66
100
DictionaryVariables
280
     0
  1
127
  0
DICTIONARY
  5
388
330
59
100
AcDbDictionary
280
     1
281
     1
  3
ACAD_XREC_ROUNDTRIP
360
389
  0
DICTIONARY
  5
38A
330
5E
100
AcDbDictionary
280
     1
281
     1
  3
ACAD_XREC_ROUNDTRIP
360
38B
  0
DICTIONARY
  5
386
330
22
100
AcDbDictionary
280
     1
281
     1
  3
ACAD_XREC_ROUNDTRIP
360
387
  0
DICTIONARY
  5
38F
330
97
100
AcDbDictionary
280
     1
281
     1
  3
ACAD_XREC_ROUNDTRIP
360
390
  0
DICTIONARY
  5
38D
330
96
100
AcDbDictionary
280
     1
281
     1
  3
ACAD_XREC_ROUNDTRIP
360
38E
  0
DICTIONARY
  5
110
330
98
100
AcDbDictionary
280
     1
281
     1
  3
ACAD_XREC_ROUNDTRIP
360
391
  3
BUMPTILE
360
112
  3
DIFFUSETILE
360
111
  3
OPACITYTILE
360
113
  3
REFLECTIONTILE
360
114
  0
DICTIONARY
  5
104
330
87
100
AcDbDictionary
280
     1
281
     1
  3
ACAD_ROUNDTRIP_2008_TABLESTYLE_CELLSTYLEMAP
360
384
  3
ACAD_XREC_ROUNDTRIP
360
38C
  0
XRECORD
  5
389
102
{ACAD_REACTORS
330
388
102
}
330
388
100
AcDbXrecord
280
     1
102
SHADEPLOT
 70
     0
102
SHADEPLOTRESLEVEL
 70
     2
102
SHADEPLOTCUSTOMDPI
 70
   300
  0
XRECORD
  5
38B
102
{ACAD_REACTORS
330
38A
102
}
330
38A
100
AcDbXrecord
280
     1
102
SHADEPLOT
 70
     0
102
SHADEPLOTRESLEVEL
 70
     2
102
SHADEPLOTCUSTOMDPI
 70
   300
  0
XRECORD
  5
387
102
{ACAD_REACTORS
330
386
102
}
330
386
100
AcDbXrecord
280
     1
102
SHADEPLOT
 70
     0
102
SHADEPLOTRESLEVEL
 70
     2
102
SHADEPLOTCUSTOMDPI
 70
   300
  0
XRECORD
  5
390
102
{ACAD_REACTORS
330
38F
102
}
330
38F
100
AcDbXrecord
280
     1
102
MATERIAL
148
0.0
149
0.0
149
0.0
 93
        0
 94
       63
282
     0
 72
     1
 77
     1
171
     1
175
     1
179
     1
273
     0
  0
XRECORD
  5
38E
102
{ACAD_REACTORS
330
38D
102
}
330
38D
100
AcDbXrecord
280
     1
102
MATERIAL
148
0.0
149
0.0
149
0.0
 93
        0
 94
       63
282
     0
 72
     1
 77
     1
171
     1
175
     1
179
     1
273
     0
  0
XRECORD
  5
391
102
{ACAD_REACTORS
330
110
102
}
330
110
100
AcDbXrecord
280
     1
102
MATERIAL
148
0.0
149
0.0
149
0.0
 93
        0
 94
       63
282
     0
 72
     1
 77
     1
171
     1
175
     1
179
     1
273
     0
  0
XRECORD
  5
112
102
{ACAD_REACTORS
330
110
102
}
330
110
100
AcDbXrecord
280
     1
270
     1
271
     1
  0
XRECORD
  5
111
102
{ACAD_REACTORS
330
110
102
}
330
110
100
AcDbXrecord
280
     1
270
     1
271
     1
  0
XRECORD
  5
113
102
{ACAD_REACTORS
330
110
102
}
330
110
100
AcDbXrecord
280
     1
270
     1
271
     1
  0
XRECORD
  5
114
102
{ACAD_REACTORS
330
110
102
}
330
110
100
AcDbXrecord
280
     1
270
     1
271
     1
  0
CELLSTYLEMAP
  5
384
102
{ACAD_REACTORS
330
104
102
}
330
104
100
AcDbCellStyleMap
 90
        3
300
CELLSTYLE
  1
TABLEFORMAT_BEGIN
 90
        5
170
     1
 91
        0
 92
    32768
 62
   257
 93
        1
300
CONTENTFORMAT
  1
CONTENTFORMAT_BEGIN
 90
        0
 91
        0
 92
      512
 93
        0
300

 40
0.0
140
1.0
 94
        5
 62
     0
340
11
144
0.25
309
CONTENTFORMAT_END
171
     1
301
MARGIN
  1
CELLMARGIN_BEGIN
 40
0.06
 40
0.06
 40
0.06
 40
0.06
 40
0.18
 40
0.18
309
CELLMARGIN_END
 94
        6
 95
        1
302
GRIDFORMAT
  1
GRIDFORMAT_BEGIN
 90
        0
 91
        1
 62
     0
 92
       -2
340
0
 93
        0
 40
0.045
309
GRIDFORMAT_END
 95
        2
302
GRIDFORMAT
  1
GRIDFORMAT_BEGIN
 90
        0
 91
        1
 62
     0
 92
       -2
340
0
 93
        0
 40
0.045
309
GRIDFORMAT_END
 95
        4
302
GRIDFORMAT
  1
GRIDFORMAT_BEGIN
 90
        0
 91
        1
 62
     0
 92
       -2
340
0
 93
        0
 40
0.045
309
GRIDFORMAT_END
 95
        8
302
GRIDFORMAT
  1
GRIDFORMAT_BEGIN
 90
        0
 91
        1
 62
     0
 92
       -2
340
0
 93
        0
 40
0.045
309
GRIDFORMAT_END
 95
       16
302
GRIDFORMAT
  1
GRIDFORMAT_BEGIN
 90
        0
 91
        1
 62
     0
 92
       -2
340
0
 93
        0
 40
0.045
309
GRIDFORMAT_END
 95
       32
302
GRIDFORMAT
  1
GRIDFORMAT_BEGIN
 90
        0
 91
        1
 62
     0
 92
       -2
340
0
 93
        0
 40
0.045
309
GRIDFORMAT_END
309
TABLEFORMAT_END
  1
CELLSTYLE_BEGIN
 90
        1
 91
        1
300
_TITLE
309
CELLSTYLE_END
300
CELLSTYLE
  1
TABLEFORMAT_BEGIN
 90
        5
170
     1
 91
        0
 92
        0
 62
   257
 93
        1
300
CONTENTFORMAT
  1
CONTENTFORMAT_BEGIN
 90
        0
 91
        0
 92
      512
 93
        0
300

 40
0.0
140
1.0
 94
        5
 62
     0
340
11
144
0.18
309
CONTENTFORMAT_END
171
     1
301
MARGIN
  1
CELLMARGIN_BEGIN
 40
0.06
 40
0.06
 40
0.06
 40
0.06
 40
0.18
 40
0.18
309
CELLMARGIN_END
 94
        6
 95
        1
302
GRIDFORMAT
  1
GRIDFORMAT_BEGIN
 90
        0
 91
        1
 62
     0
 92
       -2
340
0
 93
        0
 40
0.045
309
GRIDFORMAT_END
 95
        2
302
GRIDFORMAT
  1
GRIDFORMAT_BEGIN
 90
        0
 91
        1
 62
     0
 92
       -2
340
0
 93
        0
 40
0.045
309
GRIDFORMAT_END
 95
        4
302
GRIDFORMAT
  1
GRIDFORMAT_BEGIN
 90
        0
 91
        1
 62
     0
 92
       -2
340
0
 93
        0
 40
0.045
309
GRIDFORMAT_END
 95
        8
302
GRIDFORMAT
  1
GRIDFORMAT_BEGIN
 90
        0
 91
        1
 62
     0
 92
       -2
340
0
 93
        0
 40
0.045
309
GRIDFORMAT_END
 95
       16
302
GRIDFORMAT
  1
GRIDFORMAT_BEGIN
 90
        0
 91
        1
 62
     0
 92
       -2
340
0
 93
        0
 40
0.045
309
GRIDFORMAT_END
 95
       32
302
GRIDFORMAT
  1
GRIDFORMAT_BEGIN
 90
        0
 91
        1
 62
     0
 92
       -2
340
0
 93
        0
 40
0.045
309
GRIDFORMAT_END
309
TABLEFORMAT_END
  1
CELLSTYLE_BEGIN
 90
        2
 91
        1
300
_HEADER
309
CELLSTYLE_END
300
CELLSTYLE
  1
TABLEFORMAT_BEGIN
 90
        5
170
     1
 91
        0
 92
        0
 62
   257
 93
        1
300
CONTENTFORMAT
  1
CONTENTFORMAT_BEGIN
 90
        0
 91
        0
 92
      512
 93
        0
300

 40
0.0
140
1.0
 94
        2
 62
     0
340
11
144
0.18
309
CONTENTFORMAT_END
171
     1
301
MARGIN
  1
CELLMARGIN_BEGIN
 40
0.06
 40
0.06
 40
0.06
 40
0.06
 40
0.18
 40
0.18
309
CELLMARGIN_END
 94
        6
 95
        1
302
GRIDFORMAT
  1
GRIDFORMAT_BEGIN
 90
        0
 91
        1
 62
     0
 92
       -2
340
0
 93
        0
 40
0.045
309
GRIDFORMAT_END
 95
        2
302
GRIDFORMAT
  1
GRIDFORMAT_BEGIN
 90
        0
 91
        1
 62
     0
 92
       -2
340
0
 93
        0
 40
0.045
309
GRIDFORMAT_END
 95
        4
302
GRIDFORMAT
  1
GRIDFORMAT_BEGIN
 90
        0
 91
        1
 62
     0
 92
       -2
340
0
 93
        0
 40
0.045
309
GRIDFORMAT_END
 95
        8
302
GRIDFORMAT
  1
GRIDFORMAT_BEGIN
 90
        0
 91
        1
 62
     0
 92
       -2
340
0
 93
        0
 40
0.045
309
GRIDFORMAT_END
 95
       16
302
GRIDFORMAT
  1
GRIDFORMAT_BEGIN
 90
        0
 91
        1
 62
     0
 92
       -2
340
0
 93
        0
 40
0.045
309
GRIDFORMAT_END
 95
       32
302
GRIDFORMAT
  1
GRIDFORMAT_BEGIN
 90
        0
 91
        1
 62
     0
 92
       -2
340
0
 93
        0
 40
0.045
309
GRIDFORMAT_END
309
TABLEFORMAT_END
  1
CELLSTYLE_BEGIN
 90
        3
 91
        2
300
_DATA
309
CELLSTYLE_END
  0
XRECORD
  5
38C
102
{ACAD_REACTORS
330
104
102
}
330
104
100
AcDbXrecord
280
     1
102
ACAD_ROUNDTRIP_PRE2007_TABLESTYLE
 90
      512
 91
        0
  1

 92
      512
 93
        0
  2

 94
      512
 95
        0
  3

  0
ENDSEC
  0
EOF
