  0
SECTION
  2
HEADER
  9
$ACADVER
  1
AC1015
  9
$ACADMAINTVER
 70
    20
  9
$DWGCODEPAGE
  3
ANSI_1252
  9
$INSBASE
 10
0.0
 20
0.0
 30
0.0
  9
$EXTMIN
 10
-341.7175223681866
 20
-53.60215411688314
 30
0.0
  9
$EXTMAX
 10
142.0624848850112
 20
295.3876884214459
 30
0.0000000000000055
  9
$LIMMIN
 10
0.0
 20
0.0
  9
$LIMMAX
 10
12.0
 20
9.0
  9
$ORTHOMODE
 70
     1
  9
$REGENMODE
 70
     1
  9
$FILLMODE
 70
     1
  9
$QTEXTMODE
 70
     0
  9
$MIRRTEXT
 70
     0
  9
$LTSCALE
 40
1.0
  9
$ATTMODE
 70
     1
  9
$TEXTSIZE
 40
0.2
  9
$TRACEWID
 40
0.05
  9
$TEXTSTYLE
  7
Standard
  9
$CLAYER
  8
0
  9
$CELTYPE
  6
ByLayer
  9
$CECOLOR
 62
   256
  9
$CELTSCALE
 40
1.0
  9
$DISPSILH
 70
     0
  9
$DIMSCALE
 40
1.0
  9
$DIMASZ
 40
0.18
  9
$DIMEXO
 40
0.0625
  9
$DIMDLI
 40
0.38
  9
$DIMRND
 40
0.0
  9
$DIMDLE
 40
0.0
  9
$DIMEXE
 40
0.18
  9
$DIMTP
 40
0.0
  9
$DIMTM
 40
0.0
  9
$DIMTXT
 40
0.18
  9
$DIMCEN
 40
0.09
  9
$DIMTSZ
 40
0.0
  9
$DIMTOL
 70
     0
  9
$DIMLIM
 70
     0
  9
$DIMTIH
 70
     1
  9
$DIMTOH
 70
     1
  9
$DIMSE1
 70
     0
  9
$DIMSE2
 70
     0
  9
$DIMTAD
 70
     0
  9
$DIMZIN
 70
     0
  9
$DIMBLK
  1

  9
$DIMASO
 70
     1
  9
$DIMSHO
 70
     1
  9
$DIMPOST
  1

  9
$DIMAPOST
  1

  9
$DIMALT
 70
     0
  9
$DIMALTD
 70
     2
  9
$DIMALTF
 40
25.4
  9
$DIMLFAC
 40
1.0
  9
$DIMTOFL
 70
     0
  9
$DIMTVP
 40
0.0
  9
$DIMTIX
 70
     0
  9
$DIMSOXD
 70
     0
  9
$DIMSAH
 70
     0
  9
$DIMBLK1
  1

  9
$DIMBLK2
  1

  9
$DIMSTYLE
  2
Standard
  9
$DIMCLRD
 70
     0
  9
$DIMCLRE
 70
     0
  9
$DIMCLRT
 70
     0
  9
$DIMTFAC
 40
1.0
  9
$DIMGAP
 40
0.09
  9
$DIMJUST
 70
     0
  9
$DIMSD1
 70
     0
  9
$DIMSD2
 70
     0
  9
$DIMTOLJ
 70
     1
  9
$DIMTZIN
 70
     0
  9
$DIMALTZ
 70
     0
  9
$DIMALTTZ
 70
     0
  9
$DIMUPT
 70
     0
  9
$DIMDEC
 70
     4
  9
$DIMTDEC
 70
     4
  9
$DIMALTU
 70
     2
  9
$DIMALTTD
 70
     2
  9
$DIMTXSTY
  7
Standard
  9
$DIMAUNIT
 70
     0
  9
$DIMADEC
 70
     0
  9
$DIMALTRND
 40
0.0
  9
$DIMAZIN
 70
     0
  9
$DIMDSEP
 70
    46
  9
$DIMATFIT
 70
     3
  9
$DIMFRAC
 70
     0
  9
$DIMLDRBLK
  1

  9
$DIMLUNIT
 70
     2
  9
$DIMLWD
 70
    -2
  9
$DIMLWE
 70
    -2
  9
$DIMTMOVE
 70
     0
  9
$LUNITS
 70
     2
  9
$LUPREC
 70
     4
  9
$SKETCHINC
 40
0.1
  9
$FILLETRAD
 40
0.0
  9
$AUNITS
 70
     0
  9
$AUPREC
 70
     0
  9
$MENU
  1
.
  9
$ELEVATION
 40
0.0
  9
$PELEVATION
 40
0.0
  9
$THICKNESS
 40
0.0
  9
$LIMCHECK
 70
     0
  9
$CHAMFERA
 40
0.0
  9
$CHAMFERB
 40
0.0
  9
$CHAMFERC
 40
0.0
  9
$CHAMFERD
 40
0.0
  9
$SKPOLY
 70
     0
  9
$TDCREATE
 40
2455289.394084363
  9
$TDUCREATE
 40
2455289.352417697
  9
$TDUPDATE
 40
2455510.744300984
  9
$TDUUPDATE
 40
2455510.702634317
  9
$TDINDWG
 40
0.0014930324
  9
$TDUSRTIMER
 40
0.0014928472
  9
$USRTIMER
 70
     1
  9
$ANGBASE
 50
0.0
  9
$ANGDIR
 70
     0
  9
$PDMODE
 70
     0
  9
$PDSIZE
 40
0.0
  9
$PLINEWID
 40
0.0
  9
$SPLFRAME
 70
     0
  9
$SPLINETYPE
 70
     6
  9
$SPLINESEGS
 70
     8
  9
$HANDSEED
  5
B4A
  9
$SURFTAB1
 70
     6
  9
$SURFTAB2
 70
     6
  9
$SURFTYPE
 70
     6
  9
$SURFU
 70
     6
  9
$SURFV
 70
     6
  9
$UCSBASE
  2

  9
$UCSNAME
  2

  9
$UCSORG
 10
0.0
 20
0.0
 30
0.0
  9
$UCSXDIR
 10
1.0
 20
0.0
 30
0.0
  9
$UCSYDIR
 10
0.0
 20
1.0
 30
0.0
  9
$UCSORTHOREF
  2

  9
$UCSORTHOVIEW
 70
     0
  9
$UCSORGTOP
 10
0.0
 20
0.0
 30
0.0
  9
$UCSORGBOTTOM
 10
0.0
 20
0.0
 30
0.0
  9
$UCSORGLEFT
 10
0.0
 20
0.0
 30
0.0
  9
$UCSORGRIGHT
 10
0.0
 20
0.0
 30
0.0
  9
$UCSORGFRONT
 10
0.0
 20
0.0
 30
0.0
  9
$UCSORGBACK
 10
0.0
 20
0.0
 30
0.0
  9
$PUCSBASE
  2

  9
$PUCSNAME
  2

  9
$PUCSORG
 10
0.0
 20
0.0
 30
0.0
  9
$PUCSXDIR
 10
1.0
 20
0.0
 30
0.0
  9
$PUCSYDIR
 10
0.0
 20
1.0
 30
0.0
  9
$PUCSORTHOREF
  2

  9
$PUCSORTHOVIEW
 70
     0
  9
$PUCSORGTOP
 10
0.0
 20
0.0
 30
0.0
  9
$PUCSORGBOTTOM
 10
0.0
 20
0.0
 30
0.0
  9
$PUCSORGLEFT
 10
0.0
 20
0.0
 30
0.0
  9
$PUCSORGRIGHT
 10
0.0
 20
0.0
 30
0.0
  9
$PUCSORGFRONT
 10
0.0
 20
0.0
 30
0.0
  9
$PUCSORGBACK
 10
0.0
 20
0.0
 30
0.0
  9
$USERI1
 70
     0
  9
$USERI2
 70
     0
  9
$USERI3
 70
     0
  9
$USERI4
 70
     0
  9
$USERI5
 70
     0
  9
$USERR1
 40
0.0
  9
$USERR2
 40
0.0
  9
$USERR3
 40
0.0
  9
$USERR4
 40
0.0
  9
$USERR5
 40
0.0
  9
$WORLDVIEW
 70
     1
  9
$SHADEDGE
 70
     3
  9
$SHADEDIF
 70
    70
  9
$TILEMODE
 70
     1
  9
$MAXACTVP
 70
    64
  9
$PINSBASE
 10
0.0
 20
0.0
 30
0.0
  9
$PLIMCHECK
 70
     0
  9
$PEXTMIN
 10
0.0
 20
0.0
 30
0.0
  9
$PEXTMAX
 10
0.0
 20
0.0
 30
0.0
  9
$PLIMMIN
 10
0.0
 20
0.0
  9
$PLIMMAX
 10
12.0
 20
9.0
  9
$UNITMODE
 70
     0
  9
$VISRETAIN
 70
     1
  9
$PLINEGEN
 70
     0
  9
$PSLTSCALE
 70
     1
  9
$TREEDEPTH
 70
  3020
  9
$CMLSTYLE
  2
Standard
  9
$CMLJUST
 70
     0
  9
$CMLSCALE
 40
1.0
  9
$PROXYGRAPHICS
 70
     1
  9
$MEASUREMENT
 70
     0
  9
$CELWEIGHT
370
    -1
  9
$ENDCAPS
280
     0
  9
$JOINSTYLE
280
     0
  9
$LWDISPLAY
290
     0
  9
$INSUNITS
 70
     1
  9
$HYPERLINKBASE
  1

  9
$STYLESHEET
  1

  9
$XEDIT
290
     1
  9
$CEPSNTYPE
380
     0
  9
$PSTYLEMODE
290
     1
  9
$FINGERPRINTGUID
  2
{362B3083-FFE4-455B-BA53-7AD66F245FC0}
  9
$VERSIONGUID
  2
{080734DA-4BD6-440C-9EBD-5C043645D332}
  9
$EXTNAMES
290
     1
  9
$PSVPSCALE
 40
0.0
  9
$OLESTARTUP
290
     0
  0
ENDSEC
  0
SECTION
  2
CLASSES
  0
CLASS
  1
ACDBDICTIONARYWDFLT
  2
AcDbDictionaryWithDefault
  3
ObjectDBX Classes
 90
        0
280
     0
281
     0
  0
CLASS
  1
ACDBPLACEHOLDER
  2
AcDbPlaceHolder
  3
ObjectDBX Classes
 90
        0
280
     0
281
     0
  0
CLASS
  1
LAYOUT
  2
AcDbLayout
  3
ObjectDBX Classes
 90
        0
280
     0
281
     0
  0
CLASS
  1
DICTIONARYVAR
  2
AcDbDictionaryVar
  3
ObjectDBX Classes
 90
        0
280
     0
281
     0
  0
CLASS
  1
TABLESTYLE
  2
AcDbTableStyle
  3
ObjectDBX Classes
 90
     4095
280
     0
281
     0
  0
CLASS
  1
MATERIAL
  2
AcDbMaterial
  3
ObjectDBX Classes
 90
     1153
280
     0
281
     0
  0
CLASS
  1
VISUALSTYLE
  2
AcDbVisualStyle
  3
ObjectDBX Classes
 90
     4095
280
     0
281
     0
  0
CLASS
  1
SCALE
  2
AcDbScale
  3
ObjectDBX Classes
 90
     1153
280
     0
281
     0
  0
CLASS
  1
MLEADERSTYLE
  2
AcDbMLeaderStyle
  3
ACDB_MLEADERSTYLE_CLASS
 90
     4095
280
     0
281
     0
  0
CLASS
  1
CELLSTYLEMAP
  2
AcDbCellStyleMap
  3
ObjectDBX Classes
 90
     1152
280
     0
281
     0
  0
CLASS
  1
SORTENTSTABLE
  2
AcDbSortentsTable
  3
ObjectDBX Classes
 90
    32768
280
     0
281
     0
  0
ENDSEC
  0
SECTION
  2
TABLES
  0
TABLE
  2
VPORT
  5
8
330
0
100
AcDbSymbolTable
 70
     1
  0
VPORT
  5
94
330
8
100
AcDbSymbolTableRecord
100
AcDbViewportTableRecord
  2
*Active
 70
     0
 10
0.0
 20
0.0
 11
1.0
 21
1.0
 12
-22.94574482786448
 22
280.5390176932029
 13
0.0
 23
0.0
 14
0.5
 24
0.5
 15
0.5
 25
0.5
 16
0.0
 26
0.0
 36
1.0
 17
0.0
 27
0.0
 37
0.0
 40
1015.245160946431
 41
1.148760330578512
 42
50.0
 43
0.0
 44
0.0
 50
0.0
 51
0.0
 71
     0
 72
  1000
 73
     1
 74
     3
 75
     0
 76
     0
 77
     0
 78
     0
281
     0
 65
     1
110
0.0
120
0.0
130
0.0
111
1.0
121
0.0
131
0.0
112
0.0
122
1.0
132
0.0
 79
     0
146
0.0
  0
ENDTAB
  0
TABLE
  2
LTYPE
  5
5
330
0
100
AcDbSymbolTable
 70
     1
  0
LTYPE
  5
14
330
5
100
AcDbSymbolTableRecord
100
AcDbLinetypeTableRecord
  2
ByBlock
 70
     0
  3

 72
    65
 73
     0
 40
0.0
  0
LTYPE
  5
15
330
5
100
AcDbSymbolTableRecord
100
AcDbLinetypeTableRecord
  2
ByLayer
 70
     0
  3

 72
    65
 73
     0
 40
0.0
  0
LTYPE
  5
16
330
5
100
AcDbSymbolTableRecord
100
AcDbLinetypeTableRecord
  2
Continuous
 70
     0
  3
Solid line
 72
    65
 73
     0
 40
0.0
  0
ENDTAB
  0
TABLE
  2
LAYER
  5
2
102
{ACAD_XDICTIONARY
360
A82
102
}
330
0
100
AcDbSymbolTable
 70
     4
  0
LAYER
  5
10
102
{ACAD_XDICTIONARY
360
E6
102
}
330
2
100
AcDbSymbolTableRecord
100
AcDbLayerTableRecord
  2
0
 70
     0
 62
     7
  6
Continuous
370
    -3
390
F
  0
LAYER
  5
14D
102
{ACAD_XDICTIONARY
360
14E
102
}
330
2
100
AcDbSymbolTableRecord
100
AcDbLayerTableRecord
  2
Q
 70
     0
 62
     7
  6
Continuous
370
    -3
390
F
1001
AcAecLayerStandard
1000

1000

  0
LAYER
  5
A80
330
2
100
AcDbSymbolTableRecord
100
AcDbLayerTableRecord
  2
Defpoints
 70
     0
 62
     7
  6
Continuous
290
     0
370
    -3
390
F
  0
LAYER
  5
A81
330
2
100
AcDbSymbolTableRecord
100
AcDbLayerTableRecord
  2
QUOTE
 70
     0
 62
     7
  6
Continuous
370
    -3
390
F
1001
AcAecLayerStandard
1000

1000

  0
ENDTAB
  0
TABLE
  2
STYLE
  5
3
330
0
100
AcDbSymbolTable
 70
     2
  0
STYLE
  5
11
330
3
100
AcDbSymbolTableRecord
100
AcDbTextStyleTableRecord
  2
Standard
 70
     0
 40
0.0
 41
1.0
 50
0.0
 71
     0
 42
0.2
  3
txt.shx
  4

  0
STYLE
  5
DC
330
3
100
AcDbSymbolTableRecord
100
AcDbTextStyleTableRecord
  2
Annotativa
 70
     0
 40
0.0
 41
1.0
 50
0.0
 71
     0
 42
0.2
  3
txt.shx
  4

1001
AcadAnnotative
1000
AnnotativeData
1002
{
1070
     1
1070
     1
1002
}
  0
ENDTAB
  0
TABLE
  2
VIEW
  5
6
330
0
100
AcDbSymbolTable
 70
     0
  0
ENDTAB
  0
TABLE
  2
UCS
  5
7
330
0
100
AcDbSymbolTable
 70
     0
  0
ENDTAB
  0
TABLE
  2
APPID
  5
9
330
0
100
AcDbSymbolTable
 70
     7
  0
APPID
  5
12
330
9
100
AcDbSymbolTableRecord
100
AcDbRegAppTableRecord
  2
ACAD
 70
     0
  0
APPID
  5
DD
330
9
100
AcDbSymbolTableRecord
100
AcDbRegAppTableRecord
  2
AcadAnnoPO
 70
     0
  0
APPID
  5
DE
330
9
100
AcDbSymbolTableRecord
100
AcDbRegAppTableRecord
  2
AcadAnnotative
 70
     0
  0
APPID
  5
DF
330
9
100
AcDbSymbolTableRecord
100
AcDbRegAppTableRecord
  2
ACAD_DSTYLE_DIMJAG
 70
     0
  0
APPID
  5
E0
330
9
100
AcDbSymbolTableRecord
100
AcDbRegAppTableRecord
  2
ACAD_DSTYLE_DIMTALN
 70
     0
  0
APPID
  5
107
330
9
100
AcDbSymbolTableRecord
100
AcDbRegAppTableRecord
  2
ACAD_MLEADERVER
 70
     0
  0
APPID
  5
14F
330
9
100
AcDbSymbolTableRecord
100
AcDbRegAppTableRecord
  2
AcAecLayerStandard
 70
     0
  0
ENDTAB
  0
TABLE
  2
DIMSTYLE
  5
A
330
0
100
AcDbSymbolTable
 70
     2
100
AcDbDimStyleTable
 71
     2
340
27
340
E1
  0
DIMSTYLE
105
27
102
{ACAD_REACTORS
330
A8B
330
B0B
102
}
330
A
100
AcDbSymbolTableRecord
100
AcDbDimStyleTableRecord
  2
Standard
 70
     0
340
11
  0
DIMSTYLE
105
E1
330
A
100
AcDbSymbolTableRecord
100
AcDbDimStyleTableRecord
  2
Annotativa
 70
     0
 40
0.0
340
11
1001
AcadAnnotative
1000
AnnotativeData
1002
{
1070
     1
1070
     1
1002
}
1001
ACAD_DSTYLE_DIMJAG
1070
   388
1040
1.5
1001
ACAD_DSTYLE_DIMTALN
1070
   392
1070
     0
  0
ENDTAB
  0
TABLE
  2
BLOCK_RECORD
  5
1
330
0
100
AcDbSymbolTable
 70
     8
  0
BLOCK_RECORD
  5
1F
330
1
100
AcDbSymbolTableRecord
100
AcDbBlockTableRecord
  2
*Model_Space
340
22
  0
BLOCK_RECORD
  5
58
330
1
100
AcDbSymbolTableRecord
100
AcDbBlockTableRecord
  2
*Paper_Space
340
59
  0
BLOCK_RECORD
  5
5D
330
1
100
AcDbSymbolTableRecord
100
AcDbBlockTableRecord
  2
*Paper_Space0
340
5E
  0
BLOCK_RECORD
  5
A66
330
1
100
AcDbSymbolTableRecord
100
AcDbBlockTableRecord
  2
*D1
340
0
  0
BLOCK_RECORD
  5
A73
330
1
100
AcDbSymbolTableRecord
100
AcDbBlockTableRecord
  2
*D2
340
0
  0
BLOCK_RECORD
  5
A8D
330
1
100
AcDbSymbolTableRecord
100
AcDbBlockTableRecord
  2
*D3
340
0
  0
BLOCK_RECORD
  5
A9A
330
1
100
AcDbSymbolTableRecord
100
AcDbBlockTableRecord
  2
*D4
340
0
  0
BLOCK_RECORD
  5
AF9
330
1
100
AcDbSymbolTableRecord
100
AcDbBlockTableRecord
  2
*D5
340
0
  0
BLOCK_RECORD
  5
B0C
330
1
100
AcDbSymbolTableRecord
100
AcDbBlockTableRecord
  2
*D7
340
0
  0
ENDTAB
  0
ENDSEC
  0
SECTION
  2
BLOCKS
  0
BLOCK
  5
20
330
1F
100
AcDbEntity
  8
0
100
AcDbBlockBegin
  2
*Model_Space
 70
     0
 10
0.0
 20
0.0
 30
0.0
  3
*Model_Space
  1

  0
ENDBLK
  5
21
330
1F
100
AcDbEntity
  8
0
100
AcDbBlockEnd
  0
BLOCK
  5
5A
330
58
100
AcDbEntity
 67
     1
  8
0
100
AcDbBlockBegin
  2
*Paper_Space
 70
     0
 10
0.0
 20
0.0
 30
0.0
  3
*Paper_Space
  1

  0
ENDBLK
  5
5B
330
58
100
AcDbEntity
 67
     1
  8
0
100
AcDbBlockEnd
  0
BLOCK
  5
5F
330
5D
100
AcDbEntity
 67
     1
  8
0
100
AcDbBlockBegin
  2
*Paper_Space0
 70
     0
 10
0.0
 20
0.0
 30
0.0
  3
*Paper_Space0
  1

  0
ENDBLK
  5
60
330
5D
100
AcDbEntity
 67
     1
  8
0
100
AcDbBlockEnd
  0
BLOCK
  5
A67
330
A66
100
AcDbEntity
  8
0
100
AcDbBlockBegin
  2
*D1
 70
     1
 10
0.0
 20
0.0
 30
0.0
  3
*D1
  1

  0
LINE
  5
A68
330
A66
100
AcDbEntity
  8
QUOTE
 62
     7
370
    -2
100
AcDbLine
 10
-107.0805200348571
 20
322.4648743244586
 30
0.0
 11
-147.7820873541619
 21
322.4648743244586
 31
0.0
  0
LINE
  5
A69
330
A66
100
AcDbEntity
  8
QUOTE
 62
     7
370
    -2
100
AcDbLine
 10
-109.551247605389
 20
-107.5351256755409
 30
0.0
 11
-147.782087354162
 21
-107.5351256755409
 31
0.0
  0
LINE
  5
A6A
330
A66
100
AcDbEntity
  8
QUOTE
 62
     7
370
    -2
100
AcDbLine
 10
-147.6020873541619
 20
307.4648743244587
 30
0.0
 11
-147.6020873541619
 21
106.8956934585356
 31
0.0
  0
LINE
  5
A6B
330
A66
100
AcDbEntity
  8
QUOTE
 62
     7
370
    -2
100
AcDbLine
 10
-147.602087354162
 20
-92.53512567554093
 30
0.0
 11
-147.6020873541619
 21
96.71569345853564
 31
0.0
  0
SOLID
  5
A6C
330
A66
100
AcDbEntity
  8
QUOTE
 62
     7
100
AcDbTrace
 10
-150.1020873541619
 20
307.4648743244587
 30
0.0
 11
-145.1020873541619
 21
307.4648743244587
 31
0.0
 12
-147.6020873541619
 22
322.4648743244586
 32
0.0
 13
-147.6020873541619
 23
322.4648743244586
 33
0.0
  0
SOLID
  5
A6D
330
A66
100
AcDbEntity
  8
QUOTE
 62
     7
100
AcDbTrace
 10
-150.102087354162
 20
-92.53512567554093
 30
0.0
 11
-145.102087354162
 21
-92.53512567554093
 31
0.0
 12
-147.602087354162
 22
-107.5351256755409
 32
0.0
 13
-147.602087354162
 23
-107.5351256755409
 33
0.0
  0
MTEXT
  5
A6E
330
A66
100
AcDbEntity
  8
QUOTE
 62
     7
100
AcDbMText
 10
-147.6020873541619
 20
101.8056934585356
 30
0.0
 40
10.0
 41
0.0
 71
     5
 72
     1
  1
\A1;430
 73
     1
 44
1.0
1001
ACAD
1000
MTEXTBEGIN
1070
    73
1070
     1
1070
    44
1040
1.0
1070
    74
1070
     0
1000
MTEXTEND
  0
POINT
  5
A6F
330
A66
100
AcDbEntity
  8
Defpoints
 62
     0
100
AcDbPoint
 10
-107.0180200348571
 20
322.4648743244586
 30
0.0
  0
POINT
  5
A70
330
A66
100
AcDbEntity
  8
Defpoints
 62
     0
100
AcDbPoint
 10
-109.488747605389
 20
-107.5351256755409
 30
0.0
  0
POINT
  5
A71
330
A66
100
AcDbEntity
  8
Defpoints
 62
     0
100
AcDbPoint
 10
-147.602087354162
 20
-107.5351256755409
 30
0.0
  0
ENDBLK
  5
A72
330
A66
100
AcDbEntity
  8
0
100
AcDbBlockEnd
  0
BLOCK
  5
A74
330
A73
100
AcDbEntity
  8
0
100
AcDbBlockBegin
  2
*D2
 70
     1
 10
0.0
 20
0.0
 30
0.0
  3
*D2
  1

  0
LINE
  5
A75
330
A73
100
AcDbEntity
  8
QUOTE
 62
     7
370
    -2
100
AcDbLine
 10
75.5183623946113
 20
-92.59941600788572
 30
0.0
 11
75.5183623946113
 21
-126.6742362736619
 31
0.0
  0
LINE
  5
A76
330
A73
100
AcDbEntity
  8
QUOTE
 62
     7
370
    -2
100
AcDbLine
 10
-124.489317605389
 20
-92.53454567554092
 30
0.0
 11
-124.489317605389
 21
-126.6742362736619
 31
0.0
  0
LINE
  5
A77
330
A73
100
AcDbEntity
  8
QUOTE
 62
     7
370
    -2
100
AcDbLine
 10
60.5183623946113
 20
-126.4942362736619
 30
0.0
 11
-11.26116932183178
 21
-126.4942362736619
 31
0.0
  0
LINE
  5
A78
330
A73
100
AcDbEntity
  8
QUOTE
 62
     7
370
    -2
100
AcDbLine
 10
-109.489317605389
 20
-126.4942362736619
 30
0.0
 11
-34.77450265516512
 21
-126.4942362736619
 31
0.0
  0
SOLID
  5
A79
330
A73
100
AcDbEntity
  8
QUOTE
 62
     7
100
AcDbTrace
 10
60.5183623946113
 20
-123.9942362736619
 30
0.0
 11
60.5183623946113
 21
-128.9942362736619
 31
0.0
 12
75.5183623946113
 22
-126.4942362736619
 32
0.0
 13
75.5183623946113
 23
-126.4942362736619
 33
0.0
  0
SOLID
  5
A7A
330
A73
100
AcDbEntity
  8
QUOTE
 62
     7
100
AcDbTrace
 10
-109.489317605389
 20
-123.9942362736619
 30
0.0
 11
-109.489317605389
 21
-128.9942362736619
 31
0.0
 12
-124.489317605389
 22
-126.4942362736619
 32
0.0
 13
-124.489317605389
 23
-126.4942362736619
 33
0.0
  0
MTEXT
  5
A7B
330
A73
100
AcDbEntity
  8
QUOTE
 62
     7
100
AcDbMText
 10
-23.01783598849845
 20
-126.4942362736619
 30
0.0
 40
10.0
 41
0.0
 71
     5
 72
     1
  1
\A1;200
 73
     1
 44
1.0
1001
ACAD
1000
MTEXTBEGIN
1070
    73
1070
     1
1070
    44
1040
1.0
1070
    74
1070
     0
1000
MTEXTEND
  0
POINT
  5
A7C
330
A73
100
AcDbEntity
  8
Defpoints
 62
     0
100
AcDbPoint
 10
75.5183623946113
 20
-92.53691600788574
 30
0.0
  0
POINT
  5
A7D
330
A73
100
AcDbEntity
  8
Defpoints
 62
     0
100
AcDbPoint
 10
-124.489317605389
 20
-92.47204567554092
 30
0.0
  0
POINT
  5
A7E
330
A73
100
AcDbEntity
  8
Defpoints
 62
     0
100
AcDbPoint
 10
-124.489317605389
 20
-126.4942362736619
 30
0.0
  0
ENDBLK
  5
A7F
330
A73
100
AcDbEntity
  8
0
100
AcDbBlockEnd
  0
BLOCK
  5
A8E
330
A8D
100
AcDbEntity
  8
0
100
AcDbBlockBegin
  2
*D3
 70
     1
 10
0.0
 20
0.0
 30
0.0
  3
*D3
  1

  0
LINE
  5
ACF
330
A8D
100
AcDbEntity
  8
QUOTE
 62
     7
370
    -2
100
AcDbLine
 10
-289.5292883822151
 20
187.3978458831168
 30
0.0
 11
-330.2308557015199
 21
187.3978458831168
 31
0.0
  0
LINE
  5
AD0
330
A8D
100
AcDbEntity
  8
QUOTE
 62
     7
370
    -2
100
AcDbLine
 10
-292.000015952747
 20
-53.60215411688312
 30
0.0
 11
-330.2308557015199
 21
-53.60215411688311
 31
0.0
  0
LINE
  5
AD1
330
A8D
100
AcDbEntity
  8
QUOTE
 62
     7
370
    -2
100
AcDbLine
 10
-330.0508557015199
 20
172.3978458831168
 30
0.0
 11
-330.0508557015199
 21
79.04978360297881
 31
0.0
  0
LINE
  5
AD2
330
A8D
100
AcDbEntity
  8
QUOTE
 62
     7
370
    -2
100
AcDbLine
 10
-330.0508557015199
 20
-38.60215411688312
 30
0.0
 11
-330.0508557015199
 21
68.86978360297878
 31
0.0
  0
SOLID
  5
AD3
330
A8D
100
AcDbEntity
  8
QUOTE
 62
     7
100
AcDbTrace
 10
-332.5508557015199
 20
172.3978458831168
 30
0.0
 11
-327.5508557015199
 21
172.3978458831168
 31
0.0
 12
-330.0508557015199
 22
187.3978458831168
 32
0.0
 13
-330.0508557015199
 23
187.3978458831168
 33
0.0
  0
SOLID
  5
AD4
330
A8D
100
AcDbEntity
  8
QUOTE
 62
     7
100
AcDbTrace
 10
-332.5508557015199
 20
-38.60215411688312
 30
0.0
 11
-327.55085570152
 21
-38.60215411688312
 31
0.0
 12
-330.0508557015199
 22
-53.60215411688311
 32
0.0
 13
-330.0508557015199
 23
-53.60215411688311
 33
0.0
  0
MTEXT
  5
AD5
330
A8D
100
AcDbEntity
  8
QUOTE
 62
     7
100
AcDbMText
 10
-330.0508557015199
 20
73.95978360297873
 30
0.0
 40
10.0
 41
0.0
 71
     5
 72
     1
  1
\A1;241
 73
     1
 44
1.0
1001
ACAD
1000
MTEXTBEGIN
1070
    73
1070
     1
1070
    44
1040
1.0
1070
    74
1070
     0
1000
MTEXTEND
  0
POINT
  5
AD6
330
A8D
100
AcDbEntity
  8
Defpoints
 62
     0
100
AcDbPoint
 10
-289.4667883822151
 20
187.3978458831168
 30
0.0
  0
POINT
  5
AD7
330
A8D
100
AcDbEntity
  8
Defpoints
 62
     0
100
AcDbPoint
 10
-291.937515952747
 20
-53.60215411688312
 30
0.0
  0
POINT
  5
AD8
330
A8D
100
AcDbEntity
  8
Defpoints
 62
     0
100
AcDbPoint
 10
-330.0508557015199
 20
-53.60215411688311
 30
0.0
  0
ENDBLK
  5
A8F
330
A8D
100
AcDbEntity
  8
0
100
AcDbBlockEnd
  0
BLOCK
  5
A9B
330
A9A
100
AcDbEntity
  8
0
100
AcDbBlockBegin
  2
*D4
 70
     1
 10
0.0
 20
0.0
 30
0.0
  3
*D4
  1

  0
LINE
  5
AB1
330
A9A
100
AcDbEntity
  8
QUOTE
 62
     7
370
    -2
100
AcDbLine
 10
-185.6896638066555
 20
-115.4346400986762
 30
0.0
 11
-185.6896638066555
 21
-149.5094603644524
 31
0.0
  0
LINE
  5
AB2
330
A9A
100
AcDbEntity
  8
QUOTE
 62
     7
370
    -2
100
AcDbLine
 10
-385.6973438066559
 20
-115.3697697663314
 30
0.0
 11
-385.6973438066559
 21
-149.5094603644524
 31
0.0
  0
LINE
  5
AB3
330
A9A
100
AcDbEntity
  8
QUOTE
 62
     7
370
    -2
100
AcDbLine
 10
-200.6896638066556
 20
-149.3294603644524
 30
0.0
 11
-272.4691955230987
 21
-149.3294603644524
 31
0.0
  0
LINE
  5
AB4
330
A9A
100
AcDbEntity
  8
QUOTE
 62
     7
370
    -2
100
AcDbLine
 10
-370.6973438066559
 20
-149.3294603644524
 30
0.0
 11
-295.982528856432
 21
-149.3294603644524
 31
0.0
  0
SOLID
  5
AB5
330
A9A
100
AcDbEntity
  8
QUOTE
 62
     7
100
AcDbTrace
 10
-200.6896638066556
 20
-146.8294603644524
 30
0.0
 11
-200.6896638066556
 21
-151.8294603644525
 31
0.0
 12
-185.6896638066555
 22
-149.3294603644524
 32
0.0
 13
-185.6896638066555
 23
-149.3294603644524
 33
0.0
  0
SOLID
  5
AB6
330
A9A
100
AcDbEntity
  8
QUOTE
 62
     7
100
AcDbTrace
 10
-370.6973438066559
 20
-146.8294603644524
 30
0.0
 11
-370.6973438066559
 21
-151.8294603644525
 31
0.0
 12
-385.6973438066559
 22
-149.3294603644524
 32
0.0
 13
-385.6973438066559
 23
-149.3294603644524
 33
0.0
  0
MTEXT
  5
AB7
330
A9A
100
AcDbEntity
  8
QUOTE
 62
     7
100
AcDbMText
 10
-284.2258621897654
 20
-149.3294603644524
 30
0.0
 40
10.0
 41
0.0
 71
     5
 72
     1
  1
\A1;200
 73
     1
 44
1.0
1001
ACAD
1000
MTEXTBEGIN
1070
    73
1070
     1
1070
    44
1040
1.0
1070
    74
1070
     0
1000
MTEXTEND
  0
POINT
  5
AB8
330
A9A
100
AcDbEntity
  8
Defpoints
 62
     0
100
AcDbPoint
 10
-185.6896638066555
 20
-115.3721400986762
 30
0.0
  0
POINT
  5
AB9
330
A9A
100
AcDbEntity
  8
Defpoints
 62
     0
100
AcDbPoint
 10
-385.6973438066559
 20
-115.3072697663314
 30
0.0
  0
POINT
  5
ABA
330
A9A
100
AcDbEntity
  8
Defpoints
 62
     0
100
AcDbPoint
 10
-385.6973438066559
 20
-149.3294603644524
 30
0.0
  0
ENDBLK
  5
A9C
330
A9A
100
AcDbEntity
  8
0
100
AcDbBlockEnd
  0
BLOCK
  5
AFA
330
AF9
100
AcDbEntity
  8
0
100
AcDbBlockBegin
  2
*D5
 70
     1
 10
0.0
 20
0.0
 30
0.0
  3
*D5
  1

  0
LINE
  5
AFB
330
AF9
100
AcDbEntity
  8
QUOTE
 62
     7
370
    -2
100
AcDbLine
 10
332.6083474107988
 20
233.21249923684
 30
0.0
 11
332.6083474107988
 21
272.4427681478555
 31
0.0
  0
LINE
  5
AFC
330
AF9
100
AcDbEntity
  8
QUOTE
 62
     7
370
    -2
100
AcDbLine
 10
12.60834741079873
 20
233.2124983990827
 30
0.0
 11
12.60834741079873
 21
272.4427681478555
 31
0.0
  0
LINE
  5
AFD
330
AF9
100
AcDbEntity
  8
QUOTE
 62
     7
370
    -2
100
AcDbLine
 10
317.6083474107988
 20
272.2627681478555
 30
0.0
 11
179.0454423464167
 21
272.2627681478555
 31
0.0
  0
LINE
  5
AFE
330
AF9
100
AcDbEntity
  8
QUOTE
 62
     7
370
    -2
100
AcDbLine
 10
27.60834741079873
 20
272.2627681478555
 30
0.0
 11
153.8654423464167
 21
272.2627681478555
 31
0.0
  0
SOLID
  5
AFF
330
AF9
100
AcDbEntity
  8
QUOTE
 62
     7
100
AcDbTrace
 10
317.6083474107988
 20
274.7627681478554
 30
0.0
 11
317.6083474107988
 21
269.7627681478555
 31
0.0
 12
332.6083474107988
 22
272.2627681478555
 32
0.0
 13
332.6083474107988
 23
272.2627681478555
 33
0.0
  0
SOLID
  5
B00
330
AF9
100
AcDbEntity
  8
QUOTE
 62
     7
100
AcDbTrace
 10
27.60834741079873
 20
274.7627681478554
 30
0.0
 11
27.60834741079873
 21
269.7627681478555
 31
0.0
 12
12.60834741079873
 22
272.2627681478555
 32
0.0
 13
12.60834741079873
 23
272.2627681478555
 33
0.0
  0
MTEXT
  5
B01
330
AF9
100
AcDbEntity
  8
QUOTE
 62
     7
100
AcDbMText
 10
166.4554423464167
 20
272.2627681478555
 30
0.0
 40
10.0
 41
0.0
 71
     5
 72
     1
  1
\A1;320
 73
     1
 44
1.0
1001
ACAD
1000
MTEXTBEGIN
1070
    73
1070
     1
1070
    44
1040
1.0
1070
    74
1070
     0
1000
MTEXTEND
  0
POINT
  5
B02
330
AF9
100
AcDbEntity
  8
Defpoints
 62
     0
100
AcDbPoint
 10
332.6083474107988
 20
233.14999923684
 30
0.0
  0
POINT
  5
B03
330
AF9
100
AcDbEntity
  8
Defpoints
 62
     0
100
AcDbPoint
 10
12.60834741079873
 20
233.1499983990827
 30
0.0
  0
POINT
  5
B04
330
AF9
100
AcDbEntity
  8
Defpoints
 62
     0
100
AcDbPoint
 10
12.60834741079873
 20
272.2627681478555
 30
0.0
  0
ENDBLK
  5
B05
330
AF9
100
AcDbEntity
  8
0
100
AcDbBlockEnd
  0
BLOCK
  5
B0D
330
B0C
100
AcDbEntity
  8
0
100
AcDbBlockBegin
  2
*D7
 70
     1
 10
0.0
 20
0.0
 30
0.0
  3
*D7
  1

  0
LINE
  5
B37
330
B0C
100
AcDbEntity
  8
QUOTE
 62
     7
370
    -2
100
AcDbLine
 10
142.0624848850112
 20
165.2541998831169
 30
0.0
 11
142.0624848850112
 21
204.4844696318897
 31
0.0
  0
LINE
  5
B38
330
B0C
100
AcDbEntity
  8
QUOTE
 62
     7
370
    -2
100
AcDbLine
 10
-307.9375151149887
 20
165.2541998831169
 30
0.0
 11
-307.9375151149887
 21
204.4844696318897
 31
0.0
  0
LINE
  5
B39
330
B0C
100
AcDbEntity
  8
QUOTE
 62
     7
370
    -2
100
AcDbLine
 10
127.0624848850112
 20
204.3044696318897
 30
0.0
 11
-81.59408961707564
 21
204.3044696318897
 31
0.0
  0
LINE
  5
B3A
330
B0C
100
AcDbEntity
  8
QUOTE
 62
     7
370
    -2
100
AcDbLine
 10
-292.9375151149887
 20
204.3044696318897
 30
0.0
 11
-106.7740896170756
 21
204.3044696318897
 31
0.0
  0
SOLID
  5
B3B
330
B0C
100
AcDbEntity
  8
QUOTE
 62
     7
100
AcDbTrace
 10
127.0624848850112
 20
206.8044696318897
 30
0.0
 11
127.0624848850112
 21
201.8044696318897
 31
0.0
 12
142.0624848850112
 22
204.3044696318897
 32
0.0
 13
142.0624848850112
 23
204.3044696318897
 33
0.0
  0
SOLID
  5
B3C
330
B0C
100
AcDbEntity
  8
QUOTE
 62
     7
100
AcDbTrace
 10
-292.9375151149887
 20
206.8044696318897
 30
0.0
 11
-292.9375151149887
 21
201.8044696318897
 31
0.0
 12
-307.9375151149887
 22
204.3044696318897
 32
0.0
 13
-307.9375151149887
 23
204.3044696318897
 33
0.0
  0
MTEXT
  5
B3D
330
B0C
100
AcDbEntity
  8
QUOTE
 62
     7
100
AcDbMText
 10
-94.18408961707564
 20
204.3044696318897
 30
0.0
 40
10.0
 41
0.0
 71
     5
 72
     1
  1
\A1;450
 73
     1
 44
1.0
1001
ACAD
1000
MTEXTBEGIN
1070
    73
1070
     1
1070
    44
1040
1.0
1070
    74
1070
     0
1000
MTEXTEND
  0
POINT
  5
B3E
330
B0C
100
AcDbEntity
  8
Defpoints
 62
     0
100
AcDbPoint
 10
142.0624848850112
 20
165.1916998831169
 30
0.0
  0
POINT
  5
B3F
330
B0C
100
AcDbEntity
  8
Defpoints
 62
     0
100
AcDbPoint
 10
-307.9375151149887
 20
165.1916998831169
 30
0.0
  0
POINT
  5
B40
330
B0C
100
AcDbEntity
  8
Defpoints
 62
     0
100
AcDbPoint
 10
-307.9375151149887
 20
204.3044696318897
 30
0.0
  0
ENDBLK
  5
B0E
330
B0C
100
AcDbEntity
  8
0
100
AcDbBlockEnd
  0
ENDSEC
  0
SECTION
  2
ENTITIES
  0
LINE
  5
5CF
330
1F
100
AcDbEntity
  8
0
 62
     7
100
AcDbLine
 10
-262.9357785256802
 20
94.89784588311664
 30
0.0000000000000055
 11
97.06422147431981
 21
94.89784588311664
 31
0.0000000000000055
  0
LINE
  5
5D0
330
1F
100
AcDbEntity
  8
0
 62
     7
100
AcDbLine
 10
97.06422147431981
 20
94.89784588311664
 30
0.0000000000000055
 11
97.06422147431981
 21
49.89784588311664
 31
0.0000000000000055
  0
LINE
  5
5D1
330
1F
100
AcDbEntity
  8
0
 62
     7
100
AcDbLine
 10
97.06422147431981
 20
49.89784588311664
 30
0.0000000000000055
 11
-262.9357785256802
 21
49.89784588311664
 31
0.0000000000000055
  0
LINE
  5
5D2
330
1F
100
AcDbEntity
  8
0
 62
     7
100
AcDbLine
 10
-262.9357785256802
 20
49.89784588311664
 30
0.0000000000000055
 11
-262.9357785256802
 21
94.89784588311664
 31
0.0000000000000055
  0
LINE
  5
5D7
330
1F
100
AcDbEntity
  8
0
 62
   253
 48
0.401938
370
    35
100
AcDbLine
 10
15.10124188501132
 20
-15.04295011688322
 30
0.0
 11
-0.9762721149887454
 21
-15.04295011688322
 31
0.0
  0
LINE
  5
5D8
330
1F
100
AcDbEntity
  8
0
 62
   253
 48
0.4019370000000002
370
    35
100
AcDbLine
 10
-180.9762571149887
 20
-15.04295011688322
 30
0.0
 11
-164.8987581149888
 21
-15.04295011688322
 31
0.0
  0
LINE
  5
5D9
330
1F
100
AcDbEntity
  8
0
 62
   253
370
    35
100
AcDbLine
 10
69.07353188501125
 20
120.5229988831169
 30
0.0
 11
-278.1567081149888
 21
120.5229988831169
 31
0.0
  0
LINE
  5
5DA
330
1F
100
AcDbEntity
  8
0
 62
   253
370
    35
100
AcDbLine
 10
-279.6783141149887
 20
20.04271288311685
 30
0.0
 11
-279.8152771149887
 21
118.7120548831169
 31
0.0
  0
LINE
  5
5DB
330
1F
100
AcDbEntity
  8
0
 62
   253
 48
0.062327
370
    35
100
AcDbLine
 10
112.8624728850113
 20
11.80922288311677
 30
0.0
 11
112.8658298850113
 21
9.316150883116787
 31
0.0
  0
LINE
  5
5DC
330
1F
100
AcDbEntity
  8
0
 62
     7
 48
0.059306
370
    13
100
AcDbLine
 10
136.1653288850112
 20
158.7005498831169
 30
0.0
 11
138.5375828850112
 21
158.7005498831169
 31
0.0
  0
LINE
  5
5DD
330
1F
100
AcDbEntity
  8
0
 62
     7
 48
0.059307
370
    13
100
AcDbLine
 10
-302.0403591149888
 20
158.7005498831169
 30
0.0
 11
-304.4126431149887
 21
158.7005498831169
 31
0.0
  0
LINE
  5
5DE
330
1F
100
AcDbEntity
  8
0
 62
     7
370
    35
100
AcDbLine
 10
-307.9375151149887
 20
-37.60215411688314
 30
0.0
 11
-307.9375151149887
 21
171.3978458831169
 31
0.0
  0
ARC
  5
5DF
330
1F
100
AcDbEntity
  8
0
 62
     7
370
    35
100
AcDbCircle
 10
-291.9375151149887
 20
-37.60215411688314
 30
0.0
 40
16.0
100
AcDbArc
 50
180.0000050000005
 51
202.8229630000029
  0
ARC
  5
5E0
330
1F
100
AcDbEntity
  8
0
 62
     7
370
    35
100
AcDbCircle
 10
126.0624848850112
 20
-37.60215411688314
 30
0.0
 40
16.0
100
AcDbArc
 50
337.1770389999998
 51
0.0
  0
LINE
  5
5E1
330
1F
100
AcDbEntity
  8
0
 62
     7
 48
0.155154
370
    35
100
AcDbLine
 10
142.0624848850112
 20
-31.39600811688314
 30
0.0
 11
142.0624848850112
 21
-37.60215411688314
 31
0.0
  0
LINE
  5
5E2
330
1F
100
AcDbEntity
  8
0
 62
     7
 48
0.155154
370
    35
100
AcDbLine
 10
142.0624848850112
 20
171.3978458831169
 30
0.0
 11
142.0624848850112
 21
165.1916998831169
 31
0.0
  0
ARC
  5
5E3
330
1F
100
AcDbEntity
  8
0
 62
     7
370
    35
100
AcDbCircle
 10
126.0624848850112
 20
171.3978458831169
 30
0.0
 40
16.0
100
AcDbArc
 50
0.0
 51
90.00000300000095
  0
LINE
  5
5E4
330
1F
100
AcDbEntity
  8
0
 62
     7
370
    35
100
AcDbLine
 10
126.0624848850112
 20
187.3978458831168
 30
0.0
 11
-291.9375151149887
 21
187.3978458831168
 31
0.0
  0
ARC
  5
5E5
330
1F
100
AcDbEntity
  8
0
 62
     7
370
    35
100
AcDbCircle
 10
-291.9375151149887
 20
171.3978458831169
 30
0.0
 40
16.0
100
AcDbArc
 50
90.00000300000095
 51
180.0000050000005
  0
LINE
  5
5E6
330
1F
100
AcDbEntity
  8
0
 62
     7
 48
0.001741
370
    35
100
AcDbLine
 10
-306.6462861149887
 20
177.5460398831168
 30
0.0
 11
-306.6848451149888
 21
177.6040228831169
 31
0.0
  0
POLYLINE
  5
5E7
330
1F
100
AcDbEntity
  8
0
 62
     7
370
    35
100
AcDb2dPolyline
 66
     1
 10
0.0
 20
0.0
 30
0.0
  0
VERTEX
  5
5E8
330
5E7
100
AcDbEntity
  8
0
370
     0
100
AcDbVertex
100
AcDb2dVertex
 10
-305.8349001149887
 20
177.5348088831169
 30
0.0
  0
VERTEX
  5
5E9
330
5E7
100
AcDbEntity
  8
0
370
     0
100
AcDbVertex
100
AcDb2dVertex
 10
-306.4303281149887
 20
177.5395698831169
 30
0.0
  0
VERTEX
  5
5EA
330
5E7
100
AcDbEntity
  8
0
370
     0
100
AcDbVertex
100
AcDb2dVertex
 10
-306.6376191149887
 20
177.5447578831169
 30
0.0
  0
VERTEX
  5
5EB
330
5E7
100
AcDbEntity
  8
0
370
     0
100
AcDbVertex
100
AcDb2dVertex
 10
-306.6451411149888
 20
177.5456118831169
 30
0.0
  0
VERTEX
  5
5EC
330
5E7
100
AcDbEntity
  8
0
370
     0
100
AcDbVertex
100
AcDb2dVertex
 10
-306.6462861149887
 20
177.5460398831168
 30
0.0
  0
SEQEND
  5
5ED
330
5E7
100
AcDbEntity
  8
0
370
     0
  0
LINE
  5
5EE
330
1F
100
AcDbEntity
  8
0
 62
     7
 48
0.054432
370
    35
100
AcDbLine
 10
-303.6576541149888
 20
177.5249208831168
 30
0.0
 11
-305.8349001149887
 21
177.5348088831169
 31
0.0
  0
POLYLINE
  5
5EF
330
1F
100
AcDbEntity
  8
0
 62
     7
370
    35
100
AcDb2dPolyline
 66
     1
 10
0.0
 20
0.0
 30
0.0
  0
VERTEX
  5
5F0
330
5EF
100
AcDbEntity
  8
0
370
     0
100
AcDbVertex
100
AcDb2dVertex
 10
-302.8106691149887
 20
177.5136908831169
 30
0.0
  0
VERTEX
  5
5F1
330
5EF
100
AcDbEntity
  8
0
370
     0
100
AcDbVertex
100
AcDb2dVertex
 10
-302.8128811149887
 20
177.5143008831168
 30
0.0
  0
VERTEX
  5
5F2
330
5EF
100
AcDbEntity
  8
0
370
     0
100
AcDbVertex
100
AcDb2dVertex
 10
-302.8284761149887
 20
177.5155218831169
 30
0.0
  0
VERTEX
  5
5F3
330
5EF
100
AcDbEntity
  8
0
370
     0
100
AcDbVertex
100
AcDb2dVertex
 10
-302.9599301149888
 20
177.5189398831168
 30
0.0
  0
VERTEX
  5
5F4
330
5EF
100
AcDbEntity
  8
0
370
     0
100
AcDbVertex
100
AcDb2dVertex
 10
-303.6576541149888
 20
177.5249208831168
 30
0.0
  0
SEQEND
  5
5F5
330
5EF
100
AcDbEntity
  8
0
370
     0
  0
LINE
  5
5F6
330
1F
100
AcDbEntity
  8
0
 62
     7
 48
0.000981
370
    35
100
AcDbLine
 10
-302.7908321149887
 20
177.4798158831169
 30
0.0
 11
-302.8106691149887
 21
177.5136908831169
 31
0.0
  0
LINE
  5
5F7
330
1F
100
AcDbEntity
  8
0
 62
     7
 48
0.000462
370
    35
100
AcDbLine
 10
-304.3746791149887
 20
165.2978398831168
 30
0.0
 11
-304.3787691149887
 21
165.3158758831169
 31
0.0
  0
POLYLINE
  5
5F8
330
1F
100
AcDbEntity
  8
0
 62
     7
370
    35
100
AcDb2dPolyline
 66
     1
 10
0.0
 20
0.0
 30
0.0
  0
VERTEX
  5
5F9
330
5F8
100
AcDbEntity
  8
0
370
     0
100
AcDbVertex
100
AcDb2dVertex
 10
-304.3214411149886
 20
171.3978458831169
 30
0.0
  0
VERTEX
  5
5FA
330
5F8
100
AcDbEntity
  8
0
370
     0
100
AcDbVertex
100
AcDb2dVertex
 10
-304.3287811149887
 20
168.3087958831167
 30
0.0
  0
VERTEX
  5
5FB
330
5F8
100
AcDbEntity
  8
0
370
     0
100
AcDbVertex
100
AcDb2dVertex
 10
-304.3487551149888
 20
166.0698128831168
 30
0.0
  0
VERTEX
  5
5FC
330
5F8
100
AcDbEntity
  8
0
370
     0
100
AcDbVertex
100
AcDb2dVertex
 10
-304.3657071149886
 20
165.3852728831169
 30
0.0
  0
VERTEX
  5
5FD
330
5F8
100
AcDbEntity
  8
0
370
     0
100
AcDbVertex
100
AcDb2dVertex
 10
-304.3716731149888
 20
165.3075748831166
 30
0.0
  0
VERTEX
  5
5FE
330
5F8
100
AcDbEntity
  8
0
370
     0
100
AcDbVertex
100
AcDb2dVertex
 10
-304.3736721149887
 20
165.2989388831167
 30
0.0
  0
VERTEX
  5
5FF
330
5F8
100
AcDbEntity
  8
0
370
     0
100
AcDbVertex
100
AcDb2dVertex
 10
-304.3746791149887
 20
165.2978398831168
 30
0.0
  0
SEQEND
  5
600
330
5F8
100
AcDbEntity
  8
0
370
     0
  0
POLYLINE
  5
601
330
1F
100
AcDbEntity
  8
0
 62
     7
370
    35
100
AcDb2dPolyline
 66
     1
 10
0.0
 20
0.0
 30
0.0
  0
VERTEX
  5
602
330
601
100
AcDbEntity
  8
0
370
     0
100
AcDbVertex
100
AcDb2dVertex
 10
-302.7760161149887
 20
177.4978218831166
 30
0.0
  0
VERTEX
  5
603
330
601
100
AcDbEntity
  8
0
370
     0
100
AcDbVertex
100
AcDb2dVertex
 10
-302.7754671149887
 20
177.4968448831169
 30
0.0
  0
VERTEX
  5
604
330
601
100
AcDbEntity
  8
0
370
     0
100
AcDbVertex
100
AcDb2dVertex
 10
-302.7757411149886
 20
177.4950748831166
 30
0.0
  0
VERTEX
  5
605
330
601
100
AcDbEntity
  8
0
370
     0
100
AcDbVertex
100
AcDb2dVertex
 10
-302.7777401149888
 20
177.4889108831169
 30
0.0
  0
VERTEX
  5
606
330
601
100
AcDbEntity
  8
0
370
     0
100
AcDbVertex
100
AcDb2dVertex
 10
-302.8108061149887
 20
177.4179268831169
 30
0.0
  0
VERTEX
  5
607
330
601
100
AcDbEntity
  8
0
370
     0
100
AcDbVertex
100
AcDb2dVertex
 10
-303.1006771149887
 20
176.8258248831169
 30
0.0
  0
VERTEX
  5
608
330
601
100
AcDbEntity
  8
0
370
     0
100
AcDbVertex
100
AcDb2dVertex
 10
-303.4317931149888
 20
176.0574528831169
 30
0.0
  0
VERTEX
  5
609
330
601
100
AcDbEntity
  8
0
370
     0
100
AcDbVertex
100
AcDb2dVertex
 10
-303.6027831149886
 20
175.5986518831169
 30
0.0
  0
VERTEX
  5
60A
330
601
100
AcDbEntity
  8
0
370
     0
100
AcDbVertex
100
AcDb2dVertex
 10
-303.8132631149887
 20
174.9439278831169
 30
0.0
  0
VERTEX
  5
60B
330
601
100
AcDbEntity
  8
0
370
     0
100
AcDbVertex
100
AcDb2dVertex
 10
-303.9988861149887
 20
174.2326848831168
 30
0.0
  0
VERTEX
  5
60C
330
601
100
AcDbEntity
  8
0
370
     0
100
AcDbVertex
100
AcDb2dVertex
 10
-304.1734461149887
 20
173.3242068831169
 30
0.0
  0
VERTEX
  5
60D
330
601
100
AcDbEntity
  8
0
370
     0
100
AcDbVertex
100
AcDb2dVertex
 10
-304.2837521149887
 20
172.3720278831169
 30
0.0
  0
VERTEX
  5
60E
330
601
100
AcDbEntity
  8
0
370
     0
100
AcDbVertex
100
AcDb2dVertex
 10
-304.3214411149886
 20
171.3978458831169
 30
0.0
  0
SEQEND
  5
60F
330
601
100
AcDbEntity
  8
0
370
     0
  0
LINE
  5
610
330
1F
100
AcDbEntity
  8
0
 62
     7
 48
0.000583
370
    35
100
AcDbLine
 10
-302.7760161149887
 20
177.4978218831166
 30
0.0
 11
-302.7908321149887
 21
177.4798158831169
 31
0.0
  0
ARC
  5
611
330
1F
100
AcDbEntity
  8
0
 62
     7
370
    35
100
AcDbCircle
 10
-291.9375151149887
 20
171.3978458831169
 30
0.0
 40
16.0
100
AcDbArc
 50
90.00000300000095
 51
157.1770369999971
  0
LINE
  5
612
330
1F
100
AcDbEntity
  8
0
 62
     7
370
    35
100
AcDbLine
 10
126.0624848850112
 20
187.3978458831168
 30
0.0
 11
-291.9375151149887
 21
187.3978458831168
 31
0.0
  0
ARC
  5
613
330
1F
100
AcDbEntity
  8
0
 62
     7
370
    35
100
AcDbCircle
 10
-291.9375151149887
 20
171.3978458831169
 30
0.0
 40
12.475126
100
AcDbArc
 50
90.00000300000095
 51
150.6434970000024
  0
LINE
  5
614
330
1F
100
AcDbEntity
  8
0
 62
     7
370
    35
100
AcDbLine
 10
-304.4126431149887
 20
-31.48630911688332
 30
0.0
 11
-304.4126431149887
 21
165.2820008831169
 31
0.0
  0
LINE
  5
615
330
1F
100
AcDbEntity
  8
0
 62
     7
 48
0.001198
370
    35
100
AcDbLine
 10
-304.3787691149887
 20
165.3158758831169
 30
0.0
 11
-304.4126431149887
 21
165.2820008831169
 31
0.0
  0
POLYLINE
  5
616
330
1F
100
AcDbEntity
  8
0
 62
     7
370
    35
100
AcDb2dPolyline
 66
     1
 10
0.0
 20
0.0
 30
0.0
  0
VERTEX
  5
617
330
616
100
AcDbEntity
  8
0
370
     0
100
AcDbVertex
100
AcDb2dVertex
 10
-304.3214411149886
 20
-37.60215411688314
 30
0.0
  0
VERTEX
  5
618
330
616
100
AcDbEntity
  8
0
370
     0
100
AcDbVertex
100
AcDb2dVertex
 10
-304.3287811149887
 20
-34.5131031168832
 30
0.0
  0
VERTEX
  5
619
330
616
100
AcDbEntity
  8
0
370
     0
100
AcDbVertex
100
AcDb2dVertex
 10
-304.3487551149888
 20
-32.27412011688335
 30
0.0
  0
VERTEX
  5
61A
330
616
100
AcDbEntity
  8
0
370
     0
100
AcDbVertex
100
AcDb2dVertex
 10
-304.3657071149886
 20
-31.58958111688316
 30
0.0
  0
VERTEX
  5
61B
330
616
100
AcDbEntity
  8
0
370
     0
100
AcDbVertex
100
AcDb2dVertex
 10
-304.3716731149888
 20
-31.51188311688344
 30
0.0
  0
VERTEX
  5
61C
330
616
100
AcDbEntity
  8
0
370
     0
100
AcDbVertex
100
AcDb2dVertex
 10
-304.3736721149887
 20
-31.50324611688319
 30
0.0
  0
VERTEX
  5
61D
330
616
100
AcDbEntity
  8
0
370
     0
100
AcDbVertex
100
AcDb2dVertex
 10
-304.3746791149887
 20
-31.50214811688335
 30
0.0
  0
SEQEND
  5
61E
330
616
100
AcDbEntity
  8
0
370
     0
  0
LINE
  5
61F
330
1F
100
AcDbEntity
  8
0
 62
     7
 48
0.000462
370
    35
100
AcDbLine
 10
-304.3746791149887
 20
-31.50214811688335
 30
0.0
 11
-304.3787691149887
 21
-31.52018411688317
 31
0.0
  0
LINE
  5
620
330
1F
100
AcDbEntity
  8
0
 62
     7
 48
0.001198
370
    35
100
AcDbLine
 10
-304.3787691149887
 20
-31.52018411688317
 30
0.0
 11
-304.4126431149887
 21
-31.48630911688332
 31
0.0
  0
POLYLINE
  5
621
330
1F
100
AcDbEntity
  8
0
 62
     7
370
    35
100
AcDb2dPolyline
 66
     1
 10
0.0
 20
0.0
 30
0.0
  0
VERTEX
  5
622
330
621
100
AcDbEntity
  8
0
370
     0
100
AcDbVertex
100
AcDb2dVertex
 10
-305.1625821149887
 20
165.2708018831169
 30
0.0
  0
VERTEX
  5
623
330
621
100
AcDbEntity
  8
0
370
     0
100
AcDbVertex
100
AcDb2dVertex
 10
-304.4372101149887
 20
165.2797738831169
 30
0.0
  0
VERTEX
  5
624
330
621
100
AcDbEntity
  8
0
370
     0
100
AcDbVertex
100
AcDb2dVertex
 10
-304.4158781149887
 20
165.2812688831168
 30
0.0
  0
VERTEX
  5
625
330
621
100
AcDbEntity
  8
0
370
     0
100
AcDbVertex
100
AcDb2dVertex
 10
-304.4126431149887
 20
165.2820008831169
 30
0.0
  0
SEQEND
  5
626
330
621
100
AcDbEntity
  8
0
370
     0
  0
LINE
  5
627
330
1F
100
AcDbEntity
  8
0
 62
     7
 48
0.049176
370
    35
100
AcDbLine
 10
-305.1625821149887
 20
165.2708018831169
 30
0.0
 11
-307.1296081149887
 21
165.2608828831169
 31
0.0
  0
POLYLINE
  5
628
330
1F
100
AcDbEntity
  8
0
 62
     7
370
    35
100
AcDb2dPolyline
 66
     1
 10
0.0
 20
0.0
 30
0.0
  0
VERTEX
  5
629
330
628
100
AcDbEntity
  8
0
370
     0
100
AcDbVertex
100
AcDb2dVertex
 10
-307.8795471149887
 20
165.2496528831167
 30
0.0
  0
VERTEX
  5
62A
330
628
100
AcDbEntity
  8
0
370
     0
100
AcDbVertex
100
AcDb2dVertex
 10
-307.8762811149887
 20
165.2504158831169
 30
0.0
  0
VERTEX
  5
62B
330
628
100
AcDbEntity
  8
0
370
     0
100
AcDbVertex
100
AcDb2dVertex
 10
-307.8547821149888
 20
165.2519108831168
 30
0.0
  0
VERTEX
  5
62C
330
628
100
AcDbEntity
  8
0
370
     0
100
AcDbVertex
100
AcDb2dVertex
 10
-307.1296081149887
 20
165.2608828831169
 30
0.0
  0
SEQEND
  5
62D
330
628
100
AcDbEntity
  8
0
370
     0
  0
LINE
  5
62E
330
1F
100
AcDbEntity
  8
0
 62
     7
 48
0.002049
370
    35
100
AcDbLine
 10
-307.9375151149887
 20
165.1916998831169
 30
0.0
 11
-307.8795471149887
 21
165.2496528831167
 31
0.0
  0
LINE
  5
62F
330
1F
100
AcDbEntity
  8
0
 62
     7
 48
0.000981
370
    35
100
AcDbLine
 10
136.9356538850112
 20
177.5136908831169
 30
0.0
 11
136.9158178850113
 21
177.4798158831169
 31
0.0
  0
POLYLINE
  5
630
330
1F
100
AcDbEntity
  8
0
 62
     7
370
    35
100
AcDb2dPolyline
 66
     1
 10
0.0
 20
0.0
 30
0.0
  0
VERTEX
  5
631
330
630
100
AcDbEntity
  8
0
370
     0
100
AcDbVertex
100
AcDb2dVertex
 10
136.9356538850112
 20
177.5136908831169
 30
0.0
  0
VERTEX
  5
632
330
630
100
AcDbEntity
  8
0
370
     0
100
AcDbVertex
100
AcDb2dVertex
 10
136.9378508850112
 20
177.5143008831168
 30
0.0
  0
VERTEX
  5
633
330
630
100
AcDbEntity
  8
0
370
     0
100
AcDbVertex
100
AcDb2dVertex
 10
136.9534758850112
 20
177.5155218831169
 30
0.0
  0
VERTEX
  5
634
330
630
100
AcDbEntity
  8
0
370
     0
100
AcDbVertex
100
AcDb2dVertex
 10
137.0848848850112
 20
177.5189398831168
 30
0.0
  0
VERTEX
  5
635
330
630
100
AcDbEntity
  8
0
370
     0
100
AcDbVertex
100
AcDb2dVertex
 10
137.7826388850112
 20
177.5249208831168
 30
0.0
  0
SEQEND
  5
636
330
630
100
AcDbEntity
  8
0
370
     0
  0
LINE
  5
637
330
1F
100
AcDbEntity
  8
0
 62
     7
 48
0.054432
370
    35
100
AcDbLine
 10
139.9598848850112
 20
177.5348088831169
 30
0.0
 11
137.7826388850112
 21
177.5249208831168
 31
0.0
  0
POLYLINE
  5
638
330
1F
100
AcDbEntity
  8
0
 62
     7
370
    35
100
AcDb2dPolyline
 66
     1
 10
0.0
 20
0.0
 30
0.0
  0
VERTEX
  5
639
330
638
100
AcDbEntity
  8
0
370
     0
100
AcDbVertex
100
AcDb2dVertex
 10
139.9598848850112
 20
177.5348088831169
 30
0.0
  0
VERTEX
  5
63A
330
638
100
AcDbEntity
  8
0
370
     0
100
AcDbVertex
100
AcDb2dVertex
 10
140.5552828850112
 20
177.5395698831169
 30
0.0
  0
VERTEX
  5
63B
330
638
100
AcDbEntity
  8
0
370
     0
100
AcDbVertex
100
AcDb2dVertex
 10
140.7625578850113
 20
177.5447578831169
 30
0.0
  0
VERTEX
  5
63C
330
638
100
AcDbEntity
  8
0
370
     0
100
AcDbVertex
100
AcDb2dVertex
 10
140.7701268850112
 20
177.5456118831169
 30
0.0
  0
VERTEX
  5
63D
330
638
100
AcDbEntity
  8
0
370
     0
100
AcDbVertex
100
AcDb2dVertex
 10
140.7712248850113
 20
177.5460398831168
 30
0.0
  0
SEQEND
  5
63E
330
638
100
AcDbEntity
  8
0
370
     0
  0
LINE
  5
63F
330
1F
100
AcDbEntity
  8
0
 62
     7
 48
0.001741
370
    35
100
AcDbLine
 10
140.8097988850112
 20
177.6040228831169
 30
0.0
 11
140.7712248850113
 21
177.5460398831168
 31
0.0
  0
LINE
  5
640
330
1F
100
AcDbEntity
  8
0
 62
     7
370
    35
100
AcDbLine
 10
126.0624848850112
 20
183.8729438831169
 30
0.0
 11
-291.9375151149887
 21
183.8729438831169
 31
0.0
  0
LINE
  5
641
330
1F
100
AcDbEntity
  8
0
 62
     7
 48
0.002049
370
    35
100
AcDbLine
 10
-307.9375151149887
 20
-31.39600811688314
 30
0.0
 11
-307.8795471149887
 21
-31.45396011688314
 31
0.0
  0
POLYLINE
  5
642
330
1F
100
AcDbEntity
  8
0
 62
     7
370
    35
100
AcDb2dPolyline
 66
     1
 10
0.0
 20
0.0
 30
0.0
  0
VERTEX
  5
643
330
642
100
AcDbEntity
  8
0
370
     0
100
AcDbVertex
100
AcDb2dVertex
 10
-307.8795471149887
 20
-31.45396011688314
 30
0.0
  0
VERTEX
  5
644
330
642
100
AcDbEntity
  8
0
370
     0
100
AcDbVertex
100
AcDb2dVertex
 10
-307.8762811149887
 20
-31.45472311688314
 30
0.0
  0
VERTEX
  5
645
330
642
100
AcDbEntity
  8
0
370
     0
100
AcDbVertex
100
AcDb2dVertex
 10
-307.8547821149888
 20
-31.45621911688335
 30
0.0
  0
VERTEX
  5
646
330
642
100
AcDbEntity
  8
0
370
     0
100
AcDbVertex
100
AcDb2dVertex
 10
-307.1296081149887
 20
-31.4651911168832
 30
0.0
  0
SEQEND
  5
647
330
642
100
AcDbEntity
  8
0
370
     0
  0
LINE
  5
648
330
1F
100
AcDbEntity
  8
0
 62
     7
 48
0.049176
370
    35
100
AcDbLine
 10
-305.1625821149887
 20
-31.47510911688318
 30
0.0
 11
-307.1296081149887
 21
-31.4651911168832
 31
0.0
  0
POLYLINE
  5
649
330
1F
100
AcDbEntity
  8
0
 62
     7
370
    35
100
AcDb2dPolyline
 66
     1
 10
0.0
 20
0.0
 30
0.0
  0
VERTEX
  5
64A
330
649
100
AcDbEntity
  8
0
370
     0
100
AcDbVertex
100
AcDb2dVertex
 10
-305.1625821149887
 20
-31.47510911688318
 30
0.0
  0
VERTEX
  5
64B
330
649
100
AcDbEntity
  8
0
370
     0
100
AcDbVertex
100
AcDb2dVertex
 10
-304.4372101149887
 20
-31.48408111688315
 30
0.0
  0
VERTEX
  5
64C
330
649
100
AcDbEntity
  8
0
370
     0
100
AcDbVertex
100
AcDb2dVertex
 10
-304.4158781149887
 20
-31.48557711688346
 30
0.0
  0
VERTEX
  5
64D
330
649
100
AcDbEntity
  8
0
370
     0
100
AcDbVertex
100
AcDb2dVertex
 10
-304.4126431149887
 20
-31.48630911688332
 30
0.0
  0
SEQEND
  5
64E
330
649
100
AcDbEntity
  8
0
370
     0
  0
LINE
  5
64F
330
1F
100
AcDbEntity
  8
0
 62
     7
 48
0.000584
370
    35
100
AcDbLine
 10
-302.7760161149887
 20
-43.70216011688313
 30
0.0
 11
-302.7908321149887
 21
-43.6841241168832
 31
0.0
  0
POLYLINE
  5
650
330
1F
100
AcDbEntity
  8
0
 62
     7
370
    35
100
AcDb2dPolyline
 66
     1
 10
0.0
 20
0.0
 30
0.0
  0
VERTEX
  5
651
330
650
100
AcDbEntity
  8
0
370
     0
100
AcDbVertex
100
AcDb2dVertex
 10
-302.7760161149887
 20
-43.70216011688313
 30
0.0
  0
VERTEX
  5
652
330
650
100
AcDbEntity
  8
0
370
     0
100
AcDbVertex
100
AcDb2dVertex
 10
-302.7754671149887
 20
-43.70115311688318
 30
0.0
  0
VERTEX
  5
653
330
650
100
AcDbEntity
  8
0
370
     0
100
AcDbVertex
100
AcDb2dVertex
 10
-302.7757411149886
 20
-43.69938311688321
 30
0.0
  0
VERTEX
  5
654
330
650
100
AcDbEntity
  8
0
370
     0
100
AcDbVertex
100
AcDb2dVertex
 10
-302.7777401149888
 20
-43.69318811688314
 30
0.0
  0
VERTEX
  5
655
330
650
100
AcDbEntity
  8
0
370
     0
100
AcDbVertex
100
AcDb2dVertex
 10
-302.8108061149887
 20
-43.62220411688321
 30
0.0
  0
VERTEX
  5
656
330
650
100
AcDbEntity
  8
0
370
     0
100
AcDbVertex
100
AcDb2dVertex
 10
-303.1006771149887
 20
-43.03016311688319
 30
0.0
  0
VERTEX
  5
657
330
650
100
AcDbEntity
  8
0
370
     0
100
AcDbVertex
100
AcDb2dVertex
 10
-303.4317931149888
 20
-42.26173011688313
 30
0.0
  0
VERTEX
  5
658
330
650
100
AcDbEntity
  8
0
370
     0
100
AcDbVertex
100
AcDb2dVertex
 10
-303.6027831149886
 20
-41.80299011688322
 30
0.0
  0
VERTEX
  5
659
330
650
100
AcDbEntity
  8
0
370
     0
100
AcDbVertex
100
AcDb2dVertex
 10
-303.8132631149887
 20
-41.14820511688313
 30
0.0
  0
VERTEX
  5
65A
330
650
100
AcDbEntity
  8
0
370
     0
100
AcDbVertex
100
AcDb2dVertex
 10
-303.9988861149887
 20
-40.43699311688322
 30
0.0
  0
VERTEX
  5
65B
330
650
100
AcDbEntity
  8
0
370
     0
100
AcDbVertex
100
AcDb2dVertex
 10
-304.1734461149887
 20
-39.52851511688317
 30
0.0
  0
VERTEX
  5
65C
330
650
100
AcDbEntity
  8
0
370
     0
100
AcDbVertex
100
AcDb2dVertex
 10
-304.2837521149887
 20
-38.57633611688317
 30
0.0
  0
VERTEX
  5
65D
330
650
100
AcDbEntity
  8
0
370
     0
100
AcDbVertex
100
AcDb2dVertex
 10
-304.3214411149886
 20
-37.60215411688314
 30
0.0
  0
SEQEND
  5
65E
330
650
100
AcDbEntity
  8
0
370
     0
  0
LINE
  5
65F
330
1F
100
AcDbEntity
  8
0
 62
     7
 48
0.000981
370
    35
100
AcDbLine
 10
-302.8106691149887
 20
-43.71799911688316
 30
0.0
 11
-302.7908321149887
 21
-43.6841241168832
 31
0.0
  0
ARC
  5
660
330
1F
100
AcDbEntity
  8
0
 62
     7
370
    35
100
AcDbCircle
 10
-291.9375151149887
 20
-37.60215411688314
 30
0.0
 40
12.475126
100
AcDbArc
 50
209.3565029999975
 51
269.9999969999991
  0
LINE
  5
661
330
1F
100
AcDbEntity
  8
0
 62
     7
 48
0.049998
370
    13
100
AcDbLine
 10
-302.0403591149888
 20
-24.9048581168832
 30
0.0
 11
-304.0402831149886
 21
-24.9048581168832
 31
0.0
  0
LINE
  5
662
330
1F
100
AcDbEntity
  8
0
 62
     7
370
    35
100
AcDbLine
 10
-307.9375151149887
 20
-31.39600811688314
 30
0.0
 11
-307.9375151149887
 21
165.1916998831169
 31
0.0
  0
LINE
  5
663
330
1F
100
AcDbEntity
  8
0
 62
     7
 48
0.000583
370
    35
100
AcDbLine
 10
136.9009858850112
 20
177.4978218831166
 30
0.0
 11
136.9158178850113
 21
177.4798158831169
 31
0.0
  0
POLYLINE
  5
664
330
1F
100
AcDbEntity
  8
0
 62
     7
370
    35
100
AcDb2dPolyline
 66
     1
 10
0.0
 20
0.0
 30
0.0
  0
VERTEX
  5
665
330
664
100
AcDbEntity
  8
0
370
     0
100
AcDbVertex
100
AcDb2dVertex
 10
136.9009858850112
 20
177.4978218831166
 30
0.0
  0
VERTEX
  5
666
330
664
100
AcDbEntity
  8
0
370
     0
100
AcDbVertex
100
AcDb2dVertex
 10
136.9004368850112
 20
177.4968448831169
 30
0.0
  0
VERTEX
  5
667
330
664
100
AcDbEntity
  8
0
370
     0
100
AcDbVertex
100
AcDb2dVertex
 10
136.9007418850112
 20
177.4950748831166
 30
0.0
  0
VERTEX
  5
668
330
664
100
AcDbEntity
  8
0
370
     0
100
AcDbVertex
100
AcDb2dVertex
 10
136.9026948850112
 20
177.4889108831169
 30
0.0
  0
VERTEX
  5
669
330
664
100
AcDbEntity
  8
0
370
     0
100
AcDbVertex
100
AcDb2dVertex
 10
136.9357758850112
 20
177.4179268831169
 30
0.0
  0
VERTEX
  5
66A
330
664
100
AcDbEntity
  8
0
370
     0
100
AcDbVertex
100
AcDb2dVertex
 10
137.2256318850112
 20
176.8258248831169
 30
0.0
  0
VERTEX
  5
66B
330
664
100
AcDbEntity
  8
0
370
     0
100
AcDbVertex
100
AcDb2dVertex
 10
137.5567478850111
 20
176.0574528831169
 30
0.0
  0
VERTEX
  5
66C
330
664
100
AcDbEntity
  8
0
370
     0
100
AcDbVertex
100
AcDb2dVertex
 10
137.7277678850113
 20
175.5986518831169
 30
0.0
  0
VERTEX
  5
66D
330
664
100
AcDbEntity
  8
0
370
     0
100
AcDbVertex
100
AcDb2dVertex
 10
137.9382168850113
 20
174.9439278831169
 30
0.0
  0
VERTEX
  5
66E
330
664
100
AcDbEntity
  8
0
370
     0
100
AcDbVertex
100
AcDb2dVertex
 10
138.1238858850111
 20
174.2326848831168
 30
0.0
  0
VERTEX
  5
66F
330
664
100
AcDbEntity
  8
0
370
     0
100
AcDbVertex
100
AcDb2dVertex
 10
138.2984468850112
 20
173.3242068831169
 30
0.0
  0
VERTEX
  5
670
330
664
100
AcDbEntity
  8
0
370
     0
100
AcDbVertex
100
AcDb2dVertex
 10
138.4087368850112
 20
172.3720278831169
 30
0.0
  0
VERTEX
  5
671
330
664
100
AcDbEntity
  8
0
370
     0
100
AcDbVertex
100
AcDb2dVertex
 10
138.4463958850112
 20
171.3978458831169
 30
0.0
  0
SEQEND
  5
672
330
664
100
AcDbEntity
  8
0
370
     0
  0
POLYLINE
  5
673
330
1F
100
AcDbEntity
  8
0
 62
     7
370
    35
100
AcDb2dPolyline
 66
     1
 10
0.0
 20
0.0
 30
0.0
  0
VERTEX
  5
674
330
673
100
AcDbEntity
  8
0
370
     0
100
AcDbVertex
100
AcDb2dVertex
 10
138.4463958850112
 20
171.3978458831169
 30
0.0
  0
VERTEX
  5
675
330
673
100
AcDbEntity
  8
0
370
     0
100
AcDbVertex
100
AcDb2dVertex
 10
138.4537198850112
 20
168.3087958831167
 30
0.0
  0
VERTEX
  5
676
330
673
100
AcDbEntity
  8
0
370
     0
100
AcDbVertex
100
AcDb2dVertex
 10
138.4737398850113
 20
166.0698128831168
 30
0.0
  0
VERTEX
  5
677
330
673
100
AcDbEntity
  8
0
370
     0
100
AcDbVertex
100
AcDb2dVertex
 10
138.4907078850112
 20
165.3852728831169
 30
0.0
  0
VERTEX
  5
678
330
673
100
AcDbEntity
  8
0
370
     0
100
AcDbVertex
100
AcDb2dVertex
 10
138.4966278850112
 20
165.3075748831166
 30
0.0
  0
VERTEX
  5
679
330
673
100
AcDbEntity
  8
0
370
     0
100
AcDbVertex
100
AcDb2dVertex
 10
138.4986418850112
 20
165.2989388831167
 30
0.0
  0
VERTEX
  5
67A
330
673
100
AcDbEntity
  8
0
370
     0
100
AcDbVertex
100
AcDb2dVertex
 10
138.4996188850112
 20
165.2978398831168
 30
0.0
  0
SEQEND
  5
67B
330
673
100
AcDbEntity
  8
0
370
     0
  0
LINE
  5
67C
330
1F
100
AcDbEntity
  8
0
 62
     7
 48
0.000463
370
    35
100
AcDbLine
 10
138.4996188850112
 20
165.2978398831168
 30
0.0
 11
138.5037688850111
 21
165.3158758831169
 31
0.0
  0
ARC
  5
67D
330
1F
100
AcDbEntity
  8
0
 62
     7
370
    35
100
AcDbCircle
 10
126.0624848850112
 20
171.3978458831169
 30
0.0
 40
12.475126
100
AcDbArc
 50
29.35650799999789
 51
90.00000300000095
  0
LINE
  5
67E
330
1F
100
AcDbEntity
  8
0
 62
     7
370
    13
100
AcDbLine
 10
136.1653288850112
 20
-24.9048581168832
 30
0.0
 11
-302.0403591149888
 21
-24.9048581168832
 31
0.0
  0
LINE
  5
67F
330
1F
100
AcDbEntity
  8
0
 62
     7
370
    13
100
AcDbLine
 10
136.1653288850112
 20
158.7005498831169
 30
0.0
 11
-302.0403591149888
 21
158.7005498831169
 31
0.0
  0
LINE
  5
680
330
1F
100
AcDbEntity
  8
0
 62
     7
 48
0.4
370
    35
100
AcDbLine
 10
113.5624848850112
 20
145.3978458831169
 30
0.0
 11
113.5624848850112
 21
129.3978458831168
 31
0.0
  0
ARC
  5
681
330
1F
100
AcDbEntity
  8
0
 62
     7
370
    35
100
AcDbCircle
 10
111.5624848850112
 20
129.3978458831168
 30
0.0
 40
2.0
100
AcDbArc
 50
269.9999969999991
 51
0.0
  0
LINE
  5
682
330
1F
100
AcDbEntity
  8
0
 62
     7
370
    35
100
AcDbLine
 10
68.56248488501134
 20
127.3978458831167
 30
0.0
 11
111.5624848850112
 21
127.3978458831167
 31
0.0
  0
ARC
  5
683
330
1F
100
AcDbEntity
  8
0
 62
     7
370
    35
100
AcDbCircle
 10
68.56248488501134
 20
129.3978458831168
 30
0.0
 40
2.0
100
AcDbArc
 50
179.9999949999995
 51
269.9999969999991
  0
LINE
  5
684
330
1F
100
AcDbEntity
  8
0
 62
     7
 48
0.4
370
    35
100
AcDbLine
 10
66.56248488501134
 20
129.3978458831168
 30
0.0
 11
66.56248488501134
 21
145.3978458831169
 31
0.0
  0
ARC
  5
685
330
1F
100
AcDbEntity
  8
0
 62
     7
370
    35
100
AcDbCircle
 10
68.56248488501134
 20
145.3978458831169
 30
0.0
 40
2.0
100
AcDbArc
 50
90.00000300000095
 51
180.0000050000005
  0
LINE
  5
686
330
1F
100
AcDbEntity
  8
0
 62
     7
370
    35
100
AcDbLine
 10
111.5624848850112
 20
147.3978458831167
 30
0.0
 11
68.56248488501134
 21
147.3978458831167
 31
0.0
  0
ARC
  5
687
330
1F
100
AcDbEntity
  8
0
 62
     7
370
    35
100
AcDbCircle
 10
111.5624848850112
 20
145.3978458831169
 30
0.0
 40
2.0
100
AcDbArc
 50
0.0
 51
90.00000300000095
  0
POLYLINE
  5
688
330
1F
100
AcDbEntity
  8
0
 62
     7
370
    35
100
AcDb2dPolyline
 66
     1
 10
0.0
 20
0.0
 30
0.0
  0
VERTEX
  5
689
330
688
100
AcDbEntity
  8
0
370
     0
100
AcDbVertex
100
AcDb2dVertex
 10
-302.8106691149887
 20
-43.71799911688316
 30
0.0
  0
VERTEX
  5
68A
330
688
100
AcDbEntity
  8
0
370
     0
100
AcDbVertex
100
AcDb2dVertex
 10
-302.8128811149887
 20
-43.71860911688322
 30
0.0
  0
VERTEX
  5
68B
330
688
100
AcDbEntity
  8
0
370
     0
100
AcDbVertex
100
AcDb2dVertex
 10
-302.8284761149887
 20
-43.71979911688314
 30
0.0
  0
VERTEX
  5
68C
330
688
100
AcDbEntity
  8
0
370
     0
100
AcDbVertex
100
AcDb2dVertex
 10
-302.9599301149888
 20
-43.72324811688321
 30
0.0
  0
VERTEX
  5
68D
330
688
100
AcDbEntity
  8
0
370
     0
100
AcDbVertex
100
AcDb2dVertex
 10
-303.6576541149888
 20
-43.72919811688318
 30
0.0
  0
SEQEND
  5
68E
330
688
100
AcDbEntity
  8
0
370
     0
  0
LINE
  5
68F
330
1F
100
AcDbEntity
  8
0
 62
     7
 48
0.054432
370
    35
100
AcDbLine
 10
-305.8349001149887
 20
-43.73911711688314
 30
0.0
 11
-303.6576541149888
 21
-43.72919811688318
 31
0.0
  0
POLYLINE
  5
690
330
1F
100
AcDbEntity
  8
0
 62
     7
370
    35
100
AcDb2dPolyline
 66
     1
 10
0.0
 20
0.0
 30
0.0
  0
VERTEX
  5
691
330
690
100
AcDbEntity
  8
0
370
     0
100
AcDbVertex
100
AcDb2dVertex
 10
-305.8349001149887
 20
-43.73911711688314
 30
0.0
  0
VERTEX
  5
692
330
690
100
AcDbEntity
  8
0
370
     0
100
AcDbVertex
100
AcDb2dVertex
 10
-306.4303281149887
 20
-43.74390811688323
 30
0.0
  0
VERTEX
  5
693
330
690
100
AcDbEntity
  8
0
370
     0
100
AcDbVertex
100
AcDb2dVertex
 10
-306.6376191149887
 20
-43.74906511688317
 30
0.0
  0
VERTEX
  5
694
330
690
100
AcDbEntity
  8
0
370
     0
100
AcDbVertex
100
AcDb2dVertex
 10
-306.6451411149888
 20
-43.74992011688317
 30
0.0
  0
VERTEX
  5
695
330
690
100
AcDbEntity
  8
0
370
     0
100
AcDbVertex
100
AcDb2dVertex
 10
-306.6462861149887
 20
-43.75034711688335
 30
0.0
  0
SEQEND
  5
696
330
690
100
AcDbEntity
  8
0
370
     0
  0
LINE
  5
697
330
1F
100
AcDbEntity
  8
0
 62
     7
 48
0.00174
370
    35
100
AcDbLine
 10
-306.6848451149888
 20
-43.80830011688323
 30
0.0
 11
-306.6462861149887
 21
-43.75034711688335
 31
0.0
  0
LINE
  5
698
330
1F
100
AcDbEntity
  8
0
 62
     7
370
    35
100
AcDbLine
 10
-291.9375151149887
 20
-50.07728211688315
 30
0.0
 11
126.0624848850112
 21
-50.07728211688315
 31
0.0
  0
LINE
  5
699
330
1F
100
AcDbEntity
  8
0
 62
     7
 48
0.002049
370
    35
100
AcDbLine
 10
142.0624848850112
 20
165.1916998831169
 30
0.0
 11
142.0045018850112
 21
165.2496528831167
 31
0.0
  0
POLYLINE
  5
69A
330
1F
100
AcDbEntity
  8
0
 62
     7
370
    35
100
AcDb2dPolyline
 66
     1
 10
0.0
 20
0.0
 30
0.0
  0
VERTEX
  5
69B
330
69A
100
AcDbEntity
  8
0
370
     0
100
AcDbVertex
100
AcDb2dVertex
 10
142.0045018850112
 20
165.2496528831167
 30
0.0
  0
VERTEX
  5
69C
330
69A
100
AcDbEntity
  8
0
370
     0
100
AcDbVertex
100
AcDb2dVertex
 10
142.0012668850113
 20
165.2504158831169
 30
0.0
  0
VERTEX
  5
69D
330
69A
100
AcDbEntity
  8
0
370
     0
100
AcDbVertex
100
AcDb2dVertex
 10
141.9797208850112
 20
165.2519108831168
 30
0.0
  0
VERTEX
  5
69E
330
69A
100
AcDbEntity
  8
0
370
     0
100
AcDbVertex
100
AcDb2dVertex
 10
141.2545628850113
 20
165.2608828831169
 30
0.0
  0
SEQEND
  5
69F
330
69A
100
AcDbEntity
  8
0
370
     0
  0
LINE
  5
6A0
330
1F
100
AcDbEntity
  8
0
 62
     7
 48
0.049175
370
    35
100
AcDbLine
 10
139.2875828850112
 20
165.2708018831169
 30
0.0
 11
141.2545628850113
 21
165.2608828831169
 31
0.0
  0
POLYLINE
  5
6A1
330
1F
100
AcDbEntity
  8
0
 62
     7
370
    35
100
AcDb2dPolyline
 66
     1
 10
0.0
 20
0.0
 30
0.0
  0
VERTEX
  5
6A2
330
6A1
100
AcDbEntity
  8
0
370
     0
100
AcDbVertex
100
AcDb2dVertex
 10
139.2875828850112
 20
165.2708018831169
 30
0.0
  0
VERTEX
  5
6A3
330
6A1
100
AcDbEntity
  8
0
370
     0
100
AcDbVertex
100
AcDb2dVertex
 10
138.5621798850111
 20
165.2797738831169
 30
0.0
  0
VERTEX
  5
6A4
330
6A1
100
AcDbEntity
  8
0
370
     0
100
AcDbVertex
100
AcDb2dVertex
 10
138.5408788850113
 20
165.2812688831168
 30
0.0
  0
VERTEX
  5
6A5
330
6A1
100
AcDbEntity
  8
0
370
     0
100
AcDbVertex
100
AcDb2dVertex
 10
138.5375828850112
 20
165.2820008831169
 30
0.0
  0
SEQEND
  5
6A6
330
6A1
100
AcDbEntity
  8
0
370
     0
  0
LINE
  5
6A7
330
1F
100
AcDbEntity
  8
0
 62
     7
 48
0.001197
370
    35
100
AcDbLine
 10
138.5037688850111
 20
165.3158758831169
 30
0.0
 11
138.5375828850112
 21
165.2820008831169
 31
0.0
  0
LINE
  5
6A8
330
1F
100
AcDbEntity
  8
0
 62
     7
370
    35
100
AcDbLine
 10
138.5375828850112
 20
165.2820008831169
 30
0.0
 11
138.5375828850112
 21
-31.48630911688332
 31
0.0
  0
LINE
  5
6A9
330
1F
100
AcDbEntity
  8
0
 62
     7
 48
0.001197
370
    35
100
AcDbLine
 10
138.5037688850111
 20
-31.52018411688317
 30
0.0
 11
138.5375828850112
 21
-31.48630911688332
 31
0.0
  0
LINE
  5
6AA
330
1F
100
AcDbEntity
  8
0
 62
     7
 48
0.000463
370
    35
100
AcDbLine
 10
138.4996188850112
 20
-31.50214811688335
 30
0.0
 11
138.5037688850111
 21
-31.52018411688317
 31
0.0
  0
POLYLINE
  5
6AB
330
1F
100
AcDbEntity
  8
0
 62
     7
370
    35
100
AcDb2dPolyline
 66
     1
 10
0.0
 20
0.0
 30
0.0
  0
VERTEX
  5
6AC
330
6AB
100
AcDbEntity
  8
0
370
     0
100
AcDbVertex
100
AcDb2dVertex
 10
138.4463958850112
 20
-37.60215411688314
 30
0.0
  0
VERTEX
  5
6AD
330
6AB
100
AcDbEntity
  8
0
370
     0
100
AcDbVertex
100
AcDb2dVertex
 10
138.4537198850112
 20
-34.5131031168832
 30
0.0
  0
VERTEX
  5
6AE
330
6AB
100
AcDbEntity
  8
0
370
     0
100
AcDbVertex
100
AcDb2dVertex
 10
138.4737398850113
 20
-32.27412011688335
 30
0.0
  0
VERTEX
  5
6AF
330
6AB
100
AcDbEntity
  8
0
370
     0
100
AcDbVertex
100
AcDb2dVertex
 10
138.4907078850112
 20
-31.58958111688316
 30
0.0
  0
VERTEX
  5
6B0
330
6AB
100
AcDbEntity
  8
0
370
     0
100
AcDbVertex
100
AcDb2dVertex
 10
138.4966278850112
 20
-31.51188311688344
 30
0.0
  0
VERTEX
  5
6B1
330
6AB
100
AcDbEntity
  8
0
370
     0
100
AcDbVertex
100
AcDb2dVertex
 10
138.4986418850112
 20
-31.50324611688319
 30
0.0
  0
VERTEX
  5
6B2
330
6AB
100
AcDbEntity
  8
0
370
     0
100
AcDbVertex
100
AcDb2dVertex
 10
138.4996188850112
 20
-31.50214811688335
 30
0.0
  0
SEQEND
  5
6B3
330
6AB
100
AcDbEntity
  8
0
370
     0
  0
LINE
  5
6B4
330
1F
100
AcDbEntity
  8
0
 62
     7
 48
0.049998
370
    13
100
AcDbLine
 10
136.1653288850112
 20
-24.9048581168832
 30
0.0
 11
138.1652678850113
 21
-24.9048581168832
 31
0.0
  0
ARC
  5
6B5
330
1F
100
AcDbEntity
  8
0
 62
     7
370
    35
100
AcDbCircle
 10
-291.9375151149887
 20
-37.60215411688314
 30
0.0
 40
16.0
100
AcDbArc
 50
202.8229630000029
 51
269.9999969999991
  0
ARC
  5
6B6
330
1F
100
AcDbEntity
  8
0
 62
     7
370
    35
100
AcDbCircle
 10
126.0624848850112
 20
-37.60215411688314
 30
0.0
 40
16.0
100
AcDbArc
 50
269.9999969999991
 51
337.1770389999998
  0
LINE
  5
6B7
330
1F
100
AcDbEntity
  8
0
 62
     7
370
    35
100
AcDbLine
 10
-291.9375151149887
 20
-53.60215411688312
 30
0.0
 11
126.0624848850112
 21
-53.60215411688312
 31
0.0
  0
POLYLINE
  5
6B8
330
1F
100
AcDbEntity
  8
0
 62
     7
370
    35
100
AcDb2dPolyline
 66
     1
 10
0.0
 20
0.0
 30
0.0
  0
VERTEX
  5
6B9
330
6B8
100
AcDbEntity
  8
0
370
     0
100
AcDbVertex
100
AcDb2dVertex
 10
136.9009858850112
 20
-43.70216011688313
 30
0.0
  0
VERTEX
  5
6BA
330
6B8
100
AcDbEntity
  8
0
370
     0
100
AcDbVertex
100
AcDb2dVertex
 10
136.9004368850112
 20
-43.70115311688318
 30
0.0
  0
VERTEX
  5
6BB
330
6B8
100
AcDbEntity
  8
0
370
     0
100
AcDbVertex
100
AcDb2dVertex
 10
136.9007418850112
 20
-43.69938311688321
 30
0.0
  0
VERTEX
  5
6BC
330
6B8
100
AcDbEntity
  8
0
370
     0
100
AcDbVertex
100
AcDb2dVertex
 10
136.9026948850112
 20
-43.69318811688314
 30
0.0
  0
VERTEX
  5
6BD
330
6B8
100
AcDbEntity
  8
0
370
     0
100
AcDbVertex
100
AcDb2dVertex
 10
136.9357758850112
 20
-43.62220411688321
 30
0.0
  0
VERTEX
  5
6BE
330
6B8
100
AcDbEntity
  8
0
370
     0
100
AcDbVertex
100
AcDb2dVertex
 10
137.2256318850112
 20
-43.03016311688319
 30
0.0
  0
VERTEX
  5
6BF
330
6B8
100
AcDbEntity
  8
0
370
     0
100
AcDbVertex
100
AcDb2dVertex
 10
137.5567478850111
 20
-42.26173011688313
 30
0.0
  0
VERTEX
  5
6C0
330
6B8
100
AcDbEntity
  8
0
370
     0
100
AcDbVertex
100
AcDb2dVertex
 10
137.7277678850113
 20
-41.80299011688322
 30
0.0
  0
VERTEX
  5
6C1
330
6B8
100
AcDbEntity
  8
0
370
     0
100
AcDbVertex
100
AcDb2dVertex
 10
137.9382168850113
 20
-41.14820511688313
 30
0.0
  0
VERTEX
  5
6C2
330
6B8
100
AcDbEntity
  8
0
370
     0
100
AcDbVertex
100
AcDb2dVertex
 10
138.1238858850111
 20
-40.43699311688322
 30
0.0
  0
VERTEX
  5
6C3
330
6B8
100
AcDbEntity
  8
0
370
     0
100
AcDbVertex
100
AcDb2dVertex
 10
138.2984468850112
 20
-39.52851511688317
 30
0.0
  0
VERTEX
  5
6C4
330
6B8
100
AcDbEntity
  8
0
370
     0
100
AcDbVertex
100
AcDb2dVertex
 10
138.4087368850112
 20
-38.57633611688317
 30
0.0
  0
VERTEX
  5
6C5
330
6B8
100
AcDbEntity
  8
0
370
     0
100
AcDbVertex
100
AcDb2dVertex
 10
138.4463958850112
 20
-37.60215411688314
 30
0.0
  0
SEQEND
  5
6C6
330
6B8
100
AcDbEntity
  8
0
370
     0
  0
LINE
  5
6C7
330
1F
100
AcDbEntity
  8
0
 62
     7
 48
0.000584
370
    35
100
AcDbLine
 10
136.9009858850112
 20
-43.70216011688313
 30
0.0
 11
136.9158178850113
 21
-43.6841241168832
 31
0.0
  0
LINE
  5
6C8
330
1F
100
AcDbEntity
  8
0
 62
     7
 48
0.000981
370
    35
100
AcDbLine
 10
136.9158178850113
 20
-43.6841241168832
 30
0.0
 11
136.9356538850112
 21
-43.71799911688316
 31
0.0
  0
ARC
  5
6C9
330
1F
100
AcDbEntity
  8
0
 62
     7
370
    35
100
AcDbCircle
 10
126.0624848850112
 20
-37.60215411688314
 30
0.0
 40
12.475126
100
AcDbArc
 50
269.9999969999991
 51
330.6434920000021
  0
POLYLINE
  5
6CA
330
1F
100
AcDbEntity
  8
0
 62
     7
370
    35
100
AcDb2dPolyline
 66
     1
 10
0.0
 20
0.0
 30
0.0
  0
VERTEX
  5
6CB
330
6CA
100
AcDbEntity
  8
0
370
     0
100
AcDbVertex
100
AcDb2dVertex
 10
139.2875828850112
 20
-31.47510911688318
 30
0.0
  0
VERTEX
  5
6CC
330
6CA
100
AcDbEntity
  8
0
370
     0
100
AcDbVertex
100
AcDb2dVertex
 10
138.5621798850111
 20
-31.48408111688315
 30
0.0
  0
VERTEX
  5
6CD
330
6CA
100
AcDbEntity
  8
0
370
     0
100
AcDbVertex
100
AcDb2dVertex
 10
138.5408788850113
 20
-31.48557711688346
 30
0.0
  0
VERTEX
  5
6CE
330
6CA
100
AcDbEntity
  8
0
370
     0
100
AcDbVertex
100
AcDb2dVertex
 10
138.5375828850112
 20
-31.48630911688332
 30
0.0
  0
SEQEND
  5
6CF
330
6CA
100
AcDbEntity
  8
0
370
     0
  0
LINE
  5
6D0
330
1F
100
AcDbEntity
  8
0
 62
     7
 48
0.049175
370
    35
100
AcDbLine
 10
139.2875828850112
 20
-31.47510911688318
 30
0.0
 11
141.2545628850113
 21
-31.4651911168832
 31
0.0
  0
POLYLINE
  5
6D1
330
1F
100
AcDbEntity
  8
0
 62
     7
370
    35
100
AcDb2dPolyline
 66
     1
 10
0.0
 20
0.0
 30
0.0
  0
VERTEX
  5
6D2
330
6D1
100
AcDbEntity
  8
0
370
     0
100
AcDbVertex
100
AcDb2dVertex
 10
142.0045018850112
 20
-31.45396011688314
 30
0.0
  0
VERTEX
  5
6D3
330
6D1
100
AcDbEntity
  8
0
370
     0
100
AcDbVertex
100
AcDb2dVertex
 10
142.0012668850113
 20
-31.45472311688314
 30
0.0
  0
VERTEX
  5
6D4
330
6D1
100
AcDbEntity
  8
0
370
     0
100
AcDbVertex
100
AcDb2dVertex
 10
141.9797208850112
 20
-31.45621911688335
 30
0.0
  0
VERTEX
  5
6D5
330
6D1
100
AcDbEntity
  8
0
370
     0
100
AcDbVertex
100
AcDb2dVertex
 10
141.2545628850113
 20
-31.4651911168832
 30
0.0
  0
SEQEND
  5
6D6
330
6D1
100
AcDbEntity
  8
0
370
     0
  0
LINE
  5
6D7
330
1F
100
AcDbEntity
  8
0
 62
     7
370
    35
100
AcDbLine
 10
142.0624848850112
 20
165.1916998831169
 30
0.0
 11
142.0624848850112
 21
-31.39600811688314
 31
0.0
  0
LINE
  5
6D8
330
1F
100
AcDbEntity
  8
0
 62
     7
 48
0.002049
370
    35
100
AcDbLine
 10
142.0624848850112
 20
-31.39600811688314
 30
0.0
 11
142.0045018850112
 21
-31.45396011688314
 31
0.0
  0
LINE
  5
6D9
330
1F
100
AcDbEntity
  8
0
 62
   253
370
    35
100
AcDbLine
 10
69.07353188501125
 20
120.5229988831169
 30
0.0
 11
112.2816618850112
 21
120.5229988831169
 31
0.0
  0
LINE
  5
6DA
330
1F
100
AcDbEntity
  8
0
 62
     7
 48
0.00174
370
    35
100
AcDbLine
 10
140.7712248850113
 20
-43.75034711688335
 30
0.0
 11
140.8097988850112
 21
-43.80830011688323
 31
0.0
  0
POLYLINE
  5
6DB
330
1F
100
AcDbEntity
  8
0
 62
     7
370
    35
100
AcDb2dPolyline
 66
     1
 10
0.0
 20
0.0
 30
0.0
  0
VERTEX
  5
6DC
330
6DB
100
AcDbEntity
  8
0
370
     0
100
AcDbVertex
100
AcDb2dVertex
 10
139.9598848850112
 20
-43.73911711688314
 30
0.0
  0
VERTEX
  5
6DD
330
6DB
100
AcDbEntity
  8
0
370
     0
100
AcDbVertex
100
AcDb2dVertex
 10
140.5552828850112
 20
-43.74390811688323
 30
0.0
  0
VERTEX
  5
6DE
330
6DB
100
AcDbEntity
  8
0
370
     0
100
AcDbVertex
100
AcDb2dVertex
 10
140.7625578850113
 20
-43.74906511688317
 30
0.0
  0
VERTEX
  5
6DF
330
6DB
100
AcDbEntity
  8
0
370
     0
100
AcDbVertex
100
AcDb2dVertex
 10
140.7701268850112
 20
-43.74992011688317
 30
0.0
  0
VERTEX
  5
6E0
330
6DB
100
AcDbEntity
  8
0
370
     0
100
AcDbVertex
100
AcDb2dVertex
 10
140.7712248850113
 20
-43.75034711688335
 30
0.0
  0
SEQEND
  5
6E1
330
6DB
100
AcDbEntity
  8
0
370
     0
  0
LINE
  5
6E2
330
1F
100
AcDbEntity
  8
0
 62
     7
 48
0.054432
370
    35
100
AcDbLine
 10
137.7826388850112
 20
-43.72919811688318
 30
0.0
 11
139.9598848850112
 21
-43.73911711688314
 31
0.0
  0
POLYLINE
  5
6E3
330
1F
100
AcDbEntity
  8
0
 62
     7
370
    35
100
AcDb2dPolyline
 66
     1
 10
0.0
 20
0.0
 30
0.0
  0
VERTEX
  5
6E4
330
6E3
100
AcDbEntity
  8
0
370
     0
100
AcDbVertex
100
AcDb2dVertex
 10
136.9356538850112
 20
-43.71799911688316
 30
0.0
  0
VERTEX
  5
6E5
330
6E3
100
AcDbEntity
  8
0
370
     0
100
AcDbVertex
100
AcDb2dVertex
 10
136.9378508850112
 20
-43.71860911688322
 30
0.0
  0
VERTEX
  5
6E6
330
6E3
100
AcDbEntity
  8
0
370
     0
100
AcDbVertex
100
AcDb2dVertex
 10
136.9534758850112
 20
-43.71979911688314
 30
0.0
  0
VERTEX
  5
6E7
330
6E3
100
AcDbEntity
  8
0
370
     0
100
AcDbVertex
100
AcDb2dVertex
 10
137.0848848850112
 20
-43.72324811688321
 30
0.0
  0
VERTEX
  5
6E8
330
6E3
100
AcDbEntity
  8
0
370
     0
100
AcDbVertex
100
AcDb2dVertex
 10
137.7826388850112
 20
-43.72919811688318
 30
0.0
  0
SEQEND
  5
6E9
330
6E3
100
AcDbEntity
  8
0
370
     0
  0
LINE
  5
6EA
330
1F
100
AcDbEntity
  8
0
 62
   253
370
    35
100
AcDbLine
 10
15.10124188501132
 20
-15.04295011688322
 30
0.0
 11
112.1033478850112
 21
-15.04295011688322
 31
0.0
  0
LINE
  5
6EB
330
1F
100
AcDbEntity
  8
0
 62
   253
370
    35
100
AcDbLine
 10
-164.8987581149888
 20
-15.04295011688322
 30
0.0
 11
-0.9762721149887454
 21
-15.04295011688322
 31
0.0
  0
LINE
  5
6EC
330
1F
100
AcDbEntity
  8
0
 62
   253
370
    35
100
AcDbLine
 10
-277.9783781149887
 20
-15.04295011688322
 30
0.0
 11
-180.9762571149887
 21
-15.04295011688322
 31
0.0
  0
ARC
  5
6ED
330
1F
100
AcDbEntity
  8
0
 62
   253
370
    35
100
AcDbCircle
 10
-277.9784091149887
 20
-13.34306011688335
 30
0.0
 40
1.699904
100
AcDbArc
 50
179.9990080000017
 51
270.0009879999992
  0
LINE
  5
6EE
330
1F
100
AcDbEntity
  8
0
 62
   253
370
    35
100
AcDbLine
 10
-279.6783141149887
 20
20.04271288311685
 30
0.0
 11
-279.6783141149887
 21
-13.3430291168832
 31
0.0
  0
POLYLINE
  5
6EF
330
1F
100
AcDbEntity
  8
0
 62
   253
370
    35
100
AcDb2dPolyline
 66
     1
 10
0.0
 20
0.0
 30
0.0
  0
VERTEX
  5
6F0
330
6EF
100
AcDbEntity
  8
0
 62
   253
370
     0
100
AcDbVertex
100
AcDb2dVertex
 10
-279.8152771149887
 20
118.7120548831169
 30
0.0
  0
VERTEX
  5
6F1
330
6EF
100
AcDbEntity
  8
0
 62
   253
370
     0
100
AcDbVertex
100
AcDb2dVertex
 10
-279.8056791149887
 20
118.9223208831169
 30
0.0
  0
VERTEX
  5
6F2
330
6EF
100
AcDbEntity
  8
0
 62
   253
370
     0
100
AcDbVertex
100
AcDb2dVertex
 10
-279.7744291149887
 20
119.1224248831169
 30
0.0
  0
VERTEX
  5
6F3
330
6EF
100
AcDbEntity
  8
0
 62
   253
370
     0
100
AcDbVertex
100
AcDb2dVertex
 10
-279.7217101149887
 20
119.3183168831169
 30
0.0
  0
VERTEX
  5
6F4
330
6EF
100
AcDbEntity
  8
0
 62
   253
370
     0
100
AcDbVertex
100
AcDb2dVertex
 10
-279.6510921149887
 20
119.5005378831169
 30
0.0
  0
VERTEX
  5
6F5
330
6EF
100
AcDbEntity
  8
0
 62
   253
370
     0
100
AcDbVertex
100
AcDb2dVertex
 10
-279.4698331149888
 20
119.8154788831169
 30
0.0
  0
VERTEX
  5
6F6
330
6EF
100
AcDbEntity
  8
0
 62
   253
370
     0
100
AcDbVertex
100
AcDb2dVertex
 10
-279.2446901149888
 20
120.0724678831167
 30
0.0
  0
VERTEX
  5
6F7
330
6EF
100
AcDbEntity
  8
0
 62
   253
370
     0
100
AcDbVertex
100
AcDb2dVertex
 10
-278.9965821149888
 20
120.2657658831169
 30
0.0
  0
VERTEX
  5
6F8
330
6EF
100
AcDbEntity
  8
0
 62
   253
370
     0
100
AcDbVertex
100
AcDb2dVertex
 10
-278.7275851149888
 20
120.4050788831169
 30
0.0
  0
VERTEX
  5
6F9
330
6EF
100
AcDbEntity
  8
0
 62
   253
370
     0
100
AcDbVertex
100
AcDb2dVertex
 10
-278.4453581149886
 20
120.4907108831169
 30
0.0
  0
VERTEX
  5
6FA
330
6EF
100
AcDbEntity
  8
0
 62
   253
370
     0
100
AcDbVertex
100
AcDb2dVertex
 10
-278.1567081149888
 20
120.5229988831169
 30
0.0
  0
SEQEND
  5
6FB
330
6EF
100
AcDbEntity
  8
0
 62
   253
370
     0
  0
POLYLINE
  5
6FC
330
1F
100
AcDbEntity
  8
0
 62
   253
370
    35
100
AcDb2dPolyline
 66
     1
 10
0.0
 20
0.0
 30
0.0
  0
VERTEX
  5
6FD
330
6FC
100
AcDbEntity
  8
0
 62
   253
370
     0
100
AcDbVertex
100
AcDb2dVertex
 10
113.9402318850112
 20
118.7120548831169
 30
0.0
  0
VERTEX
  5
6FE
330
6FC
100
AcDbEntity
  8
0
 62
   253
370
     0
100
AcDbVertex
100
AcDb2dVertex
 10
113.9306488850112
 20
118.9223208831169
 30
0.0
  0
VERTEX
  5
6FF
330
6FC
100
AcDbEntity
  8
0
 62
   253
370
     0
100
AcDbVertex
100
AcDb2dVertex
 10
113.8993988850112
 20
119.1223948831169
 30
0.0
  0
VERTEX
  5
700
330
6FC
100
AcDbEntity
  8
0
 62
   253
370
     0
100
AcDbVertex
100
AcDb2dVertex
 10
113.8466648850111
 20
119.3183168831169
 30
0.0
  0
VERTEX
  5
701
330
6FC
100
AcDbEntity
  8
0
 62
   253
370
     0
100
AcDbVertex
100
AcDb2dVertex
 10
113.7760468850112
 20
119.5005378831169
 30
0.0
  0
VERTEX
  5
702
330
6FC
100
AcDbEntity
  8
0
 62
   253
370
     0
100
AcDbVertex
100
AcDb2dVertex
 10
113.5948028850112
 20
119.8154788831169
 30
0.0
  0
VERTEX
  5
703
330
6FC
100
AcDbEntity
  8
0
 62
   253
370
     0
100
AcDbVertex
100
AcDb2dVertex
 10
113.3696748850112
 20
120.0724678831167
 30
0.0
  0
VERTEX
  5
704
330
6FC
100
AcDbEntity
  8
0
 62
   253
370
     0
100
AcDbVertex
100
AcDb2dVertex
 10
113.1215668850112
 20
120.2657658831169
 30
0.0
  0
VERTEX
  5
705
330
6FC
100
AcDbEntity
  8
0
 62
   253
370
     0
100
AcDbVertex
100
AcDb2dVertex
 10
112.8525848850111
 20
120.4050788831169
 30
0.0
  0
VERTEX
  5
706
330
6FC
100
AcDbEntity
  8
0
 62
   253
370
     0
100
AcDbVertex
100
AcDb2dVertex
 10
112.5703588850112
 20
120.4907108831169
 30
0.0
  0
VERTEX
  5
707
330
6FC
100
AcDbEntity
  8
0
 62
   253
370
     0
100
AcDbVertex
100
AcDb2dVertex
 10
112.2816618850112
 20
120.5229988831169
 30
0.0
  0
SEQEND
  5
708
330
6FC
100
AcDbEntity
  8
0
 62
   253
370
     0
  0
ARC
  5
709
330
1F
100
AcDbEntity
  8
0
 62
   253
370
    35
100
AcDbCircle
 10
770.6201018850109
 20
113.2408328831167
 30
0.0
 40
656.703163
100
AcDbArc
 50
179.5226430000004
 51
180.0451559999969
  0
LINE
  5
70A
330
1F
100
AcDbEntity
  8
0
 62
   253
 48
0.10696
370
    35
100
AcDbLine
 10
113.9167328850113
 20
112.7232858831169
 30
0.0
 11
113.9167328850113
 21
108.4449038831168
 31
0.0
  0
LINE
  5
70B
330
1F
100
AcDbEntity
  8
0
 62
   253
370
    35
100
AcDbLine
 10
113.8032688850112
 20
20.04271288311685
 30
0.0
 11
113.8032688850112
 21
-13.3430291168832
 31
0.0
  0
POLYLINE
  5
70C
330
1F
100
AcDbEntity
  8
0
 62
   253
370
    35
100
AcDb2dPolyline
 66
     1
 10
0.0
 20
0.0
 30
0.0
  0
VERTEX
  5
70D
330
70C
100
AcDbEntity
  8
0
 62
   253
370
     0
100
AcDbVertex
100
AcDb2dVertex
 10
113.8032688850112
 20
20.04271288311685
 30
0.0
  0
VERTEX
  5
70E
330
70C
100
AcDbEntity
  8
0
 62
   253
370
     0
100
AcDbVertex
100
AcDb2dVertex
 10
113.8113858850111
 20
24.15455988311686
 30
0.0
  0
VERTEX
  5
70F
330
70C
100
AcDbEntity
  8
0
 62
   253
370
     0
100
AcDbVertex
100
AcDb2dVertex
 10
113.8359838850112
 20
27.59303688311678
 30
0.0
  0
VERTEX
  5
710
330
70C
100
AcDbEntity
  8
0
 62
   253
370
     0
100
AcDbVertex
100
AcDb2dVertex
 10
113.8630828850113
 20
29.07377988311686
 30
0.0
  0
VERTEX
  5
711
330
70C
100
AcDbEntity
  8
0
 62
   253
370
     0
100
AcDbVertex
100
AcDb2dVertex
 10
113.8732758850111
 20
29.28770788311687
 30
0.0
  0
VERTEX
  5
712
330
70C
100
AcDbEntity
  8
0
 62
   253
370
     0
100
AcDbVertex
100
AcDb2dVertex
 10
113.8785248850113
 20
29.3344308831168
 30
0.0
  0
VERTEX
  5
713
330
70C
100
AcDbEntity
  8
0
 62
   253
370
     0
100
AcDbVertex
100
AcDb2dVertex
 10
113.8802648850112
 20
29.3408698831168
 30
0.0
  0
VERTEX
  5
714
330
70C
100
AcDbEntity
  8
0
 62
   253
370
     0
100
AcDbVertex
100
AcDb2dVertex
 10
113.8811498850112
 20
29.34236488311677
 30
0.0
  0
SEQEND
  5
715
330
70C
100
AcDbEntity
  8
0
 62
   253
370
     0
  0
LINE
  5
716
330
1F
100
AcDbEntity
  8
0
 62
   253
 48
0.002
370
    35
100
AcDbLine
 10
113.8811498850112
 20
29.34236488311677
 30
0.0
 11
113.9377288850112
 21
29.39894488311683
 31
0.0
  0
ARC
  5
717
330
1F
100
AcDbEntity
  8
0
 62
   253
370
    35
100
AcDbCircle
 10
108.8956148850112
 20
29.61339188311678
 30
0.0
 40
5.047366
100
AcDbArc
 50
357.5646860000023
 51
0.971020000001819
  0
LINE
  5
718
330
1F
100
AcDbEntity
  8
0
 62
   253
370
    35
100
AcDbLine
 10
113.9429168850113
 20
107.8239328831169
 30
0.0
 11
113.9429168850113
 21
29.69893288311681
 31
0.0
  0
ARC
  5
719
330
1F
100
AcDbEntity
  8
0
 62
   253
370
    35
100
AcDbCircle
 10
108.8939668850113
 20
107.9095038831169
 30
0.0
 40
5.048983999999999
100
AcDbArc
 50
359.0289820000016
 51
2.434224000001043
  0
LINE
  5
71A
330
1F
100
AcDbEntity
  8
0
 62
   253
 48
0.000742
370
    35
100
AcDbLine
 10
113.9377288850112
 20
108.1239198831169
 30
0.0
 11
113.9167328850113
 21
108.1449168831168
 31
0.0
  0
ARC
  5
71B
330
1F
100
AcDbEntity
  8
0
 62
   253
370
    35
100
AcDbCircle
 10
112.1033788850112
 20
-13.34306011688335
 30
0.0
 40
1.699904
100
AcDbArc
 50
269.9990140000005
 51
0.0009869999977684
  0
LINE
  5
71C
330
1F
100
AcDbEntity
  8
0
 62
   253
 48
0.0075
370
    35
100
AcDbLine
 10
113.9167328850113
 20
108.1449168831168
 30
0.0
 11
113.9167328850113
 21
108.4449038831168
 31
0.0
  0
CIRCLE
  5
71D
330
1F
100
AcDbEntity
  8
0
 62
     7
370
    35
100
AcDbCircle
 10
126.0624848850112
 20
171.3978458831169
 30
0.0
 40
9.113215999999999
  0
CIRCLE
  5
71E
330
1F
100
AcDbEntity
  8
0
 62
     7
370
    35
100
AcDbCircle
 10
126.0624848850112
 20
-37.60215411688314
 30
0.0
 40
9.113215999999999
  0
CIRCLE
  5
71F
330
1F
100
AcDbEntity
  8
0
 62
     7
370
    35
100
AcDbCircle
 10
-291.9375151149887
 20
-37.60215411688314
 30
0.0
 40
9.113215999999999
  0
CIRCLE
  5
720
330
1F
100
AcDbEntity
  8
0
 62
     7
370
    35
100
AcDbCircle
 10
-291.9375151149887
 20
171.3978458831169
 30
0.0
 40
9.113215999999999
  0
ARC
  5
721
330
1F
100
AcDbEntity
  8
0
 62
     7
370
    35
100
AcDbCircle
 10
127.9615328850112
 20
172.7126048831168
 30
0.0
 40
8.154378999999996
100
AcDbArc
 50
0.3371669999997003
 51
36.79869299999996
  0
ARC
  5
722
330
1F
100
AcDbEntity
  8
0
 62
     7
370
    35
100
AcDbCircle
 10
-2187.099624114989
 20
159.7082708831169
 30
0.0
 40
2323.25238
100
AcDbArc
 50
0.0465999999982806
 51
0.3218970000031322
  0
ARC
  5
723
330
1F
100
AcDbEntity
  8
0
 62
     7
370
    35
100
AcDbCircle
 10
135.4153288850113
 20
161.5971568831168
 30
0.0
 40
0.736725
100
AcDbArc
 50
269.9956529999986
 51
0.0540270000019807
  0
LINE
  5
724
330
1F
100
AcDbEntity
  8
0
 62
     7
 48
0.23382
370
    35
100
AcDbLine
 10
135.4152678850113
 20
160.8604318831168
 30
0.0
 11
126.0624848850112
 21
160.8604318831168
 31
0.0
  0
POLYLINE
  5
725
330
1F
100
AcDbEntity
  8
0
 62
     7
370
    35
100
AcDb2dPolyline
 66
     1
 10
0.0
 20
0.0
 30
0.0
  0
VERTEX
  5
726
330
725
100
AcDbEntity
  8
0
370
     0
100
AcDbVertex
100
AcDb2dVertex
 10
115.5544888850112
 20
171.3978458831169
 30
0.0
  0
VERTEX
  5
727
330
725
100
AcDbEntity
  8
0
370
     0
100
AcDbVertex
100
AcDb2dVertex
 10
115.5833588850113
 20
170.5657838831169
 30
0.0
  0
VERTEX
  5
728
330
725
100
AcDbEntity
  8
0
370
     0
100
AcDbVertex
100
AcDb2dVertex
 10
115.6804048850112
 20
169.7256048831169
 30
0.0
  0
VERTEX
  5
729
330
725
100
AcDbEntity
  8
0
370
     0
100
AcDbVertex
100
AcDb2dVertex
 10
115.8479768850112
 20
168.8838388831169
 30
0.0
  0
VERTEX
  5
72A
330
725
100
AcDbEntity
  8
0
370
     0
100
AcDbVertex
100
AcDb2dVertex
 10
116.0876308850111
 20
168.0476258831169
 30
0.0
  0
VERTEX
  5
72B
330
725
100
AcDbEntity
  8
0
370
     0
100
AcDbVertex
100
AcDb2dVertex
 10
116.4000398850112
 20
167.2245668831169
 30
0.0
  0
VERTEX
  5
72C
330
725
100
AcDbEntity
  8
0
370
     0
100
AcDbVertex
100
AcDb2dVertex
 10
116.7847448850112
 20
166.4225648831167
 30
0.0
  0
VERTEX
  5
72D
330
725
100
AcDbEntity
  8
0
370
     0
100
AcDbVertex
100
AcDb2dVertex
 10
117.2285618850112
 20
165.6677438831169
 30
0.0
  0
VERTEX
  5
72E
330
725
100
AcDbEntity
  8
0
370
     0
100
AcDbVertex
100
AcDb2dVertex
 10
117.7372898850111
 20
164.9480778831169
 30
0.0
  0
VERTEX
  5
72F
330
725
100
AcDbEntity
  8
0
370
     0
100
AcDbVertex
100
AcDb2dVertex
 10
118.3076628850112
 20
164.2703128831169
 30
0.0
  0
VERTEX
  5
730
330
725
100
AcDbEntity
  8
0
370
     0
100
AcDbVertex
100
AcDb2dVertex
 10
118.9357148850112
 20
163.6407048831169
 30
0.0
  0
VERTEX
  5
731
330
725
100
AcDbEntity
  8
0
370
     0
100
AcDbVertex
100
AcDb2dVertex
 10
119.6168668850113
 20
163.0648988831168
 30
0.0
  0
VERTEX
  5
732
330
725
100
AcDbEntity
  8
0
370
     0
100
AcDbVertex
100
AcDb2dVertex
 10
120.3459018850113
 20
162.5479618831169
 30
0.0
  0
VERTEX
  5
733
330
725
100
AcDbEntity
  8
0
370
     0
100
AcDbVertex
100
AcDb2dVertex
 10
121.0881198850112
 20
162.1098208831169
 30
0.0
  0
VERTEX
  5
734
330
725
100
AcDbEntity
  8
0
370
     0
100
AcDbVertex
100
AcDb2dVertex
 10
121.8643948850112
 20
161.7336618831169
 30
0.0
  0
VERTEX
  5
735
330
725
100
AcDbEntity
  8
0
370
     0
100
AcDbVertex
100
AcDb2dVertex
 10
122.6693268850112
 20
161.4221988831169
 30
0.0
  0
VERTEX
  5
736
330
725
100
AcDbEntity
  8
0
370
     0
100
AcDbVertex
100
AcDb2dVertex
 10
123.4973298850112
 20
161.1776918831169
 30
0.0
  0
VERTEX
  5
737
330
725
100
AcDbEntity
  8
0
370
     0
100
AcDbVertex
100
AcDb2dVertex
 10
124.3426968850112
 20
161.0018198831168
 30
0.0
  0
VERTEX
  5
738
330
725
100
AcDbEntity
  8
0
370
     0
100
AcDbVertex
100
AcDb2dVertex
 10
125.1996918850111
 20
160.8958318831168
 30
0.0
  0
VERTEX
  5
739
330
725
100
AcDbEntity
  8
0
370
     0
100
AcDbVertex
100
AcDb2dVertex
 10
126.0624848850112
 20
160.8604318831168
 30
0.0
  0
SEQEND
  5
73A
330
725
100
AcDbEntity
  8
0
370
     0
  0
ELLIPSE
  5
73B
330
1F
100
AcDbEntity
  8
0
 62
     7
370
    35
100
AcDbEllipse
 10
115.7424168850112
 20
158.7005498831169
 30
0.0
 11
0.0
 21
-25.0
 31
0.0
210
0.0
220
0.0
230
1.0
 40
0.008727
 41
3.592866091875006
 42
4.179652777306085
  0
ARC
  5
73C
330
1F
100
AcDbEntity
  8
0
 62
     7
370
    35
100
AcDbCircle
 10
116.2619478850111
 20
181.1864198831169
 30
0.0
 40
0.614857
100
AcDbArc
 50
89.95169300000064
 51
178.9327329999976
  0
LINE
  5
73D
330
1F
100
AcDbEntity
  8
0
 62
     7
 48
0.245
370
    35
100
AcDbLine
 10
126.0624848850112
 20
181.8013498831168
 30
0.0
 11
116.2624968850112
 21
181.8013498831168
 31
0.0
  0
POLYLINE
  5
73E
330
1F
100
AcDbEntity
  8
0
 62
     7
370
    35
100
AcDb2dPolyline
 66
     1
 10
0.0
 20
0.0
 30
0.0
  0
VERTEX
  5
73F
330
73E
100
AcDbEntity
  8
0
370
     0
100
AcDbVertex
100
AcDb2dVertex
 10
126.0624848850112
 20
181.8013498831168
 30
0.0
  0
VERTEX
  5
740
330
73E
100
AcDbEntity
  8
0
370
     0
100
AcDbVertex
100
AcDb2dVertex
 10
126.8659208850111
 20
181.7708928831169
 30
0.0
  0
VERTEX
  5
741
330
73E
100
AcDbEntity
  8
0
370
     0
100
AcDbVertex
100
AcDb2dVertex
 10
127.6483608850113
 20
181.6822698831167
 30
0.0
  0
VERTEX
  5
742
330
73E
100
AcDbEntity
  8
0
370
     0
100
AcDbVertex
100
AcDb2dVertex
 10
128.3976288850112
 20
181.5412788831169
 30
0.0
  0
VERTEX
  5
743
330
73E
100
AcDbEntity
  8
0
370
     0
100
AcDbVertex
100
AcDb2dVertex
 10
129.0816808850112
 20
181.3626898831168
 30
0.0
  0
VERTEX
  5
744
330
73E
100
AcDbEntity
  8
0
370
     0
100
AcDbVertex
100
AcDb2dVertex
 10
129.7306368850112
 20
181.1466868831168
 30
0.0
  0
VERTEX
  5
745
330
73E
100
AcDbEntity
  8
0
370
     0
100
AcDbVertex
100
AcDb2dVertex
 10
130.3450168850112
 20
180.8976018831169
 30
0.0
  0
VERTEX
  5
746
330
73E
100
AcDbEntity
  8
0
370
     0
100
AcDbVertex
100
AcDb2dVertex
 10
130.7693938850112
 20
180.6983218831168
 30
0.0
  0
VERTEX
  5
747
330
73E
100
AcDbEntity
  8
0
370
     0
100
AcDbVertex
100
AcDb2dVertex
 10
131.1785738850112
 20
180.4836008831169
 30
0.0
  0
VERTEX
  5
748
330
73E
100
AcDbEntity
  8
0
370
     0
100
AcDbVertex
100
AcDb2dVertex
 10
131.5796968850112
 20
180.2498968831169
 30
0.0
  0
VERTEX
  5
749
330
73E
100
AcDbEntity
  8
0
370
     0
100
AcDbVertex
100
AcDb2dVertex
 10
131.9662628850112
 20
180.0013008831166
 30
0.0
  0
VERTEX
  5
74A
330
73E
100
AcDbEntity
  8
0
370
     0
100
AcDbVertex
100
AcDb2dVertex
 10
132.6833348850113
 20
179.4718208831167
 30
0.0
  0
VERTEX
  5
74B
330
73E
100
AcDbEntity
  8
0
370
     0
100
AcDbVertex
100
AcDb2dVertex
 10
133.3481908850112
 20
178.8875308831169
 30
0.0
  0
VERTEX
  5
74C
330
73E
100
AcDbEntity
  8
0
370
     0
100
AcDbVertex
100
AcDb2dVertex
 10
133.9608608850112
 20
178.2495308831168
 30
0.0
  0
VERTEX
  5
74D
330
73E
100
AcDbEntity
  8
0
370
     0
100
AcDbVertex
100
AcDb2dVertex
 10
134.4910738850112
 20
177.5971258831169
 30
0.0
  0
SEQEND
  5
74E
330
73E
100
AcDbEntity
  8
0
370
     0
  0
ELLIPSE
  5
74F
330
1F
100
AcDbEntity
  8
0
 62
     7
370
    35
100
AcDbEllipse
 10
-281.6174471149888
 20
158.7005498831169
 30
0.0
 11
0.0
 21
25.0
 31
0.0
210
0.0
220
0.0
230
1.0
 40
0.008727
 41
5.245125183463294
 42
5.831911868897184
  0
POLYLINE
  5
750
330
1F
100
AcDbEntity
  8
0
 62
     7
370
    35
100
AcDb2dPolyline
 66
     1
 10
0.0
 20
0.0
 30
0.0
  0
VERTEX
  5
751
330
750
100
AcDbEntity
  8
0
370
     0
100
AcDbVertex
100
AcDb2dVertex
 10
-281.4295041149888
 20
171.3978458831169
 30
0.0
  0
VERTEX
  5
752
330
750
100
AcDbEntity
  8
0
370
     0
100
AcDbVertex
100
AcDb2dVertex
 10
-281.4583891149887
 20
170.5657838831169
 30
0.0
  0
VERTEX
  5
753
330
750
100
AcDbEntity
  8
0
370
     0
100
AcDbVertex
100
AcDb2dVertex
 10
-281.5554351149888
 20
169.7256048831169
 30
0.0
  0
VERTEX
  5
754
330
750
100
AcDbEntity
  8
0
370
     0
100
AcDbVertex
100
AcDb2dVertex
 10
-281.7230071149887
 20
168.8838388831169
 30
0.0
  0
VERTEX
  5
755
330
750
100
AcDbEntity
  8
0
370
     0
100
AcDbVertex
100
AcDb2dVertex
 10
-281.9626611149887
 20
168.0476258831169
 30
0.0
  0
VERTEX
  5
756
330
750
100
AcDbEntity
  8
0
370
     0
100
AcDbVertex
100
AcDb2dVertex
 10
-282.2750701149887
 20
167.2245668831169
 30
0.0
  0
VERTEX
  5
757
330
750
100
AcDbEntity
  8
0
370
     0
100
AcDbVertex
100
AcDb2dVertex
 10
-282.6597751149888
 20
166.4225648831167
 30
0.0
  0
VERTEX
  5
758
330
750
100
AcDbEntity
  8
0
370
     0
100
AcDbVertex
100
AcDb2dVertex
 10
-283.1035921149887
 20
165.6677438831169
 30
0.0
  0
VERTEX
  5
759
330
750
100
AcDbEntity
  8
0
370
     0
100
AcDbVertex
100
AcDb2dVertex
 10
-283.6123201149888
 20
164.9480778831169
 30
0.0
  0
VERTEX
  5
75A
330
750
100
AcDbEntity
  8
0
370
     0
100
AcDbVertex
100
AcDb2dVertex
 10
-284.1826931149888
 20
164.2703128831169
 30
0.0
  0
VERTEX
  5
75B
330
750
100
AcDbEntity
  8
0
370
     0
100
AcDbVertex
100
AcDb2dVertex
 10
-284.8107601149887
 20
163.6407048831169
 30
0.0
  0
VERTEX
  5
75C
330
750
100
AcDbEntity
  8
0
370
     0
100
AcDbVertex
100
AcDb2dVertex
 10
-285.4918821149887
 20
163.0648988831168
 30
0.0
  0
VERTEX
  5
75D
330
750
100
AcDbEntity
  8
0
370
     0
100
AcDbVertex
100
AcDb2dVertex
 10
-286.2209321149887
 20
162.5479618831169
 30
0.0
  0
VERTEX
  5
75E
330
750
100
AcDbEntity
  8
0
370
     0
100
AcDbVertex
100
AcDb2dVertex
 10
-286.9631501149886
 20
162.1098208831169
 30
0.0
  0
VERTEX
  5
75F
330
750
100
AcDbEntity
  8
0
370
     0
100
AcDbVertex
100
AcDb2dVertex
 10
-287.7394251149888
 20
161.7336618831169
 30
0.0
  0
VERTEX
  5
760
330
750
100
AcDbEntity
  8
0
370
     0
100
AcDbVertex
100
AcDb2dVertex
 10
-288.5443571149888
 20
161.4221988831169
 30
0.0
  0
VERTEX
  5
761
330
750
100
AcDbEntity
  8
0
370
     0
100
AcDbVertex
100
AcDb2dVertex
 10
-289.3723601149887
 20
161.1776918831169
 30
0.0
  0
VERTEX
  5
762
330
750
100
AcDbEntity
  8
0
370
     0
100
AcDbVertex
100
AcDb2dVertex
 10
-290.2177431149886
 20
161.0018198831168
 30
0.0
  0
VERTEX
  5
763
330
750
100
AcDbEntity
  8
0
370
     0
100
AcDbVertex
100
AcDb2dVertex
 10
-291.0747371149887
 20
160.8958318831168
 30
0.0
  0
VERTEX
  5
764
330
750
100
AcDbEntity
  8
0
370
     0
100
AcDbVertex
100
AcDb2dVertex
 10
-291.9375151149887
 20
160.8604318831168
 30
0.0
  0
SEQEND
  5
765
330
750
100
AcDbEntity
  8
0
370
     0
  0
LINE
  5
766
330
1F
100
AcDbEntity
  8
0
 62
     7
 48
0.23382
370
    35
100
AcDbLine
 10
-291.9375151149887
 20
160.8604318831168
 30
0.0
 11
-301.2903291149886
 21
160.8604318831168
 31
0.0
  0
ARC
  5
767
330
1F
100
AcDbEntity
  8
0
 62
     7
370
    35
100
AcDbCircle
 10
-301.2903741149886
 20
161.5971568831168
 30
0.0
 40
0.736725
100
AcDbArc
 50
179.9459780000006
 51
270.0043409999994
  0
ARC
  5
768
330
1F
100
AcDbEntity
  8
0
 62
     7
370
    35
100
AcDbCircle
 10
2021.224593885011
 20
159.7082708831169
 30
0.0
 40
2323.25238
100
AcDbArc
 50
179.6780980000021
 51
179.9533960000013
  0
ARC
  5
769
330
1F
100
AcDbEntity
  8
0
 62
     7
370
    35
100
AcDbCircle
 10
-293.8365481149888
 20
172.7126048831168
 30
0.0
 40
8.154378999999996
100
AcDbArc
 50
143.2013089999996
 51
179.662840000001
  0
POLYLINE
  5
76A
330
1F
100
AcDbEntity
  8
0
 62
     7
370
    35
100
AcDb2dPolyline
 66
     1
 10
0.0
 20
0.0
 30
0.0
  0
VERTEX
  5
76B
330
76A
100
AcDbEntity
  8
0
370
     0
100
AcDbVertex
100
AcDb2dVertex
 10
-291.9375151149887
 20
181.8013498831168
 30
0.0
  0
VERTEX
  5
76C
330
76A
100
AcDbEntity
  8
0
370
     0
100
AcDbVertex
100
AcDb2dVertex
 10
-292.7409511149889
 20
181.7708928831169
 30
0.0
  0
VERTEX
  5
76D
330
76A
100
AcDbEntity
  8
0
370
     0
100
AcDbVertex
100
AcDb2dVertex
 10
-293.5233911149887
 20
181.6822698831167
 30
0.0
  0
VERTEX
  5
76E
330
76A
100
AcDbEntity
  8
0
370
     0
100
AcDbVertex
100
AcDb2dVertex
 10
-294.2726741149887
 20
181.5412788831169
 30
0.0
  0
VERTEX
  5
76F
330
76A
100
AcDbEntity
  8
0
370
     0
100
AcDbVertex
100
AcDb2dVertex
 10
-294.9567111149887
 20
181.3626898831168
 30
0.0
  0
VERTEX
  5
770
330
76A
100
AcDbEntity
  8
0
370
     0
100
AcDbVertex
100
AcDb2dVertex
 10
-295.6056821149888
 20
181.1466868831168
 30
0.0
  0
VERTEX
  5
771
330
76A
100
AcDbEntity
  8
0
370
     0
100
AcDbVertex
100
AcDb2dVertex
 10
-296.2200621149888
 20
180.8976018831169
 30
0.0
  0
VERTEX
  5
772
330
76A
100
AcDbEntity
  8
0
370
     0
100
AcDbVertex
100
AcDb2dVertex
 10
-296.6444391149886
 20
180.6983218831168
 30
0.0
  0
VERTEX
  5
773
330
76A
100
AcDbEntity
  8
0
370
     0
100
AcDbVertex
100
AcDb2dVertex
 10
-297.0536191149887
 20
180.4836008831169
 30
0.0
  0
VERTEX
  5
774
330
76A
100
AcDbEntity
  8
0
370
     0
100
AcDbVertex
100
AcDb2dVertex
 10
-297.4547421149887
 20
180.2498968831169
 30
0.0
  0
VERTEX
  5
775
330
76A
100
AcDbEntity
  8
0
370
     0
100
AcDbVertex
100
AcDb2dVertex
 10
-297.8412931149888
 20
180.0013008831166
 30
0.0
  0
VERTEX
  5
776
330
76A
100
AcDbEntity
  8
0
370
     0
100
AcDbVertex
100
AcDb2dVertex
 10
-298.5583341149887
 20
179.4718208831167
 30
0.0
  0
VERTEX
  5
777
330
76A
100
AcDbEntity
  8
0
370
     0
100
AcDbVertex
100
AcDb2dVertex
 10
-299.2232211149887
 20
178.8875308831169
 30
0.0
  0
VERTEX
  5
778
330
76A
100
AcDbEntity
  8
0
370
     0
100
AcDbVertex
100
AcDb2dVertex
 10
-299.8358761149887
 20
178.2495308831168
 30
0.0
  0
VERTEX
  5
779
330
76A
100
AcDbEntity
  8
0
370
     0
100
AcDbVertex
100
AcDb2dVertex
 10
-300.3661191149887
 20
177.5971258831169
 30
0.0
  0
SEQEND
  5
77A
330
76A
100
AcDbEntity
  8
0
370
     0
  0
LINE
  5
77B
330
1F
100
AcDbEntity
  8
0
 62
     7
 48
0.245
370
    35
100
AcDbLine
 10
-282.1375121149887
 20
181.8013498831168
 30
0.0
 11
-291.9375151149887
 21
181.8013498831168
 31
0.0
  0
ARC
  5
77C
330
1F
100
AcDbEntity
  8
0
 62
     7
370
    35
100
AcDbCircle
 10
-282.1369931149888
 20
181.1864198831169
 30
0.0
 40
0.614857
100
AcDbArc
 50
1.067269000000389
 51
90.04830600000081
  0
POLYLINE
  5
77E
330
1F
100
AcDbEntity
  8
0
 62
     7
370
    35
100
AcDb2dPolyline
 66
     1
 10
0.0
 20
0.0
 30
0.0
  0
VERTEX
  5
77F
330
77E
100
AcDbEntity
  8
0
370
     0
100
AcDbVertex
100
AcDb2dVertex
 10
-281.4295041149888
 20
-37.60215411688314
 30
0.0
  0
VERTEX
  5
780
330
77E
100
AcDbEntity
  8
0
370
     0
100
AcDbVertex
100
AcDb2dVertex
 10
-281.4583891149887
 20
-36.77009211688318
 30
0.0
  0
VERTEX
  5
781
330
77E
100
AcDbEntity
  8
0
370
     0
100
AcDbVertex
100
AcDb2dVertex
 10
-281.5554351149888
 20
-35.92991311688314
 30
0.0
  0
VERTEX
  5
782
330
77E
100
AcDbEntity
  8
0
370
     0
100
AcDbVertex
100
AcDb2dVertex
 10
-281.7230071149887
 20
-35.08814611688314
 30
0.0
  0
VERTEX
  5
783
330
77E
100
AcDbEntity
  8
0
370
     0
100
AcDbVertex
100
AcDb2dVertex
 10
-281.9626611149887
 20
-34.25193411688321
 30
0.0
  0
VERTEX
  5
784
330
77E
100
AcDbEntity
  8
0
370
     0
100
AcDbVertex
100
AcDb2dVertex
 10
-282.2750701149887
 20
-33.42887511688315
 30
0.0
  0
VERTEX
  5
785
330
77E
100
AcDbEntity
  8
0
370
     0
100
AcDbVertex
100
AcDb2dVertex
 10
-282.6597751149888
 20
-32.62687311688313
 30
0.0
  0
VERTEX
  5
786
330
77E
100
AcDbEntity
  8
0
370
     0
100
AcDbVertex
100
AcDb2dVertex
 10
-283.1035921149887
 20
-31.87205111688314
 30
0.0
  0
VERTEX
  5
787
330
77E
100
AcDbEntity
  8
0
370
     0
100
AcDbVertex
100
AcDb2dVertex
 10
-283.6123201149888
 20
-31.15238611688318
 30
0.0
  0
VERTEX
  5
788
330
77E
100
AcDbEntity
  8
0
370
     0
100
AcDbVertex
100
AcDb2dVertex
 10
-284.1826931149888
 20
-30.47462111688316
 30
0.0
  0
VERTEX
  5
789
330
77E
100
AcDbEntity
  8
0
370
     0
100
AcDbVertex
100
AcDb2dVertex
 10
-284.8107601149887
 20
-29.84501311688319
 30
0.0
  0
VERTEX
  5
78A
330
77E
100
AcDbEntity
  8
0
370
     0
100
AcDbVertex
100
AcDb2dVertex
 10
-285.4918821149887
 20
-29.26920711688314
 30
0.0
  0
VERTEX
  5
78B
330
77E
100
AcDbEntity
  8
0
370
     0
100
AcDbVertex
100
AcDb2dVertex
 10
-286.2209321149887
 20
-28.75227011688315
 30
0.0
  0
VERTEX
  5
78C
330
77E
100
AcDbEntity
  8
0
370
     0
100
AcDbVertex
100
AcDb2dVertex
 10
-286.9631501149886
 20
-28.31412911688318
 30
0.0
  0
VERTEX
  5
78D
330
77E
100
AcDbEntity
  8
0
370
     0
100
AcDbVertex
100
AcDb2dVertex
 10
-287.7394251149888
 20
-27.93796911688315
 30
0.0
  0
VERTEX
  5
78E
330
77E
100
AcDbEntity
  8
0
370
     0
100
AcDbVertex
100
AcDb2dVertex
 10
-288.5443571149888
 20
-27.62650711688315
 30
0.0
  0
VERTEX
  5
78F
330
77E
100
AcDbEntity
  8
0
370
     0
100
AcDbVertex
100
AcDb2dVertex
 10
-289.3723601149887
 20
-27.38200011688315
 30
0.0
  0
VERTEX
  5
790
330
77E
100
AcDbEntity
  8
0
370
     0
100
AcDbVertex
100
AcDb2dVertex
 10
-290.2177431149886
 20
-27.20612711688324
 30
0.0
  0
VERTEX
  5
791
330
77E
100
AcDbEntity
  8
0
370
     0
100
AcDbVertex
100
AcDb2dVertex
 10
-291.0747371149887
 20
-27.10014011688344
 30
0.0
  0
VERTEX
  5
792
330
77E
100
AcDbEntity
  8
0
370
     0
100
AcDbVertex
100
AcDb2dVertex
 10
-291.9375151149887
 20
-27.06473911688323
 30
0.0
  0
SEQEND
  5
793
330
77E
100
AcDbEntity
  8
0
370
     0
  0
ELLIPSE
  5
794
330
1F
100
AcDbEntity
  8
0
 62
     7
370
    35
100
AcDbEllipse
 10
-281.6174471149888
 20
-24.9048581168832
 30
0.0
 11
0.0
 21
25.0
 31
0.0
210
0.0
220
0.0
230
1.0
 40
0.008727
 41
3.59286609201405
 42
4.179652777376383
  0
ARC
  5
795
330
1F
100
AcDbEntity
  8
0
 62
     7
370
    35
100
AcDbCircle
 10
-282.1369931149888
 20
-47.39069711688313
 30
0.0
 40
0.614857
100
AcDbArc
 50
269.9516939999992
 51
358.9327309999996
  0
LINE
  5
796
330
1F
100
AcDbEntity
  8
0
 62
     7
 48
0.245
370
    35
100
AcDbLine
 10
-291.9375151149887
 20
-48.0056271168832
 30
0.0
 11
-282.1375121149887
 21
-48.0056271168832
 31
0.0
  0
LINE
  5
797
330
1F
100
AcDbEntity
  8
0
 62
     7
 48
0.002587
370
    35
100
AcDbLine
 10
-291.9375151149887
 20
-48.0056271168832
 30
0.0
 11
-291.9375151149887
 21
-47.90214211688321
 31
0.0
  0
POLYLINE
  5
798
330
1F
100
AcDbEntity
  8
0
 62
     7
370
    35
100
AcDb2dPolyline
 66
     1
 10
0.0
 20
0.0
 30
0.0
  0
VERTEX
  5
799
330
798
100
AcDbEntity
  8
0
370
     0
100
AcDbVertex
100
AcDb2dVertex
 10
-291.9375151149887
 20
-48.0056271168832
 30
0.0
  0
VERTEX
  5
79A
330
798
100
AcDbEntity
  8
0
370
     0
100
AcDbVertex
100
AcDb2dVertex
 10
-292.7409511149889
 20
-47.97523111688319
 30
0.0
  0
VERTEX
  5
79B
330
798
100
AcDbEntity
  8
0
370
     0
100
AcDbVertex
100
AcDb2dVertex
 10
-293.5233911149887
 20
-47.88657811688318
 30
0.0
  0
VERTEX
  5
79C
330
798
100
AcDbEntity
  8
0
370
     0
100
AcDbVertex
100
AcDb2dVertex
 10
-294.2726741149887
 20
-47.7455861168832
 30
0.0
  0
VERTEX
  5
79D
330
798
100
AcDbEntity
  8
0
370
     0
100
AcDbVertex
100
AcDb2dVertex
 10
-294.9567111149887
 20
-47.56696711688316
 30
0.0
  0
VERTEX
  5
79E
330
798
100
AcDbEntity
  8
0
370
     0
100
AcDbVertex
100
AcDb2dVertex
 10
-295.6056821149888
 20
-47.35099411688321
 30
0.0
  0
VERTEX
  5
79F
330
798
100
AcDbEntity
  8
0
370
     0
100
AcDbVertex
100
AcDb2dVertex
 10
-296.2200621149888
 20
-47.10191011688317
 30
0.0
  0
VERTEX
  5
7A0
330
798
100
AcDbEntity
  8
0
370
     0
100
AcDbVertex
100
AcDb2dVertex
 10
-296.6444391149886
 20
-46.90263011688315
 30
0.0
  0
VERTEX
  5
7A1
330
798
100
AcDbEntity
  8
0
370
     0
100
AcDbVertex
100
AcDb2dVertex
 10
-297.0536191149887
 20
-46.68787811688313
 30
0.0
  0
VERTEX
  5
7A2
330
798
100
AcDbEntity
  8
0
370
     0
100
AcDbVertex
100
AcDb2dVertex
 10
-297.4547421149887
 20
-46.45423511688345
 30
0.0
  0
VERTEX
  5
7A3
330
798
100
AcDbEntity
  8
0
370
     0
100
AcDbVertex
100
AcDb2dVertex
 10
-297.8412931149888
 20
-46.20560811688318
 30
0.0
  0
VERTEX
  5
7A4
330
798
100
AcDbEntity
  8
0
370
     0
100
AcDbVertex
100
AcDb2dVertex
 10
-298.5583341149887
 20
-45.67612811688314
 30
0.0
  0
VERTEX
  5
7A5
330
798
100
AcDbEntity
  8
0
370
     0
100
AcDbVertex
100
AcDb2dVertex
 10
-299.2232211149887
 20
-45.09183911688313
 30
0.0
  0
VERTEX
  5
7A6
330
798
100
AcDbEntity
  8
0
370
     0
100
AcDbVertex
100
AcDb2dVertex
 10
-299.8358761149887
 20
-44.45380811688318
 30
0.0
  0
VERTEX
  5
7A7
330
798
100
AcDbEntity
  8
0
370
     0
100
AcDbVertex
100
AcDb2dVertex
 10
-300.3661191149887
 20
-43.80143411688317
 30
0.0
  0
SEQEND
  5
7A8
330
798
100
AcDbEntity
  8
0
370
     0
  0
ARC
  5
7A9
330
1F
100
AcDbEntity
  8
0
 62
     7
370
    35
100
AcDbCircle
 10
-293.8365481149888
 20
-38.91691211688323
 30
0.0
 40
8.154378999999996
100
AcDbArc
 50
180.3371599999989
 51
216.7986910000003
  0
ARC
  5
7AA
330
1F
100
AcDbEntity
  8
0
 62
     7
370
    35
100
AcDbCircle
 10
2021.374984885011
 20
-25.9129141168832
 30
0.0
 40
2323.402626
100
AcDbArc
 50
180.0465910000021
 51
180.3218739999987
  0
ARC
  5
7AB
330
1F
100
AcDbEntity
  8
0
 62
     7
370
    35
100
AcDbCircle
 10
-301.2903741149886
 20
-27.80146411688321
 30
0.0
 40
0.736725
100
AcDbArc
 50
89.99565900000055
 51
180.0540219999992
  0
LINE
  5
7AC
330
1F
100
AcDbEntity
  8
0
 62
     7
 48
0.23382
370
    35
100
AcDbLine
 10
-301.2903291149886
 20
-27.06473911688323
 30
0.0
 11
-291.9375151149887
 21
-27.06473911688323
 31
0.0
  0
ARC
  5
7AD
330
1F
100
AcDbEntity
  8
0
 62
     7
370
    35
100
AcDbCircle
 10
-2187.099624114989
 20
-25.91257911688314
 30
0.0
 40
2323.25238
100
AcDbArc
 50
359.6781029999969
 51
359.9534000000017
  0
ARC
  5
7AE
330
1F
100
AcDbEntity
  8
0
 62
     7
370
    35
100
AcDbCircle
 10
127.9615328850112
 20
-38.91691211688323
 30
0.0
 40
8.154378999999996
100
AcDbArc
 50
323.2013070000001
 51
359.6628330000003
  0
POLYLINE
  5
7AF
330
1F
100
AcDbEntity
  8
0
 62
     7
370
    35
100
AcDb2dPolyline
 66
     1
 10
0.0
 20
0.0
 30
0.0
  0
VERTEX
  5
7B0
330
7AF
100
AcDbEntity
  8
0
370
     0
100
AcDbVertex
100
AcDb2dVertex
 10
126.0624848850112
 20
-48.0056271168832
 30
0.0
  0
VERTEX
  5
7B1
330
7AF
100
AcDbEntity
  8
0
370
     0
100
AcDbVertex
100
AcDb2dVertex
 10
126.8659208850111
 20
-47.97523111688319
 30
0.0
  0
VERTEX
  5
7B2
330
7AF
100
AcDbEntity
  8
0
370
     0
100
AcDbVertex
100
AcDb2dVertex
 10
127.6483608850113
 20
-47.88657811688318
 30
0.0
  0
VERTEX
  5
7B3
330
7AF
100
AcDbEntity
  8
0
370
     0
100
AcDbVertex
100
AcDb2dVertex
 10
128.3976288850112
 20
-47.7455861168832
 30
0.0
  0
VERTEX
  5
7B4
330
7AF
100
AcDbEntity
  8
0
370
     0
100
AcDbVertex
100
AcDb2dVertex
 10
129.0816808850112
 20
-47.56696711688316
 30
0.0
  0
VERTEX
  5
7B5
330
7AF
100
AcDbEntity
  8
0
370
     0
100
AcDbVertex
100
AcDb2dVertex
 10
129.7306368850112
 20
-47.35099411688321
 30
0.0
  0
VERTEX
  5
7B6
330
7AF
100
AcDbEntity
  8
0
370
     0
100
AcDbVertex
100
AcDb2dVertex
 10
130.3450168850112
 20
-47.10191011688317
 30
0.0
  0
VERTEX
  5
7B7
330
7AF
100
AcDbEntity
  8
0
370
     0
100
AcDbVertex
100
AcDb2dVertex
 10
130.7693938850112
 20
-46.90263011688315
 30
0.0
  0
VERTEX
  5
7B8
330
7AF
100
AcDbEntity
  8
0
370
     0
100
AcDbVertex
100
AcDb2dVertex
 10
131.1785738850112
 20
-46.68787811688313
 30
0.0
  0
VERTEX
  5
7B9
330
7AF
100
AcDbEntity
  8
0
370
     0
100
AcDbVertex
100
AcDb2dVertex
 10
131.5796968850112
 20
-46.45423511688345
 30
0.0
  0
VERTEX
  5
7BA
330
7AF
100
AcDbEntity
  8
0
370
     0
100
AcDbVertex
100
AcDb2dVertex
 10
131.9662628850112
 20
-46.20560811688318
 30
0.0
  0
VERTEX
  5
7BB
330
7AF
100
AcDbEntity
  8
0
370
     0
100
AcDbVertex
100
AcDb2dVertex
 10
132.6833348850113
 20
-45.67612811688314
 30
0.0
  0
VERTEX
  5
7BC
330
7AF
100
AcDbEntity
  8
0
370
     0
100
AcDbVertex
100
AcDb2dVertex
 10
133.3481908850112
 20
-45.09183911688313
 30
0.0
  0
VERTEX
  5
7BD
330
7AF
100
AcDbEntity
  8
0
370
     0
100
AcDbVertex
100
AcDb2dVertex
 10
133.9608608850112
 20
-44.45380811688318
 30
0.0
  0
VERTEX
  5
7BE
330
7AF
100
AcDbEntity
  8
0
370
     0
100
AcDbVertex
100
AcDb2dVertex
 10
134.4910738850112
 20
-43.80143411688317
 30
0.0
  0
SEQEND
  5
7BF
330
7AF
100
AcDbEntity
  8
0
370
     0
  0
LINE
  5
7C0
330
1F
100
AcDbEntity
  8
0
 62
     7
 48
0.245
370
    35
100
AcDbLine
 10
116.2624968850112
 20
-48.0056271168832
 30
0.0
 11
126.0624848850112
 21
-48.0056271168832
 31
0.0
  0
ARC
  5
7C1
330
1F
100
AcDbEntity
  8
0
 62
     7
370
    35
100
AcDbCircle
 10
116.2619478850111
 20
-47.39069711688313
 30
0.0
 40
0.614857
100
AcDbArc
 50
181.0672670000023
 51
270.0483069999993
  0
ELLIPSE
  5
7C2
330
1F
100
AcDbEntity
  8
0
 62
     7
370
    35
100
AcDbEllipse
 10
115.7424168850112
 20
-24.9048581168832
 30
0.0
 11
0.0
 21
-25.0
 31
0.0
210
0.0
220
0.0
230
1.0
 40
0.008727
 41
5.245125183392927
 42
5.831911868754858
  0
POLYLINE
  5
7C3
330
1F
100
AcDbEntity
  8
0
 62
     7
370
    35
100
AcDb2dPolyline
 66
     1
 10
0.0
 20
0.0
 30
0.0
  0
VERTEX
  5
7C4
330
7C3
100
AcDbEntity
  8
0
370
     0
100
AcDbVertex
100
AcDb2dVertex
 10
115.5544888850112
 20
-37.60215411688314
 30
0.0
  0
VERTEX
  5
7C5
330
7C3
100
AcDbEntity
  8
0
370
     0
100
AcDbVertex
100
AcDb2dVertex
 10
115.5833588850113
 20
-36.77009211688318
 30
0.0
  0
VERTEX
  5
7C6
330
7C3
100
AcDbEntity
  8
0
370
     0
100
AcDbVertex
100
AcDb2dVertex
 10
115.6804048850112
 20
-35.92991311688314
 30
0.0
  0
VERTEX
  5
7C7
330
7C3
100
AcDbEntity
  8
0
370
     0
100
AcDbVertex
100
AcDb2dVertex
 10
115.8479768850112
 20
-35.08814611688314
 30
0.0
  0
VERTEX
  5
7C8
330
7C3
100
AcDbEntity
  8
0
370
     0
100
AcDbVertex
100
AcDb2dVertex
 10
116.0876308850111
 20
-34.25193411688321
 30
0.0
  0
VERTEX
  5
7C9
330
7C3
100
AcDbEntity
  8
0
370
     0
100
AcDbVertex
100
AcDb2dVertex
 10
116.4000398850112
 20
-33.42887511688315
 30
0.0
  0
VERTEX
  5
7CA
330
7C3
100
AcDbEntity
  8
0
370
     0
100
AcDbVertex
100
AcDb2dVertex
 10
116.7847448850112
 20
-32.62687311688313
 30
0.0
  0
VERTEX
  5
7CB
330
7C3
100
AcDbEntity
  8
0
370
     0
100
AcDbVertex
100
AcDb2dVertex
 10
117.2285618850112
 20
-31.87205111688314
 30
0.0
  0
VERTEX
  5
7CC
330
7C3
100
AcDbEntity
  8
0
370
     0
100
AcDbVertex
100
AcDb2dVertex
 10
117.7372898850111
 20
-31.15238611688318
 30
0.0
  0
VERTEX
  5
7CD
330
7C3
100
AcDbEntity
  8
0
370
     0
100
AcDbVertex
100
AcDb2dVertex
 10
118.3076628850112
 20
-30.47462111688316
 30
0.0
  0
VERTEX
  5
7CE
330
7C3
100
AcDbEntity
  8
0
370
     0
100
AcDbVertex
100
AcDb2dVertex
 10
118.9357148850112
 20
-29.84501311688319
 30
0.0
  0
VERTEX
  5
7CF
330
7C3
100
AcDbEntity
  8
0
370
     0
100
AcDbVertex
100
AcDb2dVertex
 10
119.6168668850113
 20
-29.26920711688314
 30
0.0
  0
VERTEX
  5
7D0
330
7C3
100
AcDbEntity
  8
0
370
     0
100
AcDbVertex
100
AcDb2dVertex
 10
120.3459018850113
 20
-28.75227011688315
 30
0.0
  0
VERTEX
  5
7D1
330
7C3
100
AcDbEntity
  8
0
370
     0
100
AcDbVertex
100
AcDb2dVertex
 10
121.0881198850112
 20
-28.31412911688318
 30
0.0
  0
VERTEX
  5
7D2
330
7C3
100
AcDbEntity
  8
0
370
     0
100
AcDbVertex
100
AcDb2dVertex
 10
121.8643948850112
 20
-27.93796911688315
 30
0.0
  0
VERTEX
  5
7D3
330
7C3
100
AcDbEntity
  8
0
370
     0
100
AcDbVertex
100
AcDb2dVertex
 10
122.6693268850112
 20
-27.62650711688315
 30
0.0
  0
VERTEX
  5
7D4
330
7C3
100
AcDbEntity
  8
0
370
     0
100
AcDbVertex
100
AcDb2dVertex
 10
123.4973298850112
 20
-27.38200011688315
 30
0.0
  0
VERTEX
  5
7D5
330
7C3
100
AcDbEntity
  8
0
370
     0
100
AcDbVertex
100
AcDb2dVertex
 10
124.3426968850112
 20
-27.20612711688324
 30
0.0
  0
VERTEX
  5
7D6
330
7C3
100
AcDbEntity
  8
0
370
     0
100
AcDbVertex
100
AcDb2dVertex
 10
125.1996918850111
 20
-27.10014011688344
 30
0.0
  0
VERTEX
  5
7D7
330
7C3
100
AcDbEntity
  8
0
370
     0
100
AcDbVertex
100
AcDb2dVertex
 10
126.0624848850112
 20
-27.06473911688323
 30
0.0
  0
SEQEND
  5
7D8
330
7C3
100
AcDbEntity
  8
0
370
     0
  0
LINE
  5
7D9
330
1F
100
AcDbEntity
  8
0
 62
     7
 48
0.23382
370
    35
100
AcDbLine
 10
126.0624848850112
 20
-27.06473911688323
 30
0.0
 11
135.4152678850113
 21
-27.06473911688323
 31
0.0
  0
ARC
  5
7DA
330
1F
100
AcDbEntity
  8
0
 62
     7
370
    35
100
AcDbCircle
 10
135.4153288850113
 20
-27.80146411688321
 30
0.0
 40
0.736725
100
AcDbArc
 50
359.945972999998
 51
90.00434700000132
  0
LINE
  5
7DB
330
1F
100
AcDbEntity
  8
0
 62
   253
370
    35
100
AcDbLine
 10
-278.7375181149887
 20
11.80922288311677
 30
0.0
 11
-278.7375181149887
 21
115.5254708831168
 31
0.0
  0
LINE
  5
7DC
330
1F
100
AcDbEntity
  8
0
 62
   253
370
    35
100
AcDbLine
 10
112.8624728850113
 20
115.5254708831168
 30
0.0
 11
112.8624728850113
 21
11.80922288311677
 31
0.0
  0
ARC
  5
7DD
330
1F
100
AcDbEntity
  8
0
 62
   253
370
    35
100
AcDbCircle
 10
110.8735198850111
 20
115.5288888831168
 30
0.0
 40
1.988738999999999
100
AcDbArc
 50
359.9018570000002
 51
90.09815199999955
  0
LINE
  5
7DE
330
1F
100
AcDbEntity
  8
0
 62
   253
370
    35
100
AcDbLine
 10
110.8701018850111
 20
117.5178718831169
 30
0.0
 11
-276.7451321149887
 21
117.5178718831169
 31
0.0
  0
ARC
  5
7DF
330
1F
100
AcDbEntity
  8
0
 62
   253
370
    35
100
AcDbCircle
 10
-276.7485351149887
 20
115.5288888831168
 30
0.0
 40
1.988738999999999
100
AcDbArc
 50
89.90185300000177
 51
180.098144999999
  0
ELLIPSE
  5
7E0
330
1F
100
AcDbEntity
  8
0
 62
   253
370
    35
100
AcDbEllipse
 10
-278.7393191149887
 20
8.315997883116835
 30
0.0
 11
0.0
 21
-1.000297546386718
 31
0.0
210
0.0
220
0.0
230
1.0
 40
0.087476
 41
3.15904288456711
 42
3.606658725948628
  0
LINE
  5
7E1
330
1F
100
AcDbEntity
  8
0
 62
   253
 48
0.001729
370
    35
100
AcDbLine
 10
-278.7785641149887
 20
9.210040883116846
 30
0.0
 11
-278.7887421149887
 21
9.141620883116788
 31
0.0
  0
LINE
  5
7E2
330
1F
100
AcDbEntity
  8
0
 62
   253
 48
0.054151
370
    35
100
AcDbLine
 10
-278.7887421149887
 20
9.141620883116788
 30
0.0
 11
-278.7887421149887
 21
11.30766688311684
 31
0.0
  0
LINE
  5
7E3
330
1F
100
AcDbEntity
  8
0
 62
   253
 48
0.00021
370
    35
100
AcDbLine
 10
-278.7887421149887
 20
11.30766688311684
 30
0.0
 11
-278.7805021149887
 21
11.30931488311677
 31
0.0
  0
ELLIPSE
  5
7E4
330
1F
100
AcDbEntity
  8
0
 62
   253
370
    35
100
AcDbEllipse
 10
-278.7812651149887
 20
11.80922288311677
 30
0.0
 11
0.0
 21
-0.5
 31
0.0
210
0.0
220
0.0
230
1.0
 40
0.087489
 41
0.0174532923831769
 42
1.570796326794896
  0
LINE
  5
7E5
330
1F
100
AcDbEntity
  8
0
 62
   253
 48
0.001589
370
    35
100
AcDbLine
 10
112.8035128850112
 20
9.32857088311681
 30
0.0
 11
112.8658298850113
 21
9.316150883116787
 31
0.0
  0
ELLIPSE
  5
7E6
330
1F
100
AcDbEntity
  8
0
 62
   253
370
    35
100
AcDbEllipse
 10
-278.2427521149888
 20
9.316150883116787
 30
0.0
 11
0.09783935546875
 21
-0.4903335571289066
 31
0.0
210
0.0
220
0.0
230
0.9999999999999998
 40
0.996044
 41
4.516221549048608
 42
6.085496797811128
  0
LINE
  5
7E7
330
1F
100
AcDbEntity
  8
0
 62
   253
 48
0.001589
370
    35
100
AcDbLine
 10
-278.1804201149887
 20
8.828662883116804
 30
0.0
 11
-278.2427521149888
 21
8.816211883116862
 31
0.0
  0
ELLIPSE
  5
7E8
330
1F
100
AcDbEntity
  8
0
 62
   253
370
    35
100
AcDbEllipse
 10
112.3054048850113
 20
9.32857088311681
 30
0.0
 11
0.09783935546875
 21
0.4903335571289066
 31
0.0
210
0.0
220
0.0
230
0.9999999999999998
 40
0.996044
 41
3.339281174666814
 42
4.908556420969674
  0
POLYLINE
  5
7E9
330
1F
100
AcDbEntity
  8
0
 62
   253
370
    35
100
AcDb2dPolyline
 66
     1
 10
0.0
 20
0.0
 30
0.0
  0
VERTEX
  5
7EA
330
7E9
100
AcDbEntity
  8
0
 62
   253
370
     0
100
AcDbVertex
100
AcDb2dVertex
 10
-276.6861261149887
 20
8.852557883116844
 30
0.0
  0
VERTEX
  5
7EB
330
7E9
100
AcDbEntity
  8
0
 62
   253
370
     0
100
AcDbVertex
100
AcDb2dVertex
 10
-277.9831081149887
 20
8.839526883116775
 30
0.0
  0
VERTEX
  5
7EC
330
7E9
100
AcDbEntity
  8
0
 62
   253
370
     0
100
AcDbVertex
100
AcDb2dVertex
 10
-278.1453851149887
 20
8.8324468831168
 30
0.0
  0
VERTEX
  5
7ED
330
7E9
100
AcDbEntity
  8
0
 62
   253
370
     0
100
AcDbVertex
100
AcDb2dVertex
 10
-278.1804201149887
 20
8.828662883116804
 30
0.0
  0
SEQEND
  5
7EE
330
7E9
100
AcDbEntity
  8
0
 62
   253
370
     0
  0
LINE
  5
7EF
330
1F
100
AcDbEntity
  8
0
 62
   253
 48
0.001305
370
    35
100
AcDbLine
 10
62.51707488501134
 20
8.649829883116865
 30
0.0
 11
62.55400088501133
 21
8.686725883116821
 31
0.0
  0
LINE
  5
7F0
330
1F
100
AcDbEntity
  8
0
 62
   253
370
    35
100
AcDbLine
 10
-276.6861261149887
 20
8.852557883116844
 30
0.0
 11
-228.4375151149887
 21
8.852557883116844
 31
0.0
  0
LINE
  5
7F1
330
1F
100
AcDbEntity
  8
0
 62
   253
 48
0.001737
370
    35
100
AcDbLine
 10
-228.4375151149887
 20
8.783069883116866
 30
0.0
 11
-228.4375151149887
 21
8.852557883116844
 31
0.0
  0
POLYLINE
  5
7F2
330
1F
100
AcDbEntity
  8
0
 62
   253
370
    35
100
AcDb2dPolyline
 66
     1
 10
0.0
 20
0.0
 30
0.0
  0
VERTEX
  5
7F3
330
7F2
100
AcDbEntity
  8
0
 62
   253
370
     0
100
AcDbVertex
100
AcDb2dVertex
 10
-228.4375151149887
 20
8.783069883116866
 30
0.0
  0
VERTEX
  5
7F4
330
7F2
100
AcDbEntity
  8
0
 62
   253
370
     0
100
AcDbVertex
100
AcDb2dVertex
 10
-228.4369811149887
 20
8.782184883116824
 30
0.0
  0
VERTEX
  5
7F5
330
7F2
100
AcDbEntity
  8
0
 62
   253
370
     0
100
AcDbVertex
100
AcDb2dVertex
 10
-228.4360201149887
 20
8.781573883116777
 30
0.0
  0
VERTEX
  5
7F6
330
7F2
100
AcDbEntity
  8
0
 62
   253
370
     0
100
AcDbVertex
100
AcDb2dVertex
 10
-228.4326471149887
 20
8.780353883116788
 30
0.0
  0
VERTEX
  5
7F7
330
7F2
100
AcDbEntity
  8
0
 62
   253
370
     0
100
AcDbVertex
100
AcDb2dVertex
 10
-228.3938141149886
 20
8.774920883116863
 30
0.0
  0
VERTEX
  5
7F8
330
7F2
100
AcDbEntity
  8
0
 62
   253
370
     0
100
AcDbVertex
100
AcDb2dVertex
 10
-228.2534631149887
 20
8.766559883116824
 30
0.0
  0
VERTEX
  5
7F9
330
7F2
100
AcDbEntity
  8
0
 62
   253
370
     0
100
AcDbVertex
100
AcDb2dVertex
 10
-227.1139831149887
 20
8.744433883116869
 30
0.0
  0
SEQEND
  5
7FA
330
7F2
100
AcDbEntity
  8
0
 62
   253
370
     0
  0
ARC
  5
7FB
330
1F
100
AcDbEntity
  8
0
 62
   253
370
    35
100
AcDbCircle
 10
-208.4623261149888
 20
2104.860003883118
 30
0.0
 40
2096.199158
100
AcDbArc
 50
269.4901849999997
 51
270.0143479999988
  0
LINE
  5
7FC
330
1F
100
AcDbEntity
  8
0
 62
   253
370
    35
100
AcDbLine
 10
-207.9375151149888
 20
8.660632883116646
 30
0.0
 11
-137.9375151149888
 21
8.660632883116646
 31
0.0
  0
ARC
  5
7FD
330
1F
100
AcDbEntity
  8
0
 62
   253
370
    35
100
AcDbCircle
 10
-137.4109651149888
 20
2105.518207883116
 30
0.0
 40
2096.857247
100
AcDbArc
 50
269.9856130000006
 51
270.5096120000007
  0
POLYLINE
  5
7FE
330
1F
100
AcDbEntity
  8
0
 62
   253
370
    35
100
AcDb2dPolyline
 66
     1
 10
0.0
 20
0.0
 30
0.0
  0
VERTEX
  5
7FF
330
7FE
100
AcDbEntity
  8
0
 62
   253
370
     0
100
AcDbVertex
100
AcDb2dVertex
 10
-118.7610321149888
 20
8.744433883116869
 30
0.0
  0
VERTEX
  5
800
330
7FE
100
AcDbEntity
  8
0
 62
   253
370
     0
100
AcDbVertex
100
AcDb2dVertex
 10
-118.3744051149887
 20
8.748889883116872
 30
0.0
  0
VERTEX
  5
801
330
7FE
100
AcDbEntity
  8
0
 62
   253
370
     0
100
AcDbVertex
100
AcDb2dVertex
 10
-117.5464021149888
 20
8.770282883116635
 30
0.0
  0
VERTEX
  5
802
330
7FE
100
AcDbEntity
  8
0
 62
   253
370
     0
100
AcDbVertex
100
AcDb2dVertex
 10
-117.4496611149888
 20
8.778766883116816
 30
0.0
  0
VERTEX
  5
803
330
7FE
100
AcDbEntity
  8
0
 62
   253
370
     0
100
AcDbVertex
100
AcDb2dVertex
 10
-117.4412691149887
 20
8.780688883116852
 30
0.0
  0
VERTEX
  5
804
330
7FE
100
AcDbEntity
  8
0
 62
   253
370
     0
100
AcDbVertex
100
AcDb2dVertex
 10
-117.4388581149888
 20
8.781634883116852
 30
0.0
  0
VERTEX
  5
805
330
7FE
100
AcDbEntity
  8
0
 62
   253
370
     0
100
AcDbVertex
100
AcDb2dVertex
 10
-117.4375151149888
 20
8.783069883116866
 30
0.0
  0
SEQEND
  5
806
330
7FE
100
AcDbEntity
  8
0
 62
   253
370
     0
  0
LINE
  5
807
330
1F
100
AcDbEntity
  8
0
 62
   253
 48
0.001737
370
    35
100
AcDbLine
 10
-117.4375151149888
 20
8.852557883116844
 30
0.0
 11
-117.4375151149888
 21
8.783069883116866
 31
0.0
  0
LINE
  5
808
330
1F
100
AcDbEntity
  8
0
 62
   253
370
    35
100
AcDbLine
 10
-117.4375151149888
 20
8.852557883116844
 30
0.0
 11
-48.43751511498878
 21
8.852557883116844
 31
0.0
  0
LINE
  5
809
330
1F
100
AcDbEntity
  8
0
 62
   253
 48
0.001737
370
    35
100
AcDbLine
 10
-48.43751511498878
 20
8.852557883116844
 30
0.0
 11
-48.43751511498878
 21
8.783069883116866
 31
0.0
  0
POLYLINE
  5
80A
330
1F
100
AcDbEntity
  8
0
 62
   253
370
    35
100
AcDb2dPolyline
 66
     1
 10
0.0
 20
0.0
 30
0.0
  0
VERTEX
  5
80B
330
80A
100
AcDbEntity
  8
0
 62
   253
370
     0
100
AcDbVertex
100
AcDb2dVertex
 10
-48.43751511498878
 20
8.783069883116866
 30
0.0
  0
VERTEX
  5
80C
330
80A
100
AcDbEntity
  8
0
 62
   253
370
     0
100
AcDbVertex
100
AcDb2dVertex
 10
-48.43653811498878
 20
8.781848883116765
 30
0.0
  0
VERTEX
  5
80D
330
80A
100
AcDbEntity
  8
0
 62
   253
370
     0
100
AcDbVertex
100
AcDb2dVertex
 10
-48.43431111498879
 20
8.780871883116843
 30
0.0
  0
VERTEX
  5
80E
330
80A
100
AcDbEntity
  8
0
 62
   253
370
     0
100
AcDbVertex
100
AcDb2dVertex
 10
-48.40876711498887
 20
8.776446883116646
 30
0.0
  0
VERTEX
  5
80F
330
80A
100
AcDbEntity
  8
0
 62
   253
370
     0
100
AcDbVertex
100
AcDb2dVertex
 10
-47.9884491149887
 20
8.7580148831168
 30
0.0
  0
VERTEX
  5
810
330
80A
100
AcDbEntity
  8
0
 62
   253
370
     0
100
AcDbVertex
100
AcDb2dVertex
 10
-47.11399811498867
 20
8.744433883116869
 30
0.0
  0
SEQEND
  5
811
330
80A
100
AcDbEntity
  8
0
 62
   253
370
     0
  0
ARC
  5
812
330
1F
100
AcDbEntity
  8
0
 62
   253
370
    35
100
AcDbCircle
 10
-28.46369911498877
 20
2105.381976883117
 30
0.0
 40
2096.721102
100
AcDbArc
 50
269.490349000001
 51
270.0143819999987
  0
LINE
  5
813
330
1F
100
AcDbEntity
  8
0
 62
   253
370
    35
100
AcDbLine
 10
-27.93751511498877
 20
8.660632883116646
 30
0.0
 11
42.06248488501134
 21
8.660632883116646
 31
0.0
  0
ARC
  5
814
330
1F
100
AcDbEntity
  8
0
 62
   253
370
    35
100
AcDbCircle
 10
42.58866888501134
 20
2105.380267883117
 30
0.0
 40
2096.719374
100
AcDbArc
 50
269.9856200000009
 51
270.5096529999996
  0
POLYLINE
  5
815
330
1F
100
AcDbEntity
  8
0
 62
   253
370
    35
100
AcDb2dPolyline
 66
     1
 10
0.0
 20
0.0
 30
0.0
  0
VERTEX
  5
816
330
815
100
AcDbEntity
  8
0
 62
   253
370
     0
100
AcDbVertex
100
AcDb2dVertex
 10
61.23893788501131
 20
8.744433883116869
 30
0.0
  0
VERTEX
  5
817
330
815
100
AcDbEntity
  8
0
 62
   253
370
     0
100
AcDbVertex
100
AcDb2dVertex
 10
62.09010288501126
 20
8.757434883116786
 30
0.0
  0
VERTEX
  5
818
330
815
100
AcDbEntity
  8
0
 62
   253
370
     0
100
AcDbVertex
100
AcDb2dVertex
 10
62.52708488501131
 20
8.775714883116791
 30
0.0
  0
VERTEX
  5
819
330
815
100
AcDbEntity
  8
0
 62
   253
370
     0
100
AcDbVertex
100
AcDb2dVertex
 10
62.55854788501133
 20
8.780627883116665
 30
0.0
  0
VERTEX
  5
81A
330
815
100
AcDbEntity
  8
0
 62
   253
370
     0
100
AcDbVertex
100
AcDb2dVertex
 10
62.5612638850113
 20
8.781726883116846
 30
0.0
  0
VERTEX
  5
81B
330
815
100
AcDbEntity
  8
0
 62
   253
370
     0
100
AcDbVertex
100
AcDb2dVertex
 10
62.56248488501134
 20
8.783069883116866
 30
0.0
  0
SEQEND
  5
81C
330
815
100
AcDbEntity
  8
0
 62
   253
370
     0
  0
LINE
  5
81D
330
1F
100
AcDbEntity
  8
0
 62
   253
 48
0.001737
370
    35
100
AcDbLine
 10
62.56248488501134
 20
8.783069883116866
 30
0.0
 11
62.56248488501134
 21
8.852557883116844
 31
0.0
  0
LINE
  5
81E
330
1F
100
AcDbEntity
  8
0
 62
   253
370
    35
100
AcDbLine
 10
62.56248488501134
 20
8.852557883116844
 30
0.0
 11
110.8110808850113
 21
8.852557883116844
 31
0.0
  0
POLYLINE
  5
81F
330
1F
100
AcDbEntity
  8
0
 62
   253
370
    35
100
AcDb2dPolyline
 66
     1
 10
0.0
 20
0.0
 30
0.0
  0
VERTEX
  5
820
330
81F
100
AcDbEntity
  8
0
 62
   253
370
     0
100
AcDbVertex
100
AcDb2dVertex
 10
110.8110808850113
 20
8.852557883116844
 30
0.0
  0
VERTEX
  5
821
330
81F
100
AcDbEntity
  8
0
 62
   253
370
     0
100
AcDbVertex
100
AcDb2dVertex
 10
112.1080778850113
 20
8.839526883116775
 30
0.0
  0
VERTEX
  5
822
330
81F
100
AcDbEntity
  8
0
 62
   253
370
     0
100
AcDbVertex
100
AcDb2dVertex
 10
112.2703708850112
 20
8.8324468831168
 30
0.0
  0
VERTEX
  5
823
330
81F
100
AcDbEntity
  8
0
 62
   253
370
     0
100
AcDbVertex
100
AcDb2dVertex
 10
112.3054048850113
 20
8.828662883116804
 30
0.0
  0
SEQEND
  5
824
330
81F
100
AcDbEntity
  8
0
 62
   253
370
     0
  0
LINE
  5
825
330
1F
100
AcDbEntity
  8
0
 62
   253
 48
0.09952
370
    35
100
AcDbLine
 10
-227.9375151149887
 20
13.33327088311677
 30
0.0
 11
-227.9375151149887
 21
9.352466883116846
 31
0.0
  0
ARC
  5
826
330
1F
100
AcDbEntity
  8
0
 62
   253
370
    35
100
AcDbCircle
 10
-225.9271851149887
 20
13.33824488311683
 30
0.0
 40
2.009978999999999
100
AcDbArc
 50
118.2594940000032
 51
180.1419949999971
  0
ARC
  5
827
330
1F
100
AcDbEntity
  8
0
 62
   253
370
    35
100
AcDbCircle
 10
-207.9416961149888
 20
-20.3340261168832
 30
0.0
 40
40.184578
100
AcDbArc
 50
89.99405300000047
 51
118.1157319999997
  0
LINE
  5
828
330
1F
100
AcDbEntity
  8
0
 62
   253
370
    35
100
AcDbLine
 10
-207.9375151149888
 20
19.8507268831168
 30
0.0
 11
-137.9375151149888
 21
19.8507268831168
 31
0.0
  0
ARC
  5
829
330
1F
100
AcDbEntity
  8
0
 62
   253
370
    35
100
AcDbCircle
 10
-137.9333191149888
 20
-20.33390411688316
 30
0.0
 40
40.18446599999999
100
AcDbArc
 50
61.88422500000029
 51
90.00599299999917
  0
ARC
  5
82A
330
1F
100
AcDbEntity
  8
0
 62
   253
370
    35
100
AcDbCircle
 10
-119.9478601149888
 20
13.33824488311683
 30
0.0
 40
2.009978999999999
100
AcDbArc
 50
359.8580099999992
 51
61.74050499999914
  0
LINE
  5
82B
330
1F
100
AcDbEntity
  8
0
 62
   253
 48
0.09952
370
    35
100
AcDbLine
 10
-117.9375151149887
 20
13.33327088311677
 30
0.0
 11
-117.9375151149887
 21
9.352466883116846
 31
0.0
  0
LINE
  5
82C
330
1F
100
AcDbEntity
  8
0
 62
   253
 48
0.09952
370
    35
100
AcDbLine
 10
-47.93751511498864
 20
13.33327088311677
 30
0.0
 11
-47.93751511498864
 21
9.352466883116846
 31
0.0
  0
ARC
  5
82D
330
1F
100
AcDbEntity
  8
0
 62
   253
370
    35
100
AcDbCircle
 10
-45.92717011498868
 20
13.33821488311679
 30
0.0
 40
2.010003999999999
100
AcDbArc
 50
118.2591790000002
 51
180.1409149999971
  0
ARC
  5
82E
330
1F
100
AcDbEntity
  8
0
 62
   253
370
    35
100
AcDbCircle
 10
-27.94169611498868
 20
-20.3340261168832
 30
0.0
 40
40.184578
100
AcDbArc
 50
89.99405300000047
 51
118.1157319999997
  0
LINE
  5
82F
330
1F
100
AcDbEntity
  8
0
 62
   253
370
    35
100
AcDbLine
 10
-27.93751511498877
 20
19.8507268831168
 30
0.0
 11
42.06248488501134
 21
19.8507268831168
 31
0.0
  0
ARC
  5
830
330
1F
100
AcDbEntity
  8
0
 62
   253
370
    35
100
AcDbCircle
 10
42.06669588501134
 20
-20.33390411688316
 30
0.0
 40
40.18446599999999
100
AcDbArc
 50
61.88422500000029
 51
90.00599299999917
  0
ARC
  5
831
330
1F
100
AcDbEntity
  8
0
 62
   253
370
    35
100
AcDbCircle
 10
60.05216988501128
 20
13.33824488311683
 30
0.0
 40
2.009978999999999
100
AcDbArc
 50
359.8580099999992
 51
61.74050499999914
  0
LINE
  5
832
330
1F
100
AcDbEntity
  8
0
 62
   253
 48
0.09952
370
    35
100
AcDbLine
 10
62.06248488501135
 20
13.33327088311677
 30
0.0
 11
62.06248488501135
 21
9.352466883116846
 31
0.0
  0
LINE
  5
833
330
1F
100
AcDbEntity
  8
0
 62
   253
 48
0.001736
370
    35
100
AcDbLine
 10
-227.9375151149887
 20
9.283008883116792
 30
0.0
 11
-227.9375151149887
 21
9.352466883116846
 31
0.0
  0
ELLIPSE
  5
834
330
1F
100
AcDbEntity
  8
0
 62
   253
370
    35
100
AcDbEllipse
 10
-228.4375151149887
 20
9.352466883116846
 30
0.0
 11
-0.5
 21
0.0
 31
0.0
210
0.0
220
0.0
230
1.0
 40
0.9998479999999998
 41
1.570796326794896
 42
3.141592653589792
  0
LINE
  5
835
330
1F
100
AcDbEntity
  8
0
 62
   253
 48
0.012172
370
    35
100
AcDbLine
 10
-207.9375151149888
 20
8.660632883116646
 30
0.0
 11
-207.9375151149888
 21
9.147510883116806
 31
0.0
  0
LINE
  5
836
330
1F
100
AcDbEntity
  8
0
 62
   253
 48
0.012172
370
    35
100
AcDbLine
 10
-137.9375151149888
 20
8.660632883116646
 30
0.0
 11
-137.9375151149888
 21
9.147510883116806
 31
0.0
  0
LINE
  5
837
330
1F
100
AcDbEntity
  8
0
 62
   253
 48
0.001736
370
    35
100
AcDbLine
 10
-117.9375151149887
 20
9.352466883116846
 30
0.0
 11
-117.9375151149887
 21
9.283008883116792
 31
0.0
  0
ELLIPSE
  5
838
330
1F
100
AcDbEntity
  8
0
 62
   253
370
    35
100
AcDbEllipse
 10
-117.4375151149888
 20
9.352466883116846
 30
0.0
 11
-0.5
 21
0.0
 31
0.0
210
0.0
220
0.0
230
1.0
 40
0.9998479999999998
 41
0.0
 42
1.570796326794896
  0
LINE
  5
839
330
1F
100
AcDbEntity
  8
0
 62
   253
 48
0.001736
370
    35
100
AcDbLine
 10
-47.93751511498864
 20
9.352466883116846
 30
0.0
 11
-47.93751511498864
 21
9.283008883116792
 31
0.0
  0
ELLIPSE
  5
83A
330
1F
100
AcDbEntity
  8
0
 62
   253
370
    35
100
AcDbEllipse
 10
-48.43751511498878
 20
9.352466883116846
 30
0.0
 11
-0.5
 21
0.0
 31
0.0
210
0.0
220
0.0
230
1.0
 40
0.9998479999999998
 41
1.570796326794896
 42
3.141592653589792
  0
LINE
  5
83B
330
1F
100
AcDbEntity
  8
0
 62
   253
 48
0.012172
370
    35
100
AcDbLine
 10
-27.93751511498877
 20
8.660632883116646
 30
0.0
 11
-27.93751511498877
 21
9.147510883116806
 31
0.0
  0
LINE
  5
83C
330
1F
100
AcDbEntity
  8
0
 62
   253
 48
0.012172
370
    35
100
AcDbLine
 10
42.06248488501134
 20
8.660632883116646
 30
0.0
 11
42.06248488501134
 21
9.147510883116806
 31
0.0
  0
LINE
  5
83D
330
1F
100
AcDbEntity
  8
0
 62
   253
 48
0.001736
370
    35
100
AcDbLine
 10
62.06248488501135
 20
9.283008883116792
 30
0.0
 11
62.06248488501135
 21
9.352466883116846
 31
0.0
  0
ELLIPSE
  5
83E
330
1F
100
AcDbEntity
  8
0
 62
   253
370
    35
100
AcDbEllipse
 10
62.56248488501134
 20
9.352466883116846
 30
0.0
 11
0.5
 21
0.0
 31
0.0
210
0.0
220
0.0
230
1.0
 40
0.9998479999999998
 41
3.141592653589792
 42
4.712388980384688
  0
LINE
  5
83F
330
1F
100
AcDbEntity
  8
0
 62
   253
 48
0.2675800000000001
370
    35
100
AcDbLine
 10
-207.9375151149888
 20
9.147510883116806
 30
0.0
 11
-207.9375151149888
 21
19.8507268831168
 31
0.0
  0
LINE
  5
840
330
1F
100
AcDbEntity
  8
0
 62
   253
 48
0.2675800000000001
370
    35
100
AcDbLine
 10
-137.9375151149888
 20
9.147510883116806
 30
0.0
 11
-137.9375151149888
 21
19.8507268831168
 31
0.0
  0
LINE
  5
841
330
1F
100
AcDbEntity
  8
0
 62
   253
 48
0.2675800000000001
370
    35
100
AcDbLine
 10
-27.93751511498877
 20
9.147540883116846
 30
0.0
 11
-27.93751511498877
 21
19.8507268831168
 31
0.0
  0
LINE
  5
842
330
1F
100
AcDbEntity
  8
0
 62
   253
 48
0.2675800000000001
370
    35
100
AcDbLine
 10
42.06248488501134
 20
9.147510883116806
 30
0.0
 11
42.06248488501134
 21
19.8507268831168
 31
0.0
  0
ARC
  5
843
330
1F
100
AcDbEntity
  8
0
 62
   253
370
    35
100
AcDbCircle
 10
-276.5485381149887
 20
-11.43064511688322
 30
0.0
 40
1.988738999999999
100
AcDbArc
 50
179.901855000001
 51
270.0981400000009
  0
LINE
  5
844
330
1F
100
AcDbEntity
  8
0
 62
   253
370
    35
100
AcDbLine
 10
-276.5451201149888
 20
-13.41962811688319
 30
0.0
 11
110.670089885011
 21
-13.41962811688319
 31
0.0
  0
ARC
  5
845
330
1F
100
AcDbEntity
  8
0
 62
   253
370
    35
100
AcDbCircle
 10
110.6735078850111
 20
-11.43064511688322
 30
0.0
 40
1.988738999999999
100
AcDbArc
 50
269.9018480000004
 51
0.0981429999997892
  0
LINE
  5
846
330
1F
100
AcDbEntity
  8
0
 62
   253
370
    35
100
AcDbLine
 10
-162.2431181149887
 20
-1.998150116883208
 30
0.0
 11
-137.9375151149888
 21
-1.998150116883208
 31
0.0
  0
LINE
  5
847
330
1F
100
AcDbEntity
  8
0
 62
   253
370
    35
100
AcDbLine
 10
-207.9375151149888
 20
-1.998150116883208
 30
0.0
 11
-183.6319121149886
 21
-1.998150116883208
 31
0.0
  0
LINE
  5
848
330
1F
100
AcDbEntity
  8
0
 62
   253
370
    35
100
AcDbLine
 10
17.75688188501127
 20
-1.998150116883208
 30
0.0
 11
42.06248488501134
 21
-1.998150116883208
 31
0.0
  0
LINE
  5
849
330
1F
100
AcDbEntity
  8
0
 62
   253
370
    35
100
AcDbLine
 10
-27.93751511498877
 20
-1.998150116883208
 30
0.0
 11
-3.631912114988693
 21
-1.998150116883208
 31
0.0
  0
ARC
  5
84A
330
1F
100
AcDbEntity
  8
0
 62
   253
370
    35
100
AcDbCircle
 10
-216.0366361149887
 20
20.91850688311678
 30
0.0
 40
22.428446
100
AcDbArc
 50
241.649281999998
 51
242.9583560000008
  0
LINE
  5
84B
330
1F
100
AcDbEntity
  8
0
 62
   253
 48
0.005419
370
    35
100
AcDbLine
 10
-226.6871641149887
 20
1.180194883116826
 30
0.0
 11
-226.8786921149887
 21
1.281726883116846
 31
0.0
  0
POLYLINE
  5
84C
330
1F
100
AcDbEntity
  8
0
 62
   253
370
    35
100
AcDb2dPolyline
 66
     1
 10
0.0
 20
0.0
 30
0.0
  0
VERTEX
  5
84D
330
84C
100
AcDbEntity
  8
0
 62
   253
370
     0
100
AcDbVertex
100
AcDb2dVertex
 10
-226.8786921149887
 20
1.281726883116846
 30
0.0
  0
VERTEX
  5
84E
330
84C
100
AcDbEntity
  8
0
 62
   253
370
     0
100
AcDbVertex
100
AcDb2dVertex
 10
-227.1295471149887
 20
1.440783883116804
 30
0.0
  0
VERTEX
  5
84F
330
84C
100
AcDbEntity
  8
0
 62
   253
370
     0
100
AcDbVertex
100
AcDb2dVertex
 10
-227.3528591149887
 20
1.63496788311687
 30
0.0
  0
VERTEX
  5
850
330
84C
100
AcDbEntity
  8
0
 62
   253
370
     0
100
AcDbVertex
100
AcDb2dVertex
 10
-227.5436401149887
 20
1.85921088311687
 30
0.0
  0
VERTEX
  5
851
330
84C
100
AcDbEntity
  8
0
 62
   253
370
     0
100
AcDbVertex
100
AcDb2dVertex
 10
-227.7302241149886
 20
2.170337883116815
 30
0.0
  0
VERTEX
  5
852
330
84C
100
AcDbEntity
  8
0
 62
   253
370
     0
100
AcDbVertex
100
AcDb2dVertex
 10
-227.8587641149887
 20
2.508319883116826
 30
0.0
  0
VERTEX
  5
853
330
84C
100
AcDbEntity
  8
0
 62
   253
370
     0
100
AcDbVertex
100
AcDb2dVertex
 10
-227.9266661149887
 20
2.861285883116863
 30
0.0
  0
VERTEX
  5
854
330
84C
100
AcDbEntity
  8
0
 62
   253
370
     0
100
AcDbVertex
100
AcDb2dVertex
 10
-227.9375151149887
 20
3.071277883116806
 30
0.0
  0
SEQEND
  5
855
330
84C
100
AcDbEntity
  8
0
 62
   253
370
     0
  0
LINE
  5
856
330
1F
100
AcDbEntity
  8
0
 62
   253
 48
0.019097
370
    35
100
AcDbLine
 10
-118.9963531149886
 20
1.281726883116846
 30
0.0
 11
-118.9963531149886
 21
2.045611883116805
 31
0.0
  0
ARC
  5
857
330
1F
100
AcDbEntity
  8
0
 62
   253
370
    35
100
AcDbCircle
 10
-129.8383941149888
 20
20.91850688311678
 30
0.0
 40
22.428442
100
AcDbArc
 50
297.0416379999996
 51
298.3507190000014
  0
LINE
  5
858
330
1F
100
AcDbEntity
  8
0
 62
   253
 48
0.005419
370
    35
100
AcDbLine
 10
-119.1878511149888
 20
1.180194883116826
 30
0.0
 11
-118.9963531149886
 21
1.281726883116846
 31
0.0
  0
POLYLINE
  5
859
330
1F
100
AcDbEntity
  8
0
 62
   253
370
    35
100
AcDb2dPolyline
 66
     1
 10
0.0
 20
0.0
 30
0.0
  0
VERTEX
  5
85A
330
859
100
AcDbEntity
  8
0
 62
   253
370
     0
100
AcDbVertex
100
AcDb2dVertex
 10
-118.9963531149886
 20
1.281726883116846
 30
0.0
  0
VERTEX
  5
85B
330
859
100
AcDbEntity
  8
0
 62
   253
370
     0
100
AcDbVertex
100
AcDb2dVertex
 10
-118.7454681149887
 20
1.440814883116843
 30
0.0
  0
VERTEX
  5
85C
330
859
100
AcDbEntity
  8
0
 62
   253
370
     0
100
AcDbVertex
100
AcDb2dVertex
 10
-118.5221401149886
 20
1.634997883116793
 30
0.0
  0
VERTEX
  5
85D
330
859
100
AcDbEntity
  8
0
 62
   253
370
     0
100
AcDbVertex
100
AcDb2dVertex
 10
-118.3313751149888
 20
1.859240883116794
 30
0.0
  0
VERTEX
  5
85E
330
859
100
AcDbEntity
  8
0
 62
   253
370
     0
100
AcDbVertex
100
AcDb2dVertex
 10
-118.1774141149888
 20
2.105853883116821
 30
0.0
  0
VERTEX
  5
85F
330
859
100
AcDbEntity
  8
0
 62
   253
370
     0
100
AcDbVertex
100
AcDb2dVertex
 10
-118.0604701149888
 20
2.37080788311681
 30
0.0
  0
VERTEX
  5
860
330
859
100
AcDbEntity
  8
0
 62
   253
370
     0
100
AcDbVertex
100
AcDb2dVertex
 10
-117.9816741149888
 20
2.648486883116845
 30
0.0
  0
VERTEX
  5
861
330
859
100
AcDbEntity
  8
0
 62
   253
370
     0
100
AcDbVertex
100
AcDb2dVertex
 10
-117.9485621149886
 20
2.859424883116787
 30
0.0
  0
VERTEX
  5
862
330
859
100
AcDbEntity
  8
0
 62
   253
370
     0
100
AcDbVertex
100
AcDb2dVertex
 10
-117.9375151149887
 20
3.071277883116806
 30
0.0
  0
SEQEND
  5
863
330
859
100
AcDbEntity
  8
0
 62
   253
370
     0
  0
POLYLINE
  5
864
330
1F
100
AcDbEntity
  8
0
 62
   253
370
    35
100
AcDb2dPolyline
 66
     1
 10
0.0
 20
0.0
 30
0.0
  0
VERTEX
  5
865
330
864
100
AcDbEntity
  8
0
 62
   253
370
     0
100
AcDbVertex
100
AcDb2dVertex
 10
61.00364688501147
 20
1.281726883116846
 30
0.0
  0
VERTEX
  5
866
330
864
100
AcDbEntity
  8
0
 62
   253
370
     0
100
AcDbVertex
100
AcDb2dVertex
 10
61.25453188501122
 20
1.440814883116843
 30
0.0
  0
VERTEX
  5
867
330
864
100
AcDbEntity
  8
0
 62
   253
370
     0
100
AcDbVertex
100
AcDb2dVertex
 10
61.47782888501135
 20
1.634997883116793
 30
0.0
  0
VERTEX
  5
868
330
864
100
AcDbEntity
  8
0
 62
   253
370
     0
100
AcDbVertex
100
AcDb2dVertex
 10
61.66862488501148
 20
1.859240883116794
 30
0.0
  0
VERTEX
  5
869
330
864
100
AcDbEntity
  8
0
 62
   253
370
     0
100
AcDbVertex
100
AcDb2dVertex
 10
61.82255588501127
 20
2.105853883116821
 30
0.0
  0
VERTEX
  5
86A
330
864
100
AcDbEntity
  8
0
 62
   253
370
     0
100
AcDbVertex
100
AcDb2dVertex
 10
61.93952988501123
 20
2.37080788311681
 30
0.0
  0
VERTEX
  5
86B
330
864
100
AcDbEntity
  8
0
 62
   253
370
     0
100
AcDbVertex
100
AcDb2dVertex
 10
62.01832588501125
 20
2.648486883116845
 30
0.0
  0
VERTEX
  5
86C
330
864
100
AcDbEntity
  8
0
 62
   253
370
     0
100
AcDbVertex
100
AcDb2dVertex
 10
62.05143788501132
 20
2.859424883116787
 30
0.0
  0
VERTEX
  5
86D
330
864
100
AcDbEntity
  8
0
 62
   253
370
     0
100
AcDbVertex
100
AcDb2dVertex
 10
62.06248488501135
 20
3.071277883116806
 30
0.0
  0
SEQEND
  5
86E
330
864
100
AcDbEntity
  8
0
 62
   253
370
     0
  0
ARC
  5
86F
330
1F
100
AcDbEntity
  8
0
 62
   253
370
    35
100
AcDbCircle
 10
50.16160588501126
 20
20.91850688311678
 30
0.0
 40
22.428446
100
AcDbArc
 50
297.0416379999996
 51
298.3507190000014
  0
LINE
  5
870
330
1F
100
AcDbEntity
  8
0
 62
   253
 48
0.005419
370
    35
100
AcDbLine
 10
60.8121188850113
 20
1.180194883116826
 30
0.0
 11
61.00364688501147
 21
1.281726883116846
 31
0.0
  0
LINE
  5
871
330
1F
100
AcDbEntity
  8
0
 62
   253
 48
0.005419
370
    35
100
AcDbLine
 10
-46.68717911498865
 20
1.180194883116826
 30
0.0
 11
-46.87867711498878
 21
1.281726883116846
 31
0.0
  0
ARC
  5
872
330
1F
100
AcDbEntity
  8
0
 62
   253
370
    35
100
AcDbCircle
 10
-36.03663611498868
 20
20.91850688311678
 30
0.0
 40
22.428442
100
AcDbArc
 50
241.649281999998
 51
242.9583560000008
  0
POLYLINE
  5
873
330
1F
100
AcDbEntity
  8
0
 62
   253
370
    35
100
AcDb2dPolyline
 66
     1
 10
0.0
 20
0.0
 30
0.0
  0
VERTEX
  5
874
330
873
100
AcDbEntity
  8
0
 62
   253
370
     0
100
AcDbVertex
100
AcDb2dVertex
 10
-46.87867711498878
 20
1.281726883116846
 30
0.0
  0
VERTEX
  5
875
330
873
100
AcDbEntity
  8
0
 62
   253
370
     0
100
AcDbVertex
100
AcDb2dVertex
 10
-47.12956211498865
 20
1.440783883116804
 30
0.0
  0
VERTEX
  5
876
330
873
100
AcDbEntity
  8
0
 62
   253
370
     0
100
AcDbVertex
100
AcDb2dVertex
 10
-47.35285911498877
 20
1.634997883116793
 30
0.0
  0
VERTEX
  5
877
330
873
100
AcDbEntity
  8
0
 62
   253
370
     0
100
AcDbVertex
100
AcDb2dVertex
 10
-47.54365511498868
 20
1.859271883116831
 30
0.0
  0
VERTEX
  5
878
330
873
100
AcDbEntity
  8
0
 62
   253
370
     0
100
AcDbVertex
100
AcDb2dVertex
 10
-47.73024011498878
 20
2.170367883116853
 30
0.0
  0
VERTEX
  5
879
330
873
100
AcDbEntity
  8
0
 62
   253
370
     0
100
AcDbVertex
100
AcDb2dVertex
 10
-47.85878011498866
 20
2.50828888311679
 30
0.0
  0
VERTEX
  5
87A
330
873
100
AcDbEntity
  8
0
 62
   253
370
     0
100
AcDbVertex
100
AcDb2dVertex
 10
-47.92665111498869
 20
2.861255883116825
 30
0.0
  0
VERTEX
  5
87B
330
873
100
AcDbEntity
  8
0
 62
   253
370
     0
100
AcDbVertex
100
AcDb2dVertex
 10
-47.93751511498864
 20
3.071277883116806
 30
0.0
  0
SEQEND
  5
87C
330
873
100
AcDbEntity
  8
0
 62
   253
370
     0
  0
LINE
  5
87D
330
1F
100
AcDbEntity
  8
0
 62
   253
 48
0.4608090000000001
370
    35
100
AcDbLine
 10
-278.5375211149887
 20
-11.42725811688314
 30
0.0
 11
-278.5375211149887
 21
7.005084883116808
 31
0.0
  0
LINE
  5
87E
330
1F
100
AcDbEntity
  8
0
 62
   253
 48
0.4608090000000001
370
    35
100
AcDbLine
 10
112.6624908850112
 20
-11.42725811688314
 30
0.0
 11
112.6624908850112
 21
7.005084883116808
 31
0.0
  0
LINE
  5
87F
330
1F
100
AcDbEntity
  8
0
 62
   253
 48
0.145502
370
    35
100
AcDbLine
 10
-207.9375151149888
 20
-1.998058116883214
 30
0.0
 11
-207.9375151149888
 21
3.822009883116777
 31
0.0
  0
LINE
  5
880
330
1F
100
AcDbEntity
  8
0
 62
   253
 48
0.074543
370
    35
100
AcDbLine
 10
-207.9375151149888
 20
3.822009883116777
 30
0.0
 11
-207.9375151149888
 21
6.803729883116772
 31
0.0
  0
LINE
  5
881
330
1F
100
AcDbEntity
  8
0
 62
   253
 48
0.145502
370
    35
100
AcDbLine
 10
-137.9375151149888
 20
-1.998058116883214
 30
0.0
 11
-137.9375151149888
 21
3.822009883116777
 31
0.0
  0
LINE
  5
882
330
1F
100
AcDbEntity
  8
0
 62
   253
 48
0.074543
370
    35
100
AcDbLine
 10
-137.9375151149888
 20
3.822009883116777
 30
0.0
 11
-137.9375151149888
 21
6.803729883116772
 31
0.0
  0
LINE
  5
883
330
1F
100
AcDbEntity
  8
0
 62
   253
 48
0.123043
370
    35
100
AcDbLine
 10
-118.9963531149886
 20
2.045611883116805
 30
0.0
 11
-118.9963531149886
 21
6.967334883116847
 31
0.0
  0
LINE
  5
884
330
1F
100
AcDbEntity
  8
0
 62
   253
 48
0.074543
370
    35
100
AcDbLine
 10
42.06248488501134
 20
3.822009883116777
 30
0.0
 11
42.06248488501134
 21
6.803729883116772
 31
0.0
  0
LINE
  5
885
330
1F
100
AcDbEntity
  8
0
 62
   253
 48
0.145502
370
    35
100
AcDbLine
 10
42.06248488501134
 20
-1.998058116883214
 30
0.0
 11
42.06248488501134
 21
3.822009883116777
 31
0.0
  0
LINE
  5
886
330
1F
100
AcDbEntity
  8
0
 62
   253
 48
0.145502
370
    35
100
AcDbLine
 10
-27.93751511498877
 20
-1.998058116883214
 30
0.0
 11
-27.93751511498877
 21
3.822009883116777
 31
0.0
  0
LINE
  5
887
330
1F
100
AcDbEntity
  8
0
 62
   253
 48
0.074543
370
    35
100
AcDbLine
 10
-27.93751511498877
 20
3.822009883116777
 30
0.0
 11
-27.93751511498877
 21
6.803729883116772
 31
0.0
  0
LINE
  5
888
330
1F
100
AcDbEntity
  8
0
 62
   253
 48
0.067465
370
    35
100
AcDbLine
 10
-275.3415831149887
 20
7.503253883116656
 30
0.0
 11
-278.0401761149887
 21
7.503253883116656
 31
0.0
  0
LINE
  5
889
330
1F
100
AcDbEntity
  8
0
 62
   253
 48
0.013488
370
    35
100
AcDbLine
 10
-275.3415831149887
 20
7.503253883116656
 30
0.0
 11
-274.8020471149887
 21
7.503253883116656
 31
0.0
  0
LINE
  5
88A
330
1F
100
AcDbEntity
  8
0
 62
   253
 48
0.024672
370
    35
100
AcDbLine
 10
-273.8151851149886
 20
7.503253883116656
 30
0.0
 11
-274.8020471149887
 21
7.503253883116656
 31
0.0
  0
LINE
  5
88B
330
1F
100
AcDbEntity
  8
0
 62
   253
370
    35
100
AcDbLine
 10
-273.8151851149886
 20
7.503253883116656
 30
0.0
 11
-228.4375151149887
 21
7.503253883116656
 31
0.0
  0
LINE
  5
88C
330
1F
100
AcDbEntity
  8
0
 62
   253
 48
0.093501
370
    35
100
AcDbLine
 10
-227.9375151149887
 20
3.071277883116806
 30
0.0
 11
-227.9375151149887
 21
6.811328883116797
 31
0.0
  0
LINE
  5
88D
330
1F
100
AcDbEntity
  8
0
 62
   253
 48
0.004787
370
    35
100
AcDbLine
 10
-227.9375151149887
 20
6.811328883116797
 30
0.0
 11
-227.9375151149887
 21
7.002795883116787
 31
0.0
  0
LINE
  5
88E
330
1F
100
AcDbEntity
  8
0
 62
   253
 48
0.004787
370
    35
100
AcDbLine
 10
-117.9375151149887
 20
6.811328883116797
 30
0.0
 11
-117.9375151149887
 21
7.002795883116787
 31
0.0
  0
LINE
  5
88F
330
1F
100
AcDbEntity
  8
0
 62
   253
 48
0.093501
370
    35
100
AcDbLine
 10
-117.9375151149887
 20
3.071277883116806
 30
0.0
 11
-117.9375151149887
 21
6.811328883116797
 31
0.0
  0
LINE
  5
890
330
1F
100
AcDbEntity
  8
0
 62
   253
370
    35
100
AcDbLine
 10
62.56248488501134
 20
7.503253883116656
 30
0.0
 11
107.9401708850112
 21
7.503253883116656
 31
0.0
  0
LINE
  5
891
330
1F
100
AcDbEntity
  8
0
 62
   253
 48
0.024671
370
    35
100
AcDbLine
 10
108.9270168850113
 20
7.503253883116656
 30
0.0
 11
107.9401708850112
 21
7.503253883116656
 31
0.0
  0
LINE
  5
892
330
1F
100
AcDbEntity
  8
0
 62
   253
 48
0.013488
370
    35
100
AcDbLine
 10
108.9270168850113
 20
7.503253883116656
 30
0.0
 11
109.4665378850112
 21
7.503253883116656
 31
0.0
  0
LINE
  5
893
330
1F
100
AcDbEntity
  8
0
 62
   253
 48
0.067465
370
    35
100
AcDbLine
 10
112.1651458850112
 20
7.503253883116656
 30
0.0
 11
109.4665378850112
 21
7.503253883116656
 31
0.0
  0
LINE
  5
894
330
1F
100
AcDbEntity
  8
0
 62
   253
 48
0.004787
370
    35
100
AcDbLine
 10
62.06248488501135
 20
6.811328883116797
 30
0.0
 11
62.06248488501135
 21
7.002795883116787
 31
0.0
  0
LINE
  5
895
330
1F
100
AcDbEntity
  8
0
 62
   253
 48
0.093501
370
    35
100
AcDbLine
 10
62.06248488501135
 20
3.071277883116806
 30
0.0
 11
62.06248488501135
 21
6.811328883116797
 31
0.0
  0
LINE
  5
896
330
1F
100
AcDbEntity
  8
0
 62
   253
 48
0.093501
370
    35
100
AcDbLine
 10
-47.93751511498864
 20
3.071277883116806
 30
0.0
 11
-47.93751511498864
 21
6.811328883116797
 31
0.0
  0
LINE
  5
897
330
1F
100
AcDbEntity
  8
0
 62
   253
 48
0.004787
370
    35
100
AcDbLine
 10
-47.93751511498864
 20
6.811328883116797
 30
0.0
 11
-47.93751511498864
 21
7.002795883116787
 31
0.0
  0
LINE
  5
898
330
1F
100
AcDbEntity
  8
0
 62
   253
370
    35
100
AcDbLine
 10
-117.4375151149888
 20
7.503253883116656
 30
0.0
 11
-48.43751511498878
 21
7.503253883116656
 31
0.0
  0
ELLIPSE
  5
899
330
1F
100
AcDbEntity
  8
0
 62
   253
370
    35
100
AcDbEllipse
 10
-118.7610321149888
 20
6.926776883116815
 30
0.0
 11
0.004669189453125
 21
-0.4999771118164066
 31
0.0
210
0.0
220
0.0
230
1.0
 40
0.471538
 41
3.121800589604073
 42
4.626759891104287
  0
LINE
  5
89A
330
1F
100
AcDbEntity
  8
0
 62
   253
 48
0.011659
370
    35
100
AcDbLine
 10
-137.9375151149888
 20
6.803729883116772
 30
0.0
 11
-137.9375151149888
 21
7.270099883116867
 31
0.0
  0
LINE
  5
89B
330
1F
100
AcDbEntity
  8
0
 62
   253
 48
0.011659
370
    35
100
AcDbLine
 10
-207.9375151149888
 20
6.803729883116772
 30
0.0
 11
-207.9375151149888
 21
7.270099883116867
 31
0.0
  0
LINE
  5
89C
330
1F
100
AcDbEntity
  8
0
 62
   253
 48
0.011659
370
    35
100
AcDbLine
 10
42.06248488501134
 20
6.803729883116772
 30
0.0
 11
42.06248488501134
 21
7.270099883116867
 31
0.0
  0
LINE
  5
89D
330
1F
100
AcDbEntity
  8
0
 62
   253
 48
0.011659
370
    35
100
AcDbLine
 10
-27.93751511498877
 20
6.803729883116772
 30
0.0
 11
-27.93751511498877
 21
7.270099883116867
 31
0.0
  0
ARC
  5
89E
330
1F
100
AcDbEntity
  8
0
 62
   253
370
    35
100
AcDbCircle
 10
62.56272888501126
 20
7.003070883116777
 30
0.0
 40
0.5002290000000002
100
AcDbArc
 50
90.03028800000087
 51
180.0301839999967
  0
ARC
  5
89F
330
1F
100
AcDbEntity
  8
0
 62
   253
370
    35
100
AcDbCircle
 10
112.1656948850112
 20
7.006610883116819
 30
0.0
 40
0.4966640000000001
100
AcDbArc
 50
359.8268249999978
 51
90.06193899999933
  0
ARC
  5
8A0
330
1F
100
AcDbEntity
  8
0
 62
   253
370
    35
100
AcDbCircle
 10
-48.4377901149887
 20
7.003070883116777
 30
0.0
 40
0.5002290000000002
100
AcDbArc
 50
359.9698299999988
 51
89.96970399999979
  0
ARC
  5
8A1
330
1F
100
AcDbEntity
  8
0
 62
   253
370
    35
100
AcDbCircle
 10
-117.4372401149886
 20
7.003070883116777
 30
0.0
 40
0.5002290000000002
100
AcDbArc
 50
90.03028800000087
 51
180.0301839999967
  0
ARC
  5
8A2
330
1F
100
AcDbEntity
  8
0
 62
   253
370
    35
100
AcDbCircle
 10
-228.4377741149887
 20
7.003070883116777
 30
0.0
 40
0.5002290000000002
100
AcDbArc
 50
359.9698299999988
 51
89.96970399999979
  0
ARC
  5
8A3
330
1F
100
AcDbEntity
  8
0
 62
   253
370
    35
100
AcDbCircle
 10
-278.0407101149888
 20
7.006610883116819
 30
0.0
 40
0.4966640000000001
100
AcDbArc
 50
89.93806600000082
 51
180.1731809999989
  0
LINE
  5
8A4
330
1F
100
AcDbEntity
  8
0
 62
   253
 48
0.016769
370
    35
100
AcDbLine
 10
42.06248488501134
 20
-2.016033116883193
 30
0.0
 11
42.06248488501134
 21
-2.686810116883235
 31
0.0
  0
LINE
  5
8A5
330
1F
100
AcDbEntity
  8
0
 62
   253
 48
0.067903
370
    35
100
AcDbLine
 10
42.06248488501134
 20
-5.402996116883342
 30
0.0
 11
42.06248488501134
 21
-2.686871116883195
 31
0.0
  0
LINE
  5
8A6
330
1F
100
AcDbEntity
  8
0
 62
   253
 48
0.000447
370
    35
100
AcDbLine
 10
42.06248488501134
 20
-1.998150116883208
 30
0.0
 11
42.06248488501134
 21
-2.016033116883193
 31
0.0
  0
ARC
  5
8A7
330
1F
100
AcDbEntity
  8
0
 62
   253
370
    35
100
AcDbCircle
 10
61.22242788501134
 20
0.3603098831168268
 30
0.0
 40
0.9169159999999999
100
AcDbArc
 50
102.8629490000001
 51
116.5844170000008
  0
ARC
  5
8A8
330
1F
100
AcDbEntity
  8
0
 62
   253
370
    35
100
AcDbCircle
 10
61.31266788501122
 20
0.0306278831167788
 30
0.0
 40
1.258637999999999
100
AcDbArc
 50
97.86351099999953
 51
103.5258189999996
  0
LINE
  5
8A9
330
1F
100
AcDbEntity
  8
0
 62
   253
 48
0.007334
370
    35
100
AcDbLine
 10
61.14042688501129
 20
1.277514883116793
 30
0.0
 11
61.43107588501131
 21
1.317279883116782
 31
0.0
  0
LINE
  5
8AA
330
1F
100
AcDbEntity
  8
0
 62
   253
 48
0.000335
370
    35
100
AcDbLine
 10
61.43107588501131
 20
1.317279883116782
 30
0.0
 11
61.44428988501132
 21
1.319446883116768
 31
0.0
  0
LINE
  5
8AB
330
1F
100
AcDbEntity
  8
0
 62
   253
 48
0.002499
370
    35
100
AcDbLine
 10
42.06248488501134
 20
-5.402996116883342
 30
0.0
 11
42.06248488501134
 21
-5.502972116883197
 31
0.0
  0
POLYLINE
  5
8AC
330
1F
100
AcDbEntity
  8
0
 62
   253
370
    35
100
AcDb2dPolyline
 66
     1
 10
0.0
 20
0.0
 30
0.0
  0
VERTEX
  5
8AD
330
8AC
100
AcDbEntity
  8
0
 62
   253
370
     0
100
AcDbVertex
100
AcDb2dVertex
 10
42.06248488501134
 20
-5.502972116883197
 30
0.0
  0
VERTEX
  5
8AE
330
8AC
100
AcDbEntity
  8
0
 62
   253
370
     0
100
AcDbVertex
100
AcDb2dVertex
 10
42.13874788501127
 20
-5.502880116883201
 30
0.0
  0
VERTEX
  5
8AF
330
8AC
100
AcDbEntity
  8
0
 62
   253
370
     0
100
AcDbVertex
100
AcDb2dVertex
 10
43.81980888501131
 20
-5.459301116883181
 30
0.0
  0
VERTEX
  5
8B0
330
8AC
100
AcDbEntity
  8
0
 62
   253
370
     0
100
AcDbVertex
100
AcDb2dVertex
 10
45.48783888501125
 20
-5.337048116883181
 30
0.0
  0
VERTEX
  5
8B1
330
8AC
100
AcDbEntity
  8
0
 62
   253
370
     0
100
AcDbVertex
100
AcDb2dVertex
 10
47.14860588501132
 20
-5.136913116883135
 30
0.0
  0
VERTEX
  5
8B2
330
8AC
100
AcDbEntity
  8
0
 62
   253
370
     0
100
AcDbVertex
100
AcDb2dVertex
 10
48.7964938850113
 20
-4.86024111688317
 30
0.0
  0
VERTEX
  5
8B3
330
8AC
100
AcDbEntity
  8
0
 62
   253
370
     0
100
AcDbVertex
100
AcDb2dVertex
 10
50.42796388501134
 20
-4.508282116883322
 30
0.0
  0
VERTEX
  5
8B4
330
8AC
100
AcDbEntity
  8
0
 62
   253
370
     0
100
AcDbVertex
100
AcDb2dVertex
 10
52.04197688501121
 20
-4.081738116883173
 30
0.0
  0
VERTEX
  5
8B5
330
8AC
100
AcDbEntity
  8
0
 62
   253
370
     0
100
AcDbVertex
100
AcDb2dVertex
 10
53.39756788501123
 20
-3.661419116883223
 30
0.0
  0
VERTEX
  5
8B6
330
8AC
100
AcDbEntity
  8
0
 62
   253
370
     0
100
AcDbVertex
100
AcDb2dVertex
 10
54.74504088501132
 20
-3.185619116883173
 30
0.0
  0
VERTEX
  5
8B7
330
8AC
100
AcDbEntity
  8
0
 62
   253
370
     0
100
AcDbVertex
100
AcDb2dVertex
 10
56.07334888501125
 20
-2.657757116883145
 30
0.0
  0
VERTEX
  5
8B8
330
8AC
100
AcDbEntity
  8
0
 62
   253
370
     0
100
AcDbVertex
100
AcDb2dVertex
 10
57.37837188501125
 20
-2.079906116883134
 30
0.0
  0
VERTEX
  5
8B9
330
8AC
100
AcDbEntity
  8
0
 62
   253
370
     0
100
AcDbVertex
100
AcDb2dVertex
 10
58.65574688501149
 20
-1.454540116883149
 30
0.0
  0
VERTEX
  5
8BA
330
8AC
100
AcDbEntity
  8
0
 62
   253
370
     0
100
AcDbVertex
100
AcDb2dVertex
 10
59.90409888501122
 20
-0.7830621168831727
 30
0.0
  0
VERTEX
  5
8BB
330
8AC
100
AcDbEntity
  8
0
 62
   253
370
     0
100
AcDbVertex
100
AcDb2dVertex
 10
61.22642488501131
 20
-0.0017201168831775
 30
0.0
  0
SEQEND
  5
8BC
330
8AC
100
AcDbEntity
  8
0
 62
   253
370
     0
  0
POLYLINE
  5
8BD
330
1F
100
AcDbEntity
  8
0
 62
   253
370
    35
100
AcDb2dPolyline
 66
     1
 10
0.0
 20
0.0
 30
0.0
  0
VERTEX
  5
8BE
330
8BD
100
AcDbEntity
  8
0
 62
   253
370
     0
100
AcDbVertex
100
AcDb2dVertex
 10
61.22642488501131
 20
-0.0017201168831775
 30
0.0
  0
VERTEX
  5
8BF
330
8BD
100
AcDbEntity
  8
0
 62
   253
370
     0
100
AcDbVertex
100
AcDb2dVertex
 10
61.44551088501125
 20
0.1732368831167719
 30
0.0
  0
VERTEX
  5
8C0
330
8BD
100
AcDbEntity
  8
0
 62
   253
370
     0
100
AcDbVertex
100
AcDb2dVertex
 10
61.5815278850113
 20
0.3278388831168399
 30
0.0
  0
VERTEX
  5
8C1
330
8BD
100
AcDbEntity
  8
0
 62
   253
370
     0
100
AcDbVertex
100
AcDb2dVertex
 10
61.76359588501147
 20
0.6109808831168381
 30
0.0
  0
VERTEX
  5
8C2
330
8BD
100
AcDbEntity
  8
0
 62
   253
370
     0
100
AcDbVertex
100
AcDb2dVertex
 10
61.8092808850113
 20
0.7070198831168569
 30
0.0
  0
VERTEX
  5
8C3
330
8BD
100
AcDbEntity
  8
0
 62
   253
370
     0
100
AcDbVertex
100
AcDb2dVertex
 10
61.87144488501124
 20
0.8960758831167936
 30
0.0
  0
VERTEX
  5
8C4
330
8BD
100
AcDbEntity
  8
0
 62
   253
370
     0
100
AcDbVertex
100
AcDb2dVertex
 10
61.88502488501146
 20
1.031207883116791
 30
0.0
  0
VERTEX
  5
8C5
330
8BD
100
AcDbEntity
  8
0
 62
   253
370
     0
100
AcDbVertex
100
AcDb2dVertex
 10
61.87184188501149
 20
1.118091883116846
 30
0.0
  0
VERTEX
  5
8C6
330
8BD
100
AcDbEntity
  8
0
 62
   253
370
     0
100
AcDbVertex
100
AcDb2dVertex
 10
61.77177488501126
 20
1.256457883116637
 30
0.0
  0
VERTEX
  5
8C7
330
8BD
100
AcDbEntity
  8
0
 62
   253
370
     0
100
AcDbVertex
100
AcDb2dVertex
 10
61.69194088501118
 20
1.294970883116832
 30
0.0
  0
VERTEX
  5
8C8
330
8BD
100
AcDbEntity
  8
0
 62
   253
370
     0
100
AcDbVertex
100
AcDb2dVertex
 10
61.59721388501125
 20
1.315295883116788
 30
0.0
  0
VERTEX
  5
8C9
330
8BD
100
AcDbEntity
  8
0
 62
   253
370
     0
100
AcDbVertex
100
AcDb2dVertex
 10
61.51118488501126
 20
1.31984288311679
 30
0.0
  0
SEQEND
  5
8CA
330
8BD
100
AcDbEntity
  8
0
 62
   253
370
     0
  0
LINE
  5
8CB
330
1F
100
AcDbEntity
  8
0
 62
   253
 48
0.001672
370
    35
100
AcDbLine
 10
61.51118488501126
 20
1.31984288311679
 30
0.0
 11
61.44428988501132
 21
1.319446883116768
 31
0.0
  0
LINE
  5
8CC
330
1F
100
AcDbEntity
  8
0
 62
   253
 48
0.067903
370
    35
100
AcDbLine
 10
-27.93751511498877
 20
-5.402996116883342
 30
0.0
 11
-27.93751511498877
 21
-2.686871116883195
 31
0.0
  0
LINE
  5
8CD
330
1F
100
AcDbEntity
  8
0
 62
   253
 48
0.016771
370
    35
100
AcDbLine
 10
-27.93751511498877
 20
-2.016033116883193
 30
0.0
 11
-27.93751511498877
 21
-2.686871116883195
 31
0.0
  0
LINE
  5
8CE
330
1F
100
AcDbEntity
  8
0
 62
   253
 48
0.000447
370
    35
100
AcDbLine
 10
-27.93751511498877
 20
-1.998150116883208
 30
0.0
 11
-27.93751511498877
 21
-2.016033116883193
 31
0.0
  0
ARC
  5
8CF
330
1F
100
AcDbEntity
  8
0
 62
   253
370
    35
100
AcDbCircle
 10
-47.09745811498865
 20
0.3603098831168268
 30
0.0
 40
0.9169159999999999
100
AcDbArc
 50
63.41558099999847
 51
77.13704900000056
  0
LINE
  5
8D0
330
1F
100
AcDbEntity
  8
0
 62
   253
 48
0.000335
370
    35
100
AcDbLine
 10
-47.30610611498886
 20
1.317279883116782
 30
0.0
 11
-47.31932011498881
 21
1.319446883116768
 31
0.0
  0
LINE
  5
8D1
330
1F
100
AcDbEntity
  8
0
 62
   253
 48
0.007334
370
    35
100
AcDbLine
 10
-47.01545711498877
 20
1.277514883116793
 30
0.0
 11
-47.30610611498886
 21
1.317279883116782
 31
0.0
  0
ARC
  5
8D2
330
1F
100
AcDbEntity
  8
0
 62
   253
370
    35
100
AcDbCircle
 10
-47.18769811498868
 20
0.0304448831166724
 30
0.0
 40
1.258839999999997
100
AcDbArc
 50
76.47481399999917
 51
82.13620799999983
  0
LINE
  5
8D3
330
1F
100
AcDbEntity
  8
0
 62
   253
 48
0.001672
370
    35
100
AcDbLine
 10
-47.38621511498869
 20
1.31984288311679
 30
0.0
 11
-47.31932011498881
 21
1.319446883116768
 31
0.0
  0
POLYLINE
  5
8D4
330
1F
100
AcDbEntity
  8
0
 62
   253
370
    35
100
AcDb2dPolyline
 66
     1
 10
0.0
 20
0.0
 30
0.0
  0
VERTEX
  5
8D5
330
8D4
100
AcDbEntity
  8
0
 62
   253
370
     0
100
AcDbVertex
100
AcDb2dVertex
 10
-47.10145511498857
 20
-0.0017201168831775
 30
0.0
  0
VERTEX
  5
8D6
330
8D4
100
AcDbEntity
  8
0
 62
   253
370
     0
100
AcDbVertex
100
AcDb2dVertex
 10
-47.32307411498879
 20
0.1757698831168568
 30
0.0
  0
VERTEX
  5
8D7
330
8D4
100
AcDbEntity
  8
0
 62
   253
370
     0
100
AcDbVertex
100
AcDb2dVertex
 10
-47.45912111498866
 20
0.3311648831168554
 30
0.0
  0
VERTEX
  5
8D8
330
8D4
100
AcDbEntity
  8
0
 62
   253
370
     0
100
AcDbVertex
100
AcDb2dVertex
 10
-47.5856471149888
 20
0.5163758831168366
 30
0.0
  0
VERTEX
  5
8D9
330
8D4
100
AcDbEntity
  8
0
 62
   253
370
     0
100
AcDbVertex
100
AcDb2dVertex
 10
-47.68589811498869
 20
0.7107118831168579
 30
0.0
  0
VERTEX
  5
8DA
330
8D4
100
AcDbEntity
  8
0
 62
   253
370
     0
100
AcDbVertex
100
AcDb2dVertex
 10
-47.74723811498878
 20
0.8996468831168725
 30
0.0
  0
VERTEX
  5
8DB
330
8D4
100
AcDbEntity
  8
0
 62
   253
370
     0
100
AcDbVertex
100
AcDb2dVertex
 10
-47.75993311498868
 20
1.034747883116834
 30
0.0
  0
VERTEX
  5
8DC
330
8D4
100
AcDbEntity
  8
0
 62
   253
370
     0
100
AcDbVertex
100
AcDb2dVertex
 10
-47.74568211498868
 20
1.121997883116759
 30
0.0
  0
VERTEX
  5
8DD
330
8D4
100
AcDbEntity
  8
0
 62
   253
370
     0
100
AcDbVertex
100
AcDb2dVertex
 10
-47.64988711498867
 20
1.254352883116836
 30
0.0
  0
VERTEX
  5
8DE
330
8D4
100
AcDbEntity
  8
0
 62
   253
370
     0
100
AcDbVertex
100
AcDb2dVertex
 10
-47.59666411498878
 20
1.283740883116649
 30
0.0
  0
VERTEX
  5
8DF
330
8D4
100
AcDbEntity
  8
0
 62
   253
370
     0
100
AcDbVertex
100
AcDb2dVertex
 10
-47.51411411498881
 20
1.308764883116793
 30
0.0
  0
VERTEX
  5
8E0
330
8D4
100
AcDbEntity
  8
0
 62
   253
370
     0
100
AcDbVertex
100
AcDb2dVertex
 10
-47.38621511498869
 20
1.31984288311679
 30
0.0
  0
SEQEND
  5
8E1
330
8D4
100
AcDbEntity
  8
0
 62
   253
370
     0
  0
LINE
  5
8E2
330
1F
100
AcDbEntity
  8
0
 62
   253
 48
0.002499
370
    35
100
AcDbLine
 10
-27.93751511498877
 20
-5.402996116883342
 30
0.0
 11
-27.93751511498877
 21
-5.502972116883197
 31
0.0
  0
POLYLINE
  5
8E3
330
1F
100
AcDbEntity
  8
0
 62
   253
370
    35
100
AcDb2dPolyline
 66
     1
 10
0.0
 20
0.0
 30
0.0
  0
VERTEX
  5
8E4
330
8E3
100
AcDbEntity
  8
0
 62
   253
370
     0
100
AcDbVertex
100
AcDb2dVertex
 10
-27.93751511498877
 20
-5.502972116883197
 30
0.0
  0
VERTEX
  5
8E5
330
8E3
100
AcDbEntity
  8
0
 62
   253
370
     0
100
AcDbVertex
100
AcDb2dVertex
 10
-29.34355111498869
 20
-5.475018116883175
 30
0.0
  0
VERTEX
  5
8E6
330
8E3
100
AcDbEntity
  8
0
 62
   253
370
     0
100
AcDbVertex
100
AcDb2dVertex
 10
-30.75114411498876
 20
-5.391003116883155
 30
0.0
  0
VERTEX
  5
8E7
330
8E3
100
AcDbEntity
  8
0
 62
   253
370
     0
100
AcDbVertex
100
AcDb2dVertex
 10
-32.16438311498868
 20
-5.250256116883235
 30
0.0
  0
VERTEX
  5
8E8
330
8E3
100
AcDbEntity
  8
0
 62
   253
370
     0
100
AcDbVertex
100
AcDb2dVertex
 10
-33.57020511498857
 20
-5.053814116883188
 30
0.0
  0
VERTEX
  5
8E9
330
8E3
100
AcDbEntity
  8
0
 62
   253
370
     0
100
AcDbVertex
100
AcDb2dVertex
 10
-34.96559111498877
 20
-4.802563116883161
 30
0.0
  0
VERTEX
  5
8EA
330
8E3
100
AcDbEntity
  8
0
 62
   253
370
     0
100
AcDbVertex
100
AcDb2dVertex
 10
-36.34889211498873
 20
-4.497234116883134
 30
0.0
  0
VERTEX
  5
8EB
330
8E3
100
AcDbEntity
  8
0
 62
   253
370
     0
100
AcDbVertex
100
AcDb2dVertex
 10
-37.71650711498867
 20
-4.139050116883196
 30
0.0
  0
VERTEX
  5
8EC
330
8E3
100
AcDbEntity
  8
0
 62
   253
370
     0
100
AcDbVertex
100
AcDb2dVertex
 10
-39.07240311498876
 20
-3.727123116883205
 30
0.0
  0
VERTEX
  5
8ED
330
8E3
100
AcDbEntity
  8
0
 62
   253
370
     0
100
AcDbVertex
100
AcDb2dVertex
 10
-40.42228711498871
 20
-3.259167116883361
 30
0.0
  0
VERTEX
  5
8EE
330
8E3
100
AcDbEntity
  8
0
 62
   253
370
     0
100
AcDbVertex
100
AcDb2dVertex
 10
-41.75373811498874
 20
-2.738873116883326
 30
0.0
  0
VERTEX
  5
8EF
330
8E3
100
AcDbEntity
  8
0
 62
   253
370
     0
100
AcDbVertex
100
AcDb2dVertex
 10
-43.06446811498867
 20
-2.167278116883208
 30
0.0
  0
VERTEX
  5
8F0
330
8E3
100
AcDbEntity
  8
0
 62
   253
370
     0
100
AcDbVertex
100
AcDb2dVertex
 10
-44.34901411498874
 20
-1.547253116883155
 30
0.0
  0
VERTEX
  5
8F1
330
8E3
100
AcDbEntity
  8
0
 62
   253
370
     0
100
AcDbVertex
100
AcDb2dVertex
 10
-45.59907511498866
 20
-0.8837391168831914
 30
0.0
  0
VERTEX
  5
8F2
330
8E3
100
AcDbEntity
  8
0
 62
   253
370
     0
100
AcDbVertex
100
AcDb2dVertex
 10
-46.8174281149887
 20
-0.1759761168831915
 30
0.0
  0
VERTEX
  5
8F3
330
8E3
100
AcDbEntity
  8
0
 62
   253
370
     0
100
AcDbVertex
100
AcDb2dVertex
 10
-47.10145511498857
 20
-0.0017201168831775
 30
0.0
  0
SEQEND
  5
8F4
330
8E3
100
AcDbEntity
  8
0
 62
   253
370
     0
  0
LINE
  5
8F5
330
1F
100
AcDbEntity
  8
0
 62
   253
 48
0.016771
370
    35
100
AcDbLine
 10
-137.9375151149888
 20
-2.016033116883193
 30
0.0
 11
-137.9375151149888
 21
-2.686871116883195
 31
0.0
  0
LINE
  5
8F6
330
1F
100
AcDbEntity
  8
0
 62
   253
 48
0.067903
370
    35
100
AcDbLine
 10
-137.9375151149888
 20
-5.402996116883342
 30
0.0
 11
-137.9375151149888
 21
-2.686871116883195
 31
0.0
  0
LINE
  5
8F7
330
1F
100
AcDbEntity
  8
0
 62
   253
 48
0.000447
370
    35
100
AcDbLine
 10
-137.9375151149888
 20
-1.998150116883208
 30
0.0
 11
-137.9375151149888
 21
-2.016033116883193
 31
0.0
  0
ARC
  5
8F8
330
1F
100
AcDbEntity
  8
0
 62
   253
370
    35
100
AcDbCircle
 10
-118.7774201149888
 20
0.3601258831168366
 30
0.0
 40
0.9171229999999999
100
AcDbArc
 50
102.869452
 51
116.587831999998
  0
ARC
  5
8F9
330
1F
100
AcDbEntity
  8
0
 62
   253
370
    35
100
AcDbCircle
 10
-118.6872401149888
 20
0.0305978831166272
 30
0.0
 40
1.258703
100
AcDbArc
 50
97.86840799999957
 51
103.5304229999988
  0
LINE
  5
8FA
330
1F
100
AcDbEntity
  8
0
 62
   253
 48
0.007334
370
    35
100
AcDbLine
 10
-118.8595731149888
 20
1.277514883116793
 30
0.0
 11
-118.5689241149886
 21
1.317279883116782
 31
0.0
  0
LINE
  5
8FB
330
1F
100
AcDbEntity
  8
0
 62
   253
 48
0.000335
370
    35
100
AcDbLine
 10
-118.5689241149886
 20
1.317279883116782
 30
0.0
 11
-118.5557101149887
 21
1.319446883116768
 31
0.0
  0
LINE
  5
8FC
330
1F
100
AcDbEntity
  8
0
 62
   253
 48
0.002499
370
    35
100
AcDbLine
 10
-137.9375151149888
 20
-5.402996116883342
 30
0.0
 11
-137.9375151149888
 21
-5.502972116883197
 31
0.0
  0
POLYLINE
  5
8FD
330
1F
100
AcDbEntity
  8
0
 62
   253
370
    35
100
AcDb2dPolyline
 66
     1
 10
0.0
 20
0.0
 30
0.0
  0
VERTEX
  5
8FE
330
8FD
100
AcDbEntity
  8
0
 62
   253
370
     0
100
AcDbVertex
100
AcDb2dVertex
 10
-137.9375151149888
 20
-5.502972116883197
 30
0.0
  0
VERTEX
  5
8FF
330
8FD
100
AcDbEntity
  8
0
 62
   253
370
     0
100
AcDbVertex
100
AcDb2dVertex
 10
-137.8612521149888
 20
-5.502880116883201
 30
0.0
  0
VERTEX
  5
900
330
8FD
100
AcDbEntity
  8
0
 62
   253
370
     0
100
AcDbVertex
100
AcDb2dVertex
 10
-136.1801911149886
 20
-5.459301116883181
 30
0.0
  0
VERTEX
  5
901
330
8FD
100
AcDbEntity
  8
0
 62
   253
370
     0
100
AcDbVertex
100
AcDb2dVertex
 10
-134.5121611149888
 20
-5.337048116883181
 30
0.0
  0
VERTEX
  5
902
330
8FD
100
AcDbEntity
  8
0
 62
   253
370
     0
100
AcDbVertex
100
AcDb2dVertex
 10
-132.8513941149886
 20
-5.136913116883135
 30
0.0
  0
VERTEX
  5
903
330
8FD
100
AcDbEntity
  8
0
 62
   253
370
     0
100
AcDbVertex
100
AcDb2dVertex
 10
-131.2035211149888
 20
-4.86024111688317
 30
0.0
  0
VERTEX
  5
904
330
8FD
100
AcDbEntity
  8
0
 62
   253
370
     0
100
AcDbVertex
100
AcDb2dVertex
 10
-129.5720521149888
 20
-4.508282116883322
 30
0.0
  0
VERTEX
  5
905
330
8FD
100
AcDbEntity
  8
0
 62
   253
370
     0
100
AcDbVertex
100
AcDb2dVertex
 10
-127.9580231149888
 20
-4.081738116883173
 30
0.0
  0
VERTEX
  5
906
330
8FD
100
AcDbEntity
  8
0
 62
   253
370
     0
100
AcDbVertex
100
AcDb2dVertex
 10
-126.6024171149888
 20
-3.661419116883223
 30
0.0
  0
VERTEX
  5
907
330
8FD
100
AcDbEntity
  8
0
 62
   253
370
     0
100
AcDbVertex
100
AcDb2dVertex
 10
-125.2549741149886
 20
-3.185619116883173
 30
0.0
  0
VERTEX
  5
908
330
8FD
100
AcDbEntity
  8
0
 62
   253
370
     0
100
AcDbVertex
100
AcDb2dVertex
 10
-123.9266201149888
 20
-2.657757116883145
 30
0.0
  0
VERTEX
  5
909
330
8FD
100
AcDbEntity
  8
0
 62
   253
370
     0
100
AcDbVertex
100
AcDb2dVertex
 10
-122.6216281149888
 20
-2.079906116883134
 30
0.0
  0
VERTEX
  5
90A
330
8FD
100
AcDbEntity
  8
0
 62
   253
370
     0
100
AcDbVertex
100
AcDb2dVertex
 10
-121.3442531149885
 20
-1.454540116883149
 30
0.0
  0
VERTEX
  5
90B
330
8FD
100
AcDbEntity
  8
0
 62
   253
370
     0
100
AcDbVertex
100
AcDb2dVertex
 10
-120.0959011149888
 20
-0.7830621168831727
 30
0.0
  0
VERTEX
  5
90C
330
8FD
100
AcDbEntity
  8
0
 62
   253
370
     0
100
AcDbVertex
100
AcDb2dVertex
 10
-118.7735751149888
 20
-0.0017201168831775
 30
0.0
  0
SEQEND
  5
90D
330
8FD
100
AcDbEntity
  8
0
 62
   253
370
     0
  0
POLYLINE
  5
90E
330
1F
100
AcDbEntity
  8
0
 62
   253
370
    35
100
AcDb2dPolyline
 66
     1
 10
0.0
 20
0.0
 30
0.0
  0
VERTEX
  5
90F
330
90E
100
AcDbEntity
  8
0
 62
   253
370
     0
100
AcDbVertex
100
AcDb2dVertex
 10
-118.7735751149888
 20
-0.0017201168831775
 30
0.0
  0
VERTEX
  5
910
330
90E
100
AcDbEntity
  8
0
 62
   253
370
     0
100
AcDbVertex
100
AcDb2dVertex
 10
-118.5519561149886
 20
0.1757698831168568
 30
0.0
  0
VERTEX
  5
911
330
90E
100
AcDbEntity
  8
0
 62
   253
370
     0
100
AcDbVertex
100
AcDb2dVertex
 10
-118.4159091149886
 20
0.3311648831168554
 30
0.0
  0
VERTEX
  5
912
330
90E
100
AcDbEntity
  8
0
 62
   253
370
     0
100
AcDbVertex
100
AcDb2dVertex
 10
-118.2893831149887
 20
0.5163758831168366
 30
0.0
  0
VERTEX
  5
913
330
90E
100
AcDbEntity
  8
0
 62
   253
370
     0
100
AcDbVertex
100
AcDb2dVertex
 10
-118.1891321149888
 20
0.7107118831168579
 30
0.0
  0
VERTEX
  5
914
330
90E
100
AcDbEntity
  8
0
 62
   253
370
     0
100
AcDbVertex
100
AcDb2dVertex
 10
-118.1277921149886
 20
0.8996468831168725
 30
0.0
  0
VERTEX
  5
915
330
90E
100
AcDbEntity
  8
0
 62
   253
370
     0
100
AcDbVertex
100
AcDb2dVertex
 10
-118.1150971149888
 20
1.034747883116834
 30
0.0
  0
VERTEX
  5
916
330
90E
100
AcDbEntity
  8
0
 62
   253
370
     0
100
AcDbVertex
100
AcDb2dVertex
 10
-118.1293481149888
 20
1.121997883116759
 30
0.0
  0
VERTEX
  5
917
330
90E
100
AcDbEntity
  8
0
 62
   253
370
     0
100
AcDbVertex
100
AcDb2dVertex
 10
-118.2251431149888
 20
1.254352883116836
 30
0.0
  0
VERTEX
  5
918
330
90E
100
AcDbEntity
  8
0
 62
   253
370
     0
100
AcDbVertex
100
AcDb2dVertex
 10
-118.2783661149886
 20
1.283740883116649
 30
0.0
  0
VERTEX
  5
919
330
90E
100
AcDbEntity
  8
0
 62
   253
370
     0
100
AcDbVertex
100
AcDb2dVertex
 10
-118.3609161149888
 20
1.308764883116793
 30
0.0
  0
VERTEX
  5
91A
330
90E
100
AcDbEntity
  8
0
 62
   253
370
     0
100
AcDbVertex
100
AcDb2dVertex
 10
-118.4888151149888
 20
1.31984288311679
 30
0.0
  0
SEQEND
  5
91B
330
90E
100
AcDbEntity
  8
0
 62
   253
370
     0
  0
LINE
  5
91C
330
1F
100
AcDbEntity
  8
0
 62
   253
 48
0.001672
370
    35
100
AcDbLine
 10
-118.4888151149888
 20
1.31984288311679
 30
0.0
 11
-118.5557101149887
 21
1.319446883116768
 31
0.0
  0
LINE
  5
91D
330
1F
100
AcDbEntity
  8
0
 62
   253
 48
0.067903
370
    35
100
AcDbLine
 10
-207.9375151149888
 20
-5.402996116883342
 30
0.0
 11
-207.9375151149888
 21
-2.686871116883195
 31
0.0
  0
LINE
  5
91E
330
1F
100
AcDbEntity
  8
0
 62
   253
 48
0.016769
370
    35
100
AcDbLine
 10
-207.9375151149888
 20
-2.016033116883193
 30
0.0
 11
-207.9375151149888
 21
-2.686810116883235
 31
0.0
  0
LINE
  5
91F
330
1F
100
AcDbEntity
  8
0
 62
   253
 48
0.000447
370
    35
100
AcDbLine
 10
-207.9375151149888
 20
-1.998150116883208
 30
0.0
 11
-207.9375151149888
 21
-2.016033116883193
 31
0.0
  0
ARC
  5
920
330
1F
100
AcDbEntity
  8
0
 62
   253
370
    35
100
AcDbCircle
 10
-227.0974731149888
 20
0.3602788831167913
 30
0.0
 40
0.916947
100
AcDbArc
 50
63.41582699999793
 51
77.13683700000176
  0
LINE
  5
921
330
1F
100
AcDbEntity
  8
0
 62
   253
 48
0.000334
370
    35
100
AcDbLine
 10
-227.3193201149886
 20
1.319446883116768
 30
0.0
 11
-227.3061221149887
 21
1.317279883116782
 31
0.0
  0
LINE
  5
922
330
1F
100
AcDbEntity
  8
0
 62
   253
 48
0.007334
370
    35
100
AcDbLine
 10
-227.3061221149887
 20
1.317279883116782
 30
0.0
 11
-227.0154721149887
 21
1.277514883116793
 31
0.0
  0
ARC
  5
923
330
1F
100
AcDbEntity
  8
0
 62
   253
370
    35
100
AcDbCircle
 10
-227.1876831149886
 20
0.0306588831168142
 30
0.0
 40
1.258636
100
AcDbArc
 50
76.47417900000144
 51
82.13649499999965
  0
LINE
  5
924
330
1F
100
AcDbEntity
  8
0
 62
   253
 48
0.002499
370
    35
100
AcDbLine
 10
-207.9375151149888
 20
-5.502972116883197
 30
0.0
 11
-207.9375151149888
 21
-5.402996116883342
 31
0.0
  0
POLYLINE
  5
925
330
1F
100
AcDbEntity
  8
0
 62
   253
370
    35
100
AcDb2dPolyline
 66
     1
 10
0.0
 20
0.0
 30
0.0
  0
VERTEX
  5
926
330
925
100
AcDbEntity
  8
0
 62
   253
370
     0
100
AcDbVertex
100
AcDb2dVertex
 10
-227.1014401149887
 20
-0.0017201168831775
 30
0.0
  0
VERTEX
  5
927
330
925
100
AcDbEntity
  8
0
 62
   253
370
     0
100
AcDbVertex
100
AcDb2dVertex
 10
-226.4072421149887
 20
-0.4213071168831564
 30
0.0
  0
VERTEX
  5
928
330
925
100
AcDbEntity
  8
0
 62
   253
370
     0
100
AcDbVertex
100
AcDb2dVertex
 10
-225.2067871149888
 20
-1.098583116883161
 30
0.0
  0
VERTEX
  5
929
330
925
100
AcDbEntity
  8
0
 62
   253
370
     0
100
AcDbVertex
100
AcDb2dVertex
 10
-223.9773101149888
 20
-1.732952116883151
 30
0.0
  0
VERTEX
  5
92A
330
925
100
AcDbEntity
  8
0
 62
   253
370
     0
100
AcDbVertex
100
AcDb2dVertex
 10
-222.7131501149888
 20
-2.326427116883166
 30
0.0
  0
VERTEX
  5
92B
330
925
100
AcDbEntity
  8
0
 62
   253
370
     0
100
AcDbVertex
100
AcDb2dVertex
 10
-221.4246521149888
 20
-2.872997116883141
 30
0.0
  0
VERTEX
  5
92C
330
925
100
AcDbEntity
  8
0
 62
   253
370
     0
100
AcDbVertex
100
AcDb2dVertex
 10
-220.1149141149887
 20
-3.370922116883149
 30
0.0
  0
VERTEX
  5
92D
330
925
100
AcDbEntity
  8
0
 62
   253
370
     0
100
AcDbVertex
100
AcDb2dVertex
 10
-218.7885741149888
 20
-3.818127116883203
 30
0.0
  0
VERTEX
  5
92E
330
925
100
AcDbEntity
  8
0
 62
   253
370
     0
100
AcDbVertex
100
AcDb2dVertex
 10
-217.4535061149887
 20
-4.212322116883171
 30
0.0
  0
VERTEX
  5
92F
330
925
100
AcDbEntity
  8
0
 62
   253
370
     0
100
AcDbVertex
100
AcDb2dVertex
 10
-216.1069791149887
 20
-4.554729116883152
 30
0.0
  0
VERTEX
  5
930
330
925
100
AcDbEntity
  8
0
 62
   253
370
     0
100
AcDbVertex
100
AcDb2dVertex
 10
-214.7578891149888
 20
-4.843548116883141
 30
0.0
  0
VERTEX
  5
931
330
925
100
AcDbEntity
  8
0
 62
   253
370
     0
100
AcDbVertex
100
AcDb2dVertex
 10
-213.3975221149888
 20
-5.081005116883203
 30
0.0
  0
VERTEX
  5
932
330
925
100
AcDbEntity
  8
0
 62
   253
370
     0
100
AcDbVertex
100
AcDb2dVertex
 10
-212.0275881149887
 20
-5.266369116883137
 30
0.0
  0
VERTEX
  5
933
330
925
100
AcDbEntity
  8
0
 62
   253
370
     0
100
AcDbVertex
100
AcDb2dVertex
 10
-211.0066071149887
 20
-5.369762116883348
 30
0.0
  0
VERTEX
  5
934
330
925
100
AcDbEntity
  8
0
 62
   253
370
     0
100
AcDbVertex
100
AcDb2dVertex
 10
-209.9833371149887
 20
-5.443768116883175
 30
0.0
  0
VERTEX
  5
935
330
925
100
AcDbEntity
  8
0
 62
   253
370
     0
100
AcDbVertex
100
AcDb2dVertex
 10
-208.9596101149888
 20
-5.488201116883201
 30
0.0
  0
VERTEX
  5
936
330
925
100
AcDbEntity
  8
0
 62
   253
370
     0
100
AcDbVertex
100
AcDb2dVertex
 10
-207.9375151149888
 20
-5.502972116883197
 30
0.0
  0
SEQEND
  5
937
330
925
100
AcDbEntity
  8
0
 62
   253
370
     0
  0
POLYLINE
  5
938
330
1F
100
AcDbEntity
  8
0
 62
   253
370
    35
100
AcDb2dPolyline
 66
     1
 10
0.0
 20
0.0
 30
0.0
  0
VERTEX
  5
939
330
938
100
AcDbEntity
  8
0
 62
   253
370
     0
100
AcDbVertex
100
AcDb2dVertex
 10
-227.1014401149887
 20
-0.0017201168831775
 30
0.0
  0
VERTEX
  5
93A
330
938
100
AcDbEntity
  8
0
 62
   253
370
     0
100
AcDbVertex
100
AcDb2dVertex
 10
-227.3205411149886
 20
0.1732368831167719
 30
0.0
  0
VERTEX
  5
93B
330
938
100
AcDbEntity
  8
0
 62
   253
370
     0
100
AcDbVertex
100
AcDb2dVertex
 10
-227.4565581149887
 20
0.3278388831168399
 30
0.0
  0
VERTEX
  5
93C
330
938
100
AcDbEntity
  8
0
 62
   253
370
     0
100
AcDbVertex
100
AcDb2dVertex
 10
-227.6386111149887
 20
0.6109808831168381
 30
0.0
  0
VERTEX
  5
93D
330
938
100
AcDbEntity
  8
0
 62
   253
370
     0
100
AcDbVertex
100
AcDb2dVertex
 10
-227.6843111149887
 20
0.7070198831168569
 30
0.0
  0
VERTEX
  5
93E
330
938
100
AcDbEntity
  8
0
 62
   253
370
     0
100
AcDbVertex
100
AcDb2dVertex
 10
-227.7464901149887
 20
0.8960758831167936
 30
0.0
  0
VERTEX
  5
93F
330
938
100
AcDbEntity
  8
0
 62
   253
370
     0
100
AcDbVertex
100
AcDb2dVertex
 10
-227.7600551149887
 20
1.031207883116791
 30
0.0
  0
VERTEX
  5
940
330
938
100
AcDbEntity
  8
0
 62
   253
370
     0
100
AcDbVertex
100
AcDb2dVertex
 10
-227.7468721149887
 20
1.118091883116846
 30
0.0
  0
VERTEX
  5
941
330
938
100
AcDbEntity
  8
0
 62
   253
370
     0
100
AcDbVertex
100
AcDb2dVertex
 10
-227.6468051149887
 20
1.256457883116637
 30
0.0
  0
VERTEX
  5
942
330
938
100
AcDbEntity
  8
0
 62
   253
370
     0
100
AcDbVertex
100
AcDb2dVertex
 10
-227.5669711149887
 20
1.294970883116832
 30
0.0
  0
VERTEX
  5
943
330
938
100
AcDbEntity
  8
0
 62
   253
370
     0
100
AcDbVertex
100
AcDb2dVertex
 10
-227.4722591149887
 20
1.315295883116788
 30
0.0
  0
VERTEX
  5
944
330
938
100
AcDbEntity
  8
0
 62
   253
370
     0
100
AcDbVertex
100
AcDb2dVertex
 10
-227.3862151149887
 20
1.31984288311679
 30
0.0
  0
SEQEND
  5
945
330
938
100
AcDbEntity
  8
0
 62
   253
370
     0
  0
LINE
  5
946
330
1F
100
AcDbEntity
  8
0
 62
   253
 48
0.001672
370
    35
100
AcDbLine
 10
-227.3193201149886
 20
1.319446883116768
 30
0.0
 11
-227.3862151149887
 21
1.31984288311679
 31
0.0
  0
LINE
  5
947
330
1F
100
AcDbEntity
  8
0
 62
   253
 48
0.008305
370
    35
100
AcDbLine
 10
17.75688188501127
 20
-1.998150116883208
 30
0.0
 11
17.42469788501134
 21
-1.997051116883142
 31
0.0
  0
LINE
  5
948
330
1F
100
AcDbEntity
  8
0
 62
   253
 48
0.008305
370
    35
100
AcDbLine
 10
-3.631912114988693
 20
-1.998150116883208
 30
0.0
 11
-3.299728114988653
 21
-1.997051116883142
 31
0.0
  0
LINE
  5
949
330
1F
100
AcDbEntity
  8
0
 62
   253
 48
0.000035
370
    35
100
AcDbLine
 10
-3.299728114988653
 20
-1.997051116883142
 30
0.0
 11
-3.29832411498873
 21
-1.996960116883144
 31
0.0
  0
LINE
  5
94A
330
1F
100
AcDbEntity
  8
0
 62
   253
370
    35
100
AcDbLine
 10
42.06248488501134
 20
-5.502972116883197
 30
0.0
 11
17.23530588501134
 21
-5.502972116883197
 31
0.0
  0
LINE
  5
94B
330
1F
100
AcDbEntity
  8
0
 62
   253
370
    35
100
AcDbLine
 10
-3.110336114988768
 20
-5.502972116883197
 30
0.0
 11
-27.93751511498877
 21
-5.502972116883197
 31
0.0
  0
ELLIPSE
  5
94C
330
1F
100
AcDbEntity
  8
0
 62
   253
370
    35
100
AcDbEllipse
 10
7.062484885011342
 20
-3.175243116883223
 30
0.0
 11
10.25
 21
0.0
 31
0.0
210
0.0
220
0.0
230
1.0
 40
0.9998479999999998
 41
6.037680563740674
 42
6.273490272901432
  0
ELLIPSE
  5
94D
330
1F
100
AcDbEntity
  8
0
 62
   253
370
    35
100
AcDbEllipse
 10
7.062484885011342
 20
-3.175243116883223
 30
0.0
 11
10.25
 21
0.0
 31
0.0
210
0.0
220
0.0
230
1.0
 40
0.9998479999999998
 41
3.151287724727183
 42
3.387097425448893
  0
LINE
  5
94E
330
1F
100
AcDbEntity
  8
0
 62
   253
 48
0.000475
370
    35
100
AcDbLine
 10
-3.101394114988663
 20
-1.822948116883195
 30
0.0
 11
-3.101394114988663
 21
-1.841930116883133
 31
0.0
  0
LINE
  5
94F
330
1F
100
AcDbEntity
  8
0
 62
   253
 48
0.004065
370
    35
100
AcDbLine
 10
-3.101394114988663
 20
-1.841930116883133
 30
0.0
 11
-3.120285114988661
 21
-2.003429116883181
 31
0.0
  0
ELLIPSE
  5
950
330
1F
100
AcDbEntity
  8
0
 62
   253
370
    35
100
AcDbEllipse
 10
7.062484885011342
 20
-3.175243116883223
 30
0.0
 11
10.25
 21
0.0
 31
0.0
210
0.0
220
0.0
230
1.0
 40
0.9998479999999998
 41
0.1145900568991633
 42
3.027002594663778
  0
LINE
  5
951
330
1F
100
AcDbEntity
  8
0
 62
   253
 48
0.004065
370
    35
100
AcDbLine
 10
17.24525488501135
 20
-2.003429116883181
 30
0.0
 11
17.22636388501124
 21
-1.841930116883133
 31
0.0
  0
LINE
  5
952
330
1F
100
AcDbEntity
  8
0
 62
   253
 48
0.000475
370
    35
100
AcDbLine
 10
17.22636388501124
 20
-1.841930116883133
 30
0.0
 11
17.22636388501124
 21
-1.822948116883195
 31
0.0
  0
POLYLINE
  5
953
330
1F
100
AcDbEntity
  8
0
 62
   253
370
    35
100
AcDb2dPolyline
 66
     1
 10
0.0
 20
0.0
 30
0.0
  0
VERTEX
  5
954
330
953
100
AcDbEntity
  8
0
 62
   253
370
     0
100
AcDbVertex
100
AcDb2dVertex
 10
-3.120285114988661
 20
-2.003429116883181
 30
0.0
  0
VERTEX
  5
955
330
953
100
AcDbEntity
  8
0
 62
   253
370
     0
100
AcDbVertex
100
AcDb2dVertex
 10
-3.124496114988771
 20
-2.116161116883233
 30
0.0
  0
VERTEX
  5
956
330
953
100
AcDbEntity
  8
0
 62
   253
370
     0
100
AcDbVertex
100
AcDb2dVertex
 10
-3.116501114988778
 20
-2.360302116883133
 30
0.0
  0
VERTEX
  5
957
330
953
100
AcDbEntity
  8
0
 62
   253
370
     0
100
AcDbVertex
100
AcDb2dVertex
 10
-3.145920114988681
 20
-2.760113116883129
 30
0.0
  0
SEQEND
  5
958
330
953
100
AcDbEntity
  8
0
 62
   253
370
     0
  0
ARC
  5
959
330
1F
100
AcDbEntity
  8
0
 62
   253
370
    35
100
AcDbCircle
 10
-0.0104211149887021
 20
-3.272106116883207
 30
0.0
 40
3.17682
100
AcDbArc
 50
170.7263290000009
 51
180.0448829999986
  0
ARC
  5
95A
330
1F
100
AcDbEntity
  8
0
 62
   253
370
    35
100
AcDbCircle
 10
14.13539088501133
 20
-3.272106116883207
 30
0.0
 40
3.17682
100
AcDbArc
 50
359.9551139999962
 51
9.273671999997683
  0
POLYLINE
  5
95B
330
1F
100
AcDbEntity
  8
0
 62
   253
370
    35
100
AcDb2dPolyline
 66
     1
 10
0.0
 20
0.0
 30
0.0
  0
VERTEX
  5
95C
330
95B
100
AcDbEntity
  8
0
 62
   253
370
     0
100
AcDbVertex
100
AcDb2dVertex
 10
17.27088988501126
 20
-2.760113116883129
 30
0.0
  0
VERTEX
  5
95D
330
95B
100
AcDbEntity
  8
0
 62
   253
370
     0
100
AcDbVertex
100
AcDb2dVertex
 10
17.24360688501124
 20
-2.28562511688318
 30
0.0
  0
VERTEX
  5
95E
330
95B
100
AcDbEntity
  8
0
 62
   253
370
     0
100
AcDbVertex
100
AcDb2dVertex
 10
17.24958788501126
 20
-2.092480116883223
 30
0.0
  0
VERTEX
  5
95F
330
95B
100
AcDbEntity
  8
0
 62
   253
370
     0
100
AcDbVertex
100
AcDb2dVertex
 10
17.24525488501135
 20
-2.003429116883181
 30
0.0
  0
SEQEND
  5
960
330
95B
100
AcDbEntity
  8
0
 62
   253
370
     0
  0
LINE
  5
961
330
1F
100
AcDbEntity
  8
0
 62
   253
 48
0.001197
370
    35
100
AcDbLine
 10
-3.0627901149887
 20
-5.497448116883163
 30
0.0
 11
-3.110336114988768
 21
-5.502972116883197
 31
0.0
  0
POLYLINE
  5
962
330
1F
100
AcDbEntity
  8
0
 62
   253
370
    35
100
AcDb2dPolyline
 66
     1
 10
0.0
 20
0.0
 30
0.0
  0
VERTEX
  5
963
330
962
100
AcDbEntity
  8
0
 62
   253
370
     0
100
AcDbVertex
100
AcDb2dVertex
 10
-2.915420114988677
 20
-5.52073311688315
 30
0.0
  0
VERTEX
  5
964
330
962
100
AcDbEntity
  8
0
 62
   253
370
     0
100
AcDbVertex
100
AcDb2dVertex
 10
-2.989639114988761
 20
-5.496471116883126
 30
0.0
  0
VERTEX
  5
965
330
962
100
AcDbEntity
  8
0
 62
   253
370
     0
100
AcDbVertex
100
AcDb2dVertex
 10
-3.0627901149887
 20
-5.497448116883163
 30
0.0
  0
SEQEND
  5
966
330
962
100
AcDbEntity
  8
0
 62
   253
370
     0
  0
POLYLINE
  5
967
330
1F
100
AcDbEntity
  8
0
 62
   253
370
    35
100
AcDb2dPolyline
 66
     1
 10
0.0
 20
0.0
 30
0.0
  0
VERTEX
  5
968
330
967
100
AcDbEntity
  8
0
 62
   253
370
     0
100
AcDbVertex
100
AcDb2dVertex
 10
17.04038988501125
 20
-5.52073311688315
 30
0.0
  0
VERTEX
  5
969
330
967
100
AcDbEntity
  8
0
 62
   253
370
     0
100
AcDbVertex
100
AcDb2dVertex
 10
17.11460888501133
 20
-5.496471116883126
 30
0.0
  0
VERTEX
  5
96A
330
967
100
AcDbEntity
  8
0
 62
   253
370
     0
100
AcDbVertex
100
AcDb2dVertex
 10
17.18775988501133
 20
-5.497448116883163
 30
0.0
  0
SEQEND
  5
96B
330
967
100
AcDbEntity
  8
0
 62
   253
370
     0
  0
LINE
  5
96C
330
1F
100
AcDbEntity
  8
0
 62
   253
 48
0.001202
370
    35
100
AcDbLine
 10
17.18775988501133
 20
-5.497448116883163
 30
0.0
 11
17.23551988501131
 21
-5.503002116883351
 31
0.0
  0
LINE
  5
96D
330
1F
100
AcDbEntity
  8
0
 62
   253
 48
0.008305
370
    35
100
AcDbLine
 10
-162.2431181149887
 20
-1.998150116883208
 30
0.0
 11
-162.5753021149888
 21
-1.997051116883142
 31
0.0
  0
LINE
  5
96E
330
1F
100
AcDbEntity
  8
0
 62
   253
 48
0.000035
370
    35
100
AcDbLine
 10
-162.5753021149888
 20
-1.997051116883142
 30
0.0
 11
-162.5767061149885
 21
-1.996960116883144
 31
0.0
  0
LINE
  5
96F
330
1F
100
AcDbEntity
  8
0
 62
   253
 48
0.008305
370
    35
100
AcDbLine
 10
-183.6319121149886
 20
-1.998150116883208
 30
0.0
 11
-183.2997281149888
 21
-1.997051116883142
 31
0.0
  0
LINE
  5
970
330
1F
100
AcDbEntity
  8
0
 62
   253
370
    35
100
AcDbLine
 10
-137.9375151149888
 20
-5.502972116883197
 30
0.0
 11
-162.7646941149887
 21
-5.502972116883197
 31
0.0
  0
LINE
  5
971
330
1F
100
AcDbEntity
  8
0
 62
   253
370
    35
100
AcDbLine
 10
-207.9375151149888
 20
-5.502972116883197
 30
0.0
 11
-183.1103361149887
 21
-5.502972116883197
 31
0.0
  0
ELLIPSE
  5
972
330
1F
100
AcDbEntity
  8
0
 62
   253
370
    35
100
AcDbEllipse
 10
-172.9375151149888
 20
-3.175243116883223
 30
0.0
 11
10.25
 21
0.0
 31
0.0
210
0.0
220
0.0
230
1.0
 40
0.9998479999999998
 41
6.03768057148348
 42
6.27349031520263
  0
ELLIPSE
  5
973
330
1F
100
AcDbEntity
  8
0
 62
   253
370
    35
100
AcDbEllipse
 10
-172.9375151149888
 20
-3.175243116883223
 30
0.0
 11
10.25
 21
0.0
 31
0.0
210
0.0
220
0.0
230
1.0
 40
0.9998479999999998
 41
3.151287774935436
 42
3.387097460600748
  0
LINE
  5
974
330
1F
100
AcDbEntity
  8
0
 62
   253
 48
0.000222
370
    35
100
AcDbLine
 10
-183.1014551149887
 20
-1.822857116883198
 30
0.0
 11
-183.1028441149888
 21
-1.831615116883142
 31
0.0
  0
LINE
  5
975
330
1F
100
AcDbEntity
  8
0
 62
   253
 48
0.000475
370
    35
100
AcDbLine
 10
-183.1014101149887
 20
-1.841930116883133
 30
0.0
 11
-183.1014101149887
 21
-1.822948116883195
 31
0.0
  0
LINE
  5
976
330
1F
100
AcDbEntity
  8
0
 62
   253
 48
0.004065
370
    35
100
AcDbLine
 10
-183.1202851149886
 20
-2.003429116883181
 30
0.0
 11
-183.1014101149887
 21
-1.841930116883133
 31
0.0
  0
ELLIPSE
  5
977
330
1F
100
AcDbEntity
  8
0
 62
   253
370
    35
100
AcDbEllipse
 10
-172.9375151149888
 20
-3.175243116883223
 30
0.0
 11
10.25
 21
0.0
 31
0.0
210
0.0
220
0.0
230
1.0
 40
0.9998479999999998
 41
0.1145900590462065
 42
3.027002596821608
  0
LINE
  5
978
330
1F
100
AcDbEntity
  8
0
 62
   253
 48
0.004065
370
    35
100
AcDbLine
 10
-162.7736201149887
 20
-1.841930116883133
 30
0.0
 11
-162.7547451149887
 21
-2.003429116883181
 31
0.0
  0
LINE
  5
979
330
1F
100
AcDbEntity
  8
0
 62
   253
 48
0.000475
370
    35
100
AcDbLine
 10
-162.7736201149887
 20
-1.822948116883195
 30
0.0
 11
-162.7736201149887
 21
-1.841930116883133
 31
0.0
  0
LINE
  5
97A
330
1F
100
AcDbEntity
  8
0
 62
   253
 48
0.000222
370
    35
100
AcDbLine
 10
-162.7735751149887
 20
-1.822857116883198
 30
0.0
 11
-162.7721861149885
 21
-1.831615116883142
 31
0.0
  0
POLYLINE
  5
97B
330
1F
100
AcDbEntity
  8
0
 62
   253
370
    35
100
AcDb2dPolyline
 66
     1
 10
0.0
 20
0.0
 30
0.0
  0
VERTEX
  5
97C
330
97B
100
AcDbEntity
  8
0
 62
   253
370
     0
100
AcDbVertex
100
AcDb2dVertex
 10
-183.1459201149887
 20
-2.760113116883129
 30
0.0
  0
VERTEX
  5
97D
330
97B
100
AcDbEntity
  8
0
 62
   253
370
     0
100
AcDbVertex
100
AcDb2dVertex
 10
-183.1186371149886
 20
-2.28562511688318
 30
0.0
  0
VERTEX
  5
97E
330
97B
100
AcDbEntity
  8
0
 62
   253
370
     0
100
AcDbVertex
100
AcDb2dVertex
 10
-183.1246181149888
 20
-2.092480116883223
 30
0.0
  0
VERTEX
  5
97F
330
97B
100
AcDbEntity
  8
0
 62
   253
370
     0
100
AcDbVertex
100
AcDb2dVertex
 10
-183.1202851149886
 20
-2.003429116883181
 30
0.0
  0
SEQEND
  5
980
330
97B
100
AcDbEntity
  8
0
 62
   253
370
     0
  0
ARC
  5
981
330
1F
100
AcDbEntity
  8
0
 62
   253
370
    35
100
AcDbCircle
 10
-180.0095361149886
 20
-3.272442116883154
 30
0.0
 40
3.177723999999998
100
AcDbArc
 50
170.7231189999995
 51
180.039022999998
  0
ARC
  5
982
330
1F
100
AcDbEntity
  8
0
 62
   253
370
    35
100
AcDbCircle
 10
-165.8654941149887
 20
-3.272442116883154
 30
0.0
 40
3.177725
100
AcDbArc
 50
359.9609770000019
 51
9.276882000001338
  0
POLYLINE
  5
983
330
1F
100
AcDbEntity
  8
0
 62
   253
370
    35
100
AcDb2dPolyline
 66
     1
 10
0.0
 20
0.0
 30
0.0
  0
VERTEX
  5
984
330
983
100
AcDbEntity
  8
0
 62
   253
370
     0
100
AcDbVertex
100
AcDb2dVertex
 10
-162.7547451149887
 20
-2.003429116883181
 30
0.0
  0
VERTEX
  5
985
330
983
100
AcDbEntity
  8
0
 62
   253
370
     0
100
AcDbVertex
100
AcDb2dVertex
 10
-162.7505341149887
 20
-2.116161116883233
 30
0.0
  0
VERTEX
  5
986
330
983
100
AcDbEntity
  8
0
 62
   253
370
     0
100
AcDbVertex
100
AcDb2dVertex
 10
-162.7585291149886
 20
-2.360332116883169
 30
0.0
  0
VERTEX
  5
987
330
983
100
AcDbEntity
  8
0
 62
   253
370
     0
100
AcDbVertex
100
AcDb2dVertex
 10
-162.7291101149888
 20
-2.760113116883129
 30
0.0
  0
SEQEND
  5
988
330
983
100
AcDbEntity
  8
0
 62
   253
370
     0
  0
POLYLINE
  5
989
330
1F
100
AcDbEntity
  8
0
 62
   253
370
    35
100
AcDb2dPolyline
 66
     1
 10
0.0
 20
0.0
 30
0.0
  0
VERTEX
  5
98A
330
989
100
AcDbEntity
  8
0
 62
   253
370
     0
100
AcDbVertex
100
AcDb2dVertex
 10
-162.9596101149888
 20
-5.52073311688315
 30
0.0
  0
VERTEX
  5
98B
330
989
100
AcDbEntity
  8
0
 62
   253
370
     0
100
AcDbVertex
100
AcDb2dVertex
 10
-162.8853911149886
 20
-5.496471116883126
 30
0.0
  0
VERTEX
  5
98C
330
989
100
AcDbEntity
  8
0
 62
   253
370
     0
100
AcDbVertex
100
AcDb2dVertex
 10
-162.8122401149887
 20
-5.497448116883163
 30
0.0
  0
SEQEND
  5
98D
330
989
100
AcDbEntity
  8
0
 62
   253
370
     0
  0
LINE
  5
98E
330
1F
100
AcDbEntity
  8
0
 62
   253
 48
0.001197
370
    35
100
AcDbLine
 10
-162.8122401149887
 20
-5.497448116883163
 30
0.0
 11
-162.7646941149887
 21
-5.502972116883197
 31
0.0
  0
LINE
  5
98F
330
1F
100
AcDbEntity
  8
0
 62
   253
 48
0.001197
370
    35
100
AcDbLine
 10
-183.0627901149886
 20
-5.497448116883163
 30
0.0
 11
-183.1103361149887
 21
-5.502972116883197
 31
0.0
  0
POLYLINE
  5
990
330
1F
100
AcDbEntity
  8
0
 62
   253
370
    35
100
AcDb2dPolyline
 66
     1
 10
0.0
 20
0.0
 30
0.0
  0
VERTEX
  5
991
330
990
100
AcDbEntity
  8
0
 62
   253
370
     0
100
AcDbVertex
100
AcDb2dVertex
 10
-182.9154201149887
 20
-5.52073311688315
 30
0.0
  0
VERTEX
  5
992
330
990
100
AcDbEntity
  8
0
 62
   253
370
     0
100
AcDbVertex
100
AcDb2dVertex
 10
-182.9896391149887
 20
-5.496471116883126
 30
0.0
  0
VERTEX
  5
993
330
990
100
AcDbEntity
  8
0
 62
   253
370
     0
100
AcDbVertex
100
AcDb2dVertex
 10
-183.0627901149886
 20
-5.497448116883163
 30
0.0
  0
SEQEND
  5
994
330
990
100
AcDbEntity
  8
0
 62
   253
370
     0
  0
POLYLINE
  5
995
330
1F
100
AcDbEntity
  8
0
 62
   253
370
    35
100
AcDb2dPolyline
 66
     1
 10
0.0
 20
0.0
 30
0.0
  0
VERTEX
  5
996
330
995
100
AcDbEntity
  8
0
 62
   253
370
     0
100
AcDbVertex
100
AcDb2dVertex
 10
-226.2332611149888
 20
0.9419438831168347
 30
0.0
  0
VERTEX
  5
997
330
995
100
AcDbEntity
  8
0
 62
   253
370
     0
100
AcDbVertex
100
AcDb2dVertex
 10
-225.9717251149886
 20
0.8209108831168235
 30
0.0
  0
VERTEX
  5
998
330
995
100
AcDbEntity
  8
0
 62
   253
370
     0
100
AcDbVertex
100
AcDb2dVertex
 10
-225.6518251149888
 20
0.6937748831168733
 30
0.0
  0
VERTEX
  5
999
330
995
100
AcDbEntity
  8
0
 62
   253
370
     0
100
AcDbVertex
100
AcDb2dVertex
 10
-224.8892511149886
 20
0.4355348831168726
 30
0.0
  0
VERTEX
  5
99A
330
995
100
AcDbEntity
  8
0
 62
   253
370
     0
100
AcDbVertex
100
AcDb2dVertex
 10
-224.0534061149888
 20
0.1893198831168661
 30
0.0
  0
VERTEX
  5
99B
330
995
100
AcDbEntity
  8
0
 62
   253
370
     0
100
AcDbVertex
100
AcDb2dVertex
 10
-222.6709131149887
 20
-0.1735041168831799
 30
0.0
  0
VERTEX
  5
99C
330
995
100
AcDbEntity
  8
0
 62
   253
370
     0
100
AcDbVertex
100
AcDb2dVertex
 10
-220.7859801149886
 20
-0.6088371168831941
 30
0.0
  0
VERTEX
  5
99D
330
995
100
AcDbEntity
  8
0
 62
   253
370
     0
100
AcDbVertex
100
AcDb2dVertex
 10
-218.7925871149889
 20
-1.004955116883194
 30
0.0
  0
VERTEX
  5
99E
330
995
100
AcDbEntity
  8
0
 62
   253
370
     0
100
AcDbVertex
100
AcDb2dVertex
 10
-216.7976221149887
 20
-1.335918116883192
 30
0.0
  0
VERTEX
  5
99F
330
995
100
AcDbEntity
  8
0
 62
   253
370
     0
100
AcDbVertex
100
AcDb2dVertex
 10
-214.8004611149887
 20
-1.600719116883225
 30
0.0
  0
VERTEX
  5
9A0
330
995
100
AcDbEntity
  8
0
 62
   253
370
     0
100
AcDbVertex
100
AcDb2dVertex
 10
-212.7776491149888
 20
-1.800518116883208
 30
0.0
  0
VERTEX
  5
9A1
330
995
100
AcDbEntity
  8
0
 62
   253
370
     0
100
AcDbVertex
100
AcDb2dVertex
 10
-210.7200771149888
 20
-1.932842116883136
 30
0.0
  0
VERTEX
  5
9A2
330
995
100
AcDbEntity
  8
0
 62
   253
370
     0
100
AcDbVertex
100
AcDb2dVertex
 10
-208.6351011149888
 20
-1.993999116883228
 30
0.0
  0
VERTEX
  5
9A3
330
995
100
AcDbEntity
  8
0
 62
   253
370
     0
100
AcDbVertex
100
AcDb2dVertex
 10
-207.9375151149888
 20
-1.998089116883136
 30
0.0
  0
SEQEND
  5
9A4
330
995
100
AcDbEntity
  8
0
 62
   253
370
     0
  0
POLYLINE
  5
9A5
330
1F
100
AcDbEntity
  8
0
 62
   253
370
    35
100
AcDb2dPolyline
 66
     1
 10
0.0
 20
0.0
 30
0.0
  0
VERTEX
  5
9A6
330
9A5
100
AcDbEntity
  8
0
 62
   253
370
     0
100
AcDbVertex
100
AcDb2dVertex
 10
60.35823088501128
 20
0.9419438831168347
 30
0.0
  0
VERTEX
  5
9A7
330
9A5
100
AcDbEntity
  8
0
 62
   253
370
     0
100
AcDbVertex
100
AcDb2dVertex
 10
60.09669488501131
 20
0.8209108831168235
 30
0.0
  0
VERTEX
  5
9A8
330
9A5
100
AcDbEntity
  8
0
 62
   253
370
     0
100
AcDbVertex
100
AcDb2dVertex
 10
59.77677888501145
 20
0.6937748831168733
 30
0.0
  0
VERTEX
  5
9A9
330
9A5
100
AcDbEntity
  8
0
 62
   253
370
     0
100
AcDbVertex
100
AcDb2dVertex
 10
59.01420588501131
 20
0.4355348831168726
 30
0.0
  0
VERTEX
  5
9AA
330
9A5
100
AcDbEntity
  8
0
 62
   253
370
     0
100
AcDbVertex
100
AcDb2dVertex
 10
58.17839088501134
 20
0.1893198831168661
 30
0.0
  0
VERTEX
  5
9AB
330
9A5
100
AcDbEntity
  8
0
 62
   253
370
     0
100
AcDbVertex
100
AcDb2dVertex
 10
56.79588288501131
 20
-0.1735041168831799
 30
0.0
  0
VERTEX
  5
9AC
330
9A5
100
AcDbEntity
  8
0
 62
   253
370
     0
100
AcDbVertex
100
AcDb2dVertex
 10
54.91093488501125
 20
-0.6088371168831941
 30
0.0
  0
VERTEX
  5
9AD
330
9A5
100
AcDbEntity
  8
0
 62
   253
370
     0
100
AcDbVertex
100
AcDb2dVertex
 10
52.91755688501122
 20
-1.004955116883194
 30
0.0
  0
VERTEX
  5
9AE
330
9A5
100
AcDbEntity
  8
0
 62
   253
370
     0
100
AcDbVertex
100
AcDb2dVertex
 10
50.92259188501125
 20
-1.335918116883192
 30
0.0
  0
VERTEX
  5
9AF
330
9A5
100
AcDbEntity
  8
0
 62
   253
370
     0
100
AcDbVertex
100
AcDb2dVertex
 10
48.92543088501125
 20
-1.600719116883225
 30
0.0
  0
VERTEX
  5
9B0
330
9A5
100
AcDbEntity
  8
0
 62
   253
370
     0
100
AcDbVertex
100
AcDb2dVertex
 10
46.90263388501121
 20
-1.800518116883208
 30
0.0
  0
VERTEX
  5
9B1
330
9A5
100
AcDbEntity
  8
0
 62
   253
370
     0
100
AcDbVertex
100
AcDb2dVertex
 10
44.84504688501127
 20
-1.932842116883136
 30
0.0
  0
VERTEX
  5
9B2
330
9A5
100
AcDbEntity
  8
0
 62
   253
370
     0
100
AcDbVertex
100
AcDb2dVertex
 10
42.76005588501127
 20
-1.993999116883228
 30
0.0
  0
VERTEX
  5
9B3
330
9A5
100
AcDbEntity
  8
0
 62
   253
370
     0
100
AcDbVertex
100
AcDb2dVertex
 10
42.06248488501134
 20
-1.998089116883136
 30
0.0
  0
SEQEND
  5
9B4
330
9A5
100
AcDbEntity
  8
0
 62
   253
370
     0
  0
LINE
  5
9B5
330
1F
100
AcDbEntity
  8
0
 62
   253
370
    35
100
AcDbLine
 10
-162.2431181149887
 20
-1.998089116883136
 30
0.0
 11
-137.9375151149888
 21
-1.998089116883136
 31
0.0
  0
LINE
  5
9B6
330
1F
100
AcDbEntity
  8
0
 62
   253
370
    35
100
AcDbLine
 10
-207.9375151149888
 20
-1.998089116883136
 30
0.0
 11
-183.6319121149886
 21
-1.998089116883136
 31
0.0
  0
POLYLINE
  5
9B7
330
1F
100
AcDbEntity
  8
0
 62
   253
370
    35
100
AcDb2dPolyline
 66
     1
 10
0.0
 20
0.0
 30
0.0
  0
VERTEX
  5
9B8
330
9B7
100
AcDbEntity
  8
0
 62
   253
370
     0
100
AcDbVertex
100
AcDb2dVertex
 10
-27.93751511498877
 20
-1.998089116883136
 30
0.0
  0
VERTEX
  5
9B9
330
9B7
100
AcDbEntity
  8
0
 62
   253
370
     0
100
AcDbVertex
100
AcDb2dVertex
 10
-30.02815211498873
 20
-1.961285116883175
 30
0.0
  0
VERTEX
  5
9BA
330
9B7
100
AcDbEntity
  8
0
 62
   253
370
     0
100
AcDbVertex
100
AcDb2dVertex
 10
-32.09632811498878
 20
-1.852276116883159
 30
0.0
  0
VERTEX
  5
9BB
330
9B7
100
AcDbEntity
  8
0
 62
   253
370
     0
100
AcDbVertex
100
AcDb2dVertex
 10
-34.13044711498876
 20
-1.674541116883174
 30
0.0
  0
VERTEX
  5
9BC
330
9B7
100
AcDbEntity
  8
0
 62
   253
370
     0
100
AcDbVertex
100
AcDb2dVertex
 10
-36.13398711498874
 20
-1.431316116883349
 30
0.0
  0
VERTEX
  5
9BD
330
9B7
100
AcDbEntity
  8
0
 62
   253
370
     0
100
AcDbVertex
100
AcDb2dVertex
 10
-38.12724311498877
 20
-1.122631116883153
 30
0.0
  0
VERTEX
  5
9BE
330
9B7
100
AcDbEntity
  8
0
 62
   253
370
     0
100
AcDbVertex
100
AcDb2dVertex
 10
-40.12300111498868
 20
-0.7477841168832243
 30
0.0
  0
VERTEX
  5
9BF
330
9B7
100
AcDbEntity
  8
0
 62
   253
370
     0
100
AcDbVertex
100
AcDb2dVertex
 10
-42.26438911498874
 20
-0.2726251168831482
 30
0.0
  0
VERTEX
  5
9C0
330
9B7
100
AcDbEntity
  8
0
 62
   253
370
     0
100
AcDbVertex
100
AcDb2dVertex
 10
-43.56730611498877
 20
0.0566598831167653
 30
0.0
  0
VERTEX
  5
9C1
330
9B7
100
AcDbEntity
  8
0
 62
   253
370
     0
100
AcDbVertex
100
AcDb2dVertex
 10
-44.47697411498867
 20
0.3106878831168274
 30
0.0
  0
VERTEX
  5
9C2
330
9B7
100
AcDbEntity
  8
0
 62
   253
370
     0
100
AcDbVertex
100
AcDb2dVertex
 10
-45.28416411498878
 20
0.5635568831168598
 30
0.0
  0
VERTEX
  5
9C3
330
9B7
100
AcDbEntity
  8
0
 62
   253
370
     0
100
AcDbVertex
100
AcDb2dVertex
 10
-45.65184011498867
 20
0.6937748831168733
 30
0.0
  0
VERTEX
  5
9C4
330
9B7
100
AcDbEntity
  8
0
 62
   253
370
     0
100
AcDbVertex
100
AcDb2dVertex
 10
-45.97172511498878
 20
0.8209108831168235
 30
0.0
  0
VERTEX
  5
9C5
330
9B7
100
AcDbEntity
  8
0
 62
   253
370
     0
100
AcDbVertex
100
AcDb2dVertex
 10
-46.23326111498864
 20
0.9419438831168347
 30
0.0
  0
SEQEND
  5
9C6
330
9B7
100
AcDbEntity
  8
0
 62
   253
370
     0
  0
POLYLINE
  5
9C7
330
1F
100
AcDbEntity
  8
0
 62
   253
370
    35
100
AcDb2dPolyline
 66
     1
 10
0.0
 20
0.0
 30
0.0
  0
VERTEX
  5
9C8
330
9C7
100
AcDbEntity
  8
0
 62
   253
370
     0
100
AcDbVertex
100
AcDb2dVertex
 10
-137.9375151149888
 20
-1.998089116883136
 30
0.0
  0
VERTEX
  5
9C9
330
9C7
100
AcDbEntity
  8
0
 62
   253
370
     0
100
AcDbVertex
100
AcDb2dVertex
 10
-135.8468781149888
 20
-1.961285116883175
 30
0.0
  0
VERTEX
  5
9CA
330
9C7
100
AcDbEntity
  8
0
 62
   253
370
     0
100
AcDbVertex
100
AcDb2dVertex
 10
-133.7787021149889
 20
-1.852276116883159
 30
0.0
  0
VERTEX
  5
9CB
330
9C7
100
AcDbEntity
  8
0
 62
   253
370
     0
100
AcDbVertex
100
AcDb2dVertex
 10
-131.7445981149888
 20
-1.674541116883174
 30
0.0
  0
VERTEX
  5
9CC
330
9C7
100
AcDbEntity
  8
0
 62
   253
370
     0
100
AcDbVertex
100
AcDb2dVertex
 10
-129.7410581149889
 20
-1.431316116883349
 30
0.0
  0
VERTEX
  5
9CD
330
9C7
100
AcDbEntity
  8
0
 62
   253
370
     0
100
AcDbVertex
100
AcDb2dVertex
 10
-127.7477721149887
 20
-1.122631116883153
 30
0.0
  0
VERTEX
  5
9CE
330
9C7
100
AcDbEntity
  8
0
 62
   253
370
     0
100
AcDbVertex
100
AcDb2dVertex
 10
-125.7520291149888
 20
-0.7477841168832243
 30
0.0
  0
VERTEX
  5
9CF
330
9C7
100
AcDbEntity
  8
0
 62
   253
370
     0
100
AcDbVertex
100
AcDb2dVertex
 10
-123.6106411149885
 20
-0.2726251168831482
 30
0.0
  0
VERTEX
  5
9D0
330
9C7
100
AcDbEntity
  8
0
 62
   253
370
     0
100
AcDbVertex
100
AcDb2dVertex
 10
-122.3077241149886
 20
0.0566598831167653
 30
0.0
  0
VERTEX
  5
9D1
330
9C7
100
AcDbEntity
  8
0
 62
   253
370
     0
100
AcDbVertex
100
AcDb2dVertex
 10
-121.3980561149888
 20
0.3106878831168274
 30
0.0
  0
VERTEX
  5
9D2
330
9C7
100
AcDbEntity
  8
0
 62
   253
370
     0
100
AcDbVertex
100
AcDb2dVertex
 10
-120.5908661149887
 20
0.5635568831168598
 30
0.0
  0
VERTEX
  5
9D3
330
9C7
100
AcDbEntity
  8
0
 62
   253
370
     0
100
AcDbVertex
100
AcDb2dVertex
 10
-120.2231901149888
 20
0.6937748831168733
 30
0.0
  0
VERTEX
  5
9D4
330
9C7
100
AcDbEntity
  8
0
 62
   253
370
     0
100
AcDbVertex
100
AcDb2dVertex
 10
-119.9033051149887
 20
0.8209108831168235
 30
0.0
  0
VERTEX
  5
9D5
330
9C7
100
AcDbEntity
  8
0
 62
   253
370
     0
100
AcDbVertex
100
AcDb2dVertex
 10
-119.6417691149886
 20
0.9419438831168347
 30
0.0
  0
SEQEND
  5
9D6
330
9C7
100
AcDbEntity
  8
0
 62
   253
370
     0
  0
LINE
  5
9D7
330
1F
100
AcDbEntity
  8
0
 62
   253
370
    35
100
AcDbLine
 10
17.75688188501127
 20
-1.998089116883136
 30
0.0
 11
42.06248488501134
 21
-1.998089116883136
 31
0.0
  0
LINE
  5
9D8
330
1F
100
AcDbEntity
  8
0
 62
   253
370
    35
100
AcDbLine
 10
-27.93751511498877
 20
-1.998089116883136
 30
0.0
 11
-3.631912114988693
 21
-1.998089116883136
 31
0.0
  0
LINE
  5
9D9
330
1F
100
AcDbEntity
  8
0
 62
   253
 48
0.000076
370
    35
100
AcDbLine
 10
-226.2332611149888
 20
0.9419438831168347
 30
0.0
 11
-226.2359921149887
 21
0.943316883116779
 31
0.0
  0
LINE
  5
9DA
330
1F
100
AcDbEntity
  8
0
 62
   253
 48
0.000076
370
    35
100
AcDbLine
 10
60.35823088501128
 20
0.9419438831168347
 30
0.0
 11
60.36094688501125
 21
0.943316883116779
 31
0.0
  0
LINE
  5
9DB
330
1F
100
AcDbEntity
  8
0
 62
   253
 48
0.000076
370
    35
100
AcDbLine
 10
-46.23597711498868
 20
0.943316883116779
 30
0.0
 11
-46.23326111498864
 21
0.9419438831168347
 31
0.0
  0
ARC
  5
9DC
330
1F
100
AcDbEntity
  8
0
 62
   253
370
    35
100
AcDbCircle
 10
-118.9852751149886
 20
50.12330988311685
 30
0.0
 40
42.69666299999999
100
AcDbArc
 50
270.2946310000001
 51
271.7693650000005
  0
ARC
  5
9DD
330
1F
100
AcDbEntity
  8
0
 62
   253
370
    35
100
AcDbCircle
 10
-136.3039401149888
 20
1926.698871883116
 30
0.0
 40
1919.352284
100
AcDbArc
 50
270.204766999999
 51
270.5235519999996
  0
POLYLINE
  5
9DE
330
1F
100
AcDbEntity
  8
0
 62
   253
370
    35
100
AcDb2dPolyline
 66
     1
 10
0.0
 20
0.0
 30
0.0
  0
VERTEX
  5
9DF
330
9DE
100
AcDbEntity
  8
0
 62
   253
370
     0
100
AcDbVertex
100
AcDb2dVertex
 10
-129.4445341149888
 20
7.358600883116821
 30
0.0
  0
VERTEX
  5
9E0
330
9DE
100
AcDbEntity
  8
0
 62
   253
370
     0
100
AcDbVertex
100
AcDb2dVertex
 10
-132.6097561149886
 20
7.322131883116807
 30
0.0
  0
VERTEX
  5
9E1
330
9DE
100
AcDbEntity
  8
0
 62
   253
370
     0
100
AcDbVertex
100
AcDb2dVertex
 10
-136.8695071149888
 20
7.272632883116841
 30
0.0
  0
VERTEX
  5
9E2
330
9DE
100
AcDbEntity
  8
0
 62
   253
370
     0
100
AcDbVertex
100
AcDb2dVertex
 10
-137.9375151149888
 20
7.270129883116792
 30
0.0
  0
SEQEND
  5
9E3
330
9DE
100
AcDbEntity
  8
0
 62
   253
370
     0
  0
LINE
  5
9E4
330
1F
100
AcDbEntity
  8
0
 62
   253
370
    35
100
AcDbLine
 10
-137.9375151149888
 20
7.270129883116792
 30
0.0
 11
-168.4340511149887
 21
7.270099883116867
 31
0.0
  0
POLYLINE
  5
9E5
330
1F
100
AcDbEntity
  8
0
 62
   253
370
    35
100
AcDb2dPolyline
 66
     1
 10
0.0
 20
0.0
 30
0.0
  0
VERTEX
  5
9E6
330
9E5
100
AcDbEntity
  8
0
 62
   253
370
     0
100
AcDbVertex
100
AcDb2dVertex
 10
-177.4409791149886
 20
7.270099883116867
 30
0.0
  0
VERTEX
  5
9E7
330
9E5
100
AcDbEntity
  8
0
 62
   253
370
     0
100
AcDbVertex
100
AcDb2dVertex
 10
-176.0280151149887
 20
7.294452883116775
 30
0.0
  0
VERTEX
  5
9E8
330
9E5
100
AcDbEntity
  8
0
 62
   253
370
     0
100
AcDbVertex
100
AcDb2dVertex
 10
-173.8122711149886
 20
7.348132883116761
 30
0.0
  0
VERTEX
  5
9E9
330
9E5
100
AcDbEntity
  8
0
 62
   253
370
     0
100
AcDbVertex
100
AcDb2dVertex
 10
-171.6264491149888
 20
7.340991883116824
 30
0.0
  0
VERTEX
  5
9EA
330
9E5
100
AcDbEntity
  8
0
 62
   253
370
     0
100
AcDbVertex
100
AcDb2dVertex
 10
-169.3860321149886
 20
7.282641883116808
 30
0.0
  0
VERTEX
  5
9EB
330
9E5
100
AcDbEntity
  8
0
 62
   253
370
     0
100
AcDbVertex
100
AcDb2dVertex
 10
-168.4340511149887
 20
7.270099883116867
 30
0.0
  0
SEQEND
  5
9EC
330
9E5
100
AcDbEntity
  8
0
 62
   253
370
     0
  0
LINE
  5
9ED
330
1F
100
AcDbEntity
  8
0
 62
   253
370
    35
100
AcDbLine
 10
-177.4409791149886
 20
7.270099883116867
 30
0.0
 11
-207.9375151149888
 21
7.270099883116867
 31
0.0
  0
POLYLINE
  5
9EE
330
1F
100
AcDbEntity
  8
0
 62
   253
370
    35
100
AcDb2dPolyline
 66
     1
 10
0.0
 20
0.0
 30
0.0
  0
VERTEX
  5
9EF
330
9EE
100
AcDbEntity
  8
0
 62
   253
370
     0
100
AcDbVertex
100
AcDb2dVertex
 10
-207.9375151149888
 20
7.270099883116867
 30
0.0
  0
VERTEX
  5
9F0
330
9EE
100
AcDbEntity
  8
0
 62
   253
370
     0
100
AcDbVertex
100
AcDb2dVertex
 10
-211.8489071149888
 20
7.300891883116777
 30
0.0
  0
VERTEX
  5
9F1
330
9EE
100
AcDbEntity
  8
0
 62
   253
370
     0
100
AcDbVertex
100
AcDb2dVertex
 10
-215.3793791149889
 20
7.350970883116872
 30
0.0
  0
VERTEX
  5
9F2
330
9EE
100
AcDbEntity
  8
0
 62
   253
370
     0
100
AcDbVertex
100
AcDb2dVertex
 10
-216.4304811149888
 20
7.358600883116821
 30
0.0
  0
SEQEND
  5
9F3
330
9EE
100
AcDbEntity
  8
0
 62
   253
370
     0
  0
ARC
  5
9F4
330
1F
100
AcDbEntity
  8
0
 62
   253
370
    35
100
AcDbCircle
 10
-209.5711821149888
 20
1926.684222883118
 30
0.0
 40
1919.337717
100
AcDbArc
 50
269.4764499999987
 51
269.7952350000003
  0
ARC
  5
9F5
330
1F
100
AcDbEntity
  8
0
 62
   253
370
    35
100
AcDbCircle
 10
-226.8885341149887
 20
50.19850488311687
 30
0.0
 40
42.771846
100
AcDbArc
 50
268.2333489999987
 51
269.7042430000008
  0
ARC
  5
9F6
330
1F
100
AcDbEntity
  8
0
 62
   253
370
    35
100
AcDbCircle
 10
61.01353488501128
 20
50.19777288311678
 30
0.0
 40
42.77110799999999
100
AcDbArc
 50
270.2957449999983
 51
271.7666670000014
  0
ARC
  5
9F7
330
1F
100
AcDbEntity
  8
0
 62
   253
370
    35
100
AcDbCircle
 10
43.69615188501135
 20
1926.683246883116
 30
0.0
 40
1919.33666
100
AcDbArc
 50
270.204766999999
 51
270.5235519999996
  0
POLYLINE
  5
9F8
330
1F
100
AcDbEntity
  8
0
 62
   253
370
    35
100
AcDb2dPolyline
 66
     1
 10
0.0
 20
0.0
 30
0.0
  0
VERTEX
  5
9F9
330
9F8
100
AcDbEntity
  8
0
 62
   253
370
     0
100
AcDbVertex
100
AcDb2dVertex
 10
42.06248488501134
 20
7.270129883116792
 30
0.0
  0
VERTEX
  5
9FA
330
9F8
100
AcDbEntity
  8
0
 62
   253
370
     0
100
AcDbVertex
100
AcDb2dVertex
 10
45.97398388501132
 20
7.300891883116777
 30
0.0
  0
VERTEX
  5
9FB
330
9F8
100
AcDbEntity
  8
0
 62
   253
370
     0
100
AcDbVertex
100
AcDb2dVertex
 10
49.50444088501122
 20
7.350970883116872
 30
0.0
  0
VERTEX
  5
9FC
330
9F8
100
AcDbEntity
  8
0
 62
   253
370
     0
100
AcDbVertex
100
AcDb2dVertex
 10
50.55546588501127
 20
7.358600883116821
 30
0.0
  0
SEQEND
  5
9FD
330
9F8
100
AcDbEntity
  8
0
 62
   253
370
     0
  0
LINE
  5
9FE
330
1F
100
AcDbEntity
  8
0
 62
   253
370
    35
100
AcDbLine
 10
42.06248488501134
 20
7.270129883116792
 30
0.0
 11
11.56596388501125
 21
7.270099883116867
 31
0.0
  0
POLYLINE
  5
9FF
330
1F
100
AcDbEntity
  8
0
 62
   253
370
    35
100
AcDb2dPolyline
 66
     1
 10
0.0
 20
0.0
 30
0.0
  0
VERTEX
  5
A00
330
9FF
100
AcDbEntity
  8
0
 62
   253
370
     0
100
AcDbVertex
100
AcDb2dVertex
 10
11.56596388501125
 20
7.270099883116867
 30
0.0
  0
VERTEX
  5
A01
330
9FF
100
AcDbEntity
  8
0
 62
   253
370
     0
100
AcDbVertex
100
AcDb2dVertex
 10
10.15287788501123
 20
7.294452883116775
 30
0.0
  0
VERTEX
  5
A02
330
9FF
100
AcDbEntity
  8
0
 62
   253
370
     0
100
AcDbVertex
100
AcDb2dVertex
 10
7.93705788501134
 20
7.348163883116798
 30
0.0
  0
VERTEX
  5
A03
330
9FF
100
AcDbEntity
  8
0
 62
   253
370
     0
100
AcDbVertex
100
AcDb2dVertex
 10
5.751235885011141
 20
7.340991883116824
 30
0.0
  0
VERTEX
  5
A04
330
9FF
100
AcDbEntity
  8
0
 62
   253
370
     0
100
AcDbVertex
100
AcDb2dVertex
 10
3.510696885011296
 20
7.282641883116808
 30
0.0
  0
VERTEX
  5
A05
330
9FF
100
AcDbEntity
  8
0
 62
   253
370
     0
100
AcDbVertex
100
AcDb2dVertex
 10
2.559005885011313
 20
7.270099883116867
 30
0.0
  0
SEQEND
  5
A06
330
9FF
100
AcDbEntity
  8
0
 62
   253
370
     0
  0
LINE
  5
A07
330
1F
100
AcDbEntity
  8
0
 62
   253
370
    35
100
AcDbLine
 10
2.559005885011313
 20
7.270099883116867
 30
0.0
 11
-27.93751511498877
 21
7.270099883116867
 31
0.0
  0
POLYLINE
  5
A08
330
1F
100
AcDbEntity
  8
0
 62
   253
370
    35
100
AcDb2dPolyline
 66
     1
 10
0.0
 20
0.0
 30
0.0
  0
VERTEX
  5
A09
330
A08
100
AcDbEntity
  8
0
 62
   253
370
     0
100
AcDbVertex
100
AcDb2dVertex
 10
-36.43049611498871
 20
7.358600883116821
 30
0.0
  0
VERTEX
  5
A0A
330
A08
100
AcDbEntity
  8
0
 62
   253
370
     0
100
AcDbVertex
100
AcDb2dVertex
 10
-33.26527411498867
 20
7.322131883116807
 30
0.0
  0
VERTEX
  5
A0B
330
A08
100
AcDbEntity
  8
0
 62
   253
370
     0
100
AcDbVertex
100
AcDb2dVertex
 10
-29.00553911498875
 20
7.272632883116841
 30
0.0
  0
VERTEX
  5
A0C
330
A08
100
AcDbEntity
  8
0
 62
   253
370
     0
100
AcDbVertex
100
AcDb2dVertex
 10
-27.93751511498877
 20
7.270099883116867
 30
0.0
  0
SEQEND
  5
A0D
330
A08
100
AcDbEntity
  8
0
 62
   253
370
     0
  0
ARC
  5
A0E
330
1F
100
AcDbEntity
  8
0
 62
   253
370
    35
100
AcDbCircle
 10
-29.5711211149887
 20
1926.695697883117
 30
0.0
 40
1919.349087
100
AcDbArc
 50
269.4764499999987
 51
269.7952350000003
  0
ARC
  5
A0F
330
1F
100
AcDbEntity
  8
0
 62
   253
370
    35
100
AcDbCircle
 10
-46.88975511498878
 20
50.12404288311683
 30
0.0
 40
42.697396
100
AcDbArc
 50
268.2306440000008
 51
269.7053499999989
  0
ARC
  5
A10
330
1F
100
AcDbEntity
  8
0
 62
   253
370
    35
100
AcDbCircle
 10
10.07298288501127
 20
-6.173473116883141
 30
0.0
 40
6.000426999999997
100
AcDbArc
 50
269.9990750000013
 51
315.093633999998
  0
LINE
  5
A11
330
1F
100
AcDbEntity
  8
0
 62
   253
 48
0.15052
370
    35
100
AcDbLine
 10
4.052078885011296
 20
-12.1739011168832
 30
0.0
 11
10.07289088501122
 21
-12.1739011168832
 31
0.0
  0
ARC
  5
A12
330
1F
100
AcDbEntity
  8
0
 62
   253
370
    35
100
AcDbCircle
 10
4.0519868850113
 20
-6.173473116883141
 30
0.0
 40
6.000426999999997
100
AcDbArc
 50
224.906371
 51
270.0009330000002
  0
LINE
  5
A13
330
1F
100
AcDbEntity
  8
0
 62
   253
 48
0.008381
370
    35
100
AcDbLine
 10
17.42164588501126
 20
-1.997051116883142
 30
0.0
 11
17.75688188501127
 21
-1.998089116883136
 31
0.0
  0
LINE
  5
A14
330
1F
100
AcDbEntity
  8
0
 62
   253
 48
0.00834
370
    35
100
AcDbLine
 10
-3.29832411498873
 20
-1.996960116883144
 30
0.0
 11
-3.631912114988693
 21
-1.998089116883136
 31
0.0
  0
ARC
  5
A15
330
1F
100
AcDbEntity
  8
0
 62
   253
370
    35
100
AcDbCircle
 10
7.060500885011292
 20
-3.174877116883236
 30
0.0
 40
10.248067
100
AcDbArc
 50
194.0689139999983
 51
224.9059070000011
  0
ARC
  5
A16
330
1F
100
AcDbEntity
  8
0
 62
   253
370
    35
100
AcDbCircle
 10
7.064468885011222
 20
-3.174877116883236
 30
0.0
 40
10.248067
100
AcDbArc
 50
315.0940980000013
 51
345.9310900000006
  0
POLYLINE
  5
A17
330
1F
100
AcDbEntity
  8
0
 62
   253
370
    35
100
AcDb2dPolyline
 66
     1
 10
0.0
 20
0.0
 30
0.0
  0
VERTEX
  5
A18
330
A17
100
AcDbEntity
  8
0
 62
   253
370
     0
100
AcDbVertex
100
AcDb2dVertex
 10
17.22767688501122
 20
-1.830975116883166
 30
0.0
  0
VERTEX
  5
A19
330
A17
100
AcDbEntity
  8
0
 62
   253
370
     0
100
AcDbVertex
100
AcDb2dVertex
 10
17.29154988501132
 20
-1.945599116883214
 30
0.0
  0
VERTEX
  5
A1A
330
A17
100
AcDbEntity
  8
0
 62
   253
370
     0
100
AcDbVertex
100
AcDb2dVertex
 10
17.4232938850113
 20
-1.996960116883144
 30
0.0
  0
SEQEND
  5
A1B
330
A17
100
AcDbEntity
  8
0
 62
   253
370
     0
  0
POLYLINE
  5
A1C
330
1F
100
AcDbEntity
  8
0
 62
   253
370
    35
100
AcDb2dPolyline
 66
     1
 10
0.0
 20
0.0
 30
0.0
  0
VERTEX
  5
A1D
330
A1C
100
AcDbEntity
  8
0
 62
   253
370
     0
100
AcDbVertex
100
AcDb2dVertex
 10
-3.102707114988703
 20
-1.830975116883166
 30
0.0
  0
VERTEX
  5
A1E
330
A1C
100
AcDbEntity
  8
0
 62
   253
370
     0
100
AcDbVertex
100
AcDb2dVertex
 10
-3.166580114988758
 20
-1.945599116883214
 30
0.0
  0
VERTEX
  5
A1F
330
A1C
100
AcDbEntity
  8
0
 62
   253
370
     0
100
AcDbVertex
100
AcDb2dVertex
 10
-3.29832411498873
 20
-1.996960116883144
 30
0.0
  0
SEQEND
  5
A20
330
A1C
100
AcDbEntity
  8
0
 62
   253
370
     0
  0
ARC
  5
A21
330
1F
100
AcDbEntity
  8
0
 62
   253
370
    35
100
AcDbCircle
 10
-169.9270171149889
 20
-6.173473116883141
 30
0.0
 40
6.000426999999997
100
AcDbArc
 50
269.9990750000013
 51
315.093633999998
  0
LINE
  5
A22
330
1F
100
AcDbEntity
  8
0
 62
   253
 48
0.15052
370
    35
100
AcDbLine
 10
-175.9479211149888
 20
-12.1739011168832
 30
0.0
 11
-169.9271091149888
 21
-12.1739011168832
 31
0.0
  0
ARC
  5
A23
330
1F
100
AcDbEntity
  8
0
 62
   253
370
    35
100
AcDbCircle
 10
-175.9480131149888
 20
-6.173473116883141
 30
0.0
 40
6.000426999999997
100
AcDbArc
 50
224.906371
 51
270.0009330000002
  0
LINE
  5
A24
330
1F
100
AcDbEntity
  8
0
 62
   253
 48
0.00834
370
    35
100
AcDbLine
 10
-162.5767061149885
 20
-1.996960116883144
 30
0.0
 11
-162.2431181149887
 21
-1.998089116883136
 31
0.0
  0
LINE
  5
A25
330
1F
100
AcDbEntity
  8
0
 62
   253
 48
0.008381
370
    35
100
AcDbLine
 10
-183.2966761149886
 20
-1.997051116883142
 30
0.0
 11
-183.6319121149886
 21
-1.998089116883136
 31
0.0
  0
ARC
  5
A26
330
1F
100
AcDbEntity
  8
0
 62
   253
370
    35
100
AcDbCircle
 10
-172.9394991149886
 20
-3.174877116883236
 30
0.0
 40
10.248067
100
AcDbArc
 50
194.0689139999983
 51
224.9059070000011
  0
ARC
  5
A27
330
1F
100
AcDbEntity
  8
0
 62
   253
370
    35
100
AcDbCircle
 10
-172.9355311149888
 20
-3.174877116883236
 30
0.0
 40
10.248067
100
AcDbArc
 50
315.0940980000013
 51
345.9310910000017
  0
POLYLINE
  5
A28
330
1F
100
AcDbEntity
  8
0
 62
   253
370
    35
100
AcDb2dPolyline
 66
     1
 10
0.0
 20
0.0
 30
0.0
  0
VERTEX
  5
A29
330
A28
100
AcDbEntity
  8
0
 62
   253
370
     0
100
AcDbVertex
100
AcDb2dVertex
 10
-183.1027681149888
 20
-1.831249116883155
 30
0.0
  0
VERTEX
  5
A2A
330
A28
100
AcDbEntity
  8
0
 62
   253
370
     0
100
AcDbVertex
100
AcDb2dVertex
 10
-183.1666101149886
 20
-1.945690116883213
 30
0.0
  0
VERTEX
  5
A2B
330
A28
100
AcDbEntity
  8
0
 62
   253
370
     0
100
AcDbVertex
100
AcDb2dVertex
 10
-183.2510371149886
 20
-1.990856116883321
 30
0.0
  0
VERTEX
  5
A2C
330
A28
100
AcDbEntity
  8
0
 62
   253
370
     0
100
AcDbVertex
100
AcDb2dVertex
 10
-183.2983241149888
 20
-1.996960116883144
 30
0.0
  0
SEQEND
  5
A2D
330
A28
100
AcDbEntity
  8
0
 62
   253
370
     0
  0
POLYLINE
  5
A2E
330
1F
100
AcDbEntity
  8
0
 62
   253
370
    35
100
AcDb2dPolyline
 66
     1
 10
0.0
 20
0.0
 30
0.0
  0
VERTEX
  5
A2F
330
A2E
100
AcDbEntity
  8
0
 62
   253
370
     0
100
AcDbVertex
100
AcDb2dVertex
 10
-162.7722621149886
 20
-1.831249116883155
 30
0.0
  0
VERTEX
  5
A30
330
A2E
100
AcDbEntity
  8
0
 62
   253
370
     0
100
AcDbVertex
100
AcDb2dVertex
 10
-162.7084201149887
 20
-1.945690116883213
 30
0.0
  0
VERTEX
  5
A31
330
A2E
100
AcDbEntity
  8
0
 62
   253
370
     0
100
AcDbVertex
100
AcDb2dVertex
 10
-162.6239931149886
 20
-1.990856116883321
 30
0.0
  0
VERTEX
  5
A32
330
A2E
100
AcDbEntity
  8
0
 62
   253
370
     0
100
AcDbVertex
100
AcDb2dVertex
 10
-162.5767061149885
 20
-1.996960116883144
 30
0.0
  0
SEQEND
  5
A33
330
A2E
100
AcDbEntity
  8
0
 62
   253
370
     0
  0
CIRCLE
  5
A34
330
1F
100
AcDbEntity
  8
0
 62
     7
370
    35
100
AcDbCircle
 10
-291.9375151149887
 20
171.3978458831169
 30
0.0
 40
4.883901999999999
  0
LINE
  5
A35
330
1F
100
AcDbEntity
  8
0
 62
     7
 48
0.05
370
    35
100
AcDbLine
 10
-287.4375151149887
 20
172.3978458831167
 30
0.0
 11
-287.4375151149887
 21
170.3978458831169
 31
0.0
  0
LINE
  5
A36
330
1F
100
AcDbEntity
  8
0
 62
     7
 48
0.225
370
    35
100
AcDbLine
 10
-287.4375151149887
 20
172.3978458831167
 30
0.0
 11
-296.4375151149887
 21
172.3978458831167
 31
0.0
  0
LINE
  5
A37
330
1F
100
AcDbEntity
  8
0
 62
     7
 48
0.05
370
    35
100
AcDbLine
 10
-296.4375151149887
 20
170.3978458831169
 30
0.0
 11
-296.4375151149887
 21
172.3978458831167
 31
0.0
  0
LINE
  5
A38
330
1F
100
AcDbEntity
  8
0
 62
     7
 48
0.225
370
    35
100
AcDbLine
 10
-296.4375151149887
 20
170.3978458831169
 30
0.0
 11
-287.4375151149887
 21
170.3978458831169
 31
0.0
  0
CIRCLE
  5
A39
330
1F
100
AcDbEntity
  8
0
 62
     7
370
    35
100
AcDbCircle
 10
126.0624848850112
 20
171.3978458831169
 30
0.0
 40
4.883901999999999
  0
LINE
  5
A3A
330
1F
100
AcDbEntity
  8
0
 62
     7
 48
0.05
370
    35
100
AcDbLine
 10
130.5624848850112
 20
172.3978458831167
 30
0.0
 11
130.5624848850112
 21
170.3978458831169
 31
0.0
  0
LINE
  5
A3B
330
1F
100
AcDbEntity
  8
0
 62
     7
 48
0.225
370
    35
100
AcDbLine
 10
130.5624848850112
 20
172.3978458831167
 30
0.0
 11
121.5624848850113
 21
172.3978458831167
 31
0.0
  0
LINE
  5
A3C
330
1F
100
AcDbEntity
  8
0
 62
     7
 48
0.05
370
    35
100
AcDbLine
 10
121.5624848850113
 20
170.3978458831169
 30
0.0
 11
121.5624848850113
 21
172.3978458831167
 31
0.0
  0
LINE
  5
A3D
330
1F
100
AcDbEntity
  8
0
 62
     7
 48
0.225
370
    35
100
AcDbLine
 10
121.5624848850113
 20
170.3978458831169
 30
0.0
 11
130.5624848850112
 21
170.3978458831169
 31
0.0
  0
CIRCLE
  5
A3E
330
1F
100
AcDbEntity
  8
0
 62
     7
370
    35
100
AcDbCircle
 10
126.0624848850112
 20
-37.60215411688314
 30
0.0
 40
4.883901999999999
  0
LINE
  5
A3F
330
1F
100
AcDbEntity
  8
0
 62
     7
 48
0.05
370
    35
100
AcDbLine
 10
130.5624848850112
 20
-36.60215411688314
 30
0.0
 11
130.5624848850112
 21
-38.60215411688314
 31
0.0
  0
LINE
  5
A40
330
1F
100
AcDbEntity
  8
0
 62
     7
 48
0.225
370
    35
100
AcDbLine
 10
130.5624848850112
 20
-36.60215411688314
 30
0.0
 11
121.5624848850113
 21
-36.60215411688314
 31
0.0
  0
LINE
  5
A41
330
1F
100
AcDbEntity
  8
0
 62
     7
 48
0.05
370
    35
100
AcDbLine
 10
121.5624848850113
 20
-38.60215411688314
 30
0.0
 11
121.5624848850113
 21
-36.60215411688314
 31
0.0
  0
LINE
  5
A42
330
1F
100
AcDbEntity
  8
0
 62
     7
 48
0.225
370
    35
100
AcDbLine
 10
121.5624848850113
 20
-38.60215411688314
 30
0.0
 11
130.5624848850112
 21
-38.60215411688314
 31
0.0
  0
CIRCLE
  5
A43
330
1F
100
AcDbEntity
  8
0
 62
     7
370
    35
100
AcDbCircle
 10
-291.9375151149887
 20
-37.60215411688314
 30
0.0
 40
4.883901999999999
  0
LINE
  5
A44
330
1F
100
AcDbEntity
  8
0
 62
     7
 48
0.05
370
    35
100
AcDbLine
 10
-287.4375151149887
 20
-36.60215411688314
 30
0.0
 11
-287.4375151149887
 21
-38.60215411688314
 31
0.0
  0
LINE
  5
A45
330
1F
100
AcDbEntity
  8
0
 62
     7
 48
0.225
370
    35
100
AcDbLine
 10
-287.4375151149887
 20
-36.60215411688314
 30
0.0
 11
-296.4375151149887
 21
-36.60215411688314
 31
0.0
  0
LINE
  5
A46
330
1F
100
AcDbEntity
  8
0
 62
     7
 48
0.05
370
    35
100
AcDbLine
 10
-296.4375151149887
 20
-38.60215411688314
 30
0.0
 11
-296.4375151149887
 21
-36.60215411688314
 31
0.0
  0
LINE
  5
A47
330
1F
100
AcDbEntity
  8
0
 62
     7
 48
0.225
370
    35
100
AcDbLine
 10
-296.4375151149887
 20
-38.60215411688314
 30
0.0
 11
-287.4375151149887
 21
-38.60215411688314
 31
0.0
  0
DIMENSION
  5
A8B
330
1F
100
AcDbEntity
  8
QUOTE
 62
     7
100
AcDbDimension
  2
*D3
 10
-330.0508557015199
 20
-53.60215411688311
 30
0.0
 11
-330.0508557015199
 21
73.95978360297873
 31
0.0
 70
   160
 71
     5
 42
240.9999999999999
  3
Standard
100
AcDbAlignedDimension
 13
-289.4667883822151
 23
187.3978458831168
 33
0.0
 14
-291.937515952747
 24
-53.60215411688312
 34
0.0
 50
90.0
100
AcDbRotatedDimension
1001
ACAD
1000
DSTYLE
1002
{
1070
    45
1040
1.0
1070
   178
1070
     7
1070
   177
1070
     7
1070
   176
1070
     7
1070
    78
1070
     8
1070
   285
1070
     8
1070
   148
1040
0.0
1070
   170
1070
     0
1070
    74
1070
     1
1070
    77
1070
     0
1070
   280
1070
     0
1070
   140
1040
10.0
1070
    41
1040
15.0
1002
}
  0
TEXT
  5
AEB
330
1F
100
AcDbEntity
  8
0
 62
     7
100
AcDbText
 10
-278.8889696196853
 20
168.9477234526858
 30
0.0
 40
5.0
  1
GW68024N
 72
     1
 11
-259.305636286352
 21
168.9477234526858
 31
0.0
100
AcDbText
  0
DIMENSION
  5
B0B
330
1F
100
AcDbEntity
  8
QUOTE
 62
     7
100
AcDbDimension
  2
*D7
 10
-307.9375151149887
 20
204.3044696318897
 30
0.0
 11
-94.18408961707564
 21
204.3044696318897
 31
0.0
 70
   160
 71
     5
 42
449.9999999999999
  3
Standard
100
AcDbAlignedDimension
 13
142.0624848850112
 23
165.1916998831169
 33
0.0
 14
-307.9375151149887
 24
165.1916998831169
 34
0.0
100
AcDbRotatedDimension
1001
ACAD
1000
DSTYLE
1002
{
1070
    45
1040
1.0
1070
   178
1070
     7
1070
   177
1070
     7
1070
   176
1070
     7
1070
    78
1070
     8
1070
   285
1070
     8
1070
   148
1040
0.0
1070
   170
1070
     0
1070
    74
1070
     1
1070
    77
1070
     0
1070
   280
1070
     0
1070
   140
1040
10.0
1070
    41
1040
15.0
1002
}
  0
ENDSEC
  0
SECTION
  2
OBJECTS
  0
DICTIONARY
  5
C
330
0
100
AcDbDictionary
281
     1
  3
ACAD_COLOR
350
73
  3
ACAD_GROUP
350
D
  3
ACAD_LAYOUT
350
1A
  3
ACAD_MATERIAL
350
72
  3
ACAD_MLEADERSTYLE
350
D7
  3
ACAD_MLINESTYLE
350
17
  3
ACAD_PLOTSETTINGS
350
19
  3
ACAD_PLOTSTYLENAME
350
E
  3
ACAD_SCALELIST
350
B6
  3
ACAD_TABLESTYLE
350
86
  3
ACAD_VISUALSTYLE
350
99
  3
ACDB_RECOMPOSE_DATA
350
FF
  3
AcDbVariableDictionary
350
66
  3
AEC_PROPERTY_SET_DEFS
350
A89
  3
DWGPROPS
350
B42
  0
DICTIONARY
  5
A82
330
2
100
AcDbDictionary
280
     1
281
     1
  3
ACAD_LAYERSTATES
360
A83
  0
DICTIONARY
  5
E6
330
10
100
AcDbDictionary
280
     1
281
     1
  3
ADSK_XREC_LAYER_RECONCILED
360
A4E
  0
DICTIONARY
  5
14E
330
14D
100
AcDbDictionary
280
     1
281
     1
  3
ADSK_XREC_LAYER_RECONCILED
360
A4F
  0
DICTIONARY
  5
73
102
{ACAD_REACTORS
330
C
102
}
330
C
100
AcDbDictionary
281
     1
  0
DICTIONARY
  5
D
102
{ACAD_REACTORS
330
C
102
}
330
C
100
AcDbDictionary
281
     1
  0
DICTIONARY
  5
1A
102
{ACAD_REACTORS
330
C
102
}
330
C
100
AcDbDictionary
281
     1
  3
Layout1
350
59
  3
Layout2
350
5E
  3
Model
350
22
  0
DICTIONARY
  5
72
102
{ACAD_REACTORS
330
C
102
}
330
C
100
AcDbDictionary
281
     1
  3
ByBlock
350
97
  3
ByLayer
350
96
  3
Global
350
98
  0
DICTIONARY
  5
D7
102
{ACAD_REACTORS
330
C
102
}
330
C
100
AcDbDictionary
281
     1
  3
Annotativa
350
E5
  3
Standard
350
D8
  0
DICTIONARY
  5
17
102
{ACAD_REACTORS
330
C
102
}
330
C
100
AcDbDictionary
281
     1
  3
Standard
350
18
  0
DICTIONARY
  5
19
102
{ACAD_REACTORS
330
C
102
}
330
C
100
AcDbDictionary
281
     1
  0
ACDBDICTIONARYWDFLT
  5
E
102
{ACAD_REACTORS
330
C
102
}
330
C
100
AcDbDictionary
281
     1
  3
Normal
350
F
100
AcDbDictionaryWithDefault
340
F
  0
DICTIONARY
  5
B6
102
{ACAD_REACTORS
330
C
102
}
330
C
100
AcDbDictionary
281
     1
  3
A0
350
B7
  3
A1
350
124
  3
A2
350
125
  3
A3
350
126
  3
A4
350
127
  3
A5
350
128
  3
A6
350
129
  3
A7
350
12A
  3
A8
350
12B
  3
A9
350
12C
  3
B0
350
12D
  3
B1
350
12E
  3
B2
350
12F
  3
B3
350
130
  3
B4
350
131
  3
B5
350
132
  3
B6
350
133
  3
B7
350
134
  3
B8
350
135
  3
B9
350
136
  3
C0
350
137
  3
C1
350
138
  3
C2
350
139
  3
C3
350
13A
  3
C4
350
13B
  3
C5
350
13C
  3
C6
350
13D
  3
C7
350
13E
  3
C8
350
13F
  3
C9
350
140
  3
D0
350
141
  3
D1
350
142
  3
D2
350
143
  0
DICTIONARY
  5
86
102
{ACAD_REACTORS
330
C
102
}
330
C
100
AcDbDictionary
281
     1
  3
Standard
350
87
  0
DICTIONARY
  5
99
102
{ACAD_REACTORS
330
C
102
}
330
C
100
AcDbDictionary
281
     1
  3
2dWireframe
350
9F
  3
3D Hidden
350
A1
  3
3dWireframe
350
A0
  3
Basic
350
9E
  3
Brighten
350
A5
  3
ColorChange
350
A9
  3
Conceptual
350
A2
  3
Dim
350
A4
  3
Facepattern
350
A8
  3
Flat
350
9A
  3
FlatWithEdges
350
9B
  3
Gouraud
350
9C
  3
GouraudWithEdges
350
9D
  3
Linepattern
350
A7
  3
Realistic
350
A3
  3
Thicken
350
A6
  0
XRECORD
  5
FF
102
{ACAD_REACTORS
330
C
102
}
330
C
100
AcDbXrecord
280
     1
 90
        1
330
87
  0
DICTIONARY
  5
66
102
{ACAD_REACTORS
330
C
102
}
330
C
100
AcDbDictionary
281
     1
  3
CANNOSCALE
350
F0
  3
CMLEADERSTYLE
350
EF
  3
CTABLESTYLE
350
89
  3
DIMASSOC
350
67
  3
HIDETEXT
350
6B
  3
INDEXCTL
350
A53
  3
LIGHTINGUNITS
350
A51
  3
MSLTSCALE
350
A50
  3
SORTENTS
350
A52
  0
DICTIONARY
  5
A89
102
{ACAD_REACTORS
330
C
102
}
330
C
100
AcDbDictionary
281
     1
  0
XRECORD
  5
B42
102
{ACAD_REACTORS
330
C
102
}
330
C
100
AcDbXrecord
280
     1
  1
DWGPROPS COOKIE
  2

  3

  4

  6

  7

  8
fontanaNZ
  9

300
=
301
=
302
=
303
=
304
=
305
=
306
=
307
=
308
=
309
=
 40
0.0014929861111111
 41
2455289.394084363
 42
2455510.744300984
  1

 90
        0
  0
DICTIONARY
  5
A83
102
{ACAD_REACTORS
330
A82
102
}
330
A82
100
AcDbDictionary
281
     1
  0
XRECORD
  5
A4E
102
{ACAD_REACTORS
330
E6
102
}
330
E6
100
AcDbXrecord
280
     1
290
     1
  0
XRECORD
  5
A4F
102
{ACAD_REACTORS
330
14E
102
}
330
14E
100
AcDbXrecord
280
     1
290
     1
  0
LAYOUT
  5
59
102
{ACAD_XDICTIONARY
360
B45
102
}
102
{ACAD_REACTORS
330
1A
102
}
330
1A
100
AcDbPlotSettings
  1

  2
None
  4

  6

 40
0.0
 41
0.0
 42
0.0
 43
0.0
 44
0.0
 45
0.0
 46
0.0
 47
0.0
 48
0.0
 49
0.0
140
0.0
141
0.0
142
1.0
143
1.0
 70
   688
 72
     0
 73
     0
 74
     5
  7

 75
    16
147
1.0
148
0.0
149
0.0
100
AcDbLayout
  1
Layout1
 70
     1
 71
     1
 10
0.0
 20
0.0
 11
12.0
 21
9.0
 12
0.0
 22
0.0
 32
0.0
 14
0.0
 24
0.0
 34
0.0
 15
0.0
 25
0.0
 35
0.0
146
0.0
 13
0.0
 23
0.0
 33
0.0
 16
1.0
 26
0.0
 36
0.0
 17
0.0
 27
1.0
 37
0.0
 76
     0
330
58
  0
LAYOUT
  5
5E
102
{ACAD_XDICTIONARY
360
B47
102
}
102
{ACAD_REACTORS
330
1A
102
}
330
1A
100
AcDbPlotSettings
  1

  2
None
  4

  6

 40
0.0
 41
0.0
 42
0.0
 43
0.0
 44
0.0
 45
0.0
 46
0.0
 47
0.0
 48
0.0
 49
0.0
140
0.0
141
0.0
142
1.0
143
1.0
 70
   688
 72
     0
 73
     0
 74
     5
  7

 75
    16
147
1.0
148
0.0
149
0.0
100
AcDbLayout
  1
Layout2
 70
     1
 71
     2
 10
0.0
 20
0.0
 11
12.0
 21
9.0
 12
0.0
 22
0.0
 32
0.0
 14
0.0
 24
0.0
 34
0.0
 15
0.0
 25
0.0
 35
0.0
146
0.0
 13
0.0
 23
0.0
 33
0.0
 16
1.0
 26
0.0
 36
0.0
 17
0.0
 27
1.0
 37
0.0
 76
     0
330
5D
  0
LAYOUT
  5
22
102
{ACAD_XDICTIONARY
360
B43
102
}
102
{ACAD_REACTORS
330
1A
102
}
330
1A
100
AcDbPlotSettings
  1

  2
none_device
  4
ANSI_A_(8.50_x_11.00_Inches)
  6

 40
6.349999904632567
 41
19.04999923706055
 42
6.350006103515625
 43
19.04998779296875
 44
215.8999938964844
 45
279.3999938964844
 46
0.0
 47
0.0
 48
0.0
 49
0.0
140
0.0
141
0.0
142
1.0
143
2.584895464708373
 70
 11952
 72
     0
 73
     1
 74
     0
  7

 75
     0
147
0.3868628397755418
148
0.0
149
0.0
100
AcDbLayout
  1
Model
 70
     1
 71
     0
 10
0.0
 20
0.0
 11
12.0
 21
9.0
 12
0.0
 22
0.0
 32
0.0
 14
0.0
 24
0.0
 34
0.0
 15
0.0
 25
0.0
 35
0.0
146
0.0
 13
0.0
 23
0.0
 33
0.0
 16
1.0
 26
0.0
 36
0.0
 17
0.0
 27
1.0
 37
0.0
 76
     0
330
1F
331
94
  0
MATERIAL
  5
97
102
{ACAD_XDICTIONARY
360
A5F
102
}
102
{ACAD_REACTORS
330
72
102
}
330
72
100
AcDbMaterial
  1
ByBlock
  0
MATERIAL
  5
96
102
{ACAD_XDICTIONARY
360
A5D
102
}
102
{ACAD_REACTORS
330
72
102
}
330
72
100
AcDbMaterial
  1
ByLayer
  0
MATERIAL
  5
98
102
{ACAD_XDICTIONARY
360
110
102
}
102
{ACAD_REACTORS
330
72
102
}
330
72
100
AcDbMaterial
  1
Global
 43
0.0208000000566244
 43
0.0
 43
0.0
 43
0.0
 43
0.0
 43
0.0208000000566244
 43
0.0
 43
0.0
 43
0.0
 43
0.0
 43
1.0
 43
0.0
 43
0.0
 43
0.0
 43
0.0
 43
1.0
 49
0.0208000000566244
 49
0.0
 49
0.0
 49
0.0
 49
0.0
 49
0.0208000000566244
 49
0.0
 49
0.0
 49
0.0
 49
0.0
 49
1.0
 49
0.0
 49
0.0
 49
0.0
 49
0.0
 49
1.0
142
0.0208000000566244
142
0.0
142
0.0
142
0.0
142
0.0
142
0.0208000000566244
142
0.0
142
0.0
142
0.0
142
0.0
142
1.0
142
0.0
142
0.0
142
0.0
142
0.0
142
1.0
144
0.0208000000566244
144
0.0
144
0.0
144
0.0
144
0.0
144
0.0208000000566244
144
0.0
144
0.0
144
0.0
144
0.0
144
1.0
144
0.0
144
0.0
144
0.0
144
0.0
144
1.0
1001
ACAD
1070
    -1
1070
     3
1070
     0
1000

1071
        0
1070
     0
  0
MLEADERSTYLE
  5
E5
102
{ACAD_REACTORS
330
D7
102
}
330
D7
100
AcDbMLeaderStyle
170
     2
171
     1
172
     0
 90
        2
 40
0.0
 41
0.0
173
     1
 91
-1056964608
340
14
 92
       -2
290
     1
 42
0.09
291
     1
 43
0.36
  3
Standard
 44
0.18
300

342
11
174
     1
178
     1
175
     1
176
     0
 93
-1056964608
 45
0.18
292
     0
297
     0
 46
0.18
 94
-1056964608
 47
1.0
 49
1.0
140
1.0
293
     1
141
0.0
294
     1
177
     0
142
1.0
295
     0
296
     1
143
0.125
1001
ACAD_MLEADERVER
1070
     2
  0
MLEADERSTYLE
  5
D8
102
{ACAD_REACTORS
330
D7
102
}
330
D7
100
AcDbMLeaderStyle
170
     2
171
     1
172
     0
 90
        2
 40
0.0
 41
0.0
173
     1
 91
-1056964608
340
14
 92
       -2
290
     1
 42
0.09
291
     1
 43
0.36
  3
Standard
 44
0.18
300

342
11
174
     1
178
     1
175
     1
176
     0
 93
-1056964608
 45
0.18
292
     0
297
     0
 46
0.18
 94
-1056964608
 47
1.0
 49
1.0
140
1.0
293
     1
141
0.0
294
     1
177
     0
142
1.0
295
     0
296
     0
143
0.125
1001
ACAD_MLEADERVER
1070
     2
  0
MLINESTYLE
  5
18
102
{ACAD_REACTORS
330
17
102
}
330
17
100
AcDbMlineStyle
  2
STANDARD
 70
     0
  3

 62
   256
 51
90.0
 52
90.0
 71
     2
 49
0.5
 62
   256
  6
BYLAYER
 49
-0.5
 62
   256
  6
BYLAYER
  0
ACDBPLACEHOLDER
  5
F
102
{ACAD_REACTORS
330
E
102
}
330
E
  0
SCALE
  5
B7
102
{ACAD_REACTORS
330
B6
102
}
330
B6
100
AcDbScale
 70
     0
300
1:1
140
1.0
141
1.0
290
     1
  0
SCALE
  5
124
102
{ACAD_REACTORS
330
B6
102
}
330
B6
100
AcDbScale
 70
     0
300
1:2
140
1.0
141
2.0
290
     0
  0
SCALE
  5
125
102
{ACAD_REACTORS
330
B6
102
}
330
B6
100
AcDbScale
 70
     0
300
1:4
140
1.0
141
4.0
290
     0
  0
SCALE
  5
126
102
{ACAD_REACTORS
330
B6
102
}
330
B6
100
AcDbScale
 70
     0
300
1:5
140
1.0
141
5.0
290
     0
  0
SCALE
  5
127
102
{ACAD_REACTORS
330
B6
102
}
330
B6
100
AcDbScale
 70
     0
300
1:8
140
1.0
141
8.0
290
     0
  0
SCALE
  5
128
102
{ACAD_REACTORS
330
B6
102
}
330
B6
100
AcDbScale
 70
     0
300
1:10
140
1.0
141
10.0
290
     0
  0
SCALE
  5
129
102
{ACAD_REACTORS
330
B6
102
}
330
B6
100
AcDbScale
 70
     0
300
1:16
140
1.0
141
16.0
290
     0
  0
SCALE
  5
12A
102
{ACAD_REACTORS
330
B6
102
}
330
B6
100
AcDbScale
 70
     0
300
1:20
140
1.0
141
20.0
290
     0
  0
SCALE
  5
12B
102
{ACAD_REACTORS
330
B6
102
}
330
B6
100
AcDbScale
 70
     0
300
1:30
140
1.0
141
30.0
290
     0
  0
SCALE
  5
12C
102
{ACAD_REACTORS
330
B6
102
}
330
B6
100
AcDbScale
 70
     0
300
1:40
140
1.0
141
40.0
290
     0
  0
SCALE
  5
12D
102
{ACAD_REACTORS
330
B6
102
}
330
B6
100
AcDbScale
 70
     0
300
1:50
140
1.0
141
50.0
290
     0
  0
SCALE
  5
12E
102
{ACAD_REACTORS
330
B6
102
}
330
B6
100
AcDbScale
 70
     0
300
1:100
140
1.0
141
100.0
290
     0
  0
SCALE
  5
12F
102
{ACAD_REACTORS
330
B6
102
}
330
B6
100
AcDbScale
 70
     0
300
2:1
140
2.0
141
1.0
290
     0
  0
SCALE
  5
130
102
{ACAD_REACTORS
330
B6
102
}
330
B6
100
AcDbScale
 70
     0
300
4:1
140
4.0
141
1.0
290
     0
  0
SCALE
  5
131
102
{ACAD_REACTORS
330
B6
102
}
330
B6
100
AcDbScale
 70
     0
300
8:1
140
8.0
141
1.0
290
     0
  0
SCALE
  5
132
102
{ACAD_REACTORS
330
B6
102
}
330
B6
100
AcDbScale
 70
     0
300
10:1
140
10.0
141
1.0
290
     0
  0
SCALE
  5
133
102
{ACAD_REACTORS
330
B6
102
}
330
B6
100
AcDbScale
 70
     0
300
100:1
140
100.0
141
1.0
290
     0
  0
SCALE
  5
134
102
{ACAD_REACTORS
330
B6
102
}
330
B6
100
AcDbScale
 70
     0
300
1/128" = 1'-0"
140
0.0078125
141
12.0
290
     0
  0
SCALE
  5
135
102
{ACAD_REACTORS
330
B6
102
}
330
B6
100
AcDbScale
 70
     0
300
1/64" = 1'-0"
140
0.015625
141
12.0
290
     0
  0
SCALE
  5
136
102
{ACAD_REACTORS
330
B6
102
}
330
B6
100
AcDbScale
 70
     0
300
1/32" = 1'-0"
140
0.03125
141
12.0
290
     0
  0
SCALE
  5
137
102
{ACAD_REACTORS
330
B6
102
}
330
B6
100
AcDbScale
 70
     0
300
1/16" = 1'-0"
140
0.0625
141
12.0
290
     0
  0
SCALE
  5
138
102
{ACAD_REACTORS
330
B6
102
}
330
B6
100
AcDbScale
 70
     0
300
3/32" = 1'-0"
140
0.09375
141
12.0
290
     0
  0
SCALE
  5
139
102
{ACAD_REACTORS
330
B6
102
}
330
B6
100
AcDbScale
 70
     0
300
1/8" = 1'-0"
140
0.125
141
12.0
290
     0
  0
SCALE
  5
13A
102
{ACAD_REACTORS
330
B6
102
}
330
B6
100
AcDbScale
 70
     0
300
3/16" = 1'-0"
140
0.1875
141
12.0
290
     0
  0
SCALE
  5
13B
102
{ACAD_REACTORS
330
B6
102
}
330
B6
100
AcDbScale
 70
     0
300
1/4" = 1'-0"
140
0.25
141
12.0
290
     0
  0
SCALE
  5
13C
102
{ACAD_REACTORS
330
B6
102
}
330
B6
100
AcDbScale
 70
     0
300
3/8" = 1'-0"
140
0.375
141
12.0
290
     0
  0
SCALE
  5
13D
102
{ACAD_REACTORS
330
B6
102
}
330
B6
100
AcDbScale
 70
     0
300
1/2" = 1'-0"
140
0.5
141
12.0
290
     0
  0
SCALE
  5
13E
102
{ACAD_REACTORS
330
B6
102
}
330
B6
100
AcDbScale
 70
     0
300
3/4" = 1'-0"
140
0.75
141
12.0
290
     0
  0
SCALE
  5
13F
102
{ACAD_REACTORS
330
B6
102
}
330
B6
100
AcDbScale
 70
     0
300
1" = 1'-0"
140
1.0
141
12.0
290
     0
  0
SCALE
  5
140
102
{ACAD_REACTORS
330
B6
102
}
330
B6
100
AcDbScale
 70
     0
300
1-1/2" = 1'-0"
140
1.5
141
12.0
290
     0
  0
SCALE
  5
141
102
{ACAD_REACTORS
330
B6
102
}
330
B6
100
AcDbScale
 70
     0
300
3" = 1'-0"
140
3.0
141
12.0
290
     0
  0
SCALE
  5
142
102
{ACAD_REACTORS
330
B6
102
}
330
B6
100
AcDbScale
 70
     0
300
6" = 1'-0"
140
6.0
141
12.0
290
     0
  0
SCALE
  5
143
102
{ACAD_REACTORS
330
B6
102
}
330
B6
100
AcDbScale
 70
     0
300
1'-0" = 1'-0"
140
12.0
141
12.0
290
     0
  0
TABLESTYLE
  5
87
102
{ACAD_XDICTIONARY
360
104
102
}
102
{ACAD_REACTORS
330
86
102
}
330
86
100
AcDbTableStyle
  3
Standard
 70
     0
 71
     0
 40
0.06
 41
0.06
280
     0
281
     0
  7
Standard
140
0.18
170
     2
 62
     0
 63
     7
283
     0
274
    -2
284
     1
 64
     0
275
    -2
285
     1
 65
     0
276
    -2
286
     1
 66
     0
277
    -2
287
     1
 67
     0
278
    -2
288
     1
 68
     0
279
    -2
289
     1
 69
     0
  7
Standard
140
0.25
170
     5
 62
     0
 63
     7
283
     0
274
    -2
284
     1
 64
     0
275
    -2
285
     1
 65
     0
276
    -2
286
     1
 66
     0
277
    -2
287
     1
 67
     0
278
    -2
288
     1
 68
     0
279
    -2
289
     1
 69
     0
  7
Standard
140
0.18
170
     5
 62
     0
 63
     7
283
     0
274
    -2
284
     1
 64
     0
275
    -2
285
     1
 65
     0
276
    -2
286
     1
 66
     0
277
    -2
287
     1
 67
     0
278
    -2
288
     1
 68
     0
279
    -2
289
     1
 69
     0
  0
VISUALSTYLE
  5
9F
102
{ACAD_REACTORS
330
99
102
}
330
99
100
AcDbVisualStyle
  2
2dWireframe
 70
     4
 71
     0
 72
     2
 73
     1
 90
        0
 40
-0.6
 41
-30.0
 62
     5
 63
     7
 74
     1
 91
        4
 64
     7
 65
   257
 75
     1
175
     1
 42
1.0
 92
        0
 66
   257
 43
1.0
 76
     1
 77
     6
 78
     2
 67
     7
 79
     5
170
     0
171
     0
290
     0
174
     0
 93
        1
 44
0.0
173
     0
291
     0
 45
0.0
1001
ACAD
1000
AcDbSavedByObjectVersion
1070
     0
1000
AcDbSavedByObjectVersion
1070
     0
1000
AcDbSavedByObjectVersion
1070
     0
1000
AcDbSavedByObjectVersion
1070
     0
  0
VISUALSTYLE
  5
A1
102
{ACAD_REACTORS
330
99
102
}
330
99
100
AcDbVisualStyle
  2
3D Hidden
 70
     6
 71
     1
 72
     2
 73
     2
 90
        0
 40
-0.6
 41
-30.0
 62
     5
 63
     7
 74
     2
 91
        2
 64
     7
 65
   257
 75
     2
175
     1
 42
40.0
 92
        0
 66
   257
 43
1.0
 76
     1
 77
     6
 78
     2
 67
     7
 79
     3
170
     0
171
     0
290
     0
174
     0
 93
        1
 44
0.0
173
     0
291
     0
 45
0.0
1001
ACAD
1000
AcDbSavedByObjectVersion
1070
     0
1000
AcDbSavedByObjectVersion
1070
     0
1000
AcDbSavedByObjectVersion
1070
     0
1000
AcDbSavedByObjectVersion
1070
     0
  0
VISUALSTYLE
  5
A0
102
{ACAD_REACTORS
330
99
102
}
330
99
100
AcDbVisualStyle
  2
3dWireframe
 70
     5
 71
     0
 72
     2
 73
     1
 90
        0
 40
-0.6
 41
-30.0
 62
     5
 63
     7
 74
     1
 91
        4
 64
     7
 65
   257
 75
     1
175
     1
 42
1.0
 92
        0
 66
   257
 43
1.0
 76
     1
 77
     6
 78
     2
 67
     7
 79
     5
170
     0
171
     0
290
     0
174
     0
 93
        1
 44
0.0
173
     0
291
     0
 45
0.0
1001
ACAD
1000
AcDbSavedByObjectVersion
1070
     0
1000
AcDbSavedByObjectVersion
1070
     0
1000
AcDbSavedByObjectVersion
1070
     0
1000
AcDbSavedByObjectVersion
1070
     0
  0
VISUALSTYLE
  5
9E
102
{ACAD_REACTORS
330
99
102
}
330
99
100
AcDbVisualStyle
  2
Basic
 70
     7
 71
     1
 72
     0
 73
     1
 90
        0
 40
-0.6
 41
-30.0
 62
     5
 63
     7
 74
     0
 91
        4
 64
     7
 65
   257
 75
     1
175
     1
 42
1.0
 92
        8
 66
     7
 43
1.0
 76
     1
 77
     6
 78
     2
 67
     7
 79
     5
170
     0
171
     0
290
     0
174
     0
 93
        1
 44
0.0
173
     0
291
     1
 45
0.0
1001
ACAD
1000
AcDbSavedByObjectVersion
1070
     0
1000
AcDbSavedByObjectVersion
1070
     0
1000
AcDbSavedByObjectVersion
1070
     0
1000
AcDbSavedByObjectVersion
1070
     0
  0
VISUALSTYLE
  5
A5
102
{ACAD_REACTORS
330
99
102
}
330
99
100
AcDbVisualStyle
  2
Brighten
 70
    12
 71
     2
 72
     2
 73
     1
 90
        0
 40
-0.6
 41
-30.0
 62
     5
 63
     7
 74
     1
 91
        4
 64
     7
 65
   257
 75
     1
175
     1
 42
1.0
 92
        8
 66
     7
 43
1.0
 76
     1
 77
     6
 78
     2
 67
     7
 79
     5
170
     0
171
     0
290
     0
174
     0
 93
        1
 44
50.0
173
     0
291
     1
 45
0.0
1001
ACAD
1000
AcDbSavedByObjectVersion
1070
     0
1000
AcDbSavedByObjectVersion
1070
     0
1000
AcDbSavedByObjectVersion
1070
     0
1000
AcDbSavedByObjectVersion
1070
     0
  0
VISUALSTYLE
  5
A9
102
{ACAD_REACTORS
330
99
102
}
330
99
100
AcDbVisualStyle
  2
ColorChange
 70
    16
 71
     2
 72
     2
 73
     3
 90
        0
 40
-0.6
 41
-30.0
 62
     5
 63
     8
 74
     1
 91
        4
 64
     7
 65
   257
 75
     1
175
     1
 42
1.0
 92
        8
 66
     8
 43
1.0
 76
     1
 77
     6
 78
     2
 67
     7
 79
     5
170
     0
171
     0
290
     0
174
     0
 93
        1
 44
0.0
173
     0
291
     1
 45
0.0
1001
ACAD
1000
AcDbSavedByObjectVersion
1070
     0
1000
AcDbSavedByObjectVersion
1070
     0
1000
AcDbSavedByObjectVersion
1070
     0
1000
AcDbSavedByObjectVersion
1070
     0
  0
VISUALSTYLE
  5
A2
102
{ACAD_REACTORS
330
99
102
}
330
99
100
AcDbVisualStyle
  2
Conceptual
 70
     9
 71
     3
 72
     2
 73
     1
 90
        0
 40
-0.6
 41
-30.0
 62
     5
 63
     7
 74
     2
 91
        2
 64
     7
 65
   257
 75
     1
175
     1
 42
40.0
 92
        8
 66
     7
 43
1.0
 76
     1
 77
     6
 78
     2
 67
     7
 79
     3
170
     0
171
     0
290
     0
174
     0
 93
        1
 44
0.0
173
     0
291
     0
 45
0.0
1001
ACAD
1000
AcDbSavedByObjectVersion
1070
     0
1000
AcDbSavedByObjectVersion
1070
     0
1000
AcDbSavedByObjectVersion
1070
     0
1000
AcDbSavedByObjectVersion
1070
     0
  0
VISUALSTYLE
  5
A4
102
{ACAD_REACTORS
330
99
102
}
330
99
100
AcDbVisualStyle
  2
Dim
 70
    11
 71
     2
 72
     2
 73
     1
 90
        0
 40
-0.6
 41
-30.0
 62
     5
 63
     7
 74
     1
 91
        4
 64
     7
 65
   257
 75
     1
175
     1
 42
1.0
 92
        8
 66
     7
 43
1.0
 76
     1
 77
     6
 78
     2
 67
     7
 79
     5
170
     0
171
     0
290
     0
174
     0
 93
        1
 44
-50.0
173
     0
291
     1
 45
0.0
1001
ACAD
1000
AcDbSavedByObjectVersion
1070
     0
1000
AcDbSavedByObjectVersion
1070
     0
1000
AcDbSavedByObjectVersion
1070
     0
1000
AcDbSavedByObjectVersion
1070
     0
  0
VISUALSTYLE
  5
A8
102
{ACAD_REACTORS
330
99
102
}
330
99
100
AcDbVisualStyle
  2
Facepattern
 70
    15
 71
     2
 72
     2
 73
     1
 90
        0
 40
-0.6
 41
-30.0
 62
     5
 63
     7
 74
     1
 91
        4
 64
     7
 65
   257
 75
     1
175
     1
 42
1.0
 92
        8
 66
     7
 43
1.0
 76
     1
 77
     6
 78
     2
 67
     7
 79
     5
170
     0
171
     0
290
     0
174
     0
 93
        1
 44
0.0
173
     0
291
     1
 45
0.0
1001
ACAD
1000
AcDbSavedByObjectVersion
1070
     0
1000
AcDbSavedByObjectVersion
1070
     0
1000
AcDbSavedByObjectVersion
1070
     0
1000
AcDbSavedByObjectVersion
1070
     0
  0
VISUALSTYLE
  5
9A
102
{ACAD_REACTORS
330
99
102
}
330
99
100
AcDbVisualStyle
  2
Flat
 70
     0
 71
     2
 72
     1
 73
     1
 90
        2
 40
-0.6
 41
30.0
 62
     5
 63
     7
 74
     0
 91
        4
 64
     7
 65
   257
 75
     1
175
     1
 42
1.0
 92
        8
 66
     7
 43
1.0
 76
     1
 77
     6
 78
     2
 67
     7
 79
     5
170
     0
171
     0
290
     0
174
     0
 93
        1
 44
0.0
173
     0
291
     1
 45
0.0
1001
ACAD
1000
AcDbSavedByObjectVersion
1070
     0
1000
AcDbSavedByObjectVersion
1070
     0
1000
AcDbSavedByObjectVersion
1070
     0
1000
AcDbSavedByObjectVersion
1070
     0
  0
VISUALSTYLE
  5
9B
102
{ACAD_REACTORS
330
99
102
}
330
99
100
AcDbVisualStyle
  2
FlatWithEdges
 70
     1
 71
     2
 72
     1
 73
     1
 90
        2
 40
-0.6
 41
30.0
 62
     5
 63
     7
 74
     1
 91
        4
 64
     7
 65
   257
 75
     1
175
     1
 42
1.0
 92
        0
 66
   257
 43
1.0
 76
     1
 77
     6
 78
     2
 67
     7
 79
     5
170
     0
171
     0
290
     0
174
     0
 93
        1
 44
0.0
173
     0
291
     1
 45
0.0
1001
ACAD
1000
AcDbSavedByObjectVersion
1070
     0
1000
AcDbSavedByObjectVersion
1070
     0
1000
AcDbSavedByObjectVersion
1070
     0
1000
AcDbSavedByObjectVersion
1070
     0
  0
VISUALSTYLE
  5
9C
102
{ACAD_REACTORS
330
99
102
}
330
99
100
AcDbVisualStyle
  2
Gouraud
 70
     2
 71
     2
 72
     2
 73
     1
 90
        2
 40
-0.6
 41
30.0
 62
     5
 63
     7
 74
     0
 91
        4
 64
     7
 65
   257
 75
     1
175
     1
 42
1.0
 92
        0
 66
     7
 43
1.0
 76
     1
 77
     6
 78
     2
 67
     7
 79
     5
170
     0
171
     0
290
     0
174
     0
 93
        1
 44
0.0
173
     0
291
     1
 45
0.0
1001
ACAD
1000
AcDbSavedByObjectVersion
1070
     0
1000
AcDbSavedByObjectVersion
1070
     0
1000
AcDbSavedByObjectVersion
1070
     0
1000
AcDbSavedByObjectVersion
1070
     0
  0
VISUALSTYLE
  5
9D
102
{ACAD_REACTORS
330
99
102
}
330
99
100
AcDbVisualStyle
  2
GouraudWithEdges
 70
     3
 71
     2
 72
     2
 73
     1
 90
        2
 40
-0.6
 41
30.0
 62
     5
 63
     7
 74
     1
 91
        4
 64
     7
 65
   257
 75
     1
175
     1
 42
1.0
 92
        0
 66
   257
 43
1.0
 76
     1
 77
     6
 78
     2
 67
     7
 79
     5
170
     0
171
     0
290
     0
174
     0
 93
        1
 44
0.0
173
     0
291
     1
 45
0.0
1001
ACAD
1000
AcDbSavedByObjectVersion
1070
     0
1000
AcDbSavedByObjectVersion
1070
     0
1000
AcDbSavedByObjectVersion
1070
     0
1000
AcDbSavedByObjectVersion
1070
     0
  0
VISUALSTYLE
  5
A7
102
{ACAD_REACTORS
330
99
102
}
330
99
100
AcDbVisualStyle
  2
Linepattern
 70
    14
 71
     2
 72
     2
 73
     1
 90
        0
 40
-0.6
 41
-30.0
 62
     5
 63
     7
 74
     1
 91
        4
 64
     7
 65
   257
 75
     7
175
     7
 42
1.0
 92
        8
 66
     7
 43
1.0
 76
     1
 77
     6
 78
     2
 67
     7
 79
     5
170
     0
171
     0
290
     0
174
     0
 93
        1
 44
0.0
173
     0
291
     1
 45
0.0
1001
ACAD
1000
AcDbSavedByObjectVersion
1070
     0
1000
AcDbSavedByObjectVersion
1070
     0
1000
AcDbSavedByObjectVersion
1070
     0
1000
AcDbSavedByObjectVersion
1070
     0
  0
VISUALSTYLE
  5
A3
102
{ACAD_REACTORS
330
99
102
}
330
99
100
AcDbVisualStyle
  2
Realistic
 70
     8
 71
     2
 72
     2
 73
     1
 90
        0
 40
-0.6
 41
-30.0
 62
     5
 63
     7
 74
     1
 91
        0
 64
     7
 65
   257
 75
     1
175
     1
 42
1.0
 92
        8
 66
     8
 43
1.0
 76
     1
 77
     6
 78
     2
 67
     7
 79
     5
170
     0
171
     0
290
     0
174
     0
 93
       13
 44
0.0
173
     0
291
     0
 45
0.0
1001
ACAD
1000
AcDbSavedByObjectVersion
1070
     0
1000
AcDbSavedByObjectVersion
1070
     0
1000
AcDbSavedByObjectVersion
1070
     0
1000
AcDbSavedByObjectVersion
1070
     0
  0
VISUALSTYLE
  5
A6
102
{ACAD_REACTORS
330
99
102
}
330
99
100
AcDbVisualStyle
  2
Thicken
 70
    13
 71
     2
 72
     2
 73
     1
 90
        0
 40
-0.6
 41
-30.0
 62
     5
 63
     7
 74
     1
 91
        4
 64
     7
 65
   257
 75
     1
175
     1
 42
1.0
 92
       12
 66
     7
 43
1.0
 76
     1
 77
     6
 78
     2
 67
     7
 79
     5
170
     0
171
     0
290
     0
174
     0
 93
        1
 44
0.0
173
     0
291
     1
 45
0.0
1001
ACAD
1000
AcDbSavedByObjectVersion
1070
     0
1000
AcDbSavedByObjectVersion
1070
     0
1000
AcDbSavedByObjectVersion
1070
     0
1000
AcDbSavedByObjectVersion
1070
     0
  0
DICTIONARYVAR
  5
F0
102
{ACAD_REACTORS
330
66
102
}
330
66
100
DictionaryVariables
280
     0
  1
1:1
  0
DICTIONARYVAR
  5
EF
102
{ACAD_REACTORS
330
66
102
}
330
66
100
DictionaryVariables
280
     0
  1
STANDARD
  0
DICTIONARYVAR
  5
89
102
{ACAD_REACTORS
330
66
102
}
330
66
100
DictionaryVariables
280
     0
  1
STANDARD
  0
DICTIONARYVAR
  5
67
102
{ACAD_REACTORS
330
66
102
}
330
66
100
DictionaryVariables
280
     0
  1
2
  0
DICTIONARYVAR
  5
6B
102
{ACAD_REACTORS
330
66
102
}
330
66
100
DictionaryVariables
280
     0
  1
1
  0
DICTIONARYVAR
  5
A53
102
{ACAD_REACTORS
330
66
102
}
330
66
100
DictionaryVariables
280
     0
  1
0
  0
DICTIONARYVAR
  5
A51
102
{ACAD_REACTORS
330
66
102
}
330
66
100
DictionaryVariables
280
     0
  1
2
  0
DICTIONARYVAR
  5
A50
102
{ACAD_REACTORS
330
66
102
}
330
66
100
DictionaryVariables
280
     0
  1
1
  0
DICTIONARYVAR
  5
A52
102
{ACAD_REACTORS
330
66
102
}
330
66
100
DictionaryVariables
280
     0
  1
127
  0
DICTIONARY
  5
B45
330
59
100
AcDbDictionary
280
     1
281
     1
  3
ACAD_XREC_ROUNDTRIP
360
B46
  0
DICTIONARY
  5
B47
330
5E
100
AcDbDictionary
280
     1
281
     1
  3
ACAD_XREC_ROUNDTRIP
360
B48
  0
DICTIONARY
  5
B43
330
22
100
AcDbDictionary
280
     1
281
     1
  3
ACAD_XREC_ROUNDTRIP
360
B44
  0
DICTIONARY
  5
A5F
330
97
100
AcDbDictionary
280
     1
281
     1
  3
ACAD_XREC_ROUNDTRIP
360
A60
  0
DICTIONARY
  5
A5D
330
96
100
AcDbDictionary
280
     1
281
     1
  3
ACAD_XREC_ROUNDTRIP
360
A5E
  0
DICTIONARY
  5
110
330
98
100
AcDbDictionary
280
     1
281
     1
  3
ACAD_XREC_ROUNDTRIP
360
A61
  3
BUMPTILE
360
112
  3
DIFFUSETILE
360
111
  3
OPACITYTILE
360
113
  3
REFLECTIONTILE
360
114
  0
DICTIONARY
  5
104
330
87
100
AcDbDictionary
280
     1
281
     1
  3
ACAD_ROUNDTRIP_2008_TABLESTYLE_CELLSTYLEMAP
360
B41
  3
ACAD_XREC_ROUNDTRIP
360
B49
  0
XRECORD
  5
B46
102
{ACAD_REACTORS
330
B45
102
}
330
B45
100
AcDbXrecord
280
     1
102
SHADEPLOT
 70
     0
102
SHADEPLOTRESLEVEL
 70
     2
102
SHADEPLOTCUSTOMDPI
 70
   300
  0
XRECORD
  5
B48
102
{ACAD_REACTORS
330
B47
102
}
330
B47
100
AcDbXrecord
280
     1
102
SHADEPLOT
 70
     0
102
SHADEPLOTRESLEVEL
 70
     2
102
SHADEPLOTCUSTOMDPI
 70
   300
  0
XRECORD
  5
B44
102
{ACAD_REACTORS
330
B43
102
}
330
B43
100
AcDbXrecord
280
     1
102
SHADEPLOT
 70
     0
102
SHADEPLOTRESLEVEL
 70
     2
102
SHADEPLOTCUSTOMDPI
 70
   300
  0
XRECORD
  5
A60
102
{ACAD_REACTORS
330
A5F
102
}
330
A5F
100
AcDbXrecord
280
     1
102
MATERIAL
148
0.0
149
0.0
149
0.0
 93
        0
 94
      127
282
     0
 72
     1
 77
     1
171
     1
175
     1
179
     1
273
     0
  0
XRECORD
  5
A5E
102
{ACAD_REACTORS
330
A5D
102
}
330
A5D
100
AcDbXrecord
280
     1
102
MATERIAL
148
0.0
149
0.0
149
0.0
 93
        0
 94
      127
282
     0
 72
     1
 77
     1
171
     1
175
     1
179
     1
273
     0
  0
XRECORD
  5
A61
102
{ACAD_REACTORS
330
110
102
}
330
110
100
AcDbXrecord
280
     1
102
MATERIAL
148
0.0
149
0.0
149
0.0
 93
        0
 94
      127
282
     0
 72
     1
 77
     1
171
     1
175
     1
179
     1
273
     0
  0
XRECORD
  5
112
102
{ACAD_REACTORS
330
110
102
}
330
110
100
AcDbXrecord
280
     1
270
     1
271
     1
  0
XRECORD
  5
111
102
{ACAD_REACTORS
330
110
102
}
330
110
100
AcDbXrecord
280
     1
270
     1
271
     1
  0
XRECORD
  5
113
102
{ACAD_REACTORS
330
110
102
}
330
110
100
AcDbXrecord
280
     1
270
     1
271
     1
  0
XRECORD
  5
114
102
{ACAD_REACTORS
330
110
102
}
330
110
100
AcDbXrecord
280
     1
270
     1
271
     1
  0
CELLSTYLEMAP
  5
B41
102
{ACAD_REACTORS
330
104
102
}
330
104
100
AcDbCellStyleMap
 90
        3
300
CELLSTYLE
  1
TABLEFORMAT_BEGIN
 90
        5
170
     1
 91
        0
 92
    32768
 62
   257
 93
        1
300
CONTENTFORMAT
  1
CONTENTFORMAT_BEGIN
 90
        0
 91
        0
 92
      512
 93
        0
300

 40
0.0
140
1.0
 94
        5
 62
     0
340
11
144
0.25
309
CONTENTFORMAT_END
171
     1
301
MARGIN
  1
CELLMARGIN_BEGIN
 40
0.06
 40
0.06
 40
0.06
 40
0.06
 40
0.18
 40
0.18
309
CELLMARGIN_END
 94
        6
 95
        1
302
GRIDFORMAT
  1
GRIDFORMAT_BEGIN
 90
        0
 91
        1
 62
     0
 92
       -2
340
0
 93
        0
 40
0.045
309
GRIDFORMAT_END
 95
        2
302
GRIDFORMAT
  1
GRIDFORMAT_BEGIN
 90
        0
 91
        1
 62
     0
 92
       -2
340
0
 93
        0
 40
0.045
309
GRIDFORMAT_END
 95
        4
302
GRIDFORMAT
  1
GRIDFORMAT_BEGIN
 90
        0
 91
        1
 62
     0
 92
       -2
340
0
 93
        0
 40
0.045
309
GRIDFORMAT_END
 95
        8
302
GRIDFORMAT
  1
GRIDFORMAT_BEGIN
 90
        0
 91
        1
 62
     0
 92
       -2
340
0
 93
        0
 40
0.045
309
GRIDFORMAT_END
 95
       16
302
GRIDFORMAT
  1
GRIDFORMAT_BEGIN
 90
        0
 91
        1
 62
     0
 92
       -2
340
0
 93
        0
 40
0.045
309
GRIDFORMAT_END
 95
       32
302
GRIDFORMAT
  1
GRIDFORMAT_BEGIN
 90
        0
 91
        1
 62
     0
 92
       -2
340
0
 93
        0
 40
0.045
309
GRIDFORMAT_END
309
TABLEFORMAT_END
  1
CELLSTYLE_BEGIN
 90
        1
 91
        1
300
_TITLE
309
CELLSTYLE_END
300
CELLSTYLE
  1
TABLEFORMAT_BEGIN
 90
        5
170
     1
 91
        0
 92
        0
 62
   257
 93
        1
300
CONTENTFORMAT
  1
CONTENTFORMAT_BEGIN
 90
        0
 91
        0
 92
      512
 93
        0
300

 40
0.0
140
1.0
 94
        5
 62
     0
340
11
144
0.18
309
CONTENTFORMAT_END
171
     1
301
MARGIN
  1
CELLMARGIN_BEGIN
 40
0.06
 40
0.06
 40
0.06
 40
0.06
 40
0.18
 40
0.18
309
CELLMARGIN_END
 94
        6
 95
        1
302
GRIDFORMAT
  1
GRIDFORMAT_BEGIN
 90
        0
 91
        1
 62
     0
 92
       -2
340
0
 93
        0
 40
0.045
309
GRIDFORMAT_END
 95
        2
302
GRIDFORMAT
  1
GRIDFORMAT_BEGIN
 90
        0
 91
        1
 62
     0
 92
       -2
340
0
 93
        0
 40
0.045
309
GRIDFORMAT_END
 95
        4
302
GRIDFORMAT
  1
GRIDFORMAT_BEGIN
 90
        0
 91
        1
 62
     0
 92
       -2
340
0
 93
        0
 40
0.045
309
GRIDFORMAT_END
 95
        8
302
GRIDFORMAT
  1
GRIDFORMAT_BEGIN
 90
        0
 91
        1
 62
     0
 92
       -2
340
0
 93
        0
 40
0.045
309
GRIDFORMAT_END
 95
       16
302
GRIDFORMAT
  1
GRIDFORMAT_BEGIN
 90
        0
 91
        1
 62
     0
 92
       -2
340
0
 93
        0
 40
0.045
309
GRIDFORMAT_END
 95
       32
302
GRIDFORMAT
  1
GRIDFORMAT_BEGIN
 90
        0
 91
        1
 62
     0
 92
       -2
340
0
 93
        0
 40
0.045
309
GRIDFORMAT_END
309
TABLEFORMAT_END
  1
CELLSTYLE_BEGIN
 90
        2
 91
        1
300
_HEADER
309
CELLSTYLE_END
300
CELLSTYLE
  1
TABLEFORMAT_BEGIN
 90
        5
170
     1
 91
        0
 92
        0
 62
   257
 93
        1
300
CONTENTFORMAT
  1
CONTENTFORMAT_BEGIN
 90
        0
 91
        0
 92
      512
 93
        0
300

 40
0.0
140
1.0
 94
        2
 62
     0
340
11
144
0.18
309
CONTENTFORMAT_END
171
     1
301
MARGIN
  1
CELLMARGIN_BEGIN
 40
0.06
 40
0.06
 40
0.06
 40
0.06
 40
0.18
 40
0.18
309
CELLMARGIN_END
 94
        6
 95
        1
302
GRIDFORMAT
  1
GRIDFORMAT_BEGIN
 90
        0
 91
        1
 62
     0
 92
       -2
340
0
 93
        0
 40
0.045
309
GRIDFORMAT_END
 95
        2
302
GRIDFORMAT
  1
GRIDFORMAT_BEGIN
 90
        0
 91
        1
 62
     0
 92
       -2
340
0
 93
        0
 40
0.045
309
GRIDFORMAT_END
 95
        4
302
GRIDFORMAT
  1
GRIDFORMAT_BEGIN
 90
        0
 91
        1
 62
     0
 92
       -2
340
0
 93
        0
 40
0.045
309
GRIDFORMAT_END
 95
        8
302
GRIDFORMAT
  1
GRIDFORMAT_BEGIN
 90
        0
 91
        1
 62
     0
 92
       -2
340
0
 93
        0
 40
0.045
309
GRIDFORMAT_END
 95
       16
302
GRIDFORMAT
  1
GRIDFORMAT_BEGIN
 90
        0
 91
        1
 62
     0
 92
       -2
340
0
 93
        0
 40
0.045
309
GRIDFORMAT_END
 95
       32
302
GRIDFORMAT
  1
GRIDFORMAT_BEGIN
 90
        0
 91
        1
 62
     0
 92
       -2
340
0
 93
        0
 40
0.045
309
GRIDFORMAT_END
309
TABLEFORMAT_END
  1
CELLSTYLE_BEGIN
 90
        3
 91
        2
300
_DATA
309
CELLSTYLE_END
  0
XRECORD
  5
B49
102
{ACAD_REACTORS
330
104
102
}
330
104
100
AcDbXrecord
280
     1
102
ACAD_ROUNDTRIP_PRE2007_TABLESTYLE
 90
      512
 91
        0
  1

 92
      512
 93
        0
  2

 94
      512
 95
        0
  3

  0
ENDSEC
  0
EOF
