  0
SECTION
  2
HEADER
  9
$ACADVER
  1
AC1015
  9
$ACADMAINTVER
 70
    20
  9
$DWGCODEPAGE
  3
ANSI_1252
  9
$INSBASE
 10
0.0
 20
0.0
 30
0.0
  9
$EXTMIN
 10
-22.1819151877861
 20
14.43324604593113
 30
-0.0000000000000118
  9
$EXTMAX
 10
332.6191752460145
 20
520.2891896799424
 30
0.0000000000000188
  9
$LIMMIN
 10
0.0
 20
0.0
  9
$LIMMAX
 10
12.0
 20
9.0
  9
$ORTHOMODE
 70
     1
  9
$REGENMODE
 70
     1
  9
$FILLMODE
 70
     1
  9
$QTEXTMODE
 70
     0
  9
$MIRRTEXT
 70
     0
  9
$LTSCALE
 40
1.0
  9
$ATTMODE
 70
     1
  9
$TEXTSIZE
 40
0.2
  9
$TRACEWID
 40
0.05
  9
$TEXTSTYLE
  7
Standard
  9
$CLAYER
  8
0
  9
$CELTYPE
  6
ByLayer
  9
$CECOLOR
 62
   256
  9
$CELTSCALE
 40
1.0
  9
$DISPSILH
 70
     0
  9
$DIMSCALE
 40
1.0
  9
$DIMASZ
 40
0.18
  9
$DIMEXO
 40
0.0625
  9
$DIMDLI
 40
0.38
  9
$DIMRND
 40
0.0
  9
$DIMDLE
 40
0.0
  9
$DIMEXE
 40
0.18
  9
$DIMTP
 40
0.0
  9
$DIMTM
 40
0.0
  9
$DIMTXT
 40
0.18
  9
$DIMCEN
 40
0.09
  9
$DIMTSZ
 40
0.0
  9
$DIMTOL
 70
     0
  9
$DIMLIM
 70
     0
  9
$DIMTIH
 70
     1
  9
$DIMTOH
 70
     1
  9
$DIMSE1
 70
     0
  9
$DIMSE2
 70
     0
  9
$DIMTAD
 70
     0
  9
$DIMZIN
 70
     0
  9
$DIMBLK
  1

  9
$DIMASO
 70
     1
  9
$DIMSHO
 70
     1
  9
$DIMPOST
  1

  9
$DIMAPOST
  1

  9
$DIMALT
 70
     0
  9
$DIMALTD
 70
     2
  9
$DIMALTF
 40
25.4
  9
$DIMLFAC
 40
1.0
  9
$DIMTOFL
 70
     0
  9
$DIMTVP
 40
0.0
  9
$DIMTIX
 70
     0
  9
$DIMSOXD
 70
     0
  9
$DIMSAH
 70
     0
  9
$DIMBLK1
  1

  9
$DIMBLK2
  1

  9
$DIMSTYLE
  2
Standard
  9
$DIMCLRD
 70
     0
  9
$DIMCLRE
 70
     0
  9
$DIMCLRT
 70
     0
  9
$DIMTFAC
 40
1.0
  9
$DIMGAP
 40
0.09
  9
$DIMJUST
 70
     0
  9
$DIMSD1
 70
     0
  9
$DIMSD2
 70
     0
  9
$DIMTOLJ
 70
     1
  9
$DIMTZIN
 70
     0
  9
$DIMALTZ
 70
     0
  9
$DIMALTTZ
 70
     0
  9
$DIMUPT
 70
     0
  9
$DIMDEC
 70
     4
  9
$DIMTDEC
 70
     4
  9
$DIMALTU
 70
     2
  9
$DIMALTTD
 70
     2
  9
$DIMTXSTY
  7
Standard
  9
$DIMAUNIT
 70
     0
  9
$DIMADEC
 70
     0
  9
$DIMALTRND
 40
0.0
  9
$DIMAZIN
 70
     0
  9
$DIMDSEP
 70
    46
  9
$DIMATFIT
 70
     3
  9
$DIMFRAC
 70
     0
  9
$DIMLDRBLK
  1

  9
$DIMLUNIT
 70
     2
  9
$DIMLWD
 70
    -2
  9
$DIMLWE
 70
    -2
  9
$DIMTMOVE
 70
     0
  9
$LUNITS
 70
     2
  9
$LUPREC
 70
     4
  9
$SKETCHINC
 40
0.1
  9
$FILLETRAD
 40
0.0
  9
$AUNITS
 70
     0
  9
$AUPREC
 70
     0
  9
$MENU
  1
.
  9
$ELEVATION
 40
0.0
  9
$PELEVATION
 40
0.0
  9
$THICKNESS
 40
0.0
  9
$LIMCHECK
 70
     0
  9
$CHAMFERA
 40
0.0
  9
$CHAMFERB
 40
0.0
  9
$CHAMFERC
 40
0.0
  9
$CHAMFERD
 40
0.0
  9
$SKPOLY
 70
     0
  9
$TDCREATE
 40
2455289.393064931
  9
$TDUCREATE
 40
2455289.351398264
  9
$TDUPDATE
 40
2455510.743860324
  9
$TDUUPDATE
 40
2455510.702193658
  9
$TDINDWG
 40
0.0025587847
  9
$TDUSRTIMER
 40
0.0025580671
  9
$USRTIMER
 70
     1
  9
$ANGBASE
 50
0.0
  9
$ANGDIR
 70
     0
  9
$PDMODE
 70
     0
  9
$PDSIZE
 40
0.0
  9
$PLINEWID
 40
0.0
  9
$SPLFRAME
 70
     0
  9
$SPLINETYPE
 70
     6
  9
$SPLINESEGS
 70
     8
  9
$HANDSEED
  5
9BB
  9
$SURFTAB1
 70
     6
  9
$SURFTAB2
 70
     6
  9
$SURFTYPE
 70
     6
  9
$SURFU
 70
     6
  9
$SURFV
 70
     6
  9
$UCSBASE
  2

  9
$UCSNAME
  2

  9
$UCSORG
 10
0.0
 20
0.0
 30
0.0
  9
$UCSXDIR
 10
1.0
 20
0.0
 30
0.0
  9
$UCSYDIR
 10
0.0
 20
1.0
 30
0.0
  9
$UCSORTHOREF
  2

  9
$UCSORTHOVIEW
 70
     0
  9
$UCSORGTOP
 10
0.0
 20
0.0
 30
0.0
  9
$UCSORGBOTTOM
 10
0.0
 20
0.0
 30
0.0
  9
$UCSORGLEFT
 10
0.0
 20
0.0
 30
0.0
  9
$UCSORGRIGHT
 10
0.0
 20
0.0
 30
0.0
  9
$UCSORGFRONT
 10
0.0
 20
0.0
 30
0.0
  9
$UCSORGBACK
 10
0.0
 20
0.0
 30
0.0
  9
$PUCSBASE
  2

  9
$PUCSNAME
  2

  9
$PUCSORG
 10
0.0
 20
0.0
 30
0.0
  9
$PUCSXDIR
 10
1.0
 20
0.0
 30
0.0
  9
$PUCSYDIR
 10
0.0
 20
1.0
 30
0.0
  9
$PUCSORTHOREF
  2

  9
$PUCSORTHOVIEW
 70
     0
  9
$PUCSORGTOP
 10
0.0
 20
0.0
 30
0.0
  9
$PUCSORGBOTTOM
 10
0.0
 20
0.0
 30
0.0
  9
$PUCSORGLEFT
 10
0.0
 20
0.0
 30
0.0
  9
$PUCSORGRIGHT
 10
0.0
 20
0.0
 30
0.0
  9
$PUCSORGFRONT
 10
0.0
 20
0.0
 30
0.0
  9
$PUCSORGBACK
 10
0.0
 20
0.0
 30
0.0
  9
$USERI1
 70
     0
  9
$USERI2
 70
     0
  9
$USERI3
 70
     0
  9
$USERI4
 70
     0
  9
$USERI5
 70
     0
  9
$USERR1
 40
0.0
  9
$USERR2
 40
0.0
  9
$USERR3
 40
0.0
  9
$USERR4
 40
0.0
  9
$USERR5
 40
0.0
  9
$WORLDVIEW
 70
     1
  9
$SHADEDGE
 70
     3
  9
$SHADEDIF
 70
    70
  9
$TILEMODE
 70
     1
  9
$MAXACTVP
 70
    64
  9
$PINSBASE
 10
0.0
 20
0.0
 30
0.0
  9
$PLIMCHECK
 70
     0
  9
$PEXTMIN
 10
0.0
 20
0.0
 30
0.0
  9
$PEXTMAX
 10
0.0
 20
0.0
 30
0.0
  9
$PLIMMIN
 10
0.0
 20
0.0
  9
$PLIMMAX
 10
12.0
 20
9.0
  9
$UNITMODE
 70
     0
  9
$VISRETAIN
 70
     1
  9
$PLINEGEN
 70
     0
  9
$PSLTSCALE
 70
     1
  9
$TREEDEPTH
 70
  3020
  9
$CMLSTYLE
  2
Standard
  9
$CMLJUST
 70
     0
  9
$CMLSCALE
 40
1.0
  9
$PROXYGRAPHICS
 70
     1
  9
$MEASUREMENT
 70
     0
  9
$CELWEIGHT
370
    -1
  9
$ENDCAPS
280
     0
  9
$JOINSTYLE
280
     0
  9
$LWDISPLAY
290
     0
  9
$INSUNITS
 70
     1
  9
$HYPERLINKBASE
  1

  9
$STYLESHEET
  1

  9
$XEDIT
290
     1
  9
$CEPSNTYPE
380
     0
  9
$PSTYLEMODE
290
     1
  9
$FINGERPRINTGUID
  2
{9A98F1EF-F107-4F05-BD63-8EE8797C3595}
  9
$VERSIONGUID
  2
{F4DCA128-47B7-418D-98F2-50A85A92C27B}
  9
$EXTNAMES
290
     1
  9
$PSVPSCALE
 40
0.0
  9
$OLESTARTUP
290
     0
  0
ENDSEC
  0
SECTION
  2
CLASSES
  0
CLASS
  1
ACDBDICTIONARYWDFLT
  2
AcDbDictionaryWithDefault
  3
ObjectDBX Classes
 90
        0
280
     0
281
     0
  0
CLASS
  1
ACDBPLACEHOLDER
  2
AcDbPlaceHolder
  3
ObjectDBX Classes
 90
        0
280
     0
281
     0
  0
CLASS
  1
LAYOUT
  2
AcDbLayout
  3
ObjectDBX Classes
 90
        0
280
     0
281
     0
  0
CLASS
  1
DICTIONARYVAR
  2
AcDbDictionaryVar
  3
ObjectDBX Classes
 90
        0
280
     0
281
     0
  0
CLASS
  1
TABLESTYLE
  2
AcDbTableStyle
  3
ObjectDBX Classes
 90
     4095
280
     0
281
     0
  0
CLASS
  1
MATERIAL
  2
AcDbMaterial
  3
ObjectDBX Classes
 90
     1153
280
     0
281
     0
  0
CLASS
  1
VISUALSTYLE
  2
AcDbVisualStyle
  3
ObjectDBX Classes
 90
     4095
280
     0
281
     0
  0
CLASS
  1
SCALE
  2
AcDbScale
  3
ObjectDBX Classes
 90
     1153
280
     0
281
     0
  0
CLASS
  1
MLEADERSTYLE
  2
AcDbMLeaderStyle
  3
ACDB_MLEADERSTYLE_CLASS
 90
     4095
280
     0
281
     0
  0
CLASS
  1
CELLSTYLEMAP
  2
AcDbCellStyleMap
  3
ObjectDBX Classes
 90
     1152
280
     0
281
     0
  0
CLASS
  1
SORTENTSTABLE
  2
AcDbSortentsTable
  3
ObjectDBX Classes
 90
    32768
280
     0
281
     0
  0
ENDSEC
  0
SECTION
  2
TABLES
  0
TABLE
  2
VPORT
  5
8
330
0
100
AcDbSymbolTable
 70
     1
  0
VPORT
  5
94
330
8
100
AcDbSymbolTableRecord
100
AcDbViewportTableRecord
  2
*Active
 70
     0
 10
0.0
 20
0.0
 11
1.0
 21
1.0
 12
253.5917862012423
 22
217.9864981024186
 13
0.0
 23
0.0
 14
0.5
 24
0.5
 15
0.5
 25
0.5
 16
0.0
 26
0.0
 36
1.0
 17
0.0
 27
0.0
 37
0.0
 40
698.6101991750716
 41
1.148760330578512
 42
50.0
 43
0.0
 44
0.0
 50
0.0
 51
0.0
 71
     0
 72
  1000
 73
     1
 74
     3
 75
     0
 76
     0
 77
     0
 78
     0
281
     0
 65
     1
110
0.0
120
0.0
130
0.0
111
1.0
121
0.0
131
0.0
112
0.0
122
1.0
132
0.0
 79
     0
146
0.0
  0
ENDTAB
  0
TABLE
  2
LTYPE
  5
5
330
0
100
AcDbSymbolTable
 70
     1
  0
LTYPE
  5
14
330
5
100
AcDbSymbolTableRecord
100
AcDbLinetypeTableRecord
  2
ByBlock
 70
     0
  3

 72
    65
 73
     0
 40
0.0
  0
LTYPE
  5
15
330
5
100
AcDbSymbolTableRecord
100
AcDbLinetypeTableRecord
  2
ByLayer
 70
     0
  3

 72
    65
 73
     0
 40
0.0
  0
LTYPE
  5
16
330
5
100
AcDbSymbolTableRecord
100
AcDbLinetypeTableRecord
  2
Continuous
 70
     0
  3
Solid line
 72
    65
 73
     0
 40
0.0
  0
ENDTAB
  0
TABLE
  2
LAYER
  5
2
102
{ACAD_XDICTIONARY
360
8D7
102
}
330
0
100
AcDbSymbolTable
 70
     4
  0
LAYER
  5
10
102
{ACAD_XDICTIONARY
360
E6
102
}
330
2
100
AcDbSymbolTableRecord
100
AcDbLayerTableRecord
  2
0
 70
     0
 62
     7
  6
Continuous
370
    -3
390
F
  0
LAYER
  5
14D
102
{ACAD_XDICTIONARY
360
14E
102
}
330
2
100
AcDbSymbolTableRecord
100
AcDbLayerTableRecord
  2
Q
 70
     0
 62
     7
  6
Continuous
370
    -3
390
F
1001
AcAecLayerStandard
1000

1000

  0
LAYER
  5
8D5
330
2
100
AcDbSymbolTableRecord
100
AcDbLayerTableRecord
  2
Defpoints
 70
     0
 62
     7
  6
Continuous
290
     0
370
    -3
390
F
  0
LAYER
  5
8D6
330
2
100
AcDbSymbolTableRecord
100
AcDbLayerTableRecord
  2
QUOTE
 70
     0
 62
     7
  6
Continuous
370
    -3
390
F
1001
AcAecLayerStandard
1000

1000

  0
ENDTAB
  0
TABLE
  2
STYLE
  5
3
330
0
100
AcDbSymbolTable
 70
     2
  0
STYLE
  5
11
330
3
100
AcDbSymbolTableRecord
100
AcDbTextStyleTableRecord
  2
Standard
 70
     0
 40
0.0
 41
1.0
 50
0.0
 71
     0
 42
0.2
  3
txt.shx
  4

  0
STYLE
  5
DC
330
3
100
AcDbSymbolTableRecord
100
AcDbTextStyleTableRecord
  2
Annotativa
 70
     0
 40
0.0
 41
1.0
 50
0.0
 71
     0
 42
0.2
  3
txt.shx
  4

1001
AcadAnnotative
1000
AnnotativeData
1002
{
1070
     1
1070
     1
1002
}
  0
ENDTAB
  0
TABLE
  2
VIEW
  5
6
330
0
100
AcDbSymbolTable
 70
     1
  0
ENDTAB
  0
TABLE
  2
UCS
  5
7
330
0
100
AcDbSymbolTable
 70
     0
  0
ENDTAB
  0
TABLE
  2
APPID
  5
9
330
0
100
AcDbSymbolTable
 70
     7
  0
APPID
  5
12
330
9
100
AcDbSymbolTableRecord
100
AcDbRegAppTableRecord
  2
ACAD
 70
     0
  0
APPID
  5
DD
330
9
100
AcDbSymbolTableRecord
100
AcDbRegAppTableRecord
  2
AcadAnnoPO
 70
     0
  0
APPID
  5
DE
330
9
100
AcDbSymbolTableRecord
100
AcDbRegAppTableRecord
  2
AcadAnnotative
 70
     0
  0
APPID
  5
DF
330
9
100
AcDbSymbolTableRecord
100
AcDbRegAppTableRecord
  2
ACAD_DSTYLE_DIMJAG
 70
     0
  0
APPID
  5
E0
330
9
100
AcDbSymbolTableRecord
100
AcDbRegAppTableRecord
  2
ACAD_DSTYLE_DIMTALN
 70
     0
  0
APPID
  5
107
330
9
100
AcDbSymbolTableRecord
100
AcDbRegAppTableRecord
  2
ACAD_MLEADERVER
 70
     0
  0
APPID
  5
14F
330
9
100
AcDbSymbolTableRecord
100
AcDbRegAppTableRecord
  2
AcAecLayerStandard
 70
     0
  0
ENDTAB
  0
TABLE
  2
DIMSTYLE
  5
A
330
0
100
AcDbSymbolTable
 70
     2
100
AcDbDimStyleTable
 71
     2
340
27
340
E1
  0
DIMSTYLE
105
27
102
{ACAD_REACTORS
330
8E0
330
972
102
}
330
A
100
AcDbSymbolTableRecord
100
AcDbDimStyleTableRecord
  2
Standard
 70
     0
340
11
  0
DIMSTYLE
105
E1
330
A
100
AcDbSymbolTableRecord
100
AcDbDimStyleTableRecord
  2
Annotativa
 70
     0
 40
0.0
340
11
1001
AcadAnnotative
1000
AnnotativeData
1002
{
1070
     1
1070
     1
1002
}
1001
ACAD_DSTYLE_DIMJAG
1070
   388
1040
1.5
1001
ACAD_DSTYLE_DIMTALN
1070
   392
1070
     0
  0
ENDTAB
  0
TABLE
  2
BLOCK_RECORD
  5
1
330
0
100
AcDbSymbolTable
 70
     6
  0
BLOCK_RECORD
  5
1F
330
1
100
AcDbSymbolTableRecord
100
AcDbBlockTableRecord
  2
*Model_Space
340
22
  0
BLOCK_RECORD
  5
58
330
1
100
AcDbSymbolTableRecord
100
AcDbBlockTableRecord
  2
*Paper_Space
340
59
  0
BLOCK_RECORD
  5
5D
330
1
100
AcDbSymbolTableRecord
100
AcDbBlockTableRecord
  2
*Paper_Space0
340
5E
  0
BLOCK_RECORD
  5
8BB
330
1
100
AcDbSymbolTableRecord
100
AcDbBlockTableRecord
  2
*D1
340
0
  0
BLOCK_RECORD
  5
8C8
330
1
100
AcDbSymbolTableRecord
100
AcDbBlockTableRecord
  2
*D2
340
0
  0
BLOCK_RECORD
  5
8E2
330
1
100
AcDbSymbolTableRecord
100
AcDbBlockTableRecord
  2
*D3
340
0
  0
BLOCK_RECORD
  5
8EF
330
1
100
AcDbSymbolTableRecord
100
AcDbBlockTableRecord
  2
*D4
340
0
  0
BLOCK_RECORD
  5
973
330
1
100
AcDbSymbolTableRecord
100
AcDbBlockTableRecord
  2
*D5
340
0
  0
ENDTAB
  0
ENDSEC
  0
SECTION
  2
BLOCKS
  0
BLOCK
  5
20
330
1F
100
AcDbEntity
  8
0
100
AcDbBlockBegin
  2
*Model_Space
 70
     0
 10
0.0
 20
0.0
 30
0.0
  3
*Model_Space
  1

  0
ENDBLK
  5
21
330
1F
100
AcDbEntity
  8
0
100
AcDbBlockEnd
  0
BLOCK
  5
5A
330
58
100
AcDbEntity
 67
     1
  8
0
100
AcDbBlockBegin
  2
*Paper_Space
 70
     0
 10
0.0
 20
0.0
 30
0.0
  3
*Paper_Space
  1

  0
ENDBLK
  5
5B
330
58
100
AcDbEntity
 67
     1
  8
0
100
AcDbBlockEnd
  0
BLOCK
  5
5F
330
5D
100
AcDbEntity
 67
     1
  8
0
100
AcDbBlockBegin
  2
*Paper_Space0
 70
     0
 10
0.0
 20
0.0
 30
0.0
  3
*Paper_Space0
  1

  0
ENDBLK
  5
60
330
5D
100
AcDbEntity
 67
     1
  8
0
100
AcDbBlockEnd
  0
BLOCK
  5
8BC
330
8BB
100
AcDbEntity
  8
0
100
AcDbBlockBegin
  2
*D1
 70
     1
 10
0.0
 20
0.0
 30
0.0
  3
*D1
  1

  0
LINE
  5
8BD
330
8BB
100
AcDbEntity
  8
QUOTE
 62
     7
370
    -2
100
AcDbLine
 10
-107.0805200348571
 20
322.4648743244586
 30
0.0
 11
-147.7820873541619
 21
322.4648743244586
 31
0.0
  0
LINE
  5
8BE
330
8BB
100
AcDbEntity
  8
QUOTE
 62
     7
370
    -2
100
AcDbLine
 10
-109.551247605389
 20
-107.5351256755409
 30
0.0
 11
-147.782087354162
 21
-107.5351256755409
 31
0.0
  0
LINE
  5
8BF
330
8BB
100
AcDbEntity
  8
QUOTE
 62
     7
370
    -2
100
AcDbLine
 10
-147.6020873541619
 20
307.4648743244587
 30
0.0
 11
-147.6020873541619
 21
106.8956934585356
 31
0.0
  0
LINE
  5
8C0
330
8BB
100
AcDbEntity
  8
QUOTE
 62
     7
370
    -2
100
AcDbLine
 10
-147.602087354162
 20
-92.53512567554093
 30
0.0
 11
-147.6020873541619
 21
96.71569345853564
 31
0.0
  0
SOLID
  5
8C1
330
8BB
100
AcDbEntity
  8
QUOTE
 62
     7
100
AcDbTrace
 10
-150.1020873541619
 20
307.4648743244587
 30
0.0
 11
-145.1020873541619
 21
307.4648743244587
 31
0.0
 12
-147.6020873541619
 22
322.4648743244586
 32
0.0
 13
-147.6020873541619
 23
322.4648743244586
 33
0.0
  0
SOLID
  5
8C2
330
8BB
100
AcDbEntity
  8
QUOTE
 62
     7
100
AcDbTrace
 10
-150.102087354162
 20
-92.53512567554093
 30
0.0
 11
-145.102087354162
 21
-92.53512567554093
 31
0.0
 12
-147.602087354162
 22
-107.5351256755409
 32
0.0
 13
-147.602087354162
 23
-107.5351256755409
 33
0.0
  0
MTEXT
  5
8C3
330
8BB
100
AcDbEntity
  8
QUOTE
 62
     7
100
AcDbMText
 10
-147.6020873541619
 20
101.8056934585356
 30
0.0
 40
10.0
 41
0.0
 71
     5
 72
     1
  1
\A1;430
 73
     1
 44
1.0
1001
ACAD
1000
MTEXTBEGIN
1070
    73
1070
     1
1070
    44
1040
1.0
1070
    74
1070
     0
1000
MTEXTEND
  0
POINT
  5
8C4
330
8BB
100
AcDbEntity
  8
Defpoints
 62
     0
100
AcDbPoint
 10
-107.0180200348571
 20
322.4648743244586
 30
0.0
  0
POINT
  5
8C5
330
8BB
100
AcDbEntity
  8
Defpoints
 62
     0
100
AcDbPoint
 10
-109.488747605389
 20
-107.5351256755409
 30
0.0
  0
POINT
  5
8C6
330
8BB
100
AcDbEntity
  8
Defpoints
 62
     0
100
AcDbPoint
 10
-147.602087354162
 20
-107.5351256755409
 30
0.0
  0
ENDBLK
  5
8C7
330
8BB
100
AcDbEntity
  8
0
100
AcDbBlockEnd
  0
BLOCK
  5
8C9
330
8C8
100
AcDbEntity
  8
0
100
AcDbBlockBegin
  2
*D2
 70
     1
 10
0.0
 20
0.0
 30
0.0
  3
*D2
  1

  0
LINE
  5
8CA
330
8C8
100
AcDbEntity
  8
QUOTE
 62
     7
370
    -2
100
AcDbLine
 10
75.5183623946113
 20
-92.59941600788572
 30
0.0
 11
75.5183623946113
 21
-126.6742362736619
 31
0.0
  0
LINE
  5
8CB
330
8C8
100
AcDbEntity
  8
QUOTE
 62
     7
370
    -2
100
AcDbLine
 10
-124.489317605389
 20
-92.53454567554092
 30
0.0
 11
-124.489317605389
 21
-126.6742362736619
 31
0.0
  0
LINE
  5
8CC
330
8C8
100
AcDbEntity
  8
QUOTE
 62
     7
370
    -2
100
AcDbLine
 10
60.5183623946113
 20
-126.4942362736619
 30
0.0
 11
-11.26116932183178
 21
-126.4942362736619
 31
0.0
  0
LINE
  5
8CD
330
8C8
100
AcDbEntity
  8
QUOTE
 62
     7
370
    -2
100
AcDbLine
 10
-109.489317605389
 20
-126.4942362736619
 30
0.0
 11
-34.77450265516512
 21
-126.4942362736619
 31
0.0
  0
SOLID
  5
8CE
330
8C8
100
AcDbEntity
  8
QUOTE
 62
     7
100
AcDbTrace
 10
60.5183623946113
 20
-123.9942362736619
 30
0.0
 11
60.5183623946113
 21
-128.9942362736619
 31
0.0
 12
75.5183623946113
 22
-126.4942362736619
 32
0.0
 13
75.5183623946113
 23
-126.4942362736619
 33
0.0
  0
SOLID
  5
8CF
330
8C8
100
AcDbEntity
  8
QUOTE
 62
     7
100
AcDbTrace
 10
-109.489317605389
 20
-123.9942362736619
 30
0.0
 11
-109.489317605389
 21
-128.9942362736619
 31
0.0
 12
-124.489317605389
 22
-126.4942362736619
 32
0.0
 13
-124.489317605389
 23
-126.4942362736619
 33
0.0
  0
MTEXT
  5
8D0
330
8C8
100
AcDbEntity
  8
QUOTE
 62
     7
100
AcDbMText
 10
-23.01783598849845
 20
-126.4942362736619
 30
0.0
 40
10.0
 41
0.0
 71
     5
 72
     1
  1
\A1;200
 73
     1
 44
1.0
1001
ACAD
1000
MTEXTBEGIN
1070
    73
1070
     1
1070
    44
1040
1.0
1070
    74
1070
     0
1000
MTEXTEND
  0
POINT
  5
8D1
330
8C8
100
AcDbEntity
  8
Defpoints
 62
     0
100
AcDbPoint
 10
75.5183623946113
 20
-92.53691600788574
 30
0.0
  0
POINT
  5
8D2
330
8C8
100
AcDbEntity
  8
Defpoints
 62
     0
100
AcDbPoint
 10
-124.489317605389
 20
-92.47204567554092
 30
0.0
  0
POINT
  5
8D3
330
8C8
100
AcDbEntity
  8
Defpoints
 62
     0
100
AcDbPoint
 10
-124.489317605389
 20
-126.4942362736619
 30
0.0
  0
ENDBLK
  5
8D4
330
8C8
100
AcDbEntity
  8
0
100
AcDbBlockEnd
  0
BLOCK
  5
8E3
330
8E2
100
AcDbEntity
  8
0
100
AcDbBlockBegin
  2
*D3
 70
     1
 10
0.0
 20
0.0
 30
0.0
  3
*D3
  1

  0
LINE
  5
945
330
8E2
100
AcDbEntity
  8
QUOTE
 62
     7
370
    -2
100
AcDbLine
 10
28.54584657304133
 20
255.4407703990828
 30
0.0
 11
-10.6844223379741
 21
255.4407703990828
 31
0.0
  0
LINE
  5
946
330
8E2
100
AcDbEntity
  8
QUOTE
 62
     7
370
    -2
100
AcDbLine
 10
28.54584741079873
 20
14.4962663990827
 30
0.0
 11
-10.68442233797416
 21
14.49626639908271
 31
0.0
  0
LINE
  5
947
330
8E2
100
AcDbEntity
  8
QUOTE
 62
     7
370
    -2
100
AcDbLine
 10
-10.5044223379741
 20
240.4407703990828
 30
0.0
 11
-10.50442233797412
 21
143.397198008577
 31
0.0
  0
LINE
  5
948
330
8E2
100
AcDbEntity
  8
QUOTE
 62
     7
370
    -2
100
AcDbLine
 10
-10.50442233797415
 20
29.49626639908272
 30
0.0
 11
-10.50442233797413
 21
133.217198008577
 31
0.0
  0
SOLID
  5
949
330
8E2
100
AcDbEntity
  8
QUOTE
 62
     7
100
AcDbTrace
 10
-13.0044223379741
 20
240.4407703990828
 30
0.0
 11
-8.004422337974105
 21
240.4407703990828
 31
0.0
 12
-10.5044223379741
 22
255.4407703990828
 32
0.0
 13
-10.5044223379741
 23
255.4407703990828
 33
0.0
  0
SOLID
  5
94A
330
8E2
100
AcDbEntity
  8
QUOTE
 62
     7
100
AcDbTrace
 10
-13.00442233797415
 20
29.49626639908272
 30
0.0
 11
-8.004422337974151
 21
29.49626639908272
 31
0.0
 12
-10.50442233797415
 22
14.49626639908271
 32
0.0
 13
-10.50442233797415
 23
14.49626639908271
 33
0.0
  0
MTEXT
  5
94B
330
8E2
100
AcDbEntity
  8
QUOTE
 62
     7
100
AcDbMText
 10
-10.50442233797415
 20
138.307198008577
 30
0.0
 40
10.0
 41
0.0
 71
     5
 72
     1
  1
\A1;241
 73
     1
 44
1.0
1001
ACAD
1000
MTEXTBEGIN
1070
    73
1070
     1
1070
    44
1040
1.0
1070
    74
1070
     0
1000
MTEXTEND
  0
POINT
  5
94C
330
8E2
100
AcDbEntity
  8
Defpoints
 62
     0
100
AcDbPoint
 10
28.60834657304133
 20
255.4407703990828
 30
0.0
  0
POINT
  5
94D
330
8E2
100
AcDbEntity
  8
Defpoints
 62
     0
100
AcDbPoint
 10
28.60834741079873
 20
14.4962663990827
 30
0.0
  0
POINT
  5
94E
330
8E2
100
AcDbEntity
  8
Defpoints
 62
     0
100
AcDbPoint
 10
-10.50442233797415
 20
14.49626639908271
 30
0.0
  0
ENDBLK
  5
8E4
330
8E2
100
AcDbEntity
  8
0
100
AcDbBlockEnd
  0
BLOCK
  5
8F0
330
8EF
100
AcDbEntity
  8
0
100
AcDbBlockBegin
  2
*D4
 70
     1
 10
0.0
 20
0.0
 30
0.0
  3
*D4
  1

  0
LINE
  5
91A
330
8EF
100
AcDbEntity
  8
QUOTE
 62
     7
370
    -2
100
AcDbLine
 10
212.6160274107991
 20
30.37591367047437
 30
0.0
 11
212.6160274107991
 21
-3.698906595301846
 31
0.0
  0
LINE
  5
91B
330
8EF
100
AcDbEntity
  8
QUOTE
 62
     7
370
    -2
100
AcDbLine
 10
12.60834741079879
 20
30.44078400281919
 30
0.0
 11
12.60834741079879
 21
-3.698906595301846
 31
0.0
  0
LINE
  5
91C
330
8EF
100
AcDbEntity
  8
QUOTE
 62
     7
370
    -2
100
AcDbLine
 10
197.6160274107991
 20
-3.518906595301848
 30
0.0
 11
125.836495694356
 21
-3.518906595301848
 31
0.0
  0
LINE
  5
91D
330
8EF
100
AcDbEntity
  8
QUOTE
 62
     7
370
    -2
100
AcDbLine
 10
27.60834741079879
 20
-3.518906595301848
 30
0.0
 11
102.3231623610227
 21
-3.518906595301848
 31
0.0
  0
SOLID
  5
91E
330
8EF
100
AcDbEntity
  8
QUOTE
 62
     7
100
AcDbTrace
 10
197.6160274107991
 20
-1.018906595301849
 30
0.0
 11
197.6160274107991
 21
-6.018906595301849
 31
0.0
 12
212.6160274107991
 22
-3.518906595301848
 32
0.0
 13
212.6160274107991
 23
-3.518906595301848
 33
0.0
  0
SOLID
  5
91F
330
8EF
100
AcDbEntity
  8
QUOTE
 62
     7
100
AcDbTrace
 10
27.60834741079879
 20
-1.018906595301849
 30
0.0
 11
27.60834741079879
 21
-6.018906595301849
 31
0.0
 12
12.60834741079879
 22
-3.518906595301848
 32
0.0
 13
12.60834741079879
 23
-3.518906595301848
 33
0.0
  0
MTEXT
  5
920
330
8EF
100
AcDbEntity
  8
QUOTE
 62
     7
100
AcDbMText
 10
114.0798290276893
 20
-3.518906595301848
 30
0.0
 40
10.0
 41
0.0
 71
     5
 72
     1
  1
\A1;200
 73
     1
 44
1.0
1001
ACAD
1000
MTEXTBEGIN
1070
    73
1070
     1
1070
    44
1040
1.0
1070
    74
1070
     0
1000
MTEXTEND
  0
POINT
  5
921
330
8EF
100
AcDbEntity
  8
Defpoints
 62
     0
100
AcDbPoint
 10
212.6160274107991
 20
30.43841367047437
 30
0.0
  0
POINT
  5
922
330
8EF
100
AcDbEntity
  8
Defpoints
 62
     0
100
AcDbPoint
 10
12.60834741079879
 20
30.50328400281918
 30
0.0
  0
POINT
  5
923
330
8EF
100
AcDbEntity
  8
Defpoints
 62
     0
100
AcDbPoint
 10
12.60834741079879
 20
-3.518906595301848
 30
0.0
  0
ENDBLK
  5
8F1
330
8EF
100
AcDbEntity
  8
0
100
AcDbBlockEnd
  0
BLOCK
  5
974
330
973
100
AcDbEntity
  8
0
100
AcDbBlockBegin
  2
*D5
 70
     1
 10
0.0
 20
0.0
 30
0.0
  3
*D5
  1

  0
LINE
  5
9A8
330
973
100
AcDbEntity
  8
QUOTE
 62
     7
370
    -2
100
AcDbLine
 10
332.6083474107988
 20
233.21249923684
 30
0.0
 11
332.6083474107988
 21
272.4427681478555
 31
0.0
  0
LINE
  5
9A9
330
973
100
AcDbEntity
  8
QUOTE
 62
     7
370
    -2
100
AcDbLine
 10
12.60834741079873
 20
233.2124983990827
 30
0.0
 11
12.60834741079873
 21
272.4427681478555
 31
0.0
  0
LINE
  5
9AA
330
973
100
AcDbEntity
  8
QUOTE
 62
     7
370
    -2
100
AcDbLine
 10
317.6083474107988
 20
272.2627681478555
 30
0.0
 11
179.0454423464167
 21
272.2627681478555
 31
0.0
  0
LINE
  5
9AB
330
973
100
AcDbEntity
  8
QUOTE
 62
     7
370
    -2
100
AcDbLine
 10
27.60834741079873
 20
272.2627681478555
 30
0.0
 11
153.8654423464167
 21
272.2627681478555
 31
0.0
  0
SOLID
  5
9AC
330
973
100
AcDbEntity
  8
QUOTE
 62
     7
100
AcDbTrace
 10
317.6083474107988
 20
274.7627681478554
 30
0.0
 11
317.6083474107988
 21
269.7627681478555
 31
0.0
 12
332.6083474107988
 22
272.2627681478555
 32
0.0
 13
332.6083474107988
 23
272.2627681478555
 33
0.0
  0
SOLID
  5
9AD
330
973
100
AcDbEntity
  8
QUOTE
 62
     7
100
AcDbTrace
 10
27.60834741079873
 20
274.7627681478554
 30
0.0
 11
27.60834741079873
 21
269.7627681478555
 31
0.0
 12
12.60834741079873
 22
272.2627681478555
 32
0.0
 13
12.60834741079873
 23
272.2627681478555
 33
0.0
  0
MTEXT
  5
9AE
330
973
100
AcDbEntity
  8
QUOTE
 62
     7
100
AcDbMText
 10
166.4554423464167
 20
272.2627681478555
 30
0.0
 40
10.0
 41
0.0
 71
     5
 72
     1
  1
\A1;320
 73
     1
 44
1.0
1001
ACAD
1000
MTEXTBEGIN
1070
    73
1070
     1
1070
    44
1040
1.0
1070
    74
1070
     0
1000
MTEXTEND
  0
POINT
  5
9AF
330
973
100
AcDbEntity
  8
Defpoints
 62
     0
100
AcDbPoint
 10
332.6083474107988
 20
233.14999923684
 30
0.0
  0
POINT
  5
9B0
330
973
100
AcDbEntity
  8
Defpoints
 62
     0
100
AcDbPoint
 10
12.60834741079873
 20
233.1499983990827
 30
0.0
  0
POINT
  5
9B1
330
973
100
AcDbEntity
  8
Defpoints
 62
     0
100
AcDbPoint
 10
12.60834741079873
 20
272.2627681478555
 30
0.0
  0
ENDBLK
  5
975
330
973
100
AcDbEntity
  8
0
100
AcDbBlockEnd
  0
ENDSEC
  0
SECTION
  2
ENTITIES
  0
LINE
  5
4F5
330
1F
100
AcDbEntity
  8
0
 62
     7
 48
0.059245
370
    13
100
AcDbLine
 10
326.7111914107988
 20
43.13809639908273
 30
0.0
 11
329.0809734107988
 21
43.13809639908273
 31
0.0
  0
LINE
  5
4F6
330
1F
100
AcDbEntity
  8
0
 62
     7
 48
0.059245
370
    13
100
AcDbLine
 10
18.50550341079872
 20
43.13809639908273
 30
0.0
 11
16.13572141079874
 21
43.13809639908273
 31
0.0
  0
LINE
  5
4F7
330
1F
100
AcDbEntity
  8
0
 62
     7
 48
0.059245
370
    13
100
AcDbLine
 10
18.50550341079872
 20
226.7434743990826
 30
0.0
 11
16.13572141079874
 21
226.7434743990826
 31
0.0
  0
LINE
  5
4F8
330
1F
100
AcDbEntity
  8
0
 62
     7
 48
0.059245
370
    13
100
AcDbLine
 10
326.7111914107988
 20
226.7434743990826
 30
0.0
 11
329.0809734107988
 21
226.7434743990826
 31
0.0
  0
LINE
  5
4F9
330
1F
100
AcDbEntity
  8
0
 62
     7
 48
0.001961
370
    35
100
AcDbLine
 10
332.6083474107988
 20
233.2124983990827
 30
0.0
 11
332.5528664107988
 21
233.2679493990827
 31
0.0
  0
POLYLINE
  5
4FA
330
1F
100
AcDbEntity
  8
0
 62
     7
370
    35
100
AcDb2dPolyline
 66
     1
 10
0.0
 20
0.0
 30
0.0
  0
VERTEX
  5
4FB
330
4FA
100
AcDbEntity
  8
0
370
     0
100
AcDbVertex
100
AcDb2dVertex
 10
332.5528664107988
 20
233.2679493990827
 30
0.0
  0
VERTEX
  5
4FC
330
4FA
100
AcDbEntity
  8
0
370
     0
100
AcDbVertex
100
AcDb2dVertex
 10
332.5485334107988
 20
233.2689563990828
 30
0.0
  0
VERTEX
  5
4FD
330
4FA
100
AcDbEntity
  8
0
370
     0
100
AcDbVertex
100
AcDb2dVertex
 10
332.5198464107988
 20
233.2709703990827
 30
0.0
  0
VERTEX
  5
4FE
330
4FA
100
AcDbEntity
  8
0
370
     0
100
AcDbVertex
100
AcDb2dVertex
 10
331.5529274107987
 20
233.2829333990828
 30
0.0
  0
SEQEND
  5
4FF
330
4FA
100
AcDbEntity
  8
0
370
     0
  0
LINE
  5
500
330
1F
100
AcDbEntity
  8
0
 62
     7
 48
0.036802
370
    35
100
AcDbLine
 10
330.0808814107988
 20
233.2903493990826
 30
0.0
 11
331.5529274107987
 21
233.2829333990828
 31
0.0
  0
POLYLINE
  5
501
330
1F
100
AcDbEntity
  8
0
 62
     7
370
    35
100
AcDb2dPolyline
 66
     1
 10
0.0
 20
0.0
 30
0.0
  0
VERTEX
  5
502
330
501
100
AcDbEntity
  8
0
370
     0
100
AcDbVertex
100
AcDb2dVertex
 10
330.0808814107988
 20
233.2903493990826
 30
0.0
  0
VERTEX
  5
503
330
501
100
AcDbEntity
  8
0
370
     0
100
AcDbVertex
100
AcDb2dVertex
 10
329.1137494107987
 20
233.3023113990827
 30
0.0
  0
VERTEX
  5
504
330
501
100
AcDbEntity
  8
0
370
     0
100
AcDbVertex
100
AcDb2dVertex
 10
329.0852764107988
 20
233.3042953990827
 30
0.0
  0
VERTEX
  5
505
330
501
100
AcDbEntity
  8
0
370
     0
100
AcDbVertex
100
AcDb2dVertex
 10
329.0809734107988
 20
233.3053023990828
 30
0.0
  0
SEQEND
  5
506
330
501
100
AcDbEntity
  8
0
370
     0
  0
LINE
  5
507
330
1F
100
AcDbEntity
  8
0
 62
     7
 48
0.001287
370
    35
100
AcDbLine
 10
329.0445654107988
 20
233.3417103990827
 30
0.0
 11
329.0809734107988
 21
233.3053023990828
 31
0.0
  0
POLYLINE
  5
508
330
1F
100
AcDbEntity
  8
0
 62
     7
370
    35
100
AcDb2dPolyline
 66
     1
 10
0.0
 20
0.0
 30
0.0
  0
VERTEX
  5
509
330
508
100
AcDbEntity
  8
0
370
     0
100
AcDbVertex
100
AcDb2dVertex
 10
327.4462994107986
 20
245.5398303990827
 30
0.0
  0
VERTEX
  5
50A
330
508
100
AcDbEntity
  8
0
370
     0
100
AcDbVertex
100
AcDb2dVertex
 10
327.4469094107988
 20
245.5366863990827
 30
0.0
  0
VERTEX
  5
50B
330
508
100
AcDbEntity
  8
0
370
     0
100
AcDbVertex
100
AcDb2dVertex
 10
327.4518534107988
 20
245.5237473990828
 30
0.0
  0
VERTEX
  5
50C
330
508
100
AcDbEntity
  8
0
370
     0
100
AcDbVertex
100
AcDb2dVertex
 10
327.4955544107988
 20
245.4327743990828
 30
0.0
  0
VERTEX
  5
50D
330
508
100
AcDbEntity
  8
0
370
     0
100
AcDbVertex
100
AcDb2dVertex
 10
327.8271894107988
 20
244.7482043990828
 30
0.0
  0
VERTEX
  5
50E
330
508
100
AcDbEntity
  8
0
370
     0
100
AcDbVertex
100
AcDb2dVertex
 10
328.1395974107988
 20
244.0055593990828
 30
0.0
  0
VERTEX
  5
50F
330
508
100
AcDbEntity
  8
0
370
     0
100
AcDbVertex
100
AcDb2dVertex
 10
328.4489844107988
 20
243.1050763990827
 30
0.0
  0
VERTEX
  5
510
330
508
100
AcDbEntity
  8
0
370
     0
100
AcDbVertex
100
AcDb2dVertex
 10
328.5885114107988
 20
242.6077013990828
 30
0.0
  0
VERTEX
  5
511
330
508
100
AcDbEntity
  8
0
370
     0
100
AcDbVertex
100
AcDb2dVertex
 10
328.7121684107987
 20
242.0845083990827
 30
0.0
  0
VERTEX
  5
512
330
508
100
AcDbEntity
  8
0
370
     0
100
AcDbVertex
100
AcDb2dVertex
 10
328.8643594107988
 20
241.2324873990828
 30
0.0
  0
VERTEX
  5
513
330
508
100
AcDbEntity
  8
0
370
     0
100
AcDbVertex
100
AcDb2dVertex
 10
328.9597884107988
 20
240.3455243990828
 30
0.0
  0
VERTEX
  5
514
330
508
100
AcDbEntity
  8
0
370
     0
100
AcDbVertex
100
AcDb2dVertex
 10
328.9922584107988
 20
239.4407703990828
 30
0.0
  0
SEQEND
  5
515
330
508
100
AcDbEntity
  8
0
370
     0
  0
POLYLINE
  5
516
330
1F
100
AcDbEntity
  8
0
 62
     7
370
    35
100
AcDb2dPolyline
 66
     1
 10
0.0
 20
0.0
 30
0.0
  0
VERTEX
  5
517
330
516
100
AcDbEntity
  8
0
370
     0
100
AcDbVertex
100
AcDb2dVertex
 10
328.9922584107988
 20
239.4407703990828
 30
0.0
  0
VERTEX
  5
518
330
516
100
AcDbEntity
  8
0
370
     0
100
AcDbVertex
100
AcDb2dVertex
 10
328.9996134107988
 20
236.3517193990828
 30
0.0
  0
VERTEX
  5
519
330
516
100
AcDbEntity
  8
0
370
     0
100
AcDbVertex
100
AcDb2dVertex
 10
329.0196024107987
 20
234.1127363990827
 30
0.0
  0
VERTEX
  5
51A
330
516
100
AcDbEntity
  8
0
370
     0
100
AcDbVertex
100
AcDb2dVertex
 10
329.0359294107988
 20
233.4405873990827
 30
0.0
  0
VERTEX
  5
51B
330
516
100
AcDbEntity
  8
0
370
     0
100
AcDbVertex
100
AcDb2dVertex
 10
329.0416974107988
 20
233.3565723990827
 30
0.0
  0
VERTEX
  5
51C
330
516
100
AcDbEntity
  8
0
370
     0
100
AcDbVertex
100
AcDb2dVertex
 10
329.0436194107988
 20
233.3446393990826
 30
0.0
  0
VERTEX
  5
51D
330
516
100
AcDbEntity
  8
0
370
     0
100
AcDbVertex
100
AcDb2dVertex
 10
329.0445654107988
 20
233.3417103990827
 30
0.0
  0
SEQEND
  5
51E
330
516
100
AcDbEntity
  8
0
370
     0
  0
LINE
  5
51F
330
1F
100
AcDbEntity
  8
0
 62
     7
370
    35
100
AcDbLine
 10
332.6083474107988
 20
233.2124983990827
 30
0.0
 11
332.6083474107988
 21
36.66907239908275
 31
0.0
  0
LINE
  5
520
330
1F
100
AcDbEntity
  8
0
 62
     7
 48
0.001962
370
    35
100
AcDbLine
 10
332.6083474107988
 20
36.66907239908275
 30
0.0
 11
332.5528664107988
 21
36.61359139908269
 31
0.0
  0
POLYLINE
  5
521
330
1F
100
AcDbEntity
  8
0
 62
     7
370
    35
100
AcDb2dPolyline
 66
     1
 10
0.0
 20
0.0
 30
0.0
  0
VERTEX
  5
522
330
521
100
AcDbEntity
  8
0
370
     0
100
AcDbVertex
100
AcDb2dVertex
 10
332.5528664107988
 20
36.61359139908269
 30
0.0
  0
VERTEX
  5
523
330
521
100
AcDbEntity
  8
0
370
     0
100
AcDbVertex
100
AcDb2dVertex
 10
332.5485334107988
 20
36.61258439908279
 30
0.0
  0
VERTEX
  5
524
330
521
100
AcDbEntity
  8
0
370
     0
100
AcDbVertex
100
AcDb2dVertex
 10
332.5198464107988
 20
36.61058539908272
 30
0.0
  0
VERTEX
  5
525
330
521
100
AcDbEntity
  8
0
370
     0
100
AcDbVertex
100
AcDb2dVertex
 10
331.5529274107987
 20
36.59863739908276
 30
0.0
  0
SEQEND
  5
526
330
521
100
AcDbEntity
  8
0
370
     0
  0
LINE
  5
527
330
1F
100
AcDbEntity
  8
0
 62
     7
 48
0.036802
370
    35
100
AcDbLine
 10
330.0808814107988
 20
36.59122139908273
 30
0.0
 11
331.5529274107987
 21
36.59863739908276
 31
0.0
  0
POLYLINE
  5
528
330
1F
100
AcDbEntity
  8
0
 62
     7
370
    35
100
AcDb2dPolyline
 66
     1
 10
0.0
 20
0.0
 30
0.0
  0
VERTEX
  5
529
330
528
100
AcDbEntity
  8
0
370
     0
100
AcDbVertex
100
AcDb2dVertex
 10
330.0808814107988
 20
36.59122139908273
 30
0.0
  0
VERTEX
  5
52A
330
528
100
AcDbEntity
  8
0
370
     0
100
AcDbVertex
100
AcDb2dVertex
 10
329.1137494107987
 20
36.57924339908273
 30
0.0
  0
VERTEX
  5
52B
330
528
100
AcDbEntity
  8
0
370
     0
100
AcDbVertex
100
AcDb2dVertex
 10
329.0852764107988
 20
36.57726039908272
 30
0.0
  0
VERTEX
  5
52C
330
528
100
AcDbEntity
  8
0
370
     0
100
AcDbVertex
100
AcDb2dVertex
 10
329.0809734107988
 20
36.57625339908277
 30
0.0
  0
SEQEND
  5
52D
330
528
100
AcDbEntity
  8
0
370
     0
  0
LINE
  5
52E
330
1F
100
AcDbEntity
  8
0
 62
     7
370
    35
100
AcDbLine
 10
329.0809734107988
 20
36.57625339908277
 30
0.0
 11
329.0809734107988
 21
233.3053023990828
 31
0.0
  0
LINE
  5
52F
330
1F
100
AcDbEntity
  8
0
 62
     7
 48
0.001287
370
    35
100
AcDbLine
 10
329.0445654107988
 20
36.53986039908268
 30
0.0
 11
329.0809734107988
 21
36.57625339908277
 31
0.0
  0
POLYLINE
  5
530
330
1F
100
AcDbEntity
  8
0
 62
     7
370
    35
100
AcDb2dPolyline
 66
     1
 10
0.0
 20
0.0
 30
0.0
  0
VERTEX
  5
531
330
530
100
AcDbEntity
  8
0
370
     0
100
AcDbVertex
100
AcDb2dVertex
 10
328.9922584107988
 20
30.44078539908272
 30
0.0
  0
VERTEX
  5
532
330
530
100
AcDbEntity
  8
0
370
     0
100
AcDbVertex
100
AcDb2dVertex
 10
328.9996134107988
 20
33.52985139908272
 30
0.0
  0
VERTEX
  5
533
330
530
100
AcDbEntity
  8
0
370
     0
100
AcDbVertex
100
AcDb2dVertex
 10
329.0196024107987
 20
35.76883439908279
 30
0.0
  0
VERTEX
  5
534
330
530
100
AcDbEntity
  8
0
370
     0
100
AcDbVertex
100
AcDb2dVertex
 10
329.0359294107988
 20
36.44096839908276
 30
0.0
  0
VERTEX
  5
535
330
530
100
AcDbEntity
  8
0
370
     0
100
AcDbVertex
100
AcDb2dVertex
 10
329.0416974107988
 20
36.52496839908277
 30
0.0
  0
VERTEX
  5
536
330
530
100
AcDbEntity
  8
0
370
     0
100
AcDbVertex
100
AcDb2dVertex
 10
329.0436194107988
 20
36.53691539908273
 30
0.0
  0
VERTEX
  5
537
330
530
100
AcDbEntity
  8
0
370
     0
100
AcDbVertex
100
AcDb2dVertex
 10
329.0445654107988
 20
36.53986039908268
 30
0.0
  0
SEQEND
  5
538
330
530
100
AcDbEntity
  8
0
370
     0
  0
LINE
  5
539
330
1F
100
AcDbEntity
  8
0
 62
     7
 48
0.001027
370
    35
100
AcDbLine
 10
327.4468484107988
 20
245.5407763990828
 30
0.0
 11
327.4675704107988
 21
245.5762373990828
 31
0.0
  0
LINE
  5
53A
330
1F
100
AcDbEntity
  8
0
 62
     7
 48
0.000027
370
    35
100
AcDbLine
 10
327.4468484107988
 20
245.5407763990828
 30
0.0
 11
327.4462994107986
 21
245.5398303990827
 31
0.0
  0
ARC
  5
53B
330
1F
100
AcDbEntity
  8
0
 62
     7
370
    35
100
AcDbCircle
 10
316.6083474107987
 20
239.4407703990828
 30
0.0
 40
12.472632
100
AcDbArc
 50
29.4664810000009
 51
90.00000299999769
  0
POLYLINE
  5
53C
330
1F
100
AcDbEntity
  8
0
 62
     7
370
    35
100
AcDb2dPolyline
 66
     1
 10
0.0
 20
0.0
 30
0.0
  0
VERTEX
  5
53D
330
53C
100
AcDbEntity
  8
0
370
     0
100
AcDbVertex
100
AcDb2dVertex
 10
327.4675704107988
 20
245.5762373990828
 30
0.0
  0
VERTEX
  5
53E
330
53C
100
AcDbEntity
  8
0
370
     0
100
AcDbVertex
100
AcDb2dVertex
 10
327.4705304107988
 20
245.5770613990828
 30
0.0
  0
VERTEX
  5
53F
330
53C
100
AcDbEntity
  8
0
370
     0
100
AcDbVertex
100
AcDb2dVertex
 10
327.4913434107987
 20
245.5786483990827
 30
0.0
  0
VERTEX
  5
540
330
53C
100
AcDbEntity
  8
0
370
     0
100
AcDbVertex
100
AcDb2dVertex
 10
327.6666664107988
 20
245.5832563990828
 30
0.0
  0
VERTEX
  5
541
330
53C
100
AcDbEntity
  8
0
370
     0
100
AcDbVertex
100
AcDb2dVertex
 10
328.5951034107987
 20
245.5911913990828
 30
0.0
  0
SEQEND
  5
542
330
53C
100
AcDbEntity
  8
0
370
     0
  0
LINE
  5
543
330
1F
100
AcDbEntity
  8
0
 62
     7
 48
0.040756
370
    35
100
AcDbLine
 10
328.5951034107987
 20
245.5911913990828
 30
0.0
 11
330.2253214107988
 21
245.5986073990828
 31
0.0
  0
POLYLINE
  5
544
330
1F
100
AcDbEntity
  8
0
 62
     7
370
    35
100
AcDb2dPolyline
 66
     1
 10
0.0
 20
0.0
 30
0.0
  0
VERTEX
  5
545
330
544
100
AcDbEntity
  8
0
370
     0
100
AcDbVertex
100
AcDb2dVertex
 10
330.2253214107988
 20
245.5986073990828
 30
0.0
  0
VERTEX
  5
546
330
544
100
AcDbEntity
  8
0
370
     0
100
AcDbVertex
100
AcDb2dVertex
 10
331.0214334107988
 20
245.6049853990827
 30
0.0
  0
VERTEX
  5
547
330
544
100
AcDbEntity
  8
0
370
     0
100
AcDbVertex
100
AcDb2dVertex
 10
331.2979834107988
 20
245.6118823990827
 30
0.0
  0
VERTEX
  5
548
330
544
100
AcDbEntity
  8
0
370
     0
100
AcDbVertex
100
AcDb2dVertex
 10
331.3079934107987
 20
245.6130113990827
 30
0.0
  0
VERTEX
  5
549
330
544
100
AcDbEntity
  8
0
370
     0
100
AcDbVertex
100
AcDb2dVertex
 10
331.3095194107987
 20
245.6135913990827
 30
0.0
  0
SEQEND
  5
54A
330
544
100
AcDbEntity
  8
0
370
     0
  0
LINE
  5
54B
330
1F
100
AcDbEntity
  8
0
 62
     7
 48
0.001664
370
    35
100
AcDbLine
 10
331.3095194107987
 20
245.6135913990827
 30
0.0
 11
331.3463234107988
 21
245.6690413990828
 31
0.0
  0
POLYLINE
  5
54C
330
1F
100
AcDbEntity
  8
0
 62
     7
370
    35
100
AcDb2dPolyline
 66
     1
 10
0.0
 20
0.0
 30
0.0
  0
VERTEX
  5
54D
330
54C
100
AcDbEntity
  8
0
370
     0
100
AcDbVertex
100
AcDb2dVertex
 10
327.4462994107986
 20
24.34171039908269
 30
0.0
  0
VERTEX
  5
54E
330
54C
100
AcDbEntity
  8
0
370
     0
100
AcDbVertex
100
AcDb2dVertex
 10
327.4469094107988
 20
24.34485339908277
 30
0.0
  0
VERTEX
  5
54F
330
54C
100
AcDbEntity
  8
0
370
     0
100
AcDbVertex
100
AcDb2dVertex
 10
327.4518534107988
 20
24.35779239908273
 30
0.0
  0
VERTEX
  5
550
330
54C
100
AcDbEntity
  8
0
370
     0
100
AcDbVertex
100
AcDb2dVertex
 10
327.4955544107988
 20
24.44878139908276
 30
0.0
  0
VERTEX
  5
551
330
54C
100
AcDbEntity
  8
0
370
     0
100
AcDbVertex
100
AcDb2dVertex
 10
327.8271894107988
 20
25.13336639908273
 30
0.0
  0
VERTEX
  5
552
330
54C
100
AcDbEntity
  8
0
370
     0
100
AcDbVertex
100
AcDb2dVertex
 10
328.1395974107988
 20
25.87599639908269
 30
0.0
  0
VERTEX
  5
553
330
54C
100
AcDbEntity
  8
0
370
     0
100
AcDbVertex
100
AcDb2dVertex
 10
328.4489844107988
 20
26.77646339908269
 30
0.0
  0
VERTEX
  5
554
330
54C
100
AcDbEntity
  8
0
370
     0
100
AcDbVertex
100
AcDb2dVertex
 10
328.5885114107988
 20
27.27385439908274
 30
0.0
  0
VERTEX
  5
555
330
54C
100
AcDbEntity
  8
0
370
     0
100
AcDbVertex
100
AcDb2dVertex
 10
328.7121684107987
 20
27.79704739908273
 30
0.0
  0
VERTEX
  5
556
330
54C
100
AcDbEntity
  8
0
370
     0
100
AcDbVertex
100
AcDb2dVertex
 10
328.8643594107988
 20
28.64908339908273
 30
0.0
  0
VERTEX
  5
557
330
54C
100
AcDbEntity
  8
0
370
     0
100
AcDbVertex
100
AcDb2dVertex
 10
328.9597884107988
 20
29.53603039908269
 30
0.0
  0
VERTEX
  5
558
330
54C
100
AcDbEntity
  8
0
370
     0
100
AcDbVertex
100
AcDb2dVertex
 10
328.9922584107988
 20
30.44078539908272
 30
0.0
  0
SEQEND
  5
559
330
54C
100
AcDbEntity
  8
0
370
     0
  0
LINE
  5
55A
330
1F
100
AcDbEntity
  8
0
 62
     7
 48
0.000027
370
    35
100
AcDbLine
 10
327.4468484107988
 20
24.34077939908271
 30
0.0
 11
327.4462994107986
 21
24.34171039908269
 31
0.0
  0
LINE
  5
55B
330
1F
100
AcDbEntity
  8
0
 62
     7
 48
0.001027
370
    35
100
AcDbLine
 10
327.4675704107988
 20
24.30531739908272
 30
0.0
 11
327.4468484107988
 21
24.34077939908271
 31
0.0
  0
ARC
  5
55C
330
1F
100
AcDbEntity
  8
0
 62
     7
370
    35
100
AcDbCircle
 10
316.6083474107987
 20
30.44078539908272
 30
0.0
 40
12.472632
100
AcDbArc
 50
269.9999970000023
 51
330.5335189999991
  0
LINE
  5
55D
330
1F
100
AcDbEntity
  8
0
 62
     7
370
    35
100
AcDbLine
 10
28.60834741079873
 20
251.9133953990827
 30
0.0
 11
316.6083474107987
 21
251.9133953990827
 31
0.0
  0
LINE
  5
55E
330
1F
100
AcDbEntity
  8
0
 62
     7
 48
0.024998
370
    35
100
AcDbLine
 10
316.6083474107987
 20
252.9133343990828
 30
0.0
 11
316.6083474107987
 21
251.9133953990827
 31
0.0
  0
LINE
  5
55F
330
1F
100
AcDbEntity
  8
0
 62
     7
 48
0.036801
370
    35
100
AcDbLine
 10
316.6083474107987
 20
252.9133343990828
 30
0.0
 11
316.6083474107987
 21
254.3853803990828
 31
0.0
  0
LINE
  5
560
330
1F
100
AcDbEntity
  8
0
 62
     7
 48
0.024998
370
    35
100
AcDbLine
 10
316.6083474107987
 20
254.3853803990828
 30
0.0
 11
316.6083474107987
 21
255.3852893990828
 31
0.0
  0
LINE
  5
561
330
1F
100
AcDbEntity
  8
0
 62
     7
 48
0.001387
370
    35
100
AcDbLine
 10
316.6083474107987
 20
255.3852893990828
 30
0.0
 11
316.6083474107987
 21
255.4407703990827
 31
0.0
  0
ARC
  5
562
330
1F
100
AcDbEntity
  8
0
 62
     7
370
    35
100
AcDbCircle
 10
316.6083474107987
 20
239.4407703990828
 30
0.0
 40
16.0
100
AcDbArc
 50
22.90894799999973
 51
90.00000299999769
  0
ARC
  5
563
330
1F
100
AcDbEntity
  8
0
 62
     7
370
    35
100
AcDbCircle
 10
28.60834741079873
 20
239.4407703990828
 30
0.0
 40
16.0
100
AcDbArc
 50
90.00000299999769
 51
157.0910590000006
  0
LINE
  5
564
330
1F
100
AcDbEntity
  8
0
 62
     7
370
    35
100
AcDbLine
 10
316.6083474107987
 20
255.4407703990827
 30
0.0
 11
28.60834741079873
 21
255.4407703990827
 31
0.0
  0
LINE
  5
565
330
1F
100
AcDbEntity
  8
0
 62
     7
370
    13
100
AcDbLine
 10
326.7111914107988
 20
226.7434743990826
 30
0.0
 11
18.50550341079872
 21
226.7434743990826
 31
0.0
  0
POLYLINE
  5
566
330
1F
100
AcDbEntity
  8
0
 62
     7
370
    35
100
AcDb2dPolyline
 66
     1
 10
0.0
 20
0.0
 30
0.0
  0
VERTEX
  5
567
330
566
100
AcDbEntity
  8
0
370
     0
100
AcDbVertex
100
AcDb2dVertex
 10
33.04526741079872
 20
247.5625043990828
 30
0.0
  0
VERTEX
  5
568
330
566
100
AcDbEntity
  8
0
370
     0
100
AcDbVertex
100
AcDb2dVertex
 10
32.33970141079873
 20
247.9048203990828
 30
0.0
  0
VERTEX
  5
569
330
566
100
AcDbEntity
  8
0
370
     0
100
AcDbVertex
100
AcDb2dVertex
 10
31.60756941079877
 20
248.1868333990828
 30
0.0
  0
VERTEX
  5
56A
330
566
100
AcDbEntity
  8
0
370
     0
100
AcDbVertex
100
AcDb2dVertex
 10
30.85398341079871
 20
248.4065603990828
 30
0.0
  0
VERTEX
  5
56B
330
566
100
AcDbEntity
  8
0
370
     0
100
AcDbVertex
100
AcDb2dVertex
 10
30.08428441079877
 20
248.5625043990828
 30
0.0
  0
VERTEX
  5
56C
330
566
100
AcDbEntity
  8
0
370
     0
100
AcDbVertex
100
AcDb2dVertex
 10
29.30391941079871
 20
248.6534773990828
 30
0.0
  0
VERTEX
  5
56D
330
566
100
AcDbEntity
  8
0
370
     0
100
AcDbVertex
100
AcDb2dVertex
 10
28.51848841079868
 20
248.6788683990828
 30
0.0
  0
VERTEX
  5
56E
330
566
100
AcDbEntity
  8
0
370
     0
100
AcDbVertex
100
AcDb2dVertex
 10
27.73368341079879
 20
248.6384323990828
 30
0.0
  0
VERTEX
  5
56F
330
566
100
AcDbEntity
  8
0
370
     0
100
AcDbVertex
100
AcDb2dVertex
 10
26.90839641079879
 20
248.5240223990828
 30
0.0
  0
VERTEX
  5
570
330
566
100
AcDbEntity
  8
0
370
     0
100
AcDbVertex
100
AcDb2dVertex
 10
26.09693441079878
 20
248.3368883990827
 30
0.0
  0
VERTEX
  5
571
330
566
100
AcDbEntity
  8
0
370
     0
100
AcDbVertex
100
AcDb2dVertex
 10
25.30575041079874
 20
248.0785263990828
 30
0.0
  0
VERTEX
  5
572
330
566
100
AcDbEntity
  8
0
370
     0
100
AcDbVertex
100
AcDb2dVertex
 10
24.54108641079872
 20
247.7509813990827
 30
0.0
  0
VERTEX
  5
573
330
566
100
AcDbEntity
  8
0
370
     0
100
AcDbVertex
100
AcDb2dVertex
 10
23.80892441079868
 20
247.3567853990827
 30
0.0
  0
VERTEX
  5
574
330
566
100
AcDbEntity
  8
0
370
     0
100
AcDbVertex
100
AcDb2dVertex
 10
23.11495441079876
 20
246.8989613990828
 30
0.0
  0
VERTEX
  5
575
330
566
100
AcDbEntity
  8
0
370
     0
100
AcDbVertex
100
AcDb2dVertex
 10
22.50902841079869
 20
246.4194993990828
 30
0.0
  0
VERTEX
  5
576
330
566
100
AcDbEntity
  8
0
370
     0
100
AcDbVertex
100
AcDb2dVertex
 10
21.94489541079871
 20
245.8911793990828
 30
0.0
  0
VERTEX
  5
577
330
566
100
AcDbEntity
  8
0
370
     0
100
AcDbVertex
100
AcDb2dVertex
 10
21.42643241079872
 20
245.3175403990828
 30
0.0
  0
VERTEX
  5
578
330
566
100
AcDbEntity
  8
0
370
     0
100
AcDbVertex
100
AcDb2dVertex
 10
20.95727041079874
 20
244.7023363990826
 30
0.0
  0
VERTEX
  5
579
330
566
100
AcDbEntity
  8
0
370
     0
100
AcDbVertex
100
AcDb2dVertex
 10
20.54075141079875
 20
244.0496873990828
 30
0.0
  0
VERTEX
  5
57A
330
566
100
AcDbEntity
  8
0
370
     0
100
AcDbVertex
100
AcDb2dVertex
 10
20.17983541079878
 20
243.3639573990827
 30
0.0
  0
VERTEX
  5
57B
330
566
100
AcDbEntity
  8
0
370
     0
100
AcDbVertex
100
AcDb2dVertex
 10
19.87720741079874
 20
242.6497853990828
 30
0.0
  0
VERTEX
  5
57C
330
566
100
AcDbEntity
  8
0
370
     0
100
AcDbVertex
100
AcDb2dVertex
 10
19.63514241079872
 20
241.9120533990828
 30
0.0
  0
VERTEX
  5
57D
330
566
100
AcDbEntity
  8
0
370
     0
100
AcDbVertex
100
AcDb2dVertex
 10
19.45551541079874
 20
241.1558583990827
 30
0.0
  0
VERTEX
  5
57E
330
566
100
AcDbEntity
  8
0
370
     0
100
AcDbVertex
100
AcDb2dVertex
 10
19.33730541079876
 20
240.3631643990827
 30
0.0
  0
VERTEX
  5
57F
330
566
100
AcDbEntity
  8
0
370
     0
100
AcDbVertex
100
AcDb2dVertex
 10
19.28797441079871
 20
239.5625653990828
 30
0.0
  0
VERTEX
  5
580
330
566
100
AcDbEntity
  8
0
370
     0
100
AcDbVertex
100
AcDb2dVertex
 10
19.30803941079875
 20
238.7601363990826
 30
0.0
  0
VERTEX
  5
581
330
566
100
AcDbEntity
  8
0
370
     0
100
AcDbVertex
100
AcDb2dVertex
 10
19.39747141079873
 20
237.9619183990828
 30
0.0
  0
VERTEX
  5
582
330
566
100
AcDbEntity
  8
0
370
     0
100
AcDbVertex
100
AcDb2dVertex
 10
19.55570441079874
 20
237.1739553990828
 30
0.0
  0
VERTEX
  5
583
330
566
100
AcDbEntity
  8
0
370
     0
100
AcDbVertex
100
AcDb2dVertex
 10
19.78162641079871
 20
236.4021653990828
 30
0.0
  0
VERTEX
  5
584
330
566
100
AcDbEntity
  8
0
370
     0
100
AcDbVertex
100
AcDb2dVertex
 10
20.07364941079869
 20
235.6523793990826
 30
0.0
  0
VERTEX
  5
585
330
566
100
AcDbEntity
  8
0
370
     0
100
AcDbVertex
100
AcDb2dVertex
 10
20.42965241079878
 20
234.9302723990827
 30
0.0
  0
VERTEX
  5
586
330
566
100
AcDbEntity
  8
0
370
     0
100
AcDbVertex
100
AcDb2dVertex
 10
20.84704041079874
 20
234.2412463990827
 30
0.0
  0
VERTEX
  5
587
330
566
100
AcDbEntity
  8
0
370
     0
100
AcDbVertex
100
AcDb2dVertex
 10
21.32277941079872
 20
233.5905503990828
 30
0.0
  0
VERTEX
  5
588
330
566
100
AcDbEntity
  8
0
370
     0
100
AcDbVertex
100
AcDb2dVertex
 10
21.85329741079874
 20
232.9831593990828
 30
0.0
  0
VERTEX
  5
589
330
566
100
AcDbEntity
  8
0
370
     0
100
AcDbVertex
100
AcDb2dVertex
 10
22.43467241079871
 20
232.4236803990828
 30
0.0
  0
VERTEX
  5
58A
330
566
100
AcDbEntity
  8
0
370
     0
100
AcDbVertex
100
AcDb2dVertex
 10
23.06247941079869
 20
231.9164173990827
 30
0.0
  0
VERTEX
  5
58B
330
566
100
AcDbEntity
  8
0
370
     0
100
AcDbVertex
100
AcDb2dVertex
 10
23.58292641079879
 20
231.5585683990827
 30
0.0
  0
VERTEX
  5
58C
330
566
100
AcDbEntity
  8
0
370
     0
100
AcDbVertex
100
AcDb2dVertex
 10
24.12644441079874
 20
231.2366993990827
 30
0.0
  0
SEQEND
  5
58D
330
566
100
AcDbEntity
  8
0
370
     0
  0
POLYLINE
  5
58E
330
1F
100
AcDbEntity
  8
0
 62
     7
370
    35
100
AcDb2dPolyline
 66
     1
 10
0.0
 20
0.0
 30
0.0
  0
VERTEX
  5
58F
330
58E
100
AcDbEntity
  8
0
370
     0
100
AcDbVertex
100
AcDb2dVertex
 10
33.04526741079872
 20
247.5625043990828
 30
0.0
  0
VERTEX
  5
590
330
58E
100
AcDbEntity
  8
0
370
     0
100
AcDbVertex
100
AcDb2dVertex
 10
33.72884641079872
 20
247.1560103990827
 30
0.0
  0
VERTEX
  5
591
330
58E
100
AcDbEntity
  8
0
370
     0
100
AcDbVertex
100
AcDb2dVertex
 10
34.37517841079874
 20
246.6926923990826
 30
0.0
  0
VERTEX
  5
592
330
58E
100
AcDbEntity
  8
0
370
     0
100
AcDbVertex
100
AcDb2dVertex
 10
34.97963941079877
 20
246.1757863990828
 30
0.0
  0
VERTEX
  5
593
330
58E
100
AcDbEntity
  8
0
370
     0
100
AcDbVertex
100
AcDb2dVertex
 10
35.53782141079875
 20
245.6088613990827
 30
0.0
  0
VERTEX
  5
594
330
58E
100
AcDbEntity
  8
0
370
     0
100
AcDbVertex
100
AcDb2dVertex
 10
36.04566441079875
 20
244.9958843990827
 30
0.0
  0
VERTEX
  5
595
330
58E
100
AcDbEntity
  8
0
370
     0
100
AcDbVertex
100
AcDb2dVertex
 10
36.49938441079871
 20
244.3411603990828
 30
0.0
  0
VERTEX
  5
596
330
58E
100
AcDbEntity
  8
0
370
     0
100
AcDbVertex
100
AcDb2dVertex
 10
36.89553341079875
 20
243.6493273990826
 30
0.0
  0
VERTEX
  5
597
330
58E
100
AcDbEntity
  8
0
370
     0
100
AcDbVertex
100
AcDb2dVertex
 10
37.23107441079872
 20
242.9252673990827
 30
0.0
  0
VERTEX
  5
598
330
58E
100
AcDbEntity
  8
0
370
     0
100
AcDbVertex
100
AcDb2dVertex
 10
37.50333641079875
 20
242.1742293990828
 30
0.0
  0
VERTEX
  5
599
330
58E
100
AcDbEntity
  8
0
370
     0
100
AcDbVertex
100
AcDb2dVertex
 10
37.71010841079874
 20
241.4017073990828
 30
0.0
  0
VERTEX
  5
59A
330
58E
100
AcDbEntity
  8
0
370
     0
100
AcDbVertex
100
AcDb2dVertex
 10
37.84972641079877
 20
240.6126453990828
 30
0.0
  0
VERTEX
  5
59B
330
58E
100
AcDbEntity
  8
0
370
     0
100
AcDbVertex
100
AcDb2dVertex
 10
37.92072541079875
 20
239.8137863990827
 30
0.0
  0
VERTEX
  5
59C
330
58E
100
AcDbEntity
  8
0
370
     0
100
AcDbVertex
100
AcDb2dVertex
 10
37.92240441079878
 20
239.0112043990828
 30
0.0
  0
VERTEX
  5
59D
330
58E
100
AcDbEntity
  8
0
370
     0
100
AcDbVertex
100
AcDb2dVertex
 10
37.85465541079871
 20
238.2109723990828
 30
0.0
  0
VERTEX
  5
59E
330
58E
100
AcDbEntity
  8
0
370
     0
100
AcDbVertex
100
AcDb2dVertex
 10
37.71784441079879
 20
237.4190723990827
 30
0.0
  0
VERTEX
  5
59F
330
58E
100
AcDbEntity
  8
0
370
     0
100
AcDbVertex
100
AcDb2dVertex
 10
37.51291941079875
 20
236.6415143990827
 30
0.0
  0
VERTEX
  5
5A0
330
58E
100
AcDbEntity
  8
0
370
     0
100
AcDbVertex
100
AcDb2dVertex
 10
37.24134341079872
 20
235.8841293990827
 30
0.0
  0
VERTEX
  5
5A1
330
58E
100
AcDbEntity
  8
0
370
     0
100
AcDbVertex
100
AcDb2dVertex
 10
36.90502441079877
 20
235.1526233990828
 30
0.0
  0
VERTEX
  5
5A2
330
58E
100
AcDbEntity
  8
0
370
     0
100
AcDbVertex
100
AcDb2dVertex
 10
36.50641841079874
 20
234.4525503990828
 30
0.0
  0
VERTEX
  5
5A3
330
58E
100
AcDbEntity
  8
0
370
     0
100
AcDbVertex
100
AcDb2dVertex
 10
36.04845641079875
 20
233.7892193990828
 30
0.0
  0
VERTEX
  5
5A4
330
58E
100
AcDbEntity
  8
0
370
     0
100
AcDbVertex
100
AcDb2dVertex
 10
35.53449541079875
 20
233.1676373990828
 30
0.0
  0
VERTEX
  5
5A5
330
58E
100
AcDbEntity
  8
0
370
     0
100
AcDbVertex
100
AcDb2dVertex
 10
34.96839441079874
 20
232.5926253990828
 30
0.0
  0
VERTEX
  5
5A6
330
58E
100
AcDbEntity
  8
0
370
     0
100
AcDbVertex
100
AcDb2dVertex
 10
34.35444141079872
 20
232.0685773990828
 30
0.0
  0
VERTEX
  5
5A7
330
58E
100
AcDbEntity
  8
0
370
     0
100
AcDbVertex
100
AcDb2dVertex
 10
33.67368541079872
 20
231.5842023990828
 30
0.0
  0
VERTEX
  5
5A8
330
58E
100
AcDbEntity
  8
0
370
     0
100
AcDbVertex
100
AcDb2dVertex
 10
32.95229641079868
 20
231.1626943990828
 30
0.0
  0
VERTEX
  5
5A9
330
58E
100
AcDbEntity
  8
0
370
     0
100
AcDbVertex
100
AcDb2dVertex
 10
32.1961164107987
 20
230.8074383990827
 30
0.0
  0
VERTEX
  5
5AA
330
58E
100
AcDbEntity
  8
0
370
     0
100
AcDbVertex
100
AcDb2dVertex
 10
31.41124941079875
 20
230.5212753990828
 30
0.0
  0
VERTEX
  5
5AB
330
58E
100
AcDbEntity
  8
0
370
     0
100
AcDbVertex
100
AcDb2dVertex
 10
30.60399841079879
 20
230.3064313990828
 30
0.0
  0
VERTEX
  5
5AC
330
58E
100
AcDbEntity
  8
0
370
     0
100
AcDbVertex
100
AcDb2dVertex
 10
29.78080241079874
 20
230.1645863990826
 30
0.0
  0
VERTEX
  5
5AD
330
58E
100
AcDbEntity
  8
0
370
     0
100
AcDbVertex
100
AcDb2dVertex
 10
28.9482374107987
 20
230.0968983990828
 30
0.0
  0
VERTEX
  5
5AE
330
58E
100
AcDbEntity
  8
0
370
     0
100
AcDbVertex
100
AcDb2dVertex
 10
28.11292541079877
 20
230.1038563990827
 30
0.0
  0
VERTEX
  5
5AF
330
58E
100
AcDbEntity
  8
0
370
     0
100
AcDbVertex
100
AcDb2dVertex
 10
27.28151941079875
 20
230.1854293990828
 30
0.0
  0
VERTEX
  5
5B0
330
58E
100
AcDbEntity
  8
0
370
     0
100
AcDbVertex
100
AcDb2dVertex
 10
26.46065741079872
 20
230.3410083990826
 30
0.0
  0
VERTEX
  5
5B1
330
58E
100
AcDbEntity
  8
0
370
     0
100
AcDbVertex
100
AcDb2dVertex
 10
25.6569014107987
 20
230.5693713990828
 30
0.0
  0
VERTEX
  5
5B2
330
58E
100
AcDbEntity
  8
0
370
     0
100
AcDbVertex
100
AcDb2dVertex
 10
24.87671941079874
 20
230.8687483990827
 30
0.0
  0
VERTEX
  5
5B3
330
58E
100
AcDbEntity
  8
0
370
     0
100
AcDbVertex
100
AcDb2dVertex
 10
24.12644441079874
 20
231.2366993990827
 30
0.0
  0
SEQEND
  5
5B4
330
58E
100
AcDbEntity
  8
0
370
     0
  0
ARC
  5
5B5
330
1F
100
AcDbEntity
  8
0
 62
     7
370
    35
100
AcDbCircle
 10
316.6083474107987
 20
239.4279223990828
 30
0.0
 40
9.337253
100
AcDbArc
 50
241.3143440000023
 51
298.6856719999988
  0
POLYLINE
  5
5B6
330
1F
100
AcDbEntity
  8
0
 62
     7
370
    35
100
AcDb2dPolyline
 66
     1
 10
0.0
 20
0.0
 30
0.0
  0
VERTEX
  5
5B7
330
5B6
100
AcDbEntity
  8
0
370
     0
100
AcDbVertex
100
AcDb2dVertex
 10
312.1714274107988
 20
247.5625043990828
 30
0.0
  0
VERTEX
  5
5B8
330
5B6
100
AcDbEntity
  8
0
370
     0
100
AcDbVertex
100
AcDb2dVertex
 10
311.4878644107988
 20
247.1560103990827
 30
0.0
  0
VERTEX
  5
5B9
330
5B6
100
AcDbEntity
  8
0
370
     0
100
AcDbVertex
100
AcDb2dVertex
 10
310.8415014107987
 20
246.6926923990826
 30
0.0
  0
VERTEX
  5
5BA
330
5B6
100
AcDbEntity
  8
0
370
     0
100
AcDbVertex
100
AcDb2dVertex
 10
310.2370704107987
 20
246.1757863990828
 30
0.0
  0
VERTEX
  5
5BB
330
5B6
100
AcDbEntity
  8
0
370
     0
100
AcDbVertex
100
AcDb2dVertex
 10
309.6788734107986
 20
245.6088613990827
 30
0.0
  0
VERTEX
  5
5BC
330
5B6
100
AcDbEntity
  8
0
370
     0
100
AcDbVertex
100
AcDb2dVertex
 10
309.1710304107988
 20
244.9958843990827
 30
0.0
  0
VERTEX
  5
5BD
330
5B6
100
AcDbEntity
  8
0
370
     0
100
AcDbVertex
100
AcDb2dVertex
 10
308.7172954107987
 20
244.3411603990828
 30
0.0
  0
VERTEX
  5
5BE
330
5B6
100
AcDbEntity
  8
0
370
     0
100
AcDbVertex
100
AcDb2dVertex
 10
308.3211774107988
 20
243.6493273990826
 30
0.0
  0
VERTEX
  5
5BF
330
5B6
100
AcDbEntity
  8
0
370
     0
100
AcDbVertex
100
AcDb2dVertex
 10
307.9856054107988
 20
242.9252673990827
 30
0.0
  0
VERTEX
  5
5C0
330
5B6
100
AcDbEntity
  8
0
370
     0
100
AcDbVertex
100
AcDb2dVertex
 10
307.7133584107988
 20
242.1742293990828
 30
0.0
  0
VERTEX
  5
5C1
330
5B6
100
AcDbEntity
  8
0
370
     0
100
AcDbVertex
100
AcDb2dVertex
 10
307.5066024107988
 20
241.4017073990828
 30
0.0
  0
VERTEX
  5
5C2
330
5B6
100
AcDbEntity
  8
0
370
     0
100
AcDbVertex
100
AcDb2dVertex
 10
307.3669534107988
 20
240.6126453990828
 30
0.0
  0
VERTEX
  5
5C3
330
5B6
100
AcDbEntity
  8
0
370
     0
100
AcDbVertex
100
AcDb2dVertex
 10
307.2959694107987
 20
239.8137863990827
 30
0.0
  0
VERTEX
  5
5C4
330
5B6
100
AcDbEntity
  8
0
370
     0
100
AcDbVertex
100
AcDb2dVertex
 10
307.2942914107988
 20
239.0112043990828
 30
0.0
  0
VERTEX
  5
5C5
330
5B6
100
AcDbEntity
  8
0
370
     0
100
AcDbVertex
100
AcDb2dVertex
 10
307.3620404107987
 20
238.2109723990828
 30
0.0
  0
VERTEX
  5
5C6
330
5B6
100
AcDbEntity
  8
0
370
     0
100
AcDbVertex
100
AcDb2dVertex
 10
307.4988504107987
 20
237.4190723990827
 30
0.0
  0
VERTEX
  5
5C7
330
5B6
100
AcDbEntity
  8
0
370
     0
100
AcDbVertex
100
AcDb2dVertex
 10
307.7037764107988
 20
236.6415143990827
 30
0.0
  0
VERTEX
  5
5C8
330
5B6
100
AcDbEntity
  8
0
370
     0
100
AcDbVertex
100
AcDb2dVertex
 10
307.9753524107988
 20
235.8841293990827
 30
0.0
  0
VERTEX
  5
5C9
330
5B6
100
AcDbEntity
  8
0
370
     0
100
AcDbVertex
100
AcDb2dVertex
 10
308.3116554107987
 20
235.1526233990828
 30
0.0
  0
VERTEX
  5
5CA
330
5B6
100
AcDbEntity
  8
0
370
     0
100
AcDbVertex
100
AcDb2dVertex
 10
308.7102764107988
 20
234.4525503990828
 30
0.0
  0
VERTEX
  5
5CB
330
5B6
100
AcDbEntity
  8
0
370
     0
100
AcDbVertex
100
AcDb2dVertex
 10
309.1682234107986
 20
233.7892193990828
 30
0.0
  0
VERTEX
  5
5CC
330
5B6
100
AcDbEntity
  8
0
370
     0
100
AcDbVertex
100
AcDb2dVertex
 10
309.6822004107988
 20
233.1676373990828
 30
0.0
  0
VERTEX
  5
5CD
330
5B6
100
AcDbEntity
  8
0
370
     0
100
AcDbVertex
100
AcDb2dVertex
 10
310.2483014107987
 20
232.5926253990828
 30
0.0
  0
VERTEX
  5
5CE
330
5B6
100
AcDbEntity
  8
0
370
     0
100
AcDbVertex
100
AcDb2dVertex
 10
310.8622534107988
 20
232.0685773990828
 30
0.0
  0
VERTEX
  5
5CF
330
5B6
100
AcDbEntity
  8
0
370
     0
100
AcDbVertex
100
AcDb2dVertex
 10
311.4774274107987
 20
231.6269573990827
 30
0.0
  0
VERTEX
  5
5D0
330
5B6
100
AcDbEntity
  8
0
370
     0
100
AcDbVertex
100
AcDb2dVertex
 10
312.1264444107988
 20
231.2366993990827
 30
0.0
  0
SEQEND
  5
5D1
330
5B6
100
AcDbEntity
  8
0
370
     0
  0
ARC
  5
5D2
330
1F
100
AcDbEntity
  8
0
 62
     7
370
    35
100
AcDbCircle
 10
316.6083474107987
 20
239.3060963990827
 30
0.0
 40
9.373361
100
AcDbArc
 50
61.74682900000036
 51
118.2531689999986
  0
POLYLINE
  5
5D3
330
1F
100
AcDbEntity
  8
0
 62
     7
370
    35
100
AcDb2dPolyline
 66
     1
 10
0.0
 20
0.0
 30
0.0
  0
VERTEX
  5
5D4
330
5D3
100
AcDbEntity
  8
0
370
     0
100
AcDbVertex
100
AcDb2dVertex
 10
321.0452674107988
 20
247.5625043990828
 30
0.0
  0
VERTEX
  5
5D5
330
5D3
100
AcDbEntity
  8
0
370
     0
100
AcDbVertex
100
AcDb2dVertex
 10
321.7576394107988
 20
247.1370893990826
 30
0.0
  0
VERTEX
  5
5D6
330
5D3
100
AcDbEntity
  8
0
370
     0
100
AcDbVertex
100
AcDb2dVertex
 10
322.4292094107988
 20
246.6500293990826
 30
0.0
  0
VERTEX
  5
5D7
330
5D3
100
AcDbEntity
  8
0
370
     0
100
AcDbVertex
100
AcDb2dVertex
 10
323.0547584107988
 20
246.1049543990828
 30
0.0
  0
VERTEX
  5
5D8
330
5D3
100
AcDbEntity
  8
0
370
     0
100
AcDbVertex
100
AcDb2dVertex
 10
323.6294044107988
 20
245.5059553990828
 30
0.0
  0
VERTEX
  5
5D9
330
5D3
100
AcDbEntity
  8
0
370
     0
100
AcDbVertex
100
AcDb2dVertex
 10
324.1485694107987
 20
244.8575793990828
 30
0.0
  0
VERTEX
  5
5DA
330
5D3
100
AcDbEntity
  8
0
370
     0
100
AcDbVertex
100
AcDb2dVertex
 10
324.6079814107988
 20
244.1647993990826
 30
0.0
  0
VERTEX
  5
5DB
330
5D3
100
AcDbEntity
  8
0
370
     0
100
AcDbVertex
100
AcDb2dVertex
 10
325.0010474107988
 20
243.4386643990828
 30
0.0
  0
VERTEX
  5
5DC
330
5D3
100
AcDbEntity
  8
0
370
     0
100
AcDbVertex
100
AcDb2dVertex
 10
325.3281654107988
 20
242.6797833990828
 30
0.0
  0
VERTEX
  5
5DD
330
5D3
100
AcDbEntity
  8
0
370
     0
100
AcDbVertex
100
AcDb2dVertex
 10
325.5865884107988
 20
241.8940783990827
 30
0.0
  0
VERTEX
  5
5DE
330
5D3
100
AcDbEntity
  8
0
370
     0
100
AcDbVertex
100
AcDb2dVertex
 10
325.7740884107988
 20
241.0877733990828
 30
0.0
  0
VERTEX
  5
5DF
330
5D3
100
AcDbEntity
  8
0
370
     0
100
AcDbVertex
100
AcDb2dVertex
 10
325.8889874107988
 20
240.2672163990828
 30
0.0
  0
VERTEX
  5
5E0
330
5D3
100
AcDbEntity
  8
0
370
     0
100
AcDbVertex
100
AcDb2dVertex
 10
325.9301554107988
 20
239.4389393990826
 30
0.0
  0
VERTEX
  5
5E1
330
5D3
100
AcDbEntity
  8
0
370
     0
100
AcDbVertex
100
AcDb2dVertex
 10
325.8971054107988
 20
238.6095013990827
 30
0.0
  0
VERTEX
  5
5E2
330
5D3
100
AcDbEntity
  8
0
370
     0
100
AcDbVertex
100
AcDb2dVertex
 10
325.7899574107987
 20
237.7855273990828
 30
0.0
  0
VERTEX
  5
5E3
330
5D3
100
AcDbEntity
  8
0
370
     0
100
AcDbVertex
100
AcDb2dVertex
 10
325.6093244107987
 20
236.9736683990827
 30
0.0
  0
VERTEX
  5
5E4
330
5D3
100
AcDbEntity
  8
0
370
     0
100
AcDbVertex
100
AcDb2dVertex
 10
325.3564554107988
 20
236.1805163990828
 30
0.0
  0
VERTEX
  5
5E5
330
5D3
100
AcDbEntity
  8
0
370
     0
100
AcDbVertex
100
AcDb2dVertex
 10
325.0333354107988
 20
235.4125103990828
 30
0.0
  0
VERTEX
  5
5E6
330
5D3
100
AcDbEntity
  8
0
370
     0
100
AcDbVertex
100
AcDb2dVertex
 10
324.6424664107987
 20
234.6760603990828
 30
0.0
  0
VERTEX
  5
5E7
330
5D3
100
AcDbEntity
  8
0
370
     0
100
AcDbVertex
100
AcDb2dVertex
 10
324.1875104107986
 20
233.9779713990827
 30
0.0
  0
VERTEX
  5
5E8
330
5D3
100
AcDbEntity
  8
0
370
     0
100
AcDbVertex
100
AcDb2dVertex
 10
323.6717634107988
 20
233.3231853990828
 30
0.0
  0
VERTEX
  5
5E9
330
5D3
100
AcDbEntity
  8
0
370
     0
100
AcDbVertex
100
AcDb2dVertex
 10
323.0993754107988
 20
232.7170153990827
 30
0.0
  0
VERTEX
  5
5EA
330
5D3
100
AcDbEntity
  8
0
370
     0
100
AcDbVertex
100
AcDb2dVertex
 10
322.4749244107987
 20
232.1643113990828
 30
0.0
  0
VERTEX
  5
5EB
330
5D3
100
AcDbEntity
  8
0
370
     0
100
AcDbVertex
100
AcDb2dVertex
 10
321.8034164107988
 20
231.6695293990828
 30
0.0
  0
VERTEX
  5
5EC
330
5D3
100
AcDbEntity
  8
0
370
     0
100
AcDbVertex
100
AcDb2dVertex
 10
321.0902504107988
 20
231.2366993990827
 30
0.0
  0
SEQEND
  5
5ED
330
5D3
100
AcDbEntity
  8
0
370
     0
  0
LINE
  5
5EE
330
1F
100
AcDbEntity
  8
0
 62
     7
370
    13
100
AcDbLine
 10
326.7111914107988
 20
43.13809639908273
 30
0.0
 11
18.50550341079872
 21
43.13809639908273
 31
0.0
  0
ARC
  5
5EF
330
1F
100
AcDbEntity
  8
0
 62
     7
370
    35
100
AcDbCircle
 10
313.1083474107988
 20
211.6467633990828
 30
0.0
 40
2.0
100
AcDbArc
 50
0.0
 51
90.00000299999769
  0
LINE
  5
5F0
330
1F
100
AcDbEntity
  8
0
 62
     7
 48
0.4
370
    35
100
AcDbLine
 10
315.1083474107988
 20
211.6467633990828
 30
0.0
 11
315.1083474107988
 21
195.6467633990826
 31
0.0
  0
ARC
  5
5F1
330
1F
100
AcDbEntity
  8
0
 62
     7
370
    35
100
AcDbCircle
 10
313.1083474107988
 20
195.6467633990826
 30
0.0
 40
2.0
100
AcDbArc
 50
269.9999970000023
 51
0.0
  0
LINE
  5
5F2
330
1F
100
AcDbEntity
  8
0
 62
     7
370
    35
100
AcDbLine
 10
270.1083474107987
 20
193.6467633990828
 30
0.0
 11
313.1083474107988
 21
193.6467633990828
 31
0.0
  0
ARC
  5
5F3
330
1F
100
AcDbEntity
  8
0
 62
     7
370
    35
100
AcDbCircle
 10
270.1083474107987
 20
195.6467633990826
 30
0.0
 40
2.0
100
AcDbArc
 50
180.0000050000005
 51
269.9999970000023
  0
LINE
  5
5F4
330
1F
100
AcDbEntity
  8
0
 62
     7
 48
0.4
370
    35
100
AcDbLine
 10
268.1083474107987
 20
195.6467633990826
 30
0.0
 11
268.1083474107987
 21
211.6467633990828
 31
0.0
  0
ARC
  5
5F5
330
1F
100
AcDbEntity
  8
0
 62
     7
370
    35
100
AcDbCircle
 10
270.1083474107987
 20
211.6467633990828
 30
0.0
 40
2.0
100
AcDbArc
 50
90.00000299999769
 51
180.0000050000005
  0
LINE
  5
5F6
330
1F
100
AcDbEntity
  8
0
 62
     7
370
    35
100
AcDbLine
 10
313.1083474107988
 20
213.6467633990828
 30
0.0
 11
270.1083474107987
 21
213.6467633990828
 31
0.0
  0
ARC
  5
5F7
330
1F
100
AcDbEntity
  8
0
 62
     7
370
    35
100
AcDbCircle
 10
28.60834741079873
 20
30.45363339908279
 30
0.0
 40
9.337253
100
AcDbArc
 50
61.31433499999882
 51
118.6856700000009
  0
POLYLINE
  5
5F8
330
1F
100
AcDbEntity
  8
0
 62
     7
370
    35
100
AcDb2dPolyline
 66
     1
 10
0.0
 20
0.0
 30
0.0
  0
VERTEX
  5
5F9
330
5F8
100
AcDbEntity
  8
0
370
     0
100
AcDbVertex
100
AcDb2dVertex
 10
33.04526741079872
 20
22.31906639908273
 30
0.0
  0
VERTEX
  5
5FA
330
5F8
100
AcDbEntity
  8
0
370
     0
100
AcDbVertex
100
AcDb2dVertex
 10
33.72884641079872
 20
22.7255603990828
 30
0.0
  0
VERTEX
  5
5FB
330
5F8
100
AcDbEntity
  8
0
370
     0
100
AcDbVertex
100
AcDb2dVertex
 10
34.37517841079874
 20
23.18886239908279
 30
0.0
  0
VERTEX
  5
5FC
330
5F8
100
AcDbEntity
  8
0
370
     0
100
AcDbVertex
100
AcDb2dVertex
 10
34.97963941079877
 20
23.70576939908268
 30
0.0
  0
VERTEX
  5
5FD
330
5F8
100
AcDbEntity
  8
0
370
     0
100
AcDbVertex
100
AcDb2dVertex
 10
35.53782141079875
 20
24.27269439908277
 30
0.0
  0
VERTEX
  5
5FE
330
5F8
100
AcDbEntity
  8
0
370
     0
100
AcDbVertex
100
AcDb2dVertex
 10
36.04566441079875
 20
24.88565539908281
 30
0.0
  0
VERTEX
  5
5FF
330
5F8
100
AcDbEntity
  8
0
370
     0
100
AcDbVertex
100
AcDb2dVertex
 10
36.49938441079871
 20
25.54037939908274
 30
0.0
  0
VERTEX
  5
600
330
5F8
100
AcDbEntity
  8
0
370
     0
100
AcDbVertex
100
AcDb2dVertex
 10
36.89553341079875
 20
26.23222839908279
 30
0.0
  0
VERTEX
  5
601
330
5F8
100
AcDbEntity
  8
0
370
     0
100
AcDbVertex
100
AcDb2dVertex
 10
37.23107441079872
 20
26.95628839908279
 30
0.0
  0
VERTEX
  5
602
330
5F8
100
AcDbEntity
  8
0
370
     0
100
AcDbVertex
100
AcDb2dVertex
 10
37.50333641079875
 20
27.70731039908272
 30
0.0
  0
VERTEX
  5
603
330
5F8
100
AcDbEntity
  8
0
370
     0
100
AcDbVertex
100
AcDb2dVertex
 10
37.71010841079874
 20
28.47984739908277
 30
0.0
  0
VERTEX
  5
604
330
5F8
100
AcDbEntity
  8
0
370
     0
100
AcDbVertex
100
AcDb2dVertex
 10
37.84972641079877
 20
29.26891039908272
 30
0.0
  0
VERTEX
  5
605
330
5F8
100
AcDbEntity
  8
0
370
     0
100
AcDbVertex
100
AcDb2dVertex
 10
37.92072541079875
 20
30.06776939908271
 30
0.0
  0
VERTEX
  5
606
330
5F8
100
AcDbEntity
  8
0
370
     0
100
AcDbVertex
100
AcDb2dVertex
 10
37.92240441079878
 20
30.87035039908274
 30
0.0
  0
VERTEX
  5
607
330
5F8
100
AcDbEntity
  8
0
370
     0
100
AcDbVertex
100
AcDb2dVertex
 10
37.85465541079871
 20
31.67059839908269
 30
0.0
  0
VERTEX
  5
608
330
5F8
100
AcDbEntity
  8
0
370
     0
100
AcDbVertex
100
AcDb2dVertex
 10
37.71784441079879
 20
32.46248339908273
 30
0.0
  0
VERTEX
  5
609
330
5F8
100
AcDbEntity
  8
0
370
     0
100
AcDbVertex
100
AcDb2dVertex
 10
37.51291941079875
 20
33.24005639908269
 30
0.0
  0
VERTEX
  5
60A
330
5F8
100
AcDbEntity
  8
0
370
     0
100
AcDbVertex
100
AcDb2dVertex
 10
37.24134341079872
 20
33.99744139908281
 30
0.0
  0
VERTEX
  5
60B
330
5F8
100
AcDbEntity
  8
0
370
     0
100
AcDbVertex
100
AcDb2dVertex
 10
36.90502441079877
 20
34.72893239908281
 30
0.0
  0
VERTEX
  5
60C
330
5F8
100
AcDbEntity
  8
0
370
     0
100
AcDbVertex
100
AcDb2dVertex
 10
36.50641841079874
 20
35.42900539908278
 30
0.0
  0
VERTEX
  5
60D
330
5F8
100
AcDbEntity
  8
0
370
     0
100
AcDbVertex
100
AcDb2dVertex
 10
36.04845641079875
 20
36.09235139908272
 30
0.0
  0
VERTEX
  5
60E
330
5F8
100
AcDbEntity
  8
0
370
     0
100
AcDbVertex
100
AcDb2dVertex
 10
35.53449541079875
 20
36.7139173990828
 30
0.0
  0
VERTEX
  5
60F
330
5F8
100
AcDbEntity
  8
0
370
     0
100
AcDbVertex
100
AcDb2dVertex
 10
34.96839441079874
 20
37.28893039908282
 30
0.0
  0
VERTEX
  5
610
330
5F8
100
AcDbEntity
  8
0
370
     0
100
AcDbVertex
100
AcDb2dVertex
 10
34.35444141079872
 20
37.81299339908271
 30
0.0
  0
VERTEX
  5
611
330
5F8
100
AcDbEntity
  8
0
370
     0
100
AcDbVertex
100
AcDb2dVertex
 10
33.73928341079874
 20
38.25458239908274
 30
0.0
  0
VERTEX
  5
612
330
5F8
100
AcDbEntity
  8
0
370
     0
100
AcDbVertex
100
AcDb2dVertex
 10
33.09025041079872
 20
38.64485639908271
 30
0.0
  0
SEQEND
  5
613
330
5F8
100
AcDbEntity
  8
0
370
     0
  0
ARC
  5
614
330
1F
100
AcDbEntity
  8
0
 62
     7
370
    35
100
AcDbCircle
 10
28.60834741079873
 20
30.57547439908281
 30
0.0
 40
9.373361
100
AcDbArc
 50
241.7468310000013
 51
298.2531640000014
  0
POLYLINE
  5
615
330
1F
100
AcDbEntity
  8
0
 62
     7
370
    35
100
AcDb2dPolyline
 66
     1
 10
0.0
 20
0.0
 30
0.0
  0
VERTEX
  5
616
330
615
100
AcDbEntity
  8
0
370
     0
100
AcDbVertex
100
AcDb2dVertex
 10
24.17142741079874
 20
22.31906639908273
 30
0.0
  0
VERTEX
  5
617
330
615
100
AcDbEntity
  8
0
370
     0
100
AcDbVertex
100
AcDb2dVertex
 10
23.45904041079871
 20
22.74446539908281
 30
0.0
  0
VERTEX
  5
618
330
615
100
AcDbEntity
  8
0
370
     0
100
AcDbVertex
100
AcDb2dVertex
 10
22.78748541079869
 20
23.23152639908274
 30
0.0
  0
VERTEX
  5
619
330
615
100
AcDbEntity
  8
0
370
     0
100
AcDbVertex
100
AcDb2dVertex
 10
22.16192141079875
 20
23.77660039908279
 30
0.0
  0
VERTEX
  5
61A
330
615
100
AcDbEntity
  8
0
370
     0
100
AcDbVertex
100
AcDb2dVertex
 10
21.58727541079873
 20
24.37558439908271
 30
0.0
  0
VERTEX
  5
61B
330
615
100
AcDbEntity
  8
0
370
     0
100
AcDbVertex
100
AcDb2dVertex
 10
21.06812541079876
 20
25.02396139908269
 30
0.0
  0
VERTEX
  5
61C
330
615
100
AcDbEntity
  8
0
370
     0
100
AcDbVertex
100
AcDb2dVertex
 10
20.60871341079872
 20
25.7167713990827
 30
0.0
  0
VERTEX
  5
61D
330
615
100
AcDbEntity
  8
0
370
     0
100
AcDbVertex
100
AcDb2dVertex
 10
20.2156624107987
 20
26.44289139908269
 30
0.0
  0
VERTEX
  5
61E
330
615
100
AcDbEntity
  8
0
370
     0
100
AcDbVertex
100
AcDb2dVertex
 10
19.8885294107987
 20
27.20177139908277
 30
0.0
  0
VERTEX
  5
61F
330
615
100
AcDbEntity
  8
0
370
     0
100
AcDbVertex
100
AcDb2dVertex
 10
19.6301064107987
 20
27.98746239908282
 30
0.0
  0
VERTEX
  5
620
330
615
100
AcDbEntity
  8
0
370
     0
100
AcDbVertex
100
AcDb2dVertex
 10
19.4426064107987
 20
28.79376739908277
 30
0.0
  0
VERTEX
  5
621
330
615
100
AcDbEntity
  8
0
370
     0
100
AcDbVertex
100
AcDb2dVertex
 10
19.32772341079874
 20
29.61432339908272
 30
0.0
  0
VERTEX
  5
622
330
615
100
AcDbEntity
  8
0
370
     0
100
AcDbVertex
100
AcDb2dVertex
 10
19.28653941079869
 20
30.44261639908281
 30
0.0
  0
VERTEX
  5
623
330
615
100
AcDbEntity
  8
0
370
     0
100
AcDbVertex
100
AcDb2dVertex
 10
19.31957541079873
 20
31.2720693990827
 30
0.0
  0
VERTEX
  5
624
330
615
100
AcDbEntity
  8
0
370
     0
100
AcDbVertex
100
AcDb2dVertex
 10
19.42673741079875
 20
32.09602839908281
 30
0.0
  0
VERTEX
  5
625
330
615
100
AcDbEntity
  8
0
370
     0
100
AcDbVertex
100
AcDb2dVertex
 10
19.60738641079876
 20
32.90788739908278
 30
0.0
  0
VERTEX
  5
626
330
615
100
AcDbEntity
  8
0
370
     0
100
AcDbVertex
100
AcDb2dVertex
 10
19.86022441079876
 20
33.70105439908272
 30
0.0
  0
VERTEX
  5
627
330
615
100
AcDbEntity
  8
0
370
     0
100
AcDbVertex
100
AcDb2dVertex
 10
20.18334441079878
 20
34.46904439908276
 30
0.0
  0
VERTEX
  5
628
330
615
100
AcDbEntity
  8
0
370
     0
100
AcDbVertex
100
AcDb2dVertex
 10
20.57421341079873
 20
35.20551039908279
 30
0.0
  0
VERTEX
  5
629
330
615
100
AcDbEntity
  8
0
370
     0
100
AcDbVertex
100
AcDb2dVertex
 10
21.02916941079878
 20
35.90356939908278
 30
0.0
  0
VERTEX
  5
62A
330
615
100
AcDbEntity
  8
0
370
     0
100
AcDbVertex
100
AcDb2dVertex
 10
21.54491641079869
 20
36.55835439908272
 30
0.0
  0
VERTEX
  5
62B
330
615
100
AcDbEntity
  8
0
370
     0
100
AcDbVertex
100
AcDb2dVertex
 10
22.1173194107987
 20
37.16455539908277
 30
0.0
  0
VERTEX
  5
62C
330
615
100
AcDbEntity
  8
0
370
     0
100
AcDbVertex
100
AcDb2dVertex
 10
22.74178541079868
 20
37.71725939908272
 30
0.0
  0
VERTEX
  5
62D
330
615
100
AcDbEntity
  8
0
370
     0
100
AcDbVertex
100
AcDb2dVertex
 10
23.41329441079871
 20
38.21201039908279
 30
0.0
  0
VERTEX
  5
62E
330
615
100
AcDbEntity
  8
0
370
     0
100
AcDbVertex
100
AcDb2dVertex
 10
24.12644441079874
 20
38.64485639908271
 30
0.0
  0
SEQEND
  5
62F
330
615
100
AcDbEntity
  8
0
370
     0
  0
POLYLINE
  5
630
330
1F
100
AcDbEntity
  8
0
 62
     7
370
    35
100
AcDb2dPolyline
 66
     1
 10
0.0
 20
0.0
 30
0.0
  0
VERTEX
  5
631
330
630
100
AcDbEntity
  8
0
370
     0
100
AcDbVertex
100
AcDb2dVertex
 10
312.1714274107988
 20
22.31906639908273
 30
0.0
  0
VERTEX
  5
632
330
630
100
AcDbEntity
  8
0
370
     0
100
AcDbVertex
100
AcDb2dVertex
 10
312.8769934107987
 20
21.97673539908278
 30
0.0
  0
VERTEX
  5
633
330
630
100
AcDbEntity
  8
0
370
     0
100
AcDbVertex
100
AcDb2dVertex
 10
313.6091414107986
 20
21.69472239908278
 30
0.0
  0
VERTEX
  5
634
330
630
100
AcDbEntity
  8
0
370
     0
100
AcDbVertex
100
AcDb2dVertex
 10
314.3627114107988
 20
21.47498039908278
 30
0.0
  0
VERTEX
  5
635
330
630
100
AcDbEntity
  8
0
370
     0
100
AcDbVertex
100
AcDb2dVertex
 10
315.1323954107988
 20
21.31906639908273
 30
0.0
  0
VERTEX
  5
636
330
630
100
AcDbEntity
  8
0
370
     0
100
AcDbVertex
100
AcDb2dVertex
 10
315.9127914107988
 20
21.22807739908269
 30
0.0
  0
VERTEX
  5
637
330
630
100
AcDbEntity
  8
0
370
     0
100
AcDbVertex
100
AcDb2dVertex
 10
316.6981914107988
 20
21.20270239908281
 30
0.0
  0
VERTEX
  5
638
330
630
100
AcDbEntity
  8
0
370
     0
100
AcDbVertex
100
AcDb2dVertex
 10
317.4830124107987
 20
21.24310739908272
 30
0.0
  0
VERTEX
  5
639
330
630
100
AcDbEntity
  8
0
370
     0
100
AcDbVertex
100
AcDb2dVertex
 10
318.3082984107988
 20
21.35753339908281
 30
0.0
  0
VERTEX
  5
63A
330
630
100
AcDbEntity
  8
0
370
     0
100
AcDbVertex
100
AcDb2dVertex
 10
319.1197614107988
 20
21.54466739908277
 30
0.0
  0
VERTEX
  5
63B
330
630
100
AcDbEntity
  8
0
370
     0
100
AcDbVertex
100
AcDb2dVertex
 10
319.9109604107988
 20
21.80304439908276
 30
0.0
  0
VERTEX
  5
63C
330
630
100
AcDbEntity
  8
0
370
     0
100
AcDbVertex
100
AcDb2dVertex
 10
320.6756084107988
 20
22.1305893990827
 30
0.0
  0
VERTEX
  5
63D
330
630
100
AcDbEntity
  8
0
370
     0
100
AcDbVertex
100
AcDb2dVertex
 10
321.4077864107987
 20
22.52476939908282
 30
0.0
  0
VERTEX
  5
63E
330
630
100
AcDbEntity
  8
0
370
     0
100
AcDbVertex
100
AcDb2dVertex
 10
322.1017554107988
 20
22.98259439908277
 30
0.0
  0
VERTEX
  5
63F
330
630
100
AcDbEntity
  8
0
370
     0
100
AcDbVertex
100
AcDb2dVertex
 10
322.7076514107988
 20
23.4620713990828
 30
0.0
  0
VERTEX
  5
640
330
630
100
AcDbEntity
  8
0
370
     0
100
AcDbVertex
100
AcDb2dVertex
 10
323.2717994107987
 20
23.99036139908272
 30
0.0
  0
VERTEX
  5
641
330
630
100
AcDbEntity
  8
0
370
     0
100
AcDbVertex
100
AcDb2dVertex
 10
323.7902624107988
 20
24.56401539908269
 30
0.0
  0
VERTEX
  5
642
330
630
100
AcDbEntity
  8
0
370
     0
100
AcDbVertex
100
AcDb2dVertex
 10
324.2594094107988
 20
25.17920439908273
 30
0.0
  0
VERTEX
  5
643
330
630
100
AcDbEntity
  8
0
370
     0
100
AcDbVertex
100
AcDb2dVertex
 10
324.6759444107988
 20
25.83185239908273
 30
0.0
  0
VERTEX
  5
644
330
630
100
AcDbEntity
  8
0
370
     0
100
AcDbVertex
100
AcDb2dVertex
 10
325.0368754107987
 20
26.51758239908277
 30
0.0
  0
VERTEX
  5
645
330
630
100
AcDbEntity
  8
0
370
     0
100
AcDbVertex
100
AcDb2dVertex
 10
325.3394874107988
 20
27.23175539908273
 30
0.0
  0
VERTEX
  5
646
330
630
100
AcDbEntity
  8
0
370
     0
100
AcDbVertex
100
AcDb2dVertex
 10
325.5815534107987
 20
27.9695023990828
 30
0.0
  0
VERTEX
  5
647
330
630
100
AcDbEntity
  8
0
370
     0
100
AcDbVertex
100
AcDb2dVertex
 10
325.7611794107988
 20
28.72569739908279
 30
0.0
  0
VERTEX
  5
648
330
630
100
AcDbEntity
  8
0
370
     0
100
AcDbVertex
100
AcDb2dVertex
 10
325.8794044107988
 20
29.5183763990827
 30
0.0
  0
VERTEX
  5
649
330
630
100
AcDbEntity
  8
0
370
     0
100
AcDbVertex
100
AcDb2dVertex
 10
325.9287214107988
 20
30.3189893990827
 30
0.0
  0
VERTEX
  5
64A
330
630
100
AcDbEntity
  8
0
370
     0
100
AcDbVertex
100
AcDb2dVertex
 10
325.9086404107987
 20
31.12143439908273
 30
0.0
  0
VERTEX
  5
64B
330
630
100
AcDbEntity
  8
0
370
     0
100
AcDbVertex
100
AcDb2dVertex
 10
325.8192244107986
 20
31.91963639908279
 30
0.0
  0
VERTEX
  5
64C
330
630
100
AcDbEntity
  8
0
370
     0
100
AcDbVertex
100
AcDb2dVertex
 10
325.6609904107988
 20
32.70760039908278
 30
0.0
  0
VERTEX
  5
64D
330
630
100
AcDbEntity
  8
0
370
     0
100
AcDbVertex
100
AcDb2dVertex
 10
325.4350684107988
 20
33.47939039908279
 30
0.0
  0
VERTEX
  5
64E
330
630
100
AcDbEntity
  8
0
370
     0
100
AcDbVertex
100
AcDb2dVertex
 10
325.1430464107988
 20
34.2291613990828
 30
0.0
  0
VERTEX
  5
64F
330
630
100
AcDbEntity
  8
0
370
     0
100
AcDbVertex
100
AcDb2dVertex
 10
324.7870584107988
 20
34.95129839908277
 30
0.0
  0
VERTEX
  5
650
330
630
100
AcDbEntity
  8
0
370
     0
100
AcDbVertex
100
AcDb2dVertex
 10
324.3696394107988
 20
35.64030939908271
 30
0.0
  0
VERTEX
  5
651
330
630
100
AcDbEntity
  8
0
370
     0
100
AcDbVertex
100
AcDb2dVertex
 10
323.8939314107986
 20
36.29100539908269
 30
0.0
  0
VERTEX
  5
652
330
630
100
AcDbEntity
  8
0
370
     0
100
AcDbVertex
100
AcDb2dVertex
 10
323.3634134107988
 20
36.89841139908272
 30
0.0
  0
VERTEX
  5
653
330
630
100
AcDbEntity
  8
0
370
     0
100
AcDbVertex
100
AcDb2dVertex
 10
322.7820234107987
 20
37.45787539908278
 30
0.0
  0
VERTEX
  5
654
330
630
100
AcDbEntity
  8
0
370
     0
100
AcDbVertex
100
AcDb2dVertex
 10
322.1542154107988
 20
37.96512339908278
 30
0.0
  0
VERTEX
  5
655
330
630
100
AcDbEntity
  8
0
370
     0
100
AcDbVertex
100
AcDb2dVertex
 10
321.6337684107988
 20
38.3230023990828
 30
0.0
  0
VERTEX
  5
656
330
630
100
AcDbEntity
  8
0
370
     0
100
AcDbVertex
100
AcDb2dVertex
 10
321.0902504107988
 20
38.64485639908271
 30
0.0
  0
SEQEND
  5
657
330
630
100
AcDbEntity
  8
0
370
     0
  0
POLYLINE
  5
658
330
1F
100
AcDbEntity
  8
0
 62
     7
370
    35
100
AcDb2dPolyline
 66
     1
 10
0.0
 20
0.0
 30
0.0
  0
VERTEX
  5
659
330
658
100
AcDbEntity
  8
0
370
     0
100
AcDbVertex
100
AcDb2dVertex
 10
312.1714274107988
 20
22.31906639908273
 30
0.0
  0
VERTEX
  5
65A
330
658
100
AcDbEntity
  8
0
370
     0
100
AcDbVertex
100
AcDb2dVertex
 10
311.4878644107988
 20
22.7255603990828
 30
0.0
  0
VERTEX
  5
65B
330
658
100
AcDbEntity
  8
0
370
     0
100
AcDbVertex
100
AcDb2dVertex
 10
310.8415014107987
 20
23.18886239908279
 30
0.0
  0
VERTEX
  5
65C
330
658
100
AcDbEntity
  8
0
370
     0
100
AcDbVertex
100
AcDb2dVertex
 10
310.2370704107987
 20
23.70576939908268
 30
0.0
  0
VERTEX
  5
65D
330
658
100
AcDbEntity
  8
0
370
     0
100
AcDbVertex
100
AcDb2dVertex
 10
309.6788734107986
 20
24.27269439908277
 30
0.0
  0
VERTEX
  5
65E
330
658
100
AcDbEntity
  8
0
370
     0
100
AcDbVertex
100
AcDb2dVertex
 10
309.1710304107988
 20
24.88565539908281
 30
0.0
  0
VERTEX
  5
65F
330
658
100
AcDbEntity
  8
0
370
     0
100
AcDbVertex
100
AcDb2dVertex
 10
308.7172954107987
 20
25.54037939908274
 30
0.0
  0
VERTEX
  5
660
330
658
100
AcDbEntity
  8
0
370
     0
100
AcDbVertex
100
AcDb2dVertex
 10
308.3211774107988
 20
26.23222839908279
 30
0.0
  0
VERTEX
  5
661
330
658
100
AcDbEntity
  8
0
370
     0
100
AcDbVertex
100
AcDb2dVertex
 10
307.9856054107988
 20
26.95628839908279
 30
0.0
  0
VERTEX
  5
662
330
658
100
AcDbEntity
  8
0
370
     0
100
AcDbVertex
100
AcDb2dVertex
 10
307.7133584107988
 20
27.70731039908272
 30
0.0
  0
VERTEX
  5
663
330
658
100
AcDbEntity
  8
0
370
     0
100
AcDbVertex
100
AcDb2dVertex
 10
307.5066024107988
 20
28.47984739908277
 30
0.0
  0
VERTEX
  5
664
330
658
100
AcDbEntity
  8
0
370
     0
100
AcDbVertex
100
AcDb2dVertex
 10
307.3669534107988
 20
29.26891039908272
 30
0.0
  0
VERTEX
  5
665
330
658
100
AcDbEntity
  8
0
370
     0
100
AcDbVertex
100
AcDb2dVertex
 10
307.2959694107987
 20
30.06776939908271
 30
0.0
  0
VERTEX
  5
666
330
658
100
AcDbEntity
  8
0
370
     0
100
AcDbVertex
100
AcDb2dVertex
 10
307.2942914107988
 20
30.87035039908274
 30
0.0
  0
VERTEX
  5
667
330
658
100
AcDbEntity
  8
0
370
     0
100
AcDbVertex
100
AcDb2dVertex
 10
307.3620404107987
 20
31.67059839908269
 30
0.0
  0
VERTEX
  5
668
330
658
100
AcDbEntity
  8
0
370
     0
100
AcDbVertex
100
AcDb2dVertex
 10
307.4988504107987
 20
32.46248339908273
 30
0.0
  0
VERTEX
  5
669
330
658
100
AcDbEntity
  8
0
370
     0
100
AcDbVertex
100
AcDb2dVertex
 10
307.7037764107988
 20
33.24005639908269
 30
0.0
  0
VERTEX
  5
66A
330
658
100
AcDbEntity
  8
0
370
     0
100
AcDbVertex
100
AcDb2dVertex
 10
307.9753524107988
 20
33.99744139908281
 30
0.0
  0
VERTEX
  5
66B
330
658
100
AcDbEntity
  8
0
370
     0
100
AcDbVertex
100
AcDb2dVertex
 10
308.3116554107987
 20
34.72893239908281
 30
0.0
  0
VERTEX
  5
66C
330
658
100
AcDbEntity
  8
0
370
     0
100
AcDbVertex
100
AcDb2dVertex
 10
308.7102764107988
 20
35.42900539908278
 30
0.0
  0
VERTEX
  5
66D
330
658
100
AcDbEntity
  8
0
370
     0
100
AcDbVertex
100
AcDb2dVertex
 10
309.1682234107986
 20
36.09235139908272
 30
0.0
  0
VERTEX
  5
66E
330
658
100
AcDbEntity
  8
0
370
     0
100
AcDbVertex
100
AcDb2dVertex
 10
309.6822004107988
 20
36.7139173990828
 30
0.0
  0
VERTEX
  5
66F
330
658
100
AcDbEntity
  8
0
370
     0
100
AcDbVertex
100
AcDb2dVertex
 10
310.2483014107987
 20
37.28893039908282
 30
0.0
  0
VERTEX
  5
670
330
658
100
AcDbEntity
  8
0
370
     0
100
AcDbVertex
100
AcDb2dVertex
 10
310.8622534107988
 20
37.81299339908271
 30
0.0
  0
VERTEX
  5
671
330
658
100
AcDbEntity
  8
0
370
     0
100
AcDbVertex
100
AcDb2dVertex
 10
311.5430094107987
 20
38.29735239908281
 30
0.0
  0
VERTEX
  5
672
330
658
100
AcDbEntity
  8
0
370
     0
100
AcDbVertex
100
AcDb2dVertex
 10
312.2644144107988
 20
38.71886139908279
 30
0.0
  0
VERTEX
  5
673
330
658
100
AcDbEntity
  8
0
370
     0
100
AcDbVertex
100
AcDb2dVertex
 10
313.0205794107988
 20
39.07411639908278
 30
0.0
  0
VERTEX
  5
674
330
658
100
AcDbEntity
  8
0
370
     0
100
AcDbVertex
100
AcDb2dVertex
 10
313.8054304107988
 20
39.36029539908277
 30
0.0
  0
VERTEX
  5
675
330
658
100
AcDbEntity
  8
0
370
     0
100
AcDbVertex
100
AcDb2dVertex
 10
314.6126814107987
 20
39.57513939908269
 30
0.0
  0
VERTEX
  5
676
330
658
100
AcDbEntity
  8
0
370
     0
100
AcDbVertex
100
AcDb2dVertex
 10
315.4358924107988
 20
39.71696939908278
 30
0.0
  0
VERTEX
  5
677
330
658
100
AcDbEntity
  8
0
370
     0
100
AcDbVertex
100
AcDb2dVertex
 10
316.2684424107988
 20
39.78467239908276
 30
0.0
  0
VERTEX
  5
678
330
658
100
AcDbEntity
  8
0
370
     0
100
AcDbVertex
100
AcDb2dVertex
 10
317.1037704107988
 20
39.77769939908269
 30
0.0
  0
VERTEX
  5
679
330
658
100
AcDbEntity
  8
0
370
     0
100
AcDbVertex
100
AcDb2dVertex
 10
317.9351904107988
 20
39.69612639908282
 30
0.0
  0
VERTEX
  5
67A
330
658
100
AcDbEntity
  8
0
370
     0
100
AcDbVertex
100
AcDb2dVertex
 10
318.7560524107988
 20
39.54054739908271
 30
0.0
  0
VERTEX
  5
67B
330
658
100
AcDbEntity
  8
0
370
     0
100
AcDbVertex
100
AcDb2dVertex
 10
319.5597944107987
 20
39.31216939908281
 30
0.0
  0
VERTEX
  5
67C
330
658
100
AcDbEntity
  8
0
370
     0
100
AcDbVertex
100
AcDb2dVertex
 10
320.3399764107988
 20
39.01280639908278
 30
0.0
  0
VERTEX
  5
67D
330
658
100
AcDbEntity
  8
0
370
     0
100
AcDbVertex
100
AcDb2dVertex
 10
321.0902504107988
 20
38.64485639908271
 30
0.0
  0
SEQEND
  5
67E
330
658
100
AcDbEntity
  8
0
370
     0
  0
LINE
  5
67F
330
1F
100
AcDbEntity
  8
0
 62
     7
370
    35
100
AcDbLine
 10
316.6083474107987
 20
17.96815939908272
 30
0.0
 11
28.60834741079873
 21
17.96815939908272
 31
0.0
  0
LINE
  5
680
330
1F
100
AcDbEntity
  8
0
 62
     7
 48
0.001664
370
    35
100
AcDbLine
 10
331.3463234107988
 20
24.21249839908269
 30
0.0
 11
331.3095194107987
 21
24.26797939908279
 31
0.0
  0
POLYLINE
  5
681
330
1F
100
AcDbEntity
  8
0
 62
     7
370
    35
100
AcDb2dPolyline
 66
     1
 10
0.0
 20
0.0
 30
0.0
  0
VERTEX
  5
682
330
681
100
AcDbEntity
  8
0
370
     0
100
AcDbVertex
100
AcDb2dVertex
 10
330.2253214107988
 20
24.28293339908278
 30
0.0
  0
VERTEX
  5
683
330
681
100
AcDbEntity
  8
0
370
     0
100
AcDbVertex
100
AcDb2dVertex
 10
331.0214334107988
 20
24.27655539908279
 30
0.0
  0
VERTEX
  5
684
330
681
100
AcDbEntity
  8
0
370
     0
100
AcDbVertex
100
AcDb2dVertex
 10
331.2979834107988
 20
24.2696883990828
 30
0.0
  0
VERTEX
  5
685
330
681
100
AcDbEntity
  8
0
370
     0
100
AcDbVertex
100
AcDb2dVertex
 10
331.3079934107987
 20
24.26854439908273
 30
0.0
  0
VERTEX
  5
686
330
681
100
AcDbEntity
  8
0
370
     0
100
AcDbVertex
100
AcDb2dVertex
 10
331.3095194107987
 20
24.26797939908279
 30
0.0
  0
SEQEND
  5
687
330
681
100
AcDbEntity
  8
0
370
     0
  0
LINE
  5
688
330
1F
100
AcDbEntity
  8
0
 62
     7
 48
0.040756
370
    35
100
AcDbLine
 10
330.2253214107988
 20
24.28293339908278
 30
0.0
 11
328.5951034107987
 21
24.29034939908282
 31
0.0
  0
POLYLINE
  5
689
330
1F
100
AcDbEntity
  8
0
 62
     7
370
    35
100
AcDb2dPolyline
 66
     1
 10
0.0
 20
0.0
 30
0.0
  0
VERTEX
  5
68A
330
689
100
AcDbEntity
  8
0
370
     0
100
AcDbVertex
100
AcDb2dVertex
 10
327.4675704107988
 20
24.30531739908272
 30
0.0
  0
VERTEX
  5
68B
330
689
100
AcDbEntity
  8
0
370
     0
100
AcDbVertex
100
AcDb2dVertex
 10
327.4705304107988
 20
24.30450939908276
 30
0.0
  0
VERTEX
  5
68C
330
689
100
AcDbEntity
  8
0
370
     0
100
AcDbVertex
100
AcDb2dVertex
 10
327.4913434107987
 20
24.3028913990827
 30
0.0
  0
VERTEX
  5
68D
330
689
100
AcDbEntity
  8
0
370
     0
100
AcDbVertex
100
AcDb2dVertex
 10
327.6666664107988
 20
24.29828339908279
 30
0.0
  0
VERTEX
  5
68E
330
689
100
AcDbEntity
  8
0
370
     0
100
AcDbVertex
100
AcDb2dVertex
 10
328.5951034107987
 20
24.29034939908282
 30
0.0
  0
SEQEND
  5
68F
330
689
100
AcDbEntity
  8
0
370
     0
  0
LINE
  5
690
330
1F
100
AcDbEntity
  8
0
 62
     7
 48
0.024998
370
    35
100
AcDbLine
 10
316.6083474107987
 20
16.9682363990827
 30
0.0
 11
316.6083474107987
 21
17.96815939908272
 31
0.0
  0
POLYLINE
  5
691
330
1F
100
AcDbEntity
  8
0
 62
     7
370
    35
100
AcDb2dPolyline
 66
     1
 10
0.0
 20
0.0
 30
0.0
  0
VERTEX
  5
692
330
691
100
AcDbEntity
  8
0
370
     0
100
AcDbVertex
100
AcDb2dVertex
 10
17.77039641079875
 20
245.5398303990827
 30
0.0
  0
VERTEX
  5
693
330
691
100
AcDbEntity
  8
0
370
     0
100
AcDbVertex
100
AcDb2dVertex
 10
17.7697854107987
 20
245.5366863990827
 30
0.0
  0
VERTEX
  5
694
330
691
100
AcDbEntity
  8
0
370
     0
100
AcDbVertex
100
AcDb2dVertex
 10
17.76484141079868
 20
245.5237473990828
 30
0.0
  0
VERTEX
  5
695
330
691
100
AcDbEntity
  8
0
370
     0
100
AcDbVertex
100
AcDb2dVertex
 10
17.7211554107987
 20
245.4327743990828
 30
0.0
  0
VERTEX
  5
696
330
691
100
AcDbEntity
  8
0
370
     0
100
AcDbVertex
100
AcDb2dVertex
 10
17.38950641079873
 20
244.7482043990828
 30
0.0
  0
VERTEX
  5
697
330
691
100
AcDbEntity
  8
0
370
     0
100
AcDbVertex
100
AcDb2dVertex
 10
17.07709741079873
 20
244.0055593990828
 30
0.0
  0
VERTEX
  5
698
330
691
100
AcDbEntity
  8
0
370
     0
100
AcDbVertex
100
AcDb2dVertex
 10
16.76772541079879
 20
243.1050763990827
 30
0.0
  0
VERTEX
  5
699
330
691
100
AcDbEntity
  8
0
370
     0
100
AcDbVertex
100
AcDb2dVertex
 10
16.62818441079878
 20
242.6077013990828
 30
0.0
  0
VERTEX
  5
69A
330
691
100
AcDbEntity
  8
0
370
     0
100
AcDbVertex
100
AcDb2dVertex
 10
16.50451141079873
 20
242.0845083990827
 30
0.0
  0
VERTEX
  5
69B
330
691
100
AcDbEntity
  8
0
370
     0
100
AcDbVertex
100
AcDb2dVertex
 10
16.35233541079879
 20
241.2324873990828
 30
0.0
  0
VERTEX
  5
69C
330
691
100
AcDbEntity
  8
0
370
     0
100
AcDbVertex
100
AcDb2dVertex
 10
16.25692241079878
 20
240.3455243990828
 30
0.0
  0
VERTEX
  5
69D
330
691
100
AcDbEntity
  8
0
370
     0
100
AcDbVertex
100
AcDb2dVertex
 10
16.22442141079875
 20
239.4407703990828
 30
0.0
  0
SEQEND
  5
69E
330
691
100
AcDbEntity
  8
0
370
     0
  0
LINE
  5
69F
330
1F
100
AcDbEntity
  8
0
 62
     7
 48
0.000027
370
    35
100
AcDbLine
 10
17.76984641079878
 20
245.5407763990828
 30
0.0
 11
17.77039641079875
 21
245.5398303990827
 31
0.0
  0
LINE
  5
6A0
330
1F
100
AcDbEntity
  8
0
 62
     7
 48
0.001027
370
    35
100
AcDbLine
 10
17.7491254107988
 20
245.5762373990828
 30
0.0
 11
17.76984641079878
 21
245.5407763990828
 31
0.0
  0
ARC
  5
6A1
330
1F
100
AcDbEntity
  8
0
 62
     7
370
    35
100
AcDbCircle
 10
28.60834741079873
 20
239.4407703990828
 30
0.0
 40
12.472632
100
AcDbArc
 50
90.00000299999769
 51
150.5335169999977
  0
LINE
  5
6A2
330
1F
100
AcDbEntity
  8
0
 62
     7
 48
0.024998
370
    35
100
AcDbLine
 10
28.60834741079873
 20
252.9133343990828
 30
0.0
 11
28.60834741079873
 21
251.9133953990827
 31
0.0
  0
LINE
  5
6A3
330
1F
100
AcDbEntity
  8
0
 62
     7
 48
0.036801
370
    35
100
AcDbLine
 10
28.60834741079873
 20
252.9133343990828
 30
0.0
 11
28.60834741079873
 21
254.3853803990828
 31
0.0
  0
LINE
  5
6A4
330
1F
100
AcDbEntity
  8
0
 62
     7
 48
0.024998
370
    35
100
AcDbLine
 10
28.60834741079873
 20
254.3853803990828
 30
0.0
 11
28.60834741079873
 21
255.3852893990828
 31
0.0
  0
LINE
  5
6A5
330
1F
100
AcDbEntity
  8
0
 62
     7
 48
0.001387
370
    35
100
AcDbLine
 10
28.60834741079873
 20
255.3852893990828
 30
0.0
 11
28.60834741079873
 21
255.4407703990827
 31
0.0
  0
LINE
  5
6A6
330
1F
100
AcDbEntity
  8
0
 62
     7
 48
0.001664
370
    35
100
AcDbLine
 10
13.87035641079876
 20
245.6690413990828
 30
0.0
 11
13.9071754107988
 21
245.6135913990827
 31
0.0
  0
POLYLINE
  5
6A7
330
1F
100
AcDbEntity
  8
0
 62
     7
370
    35
100
AcDb2dPolyline
 66
     1
 10
0.0
 20
0.0
 30
0.0
  0
VERTEX
  5
6A8
330
6A7
100
AcDbEntity
  8
0
370
     0
100
AcDbVertex
100
AcDb2dVertex
 10
14.9913734107987
 20
245.5986073990828
 30
0.0
  0
VERTEX
  5
6A9
330
6A7
100
AcDbEntity
  8
0
370
     0
100
AcDbVertex
100
AcDb2dVertex
 10
14.19527741079878
 20
245.6049853990827
 30
0.0
  0
VERTEX
  5
6AA
330
6A7
100
AcDbEntity
  8
0
370
     0
100
AcDbVertex
100
AcDb2dVertex
 10
13.91872641079874
 20
245.6118823990827
 30
0.0
  0
VERTEX
  5
6AB
330
6A7
100
AcDbEntity
  8
0
370
     0
100
AcDbVertex
100
AcDb2dVertex
 10
13.90871641079877
 20
245.6130113990827
 30
0.0
  0
VERTEX
  5
6AC
330
6A7
100
AcDbEntity
  8
0
370
     0
100
AcDbVertex
100
AcDb2dVertex
 10
13.9071754107988
 20
245.6135913990827
 30
0.0
  0
SEQEND
  5
6AD
330
6A7
100
AcDbEntity
  8
0
370
     0
  0
LINE
  5
6AE
330
1F
100
AcDbEntity
  8
0
 62
     7
 48
0.040756
370
    35
100
AcDbLine
 10
14.9913734107987
 20
245.5986073990828
 30
0.0
 11
16.62160741079879
 21
245.5911913990828
 31
0.0
  0
POLYLINE
  5
6AF
330
1F
100
AcDbEntity
  8
0
 62
     7
370
    35
100
AcDb2dPolyline
 66
     1
 10
0.0
 20
0.0
 30
0.0
  0
VERTEX
  5
6B0
330
6AF
100
AcDbEntity
  8
0
370
     0
100
AcDbVertex
100
AcDb2dVertex
 10
17.7491254107988
 20
245.5762373990828
 30
0.0
  0
VERTEX
  5
6B1
330
6AF
100
AcDbEntity
  8
0
370
     0
100
AcDbVertex
100
AcDb2dVertex
 10
17.74616541079877
 20
245.5770613990828
 30
0.0
  0
VERTEX
  5
6B2
330
6AF
100
AcDbEntity
  8
0
370
     0
100
AcDbVertex
100
AcDb2dVertex
 10
17.72535241079879
 20
245.5786483990827
 30
0.0
  0
VERTEX
  5
6B3
330
6AF
100
AcDbEntity
  8
0
370
     0
100
AcDbVertex
100
AcDb2dVertex
 10
17.55002841079874
 20
245.5832563990828
 30
0.0
  0
VERTEX
  5
6B4
330
6AF
100
AcDbEntity
  8
0
370
     0
100
AcDbVertex
100
AcDb2dVertex
 10
16.62160741079879
 20
245.5911913990828
 30
0.0
  0
SEQEND
  5
6B5
330
6AF
100
AcDbEntity
  8
0
370
     0
  0
LINE
  5
6B6
330
1F
100
AcDbEntity
  8
0
 62
   253
370
    35
100
AcDbLine
 10
31.31692041079873
 20
63.69943739908269
 30
0.0
 11
313.8997904107988
 21
63.69943739908269
 31
0.0
  0
ARC
  5
6B7
330
1F
100
AcDbEntity
  8
0
 62
   253
370
    35
100
AcDbCircle
 10
31.31678241079873
 20
65.69920839908269
 30
0.0
 40
1.999774
100
AcDbArc
 50
179.9958389999996
 51
270.0041570000013
  0
LINE
  5
6B8
330
1F
100
AcDbEntity
  8
0
 62
   253
370
    35
100
AcDbLine
 10
29.31699641079877
 20
186.6382183990827
 30
0.0
 11
29.31699641079877
 21
65.69936039908272
 31
0.0
  0
ARC
  5
6B9
330
1F
100
AcDbEntity
  8
0
 62
   253
370
    35
100
AcDbCircle
 10
31.31678241079873
 20
186.6383713990827
 30
0.0
 40
1.999774
100
AcDbArc
 50
89.99584299999879
 51
180.0041610000003
  0
LINE
  5
6BA
330
1F
100
AcDbEntity
  8
0
 62
   253
370
    35
100
AcDbLine
 10
31.31692041079873
 20
188.6381573990828
 30
0.0
 11
313.8997904107988
 21
188.6381573990828
 31
0.0
  0
ARC
  5
6BB
330
1F
100
AcDbEntity
  8
0
 62
   253
370
    35
100
AcDbCircle
 10
313.8999124107987
 20
186.6383713990827
 30
0.0
 40
1.999774
100
AcDbArc
 50
359.9958429999987
 51
90.00415499999842
  0
LINE
  5
6BC
330
1F
100
AcDbEntity
  8
0
 62
   253
370
    35
100
AcDbLine
 10
315.8996994107988
 20
186.6382183990827
 30
0.0
 11
315.8996994107988
 21
65.69936039908272
 31
0.0
  0
ARC
  5
6BD
330
1F
100
AcDbEntity
  8
0
 62
   253
370
    35
100
AcDbCircle
 10
313.8999124107987
 20
65.69920839908269
 30
0.0
 40
1.999774
100
AcDbArc
 50
269.9958450000015
 51
0.0041569999979726
  0
LINE
  5
6BE
330
1F
100
AcDbEntity
  8
0
 62
     7
 48
0.001027
370
    35
100
AcDbLine
 10
17.76984641079878
 20
24.34077939908271
 30
0.0
 11
17.7491254107988
 21
24.30531739908272
 31
0.0
  0
LINE
  5
6BF
330
1F
100
AcDbEntity
  8
0
 62
     7
 48
0.000027
370
    35
100
AcDbLine
 10
17.76984641079878
 20
24.34077939908271
 30
0.0
 11
17.77039641079875
 21
24.34171039908269
 31
0.0
  0
POLYLINE
  5
6C0
330
1F
100
AcDbEntity
  8
0
 62
     7
370
    35
100
AcDb2dPolyline
 66
     1
 10
0.0
 20
0.0
 30
0.0
  0
VERTEX
  5
6C1
330
6C0
100
AcDbEntity
  8
0
370
     0
100
AcDbVertex
100
AcDb2dVertex
 10
17.77039641079875
 20
24.34171039908269
 30
0.0
  0
VERTEX
  5
6C2
330
6C0
100
AcDbEntity
  8
0
370
     0
100
AcDbVertex
100
AcDb2dVertex
 10
17.7697854107987
 20
24.34485339908277
 30
0.0
  0
VERTEX
  5
6C3
330
6C0
100
AcDbEntity
  8
0
370
     0
100
AcDbVertex
100
AcDb2dVertex
 10
17.76484141079868
 20
24.35779239908273
 30
0.0
  0
VERTEX
  5
6C4
330
6C0
100
AcDbEntity
  8
0
370
     0
100
AcDbVertex
100
AcDb2dVertex
 10
17.7211554107987
 20
24.44878139908276
 30
0.0
  0
VERTEX
  5
6C5
330
6C0
100
AcDbEntity
  8
0
370
     0
100
AcDbVertex
100
AcDb2dVertex
 10
17.38950641079873
 20
25.13336639908273
 30
0.0
  0
VERTEX
  5
6C6
330
6C0
100
AcDbEntity
  8
0
370
     0
100
AcDbVertex
100
AcDb2dVertex
 10
17.07709741079873
 20
25.87599639908269
 30
0.0
  0
VERTEX
  5
6C7
330
6C0
100
AcDbEntity
  8
0
370
     0
100
AcDbVertex
100
AcDb2dVertex
 10
16.76772541079879
 20
26.77646339908269
 30
0.0
  0
VERTEX
  5
6C8
330
6C0
100
AcDbEntity
  8
0
370
     0
100
AcDbVertex
100
AcDb2dVertex
 10
16.62818441079878
 20
27.27385439908274
 30
0.0
  0
VERTEX
  5
6C9
330
6C0
100
AcDbEntity
  8
0
370
     0
100
AcDbVertex
100
AcDb2dVertex
 10
16.50451141079873
 20
27.79704739908273
 30
0.0
  0
VERTEX
  5
6CA
330
6C0
100
AcDbEntity
  8
0
370
     0
100
AcDbVertex
100
AcDb2dVertex
 10
16.35233541079879
 20
28.64908339908273
 30
0.0
  0
VERTEX
  5
6CB
330
6C0
100
AcDbEntity
  8
0
370
     0
100
AcDbVertex
100
AcDb2dVertex
 10
16.25692241079878
 20
29.53603039908269
 30
0.0
  0
VERTEX
  5
6CC
330
6C0
100
AcDbEntity
  8
0
370
     0
100
AcDbVertex
100
AcDb2dVertex
 10
16.22442141079875
 20
30.44078539908272
 30
0.0
  0
SEQEND
  5
6CD
330
6C0
100
AcDbEntity
  8
0
370
     0
  0
ARC
  5
6CE
330
1F
100
AcDbEntity
  8
0
 62
     7
370
    35
100
AcDbCircle
 10
28.60834741079873
 20
30.44078539908272
 30
0.0
 40
12.472632
100
AcDbArc
 50
209.4664830000023
 51
269.9999970000023
  0
LINE
  5
6CF
330
1F
100
AcDbEntity
  8
0
 62
     7
 48
0.024998
370
    35
100
AcDbLine
 10
28.60834741079873
 20
16.9682363990827
 30
0.0
 11
28.60834741079873
 21
17.96815939908272
 31
0.0
  0
LINE
  5
6D0
330
1F
100
AcDbEntity
  8
0
 62
     7
 48
0.036801
370
    35
100
AcDbLine
 10
316.6083474107987
 20
16.9682363990827
 30
0.0
 11
316.6083474107987
 21
15.49619039908278
 31
0.0
  0
LINE
  5
6D1
330
1F
100
AcDbEntity
  8
0
 62
     7
 48
0.024998
370
    35
100
AcDbLine
 10
316.6083474107987
 20
15.49619039908278
 30
0.0
 11
316.6083474107987
 21
14.4962663990827
 31
0.0
  0
ARC
  5
6D2
330
1F
100
AcDbEntity
  8
0
 62
     7
370
    35
100
AcDbCircle
 10
316.6083474107987
 20
30.44078539908272
 30
0.0
 40
16.0
100
AcDbArc
 50
269.9999970000023
 51
337.0910520000003
  0
LINE
  5
6D3
330
1F
100
AcDbEntity
  8
0
 62
     7
 48
0.001387
370
    35
100
AcDbLine
 10
316.6083474107987
 20
14.4962663990827
 30
0.0
 11
316.6083474107987
 21
14.44078539908271
 31
0.0
  0
LINE
  5
6D4
330
1F
100
AcDbEntity
  8
0
 62
     7
370
    35
100
AcDbLine
 10
28.60834741079873
 20
14.44078539908271
 30
0.0
 11
316.6083474107987
 21
14.44078539908271
 31
0.0
  0
ARC
  5
6D5
330
1F
100
AcDbEntity
  8
0
 62
     7
370
    35
100
AcDbCircle
 10
28.60834741079873
 20
30.44078539908272
 30
0.0
 40
16.0
100
AcDbArc
 50
202.9089409999994
 51
269.9999970000023
  0
LINE
  5
6D6
330
1F
100
AcDbEntity
  8
0
 62
     7
370
    35
100
AcDbLine
 10
16.13572141079874
 20
233.3053023990828
 30
0.0
 11
16.13572141079874
 21
36.57625339908277
 31
0.0
  0
LINE
  5
6D7
330
1F
100
AcDbEntity
  8
0
 62
     7
 48
0.001287
370
    35
100
AcDbLine
 10
16.17211441079871
 20
233.3417103990827
 30
0.0
 11
16.13572141079874
 21
233.3053023990828
 31
0.0
  0
POLYLINE
  5
6D8
330
1F
100
AcDbEntity
  8
0
 62
     7
370
    35
100
AcDb2dPolyline
 66
     1
 10
0.0
 20
0.0
 30
0.0
  0
VERTEX
  5
6D9
330
6D8
100
AcDbEntity
  8
0
370
     0
100
AcDbVertex
100
AcDb2dVertex
 10
16.22442141079875
 20
239.4407703990828
 30
0.0
  0
VERTEX
  5
6DA
330
6D8
100
AcDbEntity
  8
0
370
     0
100
AcDbVertex
100
AcDb2dVertex
 10
16.21708141079874
 20
236.3517193990828
 30
0.0
  0
VERTEX
  5
6DB
330
6D8
100
AcDbEntity
  8
0
370
     0
100
AcDbVertex
100
AcDb2dVertex
 10
16.1971084107987
 20
234.1127363990827
 30
0.0
  0
VERTEX
  5
6DC
330
6D8
100
AcDbEntity
  8
0
370
     0
100
AcDbVertex
100
AcDb2dVertex
 10
16.1807654107987
 20
233.4405873990827
 30
0.0
  0
VERTEX
  5
6DD
330
6D8
100
AcDbEntity
  8
0
370
     0
100
AcDbVertex
100
AcDb2dVertex
 10
16.17501341079878
 20
233.3565723990827
 30
0.0
  0
VERTEX
  5
6DE
330
6D8
100
AcDbEntity
  8
0
370
     0
100
AcDbVertex
100
AcDb2dVertex
 10
16.17307541079879
 20
233.3446393990826
 30
0.0
  0
VERTEX
  5
6DF
330
6D8
100
AcDbEntity
  8
0
370
     0
100
AcDbVertex
100
AcDb2dVertex
 10
16.17211441079871
 20
233.3417103990827
 30
0.0
  0
SEQEND
  5
6E0
330
6D8
100
AcDbEntity
  8
0
370
     0
  0
POLYLINE
  5
6E1
330
1F
100
AcDbEntity
  8
0
 62
     7
370
    35
100
AcDb2dPolyline
 66
     1
 10
0.0
 20
0.0
 30
0.0
  0
VERTEX
  5
6E2
330
6E1
100
AcDbEntity
  8
0
370
     0
100
AcDbVertex
100
AcDb2dVertex
 10
16.22442141079875
 20
30.44078539908272
 30
0.0
  0
VERTEX
  5
6E3
330
6E1
100
AcDbEntity
  8
0
370
     0
100
AcDbVertex
100
AcDb2dVertex
 10
16.21708141079874
 20
33.52985139908272
 30
0.0
  0
VERTEX
  5
6E4
330
6E1
100
AcDbEntity
  8
0
370
     0
100
AcDbVertex
100
AcDb2dVertex
 10
16.1971084107987
 20
35.76883439908279
 30
0.0
  0
VERTEX
  5
6E5
330
6E1
100
AcDbEntity
  8
0
370
     0
100
AcDbVertex
100
AcDb2dVertex
 10
16.1807654107987
 20
36.44096839908276
 30
0.0
  0
VERTEX
  5
6E6
330
6E1
100
AcDbEntity
  8
0
370
     0
100
AcDbVertex
100
AcDb2dVertex
 10
16.17501341079878
 20
36.52496839908277
 30
0.0
  0
VERTEX
  5
6E7
330
6E1
100
AcDbEntity
  8
0
370
     0
100
AcDbVertex
100
AcDb2dVertex
 10
16.17307541079879
 20
36.53691539908273
 30
0.0
  0
VERTEX
  5
6E8
330
6E1
100
AcDbEntity
  8
0
370
     0
100
AcDbVertex
100
AcDb2dVertex
 10
16.17211441079871
 20
36.53986039908268
 30
0.0
  0
SEQEND
  5
6E9
330
6E1
100
AcDbEntity
  8
0
370
     0
  0
LINE
  5
6EA
330
1F
100
AcDbEntity
  8
0
 62
     7
 48
0.001287
370
    35
100
AcDbLine
 10
16.17211441079871
 20
36.53986039908268
 30
0.0
 11
16.13572141079874
 21
36.57625339908277
 31
0.0
  0
POLYLINE
  5
6EB
330
1F
100
AcDbEntity
  8
0
 62
     7
370
    35
100
AcDb2dPolyline
 66
     1
 10
0.0
 20
0.0
 30
0.0
  0
VERTEX
  5
6EC
330
6EB
100
AcDbEntity
  8
0
370
     0
100
AcDbVertex
100
AcDb2dVertex
 10
17.7491254107988
 20
24.30531739908272
 30
0.0
  0
VERTEX
  5
6ED
330
6EB
100
AcDbEntity
  8
0
370
     0
100
AcDbVertex
100
AcDb2dVertex
 10
17.74616541079877
 20
24.30450939908276
 30
0.0
  0
VERTEX
  5
6EE
330
6EB
100
AcDbEntity
  8
0
370
     0
100
AcDbVertex
100
AcDb2dVertex
 10
17.72535241079879
 20
24.3028913990827
 30
0.0
  0
VERTEX
  5
6EF
330
6EB
100
AcDbEntity
  8
0
370
     0
100
AcDbVertex
100
AcDb2dVertex
 10
17.55002841079874
 20
24.29828339908279
 30
0.0
  0
VERTEX
  5
6F0
330
6EB
100
AcDbEntity
  8
0
370
     0
100
AcDbVertex
100
AcDb2dVertex
 10
16.62160741079879
 20
24.29034939908282
 30
0.0
  0
SEQEND
  5
6F1
330
6EB
100
AcDbEntity
  8
0
370
     0
  0
LINE
  5
6F2
330
1F
100
AcDbEntity
  8
0
 62
     7
 48
0.040756
370
    35
100
AcDbLine
 10
16.62160741079879
 20
24.29034939908282
 30
0.0
 11
14.9913734107987
 21
24.28293339908278
 31
0.0
  0
POLYLINE
  5
6F3
330
1F
100
AcDbEntity
  8
0
 62
     7
370
    35
100
AcDb2dPolyline
 66
     1
 10
0.0
 20
0.0
 30
0.0
  0
VERTEX
  5
6F4
330
6F3
100
AcDbEntity
  8
0
370
     0
100
AcDbVertex
100
AcDb2dVertex
 10
14.9913734107987
 20
24.28293339908278
 30
0.0
  0
VERTEX
  5
6F5
330
6F3
100
AcDbEntity
  8
0
370
     0
100
AcDbVertex
100
AcDb2dVertex
 10
14.19527741079878
 20
24.27655539908279
 30
0.0
  0
VERTEX
  5
6F6
330
6F3
100
AcDbEntity
  8
0
370
     0
100
AcDbVertex
100
AcDb2dVertex
 10
13.91872641079874
 20
24.2696883990828
 30
0.0
  0
VERTEX
  5
6F7
330
6F3
100
AcDbEntity
  8
0
370
     0
100
AcDbVertex
100
AcDb2dVertex
 10
13.90871641079877
 20
24.26854439908273
 30
0.0
  0
VERTEX
  5
6F8
330
6F3
100
AcDbEntity
  8
0
370
     0
100
AcDbVertex
100
AcDb2dVertex
 10
13.9071754107988
 20
24.26797939908279
 30
0.0
  0
SEQEND
  5
6F9
330
6F3
100
AcDbEntity
  8
0
370
     0
  0
LINE
  5
6FA
330
1F
100
AcDbEntity
  8
0
 62
     7
 48
0.001665
370
    35
100
AcDbLine
 10
13.9071754107988
 20
24.26797939908279
 30
0.0
 11
13.87035641079876
 21
24.21249839908269
 31
0.0
  0
LINE
  5
6FB
330
1F
100
AcDbEntity
  8
0
 62
     7
 48
0.036801
370
    35
100
AcDbLine
 10
28.60834741079873
 20
16.9682363990827
 30
0.0
 11
28.60834741079873
 21
15.49619039908278
 31
0.0
  0
LINE
  5
6FC
330
1F
100
AcDbEntity
  8
0
 62
     7
 48
0.024998
370
    35
100
AcDbLine
 10
28.60834741079873
 20
15.49619039908278
 30
0.0
 11
28.60834741079873
 21
14.4962663990827
 31
0.0
  0
LINE
  5
6FD
330
1F
100
AcDbEntity
  8
0
 62
     7
 48
0.001387
370
    35
100
AcDbLine
 10
28.60834741079873
 20
14.4962663990827
 30
0.0
 11
28.60834741079873
 21
14.44078539908271
 31
0.0
  0
LINE
  5
6FE
330
1F
100
AcDbEntity
  8
0
 62
     7
 48
0.001962
370
    35
100
AcDbLine
 10
12.60834741079873
 20
36.66907239908275
 30
0.0
 11
12.66382841079871
 21
36.61359139908269
 31
0.0
  0
POLYLINE
  5
6FF
330
1F
100
AcDbEntity
  8
0
 62
     7
370
    35
100
AcDb2dPolyline
 66
     1
 10
0.0
 20
0.0
 30
0.0
  0
VERTEX
  5
700
330
6FF
100
AcDbEntity
  8
0
370
     0
100
AcDbVertex
100
AcDb2dVertex
 10
12.66382841079871
 20
36.61359139908269
 30
0.0
  0
VERTEX
  5
701
330
6FF
100
AcDbEntity
  8
0
370
     0
100
AcDbVertex
100
AcDb2dVertex
 10
12.66817741079876
 20
36.61258439908279
 30
0.0
  0
VERTEX
  5
702
330
6FF
100
AcDbEntity
  8
0
370
     0
100
AcDbVertex
100
AcDb2dVertex
 10
12.69683341079872
 20
36.61058539908272
 30
0.0
  0
VERTEX
  5
703
330
6FF
100
AcDbEntity
  8
0
370
     0
100
AcDbVertex
100
AcDb2dVertex
 10
13.66375241079868
 20
36.59863739908276
 30
0.0
  0
SEQEND
  5
704
330
6FF
100
AcDbEntity
  8
0
370
     0
  0
LINE
  5
705
330
1F
100
AcDbEntity
  8
0
 62
     7
 48
0.036802
370
    35
100
AcDbLine
 10
15.13579841079877
 20
36.59122139908273
 30
0.0
 11
13.66375241079868
 21
36.59863739908276
 31
0.0
  0
POLYLINE
  5
706
330
1F
100
AcDbEntity
  8
0
 62
     7
370
    35
100
AcDb2dPolyline
 66
     1
 10
0.0
 20
0.0
 30
0.0
  0
VERTEX
  5
707
330
706
100
AcDbEntity
  8
0
370
     0
100
AcDbVertex
100
AcDb2dVertex
 10
15.13579841079877
 20
36.59122139908273
 30
0.0
  0
VERTEX
  5
708
330
706
100
AcDbEntity
  8
0
370
     0
100
AcDbVertex
100
AcDb2dVertex
 10
16.10294641079872
 20
36.57924339908273
 30
0.0
  0
VERTEX
  5
709
330
706
100
AcDbEntity
  8
0
370
     0
100
AcDbVertex
100
AcDb2dVertex
 10
16.13140341079872
 20
36.57726039908272
 30
0.0
  0
VERTEX
  5
70A
330
706
100
AcDbEntity
  8
0
370
     0
100
AcDbVertex
100
AcDb2dVertex
 10
16.13572141079874
 20
36.57625339908277
 30
0.0
  0
SEQEND
  5
70B
330
706
100
AcDbEntity
  8
0
370
     0
  0
POLYLINE
  5
70C
330
1F
100
AcDbEntity
  8
0
 62
     7
370
    35
100
AcDb2dPolyline
 66
     1
 10
0.0
 20
0.0
 30
0.0
  0
VERTEX
  5
70D
330
70C
100
AcDbEntity
  8
0
370
     0
100
AcDbVertex
100
AcDb2dVertex
 10
15.13579841079877
 20
233.2903493990826
 30
0.0
  0
VERTEX
  5
70E
330
70C
100
AcDbEntity
  8
0
370
     0
100
AcDbVertex
100
AcDb2dVertex
 10
16.10294641079872
 20
233.3023113990827
 30
0.0
  0
VERTEX
  5
70F
330
70C
100
AcDbEntity
  8
0
370
     0
100
AcDbVertex
100
AcDb2dVertex
 10
16.13140341079872
 20
233.3042953990827
 30
0.0
  0
VERTEX
  5
710
330
70C
100
AcDbEntity
  8
0
370
     0
100
AcDbVertex
100
AcDb2dVertex
 10
16.13572141079874
 20
233.3053023990828
 30
0.0
  0
SEQEND
  5
711
330
70C
100
AcDbEntity
  8
0
370
     0
  0
LINE
  5
712
330
1F
100
AcDbEntity
  8
0
 62
     7
 48
0.036802
370
    35
100
AcDbLine
 10
15.13579841079877
 20
233.2903493990826
 30
0.0
 11
13.66375241079868
 21
233.2829333990828
 31
0.0
  0
POLYLINE
  5
713
330
1F
100
AcDbEntity
  8
0
 62
     7
370
    35
100
AcDb2dPolyline
 66
     1
 10
0.0
 20
0.0
 30
0.0
  0
VERTEX
  5
714
330
713
100
AcDbEntity
  8
0
370
     0
100
AcDbVertex
100
AcDb2dVertex
 10
12.66382841079871
 20
233.2679493990827
 30
0.0
  0
VERTEX
  5
715
330
713
100
AcDbEntity
  8
0
370
     0
100
AcDbVertex
100
AcDb2dVertex
 10
12.66817741079876
 20
233.2689563990828
 30
0.0
  0
VERTEX
  5
716
330
713
100
AcDbEntity
  8
0
370
     0
100
AcDbVertex
100
AcDb2dVertex
 10
12.69683341079872
 20
233.2709703990827
 30
0.0
  0
VERTEX
  5
717
330
713
100
AcDbEntity
  8
0
370
     0
100
AcDbVertex
100
AcDb2dVertex
 10
13.66375241079868
 20
233.2829333990828
 30
0.0
  0
SEQEND
  5
718
330
713
100
AcDbEntity
  8
0
370
     0
  0
LINE
  5
719
330
1F
100
AcDbEntity
  8
0
 62
     7
 48
0.001961
370
    35
100
AcDbLine
 10
12.60834741079873
 20
233.2124983990827
 30
0.0
 11
12.66382841079871
 21
233.2679493990827
 31
0.0
  0
LINE
  5
71A
330
1F
100
AcDbEntity
  8
0
 62
   253
 48
0.000091
370
    35
100
AcDbLine
 10
31.39872241079877
 20
188.5563703990828
 30
0.0
 11
31.39872241079877
 21
188.5527393990827
 31
0.0
  0
LINE
  5
71B
330
1F
100
AcDbEntity
  8
0
 62
   253
 48
0.000091
370
    35
100
AcDbLine
 10
313.8179724107988
 20
188.5563703990828
 30
0.0
 11
313.8179724107988
 21
188.5527393990827
 31
0.0
  0
LINE
  5
71C
330
1F
100
AcDbEntity
  8
0
 62
   253
 48
0.000174
370
    35
100
AcDbLine
 10
231.8694564107987
 20
188.4734853990828
 30
0.0
 11
231.8653664107988
 21
188.4791303990827
 31
0.0
  0
LINE
  5
71D
330
1F
100
AcDbEntity
  8
0
 62
   253
 48
0.000174
370
    35
100
AcDbLine
 10
235.3472394107988
 20
188.4734853990828
 30
0.0
 11
235.3512984107987
 21
188.4791303990827
 31
0.0
  0
LINE
  5
71E
330
1F
100
AcDbEntity
  8
0
 62
     7
370
    35
100
AcDbLine
 10
12.60834741079873
 20
36.66907239908275
 30
0.0
 11
12.60834741079873
 21
233.2124983990827
 31
0.0
  0
ARC
  5
71F
330
1F
100
AcDbEntity
  8
0
 62
     7
370
    35
100
AcDbCircle
 10
28.60834741079873
 20
239.4407703990828
 30
0.0
 40
16.0
100
AcDbArc
 50
157.0910590000006
 51
180.0000050000005
  0
LINE
  5
720
330
1F
100
AcDbEntity
  8
0
 62
     7
370
    35
100
AcDbLine
 10
12.60834741079873
 20
30.44078539908272
 30
0.0
 11
12.60834741079873
 21
239.4407703990828
 31
0.0
  0
ARC
  5
721
330
1F
100
AcDbEntity
  8
0
 62
     7
370
    35
100
AcDbCircle
 10
28.60834741079873
 20
30.44078539908272
 30
0.0
 40
16.0
100
AcDbArc
 50
180.0000050000005
 51
269.9999970000023
  0
ARC
  5
722
330
1F
100
AcDbEntity
  8
0
 62
     7
370
    35
100
AcDbCircle
 10
316.6083474107987
 20
30.44078539908272
 30
0.0
 40
16.0
100
AcDbArc
 50
269.9999970000023
 51
0.0
  0
LINE
  5
723
330
1F
100
AcDbEntity
  8
0
 62
     7
 48
0.155707
370
    35
100
AcDbLine
 10
332.6083474107988
 20
36.66907239908275
 30
0.0
 11
332.6083474107988
 21
30.44078539908272
 31
0.0
  0
LINE
  5
724
330
1F
100
AcDbEntity
  8
0
 62
     7
 48
0.155707
370
    35
100
AcDbLine
 10
332.6083474107988
 20
239.4407703990828
 30
0.0
 11
332.6083474107988
 21
233.2124983990827
 31
0.0
  0
ARC
  5
725
330
1F
100
AcDbEntity
  8
0
 62
     7
370
    35
100
AcDbCircle
 10
316.6083474107987
 20
239.4407703990828
 30
0.0
 40
16.0
100
AcDbArc
 50
0.0
 51
22.90894799999973
  0
LINE
  5
726
330
1F
100
AcDbEntity
  8
0
 62
     7
370
    35
100
AcDbLine
 10
28.60834741079873
 20
14.44078539908271
 30
0.0
 11
316.6083474107987
 21
14.44078539908271
 31
0.0
  0
ARC
  5
727
330
1F
100
AcDbEntity
  8
0
 62
   253
370
    35
100
AcDbCircle
 10
119.6186934107986
 20
92.4248243990827
 30
0.0
 40
2.009984
100
AcDbArc
 50
118.2594390000032
 51
180.141761999998
  0
ARC
  5
728
330
1F
100
AcDbEntity
  8
0
 62
   253
370
    35
100
AcDbCircle
 10
137.6041364107987
 20
58.75290439908271
 30
0.0
 40
40.184224
100
AcDbArc
 50
89.99399199999924
 51
118.1159230000032
  0
LINE
  5
729
330
1F
100
AcDbEntity
  8
0
 62
   253
370
    35
100
AcDbLine
 10
207.6083474107988
 20
98.9372913990828
 30
0.0
 11
137.6083474107987
 21
98.9372913990828
 31
0.0
  0
ARC
  5
72A
330
1F
100
AcDbEntity
  8
0
 62
   253
370
    35
100
AcDbCircle
 10
207.6125284107988
 20
58.75255339908267
 30
0.0
 40
40.184573
100
AcDbArc
 50
61.88426600000052
 51
90.00595200000004
  0
ARC
  5
72B
330
1F
100
AcDbEntity
  8
0
 62
   253
370
    35
100
AcDbCircle
 10
225.5980024107987
 20
92.4248243990827
 30
0.0
 40
2.009977999999998
100
AcDbArc
 50
359.8580049999996
 51
61.74050500000233
  0
POLYLINE
  5
72C
330
1F
100
AcDbEntity
  8
0
 62
   253
370
    35
100
AcDb2dPolyline
 66
     1
 10
0.0
 20
0.0
 30
0.0
  0
VERTEX
  5
72D
330
72C
100
AcDbEntity
  8
0
 62
   253
370
     0
100
AcDbVertex
100
AcDb2dVertex
 10
118.4318794107986
 20
87.83101339908268
 30
0.0
  0
VERTEX
  5
72E
330
72C
100
AcDbEntity
  8
0
 62
   253
370
     0
100
AcDbVertex
100
AcDb2dVertex
 10
117.5807294107986
 20
87.84401439908272
 30
0.0
  0
VERTEX
  5
72F
330
72C
100
AcDbEntity
  8
0
 62
   253
370
     0
100
AcDbVertex
100
AcDb2dVertex
 10
117.1437484107986
 20
87.86229439908273
 30
0.0
  0
VERTEX
  5
730
330
72C
100
AcDbEntity
  8
0
 62
   253
370
     0
100
AcDbVertex
100
AcDb2dVertex
 10
117.1122844107986
 20
87.86720739908272
 30
0.0
  0
VERTEX
  5
731
330
72C
100
AcDbEntity
  8
0
 62
   253
370
     0
100
AcDbVertex
100
AcDb2dVertex
 10
117.1095684107986
 20
87.86830639908279
 30
0.0
  0
VERTEX
  5
732
330
72C
100
AcDbEntity
  8
0
 62
   253
370
     0
100
AcDbVertex
100
AcDb2dVertex
 10
117.1083474107986
 20
87.86964939908278
 30
0.0
  0
SEQEND
  5
733
330
72C
100
AcDbEntity
  8
0
 62
   253
370
     0
  0
ARC
  5
734
330
1F
100
AcDbEntity
  8
0
 62
   253
370
    35
100
AcDbCircle
 10
137.0817824107986
 20
2184.605107399083
 30
0.0
 40
2096.857649
100
AcDbArc
 50
269.4903899999998
 51
270.0143890000021
  0
LINE
  5
735
330
1F
100
AcDbEntity
  8
0
 62
   253
 48
0.012173
370
    35
100
AcDbLine
 10
137.6083474107987
 20
88.23408939908267
 30
0.0
 11
137.6083474107987
 21
87.74718139908278
 31
0.0
  0
LINE
  5
736
330
1F
100
AcDbEntity
  8
0
 62
   253
370
    35
100
AcDbLine
 10
207.6083474107988
 20
87.74718139908278
 30
0.0
 11
137.6083474107987
 21
87.74718139908278
 31
0.0
  0
LINE
  5
737
330
1F
100
AcDbEntity
  8
0
 62
   253
 48
0.012173
370
    35
100
AcDbLine
 10
207.6083474107988
 20
88.23408939908267
 30
0.0
 11
207.6083474107988
 21
87.74718139908278
 31
0.0
  0
ARC
  5
738
330
1F
100
AcDbEntity
  8
0
 62
   253
370
    35
100
AcDbCircle
 10
208.1349284107988
 20
2184.601201399083
 30
0.0
 40
2096.853677
100
AcDbArc
 50
269.9856130000006
 51
270.5096119999974
  0
POLYLINE
  5
739
330
1F
100
AcDbEntity
  8
0
 62
   253
370
    35
100
AcDb2dPolyline
 66
     1
 10
0.0
 20
0.0
 30
0.0
  0
VERTEX
  5
73A
330
739
100
AcDbEntity
  8
0
 62
   253
370
     0
100
AcDbVertex
100
AcDb2dVertex
 10
228.1083474107988
 20
87.86964939908278
 30
0.0
  0
VERTEX
  5
73B
330
739
100
AcDbEntity
  8
0
 62
   253
370
     0
100
AcDbVertex
100
AcDb2dVertex
 10
228.1077984107987
 20
87.86873339908273
 30
0.0
  0
VERTEX
  5
73C
330
739
100
AcDbEntity
  8
0
 62
   253
370
     0
100
AcDbVertex
100
AcDb2dVertex
 10
228.1068524107987
 20
87.86815339908271
 30
0.0
  0
VERTEX
  5
73D
330
739
100
AcDbEntity
  8
0
 62
   253
370
     0
100
AcDbVertex
100
AcDb2dVertex
 10
228.1034954107988
 20
87.86693239908279
 30
0.0
  0
VERTEX
  5
73E
330
739
100
AcDbEntity
  8
0
 62
   253
370
     0
100
AcDbVertex
100
AcDb2dVertex
 10
228.0646464107987
 20
87.86150039908269
 30
0.0
  0
VERTEX
  5
73F
330
739
100
AcDbEntity
  8
0
 62
   253
370
     0
100
AcDbVertex
100
AcDb2dVertex
 10
227.9242964107988
 20
87.85313839908278
 30
0.0
  0
VERTEX
  5
740
330
739
100
AcDbEntity
  8
0
 62
   253
370
     0
100
AcDbVertex
100
AcDb2dVertex
 10
226.7848304107987
 20
87.83101339908268
 30
0.0
  0
SEQEND
  5
741
330
739
100
AcDbEntity
  8
0
 62
   253
370
     0
  0
LINE
  5
742
330
1F
100
AcDbEntity
  8
0
 62
   253
 48
0.001736
370
    35
100
AcDbLine
 10
117.6083474107986
 20
88.43904539908271
 30
0.0
 11
117.6083474107986
 21
88.36958739908274
 31
0.0
  0
LINE
  5
743
330
1F
100
AcDbEntity
  8
0
 62
   253
 48
0.09952
370
    35
100
AcDbLine
 10
117.6083474107986
 20
88.43904539908271
 30
0.0
 11
117.6083474107986
 21
92.4198503990827
 31
0.0
  0
LINE
  5
744
330
1F
100
AcDbEntity
  8
0
 62
   253
 48
0.267579
370
    35
100
AcDbLine
 10
137.6083474107987
 20
88.23412039908275
 30
0.0
 11
137.6083474107987
 21
98.9372913990828
 31
0.0
  0
LINE
  5
745
330
1F
100
AcDbEntity
  8
0
 62
   253
 48
0.2675800000000001
370
    35
100
AcDbLine
 10
207.6083474107988
 20
88.23408939908267
 30
0.0
 11
207.6083474107988
 21
98.9372913990828
 31
0.0
  0
LINE
  5
746
330
1F
100
AcDbEntity
  8
0
 62
   253
 48
0.09952
370
    35
100
AcDbLine
 10
227.6083474107988
 20
88.43904539908271
 30
0.0
 11
227.6083474107988
 21
92.4198503990827
 31
0.0
  0
LINE
  5
747
330
1F
100
AcDbEntity
  8
0
 62
   253
 48
0.001736
370
    35
100
AcDbLine
 10
227.6083474107988
 20
88.43904539908271
 30
0.0
 11
227.6083474107988
 21
88.36958739908274
 31
0.0
  0
LINE
  5
748
330
1F
100
AcDbEntity
  8
0
 62
   253
370
    35
100
AcDbLine
 10
312.4159644107987
 20
185.6044353990828
 30
0.0
 11
32.80073041079867
 21
185.6044353990828
 31
0.0
  0
LINE
  5
749
330
1F
100
AcDbEntity
  8
0
 62
   253
 48
0.002086
370
    35
100
AcDbLine
 10
312.4159644107987
 20
185.6044353990828
 30
0.0
 11
312.3569434107988
 21
185.5454453990826
 31
0.0
  0
LINE
  5
74A
330
1F
100
AcDbEntity
  8
0
 62
   253
 48
0.002086
370
    35
100
AcDbLine
 10
30.86733541079868
 20
183.5530443990828
 30
0.0
 11
30.80834441079878
 21
183.6120343990827
 31
0.0
  0
ARC
  5
74B
330
1F
100
AcDbEntity
  8
0
 62
   253
370
    35
100
AcDbCircle
 10
32.79732741079874
 20
183.6154523990827
 30
0.0
 40
1.988738999999999
100
AcDbArc
 50
89.90185300000177
 51
180.098144999999
  0
LINE
  5
74C
330
1F
100
AcDbEntity
  8
0
 62
   253
 48
0.002085
370
    35
100
AcDbLine
 10
314.4083354107987
 20
183.6120343990827
 30
0.0
 11
314.3493754107987
 21
183.5530443990828
 31
0.0
  0
ARC
  5
74D
330
1F
100
AcDbEntity
  8
0
 62
   253
370
    35
100
AcDbCircle
 10
312.4193824107988
 20
183.6154523990827
 30
0.0
 40
1.988738999999999
100
AcDbArc
 50
359.9018499999996
 51
90.09814499999901
  0
LINE
  5
74E
330
1F
100
AcDbEntity
  8
0
 62
   253
 48
0.001737
370
    35
100
AcDbLine
 10
117.1083474107986
 20
87.93913739908274
 30
0.0
 11
117.1083474107986
 21
87.86964939908278
 31
0.0
  0
ELLIPSE
  5
74F
330
1F
100
AcDbEntity
  8
0
 62
   253
370
    35
100
AcDbEllipse
 10
117.1083474107986
 20
88.43904539908271
 30
0.0
 11
0.5
 21
0.0
 31
0.0
210
0.0
220
0.0
230
1.0
 40
0.9998479999999998
 41
4.712388980384688
 42
6.283185307179584
  0
LINE
  5
750
330
1F
100
AcDbEntity
  8
0
 62
   253
 48
0.050026
370
    35
100
AcDbLine
 10
30.80834441079878
 20
88.40340139908274
 30
0.0
 11
30.80834441079878
 21
90.40443939908271
 31
0.0
  0
LINE
  5
751
330
1F
100
AcDbEntity
  8
0
 62
   253
 48
0.012284
370
    35
100
AcDbLine
 10
30.80834441079878
 20
90.40443939908271
 30
0.0
 11
30.80834441079878
 21
90.8958023990827
 31
0.0
  0
LINE
  5
752
330
1F
100
AcDbEntity
  8
0
 62
   253
370
    35
100
AcDbLine
 10
30.80834441079878
 20
90.8958023990827
 30
0.0
 11
30.80834441079878
 21
183.6120343990827
 31
0.0
  0
LINE
  5
753
330
1F
100
AcDbEntity
  8
0
 62
   253
370
    35
100
AcDbLine
 10
32.85973641079874
 20
87.93913739908274
 30
0.0
 11
117.1083474107986
 21
87.93913739908274
 31
0.0
  0
POLYLINE
  5
754
330
1F
100
AcDbEntity
  8
0
 62
   253
370
    35
100
AcDb2dPolyline
 66
     1
 10
0.0
 20
0.0
 30
0.0
  0
VERTEX
  5
755
330
754
100
AcDbEntity
  8
0
 62
   253
370
     0
100
AcDbVertex
100
AcDb2dVertex
 10
32.85973641079874
 20
87.93913739908274
 30
0.0
  0
VERTEX
  5
756
330
754
100
AcDbEntity
  8
0
 62
   253
370
     0
100
AcDbVertex
100
AcDb2dVertex
 10
31.56275441079879
 20
87.9261063990827
 30
0.0
  0
VERTEX
  5
757
330
754
100
AcDbEntity
  8
0
 62
   253
370
     0
100
AcDbVertex
100
AcDb2dVertex
 10
31.40047741079878
 20
87.91902639908274
 30
0.0
  0
VERTEX
  5
758
330
754
100
AcDbEntity
  8
0
 62
   253
370
     0
100
AcDbVertex
100
AcDb2dVertex
 10
31.36544341079878
 20
87.91524239908268
 30
0.0
  0
SEQEND
  5
759
330
754
100
AcDbEntity
  8
0
 62
   253
370
     0
  0
LINE
  5
75A
330
1F
100
AcDbEntity
  8
0
 62
   253
 48
0.001737
370
    35
100
AcDbLine
 10
228.1083474107988
 20
87.93913739908274
 30
0.0
 11
228.1083474107988
 21
87.86964939908278
 31
0.0
  0
ELLIPSE
  5
75B
330
1F
100
AcDbEntity
  8
0
 62
   253
370
    35
100
AcDbEllipse
 10
228.1083474107988
 20
88.43904539908271
 30
0.0
 11
-0.5
 21
0.0
 31
0.0
210
0.0
220
0.0
230
1.0
 40
0.9998479999999998
 41
0.0000000000000002
 42
1.570796326794896
  0
LINE
  5
75C
330
1F
100
AcDbEntity
  8
0
 62
   253
370
    35
100
AcDbLine
 10
314.4083354107987
 20
183.6120343990827
 30
0.0
 11
314.4083354107987
 21
90.40443939908271
 31
0.0
  0
LINE
  5
75D
330
1F
100
AcDbEntity
  8
0
 62
   253
 48
0.050026
370
    35
100
AcDbLine
 10
314.4083354107987
 20
90.40443939908271
 30
0.0
 11
314.4083354107987
 21
88.40340139908274
 31
0.0
  0
LINE
  5
75E
330
1F
100
AcDbEntity
  8
0
 62
   253
370
    35
100
AcDbLine
 10
228.1083474107988
 20
87.93913739908274
 30
0.0
 11
312.3569434107988
 21
87.93913739908274
 31
0.0
  0
POLYLINE
  5
75F
330
1F
100
AcDbEntity
  8
0
 62
   253
370
    35
100
AcDb2dPolyline
 66
     1
 10
0.0
 20
0.0
 30
0.0
  0
VERTEX
  5
760
330
75F
100
AcDbEntity
  8
0
 62
   253
370
     0
100
AcDbVertex
100
AcDb2dVertex
 10
312.3569434107988
 20
87.93913739908274
 30
0.0
  0
VERTEX
  5
761
330
75F
100
AcDbEntity
  8
0
 62
   253
370
     0
100
AcDbVertex
100
AcDb2dVertex
 10
313.6539404107988
 20
87.9261063990827
 30
0.0
  0
VERTEX
  5
762
330
75F
100
AcDbEntity
  8
0
 62
   253
370
     0
100
AcDbVertex
100
AcDb2dVertex
 10
313.8162334107986
 20
87.91902639908274
 30
0.0
  0
VERTEX
  5
763
330
75F
100
AcDbEntity
  8
0
 62
   253
370
     0
100
AcDbVertex
100
AcDb2dVertex
 10
313.8512674107988
 20
87.91524239908268
 30
0.0
  0
SEQEND
  5
764
330
75F
100
AcDbEntity
  8
0
 62
   253
370
     0
  0
ARC
  5
765
330
1F
100
AcDbEntity
  8
0
 62
   253
370
    35
100
AcDbCircle
 10
27.21752441079877
 20
87.94292139908272
 30
0.0
 40
3.608041
100
AcDbArc
 50
359.9944090000004
 51
3.034651000001181
  0
ARC
  5
766
330
1F
100
AcDbEntity
  8
0
 62
   253
370
    35
100
AcDbCircle
 10
33.87998441079878
 20
88.4031573990828
 30
0.0
 40
3.071624
100
AcDbArc
 50
179.9955379999998
 51
184.138201999999
  0
LINE
  5
767
330
1F
100
AcDbEntity
  8
0
 62
   253
 48
0.001193
370
    35
100
AcDbLine
 10
30.81637041079876
 20
88.18147739908274
 30
0.0
 11
30.82027741079878
 21
88.13390039908268
 31
0.0
  0
LINE
  5
768
330
1F
100
AcDbEntity
  8
0
 62
   253
 48
0.00159
370
    35
100
AcDbLine
 10
31.36544341079878
 20
87.91524239908268
 30
0.0
 11
31.30308041079878
 21
87.9027913990828
 31
0.0
  0
POLYLINE
  5
769
330
1F
100
AcDbEntity
  8
0
 62
   253
370
    35
100
AcDb2dPolyline
 66
     1
 10
0.0
 20
0.0
 30
0.0
  0
VERTEX
  5
76A
330
769
100
AcDbEntity
  8
0
 62
   253
370
     0
100
AcDbVertex
100
AcDb2dVertex
 10
30.82027741079878
 20
88.13390039908268
 30
0.0
  0
VERTEX
  5
76B
330
769
100
AcDbEntity
  8
0
 62
   253
370
     0
100
AcDbVertex
100
AcDb2dVertex
 10
30.9444534107987
 20
88.02370139908278
 30
0.0
  0
VERTEX
  5
76C
330
769
100
AcDbEntity
  8
0
 62
   253
370
     0
100
AcDbVertex
100
AcDb2dVertex
 10
31.03301541079873
 20
87.96962439908272
 30
0.0
  0
VERTEX
  5
76D
330
769
100
AcDbEntity
  8
0
 62
   253
370
     0
100
AcDbVertex
100
AcDb2dVertex
 10
31.15595541079871
 20
87.92226139908271
 30
0.0
  0
VERTEX
  5
76E
330
769
100
AcDbEntity
  8
0
 62
   253
370
     0
100
AcDbVertex
100
AcDb2dVertex
 10
31.30308041079878
 20
87.9027913990828
 30
0.0
  0
SEQEND
  5
76F
330
769
100
AcDbEntity
  8
0
 62
   253
370
     0
  0
LINE
  5
770
330
1F
100
AcDbEntity
  8
0
 62
   253
 48
0.000594
370
    35
100
AcDbLine
 10
31.32683841079871
 20
87.9027913990828
 30
0.0
 11
31.30308041079878
 21
87.9027913990828
 31
0.0
  0
ARC
  5
771
330
1F
100
AcDbEntity
  8
0
 62
   253
370
    35
100
AcDbCircle
 10
311.3950294107988
 20
88.40111239908273
 30
0.0
 40
3.013288
100
AcDbArc
 50
354.9125380000021
 51
0.0431890000000184
  0
ARC
  5
772
330
1F
100
AcDbEntity
  8
0
 62
   253
370
    35
100
AcDbCircle
 10
317.9976294107988
 20
87.94298239908274
 30
0.0
 40
3.606482
100
AcDbArc
 50
176.9649420000004
 51
180.0059239999997
  0
LINE
  5
773
330
1F
100
AcDbEntity
  8
0
 62
   253
 48
0.001589
370
    35
100
AcDbLine
 10
313.8512674107988
 20
87.91524239908268
 30
0.0
 11
313.9136154107988
 21
87.9027913990828
 31
0.0
  0
POLYLINE
  5
774
330
1F
100
AcDbEntity
  8
0
 62
   253
370
    35
100
AcDb2dPolyline
 66
     1
 10
0.0
 20
0.0
 30
0.0
  0
VERTEX
  5
775
330
774
100
AcDbEntity
  8
0
 62
   253
370
     0
100
AcDbVertex
100
AcDb2dVertex
 10
313.9136154107988
 20
87.9027913990828
 30
0.0
  0
VERTEX
  5
776
330
774
100
AcDbEntity
  8
0
 62
   253
370
     0
100
AcDbVertex
100
AcDb2dVertex
 10
314.0611674107987
 20
87.92238339908273
 30
0.0
  0
VERTEX
  5
777
330
774
100
AcDbEntity
  8
0
 62
   253
370
     0
100
AcDbVertex
100
AcDb2dVertex
 10
314.1843364107988
 20
87.96996039908272
 30
0.0
  0
VERTEX
  5
778
330
774
100
AcDbEntity
  8
0
 62
   253
370
     0
100
AcDbVertex
100
AcDb2dVertex
 10
314.2606914107988
 20
88.01561439908274
 30
0.0
  0
VERTEX
  5
779
330
774
100
AcDbEntity
  8
0
 62
   253
370
     0
100
AcDbVertex
100
AcDb2dVertex
 10
314.3964334107988
 20
88.13390039908268
 30
0.0
  0
SEQEND
  5
77A
330
774
100
AcDbEntity
  8
0
 62
   253
370
     0
  0
LINE
  5
77B
330
1F
100
AcDbEntity
  8
0
 62
   253
 48
0.000298
370
    35
100
AcDbLine
 10
313.9017434107988
 20
87.47246239908276
 30
0.0
 11
313.8898414107988
 21
87.47246239908276
 31
0.0
  0
LINE
  5
77C
330
1F
100
AcDbEntity
  8
0
 62
   253
 48
0.000594
370
    35
100
AcDbLine
 10
313.9136154107988
 20
87.9027913990828
 30
0.0
 11
313.8898414107988
 21
87.9027913990828
 31
0.0
  0
LINE
  5
77D
330
1F
100
AcDbEntity
  8
0
 62
   253
 48
0.000123
370
    35
100
AcDbLine
 10
30.82586141079878
 20
87.93764239908268
 30
0.0
 11
30.82581541079867
 21
87.94255539908274
 31
0.0
  0
LINE
  5
77E
330
1F
100
AcDbEntity
  8
0
 62
   253
 48
0.000124
370
    35
100
AcDbLine
 10
314.3908184107988
 20
87.93764239908268
 30
0.0
 11
314.3908794107987
 21
87.94258639908269
 31
0.0
  0
LINE
  5
77F
330
1F
100
AcDbEntity
  8
0
 62
   253
370
    35
100
AcDbLine
 10
228.1083474107988
 20
86.72700939908272
 30
0.0
 11
309.3859964107988
 21
86.72700939908272
 31
0.0
  0
LINE
  5
780
330
1F
100
AcDbEntity
  8
0
 62
   253
 48
0.024672
370
    35
100
AcDbLine
 10
310.3728744107987
 20
86.72700939908272
 30
0.0
 11
309.3859964107988
 21
86.72700939908272
 31
0.0
  0
LINE
  5
781
330
1F
100
AcDbEntity
  8
0
 62
   253
 48
0.013489
370
    35
100
AcDbLine
 10
310.3728744107987
 20
86.72700939908272
 30
0.0
 11
310.9124244107988
 21
86.72700939908272
 31
0.0
  0
LINE
  5
782
330
1F
100
AcDbEntity
  8
0
 62
   253
 48
0.067445
370
    35
100
AcDbLine
 10
313.6102394107988
 20
86.72700939908272
 30
0.0
 11
310.9124244107988
 21
86.72700939908272
 31
0.0
  0
LINE
  5
783
330
1F
100
AcDbEntity
  8
0
 62
   253
 48
0.067446
370
    35
100
AcDbLine
 10
31.60644041079879
 20
86.72700939908272
 30
0.0
 11
34.30428541079868
 21
86.72700939908272
 31
0.0
  0
LINE
  5
784
330
1F
100
AcDbEntity
  8
0
 62
   253
 48
0.013488
370
    35
100
AcDbLine
 10
34.30428541079868
 20
86.72700939908272
 30
0.0
 11
34.84382141079875
 21
86.72700939908272
 31
0.0
  0
LINE
  5
785
330
1F
100
AcDbEntity
  8
0
 62
   253
 48
0.024672
370
    35
100
AcDbLine
 10
35.83068341079878
 20
86.72700939908272
 30
0.0
 11
34.84382141079875
 21
86.72700939908272
 31
0.0
  0
LINE
  5
786
330
1F
100
AcDbEntity
  8
0
 62
   253
370
    35
100
AcDbLine
 10
35.83068341079878
 20
86.72700939908272
 30
0.0
 11
117.1083474107986
 21
86.72700939908272
 31
0.0
  0
LINE
  5
787
330
1F
100
AcDbEntity
  8
0
 62
   253
 48
0.001467
370
    35
100
AcDbLine
 10
31.10834741079874
 20
86.22891739908274
 30
0.0
 11
31.14985141079877
 21
86.18742839908277
 31
0.0
  0
ARC
  5
788
330
1F
100
AcDbEntity
  8
0
 62
   253
370
    35
100
AcDbCircle
 10
31.60558541079879
 20
86.22977139908273
 30
0.0
 40
0.4971850000000001
100
AcDbArc
 50
89.90185300000177
 51
180.098144999999
  0
LINE
  5
789
330
1F
100
AcDbEntity
  8
0
 62
   253
 48
0.4608100000000002
370
    35
100
AcDbLine
 10
31.10834741079874
 20
67.7964983990827
 30
0.0
 11
31.10834741079874
 21
86.22891739908274
 31
0.0
  0
ARC
  5
78A
330
1F
100
AcDbEntity
  8
0
 62
   253
370
    35
100
AcDbCircle
 10
33.0973304107988
 20
67.7930953990827
 30
0.0
 40
1.988738999999999
100
AcDbArc
 50
179.9018549999977
 51
270.0981399999977
  0
LINE
  5
78B
330
1F
100
AcDbEntity
  8
0
 62
   253
370
    35
100
AcDbLine
 10
33.10073341079873
 20
65.80411239908269
 30
0.0
 11
312.1159774107988
 21
65.80411239908269
 31
0.0
  0
ARC
  5
78C
330
1F
100
AcDbEntity
  8
0
 62
   253
370
    35
100
AcDbCircle
 10
312.1193644107986
 20
67.7930953990827
 30
0.0
 40
1.988738999999999
100
AcDbArc
 50
269.9018480000004
 51
0.0981429999997894
  0
LINE
  5
78D
330
1F
100
AcDbEntity
  8
0
 62
   253
 48
0.001467
370
    35
100
AcDbLine
 10
314.0668434107988
 20
67.83800239908273
 30
0.0
 11
314.1083474107988
 21
67.7964983990827
 31
0.0
  0
LINE
  5
78E
330
1F
100
AcDbEntity
  8
0
 62
   253
 48
0.4608100000000002
370
    35
100
AcDbLine
 10
314.1083474107988
 20
67.7964983990827
 30
0.0
 11
314.1083474107988
 21
86.22891739908274
 31
0.0
  0
ARC
  5
78F
330
1F
100
AcDbEntity
  8
0
 62
   253
370
    35
100
AcDbCircle
 10
313.6110944107988
 20
86.22977139908273
 30
0.0
 40
0.4971850000000001
100
AcDbArc
 50
359.9018570000002
 51
90.09815199999955
  0
ARC
  5
790
330
1F
100
AcDbEntity
  8
0
 62
   253
370
    35
100
AcDbCircle
 10
117.1081344107987
 20
86.22685739908275
 30
0.0
 40
0.500191
100
AcDbArc
 50
359.9748579999984
 51
89.97476499999903
  0
LINE
  5
791
330
1F
100
AcDbEntity
  8
0
 62
   253
 48
0.011659
370
    35
100
AcDbLine
 10
137.6083474107987
 20
86.02748539908272
 30
0.0
 11
137.6083474107987
 21
86.49385539908271
 31
0.0
  0
LINE
  5
792
330
1F
100
AcDbEntity
  8
0
 62
   253
 48
0.011659
370
    35
100
AcDbLine
 10
207.6083474107988
 20
86.02748539908272
 30
0.0
 11
207.6083474107988
 21
86.49385539908271
 31
0.0
  0
LINE
  5
793
330
1F
100
AcDbEntity
  8
0
 62
   253
 48
0.220044
370
    35
100
AcDbLine
 10
137.6083474107987
 20
86.02747039908271
 30
0.0
 11
137.6083474107987
 21
77.2257283990827
 31
0.0
  0
ARC
  5
794
330
1F
100
AcDbEntity
  8
0
 62
   253
370
    35
100
AcDbCircle
 10
228.1085614107988
 20
86.22685739908275
 30
0.0
 40
0.500191
100
AcDbArc
 50
90.02522600000053
 51
180.0251569999979
  0
LINE
  5
795
330
1F
100
AcDbEntity
  8
0
 62
   253
 48
0.220044
370
    35
100
AcDbLine
 10
207.6083474107988
 20
86.02748539908272
 30
0.0
 11
207.6083474107988
 21
77.2257283990827
 31
0.0
  0
LINE
  5
796
330
1F
100
AcDbEntity
  8
0
 62
   253
 48
0.004003
370
    35
100
AcDbLine
 10
182.7773234107986
 20
77.48981139908268
 30
0.0
 11
182.7955734107987
 21
77.33072339908268
 31
0.0
  0
LINE
  5
797
330
1F
100
AcDbEntity
  8
0
 62
   253
 48
0.000222
370
    35
100
AcDbLine
 10
162.4444074107987
 20
77.40089939908279
 30
0.0
 11
162.4430334107987
 21
77.39214039908269
 31
0.0
  0
LINE
  5
798
330
1F
100
AcDbEntity
  8
0
 62
   253
 48
0.000475
370
    35
100
AcDbLine
 10
162.4444684107985
 20
77.3818253990827
 30
0.0
 11
162.4444684107985
 21
77.40080739908269
 31
0.0
  0
LINE
  5
799
330
1F
100
AcDbEntity
  8
0
 62
   253
 48
0.002339
370
    35
100
AcDbLine
 10
162.4334814107986
 20
77.28893039908282
 30
0.0
 11
162.4444684107985
 21
77.3818253990827
 31
0.0
  0
ELLIPSE
  5
79A
330
1F
100
AcDbEntity
  8
0
 62
   253
370
    35
100
AcDbEllipse
 10
172.6083474107986
 20
76.05026739908272
 30
0.0
 11
10.25
 21
0.0
 31
0.0
210
0.0
220
0.0
230
1.0
 40
0.9998479999999998
 41
0.1211598217482104
 42
3.020432836722533
  0
LINE
  5
79B
330
1F
100
AcDbEntity
  8
0
 62
   253
 48
0.002339
370
    35
100
AcDbLine
 10
182.7722274107987
 20
77.3818253990827
 30
0.0
 11
182.7832134107987
 21
77.28893039908282
 31
0.0
  0
LINE
  5
79C
330
1F
100
AcDbEntity
  8
0
 62
   253
 48
0.000475
370
    35
100
AcDbLine
 10
182.7722274107987
 20
77.40080739908269
 30
0.0
 11
182.7722274107987
 21
77.3818253990827
 31
0.0
  0
LINE
  5
79D
330
1F
100
AcDbEntity
  8
0
 62
   253
 48
0.000332
370
    35
100
AcDbLine
 10
182.7722884107987
 20
77.40082239908272
 30
0.0
 11
182.7743024107986
 21
77.38768439908269
 31
0.0
  0
LINE
  5
79E
330
1F
100
AcDbEntity
  8
0
 62
   253
 48
0.000033
370
    35
100
AcDbLine
 10
225.9054664107988
 20
80.16638639908263
 30
0.0
 11
225.9042764107987
 21
80.16579139908269
 31
0.0
  0
LINE
  5
79F
330
1F
100
AcDbEntity
  8
0
 62
   253
 48
0.067932
370
    35
100
AcDbLine
 10
207.6083474107988
 20
73.81960039908268
 30
0.0
 11
207.6083474107988
 21
76.53688539908269
 31
0.0
  0
POLYLINE
  5
7A0
330
1F
100
AcDbEntity
  8
0
 62
   253
370
    35
100
AcDb2dPolyline
 66
     1
 10
0.0
 20
0.0
 30
0.0
  0
VERTEX
  5
7A1
330
7A0
100
AcDbEntity
  8
0
 62
   253
370
     0
100
AcDbVertex
100
AcDb2dVertex
 10
226.7645674107988
 20
79.3270463990827
 30
0.0
  0
VERTEX
  5
7A2
330
7A0
100
AcDbEntity
  8
0
 62
   253
370
     0
100
AcDbVertex
100
AcDb2dVertex
 10
225.6411234107988
 20
78.65900139908281
 30
0.0
  0
VERTEX
  5
7A3
330
7A0
100
AcDbEntity
  8
0
 62
   253
370
     0
100
AcDbVertex
100
AcDb2dVertex
 10
224.4927474107988
 20
78.02936239908281
 30
0.0
  0
VERTEX
  5
7A4
330
7A0
100
AcDbEntity
  8
0
 62
   253
370
     0
100
AcDbVertex
100
AcDb2dVertex
 10
223.1589454107987
 20
77.36186739908274
 30
0.0
  0
VERTEX
  5
7A5
330
7A0
100
AcDbEntity
  8
0
 62
   253
370
     0
100
AcDbVertex
100
AcDb2dVertex
 10
221.7956644107987
 20
76.7468003990827
 30
0.0
  0
VERTEX
  5
7A6
330
7A0
100
AcDbEntity
  8
0
 62
   253
370
     0
100
AcDbVertex
100
AcDb2dVertex
 10
220.4062604107988
 20
76.18642139908264
 30
0.0
  0
VERTEX
  5
7A7
330
7A0
100
AcDbEntity
  8
0
 62
   253
370
     0
100
AcDbVertex
100
AcDb2dVertex
 10
219.3446144107987
 20
75.80167139908269
 30
0.0
  0
VERTEX
  5
7A8
330
7A0
100
AcDbEntity
  8
0
 62
   253
370
     0
100
AcDbVertex
100
AcDb2dVertex
 10
218.2732034107988
 20
75.45026139908272
 30
0.0
  0
VERTEX
  5
7A9
330
7A0
100
AcDbEntity
  8
0
 62
   253
370
     0
100
AcDbVertex
100
AcDb2dVertex
 10
217.1981304107987
 20
75.13390039908269
 30
0.0
  0
VERTEX
  5
7AA
330
7A0
100
AcDbEntity
  8
0
 62
   253
370
     0
100
AcDbVertex
100
AcDb2dVertex
 10
215.8475744107988
 20
74.78667139908278
 30
0.0
  0
VERTEX
  5
7AB
330
7A0
100
AcDbEntity
  8
0
 62
   253
370
     0
100
AcDbVertex
100
AcDb2dVertex
 10
214.4848434107988
 20
74.4916433990827
 30
0.0
  0
VERTEX
  5
7AC
330
7A0
100
AcDbEntity
  8
0
 62
   253
370
     0
100
AcDbVertex
100
AcDb2dVertex
 10
213.1105144107987
 20
74.2492113990827
 30
0.0
  0
VERTEX
  5
7AD
330
7A0
100
AcDbEntity
  8
0
 62
   253
370
     0
100
AcDbVertex
100
AcDb2dVertex
 10
211.7263284107987
 20
74.06006339908272
 30
0.0
  0
VERTEX
  5
7AE
330
7A0
100
AcDbEntity
  8
0
 62
   253
370
     0
100
AcDbVertex
100
AcDb2dVertex
 10
210.3552044107987
 20
73.92657939908277
 30
0.0
  0
VERTEX
  5
7AF
330
7A0
100
AcDbEntity
  8
0
 62
   253
370
     0
100
AcDbVertex
100
AcDb2dVertex
 10
208.9809364107987
 20
73.84631839908276
 30
0.0
  0
VERTEX
  5
7B0
330
7A0
100
AcDbEntity
  8
0
 62
   253
370
     0
100
AcDbVertex
100
AcDb2dVertex
 10
207.6083474107988
 20
73.81960039908268
 30
0.0
  0
SEQEND
  5
7B1
330
7A0
100
AcDbEntity
  8
0
 62
   253
370
     0
  0
LINE
  5
7B2
330
1F
100
AcDbEntity
  8
0
 62
   253
370
    35
100
AcDbLine
 10
182.8038734107986
 20
73.81960039908268
 30
0.0
 11
207.6083474107988
 21
73.81960039908268
 31
0.0
  0
LINE
  5
7B3
330
1F
100
AcDbEntity
  8
0
 62
   253
 48
0.001196
370
    35
100
AcDbLine
 10
182.8038734107986
 20
73.81960039908268
 30
0.0
 11
182.7560224107986
 21
73.81960039908268
 31
0.0
  0
ARC
  5
7B4
330
1F
100
AcDbEntity
  8
0
 62
   253
370
    35
100
AcDbCircle
 10
182.7557474107987
 20
73.6191913990827
 30
0.0
 40
0.200392
100
AcDbArc
 50
89.92435100000061
 51
142.8265780000029
  0
LINE
  5
7B5
330
1F
100
AcDbEntity
  8
0
 62
   253
 48
0.067932
370
    35
100
AcDbLine
 10
137.6083474107987
 20
73.81960039908268
 30
0.0
 11
137.6083474107987
 21
76.53688539908269
 31
0.0
  0
LINE
  5
7B6
330
1F
100
AcDbEntity
  8
0
 62
   253
370
    35
100
AcDbLine
 10
137.6083474107987
 20
73.81960039908268
 30
0.0
 11
162.4128214107986
 21
73.81960039908268
 31
0.0
  0
LINE
  5
7B7
330
1F
100
AcDbEntity
  8
0
 62
   253
 48
0.001196
370
    35
100
AcDbLine
 10
162.4128214107986
 20
73.81960039908268
 30
0.0
 11
162.4606734107987
 21
73.81960039908268
 31
0.0
  0
POLYLINE
  5
7B8
330
1F
100
AcDbEntity
  8
0
 62
   253
370
    35
100
AcDb2dPolyline
 66
     1
 10
0.0
 20
0.0
 30
0.0
  0
VERTEX
  5
7B9
330
7B8
100
AcDbEntity
  8
0
 62
   253
370
     0
100
AcDbVertex
100
AcDb2dVertex
 10
118.4521124107986
 20
79.3270463990827
 30
0.0
  0
VERTEX
  5
7BA
330
7B8
100
AcDbEntity
  8
0
 62
   253
370
     0
100
AcDbVertex
100
AcDb2dVertex
 10
119.5755714107987
 20
78.65900139908281
 30
0.0
  0
VERTEX
  5
7BB
330
7B8
100
AcDbEntity
  8
0
 62
   253
370
     0
100
AcDbVertex
100
AcDb2dVertex
 10
120.7239484107986
 20
78.02936239908281
 30
0.0
  0
VERTEX
  5
7BC
330
7B8
100
AcDbEntity
  8
0
 62
   253
370
     0
100
AcDbVertex
100
AcDb2dVertex
 10
122.0577494107988
 20
77.36186739908274
 30
0.0
  0
VERTEX
  5
7BD
330
7B8
100
AcDbEntity
  8
0
 62
   253
370
     0
100
AcDbVertex
100
AcDb2dVertex
 10
123.4210154107987
 20
76.7468003990827
 30
0.0
  0
VERTEX
  5
7BE
330
7B8
100
AcDbEntity
  8
0
 62
   253
370
     0
100
AcDbVertex
100
AcDb2dVertex
 10
124.8104194107988
 20
76.18642139908264
 30
0.0
  0
VERTEX
  5
7BF
330
7B8
100
AcDbEntity
  8
0
 62
   253
370
     0
100
AcDbVertex
100
AcDb2dVertex
 10
125.8720654107987
 20
75.80167139908269
 30
0.0
  0
VERTEX
  5
7C0
330
7B8
100
AcDbEntity
  8
0
 62
   253
370
     0
100
AcDbVertex
100
AcDb2dVertex
 10
126.9434764107987
 20
75.45026139908272
 30
0.0
  0
VERTEX
  5
7C1
330
7B8
100
AcDbEntity
  8
0
 62
   253
370
     0
100
AcDbVertex
100
AcDb2dVertex
 10
128.0185644107985
 20
75.13390039908269
 30
0.0
  0
VERTEX
  5
7C2
330
7B8
100
AcDbEntity
  8
0
 62
   253
370
     0
100
AcDbVertex
100
AcDb2dVertex
 10
129.3691204107986
 20
74.78667139908278
 30
0.0
  0
VERTEX
  5
7C3
330
7B8
100
AcDbEntity
  8
0
 62
   253
370
     0
100
AcDbVertex
100
AcDb2dVertex
 10
130.7318524107988
 20
74.4916433990827
 30
0.0
  0
VERTEX
  5
7C4
330
7B8
100
AcDbEntity
  8
0
 62
   253
370
     0
100
AcDbVertex
100
AcDb2dVertex
 10
132.1061804107986
 20
74.2492113990827
 30
0.0
  0
VERTEX
  5
7C5
330
7B8
100
AcDbEntity
  8
0
 62
   253
370
     0
100
AcDbVertex
100
AcDb2dVertex
 10
133.4903514107987
 20
74.06006339908272
 30
0.0
  0
VERTEX
  5
7C6
330
7B8
100
AcDbEntity
  8
0
 62
   253
370
     0
100
AcDbVertex
100
AcDb2dVertex
 10
134.8614914107985
 20
73.92657939908277
 30
0.0
  0
VERTEX
  5
7C7
330
7B8
100
AcDbEntity
  8
0
 62
   253
370
     0
100
AcDbVertex
100
AcDb2dVertex
 10
136.2357434107986
 20
73.84631839908276
 30
0.0
  0
VERTEX
  5
7C8
330
7B8
100
AcDbEntity
  8
0
 62
   253
370
     0
100
AcDbVertex
100
AcDb2dVertex
 10
137.6083474107987
 20
73.81960039908268
 30
0.0
  0
SEQEND
  5
7C9
330
7B8
100
AcDbEntity
  8
0
 62
   253
370
     0
  0
LINE
  5
7CA
330
1F
100
AcDbEntity
  8
0
 62
   253
 48
0.000033
370
    35
100
AcDbLine
 10
119.3112284107987
 20
80.16638639908263
 30
0.0
 11
119.3124184107986
 21
80.16579139908269
 31
0.0
  0
ARC
  5
7CB
330
1F
100
AcDbEntity
  8
0
 62
   253
370
    35
100
AcDbCircle
 10
162.4608864107987
 20
73.61906939908262
 30
0.0
 40
0.200517
100
AcDbArc
 50
38.78817300000157
 51
90.0612969999973
  0
ELLIPSE
  5
7CC
330
1F
100
AcDbEntity
  8
0
 62
   253
370
    35
100
AcDbEllipse
 10
162.2461344107986
 20
77.42667139908269
 30
0.0
 11
0.20001220703125
 21
0.0
 31
0.0
210
0.0
220
0.0
230
1.0
 40
0.9998479999999997
 41
4.712388979568737
 42
6.153474964767825
  0
POLYLINE
  5
7CD
330
1F
100
AcDbEntity
  8
0
 62
   253
370
    35
100
AcDb2dPolyline
 66
     1
 10
0.0
 20
0.0
 30
0.0
  0
VERTEX
  5
7CE
330
7CD
100
AcDbEntity
  8
0
 62
   253
370
     0
100
AcDbVertex
100
AcDb2dVertex
 10
162.4368694107985
 20
76.46446739908272
 30
0.0
  0
VERTEX
  5
7CF
330
7CD
100
AcDbEntity
  8
0
 62
   253
370
     0
100
AcDbVertex
100
AcDb2dVertex
 10
162.4697974107986
 20
76.68753539908273
 30
0.0
  0
VERTEX
  5
7D0
330
7CD
100
AcDbEntity
  8
0
 62
   253
370
     0
100
AcDbVertex
100
AcDb2dVertex
 10
162.4651594107987
 20
76.9140823990827
 30
0.0
  0
VERTEX
  5
7D1
330
7CD
100
AcDbEntity
  8
0
 62
   253
370
     0
100
AcDbVertex
100
AcDb2dVertex
 10
162.4347634107988
 20
77.17691539908265
 30
0.0
  0
VERTEX
  5
7D2
330
7CD
100
AcDbEntity
  8
0
 62
   253
370
     0
100
AcDbVertex
100
AcDb2dVertex
 10
162.4334814107986
 20
77.28893039908282
 30
0.0
  0
SEQEND
  5
7D3
330
7CD
100
AcDbEntity
  8
0
 62
   253
370
     0
  0
ARC
  5
7D4
330
1F
100
AcDbEntity
  8
0
 62
   253
370
    35
100
AcDbCircle
 10
165.3458354107986
 20
75.79576539908273
 30
0.0
 40
2.984259
100
AcDbArc
 50
167.053859999998
 51
180.590341999998
  0
ELLIPSE
  5
7D5
330
1F
100
AcDbEntity
  8
0
 62
   253
370
    35
100
AcDbEllipse
 10
172.6083474107986
 20
76.05026739908272
 30
0.0
 11
10.25
 21
0.0
 31
0.0
210
0.0
220
0.0
230
1.0
 40
0.9998479999999998
 41
3.169430061444986
 42
3.252556636546051
  0
ELLIPSE
  5
7D6
330
1F
100
AcDbEntity
  8
0
 62
   253
370
    35
100
AcDbEllipse
 10
172.6083474107986
 20
76.05026739908272
 30
0.0
 11
10.25
 21
0.0
 31
0.0
210
0.0
220
0.0
230
1.0
 40
0.9998479999999998
 41
6.172221396793909
 42
6.255347996572235
  0
ARC
  5
7D7
330
1F
100
AcDbEntity
  8
0
 62
   253
370
    35
100
AcDbCircle
 10
179.8708594107987
 20
75.79576539908273
 30
0.0
 40
2.984261
100
AcDbArc
 50
359.4096699999978
 51
12.94612899999888
  0
POLYLINE
  5
7D8
330
1F
100
AcDbEntity
  8
0
 62
   253
370
    35
100
AcDb2dPolyline
 66
     1
 10
0.0
 20
0.0
 30
0.0
  0
VERTEX
  5
7D9
330
7D8
100
AcDbEntity
  8
0
 62
   253
370
     0
100
AcDbVertex
100
AcDb2dVertex
 10
182.7832134107987
 20
77.28893039908282
 30
0.0
  0
VERTEX
  5
7DA
330
7D8
100
AcDbEntity
  8
0
 62
   253
370
     0
100
AcDbVertex
100
AcDb2dVertex
 10
182.7820844107986
 20
77.17863939908268
 30
0.0
  0
VERTEX
  5
7DB
330
7D8
100
AcDbEntity
  8
0
 62
   253
370
     0
100
AcDbVertex
100
AcDb2dVertex
 10
182.7520544107987
 20
76.9195143990827
 30
0.0
  0
VERTEX
  5
7DC
330
7D8
100
AcDbEntity
  8
0
 62
   253
370
     0
100
AcDbVertex
100
AcDb2dVertex
 10
182.7467144107986
 20
76.6903423990827
 30
0.0
  0
VERTEX
  5
7DD
330
7D8
100
AcDbEntity
  8
0
 62
   253
370
     0
100
AcDbVertex
100
AcDb2dVertex
 10
182.7798254107987
 20
76.46446739908272
 30
0.0
  0
SEQEND
  5
7DE
330
7D8
100
AcDbEntity
  8
0
 62
   253
370
     0
  0
ELLIPSE
  5
7DF
330
1F
100
AcDbEntity
  8
0
 62
   253
370
    35
100
AcDbEllipse
 10
182.9705604107986
 20
77.4076893990827
 30
0.0
 11
-0.20001220703125
 21
0.0
 31
0.0
210
0.0
220
0.0
230
1.0
 40
0.9998479999999997
 41
0.129710297401835
 42
1.570796331070267
  0
ELLIPSE
  5
7E0
330
1F
100
AcDbEntity
  8
0
 62
   253
370
    35
100
AcDbEllipse
 10
182.9705604107986
 20
77.42667139908269
 30
0.0
 11
-0.20001220703125
 21
0.0
 31
0.0
210
0.0
220
0.0
230
1.0
 40
0.9998479999999997
 41
0.1297103424118142
 42
1.570796326794914
  0
LINE
  5
7E1
330
1F
100
AcDbEntity
  8
0
 62
   253
 48
0.000475
370
    35
100
AcDbLine
 10
182.9705604107986
 20
77.22670439908269
 30
0.0
 11
182.9705604107986
 21
77.2077223990827
 31
0.0
  0
LINE
  5
7E2
330
1F
100
AcDbEntity
  8
0
 62
   253
 48
0.000035
370
    35
100
AcDbLine
 10
182.9705604107986
 20
77.22670439908269
 30
0.0
 11
182.9691574107986
 21
77.22681139908266
 31
0.0
  0
LINE
  5
7E3
330
1F
100
AcDbEntity
  8
0
 62
   253
 48
0.000447
370
    35
100
AcDbLine
 10
207.6083474107988
 20
77.22559039908272
 30
0.0
 11
207.6083474107988
 21
77.2077223990827
 31
0.0
  0
LINE
  5
7E4
330
1F
100
AcDbEntity
  8
0
 62
   253
 48
0.001155
370
    35
100
AcDbLine
 10
227.0433754107987
 20
80.50235439908274
 30
0.0
 11
227.0895794107987
 21
80.50235439908274
 31
0.0
  0
LINE
  5
7E5
330
1F
100
AcDbEntity
  8
0
 62
   253
 48
0.000822
370
    35
100
AcDbLine
 10
227.0433754107987
 20
80.50235439908274
 30
0.0
 11
227.0104774107988
 21
80.5020803990828
 31
0.0
  0
LINE
  5
7E6
330
1F
100
AcDbEntity
  8
0
 62
   253
 48
0.016771
370
    35
100
AcDbLine
 10
207.6083474107988
 20
77.2077223990827
 30
0.0
 11
207.6083474107988
 21
76.53688539908269
 31
0.0
  0
LINE
  5
7E7
330
1F
100
AcDbEntity
  8
0
 62
   253
370
    35
100
AcDbLine
 10
207.6083474107988
 20
77.2077223990827
 30
0.0
 11
182.9705604107986
 21
77.2077223990827
 31
0.0
  0
LINE
  5
7E8
330
1F
100
AcDbEntity
  8
0
 62
   253
 48
0.016769
370
    35
100
AcDbLine
 10
137.6083474107987
 20
77.2077223990827
 30
0.0
 11
137.6083474107987
 21
76.5369463990827
 31
0.0
  0
LINE
  5
7E9
330
1F
100
AcDbEntity
  8
0
 62
   253
 48
0.000447
370
    35
100
AcDbLine
 10
137.6083474107987
 20
77.22559039908272
 30
0.0
 11
137.6083474107987
 21
77.2077223990827
 31
0.0
  0
LINE
  5
7EA
330
1F
100
AcDbEntity
  8
0
 62
   253
 48
0.001155
370
    35
100
AcDbLine
 10
118.1733194107987
 20
80.50235439908274
 30
0.0
 11
118.1271164107987
 21
80.50235439908274
 31
0.0
  0
LINE
  5
7EB
330
1F
100
AcDbEntity
  8
0
 62
   253
 48
0.000822
370
    35
100
AcDbLine
 10
118.1733194107987
 20
80.50235439908274
 30
0.0
 11
118.2062174107987
 21
80.5020803990828
 31
0.0
  0
LINE
  5
7EC
330
1F
100
AcDbEntity
  8
0
 62
   253
370
    35
100
AcDbLine
 10
137.6083474107987
 20
77.22559039908272
 30
0.0
 11
161.9139504107986
 21
77.22559039908272
 31
0.0
  0
LINE
  5
7ED
330
1F
100
AcDbEntity
  8
0
 62
   253
 48
0.008305
370
    35
100
AcDbLine
 10
183.3027444107987
 20
77.22559039908272
 30
0.0
 11
182.9705604107986
 21
77.22670439908269
 31
0.0
  0
LINE
  5
7EE
330
1F
100
AcDbEntity
  8
0
 62
   253
 48
0.008305
370
    35
100
AcDbLine
 10
161.9139504107986
 20
77.22559039908272
 30
0.0
 11
162.2461344107986
 21
77.22670439908269
 31
0.0
  0
LINE
  5
7EF
330
1F
100
AcDbEntity
  8
0
 62
   253
370
    35
100
AcDbLine
 10
183.3027444107987
 20
77.22559039908272
 30
0.0
 11
207.6083474107988
 21
77.22559039908272
 31
0.0
  0
LINE
  5
7F0
330
1F
100
AcDbEntity
  8
0
 62
   253
 48
0.002676
370
    35
100
AcDbLine
 10
227.1966354107987
 20
80.50246139908269
 30
0.0
 11
227.0895794107987
 21
80.50235439908274
 31
0.0
  0
POLYLINE
  5
7F1
330
1F
100
AcDbEntity
  8
0
 62
   253
370
    35
100
AcDb2dPolyline
 66
     1
 10
0.0
 20
0.0
 30
0.0
  0
VERTEX
  5
7F2
330
7F1
100
AcDbEntity
  8
0
 62
   253
370
     0
100
AcDbVertex
100
AcDb2dVertex
 10
226.7645674107988
 20
79.3270463990827
 30
0.0
  0
VERTEX
  5
7F3
330
7F1
100
AcDbEntity
  8
0
 62
   253
370
     0
100
AcDbVertex
100
AcDb2dVertex
 10
226.9803874107988
 20
79.4975023990827
 30
0.0
  0
VERTEX
  5
7F4
330
7F1
100
AcDbEntity
  8
0
 62
   253
370
     0
100
AcDbVertex
100
AcDb2dVertex
 10
227.1125594107988
 20
79.64117939908273
 30
0.0
  0
VERTEX
  5
7F5
330
7F1
100
AcDbEntity
  8
0
 62
   253
370
     0
100
AcDbVertex
100
AcDb2dVertex
 10
227.2321884107987
 20
79.80453939908279
 30
0.0
  0
VERTEX
  5
7F6
330
7F1
100
AcDbEntity
  8
0
 62
   253
370
     0
100
AcDbVertex
100
AcDb2dVertex
 10
227.3261824107987
 20
79.97144039908274
 30
0.0
  0
VERTEX
  5
7F7
330
7F1
100
AcDbEntity
  8
0
 62
   253
370
     0
100
AcDbVertex
100
AcDb2dVertex
 10
227.3870034107988
 20
80.13411439908272
 30
0.0
  0
VERTEX
  5
7F8
330
7F1
100
AcDbEntity
  8
0
 62
   253
370
     0
100
AcDbVertex
100
AcDb2dVertex
 10
227.4016824107988
 20
80.20952339908268
 30
0.0
  0
VERTEX
  5
7F9
330
7F1
100
AcDbEntity
  8
0
 62
   253
370
     0
100
AcDbVertex
100
AcDb2dVertex
 10
227.4033614107987
 20
80.29439239908272
 30
0.0
  0
VERTEX
  5
7FA
330
7F1
100
AcDbEntity
  8
0
 62
   253
370
     0
100
AcDbVertex
100
AcDb2dVertex
 10
227.3895674107988
 20
80.35739639908269
 30
0.0
  0
VERTEX
  5
7FB
330
7F1
100
AcDbEntity
  8
0
 62
   253
370
     0
100
AcDbVertex
100
AcDb2dVertex
 10
227.3123274107987
 20
80.4576313990827
 30
0.0
  0
SEQEND
  5
7FC
330
7F1
100
AcDbEntity
  8
0
 62
   253
370
     0
  0
LINE
  5
7FD
330
1F
100
AcDbEntity
  8
0
 62
   253
 48
0.002024
370
    35
100
AcDbLine
 10
227.3123274107987
 20
80.4576313990827
 30
0.0
 11
227.2450054107987
 21
80.5025683990827
 31
0.0
  0
LINE
  5
7FE
330
1F
100
AcDbEntity
  8
0
 62
   253
 48
0.001209
370
    35
100
AcDbLine
 10
227.1966354107987
 20
80.50246139908269
 30
0.0
 11
227.2450054107987
 21
80.5025683990827
 31
0.0
  0
LINE
  5
7FF
330
1F
100
AcDbEntity
  8
0
 62
   253
 48
0.003975
370
    35
100
AcDbLine
 10
227.6083474107988
 20
86.06763139908272
 30
0.0
 11
227.6083474107988
 21
86.22664339908274
 31
0.0
  0
LINE
  5
800
330
1F
100
AcDbEntity
  8
0
 62
   253
 48
0.094332
370
    35
100
AcDbLine
 10
227.6083474107988
 20
82.29434639908275
 30
0.0
 11
227.6083474107988
 21
86.06763139908272
 31
0.0
  0
ARC
  5
801
330
1F
100
AcDbEntity
  8
0
 62
   253
370
    35
100
AcDbCircle
 10
225.5980024107987
 20
82.29004339908273
 30
0.0
 40
2.009978999999999
100
AcDbArc
 50
298.2594949999977
 51
0.1419920000000102
  0
POLYLINE
  5
802
330
1F
100
AcDbEntity
  8
0
 62
   253
370
    35
100
AcDb2dPolyline
 66
     1
 10
0.0
 20
0.0
 30
0.0
  0
VERTEX
  5
803
330
802
100
AcDbEntity
  8
0
 62
   253
370
     0
100
AcDbVertex
100
AcDb2dVertex
 10
118.4521124107986
 20
79.3270463990827
 30
0.0
  0
VERTEX
  5
804
330
802
100
AcDbEntity
  8
0
 62
   253
370
     0
100
AcDbVertex
100
AcDb2dVertex
 10
118.2126264107987
 20
79.52086339908274
 30
0.0
  0
VERTEX
  5
805
330
802
100
AcDbEntity
  8
0
 62
   253
370
     0
100
AcDbVertex
100
AcDb2dVertex
 10
118.0817364107985
 20
79.66901139908272
 30
0.0
  0
VERTEX
  5
806
330
802
100
AcDbEntity
  8
0
 62
   253
370
     0
100
AcDbVertex
100
AcDb2dVertex
 10
117.9659064107986
 20
79.83391239908269
 30
0.0
  0
VERTEX
  5
807
330
802
100
AcDbEntity
  8
0
 62
   253
370
     0
100
AcDbVertex
100
AcDb2dVertex
 10
117.8772684107987
 20
80.00035539908273
 30
0.0
  0
VERTEX
  5
808
330
802
100
AcDbEntity
  8
0
 62
   253
370
     0
100
AcDbVertex
100
AcDb2dVertex
 10
117.8230544107986
 20
80.16209839908272
 30
0.0
  0
VERTEX
  5
809
330
802
100
AcDbEntity
  8
0
 62
   253
370
     0
100
AcDbVertex
100
AcDb2dVertex
 10
117.8117474107986
 20
80.26318839908261
 30
0.0
  0
VERTEX
  5
80A
330
802
100
AcDbEntity
  8
0
 62
   253
370
     0
100
AcDbVertex
100
AcDb2dVertex
 10
117.8151044107986
 20
80.30869039908278
 30
0.0
  0
VERTEX
  5
80B
330
802
100
AcDbEntity
  8
0
 62
   253
370
     0
100
AcDbVertex
100
AcDb2dVertex
 10
117.8313544107986
 20
80.36826039908278
 30
0.0
  0
VERTEX
  5
80C
330
802
100
AcDbEntity
  8
0
 62
   253
370
     0
100
AcDbVertex
100
AcDb2dVertex
 10
117.9043524107986
 20
80.4576313990827
 30
0.0
  0
SEQEND
  5
80D
330
802
100
AcDbEntity
  8
0
 62
   253
370
     0
  0
LINE
  5
80E
330
1F
100
AcDbEntity
  8
0
 62
   253
 48
0.002677
370
    35
100
AcDbLine
 10
118.0200454107986
 20
80.50246139908269
 30
0.0
 11
118.1271164107987
 21
80.50235439908274
 31
0.0
  0
LINE
  5
80F
330
1F
100
AcDbEntity
  8
0
 62
   253
 48
0.001209
370
    35
100
AcDbLine
 10
118.0200454107986
 20
80.50246139908269
 30
0.0
 11
117.9716744107987
 21
80.5025683990827
 31
0.0
  0
LINE
  5
810
330
1F
100
AcDbEntity
  8
0
 62
   253
 48
0.002024
370
    35
100
AcDbLine
 10
117.9043524107986
 20
80.4576313990827
 30
0.0
 11
117.9716744107987
 21
80.5025683990827
 31
0.0
  0
LINE
  5
811
330
1F
100
AcDbEntity
  8
0
 62
   253
 48
0.003975
370
    35
100
AcDbLine
 10
117.6083474107986
 20
86.06763139908272
 30
0.0
 11
117.6083474107986
 21
86.22664339908274
 31
0.0
  0
LINE
  5
812
330
1F
100
AcDbEntity
  8
0
 62
   253
 48
0.094332
370
    35
100
AcDbLine
 10
117.6083474107986
 20
82.29434639908275
 30
0.0
 11
117.6083474107986
 21
86.06763139908272
 31
0.0
  0
ARC
  5
813
330
1F
100
AcDbEntity
  8
0
 62
   253
370
    35
100
AcDbCircle
 10
119.6186934107986
 20
82.29008939908274
 30
0.0
 40
2.010003999999999
100
AcDbArc
 50
179.8590849999995
 51
241.7408209999998
  0
ARC
  5
814
330
1F
100
AcDbEntity
  8
0
 62
   253
370
    35
100
AcDbCircle
 10
118.1339514107987
 20
78.26001439908272
 30
0.0
 40
2.249233999999999
100
AcDbArc
 50
64.15430000000407
 51
77.21657900000086
  0
LINE
  5
815
330
1F
100
AcDbEntity
  8
0
 62
   253
 48
0.01264
370
    35
100
AcDbLine
 10
118.6671704107987
 20
80.51990239908267
 30
0.0
 11
119.1145424107987
 21
80.28433739908271
 31
0.0
  0
ARC
  5
816
330
1F
100
AcDbEntity
  8
0
 62
   253
370
    35
100
AcDbCircle
 10
118.1816814107986
 20
78.4495893990827
 30
0.0
 40
2.053719
100
AcDbArc
 50
77.34500800000279
 51
90.26414000000185
  0
LINE
  5
817
330
1F
100
AcDbEntity
  8
0
 62
   253
 48
0.005014
370
    35
100
AcDbLine
 10
117.9716744107987
 20
80.5025683990827
 30
0.0
 11
118.1722204107986
 21
80.50327039908269
 31
0.0
  0
LINE
  5
818
330
1F
100
AcDbEntity
  8
0
 62
   253
 48
0.006102
370
    35
100
AcDbLine
 10
119.3112284107987
 20
80.16640139908272
 30
0.0
 11
119.0941574107988
 21
80.27801939908274
 31
0.0
  0
POLYLINE
  5
819
330
1F
100
AcDbEntity
  8
0
 62
   253
370
    35
100
AcDb2dPolyline
 66
     1
 10
0.0
 20
0.0
 30
0.0
  0
VERTEX
  5
81A
330
819
100
AcDbEntity
  8
0
 62
   253
370
     0
100
AcDbVertex
100
AcDb2dVertex
 10
119.1145424107987
 20
80.28433739908271
 30
0.0
  0
VERTEX
  5
81B
330
819
100
AcDbEntity
  8
0
 62
   253
370
     0
100
AcDbVertex
100
AcDb2dVertex
 10
119.0957434107986
 20
80.28241439908269
 30
0.0
  0
VERTEX
  5
81C
330
819
100
AcDbEntity
  8
0
 62
   253
370
     0
100
AcDbVertex
100
AcDb2dVertex
 10
119.0929214107987
 20
80.28145339908268
 30
0.0
  0
VERTEX
  5
81D
330
819
100
AcDbEntity
  8
0
 62
   253
370
     0
100
AcDbVertex
100
AcDb2dVertex
 10
119.0918524107986
 20
80.28033939908274
 30
0.0
  0
VERTEX
  5
81E
330
819
100
AcDbEntity
  8
0
 62
   253
370
     0
100
AcDbVertex
100
AcDb2dVertex
 10
119.0941574107988
 20
80.27801939908274
 30
0.0
  0
SEQEND
  5
81F
330
819
100
AcDbEntity
  8
0
 62
   253
370
     0
  0
LINE
  5
820
330
1F
100
AcDbEntity
  8
0
 62
   253
 48
0.000036
370
    35
100
AcDbLine
 10
118.1722204107986
 20
80.50327039908269
 30
0.0
 11
118.1733194107987
 21
80.50235439908274
 31
0.0
  0
LINE
  5
821
330
1F
100
AcDbEntity
  8
0
 62
   253
 48
0.005013
370
    35
100
AcDbLine
 10
227.2450054107987
 20
80.5025683990827
 30
0.0
 11
227.0444744107987
 21
80.50327039908269
 31
0.0
  0
LINE
  5
822
330
1F
100
AcDbEntity
  8
0
 62
   253
 48
0.01264
370
    35
100
AcDbLine
 10
226.5495094107988
 20
80.51990239908267
 30
0.0
 11
226.1021524107988
 21
80.28433739908271
 31
0.0
  0
ARC
  5
823
330
1F
100
AcDbEntity
  8
0
 62
   253
370
    35
100
AcDbCircle
 10
227.0551254107988
 20
78.32785539908269
 30
0.0
 40
2.174881999999999
100
AcDbArc
 50
91.17651599999826
 51
95.97558500000031
  0
ARC
  5
824
330
1F
100
AcDbEntity
  8
0
 62
   253
370
    35
100
AcDbCircle
 10
227.0437724107988
 20
78.49986739908271
 30
0.0
 40
2.002615
100
AcDbArc
 50
96.16435800000237
 51
117.3874699999991
  0
LINE
  5
825
330
1F
100
AcDbEntity
  8
0
 62
   253
 48
0.006102
370
    35
100
AcDbLine
 10
225.9054664107988
 20
80.16640139908272
 30
0.0
 11
226.1225384107987
 21
80.27801939908274
 31
0.0
  0
POLYLINE
  5
826
330
1F
100
AcDbEntity
  8
0
 62
   253
370
    35
100
AcDb2dPolyline
 66
     1
 10
0.0
 20
0.0
 30
0.0
  0
VERTEX
  5
827
330
826
100
AcDbEntity
  8
0
 62
   253
370
     0
100
AcDbVertex
100
AcDb2dVertex
 10
226.1225384107987
 20
80.27801939908274
 30
0.0
  0
VERTEX
  5
828
330
826
100
AcDbEntity
  8
0
 62
   253
370
     0
100
AcDbVertex
100
AcDb2dVertex
 10
226.1245224107987
 20
80.2794083990827
 30
0.0
  0
VERTEX
  5
829
330
826
100
AcDbEntity
  8
0
 62
   253
370
     0
100
AcDbVertex
100
AcDb2dVertex
 10
226.1245224107987
 20
80.2809193990827
 30
0.0
  0
VERTEX
  5
82A
330
826
100
AcDbEntity
  8
0
 62
   253
370
     0
100
AcDbVertex
100
AcDb2dVertex
 10
226.1209514107987
 20
80.28241439908269
 30
0.0
  0
VERTEX
  5
82B
330
826
100
AcDbEntity
  8
0
 62
   253
370
     0
100
AcDbVertex
100
AcDb2dVertex
 10
226.1021524107988
 20
80.28433739908271
 30
0.0
  0
SEQEND
  5
82C
330
826
100
AcDbEntity
  8
0
 62
   253
370
     0
  0
LINE
  5
82D
330
1F
100
AcDbEntity
  8
0
 62
   253
 48
0.000036
370
    35
100
AcDbLine
 10
227.0433754107987
 20
80.50235439908274
 30
0.0
 11
227.0444744107987
 21
80.50327039908269
 31
0.0
  0
ARC
  5
82E
330
1F
100
AcDbEntity
  8
0
 62
   253
370
    35
100
AcDbCircle
 10
135.9747564107987
 20
2005.919072399083
 30
0.0
 40
1919.348851
100
AcDbArc
 50
269.4764499999987
 51
269.7952350000003
  0
ARC
  5
82F
330
1F
100
AcDbEntity
  8
0
 62
   253
370
    35
100
AcDbCircle
 10
118.6573584107986
 20
129.4239243990827
 30
0.0
 40
42.773528
100
AcDbArc
 50
268.2334029999989
 51
269.7042159999972
  0
POLYLINE
  5
830
330
1F
100
AcDbEntity
  8
0
 62
   253
370
    35
100
AcDb2dPolyline
 66
     1
 10
0.0
 20
0.0
 30
0.0
  0
VERTEX
  5
831
330
830
100
AcDbEntity
  8
0
 62
   253
370
     0
100
AcDbVertex
100
AcDb2dVertex
 10
129.1153664107986
 20
86.58235639908266
 30
0.0
  0
VERTEX
  5
832
330
830
100
AcDbEntity
  8
0
 62
   253
370
     0
100
AcDbVertex
100
AcDb2dVertex
 10
132.2805584107987
 20
86.54585739908272
 30
0.0
  0
VERTEX
  5
833
330
830
100
AcDbEntity
  8
0
 62
   253
370
     0
100
AcDbVertex
100
AcDb2dVertex
 10
136.5403394107987
 20
86.49638839908273
 30
0.0
  0
VERTEX
  5
834
330
830
100
AcDbEntity
  8
0
 62
   253
370
     0
100
AcDbVertex
100
AcDb2dVertex
 10
137.6083474107987
 20
86.49385539908271
 30
0.0
  0
SEQEND
  5
835
330
830
100
AcDbEntity
  8
0
 62
   253
370
     0
  0
LINE
  5
836
330
1F
100
AcDbEntity
  8
0
 62
   253
370
    35
100
AcDbLine
 10
168.1048684107986
 20
86.49385539908271
 30
0.0
 11
137.6083474107987
 21
86.49385539908271
 31
0.0
  0
POLYLINE
  5
837
330
1F
100
AcDbEntity
  8
0
 62
   253
370
    35
100
AcDb2dPolyline
 66
     1
 10
0.0
 20
0.0
 30
0.0
  0
VERTEX
  5
838
330
837
100
AcDbEntity
  8
0
 62
   253
370
     0
100
AcDbVertex
100
AcDb2dVertex
 10
168.1048684107986
 20
86.49385539908271
 30
0.0
  0
VERTEX
  5
839
330
837
100
AcDbEntity
  8
0
 62
   253
370
     0
100
AcDbVertex
100
AcDb2dVertex
 10
169.5178024107987
 20
86.51817839908268
 30
0.0
  0
VERTEX
  5
83A
330
837
100
AcDbEntity
  8
0
 62
   253
370
     0
100
AcDbVertex
100
AcDb2dVertex
 10
171.7335614107986
 20
86.57188839908277
 30
0.0
  0
VERTEX
  5
83B
330
837
100
AcDbEntity
  8
0
 62
   253
370
     0
100
AcDbVertex
100
AcDb2dVertex
 10
173.9193824107986
 20
86.56474739908272
 30
0.0
  0
VERTEX
  5
83C
330
837
100
AcDbEntity
  8
0
 62
   253
370
     0
100
AcDbVertex
100
AcDb2dVertex
 10
176.1598304107987
 20
86.5063673990827
 30
0.0
  0
VERTEX
  5
83D
330
837
100
AcDbEntity
  8
0
 62
   253
370
     0
100
AcDbVertex
100
AcDb2dVertex
 10
177.1118264107987
 20
86.49385539908271
 30
0.0
  0
SEQEND
  5
83E
330
837
100
AcDbEntity
  8
0
 62
   253
370
     0
  0
LINE
  5
83F
330
1F
100
AcDbEntity
  8
0
 62
   253
370
    35
100
AcDbLine
 10
207.6083474107988
 20
86.49385539908271
 30
0.0
 11
177.1118264107987
 21
86.49385539908271
 31
0.0
  0
POLYLINE
  5
840
330
1F
100
AcDbEntity
  8
0
 62
   253
370
    35
100
AcDb2dPolyline
 66
     1
 10
0.0
 20
0.0
 30
0.0
  0
VERTEX
  5
841
330
840
100
AcDbEntity
  8
0
 62
   253
370
     0
100
AcDbVertex
100
AcDb2dVertex
 10
207.6083474107988
 20
86.49385539908271
 30
0.0
  0
VERTEX
  5
842
330
840
100
AcDbEntity
  8
0
 62
   253
370
     0
100
AcDbVertex
100
AcDb2dVertex
 10
211.5198774107987
 20
86.52464739908273
 30
0.0
  0
VERTEX
  5
843
330
840
100
AcDbEntity
  8
0
 62
   253
370
     0
100
AcDbVertex
100
AcDb2dVertex
 10
215.0503334107987
 20
86.5747273990827
 30
0.0
  0
VERTEX
  5
844
330
840
100
AcDbEntity
  8
0
 62
   253
370
     0
100
AcDbVertex
100
AcDb2dVertex
 10
216.1013284107987
 20
86.58235639908266
 30
0.0
  0
SEQEND
  5
845
330
840
100
AcDbEntity
  8
0
 62
   253
370
     0
  0
ARC
  5
846
330
1F
100
AcDbEntity
  8
0
 62
   253
370
    35
100
AcDbCircle
 10
226.5605574107987
 20
129.3486683990827
 30
0.0
 40
42.698279
100
AcDbArc
 50
270.2946519999978
 51
271.7693030000012
  0
ARC
  5
847
330
1F
100
AcDbEntity
  8
0
 62
   253
370
    35
100
AcDbCircle
 10
209.2404584107987
 20
2006.132206399083
 30
0.0
 40
1919.562071
100
AcDbArc
 50
270.2047870000017
 51
270.5235379999981
  0
POLYLINE
  5
848
330
1F
100
AcDbEntity
  8
0
 62
   253
370
    35
100
AcDb2dPolyline
 66
     1
 10
0.0
 20
0.0
 30
0.0
  0
VERTEX
  5
849
330
848
100
AcDbEntity
  8
0
 62
   253
370
     0
100
AcDbVertex
100
AcDb2dVertex
 10
162.4430954107985
 20
77.3924913990827
 30
0.0
  0
VERTEX
  5
84A
330
848
100
AcDbEntity
  8
0
 62
   253
370
     0
100
AcDbVertex
100
AcDb2dVertex
 10
162.3792524107986
 20
77.27805039908272
 30
0.0
  0
VERTEX
  5
84B
330
848
100
AcDbEntity
  8
0
 62
   253
370
     0
100
AcDbVertex
100
AcDb2dVertex
 10
162.2948404107988
 20
77.2328993990828
 30
0.0
  0
VERTEX
  5
84C
330
848
100
AcDbEntity
  8
0
 62
   253
370
     0
100
AcDbVertex
100
AcDb2dVertex
 10
162.2475384107987
 20
77.22681139908266
 30
0.0
  0
SEQEND
  5
84D
330
848
100
AcDbEntity
  8
0
 62
   253
370
     0
  0
ARC
  5
84E
330
1F
100
AcDbEntity
  8
0
 62
   253
370
    35
100
AcDbCircle
 10
172.6061804107986
 20
76.05049639908272
 30
0.0
 40
10.247851
100
AcDbArc
 50
186.3593660000014
 51
224.9062080000018
  0
ARC
  5
84F
330
1F
100
AcDbEntity
  8
0
 62
   253
370
    35
100
AcDbCircle
 10
172.6105144107986
 20
76.05049639908272
 30
0.0
 40
10.247851
100
AcDbArc
 50
315.0937909999987
 51
353.6406339999985
  0
ARC
  5
850
330
1F
100
AcDbEntity
  8
0
 62
   253
370
    35
100
AcDbCircle
 10
182.9712934107987
 20
77.4272353990827
 30
0.0
 40
0.200482
100
AcDbArc
 50
189.848786
 51
269.3873840000019
  0
POLYLINE
  5
851
330
1F
100
AcDbEntity
  8
0
 62
   253
370
    35
100
AcDb2dPolyline
 66
     1
 10
0.0
 20
0.0
 30
0.0
  0
VERTEX
  5
852
330
851
100
AcDbEntity
  8
0
 62
   253
370
     0
100
AcDbVertex
100
AcDb2dVertex
 10
207.6083474107988
 20
77.2256673990827
 30
0.0
  0
VERTEX
  5
853
330
851
100
AcDbEntity
  8
0
 62
   253
370
     0
100
AcDbVertex
100
AcDb2dVertex
 10
209.6989844107987
 20
77.2624713990827
 30
0.0
  0
VERTEX
  5
854
330
851
100
AcDbEntity
  8
0
 62
   253
370
     0
100
AcDbVertex
100
AcDb2dVertex
 10
211.7671614107987
 20
77.37149539908279
 30
0.0
  0
VERTEX
  5
855
330
851
100
AcDbEntity
  8
0
 62
   253
370
     0
100
AcDbVertex
100
AcDb2dVertex
 10
213.8012794107988
 20
77.54919939908269
 30
0.0
  0
VERTEX
  5
856
330
851
100
AcDbEntity
  8
0
 62
   253
370
     0
100
AcDbVertex
100
AcDb2dVertex
 10
215.8048194107987
 20
77.79242439908269
 30
0.0
  0
VERTEX
  5
857
330
851
100
AcDbEntity
  8
0
 62
   253
370
     0
100
AcDbVertex
100
AcDb2dVertex
 10
217.7980754107988
 20
78.1011093990827
 30
0.0
  0
VERTEX
  5
858
330
851
100
AcDbEntity
  8
0
 62
   253
370
     0
100
AcDbVertex
100
AcDb2dVertex
 10
219.7938334107987
 20
78.47597239908278
 30
0.0
  0
VERTEX
  5
859
330
851
100
AcDbEntity
  8
0
 62
   253
370
     0
100
AcDbVertex
100
AcDb2dVertex
 10
221.9352214107987
 20
78.95111539908272
 30
0.0
  0
VERTEX
  5
85A
330
851
100
AcDbEntity
  8
0
 62
   253
370
     0
100
AcDbVertex
100
AcDb2dVertex
 10
223.2381384107987
 20
79.28040039908269
 30
0.0
  0
VERTEX
  5
85B
330
851
100
AcDbEntity
  8
0
 62
   253
370
     0
100
AcDbVertex
100
AcDb2dVertex
 10
224.1478064107988
 20
79.53444339908276
 30
0.0
  0
VERTEX
  5
85C
330
851
100
AcDbEntity
  8
0
 62
   253
370
     0
100
AcDbVertex
100
AcDb2dVertex
 10
224.9549964107988
 20
79.78731239908269
 30
0.0
  0
VERTEX
  5
85D
330
851
100
AcDbEntity
  8
0
 62
   253
370
     0
100
AcDbVertex
100
AcDb2dVertex
 10
225.3226724107987
 20
79.9175313990827
 30
0.0
  0
VERTEX
  5
85E
330
851
100
AcDbEntity
  8
0
 62
   253
370
     0
100
AcDbVertex
100
AcDb2dVertex
 10
225.6425574107987
 20
80.04465239908268
 30
0.0
  0
VERTEX
  5
85F
330
851
100
AcDbEntity
  8
0
 62
   253
370
     0
100
AcDbVertex
100
AcDb2dVertex
 10
225.9040934107987
 20
80.1657003990827
 30
0.0
  0
SEQEND
  5
860
330
851
100
AcDbEntity
  8
0
 62
   253
370
     0
  0
POLYLINE
  5
861
330
1F
100
AcDbEntity
  8
0
 62
   253
370
    35
100
AcDb2dPolyline
 66
     1
 10
0.0
 20
0.0
 30
0.0
  0
VERTEX
  5
862
330
861
100
AcDbEntity
  8
0
 62
   253
370
     0
100
AcDbVertex
100
AcDb2dVertex
 10
119.3126014107987
 20
80.1657003990827
 30
0.0
  0
VERTEX
  5
863
330
861
100
AcDbEntity
  8
0
 62
   253
370
     0
100
AcDbVertex
100
AcDb2dVertex
 10
119.5741374107986
 20
80.04465239908268
 30
0.0
  0
VERTEX
  5
864
330
861
100
AcDbEntity
  8
0
 62
   253
370
     0
100
AcDbVertex
100
AcDb2dVertex
 10
119.8940224107987
 20
79.9175313990827
 30
0.0
  0
VERTEX
  5
865
330
861
100
AcDbEntity
  8
0
 62
   253
370
     0
100
AcDbVertex
100
AcDb2dVertex
 10
120.6566264107987
 20
79.65927639908279
 30
0.0
  0
VERTEX
  5
866
330
861
100
AcDbEntity
  8
0
 62
   253
370
     0
100
AcDbVertex
100
AcDb2dVertex
 10
121.4924724107987
 20
79.4130753990827
 30
0.0
  0
VERTEX
  5
867
330
861
100
AcDbEntity
  8
0
 62
   253
370
     0
100
AcDbVertex
100
AcDb2dVertex
 10
122.8749494107987
 20
79.05023639908269
 30
0.0
  0
VERTEX
  5
868
330
861
100
AcDbEntity
  8
0
 62
   253
370
     0
100
AcDbVertex
100
AcDb2dVertex
 10
124.7598824107987
 20
78.6149343990827
 30
0.0
  0
VERTEX
  5
869
330
861
100
AcDbEntity
  8
0
 62
   253
370
     0
100
AcDbVertex
100
AcDb2dVertex
 10
126.7532754107986
 20
78.21880039908269
 30
0.0
  0
VERTEX
  5
86A
330
861
100
AcDbEntity
  8
0
 62
   253
370
     0
100
AcDbVertex
100
AcDb2dVertex
 10
128.7482404107987
 20
77.8878373990827
 30
0.0
  0
VERTEX
  5
86B
330
861
100
AcDbEntity
  8
0
 62
   253
370
     0
100
AcDbVertex
100
AcDb2dVertex
 10
130.7454024107987
 20
77.6230213990827
 30
0.0
  0
VERTEX
  5
86C
330
861
100
AcDbEntity
  8
0
 62
   253
370
     0
100
AcDbVertex
100
AcDb2dVertex
 10
132.7682144107986
 20
77.42323739908274
 30
0.0
  0
VERTEX
  5
86D
330
861
100
AcDbEntity
  8
0
 62
   253
370
     0
100
AcDbVertex
100
AcDb2dVertex
 10
134.8257704107986
 20
77.29089839908273
 30
0.0
  0
VERTEX
  5
86E
330
861
100
AcDbEntity
  8
0
 62
   253
370
     0
100
AcDbVertex
100
AcDb2dVertex
 10
136.9107614107986
 20
77.22975639908276
 30
0.0
  0
VERTEX
  5
86F
330
861
100
AcDbEntity
  8
0
 62
   253
370
     0
100
AcDbVertex
100
AcDb2dVertex
 10
137.6083474107987
 20
77.2256673990827
 30
0.0
  0
SEQEND
  5
870
330
861
100
AcDbEntity
  8
0
 62
   253
370
     0
  0
ARC
  5
871
330
1F
100
AcDbEntity
  8
0
 62
   253
370
    35
100
AcDbCircle
 10
175.6188454107987
 20
73.05202239908273
 30
0.0
 40
6.00042
100
AcDbArc
 50
269.9990820000014
 51
315.0936580000021
  0
LINE
  5
872
330
1F
100
AcDbEntity
  8
0
 62
   253
 48
0.15052
370
    35
100
AcDbLine
 10
175.6187544107986
 20
67.05159439908273
 30
0.0
 11
169.5979414107987
 21
67.05159439908273
 31
0.0
  0
ARC
  5
873
330
1F
100
AcDbEntity
  8
0
 62
   253
370
    35
100
AcDbCircle
 10
169.5978494107987
 20
73.05202239908273
 30
0.0
 40
6.00042
100
AcDbArc
 50
224.9063439999995
 51
270.0009129999981
  0
LINE
  5
874
330
1F
100
AcDbEntity
  8
0
 62
   253
370
    35
100
AcDbLine
 10
137.6083474107987
 20
77.2256673990827
 30
0.0
 11
161.9139504107986
 21
77.2256673990827
 31
0.0
  0
LINE
  5
875
330
1F
100
AcDbEntity
  8
0
 62
   253
 48
0.00834
370
    35
100
AcDbLine
 10
182.9691574107986
 20
77.22681139908266
 30
0.0
 11
183.3027444107987
 21
77.2256673990827
 31
0.0
  0
LINE
  5
876
330
1F
100
AcDbEntity
  8
0
 62
   253
 48
0.00834
370
    35
100
AcDbLine
 10
162.2475384107987
 20
77.22681139908266
 30
0.0
 11
161.9139504107986
 21
77.2256673990827
 31
0.0
  0
LINE
  5
877
330
1F
100
AcDbEntity
  8
0
 62
   253
370
    35
100
AcDbLine
 10
183.3027444107987
 20
77.2256673990827
 30
0.0
 11
207.6083474107988
 21
77.2256673990827
 31
0.0
  0
CIRCLE
  5
878
330
1F
100
AcDbEntity
  8
0
 62
     7
370
    35
100
AcDbCircle
 10
28.60834741079873
 20
30.44078539908272
 30
0.0
 40
4.883901999999999
  0
LINE
  5
879
330
1F
100
AcDbEntity
  8
0
 62
     7
 48
0.05
370
    35
100
AcDbLine
 10
27.60834741079874
 20
34.94078539908271
 30
0.0
 11
29.60834741079874
 21
34.94078539908271
 31
0.0
  0
LINE
  5
87A
330
1F
100
AcDbEntity
  8
0
 62
     7
 48
0.225
370
    35
100
AcDbLine
 10
27.60834741079874
 20
34.94078539908271
 30
0.0
 11
27.60834741079874
 21
25.94078539908271
 31
0.0
  0
LINE
  5
87B
330
1F
100
AcDbEntity
  8
0
 62
     7
 48
0.05
370
    35
100
AcDbLine
 10
29.60834741079874
 20
25.94078539908271
 30
0.0
 11
27.60834741079874
 21
25.94078539908271
 31
0.0
  0
LINE
  5
87C
330
1F
100
AcDbEntity
  8
0
 62
     7
 48
0.225
370
    35
100
AcDbLine
 10
29.60834741079874
 20
25.94078539908271
 30
0.0
 11
29.60834741079874
 21
34.94078539908271
 31
0.0
  0
CIRCLE
  5
87D
330
1F
100
AcDbEntity
  8
0
 62
     7
370
    35
100
AcDbCircle
 10
316.6083474107987
 20
30.44078539908272
 30
0.0
 40
4.883901999999999
  0
LINE
  5
87E
330
1F
100
AcDbEntity
  8
0
 62
     7
 48
0.05
370
    35
100
AcDbLine
 10
315.6083474107988
 20
34.94078539908271
 30
0.0
 11
317.6083474107988
 21
34.94078539908271
 31
0.0
  0
LINE
  5
87F
330
1F
100
AcDbEntity
  8
0
 62
     7
 48
0.225
370
    35
100
AcDbLine
 10
315.6083474107988
 20
34.94078539908271
 30
0.0
 11
315.6083474107988
 21
25.94078539908271
 31
0.0
  0
LINE
  5
880
330
1F
100
AcDbEntity
  8
0
 62
     7
 48
0.05
370
    35
100
AcDbLine
 10
317.6083474107988
 20
25.94078539908271
 30
0.0
 11
315.6083474107988
 21
25.94078539908271
 31
0.0
  0
LINE
  5
881
330
1F
100
AcDbEntity
  8
0
 62
     7
 48
0.225
370
    35
100
AcDbLine
 10
317.6083474107988
 20
25.94078539908271
 30
0.0
 11
317.6083474107988
 21
34.94078539908271
 31
0.0
  0
CIRCLE
  5
882
330
1F
100
AcDbEntity
  8
0
 62
     7
370
    35
100
AcDbCircle
 10
316.6083474107987
 20
239.4407703990828
 30
0.0
 40
4.883901999999999
  0
LINE
  5
883
330
1F
100
AcDbEntity
  8
0
 62
     7
 48
0.05
370
    35
100
AcDbLine
 10
315.6083474107988
 20
243.9407703990827
 30
0.0
 11
317.6083474107988
 21
243.9407703990827
 31
0.0
  0
LINE
  5
884
330
1F
100
AcDbEntity
  8
0
 62
     7
 48
0.225
370
    35
100
AcDbLine
 10
315.6083474107988
 20
243.9407703990827
 30
0.0
 11
315.6083474107988
 21
234.9407703990827
 31
0.0
  0
LINE
  5
885
330
1F
100
AcDbEntity
  8
0
 62
     7
 48
0.05
370
    35
100
AcDbLine
 10
317.6083474107988
 20
234.9407703990827
 30
0.0
 11
315.6083474107988
 21
234.9407703990827
 31
0.0
  0
LINE
  5
886
330
1F
100
AcDbEntity
  8
0
 62
     7
 48
0.225
370
    35
100
AcDbLine
 10
317.6083474107988
 20
234.9407703990827
 30
0.0
 11
317.6083474107988
 21
243.9407703990827
 31
0.0
  0
CIRCLE
  5
887
330
1F
100
AcDbEntity
  8
0
 62
     7
370
    35
100
AcDbCircle
 10
28.60834741079873
 20
239.4407703990828
 30
0.0
 40
4.883901999999999
  0
LINE
  5
888
330
1F
100
AcDbEntity
  8
0
 62
     7
 48
0.05
370
    35
100
AcDbLine
 10
27.60834741079874
 20
243.9407703990827
 30
0.0
 11
29.60834741079874
 21
243.9407703990827
 31
0.0
  0
LINE
  5
889
330
1F
100
AcDbEntity
  8
0
 62
     7
 48
0.225
370
    35
100
AcDbLine
 10
27.60834741079874
 20
243.9407703990827
 30
0.0
 11
27.60834741079874
 21
234.9407703990827
 31
0.0
  0
LINE
  5
88A
330
1F
100
AcDbEntity
  8
0
 62
     7
 48
0.05
370
    35
100
AcDbLine
 10
29.60834741079874
 20
234.9407703990827
 30
0.0
 11
27.60834741079874
 21
234.9407703990827
 31
0.0
  0
LINE
  5
88B
330
1F
100
AcDbEntity
  8
0
 62
     7
 48
0.225
370
    35
100
AcDbLine
 10
29.60834741079874
 20
234.9407703990827
 30
0.0
 11
29.60834741079874
 21
243.9407703990827
 31
0.0
  0
LINE
  5
88C
330
1F
100
AcDbEntity
  8
0
 62
     7
100
AcDbLine
 10
46.60834741079872
 20
162.9407703990827
 30
0.000000000000007
 11
298.6083474107987
 21
162.9407703990827
 31
0.000000000000007
  0
LINE
  5
88D
330
1F
100
AcDbEntity
  8
0
 62
     7
100
AcDbLine
 10
298.6083474107987
 20
162.9407703990827
 30
0.000000000000007
 11
298.6083474107987
 21
117.9407703990827
 31
0.000000000000007
  0
LINE
  5
88E
330
1F
100
AcDbEntity
  8
0
 62
     7
100
AcDbLine
 10
298.6083474107987
 20
117.9407703990827
 30
0.000000000000007
 11
46.60834741079872
 21
117.9407703990827
 31
0.000000000000007
  0
LINE
  5
88F
330
1F
100
AcDbEntity
  8
0
 62
     7
100
AcDbLine
 10
46.60834741079872
 20
117.9407703990827
 30
0.000000000000007
 11
46.60834741079872
 21
162.9407703990827
 31
0.000000000000007
  0
DIMENSION
  5
8E0
330
1F
100
AcDbEntity
  8
QUOTE
 62
     7
100
AcDbDimension
  2
*D3
 10
-10.50442233797415
 20
14.49626639908271
 30
0.0
 11
-10.50442233797415
 21
138.307198008577
 31
0.0
 70
   160
 71
     5
 42
240.9445040000001
  3
Standard
100
AcDbAlignedDimension
 13
28.60834657304133
 23
255.4407703990828
 33
0.0
 14
28.60834741079873
 24
14.4962663990827
 34
0.0
 50
90.0
100
AcDbRotatedDimension
1001
ACAD
1000
DSTYLE
1002
{
1070
    45
1040
1.0
1070
   178
1070
     7
1070
   177
1070
     7
1070
   176
1070
     7
1070
    78
1070
     8
1070
   285
1070
     8
1070
   148
1040
0.0
1070
   170
1070
     0
1070
    74
1070
     1
1070
    77
1070
     0
1070
   280
1070
     0
1070
   140
1040
10.0
1070
    41
1040
15.0
1002
}
  0
TEXT
  5
961
330
1F
100
AcDbEntity
  8
0
 62
     7
100
AcDbText
 10
40.73303656126438
 20
236.9608332530157
 30
0.0
 40
5.0
  1
GW68023N
 72
     1
 11
60.31636989459771
 21
236.9608332530157
 31
0.0
100
AcDbText
  0
DIMENSION
  5
972
330
1F
100
AcDbEntity
  8
QUOTE
 62
     7
100
AcDbDimension
  2
*D5
 10
12.60834741079873
 20
272.2627681478555
 30
0.0
 11
166.4554423464167
 21
272.2627681478555
 31
0.0
 70
   160
 71
     5
 42
320.0000000000001
  3
Standard
100
AcDbAlignedDimension
 13
332.6083474107988
 23
233.14999923684
 33
0.0
 14
12.60834741079873
 24
233.1499983990827
 34
0.0
100
AcDbRotatedDimension
1001
ACAD
1000
DSTYLE
1002
{
1070
    45
1040
1.0
1070
   178
1070
     7
1070
   177
1070
     7
1070
   176
1070
     7
1070
    78
1070
     8
1070
   285
1070
     8
1070
   148
1040
0.0
1070
   170
1070
     0
1070
    74
1070
     1
1070
    77
1070
     0
1070
   280
1070
     0
1070
   140
1040
10.0
1070
    41
1040
15.0
1002
}
  0
ENDSEC
  0
SECTION
  2
OBJECTS
  0
DICTIONARY
  5
C
330
0
100
AcDbDictionary
281
     1
  3
ACAD_COLOR
350
73
  3
ACAD_GROUP
350
D
  3
ACAD_LAYOUT
350
1A
  3
ACAD_MATERIAL
350
72
  3
ACAD_MLEADERSTYLE
350
D7
  3
ACAD_MLINESTYLE
350
17
  3
ACAD_PLOTSETTINGS
350
19
  3
ACAD_PLOTSTYLENAME
350
E
  3
ACAD_SCALELIST
350
B6
  3
ACAD_TABLESTYLE
350
86
  3
ACAD_VISUALSTYLE
350
99
  3
ACDB_RECOMPOSE_DATA
350
FF
  3
AcDbVariableDictionary
350
66
  3
AEC_PROPERTY_SET_DEFS
350
8DE
  3
DWGPROPS
350
9B3
  0
DICTIONARY
  5
8D7
330
2
100
AcDbDictionary
280
     1
281
     1
  3
ACAD_LAYERSTATES
360
8D8
  0
DICTIONARY
  5
E6
330
10
100
AcDbDictionary
280
     1
281
     1
  3
ADSK_XREC_LAYER_RECONCILED
360
8A3
  0
DICTIONARY
  5
14E
330
14D
100
AcDbDictionary
280
     1
281
     1
  3
ADSK_XREC_LAYER_RECONCILED
360
8A4
  0
DICTIONARY
  5
73
102
{ACAD_REACTORS
330
C
102
}
330
C
100
AcDbDictionary
281
     1
  0
DICTIONARY
  5
D
102
{ACAD_REACTORS
330
C
102
}
330
C
100
AcDbDictionary
281
     1
  0
DICTIONARY
  5
1A
102
{ACAD_REACTORS
330
C
102
}
330
C
100
AcDbDictionary
281
     1
  3
Layout1
350
59
  3
Layout2
350
5E
  3
Model
350
22
  0
DICTIONARY
  5
72
102
{ACAD_REACTORS
330
C
102
}
330
C
100
AcDbDictionary
281
     1
  3
ByBlock
350
97
  3
ByLayer
350
96
  3
Global
350
98
  0
DICTIONARY
  5
D7
102
{ACAD_REACTORS
330
C
102
}
330
C
100
AcDbDictionary
281
     1
  3
Annotativa
350
E5
  3
Standard
350
D8
  0
DICTIONARY
  5
17
102
{ACAD_REACTORS
330
C
102
}
330
C
100
AcDbDictionary
281
     1
  3
Standard
350
18
  0
DICTIONARY
  5
19
102
{ACAD_REACTORS
330
C
102
}
330
C
100
AcDbDictionary
281
     1
  0
ACDBDICTIONARYWDFLT
  5
E
102
{ACAD_REACTORS
330
C
102
}
330
C
100
AcDbDictionary
281
     1
  3
Normal
350
F
100
AcDbDictionaryWithDefault
340
F
  0
DICTIONARY
  5
B6
102
{ACAD_REACTORS
330
C
102
}
330
C
100
AcDbDictionary
281
     1
  3
A0
350
B7
  3
A1
350
124
  3
A2
350
125
  3
A3
350
126
  3
A4
350
127
  3
A5
350
128
  3
A6
350
129
  3
A7
350
12A
  3
A8
350
12B
  3
A9
350
12C
  3
B0
350
12D
  3
B1
350
12E
  3
B2
350
12F
  3
B3
350
130
  3
B4
350
131
  3
B5
350
132
  3
B6
350
133
  3
B7
350
134
  3
B8
350
135
  3
B9
350
136
  3
C0
350
137
  3
C1
350
138
  3
C2
350
139
  3
C3
350
13A
  3
C4
350
13B
  3
C5
350
13C
  3
C6
350
13D
  3
C7
350
13E
  3
C8
350
13F
  3
C9
350
140
  3
D0
350
141
  3
D1
350
142
  3
D2
350
143
  0
DICTIONARY
  5
86
102
{ACAD_REACTORS
330
C
102
}
330
C
100
AcDbDictionary
281
     1
  3
Standard
350
87
  0
DICTIONARY
  5
99
102
{ACAD_REACTORS
330
C
102
}
330
C
100
AcDbDictionary
281
     1
  3
2dWireframe
350
9F
  3
3D Hidden
350
A1
  3
3dWireframe
350
A0
  3
Basic
350
9E
  3
Brighten
350
A5
  3
ColorChange
350
A9
  3
Conceptual
350
A2
  3
Dim
350
A4
  3
Facepattern
350
A8
  3
Flat
350
9A
  3
FlatWithEdges
350
9B
  3
Gouraud
350
9C
  3
GouraudWithEdges
350
9D
  3
Linepattern
350
A7
  3
Realistic
350
A3
  3
Thicken
350
A6
  0
XRECORD
  5
FF
102
{ACAD_REACTORS
330
C
102
}
330
C
100
AcDbXrecord
280
     1
 90
        1
330
87
  0
DICTIONARY
  5
66
102
{ACAD_REACTORS
330
C
102
}
330
C
100
AcDbDictionary
281
     1
  3
CANNOSCALE
350
F0
  3
CMLEADERSTYLE
350
EF
  3
CTABLESTYLE
350
89
  3
DIMASSOC
350
67
  3
HIDETEXT
350
6B
  3
INDEXCTL
350
8A8
  3
LIGHTINGUNITS
350
8A6
  3
MSLTSCALE
350
8A5
  3
SORTENTS
350
8A7
  0
DICTIONARY
  5
8DE
102
{ACAD_REACTORS
330
C
102
}
330
C
100
AcDbDictionary
281
     1
  0
XRECORD
  5
9B3
102
{ACAD_REACTORS
330
C
102
}
330
C
100
AcDbXrecord
280
     1
  1
DWGPROPS COOKIE
  2

  3

  4

  6

  7

  8
fontanaNZ
  9

300
=
301
=
302
=
303
=
304
=
305
=
306
=
307
=
308
=
309
=
 40
0.0025587615740741
 41
2455289.393064931
 42
2455510.743860324
  1

 90
        0
  0
DICTIONARY
  5
8D8
102
{ACAD_REACTORS
330
8D7
102
}
330
8D7
100
AcDbDictionary
281
     1
  0
XRECORD
  5
8A3
102
{ACAD_REACTORS
330
E6
102
}
330
E6
100
AcDbXrecord
280
     1
290
     1
  0
XRECORD
  5
8A4
102
{ACAD_REACTORS
330
14E
102
}
330
14E
100
AcDbXrecord
280
     1
290
     1
  0
LAYOUT
  5
59
102
{ACAD_XDICTIONARY
360
9B6
102
}
102
{ACAD_REACTORS
330
1A
102
}
330
1A
100
AcDbPlotSettings
  1

  2
None
  4

  6

 40
0.0
 41
0.0
 42
0.0
 43
0.0
 44
0.0
 45
0.0
 46
0.0
 47
0.0
 48
0.0
 49
0.0
140
0.0
141
0.0
142
1.0
143
1.0
 70
   688
 72
     0
 73
     0
 74
     5
  7

 75
    16
147
1.0
148
0.0
149
0.0
100
AcDbLayout
  1
Layout1
 70
     1
 71
     1
 10
0.0
 20
0.0
 11
12.0
 21
9.0
 12
0.0
 22
0.0
 32
0.0
 14
0.0
 24
0.0
 34
0.0
 15
0.0
 25
0.0
 35
0.0
146
0.0
 13
0.0
 23
0.0
 33
0.0
 16
1.0
 26
0.0
 36
0.0
 17
0.0
 27
1.0
 37
0.0
 76
     0
330
58
  0
LAYOUT
  5
5E
102
{ACAD_XDICTIONARY
360
9B8
102
}
102
{ACAD_REACTORS
330
1A
102
}
330
1A
100
AcDbPlotSettings
  1

  2
None
  4

  6

 40
0.0
 41
0.0
 42
0.0
 43
0.0
 44
0.0
 45
0.0
 46
0.0
 47
0.0
 48
0.0
 49
0.0
140
0.0
141
0.0
142
1.0
143
1.0
 70
   688
 72
     0
 73
     0
 74
     5
  7

 75
    16
147
1.0
148
0.0
149
0.0
100
AcDbLayout
  1
Layout2
 70
     1
 71
     2
 10
0.0
 20
0.0
 11
12.0
 21
9.0
 12
0.0
 22
0.0
 32
0.0
 14
0.0
 24
0.0
 34
0.0
 15
0.0
 25
0.0
 35
0.0
146
0.0
 13
0.0
 23
0.0
 33
0.0
 16
1.0
 26
0.0
 36
0.0
 17
0.0
 27
1.0
 37
0.0
 76
     0
330
5D
  0
LAYOUT
  5
22
102
{ACAD_XDICTIONARY
360
9B4
102
}
102
{ACAD_REACTORS
330
1A
102
}
330
1A
100
AcDbPlotSettings
  1

  2
none_device
  4
ANSI_A_(8.50_x_11.00_Inches)
  6

 40
6.349999904632567
 41
19.04999923706055
 42
6.350006103515625
 43
19.04998779296875
 44
215.8999938964844
 45
279.3999938964844
 46
0.0
 47
0.0
 48
0.0
 49
0.0
140
0.0
141
0.0
142
1.0
143
2.584895464708373
 70
 11952
 72
     0
 73
     1
 74
     0
  7

 75
     0
147
0.3868628397755418
148
0.0
149
0.0
100
AcDbLayout
  1
Model
 70
     1
 71
     0
 10
0.0
 20
0.0
 11
12.0
 21
9.0
 12
0.0
 22
0.0
 32
0.0
 14
0.0
 24
0.0
 34
0.0
 15
0.0
 25
0.0
 35
0.0
146
0.0
 13
0.0
 23
0.0
 33
0.0
 16
1.0
 26
0.0
 36
0.0
 17
0.0
 27
1.0
 37
0.0
 76
     0
330
1F
331
94
  0
MATERIAL
  5
97
102
{ACAD_XDICTIONARY
360
8B4
102
}
102
{ACAD_REACTORS
330
72
102
}
330
72
100
AcDbMaterial
  1
ByBlock
  0
MATERIAL
  5
96
102
{ACAD_XDICTIONARY
360
8B2
102
}
102
{ACAD_REACTORS
330
72
102
}
330
72
100
AcDbMaterial
  1
ByLayer
  0
MATERIAL
  5
98
102
{ACAD_XDICTIONARY
360
110
102
}
102
{ACAD_REACTORS
330
72
102
}
330
72
100
AcDbMaterial
  1
Global
 43
0.0208000000566244
 43
0.0
 43
0.0
 43
0.0
 43
0.0
 43
0.0208000000566244
 43
0.0
 43
0.0
 43
0.0
 43
0.0
 43
1.0
 43
0.0
 43
0.0
 43
0.0
 43
0.0
 43
1.0
 49
0.0208000000566244
 49
0.0
 49
0.0
 49
0.0
 49
0.0
 49
0.0208000000566244
 49
0.0
 49
0.0
 49
0.0
 49
0.0
 49
1.0
 49
0.0
 49
0.0
 49
0.0
 49
0.0
 49
1.0
142
0.0208000000566244
142
0.0
142
0.0
142
0.0
142
0.0
142
0.0208000000566244
142
0.0
142
0.0
142
0.0
142
0.0
142
1.0
142
0.0
142
0.0
142
0.0
142
0.0
142
1.0
144
0.0208000000566244
144
0.0
144
0.0
144
0.0
144
0.0
144
0.0208000000566244
144
0.0
144
0.0
144
0.0
144
0.0
144
1.0
144
0.0
144
0.0
144
0.0
144
0.0
144
1.0
1001
ACAD
1070
    -1
1070
     3
1070
     0
1000

1071
        0
1070
     0
  0
MLEADERSTYLE
  5
E5
102
{ACAD_REACTORS
330
D7
102
}
330
D7
100
AcDbMLeaderStyle
170
     2
171
     1
172
     0
 90
        2
 40
0.0
 41
0.0
173
     1
 91
-1056964608
340
14
 92
       -2
290
     1
 42
0.09
291
     1
 43
0.36
  3
Standard
 44
0.18
300

342
11
174
     1
178
     1
175
     1
176
     0
 93
-1056964608
 45
0.18
292
     0
297
     0
 46
0.18
 94
-1056964608
 47
1.0
 49
1.0
140
1.0
293
     1
141
0.0
294
     1
177
     0
142
1.0
295
     0
296
     1
143
0.125
1001
ACAD_MLEADERVER
1070
     2
  0
MLEADERSTYLE
  5
D8
102
{ACAD_REACTORS
330
D7
102
}
330
D7
100
AcDbMLeaderStyle
170
     2
171
     1
172
     0
 90
        2
 40
0.0
 41
0.0
173
     1
 91
-1056964608
340
14
 92
       -2
290
     1
 42
0.09
291
     1
 43
0.36
  3
Standard
 44
0.18
300

342
11
174
     1
178
     1
175
     1
176
     0
 93
-1056964608
 45
0.18
292
     0
297
     0
 46
0.18
 94
-1056964608
 47
1.0
 49
1.0
140
1.0
293
     1
141
0.0
294
     1
177
     0
142
1.0
295
     0
296
     0
143
0.125
1001
ACAD_MLEADERVER
1070
     2
  0
MLINESTYLE
  5
18
102
{ACAD_REACTORS
330
17
102
}
330
17
100
AcDbMlineStyle
  2
STANDARD
 70
     0
  3

 62
   256
 51
90.0
 52
90.0
 71
     2
 49
0.5
 62
   256
  6
BYLAYER
 49
-0.5
 62
   256
  6
BYLAYER
  0
ACDBPLACEHOLDER
  5
F
102
{ACAD_REACTORS
330
E
102
}
330
E
  0
SCALE
  5
B7
102
{ACAD_REACTORS
330
B6
102
}
330
B6
100
AcDbScale
 70
     0
300
1:1
140
1.0
141
1.0
290
     1
  0
SCALE
  5
124
102
{ACAD_REACTORS
330
B6
102
}
330
B6
100
AcDbScale
 70
     0
300
1:2
140
1.0
141
2.0
290
     0
  0
SCALE
  5
125
102
{ACAD_REACTORS
330
B6
102
}
330
B6
100
AcDbScale
 70
     0
300
1:4
140
1.0
141
4.0
290
     0
  0
SCALE
  5
126
102
{ACAD_REACTORS
330
B6
102
}
330
B6
100
AcDbScale
 70
     0
300
1:5
140
1.0
141
5.0
290
     0
  0
SCALE
  5
127
102
{ACAD_REACTORS
330
B6
102
}
330
B6
100
AcDbScale
 70
     0
300
1:8
140
1.0
141
8.0
290
     0
  0
SCALE
  5
128
102
{ACAD_REACTORS
330
B6
102
}
330
B6
100
AcDbScale
 70
     0
300
1:10
140
1.0
141
10.0
290
     0
  0
SCALE
  5
129
102
{ACAD_REACTORS
330
B6
102
}
330
B6
100
AcDbScale
 70
     0
300
1:16
140
1.0
141
16.0
290
     0
  0
SCALE
  5
12A
102
{ACAD_REACTORS
330
B6
102
}
330
B6
100
AcDbScale
 70
     0
300
1:20
140
1.0
141
20.0
290
     0
  0
SCALE
  5
12B
102
{ACAD_REACTORS
330
B6
102
}
330
B6
100
AcDbScale
 70
     0
300
1:30
140
1.0
141
30.0
290
     0
  0
SCALE
  5
12C
102
{ACAD_REACTORS
330
B6
102
}
330
B6
100
AcDbScale
 70
     0
300
1:40
140
1.0
141
40.0
290
     0
  0
SCALE
  5
12D
102
{ACAD_REACTORS
330
B6
102
}
330
B6
100
AcDbScale
 70
     0
300
1:50
140
1.0
141
50.0
290
     0
  0
SCALE
  5
12E
102
{ACAD_REACTORS
330
B6
102
}
330
B6
100
AcDbScale
 70
     0
300
1:100
140
1.0
141
100.0
290
     0
  0
SCALE
  5
12F
102
{ACAD_REACTORS
330
B6
102
}
330
B6
100
AcDbScale
 70
     0
300
2:1
140
2.0
141
1.0
290
     0
  0
SCALE
  5
130
102
{ACAD_REACTORS
330
B6
102
}
330
B6
100
AcDbScale
 70
     0
300
4:1
140
4.0
141
1.0
290
     0
  0
SCALE
  5
131
102
{ACAD_REACTORS
330
B6
102
}
330
B6
100
AcDbScale
 70
     0
300
8:1
140
8.0
141
1.0
290
     0
  0
SCALE
  5
132
102
{ACAD_REACTORS
330
B6
102
}
330
B6
100
AcDbScale
 70
     0
300
10:1
140
10.0
141
1.0
290
     0
  0
SCALE
  5
133
102
{ACAD_REACTORS
330
B6
102
}
330
B6
100
AcDbScale
 70
     0
300
100:1
140
100.0
141
1.0
290
     0
  0
SCALE
  5
134
102
{ACAD_REACTORS
330
B6
102
}
330
B6
100
AcDbScale
 70
     0
300
1/128" = 1'-0"
140
0.0078125
141
12.0
290
     0
  0
SCALE
  5
135
102
{ACAD_REACTORS
330
B6
102
}
330
B6
100
AcDbScale
 70
     0
300
1/64" = 1'-0"
140
0.015625
141
12.0
290
     0
  0
SCALE
  5
136
102
{ACAD_REACTORS
330
B6
102
}
330
B6
100
AcDbScale
 70
     0
300
1/32" = 1'-0"
140
0.03125
141
12.0
290
     0
  0
SCALE
  5
137
102
{ACAD_REACTORS
330
B6
102
}
330
B6
100
AcDbScale
 70
     0
300
1/16" = 1'-0"
140
0.0625
141
12.0
290
     0
  0
SCALE
  5
138
102
{ACAD_REACTORS
330
B6
102
}
330
B6
100
AcDbScale
 70
     0
300
3/32" = 1'-0"
140
0.09375
141
12.0
290
     0
  0
SCALE
  5
139
102
{ACAD_REACTORS
330
B6
102
}
330
B6
100
AcDbScale
 70
     0
300
1/8" = 1'-0"
140
0.125
141
12.0
290
     0
  0
SCALE
  5
13A
102
{ACAD_REACTORS
330
B6
102
}
330
B6
100
AcDbScale
 70
     0
300
3/16" = 1'-0"
140
0.1875
141
12.0
290
     0
  0
SCALE
  5
13B
102
{ACAD_REACTORS
330
B6
102
}
330
B6
100
AcDbScale
 70
     0
300
1/4" = 1'-0"
140
0.25
141
12.0
290
     0
  0
SCALE
  5
13C
102
{ACAD_REACTORS
330
B6
102
}
330
B6
100
AcDbScale
 70
     0
300
3/8" = 1'-0"
140
0.375
141
12.0
290
     0
  0
SCALE
  5
13D
102
{ACAD_REACTORS
330
B6
102
}
330
B6
100
AcDbScale
 70
     0
300
1/2" = 1'-0"
140
0.5
141
12.0
290
     0
  0
SCALE
  5
13E
102
{ACAD_REACTORS
330
B6
102
}
330
B6
100
AcDbScale
 70
     0
300
3/4" = 1'-0"
140
0.75
141
12.0
290
     0
  0
SCALE
  5
13F
102
{ACAD_REACTORS
330
B6
102
}
330
B6
100
AcDbScale
 70
     0
300
1" = 1'-0"
140
1.0
141
12.0
290
     0
  0
SCALE
  5
140
102
{ACAD_REACTORS
330
B6
102
}
330
B6
100
AcDbScale
 70
     0
300
1-1/2" = 1'-0"
140
1.5
141
12.0
290
     0
  0
SCALE
  5
141
102
{ACAD_REACTORS
330
B6
102
}
330
B6
100
AcDbScale
 70
     0
300
3" = 1'-0"
140
3.0
141
12.0
290
     0
  0
SCALE
  5
142
102
{ACAD_REACTORS
330
B6
102
}
330
B6
100
AcDbScale
 70
     0
300
6" = 1'-0"
140
6.0
141
12.0
290
     0
  0
SCALE
  5
143
102
{ACAD_REACTORS
330
B6
102
}
330
B6
100
AcDbScale
 70
     0
300
1'-0" = 1'-0"
140
12.0
141
12.0
290
     0
  0
TABLESTYLE
  5
87
102
{ACAD_XDICTIONARY
360
104
102
}
102
{ACAD_REACTORS
330
86
102
}
330
86
100
AcDbTableStyle
  3
Standard
 70
     0
 71
     0
 40
0.06
 41
0.06
280
     0
281
     0
  7
Standard
140
0.18
170
     2
 62
     0
 63
     7
283
     0
274
    -2
284
     1
 64
     0
275
    -2
285
     1
 65
     0
276
    -2
286
     1
 66
     0
277
    -2
287
     1
 67
     0
278
    -2
288
     1
 68
     0
279
    -2
289
     1
 69
     0
  7
Standard
140
0.25
170
     5
 62
     0
 63
     7
283
     0
274
    -2
284
     1
 64
     0
275
    -2
285
     1
 65
     0
276
    -2
286
     1
 66
     0
277
    -2
287
     1
 67
     0
278
    -2
288
     1
 68
     0
279
    -2
289
     1
 69
     0
  7
Standard
140
0.18
170
     5
 62
     0
 63
     7
283
     0
274
    -2
284
     1
 64
     0
275
    -2
285
     1
 65
     0
276
    -2
286
     1
 66
     0
277
    -2
287
     1
 67
     0
278
    -2
288
     1
 68
     0
279
    -2
289
     1
 69
     0
  0
VISUALSTYLE
  5
9F
102
{ACAD_REACTORS
330
99
102
}
330
99
100
AcDbVisualStyle
  2
2dWireframe
 70
     4
 71
     0
 72
     2
 73
     1
 90
        0
 40
-0.6
 41
-30.0
 62
     5
 63
     7
 74
     1
 91
        4
 64
     7
 65
   257
 75
     1
175
     1
 42
1.0
 92
        0
 66
   257
 43
1.0
 76
     1
 77
     6
 78
     2
 67
     7
 79
     5
170
     0
171
     0
290
     0
174
     0
 93
        1
 44
0.0
173
     0
291
     0
 45
0.0
1001
ACAD
1000
AcDbSavedByObjectVersion
1070
     0
1000
AcDbSavedByObjectVersion
1070
     0
1000
AcDbSavedByObjectVersion
1070
     0
1000
AcDbSavedByObjectVersion
1070
     0
1000
AcDbSavedByObjectVersion
1070
     0
  0
VISUALSTYLE
  5
A1
102
{ACAD_REACTORS
330
99
102
}
330
99
100
AcDbVisualStyle
  2
3D Hidden
 70
     6
 71
     1
 72
     2
 73
     2
 90
        0
 40
-0.6
 41
-30.0
 62
     5
 63
     7
 74
     2
 91
        2
 64
     7
 65
   257
 75
     2
175
     1
 42
40.0
 92
        0
 66
   257
 43
1.0
 76
     1
 77
     6
 78
     2
 67
     7
 79
     3
170
     0
171
     0
290
     0
174
     0
 93
        1
 44
0.0
173
     0
291
     0
 45
0.0
1001
ACAD
1000
AcDbSavedByObjectVersion
1070
     0
1000
AcDbSavedByObjectVersion
1070
     0
1000
AcDbSavedByObjectVersion
1070
     0
1000
AcDbSavedByObjectVersion
1070
     0
1000
AcDbSavedByObjectVersion
1070
     0
  0
VISUALSTYLE
  5
A0
102
{ACAD_REACTORS
330
99
102
}
330
99
100
AcDbVisualStyle
  2
3dWireframe
 70
     5
 71
     0
 72
     2
 73
     1
 90
        0
 40
-0.6
 41
-30.0
 62
     5
 63
     7
 74
     1
 91
        4
 64
     7
 65
   257
 75
     1
175
     1
 42
1.0
 92
        0
 66
   257
 43
1.0
 76
     1
 77
     6
 78
     2
 67
     7
 79
     5
170
     0
171
     0
290
     0
174
     0
 93
        1
 44
0.0
173
     0
291
     0
 45
0.0
1001
ACAD
1000
AcDbSavedByObjectVersion
1070
     0
1000
AcDbSavedByObjectVersion
1070
     0
1000
AcDbSavedByObjectVersion
1070
     0
1000
AcDbSavedByObjectVersion
1070
     0
1000
AcDbSavedByObjectVersion
1070
     0
  0
VISUALSTYLE
  5
9E
102
{ACAD_REACTORS
330
99
102
}
330
99
100
AcDbVisualStyle
  2
Basic
 70
     7
 71
     1
 72
     0
 73
     1
 90
        0
 40
-0.6
 41
-30.0
 62
     5
 63
     7
 74
     0
 91
        4
 64
     7
 65
   257
 75
     1
175
     1
 42
1.0
 92
        8
 66
     7
 43
1.0
 76
     1
 77
     6
 78
     2
 67
     7
 79
     5
170
     0
171
     0
290
     0
174
     0
 93
        1
 44
0.0
173
     0
291
     1
 45
0.0
1001
ACAD
1000
AcDbSavedByObjectVersion
1070
     0
1000
AcDbSavedByObjectVersion
1070
     0
1000
AcDbSavedByObjectVersion
1070
     0
1000
AcDbSavedByObjectVersion
1070
     0
1000
AcDbSavedByObjectVersion
1070
     0
  0
VISUALSTYLE
  5
A5
102
{ACAD_REACTORS
330
99
102
}
330
99
100
AcDbVisualStyle
  2
Brighten
 70
    12
 71
     2
 72
     2
 73
     1
 90
        0
 40
-0.6
 41
-30.0
 62
     5
 63
     7
 74
     1
 91
        4
 64
     7
 65
   257
 75
     1
175
     1
 42
1.0
 92
        8
 66
     7
 43
1.0
 76
     1
 77
     6
 78
     2
 67
     7
 79
     5
170
     0
171
     0
290
     0
174
     0
 93
        1
 44
50.0
173
     0
291
     1
 45
0.0
1001
ACAD
1000
AcDbSavedByObjectVersion
1070
     0
1000
AcDbSavedByObjectVersion
1070
     0
1000
AcDbSavedByObjectVersion
1070
     0
1000
AcDbSavedByObjectVersion
1070
     0
1000
AcDbSavedByObjectVersion
1070
     0
  0
VISUALSTYLE
  5
A9
102
{ACAD_REACTORS
330
99
102
}
330
99
100
AcDbVisualStyle
  2
ColorChange
 70
    16
 71
     2
 72
     2
 73
     3
 90
        0
 40
-0.6
 41
-30.0
 62
     5
 63
     8
 74
     1
 91
        4
 64
     7
 65
   257
 75
     1
175
     1
 42
1.0
 92
        8
 66
     8
 43
1.0
 76
     1
 77
     6
 78
     2
 67
     7
 79
     5
170
     0
171
     0
290
     0
174
     0
 93
        1
 44
0.0
173
     0
291
     1
 45
0.0
1001
ACAD
1000
AcDbSavedByObjectVersion
1070
     0
1000
AcDbSavedByObjectVersion
1070
     0
1000
AcDbSavedByObjectVersion
1070
     0
1000
AcDbSavedByObjectVersion
1070
     0
1000
AcDbSavedByObjectVersion
1070
     0
  0
VISUALSTYLE
  5
A2
102
{ACAD_REACTORS
330
99
102
}
330
99
100
AcDbVisualStyle
  2
Conceptual
 70
     9
 71
     3
 72
     2
 73
     1
 90
        0
 40
-0.6
 41
-30.0
 62
     5
 63
     7
 74
     2
 91
        2
 64
     7
 65
   257
 75
     1
175
     1
 42
40.0
 92
        8
 66
     7
 43
1.0
 76
     1
 77
     6
 78
     2
 67
     7
 79
     3
170
     0
171
     0
290
     0
174
     0
 93
        1
 44
0.0
173
     0
291
     0
 45
0.0
1001
ACAD
1000
AcDbSavedByObjectVersion
1070
     0
1000
AcDbSavedByObjectVersion
1070
     0
1000
AcDbSavedByObjectVersion
1070
     0
1000
AcDbSavedByObjectVersion
1070
     0
1000
AcDbSavedByObjectVersion
1070
     0
  0
VISUALSTYLE
  5
A4
102
{ACAD_REACTORS
330
99
102
}
330
99
100
AcDbVisualStyle
  2
Dim
 70
    11
 71
     2
 72
     2
 73
     1
 90
        0
 40
-0.6
 41
-30.0
 62
     5
 63
     7
 74
     1
 91
        4
 64
     7
 65
   257
 75
     1
175
     1
 42
1.0
 92
        8
 66
     7
 43
1.0
 76
     1
 77
     6
 78
     2
 67
     7
 79
     5
170
     0
171
     0
290
     0
174
     0
 93
        1
 44
-50.0
173
     0
291
     1
 45
0.0
1001
ACAD
1000
AcDbSavedByObjectVersion
1070
     0
1000
AcDbSavedByObjectVersion
1070
     0
1000
AcDbSavedByObjectVersion
1070
     0
1000
AcDbSavedByObjectVersion
1070
     0
1000
AcDbSavedByObjectVersion
1070
     0
  0
VISUALSTYLE
  5
A8
102
{ACAD_REACTORS
330
99
102
}
330
99
100
AcDbVisualStyle
  2
Facepattern
 70
    15
 71
     2
 72
     2
 73
     1
 90
        0
 40
-0.6
 41
-30.0
 62
     5
 63
     7
 74
     1
 91
        4
 64
     7
 65
   257
 75
     1
175
     1
 42
1.0
 92
        8
 66
     7
 43
1.0
 76
     1
 77
     6
 78
     2
 67
     7
 79
     5
170
     0
171
     0
290
     0
174
     0
 93
        1
 44
0.0
173
     0
291
     1
 45
0.0
1001
ACAD
1000
AcDbSavedByObjectVersion
1070
     0
1000
AcDbSavedByObjectVersion
1070
     0
1000
AcDbSavedByObjectVersion
1070
     0
1000
AcDbSavedByObjectVersion
1070
     0
1000
AcDbSavedByObjectVersion
1070
     0
  0
VISUALSTYLE
  5
9A
102
{ACAD_REACTORS
330
99
102
}
330
99
100
AcDbVisualStyle
  2
Flat
 70
     0
 71
     2
 72
     1
 73
     1
 90
        2
 40
-0.6
 41
30.0
 62
     5
 63
     7
 74
     0
 91
        4
 64
     7
 65
   257
 75
     1
175
     1
 42
1.0
 92
        8
 66
     7
 43
1.0
 76
     1
 77
     6
 78
     2
 67
     7
 79
     5
170
     0
171
     0
290
     0
174
     0
 93
        1
 44
0.0
173
     0
291
     1
 45
0.0
1001
ACAD
1000
AcDbSavedByObjectVersion
1070
     0
1000
AcDbSavedByObjectVersion
1070
     0
1000
AcDbSavedByObjectVersion
1070
     0
1000
AcDbSavedByObjectVersion
1070
     0
1000
AcDbSavedByObjectVersion
1070
     0
  0
VISUALSTYLE
  5
9B
102
{ACAD_REACTORS
330
99
102
}
330
99
100
AcDbVisualStyle
  2
FlatWithEdges
 70
     1
 71
     2
 72
     1
 73
     1
 90
        2
 40
-0.6
 41
30.0
 62
     5
 63
     7
 74
     1
 91
        4
 64
     7
 65
   257
 75
     1
175
     1
 42
1.0
 92
        0
 66
   257
 43
1.0
 76
     1
 77
     6
 78
     2
 67
     7
 79
     5
170
     0
171
     0
290
     0
174
     0
 93
        1
 44
0.0
173
     0
291
     1
 45
0.0
1001
ACAD
1000
AcDbSavedByObjectVersion
1070
     0
1000
AcDbSavedByObjectVersion
1070
     0
1000
AcDbSavedByObjectVersion
1070
     0
1000
AcDbSavedByObjectVersion
1070
     0
1000
AcDbSavedByObjectVersion
1070
     0
  0
VISUALSTYLE
  5
9C
102
{ACAD_REACTORS
330
99
102
}
330
99
100
AcDbVisualStyle
  2
Gouraud
 70
     2
 71
     2
 72
     2
 73
     1
 90
        2
 40
-0.6
 41
30.0
 62
     5
 63
     7
 74
     0
 91
        4
 64
     7
 65
   257
 75
     1
175
     1
 42
1.0
 92
        0
 66
     7
 43
1.0
 76
     1
 77
     6
 78
     2
 67
     7
 79
     5
170
     0
171
     0
290
     0
174
     0
 93
        1
 44
0.0
173
     0
291
     1
 45
0.0
1001
ACAD
1000
AcDbSavedByObjectVersion
1070
     0
1000
AcDbSavedByObjectVersion
1070
     0
1000
AcDbSavedByObjectVersion
1070
     0
1000
AcDbSavedByObjectVersion
1070
     0
1000
AcDbSavedByObjectVersion
1070
     0
  0
VISUALSTYLE
  5
9D
102
{ACAD_REACTORS
330
99
102
}
330
99
100
AcDbVisualStyle
  2
GouraudWithEdges
 70
     3
 71
     2
 72
     2
 73
     1
 90
        2
 40
-0.6
 41
30.0
 62
     5
 63
     7
 74
     1
 91
        4
 64
     7
 65
   257
 75
     1
175
     1
 42
1.0
 92
        0
 66
   257
 43
1.0
 76
     1
 77
     6
 78
     2
 67
     7
 79
     5
170
     0
171
     0
290
     0
174
     0
 93
        1
 44
0.0
173
     0
291
     1
 45
0.0
1001
ACAD
1000
AcDbSavedByObjectVersion
1070
     0
1000
AcDbSavedByObjectVersion
1070
     0
1000
AcDbSavedByObjectVersion
1070
     0
1000
AcDbSavedByObjectVersion
1070
     0
1000
AcDbSavedByObjectVersion
1070
     0
  0
VISUALSTYLE
  5
A7
102
{ACAD_REACTORS
330
99
102
}
330
99
100
AcDbVisualStyle
  2
Linepattern
 70
    14
 71
     2
 72
     2
 73
     1
 90
        0
 40
-0.6
 41
-30.0
 62
     5
 63
     7
 74
     1
 91
        4
 64
     7
 65
   257
 75
     7
175
     7
 42
1.0
 92
        8
 66
     7
 43
1.0
 76
     1
 77
     6
 78
     2
 67
     7
 79
     5
170
     0
171
     0
290
     0
174
     0
 93
        1
 44
0.0
173
     0
291
     1
 45
0.0
1001
ACAD
1000
AcDbSavedByObjectVersion
1070
     0
1000
AcDbSavedByObjectVersion
1070
     0
1000
AcDbSavedByObjectVersion
1070
     0
1000
AcDbSavedByObjectVersion
1070
     0
1000
AcDbSavedByObjectVersion
1070
     0
  0
VISUALSTYLE
  5
A3
102
{ACAD_REACTORS
330
99
102
}
330
99
100
AcDbVisualStyle
  2
Realistic
 70
     8
 71
     2
 72
     2
 73
     1
 90
        0
 40
-0.6
 41
-30.0
 62
     5
 63
     7
 74
     1
 91
        0
 64
     7
 65
   257
 75
     1
175
     1
 42
1.0
 92
        8
 66
     8
 43
1.0
 76
     1
 77
     6
 78
     2
 67
     7
 79
     5
170
     0
171
     0
290
     0
174
     0
 93
       13
 44
0.0
173
     0
291
     0
 45
0.0
1001
ACAD
1000
AcDbSavedByObjectVersion
1070
     0
1000
AcDbSavedByObjectVersion
1070
     0
1000
AcDbSavedByObjectVersion
1070
     0
1000
AcDbSavedByObjectVersion
1070
     0
1000
AcDbSavedByObjectVersion
1070
     0
  0
VISUALSTYLE
  5
A6
102
{ACAD_REACTORS
330
99
102
}
330
99
100
AcDbVisualStyle
  2
Thicken
 70
    13
 71
     2
 72
     2
 73
     1
 90
        0
 40
-0.6
 41
-30.0
 62
     5
 63
     7
 74
     1
 91
        4
 64
     7
 65
   257
 75
     1
175
     1
 42
1.0
 92
       12
 66
     7
 43
1.0
 76
     1
 77
     6
 78
     2
 67
     7
 79
     5
170
     0
171
     0
290
     0
174
     0
 93
        1
 44
0.0
173
     0
291
     1
 45
0.0
1001
ACAD
1000
AcDbSavedByObjectVersion
1070
     0
1000
AcDbSavedByObjectVersion
1070
     0
1000
AcDbSavedByObjectVersion
1070
     0
1000
AcDbSavedByObjectVersion
1070
     0
1000
AcDbSavedByObjectVersion
1070
     0
  0
DICTIONARYVAR
  5
F0
102
{ACAD_REACTORS
330
66
102
}
330
66
100
DictionaryVariables
280
     0
  1
1:1
  0
DICTIONARYVAR
  5
EF
102
{ACAD_REACTORS
330
66
102
}
330
66
100
DictionaryVariables
280
     0
  1
STANDARD
  0
DICTIONARYVAR
  5
89
102
{ACAD_REACTORS
330
66
102
}
330
66
100
DictionaryVariables
280
     0
  1
STANDARD
  0
DICTIONARYVAR
  5
67
102
{ACAD_REACTORS
330
66
102
}
330
66
100
DictionaryVariables
280
     0
  1
2
  0
DICTIONARYVAR
  5
6B
102
{ACAD_REACTORS
330
66
102
}
330
66
100
DictionaryVariables
280
     0
  1
1
  0
DICTIONARYVAR
  5
8A8
102
{ACAD_REACTORS
330
66
102
}
330
66
100
DictionaryVariables
280
     0
  1
0
  0
DICTIONARYVAR
  5
8A6
102
{ACAD_REACTORS
330
66
102
}
330
66
100
DictionaryVariables
280
     0
  1
2
  0
DICTIONARYVAR
  5
8A5
102
{ACAD_REACTORS
330
66
102
}
330
66
100
DictionaryVariables
280
     0
  1
1
  0
DICTIONARYVAR
  5
8A7
102
{ACAD_REACTORS
330
66
102
}
330
66
100
DictionaryVariables
280
     0
  1
127
  0
DICTIONARY
  5
9B6
330
59
100
AcDbDictionary
280
     1
281
     1
  3
ACAD_XREC_ROUNDTRIP
360
9B7
  0
DICTIONARY
  5
9B8
330
5E
100
AcDbDictionary
280
     1
281
     1
  3
ACAD_XREC_ROUNDTRIP
360
9B9
  0
DICTIONARY
  5
9B4
330
22
100
AcDbDictionary
280
     1
281
     1
  3
ACAD_XREC_ROUNDTRIP
360
9B5
  0
DICTIONARY
  5
8B4
330
97
100
AcDbDictionary
280
     1
281
     1
  3
ACAD_XREC_ROUNDTRIP
360
8B5
  0
DICTIONARY
  5
8B2
330
96
100
AcDbDictionary
280
     1
281
     1
  3
ACAD_XREC_ROUNDTRIP
360
8B3
  0
DICTIONARY
  5
110
330
98
100
AcDbDictionary
280
     1
281
     1
  3
ACAD_XREC_ROUNDTRIP
360
8B6
  3
BUMPTILE
360
112
  3
DIFFUSETILE
360
111
  3
OPACITYTILE
360
113
  3
REFLECTIONTILE
360
114
  0
DICTIONARY
  5
104
330
87
100
AcDbDictionary
280
     1
281
     1
  3
ACAD_ROUNDTRIP_2008_TABLESTYLE_CELLSTYLEMAP
360
9B2
  3
ACAD_XREC_ROUNDTRIP
360
9BA
  0
XRECORD
  5
9B7
102
{ACAD_REACTORS
330
9B6
102
}
330
9B6
100
AcDbXrecord
280
     1
102
SHADEPLOT
 70
     0
102
SHADEPLOTRESLEVEL
 70
     2
102
SHADEPLOTCUSTOMDPI
 70
   300
  0
XRECORD
  5
9B9
102
{ACAD_REACTORS
330
9B8
102
}
330
9B8
100
AcDbXrecord
280
     1
102
SHADEPLOT
 70
     0
102
SHADEPLOTRESLEVEL
 70
     2
102
SHADEPLOTCUSTOMDPI
 70
   300
  0
XRECORD
  5
9B5
102
{ACAD_REACTORS
330
9B4
102
}
330
9B4
100
AcDbXrecord
280
     1
102
SHADEPLOT
 70
     0
102
SHADEPLOTRESLEVEL
 70
     2
102
SHADEPLOTCUSTOMDPI
 70
   300
  0
XRECORD
  5
8B5
102
{ACAD_REACTORS
330
8B4
102
}
330
8B4
100
AcDbXrecord
280
     1
102
MATERIAL
148
0.0
149
0.0
149
0.0
 93
        0
 94
      127
282
     0
 72
     1
 77
     1
171
     1
175
     1
179
     1
273
     0
  0
XRECORD
  5
8B3
102
{ACAD_REACTORS
330
8B2
102
}
330
8B2
100
AcDbXrecord
280
     1
102
MATERIAL
148
0.0
149
0.0
149
0.0
 93
        0
 94
      127
282
     0
 72
     1
 77
     1
171
     1
175
     1
179
     1
273
     0
  0
XRECORD
  5
8B6
102
{ACAD_REACTORS
330
110
102
}
330
110
100
AcDbXrecord
280
     1
102
MATERIAL
148
0.0
149
0.0
149
0.0
 93
        0
 94
      127
282
     0
 72
     1
 77
     1
171
     1
175
     1
179
     1
273
     0
  0
XRECORD
  5
112
102
{ACAD_REACTORS
330
110
102
}
330
110
100
AcDbXrecord
280
     1
270
     1
271
     1
  0
XRECORD
  5
111
102
{ACAD_REACTORS
330
110
102
}
330
110
100
AcDbXrecord
280
     1
270
     1
271
     1
  0
XRECORD
  5
113
102
{ACAD_REACTORS
330
110
102
}
330
110
100
AcDbXrecord
280
     1
270
     1
271
     1
  0
XRECORD
  5
114
102
{ACAD_REACTORS
330
110
102
}
330
110
100
AcDbXrecord
280
     1
270
     1
271
     1
  0
CELLSTYLEMAP
  5
9B2
102
{ACAD_REACTORS
330
104
102
}
330
104
100
AcDbCellStyleMap
 90
        3
300
CELLSTYLE
  1
TABLEFORMAT_BEGIN
 90
        5
170
     1
 91
        0
 92
    32768
 62
   257
 93
        1
300
CONTENTFORMAT
  1
CONTENTFORMAT_BEGIN
 90
        0
 91
        0
 92
      512
 93
        0
300

 40
0.0
140
1.0
 94
        5
 62
     0
340
11
144
0.25
309
CONTENTFORMAT_END
171
     1
301
MARGIN
  1
CELLMARGIN_BEGIN
 40
0.06
 40
0.06
 40
0.06
 40
0.06
 40
0.18
 40
0.18
309
CELLMARGIN_END
 94
        6
 95
        1
302
GRIDFORMAT
  1
GRIDFORMAT_BEGIN
 90
        0
 91
        1
 62
     0
 92
       -2
340
0
 93
        0
 40
0.045
309
GRIDFORMAT_END
 95
        2
302
GRIDFORMAT
  1
GRIDFORMAT_BEGIN
 90
        0
 91
        1
 62
     0
 92
       -2
340
0
 93
        0
 40
0.045
309
GRIDFORMAT_END
 95
        4
302
GRIDFORMAT
  1
GRIDFORMAT_BEGIN
 90
        0
 91
        1
 62
     0
 92
       -2
340
0
 93
        0
 40
0.045
309
GRIDFORMAT_END
 95
        8
302
GRIDFORMAT
  1
GRIDFORMAT_BEGIN
 90
        0
 91
        1
 62
     0
 92
       -2
340
0
 93
        0
 40
0.045
309
GRIDFORMAT_END
 95
       16
302
GRIDFORMAT
  1
GRIDFORMAT_BEGIN
 90
        0
 91
        1
 62
     0
 92
       -2
340
0
 93
        0
 40
0.045
309
GRIDFORMAT_END
 95
       32
302
GRIDFORMAT
  1
GRIDFORMAT_BEGIN
 90
        0
 91
        1
 62
     0
 92
       -2
340
0
 93
        0
 40
0.045
309
GRIDFORMAT_END
309
TABLEFORMAT_END
  1
CELLSTYLE_BEGIN
 90
        1
 91
        1
300
_TITLE
309
CELLSTYLE_END
300
CELLSTYLE
  1
TABLEFORMAT_BEGIN
 90
        5
170
     1
 91
        0
 92
        0
 62
   257
 93
        1
300
CONTENTFORMAT
  1
CONTENTFORMAT_BEGIN
 90
        0
 91
        0
 92
      512
 93
        0
300

 40
0.0
140
1.0
 94
        5
 62
     0
340
11
144
0.18
309
CONTENTFORMAT_END
171
     1
301
MARGIN
  1
CELLMARGIN_BEGIN
 40
0.06
 40
0.06
 40
0.06
 40
0.06
 40
0.18
 40
0.18
309
CELLMARGIN_END
 94
        6
 95
        1
302
GRIDFORMAT
  1
GRIDFORMAT_BEGIN
 90
        0
 91
        1
 62
     0
 92
       -2
340
0
 93
        0
 40
0.045
309
GRIDFORMAT_END
 95
        2
302
GRIDFORMAT
  1
GRIDFORMAT_BEGIN
 90
        0
 91
        1
 62
     0
 92
       -2
340
0
 93
        0
 40
0.045
309
GRIDFORMAT_END
 95
        4
302
GRIDFORMAT
  1
GRIDFORMAT_BEGIN
 90
        0
 91
        1
 62
     0
 92
       -2
340
0
 93
        0
 40
0.045
309
GRIDFORMAT_END
 95
        8
302
GRIDFORMAT
  1
GRIDFORMAT_BEGIN
 90
        0
 91
        1
 62
     0
 92
       -2
340
0
 93
        0
 40
0.045
309
GRIDFORMAT_END
 95
       16
302
GRIDFORMAT
  1
GRIDFORMAT_BEGIN
 90
        0
 91
        1
 62
     0
 92
       -2
340
0
 93
        0
 40
0.045
309
GRIDFORMAT_END
 95
       32
302
GRIDFORMAT
  1
GRIDFORMAT_BEGIN
 90
        0
 91
        1
 62
     0
 92
       -2
340
0
 93
        0
 40
0.045
309
GRIDFORMAT_END
309
TABLEFORMAT_END
  1
CELLSTYLE_BEGIN
 90
        2
 91
        1
300
_HEADER
309
CELLSTYLE_END
300
CELLSTYLE
  1
TABLEFORMAT_BEGIN
 90
        5
170
     1
 91
        0
 92
        0
 62
   257
 93
        1
300
CONTENTFORMAT
  1
CONTENTFORMAT_BEGIN
 90
        0
 91
        0
 92
      512
 93
        0
300

 40
0.0
140
1.0
 94
        2
 62
     0
340
11
144
0.18
309
CONTENTFORMAT_END
171
     1
301
MARGIN
  1
CELLMARGIN_BEGIN
 40
0.06
 40
0.06
 40
0.06
 40
0.06
 40
0.18
 40
0.18
309
CELLMARGIN_END
 94
        6
 95
        1
302
GRIDFORMAT
  1
GRIDFORMAT_BEGIN
 90
        0
 91
        1
 62
     0
 92
       -2
340
0
 93
        0
 40
0.045
309
GRIDFORMAT_END
 95
        2
302
GRIDFORMAT
  1
GRIDFORMAT_BEGIN
 90
        0
 91
        1
 62
     0
 92
       -2
340
0
 93
        0
 40
0.045
309
GRIDFORMAT_END
 95
        4
302
GRIDFORMAT
  1
GRIDFORMAT_BEGIN
 90
        0
 91
        1
 62
     0
 92
       -2
340
0
 93
        0
 40
0.045
309
GRIDFORMAT_END
 95
        8
302
GRIDFORMAT
  1
GRIDFORMAT_BEGIN
 90
        0
 91
        1
 62
     0
 92
       -2
340
0
 93
        0
 40
0.045
309
GRIDFORMAT_END
 95
       16
302
GRIDFORMAT
  1
GRIDFORMAT_BEGIN
 90
        0
 91
        1
 62
     0
 92
       -2
340
0
 93
        0
 40
0.045
309
GRIDFORMAT_END
 95
       32
302
GRIDFORMAT
  1
GRIDFORMAT_BEGIN
 90
        0
 91
        1
 62
     0
 92
       -2
340
0
 93
        0
 40
0.045
309
GRIDFORMAT_END
309
TABLEFORMAT_END
  1
CELLSTYLE_BEGIN
 90
        3
 91
        2
300
_DATA
309
CELLSTYLE_END
  0
XRECORD
  5
9BA
102
{ACAD_REACTORS
330
104
102
}
330
104
100
AcDbXrecord
280
     1
102
ACAD_ROUNDTRIP_PRE2007_TABLESTYLE
 90
      512
 91
        0
  1

 92
      512
 93
        0
  2

 94
      512
 95
        0
  3

  0
ENDSEC
  0
EOF
