  0
SECTION
  2
HEADER
  9
$ACADVER
  1
AC1015
  9
$ACADMAINTVER
 70
    20
  9
$DWGCODEPAGE
  3
ANSI_1252
  9
$INSBASE
 10
0.0
 20
0.0
 30
0.0
  9
$EXTMIN
 10
5.474767227810984
 20
11.33220592418276
 30
0.0
  9
$EXTMAX
 10
508.5875369778109
 20
594.2918979141827
 30
0.0
  9
$LIMMIN
 10
0.0
 20
0.0
  9
$LIMMAX
 10
12.0
 20
9.0
  9
$ORTHOMODE
 70
     0
  9
$REGENMODE
 70
     1
  9
$FILLMODE
 70
     1
  9
$QTEXTMODE
 70
     0
  9
$MIRRTEXT
 70
     0
  9
$LTSCALE
 40
1.0
  9
$ATTMODE
 70
     1
  9
$TEXTSIZE
 40
0.2
  9
$TRACEWID
 40
0.05
  9
$TEXTSTYLE
  7
Standard
  9
$CLAYER
  8
0
  9
$CELTYPE
  6
ByLayer
  9
$CECOLOR
 62
   256
  9
$CELTSCALE
 40
1.0
  9
$DISPSILH
 70
     0
  9
$DIMSCALE
 40
1.0
  9
$DIMASZ
 40
0.18
  9
$DIMEXO
 40
0.0625
  9
$DIMDLI
 40
0.38
  9
$DIMRND
 40
0.0
  9
$DIMDLE
 40
0.0
  9
$DIMEXE
 40
0.18
  9
$DIMTP
 40
0.0
  9
$DIMTM
 40
0.0
  9
$DIMTXT
 40
0.18
  9
$DIMCEN
 40
0.09
  9
$DIMTSZ
 40
0.0
  9
$DIMTOL
 70
     0
  9
$DIMLIM
 70
     0
  9
$DIMTIH
 70
     1
  9
$DIMTOH
 70
     1
  9
$DIMSE1
 70
     0
  9
$DIMSE2
 70
     0
  9
$DIMTAD
 70
     0
  9
$DIMZIN
 70
     0
  9
$DIMBLK
  1

  9
$DIMASO
 70
     1
  9
$DIMSHO
 70
     1
  9
$DIMPOST
  1

  9
$DIMAPOST
  1

  9
$DIMALT
 70
     0
  9
$DIMALTD
 70
     2
  9
$DIMALTF
 40
25.4
  9
$DIMLFAC
 40
1.0
  9
$DIMTOFL
 70
     0
  9
$DIMTVP
 40
0.0
  9
$DIMTIX
 70
     0
  9
$DIMSOXD
 70
     0
  9
$DIMSAH
 70
     0
  9
$DIMBLK1
  1

  9
$DIMBLK2
  1

  9
$DIMSTYLE
  2
Standard
  9
$DIMCLRD
 70
     0
  9
$DIMCLRE
 70
     0
  9
$DIMCLRT
 70
     0
  9
$DIMTFAC
 40
1.0
  9
$DIMGAP
 40
0.09
  9
$DIMJUST
 70
     0
  9
$DIMSD1
 70
     0
  9
$DIMSD2
 70
     0
  9
$DIMTOLJ
 70
     1
  9
$DIMTZIN
 70
     0
  9
$DIMALTZ
 70
     0
  9
$DIMALTTZ
 70
     0
  9
$DIMUPT
 70
     0
  9
$DIMDEC
 70
     4
  9
$DIMTDEC
 70
     4
  9
$DIMALTU
 70
     2
  9
$DIMALTTD
 70
     2
  9
$DIMTXSTY
  7
Standard
  9
$DIMAUNIT
 70
     0
  9
$DIMADEC
 70
     0
  9
$DIMALTRND
 40
0.0
  9
$DIMAZIN
 70
     0
  9
$DIMDSEP
 70
    46
  9
$DIMATFIT
 70
     3
  9
$DIMFRAC
 70
     0
  9
$DIMLDRBLK
  1

  9
$DIMLUNIT
 70
     2
  9
$DIMLWD
 70
    -2
  9
$DIMLWE
 70
    -2
  9
$DIMTMOVE
 70
     0
  9
$LUNITS
 70
     2
  9
$LUPREC
 70
     4
  9
$SKETCHINC
 40
0.1
  9
$FILLETRAD
 40
0.0
  9
$AUNITS
 70
     0
  9
$AUPREC
 70
     0
  9
$MENU
  1
.
  9
$ELEVATION
 40
0.0
  9
$PELEVATION
 40
0.0
  9
$THICKNESS
 40
0.0
  9
$LIMCHECK
 70
     0
  9
$CHAMFERA
 40
0.0
  9
$CHAMFERB
 40
0.0
  9
$CHAMFERC
 40
0.0
  9
$CHAMFERD
 40
0.0
  9
$SKPOLY
 70
     0
  9
$TDCREATE
 40
2455511.362786644
  9
$TDUCREATE
 40
2455511.321119977
  9
$TDUPDATE
 40
2455511.362930544
  9
$TDUUPDATE
 40
2455511.321263877
  9
$TDINDWG
 40
0.0001442708
  9
$TDUSRTIMER
 40
0.0001440856
  9
$USRTIMER
 70
     1
  9
$ANGBASE
 50
0.0
  9
$ANGDIR
 70
     0
  9
$PDMODE
 70
     0
  9
$PDSIZE
 40
0.0
  9
$PLINEWID
 40
0.0
  9
$SPLFRAME
 70
     0
  9
$SPLINETYPE
 70
     6
  9
$SPLINESEGS
 70
     8
  9
$HANDSEED
  5
5D9
  9
$SURFTAB1
 70
     6
  9
$SURFTAB2
 70
     6
  9
$SURFTYPE
 70
     6
  9
$SURFU
 70
     6
  9
$SURFV
 70
     6
  9
$UCSBASE
  2

  9
$UCSNAME
  2

  9
$UCSORG
 10
0.0
 20
0.0
 30
0.0
  9
$UCSXDIR
 10
1.0
 20
0.0
 30
0.0
  9
$UCSYDIR
 10
0.0
 20
1.0
 30
0.0
  9
$UCSORTHOREF
  2

  9
$UCSORTHOVIEW
 70
     0
  9
$UCSORGTOP
 10
0.0
 20
0.0
 30
0.0
  9
$UCSORGBOTTOM
 10
0.0
 20
0.0
 30
0.0
  9
$UCSORGLEFT
 10
0.0
 20
0.0
 30
0.0
  9
$UCSORGRIGHT
 10
0.0
 20
0.0
 30
0.0
  9
$UCSORGFRONT
 10
0.0
 20
0.0
 30
0.0
  9
$UCSORGBACK
 10
0.0
 20
0.0
 30
0.0
  9
$PUCSBASE
  2

  9
$PUCSNAME
  2

  9
$PUCSORG
 10
0.0
 20
0.0
 30
0.0
  9
$PUCSXDIR
 10
1.0
 20
0.0
 30
0.0
  9
$PUCSYDIR
 10
0.0
 20
1.0
 30
0.0
  9
$PUCSORTHOREF
  2

  9
$PUCSORTHOVIEW
 70
     0
  9
$PUCSORGTOP
 10
0.0
 20
0.0
 30
0.0
  9
$PUCSORGBOTTOM
 10
0.0
 20
0.0
 30
0.0
  9
$PUCSORGLEFT
 10
0.0
 20
0.0
 30
0.0
  9
$PUCSORGRIGHT
 10
0.0
 20
0.0
 30
0.0
  9
$PUCSORGFRONT
 10
0.0
 20
0.0
 30
0.0
  9
$PUCSORGBACK
 10
0.0
 20
0.0
 30
0.0
  9
$USERI1
 70
     0
  9
$USERI2
 70
     0
  9
$USERI3
 70
     0
  9
$USERI4
 70
     0
  9
$USERI5
 70
     0
  9
$USERR1
 40
0.0
  9
$USERR2
 40
0.0
  9
$USERR3
 40
0.0
  9
$USERR4
 40
0.0
  9
$USERR5
 40
0.0
  9
$WORLDVIEW
 70
     1
  9
$SHADEDGE
 70
     3
  9
$SHADEDIF
 70
    70
  9
$TILEMODE
 70
     1
  9
$MAXACTVP
 70
    64
  9
$PINSBASE
 10
0.0
 20
0.0
 30
0.0
  9
$PLIMCHECK
 70
     0
  9
$PEXTMIN
 10
0.0
 20
0.0
 30
0.0
  9
$PEXTMAX
 10
0.0
 20
0.0
 30
0.0
  9
$PLIMMIN
 10
0.0
 20
0.0
  9
$PLIMMAX
 10
12.0
 20
9.0
  9
$UNITMODE
 70
     0
  9
$VISRETAIN
 70
     1
  9
$PLINEGEN
 70
     0
  9
$PSLTSCALE
 70
     1
  9
$TREEDEPTH
 70
  3020
  9
$CMLSTYLE
  2
Standard
  9
$CMLJUST
 70
     0
  9
$CMLSCALE
 40
1.0
  9
$PROXYGRAPHICS
 70
     1
  9
$MEASUREMENT
 70
     0
  9
$CELWEIGHT
370
    -1
  9
$ENDCAPS
280
     0
  9
$JOINSTYLE
280
     0
  9
$LWDISPLAY
290
     0
  9
$INSUNITS
 70
     1
  9
$HYPERLINKBASE
  1

  9
$STYLESHEET
  1

  9
$XEDIT
290
     1
  9
$CEPSNTYPE
380
     0
  9
$PSTYLEMODE
290
     1
  9
$FINGERPRINTGUID
  2
{44DE2ABF-0AB4-4185-9450-0B2DA9CA4190}
  9
$VERSIONGUID
  2
{5A53ACF1-2F5E-4100-9100-4ED730D73945}
  9
$EXTNAMES
290
     1
  9
$PSVPSCALE
 40
0.0
  9
$OLESTARTUP
290
     0
  0
ENDSEC
  0
SECTION
  2
CLASSES
  0
CLASS
  1
ACDBDICTIONARYWDFLT
  2
AcDbDictionaryWithDefault
  3
ObjectDBX Classes
 90
        0
280
     0
281
     0
  0
CLASS
  1
ACDBPLACEHOLDER
  2
AcDbPlaceHolder
  3
ObjectDBX Classes
 90
        0
280
     0
281
     0
  0
CLASS
  1
LAYOUT
  2
AcDbLayout
  3
ObjectDBX Classes
 90
        0
280
     0
281
     0
  0
CLASS
  1
DICTIONARYVAR
  2
AcDbDictionaryVar
  3
ObjectDBX Classes
 90
        0
280
     0
281
     0
  0
CLASS
  1
TABLESTYLE
  2
AcDbTableStyle
  3
ObjectDBX Classes
 90
     4095
280
     0
281
     0
  0
CLASS
  1
MATERIAL
  2
AcDbMaterial
  3
ObjectDBX Classes
 90
     1153
280
     0
281
     0
  0
CLASS
  1
VISUALSTYLE
  2
AcDbVisualStyle
  3
ObjectDBX Classes
 90
     4095
280
     0
281
     0
  0
CLASS
  1
SCALE
  2
AcDbScale
  3
ObjectDBX Classes
 90
     1153
280
     0
281
     0
  0
CLASS
  1
MLEADERSTYLE
  2
AcDbMLeaderStyle
  3
ACDB_MLEADERSTYLE_CLASS
 90
     4095
280
     0
281
     0
  0
CLASS
  1
CELLSTYLEMAP
  2
AcDbCellStyleMap
  3
ObjectDBX Classes
 90
     1152
280
     0
281
     0
  0
ENDSEC
  0
SECTION
  2
TABLES
  0
TABLE
  2
VPORT
  5
8
330
0
100
AcDbSymbolTable
 70
     1
  0
VPORT
  5
94
330
8
100
AcDbSymbolTableRecord
100
AcDbViewportTableRecord
  2
*Active
 70
     0
 10
0.0
 20
0.0
 11
1.0
 21
1.0
 12
257.0311521028109
 22
302.8120519191828
 13
0.0
 23
0.0
 14
0.5
 24
0.5
 15
0.5
 25
0.5
 16
0.0
 26
0.0
 36
1.0
 17
0.0
 27
0.0
 37
0.0
 40
587.7709136570427
 41
1.148760330578512
 42
50.0
 43
0.0
 44
0.0
 50
0.0
 51
0.0
 71
     0
 72
  1000
 73
     1
 74
     3
 75
     0
 76
     0
 77
     0
 78
     0
281
     0
 65
     1
110
0.0
120
0.0
130
0.0
111
1.0
121
0.0
131
0.0
112
0.0
122
1.0
132
0.0
 79
     0
146
0.0
  0
ENDTAB
  0
TABLE
  2
LTYPE
  5
5
330
0
100
AcDbSymbolTable
 70
     1
  0
LTYPE
  5
14
330
5
100
AcDbSymbolTableRecord
100
AcDbLinetypeTableRecord
  2
ByBlock
 70
     0
  3

 72
    65
 73
     0
 40
0.0
  0
LTYPE
  5
15
330
5
100
AcDbSymbolTableRecord
100
AcDbLinetypeTableRecord
  2
ByLayer
 70
     0
  3

 72
    65
 73
     0
 40
0.0
  0
LTYPE
  5
16
330
5
100
AcDbSymbolTableRecord
100
AcDbLinetypeTableRecord
  2
Continuous
 70
     0
  3
Solid line
 72
    65
 73
     0
 40
0.0
  0
ENDTAB
  0
TABLE
  2
LAYER
  5
2
330
0
100
AcDbSymbolTable
 70
     3
  0
LAYER
  5
10
102
{ACAD_XDICTIONARY
360
E6
102
}
330
2
100
AcDbSymbolTableRecord
100
AcDbLayerTableRecord
  2
0
 70
     0
 62
     7
  6
Continuous
370
    -3
390
F
  0
LAYER
  5
17A
102
{ACAD_XDICTIONARY
360
5C5
102
}
330
2
100
AcDbSymbolTableRecord
100
AcDbLayerTableRecord
  2
QUOTE
 70
     0
 62
     7
  6
Continuous
370
    -3
390
F
1001
AcAecLayerStandard
1000

1000

  0
LAYER
  5
592
330
2
100
AcDbSymbolTableRecord
100
AcDbLayerTableRecord
  2
Defpoints
 70
     0
 62
     7
  6
Continuous
290
     0
370
    -3
390
F
  0
ENDTAB
  0
TABLE
  2
STYLE
  5
3
330
0
100
AcDbSymbolTable
 70
     2
  0
STYLE
  5
11
330
3
100
AcDbSymbolTableRecord
100
AcDbTextStyleTableRecord
  2
Standard
 70
     0
 40
0.0
 41
1.0
 50
0.0
 71
     0
 42
0.2
  3
txt.shx
  4

  0
STYLE
  5
DC
330
3
100
AcDbSymbolTableRecord
100
AcDbTextStyleTableRecord
  2
Annotativa
 70
     0
 40
0.0
 41
1.0
 50
0.0
 71
     0
 42
0.2
  3
txt.shx
  4

1001
AcadAnnotative
1000
AnnotativeData
1002
{
1070
     1
1070
     1
1002
}
  0
ENDTAB
  0
TABLE
  2
VIEW
  5
6
330
0
100
AcDbSymbolTable
 70
     1
  0
ENDTAB
  0
TABLE
  2
UCS
  5
7
330
0
100
AcDbSymbolTable
 70
     0
  0
ENDTAB
  0
TABLE
  2
APPID
  5
9
330
0
100
AcDbSymbolTable
 70
    14
  0
APPID
  5
12
330
9
100
AcDbSymbolTableRecord
100
AcDbRegAppTableRecord
  2
ACAD
 70
     0
  0
APPID
  5
DD
330
9
100
AcDbSymbolTableRecord
100
AcDbRegAppTableRecord
  2
AcadAnnoPO
 70
     0
  0
APPID
  5
DE
330
9
100
AcDbSymbolTableRecord
100
AcDbRegAppTableRecord
  2
AcadAnnotative
 70
     0
  0
APPID
  5
DF
330
9
100
AcDbSymbolTableRecord
100
AcDbRegAppTableRecord
  2
ACAD_DSTYLE_DIMJAG
 70
     0
  0
APPID
  5
E0
330
9
100
AcDbSymbolTableRecord
100
AcDbRegAppTableRecord
  2
ACAD_DSTYLE_DIMTALN
 70
     0
  0
APPID
  5
107
330
9
100
AcDbSymbolTableRecord
100
AcDbRegAppTableRecord
  2
ACAD_MLEADERVER
 70
     0
  0
APPID
  5
17B
330
9
100
AcDbSymbolTableRecord
100
AcDbRegAppTableRecord
  2
VDEXTRAPARAM
 70
     0
  0
APPID
  5
17C
330
9
100
AcDbSymbolTableRecord
100
AcDbRegAppTableRecord
  2
VD_TEMPHATCH
 70
     0
  0
APPID
  5
17D
330
9
100
AcDbSymbolTableRecord
100
AcDbRegAppTableRecord
  2
AcAecLayerStandard
 70
     0
  0
APPID
  5
17E
330
9
100
AcDbSymbolTableRecord
100
AcDbRegAppTableRecord
  2
VD_EX_PRINTER_DWG_STYLE_SHEET
 70
     0
  0
APPID
  5
17F
330
9
100
AcDbSymbolTableRecord
100
AcDbRegAppTableRecord
  2
VD_EX_PRINTER_SIZEX
 70
     0
  0
APPID
  5
180
330
9
100
AcDbSymbolTableRecord
100
AcDbRegAppTableRecord
  2
VD_EX_PRINTER_AVSIZEX
 70
     0
  0
APPID
  5
181
330
9
100
AcDbSymbolTableRecord
100
AcDbRegAppTableRecord
  2
VD_EX_PRINTER_SIZEY
 70
     0
  0
APPID
  5
182
330
9
100
AcDbSymbolTableRecord
100
AcDbRegAppTableRecord
  2
VD_EX_PRINTER_AVSIZEY
 70
     0
  0
ENDTAB
  0
TABLE
  2
DIMSTYLE
  5
A
330
0
100
AcDbSymbolTable
 70
     2
100
AcDbDimStyleTable
 71
     2
340
27
340
E1
  0
DIMSTYLE
105
27
102
{ACAD_REACTORS
330
53A
330
53B
102
}
330
A
100
AcDbSymbolTableRecord
100
AcDbDimStyleTableRecord
  2
Standard
 70
     0
340
11
  0
DIMSTYLE
105
E1
330
A
100
AcDbSymbolTableRecord
100
AcDbDimStyleTableRecord
  2
Annotativa
 70
     0
 40
0.0
340
11
1001
AcadAnnotative
1000
AnnotativeData
1002
{
1070
     1
1070
     1
1002
}
1001
ACAD_DSTYLE_DIMJAG
1070
   388
1040
1.5
1001
ACAD_DSTYLE_DIMTALN
1070
   392
1070
     0
  0
ENDTAB
  0
TABLE
  2
BLOCK_RECORD
  5
1
330
0
100
AcDbSymbolTable
 70
     8
  0
BLOCK_RECORD
  5
1F
330
1
100
AcDbSymbolTableRecord
100
AcDbBlockTableRecord
  2
*Model_Space
340
22
  0
BLOCK_RECORD
  5
58
330
1
100
AcDbSymbolTableRecord
100
AcDbBlockTableRecord
  2
*Paper_Space
340
59
  0
BLOCK_RECORD
  5
5D
330
1
100
AcDbSymbolTableRecord
100
AcDbBlockTableRecord
  2
*Paper_Space0
340
5E
  0
BLOCK_RECORD
  5
14C
330
1
100
AcDbSymbolTableRecord
100
AcDbBlockTableRecord
  2
VDDIM_DEFAULT
340
0
  0
BLOCK_RECORD
  5
150
330
1
100
AcDbSymbolTableRecord
100
AcDbBlockTableRecord
  2
IBvert
340
0
102
{BLKREFS
331
386
331
387
331
58F
331
590
102
}
  0
BLOCK_RECORD
  5
15F
330
1
100
AcDbSymbolTableRecord
100
AcDbBlockTableRecord
  2
IBvert63
340
0
102
{BLKREFS
331
388
331
591
102
}
  0
BLOCK_RECORD
  5
16E
330
1
100
AcDbSymbolTableRecord
100
AcDbBlockTableRecord
  2
*D4
340
0
  0
BLOCK_RECORD
  5
593
330
1
100
AcDbSymbolTableRecord
100
AcDbBlockTableRecord
  2
*D6
340
0
  0
BLOCK_RECORD
  5
5A0
330
1
100
AcDbSymbolTableRecord
100
AcDbBlockTableRecord
  2
*D7
340
0
  0
ENDTAB
  0
ENDSEC
  0
SECTION
  2
BLOCKS
  0
BLOCK
  5
20
330
1F
100
AcDbEntity
  8
0
100
AcDbBlockBegin
  2
*Model_Space
 70
     0
 10
0.0
 20
0.0
 30
0.0
  3
*Model_Space
  1

  0
ENDBLK
  5
21
330
1F
100
AcDbEntity
  8
0
100
AcDbBlockEnd
  0
BLOCK
  5
5A
330
58
100
AcDbEntity
 67
     1
  8
0
100
AcDbBlockBegin
  2
*Paper_Space
 70
     0
 10
0.0
 20
0.0
 30
0.0
  3
*Paper_Space
  1

  0
ENDBLK
  5
5B
330
58
100
AcDbEntity
 67
     1
  8
0
100
AcDbBlockEnd
  0
BLOCK
  5
5F
330
5D
100
AcDbEntity
 67
     1
  8
0
100
AcDbBlockBegin
  2
*Paper_Space0
 70
     0
 10
0.0
 20
0.0
 30
0.0
  3
*Paper_Space0
  1

  0
ENDBLK
  5
60
330
5D
100
AcDbEntity
 67
     1
  8
0
100
AcDbBlockEnd
  0
BLOCK
  5
14D
330
14C
100
AcDbEntity
  8
0
100
AcDbBlockBegin
  2
VDDIM_DEFAULT
 70
     0
 10
0.0
 20
0.0
 30
0.0
  3
VDDIM_DEFAULT
  1

  0
HATCH
  5
14E
330
14C
100
AcDbEntity
  8
0
  6
Continuous
 62
     0
370
    -2
100
AcDbHatch
 10
0.0
 20
0.0
 30
0.0
210
0.0
220
0.0
230
-1.0
  2
SOLID
 70
     1
 71
     0
 91
        1
 92
        2
 72
     0
 73
     1
 93
        3
 10
0.0
 20
0.0
 10
1.0
 20
-0.1665
 10
1.0
 20
0.1665
 97
        0
 75
     0
 76
     1
 98
        1
 10
0.0
 20
0.0
  0
ENDBLK
  5
14F
330
14C
100
AcDbEntity
  8
0
100
AcDbBlockEnd
  0
BLOCK
  5
151
330
150
100
AcDbEntity
  8
0
100
AcDbBlockBegin
  2
IBvert
 70
     0
 10
0.0
 20
0.0
 30
0.0
  3
IBvert
  1

  0
LINE
  5
152
330
150
100
AcDbEntity
  8
0
100
AcDbLine
 10
105.74134107
 20
8.212549389999999
 30
0.0
 11
16.97138987
 21
8.212549389999999
 31
0.0
  0
ARC
  5
153
330
150
100
AcDbEntity
  8
0
100
AcDbCircle
 10
16.97138987
 20
15.33568614
 30
0.0
 40
7.123136749999999
100
AcDbArc
 50
180.0
 51
270.0
  0
CIRCLE
  5
154
330
150
100
AcDbEntity
  8
0
100
AcDbCircle
 10
16.97138987
 20
15.33568614
 30
0.0
 40
2.58835439
  0
ARC
  5
155
330
150
100
AcDbEntity
  8
0
100
AcDbCircle
 10
105.74134107
 20
15.33568614
 30
0.0
 40
7.123136749999999
100
AcDbArc
 50
270.0
 51
0.0
  0
CIRCLE
  5
156
330
150
100
AcDbEntity
  8
0
100
AcDbCircle
 10
105.74134107
 20
15.33568614
 30
0.0
 40
2.58835439
  0
LINE
  5
157
330
150
100
AcDbEntity
  8
0
100
AcDbLine
 10
9.848253129999999
 20
15.33568614
 30
0.0
 11
9.848253129999999
 21
221.0912604
 31
0.0
  0
LINE
  5
158
330
150
100
AcDbEntity
  8
0
100
AcDbLine
 10
112.86447781
 20
15.33568614
 30
0.0
 11
112.86447781
 21
221.0912604
 31
0.0
  0
LINE
  5
159
330
150
100
AcDbEntity
  8
0
100
AcDbLine
 10
16.97138987
 20
228.21439714
 30
0.0
 11
105.74134107
 21
228.21439714
 31
0.0
  0
ARC
  5
15A
330
150
100
AcDbEntity
  8
0
100
AcDbCircle
 10
16.97138987
 20
221.0912604
 30
0.0
 40
7.123136749999999
100
AcDbArc
 50
90.0
 51
180.0
  0
CIRCLE
  5
15B
330
150
100
AcDbEntity
  8
0
100
AcDbCircle
 10
16.97138987
 20
221.0912604
 30
0.0
 40
2.58835439
  0
CIRCLE
  5
15C
330
150
100
AcDbEntity
  8
0
100
AcDbCircle
 10
105.74134107
 20
221.0912604
 30
0.0
 40
2.58835439
  0
ARC
  5
15D
330
150
100
AcDbEntity
  8
0
100
AcDbCircle
 10
105.74134107
 20
221.0912604
 30
0.0
 40
7.123136749999999
100
AcDbArc
 50
0.0
 51
90.0
  0
ENDBLK
  5
15E
330
150
100
AcDbEntity
  8
0
100
AcDbBlockEnd
  0
BLOCK
  5
160
330
15F
100
AcDbEntity
  8
0
100
AcDbBlockBegin
  2
IBvert63
 70
     0
 10
0.0
 20
0.0
 30
0.0
  3
IBvert63
  1

  0
LINE
  5
161
330
15F
100
AcDbEntity
  8
0
 62
     7
100
AcDbLine
 10
42.72293092
 20
284.52894828
 30
0.0
 11
176.77931985
 21
284.52894828
 31
0.0
  0
LINE
  5
162
330
15F
100
AcDbEntity
  8
0
 62
     7
100
AcDbLine
 10
176.77931985
 20
14.52710054
 30
0.0
 11
43.00936865999999
 21
14.52710054
 31
0.0
  0
ARC
  5
163
330
15F
100
AcDbEntity
  8
0
 62
     7
100
AcDbCircle
 10
43.00936865999999
 20
21.65023728
 30
0.0
 40
7.123136749999999
100
AcDbArc
 50
180.0
 51
270.0
  0
CIRCLE
  5
164
330
15F
100
AcDbEntity
  8
0
 62
     7
100
AcDbCircle
 10
43.00936865999999
 20
21.65023728
 30
0.0
 40
2.58835439
  0
ARC
  5
165
330
15F
100
AcDbEntity
  8
0
 62
     7
100
AcDbCircle
 10
176.77931985
 20
21.65023728
 30
0.0
 40
7.123136749999999
100
AcDbArc
 50
270.0
 51
0.0
  0
CIRCLE
  5
166
330
15F
100
AcDbEntity
  8
0
 62
     7
100
AcDbCircle
 10
176.77931985
 20
21.65023728
 30
0.0
 40
2.58835439
  0
LINE
  5
167
330
15F
100
AcDbEntity
  8
0
 62
     7
100
AcDbLine
 10
35.88623191
 20
21.65023728
 30
0.0
 11
35.88623191
 21
277.40581154
 31
0.0
  0
LINE
  5
168
330
15F
100
AcDbEntity
  8
0
 62
     7
100
AcDbLine
 10
183.9024566
 20
21.65023728
 30
0.0
 11
183.9024566
 21
277.40581154
 31
0.0
  0
ARC
  5
169
330
15F
100
AcDbEntity
  8
0
 62
     7
100
AcDbCircle
 10
43.00936865999999
 20
277.40581154
 30
0.0
 40
7.123136749999999
100
AcDbArc
 50
90.0
 51
180.0
  0
CIRCLE
  5
16A
330
15F
100
AcDbEntity
  8
0
 62
     7
100
AcDbCircle
 10
43.00936865999999
 20
277.40581154
 30
0.0
 40
2.58835439
  0
CIRCLE
  5
16B
330
15F
100
AcDbEntity
  8
0
 62
     7
100
AcDbCircle
 10
176.77931985
 20
277.40581154
 30
0.0
 40
2.58835439
  0
ARC
  5
16C
330
15F
100
AcDbEntity
  8
0
 62
     7
100
AcDbCircle
 10
176.77931985
 20
277.40581154
 30
0.0
 40
7.123136749999999
100
AcDbArc
 50
0.0
 51
90.0
  0
ENDBLK
  5
16D
330
15F
100
AcDbEntity
  8
0
100
AcDbBlockEnd
  0
BLOCK
  5
16F
330
16E
100
AcDbEntity
  8
0
100
AcDbBlockBegin
  2
*D4
 70
     0
 10
0.0
 20
0.0
 30
0.0
  3
*D4
  1

  0
LINE
  5
170
330
16E
100
AcDbEntity
  8
QUOTE
 62
     7
100
AcDbLine
 10
468.35284441
 20
23.70839587
 30
0.0
 11
468.35284441
 21
-10.3664244
 31
0.0
  0
LINE
  5
171
330
16E
100
AcDbEntity
  8
QUOTE
 62
     7
100
AcDbLine
 10
18.35284441
 20
23.7732662
 30
0.0
 11
18.35284441
 21
-10.3664244
 31
0.0
  0
LINE
  5
172
330
16E
100
AcDbEntity
  8
QUOTE
 62
     7
100
AcDbLine
 10
453.3528444099999
 20
-10.1864244
 30
0.0
 11
256.08092278
 21
-10.1864244
 31
0.0
  0
LINE
  5
173
330
16E
100
AcDbEntity
  8
QUOTE
 62
     7
100
AcDbLine
 10
33.35284441000001
 20
-10.1864244
 30
0.0
 11
230.90092278
 21
-10.1864244
 31
0.0
  0
LWPOLYLINE
  5
174
102
{ACAD_REACTORS
330
175
102
}
330
16E
100
AcDbEntity
  8
QUOTE
 62
     7
100
AcDbPolyline
 90
        3
 70
     1
 43
0.0
 10
453.3528444099999
 20
-7.6864244
 10
453.3528444099999
 20
-12.6864244
 10
468.35284441
 20
-10.1864244
  0
HATCH
  5
175
330
16E
100
AcDbEntity
  8
QUOTE
 62
     7
100
AcDbHatch
 10
0.0
 20
0.0
 30
0.0
210
0.0
220
0.0
230
1.0
  2
SOLID
 70
     1
 71
     1
 91
        1
 92
        2
 72
     0
 73
     1
 93
        3
 10
453.3528444099999
 20
-7.6864244
 10
453.3528444099999
 20
-12.6864244
 10
468.35284441
 20
-10.1864244
 97
        1
330
174
 75
     0
 76
     1
 98
        1
 10
0.0
 20
0.0
1001
VD_TEMPHATCH
1000
VD_TEMPHATCH
  0
LWPOLYLINE
  5
176
102
{ACAD_REACTORS
330
177
102
}
330
16E
100
AcDbEntity
  8
QUOTE
 62
     7
100
AcDbPolyline
 90
        3
 70
     1
 43
0.0
 10
33.35284441000001
 20
-7.6864244
 10
33.35284441000001
 20
-12.6864244
 10
18.35284441
 20
-10.1864244
  0
HATCH
  5
177
330
16E
100
AcDbEntity
  8
QUOTE
 62
     7
100
AcDbHatch
 10
0.0
 20
0.0
 30
0.0
210
0.0
220
0.0
230
1.0
  2
SOLID
 70
     1
 71
     1
 91
        1
 92
        2
 72
     0
 73
     1
 93
        3
 10
33.35284441000001
 20
-7.6864244
 10
33.35284441000001
 20
-12.6864244
 10
18.35284441
 20
-10.1864244
 97
        1
330
176
 75
     0
 76
     1
 98
        1
 10
0.0
 20
0.0
1001
VD_TEMPHATCH
1000
VD_TEMPHATCH
  0
MTEXT
  5
178
330
16E
100
AcDbEntity
  8
QUOTE
 62
     7
100
AcDbMText
 10
243.49092278
 20
-10.1864244
 30
0.0
 40
10.0
 41
22.73081434
 71
     5
 72
     1
  1
\A1;450
 73
     1
 44
1.0
1001
ACAD
1000
MTEXTBEGIN
1070
    73
1070
     1
1070
    44
1040
1.0
1070
    74
1070
     0
1000
MTEXTEND
  0
ENDBLK
  5
179
330
16E
100
AcDbEntity
  8
0
100
AcDbBlockEnd
  0
BLOCK
  5
594
330
593
100
AcDbEntity
  8
0
100
AcDbBlockBegin
  2
*D6
 70
     1
 10
0.0
 20
0.0
 30
0.0
  3
*D6
  1

  0
LINE
  5
5AD
330
593
100
AcDbEntity
  8
QUOTE
 62
     0
370
    -2
100
AcDbLine
 10
74.52503697781098
 20
594.2918979141827
 30
0.0
 11
35.2947672278111
 21
594.2918979141827
 31
0.0
  0
LINE
  5
5AE
330
593
100
AcDbEntity
  8
QUOTE
 62
     0
370
    -2
100
AcDbLine
 10
74.52503697781098
 20
34.34988091418276
 30
0.0
 11
35.29476722781097
 21
34.34988091418277
 31
0.0
  0
LINE
  5
5AF
330
593
100
AcDbEntity
  8
QUOTE
 62
     0
370
    -2
100
AcDbLine
 10
35.47476722781109
 20
579.2918979141827
 30
0.0
 11
35.47476722781104
 21
320.0404615941827
 31
0.0
  0
LINE
  5
5B0
330
593
100
AcDbEntity
  8
QUOTE
 62
     0
370
    -2
100
AcDbLine
 10
35.47476722781098
 20
49.34988091418277
 30
0.0
 11
35.47476722781104
 21
309.8604615941828
 31
0.0
  0
SOLID
  5
5B1
330
593
100
AcDbEntity
  8
QUOTE
 62
     0
100
AcDbTrace
 10
32.97476722781109
 20
579.2918979141827
 30
0.0
 11
37.97476722781109
 21
579.2918979141827
 31
0.0
 12
35.4747672278111
 22
594.2918979141827
 32
0.0
 13
35.4747672278111
 23
594.2918979141827
 33
0.0
  0
SOLID
  5
5B2
330
593
100
AcDbEntity
  8
QUOTE
 62
     0
100
AcDbTrace
 10
32.97476722781098
 20
49.34988091418277
 30
0.0
 11
37.97476722781098
 21
49.34988091418277
 31
0.0
 12
35.47476722781097
 22
34.34988091418277
 32
0.0
 13
35.47476722781097
 23
34.34988091418277
 33
0.0
  0
MTEXT
  5
5B3
330
593
100
AcDbEntity
  8
QUOTE
 62
     0
100
AcDbMText
 10
35.47476722781099
 20
314.9504615941828
 30
0.0
 40
10.0
 41
0.0
 71
     5
 72
     1
  1
\A1;559.942
 73
     1
 44
1.0
1001
ACAD
1000
MTEXTBEGIN
1070
    73
1070
     1
1070
    44
1040
1.0
1070
    74
1070
     0
1000
MTEXTEND
  0
POINT
  5
5B4
330
593
100
AcDbEntity
  8
Defpoints
 62
     0
100
AcDbPoint
 10
74.58753697781098
 20
594.2918979141827
 30
0.0
  0
POINT
  5
5B5
330
593
100
AcDbEntity
  8
Defpoints
 62
     0
100
AcDbPoint
 10
74.58753697781098
 20
34.34988091418276
 30
0.0
  0
POINT
  5
5B6
330
593
100
AcDbEntity
  8
Defpoints
 62
     0
100
AcDbPoint
 10
35.47476722781097
 20
34.34988091418277
 30
0.0
  0
ENDBLK
  5
595
330
593
100
AcDbEntity
  8
0
100
AcDbBlockEnd
  0
BLOCK
  5
5A1
330
5A0
100
AcDbEntity
  8
0
100
AcDbBlockBegin
  2
*D7
 70
     1
 10
0.0
 20
0.0
 30
0.0
  3
*D7
  1

  0
LINE
  5
5B7
330
5A0
100
AcDbEntity
  8
QUOTE
 62
     0
370
    -2
100
AcDbLine
 10
508.5875369778109
 20
50.22702619418277
 30
0.0
 11
508.5875369778109
 21
16.15220592418276
 31
0.0
  0
LINE
  5
5B8
330
5A0
100
AcDbEntity
  8
QUOTE
 62
     0
370
    -2
100
AcDbLine
 10
58.58753697781098
 20
50.29189652418276
 30
0.0
 11
58.58753697781098
 21
16.15220592418276
 31
0.0
  0
LINE
  5
5B9
330
5A0
100
AcDbEntity
  8
QUOTE
 62
     0
370
    -2
100
AcDbLine
 10
493.5875369778109
 20
16.33220592418276
 30
0.0
 11
296.3156153478109
 21
16.33220592418276
 31
0.0
  0
LINE
  5
5BA
330
5A0
100
AcDbEntity
  8
QUOTE
 62
     0
370
    -2
100
AcDbLine
 10
73.58753697781098
 20
16.33220592418276
 30
0.0
 11
271.135615347811
 21
16.33220592418276
 31
0.0
  0
SOLID
  5
5BB
330
5A0
100
AcDbEntity
  8
QUOTE
 62
     0
100
AcDbTrace
 10
493.5875369778109
 20
18.83220592418276
 30
0.0
 11
493.5875369778109
 21
13.83220592418276
 31
0.0
 12
508.5875369778109
 22
16.33220592418276
 32
0.0
 13
508.5875369778109
 23
16.33220592418276
 33
0.0
  0
SOLID
  5
5BC
330
5A0
100
AcDbEntity
  8
QUOTE
 62
     0
100
AcDbTrace
 10
73.58753697781098
 20
18.83220592418276
 30
0.0
 11
73.58753697781098
 21
13.83220592418276
 31
0.0
 12
58.58753697781098
 22
16.33220592418276
 32
0.0
 13
58.58753697781098
 23
16.33220592418276
 33
0.0
  0
MTEXT
  5
5BD
330
5A0
100
AcDbEntity
  8
QUOTE
 62
     0
100
AcDbMText
 10
283.725615347811
 20
16.33220592418276
 30
0.0
 40
10.0
 41
0.0
 71
     5
 72
     1
  1
\A1;450
 73
     1
 44
1.0
1001
ACAD
1000
MTEXTBEGIN
1070
    73
1070
     1
1070
    44
1040
1.0
1070
    74
1070
     0
1000
MTEXTEND
  0
POINT
  5
5BE
330
5A0
100
AcDbEntity
  8
Defpoints
 62
     0
100
AcDbPoint
 10
508.5875369778109
 20
50.28952619418276
 30
0.0
  0
POINT
  5
5BF
330
5A0
100
AcDbEntity
  8
Defpoints
 62
     0
100
AcDbPoint
 10
58.58753697781098
 20
50.35439652418276
 30
0.0
  0
POINT
  5
5C0
330
5A0
100
AcDbEntity
  8
Defpoints
 62
     0
100
AcDbPoint
 10
58.58753697781098
 20
16.33220592418276
 30
0.0
  0
ENDBLK
  5
5A2
330
5A0
100
AcDbEntity
  8
0
100
AcDbBlockEnd
  0
ENDSEC
  0
SECTION
  2
ENTITIES
  0
LINE
  5
38D
330
1F
100
AcDbEntity
  8
0
 62
   253
 48
0.001467
370
    35
100
AcDbLine
 10
90.02141997781098
 20
393.5158969141827
 30
0.0
 11
89.97993197781099
 21
393.4744229141827
 31
0.0
  0
LINE
  5
38E
330
1F
100
AcDbEntity
  8
0
 62
   253
 48
0.001467
370
    35
100
AcDbLine
 10
88.02903497781098
 20
395.5082979141828
 30
0.0
 11
87.987530977811
 21
395.4667939141828
 31
0.0
  0
ARC
  5
38F
330
1F
100
AcDbEntity
  8
0
 62
   253
370
    35
100
AcDbCircle
 10
89.97651397781098
 20
395.4634069141828
 30
0.0
 40
1.988738999999999
100
AcDbArc
 50
179.9018549999999
 51
270.0981399999999
  0
LINE
  5
390
330
1F
100
AcDbEntity
  8
0
 62
   253
370
    35
100
AcDbLine
 10
89.97993197781099
 20
393.4744229141827
 30
0.0
 11
477.1951419778109
 21
393.4744229141827
 31
0.0
  0
ARC
  5
391
330
1F
100
AcDbEntity
  8
0
 62
   253
370
    35
100
AcDbCircle
 10
477.1985599778109
 20
395.4634069141828
 30
0.0
 40
1.988738999999999
100
AcDbArc
 50
269.901848
 51
0.0981429999999927
  0
LINE
  5
392
330
1F
100
AcDbEntity
  8
0
 62
   253
 48
0.003992
370
    35
100
AcDbLine
 10
183.4003729778109
 20
405.0014919141828
 30
0.0
 11
183.418560977811
 21
405.1601229141827
 31
0.0
  0
LINE
  5
393
330
1F
100
AcDbEntity
  8
0
 62
   253
 48
0.004009
370
    35
100
AcDbLine
 10
383.774792977811
 20
405.0008209141827
 30
0.0
 11
383.756512977811
 21
405.1601229141827
 31
0.0
  0
LINE
  5
394
330
1F
100
AcDbEntity
  8
0
 62
   253
370
    35
100
AcDbLine
 10
204.281933977811
 20
404.8959019141827
 30
0.0
 11
228.587536977811
 21
404.8959019141827
 31
0.0
  0
LINE
  5
395
330
1F
100
AcDbEntity
  8
0
 62
   253
370
    35
100
AcDbLine
 10
158.587536977811
 20
404.8959019141827
 30
0.0
 11
182.893139977811
 21
404.8959019141827
 31
0.0
  0
LINE
  5
396
330
1F
100
AcDbEntity
  8
0
 62
   253
370
    35
100
AcDbLine
 10
384.281933977811
 20
404.8959019141827
 30
0.0
 11
408.5875369778109
 21
404.8959019141827
 31
0.0
  0
LINE
  5
397
330
1F
100
AcDbEntity
  8
0
 62
   253
370
    35
100
AcDbLine
 10
338.5875369778109
 20
404.8959019141827
 30
0.0
 11
362.893139977811
 21
404.8959019141827
 31
0.0
  0
ARC
  5
398
330
1F
100
AcDbEntity
  8
0
 62
   253
370
    35
100
AcDbCircle
 10
150.4884159778109
 20
427.8125889141827
 30
0.0
 40
22.428446
100
AcDbArc
 50
241.649282
 51
242.9583559999999
  0
LINE
  5
399
330
1F
100
AcDbEntity
  8
0
 62
   253
 48
0.005419
370
    35
100
AcDbLine
 10
139.8378879778109
 20
408.0742459141827
 30
0.0
 11
139.6463589778109
 21
408.1757479141827
 31
0.0
  0
ARC
  5
39A
330
1F
100
AcDbEntity
  8
0
 62
   253
370
    35
100
AcDbCircle
 10
236.686657977811
 20
427.8125889141827
 30
0.0
 40
22.428442
100
AcDbArc
 50
297.0416380000001
 51
298.350719
  0
LINE
  5
39B
330
1F
100
AcDbEntity
  8
0
 62
   253
 48
0.005418
370
    35
100
AcDbLine
 10
247.337200977811
 20
408.0742459141827
 30
0.0
 11
247.528698977811
 21
408.1757479141827
 31
0.0
  0
ARC
  5
39C
330
1F
100
AcDbEntity
  8
0
 62
   253
370
    35
100
AcDbCircle
 10
416.686657977811
 20
427.8125889141827
 30
0.0
 40
22.428446
100
AcDbArc
 50
297.0416380000001
 51
298.350719
  0
LINE
  5
39D
330
1F
100
AcDbEntity
  8
0
 62
   253
 48
0.005419
370
    35
100
AcDbLine
 10
427.337170977811
 20
408.0742459141827
 30
0.0
 11
427.528698977811
 21
408.1757479141827
 31
0.0
  0
LINE
  5
39E
330
1F
100
AcDbEntity
  8
0
 62
   253
 48
0.005418
370
    35
100
AcDbLine
 10
319.837872977811
 20
408.0742459141827
 30
0.0
 11
319.646374977811
 21
408.1757479141827
 31
0.0
  0
ARC
  5
39F
330
1F
100
AcDbEntity
  8
0
 62
   253
370
    35
100
AcDbCircle
 10
330.488415977811
 20
427.8125889141827
 30
0.0
 40
22.428442
100
AcDbArc
 50
241.649282
 51
242.9583559999999
  0
LINE
  5
3A0
330
1F
100
AcDbEntity
  8
0
 62
   253
 48
0.4608090000000001
370
    35
100
AcDbLine
 10
87.987530977811
 20
395.4667939141828
 30
0.0
 11
87.987530977811
 21
413.8991359141827
 31
0.0
  0
LINE
  5
3A1
330
1F
100
AcDbEntity
  8
0
 62
   253
 48
0.4608090000000001
370
    35
100
AcDbLine
 10
479.187572977811
 20
395.4667939141828
 30
0.0
 11
479.187572977811
 21
413.8991359141827
 31
0.0
  0
LINE
  5
3A2
330
1F
100
AcDbEntity
  8
0
 62
   253
 48
0.1455
370
    35
100
AcDbLine
 10
158.587536977811
 20
404.8960239141827
 30
0.0
 11
158.587536977811
 21
410.7160309141827
 31
0.0
  0
LINE
  5
3A3
330
1F
100
AcDbEntity
  8
0
 62
   253
 48
0.074544
370
    35
100
AcDbLine
 10
158.587536977811
 20
410.7160309141827
 30
0.0
 11
158.587536977811
 21
413.6977819141828
 31
0.0
  0
LINE
  5
3A4
330
1F
100
AcDbEntity
  8
0
 62
   253
 48
0.1455
370
    35
100
AcDbLine
 10
228.587536977811
 20
404.8960239141827
 30
0.0
 11
228.587536977811
 21
410.7160309141827
 31
0.0
  0
LINE
  5
3A5
330
1F
100
AcDbEntity
  8
0
 62
   253
 48
0.074544
370
    35
100
AcDbLine
 10
228.587536977811
 20
410.7160309141827
 30
0.0
 11
228.587536977811
 21
413.6977819141828
 31
0.0
  0
LINE
  5
3A6
330
1F
100
AcDbEntity
  8
0
 62
   253
 48
0.074544
370
    35
100
AcDbLine
 10
408.5875369778109
 20
410.7160309141827
 30
0.0
 11
408.5875369778109
 21
413.6977819141828
 31
0.0
  0
LINE
  5
3A7
330
1F
100
AcDbEntity
  8
0
 62
   253
 48
0.1455
370
    35
100
AcDbLine
 10
408.5875369778109
 20
404.8960239141827
 30
0.0
 11
408.5875369778109
 21
410.7160309141827
 31
0.0
  0
LINE
  5
3A8
330
1F
100
AcDbEntity
  8
0
 62
   253
 48
0.1455
370
    35
100
AcDbLine
 10
338.5875369778109
 20
404.8960239141827
 30
0.0
 11
338.5875369778109
 21
410.7160309141827
 31
0.0
  0
LINE
  5
3A9
330
1F
100
AcDbEntity
  8
0
 62
   253
 48
0.074544
370
    35
100
AcDbLine
 10
338.5875369778109
 20
410.7160309141827
 30
0.0
 11
338.5875369778109
 21
413.6977819141828
 31
0.0
  0
LINE
  5
3AA
330
1F
100
AcDbEntity
  8
0
 62
   253
 48
0.067465
370
    35
100
AcDbLine
 10
91.18346897781098
 20
414.3973049141827
 30
0.0
 11
88.48487597781099
 21
414.3973049141827
 31
0.0
  0
LINE
  5
3AB
330
1F
100
AcDbEntity
  8
0
 62
   253
 48
0.013488
370
    35
100
AcDbLine
 10
91.18346897781098
 20
414.3973049141827
 30
0.0
 11
91.72300397781098
 21
414.3973049141827
 31
0.0
  0
LINE
  5
3AC
330
1F
100
AcDbEntity
  8
0
 62
   253
 48
0.024672
370
    35
100
AcDbLine
 10
92.70986697781097
 20
414.3973049141827
 30
0.0
 11
91.72300397781098
 21
414.3973049141827
 31
0.0
  0
LINE
  5
3AD
330
1F
100
AcDbEntity
  8
0
 62
   253
370
    35
100
AcDbLine
 10
92.70986697781097
 20
414.3973049141827
 30
0.0
 11
138.087536977811
 21
414.3973049141827
 31
0.0
  0
LINE
  5
3AE
330
1F
100
AcDbEntity
  8
0
 62
   253
 48
0.093503
370
    35
100
AcDbLine
 10
138.587536977811
 20
409.9652989141827
 30
0.0
 11
138.587536977811
 21
413.7054109141828
 31
0.0
  0
LINE
  5
3AF
330
1F
100
AcDbEntity
  8
0
 62
   253
 48
0.004787
370
    35
100
AcDbLine
 10
138.587536977811
 20
413.7054109141828
 30
0.0
 11
138.587536977811
 21
413.8968779141827
 31
0.0
  0
LINE
  5
3B0
330
1F
100
AcDbEntity
  8
0
 62
   253
 48
0.004787
370
    35
100
AcDbLine
 10
248.587536977811
 20
413.7054109141828
 30
0.0
 11
248.587536977811
 21
413.8968779141827
 31
0.0
  0
LINE
  5
3B1
330
1F
100
AcDbEntity
  8
0
 62
   253
 48
0.093503
370
    35
100
AcDbLine
 10
248.587536977811
 20
409.9652989141827
 30
0.0
 11
248.587536977811
 21
413.7054109141828
 31
0.0
  0
LINE
  5
3B2
330
1F
100
AcDbEntity
  8
0
 62
   253
370
    35
100
AcDbLine
 10
429.0875369778109
 20
414.3973049141827
 30
0.0
 11
474.4652219778109
 21
414.3973049141827
 31
0.0
  0
LINE
  5
3B3
330
1F
100
AcDbEntity
  8
0
 62
   253
 48
0.024672
370
    35
100
AcDbLine
 10
475.452099977811
 20
414.3973049141827
 30
0.0
 11
474.4652219778109
 21
414.3973049141827
 31
0.0
  0
LINE
  5
3B4
330
1F
100
AcDbEntity
  8
0
 62
   253
 48
0.013487
370
    35
100
AcDbLine
 10
475.452099977811
 20
414.3973049141827
 30
0.0
 11
475.991589977811
 21
414.3973049141827
 31
0.0
  0
LINE
  5
3B5
330
1F
100
AcDbEntity
  8
0
 62
   253
 48
0.067465
370
    35
100
AcDbLine
 10
478.6901979778109
 20
414.3973049141827
 30
0.0
 11
475.991589977811
 21
414.3973049141827
 31
0.0
  0
LINE
  5
3B6
330
1F
100
AcDbEntity
  8
0
 62
   253
 48
0.004787
370
    35
100
AcDbLine
 10
428.5875369778109
 20
413.7054109141828
 30
0.0
 11
428.5875369778109
 21
413.8968779141827
 31
0.0
  0
LINE
  5
3B7
330
1F
100
AcDbEntity
  8
0
 62
   253
 48
0.093503
370
    35
100
AcDbLine
 10
428.5875369778109
 20
409.9652989141827
 30
0.0
 11
428.5875369778109
 21
413.7054109141828
 31
0.0
  0
LINE
  5
3B8
330
1F
100
AcDbEntity
  8
0
 62
   253
 48
0.093503
370
    35
100
AcDbLine
 10
318.587536977811
 20
409.9652989141827
 30
0.0
 11
318.587536977811
 21
413.7054109141828
 31
0.0
  0
LINE
  5
3B9
330
1F
100
AcDbEntity
  8
0
 62
   253
 48
0.004787
370
    35
100
AcDbLine
 10
318.587536977811
 20
413.7054109141828
 30
0.0
 11
318.587536977811
 21
413.8968779141827
 31
0.0
  0
LINE
  5
3BA
330
1F
100
AcDbEntity
  8
0
 62
   253
370
    35
100
AcDbLine
 10
249.087536977811
 20
414.3973049141827
 30
0.0
 11
318.0875369778109
 21
414.3973049141827
 31
0.0
  0
LINE
  5
3BB
330
1F
100
AcDbEntity
  8
0
 62
   253
 48
0.011659
370
    35
100
AcDbLine
 10
228.587536977811
 20
413.6977819141828
 30
0.0
 11
228.587536977811
 21
414.1641509141827
 31
0.0
  0
LINE
  5
3BC
330
1F
100
AcDbEntity
  8
0
 62
   253
 48
0.011659
370
    35
100
AcDbLine
 10
158.587536977811
 20
413.6977819141828
 30
0.0
 11
158.587536977811
 21
414.1641509141827
 31
0.0
  0
LINE
  5
3BD
330
1F
100
AcDbEntity
  8
0
 62
   253
 48
0.011659
370
    35
100
AcDbLine
 10
408.5875369778109
 20
413.6977819141828
 30
0.0
 11
408.5875369778109
 21
414.1641509141827
 31
0.0
  0
LINE
  5
3BE
330
1F
100
AcDbEntity
  8
0
 62
   253
 48
0.011659
370
    35
100
AcDbLine
 10
338.5875369778109
 20
413.6977819141828
 30
0.0
 11
338.5875369778109
 21
414.1641509141827
 31
0.0
  0
ARC
  5
3BF
330
1F
100
AcDbEntity
  8
0
 62
   253
370
    35
100
AcDbCircle
 10
429.087780977811
 20
413.8971219141827
 30
0.0
 40
0.5002290000000001
100
AcDbArc
 50
90.03028800000008
 51
180.030184
  0
ARC
  5
3C0
330
1F
100
AcDbEntity
  8
0
 62
   253
370
    35
100
AcDbCircle
 10
478.6907469778109
 20
413.9006619141827
 30
0.0
 40
0.4966640000000001
100
AcDbArc
 50
359.826825
 51
90.06193899999995
  0
ARC
  5
3C1
330
1F
100
AcDbEntity
  8
0
 62
   253
370
    35
100
AcDbCircle
 10
318.087261977811
 20
413.8971219141827
 30
0.0
 40
0.5002290000000001
100
AcDbArc
 50
359.96983
 51
89.969704
  0
ARC
  5
3C2
330
1F
100
AcDbEntity
  8
0
 62
   253
370
    35
100
AcDbCircle
 10
249.087810977811
 20
413.8971219141827
 30
0.0
 40
0.5002290000000001
100
AcDbArc
 50
90.03028800000008
 51
180.030184
  0
ARC
  5
3C3
330
1F
100
AcDbEntity
  8
0
 62
   253
370
    35
100
AcDbCircle
 10
138.087276977811
 20
413.8971219141827
 30
0.0
 40
0.5002290000000001
100
AcDbArc
 50
359.96983
 51
89.969704
  0
ARC
  5
3C4
330
1F
100
AcDbEntity
  8
0
 62
   253
370
    35
100
AcDbCircle
 10
88.48434197781099
 20
413.9006619141827
 30
0.0
 40
0.4966640000000001
100
AcDbArc
 50
89.938066
 51
180.1731809999999
  0
LINE
  5
3C5
330
1F
100
AcDbEntity
  8
0
 62
   253
 48
0.016769
370
    35
100
AcDbLine
 10
408.5875369778109
 20
404.8780179141827
 30
0.0
 11
408.5875369778109
 21
404.2072419141828
 31
0.0
  0
LINE
  5
3C6
330
1F
100
AcDbEntity
  8
0
 62
   253
 48
0.067903
370
    35
100
AcDbLine
 10
408.5875369778109
 20
401.4910549141827
 30
0.0
 11
408.5875369778109
 21
404.2071809141827
 31
0.0
  0
LINE
  5
3C7
330
1F
100
AcDbEntity
  8
0
 62
   253
 48
0.000447
370
    35
100
AcDbLine
 10
408.5875369778109
 20
404.8959019141827
 30
0.0
 11
408.5875369778109
 21
404.8780179141827
 31
0.0
  0
ARC
  5
3C8
330
1F
100
AcDbEntity
  8
0
 62
   253
370
    35
100
AcDbCircle
 10
427.747509977811
 20
407.2543609141828
 30
0.0
 40
0.9169159999999999
100
AcDbArc
 50
102.8629490000001
 51
116.5844169999999
  0
ARC
  5
3C9
330
1F
100
AcDbEntity
  8
0
 62
   253
370
    35
100
AcDbCircle
 10
427.8377199778109
 20
406.9247099141827
 30
0.0
 40
1.258637999999999
100
AcDbArc
 50
97.8635109999999
 51
103.525819
  0
LINE
  5
3CA
330
1F
100
AcDbEntity
  8
0
 62
   253
 48
0.007334
370
    35
100
AcDbLine
 10
427.6654789778109
 20
408.1715359141827
 30
0.0
 11
427.956127977811
 21
408.2113309141828
 31
0.0
  0
LINE
  5
3CB
330
1F
100
AcDbEntity
  8
0
 62
   253
 48
0.000334
370
    35
100
AcDbLine
 10
427.956127977811
 20
408.2113309141828
 30
0.0
 11
427.969311977811
 21
408.2134679141828
 31
0.0
  0
LINE
  5
3CC
330
1F
100
AcDbEntity
  8
0
 62
   253
 48
0.002499
370
    35
100
AcDbLine
 10
408.5875369778109
 20
401.4910549141827
 30
0.0
 11
408.5875369778109
 21
401.3910799141827
 31
0.0
  0
LINE
  5
3CD
330
1F
100
AcDbEntity
  8
0
 62
   253
 48
0.001672
370
    35
100
AcDbLine
 10
428.0362059778109
 20
408.2138949141827
 30
0.0
 11
427.969311977811
 21
408.2134679141828
 31
0.0
  0
LINE
  5
3CE
330
1F
100
AcDbEntity
  8
0
 62
   253
 48
0.067903
370
    35
100
AcDbLine
 10
338.5875369778109
 20
401.4910549141827
 30
0.0
 11
338.5875369778109
 21
404.2071809141827
 31
0.0
  0
LINE
  5
3CF
330
1F
100
AcDbEntity
  8
0
 62
   253
 48
0.016771
370
    35
100
AcDbLine
 10
338.5875369778109
 20
404.8780179141827
 30
0.0
 11
338.5875369778109
 21
404.2071809141827
 31
0.0
  0
LINE
  5
3D0
330
1F
100
AcDbEntity
  8
0
 62
   253
 48
0.000447
370
    35
100
AcDbLine
 10
338.5875369778109
 20
404.8959019141827
 30
0.0
 11
338.5875369778109
 21
404.8780179141827
 31
0.0
  0
ARC
  5
3D1
330
1F
100
AcDbEntity
  8
0
 62
   253
370
    35
100
AcDbCircle
 10
319.4275939778109
 20
407.2543609141828
 30
0.0
 40
0.9169159999999999
100
AcDbArc
 50
63.41558100000006
 51
77.13704899999992
  0
LINE
  5
3D2
330
1F
100
AcDbEntity
  8
0
 62
   253
 48
0.000335
370
    35
100
AcDbLine
 10
319.218945977811
 20
408.2113309141828
 30
0.0
 11
319.2057309778109
 21
408.2134679141828
 31
0.0
  0
LINE
  5
3D3
330
1F
100
AcDbEntity
  8
0
 62
   253
 48
0.007334
370
    35
100
AcDbLine
 10
319.5095949778109
 20
408.1715359141827
 30
0.0
 11
319.218945977811
 21
408.2113309141828
 31
0.0
  0
ARC
  5
3D4
330
1F
100
AcDbEntity
  8
0
 62
   253
370
    35
100
AcDbCircle
 10
319.337353977811
 20
406.9245269141827
 30
0.0
 40
1.258839999999999
100
AcDbArc
 50
76.47481399999998
 51
82.13620800000002
  0
LINE
  5
3D5
330
1F
100
AcDbEntity
  8
0
 62
   253
 48
0.001672
370
    35
100
AcDbLine
 10
319.138836977811
 20
408.2138949141827
 30
0.0
 11
319.2057309778109
 21
408.2134679141828
 31
0.0
  0
LINE
  5
3D6
330
1F
100
AcDbEntity
  8
0
 62
   253
 48
0.002499
370
    35
100
AcDbLine
 10
338.5875369778109
 20
401.4910549141827
 30
0.0
 11
338.5875369778109
 21
401.3910799141827
 31
0.0
  0
LINE
  5
3D7
330
1F
100
AcDbEntity
  8
0
 62
   253
 48
0.016771
370
    35
100
AcDbLine
 10
228.587536977811
 20
404.8780179141827
 30
0.0
 11
228.587536977811
 21
404.2071809141827
 31
0.0
  0
LINE
  5
3D8
330
1F
100
AcDbEntity
  8
0
 62
   253
 48
0.067903
370
    35
100
AcDbLine
 10
228.587536977811
 20
401.4910549141827
 30
0.0
 11
228.587536977811
 21
404.2071809141827
 31
0.0
  0
LINE
  5
3D9
330
1F
100
AcDbEntity
  8
0
 62
   253
 48
0.000447
370
    35
100
AcDbLine
 10
228.587536977811
 20
404.8959019141827
 30
0.0
 11
228.587536977811
 21
404.8780179141827
 31
0.0
  0
ARC
  5
3DA
330
1F
100
AcDbEntity
  8
0
 62
   253
370
    35
100
AcDbCircle
 10
247.747631977811
 20
407.2541779141827
 30
0.0
 40
0.9171229999999999
100
AcDbArc
 50
102.869452
 51
116.5878319999999
  0
ARC
  5
3DB
330
1F
100
AcDbEntity
  8
0
 62
   253
370
    35
100
AcDbCircle
 10
247.837810977811
 20
406.9246489141827
 30
0.0
 40
1.258703
100
AcDbArc
 50
97.868408
 51
103.5304229999999
  0
LINE
  5
3DC
330
1F
100
AcDbEntity
  8
0
 62
   253
 48
0.007334
370
    35
100
AcDbLine
 10
247.665478977811
 20
408.1715359141827
 30
0.0
 11
247.956127977811
 21
408.2113309141828
 31
0.0
  0
LINE
  5
3DD
330
1F
100
AcDbEntity
  8
0
 62
   253
 48
0.000335
370
    35
100
AcDbLine
 10
247.956127977811
 20
408.2113309141828
 30
0.0
 11
247.969341977811
 21
408.2134679141828
 31
0.0
  0
LINE
  5
3DE
330
1F
100
AcDbEntity
  8
0
 62
   253
 48
0.002499
370
    35
100
AcDbLine
 10
228.587536977811
 20
401.4910549141827
 30
0.0
 11
228.587536977811
 21
401.3910799141827
 31
0.0
  0
LINE
  5
3DF
330
1F
100
AcDbEntity
  8
0
 62
   253
 48
0.001672
370
    35
100
AcDbLine
 10
248.036236977811
 20
408.2138949141827
 30
0.0
 11
247.969341977811
 21
408.2134679141828
 31
0.0
  0
LINE
  5
3E0
330
1F
100
AcDbEntity
  8
0
 62
   253
 48
0.067903
370
    35
100
AcDbLine
 10
158.587536977811
 20
401.4910549141827
 30
0.0
 11
158.587536977811
 21
404.2071809141827
 31
0.0
  0
LINE
  5
3E1
330
1F
100
AcDbEntity
  8
0
 62
   253
 48
0.016769
370
    35
100
AcDbLine
 10
158.587536977811
 20
404.8780179141827
 30
0.0
 11
158.587536977811
 21
404.2072419141828
 31
0.0
  0
LINE
  5
3E2
330
1F
100
AcDbEntity
  8
0
 62
   253
 48
0.000447
370
    35
100
AcDbLine
 10
158.587536977811
 20
404.8959019141827
 30
0.0
 11
158.587536977811
 21
404.8780179141827
 31
0.0
  0
ARC
  5
3E3
330
1F
100
AcDbEntity
  8
0
 62
   253
370
    35
100
AcDbCircle
 10
139.4275789778109
 20
407.2543609141828
 30
0.0
 40
0.916947
100
AcDbArc
 50
63.41582699999995
 51
77.13683700000008
  0
LINE
  5
3E4
330
1F
100
AcDbEntity
  8
0
 62
   253
 48
0.000334
370
    35
100
AcDbLine
 10
139.205730977811
 20
408.2134679141828
 30
0.0
 11
139.218929977811
 21
408.2113309141828
 31
0.0
  0
LINE
  5
3E5
330
1F
100
AcDbEntity
  8
0
 62
   253
 48
0.007334
370
    35
100
AcDbLine
 10
139.218929977811
 20
408.2113309141828
 30
0.0
 11
139.5095799778109
 21
408.1715359141827
 31
0.0
  0
ARC
  5
3E6
330
1F
100
AcDbEntity
  8
0
 62
   253
370
    35
100
AcDbCircle
 10
139.3373689778109
 20
406.9247099141827
 30
0.0
 40
1.258636
100
AcDbArc
 50
76.47417899999995
 51
82.13649500000009
  0
LINE
  5
3E7
330
1F
100
AcDbEntity
  8
0
 62
   253
 48
0.002499
370
    35
100
AcDbLine
 10
158.587536977811
 20
401.3910799141827
 30
0.0
 11
158.587536977811
 21
401.4910549141827
 31
0.0
  0
LINE
  5
3E8
330
1F
100
AcDbEntity
  8
0
 62
   253
 48
0.001672
370
    35
100
AcDbLine
 10
139.205730977811
 20
408.2134679141828
 30
0.0
 11
139.1388369778109
 21
408.2138949141827
 31
0.0
  0
ELLIPSE
  5
3E9
330
1F
100
AcDbEntity
  8
0
 62
   253
370
    35
100
AcDbEllipse
 10
380.706249977811
 20
396.6257599141828
 30
0.0
 11
0.1416626
 21
-0.14117432
 31
0.0
210
0.0
220
0.0
230
1.0
 40
0.012362
 41
4.724709579999999
 42
6.295505907179586
  0
LINE
  5
3EA
330
1F
100
AcDbEntity
  8
0
 62
   253
 48
0.008305
370
    35
100
AcDbLine
 10
384.281933977811
 20
404.8959019141827
 30
0.0
 11
383.9497499778109
 21
404.8969999141827
 31
0.0
  0
LINE
  5
3EB
330
1F
100
AcDbEntity
  8
0
 62
   253
 48
0.008305
370
    35
100
AcDbLine
 10
362.893139977811
 20
404.8959019141827
 30
0.0
 11
363.2253239778109
 21
404.8969999141827
 31
0.0
  0
LINE
  5
3EC
330
1F
100
AcDbEntity
  8
0
 62
   253
 48
0.000035
370
    35
100
AcDbLine
 10
363.2253239778109
 20
404.8969999141827
 30
0.0
 11
363.2267269778109
 21
404.8971219141828
 31
0.0
  0
LINE
  5
3ED
330
1F
100
AcDbEntity
  8
0
 62
   253
370
    35
100
AcDbLine
 10
408.5875369778109
 20
401.3910799141827
 30
0.0
 11
383.7603579778109
 21
401.3910799141827
 31
0.0
  0
LINE
  5
3EE
330
1F
100
AcDbEntity
  8
0
 62
   253
370
    35
100
AcDbLine
 10
363.4147159778109
 20
401.3910799141827
 30
0.0
 11
338.5875369778109
 21
401.3910799141827
 31
0.0
  0
ELLIPSE
  5
3EF
330
1F
100
AcDbEntity
  8
0
 62
   253
370
    35
100
AcDbEllipse
 10
373.5875369778109
 20
403.7188389141827
 30
0.0
 11
10.25
 21
0.0
 31
0.0
210
0.0
220
0.0
230
1.0
 40
0.9998479999999998
 41
6.03768056
 42
6.273490269999999
  0
ELLIPSE
  5
3F0
330
1F
100
AcDbEntity
  8
0
 62
   253
370
    35
100
AcDbEllipse
 10
373.5875369778109
 20
403.7188389141827
 30
0.0
 11
10.25
 21
0.0
 31
0.0
210
0.0
220
0.0
230
1.0
 40
0.9998479999999998
 41
3.15128772
 42
3.387097429999999
  0
LINE
  5
3F1
330
1F
100
AcDbEntity
  8
0
 62
   253
 48
0.000475
370
    35
100
AcDbLine
 10
363.423656977811
 20
405.0711339141828
 30
0.0
 11
363.423656977811
 21
405.0521519141828
 31
0.0
  0
LINE
  5
3F2
330
1F
100
AcDbEntity
  8
0
 62
   253
 48
0.004067
370
    35
100
AcDbLine
 10
363.423656977811
 20
405.0521519141828
 30
0.0
 11
363.4047669778109
 21
404.8905919141827
 31
0.0
  0
ELLIPSE
  5
3F3
330
1F
100
AcDbEntity
  8
0
 62
   253
370
    35
100
AcDbEllipse
 10
373.5875369778109
 20
403.7188389141827
 30
0.0
 11
10.25
 21
0.0
 31
0.0
210
0.0
220
0.0
230
1.0
 40
0.9998479999999998
 41
0.11459006
 42
3.027002589999999
  0
LINE
  5
3F4
330
1F
100
AcDbEntity
  8
0
 62
   253
 48
0.004067
370
    35
100
AcDbLine
 10
383.7703069778109
 20
404.8905919141827
 30
0.0
 11
383.751415977811
 21
405.0521519141828
 31
0.0
  0
LINE
  5
3F5
330
1F
100
AcDbEntity
  8
0
 62
   253
 48
0.000475
370
    35
100
AcDbLine
 10
383.751415977811
 20
405.0521519141828
 30
0.0
 11
383.751415977811
 21
405.0711339141828
 31
0.0
  0
ARC
  5
3F6
330
1F
100
AcDbEntity
  8
0
 62
   253
370
    35
100
AcDbCircle
 10
366.5146299778109
 20
403.6219149141827
 30
0.0
 40
3.17682
100
AcDbArc
 50
170.726329
 51
180.044883
  0
ARC
  5
3F7
330
1F
100
AcDbEntity
  8
0
 62
   253
370
    35
100
AcDbCircle
 10
380.6604429778109
 20
403.6219149141827
 30
0.0
 40
3.17682
100
AcDbArc
 50
359.955114
 51
9.273671999999992
  0
LINE
  5
3F8
330
1F
100
AcDbEntity
  8
0
 62
   253
 48
0.001197
370
    35
100
AcDbLine
 10
363.4622619778109
 20
401.3966039141827
 30
0.0
 11
363.4147159778109
 21
401.3910799141827
 31
0.0
  0
LINE
  5
3F9
330
1F
100
AcDbEntity
  8
0
 62
   253
 48
0.001202
370
    35
100
AcDbLine
 10
383.712810977811
 20
401.3966039141827
 30
0.0
 11
383.760570977811
 21
401.3910489141827
 31
0.0
  0
LINE
  5
3FA
330
1F
100
AcDbEntity
  8
0
 62
   253
 48
0.008305
370
    35
100
AcDbLine
 10
204.281933977811
 20
404.8959019141827
 30
0.0
 11
203.949749977811
 21
404.8969999141827
 31
0.0
  0
LINE
  5
3FB
330
1F
100
AcDbEntity
  8
0
 62
   253
 48
0.000035
370
    35
100
AcDbLine
 10
203.949749977811
 20
404.8969999141827
 30
0.0
 11
203.948345977811
 21
404.8971219141828
 31
0.0
  0
LINE
  5
3FC
330
1F
100
AcDbEntity
  8
0
 62
   253
 48
0.008305
370
    35
100
AcDbLine
 10
182.893139977811
 20
404.8959019141827
 30
0.0
 11
183.2253239778109
 21
404.8969999141827
 31
0.0
  0
LINE
  5
3FD
330
1F
100
AcDbEntity
  8
0
 62
   253
370
    35
100
AcDbLine
 10
228.587536977811
 20
401.3910799141827
 30
0.0
 11
203.760357977811
 21
401.3910799141827
 31
0.0
  0
LINE
  5
3FE
330
1F
100
AcDbEntity
  8
0
 62
   253
370
    35
100
AcDbLine
 10
158.587536977811
 20
401.3910799141827
 30
0.0
 11
183.414715977811
 21
401.3910799141827
 31
0.0
  0
ELLIPSE
  5
3FF
330
1F
100
AcDbEntity
  8
0
 62
   253
370
    35
100
AcDbEllipse
 10
193.5875369778109
 20
403.7188389141827
 30
0.0
 11
10.25
 21
0.0
 31
0.0
210
0.0
220
0.0
230
1.0
 40
0.9998479999999998
 41
6.03768057
 42
6.273490319999999
  0
ELLIPSE
  5
400
330
1F
100
AcDbEntity
  8
0
 62
   253
370
    35
100
AcDbEllipse
 10
193.5875369778109
 20
403.7188389141827
 30
0.0
 11
10.25
 21
0.0
 31
0.0
210
0.0
220
0.0
230
1.0
 40
0.9998479999999998
 41
3.15128777
 42
3.38709746
  0
LINE
  5
401
330
1F
100
AcDbEntity
  8
0
 62
   253
 48
0.000221
370
    35
100
AcDbLine
 10
183.4235959778109
 20
405.0711949141827
 30
0.0
 11
183.422192977811
 21
405.0624669141828
 31
0.0
  0
LINE
  5
402
330
1F
100
AcDbEntity
  8
0
 62
   253
 48
0.000475
370
    35
100
AcDbLine
 10
183.423656977811
 20
405.0521519141828
 30
0.0
 11
183.423656977811
 21
405.0711339141828
 31
0.0
  0
ELLIPSE
  5
403
330
1F
100
AcDbEntity
  8
0
 62
   253
370
    35
100
AcDbEllipse
 10
193.5875369778109
 20
403.7188389141827
 30
0.0
 11
10.25
 21
0.0
 31
0.0
210
0.0
220
0.0
230
1.0
 40
0.9998479999999998
 41
0.11459006
 42
3.0270026
  0
LINE
  5
404
330
1F
100
AcDbEntity
  8
0
 62
   253
 48
0.004067
370
    35
100
AcDbLine
 10
203.751415977811
 20
405.0521519141828
 30
0.0
 11
203.770306977811
 21
404.8905919141827
 31
0.0
  0
LINE
  5
405
330
1F
100
AcDbEntity
  8
0
 62
   253
 48
0.000475
370
    35
100
AcDbLine
 10
203.751415977811
 20
405.0711339141828
 30
0.0
 11
203.751415977811
 21
405.0521519141828
 31
0.0
  0
LINE
  5
406
330
1F
100
AcDbEntity
  8
0
 62
   253
 48
0.000221
370
    35
100
AcDbLine
 10
203.751476977811
 20
405.0711949141827
 30
0.0
 11
203.752880977811
 21
405.0624669141828
 31
0.0
  0
ARC
  5
407
330
1F
100
AcDbEntity
  8
0
 62
   253
370
    35
100
AcDbCircle
 10
186.515514977811
 20
403.6216099141827
 30
0.0
 40
3.177723999999999
100
AcDbArc
 50
170.723119
 51
180.0390229999999
  0
ARC
  5
408
330
1F
100
AcDbEntity
  8
0
 62
   253
370
    35
100
AcDbCircle
 10
200.659557977811
 20
403.6216099141827
 30
0.0
 40
3.177725
100
AcDbArc
 50
359.960977
 51
9.276881999999998
  0
LINE
  5
409
330
1F
100
AcDbEntity
  8
0
 62
   253
 48
0.001197
370
    35
100
AcDbLine
 10
203.712810977811
 20
401.3966039141827
 30
0.0
 11
203.760357977811
 21
401.3910799141827
 31
0.0
  0
LINE
  5
40A
330
1F
100
AcDbEntity
  8
0
 62
   253
 48
0.001197
370
    35
100
AcDbLine
 10
183.462261977811
 20
401.3966039141827
 30
0.0
 11
183.414715977811
 21
401.3910799141827
 31
0.0
  0
LINE
  5
40B
330
1F
100
AcDbEntity
  8
0
 62
   253
370
    35
100
AcDbLine
 10
204.281933977811
 20
404.8959629141827
 30
0.0
 11
228.587536977811
 21
404.8959629141827
 31
0.0
  0
LINE
  5
40C
330
1F
100
AcDbEntity
  8
0
 62
   253
370
    35
100
AcDbLine
 10
158.587536977811
 20
404.8959629141827
 30
0.0
 11
182.893139977811
 21
404.8959629141827
 31
0.0
  0
LINE
  5
40D
330
1F
100
AcDbEntity
  8
0
 62
   253
370
    35
100
AcDbLine
 10
384.281933977811
 20
404.8959629141827
 30
0.0
 11
408.5875369778109
 21
404.8959629141827
 31
0.0
  0
LINE
  5
40E
330
1F
100
AcDbEntity
  8
0
 62
   253
370
    35
100
AcDbLine
 10
338.5875369778109
 20
404.8959629141827
 30
0.0
 11
362.893139977811
 21
404.8959629141827
 31
0.0
  0
LINE
  5
40F
330
1F
100
AcDbEntity
  8
0
 62
   253
 48
0.000076
370
    35
100
AcDbLine
 10
140.291790977811
 20
407.8360259141827
 30
0.0
 11
140.289059977811
 21
407.8373689141828
 31
0.0
  0
LINE
  5
410
330
1F
100
AcDbEntity
  8
0
 62
   253
 48
0.000076
370
    35
100
AcDbLine
 10
426.883251977811
 20
407.8360259141827
 30
0.0
 11
426.885998977811
 21
407.8373689141828
 31
0.0
  0
LINE
  5
411
330
1F
100
AcDbEntity
  8
0
 62
   253
 48
0.000076
370
    35
100
AcDbLine
 10
320.289074977811
 20
407.8373689141828
 30
0.0
 11
320.2917909778109
 21
407.8360259141827
 31
0.0
  0
ARC
  5
412
330
1F
100
AcDbEntity
  8
0
 62
   253
370
    35
100
AcDbCircle
 10
247.539776977811
 20
457.0173619141827
 30
0.0
 40
42.69666299999999
100
AcDbArc
 50
270.2946310000001
 51
271.7693649999999
  0
ARC
  5
413
330
1F
100
AcDbEntity
  8
0
 62
   253
370
    35
100
AcDbCircle
 10
230.221111977811
 20
2333.592739914182
 30
0.0
 40
1919.352284
100
AcDbArc
 50
270.204767
 51
270.523552
  0
LINE
  5
414
330
1F
100
AcDbEntity
  8
0
 62
   253
370
    35
100
AcDbLine
 10
228.587536977811
 20
414.1641509141827
 30
0.0
 11
198.091015977811
 21
414.1641509141827
 31
0.0
  0
LINE
  5
415
330
1F
100
AcDbEntity
  8
0
 62
   253
370
    35
100
AcDbLine
 10
189.0840579778109
 20
414.1641509141827
 30
0.0
 11
158.587536977811
 21
414.1641509141827
 31
0.0
  0
ARC
  5
416
330
1F
100
AcDbEntity
  8
0
 62
   253
370
    35
100
AcDbCircle
 10
156.9538699778109
 20
2333.578335914182
 30
0.0
 40
1919.337717
100
AcDbArc
 50
269.4764499999999
 51
269.7952349999999
  0
ARC
  5
417
330
1F
100
AcDbEntity
  8
0
 62
   253
370
    35
100
AcDbCircle
 10
139.636517977811
 20
457.0925569141827
 30
0.0
 40
42.771846
100
AcDbArc
 50
268.2333489999999
 51
269.704243
  0
ARC
  5
418
330
1F
100
AcDbEntity
  8
0
 62
   253
370
    35
100
AcDbCircle
 10
427.5385869778109
 20
457.0918239141827
 30
0.0
 40
42.77110799999999
100
AcDbArc
 50
270.2957449999999
 51
271.7666669999999
  0
ARC
  5
419
330
1F
100
AcDbEntity
  8
0
 62
   253
370
    35
100
AcDbCircle
 10
410.221203977811
 20
2333.577114914183
 30
0.0
 40
1919.33666
100
AcDbArc
 50
270.204767
 51
270.523552
  0
LINE
  5
41A
330
1F
100
AcDbEntity
  8
0
 62
   253
370
    35
100
AcDbLine
 10
408.5875369778109
 20
414.1641509141827
 30
0.0
 11
378.091015977811
 21
414.1641509141827
 31
0.0
  0
LINE
  5
41B
330
1F
100
AcDbEntity
  8
0
 62
   253
370
    35
100
AcDbLine
 10
369.084057977811
 20
414.1641509141827
 30
0.0
 11
338.5875369778109
 21
414.1641509141827
 31
0.0
  0
ARC
  5
41C
330
1F
100
AcDbEntity
  8
0
 62
   253
370
    35
100
AcDbCircle
 10
336.9539309778109
 20
2333.589565914182
 30
0.0
 40
1919.349087
100
AcDbArc
 50
269.4764499999999
 51
269.7952349999999
  0
ARC
  5
41D
330
1F
100
AcDbEntity
  8
0
 62
   253
370
    35
100
AcDbCircle
 10
319.635296977811
 20
457.0180939141827
 30
0.0
 40
42.697396
100
AcDbArc
 50
268.230644
 51
269.7053499999999
  0
ARC
  5
41E
330
1F
100
AcDbEntity
  8
0
 62
   253
370
    35
100
AcDbCircle
 10
376.5980349778109
 20
400.7205779141827
 30
0.0
 40
6.000426999999999
100
AcDbArc
 50
269.9990749999999
 51
315.0936339999999
  0
LINE
  5
41F
330
1F
100
AcDbEntity
  8
0
 62
   253
 48
0.15052
370
    35
100
AcDbLine
 10
370.577129977811
 20
394.7201509141827
 30
0.0
 11
376.5979429778109
 21
394.7201509141827
 31
0.0
  0
ARC
  5
420
330
1F
100
AcDbEntity
  8
0
 62
   253
370
    35
100
AcDbCircle
 10
370.577038977811
 20
400.7205779141827
 30
0.0
 40
6.000426999999999
100
AcDbArc
 50
224.9063710000001
 51
270.000933
  0
LINE
  5
421
330
1F
100
AcDbEntity
  8
0
 62
   253
 48
0.008381
370
    35
100
AcDbLine
 10
383.946697977811
 20
404.8969999141827
 30
0.0
 11
384.281933977811
 21
404.8959629141827
 31
0.0
  0
LINE
  5
422
330
1F
100
AcDbEntity
  8
0
 62
   253
 48
0.00834
370
    35
100
AcDbLine
 10
363.2267269778109
 20
404.8971219141828
 30
0.0
 11
362.893139977811
 21
404.8959629141827
 31
0.0
  0
ARC
  5
423
330
1F
100
AcDbEntity
  8
0
 62
   253
370
    35
100
AcDbCircle
 10
373.585552977811
 20
403.7191439141827
 30
0.0
 40
10.248067
100
AcDbArc
 50
194.068914
 51
224.9059069999999
  0
ARC
  5
424
330
1F
100
AcDbEntity
  8
0
 62
   253
370
    35
100
AcDbCircle
 10
373.5895199778109
 20
403.7191439141827
 30
0.0
 40
10.248067
100
AcDbArc
 50
315.0940980000001
 51
345.9310899999999
  0
ARC
  5
425
330
1F
100
AcDbEntity
  8
0
 62
   253
370
    35
100
AcDbCircle
 10
196.598034977811
 20
400.7205779141827
 30
0.0
 40
6.000426999999999
100
AcDbArc
 50
269.9990749999999
 51
315.0936339999999
  0
LINE
  5
426
330
1F
100
AcDbEntity
  8
0
 62
   253
 48
0.15052
370
    35
100
AcDbLine
 10
190.5771299778109
 20
394.7201509141827
 30
0.0
 11
196.597942977811
 21
394.7201509141827
 31
0.0
  0
ARC
  5
427
330
1F
100
AcDbEntity
  8
0
 62
   253
370
    35
100
AcDbCircle
 10
190.577038977811
 20
400.7205779141827
 30
0.0
 40
6.000426999999999
100
AcDbArc
 50
224.9063710000001
 51
270.000933
  0
LINE
  5
428
330
1F
100
AcDbEntity
  8
0
 62
   253
 48
0.00834
370
    35
100
AcDbLine
 10
203.948345977811
 20
404.8971219141828
 30
0.0
 11
204.281933977811
 21
404.8959629141827
 31
0.0
  0
LINE
  5
429
330
1F
100
AcDbEntity
  8
0
 62
   253
 48
0.008381
370
    35
100
AcDbLine
 10
183.2283749778109
 20
404.8969999141827
 30
0.0
 11
182.893139977811
 21
404.8959629141827
 31
0.0
  0
ARC
  5
42A
330
1F
100
AcDbEntity
  8
0
 62
   253
370
    35
100
AcDbCircle
 10
193.5855529778109
 20
403.7191439141827
 30
0.0
 40
10.248067
100
AcDbArc
 50
194.068914
 51
224.9059069999999
  0
ARC
  5
42B
330
1F
100
AcDbEntity
  8
0
 62
   253
370
    35
100
AcDbCircle
 10
193.589519977811
 20
403.7191439141827
 30
0.0
 40
10.248067
100
AcDbArc
 50
315.0940980000001
 51
345.9310910000001
  0
LINE
  5
42C
330
1F
100
AcDbEntity
  8
0
 62
   253
370
    35
100
AcDbLine
 10
87.78753397781098
 20
418.7032749141827
 30
0.0
 11
87.78753397781098
 21
522.4195219141827
 31
0.0
  0
LINE
  5
42D
330
1F
100
AcDbEntity
  8
0
 62
   253
370
    35
100
AcDbLine
 10
479.3875249778109
 20
522.4195219141827
 30
0.0
 11
479.3875249778109
 21
418.7032749141827
 31
0.0
  0
ARC
  5
42E
330
1F
100
AcDbEntity
  8
0
 62
   253
370
    35
100
AcDbCircle
 10
477.3985719778109
 20
522.4229399141827
 30
0.0
 40
1.988738999999999
100
AcDbArc
 50
359.901857
 51
90.09815199999996
  0
LINE
  5
42F
330
1F
100
AcDbEntity
  8
0
 62
   253
370
    35
100
AcDbLine
 10
477.3951539778109
 20
524.4119539141827
 30
0.0
 11
89.77991997781098
 21
524.4119539141827
 31
0.0
  0
ARC
  5
430
330
1F
100
AcDbEntity
  8
0
 62
   253
370
    35
100
AcDbCircle
 10
89.77651697781098
 20
522.4229399141827
 30
0.0
 40
1.988738999999999
100
AcDbArc
 50
89.90185299999993
 51
180.0981449999999
  0
ELLIPSE
  5
431
330
1F
100
AcDbEntity
  8
0
 62
   253
370
    35
100
AcDbEllipse
 10
87.78573297781099
 20
415.2100499141828
 30
0.0
 11
0.0
 21
-1.00030518
 31
0.0
210
0.0
220
0.0
230
1.0
 40
0.087476
 41
3.159042879999999
 42
3.606658729999999
  0
LINE
  5
432
330
1F
100
AcDbEntity
  8
0
 62
   253
 48
0.001729
370
    35
100
AcDbLine
 10
87.74648797781097
 20
416.1040929141828
 30
0.0
 11
87.73630997781097
 21
416.0356719141828
 31
0.0
  0
LINE
  5
433
330
1F
100
AcDbEntity
  8
0
 62
   253
 48
0.05415
370
    35
100
AcDbLine
 10
87.73630997781097
 20
416.0356719141828
 30
0.0
 11
87.73630997781097
 21
418.2016879141827
 31
0.0
  0
LINE
  5
434
330
1F
100
AcDbEntity
  8
0
 62
   253
 48
0.00021
370
    35
100
AcDbLine
 10
87.73630997781097
 20
418.2016879141827
 30
0.0
 11
87.74454997781097
 21
418.2033359141827
 31
0.0
  0
ELLIPSE
  5
435
330
1F
100
AcDbEntity
  8
0
 62
   253
370
    35
100
AcDbEllipse
 10
87.74378697781099
 20
418.7032749141827
 30
0.0
 11
0.0
 21
-0.5
 31
0.0
210
0.0
220
0.0
230
1.0
 40
0.087489
 41
0.01745329
 42
1.57079633
  0
ELLIPSE
  5
436
330
1F
100
AcDbEntity
  8
0
 62
   253
370
    35
100
AcDbEllipse
 10
479.4312869778109
 20
418.7032749141827
 30
0.0
 11
0.0
 21
-0.5
 31
0.0
210
0.0
220
0.0
230
1.0
 40
0.087489
 41
4.71238898
 42
6.265732009999999
  0
LINE
  5
437
330
1F
100
AcDbEntity
  8
0
 62
   253
 48
0.001729
370
    35
100
AcDbLine
 10
479.428600977811
 20
416.1040929141828
 30
0.0
 11
479.4387939778109
 21
416.0356719141828
 31
0.0
  0
ELLIPSE
  5
438
330
1F
100
AcDbEntity
  8
0
 62
   253
370
    35
100
AcDbEllipse
 10
479.3893559778109
 20
415.2102329141827
 30
0.0
 11
0.0
 21
-1.000122069999999
 31
0.0
210
0.0
220
0.0
230
1.0
 40
0.087483
 41
2.676486189999999
 42
3.1241407
  0
LINE
  5
439
330
1F
100
AcDbEntity
  8
0
 62
   253
 48
0.000212
370
    35
100
AcDbLine
 10
479.4387939778109
 20
418.2016879141827
 30
0.0
 11
479.4304929778109
 21
418.2033359141827
 31
0.0
  0
LINE
  5
43A
330
1F
100
AcDbEntity
  8
0
 62
   253
 48
0.05415
370
    35
100
AcDbLine
 10
479.4387939778109
 20
416.0356719141828
 30
0.0
 11
479.4387939778109
 21
418.2016879141827
 31
0.0
  0
ELLIPSE
  5
43B
330
1F
100
AcDbEntity
  8
0
 62
   253
370
    35
100
AcDbEllipse
 10
88.28229997781098
 20
416.2101719141827
 30
0.0
 11
0.09783936
 21
-0.4903259300000001
 31
0.0
210
0.0
220
0.0
230
1.0
 40
0.996044
 41
4.51622155
 42
6.0854968
  0
LINE
  5
43C
330
1F
100
AcDbEntity
  8
0
 62
   253
 48
0.001589
370
    35
100
AcDbLine
 10
88.34463197781099
 20
415.7226839141827
 30
0.0
 11
88.28229997781098
 21
415.7102939141827
 31
0.0
  0
LINE
  5
43D
330
1F
100
AcDbEntity
  8
0
 62
   253
 48
0.001588
370
    35
100
AcDbLine
 10
478.830456977811
 20
415.7226839141827
 30
0.0
 11
478.892773977811
 21
415.7102939141827
 31
0.0
  0
ELLIPSE
  5
43E
330
1F
100
AcDbEntity
  8
0
 62
   253
370
    35
100
AcDbEllipse
 10
478.892773977811
 20
416.2101719141827
 30
0.0
 11
0.09783936
 21
0.4903259300000001
 31
0.0
210
0.0
220
0.0
230
1.0
 40
0.996044
 41
3.33928116
 42
4.90855641
  0
LINE
  5
43F
330
1F
100
AcDbEntity
  8
0
 62
   253
370
    35
100
AcDbLine
 10
89.83892497781098
 20
415.7466099141827
 30
0.0
 11
138.087536977811
 21
415.7466099141827
 31
0.0
  0
LINE
  5
440
330
1F
100
AcDbEntity
  8
0
 62
   253
 48
0.001736
370
    35
100
AcDbLine
 10
138.087536977811
 20
415.6771519141828
 30
0.0
 11
138.087536977811
 21
415.7466099141827
 31
0.0
  0
ARC
  5
441
330
1F
100
AcDbEntity
  8
0
 62
   253
370
    35
100
AcDbCircle
 10
158.0627259778109
 20
2511.754116914183
 30
0.0
 40
2096.199158
100
AcDbArc
 50
269.4901849999999
 51
270.014348
  0
LINE
  5
442
330
1F
100
AcDbEntity
  8
0
 62
   253
370
    35
100
AcDbLine
 10
158.587536977811
 20
415.5546539141828
 30
0.0
 11
228.587536977811
 21
415.5546539141828
 31
0.0
  0
ARC
  5
443
330
1F
100
AcDbEntity
  8
0
 62
   253
370
    35
100
AcDbCircle
 10
229.114086977811
 20
2512.412319914183
 30
0.0
 40
2096.857247
100
AcDbArc
 50
269.9856130000001
 51
270.5096120000001
  0
LINE
  5
444
330
1F
100
AcDbEntity
  8
0
 62
   253
 48
0.001736
370
    35
100
AcDbLine
 10
249.087536977811
 20
415.7466099141827
 30
0.0
 11
249.087536977811
 21
415.6771519141828
 31
0.0
  0
LINE
  5
445
330
1F
100
AcDbEntity
  8
0
 62
   253
370
    35
100
AcDbLine
 10
249.087536977811
 20
415.7466099141827
 30
0.0
 11
318.0875369778109
 21
415.7466099141827
 31
0.0
  0
LINE
  5
446
330
1F
100
AcDbEntity
  8
0
 62
   253
 48
0.001736
370
    35
100
AcDbLine
 10
318.0875369778109
 20
415.7466099141827
 30
0.0
 11
318.0875369778109
 21
415.6771519141828
 31
0.0
  0
ARC
  5
447
330
1F
100
AcDbEntity
  8
0
 62
   253
370
    35
100
AcDbCircle
 10
338.061352977811
 20
2512.276089914183
 30
0.0
 40
2096.721102
100
AcDbArc
 50
269.4903490000001
 51
270.0143819999999
  0
LINE
  5
448
330
1F
100
AcDbEntity
  8
0
 62
   253
370
    35
100
AcDbLine
 10
338.5875369778109
 20
415.5546539141828
 30
0.0
 11
408.5875369778109
 21
415.5546539141828
 31
0.0
  0
ARC
  5
449
330
1F
100
AcDbEntity
  8
0
 62
   253
370
    35
100
AcDbCircle
 10
409.113720977811
 20
2512.274380914183
 30
0.0
 40
2096.719374
100
AcDbArc
 50
269.9856200000001
 51
270.509653
  0
LINE
  5
44A
330
1F
100
AcDbEntity
  8
0
 62
   253
 48
0.001736
370
    35
100
AcDbLine
 10
429.0875369778109
 20
415.6771519141828
 30
0.0
 11
429.0875369778109
 21
415.7466099141827
 31
0.0
  0
LINE
  5
44B
330
1F
100
AcDbEntity
  8
0
 62
   253
370
    35
100
AcDbLine
 10
429.0875369778109
 20
415.7466099141827
 30
0.0
 11
477.336132977811
 21
415.7466099141827
 31
0.0
  0
LINE
  5
44C
330
1F
100
AcDbEntity
  8
0
 62
   253
 48
0.099519
370
    35
100
AcDbLine
 10
138.587536977811
 20
420.2273229141828
 30
0.0
 11
138.587536977811
 21
416.2465489141827
 31
0.0
  0
ARC
  5
44D
330
1F
100
AcDbEntity
  8
0
 62
   253
370
    35
100
AcDbCircle
 10
140.597866977811
 20
420.2323269141827
 30
0.0
 40
2.009978999999999
100
AcDbArc
 50
118.2594939999999
 51
180.141995
  0
ARC
  5
44E
330
1F
100
AcDbEntity
  8
0
 62
   253
370
    35
100
AcDbCircle
 10
158.583355977811
 20
386.5600249141828
 30
0.0
 40
40.184578
100
AcDbArc
 50
89.99405300000008
 51
118.115732
  0
LINE
  5
44F
330
1F
100
AcDbEntity
  8
0
 62
   253
370
    35
100
AcDbLine
 10
158.587536977811
 20
426.7447789141827
 30
0.0
 11
228.587536977811
 21
426.7447789141827
 31
0.0
  0
ARC
  5
450
330
1F
100
AcDbEntity
  8
0
 62
   253
370
    35
100
AcDbCircle
 10
228.591747977811
 20
386.5601469141828
 30
0.0
 40
40.18446599999999
100
AcDbArc
 50
61.88422500000008
 51
90.00599299999999
  0
ARC
  5
451
330
1F
100
AcDbEntity
  8
0
 62
   253
370
    35
100
AcDbCircle
 10
246.577190977811
 20
420.2323269141827
 30
0.0
 40
2.009978999999999
100
AcDbArc
 50
359.85801
 51
61.74050500000005
  0
LINE
  5
452
330
1F
100
AcDbEntity
  8
0
 62
   253
 48
0.099519
370
    35
100
AcDbLine
 10
248.587536977811
 20
420.2273229141828
 30
0.0
 11
248.587536977811
 21
416.2465489141827
 31
0.0
  0
LINE
  5
453
330
1F
100
AcDbEntity
  8
0
 62
   253
 48
0.099519
370
    35
100
AcDbLine
 10
318.587536977811
 20
420.2273229141828
 30
0.0
 11
318.587536977811
 21
416.2465489141827
 31
0.0
  0
ARC
  5
454
330
1F
100
AcDbEntity
  8
0
 62
   253
370
    35
100
AcDbCircle
 10
320.597881977811
 20
420.2322659141827
 30
0.0
 40
2.010003999999999
100
AcDbArc
 50
118.259179
 51
180.1409149999999
  0
ARC
  5
455
330
1F
100
AcDbEntity
  8
0
 62
   253
370
    35
100
AcDbCircle
 10
338.5833559778109
 20
386.5600249141828
 30
0.0
 40
40.184578
100
AcDbArc
 50
89.99405300000008
 51
118.115732
  0
LINE
  5
456
330
1F
100
AcDbEntity
  8
0
 62
   253
370
    35
100
AcDbLine
 10
338.5875369778109
 20
426.7447789141827
 30
0.0
 11
408.5875369778109
 21
426.7447789141827
 31
0.0
  0
ARC
  5
457
330
1F
100
AcDbEntity
  8
0
 62
   253
370
    35
100
AcDbCircle
 10
408.5917479778109
 20
386.5601469141828
 30
0.0
 40
40.18446599999999
100
AcDbArc
 50
61.88422500000008
 51
90.00599299999999
  0
ARC
  5
458
330
1F
100
AcDbEntity
  8
0
 62
   253
370
    35
100
AcDbCircle
 10
426.5772219778109
 20
420.2323269141827
 30
0.0
 40
2.009978999999999
100
AcDbArc
 50
359.85801
 51
61.74050500000005
  0
LINE
  5
459
330
1F
100
AcDbEntity
  8
0
 62
   253
 48
0.099519
370
    35
100
AcDbLine
 10
428.5875369778109
 20
420.2273229141828
 30
0.0
 11
428.5875369778109
 21
416.2465489141827
 31
0.0
  0
ELLIPSE
  5
45A
330
1F
100
AcDbEntity
  8
0
 62
   253
370
    35
100
AcDbEllipse
 10
138.087536977811
 20
416.1770909141827
 30
0.0
 11
-0.5
 21
0.0
 31
0.0
210
0.0
220
0.0
230
1.0
 40
0.9998479999999998
 41
1.57079633
 42
3.14159265
  0
LINE
  5
45B
330
1F
100
AcDbEntity
  8
0
 62
   253
 48
0.001736
370
    35
100
AcDbLine
 10
138.587536977811
 20
416.1770909141827
 30
0.0
 11
138.587536977811
 21
416.2465489141827
 31
0.0
  0
ELLIPSE
  5
45C
330
1F
100
AcDbEntity
  8
0
 62
   253
370
    35
100
AcDbEllipse
 10
138.087536977811
 20
416.2465489141827
 30
0.0
 11
-0.5
 21
0.0
 31
0.0
210
0.0
220
0.0
230
1.0
 40
0.9998479999999998
 41
1.57079633
 42
3.14159265
  0
LINE
  5
45D
330
1F
100
AcDbEntity
  8
0
 62
   253
 48
0.012173
370
    35
100
AcDbLine
 10
158.587536977811
 20
415.5546539141828
 30
0.0
 11
158.587536977811
 21
416.0415929141827
 31
0.0
  0
LINE
  5
45E
330
1F
100
AcDbEntity
  8
0
 62
   253
 48
0.012173
370
    35
100
AcDbLine
 10
228.587536977811
 20
415.5546539141828
 30
0.0
 11
228.587536977811
 21
416.0415929141827
 31
0.0
  0
LINE
  5
45F
330
1F
100
AcDbEntity
  8
0
 62
   253
 48
0.001736
370
    35
100
AcDbLine
 10
248.587536977811
 20
416.2465489141827
 30
0.0
 11
248.587536977811
 21
416.1770909141827
 31
0.0
  0
ELLIPSE
  5
460
330
1F
100
AcDbEntity
  8
0
 62
   253
370
    35
100
AcDbEllipse
 10
249.087536977811
 20
416.2465489141827
 30
0.0
 11
-0.5
 21
0.0
 31
0.0
210
0.0
220
0.0
230
1.0
 40
0.9998479999999998
 41
0.0
 42
1.57079633
  0
LINE
  5
461
330
1F
100
AcDbEntity
  8
0
 62
   253
 48
0.001736
370
    35
100
AcDbLine
 10
318.587536977811
 20
416.2465489141827
 30
0.0
 11
318.587536977811
 21
416.1770909141827
 31
0.0
  0
ELLIPSE
  5
462
330
1F
100
AcDbEntity
  8
0
 62
   253
370
    35
100
AcDbEllipse
 10
318.0875369778109
 20
416.2465489141827
 30
0.0
 11
-0.5
 21
0.0
 31
0.0
210
0.0
220
0.0
230
1.0
 40
0.9998479999999998
 41
1.57079633
 42
3.14159265
  0
LINE
  5
463
330
1F
100
AcDbEntity
  8
0
 62
   253
 48
0.012173
370
    35
100
AcDbLine
 10
338.5875369778109
 20
415.5546539141828
 30
0.0
 11
338.5875369778109
 21
416.0415929141827
 31
0.0
  0
LINE
  5
464
330
1F
100
AcDbEntity
  8
0
 62
   253
 48
0.012173
370
    35
100
AcDbLine
 10
408.5875369778109
 20
415.5546539141828
 30
0.0
 11
408.5875369778109
 21
416.0415929141827
 31
0.0
  0
LINE
  5
465
330
1F
100
AcDbEntity
  8
0
 62
   253
 48
0.001736
370
    35
100
AcDbLine
 10
428.5875369778109
 20
416.1770909141827
 30
0.0
 11
428.5875369778109
 21
416.2465489141827
 31
0.0
  0
ELLIPSE
  5
466
330
1F
100
AcDbEntity
  8
0
 62
   253
370
    35
100
AcDbEllipse
 10
429.0875369778109
 20
416.2465489141827
 30
0.0
 11
0.5
 21
0.0
 31
0.0
210
0.0
220
0.0
230
1.0
 40
0.9998479999999998
 41
3.14159265
 42
4.71238898
  0
LINE
  5
467
330
1F
100
AcDbEntity
  8
0
 62
   253
 48
0.2675800000000001
370
    35
100
AcDbLine
 10
158.587536977811
 20
416.0415929141827
 30
0.0
 11
158.587536977811
 21
426.7447789141827
 31
0.0
  0
LINE
  5
468
330
1F
100
AcDbEntity
  8
0
 62
   253
 48
0.2675800000000001
370
    35
100
AcDbLine
 10
228.587536977811
 20
416.0415929141827
 30
0.0
 11
228.587536977811
 21
426.7447789141827
 31
0.0
  0
LINE
  5
469
330
1F
100
AcDbEntity
  8
0
 62
   253
 48
0.2675800000000001
370
    35
100
AcDbLine
 10
338.5875369778109
 20
416.0415929141827
 30
0.0
 11
338.5875369778109
 21
426.7447789141827
 31
0.0
  0
LINE
  5
46A
330
1F
100
AcDbEntity
  8
0
 62
   253
 48
0.2675800000000001
370
    35
100
AcDbLine
 10
408.5875369778109
 20
416.0415929141827
 30
0.0
 11
408.5875369778109
 21
426.7447789141827
 31
0.0
  0
LINE
  5
46B
330
1F
100
AcDbEntity
  8
0
 62
   253
 48
0.000185
370
    35
100
AcDbLine
 10
87.74496197781099
 20
415.1939359141827
 30
0.0
 11
87.74488497781097
 21
415.2013219141827
 31
0.0
  0
LINE
  5
46C
330
1F
100
AcDbEntity
  8
0
 62
   253
370
    35
100
AcDbLine
 10
480.8788579778109
 20
525.4893459141828
 30
0.0
 11
480.8788579778109
 21
393.3004729141828
 31
0.0
  0
LINE
  5
46D
330
1F
100
AcDbEntity
  8
0
 62
   253
370
    35
100
AcDbLine
 10
88.29610897781098
 20
391.3005649141828
 30
0.0
 11
478.8789799778109
 21
391.3005649141828
 31
0.0
  0
ARC
  5
46E
330
1F
100
AcDbEntity
  8
0
 62
   253
370
    35
100
AcDbCircle
 10
478.8791019778109
 20
393.3003209141828
 30
0.0
 40
1.999774
100
AcDbArc
 50
269.9958449999999
 51
0.0041570000000082
  0
ARC
  5
46F
330
1F
100
AcDbEntity
  8
0
 62
   253
370
    35
100
AcDbCircle
 10
478.8791019778109
 20
525.4894689141829
 30
0.0
 40
1.999774
100
AcDbArc
 50
359.995843
 51
90.00415500000004
  0
LINE
  5
470
330
1F
100
AcDbEntity
  8
0
 62
   253
370
    35
100
AcDbLine
 10
86.29618497781098
 20
525.4893459141828
 30
0.0
 11
86.29618497781098
 21
393.3004729141828
 31
0.0
  0
ARC
  5
471
330
1F
100
AcDbEntity
  8
0
 62
   253
370
    35
100
AcDbCircle
 10
88.29597197781097
 20
525.4894689141829
 30
0.0
 40
1.999774
100
AcDbArc
 50
89.995843
 51
180.004161
  0
ARC
  5
472
330
1F
100
AcDbEntity
  8
0
 62
   253
370
    35
100
AcDbCircle
 10
88.29597197781097
 20
393.3003209141828
 30
0.0
 40
1.999774
100
AcDbArc
 50
179.9958389999999
 51
270.004157
  0
LINE
  5
473
330
1F
100
AcDbEntity
  8
0
 62
   253
 48
0.000108
370
    35
100
AcDbLine
 10
471.5962039778109
 20
524.4150059141827
 30
0.0
 11
471.599255977811
 21
524.4119539141827
 31
0.0
  0
LINE
  5
474
330
1F
100
AcDbEntity
  8
0
 62
   253
 48
0.000108
370
    35
100
AcDbLine
 10
469.578869977811
 20
524.4150059141827
 30
0.0
 11
469.5758179778109
 21
524.4119539141827
 31
0.0
  0
LINE
  5
475
330
1F
100
AcDbEntity
  8
0
 62
   253
 48
0.000108
370
    35
100
AcDbLine
 10
332.096203977811
 20
524.4150059141827
 30
0.0
 11
332.099255977811
 21
524.4119539141827
 31
0.0
  0
LINE
  5
476
330
1F
100
AcDbEntity
  8
0
 62
   253
 48
0.000108
370
    35
100
AcDbLine
 10
330.078869977811
 20
524.4150059141827
 30
0.0
 11
330.075817977811
 21
524.4119539141827
 31
0.0
  0
LINE
  5
477
330
1F
100
AcDbEntity
  8
0
 62
   253
 48
0.000108
370
    35
100
AcDbLine
 10
237.096203977811
 20
524.4150059141827
 30
0.0
 11
237.099255977811
 21
524.4119539141827
 31
0.0
  0
LINE
  5
478
330
1F
100
AcDbEntity
  8
0
 62
   253
 48
0.000108
370
    35
100
AcDbLine
 10
235.078869977811
 20
524.4150059141827
 30
0.0
 11
235.075817977811
 21
524.4119539141827
 31
0.0
  0
LINE
  5
479
330
1F
100
AcDbEntity
  8
0
 62
   253
 48
0.000108
370
    35
100
AcDbLine
 10
97.59620397781098
 20
524.4150059141827
 30
0.0
 11
97.59927097781099
 21
524.4119539141827
 31
0.0
  0
LINE
  5
47A
330
1F
100
AcDbEntity
  8
0
 62
   253
 48
0.000108
370
    35
100
AcDbLine
 10
95.57886997781098
 20
524.4150059141827
 30
0.0
 11
95.57580297781099
 21
524.4119539141827
 31
0.0
  0
LINE
  5
47B
330
1F
100
AcDbEntity
  8
0
 62
     7
 48
0.018748
370
    35
100
AcDbLine
 10
492.5875369778109
 20
593.4839749141826
 30
0.0
 11
492.5875369778109
 21
594.2339139141827
 31
0.0
  0
LINE
  5
47C
330
1F
100
AcDbEntity
  8
0
 62
     7
 48
0.018748
370
    35
100
AcDbLine
 10
74.58753697781098
 20
593.4839749141826
 30
0.0
 11
74.58753697781098
 21
594.2339139141827
 31
0.0
  0
LINE
  5
47D
330
1F
100
AcDbEntity
  8
0
 62
     7
 48
0.00145
370
    35
100
AcDbLine
 10
74.58753697781098
 20
594.2339139141827
 30
0.0
 11
74.58753697781098
 21
594.2918979141827
 31
0.0
  0
LINE
  5
47E
330
1F
100
AcDbEntity
  8
0
 62
     7
370
    35
100
AcDbLine
 10
492.5875369778109
 20
594.2918979141827
 30
0.0
 11
74.58753697781098
 21
594.2918979141827
 31
0.0
  0
LINE
  5
47F
330
1F
100
AcDbEntity
  8
0
 62
     7
 48
0.00145
370
    35
100
AcDbLine
 10
492.5875369778109
 20
594.2339139141827
 30
0.0
 11
492.5875369778109
 21
594.2918979141827
 31
0.0
  0
LINE
  5
480
330
1F
100
AcDbEntity
  8
0
 62
     7
 48
0.00174
370
    35
100
AcDbLine
 10
59.87876597781099
 20
584.4400909141827
 30
0.0
 11
59.84020697781097
 21
584.4980129141827
 31
0.0
  0
ARC
  5
481
330
1F
100
AcDbEntity
  8
0
 62
     7
370
    35
100
AcDbCircle
 10
74.58753697781098
 20
578.2918979141827
 30
0.0
 40
16.0
100
AcDbArc
 50
90.0
 51
157.177037
  0
LINE
  5
482
330
1F
100
AcDbEntity
  8
0
 62
     7
 48
0.054432
370
    35
100
AcDbLine
 10
62.86739797781098
 20
584.4189119141827
 30
0.0
 11
60.69015197781098
 21
584.4288609141826
 31
0.0
  0
LINE
  5
483
330
1F
100
AcDbEntity
  8
0
 62
     7
 48
0.049176
370
    35
100
AcDbLine
 10
74.58753697781098
 20
591.5169339141828
 30
0.0
 11
74.58753697781098
 21
593.4839749141826
 31
0.0
  0
LINE
  5
484
330
1F
100
AcDbEntity
  8
0
 62
   253
 48
0.050433
370
    35
100
AcDbLine
 10
469.578869977811
 20
524.4150059141827
 30
0.0
 11
471.5962039778109
 21
524.4150059141827
 31
0.0
  0
LINE
  5
485
330
1F
100
AcDbEntity
  8
0
 62
   253
 48
0.050433
370
    35
100
AcDbLine
 10
95.57886997781098
 20
524.4150059141827
 30
0.0
 11
97.59620397781098
 21
524.4150059141827
 31
0.0
  0
LINE
  5
486
330
1F
100
AcDbEntity
  8
0
 62
   253
 48
0.050433
370
    35
100
AcDbLine
 10
235.078869977811
 20
524.4150059141827
 30
0.0
 11
237.096203977811
 21
524.4150059141827
 31
0.0
  0
LINE
  5
487
330
1F
100
AcDbEntity
  8
0
 62
   253
 48
0.050433
370
    35
100
AcDbLine
 10
330.078869977811
 20
524.4150059141827
 30
0.0
 11
332.096203977811
 21
524.4150059141827
 31
0.0
  0
LINE
  5
488
330
1F
100
AcDbEntity
  8
0
 62
     7
 48
0.049176
370
    35
100
AcDbLine
 10
492.5875369778109
 20
591.5169339141828
 30
0.0
 11
492.5875369778109
 21
593.4839749141826
 31
0.0
  0
LINE
  5
489
330
1F
100
AcDbEntity
  8
0
 62
     7
 48
0.054432
370
    35
100
AcDbLine
 10
506.484936977811
 20
584.4288609141826
 30
0.0
 11
504.307690977811
 21
584.4189119141827
 31
0.0
  0
ARC
  5
48A
330
1F
100
AcDbEntity
  8
0
 62
     7
370
    35
100
AcDbCircle
 10
492.5875369778109
 20
578.2918979141827
 30
0.0
 40
16.0
100
AcDbArc
 50
22.82296099999997
 51
90.0
  0
LINE
  5
48B
330
1F
100
AcDbEntity
  8
0
 62
     7
 48
0.001739
370
    35
100
AcDbLine
 10
507.334850977811
 20
584.4980129141827
 30
0.0
 11
507.2963379778109
 21
584.4400909141827
 31
0.0
  0
LINE
  5
48C
330
1F
100
AcDbEntity
  8
0
 62
     7
370
    35
100
AcDbLine
 10
58.58753697781098
 20
375.4980739141828
 30
0.0
 11
58.58753697781098
 21
572.0857819141826
 31
0.0
  0
LINE
  5
48D
330
1F
100
AcDbEntity
  8
0
 62
     7
 48
0.00205
370
    35
100
AcDbLine
 10
58.58753697781098
 20
375.4980739141828
 30
0.0
 11
58.64550497781098
 21
375.4400909141828
 31
0.0
  0
LINE
  5
48E
330
1F
100
AcDbEntity
  8
0
 62
     7
 48
0.002049
370
    35
100
AcDbLine
 10
58.58753697781098
 20
572.0857819141826
 30
0.0
 11
58.64550497781098
 21
572.1437039141829
 31
0.0
  0
LINE
  5
48F
330
1F
100
AcDbEntity
  8
0
 62
     7
 48
0.049176
370
    35
100
AcDbLine
 10
61.36246997781098
 20
572.1648839141828
 30
0.0
 11
59.39544397781098
 21
572.1549349141828
 31
0.0
  0
LINE
  5
490
330
1F
100
AcDbEntity
  8
0
 62
     7
 48
0.049176
370
    35
100
AcDbLine
 10
61.36246997781098
 20
375.4189419141828
 30
0.0
 11
59.39544397781098
 21
375.4288609141828
 31
0.0
  0
LINE
  5
491
330
1F
100
AcDbEntity
  8
0
 62
     7
 48
0.018747
370
    35
100
AcDbLine
 10
74.58753697781098
 20
591.5169339141828
 30
0.0
 11
74.58753697781098
 21
590.7670559141827
 31
0.0
  0
ARC
  5
492
330
1F
100
AcDbEntity
  8
0
 62
     7
370
    35
100
AcDbCircle
 10
74.58753697781098
 20
578.2918979141827
 30
0.0
 40
12.475126
100
AcDbArc
 50
90.0
 51
150.643497
  0
LINE
  5
493
330
1F
100
AcDbEntity
  8
0
 62
     7
 48
0.000981
370
    35
100
AcDbLine
 10
63.73421997781098
 20
584.3738679141827
 30
0.0
 11
63.71438297781098
 21
584.4077419141826
 31
0.0
  0
LINE
  5
494
330
1F
100
AcDbEntity
  8
0
 62
     7
370
    35
100
AcDbLine
 10
58.58753697781098
 20
56.49804391418276
 30
0.0
 11
58.58753697781098
 21
363.0857209141828
 31
0.0
  0
LINE
  5
495
330
1F
100
AcDbEntity
  8
0
 62
     7
 48
0.002049
370
    35
100
AcDbLine
 10
58.58753697781098
 20
56.49804391418276
 30
0.0
 11
58.64550497781098
 21
56.44009091418276
 31
0.0
  0
LINE
  5
496
330
1F
100
AcDbEntity
  8
0
 62
     7
 48
0.00205
370
    35
100
AcDbLine
 10
58.58753697781098
 20
363.0857209141828
 30
0.0
 11
58.64550497781098
 21
363.1437039141828
 31
0.0
  0
LINE
  5
497
330
1F
100
AcDbEntity
  8
0
 62
     7
 48
0.049176
370
    35
100
AcDbLine
 10
61.36246997781098
 20
363.1648529141827
 30
0.0
 11
59.39544397781098
 21
363.1549349141828
 31
0.0
  0
LINE
  5
498
330
1F
100
AcDbEntity
  8
0
 62
     7
 48
0.049176
370
    35
100
AcDbLine
 10
61.36246997781098
 20
56.41894191418277
 30
0.0
 11
59.39544397781098
 21
56.42886091418276
 31
0.0
  0
LINE
  5
499
330
1F
100
AcDbEntity
  8
0
 62
     7
 48
0.018747
370
    35
100
AcDbLine
 10
492.5875369778109
 20
591.5169339141828
 30
0.0
 11
492.5875369778109
 21
590.7670559141827
 31
0.0
  0
LINE
  5
49A
330
1F
100
AcDbEntity
  8
0
 62
     7
370
    35
100
AcDbLine
 10
492.5875369778109
 20
590.7670559141827
 30
0.0
 11
74.58753697781098
 21
590.7670559141827
 31
0.0
  0
LINE
  5
49B
330
1F
100
AcDbEntity
  8
0
 62
     7
 48
0.018748
370
    35
100
AcDbLine
 10
74.58753697781098
 20
35.09981991418277
 30
0.0
 11
74.58753697781098
 21
34.34988091418276
 31
0.0
  0
LINE
  5
49C
330
1F
100
AcDbEntity
  8
0
 62
     7
 48
0.054432
370
    35
100
AcDbLine
 10
60.69015197781098
 20
44.15493491418277
 30
0.0
 11
62.86739797781098
 21
44.16485291418276
 31
0.0
  0
LINE
  5
49D
330
1F
100
AcDbEntity
  8
0
 62
     7
 48
0.049175
370
    35
100
AcDbLine
 10
74.58753697781098
 20
37.06683091418277
 30
0.0
 11
74.58753697781098
 21
35.09981991418277
 31
0.0
  0
ARC
  5
49E
330
1F
100
AcDbEntity
  8
0
 62
     7
370
    35
100
AcDbCircle
 10
492.5875369778109
 20
578.2918979141827
 30
0.0
 40
12.475126
100
AcDbArc
 50
29.35650799999999
 51
90.0
  0
LINE
  5
49F
330
1F
100
AcDbEntity
  8
0
 62
     7
 48
0.000981
370
    35
100
AcDbLine
 10
503.4607059778109
 20
584.4077419141826
 30
0.0
 11
503.440868977811
 21
584.3738679141827
 31
0.0
  0
LINE
  5
4A0
330
1F
100
AcDbEntity
  8
0
 62
     7
 48
0.049177
370
    35
100
AcDbLine
 10
505.812572977811
 20
375.4189419141828
 30
0.0
 11
507.779613977811
 21
375.4288609141828
 31
0.0
  0
LINE
  5
4A1
330
1F
100
AcDbEntity
  8
0
 62
     7
 48
0.049177
370
    35
100
AcDbLine
 10
505.812572977811
 20
572.1648839141828
 30
0.0
 11
507.779613977811
 21
572.1549349141828
 31
0.0
  0
LINE
  5
4A2
330
1F
100
AcDbEntity
  8
0
 62
     7
 48
0.002049
370
    35
100
AcDbLine
 10
508.5875369778109
 20
572.0857819141826
 30
0.0
 11
508.529552977811
 21
572.1437039141829
 31
0.0
  0
LINE
  5
4A3
330
1F
100
AcDbEntity
  8
0
 62
     7
370
    35
100
AcDbLine
 10
508.5875369778109
 20
572.0857819141826
 30
0.0
 11
508.5875369778109
 21
375.4980739141828
 31
0.0
  0
LINE
  5
4A4
330
1F
100
AcDbEntity
  8
0
 62
     7
 48
0.00205
370
    35
100
AcDbLine
 10
508.5875369778109
 20
375.4980739141828
 30
0.0
 11
508.529552977811
 21
375.4400909141828
 31
0.0
  0
LINE
  5
4A5
330
1F
100
AcDbEntity
  8
0
 62
     7
 48
0.018748
370
    35
100
AcDbLine
 10
492.5875369778109
 20
35.09981991418277
 30
0.0
 11
492.5875369778109
 21
34.34988091418276
 31
0.0
  0
LINE
  5
4A6
330
1F
100
AcDbEntity
  8
0
 62
     7
 48
0.00145
370
    35
100
AcDbLine
 10
492.5875369778109
 20
34.34988091418276
 30
0.0
 11
492.5875369778109
 21
34.29189791418277
 31
0.0
  0
LINE
  5
4A7
330
1F
100
AcDbEntity
  8
0
 62
     7
370
    35
100
AcDbLine
 10
74.58753697781098
 20
34.29189791418277
 30
0.0
 11
492.5875369778109
 21
34.29189791418277
 31
0.0
  0
LINE
  5
4A8
330
1F
100
AcDbEntity
  8
0
 62
     7
 48
0.00145
370
    35
100
AcDbLine
 10
74.58753697781098
 20
34.34988091418276
 30
0.0
 11
74.58753697781098
 21
34.29189791418277
 31
0.0
  0
ARC
  5
4A9
330
1F
100
AcDbEntity
  8
0
 62
     7
370
    35
100
AcDbCircle
 10
74.58753697781098
 20
50.29189791418277
 30
0.0
 40
16.0
100
AcDbArc
 50
202.822963
 51
270.0
  0
LINE
  5
4AA
330
1F
100
AcDbEntity
  8
0
 62
     7
 48
0.00174
370
    35
100
AcDbLine
 10
59.84020697781097
 20
44.08575091418277
 30
0.0
 11
59.87876597781099
 21
44.14370391418276
 31
0.0
  0
LINE
  5
4AB
330
1F
100
AcDbEntity
  8
0
 62
     7
370
    35
100
AcDbLine
 10
62.11240897781099
 20
56.40774191418277
 30
0.0
 11
62.11240897781099
 21
363.1760529141828
 31
0.0
  0
LINE
  5
4AC
330
1F
100
AcDbEntity
  8
0
 62
     7
 48
0.001198
370
    35
100
AcDbLine
 10
62.14628297781098
 20
363.2099279141828
 30
0.0
 11
62.11240897781099
 21
363.1760529141828
 31
0.0
  0
LINE
  5
4AD
330
1F
100
AcDbEntity
  8
0
 62
     7
 48
0.001198
370
    35
100
AcDbLine
 10
62.14628297781098
 20
375.3738679141828
 30
0.0
 11
62.11240897781099
 21
375.4077419141828
 31
0.0
  0
LINE
  5
4AE
330
1F
100
AcDbEntity
  8
0
 62
     7
370
    35
100
AcDbLine
 10
62.11240897781099
 20
375.4077419141828
 30
0.0
 11
62.11240897781099
 21
572.1760529141826
 31
0.0
  0
LINE
  5
4AF
330
1F
100
AcDbEntity
  8
0
 62
     7
 48
0.001198
370
    35
100
AcDbLine
 10
62.14628297781098
 20
572.2099279141827
 30
0.0
 11
62.11240897781099
 21
572.1760529141826
 31
0.0
  0
LINE
  5
4B0
330
1F
100
AcDbEntity
  8
0
 62
     7
 48
0.000463
370
    35
100
AcDbLine
 10
62.15037297781098
 20
572.1918609141828
 30
0.0
 11
62.14628297781098
 21
572.2099279141827
 31
0.0
  0
LINE
  5
4B1
330
1F
100
AcDbEntity
  8
0
 62
     7
 48
0.000584
370
    35
100
AcDbLine
 10
63.74903597781098
 20
584.3919339141828
 30
0.0
 11
63.73421997781098
 21
584.3738679141827
 31
0.0
  0
LINE
  5
4B2
330
1F
100
AcDbEntity
  8
0
 62
     7
 48
0.001198
370
    35
100
AcDbLine
 10
62.14628297781098
 20
56.37386791418276
 30
0.0
 11
62.11240897781099
 21
56.40774191418277
 31
0.0
  0
LINE
  5
4B3
330
1F
100
AcDbEntity
  8
0
 62
     7
 48
0.000462
370
    35
100
AcDbLine
 10
62.15037297781098
 20
363.1918919141828
 30
0.0
 11
62.14628297781098
 21
363.2099279141828
 31
0.0
  0
LINE
  5
4B4
330
1F
100
AcDbEntity
  8
0
 62
     7
 48
0.000462
370
    35
100
AcDbLine
 10
62.15037297781098
 20
375.3919039141828
 30
0.0
 11
62.14628297781098
 21
375.3738679141828
 31
0.0
  0
LINE
  5
4B5
330
1F
100
AcDbEntity
  8
0
 62
   253
370
    35
100
AcDbLine
 10
88.29610897781098
 20
527.4892849141827
 30
0.0
 11
478.8789799778109
 21
527.4892849141827
 31
0.0
  0
LINE
  5
4B6
330
1F
100
AcDbEntity
  8
0
 62
     7
 48
0.049998
370
    13
100
AcDbLine
 10
64.48469297781098
 20
565.5945709141827
 30
0.0
 11
62.48476897781098
 21
565.5945709141827
 31
0.0
  0
LINE
  5
4B7
330
1F
100
AcDbEntity
  8
0
 62
     7
 48
0.049175
370
    35
100
AcDbLine
 10
492.5875369778109
 20
37.06683091418277
 30
0.0
 11
492.5875369778109
 21
35.09981991418277
 31
0.0
  0
ARC
  5
4B8
330
1F
100
AcDbEntity
  8
0
 62
     7
370
    35
100
AcDbCircle
 10
74.58753697781098
 20
50.29189791418277
 30
0.0
 40
12.475126
100
AcDbArc
 50
209.356503
 51
270.0
  0
LINE
  5
4B9
330
1F
100
AcDbEntity
  8
0
 62
     7
 48
0.018748
370
    35
100
AcDbLine
 10
74.58753697781098
 20
37.06683091418277
 30
0.0
 11
74.58753697781098
 21
37.81676991418276
 31
0.0
  0
LINE
  5
4BA
330
1F
100
AcDbEntity
  8
0
 62
     7
 48
0.000981
370
    35
100
AcDbLine
 10
63.71438297781098
 20
44.17605291418276
 30
0.0
 11
63.73421997781098
 21
44.20992791418277
 31
0.0
  0
LINE
  5
4BB
330
1F
100
AcDbEntity
  8
0
 62
     7
 48
0.049177
370
    35
100
AcDbLine
 10
505.812572977811
 20
363.1648529141827
 30
0.0
 11
507.779613977811
 21
363.1549349141828
 31
0.0
  0
LINE
  5
4BC
330
1F
100
AcDbEntity
  8
0
 62
     7
 48
0.049177
370
    35
100
AcDbLine
 10
505.812572977811
 20
56.41894191418277
 30
0.0
 11
507.779613977811
 21
56.42886091418276
 31
0.0
  0
LINE
  5
4BD
330
1F
100
AcDbEntity
  8
0
 62
     7
 48
0.00205
370
    35
100
AcDbLine
 10
508.5875369778109
 20
363.0857209141828
 30
0.0
 11
508.529552977811
 21
363.1437039141828
 31
0.0
  0
LINE
  5
4BE
330
1F
100
AcDbEntity
  8
0
 62
     7
370
    35
100
AcDbLine
 10
508.5875369778109
 20
363.0857209141828
 30
0.0
 11
508.5875369778109
 21
56.49804391418276
 31
0.0
  0
LINE
  5
4BF
330
1F
100
AcDbEntity
  8
0
 62
     7
 48
0.002049
370
    35
100
AcDbLine
 10
508.5875369778109
 20
56.49804391418276
 30
0.0
 11
508.529552977811
 21
56.44009091418276
 31
0.0
  0
LINE
  5
4C0
330
1F
100
AcDbEntity
  8
0
 62
     7
370
    35
100
AcDbLine
 10
505.062695977811
 20
363.1760529141828
 30
0.0
 11
505.062695977811
 21
56.40774191418277
 31
0.0
  0
LINE
  5
4C1
330
1F
100
AcDbEntity
  8
0
 62
     7
 48
0.049998
370
    13
100
AcDbLine
 10
502.6903809778109
 20
565.5945709141827
 30
0.0
 11
504.6903199778109
 21
565.5945709141827
 31
0.0
  0
LINE
  5
4C2
330
1F
100
AcDbEntity
  8
0
 62
     7
 48
0.000584
370
    35
100
AcDbLine
 10
503.426037977811
 20
584.3919339141828
 30
0.0
 11
503.440868977811
 21
584.3738679141827
 31
0.0
  0
LINE
  5
4C3
330
1F
100
AcDbEntity
  8
0
 62
     7
 48
0.000463
370
    35
100
AcDbLine
 10
505.024731977811
 20
572.1918609141828
 30
0.0
 11
505.0287599778109
 21
572.2099279141827
 31
0.0
  0
LINE
  5
4C4
330
1F
100
AcDbEntity
  8
0
 62
     7
 48
0.001199
370
    35
100
AcDbLine
 10
505.0287599778109
 20
572.2099279141827
 30
0.0
 11
505.062695977811
 21
572.1760529141826
 31
0.0
  0
LINE
  5
4C5
330
1F
100
AcDbEntity
  8
0
 62
     7
370
    35
100
AcDbLine
 10
505.062695977811
 20
572.1760529141826
 30
0.0
 11
505.062695977811
 21
375.4077419141828
 31
0.0
  0
LINE
  5
4C6
330
1F
100
AcDbEntity
  8
0
 62
     7
 48
0.001199
370
    35
100
AcDbLine
 10
505.0287599778109
 20
375.3738679141828
 30
0.0
 11
505.062695977811
 21
375.4077419141828
 31
0.0
  0
LINE
  5
4C7
330
1F
100
AcDbEntity
  8
0
 62
     7
 48
0.000462
370
    35
100
AcDbLine
 10
505.024731977811
 20
375.3919039141828
 30
0.0
 11
505.0287599778109
 21
375.3738679141828
 31
0.0
  0
LINE
  5
4C8
330
1F
100
AcDbEntity
  8
0
 62
     7
 48
0.000462
370
    35
100
AcDbLine
 10
505.024731977811
 20
363.1918919141828
 30
0.0
 11
505.0287599778109
 21
363.2099279141828
 31
0.0
  0
LINE
  5
4C9
330
1F
100
AcDbEntity
  8
0
 62
     7
 48
0.001199
370
    35
100
AcDbLine
 10
505.0287599778109
 20
363.2099279141828
 30
0.0
 11
505.062695977811
 21
363.1760529141828
 31
0.0
  0
LINE
  5
4CA
330
1F
100
AcDbEntity
  8
0
 62
     7
 48
0.018748
370
    35
100
AcDbLine
 10
492.5875369778109
 20
37.06683091418277
 30
0.0
 11
492.5875369778109
 21
37.81676991418276
 31
0.0
  0
ARC
  5
4CB
330
1F
100
AcDbEntity
  8
0
 62
     7
370
    35
100
AcDbCircle
 10
492.5875369778109
 20
50.29189791418277
 30
0.0
 40
12.475126
100
AcDbArc
 50
270.0
 51
330.6434919999999
  0
LINE
  5
4CC
330
1F
100
AcDbEntity
  8
0
 62
     7
 48
0.054432
370
    35
100
AcDbLine
 10
504.307690977811
 20
44.16485291418276
 30
0.0
 11
506.484936977811
 21
44.15493491418277
 31
0.0
  0
LINE
  5
4CD
330
1F
100
AcDbEntity
  8
0
 62
     7
 48
0.00174
370
    35
100
AcDbLine
 10
507.2963379778109
 20
44.14370391418276
 30
0.0
 11
507.334850977811
 21
44.08575091418277
 31
0.0
  0
ARC
  5
4CE
330
1F
100
AcDbEntity
  8
0
 62
     7
370
    35
100
AcDbCircle
 10
492.5875369778109
 20
50.29189791418277
 30
0.0
 40
16.0
100
AcDbArc
 50
270.0
 51
337.177039
  0
LINE
  5
4CF
330
1F
100
AcDbEntity
  8
0
 62
     7
 48
0.000584
370
    35
100
AcDbLine
 10
63.74903597781098
 20
44.19189191418276
 30
0.0
 11
63.73421997781098
 21
44.20992791418277
 31
0.0
  0
LINE
  5
4D0
330
1F
100
AcDbEntity
  8
0
 62
     7
 48
0.000462
370
    35
100
AcDbLine
 10
62.15037297781098
 20
56.39190391418276
 30
0.0
 11
62.14628297781098
 21
56.37386791418276
 31
0.0
  0
ARC
  5
4D1
330
1F
100
AcDbEntity
  8
0
 62
     7
370
    35
100
AcDbCircle
 10
478.0875369778109
 20
552.2918979141827
 30
0.0
 40
2.0
100
AcDbArc
 50
0.0
 51
90.0
  0
LINE
  5
4D2
330
1F
100
AcDbEntity
  8
0
 62
     7
370
    35
100
AcDbLine
 10
478.0875369778109
 20
554.2918979141827
 30
0.0
 11
435.0875369778109
 21
554.2918979141827
 31
0.0
  0
ARC
  5
4D3
330
1F
100
AcDbEntity
  8
0
 62
     7
370
    35
100
AcDbCircle
 10
435.0875369778109
 20
552.2918979141827
 30
0.0
 40
2.0
100
AcDbArc
 50
90.0
 51
180.0
  0
LINE
  5
4D4
330
1F
100
AcDbEntity
  8
0
 62
     7
 48
0.4
370
    35
100
AcDbLine
 10
433.0875369778109
 20
536.2918979141827
 30
0.0
 11
433.0875369778109
 21
552.2918979141827
 31
0.0
  0
ARC
  5
4D5
330
1F
100
AcDbEntity
  8
0
 62
     7
370
    35
100
AcDbCircle
 10
435.0875369778109
 20
536.2918979141827
 30
0.0
 40
2.0
100
AcDbArc
 50
180.0
 51
270.0
  0
LINE
  5
4D6
330
1F
100
AcDbEntity
  8
0
 62
     7
370
    35
100
AcDbLine
 10
435.0875369778109
 20
534.2918979141827
 30
0.0
 11
478.0875369778109
 21
534.2918979141827
 31
0.0
  0
ARC
  5
4D7
330
1F
100
AcDbEntity
  8
0
 62
     7
370
    35
100
AcDbCircle
 10
478.0875369778109
 20
536.2918979141827
 30
0.0
 40
2.0
100
AcDbArc
 50
270.0
 51
0.0
  0
LINE
  5
4D8
330
1F
100
AcDbEntity
  8
0
 62
     7
 48
0.4
370
    35
100
AcDbLine
 10
480.0875369778109
 20
552.2918979141827
 30
0.0
 11
480.0875369778109
 21
536.2918979141827
 31
0.0
  0
LINE
  5
4D9
330
1F
100
AcDbEntity
  8
0
 62
     7
 48
0.049998
370
    13
100
AcDbLine
 10
64.48469297781098
 20
62.98920891418276
 30
0.0
 11
62.48476897781098
 21
62.98920891418276
 31
0.0
  0
LINE
  5
4DA
330
1F
100
AcDbEntity
  8
0
 62
     7
 48
0.049998
370
    13
100
AcDbLine
 10
502.6903809778109
 20
62.98920891418276
 30
0.0
 11
504.6903199778109
 21
62.98920891418276
 31
0.0
  0
LINE
  5
4DB
330
1F
100
AcDbEntity
  8
0
 62
     7
370
    35
100
AcDbLine
 10
74.58753697781098
 20
37.81676991418276
 30
0.0
 11
492.5875369778109
 21
37.81676991418276
 31
0.0
  0
LINE
  5
4DC
330
1F
100
AcDbEntity
  8
0
 62
     7
 48
0.001199
370
    35
100
AcDbLine
 10
505.0287599778109
 20
56.37386791418276
 30
0.0
 11
505.062695977811
 21
56.40774191418277
 31
0.0
  0
LINE
  5
4DD
330
1F
100
AcDbEntity
  8
0
 62
     7
 48
0.000462
370
    35
100
AcDbLine
 10
505.024731977811
 20
56.39190391418276
 30
0.0
 11
505.0287599778109
 21
56.37386791418276
 31
0.0
  0
LINE
  5
4DE
330
1F
100
AcDbEntity
  8
0
 62
     7
 48
0.000584
370
    35
100
AcDbLine
 10
503.426037977811
 20
44.19189191418276
 30
0.0
 11
503.440868977811
 21
44.20992791418277
 31
0.0
  0
LINE
  5
4DF
330
1F
100
AcDbEntity
  8
0
 62
     7
 48
0.000981
370
    35
100
AcDbLine
 10
503.440868977811
 20
44.20992791418277
 30
0.0
 11
503.4607059778109
 21
44.17605291418276
 31
0.0
  0
CIRCLE
  5
4E0
330
1F
100
AcDbEntity
  8
0
 62
     7
370
    35
100
AcDbCircle
 10
492.5875369778109
 20
50.29189791418277
 30
0.0
 40
9.113215999999999
  0
CIRCLE
  5
4E1
330
1F
100
AcDbEntity
  8
0
 62
     7
370
    35
100
AcDbCircle
 10
74.58753697781098
 20
50.29189791418277
 30
0.0
 40
9.113215999999999
  0
CIRCLE
  5
4E2
330
1F
100
AcDbEntity
  8
0
 62
     7
370
    35
100
AcDbCircle
 10
492.5875369778109
 20
369.2918979141828
 30
0.0
 40
9.113215999999999
  0
CIRCLE
  5
4E3
330
1F
100
AcDbEntity
  8
0
 62
     7
370
    35
100
AcDbCircle
 10
74.58753697781098
 20
369.2918979141828
 30
0.0
 40
9.113215999999999
  0
CIRCLE
  5
4E4
330
1F
100
AcDbEntity
  8
0
 62
     7
370
    35
100
AcDbCircle
 10
492.5875369778109
 20
578.2918979141827
 30
0.0
 40
9.113215999999999
  0
CIRCLE
  5
4E5
330
1F
100
AcDbEntity
  8
0
 62
     7
370
    35
100
AcDbCircle
 10
74.58753697781098
 20
578.2918979141827
 30
0.0
 40
9.113215999999999
  0
ARC
  5
4E6
330
1F
100
AcDbEntity
  8
0
 62
     7
370
    35
100
AcDbCircle
 10
494.4865849778109
 20
48.97713891418277
 30
0.0
 40
8.154378999999998
100
AcDbArc
 50
323.2013070000001
 51
359.662833
  0
LINE
  5
4E7
330
1F
100
AcDbEntity
  8
0
 62
     7
 48
0.245
370
    35
100
AcDbLine
 10
492.5875369778109
 20
39.88842491418277
 30
0.0
 11
482.7875489778109
 21
39.88842491418277
 31
0.0
  0
ARC
  5
4E8
330
1F
100
AcDbEntity
  8
0
 62
     7
370
    35
100
AcDbCircle
 10
482.7869999778109
 20
40.50335391418276
 30
0.0
 40
0.614857
100
AcDbArc
 50
181.067267
 51
270.048307
  0
ELLIPSE
  5
4E9
330
1F
100
AcDbEntity
  8
0
 62
     7
370
    35
100
AcDbEllipse
 10
482.2674679778109
 20
62.98920891418276
 30
0.0
 11
0.0
 21
-25.0
 31
0.0
210
0.0
220
0.0
230
1.0
 40
0.008727
 41
5.245125179999999
 42
5.831911869999999
  0
LINE
  5
4EA
330
1F
100
AcDbEntity
  8
0
 62
     7
 48
0.233821
370
    35
100
AcDbLine
 10
501.9403809778109
 20
60.82932791418276
 30
0.0
 11
492.5875369778109
 21
60.82932791418276
 31
0.0
  0
ARC
  5
4EB
330
1F
100
AcDbEntity
  8
0
 62
     7
370
    35
100
AcDbCircle
 10
501.9403809778109
 20
60.09258691418277
 30
0.0
 40
0.736725
100
AcDbArc
 50
359.9459729999999
 51
90.00434699999992
  0
ARC
  5
4EC
330
1F
100
AcDbEntity
  8
0
 62
     7
370
    35
100
AcDbCircle
 10
-1820.574634022189
 20
61.98147291418276
 30
0.0
 40
2323.25238
100
AcDbArc
 50
359.6781029999999
 51
359.9534
  0
ARC
  5
4ED
330
1F
100
AcDbEntity
  8
0
 62
     7
370
    35
100
AcDbCircle
 10
501.9403809778109
 20
359.4919099141828
 30
0.0
 40
0.738243
100
AcDbArc
 50
270.0
 51
0.0
  0
LINE
  5
4EE
330
1F
100
AcDbEntity
  8
0
 62
     7
 48
0.233821
370
    35
100
AcDbLine
 10
501.9403809778109
 20
358.7536589141828
 30
0.0
 11
492.5875369778109
 21
358.7536589141828
 31
0.0
  0
ARC
  5
4EF
330
1F
100
AcDbEntity
  8
0
 62
     7
370
    35
100
AcDbCircle
 10
492.5875369778109
 20
369.2918979141828
 30
0.0
 40
10.538243
100
AcDbArc
 50
90.0
 51
270.0
  0
LINE
  5
4F0
330
1F
100
AcDbEntity
  8
0
 62
     7
 48
0.233821
370
    35
100
AcDbLine
 10
501.9403809778109
 20
379.8301359141828
 30
0.0
 11
492.5875369778109
 21
379.8301359141828
 31
0.0
  0
ARC
  5
4F1
330
1F
100
AcDbEntity
  8
0
 62
     7
370
    35
100
AcDbCircle
 10
501.9403809778109
 20
379.0918859141827
 30
0.0
 40
0.738243
100
AcDbArc
 50
0.0
 51
90.0
  0
LINE
  5
4F2
330
1F
100
AcDbEntity
  8
0
 62
     7
 48
0.489999
370
    35
100
AcDbLine
 10
502.678661977811
 20
379.0918859141827
 30
0.0
 11
502.678661977811
 21
359.4919099141828
 31
0.0
  0
ARC
  5
4F3
330
1F
100
AcDbEntity
  8
0
 62
     7
370
    35
100
AcDbCircle
 10
501.9403809778109
 20
568.4911779141827
 30
0.0
 40
0.736725
100
AcDbArc
 50
269.9956529999999
 51
0.054027000000047
  0
LINE
  5
4F4
330
1F
100
AcDbEntity
  8
0
 62
     7
 48
0.233821
370
    35
100
AcDbLine
 10
501.9403809778109
 20
567.7544829141827
 30
0.0
 11
492.5875369778109
 21
567.7544829141827
 31
0.0
  0
ELLIPSE
  5
4F5
330
1F
100
AcDbEntity
  8
0
 62
     7
370
    35
100
AcDbEllipse
 10
482.2674679778109
 20
565.5945709141827
 30
0.0
 11
0.0
 21
-25.0
 31
0.0
210
0.0
220
0.0
230
1.0
 40
0.008727
 41
3.592866089999999
 42
4.179652779999999
  0
ARC
  5
4F6
330
1F
100
AcDbEntity
  8
0
 62
     7
370
    35
100
AcDbCircle
 10
482.7869999778109
 20
588.0804109141827
 30
0.0
 40
0.614857
100
AcDbArc
 50
89.95169300000005
 51
178.932733
  0
LINE
  5
4F7
330
1F
100
AcDbEntity
  8
0
 62
     7
 48
0.245
370
    35
100
AcDbLine
 10
492.5875369778109
 20
588.6954009141827
 30
0.0
 11
482.7875489778109
 21
588.6954009141827
 31
0.0
  0
ARC
  5
4F8
330
1F
100
AcDbEntity
  8
0
 62
     7
370
    35
100
AcDbCircle
 10
494.4865849778109
 20
579.6066559141827
 30
0.0
 40
8.154378999999998
100
AcDbArc
 50
0.3371670000000057
 51
36.79869299999997
  0
ARC
  5
4F9
330
1F
100
AcDbEntity
  8
0
 62
     7
370
    35
100
AcDbCircle
 10
-1820.574634022189
 20
566.6023229141829
 30
0.0
 40
2323.25238
100
AcDbArc
 50
0.0466000000000108
 51
0.3218969999999772
  0
LINE
  5
4FA
330
1F
100
AcDbEntity
  8
0
 62
     7
370
    13
100
AcDbLine
 10
502.6903809778109
 20
565.5945709141827
 30
0.0
 11
64.48469297781098
 21
565.5945709141827
 31
0.0
  0
LINE
  5
4FB
330
1F
100
AcDbEntity
  8
0
 62
     7
 48
0.23382
370
    35
100
AcDbLine
 10
74.58753697781098
 20
567.7544829141827
 30
0.0
 11
65.23472297781097
 21
567.7544829141827
 31
0.0
  0
ARC
  5
4FC
330
1F
100
AcDbEntity
  8
0
 62
     7
370
    35
100
AcDbCircle
 10
65.23467697781097
 20
568.4911779141827
 30
0.0
 40
0.736725
100
AcDbArc
 50
179.945978
 51
270.004341
  0
ARC
  5
4FD
330
1F
100
AcDbEntity
  8
0
 62
     7
370
    35
100
AcDbCircle
 10
2387.749584977811
 20
566.6023229141829
 30
0.0
 40
2323.25238
100
AcDbArc
 50
179.678098
 51
179.9533959999999
  0
ARC
  5
4FE
330
1F
100
AcDbEntity
  8
0
 62
     7
370
    35
100
AcDbCircle
 10
72.68850397781098
 20
579.6066559141827
 30
0.0
 40
8.154378999999998
100
AcDbArc
 50
143.201309
 51
179.6628399999999
  0
LINE
  5
4FF
330
1F
100
AcDbEntity
  8
0
 62
     7
 48
0.245
370
    35
100
AcDbLine
 10
84.38753997781097
 20
588.6954009141827
 30
0.0
 11
74.58753697781098
 21
588.6954009141827
 31
0.0
  0
ARC
  5
500
330
1F
100
AcDbEntity
  8
0
 62
     7
370
    35
100
AcDbCircle
 10
84.38805897781097
 20
588.0804109141827
 30
0.0
 40
0.614857
100
AcDbArc
 50
1.067268999999982
 51
90.04830600000003
  0
ELLIPSE
  5
501
330
1F
100
AcDbEntity
  8
0
 62
     7
370
    35
100
AcDbEllipse
 10
84.90760497781099
 20
565.5945709141827
 30
0.0
 11
0.0
 21
25.0
 31
0.0
210
0.0
220
0.0
230
1.0
 40
0.008727
 41
5.245125179999999
 42
5.831911869999999
  0
ARC
  5
502
330
1F
100
AcDbEntity
  8
0
 62
     7
370
    35
100
AcDbCircle
 10
65.23469297781097
 20
359.4919099141828
 30
0.0
 40
0.738243
100
AcDbArc
 50
180.0
 51
270.0
  0
LINE
  5
503
330
1F
100
AcDbEntity
  8
0
 62
     7
 48
0.489999
370
    35
100
AcDbLine
 10
64.49644197781097
 20
379.0918859141827
 30
0.0
 11
64.49644197781097
 21
359.4919099141828
 31
0.0
  0
ARC
  5
504
330
1F
100
AcDbEntity
  8
0
 62
     7
370
    35
100
AcDbCircle
 10
65.23469297781097
 20
379.0918859141827
 30
0.0
 40
0.738243
100
AcDbArc
 50
90.0
 51
180.0
  0
LINE
  5
505
330
1F
100
AcDbEntity
  8
0
 62
     7
 48
0.233821
370
    35
100
AcDbLine
 10
74.58753697781098
 20
379.8301359141828
 30
0.0
 11
65.23469297781097
 21
379.8301359141828
 31
0.0
  0
ARC
  5
506
330
1F
100
AcDbEntity
  8
0
 62
     7
370
    35
100
AcDbCircle
 10
74.58753697781098
 20
369.2918979141828
 30
0.0
 40
10.538243
100
AcDbArc
 50
270.0
 51
90.0
  0
LINE
  5
507
330
1F
100
AcDbEntity
  8
0
 62
     7
 48
0.233821
370
    35
100
AcDbLine
 10
74.58753697781098
 20
358.7536589141828
 30
0.0
 11
65.23469297781097
 21
358.7536589141828
 31
0.0
  0
ARC
  5
508
330
1F
100
AcDbEntity
  8
0
 62
     7
370
    35
100
AcDbCircle
 10
84.38805897781097
 20
40.50335391418276
 30
0.0
 40
0.614857
100
AcDbArc
 50
269.951694
 51
358.932731
  0
LINE
  5
509
330
1F
100
AcDbEntity
  8
0
 62
     7
 48
0.245
370
    35
100
AcDbLine
 10
84.38753997781097
 20
39.88842491418277
 30
0.0
 11
74.58753697781098
 21
39.88842491418277
 31
0.0
  0
ARC
  5
50A
330
1F
100
AcDbEntity
  8
0
 62
     7
370
    35
100
AcDbCircle
 10
72.68850397781098
 20
48.97713891418277
 30
0.0
 40
8.154378999999998
100
AcDbArc
 50
180.33716
 51
216.798691
  0
ARC
  5
50B
330
1F
100
AcDbEntity
  8
0
 62
     7
370
    35
100
AcDbCircle
 10
2387.749584977811
 20
61.98147291418276
 30
0.0
 40
2323.25238
100
AcDbArc
 50
180.046604
 51
180.321902
  0
ARC
  5
50C
330
1F
100
AcDbEntity
  8
0
 62
     7
370
    35
100
AcDbCircle
 10
65.23467697781097
 20
60.09258691418277
 30
0.0
 40
0.736725
100
AcDbArc
 50
89.99565899999998
 51
180.054022
  0
LINE
  5
50D
330
1F
100
AcDbEntity
  8
0
 62
     7
 48
0.23382
370
    35
100
AcDbLine
 10
74.58753697781098
 20
60.82932791418276
 30
0.0
 11
65.23472297781097
 21
60.82932791418276
 31
0.0
  0
ELLIPSE
  5
50E
330
1F
100
AcDbEntity
  8
0
 62
     7
370
    35
100
AcDbEllipse
 10
84.90760497781099
 20
62.98920891418276
 30
0.0
 11
0.0
 21
25.0
 31
0.0
210
0.0
220
0.0
230
1.0
 40
0.008727
 41
3.592866089999999
 42
4.179652779999999
  0
CIRCLE
  5
50F
330
1F
100
AcDbEntity
  8
0
 62
     7
370
    35
100
AcDbCircle
 10
74.58753697781098
 20
369.2918979141828
 30
0.0
 40
4.883901999999999
  0
LINE
  5
510
330
1F
100
AcDbEntity
  8
0
 62
     7
 48
0.05
370
    35
100
AcDbLine
 10
79.08753697781098
 20
370.2918979141827
 30
0.0
 11
79.08753697781098
 21
368.2918979141827
 31
0.0
  0
LINE
  5
511
330
1F
100
AcDbEntity
  8
0
 62
     7
 48
0.225
370
    35
100
AcDbLine
 10
79.08753697781098
 20
370.2918979141827
 30
0.0
 11
70.08753697781099
 21
370.2918979141827
 31
0.0
  0
LINE
  5
512
330
1F
100
AcDbEntity
  8
0
 62
     7
 48
0.05
370
    35
100
AcDbLine
 10
70.08753697781099
 20
368.2918979141827
 30
0.0
 11
70.08753697781099
 21
370.2918979141827
 31
0.0
  0
LINE
  5
513
330
1F
100
AcDbEntity
  8
0
 62
     7
 48
0.225
370
    35
100
AcDbLine
 10
70.08753697781099
 20
368.2918979141827
 30
0.0
 11
79.08753697781098
 21
368.2918979141827
 31
0.0
  0
CIRCLE
  5
514
330
1F
100
AcDbEntity
  8
0
 62
     7
370
    35
100
AcDbCircle
 10
492.5875369778109
 20
369.2918979141828
 30
0.0
 40
4.883901999999999
  0
LINE
  5
515
330
1F
100
AcDbEntity
  8
0
 62
     7
 48
0.05
370
    35
100
AcDbLine
 10
497.0875369778109
 20
370.2918979141827
 30
0.0
 11
497.0875369778109
 21
368.2918979141827
 31
0.0
  0
LINE
  5
516
330
1F
100
AcDbEntity
  8
0
 62
     7
 48
0.225
370
    35
100
AcDbLine
 10
497.0875369778109
 20
370.2918979141827
 30
0.0
 11
488.0875369778109
 21
370.2918979141827
 31
0.0
  0
LINE
  5
517
330
1F
100
AcDbEntity
  8
0
 62
     7
 48
0.05
370
    35
100
AcDbLine
 10
488.0875369778109
 20
368.2918979141827
 30
0.0
 11
488.0875369778109
 21
370.2918979141827
 31
0.0
  0
LINE
  5
518
330
1F
100
AcDbEntity
  8
0
 62
     7
 48
0.225
370
    35
100
AcDbLine
 10
488.0875369778109
 20
368.2918979141827
 30
0.0
 11
497.0875369778109
 21
368.2918979141827
 31
0.0
  0
CIRCLE
  5
519
330
1F
100
AcDbEntity
  8
0
 62
     7
370
    35
100
AcDbCircle
 10
74.58753697781098
 20
50.29189791418277
 30
0.0
 40
4.883901999999999
  0
LINE
  5
51A
330
1F
100
AcDbEntity
  8
0
 62
     7
 48
0.05
370
    35
100
AcDbLine
 10
79.08753697781098
 20
51.29189791418276
 30
0.0
 11
79.08753697781098
 21
49.29189791418277
 31
0.0
  0
LINE
  5
51B
330
1F
100
AcDbEntity
  8
0
 62
     7
 48
0.225
370
    35
100
AcDbLine
 10
79.08753697781098
 20
51.29189791418276
 30
0.0
 11
70.08753697781099
 21
51.29189791418276
 31
0.0
  0
LINE
  5
51C
330
1F
100
AcDbEntity
  8
0
 62
     7
 48
0.05
370
    35
100
AcDbLine
 10
70.08753697781099
 20
49.29189791418277
 30
0.0
 11
70.08753697781099
 21
51.29189791418276
 31
0.0
  0
LINE
  5
51D
330
1F
100
AcDbEntity
  8
0
 62
     7
 48
0.225
370
    35
100
AcDbLine
 10
70.08753697781099
 20
49.29189791418277
 30
0.0
 11
79.08753697781098
 21
49.29189791418277
 31
0.0
  0
CIRCLE
  5
51E
330
1F
100
AcDbEntity
  8
0
 62
     7
370
    35
100
AcDbCircle
 10
492.5875369778109
 20
50.29189791418277
 30
0.0
 40
4.883901999999999
  0
LINE
  5
51F
330
1F
100
AcDbEntity
  8
0
 62
     7
 48
0.05
370
    35
100
AcDbLine
 10
497.0875369778109
 20
51.29189791418276
 30
0.0
 11
497.0875369778109
 21
49.29189791418277
 31
0.0
  0
LINE
  5
520
330
1F
100
AcDbEntity
  8
0
 62
     7
 48
0.225
370
    35
100
AcDbLine
 10
497.0875369778109
 20
51.29189791418276
 30
0.0
 11
488.0875369778109
 21
51.29189791418276
 31
0.0
  0
LINE
  5
521
330
1F
100
AcDbEntity
  8
0
 62
     7
 48
0.05
370
    35
100
AcDbLine
 10
488.0875369778109
 20
49.29189791418277
 30
0.0
 11
488.0875369778109
 21
51.29189791418276
 31
0.0
  0
LINE
  5
522
330
1F
100
AcDbEntity
  8
0
 62
     7
 48
0.225
370
    35
100
AcDbLine
 10
488.0875369778109
 20
49.29189791418277
 30
0.0
 11
497.0875369778109
 21
49.29189791418277
 31
0.0
  0
CIRCLE
  5
523
330
1F
100
AcDbEntity
  8
0
 62
     7
370
    35
100
AcDbCircle
 10
74.58753697781098
 20
578.2918979141827
 30
0.0
 40
4.883901999999999
  0
LINE
  5
524
330
1F
100
AcDbEntity
  8
0
 62
     7
 48
0.05
370
    35
100
AcDbLine
 10
79.08753697781098
 20
579.2918979141827
 30
0.0
 11
79.08753697781098
 21
577.2918979141827
 31
0.0
  0
LINE
  5
525
330
1F
100
AcDbEntity
  8
0
 62
     7
 48
0.225
370
    35
100
AcDbLine
 10
79.08753697781098
 20
579.2918979141827
 30
0.0
 11
70.08753697781099
 21
579.2918979141827
 31
0.0
  0
LINE
  5
526
330
1F
100
AcDbEntity
  8
0
 62
     7
 48
0.05
370
    35
100
AcDbLine
 10
70.08753697781099
 20
577.2918979141827
 30
0.0
 11
70.08753697781099
 21
579.2918979141827
 31
0.0
  0
LINE
  5
527
330
1F
100
AcDbEntity
  8
0
 62
     7
 48
0.225
370
    35
100
AcDbLine
 10
70.08753697781099
 20
577.2918979141827
 30
0.0
 11
79.08753697781098
 21
577.2918979141827
 31
0.0
  0
CIRCLE
  5
528
330
1F
100
AcDbEntity
  8
0
 62
     7
370
    35
100
AcDbCircle
 10
492.5875369778109
 20
578.2918979141827
 30
0.0
 40
4.883901999999999
  0
LINE
  5
529
330
1F
100
AcDbEntity
  8
0
 62
     7
 48
0.05
370
    35
100
AcDbLine
 10
497.0875369778109
 20
579.2918979141827
 30
0.0
 11
497.0875369778109
 21
577.2918979141827
 31
0.0
  0
LINE
  5
52A
330
1F
100
AcDbEntity
  8
0
 62
     7
 48
0.225
370
    35
100
AcDbLine
 10
497.0875369778109
 20
579.2918979141827
 30
0.0
 11
488.0875369778109
 21
579.2918979141827
 31
0.0
  0
LINE
  5
52B
330
1F
100
AcDbEntity
  8
0
 62
     7
 48
0.05
370
    35
100
AcDbLine
 10
488.0875369778109
 20
577.2918979141827
 30
0.0
 11
488.0875369778109
 21
579.2918979141827
 31
0.0
  0
LINE
  5
52C
330
1F
100
AcDbEntity
  8
0
 62
     7
 48
0.225
370
    35
100
AcDbLine
 10
488.0875369778109
 20
577.2918979141827
 30
0.0
 11
497.0875369778109
 21
577.2918979141827
 31
0.0
  0
LINE
  5
52D
330
1F
100
AcDbEntity
  8
0
 62
     7
370
    35
100
AcDbLine
 10
58.58753697781098
 20
50.29189791418277
 30
0.0
 11
58.58753697781098
 21
578.2918979141827
 31
0.0
  0
ARC
  5
52E
330
1F
100
AcDbEntity
  8
0
 62
     7
370
    35
100
AcDbCircle
 10
74.58753697781098
 20
50.29189791418277
 30
0.0
 40
16.0
100
AcDbArc
 50
180.0
 51
202.822963
  0
ARC
  5
52F
330
1F
100
AcDbEntity
  8
0
 62
     7
370
    35
100
AcDbCircle
 10
492.5875369778109
 20
50.29189791418277
 30
0.0
 40
16.0
100
AcDbArc
 50
337.177039
 51
0.0
  0
LINE
  5
530
330
1F
100
AcDbEntity
  8
0
 62
     7
 48
0.155154
370
    35
100
AcDbLine
 10
508.5875369778109
 20
56.49804391418276
 30
0.0
 11
508.5875369778109
 21
50.29189791418277
 31
0.0
  0
LINE
  5
531
330
1F
100
AcDbEntity
  8
0
 62
     7
 48
0.310309
370
    35
100
AcDbLine
 10
508.5875369778109
 20
375.4980739141828
 30
0.0
 11
508.5875369778109
 21
363.0857209141828
 31
0.0
  0
LINE
  5
532
330
1F
100
AcDbEntity
  8
0
 62
     7
 48
0.155153
370
    35
100
AcDbLine
 10
508.5875369778109
 20
578.2918979141827
 30
0.0
 11
508.5875369778109
 21
572.0857819141826
 31
0.0
  0
ARC
  5
533
330
1F
100
AcDbEntity
  8
0
 62
     7
370
    35
100
AcDbCircle
 10
492.5875369778109
 20
578.2918979141827
 30
0.0
 40
16.0
100
AcDbArc
 50
0.0
 51
90.0
  0
LINE
  5
534
330
1F
100
AcDbEntity
  8
0
 62
     7
370
    35
100
AcDbLine
 10
492.5875369778109
 20
594.2918979141827
 30
0.0
 11
74.58753697781098
 21
594.2918979141827
 31
0.0
  0
ARC
  5
535
330
1F
100
AcDbEntity
  8
0
 62
     7
370
    35
100
AcDbCircle
 10
74.58753697781098
 20
578.2918979141827
 30
0.0
 40
16.0
100
AcDbArc
 50
90.0
 51
180.0
  0
LINE
  5
536
330
1F
100
AcDbEntity
  8
0
 62
     7
100
AcDbLine
 10
103.589273567811
 20
501.7918979141827
 30
0.0
 11
463.5892735678108
 21
501.7918979141827
 31
0.0
  0
LINE
  5
537
330
1F
100
AcDbEntity
  8
0
 62
     7
100
AcDbLine
 10
463.5892735678108
 20
501.7918979141827
 30
0.0
 11
463.5892735678108
 21
456.7918979141827
 31
0.0
  0
LINE
  5
538
330
1F
100
AcDbEntity
  8
0
 62
     7
100
AcDbLine
 10
463.5892735678108
 20
456.7918979141827
 30
0.0
 11
103.589273567811
 21
456.7918979141827
 31
0.0
  0
LINE
  5
539
330
1F
100
AcDbEntity
  8
0
 62
     7
100
AcDbLine
 10
103.589273567811
 20
456.7918979141827
 30
0.0
 11
103.589273567811
 21
501.7918979141827
 31
0.0
  0
DIMENSION
  5
53A
330
1F
100
AcDbEntity
  8
QUOTE
 62
     7
100
AcDbDimension
  2
*D6
 10
35.47476722781097
 20
34.34988091418277
 30
0.0
 11
35.47476722781099
 21
314.9504615941828
 31
0.0
 70
   160
 71
     0
 42
559.942017
  3
Standard
100
AcDbAlignedDimension
 13
74.58753697781098
 23
594.2918979141827
 33
0.0
 14
74.58753697781098
 24
34.34988091418276
 34
0.0
 50
90.0
100
AcDbRotatedDimension
1001
ACAD
1000
DSTYLE
1002
{
1070
    41
1040
15.0
1070
   140
1040
10.0
1070
    78
1070
     8
1070
   284
1070
     8
1002
}
  0
DIMENSION
  5
53B
330
1F
100
AcDbEntity
  8
QUOTE
 62
     7
100
AcDbDimension
  2
*D7
 10
58.58753697781098
 20
16.33220592418276
 30
0.0
 11
283.725615347811
 21
16.33220592418276
 31
0.0
 70
   160
 71
     0
 42
449.9999999999999
  3
Standard
100
AcDbAlignedDimension
 13
508.5875369778109
 23
50.28952619418276
 33
0.0
 14
58.58753697781098
 24
50.35439652418276
 34
0.0
100
AcDbRotatedDimension
1001
ACAD
1000
DSTYLE
1002
{
1070
    41
1040
15.0
1070
   140
1040
10.0
1070
    78
1070
     8
1070
   284
1070
     8
1002
}
  0
TEXT
  5
53C
330
1F
100
AcDbEntity
  8
0
 62
     7
100
AcDbText
 10
88.48583537923955
 20
576.0435775041828
 30
0.0
 40
5.0
  1
GW68022N
 72
     1
 11
107.414406807811
 21
576.0435775041828
 31
0.0
100
AcDbText
  0
LWPOLYLINE
  5
53D
330
1F
100
AcDbEntity
  8
0
 62
   253
370
    35
100
AcDbPolyline
 90
        8
 70
     0
 43
0.0
 10
139.6463589778109
 20
408.1757479141827
 10
139.395504977811
 20
408.3348659141828
 10
139.172192977811
 20
408.5290189141828
 10
138.9814119778109
 20
408.7532619141827
 10
138.794826977811
 20
409.0644199141827
 10
138.666286977811
 20
409.4023709141827
 10
138.598385977811
 20
409.7553379141827
 10
138.587536977811
 20
409.9652989141827
  0
LWPOLYLINE
  5
53E
330
1F
100
AcDbEntity
  8
0
 62
   253
370
    35
100
AcDbPolyline
 90
        9
 70
     0
 43
0.0
 10
247.528698977811
 20
408.1757479141827
 10
247.779583977811
 20
408.3348659141828
 10
248.002911977811
 20
408.5290799141827
 10
248.193676977811
 20
408.7533229141827
 10
248.347637977811
 20
408.9999059141828
 10
248.464580977811
 20
409.2648589141827
 10
248.543377977811
 20
409.5425689141827
 10
248.576488977811
 20
409.7534459141827
 10
248.587536977811
 20
409.9652989141827
  0
LWPOLYLINE
  5
53F
330
1F
100
AcDbEntity
  8
0
 62
   253
370
    35
100
AcDbPolyline
 90
        9
 70
     0
 43
0.0
 10
427.528698977811
 20
408.1757479141827
 10
427.779613977811
 20
408.3348659141828
 10
428.0028809778109
 20
408.5290799141827
 10
428.193676977811
 20
408.7533229141827
 10
428.3476079778109
 20
408.9999059141828
 10
428.4645509778109
 20
409.2648589141827
 10
428.5434079778109
 20
409.5425689141827
 10
428.576488977811
 20
409.7534459141827
 10
428.5875369778109
 20
409.9652989141827
  0
LWPOLYLINE
  5
540
330
1F
100
AcDbEntity
  8
0
 62
   253
370
    35
100
AcDbPolyline
 90
        8
 70
     0
 43
0.0
 10
319.646374977811
 20
408.1757479141827
 10
319.3954899778109
 20
408.3348659141828
 10
319.1721929778109
 20
408.5290189141828
 10
318.981396977811
 20
408.7533229141827
 10
318.794811977811
 20
409.0644199141827
 10
318.666271977811
 20
409.4023709141827
 10
318.598400977811
 20
409.7553379141827
 10
318.587536977811
 20
409.9652989141827
  0
LWPOLYLINE
  5
541
330
1F
100
AcDbEntity
  8
0
 62
   253
370
    35
100
AcDbPolyline
 90
       15
 70
     0
 43
0.0
 10
408.5875369778109
 20
401.3910799141827
 10
408.6637999778109
 20
401.3911709141828
 10
410.3448609778109
 20
401.4347809141827
 10
412.0128909778109
 20
401.5570339141827
 10
413.6736569778109
 20
401.7571689141828
 10
415.3215459778109
 20
402.0338409141827
 10
416.9530149778109
 20
402.3857699141827
 10
418.5670289778109
 20
402.8123439141827
 10
419.9226199778109
 20
403.2326329141827
 10
421.270092977811
 20
403.7084019141827
 10
422.598400977811
 20
404.2362949141828
 10
423.9033939778109
 20
404.8141759141827
 10
425.180798977811
 20
405.4394809141827
 10
426.4291509778109
 20
406.1109899141827
 10
427.7514769778109
 20
406.8923619141827
  0
LWPOLYLINE
  5
542
330
1F
100
AcDbEntity
  8
0
 62
   253
370
    35
100
AcDbPolyline
 90
       12
 70
     0
 43
0.0
 10
427.7514769778109
 20
406.8923619141827
 10
427.9705319778109
 20
407.0672879141827
 10
428.1065799778109
 20
407.2218899141827
 10
428.288647977811
 20
407.5050319141827
 10
428.334301977811
 20
407.6011019141827
 10
428.396496977811
 20
407.7901279141827
 10
428.410107977811
 20
407.9252599141828
 10
428.3969239778109
 20
408.0121739141827
 10
428.2968259778109
 20
408.1505399141827
 10
428.2169919778109
 20
408.1890529141827
 10
428.122265977811
 20
408.2093779141827
 10
428.0362059778109
 20
408.2138949141827
  0
LWPOLYLINE
  5
543
330
1F
100
AcDbEntity
  8
0
 62
   253
370
    35
100
AcDbPolyline
 90
       12
 70
     0
 43
0.0
 10
319.423595977811
 20
406.8923619141827
 10
319.201977977811
 20
407.0698519141827
 10
319.065929977811
 20
407.2252469141828
 10
318.939403977811
 20
407.4104279141828
 10
318.8391539778109
 20
407.6047639141827
 10
318.777813977811
 20
407.7936679141827
 10
318.765118977811
 20
407.9287999141827
 10
318.779369977811
 20
408.0160189141827
 10
318.875164977811
 20
408.1484039141828
 10
318.928387977811
 20
408.1777619141828
 10
319.0109379778109
 20
408.2027859141827
 10
319.138836977811
 20
408.2138949141827
  0
LWPOLYLINE
  5
544
330
1F
100
AcDbEntity
  8
0
 62
   253
370
    35
100
AcDbPolyline
 90
       16
 70
     0
 43
0.0
 10
338.5875369778109
 20
401.3910799141827
 10
337.181499977811
 20
401.4190339141827
 10
335.7739079778109
 20
401.5030489141827
 10
334.360668977811
 20
401.6437649141828
 10
332.954845977811
 20
401.8402379141827
 10
331.559460977811
 20
402.0914579141827
 10
330.1761599778109
 20
402.3968169141827
 10
328.8085449778109
 20
402.7550319141828
 10
327.452648977811
 20
403.1668979141827
 10
326.102764977811
 20
403.6348539141827
 10
324.771313977811
 20
404.1551789141827
 10
323.460583977811
 20
404.7267729141827
 10
322.176037977811
 20
405.3467679141827
 10
320.925976977811
 20
406.0103429141827
 10
319.7076229778109
 20
406.7181059141828
 10
319.423595977811
 20
406.8923619141827
  0
LWPOLYLINE
  5
545
330
1F
100
AcDbEntity
  8
0
 62
   253
370
    35
100
AcDbPolyline
 90
       15
 70
     0
 43
0.0
 10
228.587536977811
 20
401.3910799141827
 10
228.663799977811
 20
401.3911709141828
 10
230.344860977811
 20
401.4347809141827
 10
232.012890977811
 20
401.5570339141827
 10
233.673656977811
 20
401.7571689141828
 10
235.321545977811
 20
402.0338409141827
 10
236.953014977811
 20
402.3857699141827
 10
238.567028977811
 20
402.8123439141827
 10
239.922619977811
 20
403.2326329141827
 10
241.270061977811
 20
403.7084019141827
 10
242.598431977811
 20
404.2362949141828
 10
243.903423977811
 20
404.8141759141827
 10
245.180798977811
 20
405.4394809141827
 10
246.429150977811
 20
406.1109899141827
 10
247.751476977811
 20
406.8923619141827
  0
LWPOLYLINE
  5
546
330
1F
100
AcDbEntity
  8
0
 62
   253
370
    35
100
AcDbPolyline
 90
       12
 70
     0
 43
0.0
 10
247.751476977811
 20
406.8923619141827
 10
247.973095977811
 20
407.0698519141827
 10
248.109142977811
 20
407.2252469141828
 10
248.235668977811
 20
407.4104279141828
 10
248.335918977811
 20
407.6047639141827
 10
248.397259977811
 20
407.7936679141827
 10
248.409954977811
 20
407.9287999141827
 10
248.395702977811
 20
408.0160189141827
 10
248.299908977811
 20
408.1484039141828
 10
248.246685977811
 20
408.1777619141828
 10
248.164135977811
 20
408.2027859141827
 10
248.036236977811
 20
408.2138949141827
  0
LWPOLYLINE
  5
547
330
1F
100
AcDbEntity
  8
0
 62
   253
370
    35
100
AcDbPolyline
 90
       17
 70
     0
 43
0.0
 10
139.423611977811
 20
406.8923619141827
 10
140.1178099778109
 20
406.4727449141828
 10
141.318264977811
 20
405.7954989141827
 10
142.5477419778109
 20
405.1610989141828
 10
143.811901977811
 20
404.5675939141828
 10
145.100399977811
 20
404.0210239141827
 10
146.4101379778109
 20
403.5231599141828
 10
147.736477977811
 20
403.0759549141827
 10
149.071545977811
 20
402.6817289141828
 10
150.418072977811
 20
402.3393219141827
 10
151.767162977811
 20
402.0505039141827
 10
153.127529977811
 20
401.8130769141827
 10
154.497463977811
 20
401.6277129141827
 10
155.518444977811
 20
401.5242589141827
 10
156.541714977811
 20
401.4502839141827
 10
157.565441977811
 20
401.4058499141827
 10
158.587536977811
 20
401.3910799141827
  0
LWPOLYLINE
  5
548
330
1F
100
AcDbEntity
  8
0
 62
   253
370
    35
100
AcDbPolyline
 90
       12
 70
     0
 43
0.0
 10
139.423611977811
 20
406.8923619141827
 10
139.2045109778109
 20
407.0672879141827
 10
139.068493977811
 20
407.2218899141827
 10
138.886440977811
 20
407.5050319141827
 10
138.840740977811
 20
407.6011019141827
 10
138.7785619778109
 20
407.7901279141827
 10
138.764996977811
 20
407.9252599141828
 10
138.7781799778109
 20
408.0121739141827
 10
138.878246977811
 20
408.1505399141827
 10
138.958080977811
 20
408.1890529141827
 10
139.052792977811
 20
408.2093779141827
 10
139.1388369778109
 20
408.2138949141827
  0
LWPOLYLINE
  5
549
330
1F
100
AcDbEntity
  8
0
 62
   253
370
    35
100
AcDbPolyline
 90
        4
 70
     0
 43
0.0
 10
363.4047669778109
 20
404.8905919141827
 10
363.400555977811
 20
404.7779209141827
 10
363.4085509778109
 20
404.5337189141827
 10
363.379131977811
 20
404.1339389141827
  0
LWPOLYLINE
  5
54A
330
1F
100
AcDbEntity
  8
0
 62
   253
370
    35
100
AcDbPolyline
 90
        4
 70
     0
 43
0.0
 10
383.795940977811
 20
404.1339389141827
 10
383.768658977811
 20
404.6084259141827
 10
383.774639977811
 20
404.8015409141827
 10
383.7703069778109
 20
404.8905919141827
  0
LWPOLYLINE
  5
54B
330
1F
100
AcDbEntity
  8
0
 62
   253
370
    35
100
AcDbPolyline
 90
        3
 70
     0
 43
0.0
 10
363.609631977811
 20
401.3733189141827
 10
363.535412977811
 20
401.3975499141827
 10
363.4622619778109
 20
401.3966039141827
  0
LWPOLYLINE
  5
54C
330
1F
100
AcDbEntity
  8
0
 62
   253
370
    35
100
AcDbPolyline
 90
        3
 70
     0
 43
0.0
 10
383.565441977811
 20
401.3733189141827
 10
383.639660977811
 20
401.3975499141827
 10
383.712810977811
 20
401.3966039141827
  0
LWPOLYLINE
  5
54D
330
1F
100
AcDbEntity
  8
0
 62
   253
370
    35
100
AcDbPolyline
 90
        4
 70
     0
 43
0.0
 10
183.3791319778109
 20
404.1339389141827
 10
183.4064149778109
 20
404.6084259141827
 10
183.400433977811
 20
404.8015409141827
 10
183.404766977811
 20
404.8905919141827
  0
LWPOLYLINE
  5
54E
330
1F
100
AcDbEntity
  8
0
 62
   253
370
    35
100
AcDbPolyline
 90
        4
 70
     0
 43
0.0
 10
203.770306977811
 20
404.8905919141827
 10
203.774517977811
 20
404.7779209141827
 10
203.766521977811
 20
404.5337189141827
 10
203.795940977811
 20
404.1339389141827
  0
LWPOLYLINE
  5
54F
330
1F
100
AcDbEntity
  8
0
 62
   253
370
    35
100
AcDbPolyline
 90
        3
 70
     0
 43
0.0
 10
203.565441977811
 20
401.3733189141827
 10
203.639660977811
 20
401.3975499141827
 10
203.712810977811
 20
401.3966039141827
  0
LWPOLYLINE
  5
550
330
1F
100
AcDbEntity
  8
0
 62
   253
370
    35
100
AcDbPolyline
 90
        3
 70
     0
 43
0.0
 10
183.6096319778109
 20
401.3733189141827
 10
183.5354129778109
 20
401.3975499141827
 10
183.462261977811
 20
401.3966039141827
  0
LWPOLYLINE
  5
551
330
1F
100
AcDbEntity
  8
0
 62
   253
370
    35
100
AcDbPolyline
 90
       14
 70
     0
 43
0.0
 10
140.291790977811
 20
407.8360259141827
 10
140.553326977811
 20
407.7149319141827
 10
140.873226977811
 20
407.5878569141828
 10
141.6357999778109
 20
407.3295559141827
 10
142.4716459778109
 20
407.0834019141828
 10
143.854137977811
 20
406.7205479141827
 10
145.739071977811
 20
406.2852449141828
 10
147.732464977811
 20
405.8891269141827
 10
149.7274289778109
 20
405.5581329141827
 10
151.7245909778109
 20
405.2933019141828
 10
153.747402977811
 20
405.0935329141827
 10
155.804974977811
 20
404.9612089141827
 10
157.889950977811
 20
404.9000519141827
 10
158.587536977811
 20
404.8959629141827
  0
LWPOLYLINE
  5
552
330
1F
100
AcDbEntity
  8
0
 62
   253
370
    35
100
AcDbPolyline
 90
       14
 70
     0
 43
0.0
 10
426.883251977811
 20
407.8360259141827
 10
426.6217779778109
 20
407.7149319141827
 10
426.3018309778109
 20
407.5878569141828
 10
425.5392579778109
 20
407.3295559141827
 10
424.7034429778109
 20
407.0834019141828
 10
423.320934977811
 20
406.7205479141827
 10
421.4359869778109
 20
406.2852449141828
 10
419.442608977811
 20
405.8891269141827
 10
417.447643977811
 20
405.5581329141827
 10
415.450481977811
 20
405.2933019141828
 10
413.4276859778109
 20
405.0935329141827
 10
411.3700989778108
 20
404.9612089141827
 10
409.2851079778109
 20
404.9000519141827
 10
408.5875369778109
 20
404.8959629141827
  0
LWPOLYLINE
  5
553
330
1F
100
AcDbEntity
  8
0
 62
   253
370
    35
100
AcDbPolyline
 90
       14
 70
     0
 43
0.0
 10
338.5875369778109
 20
404.8959629141827
 10
336.4968999778109
 20
404.9327669141828
 10
334.4287229778109
 20
405.0417759141828
 10
332.394604977811
 20
405.2195099141827
 10
330.391064977811
 20
405.4627349141827
 10
328.397808977811
 20
405.7713899141827
 10
326.402050977811
 20
406.1462679141827
 10
324.2606629778109
 20
406.6214269141828
 10
322.957745977811
 20
406.9507109141827
 10
322.048077977811
 20
407.2047399141827
 10
321.240887977811
 20
407.4576079141827
 10
320.873211977811
 20
407.5878569141828
 10
320.553326977811
 20
407.7149319141827
 10
320.2917909778109
 20
407.8360259141827
  0
LWPOLYLINE
  5
554
330
1F
100
AcDbEntity
  8
0
 62
   253
370
    35
100
AcDbPolyline
 90
       14
 70
     0
 43
0.0
 10
228.587536977811
 20
404.8959629141827
 10
230.678173977811
 20
404.9327669141828
 10
232.746349977811
 20
405.0417759141828
 10
234.780468977811
 20
405.2195099141827
 10
236.784008977811
 20
405.4627349141827
 10
238.777264977811
 20
405.7713899141827
 10
240.773022977811
 20
406.1462679141827
 10
242.914410977811
 20
406.6214269141828
 10
244.217327977811
 20
406.9507109141827
 10
245.126995977811
 20
407.2047399141827
 10
245.934185977811
 20
407.4576079141827
 10
246.301861977811
 20
407.5878569141828
 10
246.621746977811
 20
407.7149319141827
 10
246.883282977811
 20
407.8360259141827
  0
LWPOLYLINE
  5
555
330
1F
100
AcDbEntity
  8
0
 62
   253
370
    35
100
AcDbPolyline
 90
        4
 70
     0
 43
0.0
 10
237.080517977811
 20
414.2526519141827
 10
233.915295977811
 20
414.2161529141827
 10
229.655529977811
 20
414.1667149141827
 10
228.587536977811
 20
414.1641509141827
  0
LWPOLYLINE
  5
556
330
1F
100
AcDbEntity
  8
0
 62
   253
370
    35
100
AcDbPolyline
 90
        6
 70
     0
 43
0.0
 10
189.0840579778109
 20
414.1641509141827
 10
190.497021977811
 20
414.1885039141827
 10
192.712780977811
 20
414.2422149141827
 10
194.898601977811
 20
414.2350739141827
 10
197.139019977811
 20
414.1766629141828
 10
198.091015977811
 20
414.1641509141827
  0
LWPOLYLINE
  5
557
330
1F
100
AcDbEntity
  8
0
 62
   253
370
    35
100
AcDbPolyline
 90
        4
 70
     0
 43
0.0
 10
158.587536977811
 20
414.1641509141827
 10
154.676144977811
 20
414.1949129141828
 10
151.1456729778109
 20
414.2450229141827
 10
150.0945709778109
 20
414.2526519141827
  0
LWPOLYLINE
  5
558
330
1F
100
AcDbEntity
  8
0
 62
   253
370
    35
100
AcDbPolyline
 90
        4
 70
     0
 43
0.0
 10
408.5875369778109
 20
414.1641509141827
 10
412.4990359778109
 20
414.1949739141827
 10
416.0294919778109
 20
414.2450229141827
 10
417.0805179778109
 20
414.2526519141827
  0
LWPOLYLINE
  5
559
330
1F
100
AcDbEntity
  8
0
 62
   253
370
    35
100
AcDbPolyline
 90
        6
 70
     0
 43
0.0
 10
378.091015977811
 20
414.1641509141827
 10
376.677929977811
 20
414.1885039141827
 10
374.462109977811
 20
414.2422149141827
 10
372.276287977811
 20
414.2350739141827
 10
370.035747977811
 20
414.1766629141828
 10
369.084057977811
 20
414.1641509141827
  0
LWPOLYLINE
  5
55A
330
1F
100
AcDbEntity
  8
0
 62
   253
370
    35
100
AcDbPolyline
 90
        4
 70
     0
 43
0.0
 10
330.094555977811
 20
414.2526519141827
 10
333.2597779778109
 20
414.2161529141827
 10
337.519512977811
 20
414.1667149141827
 10
338.5875369778109
 20
414.1641509141827
  0
LWPOLYLINE
  5
55B
330
1F
100
AcDbEntity
  8
0
 62
   253
370
    35
100
AcDbPolyline
 90
        3
 70
     0
 43
0.0
 10
383.752727977811
 20
405.0630769141827
 10
383.816601977811
 20
404.9484529141827
 10
383.948345977811
 20
404.8971219141828
  0
LWPOLYLINE
  5
55C
330
1F
100
AcDbEntity
  8
0
 62
   253
370
    35
100
AcDbPolyline
 90
        3
 70
     0
 43
0.0
 10
363.422344977811
 20
405.0630769141827
 10
363.3584719778109
 20
404.9484529141827
 10
363.2267269778109
 20
404.8971219141828
  0
LWPOLYLINE
  5
55D
330
1F
100
AcDbEntity
  8
0
 62
   253
370
    35
100
AcDbPolyline
 90
        4
 70
     0
 43
0.0
 10
183.422283977811
 20
405.0627719141827
 10
183.358440977811
 20
404.9483309141827
 10
183.273998977811
 20
404.9032259141827
 10
183.226726977811
 20
404.8971219141828
  0
LWPOLYLINE
  5
55E
330
1F
100
AcDbEntity
  8
0
 62
   253
370
    35
100
AcDbPolyline
 90
        4
 70
     0
 43
0.0
 10
203.752789977811
 20
405.0627719141827
 10
203.816631977811
 20
404.9483309141827
 10
203.901073977811
 20
404.9032259141827
 10
203.948345977811
 20
404.8971219141828
  0
LWPOLYLINE
  5
55F
330
1F
100
AcDbEntity
  8
0
 62
   253
370
    35
100
AcDbPolyline
 90
        4
 70
     0
 43
0.0
 10
89.83892497781098
 20
415.7466099141827
 10
88.54194397781098
 20
415.7336089141827
 10
88.37966597781099
 20
415.7264679141827
 10
88.34463197781099
 20
415.7226839141827
  0
LWPOLYLINE
  5
560
330
1F
100
AcDbEntity
  8
0
 62
   253
370
    35
100
AcDbPolyline
 90
        7
 70
     0
 43
0.0
 10
138.087536977811
 20
415.6771519141828
 10
138.088070977811
 20
415.6762359141827
 10
138.0890319778109
 20
415.6756259141827
 10
138.092403977811
 20
415.6744049141828
 10
138.131237977811
 20
415.6689729141827
 10
138.271587977811
 20
415.6606109141828
 10
139.411068977811
 20
415.6384549141828
  0
LWPOLYLINE
  5
561
330
1F
100
AcDbEntity
  8
0
 62
   253
370
    35
100
AcDbPolyline
 90
        7
 70
     0
 43
0.0
 10
247.764019977811
 20
415.6384549141828
 10
248.150646977811
 20
415.6429109141828
 10
248.978649977811
 20
415.6643339141827
 10
249.075390977811
 20
415.6728179141827
 10
249.083782977811
 20
415.6747099141827
 10
249.086193977811
 20
415.6756869141828
 10
249.087536977811
 20
415.6771519141828
  0
LWPOLYLINE
  5
562
330
1F
100
AcDbEntity
  8
0
 62
   253
370
    35
100
AcDbPolyline
 90
        6
 70
     0
 43
0.0
 10
318.0875369778109
 20
415.6771519141828
 10
318.088512977811
 20
415.6758699141827
 10
318.090740977811
 20
415.6748929141827
 10
318.116283977811
 20
415.6704989141827
 10
318.5366029778109
 20
415.6520659141827
 10
319.411053977811
 20
415.6384549141828
  0
LWPOLYLINE
  5
563
330
1F
100
AcDbEntity
  8
0
 62
   253
370
    35
100
AcDbPolyline
 90
        6
 70
     0
 43
0.0
 10
427.7639889778109
 20
415.6384549141828
 10
428.6151859778109
 20
415.6515169141827
 10
429.0521359778109
 20
415.6697659141827
 10
429.0835699778109
 20
415.6746489141827
 10
429.0863159778109
 20
415.6757479141827
 10
429.0875369778109
 20
415.6771519141828
  0
LWPOLYLINE
  5
564
330
1F
100
AcDbEntity
  8
0
 62
   253
370
    35
100
AcDbPolyline
 90
        4
 70
     0
 43
0.0
 10
477.336132977811
 20
415.7466099141827
 10
478.633129977811
 20
415.7336089141827
 10
478.7954229778109
 20
415.7264679141827
 10
478.830456977811
 20
415.7226839141827
  0
LWPOLYLINE
  5
565
330
1F
100
AcDbEntity
  8
0
 62
     7
370
    35
100
AcDbPolyline
 90
        5
 70
     0
 43
0.0
 10
60.69015197781098
 20
584.4288609141826
 10
60.09472397781099
 20
584.4336819141826
 10
59.88743297781098
 20
584.4388089141828
 10
59.87990997781098
 20
584.4396639141828
 10
59.87876597781099
 20
584.4400909141827
  0
LWPOLYLINE
  5
566
330
1F
100
AcDbEntity
  8
0
 62
     7
370
    35
100
AcDbPolyline
 90
        5
 70
     0
 43
0.0
 10
506.484936977811
 20
584.4288609141826
 10
507.0803349778109
 20
584.4336819141826
 10
507.287670977811
 20
584.4388089141828
 10
507.295177977811
 20
584.4396639141828
 10
507.2963379778109
 20
584.4400909141827
  0
LWPOLYLINE
  5
567
330
1F
100
AcDbEntity
  8
0
 62
     7
370
    35
100
AcDbPolyline
 90
        4
 70
     0
 43
0.0
 10
58.64550497781098
 20
375.4400909141828
 10
58.64876997781099
 20
375.4393279141827
 10
58.67026997781098
 20
375.4378329141828
 10
59.39544397781098
 20
375.4288609141828
  0
LWPOLYLINE
  5
568
330
1F
100
AcDbEntity
  8
0
 62
     7
370
    35
100
AcDbPolyline
 90
        4
 70
     0
 43
0.0
 10
58.64550497781098
 20
572.1437039141829
 10
58.64876997781099
 20
572.1444979141827
 10
58.67026997781098
 20
572.1459629141827
 10
59.39544397781098
 20
572.1549349141828
  0
LWPOLYLINE
  5
569
330
1F
100
AcDbEntity
  8
0
 62
     7
370
    35
100
AcDbPolyline
 90
        5
 70
     0
 43
0.0
 10
63.71438297781098
 20
584.4077419141826
 10
63.71217097781098
 20
584.4083529141828
 10
63.69657597781098
 20
584.4095119141827
 10
63.56512197781098
 20
584.4129909141827
 10
62.86739797781098
 20
584.4189119141827
  0
LWPOLYLINE
  5
56A
330
1F
100
AcDbEntity
  8
0
 62
     7
370
    35
100
AcDbPolyline
 90
        4
 70
     0
 43
0.0
 10
58.64550497781098
 20
56.44009091418276
 10
58.64876997781099
 20
56.43932791418277
 10
58.67026997781098
 20
56.43783291418277
 10
59.39544397781098
 20
56.42886091418276
  0
LWPOLYLINE
  5
56B
330
1F
100
AcDbEntity
  8
0
 62
     7
370
    35
100
AcDbPolyline
 90
        4
 70
     0
 43
0.0
 10
58.64550497781098
 20
363.1437039141828
 10
58.64876997781099
 20
363.1444669141828
 10
58.67026997781098
 20
363.1459629141827
 10
59.39544397781098
 20
363.1549349141828
  0
LWPOLYLINE
  5
56C
330
1F
100
AcDbEntity
  8
0
 62
     7
370
    35
100
AcDbPolyline
 90
        5
 70
     0
 43
0.0
 10
60.69015197781098
 20
44.15493491418277
 10
60.09472397781099
 20
44.15014391418276
 10
59.88743297781098
 20
44.14498591418277
 10
59.87990997781098
 20
44.14413191418276
 10
59.87876597781099
 20
44.14370391418276
  0
LWPOLYLINE
  5
56D
330
1F
100
AcDbEntity
  8
0
 62
     7
370
    35
100
AcDbPolyline
 90
        5
 70
     0
 43
0.0
 10
503.4607059778109
 20
584.4077419141826
 10
503.4629029778109
 20
584.4083529141828
 10
503.4784669778109
 20
584.4095119141827
 10
503.609936977811
 20
584.4129909141827
 10
504.307690977811
 20
584.4189119141827
  0
LWPOLYLINE
  5
56E
330
1F
100
AcDbEntity
  8
0
 62
     7
370
    35
100
AcDbPolyline
 90
        4
 70
     0
 43
0.0
 10
508.529552977811
 20
572.1437039141829
 10
508.5263189778109
 20
572.1444979141827
 10
508.504833977811
 20
572.1459629141827
 10
507.779613977811
 20
572.1549349141828
  0
LWPOLYLINE
  5
56F
330
1F
100
AcDbEntity
  8
0
 62
     7
370
    35
100
AcDbPolyline
 90
        4
 70
     0
 43
0.0
 10
508.529552977811
 20
375.4400909141828
 10
508.5263189778109
 20
375.4393279141827
 10
508.504833977811
 20
375.4378329141828
 10
507.779613977811
 20
375.4288609141828
  0
LWPOLYLINE
  5
570
330
1F
100
AcDbEntity
  8
0
 62
     7
370
    35
100
AcDbPolyline
 90
        4
 70
     0
 43
0.0
 10
61.36246997781098
 20
363.1648529141827
 10
62.08784197781098
 20
363.1738249141828
 10
62.10917397781098
 20
363.1753209141828
 10
62.11240897781099
 20
363.1760529141828
  0
LWPOLYLINE
  5
571
330
1F
100
AcDbEntity
  8
0
 62
     7
370
    35
100
AcDbPolyline
 90
        4
 70
     0
 43
0.0
 10
61.36246997781098
 20
56.41894191418277
 10
62.08784197781098
 20
56.40996991418276
 10
62.10917397781098
 20
56.40847491418276
 10
62.11240897781099
 20
56.40774191418277
  0
LWPOLYLINE
  5
572
330
1F
100
AcDbEntity
  8
0
 62
     7
370
    35
100
AcDbPolyline
 90
        4
 70
     0
 43
0.0
 10
61.36246997781098
 20
375.4189419141828
 10
62.08784197781098
 20
375.4099699141828
 10
62.10917397781098
 20
375.4084749141828
 10
62.11240897781099
 20
375.4077419141828
  0
LWPOLYLINE
  5
573
330
1F
100
AcDbEntity
  8
0
 62
     7
370
    35
100
AcDbPolyline
 90
        4
 70
     0
 43
0.0
 10
61.36246997781098
 20
572.1648839141828
 10
62.08784197781098
 20
572.1737949141827
 10
62.10917397781098
 20
572.1753209141827
 10
62.11240897781099
 20
572.1760529141826
  0
LWPOLYLINE
  5
574
330
1F
100
AcDbEntity
  8
0
 62
     7
370
    35
100
AcDbPolyline
 90
        8
 70
     0
 43
0.0
 10
62.20360997781098
 20
578.2918979141827
 10
62.19805597781098
 20
575.5800449141827
 10
62.18122597781098
 20
573.3212559141827
 10
62.16270197781098
 20
572.3577549141828
 10
62.15572797781098
 20
572.2229889141827
 10
62.15218797781098
 20
572.1954619141826
 10
62.15137997781098
 20
572.1929599141827
 10
62.15037297781098
 20
572.1918609141828
  0
LWPOLYLINE
  5
575
330
1F
100
AcDbEntity
  8
0
 62
     7
370
    35
100
AcDbPolyline
 90
       13
 70
     0
 43
0.0
 10
63.74903597781098
 20
584.3919339141828
 10
63.74958497781098
 20
584.3908969141828
 10
63.74930997781098
 20
584.3891269141827
 10
63.74731197781098
 20
584.3829009141827
 10
63.71424597781098
 20
584.3119779141828
 10
63.42437497781098
 20
583.7199369141826
 10
63.09325897781098
 20
582.9515049141828
 10
62.92226897781098
 20
582.4927639141826
 10
62.71178897781098
 20
581.8379789141827
 10
62.52616597781098
 20
581.1267369141829
 10
62.35160497781098
 20
580.2182279141828
 10
62.24129997781098
 20
579.2660799141827
 10
62.20360997781098
 20
578.2918979141827
  0
LWPOLYLINE
  5
576
330
1F
100
AcDbEntity
  8
0
 62
     7
370
    35
100
AcDbPolyline
 90
       14
 70
     0
 43
0.0
 10
62.15037297781098
 20
375.3919039141828
 10
62.15169997781098
 20
375.3900119141828
 10
62.15433997781097
 20
375.3749059141828
 10
62.16215197781098
 20
375.2406889141828
 10
62.18264497781098
 20
374.1424529141827
 10
62.19973497781097
 20
371.5727819141828
 10
62.20321397781098
 20
368.5544709141828
 10
62.19056397781098
 20
365.2929049141828
 10
62.17754797781098
 20
364.0465669141828
 10
62.16108397781098
 20
363.3165859141828
 10
62.15507197781097
 20
363.2156949141828
 10
62.15201997781098
 20
363.1948209141827
 10
62.15128797781098
 20
363.1928069141828
 10
62.15037297781098
 20
363.1918919141828
  0
LWPOLYLINE
  5
577
330
1F
100
AcDbEntity
  8
0
 62
     7
370
    35
100
AcDbPolyline
 90
        5
 70
     0
 43
0.0
 10
63.71438297781098
 20
44.17605291418276
 10
63.71217097781098
 20
44.17544291418276
 10
63.69657597781098
 20
44.17425191418276
 10
63.56512197781098
 20
44.17080391418276
 10
62.86739797781098
 20
44.16485291418276
  0
LWPOLYLINE
  5
578
330
1F
100
AcDbEntity
  8
0
 62
     7
370
    35
100
AcDbPolyline
 90
        4
 70
     0
 43
0.0
 10
508.529552977811
 20
363.1437039141828
 10
508.5263189778109
 20
363.1444669141828
 10
508.504833977811
 20
363.1459629141827
 10
507.779613977811
 20
363.1549349141828
  0
LWPOLYLINE
  5
579
330
1F
100
AcDbEntity
  8
0
 62
     7
370
    35
100
AcDbPolyline
 90
        4
 70
     0
 43
0.0
 10
508.529552977811
 20
56.44009091418276
 10
508.5263189778109
 20
56.43932791418277
 10
508.504833977811
 20
56.43783291418277
 10
507.779613977811
 20
56.42886091418276
  0
LWPOLYLINE
  5
57A
330
1F
100
AcDbEntity
  8
0
 62
     7
370
    35
100
AcDbPolyline
 90
        4
 70
     0
 43
0.0
 10
505.812572977811
 20
56.41894191418277
 10
505.087231977811
 20
56.40996991418276
 10
505.0658689778109
 20
56.40847491418276
 10
505.062695977811
 20
56.40774191418277
  0
LWPOLYLINE
  5
57B
330
1F
100
AcDbEntity
  8
0
 62
     7
370
    35
100
AcDbPolyline
 90
        4
 70
     0
 43
0.0
 10
505.812572977811
 20
363.1648529141827
 10
505.087231977811
 20
363.1738249141828
 10
505.0658689778109
 20
363.1753209141828
 10
505.062695977811
 20
363.1760529141828
  0
LWPOLYLINE
  5
57C
330
1F
100
AcDbEntity
  8
0
 62
     7
370
    35
100
AcDbPolyline
 90
       13
 70
     0
 43
0.0
 10
503.426037977811
 20
584.3919339141828
 10
503.425487977811
 20
584.3908969141828
 10
503.4257329778109
 20
584.3891269141827
 10
503.427746977811
 20
584.3829009141827
 10
503.4608279778109
 20
584.3119779141828
 10
503.750683977811
 20
583.7199369141826
 10
504.0817999778109
 20
582.9515049141828
 10
504.252819977811
 20
582.4927639141826
 10
504.463268977811
 20
581.8379789141827
 10
504.648876977811
 20
581.1267369141829
 10
504.8234379778109
 20
580.2182279141828
 10
504.933788977811
 20
579.2660799141827
 10
504.9714479778109
 20
578.2918979141827
  0
LWPOLYLINE
  5
57D
330
1F
100
AcDbEntity
  8
0
 62
     7
370
    35
100
AcDbPolyline
 90
        8
 70
     0
 43
0.0
 10
504.9714479778109
 20
578.2918979141827
 10
504.977001977811
 20
575.5800449141827
 10
504.993847977811
 20
573.3212559141827
 10
505.012402977811
 20
572.3577549141828
 10
505.0193609778109
 20
572.2229889141827
 10
505.0229009778109
 20
572.1954619141826
 10
505.023693977811
 20
572.1929599141827
 10
505.024731977811
 20
572.1918609141828
  0
LWPOLYLINE
  5
57E
330
1F
100
AcDbEntity
  8
0
 62
     7
370
    35
100
AcDbPolyline
 90
        4
 70
     0
 43
0.0
 10
505.812572977811
 20
572.1648839141828
 10
505.087231977811
 20
572.1737949141827
 10
505.0658689778109
 20
572.1753209141827
 10
505.062695977811
 20
572.1760529141826
  0
LWPOLYLINE
  5
57F
330
1F
100
AcDbEntity
  8
0
 62
     7
370
    35
100
AcDbPolyline
 90
        4
 70
     0
 43
0.0
 10
505.812572977811
 20
375.4189419141828
 10
505.087231977811
 20
375.4099699141828
 10
505.0658689778109
 20
375.4084749141828
 10
505.062695977811
 20
375.4077419141828
  0
LWPOLYLINE
  5
580
330
1F
100
AcDbEntity
  8
0
 62
     7
370
    35
100
AcDbPolyline
 90
       14
 70
     0
 43
0.0
 10
505.024731977811
 20
375.3919039141828
 10
505.023388977811
 20
375.3900119141828
 10
505.020702977811
 20
375.3749059141828
 10
505.012890977811
 20
375.2406889141828
 10
504.992443977811
 20
374.1424529141827
 10
504.975353977811
 20
371.5727819141828
 10
504.971874977811
 20
368.5544709141828
 10
504.9845089778109
 20
365.2929049141828
 10
504.997509977811
 20
364.0465669141828
 10
505.0139889778109
 20
363.3165859141828
 10
505.019970977811
 20
363.2156949141828
 10
505.023022977811
 20
363.1948209141827
 10
505.023754977811
 20
363.1928069141828
 10
505.024731977811
 20
363.1918919141828
  0
LWPOLYLINE
  5
581
330
1F
100
AcDbEntity
  8
0
 62
     7
370
    35
100
AcDbPolyline
 90
        5
 70
     0
 43
0.0
 10
503.4607059778109
 20
44.17605291418276
 10
503.4629029778109
 20
44.17544291418276
 10
503.4784669778109
 20
44.17425191418276
 10
503.609936977811
 20
44.17080391418276
 10
504.307690977811
 20
44.16485291418276
  0
LWPOLYLINE
  5
582
330
1F
100
AcDbEntity
  8
0
 62
     7
370
    35
100
AcDbPolyline
 90
        5
 70
     0
 43
0.0
 10
506.484936977811
 20
44.15493491418277
 10
507.0803349778109
 20
44.15014391418276
 10
507.287670977811
 20
44.14498591418277
 10
507.295177977811
 20
44.14413191418276
 10
507.2963379778109
 20
44.14370391418276
  0
LWPOLYLINE
  5
583
330
1F
100
AcDbEntity
  8
0
 62
     7
370
    35
100
AcDbPolyline
 90
       13
 70
     0
 43
0.0
 10
63.74903597781098
 20
44.19189191418276
 10
63.74958497781098
 20
44.19289891418276
 10
63.74930997781098
 20
44.19466891418276
 10
63.74731197781098
 20
44.20086391418275
 10
63.71424597781098
 20
44.27184791418276
 10
63.42437497781098
 20
44.86388891418276
 10
63.09325897781098
 20
45.63232091418277
 10
62.92226897781098
 20
46.09106191418276
 10
62.71178897781098
 20
46.74584691418276
 10
62.52616597781098
 20
47.45705891418277
 10
62.35160497781098
 20
48.36553691418277
 10
62.24129997781098
 20
49.31771591418277
 10
62.20360997781098
 20
50.29189791418277
  0
LWPOLYLINE
  5
584
330
1F
100
AcDbEntity
  8
0
 62
     7
370
    35
100
AcDbPolyline
 90
        8
 70
     0
 43
0.0
 10
62.20360997781098
 20
50.29189791418277
 10
62.19805597781098
 20
53.00375091418277
 10
62.18122597781098
 20
55.26253991418276
 10
62.16270197781098
 20
56.22600991418277
 10
62.15572797781098
 20
56.36083691418277
 10
62.15218797781098
 20
56.38833291418277
 10
62.15137997781098
 20
56.39080491418276
 10
62.15037297781098
 20
56.39190391418276
  0
LWPOLYLINE
  5
585
330
1F
100
AcDbEntity
  8
0
 62
     7
370
    35
100
AcDbPolyline
 90
        8
 70
     0
 43
0.0
 10
504.9714479778109
 20
50.29189791418277
 10
504.977001977811
 20
53.00375091418277
 10
504.993847977811
 20
55.26253991418276
 10
505.012402977811
 20
56.22600991418277
 10
505.0193609778109
 20
56.36083691418277
 10
505.0229009778109
 20
56.38833291418277
 10
505.023693977811
 20
56.39080491418276
 10
505.024731977811
 20
56.39190391418276
  0
LWPOLYLINE
  5
586
330
1F
100
AcDbEntity
  8
0
 62
     7
370
    35
100
AcDbPolyline
 90
       13
 70
     0
 43
0.0
 10
503.426037977811
 20
44.19189191418276
 10
503.425487977811
 20
44.19289891418276
 10
503.4257329778109
 20
44.19466891418276
 10
503.427746977811
 20
44.20086391418275
 10
503.4608279778109
 20
44.27184791418276
 10
503.750683977811
 20
44.86388891418276
 10
504.0817999778109
 20
45.63232091418277
 10
504.252819977811
 20
46.09106191418276
 10
504.463268977811
 20
46.74584691418276
 10
504.648876977811
 20
47.45705891418277
 10
504.8234379778109
 20
48.36553691418277
 10
504.933788977811
 20
49.31771591418277
 10
504.9714479778109
 20
50.29189791418277
  0
LWPOLYLINE
  5
587
330
1F
100
AcDbEntity
  8
0
 62
     7
370
    35
100
AcDbPolyline
 90
       15
 70
     0
 43
0.0
 10
492.5875369778109
 20
39.88842491418277
 10
493.3909429778109
 20
39.91881991418276
 10
494.1734129778109
 20
40.00747391418276
 10
494.9226809778109
 20
40.14846491418277
 10
495.6067629778109
 20
40.32708391418276
 10
496.255688977811
 20
40.54305691418276
 10
496.870068977811
 20
40.79214191418276
 10
497.2944459778109
 20
40.99142191418276
 10
497.7036259778109
 20
41.20617391418277
 10
498.104748977811
 20
41.43981591418277
 10
498.491283977811
 20
41.68844291418277
 10
499.208324977811
 20
42.21792291418276
 10
499.8732419778109
 20
42.80221291418277
 10
500.4859129778109
 20
43.44024391418276
 10
501.0161259778109
 20
44.09261791418276
  0
LWPOLYLINE
  5
588
330
1F
100
AcDbEntity
  8
0
 62
     7
370
    35
100
AcDbPolyline
 90
       20
 70
     0
 43
0.0
 10
482.079540977811
 20
50.29189791418277
 10
482.108410977811
 20
51.12395891418277
 10
482.2054569778109
 20
51.96413891418277
 10
482.372997977811
 20
52.80590491418276
 10
482.612682977811
 20
53.64211691418276
 10
482.9251219778109
 20
54.46517691418276
 10
483.309765977811
 20
55.26717791418277
 10
483.753612977811
 20
56.02199991418276
 10
484.2623419778109
 20
56.74166591418276
 10
484.8327149778109
 20
57.41943091418277
 10
485.4607669778109
 20
58.04903891418277
 10
486.141918977811
 20
58.62482891418276
 10
486.870922977811
 20
59.14178191418276
 10
487.6131719778109
 20
59.57990691418276
 10
488.389477977811
 20
59.95608191418277
 10
489.1944089778109
 20
60.26754491418277
 10
490.0224119778109
 20
60.51206691418276
 10
490.8677489778109
 20
60.68792391418277
 10
491.7247439778109
 20
60.79391191418276
 10
492.5875369778109
 20
60.82932791418276
  0
LWPOLYLINE
  5
589
330
1F
100
AcDbEntity
  8
0
 62
     7
370
    35
100
AcDbPolyline
 90
       20
 70
     0
 43
0.0
 10
482.079540977811
 20
578.2918979141827
 10
482.108410977811
 20
577.4598049141827
 10
482.2054569778109
 20
576.6196569141827
 10
482.372997977811
 20
575.7779209141826
 10
482.612682977811
 20
574.9416779141827
 10
482.9251219778109
 20
574.1186189141826
 10
483.309765977811
 20
573.3166169141827
 10
483.753612977811
 20
572.5617949141827
 10
484.2623419778109
 20
571.8421299141827
 10
484.8327149778109
 20
571.1643949141828
 10
485.4607669778109
 20
570.5347569141827
 10
486.141918977811
 20
569.9589509141828
 10
486.870922977811
 20
569.4419829141827
 10
487.6131719778109
 20
569.0038729141827
 10
488.389477977811
 20
568.6277129141826
 10
489.1944089778109
 20
568.3162509141827
 10
490.0224119778109
 20
568.0717439141826
 10
490.8677489778109
 20
567.8958409141828
 10
491.7247439778109
 20
567.7898839141828
 10
492.5875369778109
 20
567.7544829141827
  0
LWPOLYLINE
  5
58A
330
1F
100
AcDbEntity
  8
0
 62
     7
370
    35
100
AcDbPolyline
 90
       15
 70
     0
 43
0.0
 10
492.5875369778109
 20
588.6954009141827
 10
493.3909429778109
 20
588.6650059141827
 10
494.1734129778109
 20
588.5763219141827
 10
494.9226809778109
 20
588.4353299141828
 10
495.6067629778109
 20
588.2566799141828
 10
496.255688977811
 20
588.0407379141827
 10
496.870068977811
 20
587.7916539141827
 10
497.2944459778109
 20
587.5923739141828
 10
497.7036259778109
 20
587.3776519141826
 10
498.104748977811
 20
587.1440099141827
 10
498.491283977811
 20
586.8953519141828
 10
499.208324977811
 20
586.3658719141827
 10
499.8732419778109
 20
585.7815829141827
 10
500.4859129778109
 20
585.1435209141827
 10
501.0161259778109
 20
584.4911779141828
  0
LWPOLYLINE
  5
58B
330
1F
100
AcDbEntity
  8
0
 62
     7
370
    35
100
AcDbPolyline
 90
       15
 70
     0
 43
0.0
 10
74.58753697781098
 20
588.6954009141827
 10
73.78410097781098
 20
588.6650059141827
 10
73.00165997781099
 20
588.5763219141827
 10
72.25237797781097
 20
588.4353299141828
 10
71.56834097781097
 20
588.2566799141828
 10
70.91936997781099
 20
588.0407379141827
 10
70.30498997781098
 20
587.7916539141827
 10
69.88061197781099
 20
587.5923739141828
 10
69.47143297781098
 20
587.3776519141826
 10
69.07030997781098
 20
587.1440099141827
 10
68.68375897781098
 20
586.8953519141828
 10
67.96671797781098
 20
586.3658719141827
 10
67.30183097781098
 20
585.7815829141827
 10
66.68917597781097
 20
585.1435209141827
 10
66.15893297781098
 20
584.4911779141828
  0
LWPOLYLINE
  5
58C
330
1F
100
AcDbEntity
  8
0
 62
     7
370
    35
100
AcDbPolyline
 90
       20
 70
     0
 43
0.0
 10
85.09554797781097
 20
578.2918979141827
 10
85.06666297781098
 20
577.4598049141827
 10
84.96961697781097
 20
576.6196569141827
 10
84.80204497781098
 20
575.7779209141826
 10
84.56238997781097
 20
574.9416779141827
 10
84.24998197781098
 20
574.1186189141826
 10
83.86527697781097
 20
573.3166169141827
 10
83.42145997781098
 20
572.5617949141827
 10
82.91273197781098
 20
571.8421299141827
 10
82.34235897781099
 20
571.1643949141828
 10
81.71429197781097
 20
570.5347569141827
 10
81.03316997781098
 20
569.9589509141828
 10
80.30411997781099
 20
569.4419829141827
 10
79.56190197781097
 20
569.0038729141827
 10
78.78562597781098
 20
568.6277129141826
 10
77.98069497781098
 20
568.3162509141827
 10
77.15269197781097
 20
568.0717439141826
 10
76.30730897781098
 20
567.8958409141828
 10
75.45031497781099
 20
567.7898839141828
 10
74.58753697781098
 20
567.7544829141827
  0
LWPOLYLINE
  5
58D
330
1F
100
AcDbEntity
  8
0
 62
     7
370
    35
100
AcDbPolyline
 90
       15
 70
     0
 43
0.0
 10
74.58753697781098
 20
39.88842491418277
 10
73.78410097781098
 20
39.91881991418276
 10
73.00165997781099
 20
40.00747391418276
 10
72.25237797781097
 20
40.14846491418277
 10
71.56834097781097
 20
40.32708391418276
 10
70.91936997781099
 20
40.54305691418276
 10
70.30498997781098
 20
40.79214191418276
 10
69.88061197781099
 20
40.99142191418276
 10
69.47143297781098
 20
41.20617391418277
 10
69.07030997781098
 20
41.43981591418277
 10
68.68375897781098
 20
41.68844291418277
 10
67.96671797781098
 20
42.21792291418276
 10
67.30183097781098
 20
42.80221291418277
 10
66.68917597781097
 20
43.44024391418276
 10
66.15893297781098
 20
44.09261791418276
  0
LWPOLYLINE
  5
58E
330
1F
100
AcDbEntity
  8
0
 62
     7
370
    35
100
AcDbPolyline
 90
       20
 70
     0
 43
0.0
 10
85.09554797781097
 20
50.29189791418277
 10
85.06666297781098
 20
51.12395891418277
 10
84.96961697781097
 20
51.96413891418277
 10
84.80204497781098
 20
52.80590491418276
 10
84.56238997781097
 20
53.64211691418276
 10
84.24998197781098
 20
54.46517691418276
 10
83.86527697781097
 20
55.26717791418277
 10
83.42145997781098
 20
56.02199991418276
 10
82.91273197781098
 20
56.74166591418276
 10
82.34235897781099
 20
57.41943091418277
 10
81.71429197781097
 20
58.04903891418277
 10
81.03316997781098
 20
58.62482891418276
 10
80.30411997781099
 20
59.14178191418276
 10
79.56190197781097
 20
59.57990691418276
 10
78.78562597781098
 20
59.95608191418277
 10
77.98069497781098
 20
60.26754491418277
 10
77.15269197781097
 20
60.51206691418276
 10
76.30730897781098
 20
60.68792391418277
 10
75.45031497781099
 20
60.79391191418276
 10
74.58753697781098
 20
60.82932791418276
  0
INSERT
  5
58F
330
1F
100
AcDbEntity
  8
0
 62
    56
100
AcDbBlockReference
  2
IBvert
 10
254.849127097811
 20
90.94065705418277
 30
0.0
  0
INSERT
  5
590
330
1F
100
AcDbEntity
  8
0
 62
    56
100
AcDbBlockReference
  2
IBvert
 10
368.528377097811
 20
90.94065705418277
 30
0.0
  0
INSERT
  5
591
330
1F
100
AcDbEntity
  8
0
 62
    56
100
AcDbBlockReference
  2
IBvert63
 10
48.24799831781098
 20
59.62610591418276
 30
0.0
  0
ENDSEC
  0
SECTION
  2
OBJECTS
  0
DICTIONARY
  5
C
330
0
100
AcDbDictionary
281
     1
  3
ACAD_COLOR
350
73
  3
ACAD_GROUP
350
D
  3
ACAD_LAYOUT
350
1A
  3
ACAD_MATERIAL
350
72
  3
ACAD_MLEADERSTYLE
350
D7
  3
ACAD_MLINESTYLE
350
17
  3
ACAD_PLOTSETTINGS
350
19
  3
ACAD_PLOTSTYLENAME
350
E
  3
ACAD_SCALELIST
350
B6
  3
ACAD_TABLESTYLE
350
86
  3
ACAD_VISUALSTYLE
350
99
  3
ACDB_RECOMPOSE_DATA
350
FF
  3
AcDbVariableDictionary
350
66
  3
DWGPROPS
350
5CC
  0
DICTIONARY
  5
E6
330
10
100
AcDbDictionary
280
     1
281
     1
  3
ADSK_XREC_LAYER_RECONCILED
360
5C4
  0
DICTIONARY
  5
5C5
330
17A
100
AcDbDictionary
280
     1
281
     1
  3
ADSK_XREC_LAYER_RECONCILED
360
5C6
  0
DICTIONARY
  5
73
102
{ACAD_REACTORS
330
C
102
}
330
C
100
AcDbDictionary
281
     1
  0
DICTIONARY
  5
D
102
{ACAD_REACTORS
330
C
102
}
330
C
100
AcDbDictionary
281
     1
  0
DICTIONARY
  5
1A
102
{ACAD_REACTORS
330
C
102
}
330
C
100
AcDbDictionary
281
     1
  3
Layout1
350
59
  3
Layout2
350
5E
  3
Model
350
22
  0
DICTIONARY
  5
72
102
{ACAD_REACTORS
330
C
102
}
330
C
100
AcDbDictionary
281
     1
  3
ByBlock
350
97
  3
ByLayer
350
96
  3
Global
350
98
  0
DICTIONARY
  5
D7
102
{ACAD_REACTORS
330
C
102
}
330
C
100
AcDbDictionary
281
     1
  3
Annotativa
350
E5
  3
Standard
350
D8
  0
DICTIONARY
  5
17
102
{ACAD_REACTORS
330
C
102
}
330
C
100
AcDbDictionary
281
     1
  3
Standard
350
18
  0
DICTIONARY
  5
19
102
{ACAD_REACTORS
330
C
102
}
330
C
100
AcDbDictionary
281
     1
  0
ACDBDICTIONARYWDFLT
  5
E
102
{ACAD_REACTORS
330
C
102
}
330
C
100
AcDbDictionary
281
     1
  3
Normal
350
F
100
AcDbDictionaryWithDefault
340
F
  0
DICTIONARY
  5
B6
102
{ACAD_REACTORS
330
C
102
}
330
C
100
AcDbDictionary
281
     1
  3
A0
350
B7
  3
A1
350
124
  3
A2
350
125
  3
A3
350
126
  3
A4
350
127
  3
A5
350
128
  3
A6
350
129
  3
A7
350
12A
  3
A8
350
12B
  3
A9
350
12C
  3
B0
350
12D
  3
B1
350
12E
  3
B2
350
12F
  3
B3
350
130
  3
B4
350
131
  3
B5
350
132
  3
B6
350
133
  3
B7
350
134
  3
B8
350
135
  3
B9
350
136
  3
C0
350
137
  3
C1
350
138
  3
C2
350
139
  3
C3
350
13A
  3
C4
350
13B
  3
C5
350
13C
  3
C6
350
13D
  3
C7
350
13E
  3
C8
350
13F
  3
C9
350
140
  3
D0
350
141
  3
D1
350
142
  3
D2
350
143
  0
DICTIONARY
  5
86
102
{ACAD_REACTORS
330
C
102
}
330
C
100
AcDbDictionary
281
     1
  3
Standard
350
87
  0
DICTIONARY
  5
99
102
{ACAD_REACTORS
330
C
102
}
330
C
100
AcDbDictionary
281
     1
  3
2dWireframe
350
9F
  3
3D Hidden
350
A1
  3
3dWireframe
350
A0
  3
Basic
350
9E
  3
Brighten
350
A5
  3
ColorChange
350
A9
  3
Conceptual
350
A2
  3
Dim
350
A4
  3
Facepattern
350
A8
  3
Flat
350
9A
  3
FlatWithEdges
350
9B
  3
Gouraud
350
9C
  3
GouraudWithEdges
350
9D
  3
Linepattern
350
A7
  3
Realistic
350
A3
  3
Thicken
350
A6
  0
XRECORD
  5
FF
102
{ACAD_REACTORS
330
C
102
}
330
C
100
AcDbXrecord
280
     1
 90
        1
330
87
  0
DICTIONARY
  5
66
102
{ACAD_REACTORS
330
C
102
}
330
C
100
AcDbDictionary
281
     1
  3
CANNOSCALE
350
F0
  3
CMLEADERSTYLE
350
EF
  3
CTABLESTYLE
350
89
  3
DIMASSOC
350
67
  3
HIDETEXT
350
6B
  3
INDEXCTL
350
5CA
  3
LIGHTINGUNITS
350
5C8
  3
MSLTSCALE
350
5C7
  3
SORTENTS
350
5C9
  0
XRECORD
  5
5CC
102
{ACAD_REACTORS
330
C
102
}
330
C
100
AcDbXrecord
280
     1
  1
DWGPROPS COOKIE
  2

  3

  4

  6

  7

  8
fontanaNZ
  9

300
=
301
=
302
=
303
=
304
=
305
=
306
=
307
=
308
=
309
=
 40
0.0001442708333333
 41
2455511.362786644
 42
2455511.362930544
  1

 90
        0
  0
XRECORD
  5
5C4
102
{ACAD_REACTORS
330
E6
102
}
330
E6
100
AcDbXrecord
280
     1
290
     1
  0
XRECORD
  5
5C6
102
{ACAD_REACTORS
330
5C5
102
}
330
5C5
100
AcDbXrecord
280
     1
290
     1
  0
LAYOUT
  5
59
102
{ACAD_XDICTIONARY
360
5CF
102
}
102
{ACAD_REACTORS
330
1A
102
}
330
1A
100
AcDbPlotSettings
  1

  2
None
  4

  6

 40
0.0
 41
0.0
 42
0.0
 43
0.0
 44
0.0
 45
0.0
 46
0.0
 47
0.0
 48
0.0
 49
0.0
140
0.0
141
0.0
142
1.0
143
1.0
 70
   688
 72
     0
 73
     0
 74
     5
  7

 75
    16
147
1.0
148
0.0
149
0.0
100
AcDbLayout
  1
Layout1
 70
     1
 71
     1
 10
0.0
 20
0.0
 11
12.0
 21
9.0
 12
0.0
 22
0.0
 32
0.0
 14
0.0
 24
0.0
 34
0.0
 15
0.0
 25
0.0
 35
0.0
146
0.0
 13
0.0
 23
0.0
 33
0.0
 16
1.0
 26
0.0
 36
0.0
 17
0.0
 27
1.0
 37
0.0
 76
     0
330
58
  0
LAYOUT
  5
5E
102
{ACAD_XDICTIONARY
360
5D1
102
}
102
{ACAD_REACTORS
330
1A
102
}
330
1A
100
AcDbPlotSettings
  1

  2
None
  4

  6

 40
0.0
 41
0.0
 42
0.0
 43
0.0
 44
0.0
 45
0.0
 46
0.0
 47
0.0
 48
0.0
 49
0.0
140
0.0
141
0.0
142
1.0
143
1.0
 70
   688
 72
     0
 73
     0
 74
     5
  7

 75
    16
147
1.0
148
0.0
149
0.0
100
AcDbLayout
  1
Layout2
 70
     1
 71
     2
 10
0.0
 20
0.0
 11
12.0
 21
9.0
 12
0.0
 22
0.0
 32
0.0
 14
0.0
 24
0.0
 34
0.0
 15
0.0
 25
0.0
 35
0.0
146
0.0
 13
0.0
 23
0.0
 33
0.0
 16
1.0
 26
0.0
 36
0.0
 17
0.0
 27
1.0
 37
0.0
 76
     0
330
5D
  0
LAYOUT
  5
22
102
{ACAD_XDICTIONARY
360
5CD
102
}
102
{ACAD_REACTORS
330
1A
102
}
330
1A
100
AcDbPlotSettings
  1

  2
none_device
  4
ANSI_A_(8.50_x_11.00_Inches)
  6

 40
6.349999904632568
 41
19.04999923706055
 42
6.350006103515625
 43
19.04998779296875
 44
215.8999938964844
 45
279.3999938964844
 46
0.0
 47
0.0
 48
0.0
 49
0.0
140
0.0
141
0.0
142
1.0
143
2.584895464708373
 70
 11952
 72
     0
 73
     1
 74
     0
  7

 75
     0
147
0.3868628397755418
148
0.0
149
0.0
100
AcDbLayout
  1
Model
 70
     1
 71
     0
 10
0.0
 20
0.0
 11
12.0
 21
9.0
 12
0.0
 22
0.0
 32
0.0
 14
0.0
 24
0.0
 34
0.0
 15
0.0
 25
0.0
 35
0.0
146
0.0
 13
0.0
 23
0.0
 33
0.0
 16
1.0
 26
0.0
 36
0.0
 17
0.0
 27
1.0
 37
0.0
 76
     0
330
1F
331
94
  0
MATERIAL
  5
97
102
{ACAD_XDICTIONARY
360
5D6
102
}
102
{ACAD_REACTORS
330
72
102
}
330
72
100
AcDbMaterial
  1
ByBlock
  0
MATERIAL
  5
96
102
{ACAD_XDICTIONARY
360
5D4
102
}
102
{ACAD_REACTORS
330
72
102
}
330
72
100
AcDbMaterial
  1
ByLayer
  0
MATERIAL
  5
98
102
{ACAD_XDICTIONARY
360
110
102
}
102
{ACAD_REACTORS
330
72
102
}
330
72
100
AcDbMaterial
  1
Global
 43
0.0208000000566244
 43
0.0
 43
0.0
 43
0.0
 43
0.0
 43
0.0208000000566244
 43
0.0
 43
0.0
 43
0.0
 43
0.0
 43
1.0
 43
0.0
 43
0.0
 43
0.0
 43
0.0
 43
1.0
 49
0.0208000000566244
 49
0.0
 49
0.0
 49
0.0
 49
0.0
 49
0.0208000000566244
 49
0.0
 49
0.0
 49
0.0
 49
0.0
 49
1.0
 49
0.0
 49
0.0
 49
0.0
 49
0.0
 49
1.0
142
0.0208000000566244
142
0.0
142
0.0
142
0.0
142
0.0
142
0.0208000000566244
142
0.0
142
0.0
142
0.0
142
0.0
142
1.0
142
0.0
142
0.0
142
0.0
142
0.0
142
1.0
144
0.0208000000566244
144
0.0
144
0.0
144
0.0
144
0.0
144
0.0208000000566244
144
0.0
144
0.0
144
0.0
144
0.0
144
1.0
144
0.0
144
0.0
144
0.0
144
0.0
144
1.0
1001
ACAD
1070
    -1
1070
     3
1070
     0
1000

1071
        0
1070
     0
  0
MLEADERSTYLE
  5
E5
102
{ACAD_REACTORS
330
D7
102
}
330
D7
100
AcDbMLeaderStyle
170
     2
171
     1
172
     0
 90
        2
 40
0.0
 41
0.0
173
     1
 91
-1056964608
340
14
 92
       -2
290
     1
 42
0.09
291
     1
 43
0.36
  3
Standard
 44
0.18
300

342
11
174
     1
178
     1
175
     1
176
     0
 93
-1056964608
 45
0.18
292
     0
297
     0
 46
0.18
 94
-1056964608
 47
1.0
 49
1.0
140
1.0
293
     1
141
0.0
294
     1
177
     0
142
1.0
295
     0
296
     1
143
0.125
1001
ACAD_MLEADERVER
1070
     2
  0
MLEADERSTYLE
  5
D8
102
{ACAD_REACTORS
330
D7
102
}
330
D7
100
AcDbMLeaderStyle
170
     2
171
     1
172
     0
 90
        2
 40
0.0
 41
0.0
173
     1
 91
-1056964608
340
14
 92
       -2
290
     1
 42
0.09
291
     1
 43
0.36
  3
Standard
 44
0.18
300

342
11
174
     1
178
     1
175
     1
176
     0
 93
-1056964608
 45
0.18
292
     0
297
     0
 46
0.18
 94
-1056964608
 47
1.0
 49
1.0
140
1.0
293
     1
141
0.0
294
     1
177
     0
142
1.0
295
     0
296
     0
143
0.125
1001
ACAD_MLEADERVER
1070
     2
  0
MLINESTYLE
  5
18
102
{ACAD_REACTORS
330
17
102
}
330
17
100
AcDbMlineStyle
  2
STANDARD
 70
     0
  3

 62
   256
 51
90.0
 52
90.0
 71
     2
 49
0.5
 62
   256
  6
BYLAYER
 49
-0.5
 62
   256
  6
BYLAYER
  0
ACDBPLACEHOLDER
  5
F
102
{ACAD_REACTORS
330
E
102
}
330
E
  0
SCALE
  5
B7
102
{ACAD_REACTORS
330
B6
102
}
330
B6
100
AcDbScale
 70
     0
300
1:1
140
1.0
141
1.0
290
     1
  0
SCALE
  5
124
102
{ACAD_REACTORS
330
B6
102
}
330
B6
100
AcDbScale
 70
     0
300
1:2
140
1.0
141
2.0
290
     0
  0
SCALE
  5
125
102
{ACAD_REACTORS
330
B6
102
}
330
B6
100
AcDbScale
 70
     0
300
1:4
140
1.0
141
4.0
290
     0
  0
SCALE
  5
126
102
{ACAD_REACTORS
330
B6
102
}
330
B6
100
AcDbScale
 70
     0
300
1:5
140
1.0
141
5.0
290
     0
  0
SCALE
  5
127
102
{ACAD_REACTORS
330
B6
102
}
330
B6
100
AcDbScale
 70
     0
300
1:8
140
1.0
141
8.0
290
     0
  0
SCALE
  5
128
102
{ACAD_REACTORS
330
B6
102
}
330
B6
100
AcDbScale
 70
     0
300
1:10
140
1.0
141
10.0
290
     0
  0
SCALE
  5
129
102
{ACAD_REACTORS
330
B6
102
}
330
B6
100
AcDbScale
 70
     0
300
1:16
140
1.0
141
16.0
290
     0
  0
SCALE
  5
12A
102
{ACAD_REACTORS
330
B6
102
}
330
B6
100
AcDbScale
 70
     0
300
1:20
140
1.0
141
20.0
290
     0
  0
SCALE
  5
12B
102
{ACAD_REACTORS
330
B6
102
}
330
B6
100
AcDbScale
 70
     0
300
1:30
140
1.0
141
30.0
290
     0
  0
SCALE
  5
12C
102
{ACAD_REACTORS
330
B6
102
}
330
B6
100
AcDbScale
 70
     0
300
1:40
140
1.0
141
40.0
290
     0
  0
SCALE
  5
12D
102
{ACAD_REACTORS
330
B6
102
}
330
B6
100
AcDbScale
 70
     0
300
1:50
140
1.0
141
50.0
290
     0
  0
SCALE
  5
12E
102
{ACAD_REACTORS
330
B6
102
}
330
B6
100
AcDbScale
 70
     0
300
1:100
140
1.0
141
100.0
290
     0
  0
SCALE
  5
12F
102
{ACAD_REACTORS
330
B6
102
}
330
B6
100
AcDbScale
 70
     0
300
2:1
140
2.0
141
1.0
290
     0
  0
SCALE
  5
130
102
{ACAD_REACTORS
330
B6
102
}
330
B6
100
AcDbScale
 70
     0
300
4:1
140
4.0
141
1.0
290
     0
  0
SCALE
  5
131
102
{ACAD_REACTORS
330
B6
102
}
330
B6
100
AcDbScale
 70
     0
300
8:1
140
8.0
141
1.0
290
     0
  0
SCALE
  5
132
102
{ACAD_REACTORS
330
B6
102
}
330
B6
100
AcDbScale
 70
     0
300
10:1
140
10.0
141
1.0
290
     0
  0
SCALE
  5
133
102
{ACAD_REACTORS
330
B6
102
}
330
B6
100
AcDbScale
 70
     0
300
100:1
140
100.0
141
1.0
290
     0
  0
SCALE
  5
134
102
{ACAD_REACTORS
330
B6
102
}
330
B6
100
AcDbScale
 70
     0
300
1/128" = 1'-0"
140
0.0078125
141
12.0
290
     0
  0
SCALE
  5
135
102
{ACAD_REACTORS
330
B6
102
}
330
B6
100
AcDbScale
 70
     0
300
1/64" = 1'-0"
140
0.015625
141
12.0
290
     0
  0
SCALE
  5
136
102
{ACAD_REACTORS
330
B6
102
}
330
B6
100
AcDbScale
 70
     0
300
1/32" = 1'-0"
140
0.03125
141
12.0
290
     0
  0
SCALE
  5
137
102
{ACAD_REACTORS
330
B6
102
}
330
B6
100
AcDbScale
 70
     0
300
1/16" = 1'-0"
140
0.0625
141
12.0
290
     0
  0
SCALE
  5
138
102
{ACAD_REACTORS
330
B6
102
}
330
B6
100
AcDbScale
 70
     0
300
3/32" = 1'-0"
140
0.09375
141
12.0
290
     0
  0
SCALE
  5
139
102
{ACAD_REACTORS
330
B6
102
}
330
B6
100
AcDbScale
 70
     0
300
1/8" = 1'-0"
140
0.125
141
12.0
290
     0
  0
SCALE
  5
13A
102
{ACAD_REACTORS
330
B6
102
}
330
B6
100
AcDbScale
 70
     0
300
3/16" = 1'-0"
140
0.1875
141
12.0
290
     0
  0
SCALE
  5
13B
102
{ACAD_REACTORS
330
B6
102
}
330
B6
100
AcDbScale
 70
     0
300
1/4" = 1'-0"
140
0.25
141
12.0
290
     0
  0
SCALE
  5
13C
102
{ACAD_REACTORS
330
B6
102
}
330
B6
100
AcDbScale
 70
     0
300
3/8" = 1'-0"
140
0.375
141
12.0
290
     0
  0
SCALE
  5
13D
102
{ACAD_REACTORS
330
B6
102
}
330
B6
100
AcDbScale
 70
     0
300
1/2" = 1'-0"
140
0.5
141
12.0
290
     0
  0
SCALE
  5
13E
102
{ACAD_REACTORS
330
B6
102
}
330
B6
100
AcDbScale
 70
     0
300
3/4" = 1'-0"
140
0.75
141
12.0
290
     0
  0
SCALE
  5
13F
102
{ACAD_REACTORS
330
B6
102
}
330
B6
100
AcDbScale
 70
     0
300
1" = 1'-0"
140
1.0
141
12.0
290
     0
  0
SCALE
  5
140
102
{ACAD_REACTORS
330
B6
102
}
330
B6
100
AcDbScale
 70
     0
300
1-1/2" = 1'-0"
140
1.5
141
12.0
290
     0
  0
SCALE
  5
141
102
{ACAD_REACTORS
330
B6
102
}
330
B6
100
AcDbScale
 70
     0
300
3" = 1'-0"
140
3.0
141
12.0
290
     0
  0
SCALE
  5
142
102
{ACAD_REACTORS
330
B6
102
}
330
B6
100
AcDbScale
 70
     0
300
6" = 1'-0"
140
6.0
141
12.0
290
     0
  0
SCALE
  5
143
102
{ACAD_REACTORS
330
B6
102
}
330
B6
100
AcDbScale
 70
     0
300
1'-0" = 1'-0"
140
12.0
141
12.0
290
     0
  0
TABLESTYLE
  5
87
102
{ACAD_XDICTIONARY
360
104
102
}
102
{ACAD_REACTORS
330
86
102
}
330
86
100
AcDbTableStyle
  3
Standard
 70
     0
 71
     0
 40
0.06
 41
0.06
280
     0
281
     0
  7
Standard
140
0.18
170
     2
 62
     0
 63
     7
283
     0
274
    -2
284
     1
 64
     0
275
    -2
285
     1
 65
     0
276
    -2
286
     1
 66
     0
277
    -2
287
     1
 67
     0
278
    -2
288
     1
 68
     0
279
    -2
289
     1
 69
     0
  7
Standard
140
0.25
170
     5
 62
     0
 63
     7
283
     0
274
    -2
284
     1
 64
     0
275
    -2
285
     1
 65
     0
276
    -2
286
     1
 66
     0
277
    -2
287
     1
 67
     0
278
    -2
288
     1
 68
     0
279
    -2
289
     1
 69
     0
  7
Standard
140
0.18
170
     5
 62
     0
 63
     7
283
     0
274
    -2
284
     1
 64
     0
275
    -2
285
     1
 65
     0
276
    -2
286
     1
 66
     0
277
    -2
287
     1
 67
     0
278
    -2
288
     1
 68
     0
279
    -2
289
     1
 69
     0
  0
VISUALSTYLE
  5
9F
102
{ACAD_REACTORS
330
99
102
}
330
99
100
AcDbVisualStyle
  2
2dWireframe
 70
     4
 71
     0
 72
     2
 73
     1
 90
        0
 40
-0.6
 41
-30.0
 62
     5
 63
     7
 74
     1
 91
        4
 64
     7
 65
   257
 75
     1
175
     1
 42
1.0
 92
        0
 66
   257
 43
1.0
 76
     1
 77
     6
 78
     2
 67
     7
 79
     5
170
     0
171
     0
290
     0
174
     0
 93
        1
 44
0.0
173
     0
291
     0
 45
0.0
1001
ACAD
1000
AcDbSavedByObjectVersion
1070
     0
  0
VISUALSTYLE
  5
A1
102
{ACAD_REACTORS
330
99
102
}
330
99
100
AcDbVisualStyle
  2
3D Hidden
 70
     6
 71
     1
 72
     2
 73
     2
 90
        0
 40
-0.6
 41
-30.0
 62
     5
 63
     7
 74
     2
 91
        2
 64
     7
 65
   257
 75
     2
175
     1
 42
40.0
 92
        0
 66
   257
 43
1.0
 76
     1
 77
     6
 78
     2
 67
     7
 79
     3
170
     0
171
     0
290
     0
174
     0
 93
        1
 44
0.0
173
     0
291
     0
 45
0.0
1001
ACAD
1000
AcDbSavedByObjectVersion
1070
     0
  0
VISUALSTYLE
  5
A0
102
{ACAD_REACTORS
330
99
102
}
330
99
100
AcDbVisualStyle
  2
3dWireframe
 70
     5
 71
     0
 72
     2
 73
     1
 90
        0
 40
-0.6
 41
-30.0
 62
     5
 63
     7
 74
     1
 91
        4
 64
     7
 65
   257
 75
     1
175
     1
 42
1.0
 92
        0
 66
   257
 43
1.0
 76
     1
 77
     6
 78
     2
 67
     7
 79
     5
170
     0
171
     0
290
     0
174
     0
 93
        1
 44
0.0
173
     0
291
     0
 45
0.0
1001
ACAD
1000
AcDbSavedByObjectVersion
1070
     0
  0
VISUALSTYLE
  5
9E
102
{ACAD_REACTORS
330
99
102
}
330
99
100
AcDbVisualStyle
  2
Basic
 70
     7
 71
     1
 72
     0
 73
     1
 90
        0
 40
-0.6
 41
-30.0
 62
     5
 63
     7
 74
     0
 91
        4
 64
     7
 65
   257
 75
     1
175
     1
 42
1.0
 92
        8
 66
     7
 43
1.0
 76
     1
 77
     6
 78
     2
 67
     7
 79
     5
170
     0
171
     0
290
     0
174
     0
 93
        1
 44
0.0
173
     0
291
     1
 45
0.0
1001
ACAD
1000
AcDbSavedByObjectVersion
1070
     0
  0
VISUALSTYLE
  5
A5
102
{ACAD_REACTORS
330
99
102
}
330
99
100
AcDbVisualStyle
  2
Brighten
 70
    12
 71
     2
 72
     2
 73
     1
 90
        0
 40
-0.6
 41
-30.0
 62
     5
 63
     7
 74
     1
 91
        4
 64
     7
 65
   257
 75
     1
175
     1
 42
1.0
 92
        8
 66
     7
 43
1.0
 76
     1
 77
     6
 78
     2
 67
     7
 79
     5
170
     0
171
     0
290
     0
174
     0
 93
        1
 44
50.0
173
     0
291
     1
 45
0.0
1001
ACAD
1000
AcDbSavedByObjectVersion
1070
     0
  0
VISUALSTYLE
  5
A9
102
{ACAD_REACTORS
330
99
102
}
330
99
100
AcDbVisualStyle
  2
ColorChange
 70
    16
 71
     2
 72
     2
 73
     3
 90
        0
 40
-0.6
 41
-30.0
 62
     5
 63
     8
 74
     1
 91
        4
 64
     7
 65
   257
 75
     1
175
     1
 42
1.0
 92
        8
 66
     8
 43
1.0
 76
     1
 77
     6
 78
     2
 67
     7
 79
     5
170
     0
171
     0
290
     0
174
     0
 93
        1
 44
0.0
173
     0
291
     1
 45
0.0
1001
ACAD
1000
AcDbSavedByObjectVersion
1070
     0
  0
VISUALSTYLE
  5
A2
102
{ACAD_REACTORS
330
99
102
}
330
99
100
AcDbVisualStyle
  2
Conceptual
 70
     9
 71
     3
 72
     2
 73
     1
 90
        0
 40
-0.6
 41
-30.0
 62
     5
 63
     7
 74
     2
 91
        2
 64
     7
 65
   257
 75
     1
175
     1
 42
40.0
 92
        8
 66
     7
 43
1.0
 76
     1
 77
     6
 78
     2
 67
     7
 79
     3
170
     0
171
     0
290
     0
174
     0
 93
        1
 44
0.0
173
     0
291
     0
 45
0.0
1001
ACAD
1000
AcDbSavedByObjectVersion
1070
     0
  0
VISUALSTYLE
  5
A4
102
{ACAD_REACTORS
330
99
102
}
330
99
100
AcDbVisualStyle
  2
Dim
 70
    11
 71
     2
 72
     2
 73
     1
 90
        0
 40
-0.6
 41
-30.0
 62
     5
 63
     7
 74
     1
 91
        4
 64
     7
 65
   257
 75
     1
175
     1
 42
1.0
 92
        8
 66
     7
 43
1.0
 76
     1
 77
     6
 78
     2
 67
     7
 79
     5
170
     0
171
     0
290
     0
174
     0
 93
        1
 44
-50.0
173
     0
291
     1
 45
0.0
1001
ACAD
1000
AcDbSavedByObjectVersion
1070
     0
  0
VISUALSTYLE
  5
A8
102
{ACAD_REACTORS
330
99
102
}
330
99
100
AcDbVisualStyle
  2
Facepattern
 70
    15
 71
     2
 72
     2
 73
     1
 90
        0
 40
-0.6
 41
-30.0
 62
     5
 63
     7
 74
     1
 91
        4
 64
     7
 65
   257
 75
     1
175
     1
 42
1.0
 92
        8
 66
     7
 43
1.0
 76
     1
 77
     6
 78
     2
 67
     7
 79
     5
170
     0
171
     0
290
     0
174
     0
 93
        1
 44
0.0
173
     0
291
     1
 45
0.0
1001
ACAD
1000
AcDbSavedByObjectVersion
1070
     0
  0
VISUALSTYLE
  5
9A
102
{ACAD_REACTORS
330
99
102
}
330
99
100
AcDbVisualStyle
  2
Flat
 70
     0
 71
     2
 72
     1
 73
     1
 90
        2
 40
-0.6
 41
30.0
 62
     5
 63
     7
 74
     0
 91
        4
 64
     7
 65
   257
 75
     1
175
     1
 42
1.0
 92
        8
 66
     7
 43
1.0
 76
     1
 77
     6
 78
     2
 67
     7
 79
     5
170
     0
171
     0
290
     0
174
     0
 93
        1
 44
0.0
173
     0
291
     1
 45
0.0
1001
ACAD
1000
AcDbSavedByObjectVersion
1070
     0
  0
VISUALSTYLE
  5
9B
102
{ACAD_REACTORS
330
99
102
}
330
99
100
AcDbVisualStyle
  2
FlatWithEdges
 70
     1
 71
     2
 72
     1
 73
     1
 90
        2
 40
-0.6
 41
30.0
 62
     5
 63
     7
 74
     1
 91
        4
 64
     7
 65
   257
 75
     1
175
     1
 42
1.0
 92
        0
 66
   257
 43
1.0
 76
     1
 77
     6
 78
     2
 67
     7
 79
     5
170
     0
171
     0
290
     0
174
     0
 93
        1
 44
0.0
173
     0
291
     1
 45
0.0
1001
ACAD
1000
AcDbSavedByObjectVersion
1070
     0
  0
VISUALSTYLE
  5
9C
102
{ACAD_REACTORS
330
99
102
}
330
99
100
AcDbVisualStyle
  2
Gouraud
 70
     2
 71
     2
 72
     2
 73
     1
 90
        2
 40
-0.6
 41
30.0
 62
     5
 63
     7
 74
     0
 91
        4
 64
     7
 65
   257
 75
     1
175
     1
 42
1.0
 92
        0
 66
     7
 43
1.0
 76
     1
 77
     6
 78
     2
 67
     7
 79
     5
170
     0
171
     0
290
     0
174
     0
 93
        1
 44
0.0
173
     0
291
     1
 45
0.0
1001
ACAD
1000
AcDbSavedByObjectVersion
1070
     0
  0
VISUALSTYLE
  5
9D
102
{ACAD_REACTORS
330
99
102
}
330
99
100
AcDbVisualStyle
  2
GouraudWithEdges
 70
     3
 71
     2
 72
     2
 73
     1
 90
        2
 40
-0.6
 41
30.0
 62
     5
 63
     7
 74
     1
 91
        4
 64
     7
 65
   257
 75
     1
175
     1
 42
1.0
 92
        0
 66
   257
 43
1.0
 76
     1
 77
     6
 78
     2
 67
     7
 79
     5
170
     0
171
     0
290
     0
174
     0
 93
        1
 44
0.0
173
     0
291
     1
 45
0.0
1001
ACAD
1000
AcDbSavedByObjectVersion
1070
     0
  0
VISUALSTYLE
  5
A7
102
{ACAD_REACTORS
330
99
102
}
330
99
100
AcDbVisualStyle
  2
Linepattern
 70
    14
 71
     2
 72
     2
 73
     1
 90
        0
 40
-0.6
 41
-30.0
 62
     5
 63
     7
 74
     1
 91
        4
 64
     7
 65
   257
 75
     7
175
     7
 42
1.0
 92
        8
 66
     7
 43
1.0
 76
     1
 77
     6
 78
     2
 67
     7
 79
     5
170
     0
171
     0
290
     0
174
     0
 93
        1
 44
0.0
173
     0
291
     1
 45
0.0
1001
ACAD
1000
AcDbSavedByObjectVersion
1070
     0
  0
VISUALSTYLE
  5
A3
102
{ACAD_REACTORS
330
99
102
}
330
99
100
AcDbVisualStyle
  2
Realistic
 70
     8
 71
     2
 72
     2
 73
     1
 90
        0
 40
-0.6
 41
-30.0
 62
     5
 63
     7
 74
     1
 91
        0
 64
     7
 65
   257
 75
     1
175
     1
 42
1.0
 92
        8
 66
     8
 43
1.0
 76
     1
 77
     6
 78
     2
 67
     7
 79
     5
170
     0
171
     0
290
     0
174
     0
 93
       13
 44
0.0
173
     0
291
     0
 45
0.0
1001
ACAD
1000
AcDbSavedByObjectVersion
1070
     0
  0
VISUALSTYLE
  5
A6
102
{ACAD_REACTORS
330
99
102
}
330
99
100
AcDbVisualStyle
  2
Thicken
 70
    13
 71
     2
 72
     2
 73
     1
 90
        0
 40
-0.6
 41
-30.0
 62
     5
 63
     7
 74
     1
 91
        4
 64
     7
 65
   257
 75
     1
175
     1
 42
1.0
 92
       12
 66
     7
 43
1.0
 76
     1
 77
     6
 78
     2
 67
     7
 79
     5
170
     0
171
     0
290
     0
174
     0
 93
        1
 44
0.0
173
     0
291
     1
 45
0.0
1001
ACAD
1000
AcDbSavedByObjectVersion
1070
     0
  0
DICTIONARYVAR
  5
F0
102
{ACAD_REACTORS
330
66
102
}
330
66
100
DictionaryVariables
280
     0
  1
1:1
  0
DICTIONARYVAR
  5
EF
102
{ACAD_REACTORS
330
66
102
}
330
66
100
DictionaryVariables
280
     0
  1
STANDARD
  0
DICTIONARYVAR
  5
89
102
{ACAD_REACTORS
330
66
102
}
330
66
100
DictionaryVariables
280
     0
  1
STANDARD
  0
DICTIONARYVAR
  5
67
102
{ACAD_REACTORS
330
66
102
}
330
66
100
DictionaryVariables
280
     0
  1
2
  0
DICTIONARYVAR
  5
6B
102
{ACAD_REACTORS
330
66
102
}
330
66
100
DictionaryVariables
280
     0
  1
1
  0
DICTIONARYVAR
  5
5CA
102
{ACAD_REACTORS
330
66
102
}
330
66
100
DictionaryVariables
280
     0
  1
0
  0
DICTIONARYVAR
  5
5C8
102
{ACAD_REACTORS
330
66
102
}
330
66
100
DictionaryVariables
280
     0
  1
2
  0
DICTIONARYVAR
  5
5C7
102
{ACAD_REACTORS
330
66
102
}
330
66
100
DictionaryVariables
280
     0
  1
1
  0
DICTIONARYVAR
  5
5C9
102
{ACAD_REACTORS
330
66
102
}
330
66
100
DictionaryVariables
280
     0
  1
127
  0
DICTIONARY
  5
5CF
330
59
100
AcDbDictionary
280
     1
281
     1
  3
ACAD_XREC_ROUNDTRIP
360
5D0
  0
DICTIONARY
  5
5D1
330
5E
100
AcDbDictionary
280
     1
281
     1
  3
ACAD_XREC_ROUNDTRIP
360
5D2
  0
DICTIONARY
  5
5CD
330
22
100
AcDbDictionary
280
     1
281
     1
  3
ACAD_XREC_ROUNDTRIP
360
5CE
  0
DICTIONARY
  5
5D6
330
97
100
AcDbDictionary
280
     1
281
     1
  3
ACAD_XREC_ROUNDTRIP
360
5D7
  0
DICTIONARY
  5
5D4
330
96
100
AcDbDictionary
280
     1
281
     1
  3
ACAD_XREC_ROUNDTRIP
360
5D5
  0
DICTIONARY
  5
110
330
98
100
AcDbDictionary
280
     1
281
     1
  3
ACAD_XREC_ROUNDTRIP
360
5D8
  3
BUMPTILE
360
112
  3
DIFFUSETILE
360
111
  3
OPACITYTILE
360
113
  3
REFLECTIONTILE
360
114
  0
DICTIONARY
  5
104
330
87
100
AcDbDictionary
280
     1
281
     1
  3
ACAD_ROUNDTRIP_2008_TABLESTYLE_CELLSTYLEMAP
360
5CB
  3
ACAD_XREC_ROUNDTRIP
360
5D3
  0
XRECORD
  5
5D0
102
{ACAD_REACTORS
330
5CF
102
}
330
5CF
100
AcDbXrecord
280
     1
102
SHADEPLOT
 70
     0
102
SHADEPLOTRESLEVEL
 70
     2
102
SHADEPLOTCUSTOMDPI
 70
   300
  0
XRECORD
  5
5D2
102
{ACAD_REACTORS
330
5D1
102
}
330
5D1
100
AcDbXrecord
280
     1
102
SHADEPLOT
 70
     0
102
SHADEPLOTRESLEVEL
 70
     2
102
SHADEPLOTCUSTOMDPI
 70
   300
  0
XRECORD
  5
5CE
102
{ACAD_REACTORS
330
5CD
102
}
330
5CD
100
AcDbXrecord
280
     1
102
SHADEPLOT
 70
     0
102
SHADEPLOTRESLEVEL
 70
     2
102
SHADEPLOTCUSTOMDPI
 70
   300
  0
XRECORD
  5
5D7
102
{ACAD_REACTORS
330
5D6
102
}
330
5D6
100
AcDbXrecord
280
     1
102
MATERIAL
148
0.0
149
0.0
149
0.0
 93
        0
 94
       63
282
     0
 72
     1
 77
     1
171
     1
175
     1
179
     1
273
     0
  0
XRECORD
  5
5D5
102
{ACAD_REACTORS
330
5D4
102
}
330
5D4
100
AcDbXrecord
280
     1
102
MATERIAL
148
0.0
149
0.0
149
0.0
 93
        0
 94
       63
282
     0
 72
     1
 77
     1
171
     1
175
     1
179
     1
273
     0
  0
XRECORD
  5
5D8
102
{ACAD_REACTORS
330
110
102
}
330
110
100
AcDbXrecord
280
     1
102
MATERIAL
148
0.0
149
0.0
149
0.0
 93
        0
 94
       63
282
     0
 72
     1
 77
     1
171
     1
175
     1
179
     1
273
     0
  0
XRECORD
  5
112
102
{ACAD_REACTORS
330
110
102
}
330
110
100
AcDbXrecord
280
     1
270
     1
271
     1
  0
XRECORD
  5
111
102
{ACAD_REACTORS
330
110
102
}
330
110
100
AcDbXrecord
280
     1
270
     1
271
     1
  0
XRECORD
  5
113
102
{ACAD_REACTORS
330
110
102
}
330
110
100
AcDbXrecord
280
     1
270
     1
271
     1
  0
XRECORD
  5
114
102
{ACAD_REACTORS
330
110
102
}
330
110
100
AcDbXrecord
280
     1
270
     1
271
     1
  0
CELLSTYLEMAP
  5
5CB
102
{ACAD_REACTORS
330
104
102
}
330
104
100
AcDbCellStyleMap
 90
        3
300
CELLSTYLE
  1
TABLEFORMAT_BEGIN
 90
        5
170
     1
 91
        0
 92
    32768
 62
   257
 93
        1
300
CONTENTFORMAT
  1
CONTENTFORMAT_BEGIN
 90
        0
 91
        0
 92
      512
 93
        0
300

 40
0.0
140
1.0
 94
        5
 62
     0
340
11
144
0.25
309
CONTENTFORMAT_END
171
     1
301
MARGIN
  1
CELLMARGIN_BEGIN
 40
0.06
 40
0.06
 40
0.06
 40
0.06
 40
0.18
 40
0.18
309
CELLMARGIN_END
 94
        6
 95
        1
302
GRIDFORMAT
  1
GRIDFORMAT_BEGIN
 90
        0
 91
        1
 62
     0
 92
       -2
340
0
 93
        0
 40
0.045
309
GRIDFORMAT_END
 95
        2
302
GRIDFORMAT
  1
GRIDFORMAT_BEGIN
 90
        0
 91
        1
 62
     0
 92
       -2
340
0
 93
        0
 40
0.045
309
GRIDFORMAT_END
 95
        4
302
GRIDFORMAT
  1
GRIDFORMAT_BEGIN
 90
        0
 91
        1
 62
     0
 92
       -2
340
0
 93
        0
 40
0.045
309
GRIDFORMAT_END
 95
        8
302
GRIDFORMAT
  1
GRIDFORMAT_BEGIN
 90
        0
 91
        1
 62
     0
 92
       -2
340
0
 93
        0
 40
0.045
309
GRIDFORMAT_END
 95
       16
302
GRIDFORMAT
  1
GRIDFORMAT_BEGIN
 90
        0
 91
        1
 62
     0
 92
       -2
340
0
 93
        0
 40
0.045
309
GRIDFORMAT_END
 95
       32
302
GRIDFORMAT
  1
GRIDFORMAT_BEGIN
 90
        0
 91
        1
 62
     0
 92
       -2
340
0
 93
        0
 40
0.045
309
GRIDFORMAT_END
309
TABLEFORMAT_END
  1
CELLSTYLE_BEGIN
 90
        1
 91
        1
300
_TITLE
309
CELLSTYLE_END
300
CELLSTYLE
  1
TABLEFORMAT_BEGIN
 90
        5
170
     1
 91
        0
 92
        0
 62
   257
 93
        1
300
CONTENTFORMAT
  1
CONTENTFORMAT_BEGIN
 90
        0
 91
        0
 92
      512
 93
        0
300

 40
0.0
140
1.0
 94
        5
 62
     0
340
11
144
0.18
309
CONTENTFORMAT_END
171
     1
301
MARGIN
  1
CELLMARGIN_BEGIN
 40
0.06
 40
0.06
 40
0.06
 40
0.06
 40
0.18
 40
0.18
309
CELLMARGIN_END
 94
        6
 95
        1
302
GRIDFORMAT
  1
GRIDFORMAT_BEGIN
 90
        0
 91
        1
 62
     0
 92
       -2
340
0
 93
        0
 40
0.045
309
GRIDFORMAT_END
 95
        2
302
GRIDFORMAT
  1
GRIDFORMAT_BEGIN
 90
        0
 91
        1
 62
     0
 92
       -2
340
0
 93
        0
 40
0.045
309
GRIDFORMAT_END
 95
        4
302
GRIDFORMAT
  1
GRIDFORMAT_BEGIN
 90
        0
 91
        1
 62
     0
 92
       -2
340
0
 93
        0
 40
0.045
309
GRIDFORMAT_END
 95
        8
302
GRIDFORMAT
  1
GRIDFORMAT_BEGIN
 90
        0
 91
        1
 62
     0
 92
       -2
340
0
 93
        0
 40
0.045
309
GRIDFORMAT_END
 95
       16
302
GRIDFORMAT
  1
GRIDFORMAT_BEGIN
 90
        0
 91
        1
 62
     0
 92
       -2
340
0
 93
        0
 40
0.045
309
GRIDFORMAT_END
 95
       32
302
GRIDFORMAT
  1
GRIDFORMAT_BEGIN
 90
        0
 91
        1
 62
     0
 92
       -2
340
0
 93
        0
 40
0.045
309
GRIDFORMAT_END
309
TABLEFORMAT_END
  1
CELLSTYLE_BEGIN
 90
        2
 91
        1
300
_HEADER
309
CELLSTYLE_END
300
CELLSTYLE
  1
TABLEFORMAT_BEGIN
 90
        5
170
     1
 91
        0
 92
        0
 62
   257
 93
        1
300
CONTENTFORMAT
  1
CONTENTFORMAT_BEGIN
 90
        0
 91
        0
 92
      512
 93
        0
300

 40
0.0
140
1.0
 94
        2
 62
     0
340
11
144
0.18
309
CONTENTFORMAT_END
171
     1
301
MARGIN
  1
CELLMARGIN_BEGIN
 40
0.06
 40
0.06
 40
0.06
 40
0.06
 40
0.18
 40
0.18
309
CELLMARGIN_END
 94
        6
 95
        1
302
GRIDFORMAT
  1
GRIDFORMAT_BEGIN
 90
        0
 91
        1
 62
     0
 92
       -2
340
0
 93
        0
 40
0.045
309
GRIDFORMAT_END
 95
        2
302
GRIDFORMAT
  1
GRIDFORMAT_BEGIN
 90
        0
 91
        1
 62
     0
 92
       -2
340
0
 93
        0
 40
0.045
309
GRIDFORMAT_END
 95
        4
302
GRIDFORMAT
  1
GRIDFORMAT_BEGIN
 90
        0
 91
        1
 62
     0
 92
       -2
340
0
 93
        0
 40
0.045
309
GRIDFORMAT_END
 95
        8
302
GRIDFORMAT
  1
GRIDFORMAT_BEGIN
 90
        0
 91
        1
 62
     0
 92
       -2
340
0
 93
        0
 40
0.045
309
GRIDFORMAT_END
 95
       16
302
GRIDFORMAT
  1
GRIDFORMAT_BEGIN
 90
        0
 91
        1
 62
     0
 92
       -2
340
0
 93
        0
 40
0.045
309
GRIDFORMAT_END
 95
       32
302
GRIDFORMAT
  1
GRIDFORMAT_BEGIN
 90
        0
 91
        1
 62
     0
 92
       -2
340
0
 93
        0
 40
0.045
309
GRIDFORMAT_END
309
TABLEFORMAT_END
  1
CELLSTYLE_BEGIN
 90
        3
 91
        2
300
_DATA
309
CELLSTYLE_END
  0
XRECORD
  5
5D3
102
{ACAD_REACTORS
330
104
102
}
330
104
100
AcDbXrecord
280
     1
102
ACAD_ROUNDTRIP_PRE2007_TABLESTYLE
 90
      512
 91
        0
  1

 92
      512
 93
        0
  2

 94
      512
 95
        0
  3

  0
ENDSEC
  0
EOF
