  0
SECTION
  2
HEADER
  9
$ACADVER
  1
AC1015
  9
$ACADMAINTVER
 70
    20
  9
$DWGCODEPAGE
  3
ANSI_1252
  9
$INSBASE
 10
0.0
 20
0.0
 30
0.0
  9
$EXTMIN
 10
13.92771709845454
 20
22.20705889044896
 30
0.0
  9
$EXTMAX
 10
501.8108728284545
 20
612.9699085404491
 30
0.0
  9
$LIMMIN
 10
0.0
 20
0.0
  9
$LIMMAX
 10
12.0
 20
9.0
  9
$ORTHOMODE
 70
     0
  9
$REGENMODE
 70
     1
  9
$FILLMODE
 70
     1
  9
$QTEXTMODE
 70
     0
  9
$MIRRTEXT
 70
     0
  9
$LTSCALE
 40
1.0
  9
$ATTMODE
 70
     1
  9
$TEXTSIZE
 40
0.2
  9
$TRACEWID
 40
0.05
  9
$TEXTSTYLE
  7
Standard
  9
$CLAYER
  8
0
  9
$CELTYPE
  6
ByLayer
  9
$CECOLOR
 62
   256
  9
$CELTSCALE
 40
1.0
  9
$DISPSILH
 70
     0
  9
$DIMSCALE
 40
1.0
  9
$DIMASZ
 40
0.18
  9
$DIMEXO
 40
0.0625
  9
$DIMDLI
 40
0.38
  9
$DIMRND
 40
0.0
  9
$DIMDLE
 40
0.0
  9
$DIMEXE
 40
0.18
  9
$DIMTP
 40
0.0
  9
$DIMTM
 40
0.0
  9
$DIMTXT
 40
0.18
  9
$DIMCEN
 40
0.09
  9
$DIMTSZ
 40
0.0
  9
$DIMTOL
 70
     0
  9
$DIMLIM
 70
     0
  9
$DIMTIH
 70
     1
  9
$DIMTOH
 70
     1
  9
$DIMSE1
 70
     0
  9
$DIMSE2
 70
     0
  9
$DIMTAD
 70
     0
  9
$DIMZIN
 70
     0
  9
$DIMBLK
  1

  9
$DIMASO
 70
     1
  9
$DIMSHO
 70
     1
  9
$DIMPOST
  1

  9
$DIMAPOST
  1

  9
$DIMALT
 70
     0
  9
$DIMALTD
 70
     2
  9
$DIMALTF
 40
25.4
  9
$DIMLFAC
 40
1.0
  9
$DIMTOFL
 70
     0
  9
$DIMTVP
 40
0.0
  9
$DIMTIX
 70
     0
  9
$DIMSOXD
 70
     0
  9
$DIMSAH
 70
     0
  9
$DIMBLK1
  1

  9
$DIMBLK2
  1

  9
$DIMSTYLE
  2
Standard
  9
$DIMCLRD
 70
     0
  9
$DIMCLRE
 70
     0
  9
$DIMCLRT
 70
     0
  9
$DIMTFAC
 40
1.0
  9
$DIMGAP
 40
0.09
  9
$DIMJUST
 70
     0
  9
$DIMSD1
 70
     0
  9
$DIMSD2
 70
     0
  9
$DIMTOLJ
 70
     1
  9
$DIMTZIN
 70
     0
  9
$DIMALTZ
 70
     0
  9
$DIMALTTZ
 70
     0
  9
$DIMUPT
 70
     0
  9
$DIMDEC
 70
     4
  9
$DIMTDEC
 70
     4
  9
$DIMALTU
 70
     2
  9
$DIMALTTD
 70
     2
  9
$DIMTXSTY
  7
Standard
  9
$DIMAUNIT
 70
     0
  9
$DIMADEC
 70
     0
  9
$DIMALTRND
 40
0.0
  9
$DIMAZIN
 70
     0
  9
$DIMDSEP
 70
    46
  9
$DIMATFIT
 70
     3
  9
$DIMFRAC
 70
     0
  9
$DIMLDRBLK
  1

  9
$DIMLUNIT
 70
     2
  9
$DIMLWD
 70
    -2
  9
$DIMLWE
 70
    -2
  9
$DIMTMOVE
 70
     0
  9
$LUNITS
 70
     2
  9
$LUPREC
 70
     4
  9
$SKETCHINC
 40
0.1
  9
$FILLETRAD
 40
0.0
  9
$AUNITS
 70
     0
  9
$AUPREC
 70
     0
  9
$MENU
  1
.
  9
$ELEVATION
 40
0.0
  9
$PELEVATION
 40
0.0
  9
$THICKNESS
 40
0.0
  9
$LIMCHECK
 70
     0
  9
$CHAMFERA
 40
0.0
  9
$CHAMFERB
 40
0.0
  9
$CHAMFERC
 40
0.0
  9
$CHAMFERD
 40
0.0
  9
$SKPOLY
 70
     0
  9
$TDCREATE
 40
2455511.361958102
  9
$TDUCREATE
 40
2455511.320291436
  9
$TDUPDATE
 40
2455511.362099838
  9
$TDUUPDATE
 40
2455511.320433171
  9
$TDINDWG
 40
0.0001419213
  9
$TDUSRTIMER
 40
0.0001419213
  9
$USRTIMER
 70
     1
  9
$ANGBASE
 50
0.0
  9
$ANGDIR
 70
     0
  9
$PDMODE
 70
     0
  9
$PDSIZE
 40
0.0
  9
$PLINEWID
 40
0.0
  9
$SPLFRAME
 70
     0
  9
$SPLINETYPE
 70
     6
  9
$SPLINESEGS
 70
     8
  9
$HANDSEED
  5
5F5
  9
$SURFTAB1
 70
     6
  9
$SURFTAB2
 70
     6
  9
$SURFTYPE
 70
     6
  9
$SURFU
 70
     6
  9
$SURFV
 70
     6
  9
$UCSBASE
  2

  9
$UCSNAME
  2

  9
$UCSORG
 10
0.0
 20
0.0
 30
0.0
  9
$UCSXDIR
 10
1.0
 20
0.0
 30
0.0
  9
$UCSYDIR
 10
0.0
 20
1.0
 30
0.0
  9
$UCSORTHOREF
  2

  9
$UCSORTHOVIEW
 70
     0
  9
$UCSORGTOP
 10
0.0
 20
0.0
 30
0.0
  9
$UCSORGBOTTOM
 10
0.0
 20
0.0
 30
0.0
  9
$UCSORGLEFT
 10
0.0
 20
0.0
 30
0.0
  9
$UCSORGRIGHT
 10
0.0
 20
0.0
 30
0.0
  9
$UCSORGFRONT
 10
0.0
 20
0.0
 30
0.0
  9
$UCSORGBACK
 10
0.0
 20
0.0
 30
0.0
  9
$PUCSBASE
  2

  9
$PUCSNAME
  2

  9
$PUCSORG
 10
0.0
 20
0.0
 30
0.0
  9
$PUCSXDIR
 10
1.0
 20
0.0
 30
0.0
  9
$PUCSYDIR
 10
0.0
 20
1.0
 30
0.0
  9
$PUCSORTHOREF
  2

  9
$PUCSORTHOVIEW
 70
     0
  9
$PUCSORGTOP
 10
0.0
 20
0.0
 30
0.0
  9
$PUCSORGBOTTOM
 10
0.0
 20
0.0
 30
0.0
  9
$PUCSORGLEFT
 10
0.0
 20
0.0
 30
0.0
  9
$PUCSORGRIGHT
 10
0.0
 20
0.0
 30
0.0
  9
$PUCSORGFRONT
 10
0.0
 20
0.0
 30
0.0
  9
$PUCSORGBACK
 10
0.0
 20
0.0
 30
0.0
  9
$USERI1
 70
     0
  9
$USERI2
 70
     0
  9
$USERI3
 70
     0
  9
$USERI4
 70
     0
  9
$USERI5
 70
     0
  9
$USERR1
 40
0.0
  9
$USERR2
 40
0.0
  9
$USERR3
 40
0.0
  9
$USERR4
 40
0.0
  9
$USERR5
 40
0.0
  9
$WORLDVIEW
 70
     1
  9
$SHADEDGE
 70
     3
  9
$SHADEDIF
 70
    70
  9
$TILEMODE
 70
     1
  9
$MAXACTVP
 70
    64
  9
$PINSBASE
 10
0.0
 20
0.0
 30
0.0
  9
$PLIMCHECK
 70
     0
  9
$PEXTMIN
 10
0.0
 20
0.0
 30
0.0
  9
$PEXTMAX
 10
0.0
 20
0.0
 30
0.0
  9
$PLIMMIN
 10
0.0
 20
0.0
  9
$PLIMMAX
 10
12.0
 20
9.0
  9
$UNITMODE
 70
     0
  9
$VISRETAIN
 70
     1
  9
$PLINEGEN
 70
     0
  9
$PSLTSCALE
 70
     1
  9
$TREEDEPTH
 70
  3020
  9
$CMLSTYLE
  2
Standard
  9
$CMLJUST
 70
     0
  9
$CMLSCALE
 40
1.0
  9
$PROXYGRAPHICS
 70
     1
  9
$MEASUREMENT
 70
     0
  9
$CELWEIGHT
370
    -1
  9
$ENDCAPS
280
     0
  9
$JOINSTYLE
280
     0
  9
$LWDISPLAY
290
     0
  9
$INSUNITS
 70
     1
  9
$HYPERLINKBASE
  1

  9
$STYLESHEET
  1

  9
$XEDIT
290
     1
  9
$CEPSNTYPE
380
     0
  9
$PSTYLEMODE
290
     1
  9
$FINGERPRINTGUID
  2
{061D58D9-4BB0-4BEA-81C6-87717E01B7AC}
  9
$VERSIONGUID
  2
{E6484E69-41F1-484C-952A-C46A2A7511D8}
  9
$EXTNAMES
290
     1
  9
$PSVPSCALE
 40
0.0
  9
$OLESTARTUP
290
     0
  0
ENDSEC
  0
SECTION
  2
CLASSES
  0
CLASS
  1
ACDBDICTIONARYWDFLT
  2
AcDbDictionaryWithDefault
  3
ObjectDBX Classes
 90
        0
280
     0
281
     0
  0
CLASS
  1
ACDBPLACEHOLDER
  2
AcDbPlaceHolder
  3
ObjectDBX Classes
 90
        0
280
     0
281
     0
  0
CLASS
  1
LAYOUT
  2
AcDbLayout
  3
ObjectDBX Classes
 90
        0
280
     0
281
     0
  0
CLASS
  1
DICTIONARYVAR
  2
AcDbDictionaryVar
  3
ObjectDBX Classes
 90
        0
280
     0
281
     0
  0
CLASS
  1
TABLESTYLE
  2
AcDbTableStyle
  3
ObjectDBX Classes
 90
     4095
280
     0
281
     0
  0
CLASS
  1
MATERIAL
  2
AcDbMaterial
  3
ObjectDBX Classes
 90
     1153
280
     0
281
     0
  0
CLASS
  1
VISUALSTYLE
  2
AcDbVisualStyle
  3
ObjectDBX Classes
 90
     4095
280
     0
281
     0
  0
CLASS
  1
SCALE
  2
AcDbScale
  3
ObjectDBX Classes
 90
     1153
280
     0
281
     0
  0
CLASS
  1
MLEADERSTYLE
  2
AcDbMLeaderStyle
  3
ACDB_MLEADERSTYLE_CLASS
 90
     4095
280
     0
281
     0
  0
CLASS
  1
CELLSTYLEMAP
  2
AcDbCellStyleMap
  3
ObjectDBX Classes
 90
     1152
280
     0
281
     0
  0
ENDSEC
  0
SECTION
  2
TABLES
  0
TABLE
  2
VPORT
  5
8
330
0
100
AcDbSymbolTable
 70
     1
  0
VPORT
  5
94
330
8
100
AcDbSymbolTableRecord
100
AcDbViewportTableRecord
  2
*Active
 70
     0
 10
0.0
 20
0.0
 11
1.0
 21
1.0
 12
257.8692949634545
 22
317.588483715449
 13
0.0
 23
0.0
 14
0.5
 24
0.5
 15
0.5
 25
0.5
 16
0.0
 26
0.0
 36
1.0
 17
0.0
 27
0.0
 37
0.0
 40
595.638471517813
 41
1.148760330578512
 42
50.0
 43
0.0
 44
0.0
 50
0.0
 51
0.0
 71
     0
 72
  1000
 73
     1
 74
     3
 75
     0
 76
     0
 77
     0
 78
     0
281
     0
 65
     1
110
0.0
120
0.0
130
0.0
111
1.0
121
0.0
131
0.0
112
0.0
122
1.0
132
0.0
 79
     0
146
0.0
  0
ENDTAB
  0
TABLE
  2
LTYPE
  5
5
330
0
100
AcDbSymbolTable
 70
     1
  0
LTYPE
  5
14
330
5
100
AcDbSymbolTableRecord
100
AcDbLinetypeTableRecord
  2
ByBlock
 70
     0
  3

 72
    65
 73
     0
 40
0.0
  0
LTYPE
  5
15
330
5
100
AcDbSymbolTableRecord
100
AcDbLinetypeTableRecord
  2
ByLayer
 70
     0
  3

 72
    65
 73
     0
 40
0.0
  0
LTYPE
  5
16
330
5
100
AcDbSymbolTableRecord
100
AcDbLinetypeTableRecord
  2
Continuous
 70
     0
  3
Solid line
 72
    65
 73
     0
 40
0.0
  0
ENDTAB
  0
TABLE
  2
LAYER
  5
2
330
0
100
AcDbSymbolTable
 70
     5
  0
LAYER
  5
10
102
{ACAD_XDICTIONARY
360
E6
102
}
330
2
100
AcDbSymbolTableRecord
100
AcDbLayerTableRecord
  2
0
 70
     0
 62
     7
  6
Continuous
370
    -3
390
F
  0
LAYER
  5
188
102
{ACAD_XDICTIONARY
360
5DD
102
}
330
2
100
AcDbSymbolTableRecord
100
AcDbLayerTableRecord
  2
Q
 70
     1
 62
     7
  6
Continuous
370
    -3
390
F
1001
AcAecLayerStandard
1000

1000

  0
LAYER
  5
189
102
{ACAD_XDICTIONARY
360
5DF
102
}
330
2
100
AcDbSymbolTableRecord
100
AcDbLayerTableRecord
  2
QUOTE
 70
     0
 62
     7
  6
Continuous
370
    -3
390
F
1001
AcAecLayerStandard
1000

1000

  0
LAYER
  5
18A
102
{ACAD_XDICTIONARY
360
5E1
102
}
330
2
100
AcDbSymbolTableRecord
100
AcDbLayerTableRecord
  2
DISEGNO
 70
     0
 62
     1
  6
Continuous
370
    -3
390
F
  0
LAYER
  5
5AA
330
2
100
AcDbSymbolTableRecord
100
AcDbLayerTableRecord
  2
Defpoints
 70
     0
 62
     7
  6
Continuous
290
     0
370
    -3
390
F
  0
ENDTAB
  0
TABLE
  2
STYLE
  5
3
330
0
100
AcDbSymbolTable
 70
     2
  0
STYLE
  5
11
330
3
100
AcDbSymbolTableRecord
100
AcDbTextStyleTableRecord
  2
Standard
 70
     0
 40
0.0
 41
1.0
 50
0.0
 71
     0
 42
0.2
  3
txt.shx
  4

  0
STYLE
  5
DC
330
3
100
AcDbSymbolTableRecord
100
AcDbTextStyleTableRecord
  2
Annotativa
 70
     0
 40
0.0
 41
1.0
 50
0.0
 71
     0
 42
0.2
  3
txt.shx
  4

1001
AcadAnnotative
1000
AnnotativeData
1002
{
1070
     1
1070
     1
1002
}
  0
ENDTAB
  0
TABLE
  2
VIEW
  5
6
330
0
100
AcDbSymbolTable
 70
     1
  0
ENDTAB
  0
TABLE
  2
UCS
  5
7
330
0
100
AcDbSymbolTable
 70
     0
  0
ENDTAB
  0
TABLE
  2
APPID
  5
9
330
0
100
AcDbSymbolTable
 70
    14
  0
APPID
  5
12
330
9
100
AcDbSymbolTableRecord
100
AcDbRegAppTableRecord
  2
ACAD
 70
     0
  0
APPID
  5
DD
330
9
100
AcDbSymbolTableRecord
100
AcDbRegAppTableRecord
  2
AcadAnnoPO
 70
     0
  0
APPID
  5
DE
330
9
100
AcDbSymbolTableRecord
100
AcDbRegAppTableRecord
  2
AcadAnnotative
 70
     0
  0
APPID
  5
DF
330
9
100
AcDbSymbolTableRecord
100
AcDbRegAppTableRecord
  2
ACAD_DSTYLE_DIMJAG
 70
     0
  0
APPID
  5
E0
330
9
100
AcDbSymbolTableRecord
100
AcDbRegAppTableRecord
  2
ACAD_DSTYLE_DIMTALN
 70
     0
  0
APPID
  5
107
330
9
100
AcDbSymbolTableRecord
100
AcDbRegAppTableRecord
  2
ACAD_MLEADERVER
 70
     0
  0
APPID
  5
18B
330
9
100
AcDbSymbolTableRecord
100
AcDbRegAppTableRecord
  2
VDEXTRAPARAM
 70
     0
  0
APPID
  5
18C
330
9
100
AcDbSymbolTableRecord
100
AcDbRegAppTableRecord
  2
VD_TEMPHATCH
 70
     0
  0
APPID
  5
18D
330
9
100
AcDbSymbolTableRecord
100
AcDbRegAppTableRecord
  2
AcAecLayerStandard
 70
     0
  0
APPID
  5
18E
330
9
100
AcDbSymbolTableRecord
100
AcDbRegAppTableRecord
  2
VD_EX_PRINTER_DWG_STYLE_SHEET
 70
     0
  0
APPID
  5
18F
330
9
100
AcDbSymbolTableRecord
100
AcDbRegAppTableRecord
  2
VD_EX_PRINTER_SIZEX
 70
     0
  0
APPID
  5
190
330
9
100
AcDbSymbolTableRecord
100
AcDbRegAppTableRecord
  2
VD_EX_PRINTER_AVSIZEX
 70
     0
  0
APPID
  5
191
330
9
100
AcDbSymbolTableRecord
100
AcDbRegAppTableRecord
  2
VD_EX_PRINTER_SIZEY
 70
     0
  0
APPID
  5
192
330
9
100
AcDbSymbolTableRecord
100
AcDbRegAppTableRecord
  2
VD_EX_PRINTER_AVSIZEY
 70
     0
  0
ENDTAB
  0
TABLE
  2
DIMSTYLE
  5
A
330
0
100
AcDbSymbolTable
 70
     2
100
AcDbDimStyleTable
 71
     2
340
27
340
E1
  0
DIMSTYLE
105
27
102
{ACAD_REACTORS
330
54F
330
550
102
}
330
A
100
AcDbSymbolTableRecord
100
AcDbDimStyleTableRecord
  2
Standard
 70
     0
340
11
  0
DIMSTYLE
105
E1
330
A
100
AcDbSymbolTableRecord
100
AcDbDimStyleTableRecord
  2
Annotativa
 70
     0
 40
0.0
340
11
1001
AcadAnnotative
1000
AnnotativeData
1002
{
1070
     1
1070
     1
1002
}
1001
ACAD_DSTYLE_DIMJAG
1070
   388
1040
1.5
1001
ACAD_DSTYLE_DIMTALN
1070
   392
1070
     0
  0
ENDTAB
  0
TABLE
  2
BLOCK_RECORD
  5
1
330
0
100
AcDbSymbolTable
 70
     8
  0
BLOCK_RECORD
  5
1F
330
1
100
AcDbSymbolTableRecord
100
AcDbBlockTableRecord
  2
*Model_Space
340
22
  0
BLOCK_RECORD
  5
58
330
1
100
AcDbSymbolTableRecord
100
AcDbBlockTableRecord
  2
*Paper_Space
340
59
  0
BLOCK_RECORD
  5
5D
330
1
100
AcDbSymbolTableRecord
100
AcDbBlockTableRecord
  2
*Paper_Space0
340
5E
  0
BLOCK_RECORD
  5
14C
330
1
100
AcDbSymbolTableRecord
100
AcDbBlockTableRecord
  2
VDDIM_DEFAULT
340
0
  0
BLOCK_RECORD
  5
150
330
1
100
AcDbSymbolTableRecord
100
AcDbBlockTableRecord
  2
IEC_309_16-32
340
0
102
{BLKREFS
331
397
331
398
331
399
331
39A
331
5A4
331
5A5
331
5A6
331
5A7
102
}
  0
BLOCK_RECORD
  5
168
330
1
100
AcDbSymbolTableRecord
100
AcDbBlockTableRecord
  2
IEC_309_63
340
0
102
{BLKREFS
331
39B
331
39C
331
5A8
331
5A9
102
}
  0
BLOCK_RECORD
  5
17C
330
1
100
AcDbSymbolTableRecord
100
AcDbBlockTableRecord
  2
*D4
340
0
  0
BLOCK_RECORD
  5
5AB
330
1
100
AcDbSymbolTableRecord
100
AcDbBlockTableRecord
  2
*D6
340
0
  0
BLOCK_RECORD
  5
5B8
330
1
100
AcDbSymbolTableRecord
100
AcDbBlockTableRecord
  2
*D7
340
0
  0
ENDTAB
  0
ENDSEC
  0
SECTION
  2
BLOCKS
  0
BLOCK
  5
20
330
1F
100
AcDbEntity
  8
0
100
AcDbBlockBegin
  2
*Model_Space
 70
     0
 10
0.0
 20
0.0
 30
0.0
  3
*Model_Space
  1

  0
ENDBLK
  5
21
330
1F
100
AcDbEntity
  8
0
100
AcDbBlockEnd
  0
BLOCK
  5
5A
330
58
100
AcDbEntity
 67
     1
  8
0
100
AcDbBlockBegin
  2
*Paper_Space
 70
     0
 10
0.0
 20
0.0
 30
0.0
  3
*Paper_Space
  1

  0
ENDBLK
  5
5B
330
58
100
AcDbEntity
 67
     1
  8
0
100
AcDbBlockEnd
  0
BLOCK
  5
5F
330
5D
100
AcDbEntity
 67
     1
  8
0
100
AcDbBlockBegin
  2
*Paper_Space0
 70
     0
 10
0.0
 20
0.0
 30
0.0
  3
*Paper_Space0
  1

  0
ENDBLK
  5
60
330
5D
100
AcDbEntity
 67
     1
  8
0
100
AcDbBlockEnd
  0
BLOCK
  5
14D
330
14C
100
AcDbEntity
  8
0
100
AcDbBlockBegin
  2
VDDIM_DEFAULT
 70
     0
 10
0.0
 20
0.0
 30
0.0
  3
VDDIM_DEFAULT
  1

  0
HATCH
  5
14E
330
14C
100
AcDbEntity
  8
0
  6
Continuous
 62
     0
370
    -2
100
AcDbHatch
 10
0.0
 20
0.0
 30
0.0
210
0.0
220
0.0
230
-1.0
  2
SOLID
 70
     1
 71
     0
 91
        1
 92
        2
 72
     0
 73
     1
 93
        3
 10
0.0
 20
0.0
 10
1.0
 20
-0.1665
 10
1.0
 20
0.1665
 97
        0
 75
     0
 76
     1
 98
        1
 10
0.0
 20
0.0
  0
ENDBLK
  5
14F
330
14C
100
AcDbEntity
  8
0
100
AcDbBlockEnd
  0
BLOCK
  5
151
330
150
100
AcDbEntity
  8
0
100
AcDbBlockBegin
  2
IEC_309_16-32
 70
     0
 10
0.0
 20
0.0
 30
0.0
  3
IEC_309_16-32
  1

  0
ARC
  5
152
330
150
100
AcDbEntity
  8
DISEGNO
 62
     7
100
AcDbCircle
 10
98.92437755000001
 20
101.22342337
 30
0.0
 40
10.45203864
100
AcDbArc
 50
0.0
 51
90.0
  0
ARC
  5
153
330
150
100
AcDbEntity
  8
DISEGNO
 62
     7
100
AcDbCircle
 10
98.92437755000001
 20
27.14615532
 30
0.0
 40
10.45203864
100
AcDbArc
 50
270.0
 51
0.0
  0
LINE
  5
154
330
150
100
AcDbEntity
  8
DISEGNO
 62
     7
100
AcDbLine
 10
29.37485018
 20
27.14615532
 30
0.0
 11
29.37485018
 21
101.22342337
 31
0.0
  0
ARC
  5
155
330
150
100
AcDbEntity
  8
DISEGNO
 62
     7
100
AcDbCircle
 10
39.82688883
 20
27.14615532
 30
0.0
 40
10.45203864
100
AcDbArc
 50
180.0
 51
270.0
  0
ARC
  5
156
330
150
100
AcDbEntity
  8
DISEGNO
 62
     7
100
AcDbCircle
 10
39.82688883
 20
101.22342337
 30
0.0
 40
10.45203864
100
AcDbArc
 50
90.0
 51
180.0
  0
LINE
  5
157
330
150
100
AcDbEntity
  8
DISEGNO
 62
     7
100
AcDbLine
 10
39.82688883
 20
111.67546202
 30
0.0
 11
98.92437755000001
 21
111.67546202
 31
0.0
  0
LINE
  5
158
330
150
100
AcDbEntity
  8
DISEGNO
 62
     7
100
AcDbLine
 10
109.3764162
 20
101.22342337
 30
0.0
 11
109.3764162
 21
27.14615532
 31
0.0
  0
LINE
  5
159
330
150
100
AcDbEntity
  8
Q
 62
     1
100
AcDbLine
 10
116.87657492
 20
16.69411667
 30
0.0
 11
21.87700654
 21
16.69411667
 31
0.0
  0
LINE
  5
15A
330
150
100
AcDbEntity
  8
Q
 62
     1
100
AcDbLine
 10
21.87700654
 20
123.30508831
 30
0.0
 11
116.87657492
 21
123.30508831
 31
0.0
  0
LINE
  5
15B
330
150
100
AcDbEntity
  8
Q
 62
     1
100
AcDbLine
 10
21.87700654
 20
16.69411667
 30
0.0
 11
21.87700654
 21
123.30508831
 31
0.0
  0
LINE
  5
15C
330
150
100
AcDbEntity
  8
Q
 62
     1
100
AcDbLine
 10
116.87657492
 20
16.69411667
 30
0.0
 11
116.87657492
 21
123.30508831
 31
0.0
  0
CIRCLE
  5
15D
330
150
100
AcDbEntity
  8
0
100
AcDbCircle
 10
39.68921445
 20
25.81853611
 30
0.0
 40
3.10602526
  0
CIRCLE
  5
15E
330
150
100
AcDbEntity
  8
0
100
AcDbCircle
 10
39.68921445
 20
102.32521579
 30
0.0
 40
3.10602526
  0
CIRCLE
  5
15F
330
150
100
AcDbEntity
  8
0
100
AcDbCircle
 10
99.11826150999999
 20
25.36875409
 30
0.0
 40
3.10602526
  0
CIRCLE
  5
160
330
150
100
AcDbEntity
  8
0
100
AcDbCircle
 10
99.11826150999999
 20
101.87543378
 30
0.0
 40
3.10602526
  0
LINE
  5
161
330
150
100
AcDbEntity
  8
Q
 62
     2
100
AcDbLine
 10
26.86858819
 20
21.83590155
 30
0.0
 11
111.88499327
 21
21.83590155
 31
0.0
  0
LINE
  5
162
330
150
100
AcDbEntity
  8
Q
 62
     2
100
AcDbLine
 10
111.88499327
 20
21.83590155
 30
0.0
 11
111.88499327
 21
117.08642104
 31
0.0
  0
LINE
  5
163
330
150
100
AcDbEntity
  8
Q
 62
     2
100
AcDbLine
 10
26.86858819
 20
117.08642104
 30
0.0
 11
26.86858819
 21
21.83590155
 31
0.0
  0
LINE
  5
164
330
150
100
AcDbEntity
  8
Q
 62
     2
100
AcDbLine
 10
70.12473491
 20
117.08642104
 30
0.0
 11
111.88499327
 21
117.08642104
 31
0.0
  0
LINE
  5
165
330
150
100
AcDbEntity
  8
Q
 62
     2
100
AcDbLine
 10
70.12473491
 20
117.08642104
 30
0.0
 11
26.86858819
 21
117.08642104
 31
0.0
  0
LINE
  5
166
330
150
100
AcDbEntity
  8
0
 62
     7
100
AcDbLine
 10
39.82688883
 20
16.69411667
 30
0.0
 11
98.92437755000001
 21
16.69411667
 31
0.0
  0
ENDBLK
  5
167
330
150
100
AcDbEntity
  8
0
100
AcDbBlockEnd
  0
BLOCK
  5
169
330
168
100
AcDbEntity
  8
0
100
AcDbBlockBegin
  2
IEC_309_63
 70
     0
 10
0.0
 20
0.0
 30
0.0
  3
IEC_309_63
  1

  0
LINE
  5
16A
330
168
100
AcDbEntity
  8
Q
 62
     5
100
AcDbLine
 10
3.496089309999999
 20
147.36684648
 30
0.0
 11
133.49608931
 21
147.36684648
 31
0.0
  0
LINE
  5
16B
330
168
100
AcDbEntity
  8
Q
 62
     5
100
AcDbLine
 10
133.49608931
 20
147.36684648
 30
0.0
 11
133.49608931
 21
1.51684648
 31
0.0
  0
LINE
  5
16C
330
168
100
AcDbEntity
  8
Q
 62
     5
100
AcDbLine
 10
133.49608931
 20
1.51684648
 30
0.0
 11
3.496089309999999
 21
1.51684648
 31
0.0
  0
LINE
  5
16D
330
168
100
AcDbEntity
  8
Q
 62
     5
100
AcDbLine
 10
3.496089309999999
 20
1.51684648
 30
0.0
 11
3.496089309999999
 21
147.36684648
 31
0.0
  0
LINE
  5
16E
330
168
100
AcDbEntity
  8
0
100
AcDbLine
 10
115.08733684
 20
9.503001019999999
 30
0.0
 11
21.90484178
 21
9.503001019999999
 31
0.0
  0
ARC
  5
16F
330
168
100
AcDbEntity
  8
0
 62
     7
100
AcDbCircle
 10
115.08733684
 20
113.03230772
 30
0.0
 40
10.45203864
100
AcDbArc
 50
0.0
 51
90.0
  0
ARC
  5
170
330
168
100
AcDbEntity
  8
0
 62
     7
100
AcDbCircle
 10
115.08733684
 20
19.95503966
 30
0.0
 40
10.45203864
100
AcDbArc
 50
270.0
 51
0.0
  0
LINE
  5
171
330
168
100
AcDbEntity
  8
0
 62
     7
100
AcDbLine
 10
11.53780947
 20
19.95503966
 30
0.0
 11
11.53780947
 21
113.03230772
 31
0.0
  0
ARC
  5
172
330
168
100
AcDbEntity
  8
0
 62
     7
100
AcDbCircle
 10
21.98984812
 20
19.95503966
 30
0.0
 40
10.45203864
100
AcDbArc
 50
180.0
 51
270.0
  0
ARC
  5
173
330
168
100
AcDbEntity
  8
0
 62
     7
100
AcDbCircle
 10
21.98984812
 20
113.03230772
 30
0.0
 40
10.45203864
100
AcDbArc
 50
90.0
 51
180.0
  0
LINE
  5
174
330
168
100
AcDbEntity
  8
0
 62
     7
100
AcDbLine
 10
21.98984812
 20
123.48434636
 30
0.0
 11
81.08733684
 21
123.48434636
 31
0.0
  0
LINE
  5
175
330
168
100
AcDbEntity
  8
0
 62
     7
100
AcDbLine
 10
125.53937549
 20
113.03230772
 30
0.0
 11
125.53937549
 21
19.95503966
 31
0.0
  0
CIRCLE
  5
176
330
168
100
AcDbEntity
  8
0
100
AcDbCircle
 10
21.85217375
 20
18.62742046
 30
0.0
 40
3.10602526
  0
CIRCLE
  5
177
330
168
100
AcDbEntity
  8
0
100
AcDbCircle
 10
21.85217375
 20
114.13410014
 30
0.0
 40
3.10602526
  0
CIRCLE
  5
178
330
168
100
AcDbEntity
  8
0
100
AcDbCircle
 10
115.28122081
 20
18.17763844
 30
0.0
 40
3.10602526
  0
CIRCLE
  5
179
330
168
100
AcDbEntity
  8
0
100
AcDbCircle
 10
115.28122081
 20
113.68431812
 30
0.0
 40
3.10602526
  0
LINE
  5
17A
330
168
100
AcDbEntity
  8
0
 62
     7
100
AcDbLine
 10
81.08733684
 20
123.48434636
 30
0.0
 11
115.08733684
 21
123.48434636
 31
0.0
  0
ENDBLK
  5
17B
330
168
100
AcDbEntity
  8
0
100
AcDbBlockEnd
  0
BLOCK
  5
17D
330
17C
100
AcDbEntity
  8
0
100
AcDbBlockBegin
  2
*D4
 70
     0
 10
0.0
 20
0.0
 30
0.0
  3
*D4
  1

  0
LINE
  5
17E
330
17C
100
AcDbEntity
  8
QUOTE
 62
     7
100
AcDbLine
 10
468.35284441
 20
23.71076759
 30
0.0
 11
468.35284441
 21
-18.16958206
 31
0.0
  0
LINE
  5
17F
330
17C
100
AcDbEntity
  8
QUOTE
 62
     7
100
AcDbLine
 10
18.35284441
 20
23.7732662
 30
0.0
 11
18.35284441
 21
-18.16958206
 31
0.0
  0
LINE
  5
180
330
17C
100
AcDbEntity
  8
QUOTE
 62
     7
100
AcDbLine
 10
453.3528444099999
 20
-17.98958206
 30
0.0
 11
255.82602637
 21
-17.98958206
 31
0.0
  0
LINE
  5
181
330
17C
100
AcDbEntity
  8
QUOTE
 62
     7
100
AcDbLine
 10
33.35284441000001
 20
-17.98958206
 30
0.0
 11
230.64602637
 21
-17.98958206
 31
0.0
  0
LWPOLYLINE
  5
182
102
{ACAD_REACTORS
330
183
102
}
330
17C
100
AcDbEntity
  8
QUOTE
 62
     7
100
AcDbPolyline
 90
        3
 70
     1
 43
0.0
 10
453.3528444099999
 20
-15.48958206
 10
453.3528444099999
 20
-20.48958206
 10
468.35284441
 20
-17.98958206
  0
HATCH
  5
183
330
17C
100
AcDbEntity
  8
QUOTE
 62
     7
100
AcDbHatch
 10
0.0
 20
0.0
 30
0.0
210
0.0
220
0.0
230
1.0
  2
SOLID
 70
     1
 71
     1
 91
        1
 92
        2
 72
     0
 73
     1
 93
        3
 10
453.3528444099999
 20
-15.48958206
 10
453.3528444099999
 20
-20.48958206
 10
468.35284441
 20
-17.98958206
 97
        1
330
182
 75
     0
 76
     1
 98
        1
 10
0.0
 20
0.0
1001
VD_TEMPHATCH
1000
VD_TEMPHATCH
  0
LWPOLYLINE
  5
184
102
{ACAD_REACTORS
330
185
102
}
330
17C
100
AcDbEntity
  8
QUOTE
 62
     7
100
AcDbPolyline
 90
        3
 70
     1
 43
0.0
 10
33.35284441000001
 20
-15.48958206
 10
33.35284441000001
 20
-20.48958206
 10
18.35284441
 20
-17.98958206
  0
HATCH
  5
185
330
17C
100
AcDbEntity
  8
QUOTE
 62
     7
100
AcDbHatch
 10
0.0
 20
0.0
 30
0.0
210
0.0
220
0.0
230
1.0
  2
SOLID
 70
     1
 71
     1
 91
        1
 92
        2
 72
     0
 73
     1
 93
        3
 10
33.35284441000001
 20
-15.48958206
 10
33.35284441000001
 20
-20.48958206
 10
18.35284441
 20
-17.98958206
 97
        1
330
184
 75
     0
 76
     1
 98
        1
 10
0.0
 20
0.0
1001
VD_TEMPHATCH
1000
VD_TEMPHATCH
  0
MTEXT
  5
186
330
17C
100
AcDbEntity
  8
QUOTE
 62
     7
100
AcDbMText
 10
243.23602637
 20
-17.98958206
 30
0.0
 40
10.0
 41
22.73081434
 71
     5
 72
     1
  1
\A1;450
 73
     1
 44
1.0
1001
ACAD
1000
MTEXTBEGIN
1070
    73
1070
     1
1070
    44
1040
1.0
1070
    74
1070
     0
1000
MTEXTEND
  0
ENDBLK
  5
187
330
17C
100
AcDbEntity
  8
0
100
AcDbBlockEnd
  0
BLOCK
  5
5AC
330
5AB
100
AcDbEntity
  8
0
100
AcDbBlockBegin
  2
*D6
 70
     1
 10
0.0
 20
0.0
 30
0.0
  3
*D6
  1

  0
LINE
  5
5C5
330
5AB
100
AcDbEntity
  8
QUOTE
 62
     0
370
    -2
100
AcDbLine
 10
69.21967039845455
 20
612.9699085404491
 30
0.0
 11
26.24771709845466
 21
612.9699085404491
 31
0.0
  0
LINE
  5
5C6
330
5AB
100
AcDbEntity
  8
QUOTE
 62
     0
370
    -2
100
AcDbLine
 10
67.74837282845455
 20
52.96990854044897
 30
0.0
 11
26.24771709845453
 21
52.96990854044898
 31
0.0
  0
LINE
  5
5C7
330
5AB
100
AcDbEntity
  8
QUOTE
 62
     0
370
    -2
100
AcDbLine
 10
26.42771709845466
 20
597.969908540449
 30
0.0
 11
26.4277170984546
 21
339.7902465804489
 31
0.0
  0
LINE
  5
5C8
330
5AB
100
AcDbEntity
  8
QUOTE
 62
     0
370
    -2
100
AcDbLine
 10
26.42771709845454
 20
67.96990854044898
 30
0.0
 11
26.4277170984546
 21
329.610246580449
 31
0.0
  0
SOLID
  5
5C9
330
5AB
100
AcDbEntity
  8
QUOTE
 62
     0
100
AcDbTrace
 10
23.92771709845466
 20
597.969908540449
 30
0.0
 11
28.92771709845466
 21
597.969908540449
 31
0.0
 12
26.42771709845466
 22
612.9699085404491
 32
0.0
 13
26.42771709845466
 23
612.9699085404491
 33
0.0
  0
SOLID
  5
5CA
330
5AB
100
AcDbEntity
  8
QUOTE
 62
     0
100
AcDbTrace
 10
23.92771709845454
 20
67.96990854044898
 30
0.0
 11
28.92771709845454
 21
67.96990854044898
 31
0.0
 12
26.42771709845454
 22
52.96990854044898
 32
0.0
 13
26.42771709845454
 23
52.96990854044898
 33
0.0
  0
MTEXT
  5
5CB
330
5AB
100
AcDbEntity
  8
QUOTE
 62
     0
100
AcDbMText
 10
26.42771709845455
 20
334.7002465804489
 30
0.0
 40
10.0
 41
0.0
 71
     5
 72
     1
  1
\A1;560
 73
     1
 44
1.0
1001
ACAD
1000
MTEXTBEGIN
1070
    73
1070
     1
1070
    44
1040
1.0
1070
    74
1070
     0
1000
MTEXTEND
  0
POINT
  5
5CC
330
5AB
100
AcDbEntity
  8
Defpoints
 62
     0
100
AcDbPoint
 10
69.28217039845455
 20
612.9699085404491
 30
0.0
  0
POINT
  5
5CD
330
5AB
100
AcDbEntity
  8
Defpoints
 62
     0
100
AcDbPoint
 10
67.81087282845454
 20
52.96990854044897
 30
0.0
  0
POINT
  5
5CE
330
5AB
100
AcDbEntity
  8
Defpoints
 62
     0
100
AcDbPoint
 10
26.42771709845454
 20
52.96990854044898
 30
0.0
  0
ENDBLK
  5
5AD
330
5AB
100
AcDbEntity
  8
0
100
AcDbBlockEnd
  0
BLOCK
  5
5B9
330
5B8
100
AcDbEntity
  8
0
100
AcDbBlockBegin
  2
*D7
 70
     1
 10
0.0
 20
0.0
 30
0.0
  3
*D7
  1

  0
LINE
  5
5CF
330
5B8
100
AcDbEntity
  8
QUOTE
 62
     0
370
    -2
100
AcDbLine
 10
501.8108728284545
 20
68.90740854044897
 30
0.0
 11
501.8108728284545
 21
27.02705889044896
 31
0.0
  0
LINE
  5
5D0
330
5B8
100
AcDbEntity
  8
QUOTE
 62
     0
370
    -2
100
AcDbLine
 10
51.81087282845455
 20
68.96990715044896
 30
0.0
 11
51.81087282845455
 21
27.02705889044896
 31
0.0
  0
LINE
  5
5D1
330
5B8
100
AcDbEntity
  8
QUOTE
 62
     0
370
    -2
100
AcDbLine
 10
486.8108728284545
 20
27.20705889044897
 30
0.0
 11
289.2840547884545
 21
27.20705889044897
 31
0.0
  0
LINE
  5
5D2
330
5B8
100
AcDbEntity
  8
QUOTE
 62
     0
370
    -2
100
AcDbLine
 10
66.81087282845455
 20
27.20705889044897
 30
0.0
 11
264.1040547884546
 21
27.20705889044897
 31
0.0
  0
SOLID
  5
5D3
330
5B8
100
AcDbEntity
  8
QUOTE
 62
     0
100
AcDbTrace
 10
486.8108728284545
 20
29.70705889044897
 30
0.0
 11
486.8108728284545
 21
24.70705889044897
 31
0.0
 12
501.8108728284545
 22
27.20705889044897
 32
0.0
 13
501.8108728284545
 23
27.20705889044897
 33
0.0
  0
SOLID
  5
5D4
330
5B8
100
AcDbEntity
  8
QUOTE
 62
     0
100
AcDbTrace
 10
66.81087282845455
 20
29.70705889044897
 30
0.0
 11
66.81087282845455
 21
24.70705889044897
 31
0.0
 12
51.81087282845455
 22
27.20705889044897
 32
0.0
 13
51.81087282845455
 23
27.20705889044897
 33
0.0
  0
MTEXT
  5
5D5
330
5B8
100
AcDbEntity
  8
QUOTE
 62
     0
100
AcDbMText
 10
276.6940547884545
 20
27.20705889044897
 30
0.0
 40
10.0
 41
0.0
 71
     5
 72
     1
  1
\A1;450
 73
     1
 44
1.0
1001
ACAD
1000
MTEXTBEGIN
1070
    73
1070
     1
1070
    44
1040
1.0
1070
    74
1070
     0
1000
MTEXTEND
  0
POINT
  5
5D6
330
5B8
100
AcDbEntity
  8
Defpoints
 62
     0
100
AcDbPoint
 10
501.8108728284545
 20
68.96990854044897
 30
0.0
  0
POINT
  5
5D7
330
5B8
100
AcDbEntity
  8
Defpoints
 62
     0
100
AcDbPoint
 10
51.81087282845455
 20
69.03240715044896
 30
0.0
  0
POINT
  5
5D8
330
5B8
100
AcDbEntity
  8
Defpoints
 62
     0
100
AcDbPoint
 10
51.81087282845455
 20
27.20705889044897
 30
0.0
  0
ENDBLK
  5
5BA
330
5B8
100
AcDbEntity
  8
0
100
AcDbBlockEnd
  0
ENDSEC
  0
SECTION
  2
ENTITIES
  0
LINE
  5
3A1
330
1F
100
AcDbEntity
  8
0
 62
   253
 48
0.001467
370
    35
100
AcDbLine
 10
83.24475582845455
 20
412.1939075404489
 30
0.0
 11
83.20326782845455
 21
412.1524335404489
 31
0.0
  0
LINE
  5
3A2
330
1F
100
AcDbEntity
  8
0
 62
   253
 48
0.001467
370
    35
100
AcDbLine
 10
81.25237082845455
 20
414.1863085404489
 30
0.0
 11
81.21086682845456
 21
414.1448045404489
 31
0.0
  0
ARC
  5
3A3
330
1F
100
AcDbEntity
  8
0
 62
   253
370
    35
100
AcDbCircle
 10
83.19984982845454
 20
414.141417540449
 30
0.0
 40
1.988738999999999
100
AcDbArc
 50
179.9018549999999
 51
270.0981399999999
  0
LINE
  5
3A4
330
1F
100
AcDbEntity
  8
0
 62
   253
370
    35
100
AcDbLine
 10
83.20326782845455
 20
412.1524335404489
 30
0.0
 11
470.4184778284545
 21
412.1524335404489
 31
0.0
  0
ARC
  5
3A5
330
1F
100
AcDbEntity
  8
0
 62
   253
370
    35
100
AcDbCircle
 10
470.4218958284545
 20
414.141417540449
 30
0.0
 40
1.988738999999999
100
AcDbArc
 50
269.901848
 51
0.0981429999999929
  0
LINE
  5
3A6
330
1F
100
AcDbEntity
  8
0
 62
   253
 48
0.003992
370
    35
100
AcDbLine
 10
176.6237088284545
 20
423.6795025404489
 30
0.0
 11
176.6418968284545
 21
423.8381335404489
 31
0.0
  0
LINE
  5
3A7
330
1F
100
AcDbEntity
  8
0
 62
   253
 48
0.004009
370
    35
100
AcDbLine
 10
376.9981288284545
 20
423.6788315404489
 30
0.0
 11
376.9798488284545
 21
423.8381335404489
 31
0.0
  0
LINE
  5
3A8
330
1F
100
AcDbEntity
  8
0
 62
   253
370
    35
100
AcDbLine
 10
197.5052698284545
 20
423.573912540449
 30
0.0
 11
221.8108728284545
 21
423.573912540449
 31
0.0
  0
LINE
  5
3A9
330
1F
100
AcDbEntity
  8
0
 62
   253
370
    35
100
AcDbLine
 10
151.8108728284545
 20
423.573912540449
 30
0.0
 11
176.1164758284545
 21
423.573912540449
 31
0.0
  0
LINE
  5
3AA
330
1F
100
AcDbEntity
  8
0
 62
   253
370
    35
100
AcDbLine
 10
377.5052698284546
 20
423.573912540449
 30
0.0
 11
401.8108728284545
 21
423.573912540449
 31
0.0
  0
LINE
  5
3AB
330
1F
100
AcDbEntity
  8
0
 62
   253
370
    35
100
AcDbLine
 10
331.8108728284546
 20
423.573912540449
 30
0.0
 11
356.1164758284546
 21
423.573912540449
 31
0.0
  0
ARC
  5
3AC
330
1F
100
AcDbEntity
  8
0
 62
   253
370
    35
100
AcDbCircle
 10
143.7117518284545
 20
446.4905995404489
 30
0.0
 40
22.428446
100
AcDbArc
 50
241.649282
 51
242.9583559999999
  0
LINE
  5
3AD
330
1F
100
AcDbEntity
  8
0
 62
   253
 48
0.005419
370
    35
100
AcDbLine
 10
133.0612238284545
 20
426.7522565404489
 30
0.0
 11
132.8696948284545
 21
426.8537585404489
 31
0.0
  0
ARC
  5
3AE
330
1F
100
AcDbEntity
  8
0
 62
   253
370
    35
100
AcDbCircle
 10
229.9099938284546
 20
446.4905995404489
 30
0.0
 40
22.428442
100
AcDbArc
 50
297.0416379999999
 51
298.350719
  0
LINE
  5
3AF
330
1F
100
AcDbEntity
  8
0
 62
   253
 48
0.005418
370
    35
100
AcDbLine
 10
240.5605368284545
 20
426.7522565404489
 30
0.0
 11
240.7520348284545
 21
426.8537585404489
 31
0.0
  0
ARC
  5
3B0
330
1F
100
AcDbEntity
  8
0
 62
   253
370
    35
100
AcDbCircle
 10
409.9099938284545
 20
446.4905995404489
 30
0.0
 40
22.428446
100
AcDbArc
 50
297.0416379999999
 51
298.350719
  0
LINE
  5
3B1
330
1F
100
AcDbEntity
  8
0
 62
   253
 48
0.005419
370
    35
100
AcDbLine
 10
420.5605068284545
 20
426.7522565404489
 30
0.0
 11
420.7520348284545
 21
426.8537585404489
 31
0.0
  0
LINE
  5
3B2
330
1F
100
AcDbEntity
  8
0
 62
   253
 48
0.005418
370
    35
100
AcDbLine
 10
313.0612088284546
 20
426.7522565404489
 30
0.0
 11
312.8697108284546
 21
426.8537585404489
 31
0.0
  0
ARC
  5
3B3
330
1F
100
AcDbEntity
  8
0
 62
   253
370
    35
100
AcDbCircle
 10
323.7117518284545
 20
446.4905995404489
 30
0.0
 40
22.428442
100
AcDbArc
 50
241.649282
 51
242.9583559999999
  0
LINE
  5
3B4
330
1F
100
AcDbEntity
  8
0
 62
   253
 48
0.4608090000000001
370
    35
100
AcDbLine
 10
81.21086682845456
 20
414.1448045404489
 30
0.0
 11
81.21086682845456
 21
432.5771465404489
 31
0.0
  0
LINE
  5
3B5
330
1F
100
AcDbEntity
  8
0
 62
   253
 48
0.4608090000000001
370
    35
100
AcDbLine
 10
472.4109088284545
 20
414.1448045404489
 30
0.0
 11
472.4109088284545
 21
432.5771465404489
 31
0.0
  0
LINE
  5
3B6
330
1F
100
AcDbEntity
  8
0
 62
   253
 48
0.1455
370
    35
100
AcDbLine
 10
151.8108728284545
 20
423.5740345404489
 30
0.0
 11
151.8108728284545
 21
429.3940415404489
 31
0.0
  0
LINE
  5
3B7
330
1F
100
AcDbEntity
  8
0
 62
   253
 48
0.074544
370
    35
100
AcDbLine
 10
151.8108728284545
 20
429.3940415404489
 30
0.0
 11
151.8108728284545
 21
432.3757925404489
 31
0.0
  0
LINE
  5
3B8
330
1F
100
AcDbEntity
  8
0
 62
   253
 48
0.1455
370
    35
100
AcDbLine
 10
221.8108728284545
 20
423.5740345404489
 30
0.0
 11
221.8108728284545
 21
429.3940415404489
 31
0.0
  0
LINE
  5
3B9
330
1F
100
AcDbEntity
  8
0
 62
   253
 48
0.074544
370
    35
100
AcDbLine
 10
221.8108728284545
 20
429.3940415404489
 30
0.0
 11
221.8108728284545
 21
432.3757925404489
 31
0.0
  0
LINE
  5
3BA
330
1F
100
AcDbEntity
  8
0
 62
   253
 48
0.074544
370
    35
100
AcDbLine
 10
401.8108728284545
 20
429.3940415404489
 30
0.0
 11
401.8108728284545
 21
432.3757925404489
 31
0.0
  0
LINE
  5
3BB
330
1F
100
AcDbEntity
  8
0
 62
   253
 48
0.1455
370
    35
100
AcDbLine
 10
401.8108728284545
 20
423.5740345404489
 30
0.0
 11
401.8108728284545
 21
429.3940415404489
 31
0.0
  0
LINE
  5
3BC
330
1F
100
AcDbEntity
  8
0
 62
   253
 48
0.1455
370
    35
100
AcDbLine
 10
331.8108728284546
 20
423.5740345404489
 30
0.0
 11
331.8108728284546
 21
429.3940415404489
 31
0.0
  0
LINE
  5
3BD
330
1F
100
AcDbEntity
  8
0
 62
   253
 48
0.074544
370
    35
100
AcDbLine
 10
331.8108728284546
 20
429.3940415404489
 30
0.0
 11
331.8108728284546
 21
432.3757925404489
 31
0.0
  0
LINE
  5
3BE
330
1F
100
AcDbEntity
  8
0
 62
   253
 48
0.067465
370
    35
100
AcDbLine
 10
84.40680482845454
 20
433.0753155404489
 30
0.0
 11
81.70821182845456
 21
433.0753155404489
 31
0.0
  0
LINE
  5
3BF
330
1F
100
AcDbEntity
  8
0
 62
   253
 48
0.013488
370
    35
100
AcDbLine
 10
84.40680482845454
 20
433.0753155404489
 30
0.0
 11
84.94633982845455
 21
433.0753155404489
 31
0.0
  0
LINE
  5
3C0
330
1F
100
AcDbEntity
  8
0
 62
   253
 48
0.024672
370
    35
100
AcDbLine
 10
85.93320282845454
 20
433.0753155404489
 30
0.0
 11
84.94633982845455
 21
433.0753155404489
 31
0.0
  0
LINE
  5
3C1
330
1F
100
AcDbEntity
  8
0
 62
   253
370
    35
100
AcDbLine
 10
85.93320282845454
 20
433.0753155404489
 30
0.0
 11
131.3108728284545
 21
433.0753155404489
 31
0.0
  0
LINE
  5
3C2
330
1F
100
AcDbEntity
  8
0
 62
   253
 48
0.093503
370
    35
100
AcDbLine
 10
131.8108728284545
 20
428.6433095404489
 30
0.0
 11
131.8108728284545
 21
432.3834215404489
 31
0.0
  0
LINE
  5
3C3
330
1F
100
AcDbEntity
  8
0
 62
   253
 48
0.004787
370
    35
100
AcDbLine
 10
131.8108728284545
 20
432.3834215404489
 30
0.0
 11
131.8108728284545
 21
432.574888540449
 31
0.0
  0
LINE
  5
3C4
330
1F
100
AcDbEntity
  8
0
 62
   253
 48
0.004787
370
    35
100
AcDbLine
 10
241.8108728284545
 20
432.3834215404489
 30
0.0
 11
241.8108728284545
 21
432.574888540449
 31
0.0
  0
LINE
  5
3C5
330
1F
100
AcDbEntity
  8
0
 62
   253
 48
0.093503
370
    35
100
AcDbLine
 10
241.8108728284545
 20
428.6433095404489
 30
0.0
 11
241.8108728284545
 21
432.3834215404489
 31
0.0
  0
LINE
  5
3C6
330
1F
100
AcDbEntity
  8
0
 62
   253
370
    35
100
AcDbLine
 10
422.3108728284545
 20
433.0753155404489
 30
0.0
 11
467.6885578284545
 21
433.0753155404489
 31
0.0
  0
LINE
  5
3C7
330
1F
100
AcDbEntity
  8
0
 62
   253
 48
0.024672
370
    35
100
AcDbLine
 10
468.6754358284545
 20
433.0753155404489
 30
0.0
 11
467.6885578284545
 21
433.0753155404489
 31
0.0
  0
LINE
  5
3C8
330
1F
100
AcDbEntity
  8
0
 62
   253
 48
0.013487
370
    35
100
AcDbLine
 10
468.6754358284545
 20
433.0753155404489
 30
0.0
 11
469.2149258284545
 21
433.0753155404489
 31
0.0
  0
LINE
  5
3C9
330
1F
100
AcDbEntity
  8
0
 62
   253
 48
0.067465
370
    35
100
AcDbLine
 10
471.9135338284545
 20
433.0753155404489
 30
0.0
 11
469.2149258284545
 21
433.0753155404489
 31
0.0
  0
LINE
  5
3CA
330
1F
100
AcDbEntity
  8
0
 62
   253
 48
0.004787
370
    35
100
AcDbLine
 10
421.8108728284545
 20
432.3834215404489
 30
0.0
 11
421.8108728284545
 21
432.574888540449
 31
0.0
  0
LINE
  5
3CB
330
1F
100
AcDbEntity
  8
0
 62
   253
 48
0.093503
370
    35
100
AcDbLine
 10
421.8108728284545
 20
428.6433095404489
 30
0.0
 11
421.8108728284545
 21
432.3834215404489
 31
0.0
  0
LINE
  5
3CC
330
1F
100
AcDbEntity
  8
0
 62
   253
 48
0.093503
370
    35
100
AcDbLine
 10
311.8108728284545
 20
428.6433095404489
 30
0.0
 11
311.8108728284545
 21
432.3834215404489
 31
0.0
  0
LINE
  5
3CD
330
1F
100
AcDbEntity
  8
0
 62
   253
 48
0.004787
370
    35
100
AcDbLine
 10
311.8108728284545
 20
432.3834215404489
 30
0.0
 11
311.8108728284545
 21
432.574888540449
 31
0.0
  0
LINE
  5
3CE
330
1F
100
AcDbEntity
  8
0
 62
   253
370
    35
100
AcDbLine
 10
242.3108728284546
 20
433.0753155404489
 30
0.0
 11
311.3108728284545
 21
433.0753155404489
 31
0.0
  0
LINE
  5
3CF
330
1F
100
AcDbEntity
  8
0
 62
   253
 48
0.011659
370
    35
100
AcDbLine
 10
221.8108728284545
 20
432.3757925404489
 30
0.0
 11
221.8108728284545
 21
432.8421615404489
 31
0.0
  0
LINE
  5
3D0
330
1F
100
AcDbEntity
  8
0
 62
   253
 48
0.011659
370
    35
100
AcDbLine
 10
151.8108728284545
 20
432.3757925404489
 30
0.0
 11
151.8108728284545
 21
432.8421615404489
 31
0.0
  0
LINE
  5
3D1
330
1F
100
AcDbEntity
  8
0
 62
   253
 48
0.011659
370
    35
100
AcDbLine
 10
401.8108728284545
 20
432.3757925404489
 30
0.0
 11
401.8108728284545
 21
432.8421615404489
 31
0.0
  0
LINE
  5
3D2
330
1F
100
AcDbEntity
  8
0
 62
   253
 48
0.011659
370
    35
100
AcDbLine
 10
331.8108728284546
 20
432.3757925404489
 30
0.0
 11
331.8108728284546
 21
432.8421615404489
 31
0.0
  0
ARC
  5
3D3
330
1F
100
AcDbEntity
  8
0
 62
   253
370
    35
100
AcDbCircle
 10
422.3111168284545
 20
432.5751325404489
 30
0.0
 40
0.5002290000000001
100
AcDbArc
 50
90.03028800000008
 51
180.030184
  0
ARC
  5
3D4
330
1F
100
AcDbEntity
  8
0
 62
   253
370
    35
100
AcDbCircle
 10
471.9140828284545
 20
432.578672540449
 30
0.0
 40
0.4966640000000001
100
AcDbArc
 50
359.826825
 51
90.06193899999995
  0
ARC
  5
3D5
330
1F
100
AcDbEntity
  8
0
 62
   253
370
    35
100
AcDbCircle
 10
311.3105978284545
 20
432.5751325404489
 30
0.0
 40
0.5002290000000001
100
AcDbArc
 50
359.96983
 51
89.969704
  0
ARC
  5
3D6
330
1F
100
AcDbEntity
  8
0
 62
   253
370
    35
100
AcDbCircle
 10
242.3111468284545
 20
432.5751325404489
 30
0.0
 40
0.5002290000000001
100
AcDbArc
 50
90.03028800000008
 51
180.030184
  0
ARC
  5
3D7
330
1F
100
AcDbEntity
  8
0
 62
   253
370
    35
100
AcDbCircle
 10
131.3106128284545
 20
432.5751325404489
 30
0.0
 40
0.5002290000000001
100
AcDbArc
 50
359.96983
 51
89.969704
  0
ARC
  5
3D8
330
1F
100
AcDbEntity
  8
0
 62
   253
370
    35
100
AcDbCircle
 10
81.70767782845455
 20
432.578672540449
 30
0.0
 40
0.4966640000000001
100
AcDbArc
 50
89.938066
 51
180.1731809999999
  0
LINE
  5
3D9
330
1F
100
AcDbEntity
  8
0
 62
   253
 48
0.016769
370
    35
100
AcDbLine
 10
401.8108728284545
 20
423.5560285404489
 30
0.0
 11
401.8108728284545
 21
422.8852525404489
 31
0.0
  0
LINE
  5
3DA
330
1F
100
AcDbEntity
  8
0
 62
   253
 48
0.067903
370
    35
100
AcDbLine
 10
401.8108728284545
 20
420.1690655404489
 30
0.0
 11
401.8108728284545
 21
422.8851915404489
 31
0.0
  0
LINE
  5
3DB
330
1F
100
AcDbEntity
  8
0
 62
   253
 48
0.000447
370
    35
100
AcDbLine
 10
401.8108728284545
 20
423.573912540449
 30
0.0
 11
401.8108728284545
 21
423.5560285404489
 31
0.0
  0
ARC
  5
3DC
330
1F
100
AcDbEntity
  8
0
 62
   253
370
    35
100
AcDbCircle
 10
420.9708458284545
 20
425.9323715404489
 30
0.0
 40
0.9169159999999999
100
AcDbArc
 50
102.862949
 51
116.5844169999999
  0
ARC
  5
3DD
330
1F
100
AcDbEntity
  8
0
 62
   253
370
    35
100
AcDbCircle
 10
421.0610558284545
 20
425.6027205404489
 30
0.0
 40
1.258637999999999
100
AcDbArc
 50
97.8635109999999
 51
103.525819
  0
LINE
  5
3DE
330
1F
100
AcDbEntity
  8
0
 62
   253
 48
0.007334
370
    35
100
AcDbLine
 10
420.8888148284545
 20
426.8495465404489
 30
0.0
 11
421.1794638284545
 21
426.8893415404489
 31
0.0
  0
LINE
  5
3DF
330
1F
100
AcDbEntity
  8
0
 62
   253
 48
0.000334
370
    35
100
AcDbLine
 10
421.1794638284545
 20
426.8893415404489
 30
0.0
 11
421.1926478284545
 21
426.8914785404489
 31
0.0
  0
LINE
  5
3E0
330
1F
100
AcDbEntity
  8
0
 62
   253
 48
0.002499
370
    35
100
AcDbLine
 10
401.8108728284545
 20
420.1690655404489
 30
0.0
 11
401.8108728284545
 21
420.0690905404489
 31
0.0
  0
LINE
  5
3E1
330
1F
100
AcDbEntity
  8
0
 62
   253
 48
0.001672
370
    35
100
AcDbLine
 10
421.2595418284545
 20
426.891905540449
 30
0.0
 11
421.1926478284545
 21
426.8914785404489
 31
0.0
  0
LINE
  5
3E2
330
1F
100
AcDbEntity
  8
0
 62
   253
 48
0.067903
370
    35
100
AcDbLine
 10
331.8108728284546
 20
420.1690655404489
 30
0.0
 11
331.8108728284546
 21
422.8851915404489
 31
0.0
  0
LINE
  5
3E3
330
1F
100
AcDbEntity
  8
0
 62
   253
 48
0.016771
370
    35
100
AcDbLine
 10
331.8108728284546
 20
423.5560285404489
 30
0.0
 11
331.8108728284546
 21
422.8851915404489
 31
0.0
  0
LINE
  5
3E4
330
1F
100
AcDbEntity
  8
0
 62
   253
 48
0.000447
370
    35
100
AcDbLine
 10
331.8108728284546
 20
423.573912540449
 30
0.0
 11
331.8108728284546
 21
423.5560285404489
 31
0.0
  0
ARC
  5
3E5
330
1F
100
AcDbEntity
  8
0
 62
   253
370
    35
100
AcDbCircle
 10
312.6509298284545
 20
425.9323715404489
 30
0.0
 40
0.9169159999999999
100
AcDbArc
 50
63.41558099999992
 51
77.13704899999992
  0
LINE
  5
3E6
330
1F
100
AcDbEntity
  8
0
 62
   253
 48
0.000335
370
    35
100
AcDbLine
 10
312.4422818284545
 20
426.8893415404489
 30
0.0
 11
312.4290668284546
 21
426.8914785404489
 31
0.0
  0
LINE
  5
3E7
330
1F
100
AcDbEntity
  8
0
 62
   253
 48
0.007334
370
    35
100
AcDbLine
 10
312.7329308284545
 20
426.8495465404489
 30
0.0
 11
312.4422818284545
 21
426.8893415404489
 31
0.0
  0
ARC
  5
3E8
330
1F
100
AcDbEntity
  8
0
 62
   253
370
    35
100
AcDbCircle
 10
312.5606898284545
 20
425.6025375404489
 30
0.0
 40
1.258839999999999
100
AcDbArc
 50
76.47481400000001
 51
82.13620800000002
  0
LINE
  5
3E9
330
1F
100
AcDbEntity
  8
0
 62
   253
 48
0.001672
370
    35
100
AcDbLine
 10
312.3621728284545
 20
426.891905540449
 30
0.0
 11
312.4290668284546
 21
426.8914785404489
 31
0.0
  0
LINE
  5
3EA
330
1F
100
AcDbEntity
  8
0
 62
   253
 48
0.002499
370
    35
100
AcDbLine
 10
331.8108728284546
 20
420.1690655404489
 30
0.0
 11
331.8108728284546
 21
420.0690905404489
 31
0.0
  0
LINE
  5
3EB
330
1F
100
AcDbEntity
  8
0
 62
   253
 48
0.016771
370
    35
100
AcDbLine
 10
221.8108728284545
 20
423.5560285404489
 30
0.0
 11
221.8108728284545
 21
422.8851915404489
 31
0.0
  0
LINE
  5
3EC
330
1F
100
AcDbEntity
  8
0
 62
   253
 48
0.067903
370
    35
100
AcDbLine
 10
221.8108728284545
 20
420.1690655404489
 30
0.0
 11
221.8108728284545
 21
422.8851915404489
 31
0.0
  0
LINE
  5
3ED
330
1F
100
AcDbEntity
  8
0
 62
   253
 48
0.000447
370
    35
100
AcDbLine
 10
221.8108728284545
 20
423.573912540449
 30
0.0
 11
221.8108728284545
 21
423.5560285404489
 31
0.0
  0
ARC
  5
3EE
330
1F
100
AcDbEntity
  8
0
 62
   253
370
    35
100
AcDbCircle
 10
240.9709678284546
 20
425.932188540449
 30
0.0
 40
0.9171229999999999
100
AcDbArc
 50
102.869452
 51
116.5878319999999
  0
ARC
  5
3EF
330
1F
100
AcDbEntity
  8
0
 62
   253
370
    35
100
AcDbCircle
 10
241.0611468284546
 20
425.6026595404489
 30
0.0
 40
1.258703
100
AcDbArc
 50
97.86840799999998
 51
103.5304229999999
  0
LINE
  5
3F0
330
1F
100
AcDbEntity
  8
0
 62
   253
 48
0.007334
370
    35
100
AcDbLine
 10
240.8888148284546
 20
426.8495465404489
 30
0.0
 11
241.1794638284546
 21
426.8893415404489
 31
0.0
  0
LINE
  5
3F1
330
1F
100
AcDbEntity
  8
0
 62
   253
 48
0.000335
370
    35
100
AcDbLine
 10
241.1794638284546
 20
426.8893415404489
 30
0.0
 11
241.1926778284545
 21
426.8914785404489
 31
0.0
  0
LINE
  5
3F2
330
1F
100
AcDbEntity
  8
0
 62
   253
 48
0.002499
370
    35
100
AcDbLine
 10
221.8108728284545
 20
420.1690655404489
 30
0.0
 11
221.8108728284545
 21
420.0690905404489
 31
0.0
  0
LINE
  5
3F3
330
1F
100
AcDbEntity
  8
0
 62
   253
 48
0.001672
370
    35
100
AcDbLine
 10
241.2595728284546
 20
426.891905540449
 30
0.0
 11
241.1926778284545
 21
426.8914785404489
 31
0.0
  0
LINE
  5
3F4
330
1F
100
AcDbEntity
  8
0
 62
   253
 48
0.067903
370
    35
100
AcDbLine
 10
151.8108728284545
 20
420.1690655404489
 30
0.0
 11
151.8108728284545
 21
422.8851915404489
 31
0.0
  0
LINE
  5
3F5
330
1F
100
AcDbEntity
  8
0
 62
   253
 48
0.016769
370
    35
100
AcDbLine
 10
151.8108728284545
 20
423.5560285404489
 30
0.0
 11
151.8108728284545
 21
422.8852525404489
 31
0.0
  0
LINE
  5
3F6
330
1F
100
AcDbEntity
  8
0
 62
   253
 48
0.000447
370
    35
100
AcDbLine
 10
151.8108728284545
 20
423.573912540449
 30
0.0
 11
151.8108728284545
 21
423.5560285404489
 31
0.0
  0
ARC
  5
3F7
330
1F
100
AcDbEntity
  8
0
 62
   253
370
    35
100
AcDbCircle
 10
132.6509148284545
 20
425.9323715404489
 30
0.0
 40
0.916947
100
AcDbArc
 50
63.41582699999995
 51
77.13683700000008
  0
LINE
  5
3F8
330
1F
100
AcDbEntity
  8
0
 62
   253
 48
0.000334
370
    35
100
AcDbLine
 10
132.4290668284545
 20
426.8914785404489
 30
0.0
 11
132.4422658284545
 21
426.8893415404489
 31
0.0
  0
LINE
  5
3F9
330
1F
100
AcDbEntity
  8
0
 62
   253
 48
0.007334
370
    35
100
AcDbLine
 10
132.4422658284545
 20
426.8893415404489
 30
0.0
 11
132.7329158284545
 21
426.8495465404489
 31
0.0
  0
ARC
  5
3FA
330
1F
100
AcDbEntity
  8
0
 62
   253
370
    35
100
AcDbCircle
 10
132.5607048284545
 20
425.6027205404489
 30
0.0
 40
1.258636
100
AcDbArc
 50
76.47417899999995
 51
82.13649500000007
  0
LINE
  5
3FB
330
1F
100
AcDbEntity
  8
0
 62
   253
 48
0.002499
370
    35
100
AcDbLine
 10
151.8108728284545
 20
420.0690905404489
 30
0.0
 11
151.8108728284545
 21
420.1690655404489
 31
0.0
  0
LINE
  5
3FC
330
1F
100
AcDbEntity
  8
0
 62
   253
 48
0.001672
370
    35
100
AcDbLine
 10
132.4290668284545
 20
426.8914785404489
 30
0.0
 11
132.3621728284545
 21
426.891905540449
 31
0.0
  0
ELLIPSE
  5
3FD
330
1F
100
AcDbEntity
  8
0
 62
   253
370
    35
100
AcDbEllipse
 10
373.9295858284545
 20
415.3037705404489
 30
0.0
 11
0.1416626
 21
-0.14117432
 31
0.0
210
0.0
220
0.0
230
1.0
 40
0.012362
 41
4.724709579999999
 42
6.295505907179586
  0
LINE
  5
3FE
330
1F
100
AcDbEntity
  8
0
 62
   253
 48
0.008305
370
    35
100
AcDbLine
 10
377.5052698284546
 20
423.573912540449
 30
0.0
 11
377.1730858284545
 21
423.5750105404489
 31
0.0
  0
LINE
  5
3FF
330
1F
100
AcDbEntity
  8
0
 62
   253
 48
0.008305
370
    35
100
AcDbLine
 10
356.1164758284546
 20
423.573912540449
 30
0.0
 11
356.4486598284545
 21
423.5750105404489
 31
0.0
  0
LINE
  5
400
330
1F
100
AcDbEntity
  8
0
 62
   253
 48
0.000035
370
    35
100
AcDbLine
 10
356.4486598284545
 20
423.5750105404489
 30
0.0
 11
356.4500628284545
 21
423.5751325404489
 31
0.0
  0
LINE
  5
401
330
1F
100
AcDbEntity
  8
0
 62
   253
370
    35
100
AcDbLine
 10
401.8108728284545
 20
420.0690905404489
 30
0.0
 11
376.9836938284545
 21
420.0690905404489
 31
0.0
  0
LINE
  5
402
330
1F
100
AcDbEntity
  8
0
 62
   253
370
    35
100
AcDbLine
 10
356.6380518284546
 20
420.0690905404489
 30
0.0
 11
331.8108728284546
 21
420.0690905404489
 31
0.0
  0
ELLIPSE
  5
403
330
1F
100
AcDbEntity
  8
0
 62
   253
370
    35
100
AcDbEllipse
 10
366.8108728284545
 20
422.396849540449
 30
0.0
 11
10.25
 21
0.0
 31
0.0
210
0.0
220
0.0
230
1.0
 40
0.9998479999999998
 41
6.03768056
 42
6.273490269999999
  0
ELLIPSE
  5
404
330
1F
100
AcDbEntity
  8
0
 62
   253
370
    35
100
AcDbEllipse
 10
366.8108728284545
 20
422.396849540449
 30
0.0
 11
10.25
 21
0.0
 31
0.0
210
0.0
220
0.0
230
1.0
 40
0.9998479999999998
 41
3.15128772
 42
3.387097429999999
  0
LINE
  5
405
330
1F
100
AcDbEntity
  8
0
 62
   253
 48
0.000475
370
    35
100
AcDbLine
 10
356.6469928284545
 20
423.7491445404489
 30
0.0
 11
356.6469928284545
 21
423.7301625404489
 31
0.0
  0
LINE
  5
406
330
1F
100
AcDbEntity
  8
0
 62
   253
 48
0.004067
370
    35
100
AcDbLine
 10
356.6469928284545
 20
423.7301625404489
 30
0.0
 11
356.6281028284545
 21
423.5686025404489
 31
0.0
  0
ELLIPSE
  5
407
330
1F
100
AcDbEntity
  8
0
 62
   253
370
    35
100
AcDbEllipse
 10
366.8108728284545
 20
422.396849540449
 30
0.0
 11
10.25
 21
0.0
 31
0.0
210
0.0
220
0.0
230
1.0
 40
0.9998479999999998
 41
0.11459006
 42
3.027002589999999
  0
LINE
  5
408
330
1F
100
AcDbEntity
  8
0
 62
   253
 48
0.004067
370
    35
100
AcDbLine
 10
376.9936428284546
 20
423.5686025404489
 30
0.0
 11
376.9747518284546
 21
423.7301625404489
 31
0.0
  0
LINE
  5
409
330
1F
100
AcDbEntity
  8
0
 62
   253
 48
0.000475
370
    35
100
AcDbLine
 10
376.9747518284546
 20
423.7301625404489
 30
0.0
 11
376.9747518284546
 21
423.7491445404489
 31
0.0
  0
ARC
  5
40A
330
1F
100
AcDbEntity
  8
0
 62
   253
370
    35
100
AcDbCircle
 10
359.7379658284546
 20
422.2999255404489
 30
0.0
 40
3.17682
100
AcDbArc
 50
170.726329
 51
180.0448829999998
  0
ARC
  5
40B
330
1F
100
AcDbEntity
  8
0
 62
   253
370
    35
100
AcDbCircle
 10
373.8837788284545
 20
422.2999255404489
 30
0.0
 40
3.17682
100
AcDbArc
 50
359.9551140000001
 51
9.273671999999974
  0
LINE
  5
40C
330
1F
100
AcDbEntity
  8
0
 62
   253
 48
0.001197
370
    35
100
AcDbLine
 10
356.6855978284546
 20
420.0746145404489
 30
0.0
 11
356.6380518284546
 21
420.0690905404489
 31
0.0
  0
LINE
  5
40D
330
1F
100
AcDbEntity
  8
0
 62
   253
 48
0.001202
370
    35
100
AcDbLine
 10
376.9361468284545
 20
420.0746145404489
 30
0.0
 11
376.9839068284546
 21
420.0690595404489
 31
0.0
  0
LINE
  5
40E
330
1F
100
AcDbEntity
  8
0
 62
   253
 48
0.008305
370
    35
100
AcDbLine
 10
197.5052698284545
 20
423.573912540449
 30
0.0
 11
197.1730858284545
 21
423.5750105404489
 31
0.0
  0
LINE
  5
40F
330
1F
100
AcDbEntity
  8
0
 62
   253
 48
0.000035
370
    35
100
AcDbLine
 10
197.1730858284545
 20
423.5750105404489
 30
0.0
 11
197.1716818284545
 21
423.5751325404489
 31
0.0
  0
LINE
  5
410
330
1F
100
AcDbEntity
  8
0
 62
   253
 48
0.008305
370
    35
100
AcDbLine
 10
176.1164758284545
 20
423.573912540449
 30
0.0
 11
176.4486598284545
 21
423.5750105404489
 31
0.0
  0
LINE
  5
411
330
1F
100
AcDbEntity
  8
0
 62
   253
370
    35
100
AcDbLine
 10
221.8108728284545
 20
420.0690905404489
 30
0.0
 11
196.9836938284545
 21
420.0690905404489
 31
0.0
  0
LINE
  5
412
330
1F
100
AcDbEntity
  8
0
 62
   253
370
    35
100
AcDbLine
 10
151.8108728284545
 20
420.0690905404489
 30
0.0
 11
176.6380518284545
 21
420.0690905404489
 31
0.0
  0
ELLIPSE
  5
413
330
1F
100
AcDbEntity
  8
0
 62
   253
370
    35
100
AcDbEllipse
 10
186.8108728284545
 20
422.396849540449
 30
0.0
 11
10.25
 21
0.0
 31
0.0
210
0.0
220
0.0
230
1.0
 40
0.9998479999999998
 41
6.03768057
 42
6.273490319999999
  0
ELLIPSE
  5
414
330
1F
100
AcDbEntity
  8
0
 62
   253
370
    35
100
AcDbEllipse
 10
186.8108728284545
 20
422.396849540449
 30
0.0
 11
10.25
 21
0.0
 31
0.0
210
0.0
220
0.0
230
1.0
 40
0.9998479999999998
 41
3.15128777
 42
3.38709746
  0
LINE
  5
415
330
1F
100
AcDbEntity
  8
0
 62
   253
 48
0.000221
370
    35
100
AcDbLine
 10
176.6469318284545
 20
423.7492055404489
 30
0.0
 11
176.6455288284545
 21
423.7404775404489
 31
0.0
  0
LINE
  5
416
330
1F
100
AcDbEntity
  8
0
 62
   253
 48
0.000475
370
    35
100
AcDbLine
 10
176.6469928284545
 20
423.7301625404489
 30
0.0
 11
176.6469928284545
 21
423.7491445404489
 31
0.0
  0
ELLIPSE
  5
417
330
1F
100
AcDbEntity
  8
0
 62
   253
370
    35
100
AcDbEllipse
 10
186.8108728284545
 20
422.396849540449
 30
0.0
 11
10.25
 21
0.0
 31
0.0
210
0.0
220
0.0
230
1.0
 40
0.9998479999999998
 41
0.11459006
 42
3.0270026
  0
LINE
  5
418
330
1F
100
AcDbEntity
  8
0
 62
   253
 48
0.004067
370
    35
100
AcDbLine
 10
196.9747518284545
 20
423.7301625404489
 30
0.0
 11
196.9936428284545
 21
423.5686025404489
 31
0.0
  0
LINE
  5
419
330
1F
100
AcDbEntity
  8
0
 62
   253
 48
0.000475
370
    35
100
AcDbLine
 10
196.9747518284545
 20
423.7491445404489
 30
0.0
 11
196.9747518284545
 21
423.7301625404489
 31
0.0
  0
LINE
  5
41A
330
1F
100
AcDbEntity
  8
0
 62
   253
 48
0.000221
370
    35
100
AcDbLine
 10
196.9748128284545
 20
423.7492055404489
 30
0.0
 11
196.9762168284545
 21
423.7404775404489
 31
0.0
  0
ARC
  5
41B
330
1F
100
AcDbEntity
  8
0
 62
   253
370
    35
100
AcDbCircle
 10
179.7388508284545
 20
422.299620540449
 30
0.0
 40
3.177723999999999
100
AcDbArc
 50
170.7231189999999
 51
180.039023
  0
ARC
  5
41C
330
1F
100
AcDbEntity
  8
0
 62
   253
370
    35
100
AcDbCircle
 10
193.8828938284545
 20
422.299620540449
 30
0.0
 40
3.177725
100
AcDbArc
 50
359.9609769999999
 51
9.276881999999915
  0
LINE
  5
41D
330
1F
100
AcDbEntity
  8
0
 62
   253
 48
0.001197
370
    35
100
AcDbLine
 10
196.9361468284545
 20
420.0746145404489
 30
0.0
 11
196.9836938284545
 21
420.0690905404489
 31
0.0
  0
LINE
  5
41E
330
1F
100
AcDbEntity
  8
0
 62
   253
 48
0.001197
370
    35
100
AcDbLine
 10
176.6855978284545
 20
420.0746145404489
 30
0.0
 11
176.6380518284545
 21
420.0690905404489
 31
0.0
  0
LINE
  5
41F
330
1F
100
AcDbEntity
  8
0
 62
   253
370
    35
100
AcDbLine
 10
197.5052698284545
 20
423.5739735404489
 30
0.0
 11
221.8108728284545
 21
423.5739735404489
 31
0.0
  0
LINE
  5
420
330
1F
100
AcDbEntity
  8
0
 62
   253
370
    35
100
AcDbLine
 10
151.8108728284545
 20
423.5739735404489
 30
0.0
 11
176.1164758284545
 21
423.5739735404489
 31
0.0
  0
LINE
  5
421
330
1F
100
AcDbEntity
  8
0
 62
   253
370
    35
100
AcDbLine
 10
377.5052698284546
 20
423.5739735404489
 30
0.0
 11
401.8108728284545
 21
423.5739735404489
 31
0.0
  0
LINE
  5
422
330
1F
100
AcDbEntity
  8
0
 62
   253
370
    35
100
AcDbLine
 10
331.8108728284546
 20
423.5739735404489
 30
0.0
 11
356.1164758284546
 21
423.5739735404489
 31
0.0
  0
LINE
  5
423
330
1F
100
AcDbEntity
  8
0
 62
   253
 48
0.000076
370
    35
100
AcDbLine
 10
133.5151268284545
 20
426.5140365404489
 30
0.0
 11
133.5123958284545
 21
426.5153795404489
 31
0.0
  0
LINE
  5
424
330
1F
100
AcDbEntity
  8
0
 62
   253
 48
0.000076
370
    35
100
AcDbLine
 10
420.1065878284545
 20
426.5140365404489
 30
0.0
 11
420.1093348284545
 21
426.5153795404489
 31
0.0
  0
LINE
  5
425
330
1F
100
AcDbEntity
  8
0
 62
   253
 48
0.000076
370
    35
100
AcDbLine
 10
313.5124108284546
 20
426.5153795404489
 30
0.0
 11
313.5151268284545
 21
426.5140365404489
 31
0.0
  0
ARC
  5
426
330
1F
100
AcDbEntity
  8
0
 62
   253
370
    35
100
AcDbCircle
 10
240.7631128284545
 20
475.6953725404489
 30
0.0
 40
42.69666299999999
100
AcDbArc
 50
270.2946310000001
 51
271.7693649999999
  0
ARC
  5
427
330
1F
100
AcDbEntity
  8
0
 62
   253
370
    35
100
AcDbCircle
 10
223.4444478284546
 20
2352.270750540449
 30
0.0
 40
1919.352284
100
AcDbArc
 50
270.204767
 51
270.523552
  0
LINE
  5
428
330
1F
100
AcDbEntity
  8
0
 62
   253
370
    35
100
AcDbLine
 10
221.8108728284545
 20
432.8421615404489
 30
0.0
 11
191.3143518284545
 21
432.8421615404489
 31
0.0
  0
LINE
  5
429
330
1F
100
AcDbEntity
  8
0
 62
   253
370
    35
100
AcDbLine
 10
182.3073938284545
 20
432.8421615404489
 30
0.0
 11
151.8108728284545
 21
432.8421615404489
 31
0.0
  0
ARC
  5
42A
330
1F
100
AcDbEntity
  8
0
 62
   253
370
    35
100
AcDbCircle
 10
150.1772058284545
 20
2352.256346540449
 30
0.0
 40
1919.337717
100
AcDbArc
 50
269.4764499999999
 51
269.7952349999999
  0
ARC
  5
42B
330
1F
100
AcDbEntity
  8
0
 62
   253
370
    35
100
AcDbCircle
 10
132.8598538284545
 20
475.7705675404489
 30
0.0
 40
42.771846
100
AcDbArc
 50
268.2333489999999
 51
269.704243
  0
ARC
  5
42C
330
1F
100
AcDbEntity
  8
0
 62
   253
370
    35
100
AcDbCircle
 10
420.7619228284545
 20
475.769834540449
 30
0.0
 40
42.77110799999999
100
AcDbArc
 50
270.2957449999999
 51
271.7666669999999
  0
ARC
  5
42D
330
1F
100
AcDbEntity
  8
0
 62
   253
370
    35
100
AcDbCircle
 10
403.4445398284545
 20
2352.255125540449
 30
0.0
 40
1919.33666
100
AcDbArc
 50
270.204767
 51
270.523552
  0
LINE
  5
42E
330
1F
100
AcDbEntity
  8
0
 62
   253
370
    35
100
AcDbLine
 10
401.8108728284545
 20
432.8421615404489
 30
0.0
 11
371.3143518284546
 21
432.8421615404489
 31
0.0
  0
LINE
  5
42F
330
1F
100
AcDbEntity
  8
0
 62
   253
370
    35
100
AcDbLine
 10
362.3073938284546
 20
432.8421615404489
 30
0.0
 11
331.8108728284546
 21
432.8421615404489
 31
0.0
  0
ARC
  5
430
330
1F
100
AcDbEntity
  8
0
 62
   253
370
    35
100
AcDbCircle
 10
330.1772668284546
 20
2352.267576540449
 30
0.0
 40
1919.349087
100
AcDbArc
 50
269.4764499999999
 51
269.7952349999999
  0
ARC
  5
431
330
1F
100
AcDbEntity
  8
0
 62
   253
370
    35
100
AcDbCircle
 10
312.8586328284546
 20
475.6961045404489
 30
0.0
 40
42.697396
100
AcDbArc
 50
268.230644
 51
269.7053499999999
  0
ARC
  5
432
330
1F
100
AcDbEntity
  8
0
 62
   253
370
    35
100
AcDbCircle
 10
369.8213708284545
 20
419.3985885404489
 30
0.0
 40
6.000426999999999
100
AcDbArc
 50
269.9990749999999
 51
315.0936339999999
  0
LINE
  5
433
330
1F
100
AcDbEntity
  8
0
 62
   253
 48
0.15052
370
    35
100
AcDbLine
 10
363.8004658284546
 20
413.3981615404489
 30
0.0
 11
369.8212788284545
 21
413.3981615404489
 31
0.0
  0
ARC
  5
434
330
1F
100
AcDbEntity
  8
0
 62
   253
370
    35
100
AcDbCircle
 10
363.8003748284546
 20
419.3985885404489
 30
0.0
 40
6.000426999999999
100
AcDbArc
 50
224.9063709999999
 51
270.000933
  0
LINE
  5
435
330
1F
100
AcDbEntity
  8
0
 62
   253
 48
0.008381
370
    35
100
AcDbLine
 10
377.1700338284546
 20
423.5750105404489
 30
0.0
 11
377.5052698284546
 21
423.5739735404489
 31
0.0
  0
LINE
  5
436
330
1F
100
AcDbEntity
  8
0
 62
   253
 48
0.00834
370
    35
100
AcDbLine
 10
356.4500628284545
 20
423.5751325404489
 30
0.0
 11
356.1164758284546
 21
423.5739735404489
 31
0.0
  0
ARC
  5
437
330
1F
100
AcDbEntity
  8
0
 62
   253
370
    35
100
AcDbCircle
 10
366.8088888284545
 20
422.397154540449
 30
0.0
 40
10.248067
100
AcDbArc
 50
194.068914
 51
224.905907
  0
ARC
  5
438
330
1F
100
AcDbEntity
  8
0
 62
   253
370
    35
100
AcDbCircle
 10
366.8128558284545
 20
422.397154540449
 30
0.0
 40
10.248067
100
AcDbArc
 50
315.0940979999999
 51
345.9310899999999
  0
ARC
  5
439
330
1F
100
AcDbEntity
  8
0
 62
   253
370
    35
100
AcDbCircle
 10
189.8213708284545
 20
419.3985885404489
 30
0.0
 40
6.000426999999999
100
AcDbArc
 50
269.9990749999999
 51
315.0936339999999
  0
LINE
  5
43A
330
1F
100
AcDbEntity
  8
0
 62
   253
 48
0.15052
370
    35
100
AcDbLine
 10
183.8004658284545
 20
413.3981615404489
 30
0.0
 11
189.8212788284545
 21
413.3981615404489
 31
0.0
  0
ARC
  5
43B
330
1F
100
AcDbEntity
  8
0
 62
   253
370
    35
100
AcDbCircle
 10
183.8003748284545
 20
419.3985885404489
 30
0.0
 40
6.000426999999999
100
AcDbArc
 50
224.9063709999999
 51
270.000933
  0
LINE
  5
43C
330
1F
100
AcDbEntity
  8
0
 62
   253
 48
0.00834
370
    35
100
AcDbLine
 10
197.1716818284545
 20
423.5751325404489
 30
0.0
 11
197.5052698284545
 21
423.5739735404489
 31
0.0
  0
LINE
  5
43D
330
1F
100
AcDbEntity
  8
0
 62
   253
 48
0.008381
370
    35
100
AcDbLine
 10
176.4517108284545
 20
423.5750105404489
 30
0.0
 11
176.1164758284545
 21
423.5739735404489
 31
0.0
  0
ARC
  5
43E
330
1F
100
AcDbEntity
  8
0
 62
   253
370
    35
100
AcDbCircle
 10
186.8088888284545
 20
422.397154540449
 30
0.0
 40
10.248067
100
AcDbArc
 50
194.068914
 51
224.905907
  0
ARC
  5
43F
330
1F
100
AcDbEntity
  8
0
 62
   253
370
    35
100
AcDbCircle
 10
186.8128558284545
 20
422.397154540449
 30
0.0
 40
10.248067
100
AcDbArc
 50
315.0940979999999
 51
345.9310909999999
  0
LINE
  5
440
330
1F
100
AcDbEntity
  8
0
 62
   253
370
    35
100
AcDbLine
 10
81.01086982845455
 20
437.3812855404489
 30
0.0
 11
81.01086982845455
 21
541.097532540449
 31
0.0
  0
LINE
  5
441
330
1F
100
AcDbEntity
  8
0
 62
   253
370
    35
100
AcDbLine
 10
472.6108608284545
 20
541.097532540449
 30
0.0
 11
472.6108608284545
 21
437.3812855404489
 31
0.0
  0
ARC
  5
442
330
1F
100
AcDbEntity
  8
0
 62
   253
370
    35
100
AcDbCircle
 10
470.6219078284545
 20
541.100950540449
 30
0.0
 40
1.988738999999999
100
AcDbArc
 50
359.901857
 51
90.09815199999996
  0
LINE
  5
443
330
1F
100
AcDbEntity
  8
0
 62
   253
370
    35
100
AcDbLine
 10
470.6184898284545
 20
543.089964540449
 30
0.0
 11
83.00325582845454
 21
543.089964540449
 31
0.0
  0
ARC
  5
444
330
1F
100
AcDbEntity
  8
0
 62
   253
370
    35
100
AcDbCircle
 10
82.99985282845455
 20
541.100950540449
 30
0.0
 40
1.988738999999999
100
AcDbArc
 50
89.90185299999993
 51
180.098145
  0
ELLIPSE
  5
445
330
1F
100
AcDbEntity
  8
0
 62
   253
370
    35
100
AcDbEllipse
 10
81.00906882845455
 20
433.8880605404489
 30
0.0
 11
0.0
 21
-1.00030518
 31
0.0
210
0.0
220
0.0
230
1.0
 40
0.087476
 41
3.159042879999999
 42
3.606658729999999
  0
LINE
  5
446
330
1F
100
AcDbEntity
  8
0
 62
   253
 48
0.001729
370
    35
100
AcDbLine
 10
80.96982382845453
 20
434.7821035404489
 30
0.0
 11
80.95964582845454
 21
434.7136825404489
 31
0.0
  0
LINE
  5
447
330
1F
100
AcDbEntity
  8
0
 62
   253
 48
0.05415
370
    35
100
AcDbLine
 10
80.95964582845454
 20
434.7136825404489
 30
0.0
 11
80.95964582845454
 21
436.8796985404489
 31
0.0
  0
LINE
  5
448
330
1F
100
AcDbEntity
  8
0
 62
   253
 48
0.00021
370
    35
100
AcDbLine
 10
80.95964582845454
 20
436.8796985404489
 30
0.0
 11
80.96788582845453
 21
436.881346540449
 31
0.0
  0
ELLIPSE
  5
449
330
1F
100
AcDbEntity
  8
0
 62
   253
370
    35
100
AcDbEllipse
 10
80.96712282845455
 20
437.3812855404489
 30
0.0
 11
0.0
 21
-0.5
 31
0.0
210
0.0
220
0.0
230
1.0
 40
0.087489
 41
0.01745329
 42
1.57079633
  0
ELLIPSE
  5
44A
330
1F
100
AcDbEntity
  8
0
 62
   253
370
    35
100
AcDbEllipse
 10
472.6546228284545
 20
437.3812855404489
 30
0.0
 11
0.0
 21
-0.5
 31
0.0
210
0.0
220
0.0
230
1.0
 40
0.087489
 41
4.71238898
 42
6.265732009999999
  0
LINE
  5
44B
330
1F
100
AcDbEntity
  8
0
 62
   253
 48
0.001729
370
    35
100
AcDbLine
 10
472.6519368284545
 20
434.7821035404489
 30
0.0
 11
472.6621298284546
 21
434.7136825404489
 31
0.0
  0
ELLIPSE
  5
44C
330
1F
100
AcDbEntity
  8
0
 62
   253
370
    35
100
AcDbEllipse
 10
472.6126918284546
 20
433.888243540449
 30
0.0
 11
0.0
 21
-1.000122069999999
 31
0.0
210
0.0
220
0.0
230
1.0
 40
0.087483
 41
2.676486189999999
 42
3.1241407
  0
LINE
  5
44D
330
1F
100
AcDbEntity
  8
0
 62
   253
 48
0.000212
370
    35
100
AcDbLine
 10
472.6621298284546
 20
436.8796985404489
 30
0.0
 11
472.6538288284545
 21
436.881346540449
 31
0.0
  0
LINE
  5
44E
330
1F
100
AcDbEntity
  8
0
 62
   253
 48
0.05415
370
    35
100
AcDbLine
 10
472.6621298284546
 20
434.7136825404489
 30
0.0
 11
472.6621298284546
 21
436.8796985404489
 31
0.0
  0
ELLIPSE
  5
44F
330
1F
100
AcDbEntity
  8
0
 62
   253
370
    35
100
AcDbEllipse
 10
81.50563582845455
 20
434.8881825404489
 30
0.0
 11
0.09783936
 21
-0.4903259300000001
 31
0.0
210
0.0
220
0.0
230
1.0
 40
0.996044
 41
4.51622155
 42
6.0854968
  0
LINE
  5
450
330
1F
100
AcDbEntity
  8
0
 62
   253
 48
0.001589
370
    35
100
AcDbLine
 10
81.56796782845455
 20
434.400694540449
 30
0.0
 11
81.50563582845455
 21
434.3883045404489
 31
0.0
  0
LINE
  5
451
330
1F
100
AcDbEntity
  8
0
 62
   253
 48
0.001588
370
    35
100
AcDbLine
 10
472.0537928284545
 20
434.400694540449
 30
0.0
 11
472.1161098284546
 21
434.3883045404489
 31
0.0
  0
ELLIPSE
  5
452
330
1F
100
AcDbEntity
  8
0
 62
   253
370
    35
100
AcDbEllipse
 10
472.1161098284546
 20
434.8881825404489
 30
0.0
 11
0.09783936
 21
0.4903259300000001
 31
0.0
210
0.0
220
0.0
230
1.0
 40
0.996044
 41
3.33928116
 42
4.90855641
  0
LINE
  5
453
330
1F
100
AcDbEntity
  8
0
 62
   253
370
    35
100
AcDbLine
 10
83.06226082845455
 20
434.4246205404489
 30
0.0
 11
131.3108728284545
 21
434.4246205404489
 31
0.0
  0
LINE
  5
454
330
1F
100
AcDbEntity
  8
0
 62
   253
 48
0.001736
370
    35
100
AcDbLine
 10
131.3108728284545
 20
434.3551625404489
 30
0.0
 11
131.3108728284545
 21
434.4246205404489
 31
0.0
  0
ARC
  5
455
330
1F
100
AcDbEntity
  8
0
 62
   253
370
    35
100
AcDbCircle
 10
151.2860618284545
 20
2530.432127540449
 30
0.0
 40
2096.199158
100
AcDbArc
 50
269.4901849999999
 51
270.014348
  0
LINE
  5
456
330
1F
100
AcDbEntity
  8
0
 62
   253
370
    35
100
AcDbLine
 10
151.8108728284545
 20
434.2326645404489
 30
0.0
 11
221.8108728284545
 21
434.2326645404489
 31
0.0
  0
ARC
  5
457
330
1F
100
AcDbEntity
  8
0
 62
   253
370
    35
100
AcDbCircle
 10
222.3374228284546
 20
2531.090330540449
 30
0.0
 40
2096.857247
100
AcDbArc
 50
269.9856130000001
 51
270.5096120000001
  0
LINE
  5
458
330
1F
100
AcDbEntity
  8
0
 62
   253
 48
0.001736
370
    35
100
AcDbLine
 10
242.3108728284546
 20
434.4246205404489
 30
0.0
 11
242.3108728284546
 21
434.3551625404489
 31
0.0
  0
LINE
  5
459
330
1F
100
AcDbEntity
  8
0
 62
   253
370
    35
100
AcDbLine
 10
242.3108728284546
 20
434.4246205404489
 30
0.0
 11
311.3108728284545
 21
434.4246205404489
 31
0.0
  0
LINE
  5
45A
330
1F
100
AcDbEntity
  8
0
 62
   253
 48
0.001736
370
    35
100
AcDbLine
 10
311.3108728284545
 20
434.4246205404489
 30
0.0
 11
311.3108728284545
 21
434.3551625404489
 31
0.0
  0
ARC
  5
45B
330
1F
100
AcDbEntity
  8
0
 62
   253
370
    35
100
AcDbCircle
 10
331.2846888284545
 20
2530.954100540449
 30
0.0
 40
2096.721102
100
AcDbArc
 50
269.4903490000001
 51
270.0143819999999
  0
LINE
  5
45C
330
1F
100
AcDbEntity
  8
0
 62
   253
370
    35
100
AcDbLine
 10
331.8108728284546
 20
434.2326645404489
 30
0.0
 11
401.8108728284545
 21
434.2326645404489
 31
0.0
  0
ARC
  5
45D
330
1F
100
AcDbEntity
  8
0
 62
   253
370
    35
100
AcDbCircle
 10
402.3370568284545
 20
2530.952391540449
 30
0.0
 40
2096.719374
100
AcDbArc
 50
269.9856200000001
 51
270.509653
  0
LINE
  5
45E
330
1F
100
AcDbEntity
  8
0
 62
   253
 48
0.001736
370
    35
100
AcDbLine
 10
422.3108728284545
 20
434.3551625404489
 30
0.0
 11
422.3108728284545
 21
434.4246205404489
 31
0.0
  0
LINE
  5
45F
330
1F
100
AcDbEntity
  8
0
 62
   253
370
    35
100
AcDbLine
 10
422.3108728284545
 20
434.4246205404489
 30
0.0
 11
470.5594688284545
 21
434.4246205404489
 31
0.0
  0
LINE
  5
460
330
1F
100
AcDbEntity
  8
0
 62
   253
 48
0.099519
370
    35
100
AcDbLine
 10
131.8108728284545
 20
438.9053335404489
 30
0.0
 11
131.8108728284545
 21
434.9245595404489
 31
0.0
  0
ARC
  5
461
330
1F
100
AcDbEntity
  8
0
 62
   253
370
    35
100
AcDbCircle
 10
133.8212028284545
 20
438.9103375404489
 30
0.0
 40
2.009978999999999
100
AcDbArc
 50
118.2594939999999
 51
180.141995
  0
ARC
  5
462
330
1F
100
AcDbEntity
  8
0
 62
   253
370
    35
100
AcDbCircle
 10
151.8066918284545
 20
405.2380355404489
 30
0.0
 40
40.184578
100
AcDbArc
 50
89.99405300000008
 51
118.115732
  0
LINE
  5
463
330
1F
100
AcDbEntity
  8
0
 62
   253
370
    35
100
AcDbLine
 10
151.8108728284545
 20
445.4227895404489
 30
0.0
 11
221.8108728284545
 21
445.4227895404489
 31
0.0
  0
ARC
  5
464
330
1F
100
AcDbEntity
  8
0
 62
   253
370
    35
100
AcDbCircle
 10
221.8150838284545
 20
405.2381575404489
 30
0.0
 40
40.18446599999999
100
AcDbArc
 50
61.88422500000003
 51
90.00599299999999
  0
ARC
  5
465
330
1F
100
AcDbEntity
  8
0
 62
   253
370
    35
100
AcDbCircle
 10
239.8005268284546
 20
438.9103375404489
 30
0.0
 40
2.009978999999999
100
AcDbArc
 50
359.85801
 51
61.74050500000005
  0
LINE
  5
466
330
1F
100
AcDbEntity
  8
0
 62
   253
 48
0.099519
370
    35
100
AcDbLine
 10
241.8108728284545
 20
438.9053335404489
 30
0.0
 11
241.8108728284545
 21
434.9245595404489
 31
0.0
  0
LINE
  5
467
330
1F
100
AcDbEntity
  8
0
 62
   253
 48
0.099519
370
    35
100
AcDbLine
 10
311.8108728284545
 20
438.9053335404489
 30
0.0
 11
311.8108728284545
 21
434.9245595404489
 31
0.0
  0
ARC
  5
468
330
1F
100
AcDbEntity
  8
0
 62
   253
370
    35
100
AcDbCircle
 10
313.8212178284546
 20
438.910276540449
 30
0.0
 40
2.010003999999999
100
AcDbArc
 50
118.259179
 51
180.140915
  0
ARC
  5
469
330
1F
100
AcDbEntity
  8
0
 62
   253
370
    35
100
AcDbCircle
 10
331.8066918284545
 20
405.2380355404489
 30
0.0
 40
40.184578
100
AcDbArc
 50
89.99405300000008
 51
118.115732
  0
LINE
  5
46A
330
1F
100
AcDbEntity
  8
0
 62
   253
370
    35
100
AcDbLine
 10
331.8108728284546
 20
445.4227895404489
 30
0.0
 11
401.8108728284545
 21
445.4227895404489
 31
0.0
  0
ARC
  5
46B
330
1F
100
AcDbEntity
  8
0
 62
   253
370
    35
100
AcDbCircle
 10
401.8150838284545
 20
405.2381575404489
 30
0.0
 40
40.18446599999999
100
AcDbArc
 50
61.88422500000003
 51
90.00599299999999
  0
ARC
  5
46C
330
1F
100
AcDbEntity
  8
0
 62
   253
370
    35
100
AcDbCircle
 10
419.8005578284545
 20
438.9103375404489
 30
0.0
 40
2.009978999999999
100
AcDbArc
 50
359.85801
 51
61.74050500000005
  0
LINE
  5
46D
330
1F
100
AcDbEntity
  8
0
 62
   253
 48
0.099519
370
    35
100
AcDbLine
 10
421.8108728284545
 20
438.9053335404489
 30
0.0
 11
421.8108728284545
 21
434.9245595404489
 31
0.0
  0
ELLIPSE
  5
46E
330
1F
100
AcDbEntity
  8
0
 62
   253
370
    35
100
AcDbEllipse
 10
131.3108728284545
 20
434.8551015404489
 30
0.0
 11
-0.5
 21
0.0
 31
0.0
210
0.0
220
0.0
230
1.0
 40
0.9998479999999998
 41
1.57079633
 42
3.14159265
  0
LINE
  5
46F
330
1F
100
AcDbEntity
  8
0
 62
   253
 48
0.001736
370
    35
100
AcDbLine
 10
131.8108728284545
 20
434.8551015404489
 30
0.0
 11
131.8108728284545
 21
434.9245595404489
 31
0.0
  0
ELLIPSE
  5
470
330
1F
100
AcDbEntity
  8
0
 62
   253
370
    35
100
AcDbEllipse
 10
131.3108728284545
 20
434.9245595404489
 30
0.0
 11
-0.5
 21
0.0
 31
0.0
210
0.0
220
0.0
230
1.0
 40
0.9998479999999998
 41
1.57079633
 42
3.14159265
  0
LINE
  5
471
330
1F
100
AcDbEntity
  8
0
 62
   253
 48
0.012173
370
    35
100
AcDbLine
 10
151.8108728284545
 20
434.2326645404489
 30
0.0
 11
151.8108728284545
 21
434.719603540449
 31
0.0
  0
LINE
  5
472
330
1F
100
AcDbEntity
  8
0
 62
   253
 48
0.012173
370
    35
100
AcDbLine
 10
221.8108728284545
 20
434.2326645404489
 30
0.0
 11
221.8108728284545
 21
434.719603540449
 31
0.0
  0
LINE
  5
473
330
1F
100
AcDbEntity
  8
0
 62
   253
 48
0.001736
370
    35
100
AcDbLine
 10
241.8108728284545
 20
434.9245595404489
 30
0.0
 11
241.8108728284545
 21
434.8551015404489
 31
0.0
  0
ELLIPSE
  5
474
330
1F
100
AcDbEntity
  8
0
 62
   253
370
    35
100
AcDbEllipse
 10
242.3108728284546
 20
434.9245595404489
 30
0.0
 11
-0.5
 21
0.0
 31
0.0
210
0.0
220
0.0
230
1.0
 40
0.9998479999999998
 41
0.0
 42
1.57079633
  0
LINE
  5
475
330
1F
100
AcDbEntity
  8
0
 62
   253
 48
0.001736
370
    35
100
AcDbLine
 10
311.8108728284545
 20
434.9245595404489
 30
0.0
 11
311.8108728284545
 21
434.8551015404489
 31
0.0
  0
ELLIPSE
  5
476
330
1F
100
AcDbEntity
  8
0
 62
   253
370
    35
100
AcDbEllipse
 10
311.3108728284545
 20
434.9245595404489
 30
0.0
 11
-0.5
 21
0.0
 31
0.0
210
0.0
220
0.0
230
1.0
 40
0.9998479999999998
 41
1.57079633
 42
3.14159265
  0
LINE
  5
477
330
1F
100
AcDbEntity
  8
0
 62
   253
 48
0.012173
370
    35
100
AcDbLine
 10
331.8108728284546
 20
434.2326645404489
 30
0.0
 11
331.8108728284546
 21
434.719603540449
 31
0.0
  0
LINE
  5
478
330
1F
100
AcDbEntity
  8
0
 62
   253
 48
0.012173
370
    35
100
AcDbLine
 10
401.8108728284545
 20
434.2326645404489
 30
0.0
 11
401.8108728284545
 21
434.719603540449
 31
0.0
  0
LINE
  5
479
330
1F
100
AcDbEntity
  8
0
 62
   253
 48
0.001736
370
    35
100
AcDbLine
 10
421.8108728284545
 20
434.8551015404489
 30
0.0
 11
421.8108728284545
 21
434.9245595404489
 31
0.0
  0
ELLIPSE
  5
47A
330
1F
100
AcDbEntity
  8
0
 62
   253
370
    35
100
AcDbEllipse
 10
422.3108728284545
 20
434.9245595404489
 30
0.0
 11
0.5
 21
0.0
 31
0.0
210
0.0
220
0.0
230
1.0
 40
0.9998479999999998
 41
3.14159265
 42
4.71238898
  0
LINE
  5
47B
330
1F
100
AcDbEntity
  8
0
 62
   253
 48
0.2675800000000001
370
    35
100
AcDbLine
 10
151.8108728284545
 20
434.719603540449
 30
0.0
 11
151.8108728284545
 21
445.4227895404489
 31
0.0
  0
LINE
  5
47C
330
1F
100
AcDbEntity
  8
0
 62
   253
 48
0.2675800000000001
370
    35
100
AcDbLine
 10
221.8108728284545
 20
434.719603540449
 30
0.0
 11
221.8108728284545
 21
445.4227895404489
 31
0.0
  0
LINE
  5
47D
330
1F
100
AcDbEntity
  8
0
 62
   253
 48
0.2675800000000001
370
    35
100
AcDbLine
 10
331.8108728284546
 20
434.719603540449
 30
0.0
 11
331.8108728284546
 21
445.4227895404489
 31
0.0
  0
LINE
  5
47E
330
1F
100
AcDbEntity
  8
0
 62
   253
 48
0.2675800000000001
370
    35
100
AcDbLine
 10
401.8108728284545
 20
434.719603540449
 30
0.0
 11
401.8108728284545
 21
445.4227895404489
 31
0.0
  0
LINE
  5
47F
330
1F
100
AcDbEntity
  8
0
 62
   253
 48
0.000185
370
    35
100
AcDbLine
 10
80.96829782845455
 20
433.8719465404489
 30
0.0
 11
80.96822082845454
 21
433.8793325404489
 31
0.0
  0
LINE
  5
480
330
1F
100
AcDbEntity
  8
0
 62
   253
370
    35
100
AcDbLine
 10
474.1021938284545
 20
544.167356540449
 30
0.0
 11
474.1021938284545
 21
411.9784835404489
 31
0.0
  0
LINE
  5
481
330
1F
100
AcDbEntity
  8
0
 62
   253
370
    35
100
AcDbLine
 10
81.51944482845454
 20
409.9785755404489
 30
0.0
 11
472.1023158284545
 21
409.9785755404489
 31
0.0
  0
ARC
  5
482
330
1F
100
AcDbEntity
  8
0
 62
   253
370
    35
100
AcDbCircle
 10
472.1024378284545
 20
411.9783315404489
 30
0.0
 40
1.999774
100
AcDbArc
 50
269.9958449999999
 51
0.0041570000000082
  0
ARC
  5
483
330
1F
100
AcDbEntity
  8
0
 62
   253
370
    35
100
AcDbCircle
 10
472.1024378284545
 20
544.1674795404489
 30
0.0
 40
1.999774
100
AcDbArc
 50
359.995843
 51
90.00415500000004
  0
LINE
  5
484
330
1F
100
AcDbEntity
  8
0
 62
   253
370
    35
100
AcDbLine
 10
79.51952082845455
 20
544.167356540449
 30
0.0
 11
79.51952082845455
 21
411.9784835404489
 31
0.0
  0
ARC
  5
485
330
1F
100
AcDbEntity
  8
0
 62
   253
370
    35
100
AcDbCircle
 10
81.51930782845454
 20
544.1674795404489
 30
0.0
 40
1.999774
100
AcDbArc
 50
89.995843
 51
180.0041609999999
  0
ARC
  5
486
330
1F
100
AcDbEntity
  8
0
 62
   253
370
    35
100
AcDbCircle
 10
81.51930782845454
 20
411.9783315404489
 30
0.0
 40
1.999774
100
AcDbArc
 50
179.995839
 51
270.004157
  0
LINE
  5
487
330
1F
100
AcDbEntity
  8
0
 62
   253
 48
0.000108
370
    35
100
AcDbLine
 10
464.8195398284545
 20
543.0930165404488
 30
0.0
 11
464.8225918284545
 21
543.089964540449
 31
0.0
  0
LINE
  5
488
330
1F
100
AcDbEntity
  8
0
 62
   253
 48
0.000108
370
    35
100
AcDbLine
 10
462.8022058284545
 20
543.0930165404488
 30
0.0
 11
462.7991538284545
 21
543.089964540449
 31
0.0
  0
LINE
  5
489
330
1F
100
AcDbEntity
  8
0
 62
   253
 48
0.000108
370
    35
100
AcDbLine
 10
325.3195398284546
 20
543.0930165404488
 30
0.0
 11
325.3225918284546
 21
543.089964540449
 31
0.0
  0
LINE
  5
48A
330
1F
100
AcDbEntity
  8
0
 62
   253
 48
0.000108
370
    35
100
AcDbLine
 10
323.3022058284545
 20
543.0930165404488
 30
0.0
 11
323.2991538284545
 21
543.089964540449
 31
0.0
  0
LINE
  5
48B
330
1F
100
AcDbEntity
  8
0
 62
   253
 48
0.000108
370
    35
100
AcDbLine
 10
230.3195398284545
 20
543.0930165404488
 30
0.0
 11
230.3225918284546
 21
543.089964540449
 31
0.0
  0
LINE
  5
48C
330
1F
100
AcDbEntity
  8
0
 62
   253
 48
0.000108
370
    35
100
AcDbLine
 10
228.3022058284545
 20
543.0930165404488
 30
0.0
 11
228.2991538284545
 21
543.089964540449
 31
0.0
  0
LINE
  5
48D
330
1F
100
AcDbEntity
  8
0
 62
   253
 48
0.000108
370
    35
100
AcDbLine
 10
90.81953982845453
 20
543.0930165404488
 30
0.0
 11
90.82260682845456
 21
543.089964540449
 31
0.0
  0
LINE
  5
48E
330
1F
100
AcDbEntity
  8
0
 62
   253
 48
0.000108
370
    35
100
AcDbLine
 10
88.80220582845455
 20
543.0930165404488
 30
0.0
 11
88.79913882845455
 21
543.089964540449
 31
0.0
  0
LINE
  5
48F
330
1F
100
AcDbEntity
  8
0
 62
     7
 48
0.018748
370
    35
100
AcDbLine
 10
485.8108728284545
 20
612.161985540449
 30
0.0
 11
485.8108728284545
 21
612.911924540449
 31
0.0
  0
LINE
  5
490
330
1F
100
AcDbEntity
  8
0
 62
     7
 48
0.018748
370
    35
100
AcDbLine
 10
67.81087282845454
 20
612.161985540449
 30
0.0
 11
67.81087282845454
 21
612.911924540449
 31
0.0
  0
LINE
  5
491
330
1F
100
AcDbEntity
  8
0
 62
     7
 48
0.00145
370
    35
100
AcDbLine
 10
67.81087282845454
 20
612.911924540449
 30
0.0
 11
67.81087282845454
 21
612.9699085404491
 31
0.0
  0
LINE
  5
492
330
1F
100
AcDbEntity
  8
0
 62
     7
370
    35
100
AcDbLine
 10
485.8108728284545
 20
612.9699085404491
 30
0.0
 11
67.81087282845454
 21
612.9699085404491
 31
0.0
  0
LINE
  5
493
330
1F
100
AcDbEntity
  8
0
 62
     7
 48
0.00145
370
    35
100
AcDbLine
 10
485.8108728284545
 20
612.911924540449
 30
0.0
 11
485.8108728284545
 21
612.9699085404491
 31
0.0
  0
LINE
  5
494
330
1F
100
AcDbEntity
  8
0
 62
     7
 48
0.00174
370
    35
100
AcDbLine
 10
53.10210182845455
 20
603.1181015404491
 30
0.0
 11
53.06354282845454
 21
603.176023540449
 31
0.0
  0
ARC
  5
495
330
1F
100
AcDbEntity
  8
0
 62
     7
370
    35
100
AcDbCircle
 10
67.81087282845454
 20
596.969908540449
 30
0.0
 40
16.0
100
AcDbArc
 50
90.0
 51
157.1770370000001
  0
LINE
  5
496
330
1F
100
AcDbEntity
  8
0
 62
     7
 48
0.054432
370
    35
100
AcDbLine
 10
56.09073382845455
 20
603.096922540449
 30
0.0
 11
53.91348782845454
 21
603.1068715404489
 31
0.0
  0
LINE
  5
497
330
1F
100
AcDbEntity
  8
0
 62
     7
 48
0.049176
370
    35
100
AcDbLine
 10
67.81087282845454
 20
610.1949445404488
 30
0.0
 11
67.81087282845454
 21
612.161985540449
 31
0.0
  0
LINE
  5
498
330
1F
100
AcDbEntity
  8
0
 62
   253
 48
0.050433
370
    35
100
AcDbLine
 10
462.8022058284545
 20
543.0930165404488
 30
0.0
 11
464.8195398284545
 21
543.0930165404488
 31
0.0
  0
LINE
  5
499
330
1F
100
AcDbEntity
  8
0
 62
   253
 48
0.050433
370
    35
100
AcDbLine
 10
88.80220582845455
 20
543.0930165404488
 30
0.0
 11
90.81953982845453
 21
543.0930165404488
 31
0.0
  0
LINE
  5
49A
330
1F
100
AcDbEntity
  8
0
 62
   253
 48
0.050433
370
    35
100
AcDbLine
 10
228.3022058284545
 20
543.0930165404488
 30
0.0
 11
230.3195398284545
 21
543.0930165404488
 31
0.0
  0
LINE
  5
49B
330
1F
100
AcDbEntity
  8
0
 62
   253
 48
0.050433
370
    35
100
AcDbLine
 10
323.3022058284545
 20
543.0930165404488
 30
0.0
 11
325.3195398284546
 21
543.0930165404488
 31
0.0
  0
LINE
  5
49C
330
1F
100
AcDbEntity
  8
0
 62
     7
 48
0.049176
370
    35
100
AcDbLine
 10
485.8108728284545
 20
610.1949445404488
 30
0.0
 11
485.8108728284545
 21
612.161985540449
 31
0.0
  0
LINE
  5
49D
330
1F
100
AcDbEntity
  8
0
 62
     7
 48
0.054432
370
    35
100
AcDbLine
 10
499.7082728284545
 20
603.1068715404489
 30
0.0
 11
497.5310268284546
 21
603.096922540449
 31
0.0
  0
ARC
  5
49E
330
1F
100
AcDbEntity
  8
0
 62
     7
370
    35
100
AcDbCircle
 10
485.8108728284545
 20
596.969908540449
 30
0.0
 40
16.0
100
AcDbArc
 50
22.82296099999997
 51
90.0
  0
LINE
  5
49F
330
1F
100
AcDbEntity
  8
0
 62
     7
 48
0.001739
370
    35
100
AcDbLine
 10
500.5581868284545
 20
603.176023540449
 30
0.0
 11
500.5196738284545
 21
603.1181015404491
 31
0.0
  0
LINE
  5
4A0
330
1F
100
AcDbEntity
  8
0
 62
     7
370
    35
100
AcDbLine
 10
51.81087282845455
 20
394.176084540449
 30
0.0
 11
51.81087282845455
 21
590.763792540449
 31
0.0
  0
LINE
  5
4A1
330
1F
100
AcDbEntity
  8
0
 62
     7
 48
0.00205
370
    35
100
AcDbLine
 10
51.81087282845455
 20
394.176084540449
 30
0.0
 11
51.86884082845454
 21
394.118101540449
 31
0.0
  0
LINE
  5
4A2
330
1F
100
AcDbEntity
  8
0
 62
     7
 48
0.002049
370
    35
100
AcDbLine
 10
51.81087282845455
 20
590.763792540449
 30
0.0
 11
51.86884082845454
 21
590.8217145404489
 31
0.0
  0
LINE
  5
4A3
330
1F
100
AcDbEntity
  8
0
 62
     7
 48
0.049176
370
    35
100
AcDbLine
 10
54.58580582845454
 20
590.8428945404489
 30
0.0
 11
52.61877982845454
 21
590.8329455404489
 31
0.0
  0
LINE
  5
4A4
330
1F
100
AcDbEntity
  8
0
 62
     7
 48
0.049176
370
    35
100
AcDbLine
 10
54.58580582845454
 20
394.096952540449
 30
0.0
 11
52.61877982845454
 21
394.106871540449
 31
0.0
  0
LINE
  5
4A5
330
1F
100
AcDbEntity
  8
0
 62
     7
 48
0.018747
370
    35
100
AcDbLine
 10
67.81087282845454
 20
610.1949445404488
 30
0.0
 11
67.81087282845454
 21
609.445066540449
 31
0.0
  0
ARC
  5
4A6
330
1F
100
AcDbEntity
  8
0
 62
     7
370
    35
100
AcDbCircle
 10
67.81087282845454
 20
596.969908540449
 30
0.0
 40
12.475126
100
AcDbArc
 50
90.0
 51
150.6434969999999
  0
LINE
  5
4A7
330
1F
100
AcDbEntity
  8
0
 62
     7
 48
0.000981
370
    35
100
AcDbLine
 10
56.95755582845454
 20
603.051878540449
 30
0.0
 11
56.93771882845455
 21
603.0857525404489
 31
0.0
  0
LINE
  5
4A8
330
1F
100
AcDbEntity
  8
0
 62
     7
370
    35
100
AcDbLine
 10
51.81087282845455
 20
75.17605454044897
 30
0.0
 11
51.81087282845455
 21
381.763731540449
 31
0.0
  0
LINE
  5
4A9
330
1F
100
AcDbEntity
  8
0
 62
     7
 48
0.002049
370
    35
100
AcDbLine
 10
51.81087282845455
 20
75.17605454044897
 30
0.0
 11
51.86884082845454
 21
75.11810154044896
 31
0.0
  0
LINE
  5
4AA
330
1F
100
AcDbEntity
  8
0
 62
     7
 48
0.00205
370
    35
100
AcDbLine
 10
51.81087282845455
 20
381.763731540449
 30
0.0
 11
51.86884082845454
 21
381.8217145404489
 31
0.0
  0
LINE
  5
4AB
330
1F
100
AcDbEntity
  8
0
 62
     7
 48
0.049176
370
    35
100
AcDbLine
 10
54.58580582845454
 20
381.8428635404489
 30
0.0
 11
52.61877982845454
 21
381.832945540449
 31
0.0
  0
LINE
  5
4AC
330
1F
100
AcDbEntity
  8
0
 62
     7
 48
0.049176
370
    35
100
AcDbLine
 10
54.58580582845454
 20
75.09695254044896
 30
0.0
 11
52.61877982845454
 21
75.10687154044896
 31
0.0
  0
LINE
  5
4AD
330
1F
100
AcDbEntity
  8
0
 62
     7
 48
0.018747
370
    35
100
AcDbLine
 10
485.8108728284545
 20
610.1949445404488
 30
0.0
 11
485.8108728284545
 21
609.445066540449
 31
0.0
  0
LINE
  5
4AE
330
1F
100
AcDbEntity
  8
0
 62
     7
370
    35
100
AcDbLine
 10
485.8108728284545
 20
609.445066540449
 30
0.0
 11
67.81087282845454
 21
609.445066540449
 31
0.0
  0
LINE
  5
4AF
330
1F
100
AcDbEntity
  8
0
 62
     7
 48
0.018748
370
    35
100
AcDbLine
 10
67.81087282845454
 20
53.77783054044897
 30
0.0
 11
67.81087282845454
 21
53.02789154044896
 31
0.0
  0
LINE
  5
4B0
330
1F
100
AcDbEntity
  8
0
 62
     7
 48
0.054432
370
    35
100
AcDbLine
 10
53.91348782845454
 20
62.83294554044896
 30
0.0
 11
56.09073382845455
 21
62.84286354044897
 31
0.0
  0
LINE
  5
4B1
330
1F
100
AcDbEntity
  8
0
 62
     7
 48
0.049175
370
    35
100
AcDbLine
 10
67.81087282845454
 20
55.74484154044896
 30
0.0
 11
67.81087282845454
 21
53.77783054044897
 31
0.0
  0
ARC
  5
4B2
330
1F
100
AcDbEntity
  8
0
 62
     7
370
    35
100
AcDbCircle
 10
485.8108728284545
 20
596.969908540449
 30
0.0
 40
12.475126
100
AcDbArc
 50
29.35650800000008
 51
90.0
  0
LINE
  5
4B3
330
1F
100
AcDbEntity
  8
0
 62
     7
 48
0.000981
370
    35
100
AcDbLine
 10
496.6840418284546
 20
603.0857525404489
 30
0.0
 11
496.6642048284545
 21
603.051878540449
 31
0.0
  0
LINE
  5
4B4
330
1F
100
AcDbEntity
  8
0
 62
     7
 48
0.049177
370
    35
100
AcDbLine
 10
499.0359088284545
 20
394.096952540449
 30
0.0
 11
501.0029498284545
 21
394.106871540449
 31
0.0
  0
LINE
  5
4B5
330
1F
100
AcDbEntity
  8
0
 62
     7
 48
0.049177
370
    35
100
AcDbLine
 10
499.0359088284545
 20
590.8428945404489
 30
0.0
 11
501.0029498284545
 21
590.8329455404489
 31
0.0
  0
LINE
  5
4B6
330
1F
100
AcDbEntity
  8
0
 62
     7
 48
0.002049
370
    35
100
AcDbLine
 10
501.8108728284545
 20
590.763792540449
 30
0.0
 11
501.7528888284545
 21
590.8217145404489
 31
0.0
  0
LINE
  5
4B7
330
1F
100
AcDbEntity
  8
0
 62
     7
370
    35
100
AcDbLine
 10
501.8108728284545
 20
590.763792540449
 30
0.0
 11
501.8108728284545
 21
394.176084540449
 31
0.0
  0
LINE
  5
4B8
330
1F
100
AcDbEntity
  8
0
 62
     7
 48
0.00205
370
    35
100
AcDbLine
 10
501.8108728284545
 20
394.176084540449
 30
0.0
 11
501.7528888284545
 21
394.118101540449
 31
0.0
  0
LINE
  5
4B9
330
1F
100
AcDbEntity
  8
0
 62
     7
 48
0.018748
370
    35
100
AcDbLine
 10
485.8108728284545
 20
53.77783054044897
 30
0.0
 11
485.8108728284545
 21
53.02789154044896
 31
0.0
  0
LINE
  5
4BA
330
1F
100
AcDbEntity
  8
0
 62
     7
 48
0.00145
370
    35
100
AcDbLine
 10
485.8108728284545
 20
53.02789154044896
 30
0.0
 11
485.8108728284545
 21
52.96990854044897
 31
0.0
  0
LINE
  5
4BB
330
1F
100
AcDbEntity
  8
0
 62
     7
370
    35
100
AcDbLine
 10
67.81087282845454
 20
52.96990854044897
 30
0.0
 11
485.8108728284545
 21
52.96990854044897
 31
0.0
  0
LINE
  5
4BC
330
1F
100
AcDbEntity
  8
0
 62
     7
 48
0.00145
370
    35
100
AcDbLine
 10
67.81087282845454
 20
53.02789154044896
 30
0.0
 11
67.81087282845454
 21
52.96990854044897
 31
0.0
  0
ARC
  5
4BD
330
1F
100
AcDbEntity
  8
0
 62
     7
370
    35
100
AcDbCircle
 10
67.81087282845454
 20
68.96990854044897
 30
0.0
 40
16.0
100
AcDbArc
 50
202.8229629999999
 51
270.0
  0
LINE
  5
4BE
330
1F
100
AcDbEntity
  8
0
 62
     7
 48
0.00174
370
    35
100
AcDbLine
 10
53.06354282845454
 20
62.76376154044896
 30
0.0
 11
53.10210182845455
 21
62.82171454044896
 31
0.0
  0
LINE
  5
4BF
330
1F
100
AcDbEntity
  8
0
 62
     7
370
    35
100
AcDbLine
 10
55.33574482845455
 20
75.08575254044896
 30
0.0
 11
55.33574482845455
 21
381.854063540449
 31
0.0
  0
LINE
  5
4C0
330
1F
100
AcDbEntity
  8
0
 62
     7
 48
0.001198
370
    35
100
AcDbLine
 10
55.36961882845455
 20
381.8879385404489
 30
0.0
 11
55.33574482845455
 21
381.854063540449
 31
0.0
  0
LINE
  5
4C1
330
1F
100
AcDbEntity
  8
0
 62
     7
 48
0.001198
370
    35
100
AcDbLine
 10
55.36961882845455
 20
394.051878540449
 30
0.0
 11
55.33574482845455
 21
394.085752540449
 31
0.0
  0
LINE
  5
4C2
330
1F
100
AcDbEntity
  8
0
 62
     7
370
    35
100
AcDbLine
 10
55.33574482845455
 20
394.085752540449
 30
0.0
 11
55.33574482845455
 21
590.854063540449
 31
0.0
  0
LINE
  5
4C3
330
1F
100
AcDbEntity
  8
0
 62
     7
 48
0.001198
370
    35
100
AcDbLine
 10
55.36961882845455
 20
590.8879385404488
 30
0.0
 11
55.33574482845455
 21
590.854063540449
 31
0.0
  0
LINE
  5
4C4
330
1F
100
AcDbEntity
  8
0
 62
     7
 48
0.000463
370
    35
100
AcDbLine
 10
55.37370882845454
 20
590.8698715404489
 30
0.0
 11
55.36961882845455
 21
590.8879385404488
 31
0.0
  0
LINE
  5
4C5
330
1F
100
AcDbEntity
  8
0
 62
     7
 48
0.000584
370
    35
100
AcDbLine
 10
56.97237182845454
 20
603.0699445404488
 30
0.0
 11
56.95755582845454
 21
603.051878540449
 31
0.0
  0
LINE
  5
4C6
330
1F
100
AcDbEntity
  8
0
 62
     7
 48
0.001198
370
    35
100
AcDbLine
 10
55.36961882845455
 20
75.05187854044897
 30
0.0
 11
55.33574482845455
 21
75.08575254044896
 31
0.0
  0
LINE
  5
4C7
330
1F
100
AcDbEntity
  8
0
 62
     7
 48
0.000462
370
    35
100
AcDbLine
 10
55.37370882845454
 20
381.869902540449
 30
0.0
 11
55.36961882845455
 21
381.8879385404489
 31
0.0
  0
LINE
  5
4C8
330
1F
100
AcDbEntity
  8
0
 62
     7
 48
0.000462
370
    35
100
AcDbLine
 10
55.37370882845454
 20
394.069914540449
 30
0.0
 11
55.36961882845455
 21
394.051878540449
 31
0.0
  0
LINE
  5
4C9
330
1F
100
AcDbEntity
  8
0
 62
   253
370
    35
100
AcDbLine
 10
81.51944482845454
 20
546.1672955404489
 30
0.0
 11
472.1023158284545
 21
546.1672955404489
 31
0.0
  0
LINE
  5
4CA
330
1F
100
AcDbEntity
  8
0
 62
     7
 48
0.049998
370
    13
100
AcDbLine
 10
57.70802882845455
 20
584.272581540449
 30
0.0
 11
55.70810482845454
 21
584.272581540449
 31
0.0
  0
LINE
  5
4CB
330
1F
100
AcDbEntity
  8
0
 62
     7
 48
0.049175
370
    35
100
AcDbLine
 10
485.8108728284545
 20
55.74484154044896
 30
0.0
 11
485.8108728284545
 21
53.77783054044897
 31
0.0
  0
ARC
  5
4CC
330
1F
100
AcDbEntity
  8
0
 62
     7
370
    35
100
AcDbCircle
 10
67.81087282845454
 20
68.96990854044897
 30
0.0
 40
12.475126
100
AcDbArc
 50
209.3565030000001
 51
270.0
  0
LINE
  5
4CD
330
1F
100
AcDbEntity
  8
0
 62
     7
 48
0.018748
370
    35
100
AcDbLine
 10
67.81087282845454
 20
55.74484154044896
 30
0.0
 11
67.81087282845454
 21
56.49478054044896
 31
0.0
  0
LINE
  5
4CE
330
1F
100
AcDbEntity
  8
0
 62
     7
 48
0.000981
370
    35
100
AcDbLine
 10
56.93771882845455
 20
62.85406354044896
 30
0.0
 11
56.95755582845454
 21
62.88793854044897
 31
0.0
  0
LINE
  5
4CF
330
1F
100
AcDbEntity
  8
0
 62
     7
 48
0.049177
370
    35
100
AcDbLine
 10
499.0359088284545
 20
381.8428635404489
 30
0.0
 11
501.0029498284545
 21
381.832945540449
 31
0.0
  0
LINE
  5
4D0
330
1F
100
AcDbEntity
  8
0
 62
     7
 48
0.049177
370
    35
100
AcDbLine
 10
499.0359088284545
 20
75.09695254044896
 30
0.0
 11
501.0029498284545
 21
75.10687154044896
 31
0.0
  0
LINE
  5
4D1
330
1F
100
AcDbEntity
  8
0
 62
     7
 48
0.00205
370
    35
100
AcDbLine
 10
501.8108728284545
 20
381.763731540449
 30
0.0
 11
501.7528888284545
 21
381.8217145404489
 31
0.0
  0
LINE
  5
4D2
330
1F
100
AcDbEntity
  8
0
 62
     7
370
    35
100
AcDbLine
 10
501.8108728284545
 20
381.763731540449
 30
0.0
 11
501.8108728284545
 21
75.17605454044897
 31
0.0
  0
LINE
  5
4D3
330
1F
100
AcDbEntity
  8
0
 62
     7
 48
0.002049
370
    35
100
AcDbLine
 10
501.8108728284545
 20
75.17605454044897
 30
0.0
 11
501.7528888284545
 21
75.11810154044896
 31
0.0
  0
LINE
  5
4D4
330
1F
100
AcDbEntity
  8
0
 62
     7
370
    35
100
AcDbLine
 10
498.2860318284545
 20
381.854063540449
 30
0.0
 11
498.2860318284545
 21
75.08575254044896
 31
0.0
  0
LINE
  5
4D5
330
1F
100
AcDbEntity
  8
0
 62
     7
 48
0.049998
370
    13
100
AcDbLine
 10
495.9137168284545
 20
584.272581540449
 30
0.0
 11
497.9136558284545
 21
584.272581540449
 31
0.0
  0
LINE
  5
4D6
330
1F
100
AcDbEntity
  8
0
 62
     7
 48
0.000584
370
    35
100
AcDbLine
 10
496.6493738284545
 20
603.0699445404488
 30
0.0
 11
496.6642048284545
 21
603.051878540449
 31
0.0
  0
LINE
  5
4D7
330
1F
100
AcDbEntity
  8
0
 62
     7
 48
0.000463
370
    35
100
AcDbLine
 10
498.2480678284545
 20
590.8698715404489
 30
0.0
 11
498.2520958284545
 21
590.8879385404488
 31
0.0
  0
LINE
  5
4D8
330
1F
100
AcDbEntity
  8
0
 62
     7
 48
0.001199
370
    35
100
AcDbLine
 10
498.2520958284545
 20
590.8879385404488
 30
0.0
 11
498.2860318284545
 21
590.854063540449
 31
0.0
  0
LINE
  5
4D9
330
1F
100
AcDbEntity
  8
0
 62
     7
370
    35
100
AcDbLine
 10
498.2860318284545
 20
590.854063540449
 30
0.0
 11
498.2860318284545
 21
394.085752540449
 31
0.0
  0
LINE
  5
4DA
330
1F
100
AcDbEntity
  8
0
 62
     7
 48
0.001199
370
    35
100
AcDbLine
 10
498.2520958284545
 20
394.051878540449
 30
0.0
 11
498.2860318284545
 21
394.085752540449
 31
0.0
  0
LINE
  5
4DB
330
1F
100
AcDbEntity
  8
0
 62
     7
 48
0.000462
370
    35
100
AcDbLine
 10
498.2480678284545
 20
394.069914540449
 30
0.0
 11
498.2520958284545
 21
394.051878540449
 31
0.0
  0
LINE
  5
4DC
330
1F
100
AcDbEntity
  8
0
 62
     7
 48
0.000462
370
    35
100
AcDbLine
 10
498.2480678284545
 20
381.869902540449
 30
0.0
 11
498.2520958284545
 21
381.8879385404489
 31
0.0
  0
LINE
  5
4DD
330
1F
100
AcDbEntity
  8
0
 62
     7
 48
0.001199
370
    35
100
AcDbLine
 10
498.2520958284545
 20
381.8879385404489
 30
0.0
 11
498.2860318284545
 21
381.854063540449
 31
0.0
  0
LINE
  5
4DE
330
1F
100
AcDbEntity
  8
0
 62
     7
 48
0.018748
370
    35
100
AcDbLine
 10
485.8108728284545
 20
55.74484154044896
 30
0.0
 11
485.8108728284545
 21
56.49478054044896
 31
0.0
  0
ARC
  5
4DF
330
1F
100
AcDbEntity
  8
0
 62
     7
370
    35
100
AcDbCircle
 10
485.8108728284545
 20
68.96990854044897
 30
0.0
 40
12.475126
100
AcDbArc
 50
270.0
 51
330.6434919999999
  0
LINE
  5
4E0
330
1F
100
AcDbEntity
  8
0
 62
     7
 48
0.054432
370
    35
100
AcDbLine
 10
497.5310268284546
 20
62.84286354044897
 30
0.0
 11
499.7082728284545
 21
62.83294554044896
 31
0.0
  0
LINE
  5
4E1
330
1F
100
AcDbEntity
  8
0
 62
     7
 48
0.00174
370
    35
100
AcDbLine
 10
500.5196738284545
 20
62.82171454044896
 30
0.0
 11
500.5581868284545
 21
62.76376154044896
 31
0.0
  0
ARC
  5
4E2
330
1F
100
AcDbEntity
  8
0
 62
     7
370
    35
100
AcDbCircle
 10
485.8108728284545
 20
68.96990854044897
 30
0.0
 40
16.0
100
AcDbArc
 50
270.0
 51
337.177039
  0
LINE
  5
4E3
330
1F
100
AcDbEntity
  8
0
 62
     7
 48
0.000584
370
    35
100
AcDbLine
 10
56.97237182845454
 20
62.86990254044896
 30
0.0
 11
56.95755582845454
 21
62.88793854044897
 31
0.0
  0
LINE
  5
4E4
330
1F
100
AcDbEntity
  8
0
 62
     7
 48
0.000462
370
    35
100
AcDbLine
 10
55.37370882845454
 20
75.06991454044896
 30
0.0
 11
55.36961882845455
 21
75.05187854044897
 31
0.0
  0
ARC
  5
4E5
330
1F
100
AcDbEntity
  8
0
 62
     7
370
    35
100
AcDbCircle
 10
471.3108728284545
 20
570.9699085404491
 30
0.0
 40
2.0
100
AcDbArc
 50
0.0
 51
90.0
  0
LINE
  5
4E6
330
1F
100
AcDbEntity
  8
0
 62
     7
370
    35
100
AcDbLine
 10
471.3108728284545
 20
572.969908540449
 30
0.0
 11
428.3108728284545
 21
572.969908540449
 31
0.0
  0
ARC
  5
4E7
330
1F
100
AcDbEntity
  8
0
 62
     7
370
    35
100
AcDbCircle
 10
428.3108728284545
 20
570.9699085404491
 30
0.0
 40
2.0
100
AcDbArc
 50
90.0
 51
180.0
  0
LINE
  5
4E8
330
1F
100
AcDbEntity
  8
0
 62
     7
 48
0.4
370
    35
100
AcDbLine
 10
426.3108728284545
 20
554.9699085404488
 30
0.0
 11
426.3108728284545
 21
570.9699085404491
 31
0.0
  0
ARC
  5
4E9
330
1F
100
AcDbEntity
  8
0
 62
     7
370
    35
100
AcDbCircle
 10
428.3108728284545
 20
554.9699085404488
 30
0.0
 40
2.0
100
AcDbArc
 50
180.0
 51
270.0
  0
LINE
  5
4EA
330
1F
100
AcDbEntity
  8
0
 62
     7
370
    35
100
AcDbLine
 10
428.3108728284545
 20
552.9699085404488
 30
0.0
 11
471.3108728284545
 21
552.9699085404488
 31
0.0
  0
ARC
  5
4EB
330
1F
100
AcDbEntity
  8
0
 62
     7
370
    35
100
AcDbCircle
 10
471.3108728284545
 20
554.9699085404488
 30
0.0
 40
2.0
100
AcDbArc
 50
270.0
 51
0.0
  0
LINE
  5
4EC
330
1F
100
AcDbEntity
  8
0
 62
     7
 48
0.4
370
    35
100
AcDbLine
 10
473.3108728284545
 20
570.9699085404491
 30
0.0
 11
473.3108728284545
 21
554.9699085404488
 31
0.0
  0
LINE
  5
4ED
330
1F
100
AcDbEntity
  8
0
 62
     7
 48
0.049998
370
    13
100
AcDbLine
 10
57.70802882845455
 20
81.66721954044897
 30
0.0
 11
55.70810482845454
 21
81.66721954044897
 31
0.0
  0
LINE
  5
4EE
330
1F
100
AcDbEntity
  8
0
 62
     7
 48
0.049998
370
    13
100
AcDbLine
 10
495.9137168284545
 20
81.66721954044897
 30
0.0
 11
497.9136558284545
 21
81.66721954044897
 31
0.0
  0
LINE
  5
4EF
330
1F
100
AcDbEntity
  8
0
 62
     7
370
    35
100
AcDbLine
 10
67.81087282845454
 20
56.49478054044896
 30
0.0
 11
485.8108728284545
 21
56.49478054044896
 31
0.0
  0
LINE
  5
4F0
330
1F
100
AcDbEntity
  8
0
 62
     7
 48
0.001199
370
    35
100
AcDbLine
 10
498.2520958284545
 20
75.05187854044897
 30
0.0
 11
498.2860318284545
 21
75.08575254044896
 31
0.0
  0
LINE
  5
4F1
330
1F
100
AcDbEntity
  8
0
 62
     7
 48
0.000462
370
    35
100
AcDbLine
 10
498.2480678284545
 20
75.06991454044896
 30
0.0
 11
498.2520958284545
 21
75.05187854044897
 31
0.0
  0
LINE
  5
4F2
330
1F
100
AcDbEntity
  8
0
 62
     7
 48
0.000584
370
    35
100
AcDbLine
 10
496.6493738284545
 20
62.86990254044896
 30
0.0
 11
496.6642048284545
 21
62.88793854044897
 31
0.0
  0
LINE
  5
4F3
330
1F
100
AcDbEntity
  8
0
 62
     7
 48
0.000981
370
    35
100
AcDbLine
 10
496.6642048284545
 20
62.88793854044897
 30
0.0
 11
496.6840418284546
 21
62.85406354044896
 31
0.0
  0
CIRCLE
  5
4F4
330
1F
100
AcDbEntity
  8
0
 62
     7
370
    35
100
AcDbCircle
 10
485.8108728284545
 20
68.96990854044897
 30
0.0
 40
9.113215999999999
  0
CIRCLE
  5
4F5
330
1F
100
AcDbEntity
  8
0
 62
     7
370
    35
100
AcDbCircle
 10
67.81087282845454
 20
68.96990854044897
 30
0.0
 40
9.113215999999999
  0
CIRCLE
  5
4F6
330
1F
100
AcDbEntity
  8
0
 62
     7
370
    35
100
AcDbCircle
 10
485.8108728284545
 20
387.969908540449
 30
0.0
 40
9.113215999999999
  0
CIRCLE
  5
4F7
330
1F
100
AcDbEntity
  8
0
 62
     7
370
    35
100
AcDbCircle
 10
67.81087282845454
 20
387.969908540449
 30
0.0
 40
9.113215999999999
  0
CIRCLE
  5
4F8
330
1F
100
AcDbEntity
  8
0
 62
     7
370
    35
100
AcDbCircle
 10
485.8108728284545
 20
596.969908540449
 30
0.0
 40
9.113215999999999
  0
CIRCLE
  5
4F9
330
1F
100
AcDbEntity
  8
0
 62
     7
370
    35
100
AcDbCircle
 10
67.81087282845454
 20
596.969908540449
 30
0.0
 40
9.113215999999999
  0
ARC
  5
4FA
330
1F
100
AcDbEntity
  8
0
 62
     7
370
    35
100
AcDbCircle
 10
487.7099208284545
 20
67.65514954044897
 30
0.0
 40
8.154378999999998
100
AcDbArc
 50
323.2013070000001
 51
359.6628330000001
  0
LINE
  5
4FB
330
1F
100
AcDbEntity
  8
0
 62
     7
 48
0.245
370
    35
100
AcDbLine
 10
485.8108728284545
 20
58.56643554044897
 30
0.0
 11
476.0108848284545
 21
58.56643554044897
 31
0.0
  0
ARC
  5
4FC
330
1F
100
AcDbEntity
  8
0
 62
     7
370
    35
100
AcDbCircle
 10
476.0103358284546
 20
59.18136454044897
 30
0.0
 40
0.614857
100
AcDbArc
 50
181.0672669999999
 51
270.048307
  0
ELLIPSE
  5
4FD
330
1F
100
AcDbEntity
  8
0
 62
     7
370
    35
100
AcDbEllipse
 10
475.4908038284545
 20
81.66721954044897
 30
0.0
 11
0.0
 21
-25.0
 31
0.0
210
0.0
220
0.0
230
1.0
 40
0.008727
 41
5.245125179999999
 42
5.831911869999999
  0
LINE
  5
4FE
330
1F
100
AcDbEntity
  8
0
 62
     7
 48
0.233821
370
    35
100
AcDbLine
 10
495.1637168284545
 20
79.50733854044895
 30
0.0
 11
485.8108728284545
 21
79.50733854044895
 31
0.0
  0
ARC
  5
4FF
330
1F
100
AcDbEntity
  8
0
 62
     7
370
    35
100
AcDbCircle
 10
495.1637168284545
 20
78.77059754044896
 30
0.0
 40
0.736725
100
AcDbArc
 50
359.945973
 51
90.00434699999992
  0
ARC
  5
500
330
1F
100
AcDbEntity
  8
0
 62
     7
370
    35
100
AcDbCircle
 10
-1827.351298171545
 20
80.65948354044897
 30
0.0
 40
2323.25238
100
AcDbArc
 50
359.6781029999999
 51
359.9534000000001
  0
ARC
  5
501
330
1F
100
AcDbEntity
  8
0
 62
     7
370
    35
100
AcDbCircle
 10
495.1637168284545
 20
378.169920540449
 30
0.0
 40
0.738243
100
AcDbArc
 50
270.0
 51
0.0
  0
LINE
  5
502
330
1F
100
AcDbEntity
  8
0
 62
     7
 48
0.233821
370
    35
100
AcDbLine
 10
495.1637168284545
 20
377.431669540449
 30
0.0
 11
485.8108728284545
 21
377.431669540449
 31
0.0
  0
ARC
  5
503
330
1F
100
AcDbEntity
  8
0
 62
     7
370
    35
100
AcDbCircle
 10
485.8108728284545
 20
387.969908540449
 30
0.0
 40
10.538243
100
AcDbArc
 50
90.0
 51
270.0
  0
LINE
  5
504
330
1F
100
AcDbEntity
  8
0
 62
     7
 48
0.233821
370
    35
100
AcDbLine
 10
495.1637168284545
 20
398.508146540449
 30
0.0
 11
485.8108728284545
 21
398.508146540449
 31
0.0
  0
ARC
  5
505
330
1F
100
AcDbEntity
  8
0
 62
     7
370
    35
100
AcDbCircle
 10
495.1637168284545
 20
397.7698965404489
 30
0.0
 40
0.738243
100
AcDbArc
 50
0.0
 51
90.0
  0
LINE
  5
506
330
1F
100
AcDbEntity
  8
0
 62
     7
 48
0.489999
370
    35
100
AcDbLine
 10
495.9019978284545
 20
397.7698965404489
 30
0.0
 11
495.9019978284545
 21
378.169920540449
 31
0.0
  0
ARC
  5
507
330
1F
100
AcDbEntity
  8
0
 62
     7
370
    35
100
AcDbCircle
 10
495.1637168284545
 20
587.1691885404488
 30
0.0
 40
0.736725
100
AcDbArc
 50
269.9956529999999
 51
0.0540269999999452
  0
LINE
  5
508
330
1F
100
AcDbEntity
  8
0
 62
     7
 48
0.233821
370
    35
100
AcDbLine
 10
495.1637168284545
 20
586.432493540449
 30
0.0
 11
485.8108728284545
 21
586.432493540449
 31
0.0
  0
ELLIPSE
  5
509
330
1F
100
AcDbEntity
  8
0
 62
     7
370
    35
100
AcDbEllipse
 10
475.4908038284545
 20
584.272581540449
 30
0.0
 11
0.0
 21
-25.0
 31
0.0
210
0.0
220
0.0
230
1.0
 40
0.008727
 41
3.592866089999999
 42
4.179652779999999
  0
ARC
  5
50A
330
1F
100
AcDbEntity
  8
0
 62
     7
370
    35
100
AcDbCircle
 10
476.0103358284546
 20
606.758421540449
 30
0.0
 40
0.614857
100
AcDbArc
 50
89.95169300000005
 51
178.932733
  0
LINE
  5
50B
330
1F
100
AcDbEntity
  8
0
 62
     7
 48
0.245
370
    35
100
AcDbLine
 10
485.8108728284545
 20
607.3734115404491
 30
0.0
 11
476.0108848284545
 21
607.3734115404491
 31
0.0
  0
ARC
  5
50C
330
1F
100
AcDbEntity
  8
0
 62
     7
370
    35
100
AcDbCircle
 10
487.7099208284545
 20
598.284666540449
 30
0.0
 40
8.154378999999998
100
AcDbArc
 50
0.3371669999999045
 51
36.79869299999997
  0
ARC
  5
50D
330
1F
100
AcDbEntity
  8
0
 62
     7
370
    35
100
AcDbCircle
 10
-1827.351298171545
 20
585.2803335404489
 30
0.0
 40
2323.25238
100
AcDbArc
 50
0.0465999999999091
 51
0.321897000000079
  0
LINE
  5
50E
330
1F
100
AcDbEntity
  8
0
 62
     7
370
    13
100
AcDbLine
 10
495.9137168284545
 20
584.272581540449
 30
0.0
 11
57.70802882845455
 21
584.272581540449
 31
0.0
  0
LINE
  5
50F
330
1F
100
AcDbEntity
  8
0
 62
     7
 48
0.23382
370
    35
100
AcDbLine
 10
67.81087282845454
 20
586.432493540449
 30
0.0
 11
58.45805882845454
 21
586.432493540449
 31
0.0
  0
ARC
  5
510
330
1F
100
AcDbEntity
  8
0
 62
     7
370
    35
100
AcDbCircle
 10
58.45801282845454
 20
587.1691885404488
 30
0.0
 40
0.736725
100
AcDbArc
 50
179.9459779999999
 51
270.004341
  0
ARC
  5
511
330
1F
100
AcDbEntity
  8
0
 62
     7
370
    35
100
AcDbCircle
 10
2380.972920828455
 20
585.2803335404489
 30
0.0
 40
2323.25238
100
AcDbArc
 50
179.6780980000001
 51
179.9533960000001
  0
ARC
  5
512
330
1F
100
AcDbEntity
  8
0
 62
     7
370
    35
100
AcDbCircle
 10
65.91183982845454
 20
598.284666540449
 30
0.0
 40
8.154378999999998
100
AcDbArc
 50
143.2013089999999
 51
179.66284
  0
LINE
  5
513
330
1F
100
AcDbEntity
  8
0
 62
     7
 48
0.245
370
    35
100
AcDbLine
 10
77.61087582845454
 20
607.3734115404491
 30
0.0
 11
67.81087282845454
 21
607.3734115404491
 31
0.0
  0
ARC
  5
514
330
1F
100
AcDbEntity
  8
0
 62
     7
370
    35
100
AcDbCircle
 10
77.61139482845454
 20
606.758421540449
 30
0.0
 40
0.614857
100
AcDbArc
 50
1.067268999999982
 51
90.04830600000003
  0
ELLIPSE
  5
515
330
1F
100
AcDbEntity
  8
0
 62
     7
370
    35
100
AcDbEllipse
 10
78.13094082845456
 20
584.272581540449
 30
0.0
 11
0.0
 21
25.0
 31
0.0
210
0.0
220
0.0
230
1.0
 40
0.008727
 41
5.245125179999999
 42
5.831911869999999
  0
LINE
  5
516
330
1F
100
AcDbEntity
  8
0
 62
     7
370
    13
100
AcDbLine
 10
495.9137168284545
 20
81.66721954044897
 30
0.0
 11
57.70802882845455
 21
81.66721954044897
 31
0.0
  0
ARC
  5
517
330
1F
100
AcDbEntity
  8
0
 62
     7
370
    35
100
AcDbCircle
 10
58.45802882845454
 20
378.169920540449
 30
0.0
 40
0.738243
100
AcDbArc
 50
180.0
 51
270.0
  0
LINE
  5
518
330
1F
100
AcDbEntity
  8
0
 62
     7
 48
0.489999
370
    35
100
AcDbLine
 10
57.71977782845454
 20
397.7698965404489
 30
0.0
 11
57.71977782845454
 21
378.169920540449
 31
0.0
  0
ARC
  5
519
330
1F
100
AcDbEntity
  8
0
 62
     7
370
    35
100
AcDbCircle
 10
58.45802882845454
 20
397.7698965404489
 30
0.0
 40
0.738243
100
AcDbArc
 50
90.0
 51
180.0
  0
LINE
  5
51A
330
1F
100
AcDbEntity
  8
0
 62
     7
 48
0.233821
370
    35
100
AcDbLine
 10
67.81087282845454
 20
398.508146540449
 30
0.0
 11
58.45802882845454
 21
398.508146540449
 31
0.0
  0
ARC
  5
51B
330
1F
100
AcDbEntity
  8
0
 62
     7
370
    35
100
AcDbCircle
 10
67.81087282845454
 20
387.969908540449
 30
0.0
 40
10.538243
100
AcDbArc
 50
270.0
 51
90.0
  0
LINE
  5
51C
330
1F
100
AcDbEntity
  8
0
 62
     7
 48
0.233821
370
    35
100
AcDbLine
 10
67.81087282845454
 20
377.431669540449
 30
0.0
 11
58.45802882845454
 21
377.431669540449
 31
0.0
  0
ARC
  5
51D
330
1F
100
AcDbEntity
  8
0
 62
     7
370
    35
100
AcDbCircle
 10
77.61139482845454
 20
59.18136454044897
 30
0.0
 40
0.614857
100
AcDbArc
 50
269.951694
 51
358.932731
  0
LINE
  5
51E
330
1F
100
AcDbEntity
  8
0
 62
     7
 48
0.245
370
    35
100
AcDbLine
 10
77.61087582845454
 20
58.56643554044897
 30
0.0
 11
67.81087282845454
 21
58.56643554044897
 31
0.0
  0
ARC
  5
51F
330
1F
100
AcDbEntity
  8
0
 62
     7
370
    35
100
AcDbCircle
 10
65.91183982845454
 20
67.65514954044897
 30
0.0
 40
8.154378999999998
100
AcDbArc
 50
180.33716
 51
216.7986910000001
  0
ARC
  5
520
330
1F
100
AcDbEntity
  8
0
 62
     7
370
    35
100
AcDbCircle
 10
2380.972920828455
 20
80.65948354044897
 30
0.0
 40
2323.25238
100
AcDbArc
 50
180.0466039999999
 51
180.3219019999999
  0
ARC
  5
521
330
1F
100
AcDbEntity
  8
0
 62
     7
370
    35
100
AcDbCircle
 10
58.45801282845454
 20
78.77059754044896
 30
0.0
 40
0.736725
100
AcDbArc
 50
89.99565899999998
 51
180.054022
  0
LINE
  5
522
330
1F
100
AcDbEntity
  8
0
 62
     7
 48
0.23382
370
    35
100
AcDbLine
 10
67.81087282845454
 20
79.50733854044895
 30
0.0
 11
58.45805882845454
 21
79.50733854044895
 31
0.0
  0
ELLIPSE
  5
523
330
1F
100
AcDbEntity
  8
0
 62
     7
370
    35
100
AcDbEllipse
 10
78.13094082845456
 20
81.66721954044897
 30
0.0
 11
0.0
 21
25.0
 31
0.0
210
0.0
220
0.0
230
1.0
 40
0.008727
 41
3.592866089999999
 42
4.179652779999999
  0
CIRCLE
  5
524
330
1F
100
AcDbEntity
  8
0
 62
     7
370
    35
100
AcDbCircle
 10
67.81087282845454
 20
387.969908540449
 30
0.0
 40
4.883901999999999
  0
LINE
  5
525
330
1F
100
AcDbEntity
  8
0
 62
     7
 48
0.05
370
    35
100
AcDbLine
 10
72.31087282845455
 20
388.9699085404489
 30
0.0
 11
72.31087282845455
 21
386.9699085404489
 31
0.0
  0
LINE
  5
526
330
1F
100
AcDbEntity
  8
0
 62
     7
 48
0.225
370
    35
100
AcDbLine
 10
72.31087282845455
 20
388.9699085404489
 30
0.0
 11
63.31087282845455
 21
388.9699085404489
 31
0.0
  0
LINE
  5
527
330
1F
100
AcDbEntity
  8
0
 62
     7
 48
0.05
370
    35
100
AcDbLine
 10
63.31087282845455
 20
386.9699085404489
 30
0.0
 11
63.31087282845455
 21
388.9699085404489
 31
0.0
  0
LINE
  5
528
330
1F
100
AcDbEntity
  8
0
 62
     7
 48
0.225
370
    35
100
AcDbLine
 10
63.31087282845455
 20
386.9699085404489
 30
0.0
 11
72.31087282845455
 21
386.9699085404489
 31
0.0
  0
CIRCLE
  5
529
330
1F
100
AcDbEntity
  8
0
 62
     7
370
    35
100
AcDbCircle
 10
485.8108728284545
 20
387.969908540449
 30
0.0
 40
4.883901999999999
  0
LINE
  5
52A
330
1F
100
AcDbEntity
  8
0
 62
     7
 48
0.05
370
    35
100
AcDbLine
 10
490.3108728284545
 20
388.9699085404489
 30
0.0
 11
490.3108728284545
 21
386.9699085404489
 31
0.0
  0
LINE
  5
52B
330
1F
100
AcDbEntity
  8
0
 62
     7
 48
0.225
370
    35
100
AcDbLine
 10
490.3108728284545
 20
388.9699085404489
 30
0.0
 11
481.3108728284545
 21
388.9699085404489
 31
0.0
  0
LINE
  5
52C
330
1F
100
AcDbEntity
  8
0
 62
     7
 48
0.05
370
    35
100
AcDbLine
 10
481.3108728284545
 20
386.9699085404489
 30
0.0
 11
481.3108728284545
 21
388.9699085404489
 31
0.0
  0
LINE
  5
52D
330
1F
100
AcDbEntity
  8
0
 62
     7
 48
0.225
370
    35
100
AcDbLine
 10
481.3108728284545
 20
386.9699085404489
 30
0.0
 11
490.3108728284545
 21
386.9699085404489
 31
0.0
  0
CIRCLE
  5
52E
330
1F
100
AcDbEntity
  8
0
 62
     7
370
    35
100
AcDbCircle
 10
67.81087282845454
 20
68.96990854044897
 30
0.0
 40
4.883901999999999
  0
LINE
  5
52F
330
1F
100
AcDbEntity
  8
0
 62
     7
 48
0.05
370
    35
100
AcDbLine
 10
72.31087282845455
 20
69.96990854044897
 30
0.0
 11
72.31087282845455
 21
67.96990854044897
 31
0.0
  0
LINE
  5
530
330
1F
100
AcDbEntity
  8
0
 62
     7
 48
0.225
370
    35
100
AcDbLine
 10
72.31087282845455
 20
69.96990854044897
 30
0.0
 11
63.31087282845455
 21
69.96990854044897
 31
0.0
  0
LINE
  5
531
330
1F
100
AcDbEntity
  8
0
 62
     7
 48
0.05
370
    35
100
AcDbLine
 10
63.31087282845455
 20
67.96990854044897
 30
0.0
 11
63.31087282845455
 21
69.96990854044897
 31
0.0
  0
LINE
  5
532
330
1F
100
AcDbEntity
  8
0
 62
     7
 48
0.225
370
    35
100
AcDbLine
 10
63.31087282845455
 20
67.96990854044897
 30
0.0
 11
72.31087282845455
 21
67.96990854044897
 31
0.0
  0
CIRCLE
  5
533
330
1F
100
AcDbEntity
  8
0
 62
     7
370
    35
100
AcDbCircle
 10
485.8108728284545
 20
68.96990854044897
 30
0.0
 40
4.883901999999999
  0
LINE
  5
534
330
1F
100
AcDbEntity
  8
0
 62
     7
 48
0.05
370
    35
100
AcDbLine
 10
490.3108728284545
 20
69.96990854044897
 30
0.0
 11
490.3108728284545
 21
67.96990854044897
 31
0.0
  0
LINE
  5
535
330
1F
100
AcDbEntity
  8
0
 62
     7
 48
0.225
370
    35
100
AcDbLine
 10
490.3108728284545
 20
69.96990854044897
 30
0.0
 11
481.3108728284545
 21
69.96990854044897
 31
0.0
  0
LINE
  5
536
330
1F
100
AcDbEntity
  8
0
 62
     7
 48
0.05
370
    35
100
AcDbLine
 10
481.3108728284545
 20
67.96990854044897
 30
0.0
 11
481.3108728284545
 21
69.96990854044897
 31
0.0
  0
LINE
  5
537
330
1F
100
AcDbEntity
  8
0
 62
     7
 48
0.225
370
    35
100
AcDbLine
 10
481.3108728284545
 20
67.96990854044897
 30
0.0
 11
490.3108728284545
 21
67.96990854044897
 31
0.0
  0
CIRCLE
  5
538
330
1F
100
AcDbEntity
  8
0
 62
     7
370
    35
100
AcDbCircle
 10
67.81087282845454
 20
596.969908540449
 30
0.0
 40
4.883901999999999
  0
LINE
  5
539
330
1F
100
AcDbEntity
  8
0
 62
     7
 48
0.05
370
    35
100
AcDbLine
 10
72.31087282845455
 20
597.969908540449
 30
0.0
 11
72.31087282845455
 21
595.9699085404491
 31
0.0
  0
LINE
  5
53A
330
1F
100
AcDbEntity
  8
0
 62
     7
 48
0.225
370
    35
100
AcDbLine
 10
72.31087282845455
 20
597.969908540449
 30
0.0
 11
63.31087282845455
 21
597.969908540449
 31
0.0
  0
LINE
  5
53B
330
1F
100
AcDbEntity
  8
0
 62
     7
 48
0.05
370
    35
100
AcDbLine
 10
63.31087282845455
 20
595.9699085404491
 30
0.0
 11
63.31087282845455
 21
597.969908540449
 31
0.0
  0
LINE
  5
53C
330
1F
100
AcDbEntity
  8
0
 62
     7
 48
0.225
370
    35
100
AcDbLine
 10
63.31087282845455
 20
595.9699085404491
 30
0.0
 11
72.31087282845455
 21
595.9699085404491
 31
0.0
  0
CIRCLE
  5
53D
330
1F
100
AcDbEntity
  8
0
 62
     7
370
    35
100
AcDbCircle
 10
485.8108728284545
 20
596.969908540449
 30
0.0
 40
4.883901999999999
  0
LINE
  5
53E
330
1F
100
AcDbEntity
  8
0
 62
     7
 48
0.05
370
    35
100
AcDbLine
 10
490.3108728284545
 20
597.969908540449
 30
0.0
 11
490.3108728284545
 21
595.9699085404491
 31
0.0
  0
LINE
  5
53F
330
1F
100
AcDbEntity
  8
0
 62
     7
 48
0.225
370
    35
100
AcDbLine
 10
490.3108728284545
 20
597.969908540449
 30
0.0
 11
481.3108728284545
 21
597.969908540449
 31
0.0
  0
LINE
  5
540
330
1F
100
AcDbEntity
  8
0
 62
     7
 48
0.05
370
    35
100
AcDbLine
 10
481.3108728284545
 20
595.9699085404491
 30
0.0
 11
481.3108728284545
 21
597.969908540449
 31
0.0
  0
LINE
  5
541
330
1F
100
AcDbEntity
  8
0
 62
     7
 48
0.225
370
    35
100
AcDbLine
 10
481.3108728284545
 20
595.9699085404491
 30
0.0
 11
490.3108728284545
 21
595.9699085404491
 31
0.0
  0
LINE
  5
542
330
1F
100
AcDbEntity
  8
0
 62
     7
370
    35
100
AcDbLine
 10
51.81087282845455
 20
68.96990854044897
 30
0.0
 11
51.81087282845455
 21
596.969908540449
 31
0.0
  0
ARC
  5
543
330
1F
100
AcDbEntity
  8
0
 62
     7
370
    35
100
AcDbCircle
 10
67.81087282845454
 20
68.96990854044897
 30
0.0
 40
16.0
100
AcDbArc
 50
180.0
 51
202.8229629999999
  0
ARC
  5
544
330
1F
100
AcDbEntity
  8
0
 62
     7
370
    35
100
AcDbCircle
 10
485.8108728284545
 20
68.96990854044897
 30
0.0
 40
16.0
100
AcDbArc
 50
337.177039
 51
0.0
  0
LINE
  5
545
330
1F
100
AcDbEntity
  8
0
 62
     7
 48
0.155154
370
    35
100
AcDbLine
 10
501.8108728284545
 20
75.17605454044897
 30
0.0
 11
501.8108728284545
 21
68.96990854044897
 31
0.0
  0
LINE
  5
546
330
1F
100
AcDbEntity
  8
0
 62
     7
 48
0.310309
370
    35
100
AcDbLine
 10
501.8108728284545
 20
394.176084540449
 30
0.0
 11
501.8108728284545
 21
381.763731540449
 31
0.0
  0
LINE
  5
547
330
1F
100
AcDbEntity
  8
0
 62
     7
 48
0.155153
370
    35
100
AcDbLine
 10
501.8108728284545
 20
596.969908540449
 30
0.0
 11
501.8108728284545
 21
590.763792540449
 31
0.0
  0
ARC
  5
548
330
1F
100
AcDbEntity
  8
0
 62
     7
370
    35
100
AcDbCircle
 10
485.8108728284545
 20
596.969908540449
 30
0.0
 40
16.0
100
AcDbArc
 50
0.0
 51
90.0
  0
LINE
  5
549
330
1F
100
AcDbEntity
  8
0
 62
     7
370
    35
100
AcDbLine
 10
485.8108728284545
 20
612.9699085404491
 30
0.0
 11
67.81087282845454
 21
612.9699085404491
 31
0.0
  0
ARC
  5
54A
330
1F
100
AcDbEntity
  8
0
 62
     7
370
    35
100
AcDbCircle
 10
67.81087282845454
 20
596.969908540449
 30
0.0
 40
16.0
100
AcDbArc
 50
90.0
 51
180.0
  0
LINE
  5
54B
330
1F
100
AcDbEntity
  8
0
 62
     7
100
AcDbLine
 10
96.81260941845454
 20
520.4699085404489
 30
0.0
 11
456.8126094184544
 21
520.4699085404489
 31
0.0
  0
LINE
  5
54C
330
1F
100
AcDbEntity
  8
0
 62
     7
100
AcDbLine
 10
456.8126094184544
 20
520.4699085404489
 30
0.0
 11
456.8126094184544
 21
475.4699085404489
 31
0.0
  0
LINE
  5
54D
330
1F
100
AcDbEntity
  8
0
 62
     7
100
AcDbLine
 10
456.8126094184544
 20
475.4699085404489
 30
0.0
 11
96.81260941845454
 21
475.4699085404489
 31
0.0
  0
LINE
  5
54E
330
1F
100
AcDbEntity
  8
0
 62
     7
100
AcDbLine
 10
96.81260941845454
 20
475.4699085404489
 30
0.0
 11
96.81260941845454
 21
520.4699085404489
 31
0.0
  0
DIMENSION
  5
54F
330
1F
100
AcDbEntity
  8
QUOTE
 62
     7
100
AcDbDimension
  2
*D6
 10
26.42771709845454
 20
52.96990854044898
 30
0.0
 11
26.42771709845455
 21
334.7002465804489
 31
0.0
 70
   160
 71
     0
 42
560.0000000000001
  3
Standard
100
AcDbAlignedDimension
 13
69.28217039845455
 23
612.9699085404491
 33
0.0
 14
67.81087282845454
 24
52.96990854044897
 34
0.0
 50
90.0
100
AcDbRotatedDimension
1001
ACAD
1000
DSTYLE
1002
{
1070
    41
1040
15.0
1070
   140
1040
10.0
1070
    78
1070
     8
1070
   284
1070
     8
1002
}
  0
DIMENSION
  5
550
330
1F
100
AcDbEntity
  8
QUOTE
 62
     7
100
AcDbDimension
  2
*D7
 10
51.81087282845455
 20
27.20705889044897
 30
0.0
 11
276.6940547884545
 21
27.20705889044897
 31
0.0
 70
   160
 71
     0
 42
450.0
  3
Standard
100
AcDbAlignedDimension
 13
501.8108728284545
 23
68.96990854044897
 33
0.0
 14
51.81087282845455
 24
69.03240715044896
 34
0.0
100
AcDbRotatedDimension
1001
ACAD
1000
DSTYLE
1002
{
1070
    41
1040
15.0
1070
   140
1040
10.0
1070
    78
1070
     8
1070
   284
1070
     8
1002
}
  0
TEXT
  5
551
330
1F
100
AcDbEntity
  8
0
 62
     7
100
AcDbText
 10
82.41369405607359
 20
595.0406025104489
 30
0.0
 40
5.0
  1
GW68021N
 72
     1
 11
100.8660750084545
 21
595.0406025104489
 31
0.0
100
AcDbText
  0
LWPOLYLINE
  5
552
330
1F
100
AcDbEntity
  8
0
 62
   253
370
    35
100
AcDbPolyline
 90
        8
 70
     0
 43
0.0
 10
132.8696948284545
 20
426.8537585404489
 10
132.6188408284545
 20
427.0128765404489
 10
132.3955288284545
 20
427.2070295404489
 10
132.2047478284545
 20
427.4312725404489
 10
132.0181628284545
 20
427.742430540449
 10
131.8896228284545
 20
428.0803815404489
 10
131.8217218284545
 20
428.4333485404489
 10
131.8108728284545
 20
428.6433095404489
  0
LWPOLYLINE
  5
553
330
1F
100
AcDbEntity
  8
0
 62
   253
370
    35
100
AcDbPolyline
 90
        9
 70
     0
 43
0.0
 10
240.7520348284545
 20
426.8537585404489
 10
241.0029198284545
 20
427.0128765404489
 10
241.2262478284545
 20
427.2070905404489
 10
241.4170128284546
 20
427.431333540449
 10
241.5709738284546
 20
427.6779165404489
 10
241.6879168284546
 20
427.9428695404489
 10
241.7667138284546
 20
428.220579540449
 10
241.7998248284546
 20
428.4314565404489
 10
241.8108728284545
 20
428.6433095404489
  0
LWPOLYLINE
  5
554
330
1F
100
AcDbEntity
  8
0
 62
   253
370
    35
100
AcDbPolyline
 90
        9
 70
     0
 43
0.0
 10
420.7520348284545
 20
426.8537585404489
 10
421.0029498284545
 20
427.0128765404489
 10
421.2262168284545
 20
427.2070905404489
 10
421.4170128284545
 20
427.431333540449
 10
421.5709438284545
 20
427.6779165404489
 10
421.6878868284545
 20
427.9428695404489
 10
421.7667438284545
 20
428.220579540449
 10
421.7998248284545
 20
428.4314565404489
 10
421.8108728284545
 20
428.6433095404489
  0
LWPOLYLINE
  5
555
330
1F
100
AcDbEntity
  8
0
 62
   253
370
    35
100
AcDbPolyline
 90
        8
 70
     0
 43
0.0
 10
312.8697108284546
 20
426.8537585404489
 10
312.6188258284545
 20
427.0128765404489
 10
312.3955288284545
 20
427.2070295404489
 10
312.2047328284546
 20
427.431333540449
 10
312.0181478284546
 20
427.742430540449
 10
311.8896078284545
 20
428.0803815404489
 10
311.8217368284545
 20
428.4333485404489
 10
311.8108728284545
 20
428.6433095404489
  0
LWPOLYLINE
  5
556
330
1F
100
AcDbEntity
  8
0
 62
   253
370
    35
100
AcDbPolyline
 90
       15
 70
     0
 43
0.0
 10
401.8108728284545
 20
420.0690905404489
 10
401.8871358284545
 20
420.0691815404489
 10
403.5681968284546
 20
420.1127915404489
 10
405.2362268284545
 20
420.2350445404489
 10
406.8969928284545
 20
420.4351795404489
 10
408.5448818284545
 20
420.7118515404489
 10
410.1763508284545
 20
421.0637805404489
 10
411.7903648284545
 20
421.4903545404489
 10
413.1459558284545
 20
421.9106435404489
 10
414.4934288284545
 20
422.386412540449
 10
415.8217368284545
 20
422.914305540449
 10
417.1267298284545
 20
423.492186540449
 10
418.4041348284545
 20
424.1174915404489
 10
419.6524868284545
 20
424.789000540449
 10
420.9748128284545
 20
425.5703725404489
  0
LWPOLYLINE
  5
557
330
1F
100
AcDbEntity
  8
0
 62
   253
370
    35
100
AcDbPolyline
 90
       12
 70
     0
 43
0.0
 10
420.9748128284545
 20
425.5703725404489
 10
421.1938678284544
 20
425.7452985404489
 10
421.3299158284545
 20
425.8999005404489
 10
421.5119838284545
 20
426.183042540449
 10
421.5576378284545
 20
426.2791125404489
 10
421.6198328284545
 20
426.468138540449
 10
421.6334438284546
 20
426.6032705404489
 10
421.6202598284545
 20
426.6901845404489
 10
421.5201618284545
 20
426.828550540449
 10
421.4403278284545
 20
426.8670635404489
 10
421.3456018284545
 20
426.8873885404489
 10
421.2595418284545
 20
426.891905540449
  0
LWPOLYLINE
  5
558
330
1F
100
AcDbEntity
  8
0
 62
   253
370
    35
100
AcDbPolyline
 90
       12
 70
     0
 43
0.0
 10
312.6469318284545
 20
425.5703725404489
 10
312.4253138284545
 20
425.7478625404489
 10
312.2892658284546
 20
425.9032575404489
 10
312.1627398284545
 20
426.0884385404489
 10
312.0624898284546
 20
426.2827745404489
 10
312.0011498284546
 20
426.4716785404489
 10
311.9884548284546
 20
426.606810540449
 10
312.0027058284545
 20
426.694029540449
 10
312.0985008284545
 20
426.8264145404489
 10
312.1517238284545
 20
426.8557725404489
 10
312.2342738284546
 20
426.8807965404489
 10
312.3621728284545
 20
426.891905540449
  0
LWPOLYLINE
  5
559
330
1F
100
AcDbEntity
  8
0
 62
   253
370
    35
100
AcDbPolyline
 90
       16
 70
     0
 43
0.0
 10
331.8108728284546
 20
420.0690905404489
 10
330.4048358284546
 20
420.097044540449
 10
328.9972438284546
 20
420.181059540449
 10
327.5840048284546
 20
420.3217755404489
 10
326.1781818284546
 20
420.5182485404489
 10
324.7827968284545
 20
420.7694685404489
 10
323.3994958284545
 20
421.0748275404489
 10
322.0318808284545
 20
421.4330425404489
 10
320.6759848284546
 20
421.8449085404489
 10
319.3261008284546
 20
422.3128645404489
 10
317.9946498284546
 20
422.8331895404489
 10
316.6839198284545
 20
423.4047835404489
 10
315.3993738284545
 20
424.0247785404489
 10
314.1493128284545
 20
424.688353540449
 10
312.9309588284546
 20
425.3961165404489
 10
312.6469318284545
 20
425.5703725404489
  0
LWPOLYLINE
  5
55A
330
1F
100
AcDbEntity
  8
0
 62
   253
370
    35
100
AcDbPolyline
 90
       15
 70
     0
 43
0.0
 10
221.8108728284545
 20
420.0690905404489
 10
221.8871358284546
 20
420.0691815404489
 10
223.5681968284545
 20
420.1127915404489
 10
225.2362268284545
 20
420.2350445404489
 10
226.8969928284545
 20
420.4351795404489
 10
228.5448818284546
 20
420.7118515404489
 10
230.1763508284546
 20
421.0637805404489
 10
231.7903648284545
 20
421.4903545404489
 10
233.1459558284545
 20
421.9106435404489
 10
234.4933978284545
 20
422.386412540449
 10
235.8217678284546
 20
422.914305540449
 10
237.1267598284545
 20
423.492186540449
 10
238.4041348284545
 20
424.1174915404489
 10
239.6524868284545
 20
424.789000540449
 10
240.9748128284546
 20
425.5703725404489
  0
LWPOLYLINE
  5
55B
330
1F
100
AcDbEntity
  8
0
 62
   253
370
    35
100
AcDbPolyline
 90
       12
 70
     0
 43
0.0
 10
240.9748128284546
 20
425.5703725404489
 10
241.1964318284546
 20
425.7478625404489
 10
241.3324788284545
 20
425.9032575404489
 10
241.4590048284545
 20
426.0884385404489
 10
241.5592548284545
 20
426.2827745404489
 10
241.6205958284546
 20
426.4716785404489
 10
241.6332908284545
 20
426.606810540449
 10
241.6190388284545
 20
426.694029540449
 10
241.5232448284545
 20
426.8264145404489
 10
241.4700218284545
 20
426.8557725404489
 10
241.3874718284545
 20
426.8807965404489
 10
241.2595728284546
 20
426.891905540449
  0
LWPOLYLINE
  5
55C
330
1F
100
AcDbEntity
  8
0
 62
   253
370
    35
100
AcDbPolyline
 90
       17
 70
     0
 43
0.0
 10
132.6469478284545
 20
425.5703725404489
 10
133.3411458284545
 20
425.1507555404489
 10
134.5416008284545
 20
424.473509540449
 10
135.7710778284545
 20
423.8391095404489
 10
137.0352378284545
 20
423.2456045404489
 10
138.3237358284545
 20
422.6990345404489
 10
139.6334738284545
 20
422.2011705404489
 10
140.9598138284545
 20
421.753965540449
 10
142.2948818284545
 20
421.3597395404489
 10
143.6414088284545
 20
421.017332540449
 10
144.9904988284545
 20
420.7285145404489
 10
146.3508658284545
 20
420.491087540449
 10
147.7207998284545
 20
420.3057235404489
 10
148.7417808284545
 20
420.2022695404489
 10
149.7650508284545
 20
420.1282945404489
 10
150.7887778284545
 20
420.0838605404489
 10
151.8108728284545
 20
420.0690905404489
  0
LWPOLYLINE
  5
55D
330
1F
100
AcDbEntity
  8
0
 62
   253
370
    35
100
AcDbPolyline
 90
       12
 70
     0
 43
0.0
 10
132.6469478284545
 20
425.5703725404489
 10
132.4278468284545
 20
425.7452985404489
 10
132.2918298284545
 20
425.8999005404489
 10
132.1097768284545
 20
426.183042540449
 10
132.0640768284545
 20
426.2791125404489
 10
132.0018978284545
 20
426.468138540449
 10
131.9883328284545
 20
426.6032705404489
 10
132.0015158284545
 20
426.6901845404489
 10
132.1015828284545
 20
426.828550540449
 10
132.1814168284545
 20
426.8670635404489
 10
132.2761288284545
 20
426.8873885404489
 10
132.3621728284545
 20
426.891905540449
  0
LWPOLYLINE
  5
55E
330
1F
100
AcDbEntity
  8
0
 62
   253
370
    35
100
AcDbPolyline
 90
        4
 70
     0
 43
0.0
 10
356.6281028284545
 20
423.5686025404489
 10
356.6238918284545
 20
423.4559315404489
 10
356.6318868284545
 20
423.2117295404489
 10
356.6024678284545
 20
422.8119495404489
  0
LWPOLYLINE
  5
55F
330
1F
100
AcDbEntity
  8
0
 62
   253
370
    35
100
AcDbPolyline
 90
        4
 70
     0
 43
0.0
 10
377.0192768284545
 20
422.8119495404489
 10
376.9919948284546
 20
423.2864365404489
 10
376.9979758284546
 20
423.4795515404489
 10
376.9936428284546
 20
423.5686025404489
  0
LWPOLYLINE
  5
560
330
1F
100
AcDbEntity
  8
0
 62
   253
370
    35
100
AcDbPolyline
 90
        3
 70
     0
 43
0.0
 10
356.8329678284546
 20
420.051329540449
 10
356.7587488284545
 20
420.075560540449
 10
356.6855978284546
 20
420.0746145404489
  0
LWPOLYLINE
  5
561
330
1F
100
AcDbEntity
  8
0
 62
   253
370
    35
100
AcDbPolyline
 90
        3
 70
     0
 43
0.0
 10
376.7887778284546
 20
420.051329540449
 10
376.8629968284545
 20
420.075560540449
 10
376.9361468284545
 20
420.0746145404489
  0
LWPOLYLINE
  5
562
330
1F
100
AcDbEntity
  8
0
 62
   253
370
    35
100
AcDbPolyline
 90
        4
 70
     0
 43
0.0
 10
176.6024678284545
 20
422.8119495404489
 10
176.6297508284545
 20
423.2864365404489
 10
176.6237698284545
 20
423.4795515404489
 10
176.6281028284545
 20
423.5686025404489
  0
LWPOLYLINE
  5
563
330
1F
100
AcDbEntity
  8
0
 62
   253
370
    35
100
AcDbPolyline
 90
        4
 70
     0
 43
0.0
 10
196.9936428284545
 20
423.5686025404489
 10
196.9978538284545
 20
423.4559315404489
 10
196.9898578284545
 20
423.2117295404489
 10
197.0192768284545
 20
422.8119495404489
  0
LWPOLYLINE
  5
564
330
1F
100
AcDbEntity
  8
0
 62
   253
370
    35
100
AcDbPolyline
 90
        3
 70
     0
 43
0.0
 10
196.7887778284545
 20
420.051329540449
 10
196.8629968284545
 20
420.075560540449
 10
196.9361468284545
 20
420.0746145404489
  0
LWPOLYLINE
  5
565
330
1F
100
AcDbEntity
  8
0
 62
   253
370
    35
100
AcDbPolyline
 90
        3
 70
     0
 43
0.0
 10
176.8329678284545
 20
420.051329540449
 10
176.7587488284545
 20
420.075560540449
 10
176.6855978284545
 20
420.0746145404489
  0
LWPOLYLINE
  5
566
330
1F
100
AcDbEntity
  8
0
 62
   253
370
    35
100
AcDbPolyline
 90
       14
 70
     0
 43
0.0
 10
133.5151268284545
 20
426.5140365404489
 10
133.7766628284545
 20
426.3929425404489
 10
134.0965628284545
 20
426.2658675404489
 10
134.8591358284545
 20
426.007566540449
 10
135.6949818284545
 20
425.7614125404489
 10
137.0774738284545
 20
425.3985585404489
 10
138.9624078284545
 20
424.9632555404489
 10
140.9558008284545
 20
424.5671375404489
 10
142.9507648284545
 20
424.2361435404489
 10
144.9479268284545
 20
423.971312540449
 10
146.9707388284545
 20
423.7715435404489
 10
149.0283108284545
 20
423.6392195404489
 10
151.1132868284545
 20
423.578062540449
 10
151.8108728284545
 20
423.5739735404489
  0
LWPOLYLINE
  5
567
330
1F
100
AcDbEntity
  8
0
 62
   253
370
    35
100
AcDbPolyline
 90
       14
 70
     0
 43
0.0
 10
420.1065878284545
 20
426.5140365404489
 10
419.8451138284545
 20
426.3929425404489
 10
419.5251668284545
 20
426.2658675404489
 10
418.7625938284545
 20
426.007566540449
 10
417.9267788284545
 20
425.7614125404489
 10
416.5442708284545
 20
425.3985585404489
 10
414.6593228284545
 20
424.9632555404489
 10
412.6659448284545
 20
424.5671375404489
 10
410.6709798284545
 20
424.2361435404489
 10
408.6738178284545
 20
423.971312540449
 10
406.6510218284545
 20
423.7715435404489
 10
404.5934348284545
 20
423.6392195404489
 10
402.5084438284546
 20
423.578062540449
 10
401.8108728284545
 20
423.5739735404489
  0
LWPOLYLINE
  5
568
330
1F
100
AcDbEntity
  8
0
 62
   253
370
    35
100
AcDbPolyline
 90
       14
 70
     0
 43
0.0
 10
331.8108728284546
 20
423.5739735404489
 10
329.7202358284545
 20
423.6107775404489
 10
327.6520588284545
 20
423.7197865404489
 10
325.6179408284546
 20
423.8975205404489
 10
323.6144008284546
 20
424.1407455404489
 10
321.6211448284545
 20
424.4494005404489
 10
319.6253868284546
 20
424.824278540449
 10
317.4839988284546
 20
425.2994375404489
 10
316.1810818284545
 20
425.6287215404489
 10
315.2714138284546
 20
425.8827505404489
 10
314.4642238284545
 20
426.1356185404489
 10
314.0965478284546
 20
426.2658675404489
 10
313.7766628284546
 20
426.3929425404489
 10
313.5151268284545
 20
426.5140365404489
  0
LWPOLYLINE
  5
569
330
1F
100
AcDbEntity
  8
0
 62
   253
370
    35
100
AcDbPolyline
 90
       14
 70
     0
 43
0.0
 10
221.8108728284545
 20
423.5739735404489
 10
223.9015098284546
 20
423.6107775404489
 10
225.9696858284546
 20
423.7197865404489
 10
228.0038048284545
 20
423.8975205404489
 10
230.0073448284545
 20
424.1407455404489
 10
232.0006008284545
 20
424.4494005404489
 10
233.9963588284545
 20
424.824278540449
 10
236.1377468284545
 20
425.2994375404489
 10
237.4406638284546
 20
425.6287215404489
 10
238.3503318284545
 20
425.8827505404489
 10
239.1575218284546
 20
426.1356185404489
 10
239.5251978284545
 20
426.2658675404489
 10
239.8450828284545
 20
426.3929425404489
 10
240.1066188284545
 20
426.5140365404489
  0
LWPOLYLINE
  5
56A
330
1F
100
AcDbEntity
  8
0
 62
   253
370
    35
100
AcDbPolyline
 90
        4
 70
     0
 43
0.0
 10
230.3038538284546
 20
432.9306625404489
 10
227.1386318284545
 20
432.8941635404489
 10
222.8788658284545
 20
432.844725540449
 10
221.8108728284545
 20
432.8421615404489
  0
LWPOLYLINE
  5
56B
330
1F
100
AcDbEntity
  8
0
 62
   253
370
    35
100
AcDbPolyline
 90
        6
 70
     0
 43
0.0
 10
182.3073938284545
 20
432.8421615404489
 10
183.7203578284545
 20
432.866514540449
 10
185.9361168284545
 20
432.9202255404489
 10
188.1219378284545
 20
432.9130845404489
 10
190.3623558284545
 20
432.8546735404489
 10
191.3143518284545
 20
432.8421615404489
  0
LWPOLYLINE
  5
56C
330
1F
100
AcDbEntity
  8
0
 62
   253
370
    35
100
AcDbPolyline
 90
        4
 70
     0
 43
0.0
 10
151.8108728284545
 20
432.8421615404489
 10
147.8994808284545
 20
432.8729235404489
 10
144.3690088284545
 20
432.9230335404489
 10
143.3179068284545
 20
432.9306625404489
  0
LWPOLYLINE
  5
56D
330
1F
100
AcDbEntity
  8
0
 62
   253
370
    35
100
AcDbPolyline
 90
        4
 70
     0
 43
0.0
 10
401.8108728284545
 20
432.8421615404489
 10
405.7223718284545
 20
432.8729845404489
 10
409.2528278284545
 20
432.9230335404489
 10
410.3038538284545
 20
432.9306625404489
  0
LWPOLYLINE
  5
56E
330
1F
100
AcDbEntity
  8
0
 62
   253
370
    35
100
AcDbPolyline
 90
        6
 70
     0
 43
0.0
 10
371.3143518284546
 20
432.8421615404489
 10
369.9012658284545
 20
432.866514540449
 10
367.6854458284545
 20
432.9202255404489
 10
365.4996238284546
 20
432.9130845404489
 10
363.2590838284546
 20
432.8546735404489
 10
362.3073938284546
 20
432.8421615404489
  0
LWPOLYLINE
  5
56F
330
1F
100
AcDbEntity
  8
0
 62
   253
370
    35
100
AcDbPolyline
 90
        4
 70
     0
 43
0.0
 10
323.3178918284545
 20
432.9306625404489
 10
326.4831138284545
 20
432.8941635404489
 10
330.7428488284545
 20
432.844725540449
 10
331.8108728284546
 20
432.8421615404489
  0
LWPOLYLINE
  5
570
330
1F
100
AcDbEntity
  8
0
 62
   253
370
    35
100
AcDbPolyline
 90
        3
 70
     0
 43
0.0
 10
376.9760638284545
 20
423.7410875404489
 10
377.0399378284545
 20
423.626463540449
 10
377.1716818284545
 20
423.5751325404489
  0
LWPOLYLINE
  5
571
330
1F
100
AcDbEntity
  8
0
 62
   253
370
    35
100
AcDbPolyline
 90
        3
 70
     0
 43
0.0
 10
356.6456808284546
 20
423.7410875404489
 10
356.5818078284546
 20
423.626463540449
 10
356.4500628284545
 20
423.5751325404489
  0
LWPOLYLINE
  5
572
330
1F
100
AcDbEntity
  8
0
 62
   253
370
    35
100
AcDbPolyline
 90
        4
 70
     0
 43
0.0
 10
176.6456198284545
 20
423.7407825404489
 10
176.5817768284545
 20
423.6263415404489
 10
176.4973348284545
 20
423.5812365404489
 10
176.4500628284545
 20
423.5751325404489
  0
LWPOLYLINE
  5
573
330
1F
100
AcDbEntity
  8
0
 62
   253
370
    35
100
AcDbPolyline
 90
        4
 70
     0
 43
0.0
 10
196.9761258284545
 20
423.7407825404489
 10
197.0399678284545
 20
423.6263415404489
 10
197.1244098284545
 20
423.5812365404489
 10
197.1716818284545
 20
423.5751325404489
  0
LWPOLYLINE
  5
574
330
1F
100
AcDbEntity
  8
0
 62
   253
370
    35
100
AcDbPolyline
 90
        4
 70
     0
 43
0.0
 10
83.06226082845455
 20
434.4246205404489
 10
81.76527982845454
 20
434.4116195404489
 10
81.60300182845455
 20
434.404478540449
 10
81.56796782845455
 20
434.400694540449
  0
LWPOLYLINE
  5
575
330
1F
100
AcDbEntity
  8
0
 62
   253
370
    35
100
AcDbPolyline
 90
        7
 70
     0
 43
0.0
 10
131.3108728284545
 20
434.3551625404489
 10
131.3114068284545
 20
434.3542465404489
 10
131.3123678284545
 20
434.353636540449
 10
131.3157398284545
 20
434.3524155404489
 10
131.3545738284545
 20
434.3469835404489
 10
131.4949238284545
 20
434.3386215404489
 10
132.6344048284545
 20
434.3164655404489
  0
LWPOLYLINE
  5
576
330
1F
100
AcDbEntity
  8
0
 62
   253
370
    35
100
AcDbPolyline
 90
        7
 70
     0
 43
0.0
 10
240.9873558284545
 20
434.3164655404489
 10
241.3739828284545
 20
434.3209215404489
 10
242.2019858284546
 20
434.3423445404489
 10
242.2987268284545
 20
434.3508285404489
 10
242.3071188284545
 20
434.3527205404489
 10
242.3095298284545
 20
434.3536975404489
 10
242.3108728284546
 20
434.3551625404489
  0
LWPOLYLINE
  5
577
330
1F
100
AcDbEntity
  8
0
 62
   253
370
    35
100
AcDbPolyline
 90
        6
 70
     0
 43
0.0
 10
311.3108728284545
 20
434.3551625404489
 10
311.3118488284546
 20
434.353880540449
 10
311.3140768284546
 20
434.3529035404489
 10
311.3396198284545
 20
434.3485095404489
 10
311.7599388284546
 20
434.3300765404489
 10
312.6343898284546
 20
434.3164655404489
  0
LWPOLYLINE
  5
578
330
1F
100
AcDbEntity
  8
0
 62
   253
370
    35
100
AcDbPolyline
 90
        6
 70
     0
 43
0.0
 10
420.9873248284544
 20
434.3164655404489
 10
421.8385218284545
 20
434.3295275404489
 10
422.2754718284545
 20
434.347776540449
 10
422.3069058284545
 20
434.3526595404489
 10
422.3096518284545
 20
434.3537585404489
 10
422.3108728284545
 20
434.3551625404489
  0
LWPOLYLINE
  5
579
330
1F
100
AcDbEntity
  8
0
 62
   253
370
    35
100
AcDbPolyline
 90
        4
 70
     0
 43
0.0
 10
470.5594688284545
 20
434.4246205404489
 10
471.8564658284545
 20
434.4116195404489
 10
472.0187588284545
 20
434.404478540449
 10
472.0537928284545
 20
434.400694540449
  0
LWPOLYLINE
  5
57A
330
1F
100
AcDbEntity
  8
0
 62
     7
370
    35
100
AcDbPolyline
 90
        5
 70
     0
 43
0.0
 10
53.91348782845454
 20
603.1068715404489
 10
53.31805982845455
 20
603.1116925404489
 10
53.11076882845455
 20
603.1168195404489
 10
53.10324582845455
 20
603.1176745404488
 10
53.10210182845455
 20
603.1181015404491
  0
LWPOLYLINE
  5
57B
330
1F
100
AcDbEntity
  8
0
 62
     7
370
    35
100
AcDbPolyline
 90
        5
 70
     0
 43
0.0
 10
499.7082728284545
 20
603.1068715404489
 10
500.3036708284545
 20
603.1116925404489
 10
500.5110068284545
 20
603.1168195404489
 10
500.5185138284545
 20
603.1176745404488
 10
500.5196738284545
 20
603.1181015404491
  0
LWPOLYLINE
  5
57C
330
1F
100
AcDbEntity
  8
0
 62
     7
370
    35
100
AcDbPolyline
 90
        4
 70
     0
 43
0.0
 10
51.86884082845454
 20
394.118101540449
 10
51.87210582845455
 20
394.117338540449
 10
51.89360582845455
 20
394.1158435404489
 10
52.61877982845454
 20
394.106871540449
  0
LWPOLYLINE
  5
57D
330
1F
100
AcDbEntity
  8
0
 62
     7
370
    35
100
AcDbPolyline
 90
        4
 70
     0
 43
0.0
 10
51.86884082845454
 20
590.8217145404489
 10
51.87210582845455
 20
590.822508540449
 10
51.89360582845455
 20
590.8239735404491
 10
52.61877982845454
 20
590.8329455404489
  0
LWPOLYLINE
  5
57E
330
1F
100
AcDbEntity
  8
0
 62
     7
370
    35
100
AcDbPolyline
 90
        5
 70
     0
 43
0.0
 10
56.93771882845455
 20
603.0857525404489
 10
56.93550682845454
 20
603.0863635404489
 10
56.91991182845455
 20
603.087522540449
 10
56.78845782845455
 20
603.091001540449
 10
56.09073382845455
 20
603.096922540449
  0
LWPOLYLINE
  5
57F
330
1F
100
AcDbEntity
  8
0
 62
     7
370
    35
100
AcDbPolyline
 90
        4
 70
     0
 43
0.0
 10
51.86884082845454
 20
75.11810154044896
 10
51.87210582845455
 20
75.11733854044897
 10
51.89360582845455
 20
75.11584354044896
 10
52.61877982845454
 20
75.10687154044896
  0
LWPOLYLINE
  5
580
330
1F
100
AcDbEntity
  8
0
 62
     7
370
    35
100
AcDbPolyline
 90
        4
 70
     0
 43
0.0
 10
51.86884082845454
 20
381.8217145404489
 10
51.87210582845455
 20
381.822477540449
 10
51.89360582845455
 20
381.8239735404489
 10
52.61877982845454
 20
381.832945540449
  0
LWPOLYLINE
  5
581
330
1F
100
AcDbEntity
  8
0
 62
     7
370
    35
100
AcDbPolyline
 90
        5
 70
     0
 43
0.0
 10
53.91348782845454
 20
62.83294554044896
 10
53.31805982845455
 20
62.82815454044897
 10
53.11076882845455
 20
62.82299654044897
 10
53.10324582845455
 20
62.82214254044896
 10
53.10210182845455
 20
62.82171454044896
  0
LWPOLYLINE
  5
582
330
1F
100
AcDbEntity
  8
0
 62
     7
370
    35
100
AcDbPolyline
 90
        5
 70
     0
 43
0.0
 10
496.6840418284546
 20
603.0857525404489
 10
496.6862388284545
 20
603.0863635404489
 10
496.7018028284545
 20
603.087522540449
 10
496.8332728284545
 20
603.091001540449
 10
497.5310268284546
 20
603.096922540449
  0
LWPOLYLINE
  5
583
330
1F
100
AcDbEntity
  8
0
 62
     7
370
    35
100
AcDbPolyline
 90
        4
 70
     0
 43
0.0
 10
501.7528888284545
 20
590.8217145404489
 10
501.7496548284545
 20
590.822508540449
 10
501.7281698284545
 20
590.8239735404491
 10
501.0029498284545
 20
590.8329455404489
  0
LWPOLYLINE
  5
584
330
1F
100
AcDbEntity
  8
0
 62
     7
370
    35
100
AcDbPolyline
 90
        4
 70
     0
 43
0.0
 10
501.7528888284545
 20
394.118101540449
 10
501.7496548284545
 20
394.117338540449
 10
501.7281698284545
 20
394.1158435404489
 10
501.0029498284545
 20
394.106871540449
  0
LWPOLYLINE
  5
585
330
1F
100
AcDbEntity
  8
0
 62
     7
370
    35
100
AcDbPolyline
 90
        4
 70
     0
 43
0.0
 10
54.58580582845454
 20
381.8428635404489
 10
55.31117782845455
 20
381.851835540449
 10
55.33250982845455
 20
381.853331540449
 10
55.33574482845455
 20
381.854063540449
  0
LWPOLYLINE
  5
586
330
1F
100
AcDbEntity
  8
0
 62
     7
370
    35
100
AcDbPolyline
 90
        4
 70
     0
 43
0.0
 10
54.58580582845454
 20
75.09695254044896
 10
55.31117782845455
 20
75.08798054044897
 10
55.33250982845455
 20
75.08648554044896
 10
55.33574482845455
 20
75.08575254044896
  0
LWPOLYLINE
  5
587
330
1F
100
AcDbEntity
  8
0
 62
     7
370
    35
100
AcDbPolyline
 90
        4
 70
     0
 43
0.0
 10
54.58580582845454
 20
394.096952540449
 10
55.31117782845455
 20
394.087980540449
 10
55.33250982845455
 20
394.086485540449
 10
55.33574482845455
 20
394.085752540449
  0
LWPOLYLINE
  5
588
330
1F
100
AcDbEntity
  8
0
 62
     7
370
    35
100
AcDbPolyline
 90
        4
 70
     0
 43
0.0
 10
54.58580582845454
 20
590.8428945404489
 10
55.31117782845455
 20
590.851805540449
 10
55.33250982845455
 20
590.853331540449
 10
55.33574482845455
 20
590.854063540449
  0
LWPOLYLINE
  5
589
330
1F
100
AcDbEntity
  8
0
 62
     7
370
    35
100
AcDbPolyline
 90
        8
 70
     0
 43
0.0
 10
55.42694582845455
 20
596.969908540449
 10
55.42139182845454
 20
594.258055540449
 10
55.40456182845455
 20
591.9992665404491
 10
55.38603782845455
 20
591.0357655404489
 10
55.37906382845455
 20
590.9009995404489
 10
55.37552382845454
 20
590.873472540449
 10
55.37471582845455
 20
590.8709705404489
 10
55.37370882845454
 20
590.8698715404489
  0
LWPOLYLINE
  5
58A
330
1F
100
AcDbEntity
  8
0
 62
     7
370
    35
100
AcDbPolyline
 90
       13
 70
     0
 43
0.0
 10
56.97237182845454
 20
603.0699445404488
 10
56.97292082845454
 20
603.0689075404488
 10
56.97264582845455
 20
603.067137540449
 10
56.97064782845455
 20
603.060911540449
 10
56.93758182845455
 20
602.989988540449
 10
56.64771082845454
 20
602.3979475404489
 10
56.31659482845455
 20
601.6295155404488
 10
56.14560482845455
 20
601.1707745404489
 10
55.93512482845454
 20
600.515989540449
 10
55.74950182845454
 20
599.8047475404489
 10
55.57494082845455
 20
598.8962385404491
 10
55.46463582845454
 20
597.944090540449
 10
55.42694582845455
 20
596.969908540449
  0
LWPOLYLINE
  5
58B
330
1F
100
AcDbEntity
  8
0
 62
     7
370
    35
100
AcDbPolyline
 90
       14
 70
     0
 43
0.0
 10
55.37370882845454
 20
394.069914540449
 10
55.37503582845454
 20
394.068022540449
 10
55.37767582845454
 20
394.052916540449
 10
55.38548782845454
 20
393.918699540449
 10
55.40598082845455
 20
392.8204635404489
 10
55.42307082845454
 20
390.250792540449
 10
55.42654982845455
 20
387.232481540449
 10
55.41389982845455
 20
383.970915540449
 10
55.40088382845454
 20
382.724577540449
 10
55.38441982845455
 20
381.994596540449
 10
55.37840782845454
 20
381.893705540449
 10
55.37535582845454
 20
381.8728315404489
 10
55.37462382845454
 20
381.870817540449
 10
55.37370882845454
 20
381.869902540449
  0
LWPOLYLINE
  5
58C
330
1F
100
AcDbEntity
  8
0
 62
     7
370
    35
100
AcDbPolyline
 90
        5
 70
     0
 43
0.0
 10
56.93771882845455
 20
62.85406354044896
 10
56.93550682845454
 20
62.85345354044896
 10
56.91991182845455
 20
62.85226254044896
 10
56.78845782845455
 20
62.84881454044897
 10
56.09073382845455
 20
62.84286354044897
  0
LWPOLYLINE
  5
58D
330
1F
100
AcDbEntity
  8
0
 62
     7
370
    35
100
AcDbPolyline
 90
        4
 70
     0
 43
0.0
 10
501.7528888284545
 20
381.8217145404489
 10
501.7496548284545
 20
381.822477540449
 10
501.7281698284545
 20
381.8239735404489
 10
501.0029498284545
 20
381.832945540449
  0
LWPOLYLINE
  5
58E
330
1F
100
AcDbEntity
  8
0
 62
     7
370
    35
100
AcDbPolyline
 90
        4
 70
     0
 43
0.0
 10
501.7528888284545
 20
75.11810154044896
 10
501.7496548284545
 20
75.11733854044897
 10
501.7281698284545
 20
75.11584354044896
 10
501.0029498284545
 20
75.10687154044896
  0
LWPOLYLINE
  5
58F
330
1F
100
AcDbEntity
  8
0
 62
     7
370
    35
100
AcDbPolyline
 90
        4
 70
     0
 43
0.0
 10
499.0359088284545
 20
75.09695254044896
 10
498.3105678284545
 20
75.08798054044897
 10
498.2892048284545
 20
75.08648554044896
 10
498.2860318284545
 20
75.08575254044896
  0
LWPOLYLINE
  5
590
330
1F
100
AcDbEntity
  8
0
 62
     7
370
    35
100
AcDbPolyline
 90
        4
 70
     0
 43
0.0
 10
499.0359088284545
 20
381.8428635404489
 10
498.3105678284545
 20
381.851835540449
 10
498.2892048284545
 20
381.853331540449
 10
498.2860318284545
 20
381.854063540449
  0
LWPOLYLINE
  5
591
330
1F
100
AcDbEntity
  8
0
 62
     7
370
    35
100
AcDbPolyline
 90
       13
 70
     0
 43
0.0
 10
496.6493738284545
 20
603.0699445404488
 10
496.6488238284545
 20
603.0689075404488
 10
496.6490688284546
 20
603.067137540449
 10
496.6510828284545
 20
603.060911540449
 10
496.6841638284545
 20
602.989988540449
 10
496.9740198284545
 20
602.3979475404489
 10
497.3051358284545
 20
601.6295155404488
 10
497.4761558284545
 20
601.1707745404489
 10
497.6866048284545
 20
600.515989540449
 10
497.8722128284545
 20
599.8047475404489
 10
498.0467738284545
 20
598.8962385404491
 10
498.1571248284545
 20
597.944090540449
 10
498.1947838284545
 20
596.969908540449
  0
LWPOLYLINE
  5
592
330
1F
100
AcDbEntity
  8
0
 62
     7
370
    35
100
AcDbPolyline
 90
        8
 70
     0
 43
0.0
 10
498.1947838284545
 20
596.969908540449
 10
498.2003378284545
 20
594.258055540449
 10
498.2171838284545
 20
591.9992665404491
 10
498.2357388284545
 20
591.0357655404489
 10
498.2426968284545
 20
590.9009995404489
 10
498.2462368284545
 20
590.873472540449
 10
498.2470298284545
 20
590.8709705404489
 10
498.2480678284545
 20
590.8698715404489
  0
LWPOLYLINE
  5
593
330
1F
100
AcDbEntity
  8
0
 62
     7
370
    35
100
AcDbPolyline
 90
        4
 70
     0
 43
0.0
 10
499.0359088284545
 20
590.8428945404489
 10
498.3105678284545
 20
590.851805540449
 10
498.2892048284545
 20
590.853331540449
 10
498.2860318284545
 20
590.854063540449
  0
LWPOLYLINE
  5
594
330
1F
100
AcDbEntity
  8
0
 62
     7
370
    35
100
AcDbPolyline
 90
        4
 70
     0
 43
0.0
 10
499.0359088284545
 20
394.096952540449
 10
498.3105678284545
 20
394.087980540449
 10
498.2892048284545
 20
394.086485540449
 10
498.2860318284545
 20
394.085752540449
  0
LWPOLYLINE
  5
595
330
1F
100
AcDbEntity
  8
0
 62
     7
370
    35
100
AcDbPolyline
 90
       14
 70
     0
 43
0.0
 10
498.2480678284545
 20
394.069914540449
 10
498.2467248284545
 20
394.068022540449
 10
498.2440388284545
 20
394.052916540449
 10
498.2362268284545
 20
393.918699540449
 10
498.2157798284545
 20
392.8204635404489
 10
498.1986898284545
 20
390.250792540449
 10
498.1952108284545
 20
387.232481540449
 10
498.2078448284545
 20
383.970915540449
 10
498.2208458284545
 20
382.724577540449
 10
498.2373248284544
 20
381.994596540449
 10
498.2433068284545
 20
381.893705540449
 10
498.2463588284545
 20
381.8728315404489
 10
498.2470908284545
 20
381.870817540449
 10
498.2480678284545
 20
381.869902540449
  0
LWPOLYLINE
  5
596
330
1F
100
AcDbEntity
  8
0
 62
     7
370
    35
100
AcDbPolyline
 90
        5
 70
     0
 43
0.0
 10
496.6840418284546
 20
62.85406354044896
 10
496.6862388284545
 20
62.85345354044896
 10
496.7018028284545
 20
62.85226254044896
 10
496.8332728284545
 20
62.84881454044897
 10
497.5310268284546
 20
62.84286354044897
  0
LWPOLYLINE
  5
597
330
1F
100
AcDbEntity
  8
0
 62
     7
370
    35
100
AcDbPolyline
 90
        5
 70
     0
 43
0.0
 10
499.7082728284545
 20
62.83294554044896
 10
500.3036708284545
 20
62.82815454044897
 10
500.5110068284545
 20
62.82299654044897
 10
500.5185138284545
 20
62.82214254044896
 10
500.5196738284545
 20
62.82171454044896
  0
LWPOLYLINE
  5
598
330
1F
100
AcDbEntity
  8
0
 62
     7
370
    35
100
AcDbPolyline
 90
       13
 70
     0
 43
0.0
 10
56.97237182845454
 20
62.86990254044896
 10
56.97292082845454
 20
62.87090954044896
 10
56.97264582845455
 20
62.87267954044897
 10
56.97064782845455
 20
62.87887454044896
 10
56.93758182845455
 20
62.94985854044896
 10
56.64771082845454
 20
63.54189954044897
 10
56.31659482845455
 20
64.31033154044897
 10
56.14560482845455
 20
64.76907254044897
 10
55.93512482845454
 20
65.42385754044897
 10
55.74950182845454
 20
66.13506954044897
 10
55.57494082845455
 20
67.04354754044897
 10
55.46463582845454
 20
67.99572654044897
 10
55.42694582845455
 20
68.96990854044897
  0
LWPOLYLINE
  5
599
330
1F
100
AcDbEntity
  8
0
 62
     7
370
    35
100
AcDbPolyline
 90
        8
 70
     0
 43
0.0
 10
55.42694582845455
 20
68.96990854044897
 10
55.42139182845454
 20
71.68176154044897
 10
55.40456182845455
 20
73.94055054044897
 10
55.38603782845455
 20
74.90402054044897
 10
55.37906382845455
 20
75.03884754044896
 10
55.37552382845454
 20
75.06634354044897
 10
55.37471582845455
 20
75.06881554044896
 10
55.37370882845454
 20
75.06991454044896
  0
LWPOLYLINE
  5
59A
330
1F
100
AcDbEntity
  8
0
 62
     7
370
    35
100
AcDbPolyline
 90
        8
 70
     0
 43
0.0
 10
498.1947838284545
 20
68.96990854044897
 10
498.2003378284545
 20
71.68176154044897
 10
498.2171838284545
 20
73.94055054044897
 10
498.2357388284545
 20
74.90402054044897
 10
498.2426968284545
 20
75.03884754044896
 10
498.2462368284545
 20
75.06634354044897
 10
498.2470298284545
 20
75.06881554044896
 10
498.2480678284545
 20
75.06991454044896
  0
LWPOLYLINE
  5
59B
330
1F
100
AcDbEntity
  8
0
 62
     7
370
    35
100
AcDbPolyline
 90
       13
 70
     0
 43
0.0
 10
496.6493738284545
 20
62.86990254044896
 10
496.6488238284545
 20
62.87090954044896
 10
496.6490688284546
 20
62.87267954044897
 10
496.6510828284545
 20
62.87887454044896
 10
496.6841638284545
 20
62.94985854044896
 10
496.9740198284545
 20
63.54189954044897
 10
497.3051358284545
 20
64.31033154044897
 10
497.4761558284545
 20
64.76907254044897
 10
497.6866048284545
 20
65.42385754044897
 10
497.8722128284545
 20
66.13506954044897
 10
498.0467738284545
 20
67.04354754044897
 10
498.1571248284545
 20
67.99572654044897
 10
498.1947838284545
 20
68.96990854044897
  0
LWPOLYLINE
  5
59C
330
1F
100
AcDbEntity
  8
0
 62
     7
370
    35
100
AcDbPolyline
 90
       15
 70
     0
 43
0.0
 10
485.8108728284545
 20
58.56643554044897
 10
486.6142788284545
 20
58.59683054044896
 10
487.3967488284545
 20
58.68548454044897
 10
488.1460168284545
 20
58.82647554044897
 10
488.8300988284545
 20
59.00509454044897
 10
489.4790248284545
 20
59.22106754044897
 10
490.0934048284545
 20
59.47015254044896
 10
490.5177818284545
 20
59.66943254044896
 10
490.9269618284545
 20
59.88418454044897
 10
491.3280848284546
 20
60.11782654044896
 10
491.7146198284545
 20
60.36645354044896
 10
492.4316608284545
 20
60.89593354044897
 10
493.0965778284545
 20
61.48022354044897
 10
493.7092488284545
 20
62.11825454044896
 10
494.2394618284545
 20
62.77062854044896
  0
LWPOLYLINE
  5
59D
330
1F
100
AcDbEntity
  8
0
 62
     7
370
    35
100
AcDbPolyline
 90
       20
 70
     0
 43
0.0
 10
475.3028768284545
 20
68.96990854044897
 10
475.3317468284545
 20
69.80196954044896
 10
475.4287928284545
 20
70.64214954044897
 10
475.5963338284545
 20
71.48391554044896
 10
475.8360188284545
 20
72.32012754044896
 10
476.1484578284544
 20
73.14318754044896
 10
476.5331018284546
 20
73.94518854044896
 10
476.9769488284545
 20
74.70001054044897
 10
477.4856778284545
 20
75.41967654044896
 10
478.0560508284545
 20
76.09744154044896
 10
478.6841028284546
 20
76.72704954044897
 10
479.3652548284545
 20
77.30283954044896
 10
480.0942588284545
 20
77.81979254044895
 10
480.8365078284545
 20
78.25791754044897
 10
481.6128138284545
 20
78.63409254044896
 10
482.4177448284545
 20
78.94555554044896
 10
483.2457478284545
 20
79.19007754044897
 10
484.0910848284545
 20
79.36593454044896
 10
484.9480798284544
 20
79.47192254044896
 10
485.8108728284545
 20
79.50733854044895
  0
LWPOLYLINE
  5
59E
330
1F
100
AcDbEntity
  8
0
 62
     7
370
    35
100
AcDbPolyline
 90
       20
 70
     0
 43
0.0
 10
475.3028768284545
 20
596.969908540449
 10
475.3317468284545
 20
596.1378155404488
 10
475.4287928284545
 20
595.2976675404488
 10
475.5963338284545
 20
594.455931540449
 10
475.8360188284545
 20
593.619688540449
 10
476.1484578284544
 20
592.7966295404489
 10
476.5331018284546
 20
591.994627540449
 10
476.9769488284545
 20
591.2398055404489
 10
477.4856778284545
 20
590.5201405404489
 10
478.0560508284545
 20
589.8424055404489
 10
478.6841028284546
 20
589.212767540449
 10
479.3652548284545
 20
588.6369615404489
 10
480.0942588284545
 20
588.119993540449
 10
480.8365078284545
 20
587.681883540449
 10
481.6128138284545
 20
587.3057235404489
 10
482.4177448284545
 20
586.9942615404489
 10
483.2457478284545
 20
586.7497545404489
 10
484.0910848284545
 20
586.5738515404489
 10
484.9480798284544
 20
586.4678945404489
 10
485.8108728284545
 20
586.432493540449
  0
LWPOLYLINE
  5
59F
330
1F
100
AcDbEntity
  8
0
 62
     7
370
    35
100
AcDbPolyline
 90
       15
 70
     0
 43
0.0
 10
485.8108728284545
 20
607.3734115404491
 10
486.6142788284545
 20
607.3430165404491
 10
487.3967488284545
 20
607.254332540449
 10
488.1460168284545
 20
607.1133405404489
 10
488.8300988284545
 20
606.9346905404488
 10
489.4790248284545
 20
606.718748540449
 10
490.0934048284545
 20
606.469664540449
 10
490.5177818284545
 20
606.2703845404489
 10
490.9269618284545
 20
606.055662540449
 10
491.3280848284546
 20
605.8220205404488
 10
491.7146198284545
 20
605.5733625404489
 10
492.4316608284545
 20
605.043882540449
 10
493.0965778284545
 20
604.459593540449
 10
493.7092488284545
 20
603.8215315404488
 10
494.2394618284545
 20
603.1691885404488
  0
LWPOLYLINE
  5
5A0
330
1F
100
AcDbEntity
  8
0
 62
     7
370
    35
100
AcDbPolyline
 90
       15
 70
     0
 43
0.0
 10
67.81087282845454
 20
607.3734115404491
 10
67.00743682845454
 20
607.3430165404491
 10
66.22499582845455
 20
607.254332540449
 10
65.47571382845454
 20
607.1133405404489
 10
64.79167682845454
 20
606.9346905404488
 10
64.14270582845455
 20
606.718748540449
 10
63.52832582845454
 20
606.469664540449
 10
63.10394782845455
 20
606.2703845404489
 10
62.69476882845454
 20
606.055662540449
 10
62.29364582845454
 20
605.8220205404488
 10
61.90709482845455
 20
605.5733625404489
 10
61.19005382845454
 20
605.043882540449
 10
60.52516682845454
 20
604.459593540449
 10
59.91251182845455
 20
603.8215315404488
 10
59.38226882845454
 20
603.1691885404488
  0
LWPOLYLINE
  5
5A1
330
1F
100
AcDbEntity
  8
0
 62
     7
370
    35
100
AcDbPolyline
 90
       20
 70
     0
 43
0.0
 10
78.31888382845455
 20
596.969908540449
 10
78.28999882845455
 20
596.1378155404488
 10
78.19295282845454
 20
595.2976675404488
 10
78.02538082845455
 20
594.455931540449
 10
77.78572582845455
 20
593.619688540449
 10
77.47331782845455
 20
592.7966295404489
 10
77.08861282845454
 20
591.994627540449
 10
76.64479582845455
 20
591.2398055404489
 10
76.13606782845455
 20
590.5201405404489
 10
75.56569482845455
 20
589.8424055404489
 10
74.93762782845454
 20
589.212767540449
 10
74.25650582845455
 20
588.6369615404489
 10
73.52745582845455
 20
588.119993540449
 10
72.78523782845454
 20
587.681883540449
 10
72.00896182845454
 20
587.3057235404489
 10
71.20403082845455
 20
586.9942615404489
 10
70.37602782845453
 20
586.7497545404489
 10
69.53064482845454
 20
586.5738515404489
 10
68.67365082845456
 20
586.4678945404489
 10
67.81087282845454
 20
586.432493540449
  0
LWPOLYLINE
  5
5A2
330
1F
100
AcDbEntity
  8
0
 62
     7
370
    35
100
AcDbPolyline
 90
       15
 70
     0
 43
0.0
 10
67.81087282845454
 20
58.56643554044897
 10
67.00743682845454
 20
58.59683054044896
 10
66.22499582845455
 20
58.68548454044897
 10
65.47571382845454
 20
58.82647554044897
 10
64.79167682845454
 20
59.00509454044897
 10
64.14270582845455
 20
59.22106754044897
 10
63.52832582845454
 20
59.47015254044896
 10
63.10394782845455
 20
59.66943254044896
 10
62.69476882845454
 20
59.88418454044897
 10
62.29364582845454
 20
60.11782654044896
 10
61.90709482845455
 20
60.36645354044896
 10
61.19005382845454
 20
60.89593354044897
 10
60.52516682845454
 20
61.48022354044897
 10
59.91251182845455
 20
62.11825454044896
 10
59.38226882845454
 20
62.77062854044896
  0
LWPOLYLINE
  5
5A3
330
1F
100
AcDbEntity
  8
0
 62
     7
370
    35
100
AcDbPolyline
 90
       20
 70
     0
 43
0.0
 10
78.31888382845455
 20
68.96990854044897
 10
78.28999882845455
 20
69.80196954044896
 10
78.19295282845454
 20
70.64214954044897
 10
78.02538082845455
 20
71.48391554044896
 10
77.78572582845455
 20
72.32012754044896
 10
77.47331782845455
 20
73.14318754044896
 10
77.08861282845454
 20
73.94518854044896
 10
76.64479582845455
 20
74.70001054044897
 10
76.13606782845455
 20
75.41967654044896
 10
75.56569482845455
 20
76.09744154044896
 10
74.93762782845454
 20
76.72704954044897
 10
74.25650582845455
 20
77.30283954044896
 10
73.52745582845455
 20
77.81979254044895
 10
72.78523782845454
 20
78.25791754044897
 10
72.00896182845454
 20
78.63409254044896
 10
71.20403082845455
 20
78.94555554044896
 10
70.37602782845453
 20
79.19007754044897
 10
69.53064482845454
 20
79.36593454044896
 10
68.67365082845456
 20
79.47192254044896
 10
67.81087282845454
 20
79.50733854044895
  0
INSERT
  5
5A4
330
1F
100
AcDbEntity
  8
0
 62
    56
100
AcDbBlockReference
  2
IEC_309_16-32
 10
70.31028768845454
 20
242.908888460449
 30
0.0
  0
INSERT
  5
5A5
330
1F
100
AcDbEntity
  8
0
 62
    56
100
AcDbBlockReference
  2
IEC_309_16-32
 10
182.8112876884545
 20
242.908888460449
 30
0.0
  0
INSERT
  5
5A6
330
1F
100
AcDbEntity
  8
0
 62
    56
100
AcDbBlockReference
  2
IEC_309_16-32
 10
70.31028768845454
 20
86.15023846044897
 30
0.0
  0
INSERT
  5
5A7
330
1F
100
AcDbEntity
  8
0
 62
    56
100
AcDbBlockReference
  2
IEC_309_16-32
 10
182.8112376884545
 20
86.15023846044897
 30
0.0
  0
INSERT
  5
5A8
330
1F
100
AcDbEntity
  8
0
 62
    56
100
AcDbBlockReference
  2
IEC_309_63
 10
329.0141391084546
 20
250.0999944704489
 30
0.0
  0
INSERT
  5
5A9
330
1F
100
AcDbEntity
  8
0
 62
    56
100
AcDbBlockReference
  2
IEC_309_63
 10
329.0141391084546
 20
93.34139447044895
 30
0.0
  0
ENDSEC
  0
SECTION
  2
OBJECTS
  0
DICTIONARY
  5
C
330
0
100
AcDbDictionary
281
     1
  3
ACAD_COLOR
350
73
  3
ACAD_GROUP
350
D
  3
ACAD_LAYOUT
350
1A
  3
ACAD_MATERIAL
350
72
  3
ACAD_MLEADERSTYLE
350
D7
  3
ACAD_MLINESTYLE
350
17
  3
ACAD_PLOTSETTINGS
350
19
  3
ACAD_PLOTSTYLENAME
350
E
  3
ACAD_SCALELIST
350
B6
  3
ACAD_TABLESTYLE
350
86
  3
ACAD_VISUALSTYLE
350
99
  3
ACDB_RECOMPOSE_DATA
350
FF
  3
AcDbVariableDictionary
350
66
  3
DWGPROPS
350
5E8
  0
DICTIONARY
  5
E6
330
10
100
AcDbDictionary
280
     1
281
     1
  3
ADSK_XREC_LAYER_RECONCILED
360
5DC
  0
DICTIONARY
  5
5DD
330
188
100
AcDbDictionary
280
     1
281
     1
  3
ADSK_XREC_LAYER_RECONCILED
360
5DE
  0
DICTIONARY
  5
5DF
330
189
100
AcDbDictionary
280
     1
281
     1
  3
ADSK_XREC_LAYER_RECONCILED
360
5E0
  0
DICTIONARY
  5
5E1
330
18A
100
AcDbDictionary
280
     1
281
     1
  3
ADSK_XREC_LAYER_RECONCILED
360
5E2
  0
DICTIONARY
  5
73
102
{ACAD_REACTORS
330
C
102
}
330
C
100
AcDbDictionary
281
     1
  0
DICTIONARY
  5
D
102
{ACAD_REACTORS
330
C
102
}
330
C
100
AcDbDictionary
281
     1
  0
DICTIONARY
  5
1A
102
{ACAD_REACTORS
330
C
102
}
330
C
100
AcDbDictionary
281
     1
  3
Layout1
350
59
  3
Layout2
350
5E
  3
Model
350
22
  0
DICTIONARY
  5
72
102
{ACAD_REACTORS
330
C
102
}
330
C
100
AcDbDictionary
281
     1
  3
ByBlock
350
97
  3
ByLayer
350
96
  3
Global
350
98
  0
DICTIONARY
  5
D7
102
{ACAD_REACTORS
330
C
102
}
330
C
100
AcDbDictionary
281
     1
  3
Annotativa
350
E5
  3
Standard
350
D8
  0
DICTIONARY
  5
17
102
{ACAD_REACTORS
330
C
102
}
330
C
100
AcDbDictionary
281
     1
  3
Standard
350
18
  0
DICTIONARY
  5
19
102
{ACAD_REACTORS
330
C
102
}
330
C
100
AcDbDictionary
281
     1
  0
ACDBDICTIONARYWDFLT
  5
E
102
{ACAD_REACTORS
330
C
102
}
330
C
100
AcDbDictionary
281
     1
  3
Normal
350
F
100
AcDbDictionaryWithDefault
340
F
  0
DICTIONARY
  5
B6
102
{ACAD_REACTORS
330
C
102
}
330
C
100
AcDbDictionary
281
     1
  3
A0
350
B7
  3
A1
350
124
  3
A2
350
125
  3
A3
350
126
  3
A4
350
127
  3
A5
350
128
  3
A6
350
129
  3
A7
350
12A
  3
A8
350
12B
  3
A9
350
12C
  3
B0
350
12D
  3
B1
350
12E
  3
B2
350
12F
  3
B3
350
130
  3
B4
350
131
  3
B5
350
132
  3
B6
350
133
  3
B7
350
134
  3
B8
350
135
  3
B9
350
136
  3
C0
350
137
  3
C1
350
138
  3
C2
350
139
  3
C3
350
13A
  3
C4
350
13B
  3
C5
350
13C
  3
C6
350
13D
  3
C7
350
13E
  3
C8
350
13F
  3
C9
350
140
  3
D0
350
141
  3
D1
350
142
  3
D2
350
143
  0
DICTIONARY
  5
86
102
{ACAD_REACTORS
330
C
102
}
330
C
100
AcDbDictionary
281
     1
  3
Standard
350
87
  0
DICTIONARY
  5
99
102
{ACAD_REACTORS
330
C
102
}
330
C
100
AcDbDictionary
281
     1
  3
2dWireframe
350
9F
  3
3D Hidden
350
A1
  3
3dWireframe
350
A0
  3
Basic
350
9E
  3
Brighten
350
A5
  3
ColorChange
350
A9
  3
Conceptual
350
A2
  3
Dim
350
A4
  3
Facepattern
350
A8
  3
Flat
350
9A
  3
FlatWithEdges
350
9B
  3
Gouraud
350
9C
  3
GouraudWithEdges
350
9D
  3
Linepattern
350
A7
  3
Realistic
350
A3
  3
Thicken
350
A6
  0
XRECORD
  5
FF
102
{ACAD_REACTORS
330
C
102
}
330
C
100
AcDbXrecord
280
     1
 90
        1
330
87
  0
DICTIONARY
  5
66
102
{ACAD_REACTORS
330
C
102
}
330
C
100
AcDbDictionary
281
     1
  3
CANNOSCALE
350
F0
  3
CMLEADERSTYLE
350
EF
  3
CTABLESTYLE
350
89
  3
DIMASSOC
350
67
  3
HIDETEXT
350
6B
  3
INDEXCTL
350
5E6
  3
LIGHTINGUNITS
350
5E4
  3
MSLTSCALE
350
5E3
  3
SORTENTS
350
5E5
  0
XRECORD
  5
5E8
102
{ACAD_REACTORS
330
C
102
}
330
C
100
AcDbXrecord
280
     1
  1
DWGPROPS COOKIE
  2

  3

  4

  6

  7

  8
fontanaNZ
  9

300
=
301
=
302
=
303
=
304
=
305
=
306
=
307
=
308
=
309
=
 40
0.0001419212962963
 41
2455511.361958102
 42
2455511.362099838
  1

 90
        0
  0
XRECORD
  5
5DC
102
{ACAD_REACTORS
330
E6
102
}
330
E6
100
AcDbXrecord
280
     1
290
     1
  0
XRECORD
  5
5DE
102
{ACAD_REACTORS
330
5DD
102
}
330
5DD
100
AcDbXrecord
280
     1
290
     1
  0
XRECORD
  5
5E0
102
{ACAD_REACTORS
330
5DF
102
}
330
5DF
100
AcDbXrecord
280
     1
290
     1
  0
XRECORD
  5
5E2
102
{ACAD_REACTORS
330
5E1
102
}
330
5E1
100
AcDbXrecord
280
     1
290
     1
  0
LAYOUT
  5
59
102
{ACAD_XDICTIONARY
360
5EB
102
}
102
{ACAD_REACTORS
330
1A
102
}
330
1A
100
AcDbPlotSettings
  1

  2
None
  4

  6

 40
0.0
 41
0.0
 42
0.0
 43
0.0
 44
0.0
 45
0.0
 46
0.0
 47
0.0
 48
0.0
 49
0.0
140
0.0
141
0.0
142
1.0
143
1.0
 70
   688
 72
     0
 73
     0
 74
     5
  7

 75
    16
147
1.0
148
0.0
149
0.0
100
AcDbLayout
  1
Layout1
 70
     1
 71
     1
 10
0.0
 20
0.0
 11
12.0
 21
9.0
 12
0.0
 22
0.0
 32
0.0
 14
0.0
 24
0.0
 34
0.0
 15
0.0
 25
0.0
 35
0.0
146
0.0
 13
0.0
 23
0.0
 33
0.0
 16
1.0
 26
0.0
 36
0.0
 17
0.0
 27
1.0
 37
0.0
 76
     0
330
58
  0
LAYOUT
  5
5E
102
{ACAD_XDICTIONARY
360
5ED
102
}
102
{ACAD_REACTORS
330
1A
102
}
330
1A
100
AcDbPlotSettings
  1

  2
None
  4

  6

 40
0.0
 41
0.0
 42
0.0
 43
0.0
 44
0.0
 45
0.0
 46
0.0
 47
0.0
 48
0.0
 49
0.0
140
0.0
141
0.0
142
1.0
143
1.0
 70
   688
 72
     0
 73
     0
 74
     5
  7

 75
    16
147
1.0
148
0.0
149
0.0
100
AcDbLayout
  1
Layout2
 70
     1
 71
     2
 10
0.0
 20
0.0
 11
12.0
 21
9.0
 12
0.0
 22
0.0
 32
0.0
 14
0.0
 24
0.0
 34
0.0
 15
0.0
 25
0.0
 35
0.0
146
0.0
 13
0.0
 23
0.0
 33
0.0
 16
1.0
 26
0.0
 36
0.0
 17
0.0
 27
1.0
 37
0.0
 76
     0
330
5D
  0
LAYOUT
  5
22
102
{ACAD_XDICTIONARY
360
5E9
102
}
102
{ACAD_REACTORS
330
1A
102
}
330
1A
100
AcDbPlotSettings
  1

  2
none_device
  4
ANSI_A_(8.50_x_11.00_Inches)
  6

 40
6.349999904632568
 41
19.04999923706055
 42
6.350006103515625
 43
19.04998779296875
 44
215.8999938964844
 45
279.3999938964844
 46
0.0
 47
0.0
 48
0.0
 49
0.0
140
0.0
141
0.0
142
1.0
143
2.584895464708373
 70
 11952
 72
     0
 73
     1
 74
     0
  7

 75
     0
147
0.3868628397755418
148
0.0
149
0.0
100
AcDbLayout
  1
Model
 70
     1
 71
     0
 10
0.0
 20
0.0
 11
12.0
 21
9.0
 12
0.0
 22
0.0
 32
0.0
 14
0.0
 24
0.0
 34
0.0
 15
0.0
 25
0.0
 35
0.0
146
0.0
 13
0.0
 23
0.0
 33
0.0
 16
1.0
 26
0.0
 36
0.0
 17
0.0
 27
1.0
 37
0.0
 76
     0
330
1F
331
94
  0
MATERIAL
  5
97
102
{ACAD_XDICTIONARY
360
5F2
102
}
102
{ACAD_REACTORS
330
72
102
}
330
72
100
AcDbMaterial
  1
ByBlock
  0
MATERIAL
  5
96
102
{ACAD_XDICTIONARY
360
5F0
102
}
102
{ACAD_REACTORS
330
72
102
}
330
72
100
AcDbMaterial
  1
ByLayer
  0
MATERIAL
  5
98
102
{ACAD_XDICTIONARY
360
110
102
}
102
{ACAD_REACTORS
330
72
102
}
330
72
100
AcDbMaterial
  1
Global
 43
0.0208000000566244
 43
0.0
 43
0.0
 43
0.0
 43
0.0
 43
0.0208000000566244
 43
0.0
 43
0.0
 43
0.0
 43
0.0
 43
1.0
 43
0.0
 43
0.0
 43
0.0
 43
0.0
 43
1.0
 49
0.0208000000566244
 49
0.0
 49
0.0
 49
0.0
 49
0.0
 49
0.0208000000566244
 49
0.0
 49
0.0
 49
0.0
 49
0.0
 49
1.0
 49
0.0
 49
0.0
 49
0.0
 49
0.0
 49
1.0
142
0.0208000000566244
142
0.0
142
0.0
142
0.0
142
0.0
142
0.0208000000566244
142
0.0
142
0.0
142
0.0
142
0.0
142
1.0
142
0.0
142
0.0
142
0.0
142
0.0
142
1.0
144
0.0208000000566244
144
0.0
144
0.0
144
0.0
144
0.0
144
0.0208000000566244
144
0.0
144
0.0
144
0.0
144
0.0
144
1.0
144
0.0
144
0.0
144
0.0
144
0.0
144
1.0
1001
ACAD
1070
    -1
1070
     3
1070
     0
1000

1071
        0
1070
     0
  0
MLEADERSTYLE
  5
E5
102
{ACAD_REACTORS
330
D7
102
}
330
D7
100
AcDbMLeaderStyle
170
     2
171
     1
172
     0
 90
        2
 40
0.0
 41
0.0
173
     1
 91
-1056964608
340
14
 92
       -2
290
     1
 42
0.09
291
     1
 43
0.36
  3
Standard
 44
0.18
300

342
11
174
     1
178
     1
175
     1
176
     0
 93
-1056964608
 45
0.18
292
     0
297
     0
 46
0.18
 94
-1056964608
 47
1.0
 49
1.0
140
1.0
293
     1
141
0.0
294
     1
177
     0
142
1.0
295
     0
296
     1
143
0.125
1001
ACAD_MLEADERVER
1070
     2
  0
MLEADERSTYLE
  5
D8
102
{ACAD_REACTORS
330
D7
102
}
330
D7
100
AcDbMLeaderStyle
170
     2
171
     1
172
     0
 90
        2
 40
0.0
 41
0.0
173
     1
 91
-1056964608
340
14
 92
       -2
290
     1
 42
0.09
291
     1
 43
0.36
  3
Standard
 44
0.18
300

342
11
174
     1
178
     1
175
     1
176
     0
 93
-1056964608
 45
0.18
292
     0
297
     0
 46
0.18
 94
-1056964608
 47
1.0
 49
1.0
140
1.0
293
     1
141
0.0
294
     1
177
     0
142
1.0
295
     0
296
     0
143
0.125
1001
ACAD_MLEADERVER
1070
     2
  0
MLINESTYLE
  5
18
102
{ACAD_REACTORS
330
17
102
}
330
17
100
AcDbMlineStyle
  2
STANDARD
 70
     0
  3

 62
   256
 51
90.0
 52
90.0
 71
     2
 49
0.5
 62
   256
  6
BYLAYER
 49
-0.5
 62
   256
  6
BYLAYER
  0
ACDBPLACEHOLDER
  5
F
102
{ACAD_REACTORS
330
E
102
}
330
E
  0
SCALE
  5
B7
102
{ACAD_REACTORS
330
B6
102
}
330
B6
100
AcDbScale
 70
     0
300
1:1
140
1.0
141
1.0
290
     1
  0
SCALE
  5
124
102
{ACAD_REACTORS
330
B6
102
}
330
B6
100
AcDbScale
 70
     0
300
1:2
140
1.0
141
2.0
290
     0
  0
SCALE
  5
125
102
{ACAD_REACTORS
330
B6
102
}
330
B6
100
AcDbScale
 70
     0
300
1:4
140
1.0
141
4.0
290
     0
  0
SCALE
  5
126
102
{ACAD_REACTORS
330
B6
102
}
330
B6
100
AcDbScale
 70
     0
300
1:5
140
1.0
141
5.0
290
     0
  0
SCALE
  5
127
102
{ACAD_REACTORS
330
B6
102
}
330
B6
100
AcDbScale
 70
     0
300
1:8
140
1.0
141
8.0
290
     0
  0
SCALE
  5
128
102
{ACAD_REACTORS
330
B6
102
}
330
B6
100
AcDbScale
 70
     0
300
1:10
140
1.0
141
10.0
290
     0
  0
SCALE
  5
129
102
{ACAD_REACTORS
330
B6
102
}
330
B6
100
AcDbScale
 70
     0
300
1:16
140
1.0
141
16.0
290
     0
  0
SCALE
  5
12A
102
{ACAD_REACTORS
330
B6
102
}
330
B6
100
AcDbScale
 70
     0
300
1:20
140
1.0
141
20.0
290
     0
  0
SCALE
  5
12B
102
{ACAD_REACTORS
330
B6
102
}
330
B6
100
AcDbScale
 70
     0
300
1:30
140
1.0
141
30.0
290
     0
  0
SCALE
  5
12C
102
{ACAD_REACTORS
330
B6
102
}
330
B6
100
AcDbScale
 70
     0
300
1:40
140
1.0
141
40.0
290
     0
  0
SCALE
  5
12D
102
{ACAD_REACTORS
330
B6
102
}
330
B6
100
AcDbScale
 70
     0
300
1:50
140
1.0
141
50.0
290
     0
  0
SCALE
  5
12E
102
{ACAD_REACTORS
330
B6
102
}
330
B6
100
AcDbScale
 70
     0
300
1:100
140
1.0
141
100.0
290
     0
  0
SCALE
  5
12F
102
{ACAD_REACTORS
330
B6
102
}
330
B6
100
AcDbScale
 70
     0
300
2:1
140
2.0
141
1.0
290
     0
  0
SCALE
  5
130
102
{ACAD_REACTORS
330
B6
102
}
330
B6
100
AcDbScale
 70
     0
300
4:1
140
4.0
141
1.0
290
     0
  0
SCALE
  5
131
102
{ACAD_REACTORS
330
B6
102
}
330
B6
100
AcDbScale
 70
     0
300
8:1
140
8.0
141
1.0
290
     0
  0
SCALE
  5
132
102
{ACAD_REACTORS
330
B6
102
}
330
B6
100
AcDbScale
 70
     0
300
10:1
140
10.0
141
1.0
290
     0
  0
SCALE
  5
133
102
{ACAD_REACTORS
330
B6
102
}
330
B6
100
AcDbScale
 70
     0
300
100:1
140
100.0
141
1.0
290
     0
  0
SCALE
  5
134
102
{ACAD_REACTORS
330
B6
102
}
330
B6
100
AcDbScale
 70
     0
300
1/128" = 1'-0"
140
0.0078125
141
12.0
290
     0
  0
SCALE
  5
135
102
{ACAD_REACTORS
330
B6
102
}
330
B6
100
AcDbScale
 70
     0
300
1/64" = 1'-0"
140
0.015625
141
12.0
290
     0
  0
SCALE
  5
136
102
{ACAD_REACTORS
330
B6
102
}
330
B6
100
AcDbScale
 70
     0
300
1/32" = 1'-0"
140
0.03125
141
12.0
290
     0
  0
SCALE
  5
137
102
{ACAD_REACTORS
330
B6
102
}
330
B6
100
AcDbScale
 70
     0
300
1/16" = 1'-0"
140
0.0625
141
12.0
290
     0
  0
SCALE
  5
138
102
{ACAD_REACTORS
330
B6
102
}
330
B6
100
AcDbScale
 70
     0
300
3/32" = 1'-0"
140
0.09375
141
12.0
290
     0
  0
SCALE
  5
139
102
{ACAD_REACTORS
330
B6
102
}
330
B6
100
AcDbScale
 70
     0
300
1/8" = 1'-0"
140
0.125
141
12.0
290
     0
  0
SCALE
  5
13A
102
{ACAD_REACTORS
330
B6
102
}
330
B6
100
AcDbScale
 70
     0
300
3/16" = 1'-0"
140
0.1875
141
12.0
290
     0
  0
SCALE
  5
13B
102
{ACAD_REACTORS
330
B6
102
}
330
B6
100
AcDbScale
 70
     0
300
1/4" = 1'-0"
140
0.25
141
12.0
290
     0
  0
SCALE
  5
13C
102
{ACAD_REACTORS
330
B6
102
}
330
B6
100
AcDbScale
 70
     0
300
3/8" = 1'-0"
140
0.375
141
12.0
290
     0
  0
SCALE
  5
13D
102
{ACAD_REACTORS
330
B6
102
}
330
B6
100
AcDbScale
 70
     0
300
1/2" = 1'-0"
140
0.5
141
12.0
290
     0
  0
SCALE
  5
13E
102
{ACAD_REACTORS
330
B6
102
}
330
B6
100
AcDbScale
 70
     0
300
3/4" = 1'-0"
140
0.75
141
12.0
290
     0
  0
SCALE
  5
13F
102
{ACAD_REACTORS
330
B6
102
}
330
B6
100
AcDbScale
 70
     0
300
1" = 1'-0"
140
1.0
141
12.0
290
     0
  0
SCALE
  5
140
102
{ACAD_REACTORS
330
B6
102
}
330
B6
100
AcDbScale
 70
     0
300
1-1/2" = 1'-0"
140
1.5
141
12.0
290
     0
  0
SCALE
  5
141
102
{ACAD_REACTORS
330
B6
102
}
330
B6
100
AcDbScale
 70
     0
300
3" = 1'-0"
140
3.0
141
12.0
290
     0
  0
SCALE
  5
142
102
{ACAD_REACTORS
330
B6
102
}
330
B6
100
AcDbScale
 70
     0
300
6" = 1'-0"
140
6.0
141
12.0
290
     0
  0
SCALE
  5
143
102
{ACAD_REACTORS
330
B6
102
}
330
B6
100
AcDbScale
 70
     0
300
1'-0" = 1'-0"
140
12.0
141
12.0
290
     0
  0
TABLESTYLE
  5
87
102
{ACAD_XDICTIONARY
360
104
102
}
102
{ACAD_REACTORS
330
86
102
}
330
86
100
AcDbTableStyle
  3
Standard
 70
     0
 71
     0
 40
0.06
 41
0.06
280
     0
281
     0
  7
Standard
140
0.18
170
     2
 62
     0
 63
     7
283
     0
274
    -2
284
     1
 64
     0
275
    -2
285
     1
 65
     0
276
    -2
286
     1
 66
     0
277
    -2
287
     1
 67
     0
278
    -2
288
     1
 68
     0
279
    -2
289
     1
 69
     0
  7
Standard
140
0.25
170
     5
 62
     0
 63
     7
283
     0
274
    -2
284
     1
 64
     0
275
    -2
285
     1
 65
     0
276
    -2
286
     1
 66
     0
277
    -2
287
     1
 67
     0
278
    -2
288
     1
 68
     0
279
    -2
289
     1
 69
     0
  7
Standard
140
0.18
170
     5
 62
     0
 63
     7
283
     0
274
    -2
284
     1
 64
     0
275
    -2
285
     1
 65
     0
276
    -2
286
     1
 66
     0
277
    -2
287
     1
 67
     0
278
    -2
288
     1
 68
     0
279
    -2
289
     1
 69
     0
  0
VISUALSTYLE
  5
9F
102
{ACAD_REACTORS
330
99
102
}
330
99
100
AcDbVisualStyle
  2
2dWireframe
 70
     4
 71
     0
 72
     2
 73
     1
 90
        0
 40
-0.6
 41
-30.0
 62
     5
 63
     7
 74
     1
 91
        4
 64
     7
 65
   257
 75
     1
175
     1
 42
1.0
 92
        0
 66
   257
 43
1.0
 76
     1
 77
     6
 78
     2
 67
     7
 79
     5
170
     0
171
     0
290
     0
174
     0
 93
        1
 44
0.0
173
     0
291
     0
 45
0.0
1001
ACAD
1000
AcDbSavedByObjectVersion
1070
     0
  0
VISUALSTYLE
  5
A1
102
{ACAD_REACTORS
330
99
102
}
330
99
100
AcDbVisualStyle
  2
3D Hidden
 70
     6
 71
     1
 72
     2
 73
     2
 90
        0
 40
-0.6
 41
-30.0
 62
     5
 63
     7
 74
     2
 91
        2
 64
     7
 65
   257
 75
     2
175
     1
 42
40.0
 92
        0
 66
   257
 43
1.0
 76
     1
 77
     6
 78
     2
 67
     7
 79
     3
170
     0
171
     0
290
     0
174
     0
 93
        1
 44
0.0
173
     0
291
     0
 45
0.0
1001
ACAD
1000
AcDbSavedByObjectVersion
1070
     0
  0
VISUALSTYLE
  5
A0
102
{ACAD_REACTORS
330
99
102
}
330
99
100
AcDbVisualStyle
  2
3dWireframe
 70
     5
 71
     0
 72
     2
 73
     1
 90
        0
 40
-0.6
 41
-30.0
 62
     5
 63
     7
 74
     1
 91
        4
 64
     7
 65
   257
 75
     1
175
     1
 42
1.0
 92
        0
 66
   257
 43
1.0
 76
     1
 77
     6
 78
     2
 67
     7
 79
     5
170
     0
171
     0
290
     0
174
     0
 93
        1
 44
0.0
173
     0
291
     0
 45
0.0
1001
ACAD
1000
AcDbSavedByObjectVersion
1070
     0
  0
VISUALSTYLE
  5
9E
102
{ACAD_REACTORS
330
99
102
}
330
99
100
AcDbVisualStyle
  2
Basic
 70
     7
 71
     1
 72
     0
 73
     1
 90
        0
 40
-0.6
 41
-30.0
 62
     5
 63
     7
 74
     0
 91
        4
 64
     7
 65
   257
 75
     1
175
     1
 42
1.0
 92
        8
 66
     7
 43
1.0
 76
     1
 77
     6
 78
     2
 67
     7
 79
     5
170
     0
171
     0
290
     0
174
     0
 93
        1
 44
0.0
173
     0
291
     1
 45
0.0
1001
ACAD
1000
AcDbSavedByObjectVersion
1070
     0
  0
VISUALSTYLE
  5
A5
102
{ACAD_REACTORS
330
99
102
}
330
99
100
AcDbVisualStyle
  2
Brighten
 70
    12
 71
     2
 72
     2
 73
     1
 90
        0
 40
-0.6
 41
-30.0
 62
     5
 63
     7
 74
     1
 91
        4
 64
     7
 65
   257
 75
     1
175
     1
 42
1.0
 92
        8
 66
     7
 43
1.0
 76
     1
 77
     6
 78
     2
 67
     7
 79
     5
170
     0
171
     0
290
     0
174
     0
 93
        1
 44
50.0
173
     0
291
     1
 45
0.0
1001
ACAD
1000
AcDbSavedByObjectVersion
1070
     0
  0
VISUALSTYLE
  5
A9
102
{ACAD_REACTORS
330
99
102
}
330
99
100
AcDbVisualStyle
  2
ColorChange
 70
    16
 71
     2
 72
     2
 73
     3
 90
        0
 40
-0.6
 41
-30.0
 62
     5
 63
     8
 74
     1
 91
        4
 64
     7
 65
   257
 75
     1
175
     1
 42
1.0
 92
        8
 66
     8
 43
1.0
 76
     1
 77
     6
 78
     2
 67
     7
 79
     5
170
     0
171
     0
290
     0
174
     0
 93
        1
 44
0.0
173
     0
291
     1
 45
0.0
1001
ACAD
1000
AcDbSavedByObjectVersion
1070
     0
  0
VISUALSTYLE
  5
A2
102
{ACAD_REACTORS
330
99
102
}
330
99
100
AcDbVisualStyle
  2
Conceptual
 70
     9
 71
     3
 72
     2
 73
     1
 90
        0
 40
-0.6
 41
-30.0
 62
     5
 63
     7
 74
     2
 91
        2
 64
     7
 65
   257
 75
     1
175
     1
 42
40.0
 92
        8
 66
     7
 43
1.0
 76
     1
 77
     6
 78
     2
 67
     7
 79
     3
170
     0
171
     0
290
     0
174
     0
 93
        1
 44
0.0
173
     0
291
     0
 45
0.0
1001
ACAD
1000
AcDbSavedByObjectVersion
1070
     0
  0
VISUALSTYLE
  5
A4
102
{ACAD_REACTORS
330
99
102
}
330
99
100
AcDbVisualStyle
  2
Dim
 70
    11
 71
     2
 72
     2
 73
     1
 90
        0
 40
-0.6
 41
-30.0
 62
     5
 63
     7
 74
     1
 91
        4
 64
     7
 65
   257
 75
     1
175
     1
 42
1.0
 92
        8
 66
     7
 43
1.0
 76
     1
 77
     6
 78
     2
 67
     7
 79
     5
170
     0
171
     0
290
     0
174
     0
 93
        1
 44
-50.0
173
     0
291
     1
 45
0.0
1001
ACAD
1000
AcDbSavedByObjectVersion
1070
     0
  0
VISUALSTYLE
  5
A8
102
{ACAD_REACTORS
330
99
102
}
330
99
100
AcDbVisualStyle
  2
Facepattern
 70
    15
 71
     2
 72
     2
 73
     1
 90
        0
 40
-0.6
 41
-30.0
 62
     5
 63
     7
 74
     1
 91
        4
 64
     7
 65
   257
 75
     1
175
     1
 42
1.0
 92
        8
 66
     7
 43
1.0
 76
     1
 77
     6
 78
     2
 67
     7
 79
     5
170
     0
171
     0
290
     0
174
     0
 93
        1
 44
0.0
173
     0
291
     1
 45
0.0
1001
ACAD
1000
AcDbSavedByObjectVersion
1070
     0
  0
VISUALSTYLE
  5
9A
102
{ACAD_REACTORS
330
99
102
}
330
99
100
AcDbVisualStyle
  2
Flat
 70
     0
 71
     2
 72
     1
 73
     1
 90
        2
 40
-0.6
 41
30.0
 62
     5
 63
     7
 74
     0
 91
        4
 64
     7
 65
   257
 75
     1
175
     1
 42
1.0
 92
        8
 66
     7
 43
1.0
 76
     1
 77
     6
 78
     2
 67
     7
 79
     5
170
     0
171
     0
290
     0
174
     0
 93
        1
 44
0.0
173
     0
291
     1
 45
0.0
1001
ACAD
1000
AcDbSavedByObjectVersion
1070
     0
  0
VISUALSTYLE
  5
9B
102
{ACAD_REACTORS
330
99
102
}
330
99
100
AcDbVisualStyle
  2
FlatWithEdges
 70
     1
 71
     2
 72
     1
 73
     1
 90
        2
 40
-0.6
 41
30.0
 62
     5
 63
     7
 74
     1
 91
        4
 64
     7
 65
   257
 75
     1
175
     1
 42
1.0
 92
        0
 66
   257
 43
1.0
 76
     1
 77
     6
 78
     2
 67
     7
 79
     5
170
     0
171
     0
290
     0
174
     0
 93
        1
 44
0.0
173
     0
291
     1
 45
0.0
1001
ACAD
1000
AcDbSavedByObjectVersion
1070
     0
  0
VISUALSTYLE
  5
9C
102
{ACAD_REACTORS
330
99
102
}
330
99
100
AcDbVisualStyle
  2
Gouraud
 70
     2
 71
     2
 72
     2
 73
     1
 90
        2
 40
-0.6
 41
30.0
 62
     5
 63
     7
 74
     0
 91
        4
 64
     7
 65
   257
 75
     1
175
     1
 42
1.0
 92
        0
 66
     7
 43
1.0
 76
     1
 77
     6
 78
     2
 67
     7
 79
     5
170
     0
171
     0
290
     0
174
     0
 93
        1
 44
0.0
173
     0
291
     1
 45
0.0
1001
ACAD
1000
AcDbSavedByObjectVersion
1070
     0
  0
VISUALSTYLE
  5
9D
102
{ACAD_REACTORS
330
99
102
}
330
99
100
AcDbVisualStyle
  2
GouraudWithEdges
 70
     3
 71
     2
 72
     2
 73
     1
 90
        2
 40
-0.6
 41
30.0
 62
     5
 63
     7
 74
     1
 91
        4
 64
     7
 65
   257
 75
     1
175
     1
 42
1.0
 92
        0
 66
   257
 43
1.0
 76
     1
 77
     6
 78
     2
 67
     7
 79
     5
170
     0
171
     0
290
     0
174
     0
 93
        1
 44
0.0
173
     0
291
     1
 45
0.0
1001
ACAD
1000
AcDbSavedByObjectVersion
1070
     0
  0
VISUALSTYLE
  5
A7
102
{ACAD_REACTORS
330
99
102
}
330
99
100
AcDbVisualStyle
  2
Linepattern
 70
    14
 71
     2
 72
     2
 73
     1
 90
        0
 40
-0.6
 41
-30.0
 62
     5
 63
     7
 74
     1
 91
        4
 64
     7
 65
   257
 75
     7
175
     7
 42
1.0
 92
        8
 66
     7
 43
1.0
 76
     1
 77
     6
 78
     2
 67
     7
 79
     5
170
     0
171
     0
290
     0
174
     0
 93
        1
 44
0.0
173
     0
291
     1
 45
0.0
1001
ACAD
1000
AcDbSavedByObjectVersion
1070
     0
  0
VISUALSTYLE
  5
A3
102
{ACAD_REACTORS
330
99
102
}
330
99
100
AcDbVisualStyle
  2
Realistic
 70
     8
 71
     2
 72
     2
 73
     1
 90
        0
 40
-0.6
 41
-30.0
 62
     5
 63
     7
 74
     1
 91
        0
 64
     7
 65
   257
 75
     1
175
     1
 42
1.0
 92
        8
 66
     8
 43
1.0
 76
     1
 77
     6
 78
     2
 67
     7
 79
     5
170
     0
171
     0
290
     0
174
     0
 93
       13
 44
0.0
173
     0
291
     0
 45
0.0
1001
ACAD
1000
AcDbSavedByObjectVersion
1070
     0
  0
VISUALSTYLE
  5
A6
102
{ACAD_REACTORS
330
99
102
}
330
99
100
AcDbVisualStyle
  2
Thicken
 70
    13
 71
     2
 72
     2
 73
     1
 90
        0
 40
-0.6
 41
-30.0
 62
     5
 63
     7
 74
     1
 91
        4
 64
     7
 65
   257
 75
     1
175
     1
 42
1.0
 92
       12
 66
     7
 43
1.0
 76
     1
 77
     6
 78
     2
 67
     7
 79
     5
170
     0
171
     0
290
     0
174
     0
 93
        1
 44
0.0
173
     0
291
     1
 45
0.0
1001
ACAD
1000
AcDbSavedByObjectVersion
1070
     0
  0
DICTIONARYVAR
  5
F0
102
{ACAD_REACTORS
330
66
102
}
330
66
100
DictionaryVariables
280
     0
  1
1:1
  0
DICTIONARYVAR
  5
EF
102
{ACAD_REACTORS
330
66
102
}
330
66
100
DictionaryVariables
280
     0
  1
STANDARD
  0
DICTIONARYVAR
  5
89
102
{ACAD_REACTORS
330
66
102
}
330
66
100
DictionaryVariables
280
     0
  1
STANDARD
  0
DICTIONARYVAR
  5
67
102
{ACAD_REACTORS
330
66
102
}
330
66
100
DictionaryVariables
280
     0
  1
2
  0
DICTIONARYVAR
  5
6B
102
{ACAD_REACTORS
330
66
102
}
330
66
100
DictionaryVariables
280
     0
  1
1
  0
DICTIONARYVAR
  5
5E6
102
{ACAD_REACTORS
330
66
102
}
330
66
100
DictionaryVariables
280
     0
  1
0
  0
DICTIONARYVAR
  5
5E4
102
{ACAD_REACTORS
330
66
102
}
330
66
100
DictionaryVariables
280
     0
  1
2
  0
DICTIONARYVAR
  5
5E3
102
{ACAD_REACTORS
330
66
102
}
330
66
100
DictionaryVariables
280
     0
  1
1
  0
DICTIONARYVAR
  5
5E5
102
{ACAD_REACTORS
330
66
102
}
330
66
100
DictionaryVariables
280
     0
  1
127
  0
DICTIONARY
  5
5EB
330
59
100
AcDbDictionary
280
     1
281
     1
  3
ACAD_XREC_ROUNDTRIP
360
5EC
  0
DICTIONARY
  5
5ED
330
5E
100
AcDbDictionary
280
     1
281
     1
  3
ACAD_XREC_ROUNDTRIP
360
5EE
  0
DICTIONARY
  5
5E9
330
22
100
AcDbDictionary
280
     1
281
     1
  3
ACAD_XREC_ROUNDTRIP
360
5EA
  0
DICTIONARY
  5
5F2
330
97
100
AcDbDictionary
280
     1
281
     1
  3
ACAD_XREC_ROUNDTRIP
360
5F3
  0
DICTIONARY
  5
5F0
330
96
100
AcDbDictionary
280
     1
281
     1
  3
ACAD_XREC_ROUNDTRIP
360
5F1
  0
DICTIONARY
  5
110
330
98
100
AcDbDictionary
280
     1
281
     1
  3
ACAD_XREC_ROUNDTRIP
360
5F4
  3
BUMPTILE
360
112
  3
DIFFUSETILE
360
111
  3
OPACITYTILE
360
113
  3
REFLECTIONTILE
360
114
  0
DICTIONARY
  5
104
330
87
100
AcDbDictionary
280
     1
281
     1
  3
ACAD_ROUNDTRIP_2008_TABLESTYLE_CELLSTYLEMAP
360
5E7
  3
ACAD_XREC_ROUNDTRIP
360
5EF
  0
XRECORD
  5
5EC
102
{ACAD_REACTORS
330
5EB
102
}
330
5EB
100
AcDbXrecord
280
     1
102
SHADEPLOT
 70
     0
102
SHADEPLOTRESLEVEL
 70
     2
102
SHADEPLOTCUSTOMDPI
 70
   300
  0
XRECORD
  5
5EE
102
{ACAD_REACTORS
330
5ED
102
}
330
5ED
100
AcDbXrecord
280
     1
102
SHADEPLOT
 70
     0
102
SHADEPLOTRESLEVEL
 70
     2
102
SHADEPLOTCUSTOMDPI
 70
   300
  0
XRECORD
  5
5EA
102
{ACAD_REACTORS
330
5E9
102
}
330
5E9
100
AcDbXrecord
280
     1
102
SHADEPLOT
 70
     0
102
SHADEPLOTRESLEVEL
 70
     2
102
SHADEPLOTCUSTOMDPI
 70
   300
  0
XRECORD
  5
5F3
102
{ACAD_REACTORS
330
5F2
102
}
330
5F2
100
AcDbXrecord
280
     1
102
MATERIAL
148
0.0
149
0.0
149
0.0
 93
        0
 94
       63
282
     0
 72
     1
 77
     1
171
     1
175
     1
179
     1
273
     0
  0
XRECORD
  5
5F1
102
{ACAD_REACTORS
330
5F0
102
}
330
5F0
100
AcDbXrecord
280
     1
102
MATERIAL
148
0.0
149
0.0
149
0.0
 93
        0
 94
       63
282
     0
 72
     1
 77
     1
171
     1
175
     1
179
     1
273
     0
  0
XRECORD
  5
5F4
102
{ACAD_REACTORS
330
110
102
}
330
110
100
AcDbXrecord
280
     1
102
MATERIAL
148
0.0
149
0.0
149
0.0
 93
        0
 94
       63
282
     0
 72
     1
 77
     1
171
     1
175
     1
179
     1
273
     0
  0
XRECORD
  5
112
102
{ACAD_REACTORS
330
110
102
}
330
110
100
AcDbXrecord
280
     1
270
     1
271
     1
  0
XRECORD
  5
111
102
{ACAD_REACTORS
330
110
102
}
330
110
100
AcDbXrecord
280
     1
270
     1
271
     1
  0
XRECORD
  5
113
102
{ACAD_REACTORS
330
110
102
}
330
110
100
AcDbXrecord
280
     1
270
     1
271
     1
  0
XRECORD
  5
114
102
{ACAD_REACTORS
330
110
102
}
330
110
100
AcDbXrecord
280
     1
270
     1
271
     1
  0
CELLSTYLEMAP
  5
5E7
102
{ACAD_REACTORS
330
104
102
}
330
104
100
AcDbCellStyleMap
 90
        3
300
CELLSTYLE
  1
TABLEFORMAT_BEGIN
 90
        5
170
     1
 91
        0
 92
    32768
 62
   257
 93
        1
300
CONTENTFORMAT
  1
CONTENTFORMAT_BEGIN
 90
        0
 91
        0
 92
      512
 93
        0
300

 40
0.0
140
1.0
 94
        5
 62
     0
340
11
144
0.25
309
CONTENTFORMAT_END
171
     1
301
MARGIN
  1
CELLMARGIN_BEGIN
 40
0.06
 40
0.06
 40
0.06
 40
0.06
 40
0.18
 40
0.18
309
CELLMARGIN_END
 94
        6
 95
        1
302
GRIDFORMAT
  1
GRIDFORMAT_BEGIN
 90
        0
 91
        1
 62
     0
 92
       -2
340
0
 93
        0
 40
0.045
309
GRIDFORMAT_END
 95
        2
302
GRIDFORMAT
  1
GRIDFORMAT_BEGIN
 90
        0
 91
        1
 62
     0
 92
       -2
340
0
 93
        0
 40
0.045
309
GRIDFORMAT_END
 95
        4
302
GRIDFORMAT
  1
GRIDFORMAT_BEGIN
 90
        0
 91
        1
 62
     0
 92
       -2
340
0
 93
        0
 40
0.045
309
GRIDFORMAT_END
 95
        8
302
GRIDFORMAT
  1
GRIDFORMAT_BEGIN
 90
        0
 91
        1
 62
     0
 92
       -2
340
0
 93
        0
 40
0.045
309
GRIDFORMAT_END
 95
       16
302
GRIDFORMAT
  1
GRIDFORMAT_BEGIN
 90
        0
 91
        1
 62
     0
 92
       -2
340
0
 93
        0
 40
0.045
309
GRIDFORMAT_END
 95
       32
302
GRIDFORMAT
  1
GRIDFORMAT_BEGIN
 90
        0
 91
        1
 62
     0
 92
       -2
340
0
 93
        0
 40
0.045
309
GRIDFORMAT_END
309
TABLEFORMAT_END
  1
CELLSTYLE_BEGIN
 90
        1
 91
        1
300
_TITLE
309
CELLSTYLE_END
300
CELLSTYLE
  1
TABLEFORMAT_BEGIN
 90
        5
170
     1
 91
        0
 92
        0
 62
   257
 93
        1
300
CONTENTFORMAT
  1
CONTENTFORMAT_BEGIN
 90
        0
 91
        0
 92
      512
 93
        0
300

 40
0.0
140
1.0
 94
        5
 62
     0
340
11
144
0.18
309
CONTENTFORMAT_END
171
     1
301
MARGIN
  1
CELLMARGIN_BEGIN
 40
0.06
 40
0.06
 40
0.06
 40
0.06
 40
0.18
 40
0.18
309
CELLMARGIN_END
 94
        6
 95
        1
302
GRIDFORMAT
  1
GRIDFORMAT_BEGIN
 90
        0
 91
        1
 62
     0
 92
       -2
340
0
 93
        0
 40
0.045
309
GRIDFORMAT_END
 95
        2
302
GRIDFORMAT
  1
GRIDFORMAT_BEGIN
 90
        0
 91
        1
 62
     0
 92
       -2
340
0
 93
        0
 40
0.045
309
GRIDFORMAT_END
 95
        4
302
GRIDFORMAT
  1
GRIDFORMAT_BEGIN
 90
        0
 91
        1
 62
     0
 92
       -2
340
0
 93
        0
 40
0.045
309
GRIDFORMAT_END
 95
        8
302
GRIDFORMAT
  1
GRIDFORMAT_BEGIN
 90
        0
 91
        1
 62
     0
 92
       -2
340
0
 93
        0
 40
0.045
309
GRIDFORMAT_END
 95
       16
302
GRIDFORMAT
  1
GRIDFORMAT_BEGIN
 90
        0
 91
        1
 62
     0
 92
       -2
340
0
 93
        0
 40
0.045
309
GRIDFORMAT_END
 95
       32
302
GRIDFORMAT
  1
GRIDFORMAT_BEGIN
 90
        0
 91
        1
 62
     0
 92
       -2
340
0
 93
        0
 40
0.045
309
GRIDFORMAT_END
309
TABLEFORMAT_END
  1
CELLSTYLE_BEGIN
 90
        2
 91
        1
300
_HEADER
309
CELLSTYLE_END
300
CELLSTYLE
  1
TABLEFORMAT_BEGIN
 90
        5
170
     1
 91
        0
 92
        0
 62
   257
 93
        1
300
CONTENTFORMAT
  1
CONTENTFORMAT_BEGIN
 90
        0
 91
        0
 92
      512
 93
        0
300

 40
0.0
140
1.0
 94
        2
 62
     0
340
11
144
0.18
309
CONTENTFORMAT_END
171
     1
301
MARGIN
  1
CELLMARGIN_BEGIN
 40
0.06
 40
0.06
 40
0.06
 40
0.06
 40
0.18
 40
0.18
309
CELLMARGIN_END
 94
        6
 95
        1
302
GRIDFORMAT
  1
GRIDFORMAT_BEGIN
 90
        0
 91
        1
 62
     0
 92
       -2
340
0
 93
        0
 40
0.045
309
GRIDFORMAT_END
 95
        2
302
GRIDFORMAT
  1
GRIDFORMAT_BEGIN
 90
        0
 91
        1
 62
     0
 92
       -2
340
0
 93
        0
 40
0.045
309
GRIDFORMAT_END
 95
        4
302
GRIDFORMAT
  1
GRIDFORMAT_BEGIN
 90
        0
 91
        1
 62
     0
 92
       -2
340
0
 93
        0
 40
0.045
309
GRIDFORMAT_END
 95
        8
302
GRIDFORMAT
  1
GRIDFORMAT_BEGIN
 90
        0
 91
        1
 62
     0
 92
       -2
340
0
 93
        0
 40
0.045
309
GRIDFORMAT_END
 95
       16
302
GRIDFORMAT
  1
GRIDFORMAT_BEGIN
 90
        0
 91
        1
 62
     0
 92
       -2
340
0
 93
        0
 40
0.045
309
GRIDFORMAT_END
 95
       32
302
GRIDFORMAT
  1
GRIDFORMAT_BEGIN
 90
        0
 91
        1
 62
     0
 92
       -2
340
0
 93
        0
 40
0.045
309
GRIDFORMAT_END
309
TABLEFORMAT_END
  1
CELLSTYLE_BEGIN
 90
        3
 91
        2
300
_DATA
309
CELLSTYLE_END
  0
XRECORD
  5
5EF
102
{ACAD_REACTORS
330
104
102
}
330
104
100
AcDbXrecord
280
     1
102
ACAD_ROUNDTRIP_PRE2007_TABLESTYLE
 90
      512
 91
        0
  1

 92
      512
 93
        0
  2

 94
      512
 95
        0
  3

  0
ENDSEC
  0
EOF
