  0
SECTION
  2
HEADER
  9
$ACADVER
  1
AC1015
  9
$ACADMAINTVER
 70
    20
  9
$DWGCODEPAGE
  3
ANSI_1252
  9
$INSBASE
 10
0.0
 20
0.0
 30
0.0
  9
$EXTMIN
 10
22.97476626605955
 20
11.94201116630686
 30
0.0
  9
$EXTMAX
 10
163.5875360160595
 20
466.7975927563069
 30
0.0
  9
$LIMMIN
 10
0.0
 20
0.0
  9
$LIMMAX
 10
12.0
 20
9.0
  9
$ORTHOMODE
 70
     0
  9
$REGENMODE
 70
     1
  9
$FILLMODE
 70
     1
  9
$QTEXTMODE
 70
     0
  9
$MIRRTEXT
 70
     0
  9
$LTSCALE
 40
1.0
  9
$ATTMODE
 70
     1
  9
$TEXTSIZE
 40
0.2
  9
$TRACEWID
 40
0.05
  9
$TEXTSTYLE
  7
Standard
  9
$CLAYER
  8
0
  9
$CELTYPE
  6
ByLayer
  9
$CECOLOR
 62
   256
  9
$CELTSCALE
 40
1.0
  9
$DISPSILH
 70
     0
  9
$DIMSCALE
 40
1.0
  9
$DIMASZ
 40
0.18
  9
$DIMEXO
 40
0.0625
  9
$DIMDLI
 40
0.38
  9
$DIMRND
 40
0.0
  9
$DIMDLE
 40
0.0
  9
$DIMEXE
 40
0.18
  9
$DIMTP
 40
0.0
  9
$DIMTM
 40
0.0
  9
$DIMTXT
 40
0.18
  9
$DIMCEN
 40
0.09
  9
$DIMTSZ
 40
0.0
  9
$DIMTOL
 70
     0
  9
$DIMLIM
 70
     0
  9
$DIMTIH
 70
     1
  9
$DIMTOH
 70
     1
  9
$DIMSE1
 70
     0
  9
$DIMSE2
 70
     0
  9
$DIMTAD
 70
     0
  9
$DIMZIN
 70
     0
  9
$DIMBLK
  1

  9
$DIMASO
 70
     1
  9
$DIMSHO
 70
     1
  9
$DIMPOST
  1

  9
$DIMAPOST
  1

  9
$DIMALT
 70
     0
  9
$DIMALTD
 70
     2
  9
$DIMALTF
 40
25.4
  9
$DIMLFAC
 40
1.0
  9
$DIMTOFL
 70
     0
  9
$DIMTVP
 40
0.0
  9
$DIMTIX
 70
     0
  9
$DIMSOXD
 70
     0
  9
$DIMSAH
 70
     0
  9
$DIMBLK1
  1

  9
$DIMBLK2
  1

  9
$DIMSTYLE
  2
Standard
  9
$DIMCLRD
 70
     0
  9
$DIMCLRE
 70
     0
  9
$DIMCLRT
 70
     0
  9
$DIMTFAC
 40
1.0
  9
$DIMGAP
 40
0.09
  9
$DIMJUST
 70
     0
  9
$DIMSD1
 70
     0
  9
$DIMSD2
 70
     0
  9
$DIMTOLJ
 70
     1
  9
$DIMTZIN
 70
     0
  9
$DIMALTZ
 70
     0
  9
$DIMALTTZ
 70
     0
  9
$DIMUPT
 70
     0
  9
$DIMDEC
 70
     4
  9
$DIMTDEC
 70
     4
  9
$DIMALTU
 70
     2
  9
$DIMALTTD
 70
     2
  9
$DIMTXSTY
  7
Standard
  9
$DIMAUNIT
 70
     0
  9
$DIMADEC
 70
     0
  9
$DIMALTRND
 40
0.0
  9
$DIMAZIN
 70
     0
  9
$DIMDSEP
 70
    46
  9
$DIMATFIT
 70
     3
  9
$DIMFRAC
 70
     0
  9
$DIMLDRBLK
  1

  9
$DIMLUNIT
 70
     2
  9
$DIMLWD
 70
    -2
  9
$DIMLWE
 70
    -2
  9
$DIMTMOVE
 70
     0
  9
$LUNITS
 70
     2
  9
$LUPREC
 70
     4
  9
$SKETCHINC
 40
0.1
  9
$FILLETRAD
 40
0.0
  9
$AUNITS
 70
     0
  9
$AUPREC
 70
     0
  9
$MENU
  1
.
  9
$ELEVATION
 40
0.0
  9
$PELEVATION
 40
0.0
  9
$THICKNESS
 40
0.0
  9
$LIMCHECK
 70
     0
  9
$CHAMFERA
 40
0.0
  9
$CHAMFERB
 40
0.0
  9
$CHAMFERC
 40
0.0
  9
$CHAMFERD
 40
0.0
  9
$SKPOLY
 70
     0
  9
$TDCREATE
 40
2455511.356235336
  9
$TDUCREATE
 40
2455511.314568669
  9
$TDUPDATE
 40
2455511.356425822
  9
$TDUUPDATE
 40
2455511.314759155
  9
$TDINDWG
 40
0.0001906713
  9
$TDUSRTIMER
 40
0.0001906713
  9
$USRTIMER
 70
     1
  9
$ANGBASE
 50
0.0
  9
$ANGDIR
 70
     0
  9
$PDMODE
 70
     0
  9
$PDSIZE
 40
0.0
  9
$PLINEWID
 40
0.0
  9
$SPLFRAME
 70
     0
  9
$SPLINETYPE
 70
     6
  9
$SPLINESEGS
 70
     8
  9
$HANDSEED
  5
323
  9
$SURFTAB1
 70
     6
  9
$SURFTAB2
 70
     6
  9
$SURFTYPE
 70
     6
  9
$SURFU
 70
     6
  9
$SURFV
 70
     6
  9
$UCSBASE
  2

  9
$UCSNAME
  2

  9
$UCSORG
 10
0.0
 20
0.0
 30
0.0
  9
$UCSXDIR
 10
1.0
 20
0.0
 30
0.0
  9
$UCSYDIR
 10
0.0
 20
1.0
 30
0.0
  9
$UCSORTHOREF
  2

  9
$UCSORTHOVIEW
 70
     0
  9
$UCSORGTOP
 10
0.0
 20
0.0
 30
0.0
  9
$UCSORGBOTTOM
 10
0.0
 20
0.0
 30
0.0
  9
$UCSORGLEFT
 10
0.0
 20
0.0
 30
0.0
  9
$UCSORGRIGHT
 10
0.0
 20
0.0
 30
0.0
  9
$UCSORGFRONT
 10
0.0
 20
0.0
 30
0.0
  9
$UCSORGBACK
 10
0.0
 20
0.0
 30
0.0
  9
$PUCSBASE
  2

  9
$PUCSNAME
  2

  9
$PUCSORG
 10
0.0
 20
0.0
 30
0.0
  9
$PUCSXDIR
 10
1.0
 20
0.0
 30
0.0
  9
$PUCSYDIR
 10
0.0
 20
1.0
 30
0.0
  9
$PUCSORTHOREF
  2

  9
$PUCSORTHOVIEW
 70
     0
  9
$PUCSORGTOP
 10
0.0
 20
0.0
 30
0.0
  9
$PUCSORGBOTTOM
 10
0.0
 20
0.0
 30
0.0
  9
$PUCSORGLEFT
 10
0.0
 20
0.0
 30
0.0
  9
$PUCSORGRIGHT
 10
0.0
 20
0.0
 30
0.0
  9
$PUCSORGFRONT
 10
0.0
 20
0.0
 30
0.0
  9
$PUCSORGBACK
 10
0.0
 20
0.0
 30
0.0
  9
$USERI1
 70
     0
  9
$USERI2
 70
     0
  9
$USERI3
 70
     0
  9
$USERI4
 70
     0
  9
$USERI5
 70
     0
  9
$USERR1
 40
0.0
  9
$USERR2
 40
0.0
  9
$USERR3
 40
0.0
  9
$USERR4
 40
0.0
  9
$USERR5
 40
0.0
  9
$WORLDVIEW
 70
     1
  9
$SHADEDGE
 70
     3
  9
$SHADEDIF
 70
    70
  9
$TILEMODE
 70
     1
  9
$MAXACTVP
 70
    64
  9
$PINSBASE
 10
0.0
 20
0.0
 30
0.0
  9
$PLIMCHECK
 70
     0
  9
$PEXTMIN
 10
0.0
 20
0.0
 30
0.0
  9
$PEXTMAX
 10
0.0
 20
0.0
 30
0.0
  9
$PLIMMIN
 10
0.0
 20
0.0
  9
$PLIMMAX
 10
12.0
 20
9.0
  9
$UNITMODE
 70
     0
  9
$VISRETAIN
 70
     1
  9
$PLINEGEN
 70
     0
  9
$PSLTSCALE
 70
     1
  9
$TREEDEPTH
 70
  3020
  9
$CMLSTYLE
  2
Standard
  9
$CMLJUST
 70
     0
  9
$CMLSCALE
 40
1.0
  9
$PROXYGRAPHICS
 70
     1
  9
$MEASUREMENT
 70
     0
  9
$CELWEIGHT
370
    -1
  9
$ENDCAPS
280
     0
  9
$JOINSTYLE
280
     0
  9
$LWDISPLAY
290
     0
  9
$INSUNITS
 70
     1
  9
$HYPERLINKBASE
  1

  9
$STYLESHEET
  1

  9
$XEDIT
290
     1
  9
$CEPSNTYPE
380
     0
  9
$PSTYLEMODE
290
     1
  9
$FINGERPRINTGUID
  2
{28007C1D-B01B-48BC-A240-7EAE405569D5}
  9
$VERSIONGUID
  2
{AF854BAA-6EAC-42F3-8DAB-CC2983EF1172}
  9
$EXTNAMES
290
     1
  9
$PSVPSCALE
 40
0.0
  9
$OLESTARTUP
290
     0
  0
ENDSEC
  0
SECTION
  2
CLASSES
  0
CLASS
  1
ACDBDICTIONARYWDFLT
  2
AcDbDictionaryWithDefault
  3
ObjectDBX Classes
 90
        0
280
     0
281
     0
  0
CLASS
  1
ACDBPLACEHOLDER
  2
AcDbPlaceHolder
  3
ObjectDBX Classes
 90
        0
280
     0
281
     0
  0
CLASS
  1
LAYOUT
  2
AcDbLayout
  3
ObjectDBX Classes
 90
        0
280
     0
281
     0
  0
CLASS
  1
DICTIONARYVAR
  2
AcDbDictionaryVar
  3
ObjectDBX Classes
 90
        0
280
     0
281
     0
  0
CLASS
  1
TABLESTYLE
  2
AcDbTableStyle
  3
ObjectDBX Classes
 90
     4095
280
     0
281
     0
  0
CLASS
  1
MATERIAL
  2
AcDbMaterial
  3
ObjectDBX Classes
 90
     1153
280
     0
281
     0
  0
CLASS
  1
VISUALSTYLE
  2
AcDbVisualStyle
  3
ObjectDBX Classes
 90
     4095
280
     0
281
     0
  0
CLASS
  1
SCALE
  2
AcDbScale
  3
ObjectDBX Classes
 90
     1153
280
     0
281
     0
  0
CLASS
  1
MLEADERSTYLE
  2
AcDbMLeaderStyle
  3
ACDB_MLEADERSTYLE_CLASS
 90
     4095
280
     0
281
     0
  0
CLASS
  1
CELLSTYLEMAP
  2
AcDbCellStyleMap
  3
ObjectDBX Classes
 90
     1152
280
     0
281
     0
  0
ENDSEC
  0
SECTION
  2
TABLES
  0
TABLE
  2
VPORT
  5
8
330
0
100
AcDbSymbolTable
 70
     1
  0
VPORT
  5
94
330
8
100
AcDbSymbolTableRecord
100
AcDbViewportTableRecord
  2
*Active
 70
     0
 10
0.0
 20
0.0
 11
1.0
 21
1.0
 12
93.28115114105955
 22
239.3698019613069
 13
0.0
 23
0.0
 14
0.5
 24
0.5
 15
0.5
 25
0.5
 16
0.0
 26
0.0
 36
1.0
 17
0.0
 27
0.0
 37
0.0
 40
458.6095478754746
 41
1.148760330578512
 42
50.0
 43
0.0
 44
0.0
 50
0.0
 51
0.0
 71
     0
 72
  1000
 73
     1
 74
     3
 75
     0
 76
     0
 77
     0
 78
     0
281
     0
 65
     1
110
0.0
120
0.0
130
0.0
111
1.0
121
0.0
131
0.0
112
0.0
122
1.0
132
0.0
 79
     0
146
0.0
  0
ENDTAB
  0
TABLE
  2
LTYPE
  5
5
330
0
100
AcDbSymbolTable
 70
     1
  0
LTYPE
  5
14
330
5
100
AcDbSymbolTableRecord
100
AcDbLinetypeTableRecord
  2
ByBlock
 70
     0
  3

 72
    65
 73
     0
 40
0.0
  0
LTYPE
  5
15
330
5
100
AcDbSymbolTableRecord
100
AcDbLinetypeTableRecord
  2
ByLayer
 70
     0
  3

 72
    65
 73
     0
 40
0.0
  0
LTYPE
  5
16
330
5
100
AcDbSymbolTableRecord
100
AcDbLinetypeTableRecord
  2
Continuous
 70
     0
  3
Solid line
 72
    65
 73
     0
 40
0.0
  0
ENDTAB
  0
TABLE
  2
LAYER
  5
2
330
0
100
AcDbSymbolTable
 70
     5
  0
LAYER
  5
10
102
{ACAD_XDICTIONARY
360
E6
102
}
330
2
100
AcDbSymbolTableRecord
100
AcDbLayerTableRecord
  2
0
 70
     0
 62
     7
  6
Continuous
370
    -3
390
F
  0
LAYER
  5
174
102
{ACAD_XDICTIONARY
360
30B
102
}
330
2
100
AcDbSymbolTableRecord
100
AcDbLayerTableRecord
  2
Q
 70
     1
 62
     7
  6
Continuous
370
    -3
390
F
1001
AcAecLayerStandard
1000

1000

  0
LAYER
  5
175
102
{ACAD_XDICTIONARY
360
30D
102
}
330
2
100
AcDbSymbolTableRecord
100
AcDbLayerTableRecord
  2
QUOTE
 70
     0
 62
     7
  6
Continuous
370
    -3
390
F
1001
AcAecLayerStandard
1000

1000

  0
LAYER
  5
176
102
{ACAD_XDICTIONARY
360
30F
102
}
330
2
100
AcDbSymbolTableRecord
100
AcDbLayerTableRecord
  2
DISEGNO
 70
     0
 62
     1
  6
Continuous
370
    -3
390
F
  0
LAYER
  5
2D8
330
2
100
AcDbSymbolTableRecord
100
AcDbLayerTableRecord
  2
Defpoints
 70
     0
 62
     7
  6
Continuous
290
     0
370
    -3
390
F
  0
ENDTAB
  0
TABLE
  2
STYLE
  5
3
330
0
100
AcDbSymbolTable
 70
     2
  0
STYLE
  5
11
330
3
100
AcDbSymbolTableRecord
100
AcDbTextStyleTableRecord
  2
Standard
 70
     0
 40
0.0
 41
1.0
 50
0.0
 71
     0
 42
0.2
  3
txt.shx
  4

  0
STYLE
  5
DC
330
3
100
AcDbSymbolTableRecord
100
AcDbTextStyleTableRecord
  2
Annotativa
 70
     0
 40
0.0
 41
1.0
 50
0.0
 71
     0
 42
0.2
  3
txt.shx
  4

1001
AcadAnnotative
1000
AnnotativeData
1002
{
1070
     1
1070
     1
1002
}
  0
ENDTAB
  0
TABLE
  2
VIEW
  5
6
330
0
100
AcDbSymbolTable
 70
     1
  0
ENDTAB
  0
TABLE
  2
UCS
  5
7
330
0
100
AcDbSymbolTable
 70
     0
  0
ENDTAB
  0
TABLE
  2
APPID
  5
9
330
0
100
AcDbSymbolTable
 70
    14
  0
APPID
  5
12
330
9
100
AcDbSymbolTableRecord
100
AcDbRegAppTableRecord
  2
ACAD
 70
     0
  0
APPID
  5
DD
330
9
100
AcDbSymbolTableRecord
100
AcDbRegAppTableRecord
  2
AcadAnnoPO
 70
     0
  0
APPID
  5
DE
330
9
100
AcDbSymbolTableRecord
100
AcDbRegAppTableRecord
  2
AcadAnnotative
 70
     0
  0
APPID
  5
DF
330
9
100
AcDbSymbolTableRecord
100
AcDbRegAppTableRecord
  2
ACAD_DSTYLE_DIMJAG
 70
     0
  0
APPID
  5
E0
330
9
100
AcDbSymbolTableRecord
100
AcDbRegAppTableRecord
  2
ACAD_DSTYLE_DIMTALN
 70
     0
  0
APPID
  5
107
330
9
100
AcDbSymbolTableRecord
100
AcDbRegAppTableRecord
  2
ACAD_MLEADERVER
 70
     0
  0
APPID
  5
177
330
9
100
AcDbSymbolTableRecord
100
AcDbRegAppTableRecord
  2
VDEXTRAPARAM
 70
     0
  0
APPID
  5
178
330
9
100
AcDbSymbolTableRecord
100
AcDbRegAppTableRecord
  2
VD_TEMPHATCH
 70
     0
  0
APPID
  5
179
330
9
100
AcDbSymbolTableRecord
100
AcDbRegAppTableRecord
  2
AcAecLayerStandard
 70
     0
  0
APPID
  5
17A
330
9
100
AcDbSymbolTableRecord
100
AcDbRegAppTableRecord
  2
VD_EX_PRINTER_DWG_STYLE_SHEET
 70
     0
  0
APPID
  5
17B
330
9
100
AcDbSymbolTableRecord
100
AcDbRegAppTableRecord
  2
VD_EX_PRINTER_SIZEX
 70
     0
  0
APPID
  5
17C
330
9
100
AcDbSymbolTableRecord
100
AcDbRegAppTableRecord
  2
VD_EX_PRINTER_AVSIZEX
 70
     0
  0
APPID
  5
17D
330
9
100
AcDbSymbolTableRecord
100
AcDbRegAppTableRecord
  2
VD_EX_PRINTER_SIZEY
 70
     0
  0
APPID
  5
17E
330
9
100
AcDbSymbolTableRecord
100
AcDbRegAppTableRecord
  2
VD_EX_PRINTER_AVSIZEY
 70
     0
  0
ENDTAB
  0
TABLE
  2
DIMSTYLE
  5
A
330
0
100
AcDbSymbolTable
 70
     2
100
AcDbDimStyleTable
 71
     2
340
27
340
E1
  0
DIMSTYLE
105
27
102
{ACAD_REACTORS
330
2C1
330
2C2
102
}
330
A
100
AcDbSymbolTableRecord
100
AcDbDimStyleTableRecord
  2
Standard
 70
     0
340
11
  0
DIMSTYLE
105
E1
330
A
100
AcDbSymbolTableRecord
100
AcDbDimStyleTableRecord
  2
Annotativa
 70
     0
 40
0.0
340
11
1001
AcadAnnotative
1000
AnnotativeData
1002
{
1070
     1
1070
     1
1002
}
1001
ACAD_DSTYLE_DIMJAG
1070
   388
1040
1.5
1001
ACAD_DSTYLE_DIMTALN
1070
   392
1070
     0
  0
ENDTAB
  0
TABLE
  2
BLOCK_RECORD
  5
1
330
0
100
AcDbSymbolTable
 70
     7
  0
BLOCK_RECORD
  5
1F
330
1
100
AcDbSymbolTableRecord
100
AcDbBlockTableRecord
  2
*Model_Space
340
22
  0
BLOCK_RECORD
  5
58
330
1
100
AcDbSymbolTableRecord
100
AcDbBlockTableRecord
  2
*Paper_Space
340
59
  0
BLOCK_RECORD
  5
5D
330
1
100
AcDbSymbolTableRecord
100
AcDbBlockTableRecord
  2
*Paper_Space0
340
5E
  0
BLOCK_RECORD
  5
14C
330
1
100
AcDbSymbolTableRecord
100
AcDbBlockTableRecord
  2
VDDIM_DEFAULT
340
0
  0
BLOCK_RECORD
  5
150
330
1
100
AcDbSymbolTableRecord
100
AcDbBlockTableRecord
  2
IEC_309_16-32
340
0
102
{BLKREFS
331
228
331
229
331
2D6
331
2D7
102
}
  0
BLOCK_RECORD
  5
168
330
1
100
AcDbSymbolTableRecord
100
AcDbBlockTableRecord
  2
*D3
340
0
  0
BLOCK_RECORD
  5
2D9
330
1
100
AcDbSymbolTableRecord
100
AcDbBlockTableRecord
  2
*D5
340
0
  0
BLOCK_RECORD
  5
2E6
330
1
100
AcDbSymbolTableRecord
100
AcDbBlockTableRecord
  2
*D6
340
0
  0
ENDTAB
  0
ENDSEC
  0
SECTION
  2
BLOCKS
  0
BLOCK
  5
20
330
1F
100
AcDbEntity
  8
0
100
AcDbBlockBegin
  2
*Model_Space
 70
     0
 10
0.0
 20
0.0
 30
0.0
  3
*Model_Space
  1

  0
ENDBLK
  5
21
330
1F
100
AcDbEntity
  8
0
100
AcDbBlockEnd
  0
BLOCK
  5
5A
330
58
100
AcDbEntity
 67
     1
  8
0
100
AcDbBlockBegin
  2
*Paper_Space
 70
     0
 10
0.0
 20
0.0
 30
0.0
  3
*Paper_Space
  1

  0
ENDBLK
  5
5B
330
58
100
AcDbEntity
 67
     1
  8
0
100
AcDbBlockEnd
  0
BLOCK
  5
5F
330
5D
100
AcDbEntity
 67
     1
  8
0
100
AcDbBlockBegin
  2
*Paper_Space0
 70
     0
 10
0.0
 20
0.0
 30
0.0
  3
*Paper_Space0
  1

  0
ENDBLK
  5
60
330
5D
100
AcDbEntity
 67
     1
  8
0
100
AcDbBlockEnd
  0
BLOCK
  5
14D
330
14C
100
AcDbEntity
  8
0
100
AcDbBlockBegin
  2
VDDIM_DEFAULT
 70
     0
 10
0.0
 20
0.0
 30
0.0
  3
VDDIM_DEFAULT
  1

  0
HATCH
  5
14E
330
14C
100
AcDbEntity
  8
0
  6
Continuous
 62
     0
370
    -2
100
AcDbHatch
 10
0.0
 20
0.0
 30
0.0
210
0.0
220
0.0
230
-1.0
  2
SOLID
 70
     1
 71
     0
 91
        1
 92
        2
 72
     0
 73
     1
 93
        3
 10
0.0
 20
0.0
 10
1.0
 20
-0.1665
 10
1.0
 20
0.1665
 97
        0
 75
     0
 76
     1
 98
        1
 10
0.0
 20
0.0
  0
ENDBLK
  5
14F
330
14C
100
AcDbEntity
  8
0
100
AcDbBlockEnd
  0
BLOCK
  5
151
330
150
100
AcDbEntity
  8
0
100
AcDbBlockBegin
  2
IEC_309_16-32
 70
     0
 10
0.0
 20
0.0
 30
0.0
  3
IEC_309_16-32
  1

  0
ARC
  5
152
330
150
100
AcDbEntity
  8
DISEGNO
 62
     7
100
AcDbCircle
 10
98.92437755000001
 20
101.22342337
 30
0.0
 40
10.45203864
100
AcDbArc
 50
0.0
 51
90.0
  0
ARC
  5
153
330
150
100
AcDbEntity
  8
DISEGNO
 62
     7
100
AcDbCircle
 10
98.92437755000001
 20
27.14615532
 30
0.0
 40
10.45203864
100
AcDbArc
 50
270.0
 51
0.0
  0
LINE
  5
154
330
150
100
AcDbEntity
  8
DISEGNO
 62
     7
100
AcDbLine
 10
29.37485018
 20
27.14615532
 30
0.0
 11
29.37485018
 21
101.22342337
 31
0.0
  0
ARC
  5
155
330
150
100
AcDbEntity
  8
DISEGNO
 62
     7
100
AcDbCircle
 10
39.82688883
 20
27.14615532
 30
0.0
 40
10.45203864
100
AcDbArc
 50
180.0
 51
270.0
  0
ARC
  5
156
330
150
100
AcDbEntity
  8
DISEGNO
 62
     7
100
AcDbCircle
 10
39.82688883
 20
101.22342337
 30
0.0
 40
10.45203864
100
AcDbArc
 50
90.0
 51
180.0
  0
LINE
  5
157
330
150
100
AcDbEntity
  8
DISEGNO
 62
     7
100
AcDbLine
 10
39.82688883
 20
111.67546202
 30
0.0
 11
98.92437755000001
 21
111.67546202
 31
0.0
  0
LINE
  5
158
330
150
100
AcDbEntity
  8
DISEGNO
 62
     7
100
AcDbLine
 10
109.3764162
 20
101.22342337
 30
0.0
 11
109.3764162
 21
27.14615532
 31
0.0
  0
LINE
  5
159
330
150
100
AcDbEntity
  8
Q
 62
     1
100
AcDbLine
 10
116.87657492
 20
16.69411667
 30
0.0
 11
21.87700654
 21
16.69411667
 31
0.0
  0
LINE
  5
15A
330
150
100
AcDbEntity
  8
Q
 62
     1
100
AcDbLine
 10
21.87700654
 20
123.30508831
 30
0.0
 11
116.87657492
 21
123.30508831
 31
0.0
  0
LINE
  5
15B
330
150
100
AcDbEntity
  8
Q
 62
     1
100
AcDbLine
 10
21.87700654
 20
16.69411667
 30
0.0
 11
21.87700654
 21
123.30508831
 31
0.0
  0
LINE
  5
15C
330
150
100
AcDbEntity
  8
Q
 62
     1
100
AcDbLine
 10
116.87657492
 20
16.69411667
 30
0.0
 11
116.87657492
 21
123.30508831
 31
0.0
  0
CIRCLE
  5
15D
330
150
100
AcDbEntity
  8
0
100
AcDbCircle
 10
39.68921445
 20
25.81853611
 30
0.0
 40
3.10602526
  0
CIRCLE
  5
15E
330
150
100
AcDbEntity
  8
0
100
AcDbCircle
 10
39.68921445
 20
102.32521579
 30
0.0
 40
3.10602526
  0
CIRCLE
  5
15F
330
150
100
AcDbEntity
  8
0
100
AcDbCircle
 10
99.11826150999999
 20
25.36875409
 30
0.0
 40
3.10602526
  0
CIRCLE
  5
160
330
150
100
AcDbEntity
  8
0
100
AcDbCircle
 10
99.11826150999999
 20
101.87543378
 30
0.0
 40
3.10602526
  0
LINE
  5
161
330
150
100
AcDbEntity
  8
Q
 62
     2
100
AcDbLine
 10
26.86858819
 20
21.83590155
 30
0.0
 11
111.88499327
 21
21.83590155
 31
0.0
  0
LINE
  5
162
330
150
100
AcDbEntity
  8
Q
 62
     2
100
AcDbLine
 10
111.88499327
 20
21.83590155
 30
0.0
 11
111.88499327
 21
117.08642104
 31
0.0
  0
LINE
  5
163
330
150
100
AcDbEntity
  8
Q
 62
     2
100
AcDbLine
 10
26.86858819
 20
117.08642104
 30
0.0
 11
26.86858819
 21
21.83590155
 31
0.0
  0
LINE
  5
164
330
150
100
AcDbEntity
  8
Q
 62
     2
100
AcDbLine
 10
70.12473491
 20
117.08642104
 30
0.0
 11
111.88499327
 21
117.08642104
 31
0.0
  0
LINE
  5
165
330
150
100
AcDbEntity
  8
Q
 62
     2
100
AcDbLine
 10
70.12473491
 20
117.08642104
 30
0.0
 11
26.86858819
 21
117.08642104
 31
0.0
  0
LINE
  5
166
330
150
100
AcDbEntity
  8
0
 62
     7
100
AcDbLine
 10
39.82688883
 20
16.69411667
 30
0.0
 11
98.92437755000001
 21
16.69411667
 31
0.0
  0
ENDBLK
  5
167
330
150
100
AcDbEntity
  8
0
100
AcDbBlockEnd
  0
BLOCK
  5
169
330
168
100
AcDbEntity
  8
0
100
AcDbBlockBegin
  2
*D3
 70
     0
 10
0.0
 20
0.0
 30
0.0
  3
*D3
  1

  0
LINE
  5
16A
330
168
100
AcDbEntity
  8
QUOTE
 62
     7
100
AcDbLine
 10
124.67367843
 20
17.61330469
 30
0.0
 11
124.67367843
 21
-12.35740657
 31
0.0
  0
LINE
  5
16B
330
168
100
AcDbEntity
  8
QUOTE
 62
     7
100
AcDbLine
 10
19.67367843
 20
17.67817502
 30
0.0
 11
19.67367843
 21
-12.35740657
 31
0.0
  0
LINE
  5
16C
330
168
100
AcDbEntity
  8
QUOTE
 62
     7
100
AcDbLine
 10
109.67367843
 20
-12.17740657
 30
0.0
 11
83.10196432999999
 21
-12.17740657
 31
0.0
  0
LINE
  5
16D
330
168
100
AcDbEntity
  8
QUOTE
 62
     7
100
AcDbLine
 10
34.67367843
 20
-12.17740657
 30
0.0
 11
61.25529766999999
 21
-12.17740657
 31
0.0
  0
LWPOLYLINE
  5
16E
102
{ACAD_REACTORS
330
16F
102
}
330
168
100
AcDbEntity
  8
QUOTE
 62
     7
100
AcDbPolyline
 90
        3
 70
     1
 43
0.0
 10
109.67367843
 20
-9.67740657
 10
109.67367843
 20
-14.67740657
 10
124.67367843
 20
-12.17740657
  0
HATCH
  5
16F
330
168
100
AcDbEntity
  8
QUOTE
 62
     7
100
AcDbHatch
 10
0.0
 20
0.0
 30
0.0
210
0.0
220
0.0
230
1.0
  2
SOLID
 70
     1
 71
     1
 91
        1
 92
        2
 72
     0
 73
     1
 93
        3
 10
109.67367843
 20
-9.67740657
 10
109.67367843
 20
-14.67740657
 10
124.67367843
 20
-12.17740657
 97
        1
330
16E
 75
     0
 76
     1
 98
        1
 10
0.0
 20
0.0
1001
VD_TEMPHATCH
1000
VD_TEMPHATCH
  0
LWPOLYLINE
  5
170
102
{ACAD_REACTORS
330
171
102
}
330
168
100
AcDbEntity
  8
QUOTE
 62
     7
100
AcDbPolyline
 90
        3
 70
     1
 43
0.0
 10
34.67367843
 20
-9.67740657
 10
34.67367843
 20
-14.67740657
 10
19.67367843
 20
-12.17740657
  0
HATCH
  5
171
330
168
100
AcDbEntity
  8
QUOTE
 62
     7
100
AcDbHatch
 10
0.0
 20
0.0
 30
0.0
210
0.0
220
0.0
230
1.0
  2
SOLID
 70
     1
 71
     1
 91
        1
 92
        2
 72
     0
 73
     1
 93
        3
 10
34.67367843
 20
-9.67740657
 10
34.67367843
 20
-14.67740657
 10
19.67367843
 20
-12.17740657
 97
        1
330
170
 75
     0
 76
     1
 98
        1
 10
0.0
 20
0.0
1001
VD_TEMPHATCH
1000
VD_TEMPHATCH
  0
MTEXT
  5
172
330
168
100
AcDbEntity
  8
QUOTE
 62
     7
100
AcDbMText
 10
72.17863100000001
 20
-12.17740657
 30
0.0
 40
10.0
 41
21.48123324
 71
     5
 72
     1
  1
\A1;105
 73
     1
 44
1.0
1001
ACAD
1000
MTEXTBEGIN
1070
    73
1070
     1
1070
    44
1040
1.0
1070
    74
1070
     0
1000
MTEXTEND
  0
ENDBLK
  5
173
330
168
100
AcDbEntity
  8
0
100
AcDbBlockEnd
  0
BLOCK
  5
2DA
330
2D9
100
AcDbEntity
  8
0
100
AcDbBlockBegin
  2
*D5
 70
     1
 10
0.0
 20
0.0
 30
0.0
  3
*D5
  1

  0
LINE
  5
2F3
330
2D9
100
AcDbEntity
  8
QUOTE
 62
     0
370
    -2
100
AcDbLine
 10
75.99633358605955
 20
466.7975927563069
 30
0.0
 11
35.29476626605964
 21
466.7975927563069
 31
0.0
  0
LINE
  5
2F4
330
2D9
100
AcDbEntity
  8
QUOTE
 62
     0
370
    -2
100
AcDbLine
 10
68.52503549605954
 20
36.79759275630687
 30
0.0
 11
35.29476626605954
 21
36.79759275630688
 31
0.0
  0
LINE
  5
2F5
330
2D9
100
AcDbEntity
  8
QUOTE
 62
     0
370
    -2
100
AcDbLine
 10
35.47476626605963
 20
451.7975927563069
 30
0.0
 11
35.47476626605959
 21
257.7198361163068
 31
0.0
  0
LINE
  5
2F6
330
2D9
100
AcDbEntity
  8
QUOTE
 62
     0
370
    -2
100
AcDbLine
 10
35.47476626605955
 20
51.79759275630687
 30
0.0
 11
35.47476626605959
 21
247.5398361163069
 31
0.0
  0
SOLID
  5
2F7
330
2D9
100
AcDbEntity
  8
QUOTE
 62
     0
100
AcDbTrace
 10
32.97476626605963
 20
451.7975927563069
 30
0.0
 11
37.97476626605963
 21
451.7975927563069
 31
0.0
 12
35.47476626605964
 22
466.7975927563069
 32
0.0
 13
35.47476626605964
 23
466.7975927563069
 33
0.0
  0
SOLID
  5
2F8
330
2D9
100
AcDbEntity
  8
QUOTE
 62
     0
100
AcDbTrace
 10
32.97476626605955
 20
51.79759275630687
 30
0.0
 11
37.97476626605955
 21
51.79759275630687
 31
0.0
 12
35.47476626605954
 22
36.79759275630688
 32
0.0
 13
35.47476626605954
 23
36.79759275630688
 33
0.0
  0
MTEXT
  5
2F9
330
2D9
100
AcDbEntity
  8
QUOTE
 62
     0
100
AcDbMText
 10
35.47476626605955
 20
252.6298361163069
 30
0.0
 40
10.0
 41
0.0
 71
     5
 72
     1
  1
\A1;430
 73
     1
 44
1.0
1001
ACAD
1000
MTEXTBEGIN
1070
    73
1070
     1
1070
    44
1040
1.0
1070
    74
1070
     0
1000
MTEXTEND
  0
POINT
  5
2FA
330
2D9
100
AcDbEntity
  8
Defpoints
 62
     0
100
AcDbPoint
 10
76.05883358605955
 20
466.7975927563069
 30
0.0
  0
POINT
  5
2FB
330
2D9
100
AcDbEntity
  8
Defpoints
 62
     0
100
AcDbPoint
 10
68.58753549605954
 20
36.79759275630687
 30
0.0
  0
POINT
  5
2FC
330
2D9
100
AcDbEntity
  8
Defpoints
 62
     0
100
AcDbPoint
 10
35.47476626605954
 20
36.79759275630688
 30
0.0
  0
ENDBLK
  5
2DB
330
2D9
100
AcDbEntity
  8
0
100
AcDbBlockEnd
  0
BLOCK
  5
2E7
330
2E6
100
AcDbEntity
  8
0
100
AcDbBlockBegin
  2
*D6
 70
     1
 10
0.0
 20
0.0
 30
0.0
  3
*D6
  1

  0
LINE
  5
2FD
330
2E6
100
AcDbEntity
  8
QUOTE
 62
     0
370
    -2
100
AcDbLine
 10
163.5875360160595
 20
46.73272242630686
 30
0.0
 11
163.5875360160595
 21
16.76201116630687
 31
0.0
  0
LINE
  5
2FE
330
2E6
100
AcDbEntity
  8
QUOTE
 62
     0
370
    -2
100
AcDbLine
 10
58.58753601605954
 20
46.79759275630686
 30
0.0
 11
58.58753601605954
 21
16.76201116630687
 31
0.0
  0
LINE
  5
2FF
330
2E6
100
AcDbEntity
  8
QUOTE
 62
     0
370
    -2
100
AcDbLine
 10
148.5875360160595
 20
16.94201116630687
 30
0.0
 11
122.0158219193929
 21
16.94201116630687
 31
0.0
  0
LINE
  5
300
330
2E6
100
AcDbEntity
  8
QUOTE
 62
     0
370
    -2
100
AcDbLine
 10
73.58753601605954
 20
16.94201116630687
 30
0.0
 11
100.1691552527262
 21
16.94201116630687
 31
0.0
  0
SOLID
  5
301
330
2E6
100
AcDbEntity
  8
QUOTE
 62
     0
100
AcDbTrace
 10
148.5875360160595
 20
19.44201116630687
 30
0.0
 11
148.5875360160595
 21
14.44201116630687
 31
0.0
 12
163.5875360160595
 22
16.94201116630687
 32
0.0
 13
163.5875360160595
 23
16.94201116630687
 33
0.0
  0
SOLID
  5
302
330
2E6
100
AcDbEntity
  8
QUOTE
 62
     0
100
AcDbTrace
 10
73.58753601605954
 20
19.44201116630687
 30
0.0
 11
73.58753601605954
 21
14.44201116630687
 31
0.0
 12
58.58753601605954
 22
16.94201116630687
 32
0.0
 13
58.58753601605954
 23
16.94201116630687
 33
0.0
  0
MTEXT
  5
303
330
2E6
100
AcDbEntity
  8
QUOTE
 62
     0
100
AcDbMText
 10
111.0924885860595
 20
16.94201116630687
 30
0.0
 40
10.0
 41
0.0
 71
     5
 72
     1
  1
\A1;105
 73
     1
 44
1.0
1001
ACAD
1000
MTEXTBEGIN
1070
    73
1070
     1
1070
    44
1040
1.0
1070
    74
1070
     0
1000
MTEXTEND
  0
POINT
  5
304
330
2E6
100
AcDbEntity
  8
Defpoints
 62
     0
100
AcDbPoint
 10
163.5875360160595
 20
46.79522242630687
 30
0.0
  0
POINT
  5
305
330
2E6
100
AcDbEntity
  8
Defpoints
 62
     0
100
AcDbPoint
 10
58.58753601605954
 20
46.86009275630687
 30
0.0
  0
POINT
  5
306
330
2E6
100
AcDbEntity
  8
Defpoints
 62
     0
100
AcDbPoint
 10
58.58753601605954
 20
16.94201116630687
 30
0.0
  0
ENDBLK
  5
2E8
330
2E6
100
AcDbEntity
  8
0
100
AcDbBlockEnd
  0
ENDSEC
  0
SECTION
  2
ENTITIES
  0
LINE
  5
22E
330
1F
100
AcDbEntity
  8
0
 62
   253
 48
0.250333
370
    35
100
AcDbLine
 10
106.0808830160595
 20
433.4747167563068
 30
0.0
 11
116.0941890160595
 21
433.4747167563068
 31
0.0
  0
LINE
  5
22F
330
1F
100
AcDbEntity
  8
0
 62
   253
370
    35
100
AcDbLine
 10
161.1478390160595
 20
417.6242527563069
 30
0.0
 11
161.1304440160595
 21
327.5126507563069
 31
0.0
  0
ARC
  5
230
330
1F
100
AcDbEntity
  8
0
 62
     7
370
    35
100
AcDbCircle
 10
160.4032710160595
 20
326.6879737563069
 30
0.0
 40
3.001954
100
AcDbArc
 50
274.547838
 51
281.901903
  0
LINE
  5
231
330
1F
100
AcDbEntity
  8
0
 62
     7
 48
0.035165
370
    35
100
AcDbLine
 10
159.2391470160595
 20
323.5839397563069
 30
0.0
 11
160.6413080160595
 21
323.6954807563069
 31
0.0
  0
LINE
  5
232
330
1F
100
AcDbEntity
  8
0
 62
   253
 48
0.273236
370
    35
100
AcDbLine
 10
105.6228140160595
 20
338.2975927563069
 30
0.0
 11
116.5522580160595
 21
338.2975927563069
 31
0.0
  0
LINE
  5
233
330
1F
100
AcDbEntity
  8
0
 62
   253
370
    35
100
AcDbLine
 10
83.73502701605955
 20
336.9952557563069
 30
0.0
 11
138.4400140160595
 21
336.9952557563069
 31
0.0
  0
LINE
  5
234
330
1F
100
AcDbEntity
  8
0
 62
   253
370
    35
100
AcDbLine
 10
133.4372670160595
 20
326.5126807563068
 30
0.0
 11
61.99561701605955
 21
326.5126807563068
 31
0.0
  0
LINE
  5
235
330
1F
100
AcDbEntity
  8
0
 62
   253
370
    35
100
AcDbLine
 10
60.96842601605955
 20
432.4747477563069
 30
0.0
 11
60.96842601605955
 21
327.5399027563069
 31
0.0
  0
ARC
  5
236
330
1F
100
AcDbEntity
  8
0
 62
   253
370
    35
100
AcDbCircle
 10
61.99561701605955
 20
327.5399027563069
 30
0.0
 40
1.027203
100
AcDbArc
 50
180.0
 51
270.0
  0
LINE
  5
237
330
1F
100
AcDbEntity
  8
0
 62
     7
 48
0.035165
370
    35
100
AcDbLine
 10
62.93592501605955
 20
323.5839397563069
 30
0.0
 11
61.53376401605955
 21
323.6954807563069
 31
0.0
  0
ARC
  5
238
330
1F
100
AcDbEntity
  8
0
 62
     7
370
    35
100
AcDbCircle
 10
61.77177101605955
 20
326.6879737563069
 30
0.0
 40
3.001954
100
AcDbArc
 50
258.09812
 51
265.452184
  0
LINE
  5
239
330
1F
100
AcDbEntity
  8
0
 62
   253
 48
0.063625
370
    35
100
AcDbLine
 10
158.5875360160595
 20
338.2975927563069
 30
0.0
 11
161.1325190160595
 21
338.2975927563069
 31
0.0
  0
LINE
  5
23A
330
1F
100
AcDbEntity
  8
0
 62
   253
 48
0.063618
370
    35
100
AcDbLine
 10
158.5875360160595
 20
336.9890607563069
 30
0.0
 11
161.1322750160595
 21
336.9890607563069
 31
0.0
  0
LINE
  5
23B
330
1F
100
AcDbEntity
  8
0
 62
   253
 48
0.065478
370
    35
100
AcDbLine
 10
63.58753601605954
 20
338.2975927563069
 30
0.0
 11
60.96842601605955
 21
338.2975927563069
 31
0.0
  0
LINE
  5
23C
330
1F
100
AcDbEntity
  8
0
 62
   253
 48
0.065478
370
    35
100
AcDbLine
 10
63.58753601605954
 20
336.9890607563069
 30
0.0
 11
60.96842601605955
 21
336.9890607563069
 31
0.0
  0
LINE
  5
23D
330
1F
100
AcDbEntity
  8
0
 62
     7
370
    35
100
AcDbLine
 10
159.2391470160595
 20
46.79759275630686
 30
0.0
 11
159.2391470160595
 21
322.5877537563068
 31
0.0
  0
LINE
  5
23E
330
1F
100
AcDbEntity
  8
0
 62
     7
370
    35
100
AcDbLine
 10
62.93592501605955
 20
46.76817375630687
 30
0.0
 11
62.93592501605955
 21
322.5877537563068
 31
0.0
  0
LINE
  5
23F
330
1F
100
AcDbEntity
  8
0
 62
     7
 48
0.024905
370
    35
100
AcDbLine
 10
62.93592501605955
 20
322.5877537563068
 30
0.0
 11
62.93592501605955
 21
323.5839397563069
 31
0.0
  0
LINE
  5
240
330
1F
100
AcDbEntity
  8
0
 62
     7
 48
0.024905
370
    35
100
AcDbLine
 10
159.2391470160595
 20
322.5877537563068
 30
0.0
 11
159.2391470160595
 21
323.5839397563069
 31
0.0
  0
LINE
  5
241
330
1F
100
AcDbEntity
  8
0
 62
     7
 48
0.00835
370
    35
100
AcDbLine
 10
62.93055401605954
 20
46.43423575630687
 30
0.0
 11
62.93592501605955
 21
46.76817375630687
 31
0.0
  0
LINE
  5
242
330
1F
100
AcDbEntity
  8
0
 62
     7
 48
0.009085
370
    35
100
AcDbLine
 10
159.2445180160595
 20
46.43423575630687
 30
0.0
 11
159.2391470160595
 21
46.79759275630686
 31
0.0
  0
LINE
  5
243
330
1F
100
AcDbEntity
  8
0
 62
   253
370
    35
100
AcDbLine
 10
133.4372670160595
 20
326.5126807563068
 30
0.0
 11
160.1304440160595
 21
326.5126807563068
 31
0.0
  0
LINE
  5
244
330
1F
100
AcDbEntity
  8
0
 62
   253
370
    13
100
AcDbLine
 10
62.04459801605955
 20
326.5126807563068
 30
0.0
 11
88.73777401605954
 21
326.5126807563068
 31
0.0
  0
ARC
  5
245
330
1F
100
AcDbEntity
  8
0
 62
   253
370
    35
100
AcDbCircle
 10
160.1304440160595
 20
327.5126807563069
 30
0.0
 40
0.9999769999999999
100
AcDbArc
 50
270.0009260000001
 51
359.999108
  0
LINE
  5
246
330
1F
100
AcDbEntity
  8
0
 62
   253
 48
0.413295
370
    13
100
AcDbLine
 10
161.1304440160595
 20
344.0444497563069
 30
0.0
 11
161.1304440160595
 21
327.5126507563069
 31
0.0
  0
LINE
  5
247
330
1F
100
AcDbEntity
  8
0
 62
   253
 48
0.205375
370
    35
100
AcDbLine
 10
161.1478390160595
 20
425.6750037563068
 30
0.0
 11
161.1478390160595
 21
417.4600077563068
 31
0.0
  0
LINE
  5
248
330
1F
100
AcDbEntity
  8
0
 62
     7
 48
0.290076
370
    35
100
AcDbLine
 10
145.5875360160595
 20
447.4006207563069
 30
0.0
 11
145.5875360160595
 21
435.7975927563069
 31
0.0
  0
ARC
  5
249
330
1F
100
AcDbEntity
  8
0
 62
     7
370
    35
100
AcDbCircle
 10
144.0875360160595
 20
435.7975927563069
 30
0.0
 40
1.5
100
AcDbArc
 50
270.0
 51
0.0
  0
LINE
  5
24A
330
1F
100
AcDbEntity
  8
0
 62
   253
370
    35
100
AcDbLine
 10
120.0875360160595
 20
434.2975927563069
 30
0.0
 11
144.0875360160595
 21
434.2975927563069
 31
0.0
  0
ARC
  5
24B
330
1F
100
AcDbEntity
  8
0
 62
     7
370
    35
100
AcDbCircle
 10
120.0875360160595
 20
435.7975927563069
 30
0.0
 40
1.5
100
AcDbArc
 50
180.0
 51
270.0
  0
LINE
  5
24C
330
1F
100
AcDbEntity
  8
0
 62
     7
 48
0.290076
370
    35
100
AcDbLine
 10
118.5875360160595
 20
447.4006207563069
 30
0.0
 11
118.5875360160595
 21
435.7975927563069
 31
0.0
  0
LINE
  5
24D
330
1F
100
AcDbEntity
  8
0
 62
     7
370
    35
100
AcDbLine
 10
62.93592501605955
 20
323.5839397563069
 30
0.0
 11
159.2391470160595
 21
323.5839397563069
 31
0.0
  0
LINE
  5
24E
330
1F
100
AcDbEntity
  8
0
 62
   253
370
    35
100
AcDbLine
 10
106.0808830160595
 20
433.4747167563068
 30
0.0
 11
61.96839501605954
 21
433.4747167563068
 31
0.0
  0
LINE
  5
24F
330
1F
100
AcDbEntity
  8
0
 62
   253
370
    35
100
AcDbLine
 10
160.2066770160595
 20
433.4747167563068
 30
0.0
 11
116.0941890160595
 21
433.4747167563068
 31
0.0
  0
LINE
  5
250
330
1F
100
AcDbEntity
  8
0
 62
     7
 48
0.034421
370
    35
100
AcDbLine
 10
161.7526970160595
 20
437.0149387563068
 30
0.0
 11
160.5603140160595
 21
437.7033547563069
 31
0.0
  0
ARC
  5
251
330
1F
100
AcDbEntity
  8
0
 62
     7
370
    35
100
AcDbCircle
 10
161.0603750160595
 20
438.5695657563068
 30
0.0
 40
1.000180999999999
100
AcDbArc
 50
180.005036
 51
240.0018949999999
  0
LINE
  5
252
330
1F
100
AcDbEntity
  8
0
 62
     7
 48
0.220779
370
    35
100
AcDbLine
 10
160.0601920160595
 20
447.4006207563069
 30
0.0
 11
160.0601920160595
 21
438.5694737563068
 31
0.0
  0
LINE
  5
253
330
1F
100
AcDbEntity
  8
0
 62
     7
370
    35
100
AcDbLine
 10
153.5875360160595
 20
463.4000097563069
 30
0.0
 11
68.58753601605954
 21
463.4000097563069
 31
0.0
  0
LINE
  5
254
330
1F
100
AcDbEntity
  8
0
 62
     7
 48
0.084924
370
    35
100
AcDbLine
 10
145.5875360160595
 20
447.4006207563069
 30
0.0
 11
145.5875360160595
 21
450.7975927563069
 31
0.0
  0
LINE
  5
255
330
1F
100
AcDbEntity
  8
0
 62
     7
 48
0.000549
370
    13
100
AcDbLine
 10
145.5655630160595
 20
450.7975927563069
 30
0.0
 11
145.5875360160595
 21
450.7975927563069
 31
0.0
  0
LINE
  5
256
330
1F
100
AcDbEntity
  8
0
 62
     7
 48
0.084924
370
    35
100
AcDbLine
 10
118.5875360160595
 20
450.7975927563069
 30
0.0
 11
118.5875360160595
 21
447.4006207563069
 31
0.0
  0
LINE
  5
257
330
1F
100
AcDbEntity
  8
0
 62
     7
 48
0.220779
370
    35
100
AcDbLine
 10
62.11488001605954
 20
438.5694737563068
 30
0.0
 11
62.11488001605954
 21
447.4006207563069
 31
0.0
  0
ARC
  5
258
330
1F
100
AcDbEntity
  8
0
 62
     7
370
    35
100
AcDbCircle
 10
61.11469701605955
 20
438.5695657563068
 30
0.0
 40
1.000180999999999
100
AcDbArc
 50
299.998134
 51
359.99501
  0
LINE
  5
259
330
1F
100
AcDbEntity
  8
0
 62
     7
 48
0.034421
370
    35
100
AcDbLine
 10
61.61475801605956
 20
437.7033547563069
 30
0.0
 11
60.42237501605955
 21
437.0149387563068
 31
0.0
  0
LINE
  5
25A
330
1F
100
AcDbEntity
  8
0
 62
     7
370
    13
100
AcDbLine
 10
163.4053460160595
 20
326.6897437563068
 30
0.0
 11
163.4053460160595
 21
434.3286597563068
 31
0.0
  0
ARC
  5
25B
330
1F
100
AcDbEntity
  8
0
 62
     7
370
    13
100
AcDbCircle
 10
160.4054070160595
 20
434.3287517563068
 30
0.0
 40
2.99994
100
AcDbArc
 50
359.998043
 51
59.99978999999997
  0
LINE
  5
25C
330
1F
100
AcDbEntity
  8
0
 62
     7
 48
0.004408
370
    35
100
AcDbLine
 10
161.9054070160595
 20
436.9267737563068
 30
0.0
 11
161.7526970160595
 21
437.0149387563068
 31
0.0
  0
LINE
  5
25D
330
1F
100
AcDbEntity
  8
0
 62
     7
370
    13
100
AcDbLine
 10
58.76969501605955
 20
326.6897437563068
 30
0.0
 11
58.76969501605955
 21
434.3286597563068
 31
0.0
  0
ARC
  5
25E
330
1F
100
AcDbEntity
  8
0
 62
     7
370
    35
100
AcDbCircle
 10
1562.021862016059
 20
447.8872837563068
 30
0.0
 40
1401.961548
100
AcDbArc
 50
179.635847
 51
180.019898
  0
ARC
  5
25F
330
1F
100
AcDbEntity
  8
0
 62
     7
370
    35
100
AcDbCircle
 10
120.0875360160595
 20
450.7975927563069
 30
0.0
 40
1.5
100
AcDbArc
 50
90.0
 51
180.0
  0
LINE
  5
260
330
1F
100
AcDbEntity
  8
0
 62
     7
370
    35
100
AcDbLine
 10
144.0875360160595
 20
452.2975927563069
 30
0.0
 11
120.0875360160595
 21
452.2975927563069
 31
0.0
  0
ARC
  5
261
330
1F
100
AcDbEntity
  8
0
 62
     7
370
    35
100
AcDbCircle
 10
144.0875360160595
 20
450.7975927563069
 30
0.0
 40
1.5
100
AcDbArc
 50
0.0
 51
90.0
  0
ARC
  5
262
330
1F
100
AcDbEntity
  8
0
 62
     7
370
    35
100
AcDbCircle
 10
-1339.64903598394
 20
447.8868877563069
 30
0.0
 40
1401.763672
100
AcDbArc
 50
359.9801479999999
 51
0.3642199999999562
  0
LINE
  5
263
330
1F
100
AcDbEntity
  8
0
 62
     7
 48
0.004408
370
    35
100
AcDbLine
 10
60.26966501605954
 20
436.9267737563068
 30
0.0
 11
60.42237501605955
 21
437.0149387563068
 31
0.0
  0
ARC
  5
264
330
1F
100
AcDbEntity
  8
0
 62
     7
370
    13
100
AcDbCircle
 10
61.76963401605955
 20
434.3287517563068
 30
0.0
 40
2.99994
100
AcDbArc
 50
120.5355450000001
 51
180.0019619999999
  0
LINE
  5
265
330
1F
100
AcDbEntity
  8
0
 62
     7
 48
0.000701
370
    35
100
AcDbLine
 10
60.26966501605954
 20
436.9267737563068
 30
0.0
 11
60.24546401605955
 21
436.9126447563068
 31
0.0
  0
ARC
  5
266
330
1F
100
AcDbEntity
  8
0
 62
     7
370
    35
100
AcDbCircle
 10
68.58753601605954
 20
46.79759275630686
 30
0.0
 40
4.363449
100
AcDbArc
 50
118.647885
 51
131.457072
  0
ARC
  5
267
330
1F
100
AcDbEntity
  8
0
 62
     7
370
    35
100
AcDbCircle
 10
68.57044601605955
 20
46.81129575630687
 30
0.0
 40
4.341486999999999
100
AcDbArc
 50
131.4078539999999
 51
241.636606
  0
ARC
  5
268
330
1F
100
AcDbEntity
  8
0
 62
     7
370
    35
100
AcDbCircle
 10
68.58753601605954
 20
46.83873075630687
 30
0.0
 40
4.374038999999999
100
AcDbArc
 50
241.610432
 51
298.3895970000001
  0
ARC
  5
269
330
1F
100
AcDbEntity
  8
0
 62
     7
370
    35
100
AcDbCircle
 10
68.60523601605954
 20
46.81106675630687
 30
0.0
 40
4.340888999999999
100
AcDbArc
 50
298.357638
 51
26.54427199999994
  0
ARC
  5
26A
330
1F
100
AcDbEntity
  8
0
 62
     7
370
    35
100
AcDbCircle
 10
68.59574501605955
 20
46.80636675630687
 30
0.0
 40
4.351417999999999
100
AcDbArc
 50
26.54360800000003
 51
48.54753000000001
  0
LINE
  5
26B
330
1F
100
AcDbEntity
  8
0
 62
     7
 48
0.000395
370
    35
100
AcDbLine
 10
71.47639101605955
 20
50.06779575630687
 30
0.0
 11
71.46455001605954
 21
50.07823275630688
 31
0.0
  0
ARC
  5
26C
330
1F
100
AcDbEntity
  8
0
 62
     7
370
    35
100
AcDbCircle
 10
68.58753601605954
 20
46.79759275630686
 30
0.0
 40
4.363449
100
AcDbArc
 50
48.75039700000002
 51
118.647885
  0
LINE
  5
26D
330
1F
100
AcDbEntity
  8
0
 62
     7
370
    35
100
AcDbLine
 10
153.5875360160595
 20
40.06817675630687
 30
0.0
 11
68.58753601605954
 21
40.06817675630687
 31
0.0
  0
LINE
  5
26E
330
1F
100
AcDbEntity
  8
0
 62
     7
370
    35
100
AcDbLine
 10
163.5875360160595
 20
456.7975927563069
 30
0.0
 11
163.5875360160595
 21
46.79759275630686
 31
0.0
  0
LINE
  5
26F
330
1F
100
AcDbEntity
  8
0
 62
     7
370
    35
100
AcDbLine
 10
153.5875360160595
 20
466.7975927563069
 30
0.0
 11
68.58753601605954
 21
466.7975927563069
 31
0.0
  0
LINE
  5
270
330
1F
100
AcDbEntity
  8
0
 62
     7
370
    35
100
AcDbLine
 10
58.58753601605954
 20
46.79759275630686
 30
0.0
 11
58.58753601605954
 21
456.7975927563069
 31
0.0
  0
ARC
  5
271
330
1F
100
AcDbEntity
  8
0
 62
     7
370
    35
100
AcDbCircle
 10
153.5875360160595
 20
46.79759275630686
 30
0.0
 40
10.0
100
AcDbArc
 50
270.0
 51
0.0
  0
ARC
  5
272
330
1F
100
AcDbEntity
  8
0
 62
     7
370
    35
100
AcDbCircle
 10
153.5875360160595
 20
456.7975927563069
 30
0.0
 40
10.0
100
AcDbArc
 50
0.0
 51
90.0
  0
ARC
  5
273
330
1F
100
AcDbEntity
  8
0
 62
     7
370
    35
100
AcDbCircle
 10
68.58753601605954
 20
456.7975927563069
 30
0.0
 40
10.0
100
AcDbArc
 50
90.0
 51
180.0
  0
ARC
  5
274
330
1F
100
AcDbEntity
  8
0
 62
     7
370
    35
100
AcDbCircle
 10
68.58753601605954
 20
46.79759275630686
 30
0.0
 40
10.0
100
AcDbArc
 50
180.0
 51
270.0
  0
LINE
  5
275
330
1F
100
AcDbEntity
  8
0
 62
     7
370
    35
100
AcDbLine
 10
68.58753601605954
 20
36.79759275630687
 30
0.0
 11
153.5875360160595
 21
36.79759275630687
 31
0.0
  0
ARC
  5
276
330
1F
100
AcDbEntity
  8
0
 62
     7
370
    35
100
AcDbCircle
 10
153.6046260160595
 20
46.81129575630687
 30
0.0
 40
4.341483
100
AcDbArc
 50
298.3633759999999
 51
48.59219600000004
  0
ARC
  5
277
330
1F
100
AcDbEntity
  8
0
 62
     7
370
    35
100
AcDbCircle
 10
153.5875360160595
 20
46.79759275630686
 30
0.0
 40
4.363449
100
AcDbArc
 50
48.54292999999999
 51
131.4569899999999
  0
CIRCLE
  5
278
330
1F
100
AcDbEntity
  8
0
 62
     7
370
    35
100
AcDbCircle
 10
153.5875360160595
 20
317.7975927563069
 30
0.0
 40
4.363449
  0
CIRCLE
  5
279
330
1F
100
AcDbEntity
  8
0
 62
     7
370
    35
100
AcDbCircle
 10
68.58753601605954
 20
317.7975927563069
 30
0.0
 40
4.363449
  0
ARC
  5
27A
330
1F
100
AcDbEntity
  8
0
 62
     7
370
    35
100
AcDbCircle
 10
153.5792960160595
 20
46.80638175630687
 30
0.0
 40
4.351414
100
AcDbArc
 50
131.4524679999999
 51
153.456415
  0
ARC
  5
27B
330
1F
100
AcDbEntity
  8
0
 62
     7
370
    35
100
AcDbCircle
 10
160.4032710160595
 20
326.6879737563069
 30
0.0
 40
3.001954
100
AcDbArc
 50
281.6830909999999
 51
0.0337970000000596
  0
ARC
  5
27C
330
1F
100
AcDbEntity
  8
0
 62
     7
370
    35
100
AcDbCircle
 10
61.77177101605955
 20
326.6879737563069
 30
0.0
 40
3.001952
100
AcDbArc
 50
179.9660859999999
 51
258.3168769999999
  0
LINE
  5
27D
330
1F
100
AcDbEntity
  8
0
 62
     7
370
    35
100
AcDbLine
 10
163.4054680160595
 20
326.6897437563068
 30
0.0
 11
163.4054680160595
 21
434.3286597563068
 31
0.0
  0
ARC
  5
27E
330
1F
100
AcDbEntity
  8
0
 62
     7
370
    35
100
AcDbCircle
 10
160.4054070160595
 20
434.3286297563069
 30
0.0
 40
3.000061
100
AcDbArc
 50
0.0002859999999616
 51
60.00020699999996
  0
LINE
  5
27F
330
1F
100
AcDbEntity
  8
0
 62
     7
370
    35
100
AcDbLine
 10
58.76963401605955
 20
326.6897437563068
 30
0.0
 11
58.76963401605955
 21
434.3286597563068
 31
0.0
  0
ARC
  5
280
330
1F
100
AcDbEntity
  8
0
 62
     7
370
    35
100
AcDbCircle
 10
61.76969501605955
 20
434.3286297563069
 30
0.0
 40
3.000061999999999
100
AcDbArc
 50
120.534998
 51
179.9997179999999
  0
CIRCLE
  5
281
330
1F
100
AcDbEntity
  8
0
 62
     7
370
    35
100
AcDbCircle
 10
153.5875360160595
 20
317.7975927563069
 30
0.0
 40
1.393407999999999
  0
CIRCLE
  5
282
330
1F
100
AcDbEntity
  8
0
 62
     7
370
    35
100
AcDbCircle
 10
153.5875360160595
 20
46.79759275630686
 30
0.0
 40
1.393407999999999
  0
CIRCLE
  5
283
330
1F
100
AcDbEntity
  8
0
 62
     7
370
    35
100
AcDbCircle
 10
68.58753601605954
 20
46.79759275630686
 30
0.0
 40
1.393407999999999
  0
CIRCLE
  5
284
330
1F
100
AcDbEntity
  8
0
 62
     7
370
    35
100
AcDbCircle
 10
68.58753601605954
 20
317.7975927563069
 30
0.0
 40
1.393407999999999
  0
CIRCLE
  5
285
330
1F
100
AcDbEntity
  8
0
 62
     7
370
    35
100
AcDbCircle
 10
153.5875360160595
 20
456.7975927563069
 30
0.0
 40
1.405629
  0
LINE
  5
286
330
1F
100
AcDbEntity
  8
0
 62
     7
370
    35
100
AcDbLine
 10
153.5875360160595
 20
466.7975927563069
 30
0.0
 11
68.58753601605954
 21
466.7975927563069
 31
0.0
  0
ARC
  5
287
330
1F
100
AcDbEntity
  8
0
 62
     7
370
    35
100
AcDbCircle
 10
153.5875360160595
 20
456.7975927563069
 30
0.0
 40
10.0
100
AcDbArc
 50
0.0
 51
90.0
  0
LINE
  5
288
330
1F
100
AcDbEntity
  8
0
 62
     7
370
    35
100
AcDbLine
 10
58.58753601605954
 20
46.79759275630686
 30
0.0
 11
58.58753601605954
 21
456.7975927563069
 31
0.0
  0
ARC
  5
289
330
1F
100
AcDbEntity
  8
0
 62
     7
370
    35
100
AcDbCircle
 10
68.58753601605954
 20
456.7975927563069
 30
0.0
 40
10.0
100
AcDbArc
 50
90.0
 51
180.0
  0
CIRCLE
  5
28A
330
1F
100
AcDbEntity
  8
0
 62
     7
370
    35
100
AcDbCircle
 10
68.58753601605954
 20
456.7975927563069
 30
0.0
 40
1.405629
  0
LINE
  5
28B
330
1F
100
AcDbEntity
  8
0
 62
   253
 48
0.4875
370
    35
100
AcDbLine
 10
139.0875360160595
 20
338.2975927563069
 30
0.0
 11
158.5875360160595
 21
338.2975927563069
 31
0.0
  0
LINE
  5
28C
330
1F
100
AcDbEntity
  8
0
 62
   253
 48
0.019812
370
    35
100
AcDbLine
 10
139.0875360160595
 20
338.2975927563069
 30
0.0
 11
138.2950560160595
 21
338.2975927563069
 31
0.0
  0
LINE
  5
28D
330
1F
100
AcDbEntity
  8
0
 62
   253
 48
0.305188
370
    35
100
AcDbLine
 10
138.2950560160595
 20
338.2975927563069
 30
0.0
 11
126.0875360160595
 21
338.2975927563069
 31
0.0
  0
LINE
  5
28E
330
1F
100
AcDbEntity
  8
0
 62
   253
 48
0.238382
370
    35
100
AcDbLine
 10
126.0875360160595
 20
338.2975927563069
 30
0.0
 11
116.5522580160595
 21
338.2975927563069
 31
0.0
  0
LINE
  5
28F
330
1F
100
AcDbEntity
  8
0
 62
   253
 48
0.238382
370
    35
100
AcDbLine
 10
105.6228140160595
 20
338.2975927563069
 30
0.0
 11
96.08753601605954
 21
338.2975927563069
 31
0.0
  0
LINE
  5
290
330
1F
100
AcDbEntity
  8
0
 62
   253
 48
0.305188
370
    35
100
AcDbLine
 10
96.08753601605954
 20
338.2975927563069
 30
0.0
 11
83.88001601605955
 21
338.2975927563069
 31
0.0
  0
LINE
  5
291
330
1F
100
AcDbEntity
  8
0
 62
   253
 48
0.019813
370
    35
100
AcDbLine
 10
83.88004701605956
 20
338.2975927563069
 30
0.0
 11
83.08753601605955
 21
338.2975927563069
 31
0.0
  0
LINE
  5
292
330
1F
100
AcDbEntity
  8
0
 62
   253
 48
0.4875
370
    35
100
AcDbLine
 10
63.58753601605954
 20
338.2975927563069
 30
0.0
 11
83.08753601605955
 21
338.2975927563069
 31
0.0
  0
ARC
  5
293
330
1F
100
AcDbEntity
  8
0
 62
   253
370
    35
100
AcDbCircle
 10
85.42353501605957
 20
342.4586347563069
 30
0.0
 40
1.835285999999999
100
AcDbArc
 50
131.5020009999999
 51
180.4376329999999
  0
ARC
  5
294
330
1F
100
AcDbEntity
  8
0
 62
   253
370
    35
100
AcDbCircle
 10
96.08149401605956
 20
330.2162937563069
 30
0.0
 40
18.067045
100
AcDbArc
 50
89.98080300000005
 51
131.088952
  0
LINE
  5
295
330
1F
100
AcDbEntity
  8
0
 62
   253
370
    35
100
AcDbLine
 10
96.08753601605954
 20
348.2837377563069
 30
0.0
 11
126.0875360160595
 21
348.2837377563069
 31
0.0
  0
ARC
  5
296
330
1F
100
AcDbEntity
  8
0
 62
   253
370
    35
100
AcDbCircle
 10
126.0935780160595
 20
330.2162937563069
 30
0.0
 40
18.067057
100
AcDbArc
 50
48.9110670000001
 51
90.01918900000006
  0
ARC
  5
297
330
1F
100
AcDbEntity
  8
0
 62
   253
370
    35
100
AcDbCircle
 10
136.7515370160595
 20
342.4586347563069
 30
0.0
 40
1.835286999999999
100
AcDbArc
 50
359.562413
 51
48.49799400000008
  0
LINE
  5
298
330
1F
100
AcDbEntity
  8
0
 62
   253
 48
0.091175
370
    35
100
AcDbLine
 10
83.58753601605954
 20
338.7975927563069
 30
0.0
 11
83.58753601605954
 21
342.4445957563069
 31
0.0
  0
LINE
  5
299
330
1F
100
AcDbEntity
  8
0
 62
   253
 48
0.091175
370
    35
100
AcDbLine
 10
138.5875360160595
 20
338.7975927563069
 30
0.0
 11
138.5875360160595
 21
342.4445957563069
 31
0.0
  0
ARC
  5
29A
330
1F
100
AcDbEntity
  8
0
 62
   253
370
    35
100
AcDbCircle
 10
139.0875360160595
 20
338.7975927563069
 30
0.0
 40
0.5
100
AcDbArc
 50
180.0
 51
270.0
  0
ARC
  5
29B
330
1F
100
AcDbEntity
  8
0
 62
   253
370
    35
100
AcDbCircle
 10
83.08753601605955
 20
338.7975927563069
 30
0.0
 40
0.5
100
AcDbArc
 50
270.0
 51
0.0
  0
LINE
  5
29C
330
1F
100
AcDbEntity
  8
0
 62
   253
 48
0.001339
370
    35
100
AcDbLine
 10
138.2700920160595
 20
336.7336887563068
 30
0.0
 11
138.2174800160595
 21
336.7237407563068
 31
0.0
  0
LINE
  5
29D
330
1F
100
AcDbEntity
  8
0
 62
   253
 48
0.003185
370
    35
100
AcDbLine
 10
138.2700920160595
 20
336.7336887563068
 30
0.0
 11
138.3974730160595
 21
336.7336887563068
 31
0.0
  0
LINE
  5
29E
330
1F
100
AcDbEntity
  8
0
 62
   253
 48
0.034277
370
    35
100
AcDbLine
 10
138.3974730160595
 20
336.7336887563068
 30
0.0
 11
139.7685660160595
 21
336.7336887563068
 31
0.0
  0
ARC
  5
29F
330
1F
100
AcDbEntity
  8
0
 62
   253
370
    35
100
AcDbCircle
 10
139.7146110160595
 20
336.1007237563068
 30
0.0
 40
0.6345380000000001
100
AcDbArc
 50
53.41975299999989
 51
85.12413500000008
  0
ARC
  5
2A0
330
1F
100
AcDbEntity
  8
0
 62
   253
370
    35
100
AcDbCircle
 10
82.46061301605953
 20
336.1003887563069
 30
0.0
 40
0.6348630000000001
100
AcDbArc
 50
94.88537700000007
 51
126.573159
  0
LINE
  5
2A1
330
1F
100
AcDbEntity
  8
0
 62
   253
 48
0.034277
370
    35
100
AcDbLine
 10
83.77756901605954
 20
336.7336887563068
 30
0.0
 11
82.40647501605954
 21
336.7336887563068
 31
0.0
  0
LINE
  5
2A2
330
1F
100
AcDbEntity
  8
0
 62
   253
 48
0.003186
370
    35
100
AcDbLine
 10
83.90501001605954
 20
336.7336887563068
 30
0.0
 11
83.77756901605954
 21
336.7336887563068
 31
0.0
  0
LINE
  5
2A3
330
1F
100
AcDbEntity
  8
0
 62
   253
 48
0.001338
370
    35
100
AcDbLine
 10
83.90501001605954
 20
336.7336887563068
 30
0.0
 11
83.95759201605955
 21
336.7237407563068
 31
0.0
  0
LINE
  5
2A4
330
1F
100
AcDbEntity
  8
0
 62
   253
370
    35
100
AcDbLine
 10
126.0875360160595
 20
333.7975927563069
 30
0.0
 11
96.08753601605954
 21
333.7975927563069
 31
0.0
  0
ARC
  5
2A5
330
1F
100
AcDbEntity
  8
0
 62
   253
370
    35
100
AcDbCircle
 10
126.0691640160595
 20
352.7779397563069
 30
0.0
 40
22.859152
100
AcDbArc
 50
270.045978
 51
280.4481109999999
  0
LINE
  5
2A6
330
1F
100
AcDbEntity
  8
0
 62
   253
370
    35
100
AcDbLine
 10
96.08753601605954
 20
329.9190227563069
 30
0.0
 11
126.0875360160595
 21
329.9190227563069
 31
0.0
  0
ARC
  5
2A7
330
1F
100
AcDbEntity
  8
0
 62
   253
370
    35
100
AcDbCircle
 10
96.10603001605955
 20
352.7771467563068
 30
0.0
 40
22.858364
100
AcDbArc
 50
259.551174
 51
269.9536889999999
  0
LINE
  5
2A8
330
1F
100
AcDbEntity
  8
0
 62
   253
 48
0.00058
370
    35
100
AcDbLine
 10
84.12455401605955
 20
336.6725017563068
 30
0.0
 11
84.14619101605955
 21
336.6641087563069
 31
0.0
  0
ARC
  5
2A9
330
1F
100
AcDbEntity
  8
0
 62
   253
370
    35
100
AcDbCircle
 10
83.70014601605955
 20
335.5893407563069
 30
0.0
 40
1.163277
100
AcDbArc
 50
68.60348599999993
 51
77.21468800000001
  0
LINE
  5
2AA
330
1F
100
AcDbEntity
  8
0
 62
   253
 48
0.000734
370
    35
100
AcDbLine
 10
84.14613001605955
 20
336.6639867563068
 30
0.0
 11
84.17344301605956
 21
336.6532447563069
 31
0.0
  0
LINE
  5
2AB
330
1F
100
AcDbEntity
  8
0
 62
   253
 48
0.002258
370
    35
100
AcDbLine
 10
84.66090001605953
 20
336.3531957563068
 30
0.0
 11
84.58967201605956
 21
336.4087377563069
 31
0.0
  0
ARC
  5
2AC
330
1F
100
AcDbEntity
  8
0
 62
   253
370
    35
100
AcDbCircle
 10
83.45438801605954
 20
334.9642497563069
 30
0.0
 40
1.836344
100
AcDbArc
 50
51.83522799999997
 51
66.93906399999997
  0
LINE
  5
2AD
330
1F
100
AcDbEntity
  8
0
 62
   253
 48
0.000595
370
    35
100
AcDbLine
 10
84.64231501605954
 20
336.3683327563069
 30
0.0
 11
84.66077801605955
 21
336.3533177563069
 31
0.0
  0
ARC
  5
2AE
330
1F
100
AcDbEntity
  8
0
 62
   253
370
    35
100
AcDbCircle
 10
138.7207150160595
 20
334.9642187563069
 30
0.0
 40
1.836392999999999
100
AcDbArc
 50
113.0612069999999
 51
128.164648
  0
LINE
  5
2AF
330
1F
100
AcDbEntity
  8
0
 62
   253
 48
0.002258
370
    35
100
AcDbLine
 10
137.5141720160595
 20
336.3531957563068
 30
0.0
 11
137.5854000160595
 21
336.4087377563069
 31
0.0
  0
LINE
  5
2B0
330
1F
100
AcDbEntity
  8
0
 62
   253
 48
0.000734
370
    35
100
AcDbLine
 10
138.0289420160595
 20
336.6639867563068
 30
0.0
 11
138.0015990160595
 21
336.6532447563069
 31
0.0
  0
ARC
  5
2B1
330
1F
100
AcDbEntity
  8
0
 62
   253
370
    35
100
AcDbCircle
 10
138.4750480160595
 20
335.5892187563069
 30
0.0
 40
1.163462999999999
100
AcDbArc
 50
102.7895800000001
 51
111.399395
  0
LINE
  5
2B2
330
1F
100
AcDbEntity
  8
0
 62
   253
 48
0.000579
370
    35
100
AcDbLine
 10
138.0504880160595
 20
336.6725017563068
 30
0.0
 11
138.0288810160595
 21
336.6641087563069
 31
0.0
  0
ARC
  5
2B3
330
1F
100
AcDbEntity
  8
0
 62
   253
370
    35
100
AcDbCircle
 10
126.0595820160595
 20
361.9611677563069
 30
0.0
 40
28.164162
100
AcDbArc
 50
270.0569340000001
 51
282.732071
  0
ARC
  5
2B4
330
1F
100
AcDbEntity
  8
0
 62
   253
370
    35
100
AcDbCircle
 10
96.11549001605954
 20
361.9612287563069
 30
0.0
 40
28.164249
100
AcDbArc
 50
257.2679850000001
 51
269.9430880000001
  0
ARC
  5
2B5
330
1F
100
AcDbEntity
  8
0
 62
   253
370
    35
100
AcDbCircle
 10
67.44056301605954
 20
20591.83091875631
 30
0.0
 40
20254.84375
100
AcDbArc
 50
269.9891240000001
 51
270.046115
  0
LINE
  5
2B6
330
1F
100
AcDbEntity
  8
0
 62
   253
 48
0.000595
370
    35
100
AcDbLine
 10
84.64231501605954
 20
336.3683327563069
 30
0.0
 11
84.66077801605955
 21
336.3533177563069
 31
0.0
  0
ARC
  5
2B7
330
1F
100
AcDbEntity
  8
0
 62
   253
370
    35
100
AcDbCircle
 10
154.7291380160595
 20
20585.48130875631
 30
0.0
 40
20248.492188
100
AcDbArc
 50
269.953907
 51
270.0109259999999
  0
LINE
  5
2B8
330
1F
100
AcDbEntity
  8
0
 62
     7
 48
0.070241
370
    13
100
AcDbLine
 10
159.2391470160595
 20
50.10455375630687
 30
0.0
 11
156.4295160160595
 21
50.10862775630688
 31
0.0
  0
LINE
  5
2B9
330
1F
100
AcDbEntity
  8
0
 62
     7
 48
0.074282
370
    13
100
AcDbLine
 10
65.90720801605954
 20
50.23992975630687
 30
0.0
 11
62.93592501605955
 21
50.24424875630687
 31
0.0
  0
LINE
  5
2BA
330
1F
100
AcDbEntity
  8
0
 62
     7
370
    13
100
AcDbLine
 10
150.7552000160595
 20
50.11686775630687
 30
0.0
 11
71.27891201605955
 21
50.23214775630687
 31
0.0
  0
LINE
  5
2BB
330
1F
100
AcDbEntity
  8
0
 62
     7
 48
0.361816
370
    13
100
AcDbLine
 10
160.0601920160595
 20
446.6494607563069
 30
0.0
 11
145.5875360160595
 21
446.6494607563069
 31
0.0
  0
LINE
  5
2BC
330
1F
100
AcDbEntity
  8
0
 62
     7
370
    13
100
AcDbLine
 10
62.11488001605954
 20
446.6494607563069
 30
0.0
 11
118.5875360160595
 21
446.6494607563069
 31
0.0
  0
LINE
  5
2BD
330
1F
100
AcDbEntity
  8
0
 62
     7
100
AcDbLine
 10
66.08753601605954
 20
407.3238832363069
 30
0.0
 11
66.08753601605954
 21
362.2713022763069
 31
0.0
  0
LINE
  5
2BE
330
1F
100
AcDbEntity
  8
0
 62
     7
100
AcDbLine
 10
66.08753601605954
 20
362.2713022763069
 30
0.0
 11
156.0875360160595
 21
362.2713022763069
 31
0.0
  0
LINE
  5
2BF
330
1F
100
AcDbEntity
  8
0
 62
     7
100
AcDbLine
 10
156.0875360160595
 20
362.2713022763069
 30
0.0
 11
156.0875360160595
 21
407.3238832363069
 31
0.0
  0
LINE
  5
2C0
330
1F
100
AcDbEntity
  8
0
 62
     7
100
AcDbLine
 10
156.0875360160595
 20
407.3238832363069
 30
0.0
 11
66.08753601605954
 21
407.3238832363069
 31
0.0
  0
DIMENSION
  5
2C1
330
1F
100
AcDbEntity
  8
QUOTE
 62
     7
100
AcDbDimension
  2
*D5
 10
35.47476626605954
 20
36.79759275630688
 30
0.0
 11
35.47476626605955
 21
252.6298361163069
 31
0.0
 70
   160
 71
     0
 42
430.0
  3
Standard
100
AcDbAlignedDimension
 13
76.05883358605955
 23
466.7975927563069
 33
0.0
 14
68.58753549605954
 24
36.79759275630687
 34
0.0
 50
90.0
100
AcDbRotatedDimension
1001
ACAD
1000
DSTYLE
1002
{
1070
    41
1040
15.0
1070
   140
1040
10.0
1070
    78
1070
     8
1070
   284
1070
     8
1002
}
  0
DIMENSION
  5
2C2
330
1F
100
AcDbEntity
  8
QUOTE
 62
     7
100
AcDbDimension
  2
*D6
 10
58.58753601605954
 20
16.94201116630687
 30
0.0
 11
111.0924885860595
 21
16.94201116630687
 31
0.0
 70
   160
 71
     0
 42
105.0
  3
Standard
100
AcDbAlignedDimension
 13
163.5875360160595
 23
46.79522242630687
 33
0.0
 14
58.58753601605954
 24
46.86009275630687
 34
0.0
100
AcDbRotatedDimension
1001
ACAD
1000
DSTYLE
1002
{
1070
    41
1040
15.0
1070
   140
1040
10.0
1070
    78
1070
     8
1070
   284
1070
     8
1002
}
  0
TEXT
  5
2C3
330
1F
100
AcDbEntity
  8
0
 62
     7
100
AcDbText
 10
75.42946844748811
 20
454.3240291063068
 30
0.0
 40
5.0
  1
GW68020N
 72
     1
 11
94.35803987605956
 21
454.3240291063068
 31
0.0
100
AcDbText
  0
LWPOLYLINE
  5
2C4
330
1F
100
AcDbEntity
  8
0
 62
   253
370
    35
100
AcDbPolyline
 90
        4
 70
     0
 43
0.0
 10
161.1478390160595
 20
425.6750037563068
 10
161.1650510160595
 20
430.4623877563068
 10
161.1840940160595
 20
431.9402627563069
 10
161.2066770160595
 20
432.4747477563069
  0
LWPOLYLINE
  5
2C5
330
1F
100
AcDbEntity
  8
0
 62
   253
370
    35
100
AcDbPolyline
 90
       12
 70
     0
 43
0.0
 10
161.2066770160595
 20
432.4747477563069
 10
161.1965450160595
 20
432.6163797563068
 10
161.1665150160595
 20
432.7551737563068
 10
161.1170770160595
 20
432.8883527563069
 10
161.0493280160595
 20
433.0131077563069
 10
160.9645500160595
 20
433.1270607563068
 10
160.8645140160595
 20
433.2278297563068
 10
160.7511710160595
 20
433.3134617563068
 10
160.6268430160595
 20
433.3821267563068
 10
160.4940910160595
 20
433.4324807563068
 10
160.3554800160595
 20
433.4635477563068
 10
160.2066770160595
 20
433.4747167563068
  0
LWPOLYLINE
  5
2C6
330
1F
100
AcDbEntity
  8
0
 62
   253
370
    35
100
AcDbPolyline
 90
       12
 70
     0
 43
0.0
 10
61.96839501605954
 20
433.4747167563068
 10
61.82673301605955
 20
433.4646157563069
 10
61.68793901605955
 20
433.4345557563068
 10
61.55479101605955
 20
433.3851477563069
 10
61.43000401605955
 20
433.3173687563069
 10
61.31605201605955
 20
433.2325907563069
 10
61.21528301605954
 20
433.1325537563068
 10
61.12968101605955
 20
433.0192117563068
 10
61.06101601605955
 20
432.8949137563069
 10
61.01063201605954
 20
432.7621317563068
 10
60.97956501605955
 20
432.6235817563068
 10
60.96842601605955
 20
432.4747477563069
  0
LWPOLYLINE
  5
2C7
330
1F
100
AcDbEntity
  8
0
 62
     7
370
    35
100
AcDbPolyline
 90
       47
 70
     0
 43
0.0
 10
70.69605701605954
 20
460.6572117563068
 10
70.15513201605955
 20
460.9032447563069
 10
69.87254001605954
 20
460.9988567563068
 10
69.58421001605955
 20
461.0753027563069
 10
69.29111901605955
 20
461.1323407563069
 10
68.99485401605955
 20
461.1696027563068
 10
68.69660601605954
 20
461.1869367563068
 10
68.39783901605954
 20
461.1841897563068
 10
68.09992601605955
 20
461.1614847563068
 10
67.80415001605955
 20
461.1188207563068
 10
67.51203601605955
 20
461.0564737563069
 10
67.22474301605955
 20
460.9746557563068
 10
66.94382901605955
 20
460.8737957563069
 10
66.67026901605955
 20
460.7542577563068
 10
66.40562101605954
 20
460.6168067563069
 10
66.15076801605955
 20
460.4617777563069
 10
65.90717701605955
 20
460.2901777563069
 10
65.67564001605955
 20
460.1025247563068
 10
65.45750101605955
 20
459.8998877563068
 10
65.25343001605955
 20
459.6830297563068
 10
65.06461701605954
 20
459.4530497563068
 10
64.89164401605954
 20
459.2108317563068
 10
64.73548501605955
 20
458.9576887563068
 10
64.59666101605956
 20
458.6944437563069
 10
64.47599401605955
 20
458.4226237563068
 10
64.37385201605954
 20
458.1431437563069
 10
64.29084401605955
 20
457.8575907563068
 10
64.22724501605955
 20
457.5668797563069
 10
64.18339201605954
 20
457.2727517563069
 10
64.15943501605955
 20
456.9761207563068
 10
64.15556001605955
 20
456.6786967563068
 10
64.17170301605955
 20
456.3815167563068
 10
64.20786701605955
 20
456.0861677563068
 10
64.26383601605954
 20
455.7937787563068
 10
64.33936701605955
 20
455.5059367563067
 10
64.43412401605954
 20
455.2237407563068
 10
64.54765001605955
 20
454.9485937563068
 10
64.67945501605955
 20
454.6816267563068
 10
64.82893001605955
 20
454.4241187563068
 10
64.99543401605954
 20
454.1772007563069
 10
65.17820401605955
 20
453.9420017563069
 10
65.37641501605955
 20
453.7195897563068
 10
65.58912301605954
 20
453.5109717563068
 10
65.81547201605954
 20
453.3170637563069
 10
66.05433301605954
 20
453.1388097563068
 10
66.30466901605955
 20
452.9769757563068
 10
66.45362501605955
 20
452.8915257563069
  0
LWPOLYLINE
  5
2C8
330
1F
100
AcDbEntity
  8
0
 62
     7
370
    35
100
AcDbPolyline
 90
       47
 70
     0
 43
0.0
 10
70.69605701605954
 20
460.6572117563068
 10
71.19321801605955
 20
460.3454137563069
 10
71.42850901605955
 20
460.1627667563068
 10
71.65104301605954
 20
459.9646467563068
 10
71.85950901605955
 20
459.7521827563069
 10
72.05329501605955
 20
459.5260777563068
 10
72.23127401605956
 20
459.2876447563069
 10
72.39283401605955
 20
459.0376137563068
 10
72.53706001605954
 20
458.7775127563069
 10
72.66349401605956
 20
458.5080727563068
 10
72.77140401605954
 20
458.2309727563068
 10
72.86045501605954
 20
457.9470067563069
 10
72.93012601605955
 20
457.6579137563069
 10
72.98017501605954
 20
457.3645487563068
 10
73.01029601605955
 20
457.0686807563069
 10
73.02045801605955
 20
456.7712567563069
 10
73.01054001605955
 20
456.4739847563068
 10
72.98060201605955
 20
456.1779027563068
 10
72.93082801605955
 20
455.8846287563068
 10
72.86137001605955
 20
455.5952617563068
 10
72.77262501605955
 20
455.3112347563068
 10
72.66492901605954
 20
455.0337687563069
 10
72.53876901605955
 20
454.7641457563068
 10
72.39472601605955
 20
454.5035557563068
 10
72.23347101605956
 20
454.2532207563068
 10
72.05570601605955
 20
454.0142067563068
 10
71.86222501605953
 20
453.7876747563068
 10
71.65391201605955
 20
453.5746007563068
 10
71.43171301605955
 20
453.3760227563068
 10
71.19660601605954
 20
453.1927347563068
 10
70.94974901605954
 20
453.0256817563069
 10
70.69212001605954
 20
452.8755657563068
 10
70.42499901605954
 20
452.7430887563069
 10
70.14954801605956
 20
452.6288307563069
 10
69.86704601605954
 20
452.5333717563069
 10
69.57877701605955
 20
452.4570477563068
 10
69.28599201605955
 20
452.4002537563068
 10
68.99006301605955
 20
452.3632667563068
 10
68.69227201605955
 20
452.3462377563069
 10
68.39402401605955
 20
452.3491987563069
 10
68.09666101605955
 20
452.3722087563069
 10
67.80149501605954
 20
452.4151157563068
 10
67.50989901605954
 20
452.4777687563068
 10
67.22315601605955
 20
452.5598307563068
 10
66.94263901605954
 20
452.6609657563068
 10
66.66953701605955
 20
452.7806867563068
 10
66.45362501605955
 20
452.8915257563069
  0
LWPOLYLINE
  5
2C9
330
1F
100
AcDbEntity
  8
0
 62
     7
370
    35
100
AcDbPolyline
 90
       47
 70
     0
 43
0.0
 10
151.4790150160595
 20
460.6572117563068
 10
150.9754750160595
 20
460.3407447563069
 10
150.7404900160596
 20
460.1577007563069
 10
150.5183220160595
 20
459.9591837563068
 10
150.3101920160595
 20
459.7463237563069
 10
150.1168330160595
 20
459.5198827563068
 10
149.9392820160595
 20
459.2811137563069
 10
149.7782100160595
 20
459.0308387563068
 10
149.6344110160595
 20
458.7704327563068
 10
149.5084340160595
 20
458.5008397563068
 10
149.4010740160596
 20
458.2234967563068
 10
149.3125120160595
 20
457.9394077563068
 10
149.2433590160595
 20
457.6501927563068
 10
149.1938590160595
 20
457.3567357563068
 10
149.1642570160595
 20
457.0608067563068
 10
149.1546140160595
 20
456.7633527563068
 10
149.1650510160595
 20
456.4661107563068
 10
149.1955070160595
 20
456.1700907563069
 10
149.2458610160595
 20
455.8768777563068
 10
149.3158070160595
 20
455.5876317563068
 10
149.4050410160595
 20
455.3037877563069
 10
149.5132560160595
 20
455.0265057563068
 10
149.6399040160595
 20
454.7571267563069
 10
149.7843740160595
 20
454.4967507563068
 10
149.9461180160595
 20
454.2467207563069
 10
150.1242790160595
 20
454.0080427563068
 10
150.3181880160595
 20
453.7818457563068
 10
150.5268670160595
 20
453.5691387563068
 10
150.7494010160595
 20
453.3709577563069
 10
150.9848750160595
 20
453.1880957563068
 10
151.2320060160595
 20
453.0214697563068
 10
151.4899410160595
 20
452.8718117563069
 10
151.7572750160595
 20
452.7398237563069
 10
152.0329100160595
 20
452.6260847563069
 10
152.3156240160595
 20
452.5310827563068
 10
152.6040150160595
 20
452.4553077563068
 10
152.8969230160595
 20
452.3990337563068
 10
153.1928830160595
 20
452.3625347563068
 10
153.4907340160595
 20
452.3460547563068
 10
153.7889520160595
 20
452.3495337563068
 10
154.0863150160595
 20
452.3730937563068
 10
154.3813590160595
 20
452.4165197563069
 10
154.6728630160595
 20
452.4796607563068
 10
154.9594230160595
 20
452.5622717563069
 10
155.2398190160595
 20
452.6638957563068
 10
155.5127070160595
 20
452.7841047563068
 10
155.7214470160595
 20
452.8915257563069
  0
LWPOLYLINE
  5
2CA
330
1F
100
AcDbEntity
  8
0
 62
     7
370
    35
100
AcDbPolyline
 90
       48
 70
     0
 43
0.0
 10
151.4790150160595
 20
460.6572117563068
 10
151.7478750160595
 20
460.7903907563069
 10
152.0249750160595
 20
460.9051367563068
 10
152.3076900160595
 20
461.0004127563069
 10
152.5961420160595
 20
461.0765237563068
 10
152.8892940160595
 20
461.1331947563069
 10
153.1856190160595
 20
461.1700907563069
 10
153.4838980160595
 20
461.1870587563069
 10
153.7826650160595
 20
461.1839757563068
 10
154.0805780160595
 20
461.1608747563068
 10
154.3762320160595
 20
461.1179057563068
 10
154.6682860160595
 20
461.0551617563069
 10
154.9554560160595
 20
460.9729777563067
 10
155.2362790160595
 20
460.8717817563068
 10
155.5097160160596
 20
460.7519387563069
 10
155.7741820160595
 20
460.6141217563068
 10
156.0288200160595
 20
460.4588177563068
 10
156.2721670160595
 20
460.2869117563068
 10
156.5034910160595
 20
460.0989847563068
 10
156.7213860160595
 20
459.8961037563068
 10
156.9251820160595
 20
459.6789407563067
 10
157.1137200160595
 20
459.4487767563069
 10
157.2864500160595
 20
459.2063457563068
 10
157.4422720160595
 20
458.9529887563069
 10
157.5807610160595
 20
458.6895607563068
 10
157.7011220160595
 20
458.4176187563068
 10
157.8028680160595
 20
458.1379857563068
 10
157.8855710160595
 20
457.8523417563068
 10
157.9488030160595
 20
457.5615697563068
 10
157.9923210160595
 20
457.2673807563069
 10
158.0158810160595
 20
456.9707497563069
 10
158.0194210160595
 20
456.6733257563068
 10
158.0028800160595
 20
456.3761147563068
 10
157.9663810160595
 20
456.0808567563068
 10
157.9100460160596
 20
455.7884987563069
 10
157.8341790160595
 20
455.5007787563068
 10
157.7390860160595
 20
455.2186747563069
 10
157.6251950160595
 20
454.9436497563069
 10
157.4930540160595
 20
454.6768657563068
 10
157.3432730160595
 20
454.4195417563068
 10
157.1764640160595
 20
454.1728367563068
 10
156.9934200160595
 20
453.9378517563068
 10
156.7949330160595
 20
453.7156837563068
 10
156.5819210160595
 20
453.5073097563069
 10
156.3553580160595
 20
453.3137067563068
 10
156.1162840160595
 20
453.1357277563069
 10
155.8657340160595
 20
452.9741677563069
 10
155.7214470160595
 20
452.8915257563069
  0
LWPOLYLINE
  5
2CB
330
1F
100
AcDbEntity
  8
0
 62
     7
370
    35
100
AcDbPolyline
 90
       30
 70
     0
 43
0.0
 10
153.5875360160595
 20
463.4000097563069
 10
153.9505120160595
 20
463.3856057563068
 10
154.3128170160595
 20
463.3512127563068
 10
154.6726190160595
 20
463.2968607563068
 10
155.0299800160595
 20
463.2225197563068
 10
155.3818480160595
 20
463.1287697563068
 10
155.7296870160595
 20
463.0151227563068
 10
156.0692250160595
 20
462.8829807563069
 10
156.4030880160595
 20
462.7312177563068
 10
156.7260860160595
 20
462.5621807563068
 10
157.0416990160595
 20
462.3739177563069
 10
157.3440670160595
 20
462.1699687563068
 10
157.6374020160595
 20
461.9474037563069
 10
157.9152950160595
 20
461.7110147563068
 10
158.1825680160595
 20
461.4566507563068
 10
158.4325070160595
 20
461.1906597563069
 10
158.6702390160595
 20
460.9074567563068
 10
158.8890500160595
 20
460.6150977563069
 10
159.0938840160595
 20
460.3067487563069
 10
159.2786370160595
 20
459.9917457563068
 10
159.4478270160595
 20
459.6622777563068
 10
159.5960810160595
 20
459.3287207563069
 10
159.7273070160595
 20
458.9824077563068
 10
159.8372920160595
 20
458.6345067563069
 10
159.9289060160595
 20
458.2758337563068
 10
159.9991570160596
 20
457.9179547563069
 10
160.0499990160595
 20
457.5514387563068
 10
160.0797240160595
 20
457.1880347563068
 10
160.0891840160595
 20
456.8182837563068
 10
160.0890620160595
 20
456.7975927563069
  0
LWPOLYLINE
  5
2CC
330
1F
100
AcDbEntity
  8
0
 62
     7
370
    35
100
AcDbPolyline
 90
       30
 70
     0
 43
0.0
 10
68.58753601605954
 20
463.4000097563069
 10
68.22422401605955
 20
463.3856057563068
 10
67.86179701605956
 20
463.3511517563069
 10
67.50202601605955
 20
463.2967997563069
 10
67.14478701605955
 20
463.2224587563069
 10
66.79285801605955
 20
463.1286787563068
 10
66.44501901605955
 20
463.0150007563068
 10
66.10545001605955
 20
462.8828287563067
 10
65.77155701605954
 20
462.7310037563069
 10
65.44858901605954
 20
462.5619367563068
 10
65.13297701605956
 20
462.3736427563068
 10
64.83063901605955
 20
462.1696937563068
 10
64.53730401605955
 20
461.9470987563069
 10
64.25941101605954
 20
461.7106787563068
 10
63.99223001605955
 20
461.4563757563068
 10
63.74235201605955
 20
461.1904157563068
 10
63.50480301605955
 20
460.9074567563068
 10
63.28605301605955
 20
460.6151587563068
 10
63.08128001605955
 20
460.3069927563068
 10
62.89658801605956
 20
459.9921117563068
 10
62.72742901605955
 20
459.6626747563068
 10
62.57911301605955
 20
459.3290867563069
 10
62.44779601605955
 20
458.9826207563069
 10
62.33781101605955
 20
458.6346287563068
 10
62.24616601605955
 20
458.2757117563069
 10
62.17585401605955
 20
457.9177097563068
 10
62.12504201605955
 20
457.5510107563068
 10
62.09531801605955
 20
457.1876377563069
 10
62.08591901605955
 20
456.8179787563068
 10
62.08601001605955
 20
456.7975927563069
  0
LWPOLYLINE
  5
2CD
330
1F
100
AcDbEntity
  8
0
 62
     7
370
    35
100
AcDbPolyline
 90
       28
 70
     0
 43
0.0
 10
153.5875360160595
 20
40.06817675630687
 10
153.9087640160595
 20
40.08209275630687
 10
154.2290150160595
 20
40.11604375630687
 10
154.5474360160595
 20
40.16999875630687
 10
154.8635370160595
 20
40.24400375630687
 10
155.1753660160595
 20
40.33769275630687
 10
155.4833490160595
 20
40.45134075630687
 10
155.7849240160595
 20
40.58413775630687
 10
156.0811880160595
 20
40.73677175630687
 10
156.3687250160595
 20
40.90768475630687
 10
156.6492430160595
 20
41.09814575630687
 10
156.9188960160595
 20
41.30574075630687
 10
157.1798820160595
 20
41.53244075630687
 10
157.4278070160595
 20
41.77475075630687
 10
157.6652950160595
 20
42.03552375630687
 10
157.8876460160595
 20
42.30993775630687
 10
158.0977290160595
 20
42.60186875630687
 10
158.2908440160595
 20
42.90516775630687
 10
158.4698600160595
 20
43.22456475630687
 10
158.6303220160595
 20
43.55273575630687
 10
158.7748530160595
 20
43.89523375630687
 10
158.8997920160595
 20
44.24372975630687
 10
159.0072140160595
 20
44.60441675630687
 10
159.0942500160595
 20
44.96814075630687
 10
159.1623650160595
 20
45.34141675630687
 10
159.2097890160595
 20
45.71470775630687
 10
159.2373160160595
 20
46.09458975630687
 10
159.2445180160595
 20
46.43423575630687
  0
LWPOLYLINE
  5
2CE
330
1F
100
AcDbEntity
  8
0
 62
     7
370
    35
100
AcDbPolyline
 90
       28
 70
     0
 43
0.0
 10
68.58753601605954
 20
40.06817675630687
 10
68.26640001605955
 20
40.08207775630687
 10
67.94620901605956
 20
40.11602875630687
 10
67.62778901605955
 20
40.16996875630687
 10
67.31168801605955
 20
40.24395875630687
 10
66.99985901605955
 20
40.33763175630687
 10
66.69184501605954
 20
40.45127975630687
 10
66.39027001605954
 20
40.58407675630687
 10
66.09406701605955
 20
40.73667975630686
 10
65.80653001605956
 20
40.90759375630687
 10
65.52598201605954
 20
41.09805375630687
 10
65.25629801605955
 20
41.30563475630687
 10
64.99531201605956
 20
41.53231875630686
 10
64.74738701605954
 20
41.77461375630687
 10
64.50989901605955
 20
42.03538575630687
 10
64.28751801605955
 20
42.30979975630687
 10
64.07743501605955
 20
42.60171575630687
 10
63.88428901605955
 20
42.90499975630686
 10
63.70533401605955
 20
43.22439675630687
 10
63.54481101605955
 20
43.55256775630687
 10
63.40025001605955
 20
43.89506575630687
 10
63.27531101605955
 20
44.24354675630687
 10
63.16791901605955
 20
44.60423375630687
 10
63.08088301605955
 20
44.96794175630687
 10
63.01273701605954
 20
45.34123275630687
 10
62.96528301605954
 20
45.71452375630687
 10
62.93772501605954
 20
46.09440675630686
 10
62.93055401605954
 20
46.43423575630687
  0
LWPOLYLINE
  5
2CF
330
1F
100
AcDbEntity
  8
0
 62
     7
370
    35
100
AcDbPolyline
 90
       38
 70
     0
 43
0.0
 10
155.6671870160595
 20
42.99078475630687
 10
155.4024160160595
 20
42.85894875630687
 10
155.1293450160595
 20
42.74537775630687
 10
154.8491330160595
 20
42.65052875630686
 10
154.5632440160595
 20
42.57487575630687
 10
154.2725950160595
 20
42.51867775630687
 10
153.9788930160595
 20
42.48225475630687
 10
153.6832390160595
 20
42.46577575630687
 10
153.3871580160595
 20
42.46931575630687
 10
153.0919310160595
 20
42.49287475630687
 10
152.7989620160595
 20
42.53634775630687
 10
152.5097160160596
 20
42.59953375630686
 10
152.2253530160595
 20
42.68214475630687
 10
151.9474600160595
 20
42.78376875630686
 10
151.6770140160595
 20
42.90400775630686
 10
151.4155390160595
 20
43.04217575630687
 10
151.1640130160595
 20
43.19780075630688
 10
150.9238400160595
 20
43.36994975630687
 10
150.6958120160595
 20
43.55806075630687
 10
150.4813350160595
 20
43.76100275630687
 10
150.2810170160595
 20
43.97811975630687
 10
150.0960810160595
 20
44.20811575630687
 10
149.9271970160595
 20
44.45019575630687
 10
149.7752190160595
 20
44.70303475630687
 10
149.6407590160595
 20
44.96566875630686
 10
149.5244260160595
 20
45.23671075630687
 10
149.4268300160595
 20
45.51510675630686
 10
149.3484000160595
 20
45.79937875630687
 10
149.2893790160595
 20
46.08841075630687
 10
149.2501950160595
 20
46.38069275630686
 10
149.2309690160595
 20
46.67506475630687
 10
149.2317620160595
 20
46.96997175630687
 10
149.2526360160596
 20
47.26426775630687
 10
149.2934080160595
 20
47.55639775630687
 10
149.3539540160595
 20
47.84516975630687
 10
149.4339720160595
 20
48.12912075630688
 10
149.5330320160595
 20
48.40702875630687
 10
149.6865960160595
 20
48.75093175630687
  0
LWPOLYLINE
  5
2D0
330
1F
100
AcDbEntity
  8
0
 62
   253
370
    13
100
AcDbPolyline
 90
       10
 70
     0
 43
0.0
 10
132.2843740160595
 20
334.4846357563068
 10
131.4974480160595
 20
334.3226787563069
 10
130.7050290160595
 20
334.1809247563069
 10
129.9378170160595
 20
334.0644997563069
 10
129.1620600160595
 20
333.9679117563069
 10
128.4074820160595
 20
333.8945777563068
 10
127.6463130160595
 20
333.8413247563069
 10
126.8994870160595
 20
333.8094337563068
 10
126.1505850160595
 20
333.7976537563069
 10
126.0875360160595
 20
333.7975927563069
  0
LWPOLYLINE
  5
2D1
330
1F
100
AcDbEntity
  8
0
 62
   253
370
    13
100
AcDbPolyline
 90
        7
 70
     0
 43
0.0
 10
96.08753601605954
 20
333.7975927563069
 10
95.34071001605955
 20
333.8076027563069
 10
94.59571501605955
 20
333.8376627563068
 10
93.11744301605955
 20
333.9565587563069
 10
91.63273301605954
 20
334.1545267563069
 10
90.12281401605955
 20
334.4347087563069
 10
89.89063701605955
 20
334.4846657563069
  0
LWPOLYLINE
  5
2D2
330
1F
100
AcDbEntity
  8
0
 62
   253
370
    35
100
AcDbPolyline
 90
       20
 70
     0
 43
0.0
 10
130.2146110160595
 20
330.2975927563069
 10
131.3883780160595
 20
330.6101537563069
 10
132.5413320160595
 20
330.9995587563069
 10
133.6670040160595
 20
331.4639137563069
 10
134.2178460160595
 20
331.7235877563069
 10
134.7603270160595
 20
332.0014807563068
 10
135.2934080160595
 20
332.2970437563068
 10
135.8167230160595
 20
332.6102457563069
 10
136.3261220160595
 20
332.9384617563069
 10
136.8228880160595
 20
333.2823347563069
 10
137.3042110160595
 20
333.6398777563069
 10
137.7701530160595
 20
334.0109717563068
 10
138.2139400160595
 20
334.3900307563068
 10
138.6375850160595
 20
334.7787937563069
 10
139.0199700160595
 20
335.1569677563069
 10
139.3662230160595
 20
335.5288557563068
 10
139.6326410160595
 20
335.8433997563069
 10
139.8311880160596
 20
336.1063697563069
 10
140.0333980160595
 20
336.4430397563069
 10
140.0924190160595
 20
336.6097877563069
  0
LWPOLYLINE
  5
2D3
330
1F
100
AcDbEntity
  8
0
 62
   253
370
    35
100
AcDbPolyline
 90
       20
 70
     0
 43
0.0
 10
91.96046101605956
 20
330.2975927563069
 10
90.78672401605954
 20
330.6101537563069
 10
89.63380101605954
 20
330.9995587563069
 10
88.50800701605955
 20
331.4639447563069
 10
87.95722601605955
 20
331.7235877563069
 10
87.41483701605956
 20
332.0014197563069
 10
86.88178601605955
 20
332.2969827563069
 10
86.35859301605956
 20
332.6100927563069
 10
85.84916301605955
 20
332.9383097563069
 10
85.35239801605955
 20
333.2822117563069
 10
84.87113601605955
 20
333.6396337563069
 10
84.40537701605954
 20
334.0105747563068
 10
83.96149801605956
 20
334.3897257563069
 10
83.53776201605956
 20
334.7785497563069
 10
83.15528501605955
 20
335.1568157563069
 10
82.80906301605956
 20
335.5286107563069
 10
82.54237001605956
 20
335.8434917563069
 10
82.34370101605955
 20
336.1066747563069
 10
82.14140001605954
 20
336.4435887563069
 10
82.08265301605955
 20
336.6097877563069
  0
LWPOLYLINE
  5
2D4
330
1F
100
AcDbEntity
  8
0
 62
   253
370
    35
100
AcDbPolyline
 90
        9
 70
     0
 43
0.0
 10
132.2669180160595
 20
334.4887547563069
 10
133.7561150160595
 20
334.8632057563069
 10
134.4940910160595
 20
335.0796367563069
 10
135.2257810160595
 20
335.3164527563068
 10
135.8792230160595
 20
335.5503087563069
 10
136.5228390160595
 20
335.8099527563069
 10
136.9441030160595
 20
336.0060277563068
 10
137.3487050160596
 20
336.2342387563069
 10
137.5142940160595
 20
336.3533177563069
  0
LWPOLYLINE
  5
2D5
330
1F
100
AcDbEntity
  8
0
 62
   253
370
    35
100
AcDbPolyline
 90
        7
 70
     0
 43
0.0
 10
84.66077801605955
 20
336.3533177563069
 10
84.93543601605955
 20
336.1665807563069
 10
85.41508101605955
 20
335.9168247563068
 10
86.16300601605955
 20
335.6010597563069
 10
87.24845501605955
 20
335.2167517563068
 10
88.63193901605955
 20
334.8046117563068
 10
89.90818401605954
 20
334.4887547563069
  0
INSERT
  5
2D6
330
1F
100
AcDbEntity
  8
0
 62
    56
100
AcDbBlockReference
  2
IEC_309_16-32
 10
41.64026685605955
 20
174.0924652463068
 30
0.0
  0
INSERT
  5
2D7
330
1F
100
AcDbEntity
  8
0
 62
    56
100
AcDbBlockReference
  2
IEC_309_16-32
 10
41.64026685605955
 20
39.12781524630688
 30
0.0
  0
ENDSEC
  0
SECTION
  2
OBJECTS
  0
DICTIONARY
  5
C
330
0
100
AcDbDictionary
281
     1
  3
ACAD_COLOR
350
73
  3
ACAD_GROUP
350
D
  3
ACAD_LAYOUT
350
1A
  3
ACAD_MATERIAL
350
72
  3
ACAD_MLEADERSTYLE
350
D7
  3
ACAD_MLINESTYLE
350
17
  3
ACAD_PLOTSETTINGS
350
19
  3
ACAD_PLOTSTYLENAME
350
E
  3
ACAD_SCALELIST
350
B6
  3
ACAD_TABLESTYLE
350
86
  3
ACAD_VISUALSTYLE
350
99
  3
ACDB_RECOMPOSE_DATA
350
FF
  3
AcDbVariableDictionary
350
66
  3
DWGPROPS
350
316
  0
DICTIONARY
  5
E6
330
10
100
AcDbDictionary
280
     1
281
     1
  3
ADSK_XREC_LAYER_RECONCILED
360
30A
  0
DICTIONARY
  5
30B
330
174
100
AcDbDictionary
280
     1
281
     1
  3
ADSK_XREC_LAYER_RECONCILED
360
30C
  0
DICTIONARY
  5
30D
330
175
100
AcDbDictionary
280
     1
281
     1
  3
ADSK_XREC_LAYER_RECONCILED
360
30E
  0
DICTIONARY
  5
30F
330
176
100
AcDbDictionary
280
     1
281
     1
  3
ADSK_XREC_LAYER_RECONCILED
360
310
  0
DICTIONARY
  5
73
102
{ACAD_REACTORS
330
C
102
}
330
C
100
AcDbDictionary
281
     1
  0
DICTIONARY
  5
D
102
{ACAD_REACTORS
330
C
102
}
330
C
100
AcDbDictionary
281
     1
  0
DICTIONARY
  5
1A
102
{ACAD_REACTORS
330
C
102
}
330
C
100
AcDbDictionary
281
     1
  3
Layout1
350
59
  3
Layout2
350
5E
  3
Model
350
22
  0
DICTIONARY
  5
72
102
{ACAD_REACTORS
330
C
102
}
330
C
100
AcDbDictionary
281
     1
  3
ByBlock
350
97
  3
ByLayer
350
96
  3
Global
350
98
  0
DICTIONARY
  5
D7
102
{ACAD_REACTORS
330
C
102
}
330
C
100
AcDbDictionary
281
     1
  3
Annotativa
350
E5
  3
Standard
350
D8
  0
DICTIONARY
  5
17
102
{ACAD_REACTORS
330
C
102
}
330
C
100
AcDbDictionary
281
     1
  3
Standard
350
18
  0
DICTIONARY
  5
19
102
{ACAD_REACTORS
330
C
102
}
330
C
100
AcDbDictionary
281
     1
  0
ACDBDICTIONARYWDFLT
  5
E
102
{ACAD_REACTORS
330
C
102
}
330
C
100
AcDbDictionary
281
     1
  3
Normal
350
F
100
AcDbDictionaryWithDefault
340
F
  0
DICTIONARY
  5
B6
102
{ACAD_REACTORS
330
C
102
}
330
C
100
AcDbDictionary
281
     1
  3
A0
350
B7
  3
A1
350
124
  3
A2
350
125
  3
A3
350
126
  3
A4
350
127
  3
A5
350
128
  3
A6
350
129
  3
A7
350
12A
  3
A8
350
12B
  3
A9
350
12C
  3
B0
350
12D
  3
B1
350
12E
  3
B2
350
12F
  3
B3
350
130
  3
B4
350
131
  3
B5
350
132
  3
B6
350
133
  3
B7
350
134
  3
B8
350
135
  3
B9
350
136
  3
C0
350
137
  3
C1
350
138
  3
C2
350
139
  3
C3
350
13A
  3
C4
350
13B
  3
C5
350
13C
  3
C6
350
13D
  3
C7
350
13E
  3
C8
350
13F
  3
C9
350
140
  3
D0
350
141
  3
D1
350
142
  3
D2
350
143
  0
DICTIONARY
  5
86
102
{ACAD_REACTORS
330
C
102
}
330
C
100
AcDbDictionary
281
     1
  3
Standard
350
87
  0
DICTIONARY
  5
99
102
{ACAD_REACTORS
330
C
102
}
330
C
100
AcDbDictionary
281
     1
  3
2dWireframe
350
9F
  3
3D Hidden
350
A1
  3
3dWireframe
350
A0
  3
Basic
350
9E
  3
Brighten
350
A5
  3
ColorChange
350
A9
  3
Conceptual
350
A2
  3
Dim
350
A4
  3
Facepattern
350
A8
  3
Flat
350
9A
  3
FlatWithEdges
350
9B
  3
Gouraud
350
9C
  3
GouraudWithEdges
350
9D
  3
Linepattern
350
A7
  3
Realistic
350
A3
  3
Thicken
350
A6
  0
XRECORD
  5
FF
102
{ACAD_REACTORS
330
C
102
}
330
C
100
AcDbXrecord
280
     1
 90
        1
330
87
  0
DICTIONARY
  5
66
102
{ACAD_REACTORS
330
C
102
}
330
C
100
AcDbDictionary
281
     1
  3
CANNOSCALE
350
F0
  3
CMLEADERSTYLE
350
EF
  3
CTABLESTYLE
350
89
  3
DIMASSOC
350
67
  3
HIDETEXT
350
6B
  3
INDEXCTL
350
314
  3
LIGHTINGUNITS
350
312
  3
MSLTSCALE
350
311
  3
SORTENTS
350
313
  0
XRECORD
  5
316
102
{ACAD_REACTORS
330
C
102
}
330
C
100
AcDbXrecord
280
     1
  1
DWGPROPS COOKIE
  2

  3

  4

  6

  7

  8
fontanaNZ
  9

300
=
301
=
302
=
303
=
304
=
305
=
306
=
307
=
308
=
309
=
 40
0.0001906712962963
 41
2455511.356235336
 42
2455511.356425822
  1

 90
        0
  0
XRECORD
  5
30A
102
{ACAD_REACTORS
330
E6
102
}
330
E6
100
AcDbXrecord
280
     1
290
     1
  0
XRECORD
  5
30C
102
{ACAD_REACTORS
330
30B
102
}
330
30B
100
AcDbXrecord
280
     1
290
     1
  0
XRECORD
  5
30E
102
{ACAD_REACTORS
330
30D
102
}
330
30D
100
AcDbXrecord
280
     1
290
     1
  0
XRECORD
  5
310
102
{ACAD_REACTORS
330
30F
102
}
330
30F
100
AcDbXrecord
280
     1
290
     1
  0
LAYOUT
  5
59
102
{ACAD_XDICTIONARY
360
319
102
}
102
{ACAD_REACTORS
330
1A
102
}
330
1A
100
AcDbPlotSettings
  1

  2
None
  4

  6

 40
0.0
 41
0.0
 42
0.0
 43
0.0
 44
0.0
 45
0.0
 46
0.0
 47
0.0
 48
0.0
 49
0.0
140
0.0
141
0.0
142
1.0
143
1.0
 70
   688
 72
     0
 73
     0
 74
     5
  7

 75
    16
147
1.0
148
0.0
149
0.0
100
AcDbLayout
  1
Layout1
 70
     1
 71
     1
 10
0.0
 20
0.0
 11
12.0
 21
9.0
 12
0.0
 22
0.0
 32
0.0
 14
0.0
 24
0.0
 34
0.0
 15
0.0
 25
0.0
 35
0.0
146
0.0
 13
0.0
 23
0.0
 33
0.0
 16
1.0
 26
0.0
 36
0.0
 17
0.0
 27
1.0
 37
0.0
 76
     0
330
58
  0
LAYOUT
  5
5E
102
{ACAD_XDICTIONARY
360
31B
102
}
102
{ACAD_REACTORS
330
1A
102
}
330
1A
100
AcDbPlotSettings
  1

  2
None
  4

  6

 40
0.0
 41
0.0
 42
0.0
 43
0.0
 44
0.0
 45
0.0
 46
0.0
 47
0.0
 48
0.0
 49
0.0
140
0.0
141
0.0
142
1.0
143
1.0
 70
   688
 72
     0
 73
     0
 74
     5
  7

 75
    16
147
1.0
148
0.0
149
0.0
100
AcDbLayout
  1
Layout2
 70
     1
 71
     2
 10
0.0
 20
0.0
 11
12.0
 21
9.0
 12
0.0
 22
0.0
 32
0.0
 14
0.0
 24
0.0
 34
0.0
 15
0.0
 25
0.0
 35
0.0
146
0.0
 13
0.0
 23
0.0
 33
0.0
 16
1.0
 26
0.0
 36
0.0
 17
0.0
 27
1.0
 37
0.0
 76
     0
330
5D
  0
LAYOUT
  5
22
102
{ACAD_XDICTIONARY
360
317
102
}
102
{ACAD_REACTORS
330
1A
102
}
330
1A
100
AcDbPlotSettings
  1

  2
none_device
  4
ANSI_A_(8.50_x_11.00_Inches)
  6

 40
6.349999904632568
 41
19.04999923706055
 42
6.350006103515625
 43
19.04998779296875
 44
215.8999938964844
 45
279.3999938964844
 46
0.0
 47
0.0
 48
0.0
 49
0.0
140
0.0
141
0.0
142
1.0
143
2.584895464708373
 70
 11952
 72
     0
 73
     1
 74
     0
  7

 75
     0
147
0.3868628397755418
148
0.0
149
0.0
100
AcDbLayout
  1
Model
 70
     1
 71
     0
 10
0.0
 20
0.0
 11
12.0
 21
9.0
 12
0.0
 22
0.0
 32
0.0
 14
0.0
 24
0.0
 34
0.0
 15
0.0
 25
0.0
 35
0.0
146
0.0
 13
0.0
 23
0.0
 33
0.0
 16
1.0
 26
0.0
 36
0.0
 17
0.0
 27
1.0
 37
0.0
 76
     0
330
1F
331
94
  0
MATERIAL
  5
97
102
{ACAD_XDICTIONARY
360
320
102
}
102
{ACAD_REACTORS
330
72
102
}
330
72
100
AcDbMaterial
  1
ByBlock
  0
MATERIAL
  5
96
102
{ACAD_XDICTIONARY
360
31E
102
}
102
{ACAD_REACTORS
330
72
102
}
330
72
100
AcDbMaterial
  1
ByLayer
  0
MATERIAL
  5
98
102
{ACAD_XDICTIONARY
360
110
102
}
102
{ACAD_REACTORS
330
72
102
}
330
72
100
AcDbMaterial
  1
Global
 43
0.0208000000566244
 43
0.0
 43
0.0
 43
0.0
 43
0.0
 43
0.0208000000566244
 43
0.0
 43
0.0
 43
0.0
 43
0.0
 43
1.0
 43
0.0
 43
0.0
 43
0.0
 43
0.0
 43
1.0
 49
0.0208000000566244
 49
0.0
 49
0.0
 49
0.0
 49
0.0
 49
0.0208000000566244
 49
0.0
 49
0.0
 49
0.0
 49
0.0
 49
1.0
 49
0.0
 49
0.0
 49
0.0
 49
0.0
 49
1.0
142
0.0208000000566244
142
0.0
142
0.0
142
0.0
142
0.0
142
0.0208000000566244
142
0.0
142
0.0
142
0.0
142
0.0
142
1.0
142
0.0
142
0.0
142
0.0
142
0.0
142
1.0
144
0.0208000000566244
144
0.0
144
0.0
144
0.0
144
0.0
144
0.0208000000566244
144
0.0
144
0.0
144
0.0
144
0.0
144
1.0
144
0.0
144
0.0
144
0.0
144
0.0
144
1.0
1001
ACAD
1070
    -1
1070
     3
1070
     0
1000

1071
        0
1070
     0
  0
MLEADERSTYLE
  5
E5
102
{ACAD_REACTORS
330
D7
102
}
330
D7
100
AcDbMLeaderStyle
170
     2
171
     1
172
     0
 90
        2
 40
0.0
 41
0.0
173
     1
 91
-1056964608
340
14
 92
       -2
290
     1
 42
0.09
291
     1
 43
0.36
  3
Standard
 44
0.18
300

342
11
174
     1
178
     1
175
     1
176
     0
 93
-1056964608
 45
0.18
292
     0
297
     0
 46
0.18
 94
-1056964608
 47
1.0
 49
1.0
140
1.0
293
     1
141
0.0
294
     1
177
     0
142
1.0
295
     0
296
     1
143
0.125
1001
ACAD_MLEADERVER
1070
     2
  0
MLEADERSTYLE
  5
D8
102
{ACAD_REACTORS
330
D7
102
}
330
D7
100
AcDbMLeaderStyle
170
     2
171
     1
172
     0
 90
        2
 40
0.0
 41
0.0
173
     1
 91
-1056964608
340
14
 92
       -2
290
     1
 42
0.09
291
     1
 43
0.36
  3
Standard
 44
0.18
300

342
11
174
     1
178
     1
175
     1
176
     0
 93
-1056964608
 45
0.18
292
     0
297
     0
 46
0.18
 94
-1056964608
 47
1.0
 49
1.0
140
1.0
293
     1
141
0.0
294
     1
177
     0
142
1.0
295
     0
296
     0
143
0.125
1001
ACAD_MLEADERVER
1070
     2
  0
MLINESTYLE
  5
18
102
{ACAD_REACTORS
330
17
102
}
330
17
100
AcDbMlineStyle
  2
STANDARD
 70
     0
  3

 62
   256
 51
90.0
 52
90.0
 71
     2
 49
0.5
 62
   256
  6
BYLAYER
 49
-0.5
 62
   256
  6
BYLAYER
  0
ACDBPLACEHOLDER
  5
F
102
{ACAD_REACTORS
330
E
102
}
330
E
  0
SCALE
  5
B7
102
{ACAD_REACTORS
330
B6
102
}
330
B6
100
AcDbScale
 70
     0
300
1:1
140
1.0
141
1.0
290
     1
  0
SCALE
  5
124
102
{ACAD_REACTORS
330
B6
102
}
330
B6
100
AcDbScale
 70
     0
300
1:2
140
1.0
141
2.0
290
     0
  0
SCALE
  5
125
102
{ACAD_REACTORS
330
B6
102
}
330
B6
100
AcDbScale
 70
     0
300
1:4
140
1.0
141
4.0
290
     0
  0
SCALE
  5
126
102
{ACAD_REACTORS
330
B6
102
}
330
B6
100
AcDbScale
 70
     0
300
1:5
140
1.0
141
5.0
290
     0
  0
SCALE
  5
127
102
{ACAD_REACTORS
330
B6
102
}
330
B6
100
AcDbScale
 70
     0
300
1:8
140
1.0
141
8.0
290
     0
  0
SCALE
  5
128
102
{ACAD_REACTORS
330
B6
102
}
330
B6
100
AcDbScale
 70
     0
300
1:10
140
1.0
141
10.0
290
     0
  0
SCALE
  5
129
102
{ACAD_REACTORS
330
B6
102
}
330
B6
100
AcDbScale
 70
     0
300
1:16
140
1.0
141
16.0
290
     0
  0
SCALE
  5
12A
102
{ACAD_REACTORS
330
B6
102
}
330
B6
100
AcDbScale
 70
     0
300
1:20
140
1.0
141
20.0
290
     0
  0
SCALE
  5
12B
102
{ACAD_REACTORS
330
B6
102
}
330
B6
100
AcDbScale
 70
     0
300
1:30
140
1.0
141
30.0
290
     0
  0
SCALE
  5
12C
102
{ACAD_REACTORS
330
B6
102
}
330
B6
100
AcDbScale
 70
     0
300
1:40
140
1.0
141
40.0
290
     0
  0
SCALE
  5
12D
102
{ACAD_REACTORS
330
B6
102
}
330
B6
100
AcDbScale
 70
     0
300
1:50
140
1.0
141
50.0
290
     0
  0
SCALE
  5
12E
102
{ACAD_REACTORS
330
B6
102
}
330
B6
100
AcDbScale
 70
     0
300
1:100
140
1.0
141
100.0
290
     0
  0
SCALE
  5
12F
102
{ACAD_REACTORS
330
B6
102
}
330
B6
100
AcDbScale
 70
     0
300
2:1
140
2.0
141
1.0
290
     0
  0
SCALE
  5
130
102
{ACAD_REACTORS
330
B6
102
}
330
B6
100
AcDbScale
 70
     0
300
4:1
140
4.0
141
1.0
290
     0
  0
SCALE
  5
131
102
{ACAD_REACTORS
330
B6
102
}
330
B6
100
AcDbScale
 70
     0
300
8:1
140
8.0
141
1.0
290
     0
  0
SCALE
  5
132
102
{ACAD_REACTORS
330
B6
102
}
330
B6
100
AcDbScale
 70
     0
300
10:1
140
10.0
141
1.0
290
     0
  0
SCALE
  5
133
102
{ACAD_REACTORS
330
B6
102
}
330
B6
100
AcDbScale
 70
     0
300
100:1
140
100.0
141
1.0
290
     0
  0
SCALE
  5
134
102
{ACAD_REACTORS
330
B6
102
}
330
B6
100
AcDbScale
 70
     0
300
1/128" = 1'-0"
140
0.0078125
141
12.0
290
     0
  0
SCALE
  5
135
102
{ACAD_REACTORS
330
B6
102
}
330
B6
100
AcDbScale
 70
     0
300
1/64" = 1'-0"
140
0.015625
141
12.0
290
     0
  0
SCALE
  5
136
102
{ACAD_REACTORS
330
B6
102
}
330
B6
100
AcDbScale
 70
     0
300
1/32" = 1'-0"
140
0.03125
141
12.0
290
     0
  0
SCALE
  5
137
102
{ACAD_REACTORS
330
B6
102
}
330
B6
100
AcDbScale
 70
     0
300
1/16" = 1'-0"
140
0.0625
141
12.0
290
     0
  0
SCALE
  5
138
102
{ACAD_REACTORS
330
B6
102
}
330
B6
100
AcDbScale
 70
     0
300
3/32" = 1'-0"
140
0.09375
141
12.0
290
     0
  0
SCALE
  5
139
102
{ACAD_REACTORS
330
B6
102
}
330
B6
100
AcDbScale
 70
     0
300
1/8" = 1'-0"
140
0.125
141
12.0
290
     0
  0
SCALE
  5
13A
102
{ACAD_REACTORS
330
B6
102
}
330
B6
100
AcDbScale
 70
     0
300
3/16" = 1'-0"
140
0.1875
141
12.0
290
     0
  0
SCALE
  5
13B
102
{ACAD_REACTORS
330
B6
102
}
330
B6
100
AcDbScale
 70
     0
300
1/4" = 1'-0"
140
0.25
141
12.0
290
     0
  0
SCALE
  5
13C
102
{ACAD_REACTORS
330
B6
102
}
330
B6
100
AcDbScale
 70
     0
300
3/8" = 1'-0"
140
0.375
141
12.0
290
     0
  0
SCALE
  5
13D
102
{ACAD_REACTORS
330
B6
102
}
330
B6
100
AcDbScale
 70
     0
300
1/2" = 1'-0"
140
0.5
141
12.0
290
     0
  0
SCALE
  5
13E
102
{ACAD_REACTORS
330
B6
102
}
330
B6
100
AcDbScale
 70
     0
300
3/4" = 1'-0"
140
0.75
141
12.0
290
     0
  0
SCALE
  5
13F
102
{ACAD_REACTORS
330
B6
102
}
330
B6
100
AcDbScale
 70
     0
300
1" = 1'-0"
140
1.0
141
12.0
290
     0
  0
SCALE
  5
140
102
{ACAD_REACTORS
330
B6
102
}
330
B6
100
AcDbScale
 70
     0
300
1-1/2" = 1'-0"
140
1.5
141
12.0
290
     0
  0
SCALE
  5
141
102
{ACAD_REACTORS
330
B6
102
}
330
B6
100
AcDbScale
 70
     0
300
3" = 1'-0"
140
3.0
141
12.0
290
     0
  0
SCALE
  5
142
102
{ACAD_REACTORS
330
B6
102
}
330
B6
100
AcDbScale
 70
     0
300
6" = 1'-0"
140
6.0
141
12.0
290
     0
  0
SCALE
  5
143
102
{ACAD_REACTORS
330
B6
102
}
330
B6
100
AcDbScale
 70
     0
300
1'-0" = 1'-0"
140
12.0
141
12.0
290
     0
  0
TABLESTYLE
  5
87
102
{ACAD_XDICTIONARY
360
104
102
}
102
{ACAD_REACTORS
330
86
102
}
330
86
100
AcDbTableStyle
  3
Standard
 70
     0
 71
     0
 40
0.06
 41
0.06
280
     0
281
     0
  7
Standard
140
0.18
170
     2
 62
     0
 63
     7
283
     0
274
    -2
284
     1
 64
     0
275
    -2
285
     1
 65
     0
276
    -2
286
     1
 66
     0
277
    -2
287
     1
 67
     0
278
    -2
288
     1
 68
     0
279
    -2
289
     1
 69
     0
  7
Standard
140
0.25
170
     5
 62
     0
 63
     7
283
     0
274
    -2
284
     1
 64
     0
275
    -2
285
     1
 65
     0
276
    -2
286
     1
 66
     0
277
    -2
287
     1
 67
     0
278
    -2
288
     1
 68
     0
279
    -2
289
     1
 69
     0
  7
Standard
140
0.18
170
     5
 62
     0
 63
     7
283
     0
274
    -2
284
     1
 64
     0
275
    -2
285
     1
 65
     0
276
    -2
286
     1
 66
     0
277
    -2
287
     1
 67
     0
278
    -2
288
     1
 68
     0
279
    -2
289
     1
 69
     0
  0
VISUALSTYLE
  5
9F
102
{ACAD_REACTORS
330
99
102
}
330
99
100
AcDbVisualStyle
  2
2dWireframe
 70
     4
 71
     0
 72
     2
 73
     1
 90
        0
 40
-0.6
 41
-30.0
 62
     5
 63
     7
 74
     1
 91
        4
 64
     7
 65
   257
 75
     1
175
     1
 42
1.0
 92
        0
 66
   257
 43
1.0
 76
     1
 77
     6
 78
     2
 67
     7
 79
     5
170
     0
171
     0
290
     0
174
     0
 93
        1
 44
0.0
173
     0
291
     0
 45
0.0
1001
ACAD
1000
AcDbSavedByObjectVersion
1070
     0
  0
VISUALSTYLE
  5
A1
102
{ACAD_REACTORS
330
99
102
}
330
99
100
AcDbVisualStyle
  2
3D Hidden
 70
     6
 71
     1
 72
     2
 73
     2
 90
        0
 40
-0.6
 41
-30.0
 62
     5
 63
     7
 74
     2
 91
        2
 64
     7
 65
   257
 75
     2
175
     1
 42
40.0
 92
        0
 66
   257
 43
1.0
 76
     1
 77
     6
 78
     2
 67
     7
 79
     3
170
     0
171
     0
290
     0
174
     0
 93
        1
 44
0.0
173
     0
291
     0
 45
0.0
1001
ACAD
1000
AcDbSavedByObjectVersion
1070
     0
  0
VISUALSTYLE
  5
A0
102
{ACAD_REACTORS
330
99
102
}
330
99
100
AcDbVisualStyle
  2
3dWireframe
 70
     5
 71
     0
 72
     2
 73
     1
 90
        0
 40
-0.6
 41
-30.0
 62
     5
 63
     7
 74
     1
 91
        4
 64
     7
 65
   257
 75
     1
175
     1
 42
1.0
 92
        0
 66
   257
 43
1.0
 76
     1
 77
     6
 78
     2
 67
     7
 79
     5
170
     0
171
     0
290
     0
174
     0
 93
        1
 44
0.0
173
     0
291
     0
 45
0.0
1001
ACAD
1000
AcDbSavedByObjectVersion
1070
     0
  0
VISUALSTYLE
  5
9E
102
{ACAD_REACTORS
330
99
102
}
330
99
100
AcDbVisualStyle
  2
Basic
 70
     7
 71
     1
 72
     0
 73
     1
 90
        0
 40
-0.6
 41
-30.0
 62
     5
 63
     7
 74
     0
 91
        4
 64
     7
 65
   257
 75
     1
175
     1
 42
1.0
 92
        8
 66
     7
 43
1.0
 76
     1
 77
     6
 78
     2
 67
     7
 79
     5
170
     0
171
     0
290
     0
174
     0
 93
        1
 44
0.0
173
     0
291
     1
 45
0.0
1001
ACAD
1000
AcDbSavedByObjectVersion
1070
     0
  0
VISUALSTYLE
  5
A5
102
{ACAD_REACTORS
330
99
102
}
330
99
100
AcDbVisualStyle
  2
Brighten
 70
    12
 71
     2
 72
     2
 73
     1
 90
        0
 40
-0.6
 41
-30.0
 62
     5
 63
     7
 74
     1
 91
        4
 64
     7
 65
   257
 75
     1
175
     1
 42
1.0
 92
        8
 66
     7
 43
1.0
 76
     1
 77
     6
 78
     2
 67
     7
 79
     5
170
     0
171
     0
290
     0
174
     0
 93
        1
 44
50.0
173
     0
291
     1
 45
0.0
1001
ACAD
1000
AcDbSavedByObjectVersion
1070
     0
  0
VISUALSTYLE
  5
A9
102
{ACAD_REACTORS
330
99
102
}
330
99
100
AcDbVisualStyle
  2
ColorChange
 70
    16
 71
     2
 72
     2
 73
     3
 90
        0
 40
-0.6
 41
-30.0
 62
     5
 63
     8
 74
     1
 91
        4
 64
     7
 65
   257
 75
     1
175
     1
 42
1.0
 92
        8
 66
     8
 43
1.0
 76
     1
 77
     6
 78
     2
 67
     7
 79
     5
170
     0
171
     0
290
     0
174
     0
 93
        1
 44
0.0
173
     0
291
     1
 45
0.0
1001
ACAD
1000
AcDbSavedByObjectVersion
1070
     0
  0
VISUALSTYLE
  5
A2
102
{ACAD_REACTORS
330
99
102
}
330
99
100
AcDbVisualStyle
  2
Conceptual
 70
     9
 71
     3
 72
     2
 73
     1
 90
        0
 40
-0.6
 41
-30.0
 62
     5
 63
     7
 74
     2
 91
        2
 64
     7
 65
   257
 75
     1
175
     1
 42
40.0
 92
        8
 66
     7
 43
1.0
 76
     1
 77
     6
 78
     2
 67
     7
 79
     3
170
     0
171
     0
290
     0
174
     0
 93
        1
 44
0.0
173
     0
291
     0
 45
0.0
1001
ACAD
1000
AcDbSavedByObjectVersion
1070
     0
  0
VISUALSTYLE
  5
A4
102
{ACAD_REACTORS
330
99
102
}
330
99
100
AcDbVisualStyle
  2
Dim
 70
    11
 71
     2
 72
     2
 73
     1
 90
        0
 40
-0.6
 41
-30.0
 62
     5
 63
     7
 74
     1
 91
        4
 64
     7
 65
   257
 75
     1
175
     1
 42
1.0
 92
        8
 66
     7
 43
1.0
 76
     1
 77
     6
 78
     2
 67
     7
 79
     5
170
     0
171
     0
290
     0
174
     0
 93
        1
 44
-50.0
173
     0
291
     1
 45
0.0
1001
ACAD
1000
AcDbSavedByObjectVersion
1070
     0
  0
VISUALSTYLE
  5
A8
102
{ACAD_REACTORS
330
99
102
}
330
99
100
AcDbVisualStyle
  2
Facepattern
 70
    15
 71
     2
 72
     2
 73
     1
 90
        0
 40
-0.6
 41
-30.0
 62
     5
 63
     7
 74
     1
 91
        4
 64
     7
 65
   257
 75
     1
175
     1
 42
1.0
 92
        8
 66
     7
 43
1.0
 76
     1
 77
     6
 78
     2
 67
     7
 79
     5
170
     0
171
     0
290
     0
174
     0
 93
        1
 44
0.0
173
     0
291
     1
 45
0.0
1001
ACAD
1000
AcDbSavedByObjectVersion
1070
     0
  0
VISUALSTYLE
  5
9A
102
{ACAD_REACTORS
330
99
102
}
330
99
100
AcDbVisualStyle
  2
Flat
 70
     0
 71
     2
 72
     1
 73
     1
 90
        2
 40
-0.6
 41
30.0
 62
     5
 63
     7
 74
     0
 91
        4
 64
     7
 65
   257
 75
     1
175
     1
 42
1.0
 92
        8
 66
     7
 43
1.0
 76
     1
 77
     6
 78
     2
 67
     7
 79
     5
170
     0
171
     0
290
     0
174
     0
 93
        1
 44
0.0
173
     0
291
     1
 45
0.0
1001
ACAD
1000
AcDbSavedByObjectVersion
1070
     0
  0
VISUALSTYLE
  5
9B
102
{ACAD_REACTORS
330
99
102
}
330
99
100
AcDbVisualStyle
  2
FlatWithEdges
 70
     1
 71
     2
 72
     1
 73
     1
 90
        2
 40
-0.6
 41
30.0
 62
     5
 63
     7
 74
     1
 91
        4
 64
     7
 65
   257
 75
     1
175
     1
 42
1.0
 92
        0
 66
   257
 43
1.0
 76
     1
 77
     6
 78
     2
 67
     7
 79
     5
170
     0
171
     0
290
     0
174
     0
 93
        1
 44
0.0
173
     0
291
     1
 45
0.0
1001
ACAD
1000
AcDbSavedByObjectVersion
1070
     0
  0
VISUALSTYLE
  5
9C
102
{ACAD_REACTORS
330
99
102
}
330
99
100
AcDbVisualStyle
  2
Gouraud
 70
     2
 71
     2
 72
     2
 73
     1
 90
        2
 40
-0.6
 41
30.0
 62
     5
 63
     7
 74
     0
 91
        4
 64
     7
 65
   257
 75
     1
175
     1
 42
1.0
 92
        0
 66
     7
 43
1.0
 76
     1
 77
     6
 78
     2
 67
     7
 79
     5
170
     0
171
     0
290
     0
174
     0
 93
        1
 44
0.0
173
     0
291
     1
 45
0.0
1001
ACAD
1000
AcDbSavedByObjectVersion
1070
     0
  0
VISUALSTYLE
  5
9D
102
{ACAD_REACTORS
330
99
102
}
330
99
100
AcDbVisualStyle
  2
GouraudWithEdges
 70
     3
 71
     2
 72
     2
 73
     1
 90
        2
 40
-0.6
 41
30.0
 62
     5
 63
     7
 74
     1
 91
        4
 64
     7
 65
   257
 75
     1
175
     1
 42
1.0
 92
        0
 66
   257
 43
1.0
 76
     1
 77
     6
 78
     2
 67
     7
 79
     5
170
     0
171
     0
290
     0
174
     0
 93
        1
 44
0.0
173
     0
291
     1
 45
0.0
1001
ACAD
1000
AcDbSavedByObjectVersion
1070
     0
  0
VISUALSTYLE
  5
A7
102
{ACAD_REACTORS
330
99
102
}
330
99
100
AcDbVisualStyle
  2
Linepattern
 70
    14
 71
     2
 72
     2
 73
     1
 90
        0
 40
-0.6
 41
-30.0
 62
     5
 63
     7
 74
     1
 91
        4
 64
     7
 65
   257
 75
     7
175
     7
 42
1.0
 92
        8
 66
     7
 43
1.0
 76
     1
 77
     6
 78
     2
 67
     7
 79
     5
170
     0
171
     0
290
     0
174
     0
 93
        1
 44
0.0
173
     0
291
     1
 45
0.0
1001
ACAD
1000
AcDbSavedByObjectVersion
1070
     0
  0
VISUALSTYLE
  5
A3
102
{ACAD_REACTORS
330
99
102
}
330
99
100
AcDbVisualStyle
  2
Realistic
 70
     8
 71
     2
 72
     2
 73
     1
 90
        0
 40
-0.6
 41
-30.0
 62
     5
 63
     7
 74
     1
 91
        0
 64
     7
 65
   257
 75
     1
175
     1
 42
1.0
 92
        8
 66
     8
 43
1.0
 76
     1
 77
     6
 78
     2
 67
     7
 79
     5
170
     0
171
     0
290
     0
174
     0
 93
       13
 44
0.0
173
     0
291
     0
 45
0.0
1001
ACAD
1000
AcDbSavedByObjectVersion
1070
     0
  0
VISUALSTYLE
  5
A6
102
{ACAD_REACTORS
330
99
102
}
330
99
100
AcDbVisualStyle
  2
Thicken
 70
    13
 71
     2
 72
     2
 73
     1
 90
        0
 40
-0.6
 41
-30.0
 62
     5
 63
     7
 74
     1
 91
        4
 64
     7
 65
   257
 75
     1
175
     1
 42
1.0
 92
       12
 66
     7
 43
1.0
 76
     1
 77
     6
 78
     2
 67
     7
 79
     5
170
     0
171
     0
290
     0
174
     0
 93
        1
 44
0.0
173
     0
291
     1
 45
0.0
1001
ACAD
1000
AcDbSavedByObjectVersion
1070
     0
  0
DICTIONARYVAR
  5
F0
102
{ACAD_REACTORS
330
66
102
}
330
66
100
DictionaryVariables
280
     0
  1
1:1
  0
DICTIONARYVAR
  5
EF
102
{ACAD_REACTORS
330
66
102
}
330
66
100
DictionaryVariables
280
     0
  1
STANDARD
  0
DICTIONARYVAR
  5
89
102
{ACAD_REACTORS
330
66
102
}
330
66
100
DictionaryVariables
280
     0
  1
STANDARD
  0
DICTIONARYVAR
  5
67
102
{ACAD_REACTORS
330
66
102
}
330
66
100
DictionaryVariables
280
     0
  1
2
  0
DICTIONARYVAR
  5
6B
102
{ACAD_REACTORS
330
66
102
}
330
66
100
DictionaryVariables
280
     0
  1
1
  0
DICTIONARYVAR
  5
314
102
{ACAD_REACTORS
330
66
102
}
330
66
100
DictionaryVariables
280
     0
  1
0
  0
DICTIONARYVAR
  5
312
102
{ACAD_REACTORS
330
66
102
}
330
66
100
DictionaryVariables
280
     0
  1
2
  0
DICTIONARYVAR
  5
311
102
{ACAD_REACTORS
330
66
102
}
330
66
100
DictionaryVariables
280
     0
  1
1
  0
DICTIONARYVAR
  5
313
102
{ACAD_REACTORS
330
66
102
}
330
66
100
DictionaryVariables
280
     0
  1
127
  0
DICTIONARY
  5
319
330
59
100
AcDbDictionary
280
     1
281
     1
  3
ACAD_XREC_ROUNDTRIP
360
31A
  0
DICTIONARY
  5
31B
330
5E
100
AcDbDictionary
280
     1
281
     1
  3
ACAD_XREC_ROUNDTRIP
360
31C
  0
DICTIONARY
  5
317
330
22
100
AcDbDictionary
280
     1
281
     1
  3
ACAD_XREC_ROUNDTRIP
360
318
  0
DICTIONARY
  5
320
330
97
100
AcDbDictionary
280
     1
281
     1
  3
ACAD_XREC_ROUNDTRIP
360
321
  0
DICTIONARY
  5
31E
330
96
100
AcDbDictionary
280
     1
281
     1
  3
ACAD_XREC_ROUNDTRIP
360
31F
  0
DICTIONARY
  5
110
330
98
100
AcDbDictionary
280
     1
281
     1
  3
ACAD_XREC_ROUNDTRIP
360
322
  3
BUMPTILE
360
112
  3
DIFFUSETILE
360
111
  3
OPACITYTILE
360
113
  3
REFLECTIONTILE
360
114
  0
DICTIONARY
  5
104
330
87
100
AcDbDictionary
280
     1
281
     1
  3
ACAD_ROUNDTRIP_2008_TABLESTYLE_CELLSTYLEMAP
360
315
  3
ACAD_XREC_ROUNDTRIP
360
31D
  0
XRECORD
  5
31A
102
{ACAD_REACTORS
330
319
102
}
330
319
100
AcDbXrecord
280
     1
102
SHADEPLOT
 70
     0
102
SHADEPLOTRESLEVEL
 70
     2
102
SHADEPLOTCUSTOMDPI
 70
   300
  0
XRECORD
  5
31C
102
{ACAD_REACTORS
330
31B
102
}
330
31B
100
AcDbXrecord
280
     1
102
SHADEPLOT
 70
     0
102
SHADEPLOTRESLEVEL
 70
     2
102
SHADEPLOTCUSTOMDPI
 70
   300
  0
XRECORD
  5
318
102
{ACAD_REACTORS
330
317
102
}
330
317
100
AcDbXrecord
280
     1
102
SHADEPLOT
 70
     0
102
SHADEPLOTRESLEVEL
 70
     2
102
SHADEPLOTCUSTOMDPI
 70
   300
  0
XRECORD
  5
321
102
{ACAD_REACTORS
330
320
102
}
330
320
100
AcDbXrecord
280
     1
102
MATERIAL
148
0.0
149
0.0
149
0.0
 93
        0
 94
       63
282
     0
 72
     1
 77
     1
171
     1
175
     1
179
     1
273
     0
  0
XRECORD
  5
31F
102
{ACAD_REACTORS
330
31E
102
}
330
31E
100
AcDbXrecord
280
     1
102
MATERIAL
148
0.0
149
0.0
149
0.0
 93
        0
 94
       63
282
     0
 72
     1
 77
     1
171
     1
175
     1
179
     1
273
     0
  0
XRECORD
  5
322
102
{ACAD_REACTORS
330
110
102
}
330
110
100
AcDbXrecord
280
     1
102
MATERIAL
148
0.0
149
0.0
149
0.0
 93
        0
 94
       63
282
     0
 72
     1
 77
     1
171
     1
175
     1
179
     1
273
     0
  0
XRECORD
  5
112
102
{ACAD_REACTORS
330
110
102
}
330
110
100
AcDbXrecord
280
     1
270
     1
271
     1
  0
XRECORD
  5
111
102
{ACAD_REACTORS
330
110
102
}
330
110
100
AcDbXrecord
280
     1
270
     1
271
     1
  0
XRECORD
  5
113
102
{ACAD_REACTORS
330
110
102
}
330
110
100
AcDbXrecord
280
     1
270
     1
271
     1
  0
XRECORD
  5
114
102
{ACAD_REACTORS
330
110
102
}
330
110
100
AcDbXrecord
280
     1
270
     1
271
     1
  0
CELLSTYLEMAP
  5
315
102
{ACAD_REACTORS
330
104
102
}
330
104
100
AcDbCellStyleMap
 90
        3
300
CELLSTYLE
  1
TABLEFORMAT_BEGIN
 90
        5
170
     1
 91
        0
 92
    32768
 62
   257
 93
        1
300
CONTENTFORMAT
  1
CONTENTFORMAT_BEGIN
 90
        0
 91
        0
 92
      512
 93
        0
300

 40
0.0
140
1.0
 94
        5
 62
     0
340
11
144
0.25
309
CONTENTFORMAT_END
171
     1
301
MARGIN
  1
CELLMARGIN_BEGIN
 40
0.06
 40
0.06
 40
0.06
 40
0.06
 40
0.18
 40
0.18
309
CELLMARGIN_END
 94
        6
 95
        1
302
GRIDFORMAT
  1
GRIDFORMAT_BEGIN
 90
        0
 91
        1
 62
     0
 92
       -2
340
0
 93
        0
 40
0.045
309
GRIDFORMAT_END
 95
        2
302
GRIDFORMAT
  1
GRIDFORMAT_BEGIN
 90
        0
 91
        1
 62
     0
 92
       -2
340
0
 93
        0
 40
0.045
309
GRIDFORMAT_END
 95
        4
302
GRIDFORMAT
  1
GRIDFORMAT_BEGIN
 90
        0
 91
        1
 62
     0
 92
       -2
340
0
 93
        0
 40
0.045
309
GRIDFORMAT_END
 95
        8
302
GRIDFORMAT
  1
GRIDFORMAT_BEGIN
 90
        0
 91
        1
 62
     0
 92
       -2
340
0
 93
        0
 40
0.045
309
GRIDFORMAT_END
 95
       16
302
GRIDFORMAT
  1
GRIDFORMAT_BEGIN
 90
        0
 91
        1
 62
     0
 92
       -2
340
0
 93
        0
 40
0.045
309
GRIDFORMAT_END
 95
       32
302
GRIDFORMAT
  1
GRIDFORMAT_BEGIN
 90
        0
 91
        1
 62
     0
 92
       -2
340
0
 93
        0
 40
0.045
309
GRIDFORMAT_END
309
TABLEFORMAT_END
  1
CELLSTYLE_BEGIN
 90
        1
 91
        1
300
_TITLE
309
CELLSTYLE_END
300
CELLSTYLE
  1
TABLEFORMAT_BEGIN
 90
        5
170
     1
 91
        0
 92
        0
 62
   257
 93
        1
300
CONTENTFORMAT
  1
CONTENTFORMAT_BEGIN
 90
        0
 91
        0
 92
      512
 93
        0
300

 40
0.0
140
1.0
 94
        5
 62
     0
340
11
144
0.18
309
CONTENTFORMAT_END
171
     1
301
MARGIN
  1
CELLMARGIN_BEGIN
 40
0.06
 40
0.06
 40
0.06
 40
0.06
 40
0.18
 40
0.18
309
CELLMARGIN_END
 94
        6
 95
        1
302
GRIDFORMAT
  1
GRIDFORMAT_BEGIN
 90
        0
 91
        1
 62
     0
 92
       -2
340
0
 93
        0
 40
0.045
309
GRIDFORMAT_END
 95
        2
302
GRIDFORMAT
  1
GRIDFORMAT_BEGIN
 90
        0
 91
        1
 62
     0
 92
       -2
340
0
 93
        0
 40
0.045
309
GRIDFORMAT_END
 95
        4
302
GRIDFORMAT
  1
GRIDFORMAT_BEGIN
 90
        0
 91
        1
 62
     0
 92
       -2
340
0
 93
        0
 40
0.045
309
GRIDFORMAT_END
 95
        8
302
GRIDFORMAT
  1
GRIDFORMAT_BEGIN
 90
        0
 91
        1
 62
     0
 92
       -2
340
0
 93
        0
 40
0.045
309
GRIDFORMAT_END
 95
       16
302
GRIDFORMAT
  1
GRIDFORMAT_BEGIN
 90
        0
 91
        1
 62
     0
 92
       -2
340
0
 93
        0
 40
0.045
309
GRIDFORMAT_END
 95
       32
302
GRIDFORMAT
  1
GRIDFORMAT_BEGIN
 90
        0
 91
        1
 62
     0
 92
       -2
340
0
 93
        0
 40
0.045
309
GRIDFORMAT_END
309
TABLEFORMAT_END
  1
CELLSTYLE_BEGIN
 90
        2
 91
        1
300
_HEADER
309
CELLSTYLE_END
300
CELLSTYLE
  1
TABLEFORMAT_BEGIN
 90
        5
170
     1
 91
        0
 92
        0
 62
   257
 93
        1
300
CONTENTFORMAT
  1
CONTENTFORMAT_BEGIN
 90
        0
 91
        0
 92
      512
 93
        0
300

 40
0.0
140
1.0
 94
        2
 62
     0
340
11
144
0.18
309
CONTENTFORMAT_END
171
     1
301
MARGIN
  1
CELLMARGIN_BEGIN
 40
0.06
 40
0.06
 40
0.06
 40
0.06
 40
0.18
 40
0.18
309
CELLMARGIN_END
 94
        6
 95
        1
302
GRIDFORMAT
  1
GRIDFORMAT_BEGIN
 90
        0
 91
        1
 62
     0
 92
       -2
340
0
 93
        0
 40
0.045
309
GRIDFORMAT_END
 95
        2
302
GRIDFORMAT
  1
GRIDFORMAT_BEGIN
 90
        0
 91
        1
 62
     0
 92
       -2
340
0
 93
        0
 40
0.045
309
GRIDFORMAT_END
 95
        4
302
GRIDFORMAT
  1
GRIDFORMAT_BEGIN
 90
        0
 91
        1
 62
     0
 92
       -2
340
0
 93
        0
 40
0.045
309
GRIDFORMAT_END
 95
        8
302
GRIDFORMAT
  1
GRIDFORMAT_BEGIN
 90
        0
 91
        1
 62
     0
 92
       -2
340
0
 93
        0
 40
0.045
309
GRIDFORMAT_END
 95
       16
302
GRIDFORMAT
  1
GRIDFORMAT_BEGIN
 90
        0
 91
        1
 62
     0
 92
       -2
340
0
 93
        0
 40
0.045
309
GRIDFORMAT_END
 95
       32
302
GRIDFORMAT
  1
GRIDFORMAT_BEGIN
 90
        0
 91
        1
 62
     0
 92
       -2
340
0
 93
        0
 40
0.045
309
GRIDFORMAT_END
309
TABLEFORMAT_END
  1
CELLSTYLE_BEGIN
 90
        3
 91
        2
300
_DATA
309
CELLSTYLE_END
  0
XRECORD
  5
31D
102
{ACAD_REACTORS
330
104
102
}
330
104
100
AcDbXrecord
280
     1
102
ACAD_ROUNDTRIP_PRE2007_TABLESTYLE
 90
      512
 91
        0
  1

 92
      512
 93
        0
  2

 94
      512
 95
        0
  3

  0
ENDSEC
  0
EOF
