  0
SECTION
  2
HEADER
  9
$ACADVER
  1
AC1015
  9
$ACADMAINTVER
 70
    20
  9
$DWGCODEPAGE
  3
ANSI_1252
  9
$INSBASE
 10
0.0
 20
0.0
 30
0.0
  9
$EXTMIN
 10
1.043374937937883
 20
18.75149861466239
 30
0.0
  9
$EXTMAX
 10
276.6561446879379
 20
477.7111905146623
 30
0.0
  9
$LIMMIN
 10
0.0
 20
0.0
  9
$LIMMAX
 10
12.0
 20
9.0
  9
$ORTHOMODE
 70
     0
  9
$REGENMODE
 70
     1
  9
$FILLMODE
 70
     1
  9
$QTEXTMODE
 70
     0
  9
$MIRRTEXT
 70
     0
  9
$LTSCALE
 40
1.0
  9
$ATTMODE
 70
     1
  9
$TEXTSIZE
 40
0.2
  9
$TRACEWID
 40
0.05
  9
$TEXTSTYLE
  7
Standard
  9
$CLAYER
  8
0
  9
$CELTYPE
  6
ByLayer
  9
$CECOLOR
 62
   256
  9
$CELTSCALE
 40
1.0
  9
$DISPSILH
 70
     0
  9
$DIMSCALE
 40
1.0
  9
$DIMASZ
 40
0.18
  9
$DIMEXO
 40
0.0625
  9
$DIMDLI
 40
0.38
  9
$DIMRND
 40
0.0
  9
$DIMDLE
 40
0.0
  9
$DIMEXE
 40
0.18
  9
$DIMTP
 40
0.0
  9
$DIMTM
 40
0.0
  9
$DIMTXT
 40
0.18
  9
$DIMCEN
 40
0.09
  9
$DIMTSZ
 40
0.0
  9
$DIMTOL
 70
     0
  9
$DIMLIM
 70
     0
  9
$DIMTIH
 70
     1
  9
$DIMTOH
 70
     1
  9
$DIMSE1
 70
     0
  9
$DIMSE2
 70
     0
  9
$DIMTAD
 70
     0
  9
$DIMZIN
 70
     0
  9
$DIMBLK
  1

  9
$DIMASO
 70
     1
  9
$DIMSHO
 70
     1
  9
$DIMPOST
  1

  9
$DIMAPOST
  1

  9
$DIMALT
 70
     0
  9
$DIMALTD
 70
     2
  9
$DIMALTF
 40
25.4
  9
$DIMLFAC
 40
1.0
  9
$DIMTOFL
 70
     0
  9
$DIMTVP
 40
0.0
  9
$DIMTIX
 70
     0
  9
$DIMSOXD
 70
     0
  9
$DIMSAH
 70
     0
  9
$DIMBLK1
  1

  9
$DIMBLK2
  1

  9
$DIMSTYLE
  2
Standard
  9
$DIMCLRD
 70
     0
  9
$DIMCLRE
 70
     0
  9
$DIMCLRT
 70
     0
  9
$DIMTFAC
 40
1.0
  9
$DIMGAP
 40
0.09
  9
$DIMJUST
 70
     0
  9
$DIMSD1
 70
     0
  9
$DIMSD2
 70
     0
  9
$DIMTOLJ
 70
     1
  9
$DIMTZIN
 70
     0
  9
$DIMALTZ
 70
     0
  9
$DIMALTTZ
 70
     0
  9
$DIMUPT
 70
     0
  9
$DIMDEC
 70
     4
  9
$DIMTDEC
 70
     4
  9
$DIMALTU
 70
     2
  9
$DIMALTTD
 70
     2
  9
$DIMTXSTY
  7
Standard
  9
$DIMAUNIT
 70
     0
  9
$DIMADEC
 70
     0
  9
$DIMALTRND
 40
0.0
  9
$DIMAZIN
 70
     0
  9
$DIMDSEP
 70
    46
  9
$DIMATFIT
 70
     3
  9
$DIMFRAC
 70
     0
  9
$DIMLDRBLK
  1

  9
$DIMLUNIT
 70
     2
  9
$DIMLWD
 70
    -2
  9
$DIMLWE
 70
    -2
  9
$DIMTMOVE
 70
     0
  9
$LUNITS
 70
     2
  9
$LUPREC
 70
     4
  9
$SKETCHINC
 40
0.1
  9
$FILLETRAD
 40
0.0
  9
$AUNITS
 70
     0
  9
$AUPREC
 70
     0
  9
$MENU
  1
.
  9
$ELEVATION
 40
0.0
  9
$PELEVATION
 40
0.0
  9
$THICKNESS
 40
0.0
  9
$LIMCHECK
 70
     0
  9
$CHAMFERA
 40
0.0
  9
$CHAMFERB
 40
0.0
  9
$CHAMFERC
 40
0.0
  9
$CHAMFERD
 40
0.0
  9
$SKPOLY
 70
     0
  9
$TDCREATE
 40
2455511.357315799
  9
$TDUCREATE
 40
2455511.315649132
  9
$TDUPDATE
 40
2455511.358159537
  9
$TDUUPDATE
 40
2455511.316492871
  9
$TDINDWG
 40
0.0008437384
  9
$TDUSRTIMER
 40
0.0008437384
  9
$USRTIMER
 70
     1
  9
$ANGBASE
 50
0.0
  9
$ANGDIR
 70
     0
  9
$PDMODE
 70
     0
  9
$PDSIZE
 40
0.0
  9
$PLINEWID
 40
0.0
  9
$SPLFRAME
 70
     0
  9
$SPLINETYPE
 70
     6
  9
$SPLINESEGS
 70
     8
  9
$HANDSEED
  5
512
  9
$SURFTAB1
 70
     6
  9
$SURFTAB2
 70
     6
  9
$SURFTYPE
 70
     6
  9
$SURFU
 70
     6
  9
$SURFV
 70
     6
  9
$UCSBASE
  2

  9
$UCSNAME
  2

  9
$UCSORG
 10
0.0
 20
0.0
 30
0.0
  9
$UCSXDIR
 10
1.0
 20
0.0
 30
0.0
  9
$UCSYDIR
 10
0.0
 20
1.0
 30
0.0
  9
$UCSORTHOREF
  2

  9
$UCSORTHOVIEW
 70
     0
  9
$UCSORGTOP
 10
0.0
 20
0.0
 30
0.0
  9
$UCSORGBOTTOM
 10
0.0
 20
0.0
 30
0.0
  9
$UCSORGLEFT
 10
0.0
 20
0.0
 30
0.0
  9
$UCSORGRIGHT
 10
0.0
 20
0.0
 30
0.0
  9
$UCSORGFRONT
 10
0.0
 20
0.0
 30
0.0
  9
$UCSORGBACK
 10
0.0
 20
0.0
 30
0.0
  9
$PUCSBASE
  2

  9
$PUCSNAME
  2

  9
$PUCSORG
 10
0.0
 20
0.0
 30
0.0
  9
$PUCSXDIR
 10
1.0
 20
0.0
 30
0.0
  9
$PUCSYDIR
 10
0.0
 20
1.0
 30
0.0
  9
$PUCSORTHOREF
  2

  9
$PUCSORTHOVIEW
 70
     0
  9
$PUCSORGTOP
 10
0.0
 20
0.0
 30
0.0
  9
$PUCSORGBOTTOM
 10
0.0
 20
0.0
 30
0.0
  9
$PUCSORGLEFT
 10
0.0
 20
0.0
 30
0.0
  9
$PUCSORGRIGHT
 10
0.0
 20
0.0
 30
0.0
  9
$PUCSORGFRONT
 10
0.0
 20
0.0
 30
0.0
  9
$PUCSORGBACK
 10
0.0
 20
0.0
 30
0.0
  9
$USERI1
 70
     0
  9
$USERI2
 70
     0
  9
$USERI3
 70
     0
  9
$USERI4
 70
     0
  9
$USERI5
 70
     0
  9
$USERR1
 40
0.0
  9
$USERR2
 40
0.0
  9
$USERR3
 40
0.0
  9
$USERR4
 40
0.0
  9
$USERR5
 40
0.0
  9
$WORLDVIEW
 70
     1
  9
$SHADEDGE
 70
     3
  9
$SHADEDIF
 70
    70
  9
$TILEMODE
 70
     1
  9
$MAXACTVP
 70
    64
  9
$PINSBASE
 10
0.0
 20
0.0
 30
0.0
  9
$PLIMCHECK
 70
     0
  9
$PEXTMIN
 10
0.0
 20
0.0
 30
0.0
  9
$PEXTMAX
 10
0.0
 20
0.0
 30
0.0
  9
$PLIMMIN
 10
0.0
 20
0.0
  9
$PLIMMAX
 10
12.0
 20
9.0
  9
$UNITMODE
 70
     0
  9
$VISRETAIN
 70
     1
  9
$PLINEGEN
 70
     0
  9
$PSLTSCALE
 70
     1
  9
$TREEDEPTH
 70
  3020
  9
$CMLSTYLE
  2
Standard
  9
$CMLJUST
 70
     0
  9
$CMLSCALE
 40
1.0
  9
$PROXYGRAPHICS
 70
     1
  9
$MEASUREMENT
 70
     0
  9
$CELWEIGHT
370
    -1
  9
$ENDCAPS
280
     0
  9
$JOINSTYLE
280
     0
  9
$LWDISPLAY
290
     0
  9
$INSUNITS
 70
     1
  9
$HYPERLINKBASE
  1

  9
$STYLESHEET
  1

  9
$XEDIT
290
     1
  9
$CEPSNTYPE
380
     0
  9
$PSTYLEMODE
290
     1
  9
$FINGERPRINTGUID
  2
{D96F4084-86FF-42A5-AFB4-9E5D91ABE9EE}
  9
$VERSIONGUID
  2
{19CA44C2-D8B2-4B36-B9F5-22445762086B}
  9
$EXTNAMES
290
     1
  9
$PSVPSCALE
 40
0.0
  9
$OLESTARTUP
290
     0
  0
ENDSEC
  0
SECTION
  2
CLASSES
  0
CLASS
  1
ACDBDICTIONARYWDFLT
  2
AcDbDictionaryWithDefault
  3
ObjectDBX Classes
 90
        0
280
     0
281
     0
  0
CLASS
  1
ACDBPLACEHOLDER
  2
AcDbPlaceHolder
  3
ObjectDBX Classes
 90
        0
280
     0
281
     0
  0
CLASS
  1
LAYOUT
  2
AcDbLayout
  3
ObjectDBX Classes
 90
        0
280
     0
281
     0
  0
CLASS
  1
DICTIONARYVAR
  2
AcDbDictionaryVar
  3
ObjectDBX Classes
 90
        0
280
     0
281
     0
  0
CLASS
  1
TABLESTYLE
  2
AcDbTableStyle
  3
ObjectDBX Classes
 90
     4095
280
     0
281
     0
  0
CLASS
  1
MATERIAL
  2
AcDbMaterial
  3
ObjectDBX Classes
 90
     1153
280
     0
281
     0
  0
CLASS
  1
VISUALSTYLE
  2
AcDbVisualStyle
  3
ObjectDBX Classes
 90
     4095
280
     0
281
     0
  0
CLASS
  1
SCALE
  2
AcDbScale
  3
ObjectDBX Classes
 90
     1153
280
     0
281
     0
  0
CLASS
  1
MLEADERSTYLE
  2
AcDbMLeaderStyle
  3
ACDB_MLEADERSTYLE_CLASS
 90
     4095
280
     0
281
     0
  0
CLASS
  1
CELLSTYLEMAP
  2
AcDbCellStyleMap
  3
ObjectDBX Classes
 90
     1152
280
     0
281
     0
  0
ENDSEC
  0
SECTION
  2
TABLES
  0
TABLE
  2
VPORT
  5
8
330
0
100
AcDbSymbolTable
 70
     1
  0
VPORT
  5
94
330
8
100
AcDbSymbolTableRecord
100
AcDbViewportTableRecord
  2
*Active
 70
     0
 10
0.0
 20
0.0
 11
1.0
 21
1.0
 12
274.0871909020157
 22
287.1230338571211
 13
0.0
 23
0.0
 14
0.5
 24
0.5
 15
0.5
 25
0.5
 16
0.0
 26
0.0
 36
1.0
 17
0.0
 27
0.0
 37
0.0
 40
740.174105245645
 41
1.148760330578512
 42
50.0
 43
0.0
 44
0.0
 50
0.0
 51
0.0
 71
     0
 72
  1000
 73
     1
 74
     3
 75
     0
 76
     0
 77
     0
 78
     0
281
     0
 65
     1
110
0.0
120
0.0
130
0.0
111
1.0
121
0.0
131
0.0
112
0.0
122
1.0
132
0.0
 79
     0
146
0.0
  0
ENDTAB
  0
TABLE
  2
LTYPE
  5
5
330
0
100
AcDbSymbolTable
 70
     1
  0
LTYPE
  5
14
330
5
100
AcDbSymbolTableRecord
100
AcDbLinetypeTableRecord
  2
ByBlock
 70
     0
  3

 72
    65
 73
     0
 40
0.0
  0
LTYPE
  5
15
330
5
100
AcDbSymbolTableRecord
100
AcDbLinetypeTableRecord
  2
ByLayer
 70
     0
  3

 72
    65
 73
     0
 40
0.0
  0
LTYPE
  5
16
330
5
100
AcDbSymbolTableRecord
100
AcDbLinetypeTableRecord
  2
Continuous
 70
     0
  3
Solid line
 72
    65
 73
     0
 40
0.0
  0
ENDTAB
  0
TABLE
  2
LAYER
  5
2
330
0
100
AcDbSymbolTable
 70
     3
  0
LAYER
  5
10
102
{ACAD_XDICTIONARY
360
E6
102
}
330
2
100
AcDbSymbolTableRecord
100
AcDbLayerTableRecord
  2
0
 70
     0
 62
     7
  6
Continuous
370
    -3
390
F
  0
LAYER
  5
16B
102
{ACAD_XDICTIONARY
360
4FE
102
}
330
2
100
AcDbSymbolTableRecord
100
AcDbLayerTableRecord
  2
QUOTE
 70
     0
 62
     7
  6
Continuous
370
    -3
390
F
1001
AcAecLayerStandard
1000

1000

  0
LAYER
  5
4C1
330
2
100
AcDbSymbolTableRecord
100
AcDbLayerTableRecord
  2
Defpoints
 70
     0
 62
     7
  6
Continuous
290
     0
370
    -3
390
F
  0
ENDTAB
  0
TABLE
  2
STYLE
  5
3
330
0
100
AcDbSymbolTable
 70
     2
  0
STYLE
  5
11
330
3
100
AcDbSymbolTableRecord
100
AcDbTextStyleTableRecord
  2
Standard
 70
     0
 40
0.0
 41
1.0
 50
0.0
 71
     0
 42
0.2
  3
txt.shx
  4

  0
STYLE
  5
DC
330
3
100
AcDbSymbolTableRecord
100
AcDbTextStyleTableRecord
  2
Annotativa
 70
     0
 40
0.0
 41
1.0
 50
0.0
 71
     0
 42
0.2
  3
txt.shx
  4

1001
AcadAnnotative
1000
AnnotativeData
1002
{
1070
     1
1070
     1
1002
}
  0
ENDTAB
  0
TABLE
  2
VIEW
  5
6
330
0
100
AcDbSymbolTable
 70
     1
  0
ENDTAB
  0
TABLE
  2
UCS
  5
7
330
0
100
AcDbSymbolTable
 70
     0
  0
ENDTAB
  0
TABLE
  2
APPID
  5
9
330
0
100
AcDbSymbolTable
 70
    14
  0
APPID
  5
12
330
9
100
AcDbSymbolTableRecord
100
AcDbRegAppTableRecord
  2
ACAD
 70
     0
  0
APPID
  5
DD
330
9
100
AcDbSymbolTableRecord
100
AcDbRegAppTableRecord
  2
AcadAnnoPO
 70
     0
  0
APPID
  5
DE
330
9
100
AcDbSymbolTableRecord
100
AcDbRegAppTableRecord
  2
AcadAnnotative
 70
     0
  0
APPID
  5
DF
330
9
100
AcDbSymbolTableRecord
100
AcDbRegAppTableRecord
  2
ACAD_DSTYLE_DIMJAG
 70
     0
  0
APPID
  5
E0
330
9
100
AcDbSymbolTableRecord
100
AcDbRegAppTableRecord
  2
ACAD_DSTYLE_DIMTALN
 70
     0
  0
APPID
  5
107
330
9
100
AcDbSymbolTableRecord
100
AcDbRegAppTableRecord
  2
ACAD_MLEADERVER
 70
     0
  0
APPID
  5
16C
330
9
100
AcDbSymbolTableRecord
100
AcDbRegAppTableRecord
  2
VDEXTRAPARAM
 70
     0
  0
APPID
  5
16D
330
9
100
AcDbSymbolTableRecord
100
AcDbRegAppTableRecord
  2
VD_TEMPHATCH
 70
     0
  0
APPID
  5
16E
330
9
100
AcDbSymbolTableRecord
100
AcDbRegAppTableRecord
  2
AcAecLayerStandard
 70
     0
  0
APPID
  5
16F
330
9
100
AcDbSymbolTableRecord
100
AcDbRegAppTableRecord
  2
VD_EX_PRINTER_DWG_STYLE_SHEET
 70
     0
  0
APPID
  5
170
330
9
100
AcDbSymbolTableRecord
100
AcDbRegAppTableRecord
  2
VD_EX_PRINTER_SIZEX
 70
     0
  0
APPID
  5
171
330
9
100
AcDbSymbolTableRecord
100
AcDbRegAppTableRecord
  2
VD_EX_PRINTER_AVSIZEX
 70
     0
  0
APPID
  5
172
330
9
100
AcDbSymbolTableRecord
100
AcDbRegAppTableRecord
  2
VD_EX_PRINTER_SIZEY
 70
     0
  0
APPID
  5
173
330
9
100
AcDbSymbolTableRecord
100
AcDbRegAppTableRecord
  2
VD_EX_PRINTER_AVSIZEY
 70
     0
  0
ENDTAB
  0
TABLE
  2
DIMSTYLE
  5
A
330
0
100
AcDbSymbolTable
 70
     2
100
AcDbDimStyleTable
 71
     2
340
27
340
E1
  0
DIMSTYLE
105
27
102
{ACAD_REACTORS
330
4A1
330
4A2
102
}
330
A
100
AcDbSymbolTableRecord
100
AcDbDimStyleTableRecord
  2
Standard
 70
     0
340
11
  0
DIMSTYLE
105
E1
330
A
100
AcDbSymbolTableRecord
100
AcDbDimStyleTableRecord
  2
Annotativa
 70
     0
 40
0.0
340
11
1001
AcadAnnotative
1000
AnnotativeData
1002
{
1070
     1
1070
     1
1002
}
1001
ACAD_DSTYLE_DIMJAG
1070
   388
1040
1.5
1001
ACAD_DSTYLE_DIMTALN
1070
   392
1070
     0
  0
ENDTAB
  0
TABLE
  2
BLOCK_RECORD
  5
1
330
0
100
AcDbSymbolTable
 70
     7
  0
BLOCK_RECORD
  5
1F
330
1
100
AcDbSymbolTableRecord
100
AcDbBlockTableRecord
  2
*Model_Space
340
22
  0
BLOCK_RECORD
  5
58
330
1
100
AcDbSymbolTableRecord
100
AcDbBlockTableRecord
  2
*Paper_Space
340
59
  0
BLOCK_RECORD
  5
5D
330
1
100
AcDbSymbolTableRecord
100
AcDbBlockTableRecord
  2
*Paper_Space0
340
5E
  0
BLOCK_RECORD
  5
14C
330
1
100
AcDbSymbolTableRecord
100
AcDbBlockTableRecord
  2
VDDIM_DEFAULT
340
0
  0
BLOCK_RECORD
  5
150
330
1
100
AcDbSymbolTableRecord
100
AcDbBlockTableRecord
  2
IB_oriz_NOFUS
340
0
102
{BLKREFS
331
317
331
318
331
4BF
331
4C0
102
}
  0
BLOCK_RECORD
  5
15F
330
1
100
AcDbSymbolTableRecord
100
AcDbBlockTableRecord
  2
*D3
340
0
  0
BLOCK_RECORD
  5
4C2
330
1
100
AcDbSymbolTableRecord
100
AcDbBlockTableRecord
  2
*D5
340
0
  0
BLOCK_RECORD
  5
4CF
330
1
100
AcDbSymbolTableRecord
100
AcDbBlockTableRecord
  2
*D6
340
0
  0
ENDTAB
  0
ENDSEC
  0
SECTION
  2
BLOCKS
  0
BLOCK
  5
20
330
1F
100
AcDbEntity
  8
0
100
AcDbBlockBegin
  2
*Model_Space
 70
     0
 10
0.0
 20
0.0
 30
0.0
  3
*Model_Space
  1

  0
ENDBLK
  5
21
330
1F
100
AcDbEntity
  8
0
100
AcDbBlockEnd
  0
BLOCK
  5
5A
330
58
100
AcDbEntity
 67
     1
  8
0
100
AcDbBlockBegin
  2
*Paper_Space
 70
     0
 10
0.0
 20
0.0
 30
0.0
  3
*Paper_Space
  1

  0
ENDBLK
  5
5B
330
58
100
AcDbEntity
 67
     1
  8
0
100
AcDbBlockEnd
  0
BLOCK
  5
5F
330
5D
100
AcDbEntity
 67
     1
  8
0
100
AcDbBlockBegin
  2
*Paper_Space0
 70
     0
 10
0.0
 20
0.0
 30
0.0
  3
*Paper_Space0
  1

  0
ENDBLK
  5
60
330
5D
100
AcDbEntity
 67
     1
  8
0
100
AcDbBlockEnd
  0
BLOCK
  5
14D
330
14C
100
AcDbEntity
  8
0
100
AcDbBlockBegin
  2
VDDIM_DEFAULT
 70
     0
 10
0.0
 20
0.0
 30
0.0
  3
VDDIM_DEFAULT
  1

  0
HATCH
  5
14E
330
14C
100
AcDbEntity
  8
0
  6
Continuous
 62
     0
370
    -2
100
AcDbHatch
 10
0.0
 20
0.0
 30
0.0
210
0.0
220
0.0
230
-1.0
  2
SOLID
 70
     1
 71
     0
 91
        1
 92
        2
 72
     0
 73
     1
 93
        3
 10
0.0
 20
0.0
 10
1.0
 20
-0.1665
 10
1.0
 20
0.1665
 97
        0
 75
     0
 76
     1
 98
        1
 10
0.0
 20
0.0
  0
ENDBLK
  5
14F
330
14C
100
AcDbEntity
  8
0
100
AcDbBlockEnd
  0
BLOCK
  5
151
330
150
100
AcDbEntity
  8
0
100
AcDbBlockBegin
  2
IB_oriz_NOFUS
 70
     0
 10
0.0
 20
0.0
 30
0.0
  3
IB_oriz_NOFUS
  1

  0
LINE
  5
152
330
150
100
AcDbEntity
  8
0
100
AcDbLine
 10
19.33069545
 20
8.30875821
 30
0.0
 11
160.09270858
 21
8.30875821
 31
0.0
  0
LINE
  5
153
330
150
100
AcDbEntity
  8
0
100
AcDbLine
 10
160.09270858
 20
123.24719062
 30
0.0
 11
19.33069545
 21
123.24719062
 31
0.0
  0
LINE
  5
154
330
150
100
AcDbEntity
  8
0
100
AcDbLine
 10
12.20755871
 20
15.43189496
 30
0.0
 11
12.20755871
 21
116.12405388
 31
0.0
  0
ARC
  5
155
330
150
100
AcDbEntity
  8
0
100
AcDbCircle
 10
19.33069545
 20
15.43189496
 30
0.0
 40
7.123136749999999
100
AcDbArc
 50
180.0
 51
270.0
  0
CIRCLE
  5
156
330
150
100
AcDbEntity
  8
0
100
AcDbCircle
 10
19.33069545
 20
15.43189496
 30
0.0
 40
2.58835439
  0
ARC
  5
157
330
150
100
AcDbEntity
  8
0
100
AcDbCircle
 10
19.33069545
 20
116.12405388
 30
0.0
 40
7.123136749999999
100
AcDbArc
 50
90.0
 51
180.0
  0
CIRCLE
  5
158
330
150
100
AcDbEntity
  8
0
100
AcDbCircle
 10
19.33069545
 20
116.12405388
 30
0.0
 40
2.58835439
  0
LINE
  5
159
330
150
100
AcDbEntity
  8
0
100
AcDbLine
 10
167.21584532
 20
15.43189496
 30
0.0
 11
167.21584532
 21
116.12405388
 31
0.0
  0
CIRCLE
  5
15A
330
150
100
AcDbEntity
  8
0
100
AcDbCircle
 10
160.09270858
 20
15.43189496
 30
0.0
 40
2.58835439
  0
ARC
  5
15B
330
150
100
AcDbEntity
  8
0
100
AcDbCircle
 10
160.09270858
 20
15.43189496
 30
0.0
 40
7.123136749999999
100
AcDbArc
 50
270.0
 51
0.0
  0
CIRCLE
  5
15C
330
150
100
AcDbEntity
  8
0
100
AcDbCircle
 10
160.09270858
 20
116.12405388
 30
0.0
 40
2.58835439
  0
ARC
  5
15D
330
150
100
AcDbEntity
  8
0
100
AcDbCircle
 10
160.09270858
 20
116.12405388
 30
0.0
 40
7.123136749999999
100
AcDbArc
 50
0.0
 51
90.0
  0
ENDBLK
  5
15E
330
150
100
AcDbEntity
  8
0
100
AcDbBlockEnd
  0
BLOCK
  5
160
330
15F
100
AcDbEntity
  8
0
100
AcDbBlockBegin
  2
*D3
 70
     0
 10
0.0
 20
0.0
 30
0.0
  3
*D3
  1

  0
LINE
  5
161
330
15F
100
AcDbEntity
  8
QUOTE
 62
     7
100
AcDbLine
 10
253.76690811
 20
19.71758356
 30
0.0
 11
253.76690811
 21
-14.3572367
 31
0.0
  0
LINE
  5
162
330
15F
100
AcDbEntity
  8
QUOTE
 62
     7
100
AcDbLine
 10
33.76690811
 20
19.78245389
 30
0.0
 11
33.76690811
 21
-14.3572367
 31
0.0
  0
LINE
  5
163
330
15F
100
AcDbEntity
  8
QUOTE
 62
     7
100
AcDbLine
 10
238.76690811
 20
-14.1772367
 30
0.0
 11
156.35690811
 21
-14.1772367
 31
0.0
  0
LINE
  5
164
330
15F
100
AcDbEntity
  8
QUOTE
 62
     7
100
AcDbLine
 10
48.76690811
 20
-14.1772367
 30
0.0
 11
131.17690811
 21
-14.1772367
 31
0.0
  0
LWPOLYLINE
  5
165
102
{ACAD_REACTORS
330
166
102
}
330
15F
100
AcDbEntity
  8
QUOTE
 62
     7
100
AcDbPolyline
 90
        3
 70
     1
 43
0.0
 10
238.76690811
 20
-11.6772367
 10
238.76690811
 20
-16.6772367
 10
253.76690811
 20
-14.1772367
  0
HATCH
  5
166
330
15F
100
AcDbEntity
  8
QUOTE
 62
     7
100
AcDbHatch
 10
0.0
 20
0.0
 30
0.0
210
0.0
220
0.0
230
1.0
  2
SOLID
 70
     1
 71
     1
 91
        1
 92
        2
 72
     0
 73
     1
 93
        3
 10
238.76690811
 20
-11.6772367
 10
238.76690811
 20
-16.6772367
 10
253.76690811
 20
-14.1772367
 97
        1
330
165
 75
     0
 76
     1
 98
        1
 10
0.0
 20
0.0
1001
VD_TEMPHATCH
1000
VD_TEMPHATCH
  0
LWPOLYLINE
  5
167
102
{ACAD_REACTORS
330
168
102
}
330
15F
100
AcDbEntity
  8
QUOTE
 62
     7
100
AcDbPolyline
 90
        3
 70
     1
 43
0.0
 10
48.76690811
 20
-11.6772367
 10
48.76690811
 20
-16.6772367
 10
33.76690811
 20
-14.1772367
  0
HATCH
  5
168
330
15F
100
AcDbEntity
  8
QUOTE
 62
     7
100
AcDbHatch
 10
0.0
 20
0.0
 30
0.0
210
0.0
220
0.0
230
1.0
  2
SOLID
 70
     1
 71
     1
 91
        1
 92
        2
 72
     0
 73
     1
 93
        3
 10
48.76690811
 20
-11.6772367
 10
48.76690811
 20
-16.6772367
 10
33.76690811
 20
-14.1772367
 97
        1
330
167
 75
     0
 76
     1
 98
        1
 10
0.0
 20
0.0
1001
VD_TEMPHATCH
1000
VD_TEMPHATCH
  0
MTEXT
  5
169
330
15F
100
AcDbEntity
  8
QUOTE
 62
     7
100
AcDbMText
 10
143.76690811
 20
-14.1772367
 30
0.0
 40
10.0
 41
22.49162198
 71
     5
 72
     1
  1
\A1;220
 73
     1
 44
1.0
1001
ACAD
1000
MTEXTBEGIN
1070
    73
1070
     1
1070
    44
1040
1.0
1070
    74
1070
     0
1000
MTEXTEND
  0
ENDBLK
  5
16A
330
15F
100
AcDbEntity
  8
0
100
AcDbBlockEnd
  0
BLOCK
  5
4C3
330
4C2
100
AcDbEntity
  8
0
100
AcDbBlockBegin
  2
*D5
 70
     1
 10
0.0
 20
0.0
 30
0.0
  3
*D5
  1

  0
LINE
  5
4F3
330
4C2
100
AcDbEntity
  8
QUOTE
 62
     0
370
    -2
100
AcDbLine
 10
74.06494225793787
 20
477.7111905146623
 30
0.0
 11
33.36337493793797
 21
477.7111905146623
 31
0.0
  0
LINE
  5
4F4
330
4C2
100
AcDbEntity
  8
QUOTE
 62
     0
370
    -2
100
AcDbLine
 10
71.59421468793787
 20
42.71060920466239
 30
0.0
 11
33.36337493793787
 21
42.71060920466239
 31
0.0
  0
LINE
  5
4F5
330
4C2
100
AcDbEntity
  8
QUOTE
 62
     0
370
    -2
100
AcDbLine
 10
33.54337493793796
 20
462.7111905146624
 30
0.0
 11
33.54337493793792
 21
257.1414283446624
 31
0.0
  0
LINE
  5
4F6
330
4C2
100
AcDbEntity
  8
QUOTE
 62
     0
370
    -2
100
AcDbLine
 10
33.54337493793788
 20
57.7106092046624
 30
0.0
 11
33.54337493793792
 21
246.9614283446624
 31
0.0
  0
SOLID
  5
4F7
330
4C2
100
AcDbEntity
  8
QUOTE
 62
     0
100
AcDbTrace
 10
31.04337493793797
 20
462.7111905146624
 30
0.0
 11
36.04337493793796
 21
462.7111905146624
 31
0.0
 12
33.54337493793797
 22
477.7111905146623
 32
0.0
 13
33.54337493793797
 23
477.7111905146623
 33
0.0
  0
SOLID
  5
4F8
330
4C2
100
AcDbEntity
  8
QUOTE
 62
     0
100
AcDbTrace
 10
31.04337493793788
 20
57.7106092046624
 30
0.0
 11
36.04337493793788
 21
57.7106092046624
 31
0.0
 12
33.54337493793787
 22
42.71060920466239
 32
0.0
 13
33.54337493793787
 23
42.71060920466239
 33
0.0
  0
MTEXT
  5
4F9
330
4C2
100
AcDbEntity
  8
QUOTE
 62
     0
100
AcDbMText
 10
33.54337493793788
 20
252.0514283446624
 30
0.0
 40
10.0
 41
0.0
 71
     5
 72
     1
  1
\A1;435
 73
     1
 44
1.0
1001
ACAD
1000
MTEXTBEGIN
1070
    73
1070
     1
1070
    44
1040
1.0
1070
    74
1070
     0
1000
MTEXTEND
  0
POINT
  5
4FA
330
4C2
100
AcDbEntity
  8
Defpoints
 62
     0
100
AcDbPoint
 10
74.12744225793787
 20
477.7111905146623
 30
0.0
  0
POINT
  5
4FB
330
4C2
100
AcDbEntity
  8
Defpoints
 62
     0
100
AcDbPoint
 10
71.65671468793788
 20
42.71060920466239
 30
0.0
  0
POINT
  5
4FC
330
4C2
100
AcDbEntity
  8
Defpoints
 62
     0
100
AcDbPoint
 10
33.54337493793787
 20
42.71060920466239
 30
0.0
  0
ENDBLK
  5
4C4
330
4C2
100
AcDbEntity
  8
0
100
AcDbBlockEnd
  0
BLOCK
  5
4D0
330
4CF
100
AcDbEntity
  8
0
100
AcDbBlockBegin
  2
*D6
 70
     1
 10
0.0
 20
0.0
 30
0.0
  3
*D6
  1

  0
LINE
  5
4E6
330
4CF
100
AcDbEntity
  8
QUOTE
 62
     0
370
    -2
100
AcDbLine
 10
276.6561446879379
 20
57.64631887466239
 30
0.0
 11
276.6561446879379
 21
23.57149861466239
 31
0.0
  0
LINE
  5
4E7
330
4CF
100
AcDbEntity
  8
QUOTE
 62
     0
370
    -2
100
AcDbLine
 10
56.65614468793788
 20
57.71118920466239
 30
0.0
 11
56.65614468793788
 21
23.57149861466239
 31
0.0
  0
LINE
  5
4E8
330
4CF
100
AcDbEntity
  8
QUOTE
 62
     0
370
    -2
100
AcDbLine
 10
261.6561446879379
 20
23.75149861466239
 30
0.0
 11
179.2461446879379
 21
23.75149861466239
 31
0.0
  0
LINE
  5
4E9
330
4CF
100
AcDbEntity
  8
QUOTE
 62
     0
370
    -2
100
AcDbLine
 10
71.65614468793788
 20
23.75149861466239
 30
0.0
 11
154.0661446879379
 21
23.75149861466239
 31
0.0
  0
SOLID
  5
4EA
330
4CF
100
AcDbEntity
  8
QUOTE
 62
     0
100
AcDbTrace
 10
261.6561446879379
 20
26.25149861466239
 30
0.0
 11
261.6561446879379
 21
21.25149861466239
 31
0.0
 12
276.6561446879379
 22
23.75149861466239
 32
0.0
 13
276.6561446879379
 23
23.75149861466239
 33
0.0
  0
SOLID
  5
4EB
330
4CF
100
AcDbEntity
  8
QUOTE
 62
     0
100
AcDbTrace
 10
71.65614468793788
 20
26.25149861466239
 30
0.0
 11
71.65614468793788
 21
21.25149861466239
 31
0.0
 12
56.65614468793788
 22
23.75149861466239
 32
0.0
 13
56.65614468793788
 23
23.75149861466239
 33
0.0
  0
MTEXT
  5
4EC
330
4CF
100
AcDbEntity
  8
QUOTE
 62
     0
100
AcDbMText
 10
166.6561446879379
 20
23.75149861466239
 30
0.0
 40
10.0
 41
0.0
 71
     5
 72
     1
  1
\A1;220
 73
     1
 44
1.0
1001
ACAD
1000
MTEXTBEGIN
1070
    73
1070
     1
1070
    44
1040
1.0
1070
    74
1070
     0
1000
MTEXTEND
  0
POINT
  5
4ED
330
4CF
100
AcDbEntity
  8
Defpoints
 62
     0
100
AcDbPoint
 10
276.6561446879379
 20
57.70881887466239
 30
0.0
  0
POINT
  5
4EE
330
4CF
100
AcDbEntity
  8
Defpoints
 62
     0
100
AcDbPoint
 10
56.65614468793788
 20
57.77368920466239
 30
0.0
  0
POINT
  5
4EF
330
4CF
100
AcDbEntity
  8
Defpoints
 62
     0
100
AcDbPoint
 10
56.65614468793788
 20
23.75149861466239
 30
0.0
  0
ENDBLK
  5
4D1
330
4CF
100
AcDbEntity
  8
0
100
AcDbBlockEnd
  0
ENDSEC
  0
SECTION
  2
ENTITIES
  0
CIRCLE
  5
31D
330
1F
100
AcDbEntity
  8
0
 62
     7
370
    35
100
AcDbCircle
 10
71.65614468793788
 20
462.7111905146624
 30
0.0
 40
7.0
  0
CIRCLE
  5
31E
330
1F
100
AcDbEntity
  8
0
 62
     7
370
    35
100
AcDbCircle
 10
261.6561446879379
 20
462.7111905146624
 30
0.0
 40
7.0
  0
CIRCLE
  5
31F
330
1F
100
AcDbEntity
  8
0
 62
     7
370
    35
100
AcDbCircle
 10
71.65614468793788
 20
300.7111905146623
 30
0.0
 40
7.0
  0
CIRCLE
  5
320
330
1F
100
AcDbEntity
  8
0
 62
     7
370
    35
100
AcDbCircle
 10
261.6561446879379
 20
300.7111905146623
 30
0.0
 40
7.0
  0
CIRCLE
  5
321
330
1F
100
AcDbEntity
  8
0
 62
     7
370
    35
100
AcDbCircle
 10
261.6561446879379
 20
57.71119051466239
 30
0.0
 40
7.0
  0
CIRCLE
  5
322
330
1F
100
AcDbEntity
  8
0
 62
     7
370
    35
100
AcDbCircle
 10
71.65614468793788
 20
57.71119051466239
 30
0.0
 40
7.0
  0
LINE
  5
323
330
1F
100
AcDbEntity
  8
0
 62
     7
 48
0.036012
370
    35
100
AcDbLine
 10
70.90022468793788
 20
63.70661251466239
 30
0.0
 11
72.34069968793787
 21
63.70661251466239
 31
0.0
  0
LINE
  5
324
330
1F
100
AcDbEntity
  8
0
 62
     7
 48
0.30255
370
    35
100
AcDbLine
 10
72.34069968793787
 20
51.60462351466239
 30
0.0
 11
72.34069968793787
 21
63.70661251466239
 31
0.0
  0
LINE
  5
325
330
1F
100
AcDbEntity
  8
0
 62
     7
 48
0.036012
370
    35
100
AcDbLine
 10
72.34069968793787
 20
51.60462351466239
 30
0.0
 11
70.90022468793788
 21
51.60462351466239
 31
0.0
  0
LINE
  5
326
330
1F
100
AcDbEntity
  8
0
 62
     7
 48
0.30255
370
    35
100
AcDbLine
 10
70.90022468793788
 20
63.70661251466239
 30
0.0
 11
70.90022468793788
 21
51.60462351466239
 31
0.0
  0
LINE
  5
327
330
1F
100
AcDbEntity
  8
0
 62
     7
 48
0.03336
370
    35
100
AcDbLine
 10
261.0376146879379
 20
63.84175951466239
 30
0.0
 11
262.3719956879379
 21
63.84175951466239
 31
0.0
  0
LINE
  5
328
330
1F
100
AcDbEntity
  8
0
 62
     7
 48
0.307871
370
    35
100
AcDbLine
 10
262.3719956879379
 20
51.52692551466238
 30
0.0
 11
262.3719956879379
 21
63.84175951466239
 31
0.0
  0
LINE
  5
329
330
1F
100
AcDbEntity
  8
0
 62
     7
 48
0.03336
370
    35
100
AcDbLine
 10
262.3719956879379
 20
51.52692551466238
 30
0.0
 11
261.0376146879379
 21
51.52692551466238
 31
0.0
  0
LINE
  5
32A
330
1F
100
AcDbEntity
  8
0
 62
     7
 48
0.307871
370
    35
100
AcDbLine
 10
261.0376146879379
 20
63.84175951466239
 30
0.0
 11
261.0376146879379
 21
51.52692551466238
 31
0.0
  0
LINE
  5
32B
330
1F
100
AcDbEntity
  8
0
 62
     7
 48
0.035134
370
    35
100
AcDbLine
 10
70.99752968793788
 20
306.8678675146624
 30
0.0
 11
72.40287968793788
 21
306.8678675146624
 31
0.0
  0
LINE
  5
32C
330
1F
100
AcDbEntity
  8
0
 62
     7
 48
0.309845
370
    35
100
AcDbLine
 10
72.40287968793788
 20
294.4740685146624
 30
0.0
 11
72.40287968793788
 21
306.8678675146624
 31
0.0
  0
LINE
  5
32D
330
1F
100
AcDbEntity
  8
0
 62
     7
 48
0.035134
370
    35
100
AcDbLine
 10
72.40287968793788
 20
294.4740685146624
 30
0.0
 11
70.99752968793788
 21
294.4740685146624
 31
0.0
  0
LINE
  5
32E
330
1F
100
AcDbEntity
  8
0
 62
     7
 48
0.309845
370
    35
100
AcDbLine
 10
70.99752968793788
 20
306.8678675146624
 30
0.0
 11
70.99752968793788
 21
294.4740685146624
 31
0.0
  0
LINE
  5
32F
330
1F
100
AcDbEntity
  8
0
 62
     7
 48
0.035134
370
    35
100
AcDbLine
 10
262.3147756879379
 20
306.8678675146624
 30
0.0
 11
260.9094106879379
 21
306.8678675146624
 31
0.0
  0
LINE
  5
330
330
1F
100
AcDbEntity
  8
0
 62
     7
 48
0.309845
370
    35
100
AcDbLine
 10
260.9094106879379
 20
294.4740685146624
 30
0.0
 11
260.9094106879379
 21
306.8678675146624
 31
0.0
  0
LINE
  5
331
330
1F
100
AcDbEntity
  8
0
 62
     7
 48
0.309845
370
    35
100
AcDbLine
 10
262.3147756879379
 20
306.8678675146624
 30
0.0
 11
262.3147756879379
 21
294.4740685146624
 31
0.0
  0
LINE
  5
332
330
1F
100
AcDbEntity
  8
0
 62
     7
 48
0.035134
370
    35
100
AcDbLine
 10
260.9094106879379
 20
294.4740685146624
 30
0.0
 11
262.3147756879379
 21
294.4740685146624
 31
0.0
  0
LINE
  5
333
330
1F
100
AcDbEntity
  8
0
 62
     7
 48
0.024371
370
    35
100
AcDbLine
 10
71.16150068793789
 20
469.1392905146623
 30
0.0
 11
72.13632368793787
 21
469.1392905146623
 31
0.0
  0
LINE
  5
334
330
1F
100
AcDbEntity
  8
0
 62
     7
 48
0.321996
370
    35
100
AcDbLine
 10
72.13632368793787
 20
456.2594695146623
 30
0.0
 11
72.13632368793787
 21
469.1392905146623
 31
0.0
  0
LINE
  5
335
330
1F
100
AcDbEntity
  8
0
 62
     7
 48
0.024371
370
    35
100
AcDbLine
 10
72.13632368793787
 20
456.2594695146623
 30
0.0
 11
71.16150068793789
 21
456.2594695146623
 31
0.0
  0
LINE
  5
336
330
1F
100
AcDbEntity
  8
0
 62
     7
 48
0.321996
370
    35
100
AcDbLine
 10
71.16150068793789
 20
469.1392905146623
 30
0.0
 11
71.16150068793789
 21
456.2594695146623
 31
0.0
  0
LINE
  5
337
330
1F
100
AcDbEntity
  8
0
 62
     7
 48
0.321996
370
    35
100
AcDbLine
 10
261.1759816879379
 20
456.2594695146623
 30
0.0
 11
261.1759816879379
 21
469.1392905146623
 31
0.0
  0
LINE
  5
338
330
1F
100
AcDbEntity
  8
0
 62
     7
 48
0.02437
370
    35
100
AcDbLine
 10
262.1507736879379
 20
469.1392905146623
 30
0.0
 11
261.1759816879379
 21
469.1392905146623
 31
0.0
  0
LINE
  5
339
330
1F
100
AcDbEntity
  8
0
 62
     7
 48
0.321996
370
    35
100
AcDbLine
 10
262.1507736879379
 20
469.1392905146623
 30
0.0
 11
262.1507736879379
 21
456.2594695146623
 31
0.0
  0
LINE
  5
33A
330
1F
100
AcDbEntity
  8
0
 62
     7
 48
0.02437
370
    35
100
AcDbLine
 10
261.1759816879379
 20
456.2594695146623
 30
0.0
 11
262.1507736879379
 21
456.2594695146623
 31
0.0
  0
LINE
  5
33B
330
1F
100
AcDbEntity
  8
0
 62
     7
 48
0.129758
370
    35
100
AcDbLine
 10
276.6561446879379
 20
62.90151351466239
 30
0.0
 11
276.6561446879379
 21
57.71119051466239
 31
0.0
  0
LINE
  5
33C
330
1F
100
AcDbEntity
  8
0
 62
     7
 48
0.259515
370
    35
100
AcDbLine
 10
276.6561446879379
 20
305.9014985146624
 30
0.0
 11
276.6561446879379
 21
295.5208825146624
 31
0.0
  0
LINE
  5
33D
330
1F
100
AcDbEntity
  8
0
 62
     7
 48
0.129758
370
    35
100
AcDbLine
 10
276.6561446879379
 20
462.7111905146624
 30
0.0
 11
276.6561446879379
 21
457.5208825146623
 31
0.0
  0
ARC
  5
33E
330
1F
100
AcDbEntity
  8
0
 62
     7
370
    35
100
AcDbCircle
 10
261.6561446879379
 20
462.7111905146624
 30
0.0
 40
15.0
100
AcDbArc
 50
0.0
 51
90.0
  0
LINE
  5
33F
330
1F
100
AcDbEntity
  8
0
 62
     7
370
    35
100
AcDbLine
 10
261.6561446879379
 20
477.7111905146623
 30
0.0
 11
71.65614468793788
 21
477.7111905146623
 31
0.0
  0
ARC
  5
340
330
1F
100
AcDbEntity
  8
0
 62
     7
370
    35
100
AcDbCircle
 10
71.65614468793788
 20
462.7111905146624
 30
0.0
 40
15.0
100
AcDbArc
 50
90.0
 51
180.0
  0
LINE
  5
341
330
1F
100
AcDbEntity
  8
0
 62
     7
370
    35
100
AcDbLine
 10
56.65614468793788
 20
57.71119051466239
 30
0.0
 11
56.65614468793788
 21
462.7111905146624
 31
0.0
  0
ARC
  5
342
330
1F
100
AcDbEntity
  8
0
 62
     7
370
    35
100
AcDbCircle
 10
71.65614468793788
 20
57.71119051466239
 30
0.0
 40
15.0
100
AcDbArc
 50
180.0
 51
200.2441429999999
  0
ARC
  5
343
330
1F
100
AcDbEntity
  8
0
 62
     7
370
    35
100
AcDbCircle
 10
261.6561446879379
 20
57.71119051466239
 30
0.0
 40
15.0
100
AcDbArc
 50
339.7558549999999
 51
0.0
  0
LINE
  5
344
330
1F
100
AcDbEntity
  8
0
 62
   253
370
    35
100
AcDbLine
 10
267.4212206879379
 20
339.5105375146624
 30
0.0
 11
267.4209156879379
 21
425.4842615146624
 31
0.0
  0
ARC
  5
345
330
1F
100
AcDbEntity
  8
0
 62
   253
370
    35
100
AcDbCircle
 10
265.3808156879379
 20
425.4814235146623
 30
0.0
 40
2.040195
100
AcDbArc
 50
0.0802970000000133
 51
6.676644000000043
  0
ARC
  5
346
330
1F
100
AcDbEntity
  8
0
 62
   253
370
    35
100
AcDbCircle
 10
265.4217086879379
 20
425.4848105146623
 30
0.0
 40
1.999050999999999
100
AcDbArc
 50
29.99454000000003
 51
34.33495099999988
  0
ARC
  5
347
330
1F
100
AcDbEntity
  8
0
 62
   253
370
    35
100
AcDbCircle
 10
265.4209156879379
 20
425.4842925146623
 30
0.0
 40
1.999993
100
AcDbArc
 50
60.9950239999999
 51
90.0
  0
LINE
  5
348
330
1F
100
AcDbEntity
  8
0
 62
   253
370
    35
100
AcDbLine
 10
265.4209156879379
 20
427.4842615146623
 30
0.0
 11
67.89135968793788
 21
427.4842615146623
 31
0.0
  0
ARC
  5
349
330
1F
100
AcDbEntity
  8
0
 62
   253
370
    35
100
AcDbCircle
 10
67.89135968793788
 20
425.4842925146623
 30
0.0
 40
1.999993
100
AcDbArc
 50
90.0
 51
119.0048989999999
  0
ARC
  5
34A
330
1F
100
AcDbEntity
  8
0
 62
   253
370
    35
100
AcDbCircle
 10
67.89067268793788
 20
425.4847495146623
 30
0.0
 40
1.999168
100
AcDbArc
 50
145.6557099999999
 51
149.579654
  0
ARC
  5
34B
330
1F
100
AcDbEntity
  8
0
 62
   253
370
    35
100
AcDbCircle
 10
67.90001068793788
 20
425.4829495146624
 30
0.0
 40
2.00872
100
AcDbArc
 50
165.0202249999999
 51
179.9621109999999
  0
LINE
  5
34C
330
1F
100
AcDbEntity
  8
0
 62
   253
370
    35
100
AcDbLine
 10
65.89105368793787
 20
339.5105375146624
 30
0.0
 11
65.89135968793788
 21
425.4842615146624
 31
0.0
  0
ELLIPSE
  5
34D
330
1F
100
AcDbEntity
  8
0
 62
   253
370
    35
100
AcDbEllipse
 10
266.9207016879379
 20
337.5185025146624
 30
0.0
 11
-0.3535461399999999
 21
0.3535461399999999
 31
0.0
210
0.0
220
0.0
230
1.0
 40
0.9996950000000001
 41
2.3560422
 42
3.14159265
  0
ELLIPSE
  5
34E
330
1F
100
AcDbEntity
  8
0
 62
   253
370
    35
100
AcDbEllipse
 10
66.39158768793788
 20
337.5185025146624
 30
0.0
 11
0.3535461399999999
 21
0.3535461399999999
 31
0.0
210
0.0
220
0.0
230
1.0
 40
0.9996950000000001
 41
3.14159265
 42
3.927143109999999
  0
ELLIPSE
  5
34F
330
1F
100
AcDbEntity
  8
0
 62
   253
370
    13
100
AcDbEllipse
 10
266.8483446879378
 20
318.0219815146624
 30
0.0
 11
-0.5
 21
0.0012207
 31
0.0
210
0.0
220
0.0
230
1.0
 40
0.139173
 41
2.52496481
 42
3.15921749
  0
LINE
  5
350
330
1F
100
AcDbEntity
  8
0
 62
   253
 48
0.4069840000000001
370
    35
100
AcDbLine
 10
202.3767866879379
 20
337.0452355146623
 30
0.0
 11
218.6561446879379
 21
337.0452355146623
 31
0.0
  0
LINE
  5
351
330
1F
100
AcDbEntity
  8
0
 62
   253
 48
0.1
370
    35
100
AcDbLine
 10
218.6561446879379
 20
337.0452355146623
 30
0.0
 11
222.6561446879379
 21
337.0452355146623
 31
0.0
  0
LINE
  5
352
330
1F
100
AcDbEntity
  8
0
 62
   253
 48
0.2
370
    35
100
AcDbLine
 10
222.6561446879379
 20
337.0452355146623
 30
0.0
 11
230.6561446879379
 21
337.0452355146623
 31
0.0
  0
LINE
  5
353
330
1F
100
AcDbEntity
  8
0
 62
   253
 48
0.1
370
    35
100
AcDbLine
 10
230.6561446879379
 20
337.0452355146623
 30
0.0
 11
234.6561446879379
 21
337.0452355146623
 31
0.0
  0
LINE
  5
354
330
1F
100
AcDbEntity
  8
0
 62
   253
370
    35
100
AcDbLine
 10
234.6561446879379
 20
337.0452355146623
 30
0.0
 11
265.4209156879379
 21
337.0452355146623
 31
0.0
  0
LINE
  5
355
330
1F
100
AcDbEntity
  8
0
 62
   253
370
    35
100
AcDbLine
 10
67.89135968793788
 20
337.0452355146623
 30
0.0
 11
98.65614468793788
 21
337.0452355146623
 31
0.0
  0
LINE
  5
356
330
1F
100
AcDbEntity
  8
0
 62
   253
 48
0.1
370
    35
100
AcDbLine
 10
98.65614468793788
 20
337.0452355146623
 30
0.0
 11
102.6561446879379
 21
337.0452355146623
 31
0.0
  0
LINE
  5
357
330
1F
100
AcDbEntity
  8
0
 62
   253
 48
0.2
370
    35
100
AcDbLine
 10
102.6561446879379
 20
337.0452355146623
 30
0.0
 11
110.6561446879378
 21
337.0452355146623
 31
0.0
  0
LINE
  5
358
330
1F
100
AcDbEntity
  8
0
 62
   253
 48
0.1
370
    35
100
AcDbLine
 10
110.6561446879378
 20
337.0452355146623
 30
0.0
 11
114.6561446879378
 21
337.0452355146623
 31
0.0
  0
LINE
  5
359
330
1F
100
AcDbEntity
  8
0
 62
   253
 48
0.4069840000000001
370
    35
100
AcDbLine
 10
114.6561446879378
 20
337.0452355146623
 30
0.0
 11
130.9355176879378
 21
337.0452355146623
 31
0.0
  0
LINE
  5
35A
330
1F
100
AcDbEntity
  8
0
 62
   253
 48
0.035079
370
    35
100
AcDbLine
 10
131.4336106879379
 20
337.5451445146623
 30
0.0
 11
131.4336106879379
 21
338.9483115146624
 31
0.0
  0
ARC
  5
35B
330
1F
100
AcDbEntity
  8
0
 62
   253
370
    35
100
AcDbCircle
 10
133.2203386879379
 20
338.9541105146624
 30
0.0
 40
1.786661999999999
100
AcDbArc
 50
125.5955679999999
 51
180.186323
  0
ARC
  5
35C
330
1F
100
AcDbEntity
  8
0
 62
   253
370
    35
100
AcDbCircle
 10
146.6467756879378
 20
320.1302575146624
 30
0.0
 40
24.909151
100
AcDbArc
 50
89.97843999999991
 51
125.505955
  0
LINE
  5
35D
330
1F
100
AcDbEntity
  8
0
 62
   253
370
    35
100
AcDbLine
 10
186.6561446879378
 20
345.0399255146623
 30
0.0
 11
146.6561446879379
 21
345.0399255146623
 31
0.0
  0
ARC
  5
35E
330
1F
100
AcDbEntity
  8
0
 62
   253
370
    35
100
AcDbCircle
 10
186.6654836879379
 20
320.1301055146624
 30
0.0
 40
24.909298
100
AcDbArc
 50
54.49417599999996
 51
90.02149700000002
  0
ARC
  5
35F
330
1F
100
AcDbEntity
  8
0
 62
   253
370
    35
100
AcDbCircle
 10
200.0919666879379
 20
338.9541105146624
 30
0.0
 40
1.786629999999999
100
AcDbArc
 50
359.8130039999999
 51
54.40470400000002
  0
LINE
  5
360
330
1F
100
AcDbEntity
  8
0
 62
   253
 48
0.035078
370
    35
100
AcDbLine
 10
201.8786796879379
 20
337.5451445146623
 30
0.0
 11
201.8786796879379
 21
338.9482815146624
 31
0.0
  0
LINE
  5
361
330
1F
100
AcDbEntity
  8
0
 62
   253
 48
0.000343
370
    35
100
AcDbLine
 10
66.40129268793788
 20
337.0088895146624
 30
0.0
 11
66.39158768793788
 21
337.0185635146623
 31
0.0
  0
LINE
  5
362
330
1F
100
AcDbEntity
  8
0
 62
   253
 48
0.003719
370
    35
100
AcDbLine
 10
130.9355176879378
 20
337.0452355146623
 30
0.0
 11
131.0814076879379
 21
337.0161225146624
 31
0.0
  0
ARC
  5
363
330
1F
100
AcDbEntity
  8
0
 62
   253
370
    35
100
AcDbCircle
 10
146.0287336879378
 20
1570.133370514662
 30
0.0
 40
1233.227052
100
AcDbArc
 50
269.351
 51
270.029149
  0
LINE
  5
364
330
1F
100
AcDbEntity
  8
0
 62
   253
370
    35
100
AcDbLine
 10
186.6561446879378
 20
336.9057095146624
 30
0.0
 11
146.6561446879379
 21
336.9057095146624
 31
0.0
  0
ARC
  5
365
330
1F
100
AcDbEntity
  8
0
 62
   253
370
    35
100
AcDbCircle
 10
187.2835256879378
 20
1570.135323514662
 30
0.0
 40
1233.229111
100
AcDbArc
 50
269.970853
 51
270.649002
  0
LINE
  5
366
330
1F
100
AcDbEntity
  8
0
 62
   253
 48
0.00372
370
    35
100
AcDbLine
 10
202.3767866879379
 20
337.0452355146623
 30
0.0
 11
202.2308826879379
 21
337.0161225146624
 31
0.0
  0
ELLIPSE
  5
367
330
1F
100
AcDbEntity
  8
0
 62
   253
370
    13
100
AcDbEllipse
 10
66.46396068793788
 20
318.0219815146624
 30
0.0
 11
-0.5
 21
-0.0012207
 31
0.0
210
0.0
220
0.0
230
1.0
 40
0.139173
 41
6.265560469999999
 42
6.899813707179585
  0
ELLIPSE
  5
368
330
1F
100
AcDbEntity
  8
0
 62
   253
370
    35
100
AcDbEllipse
 10
202.3767866879379
 20
337.5451445146623
 30
0.0
 11
-0.09783936
 21
0.4903259300000001
 31
0.0
210
0.0
220
0.0
230
1.0
 40
0.996044
 41
1.374628899999999
 42
2.943904139999999
  0
ELLIPSE
  5
369
330
1F
100
AcDbEntity
  8
0
 62
   253
370
    35
100
AcDbEllipse
 10
130.9355176879378
 20
337.5451445146623
 30
0.0
 11
0.09783936
 21
0.4903259300000001
 31
0.0
210
0.0
220
0.0
230
1.0
 40
0.996044
 41
3.33928116
 42
4.90855641
  0
LINE
  5
36A
330
1F
100
AcDbEntity
  8
0
 62
   253
 48
0.024136
370
    35
100
AcDbLine
 10
146.6561446879379
 20
345.0399255146623
 30
0.0
 11
146.6561446879379
 21
344.0744715146624
 31
0.0
  0
LINE
  5
36B
330
1F
100
AcDbEntity
  8
0
 62
   253
 48
0.024136
370
    35
100
AcDbLine
 10
186.6561446879378
 20
345.0399255146623
 30
0.0
 11
186.6561446879378
 21
344.0744715146624
 31
0.0
  0
LINE
  5
36C
330
1F
100
AcDbEntity
  8
0
 62
   253
 48
0.01198
370
    35
100
AcDbLine
 10
146.6561446879379
 20
337.3849265146624
 30
0.0
 11
146.6561446879379
 21
336.9057095146624
 31
0.0
  0
LINE
  5
36D
330
1F
100
AcDbEntity
  8
0
 62
   253
 48
0.01198
370
    35
100
AcDbLine
 10
186.6561446879378
 20
337.3849265146624
 30
0.0
 11
186.6561446879378
 21
336.9057095146624
 31
0.0
  0
LINE
  5
36E
330
1F
100
AcDbEntity
  8
0
 62
   253
 48
0.167238
370
    35
100
AcDbLine
 10
146.6561446879379
 20
344.0744715146624
 30
0.0
 11
146.6561446879379
 21
337.3849575146624
 31
0.0
  0
LINE
  5
36F
330
1F
100
AcDbEntity
  8
0
 62
   253
 48
0.167239
370
    35
100
AcDbLine
 10
186.6561446879378
 20
344.0744715146624
 30
0.0
 11
186.6561446879378
 21
337.3849265146624
 31
0.0
  0
LINE
  5
370
330
1F
100
AcDbEntity
  8
0
 62
   253
 48
0.049789
370
    35
100
AcDbLine
 10
267.4212206879379
 20
339.5105375146624
 30
0.0
 11
267.4209156879379
 21
337.5189605146624
 31
0.0
  0
ARC
  5
371
330
1F
100
AcDbEntity
  8
0
 62
   253
370
    35
100
AcDbCircle
 10
265.4209156879379
 20
425.4842615146624
 30
0.0
 40
2.0
100
AcDbArc
 50
6.728933999999926
 51
29.99603900000009
  0
ARC
  5
372
330
1F
100
AcDbEntity
  8
0
 62
   253
370
    35
100
AcDbCircle
 10
265.4209156879379
 20
425.4842615146624
 30
0.0
 40
2.0
100
AcDbArc
 50
34.33439100000007
 51
60.99513299999989
  0
ARC
  5
373
330
1F
100
AcDbEntity
  8
0
 62
   253
370
    35
100
AcDbCircle
 10
67.89135968793788
 20
425.4842615146624
 30
0.0
 40
2.0
100
AcDbArc
 50
119.0047899999998
 51
145.6561749999999
  0
ARC
  5
374
330
1F
100
AcDbEntity
  8
0
 62
   253
370
    35
100
AcDbCircle
 10
67.89135968793788
 20
425.4842615146624
 30
0.0
 40
2.0
100
AcDbArc
 50
149.5785060000001
 51
164.9928639999999
  0
LINE
  5
375
330
1F
100
AcDbEntity
  8
0
 62
   253
 48
0.049789
370
    35
100
AcDbLine
 10
65.89105368793787
 20
339.5105375146624
 30
0.0
 11
65.89135968793788
 21
337.5189605146624
 31
0.0
  0
ARC
  5
376
330
1F
100
AcDbEntity
  8
0
 62
   253
370
    35
100
AcDbCircle
 10
266.9201826879379
 20
337.5190515146624
 30
0.0
 40
0.500732
100
AcDbArc
 50
314.997188
 51
359.990554
  0
ARC
  5
377
330
1F
100
AcDbEntity
  8
0
 62
   253
370
    35
100
AcDbCircle
 10
66.39209168793787
 20
337.5190515146624
 30
0.0
 40
0.500732
100
AcDbArc
 50
180.009448
 51
225.0028140000001
  0
LINE
  5
378
330
1F
100
AcDbEntity
  8
0
 62
   253
 48
0.000306
370
    35
100
AcDbLine
 10
267.2742476879379
 20
337.1649565146624
 30
0.0
 11
267.2655806879379
 21
337.1562895146624
 31
0.0
  0
LINE
  5
379
330
1F
100
AcDbEntity
  8
0
 62
   253
 48
0.465656
370
    35
100
AcDbLine
 10
267.3940296879379
 20
336.6469205146624
 30
0.0
 11
267.3483446879379
 21
318.0207305146624
 31
0.0
  0
ARC
  5
37A
330
1F
100
AcDbEntity
  8
0
 62
   253
370
    35
100
AcDbCircle
 10
295.4814316879378
 20
336.6895835146624
 30
0.0
 40
28.087143
100
AcDbArc
 50
178.5720169999999
 51
180.0870389999999
  0
LINE
  5
37B
330
1F
100
AcDbEntity
  8
0
 62
   253
 48
0.000624
370
    35
100
AcDbLine
 10
267.2743086879379
 20
337.1656275146624
 30
0.0
 11
267.2566696879379
 21
337.1479575146624
 31
0.0
  0
LINE
  5
37C
330
1F
100
AcDbEntity
  8
0
 62
   253
 48
0.000306
370
    35
100
AcDbLine
 10
66.04670868793788
 20
337.1562895146624
 30
0.0
 11
66.03804168793788
 21
337.1649565146624
 31
0.0
  0
LINE
  5
37D
330
1F
100
AcDbEntity
  8
0
 62
   253
 48
0.00062
370
    35
100
AcDbLine
 10
66.03805768793788
 20
337.1655665146624
 30
0.0
 11
66.05557468793787
 21
337.1479885146623
 31
0.0
  0
ARC
  5
37E
330
1F
100
AcDbEntity
  8
0
 62
   253
370
    35
100
AcDbCircle
 10
37.45340168793788
 20
336.6852195146624
 30
0.0
 40
28.464622
100
AcDbArc
 50
359.922889
 51
1.408302000000024
  0
LINE
  5
37F
330
1F
100
AcDbEntity
  8
0
 62
   253
 48
0.465656
370
    35
100
AcDbLine
 10
65.91826068793787
 20
336.6469205146624
 30
0.0
 11
65.96396068793788
 21
318.0207305146624
 31
0.0
  0
ARC
  5
380
330
1F
100
AcDbEntity
  8
0
 62
   253
370
    35
100
AcDbCircle
 10
264.8557606879379
 20
318.0269555146624
 30
0.0
 40
2.492569
100
AcDbArc
 50
344.369023
 51
359.8569019999999
  0
ARC
  5
381
330
1F
100
AcDbEntity
  8
0
 62
   253
370
    35
100
AcDbCircle
 10
68.45651468793787
 20
318.0269555146624
 30
0.0
 40
2.492559999999999
100
AcDbArc
 50
180.1430600000001
 51
195.631388
  0
ARC
  5
382
330
1F
100
AcDbEntity
  8
0
 62
   253
370
    35
100
AcDbCircle
 10
68.04725868793787
 20
316.7737815146623
 30
0.0
 40
1.991138
100
AcDbArc
 50
179.96692
 51
270.1240749999999
  0
LINE
  5
383
330
1F
100
AcDbEntity
  8
0
 62
   253
370
    35
100
AcDbLine
 10
68.05157668793788
 20
314.7822355146624
 30
0.0
 11
265.2606986879379
 21
314.7822355146624
 31
0.0
  0
ARC
  5
384
330
1F
100
AcDbEntity
  8
0
 62
   253
370
    35
100
AcDbCircle
 10
265.2650316879379
 20
316.7737815146623
 30
0.0
 40
1.991138
100
AcDbArc
 50
269.875927
 51
0.0330860000000776
  0
ELLIPSE
  5
385
330
1F
100
AcDbEntity
  8
0
 62
   253
370
    35
100
AcDbEllipse
 10
163.6457386879379
 20
322.0245445146624
 30
0.0
 11
6.0
 21
0.0
 31
0.0
210
0.0
220
0.0
230
1.0
 40
0.9998479999999998
 41
3.925260709999999
 42
4.71238898
  0
ELLIPSE
  5
386
330
1F
100
AcDbEntity
  8
0
 62
   253
370
    35
100
AcDbEllipse
 10
166.6561446879379
 20
325.0240875146624
 30
0.0
 11
10.25
 21
0.0
 31
0.0
210
0.0
220
0.0
230
1.0
 40
0.9998479999999998
 41
3.14159265
 42
3.925260709999999
  0
LINE
  5
387
330
1F
100
AcDbEntity
  8
0
 62
   253
 48
0.00174
370
    35
100
AcDbLine
 10
156.4061446879378
 20
325.0240875146624
 30
0.0
 11
156.4061446879378
 21
325.0936675146623
 31
0.0
  0
ELLIPSE
  5
388
330
1F
100
AcDbEntity
  8
0
 62
   253
370
    35
100
AcDbEllipse
 10
169.6665516879378
 20
322.0245445146624
 30
0.0
 11
6.0
 21
0.0
 31
0.0
210
0.0
220
0.0
230
1.0
 40
0.9998479999999998
 41
4.71238898
 42
5.49951725
  0
LINE
  5
389
330
1F
100
AcDbEntity
  8
0
 62
   253
 48
0.15052
370
    35
100
AcDbLine
 10
163.6457386879379
 20
316.0254605146624
 30
0.0
 11
169.6665516879378
 21
316.0254605146624
 31
0.0
  0
ELLIPSE
  5
38A
330
1F
100
AcDbEntity
  8
0
 62
   253
370
    35
100
AcDbEllipse
 10
166.6561446879379
 20
325.0240875146624
 30
0.0
 11
10.25
 21
0.0
 31
0.0
210
0.0
220
0.0
230
1.0
 40
0.9998479999999998
 41
6.28314778
 42
9.424777957179585
  0
ELLIPSE
  5
38B
330
1F
100
AcDbEntity
  8
0
 62
   253
370
    35
100
AcDbEllipse
 10
166.6561446879379
 20
325.0240875146624
 30
0.0
 11
10.25
 21
0.0
 31
0.0
210
0.0
220
0.0
230
1.0
 40
0.9998479999999998
 41
5.49951725
 42
6.28314778
  0
LINE
  5
38C
330
1F
100
AcDbEntity
  8
0
 62
   253
 48
0.016771
370
    35
100
AcDbLine
 10
186.6561446879378
 20
329.1858605146623
 30
0.0
 11
186.6561446879378
 21
328.5150235146624
 31
0.0
  0
ARC
  5
38D
330
1F
100
AcDbEntity
  8
0
 62
   253
370
    35
100
AcDbCircle
 10
163.7484296879379
 20
323.9047325146624
 30
0.0
 40
13.366272
100
AcDbArc
 50
20.17714499999994
 51
23.26567200000006
  0
LINE
  5
38E
330
1F
100
AcDbEntity
  8
0
 62
   253
 48
0.000533
370
    35
100
AcDbLine
 10
176.0279096879379
 20
329.1858605146623
 30
0.0
 11
176.0279096879379
 21
329.2071625146624
 31
0.0
  0
LINE
  5
38F
330
1F
100
AcDbEntity
  8
0
 62
   253
 48
0.000446
370
    35
100
AcDbLine
 10
186.6561446879378
 20
329.2037135146624
 30
0.0
 11
186.6561446879378
 21
329.1858605146623
 31
0.0
  0
LINE
  5
390
330
1F
100
AcDbEntity
  8
0
 62
   253
 48
0.251478
370
    35
100
AcDbLine
 10
176.5970326879379
 20
329.2037135146624
 30
0.0
 11
186.6561446879378
 21
329.2037135146624
 31
0.0
  0
LINE
  5
391
330
1F
100
AcDbEntity
  8
0
 62
   253
 48
0.014228
370
    35
100
AcDbLine
 10
176.5970326879379
 20
329.2037135146624
 30
0.0
 11
176.0279096879379
 21
329.2071625146624
 31
0.0
  0
LINE
  5
392
330
1F
100
AcDbEntity
  8
0
 62
   253
 48
0.014228
370
    35
100
AcDbLine
 10
156.7152576879379
 20
329.2037135146624
 30
0.0
 11
157.2843796879378
 21
329.2071625146624
 31
0.0
  0
LINE
  5
393
330
1F
100
AcDbEntity
  8
0
 62
   253
 48
0.000446
370
    35
100
AcDbLine
 10
146.6561446879379
 20
329.2037135146624
 30
0.0
 11
146.6561446879379
 21
329.1858605146623
 31
0.0
  0
LINE
  5
394
330
1F
100
AcDbEntity
  8
0
 62
   253
 48
0.000533
370
    35
100
AcDbLine
 10
157.2843796879378
 20
329.1858605146623
 30
0.0
 11
157.2843796879378
 21
329.2071625146624
 31
0.0
  0
LINE
  5
395
330
1F
100
AcDbEntity
  8
0
 62
   253
 48
0.251478
370
    35
100
AcDbLine
 10
146.6561446879379
 20
329.2037135146624
 30
0.0
 11
156.7152576879379
 21
329.2037135146624
 31
0.0
  0
LINE
  5
396
330
1F
100
AcDbEntity
  8
0
 62
   253
 48
0.016769
370
    35
100
AcDbLine
 10
146.6561446879379
 20
329.1858605146623
 30
0.0
 11
146.6561446879379
 21
328.5150845146624
 31
0.0
  0
ARC
  5
397
330
1F
100
AcDbEntity
  8
0
 62
   253
370
    35
100
AcDbCircle
 10
169.5638596879379
 20
323.9047325146624
 30
0.0
 40
13.366272
100
AcDbArc
 50
156.7343319999999
 51
159.8228610000001
  0
ARC
  5
398
330
1F
100
AcDbEntity
  8
0
 62
   253
370
    35
100
AcDbCircle
 10
166.7291126879379
 20
325.0250945146624
 30
0.0
 40
10.181821
100
AcDbArc
 50
4.358457000000001
 51
20.04494700000002
  0
ARC
  5
399
330
1F
100
AcDbEntity
  8
0
 62
   253
370
    35
100
AcDbCircle
 10
166.6520556879379
 20
325.0936365146624
 30
0.0
 40
10.254083
100
AcDbArc
 50
0.0001880000000312
 51
3.384006999999933
  0
LINE
  5
39A
330
1F
100
AcDbEntity
  8
0
 62
   253
 48
0.002505
370
    35
100
AcDbLine
 10
176.8882616879379
 20
325.6989225146624
 30
0.0
 11
176.8817306879379
 21
325.7988975146624
 31
0.0
  0
ARC
  5
39B
330
1F
100
AcDbEntity
  8
0
 62
   253
370
    35
100
AcDbCircle
 10
201.3555776879379
 20
331.1057215146624
 30
0.0
 40
1.065674
100
AcDbArc
 50
95.36345599999995
 51
103.4885609999999
  0
LINE
  5
39C
330
1F
100
AcDbEntity
  8
0
 62
   253
 48
0.067903
370
    35
100
AcDbLine
 10
186.6561446879378
 20
325.7988975146624
 30
0.0
 11
186.6561446879378
 21
328.5150235146624
 31
0.0
  0
LINE
  5
39D
330
1F
100
AcDbEntity
  8
0
 62
   253
 48
0.005459
370
    35
100
AcDbLine
 10
200.2117176879379
 20
331.7470485146624
 30
0.0
 11
200.4024826879379
 21
331.8533105146624
 31
0.0
  0
LINE
  5
39E
330
1F
100
AcDbEntity
  8
0
 62
   253
 48
0.002499
370
    35
100
AcDbLine
 10
186.6561446879378
 20
325.6989225146624
 30
0.0
 11
186.6561446879378
 21
325.7988975146624
 31
0.0
  0
LINE
  5
39F
330
1F
100
AcDbEntity
  8
0
 62
   253
 48
0.2441969999999999
370
    35
100
AcDbLine
 10
176.8882616879379
 20
325.6989225146624
 30
0.0
 11
186.6561446879378
 21
325.6989225146624
 31
0.0
  0
ARC
  5
3A0
330
1F
100
AcDbEntity
  8
0
 62
   253
370
    35
100
AcDbCircle
 10
166.6588916879379
 20
325.0936675146623
 30
0.0
 40
10.252735
100
AcDbArc
 50
176.615756
 51
180.0
  0
ARC
  5
3A1
330
1F
100
AcDbEntity
  8
0
 62
   253
370
    35
100
AcDbCircle
 10
166.5831776879379
 20
325.0250945146624
 30
0.0
 40
10.181821
100
AcDbArc
 50
159.955053
 51
175.641538
  0
LINE
  5
3A2
330
1F
100
AcDbEntity
  8
0
 62
   253
 48
0.002505
370
    35
100
AcDbLine
 10
156.4240286879379
 20
325.6989225146624
 30
0.0
 11
156.4305586879379
 21
325.7988975146624
 31
0.0
  0
LINE
  5
3A3
330
1F
100
AcDbEntity
  8
0
 62
   253
 48
0.067903
370
    35
100
AcDbLine
 10
146.6561446879379
 20
325.7988975146624
 30
0.0
 11
146.6561446879379
 21
328.5150235146624
 31
0.0
  0
ARC
  5
3A4
330
1F
100
AcDbEntity
  8
0
 62
   253
370
    35
100
AcDbCircle
 10
131.9567126879379
 20
331.1057215146624
 30
0.0
 40
1.065678
100
AcDbArc
 50
76.51145100000007
 51
84.63654200000002
  0
LINE
  5
3A5
330
1F
100
AcDbEntity
  8
0
 62
   253
 48
0.009276
370
    35
100
AcDbLine
 10
132.0563066879379
 20
332.1666345146624
 30
0.0
 11
131.6852736879378
 21
332.1648035146623
 31
0.0
  0
LINE
  5
3A6
330
1F
100
AcDbEntity
  8
0
 62
   253
 48
0.005461
370
    35
100
AcDbLine
 10
132.9098066879379
 20
331.8533105146624
 30
0.0
 11
133.1006636879378
 21
331.7470185146624
 31
0.0
  0
LINE
  5
3A7
330
1F
100
AcDbEntity
  8
0
 62
   253
 48
0.002499
370
    35
100
AcDbLine
 10
146.6561446879379
 20
325.6989225146624
 30
0.0
 11
146.6561446879379
 21
325.7988975146624
 31
0.0
  0
LINE
  5
3A8
330
1F
100
AcDbEntity
  8
0
 62
   253
 48
0.002478
370
    35
100
AcDbLine
 10
131.6985796879379
 20
330.9836815146624
 30
0.0
 11
131.7604536879379
 21
331.0611045146623
 31
0.0
  0
LINE
  5
3A9
330
1F
100
AcDbEntity
  8
0
 62
   253
 48
0.2441969999999999
370
    35
100
AcDbLine
 10
146.6561446879379
 20
325.6989225146624
 30
0.0
 11
156.4240286879379
 21
325.6989225146624
 31
0.0
  0
LINE
  5
3AA
330
1F
100
AcDbEntity
  8
0
 62
   253
 48
0.000392
370
    35
100
AcDbLine
 10
200.8928396879379
 20
332.2057275146624
 30
0.0
 11
200.8802656879379
 21
332.1963285146624
 31
0.0
  0
LINE
  5
3AB
330
1F
100
AcDbEntity
  8
0
 62
   253
 48
0.00255
370
    35
100
AcDbLine
 10
200.8928396879379
 20
332.2057275146624
 30
0.0
 11
200.9722456879379
 21
332.2697235146624
 31
0.0
  0
ARC
  5
3AC
330
1F
100
AcDbEntity
  8
0
 62
   253
370
    35
100
AcDbCircle
 10
199.5098746879378
 20
333.9690945146624
 30
0.0
 40
2.242020999999999
100
AcDbArc
 50
310.7134159999999
 51
319.9234649999999
  0
ARC
  5
3AD
330
1F
100
AcDbEntity
  8
0
 62
   253
370
    35
100
AcDbCircle
 10
199.8218856879379
 20
333.7046595146624
 30
0.0
 40
1.833238
100
AcDbArc
 50
319.9692620000002
 51
355.4004610000001
  0
LINE
  5
3AE
330
1F
100
AcDbEntity
  8
0
 62
   253
 48
0.005738
370
    35
100
AcDbLine
 10
201.6496756879379
 20
333.7871485146624
 30
0.0
 11
201.6494616879379
 21
333.5576255146624
 31
0.0
  0
ARC
  5
3AF
330
1F
100
AcDbEntity
  8
0
 62
   253
370
    35
100
AcDbCircle
 10
193.6960616879379
 20
342.0092255146624
 30
0.0
 40
12.161644
100
AcDbArc
 50
303.2826760000001
 51
306.2086639999999
  0
LINE
  5
3B0
330
1F
100
AcDbEntity
  8
0
 62
   253
 48
0.000111
370
    35
100
AcDbLine
 10
201.2559676879379
 20
332.1710905146624
 30
0.0
 11
201.2559676879379
 21
332.1666345146624
 31
0.0
  0
LINE
  5
3B1
330
1F
100
AcDbEntity
  8
0
 62
   253
 48
0.000066
370
    35
100
AcDbLine
 10
201.1065846879378
 20
332.1446925146624
 30
0.0
 11
201.1069816879379
 21
332.1420985146624
 31
0.0
  0
ARC
  5
3B2
330
1F
100
AcDbEntity
  8
0
 62
   253
370
    35
100
AcDbCircle
 10
201.3797776879379
 20
331.0409025146624
 30
0.0
 40
1.137038999999999
100
AcDbArc
 50
96.25213900000007
 51
103.9021220000001
  0
LINE
  5
3B3
330
1F
100
AcDbEntity
  8
0
 62
   253
 48
0.001282
370
    35
100
AcDbLine
 10
201.5753956879379
 20
332.2295925146624
 30
0.0
 11
201.6266646879379
 21
332.2298675146624
 31
0.0
  0
ARC
  5
3B4
330
1F
100
AcDbEntity
  8
0
 62
   253
370
    35
100
AcDbCircle
 10
200.3793506879379
 20
337.8675625146624
 30
0.0
 40
5.763486
100
AcDbArc
 50
278.7482749999999
 51
281.977103
  0
ARC
  5
3B5
330
1F
100
AcDbEntity
  8
0
 62
   253
370
    35
100
AcDbCircle
 10
201.8854846879379
 20
329.2910545146624
 30
0.0
 40
2.959633
100
AcDbArc
 50
105.71594
 51
119.9263880000001
  0
LINE
  5
3B6
330
1F
100
AcDbEntity
  8
0
 62
   253
 48
0.000579
370
    35
100
AcDbLine
 10
201.1065846879378
 20
332.1446925146624
 30
0.0
 11
201.0840626879379
 21
332.1392295146623
 31
0.0
  0
ARC
  5
3B7
330
1F
100
AcDbEntity
  8
0
 62
   253
370
    35
100
AcDbCircle
 10
200.4079146879379
 20
331.7833945146623
 30
0.0
 40
0.070196
100
AcDbArc
 50
94.5201669999999
 51
122.70357
  0
ARC
  5
3B8
330
1F
100
AcDbEntity
  8
0
 62
   253
370
    35
100
AcDbCircle
 10
133.4905256879378
 20
333.7048425146623
 30
0.0
 40
1.833418999999999
100
AcDbArc
 50
184.604813
 51
220.032512
  0
ARC
  5
3B9
330
1F
100
AcDbEntity
  8
0
 62
   253
370
    35
100
AcDbCircle
 10
133.8024156879378
 20
333.9690945146624
 30
0.0
 40
2.242024999999999
100
AcDbArc
 50
220.0765399999999
 51
229.286572
  0
LINE
  5
3BA
330
1F
100
AcDbEntity
  8
0
 62
   253
 48
0.00255
370
    35
100
AcDbLine
 10
132.3400286879379
 20
332.2697235146624
 30
0.0
 11
132.4194656879378
 21
332.2057275146624
 31
0.0
  0
LINE
  5
3BB
330
1F
100
AcDbEntity
  8
0
 62
   253
 48
0.000392
370
    35
100
AcDbLine
 10
132.4320086879378
 20
332.1963285146624
 30
0.0
 11
132.4194656879378
 21
332.2057275146624
 31
0.0
  0
LINE
  5
3BC
330
1F
100
AcDbEntity
  8
0
 62
   253
 48
0.005738
370
    35
100
AcDbLine
 10
131.6626146879379
 20
333.7871485146624
 30
0.0
 11
131.6628436879379
 21
333.5576255146624
 31
0.0
  0
ARC
  5
3BD
330
1F
100
AcDbEntity
  8
0
 62
   253
370
    35
100
AcDbCircle
 10
139.6162276879379
 20
342.0091945146623
 30
0.0
 40
12.161621
100
AcDbArc
 50
233.7913409999999
 51
236.7173259999999
  0
LINE
  5
3BE
330
1F
100
AcDbEntity
  8
0
 62
   253
 48
0.000111
370
    35
100
AcDbLine
 10
132.0563376879379
 20
332.1710905146624
 30
0.0
 11
132.0563066879379
 21
332.1666345146624
 31
0.0
  0
ARC
  5
3BF
330
1F
100
AcDbEntity
  8
0
 62
   253
370
    35
100
AcDbCircle
 10
131.9323596879379
 20
331.0406885146623
 30
0.0
 40
1.137267
100
AcDbArc
 50
76.09325899999989
 51
83.741719
  0
LINE
  5
3C0
330
1F
100
AcDbEntity
  8
0
 62
   253
 48
0.000066
370
    35
100
AcDbLine
 10
132.2057206879378
 20
332.1446925146624
 30
0.0
 11
132.2052936879378
 21
332.1420985146624
 31
0.0
  0
LINE
  5
3C1
330
1F
100
AcDbEntity
  8
0
 62
   253
 48
0.000579
370
    35
100
AcDbLine
 10
132.2282426879379
 20
332.1392295146623
 30
0.0
 11
132.2057206879378
 21
332.1446925146624
 31
0.0
  0
ARC
  5
3C2
330
1F
100
AcDbEntity
  8
0
 62
   253
370
    35
100
AcDbCircle
 10
131.4268056879378
 20
329.2910855146624
 30
0.0
 40
2.959624
100
AcDbArc
 50
60.07350800000003
 51
74.28407199999991
  0
ARC
  5
3C3
330
1F
100
AcDbEntity
  8
0
 62
   253
370
    35
100
AcDbCircle
 10
132.9043136879378
 20
331.7833335146624
 30
0.0
 40
0.07028
100
AcDbArc
 50
57.26852999999999
 51
85.42017599999995
  0
LINE
  5
3C4
330
1F
100
AcDbEntity
  8
0
 62
   253
 48
0.4608010000000001
370
    35
100
AcDbLine
 10
66.05613868793787
 20
316.7749415146624
 30
0.0
 11
66.05613868793787
 21
335.2069785146624
 31
0.0
  0
LINE
  5
3C5
330
1F
100
AcDbEntity
  8
0
 62
   253
 48
0.4608010000000001
370
    35
100
AcDbLine
 10
267.2561506879379
 20
316.7749415146624
 30
0.0
 11
267.2561506879379
 21
335.2069785146624
 31
0.0
  0
LINE
  5
3C6
330
1F
100
AcDbEntity
  8
0
 62
   253
 48
0.14828
370
    35
100
AcDbLine
 10
186.6561446879378
 20
329.2041715146624
 30
0.0
 11
186.6561446879378
 21
335.1353545146624
 31
0.0
  0
LINE
  5
3C7
330
1F
100
AcDbEntity
  8
0
 62
   253
 48
0.14828
370
    35
100
AcDbLine
 10
146.6561446879379
 20
329.2041715146624
 30
0.0
 11
146.6561446879379
 21
335.1353845146624
 31
0.0
  0
LINE
  5
3C8
330
1F
100
AcDbEntity
  8
0
 62
   253
370
    35
100
AcDbLine
 10
70.77847468793788
 20
335.7051475146624
 30
0.0
 11
131.1805436879379
 21
335.7051475146624
 31
0.0
  0
LINE
  5
3C9
330
1F
100
AcDbEntity
  8
0
 62
   253
 48
0.024672
370
    35
100
AcDbLine
 10
70.77847468793788
 20
335.7051475146624
 30
0.0
 11
69.79161268793788
 21
335.7051475146624
 31
0.0
  0
LINE
  5
3CA
330
1F
100
AcDbEntity
  8
0
 62
   253
 48
0.024671
370
    35
100
AcDbLine
 10
263.5206776879379
 20
335.7051475146624
 30
0.0
 11
262.5338306879379
 21
335.7051475146624
 31
0.0
  0
LINE
  5
3CB
330
1F
100
AcDbEntity
  8
0
 62
   253
370
    35
100
AcDbLine
 10
202.1396046879379
 20
335.7051475146624
 30
0.0
 11
262.5338306879379
 21
335.7051475146624
 31
0.0
  0
ARC
  5
3CC
330
1F
100
AcDbEntity
  8
0
 62
   253
370
    35
100
AcDbCircle
 10
266.7593556879378
 20
335.2084745146624
 30
0.0
 40
0.4966630000000001
100
AcDbArc
 50
359.826846
 51
90.06199300000005
  0
LINE
  5
3CD
330
1F
100
AcDbEntity
  8
0
 62
   253
 48
0.067465
370
    35
100
AcDbLine
 10
266.7588056879379
 20
335.7051475146624
 30
0.0
 11
264.0601976879379
 21
335.7051475146624
 31
0.0
  0
LINE
  5
3CE
330
1F
100
AcDbEntity
  8
0
 62
   253
 48
0.007601
370
    35
100
AcDbLine
 10
263.7561506879379
 20
335.7051475146624
 30
0.0
 11
264.0601976879379
 21
335.7051475146624
 31
0.0
  0
LINE
  5
3CF
330
1F
100
AcDbEntity
  8
0
 62
   253
 48
0.005887
370
    35
100
AcDbLine
 10
263.5206776879379
 20
335.7051475146624
 30
0.0
 11
263.7561506879379
 21
335.7051475146624
 31
0.0
  0
LINE
  5
3D0
330
1F
100
AcDbEntity
  8
0
 62
   253
 48
0.005887
370
    35
100
AcDbLine
 10
69.55613868793787
 20
335.7051475146624
 30
0.0
 11
69.79161268793788
 21
335.7051475146624
 31
0.0
  0
LINE
  5
3D1
330
1F
100
AcDbEntity
  8
0
 62
   253
 48
0.007601
370
    35
100
AcDbLine
 10
69.25209268793787
 20
335.7051475146624
 30
0.0
 11
69.55613868793787
 21
335.7051475146624
 31
0.0
  0
LINE
  5
3D2
330
1F
100
AcDbEntity
  8
0
 62
   253
 48
0.067465
370
    35
100
AcDbLine
 10
66.55348368793787
 20
335.7051475146624
 30
0.0
 11
69.25209268793787
 21
335.7051475146624
 31
0.0
  0
ARC
  5
3D3
330
1F
100
AcDbEntity
  8
0
 62
   253
370
    35
100
AcDbCircle
 10
66.55293468793788
 20
335.2084745146624
 30
0.0
 40
0.4966630000000001
100
AcDbArc
 50
89.93800500000004
 51
180.173154
  0
LINE
  5
3D4
330
1F
100
AcDbEntity
  8
0
 62
   253
 48
0.035384
370
    35
100
AcDbLine
 10
201.6496756879379
 20
333.7871485146624
 30
0.0
 11
201.6502246879379
 21
335.2024925146624
 31
0.0
  0
LINE
  5
3D5
330
1F
100
AcDbEntity
  8
0
 62
   253
 48
0.035384
370
    35
100
AcDbLine
 10
131.6626146879379
 20
333.7871485146624
 30
0.0
 11
131.6620806879378
 21
335.2024925146624
 31
0.0
  0
LINE
  5
3D6
330
1F
100
AcDbEntity
  8
0
 62
   253
 48
0.000581
370
    35
100
AcDbLine
 10
202.1484546879379
 20
335.6889735146624
 30
0.0
 11
202.1317616879379
 21
335.7051475146624
 31
0.0
  0
LINE
  5
3D7
330
1F
100
AcDbEntity
  8
0
 62
   253
 48
0.000581
370
    35
100
AcDbLine
 10
131.1805436879379
 20
335.7051475146624
 30
0.0
 11
131.1638506879379
 21
335.6889735146624
 31
0.0
  0
ARC
  5
3D8
330
1F
100
AcDbEntity
  8
0
 62
   253
370
    35
100
AcDbCircle
 10
131.1594866879379
 20
335.1859525146624
 30
0.0
 40
0.5030130000000001
100
AcDbArc
 50
1.776331999999969
 51
89.50294899999994
  0
LINE
  5
3D9
330
1F
100
AcDbEntity
  8
0
 62
   253
 48
0.011547
370
    35
100
AcDbLine
 10
186.6561446879378
 20
335.1354155146624
 30
0.0
 11
186.6561446879378
 21
335.5972985146624
 31
0.0
  0
LINE
  5
3DA
330
1F
100
AcDbEntity
  8
0
 62
   253
 48
0.011548
370
    35
100
AcDbLine
 10
146.6561446879379
 20
335.1353845146624
 30
0.0
 11
146.6561446879379
 21
335.5972985146624
 31
0.0
  0
ARC
  5
3DB
330
1F
100
AcDbEntity
  8
0
 62
   253
370
    35
100
AcDbCircle
 10
202.1529716879379
 20
335.1857995146624
 30
0.0
 40
0.503188
100
AcDbArc
 50
90.51674700000004
 51
178.0963769999999
  0
ARC
  5
3DC
330
1F
100
AcDbEntity
  8
0
 62
   253
370
    35
100
AcDbCircle
 10
202.1384756879379
 20
335.2130215146624
 30
0.0
 40
0.492117
100
AcDbArc
 50
90.77422499999988
 51
98.43219199999992
  0
ARC
  5
3DD
330
1F
100
AcDbEntity
  8
0
 62
   253
370
    35
100
AcDbCircle
 10
131.1712056879379
 20
335.2142725146624
 30
0.0
 40
0.490912
100
AcDbArc
 50
81.17166899999997
 51
88.91889300000007
  0
LINE
  5
3DE
330
1F
100
AcDbEntity
  8
0
 62
   253
 48
0.014227
370
    35
100
AcDbLine
 10
176.0279716879379
 20
329.2072845146624
 30
0.0
 11
176.5970326879379
 21
329.2038055146624
 31
0.0
  0
LINE
  5
3DF
330
1F
100
AcDbEntity
  8
0
 62
   253
 48
0.014227
370
    35
100
AcDbLine
 10
157.2843186879379
 20
329.2072845146624
 30
0.0
 11
156.7152576879379
 21
329.2038055146624
 31
0.0
  0
LINE
  5
3E0
330
1F
100
AcDbEntity
  8
0
 62
   253
 48
0.251478
370
    35
100
AcDbLine
 10
176.5970326879379
 20
329.2038055146624
 30
0.0
 11
186.6561446879378
 21
329.2038055146624
 31
0.0
  0
LINE
  5
3E1
330
1F
100
AcDbEntity
  8
0
 62
   253
 48
0.251478
370
    35
100
AcDbLine
 10
146.6561446879379
 20
329.2038055146624
 30
0.0
 11
156.7152576879379
 21
329.2038055146624
 31
0.0
  0
LINE
  5
3E2
330
1F
100
AcDbEntity
  8
0
 62
   253
 48
0.001749
370
    35
100
AcDbLine
 10
176.9061446879379
 20
325.0236905146624
 30
0.0
 11
176.9061446879379
 21
325.0936675146623
 31
0.0
  0
ARC
  5
3E3
330
1F
100
AcDbEntity
  8
0
 62
   253
370
    35
100
AcDbCircle
 10
198.8943346879379
 20
334.1150605146624
 30
0.0
 40
2.709747999999999
100
AcDbArc
 50
299.0873009999999
 51
302.9996939999999
  0
ARC
  5
3E4
330
1F
100
AcDbEntity
  8
0
 62
   253
370
    35
100
AcDbCircle
 10
134.4266376879379
 20
334.1294645146624
 30
0.0
 40
2.726554
100
AcDbArc
 50
237.011857
 51
240.9021419999999
  0
ARC
  5
3E5
330
1F
100
AcDbEntity
  8
0
 62
   253
370
    35
100
AcDbCircle
 10
187.2725086879379
 20
1571.804269514662
 30
0.0
 40
1236.206481
100
AcDbArc
 50
269.971434
 51
270.6436130000001
  0
LINE
  5
3E6
330
1F
100
AcDbEntity
  8
0
 62
   253
 48
0.398131
370
    35
100
AcDbLine
 10
170.7309126879379
 20
335.5972985146624
 30
0.0
 11
186.6561446879378
 21
335.5972985146624
 31
0.0
  0
LINE
  5
3E7
330
1F
100
AcDbEntity
  8
0
 62
   253
 48
0.398131
370
    35
100
AcDbLine
 10
146.6561446879379
 20
335.5972985146624
 30
0.0
 11
162.5813766879379
 21
335.5972985146624
 31
0.0
  0
ARC
  5
3E8
330
1F
100
AcDbEntity
  8
0
 62
   253
370
    35
100
AcDbCircle
 10
146.0397966879379
 20
1571.805977514662
 30
0.0
 40
1236.208134
100
AcDbArc
 50
269.3563889999999
 51
270.028568
  0
LINE
  5
3E9
330
1F
100
AcDbEntity
  8
0
 62
   253
 48
0.022843
370
    35
100
AcDbLine
 10
202.0720686879379
 20
335.7006005146624
 30
0.0
 11
201.1586776879379
 21
335.6765835146624
 31
0.0
  0
LINE
  5
3EA
330
1F
100
AcDbEntity
  8
0
 62
     7
 48
0.000664
370
    35
100
AcDbLine
 10
273.1060046879379
 20
457.5902185146623
 30
0.0
 11
273.1287706879379
 21
457.5765465146623
 31
0.0
  0
ARC
  5
3EB
330
1F
100
AcDbEntity
  8
0
 62
     7
370
    35
100
AcDbCircle
 10
273.9306196879379
 20
499.8181855146624
 30
0.0
 40
42.25009199999999
100
AcDbArc
 50
268.912543
 51
270.2686360000001
  0
LINE
  5
3EC
330
1F
100
AcDbEntity
  8
0
 62
     7
 48
0.036801
370
    35
100
AcDbLine
 10
274.1287096879379
 20
457.5675745146623
 30
0.0
 11
275.6007556879378
 21
457.5631195146623
 31
0.0
  0
LINE
  5
3ED
330
1F
100
AcDbEntity
  8
0
 62
     7
 48
0.011649
370
    35
100
AcDbLine
 10
275.6007556879378
 20
457.5631195146623
 30
0.0
 11
276.0666976879379
 21
457.5611965146623
 31
0.0
  0
ARC
  5
3EE
330
1F
100
AcDbEntity
  8
0
 62
     7
370
    35
100
AcDbCircle
 10
276.1483936879379
 20
440.6250395146623
 30
0.0
 40
16.935699
100
AcDbArc
 50
88.46960999999994
 51
90.276311
  0
LINE
  5
3EF
330
1F
100
AcDbEntity
  8
0
 62
     7
 48
0.001617
370
    35
100
AcDbLine
 10
276.6561446879379
 20
457.5208825146623
 30
0.0
 11
276.6006636879378
 21
457.5541465146623
 31
0.0
  0
LINE
  5
3F0
330
1F
100
AcDbEntity
  8
0
 62
     7
 48
0.001436
370
    35
100
AcDbLine
 10
275.7295396879379
 20
467.9014985146624
 30
0.0
 11
275.6826956879379
 21
467.8682335146624
 31
0.0
  0
ARC
  5
3F1
330
1F
100
AcDbEntity
  8
0
 62
     7
370
    35
100
AcDbCircle
 10
275.2053396879379
 20
487.0125815146624
 30
0.0
 40
19.150881
100
AcDbArc
 50
269.7297820000001
 51
271.428279
  0
LINE
  5
3F2
330
1F
100
AcDbEntity
  8
0
 62
     7
 48
0.012484
370
    35
100
AcDbLine
 10
275.1150376879378
 20
467.8611845146623
 30
0.0
 11
274.6156786879379
 21
467.8592615146624
 31
0.0
  0
LINE
  5
3F3
330
1F
100
AcDbEntity
  8
0
 62
     7
 48
0.049251
370
    35
100
AcDbLine
 10
274.6156786879379
 20
467.8592615146624
 30
0.0
 11
272.6456466879379
 21
467.8537685146623
 31
0.0
  0
ARC
  5
3F4
330
1F
100
AcDbEntity
  8
0
 62
     7
370
    35
100
AcDbCircle
 10
272.4563466879379
 20
409.4732145146624
 30
0.0
 40
58.38
100
AcDbArc
 50
89.81420099999992
 51
90.92452300000001
  0
LINE
  5
3F5
330
1F
100
AcDbEntity
  8
0
 62
     7
 48
0.000528
370
    35
100
AcDbLine
 10
271.5143606879379
 20
467.8447355146624
 30
0.0
 11
271.4973926879379
 21
467.8321625146623
 31
0.0
  0
LINE
  5
3F6
330
1F
100
AcDbEntity
  8
0
 62
     7
370
    35
100
AcDbLine
 10
276.6561446879379
 20
457.5208825146623
 30
0.0
 11
276.6561446879379
 21
305.9014985146624
 31
0.0
  0
LINE
  5
3F7
330
1F
100
AcDbEntity
  8
0
 62
     7
 48
0.001617
370
    35
100
AcDbLine
 10
276.6561446879379
 20
305.9014985146624
 30
0.0
 11
276.6006636879378
 21
305.8682335146624
 31
0.0
  0
LINE
  5
3F8
330
1F
100
AcDbEntity
  8
0
 62
     7
 48
0.011649
370
    35
100
AcDbLine
 10
276.0666976879379
 20
305.8611845146624
 30
0.0
 11
275.6007556879378
 21
305.8592615146624
 31
0.0
  0
ARC
  5
3F9
330
1F
100
AcDbEntity
  8
0
 62
     7
370
    35
100
AcDbCircle
 10
276.1483936879379
 20
322.7974335146624
 30
0.0
 40
16.93578299999999
100
AcDbArc
 50
269.723696
 51
271.53039
  0
LINE
  5
3FA
330
1F
100
AcDbEntity
  8
0
 62
     7
 48
0.036801
370
    35
100
AcDbLine
 10
274.1287096879379
 20
305.8548065146624
 30
0.0
 11
275.6007556879378
 21
305.8592615146624
 31
0.0
  0
LINE
  5
3FB
330
1F
100
AcDbEntity
  8
0
 62
     7
370
    35
100
AcDbLine
 10
273.1287706879379
 20
305.8458335146624
 30
0.0
 11
273.1287706879379
 21
457.5765465146623
 31
0.0
  0
ARC
  5
3FC
330
1F
100
AcDbEntity
  8
0
 62
     7
370
    35
100
AcDbCircle
 10
273.9306196879379
 20
263.6041345146624
 30
0.0
 40
42.250146
100
AcDbArc
 50
89.73137099999997
 51
91.087457
  0
LINE
  5
3FD
330
1F
100
AcDbEntity
  8
0
 62
     7
 48
0.000664
370
    35
100
AcDbLine
 10
273.1060046879379
 20
305.8321625146624
 30
0.0
 11
273.1287706879379
 21
305.8458335146624
 31
0.0
  0
LINE
  5
3FE
330
1F
100
AcDbEntity
  8
0
 62
     7
 48
0.000664
370
    35
100
AcDbLine
 10
273.1060046879379
 20
295.5902185146624
 30
0.0
 11
273.1287706879379
 21
295.5765465146624
 31
0.0
  0
LINE
  5
3FF
330
1F
100
AcDbEntity
  8
0
 62
     7
370
    35
100
AcDbLine
 10
273.1287706879379
 20
62.84581851466239
 30
0.0
 11
273.1287706879379
 21
295.5765465146624
 31
0.0
  0
LINE
  5
400
330
1F
100
AcDbEntity
  8
0
 62
     7
 48
0.000664
370
    35
100
AcDbLine
 10
273.1060046879379
 20
62.83214651466239
 30
0.0
 11
273.1287706879379
 21
62.84581851466239
 31
0.0
  0
LINE
  5
401
330
1F
100
AcDbEntity
  8
0
 62
     7
370
    35
100
AcDbLine
 10
261.6561446879379
 20
477.7111905146623
 30
0.0
 11
71.65614468793788
 21
477.7111905146623
 31
0.0
  0
ARC
  5
402
330
1F
100
AcDbEntity
  8
0
 62
     7
370
    35
100
AcDbCircle
 10
260.6505906879379
 20
461.7056665146623
 30
0.0
 40
12.478362
100
AcDbArc
 50
29.4706239999999
 51
86.01425900000009
  0
ARC
  5
403
330
1F
100
AcDbEntity
  8
0
 62
     7
370
    35
100
AcDbCircle
 10
260.6561446879378
 20
461.7840665146623
 30
0.0
 40
12.399775
100
AcDbArc
 50
86.01460800000005
 51
90.0
  0
LINE
  5
404
330
1F
100
AcDbEntity
  8
0
 62
     7
 48
0.000528
370
    35
100
AcDbLine
 10
271.4973926879379
 20
52.59023351466239
 30
0.0
 11
271.5143606879379
 21
52.57764551466238
 31
0.0
  0
ARC
  5
405
330
1F
100
AcDbEntity
  8
0
 62
     7
370
    35
100
AcDbCircle
 10
260.6505906879379
 20
58.71671451466238
 30
0.0
 40
12.478362
100
AcDbArc
 50
273.9857410000001
 51
330.529373
  0
ARC
  5
406
330
1F
100
AcDbEntity
  8
0
 62
     7
370
    35
100
AcDbCircle
 10
260.6561446879378
 20
58.63832951466239
 30
0.0
 40
12.399771
100
AcDbArc
 50
270.0
 51
273.9854129999999
  0
LINE
  5
407
330
1F
100
AcDbEntity
  8
0
 62
     7
 48
0.001618
370
    35
100
AcDbLine
 10
276.6561446879379
 20
62.90151351466239
 30
0.0
 11
276.6006636879378
 21
62.86821851466239
 31
0.0
  0
ARC
  5
408
330
1F
100
AcDbEntity
  8
0
 62
     7
370
    35
100
AcDbCircle
 10
276.1483936879379
 20
79.79741751466239
 30
0.0
 40
16.93578299999999
100
AcDbArc
 50
269.723696
 51
271.53039
  0
LINE
  5
409
330
1F
100
AcDbEntity
  8
0
 62
     7
 48
0.011649
370
    35
100
AcDbLine
 10
276.0666976879379
 20
62.86118451466239
 30
0.0
 11
275.6007556879378
 21
62.85924651466238
 31
0.0
  0
LINE
  5
40A
330
1F
100
AcDbEntity
  8
0
 62
     7
 48
0.036801
370
    35
100
AcDbLine
 10
274.1287096879379
 20
62.85479051466239
 30
0.0
 11
275.6007556879378
 21
62.85924651466238
 31
0.0
  0
ARC
  5
40B
330
1F
100
AcDbEntity
  8
0
 62
     7
370
    35
100
AcDbCircle
 10
273.9306196879379
 20
20.60413451466239
 30
0.0
 40
42.250146
100
AcDbArc
 50
89.73137099999997
 51
91.087457
  0
ARC
  5
40C
330
1F
100
AcDbEntity
  8
0
 62
     7
370
    35
100
AcDbCircle
 10
273.9306196879379
 20
337.8181855146624
 30
0.0
 40
42.250091
100
AcDbArc
 50
268.912543
 51
270.2686360000001
  0
LINE
  5
40D
330
1F
100
AcDbEntity
  8
0
 62
     7
 48
0.036801
370
    35
100
AcDbLine
 10
274.1287096879379
 20
295.5675745146624
 30
0.0
 11
275.6007556879378
 21
295.5631195146624
 31
0.0
  0
LINE
  5
40E
330
1F
100
AcDbEntity
  8
0
 62
     7
 48
0.011649
370
    35
100
AcDbLine
 10
275.6007556879378
 20
295.5631195146624
 30
0.0
 11
276.0666976879379
 21
295.5611965146624
 31
0.0
  0
ARC
  5
40F
330
1F
100
AcDbEntity
  8
0
 62
     7
370
    35
100
AcDbCircle
 10
276.1483936879379
 20
278.6250395146624
 30
0.0
 40
16.935699
100
AcDbArc
 50
88.46960999999994
 51
90.276311
  0
LINE
  5
410
330
1F
100
AcDbEntity
  8
0
 62
     7
 48
0.001617
370
    35
100
AcDbLine
 10
276.6561446879379
 20
295.5208825146624
 30
0.0
 11
276.6006636879378
 21
295.5541465146623
 31
0.0
  0
LINE
  5
411
330
1F
100
AcDbEntity
  8
0
 62
     7
 48
0.021027
370
    35
100
AcDbLine
 10
270.8481306879379
 20
460.9995205146623
 30
0.0
 11
270.8479176879379
 21
461.8405845146623
 31
0.0
  0
LINE
  5
412
330
1F
100
AcDbEntity
  8
0
 62
     7
 48
0.174508
370
    35
100
AcDbLine
 10
270.8488936879379
 20
460.9995205146623
 30
0.0
 11
270.8488936879379
 21
454.0192045146623
 31
0.0
  0
LINE
  5
413
330
1F
100
AcDbEntity
  8
0
 62
     7
 48
0.049998
370
    13
100
AcDbLine
 10
273.1287706879379
 20
308.9572235146623
 30
0.0
 11
270.9535996879379
 21
308.9572235146623
 31
0.0
  0
LINE
  5
414
330
1F
100
AcDbEntity
  8
0
 62
     7
 48
0.049998
370
    13
100
AcDbLine
 10
272.9535386879379
 20
59.31815451466238
 30
0.0
 11
270.9535996879379
 21
59.31815451466238
 31
0.0
  0
LINE
  5
415
330
1F
100
AcDbEntity
  8
0
 62
     7
 48
0.001387
370
    13
100
AcDbLine
 10
71.65614468793788
 20
477.6557095146623
 30
0.0
 11
71.65614468793788
 21
477.7111905146623
 31
0.0
  0
LINE
  5
416
330
1F
100
AcDbEntity
  8
0
 62
     7
 48
0.001436
370
    35
100
AcDbLine
 10
57.62959468793788
 20
467.8682335146624
 30
0.0
 11
57.58275068793788
 21
467.9014985146624
 31
0.0
  0
LINE
  5
417
330
1F
100
AcDbEntity
  8
0
 62
     7
 48
0.000528
370
    35
100
AcDbLine
 10
61.81489768793788
 20
467.8321625146623
 30
0.0
 11
61.79791468793787
 21
467.8447355146624
 31
0.0
  0
ARC
  5
418
330
1F
100
AcDbEntity
  8
0
 62
     7
370
    35
100
AcDbCircle
 10
60.85595868793788
 20
409.4726955146624
 30
0.0
 40
58.380538
100
AcDbArc
 50
89.07548900000001
 51
90.18581100000002
  0
LINE
  5
419
330
1F
100
AcDbEntity
  8
0
 62
     7
 48
0.049251
370
    35
100
AcDbLine
 10
60.66662768793788
 20
467.8537685146623
 30
0.0
 11
58.69661168793788
 21
467.8592615146624
 31
0.0
  0
LINE
  5
41A
330
1F
100
AcDbEntity
  8
0
 62
     7
 48
0.012484
370
    35
100
AcDbLine
 10
58.69661168793788
 20
467.8592615146624
 30
0.0
 11
58.19725268793788
 21
467.8611845146623
 31
0.0
  0
ARC
  5
41B
330
1F
100
AcDbEntity
  8
0
 62
     7
370
    35
100
AcDbCircle
 10
58.10579068793788
 20
487.0853965146623
 30
0.0
 40
19.223707
100
AcDbArc
 50
268.5805269999999
 51
270.27259
  0
LINE
  5
41C
330
1F
100
AcDbEntity
  8
0
 62
     7
370
    35
100
AcDbLine
 10
260.6561446879378
 20
474.1837855146624
 30
0.0
 11
72.65614468793788
 21
474.1837855146624
 31
0.0
  0
ARC
  5
41D
330
1F
100
AcDbEntity
  8
0
 62
     7
370
    35
100
AcDbCircle
 10
261.6909346879379
 20
462.6948945146623
 30
0.0
 40
9.156788999999999
100
AcDbArc
 50
0.1018679999999961
 51
21.19673900000005
  0
LINE
  5
41E
330
1F
100
AcDbEntity
  8
0
 62
     7
 48
0.021765
370
    35
100
AcDbLine
 10
270.8479176879379
 20
461.8405845146623
 30
0.0
 11
270.8471546879378
 21
462.7111905146624
 31
0.0
  0
ARC
  5
41F
330
1F
100
AcDbEntity
  8
0
 62
     7
370
    35
100
AcDbCircle
 10
272.4563156879379
 20
110.9496855146624
 30
0.0
 40
58.380538
100
AcDbArc
 50
269.0754899999999
 51
270.1858129999999
  0
LINE
  5
420
330
1F
100
AcDbEntity
  8
0
 62
     7
 48
0.049251
370
    35
100
AcDbLine
 10
272.6456466879379
 20
52.56861251466239
 30
0.0
 11
274.6156786879379
 21
52.56313451466239
 31
0.0
  0
LINE
  5
421
330
1F
100
AcDbEntity
  8
0
 62
     7
 48
0.012484
370
    35
100
AcDbLine
 10
274.6156786879379
 20
52.56313451466239
 30
0.0
 11
275.1150376879378
 21
52.56119651466239
 31
0.0
  0
ARC
  5
422
330
1F
100
AcDbEntity
  8
0
 62
     7
370
    35
100
AcDbCircle
 10
275.2064986879379
 20
33.33696851466239
 30
0.0
 40
19.223707
100
AcDbArc
 50
88.58052499999988
 51
90.2725889999999
  0
LINE
  5
423
330
1F
100
AcDbEntity
  8
0
 62
     7
 48
0.001437
370
    35
100
AcDbLine
 10
275.6826956879379
 20
52.55416251466239
 30
0.0
 11
275.7295396879379
 21
52.52086751466238
 31
0.0
  0
LINE
  5
424
330
1F
100
AcDbEntity
  8
0
 62
     7
370
    35
100
AcDbLine
 10
260.6561446879378
 20
46.23856451466238
 30
0.0
 11
72.65614468793788
 21
46.23856451466238
 31
0.0
  0
LINE
  5
425
330
1F
100
AcDbEntity
  8
0
 62
     7
370
    35
100
AcDbLine
 10
276.6561446879379
 20
295.5208825146624
 30
0.0
 11
276.6561446879379
 21
62.90151351466239
 31
0.0
  0
ARC
  5
426
330
1F
100
AcDbEntity
  8
0
 62
     7
370
    35
100
AcDbCircle
 10
62.96415868793788
 20
454.0192045146623
 30
0.0
 40
0.5
100
AcDbArc
 50
180.0
 51
270.0
  0
ARC
  5
427
330
1F
100
AcDbEntity
  8
0
 62
     7
370
    35
100
AcDbCircle
 10
270.3481306879379
 20
454.0192045146623
 30
0.0
 40
0.5
100
AcDbArc
 50
270.0
 51
0.0
  0
LINE
  5
428
330
1F
100
AcDbEntity
  8
0
 62
     7
 48
0.2173
370
    35
100
AcDbLine
 10
261.6561446879379
 20
453.5192045146623
 30
0.0
 11
270.3481306879379
 21
453.5192045146623
 31
0.0
  0
ARC
  5
429
330
1F
100
AcDbEntity
  8
0
 62
     7
370
    35
100
AcDbCircle
 10
261.6561446879379
 20
462.7111905146624
 30
0.0
 40
9.191990999999999
100
AcDbArc
 50
180.0
 51
270.0
  0
LINE
  5
42A
330
1F
100
AcDbEntity
  8
0
 62
     7
370
    13
100
AcDbLine
 10
252.6249256879379
 20
460.9995205146623
 30
0.0
 11
176.2298756879379
 21
460.9995205146623
 31
0.0
  0
ARC
  5
42B
330
1F
100
AcDbEntity
  8
0
 62
     7
370
    13
100
AcDbCircle
 10
166.6561446879379
 20
451.0557335146623
 30
0.0
 40
13.803461
100
AcDbArc
 50
46.08618899999994
 51
133.9138090000001
  0
LINE
  5
42C
330
1F
100
AcDbEntity
  8
0
 62
     7
370
    13
100
AcDbLine
 10
157.0824146879378
 20
460.9995205146623
 30
0.0
 11
80.68736468793787
 21
460.9995205146623
 31
0.0
  0
ARC
  5
42D
330
1F
100
AcDbEntity
  8
0
 62
     7
370
    35
100
AcDbCircle
 10
71.65614468793788
 20
462.7111905146624
 30
0.0
 40
9.191990999999999
100
AcDbArc
 50
270.0
 51
0.0
  0
LINE
  5
42E
330
1F
100
AcDbEntity
  8
0
 62
     7
 48
0.2173
370
    35
100
AcDbLine
 10
71.65614468793788
 20
453.5192045146623
 30
0.0
 11
62.96415868793788
 21
453.5192045146623
 31
0.0
  0
LINE
  5
42F
330
1F
100
AcDbEntity
  8
0
 62
     7
 48
0.35
370
    35
100
AcDbLine
 10
224.6561446879379
 20
437.7111905146623
 30
0.0
 11
224.6561446879379
 21
451.7111905146623
 31
0.0
  0
ARC
  5
430
330
1F
100
AcDbEntity
  8
0
 62
     7
370
    35
100
AcDbCircle
 10
226.6561446879379
 20
451.7111905146623
 30
0.0
 40
2.0
100
AcDbArc
 50
90.0
 51
180.0
  0
LINE
  5
431
330
1F
100
AcDbEntity
  8
0
 62
     7
370
    35
100
AcDbLine
 10
249.6561446879379
 20
453.7111905146623
 30
0.0
 11
226.6561446879379
 21
453.7111905146623
 31
0.0
  0
ARC
  5
432
330
1F
100
AcDbEntity
  8
0
 62
     7
370
    35
100
AcDbCircle
 10
249.6561446879379
 20
451.7111905146623
 30
0.0
 40
2.0
100
AcDbArc
 50
0.0
 51
90.0
  0
LINE
  5
433
330
1F
100
AcDbEntity
  8
0
 62
     7
 48
0.35
370
    35
100
AcDbLine
 10
251.6561446879379
 20
451.7111905146623
 30
0.0
 11
251.6561446879379
 21
437.7111905146623
 31
0.0
  0
ARC
  5
434
330
1F
100
AcDbEntity
  8
0
 62
     7
370
    35
100
AcDbCircle
 10
249.6561446879379
 20
437.7111905146623
 30
0.0
 40
2.0
100
AcDbArc
 50
270.0
 51
0.0
  0
LINE
  5
435
330
1F
100
AcDbEntity
  8
0
 62
     7
370
    35
100
AcDbLine
 10
226.6561446879379
 20
435.7111905146623
 30
0.0
 11
249.6561446879379
 21
435.7111905146623
 31
0.0
  0
ARC
  5
436
330
1F
100
AcDbEntity
  8
0
 62
     7
370
    35
100
AcDbCircle
 10
226.6561446879379
 20
437.7111905146623
 30
0.0
 40
2.0
100
AcDbArc
 50
180.0
 51
270.0
  0
LINE
  5
437
330
1F
100
AcDbEntity
  8
0
 62
     7
370
    35
100
AcDbLine
 10
60.18351968793788
 20
309.9558495146624
 30
0.0
 11
273.1287706879379
 21
309.9558495146624
 31
0.0
  0
LINE
  5
438
330
1F
100
AcDbEntity
  8
0
 62
     7
370
    35
100
AcDbLine
 10
62.35868968793788
 20
308.9572235146623
 30
0.0
 11
270.9535996879379
 21
308.9572235146623
 31
0.0
  0
ARC
  5
439
330
1F
100
AcDbEntity
  8
0
 62
     7
370
    35
100
AcDbCircle
 10
72.66168368793788
 20
461.7056665146623
 30
0.0
 40
12.478362
100
AcDbArc
 50
93.985739
 51
150.529378
  0
ARC
  5
43A
330
1F
100
AcDbEntity
  8
0
 62
     7
370
    35
100
AcDbCircle
 10
72.65614468793788
 20
461.7840665146623
 30
0.0
 40
12.399771
100
AcDbArc
 50
90.0
 51
93.98541099999997
  0
LINE
  5
43B
330
1F
100
AcDbEntity
  8
0
 62
     7
 48
0.2173
370
    35
100
AcDbLine
 10
80.34813068793788
 20
471.8521815146623
 30
0.0
 11
71.65614468793788
 21
471.8521815146623
 31
0.0
  0
ARC
  5
43C
330
1F
100
AcDbEntity
  8
0
 62
     7
370
    35
100
AcDbCircle
 10
80.34834468793787
 20
471.3977135146623
 30
0.0
 40
0.4544350000000001
100
AcDbArc
 50
0.6877950000000643
 51
90.02486399999995
  0
ARC
  5
43D
330
1F
100
AcDbEntity
  8
0
 62
     7
370
    35
100
AcDbCircle
 10
-836.1998123120621
 20
462.5444725146623
 30
0.0
 40
917.046174
100
AcDbArc
 50
0.0104160000000369
 51
0.5534889999999971
  0
ARC
  5
43E
330
1F
100
AcDbEntity
  8
0
 62
     7
370
    35
100
AcDbCircle
 10
1169.509172687938
 20
462.5444725146623
 30
0.0
 40
917.0433220000001
100
AcDbArc
 50
179.446514
 51
179.989582
  0
ARC
  5
43F
330
1F
100
AcDbEntity
  8
0
 62
     7
370
    35
100
AcDbCircle
 10
252.9639456879379
 20
471.3977135146623
 30
0.0
 40
0.454434
100
AcDbArc
 50
89.97510000000007
 51
179.312287
  0
LINE
  5
440
330
1F
100
AcDbEntity
  8
0
 62
     7
 48
0.2173
370
    35
100
AcDbLine
 10
261.6561446879379
 20
471.8521815146623
 30
0.0
 11
252.9641586879379
 21
471.8521815146623
 31
0.0
  0
ARC
  5
441
330
1F
100
AcDbEntity
  8
0
 62
     7
370
    35
100
AcDbCircle
 10
261.6561446879379
 20
57.71119051466239
 30
0.0
 40
15.0
100
AcDbArc
 50
270.0
 51
339.7558549999999
  0
LINE
  5
442
330
1F
100
AcDbEntity
  8
0
 62
     7
370
    35
100
AcDbLine
 10
71.65614468793788
 20
42.71119051466238
 30
0.0
 11
261.6561446879379
 21
42.71119051466238
 31
0.0
  0
ARC
  5
443
330
1F
100
AcDbEntity
  8
0
 62
     7
370
    35
100
AcDbCircle
 10
71.65614468793788
 20
57.71119051466239
 30
0.0
 40
15.0
100
AcDbArc
 50
200.2441429999999
 51
270.0
  0
ARC
  5
444
330
1F
100
AcDbEntity
  8
0
 62
     7
370
    35
100
AcDbCircle
 10
72.65614468793788
 20
58.63832951466239
 30
0.0
 40
12.399775
100
AcDbArc
 50
266.014609
 51
270.0
  0
ARC
  5
445
330
1F
100
AcDbEntity
  8
0
 62
     7
370
    35
100
AcDbCircle
 10
72.66168368793788
 20
58.71671451466238
 30
0.0
 40
12.478362
100
AcDbArc
 50
209.470622
 51
266.014261
  0
LINE
  5
446
330
1F
100
AcDbEntity
  8
0
 62
     7
 48
0.000528
370
    35
100
AcDbLine
 10
61.79791468793787
 20
52.57764551466238
 30
0.0
 11
61.81489768793788
 21
52.59023351466239
 31
0.0
  0
ARC
  5
447
330
1F
100
AcDbEntity
  8
0
 62
     7
370
    35
100
AcDbCircle
 10
261.6561446879379
 20
300.7111905146623
 30
0.0
 40
8.174841999999999
100
AcDbArc
 50
90.0
 51
270.0
  0
LINE
  5
448
330
1F
100
AcDbEntity
  8
0
 62
     7
 48
0.174508
370
    35
100
AcDbLine
 10
62.46339568793787
 20
460.9995205146623
 30
0.0
 11
62.46339568793787
 21
454.0192045146623
 31
0.0
  0
ARC
  5
449
330
1F
100
AcDbEntity
  8
0
 62
   253
370
    35
100
AcDbCircle
 10
66.36461068793787
 20
314.8776335146624
 30
0.0
 40
1.999806
100
AcDbArc
 50
179.996194
 51
234.5820450000001
  0
LINE
  5
44A
330
1F
100
AcDbEntity
  8
0
 62
   253
370
    35
100
AcDbLine
 10
64.36479368793787
 20
428.5106285146624
 30
0.0
 11
64.36479368793787
 21
314.8777555146624
 31
0.0
  0
ARC
  5
44B
330
1F
100
AcDbEntity
  8
0
 62
   253
370
    35
100
AcDbCircle
 10
66.36457968793788
 20
428.5107505146624
 30
0.0
 40
1.999774
100
AcDbArc
 50
89.995843
 51
180.0041609999999
  0
LINE
  5
44C
330
1F
100
AcDbEntity
  8
0
 62
   253
370
    35
100
AcDbLine
 10
66.36471768793788
 20
430.5105375146623
 30
0.0
 11
266.9475876879379
 21
430.5105375146623
 31
0.0
  0
ARC
  5
44D
330
1F
100
AcDbEntity
  8
0
 62
   253
370
    35
100
AcDbCircle
 10
266.9477096879378
 20
428.5107505146624
 30
0.0
 40
1.999774
100
AcDbArc
 50
359.995843
 51
90.00415500000004
  0
LINE
  5
44E
330
1F
100
AcDbEntity
  8
0
 62
   253
370
    35
100
AcDbLine
 10
268.9474966879379
 20
428.5106285146624
 30
0.0
 11
268.9474966879379
 21
314.8777555146624
 31
0.0
  0
ARC
  5
44F
330
1F
100
AcDbEntity
  8
0
 62
   253
370
    35
100
AcDbCircle
 10
266.9476796879379
 20
314.8776335146624
 30
0.0
 40
1.999806
100
AcDbArc
 50
305.4179429999999
 51
0.0038010000000824
  0
LINE
  5
450
330
1F
100
AcDbEntity
  8
0
 62
     7
 48
0.049998
370
    35
100
AcDbLine
 10
62.35868968793788
 20
308.9572235146623
 30
0.0
 11
60.18351968793788
 21
308.9572235146623
 31
0.0
  0
ARC
  5
451
330
1F
100
AcDbEntity
  8
0
 62
     7
370
    35
100
AcDbCircle
 10
269.3309806879379
 20
308.3860255146624
 30
0.0
 40
0.5
100
AcDbArc
 50
0.0
 51
90.0
  0
LINE
  5
452
330
1F
100
AcDbEntity
  8
0
 62
     7
 48
0.383742
370
    35
100
AcDbLine
 10
269.8309806879379
 20
308.3860255146624
 30
0.0
 11
269.8309806879379
 21
293.0363555146625
 31
0.0
  0
ARC
  5
453
330
1F
100
AcDbEntity
  8
0
 62
     7
370
    35
100
AcDbCircle
 10
269.3309806879379
 20
293.0363555146625
 30
0.0
 40
0.5
100
AcDbArc
 50
270.0
 51
0.0
  0
LINE
  5
454
330
1F
100
AcDbEntity
  8
0
 62
     7
 48
0.191871
370
    35
100
AcDbLine
 10
261.6561446879379
 20
292.5363555146624
 30
0.0
 11
269.3309806879379
 21
292.5363555146624
 31
0.0
  0
LINE
  5
455
330
1F
100
AcDbEntity
  8
0
 62
     7
 48
0.191871
370
    35
100
AcDbLine
 10
261.6561446879379
 20
308.8860255146624
 30
0.0
 11
269.3309806879379
 21
308.8860255146624
 31
0.0
  0
ARC
  5
456
330
1F
100
AcDbEntity
  8
0
 62
     7
370
    35
100
AcDbCircle
 10
63.98130968793788
 20
293.0363555146625
 30
0.0
 40
0.5
100
AcDbArc
 50
180.0
 51
270.0
  0
LINE
  5
457
330
1F
100
AcDbEntity
  8
0
 62
     7
 48
0.383742
370
    35
100
AcDbLine
 10
63.48130968793788
 20
308.3860255146624
 30
0.0
 11
63.48130968793788
 21
293.0363555146625
 31
0.0
  0
ARC
  5
458
330
1F
100
AcDbEntity
  8
0
 62
     7
370
    35
100
AcDbCircle
 10
63.98130968793788
 20
308.3860255146624
 30
0.0
 40
0.5
100
AcDbArc
 50
90.0
 51
180.0
  0
LINE
  5
459
330
1F
100
AcDbEntity
  8
0
 62
     7
 48
0.191871
370
    35
100
AcDbLine
 10
71.65614468793788
 20
308.8860255146624
 30
0.0
 11
63.98130968793788
 21
308.8860255146624
 31
0.0
  0
ARC
  5
45A
330
1F
100
AcDbEntity
  8
0
 62
     7
370
    35
100
AcDbCircle
 10
71.65614468793788
 20
300.7111905146623
 30
0.0
 40
8.174841999999999
100
AcDbArc
 50
270.0
 51
90.0
  0
LINE
  5
45B
330
1F
100
AcDbEntity
  8
0
 62
     7
 48
0.191871
370
    35
100
AcDbLine
 10
71.65614468793788
 20
292.5363555146624
 30
0.0
 11
63.98130968793788
 21
292.5363555146624
 31
0.0
  0
LINE
  5
45C
330
1F
100
AcDbEntity
  8
0
 62
     7
 48
0.001617
370
    35
100
AcDbLine
 10
56.65614468793788
 20
457.5208825146623
 30
0.0
 11
56.71162568793788
 21
457.5541465146623
 31
0.0
  0
ARC
  5
45D
330
1F
100
AcDbEntity
  8
0
 62
     7
370
    35
100
AcDbCircle
 10
57.16391168793787
 20
440.6249475146624
 30
0.0
 40
16.93578299999999
100
AcDbArc
 50
89.72369400000003
 51
91.53038799999995
  0
LINE
  5
45E
330
1F
100
AcDbEntity
  8
0
 62
     7
 48
0.011649
370
    35
100
AcDbLine
 10
57.24559168793788
 20
457.5611965146623
 30
0.0
 11
57.71153468793787
 21
457.5631195146623
 31
0.0
  0
LINE
  5
45F
330
1F
100
AcDbEntity
  8
0
 62
     7
 48
0.036801
370
    35
100
AcDbLine
 10
59.18358068793788
 20
457.5675745146623
 30
0.0
 11
57.71153468793787
 21
457.5631195146623
 31
0.0
  0
ARC
  5
460
330
1F
100
AcDbEntity
  8
0
 62
     7
370
    35
100
AcDbCircle
 10
59.38168468793787
 20
499.8182465146623
 30
0.0
 40
42.250146
100
AcDbArc
 50
269.7313660000001
 51
271.0874519999999
  0
LINE
  5
461
330
1F
100
AcDbEntity
  8
0
 62
     7
 48
0.000664
370
    35
100
AcDbLine
 10
60.20628568793788
 20
457.5902185146623
 30
0.0
 11
60.18351968793788
 21
457.5765465146623
 31
0.0
  0
LINE
  5
462
330
1F
100
AcDbEntity
  8
0
 62
     7
 48
0.000664
370
    35
100
AcDbLine
 10
60.20628568793788
 20
62.83214651466239
 30
0.0
 11
60.18351968793788
 21
62.84581851466239
 31
0.0
  0
LINE
  5
463
330
1F
100
AcDbEntity
  8
0
 62
     7
370
    35
100
AcDbLine
 10
60.18351968793788
 20
62.84581851466239
 30
0.0
 11
60.18351968793788
 21
295.5765465146624
 31
0.0
  0
LINE
  5
464
330
1F
100
AcDbEntity
  8
0
 62
     7
 48
0.000664
370
    35
100
AcDbLine
 10
60.20628568793788
 20
295.5902185146624
 30
0.0
 11
60.18351968793788
 21
295.5765465146624
 31
0.0
  0
LINE
  5
465
330
1F
100
AcDbEntity
  8
0
 62
     7
 48
0.000664
370
    35
100
AcDbLine
 10
60.20628568793788
 20
305.8321625146624
 30
0.0
 11
60.18351968793788
 21
305.8458035146624
 31
0.0
  0
LINE
  5
466
330
1F
100
AcDbEntity
  8
0
 62
     7
370
    35
100
AcDbLine
 10
60.18351968793788
 20
305.8458035146624
 30
0.0
 11
60.18351968793788
 21
457.5765465146623
 31
0.0
  0
LINE
  5
467
330
1F
100
AcDbEntity
  8
0
 62
     7
 48
0.0043
370
    35
100
AcDbLine
 10
62.46438768793788
 20
461.8405845146623
 30
0.0
 11
62.46449468793787
 21
462.0125815146624
 31
0.0
  0
LINE
  5
468
330
1F
100
AcDbEntity
  8
0
 62
     7
 48
0.017465
370
    35
100
AcDbLine
 10
62.46513568793788
 20
462.7111905146624
 30
0.0
 11
62.46449468793787
 21
462.0125815146624
 31
0.0
  0
ARC
  5
469
330
1F
100
AcDbEntity
  8
0
 62
     7
370
    35
100
AcDbCircle
 10
71.59773468793787
 20
462.7005095146623
 30
0.0
 40
9.132603999999998
100
AcDbArc
 50
158.782664
 51
179.933069
  0
LINE
  5
46A
330
1F
100
AcDbEntity
  8
0
 62
     7
 48
0.001437
370
    35
100
AcDbLine
 10
57.58275068793788
 20
52.52086751466238
 30
0.0
 11
57.62959468793788
 21
52.55416251466239
 31
0.0
  0
ARC
  5
46B
330
1F
100
AcDbEntity
  8
0
 62
     7
370
    35
100
AcDbCircle
 10
58.10693568793787
 20
33.40981451466239
 30
0.0
 40
19.150881
100
AcDbArc
 50
89.72978699999998
 51
91.42828400000006
  0
LINE
  5
46C
330
1F
100
AcDbEntity
  8
0
 62
     7
 48
0.012484
370
    35
100
AcDbLine
 10
58.19725268793788
 20
52.56119651466239
 30
0.0
 11
58.69661168793788
 21
52.56313451466239
 31
0.0
  0
LINE
  5
46D
330
1F
100
AcDbEntity
  8
0
 62
     7
 48
0.049251
370
    35
100
AcDbLine
 10
58.69661168793788
 20
52.56313451466239
 30
0.0
 11
60.66664268793788
 21
52.56861251466239
 31
0.0
  0
ARC
  5
46E
330
1F
100
AcDbEntity
  8
0
 62
     7
370
    35
100
AcDbCircle
 10
60.85594368793788
 20
110.9491515146624
 30
0.0
 40
58.38
100
AcDbArc
 50
269.814196
 51
270.924525
  0
LINE
  5
46F
330
1F
100
AcDbEntity
  8
0
 62
     7
 48
0.021027
370
    35
100
AcDbLine
 10
62.46415868793788
 20
460.9995205146623
 30
0.0
 11
62.46438768793788
 21
461.8405845146623
 31
0.0
  0
ARC
  5
470
330
1F
100
AcDbEntity
  8
0
 62
   253
370
    35
100
AcDbCircle
 10
266.9488996879379
 20
314.8834925146624
 30
0.0
 40
2.004049999999999
100
AcDbArc
 50
269.920221
 51
305.292528
  0
LINE
  5
471
330
1F
100
AcDbEntity
  8
0
 62
   253
370
    35
100
AcDbLine
 10
66.36618268793788
 20
312.8793115146624
 30
0.0
 11
266.9461226879379
 21
312.8793115146624
 31
0.0
  0
ARC
  5
472
330
1F
100
AcDbEntity
  8
0
 62
   253
370
    35
100
AcDbCircle
 10
66.36338968793788
 20
314.8834925146624
 30
0.0
 40
2.004049999999999
100
AcDbArc
 50
234.707488
 51
270.079781
  0
LINE
  5
473
330
1F
100
AcDbEntity
  8
0
 62
     7
370
    35
100
AcDbLine
 10
56.65614468793788
 20
305.9014985146624
 30
0.0
 11
56.65614468793788
 21
457.5208825146623
 31
0.0
  0
ARC
  5
474
330
1F
100
AcDbEntity
  8
0
 62
     7
370
    35
100
AcDbCircle
 10
59.38168468793787
 20
263.6041955146624
 30
0.0
 40
42.250071
100
AcDbArc
 50
88.91254100000011
 51
90.2686339999999
  0
LINE
  5
475
330
1F
100
AcDbEntity
  8
0
 62
     7
 48
0.036801
370
    35
100
AcDbLine
 10
59.18358068793788
 20
305.8548065146624
 30
0.0
 11
57.71153468793787
 21
305.8592615146624
 31
0.0
  0
ARC
  5
476
330
1F
100
AcDbEntity
  8
0
 62
     7
370
    35
100
AcDbCircle
 10
57.16391168793787
 20
322.7973415146624
 30
0.0
 40
16.935699
100
AcDbArc
 50
268.4696049999999
 51
270.276313
  0
LINE
  5
477
330
1F
100
AcDbEntity
  8
0
 62
     7
 48
0.011649
370
    35
100
AcDbLine
 10
57.71153468793787
 20
305.8592615146624
 30
0.0
 11
57.24559168793788
 21
305.8611845146624
 31
0.0
  0
LINE
  5
478
330
1F
100
AcDbEntity
  8
0
 62
     7
 48
0.001617
370
    35
100
AcDbLine
 10
56.65614468793788
 20
305.9014985146624
 30
0.0
 11
56.71162568793788
 21
305.8682335146624
 31
0.0
  0
ARC
  5
479
330
1F
100
AcDbEntity
  8
0
 62
     7
370
    35
100
AcDbCircle
 10
59.38168468793787
 20
20.60418051466239
 30
0.0
 40
42.25009199999999
100
AcDbArc
 50
88.91254100000011
 51
90.2686339999999
  0
LINE
  5
47A
330
1F
100
AcDbEntity
  8
0
 62
     7
 48
0.036801
370
    35
100
AcDbLine
 10
59.18358068793788
 20
62.85479051466239
 30
0.0
 11
57.71153468793787
 21
62.85924651466238
 31
0.0
  0
LINE
  5
47B
330
1F
100
AcDbEntity
  8
0
 62
     7
 48
0.011649
370
    35
100
AcDbLine
 10
57.71153468793787
 20
62.85924651466238
 30
0.0
 11
57.24559168793788
 21
62.86118451466239
 31
0.0
  0
ARC
  5
47C
330
1F
100
AcDbEntity
  8
0
 62
     7
370
    35
100
AcDbCircle
 10
57.16391168793787
 20
79.79734151466239
 30
0.0
 40
16.935699
100
AcDbArc
 50
268.4696049999999
 51
270.276313
  0
LINE
  5
47D
330
1F
100
AcDbEntity
  8
0
 62
     7
 48
0.001618
370
    35
100
AcDbLine
 10
56.65614468793788
 20
62.90151351466239
 30
0.0
 11
56.71162568793788
 21
62.86821851466239
 31
0.0
  0
ARC
  5
47E
330
1F
100
AcDbEntity
  8
0
 62
     7
370
    35
100
AcDbCircle
 10
59.38168468793787
 20
337.8182465146624
 30
0.0
 40
42.250146
100
AcDbArc
 50
269.7313660000001
 51
271.0874519999999
  0
LINE
  5
47F
330
1F
100
AcDbEntity
  8
0
 62
     7
 48
0.001617
370
    35
100
AcDbLine
 10
56.65614468793788
 20
295.5208825146624
 30
0.0
 11
56.71162568793788
 21
295.5541465146623
 31
0.0
  0
ARC
  5
480
330
1F
100
AcDbEntity
  8
0
 62
     7
370
    35
100
AcDbCircle
 10
57.16391168793787
 20
278.6249475146624
 30
0.0
 40
16.93578299999999
100
AcDbArc
 50
89.72369400000003
 51
91.53038799999995
  0
LINE
  5
481
330
1F
100
AcDbEntity
  8
0
 62
     7
 48
0.011649
370
    35
100
AcDbLine
 10
57.24559168793788
 20
295.5611965146624
 30
0.0
 11
57.71153468793787
 21
295.5631195146624
 31
0.0
  0
LINE
  5
482
330
1F
100
AcDbEntity
  8
0
 62
     7
 48
0.036801
370
    35
100
AcDbLine
 10
59.18358068793788
 20
295.5675745146624
 30
0.0
 11
57.71153468793787
 21
295.5631195146624
 31
0.0
  0
LINE
  5
483
330
1F
100
AcDbEntity
  8
0
 62
     7
370
    35
100
AcDbLine
 10
56.65614468793788
 20
62.90151351466239
 30
0.0
 11
56.65614468793788
 21
295.5208825146624
 31
0.0
  0
ARC
  5
484
330
1F
100
AcDbEntity
  8
0
 62
     7
370
    35
100
AcDbCircle
 10
261.6118946879379
 20
57.71997951466238
 30
0.0
 40
8.129723
100
AcDbArc
 50
169.293875
 51
180.061904
  0
LINE
  5
485
330
1F
100
AcDbEntity
  8
0
 62
     7
 48
0.002239
370
    35
100
AcDbLine
 10
253.6407946879378
 20
59.31815451466238
 30
0.0
 11
253.6236746879379
 21
59.23024851466239
 31
0.0
  0
ARC
  5
486
330
1F
100
AcDbEntity
  8
0
 62
     7
370
    35
100
AcDbCircle
 10
261.6561446879379
 20
57.71119051466239
 30
0.0
 40
8.174841999999999
100
AcDbArc
 50
90.0
 51
168.663298
  0
ARC
  5
487
330
1F
100
AcDbEntity
  8
0
 62
     7
370
    35
100
AcDbCircle
 10
269.3309806879379
 20
65.38602551466239
 30
0.0
 40
0.5
100
AcDbArc
 50
0.0
 51
90.0
  0
LINE
  5
488
330
1F
100
AcDbEntity
  8
0
 62
     7
 48
0.191871
370
    35
100
AcDbLine
 10
261.6561446879379
 20
65.88602551466239
 30
0.0
 11
269.3309806879379
 21
65.88602551466239
 31
0.0
  0
ARC
  5
489
330
1F
100
AcDbEntity
  8
0
 62
     7
370
    35
100
AcDbCircle
 10
71.70039568793789
 20
57.71997951466238
 30
0.0
 40
8.129723
100
AcDbArc
 50
359.9381
 51
10.70612599999998
  0
ARC
  5
48A
330
1F
100
AcDbEntity
  8
0
 62
     7
370
    35
100
AcDbCircle
 10
71.65614468793788
 20
57.71119051466239
 30
0.0
 40
8.174841999999999
100
AcDbArc
 50
11.33669700000002
 51
90.0
  0
LINE
  5
48B
330
1F
100
AcDbEntity
  8
0
 62
     7
 48
0.002239
370
    35
100
AcDbLine
 10
79.68861568793787
 20
59.23024851466239
 30
0.0
 11
79.67149568793788
 21
59.31815451466238
 31
0.0
  0
LINE
  5
48C
330
1F
100
AcDbEntity
  8
0
 62
     7
 48
0.191871
370
    35
100
AcDbLine
 10
71.65614468793788
 20
65.88602551466239
 30
0.0
 11
63.98130968793788
 21
65.88602551466239
 31
0.0
  0
ARC
  5
48D
330
1F
100
AcDbEntity
  8
0
 62
     7
370
    35
100
AcDbCircle
 10
63.98130968793788
 20
65.38602551466239
 30
0.0
 40
0.5
100
AcDbArc
 50
90.0
 51
180.0
  0
LINE
  5
48E
330
1F
100
AcDbEntity
  8
0
 62
     7
 48
0.038903
370
    35
100
AcDbLine
 10
63.48130968793788
 20
59.31815451466238
 30
0.0
 11
63.48211868793788
 21
57.76201751466238
 31
0.0
  0
LINE
  5
48F
330
1F
100
AcDbEntity
  8
0
 62
     7
 48
0.151697
370
    35
100
AcDbLine
 10
63.48130968793788
 20
65.38602551466239
 30
0.0
 11
63.48130968793788
 21
59.31815451466238
 31
0.0
  0
LWPOLYLINE
  5
490
330
1F
100
AcDbEntity
  8
0
 62
     7
370
    35
100
AcDbPolyline
 90
       20
 70
     0
 43
0.0
 10
71.65614468793788
 20
49.57468551466239
 10
70.97784568793787
 20
49.60273051466239
 10
70.30800068793787
 20
49.68605951466239
 10
69.65356668793788
 20
49.82253351466239
 10
69.01992968793789
 20
50.00927051466239
 10
68.42172468793788
 20
50.23854951466239
 10
67.84962668793787
 20
50.51056751466239
 10
67.30529968793788
 20
50.82293051466239
 10
66.78993368793789
 20
51.17363851466239
 10
66.21696668793788
 20
51.63784151466239
 10
65.68840168793787
 20
52.15175751466238
 10
65.20704868793789
 20
52.71317451466239
 10
64.77617068793787
 20
53.31971051466239
 10
64.39964468793788
 20
53.96857551466239
 10
64.12729068793789
 20
54.54654851466239
 10
63.89933968793788
 20
55.14952951466239
 10
63.71849268793788
 20
55.77431551466239
 10
63.58729768793788
 20
56.41700051466239
 10
63.50901968793788
 20
57.06000651466239
 10
63.48211868793788
 20
57.76201751466238
  0
ARC
  5
491
330
1F
100
AcDbEntity
  8
0
 62
     7
370
    35
100
AcDbCircle
 10
-961.8014963120621
 20
58.26256651466239
 30
0.0
 40
1041.631415
100
AcDbArc
 50
359.5474969999999
 51
359.9696709999999
  0
LINE
  5
492
330
1F
100
AcDbEntity
  8
0
 62
     7
 48
0.192178
370
    35
100
AcDbLine
 10
79.34327868793788
 20
49.57468551466239
 30
0.0
 11
71.65614468793788
 21
49.57468551466239
 31
0.0
  0
ARC
  5
493
330
1F
100
AcDbEntity
  8
0
 62
     7
370
    35
100
AcDbCircle
 10
79.33119368793788
 20
50.04035251466238
 30
0.0
 40
0.465804
100
AcDbArc
 50
271.4849349999999
 51
359.488819
  0
LINE
  5
494
330
1F
100
AcDbEntity
  8
0
 62
     7
 48
0.151697
370
    35
100
AcDbLine
 10
269.8309806879379
 20
65.38602551466239
 30
0.0
 11
269.8309806879379
 21
59.31815451466238
 31
0.0
  0
LINE
  5
495
330
1F
100
AcDbEntity
  8
0
 62
     7
 48
0.038903
370
    35
100
AcDbLine
 10
269.8309806879379
 20
59.31815451466238
 30
0.0
 11
269.8301566879379
 21
57.76201751466238
 31
0.0
  0
ARC
  5
496
330
1F
100
AcDbEntity
  8
0
 62
     7
370
    35
100
AcDbCircle
 10
1295.113786687938
 20
58.26256651466239
 30
0.0
 40
1041.631415
100
AcDbArc
 50
180.0303349999999
 51
180.4525089999999
  0
ARC
  5
497
330
1F
100
AcDbEntity
  8
0
 62
     7
370
    35
100
AcDbCircle
 10
253.9810966879379
 20
50.04035251466238
 30
0.0
 40
0.465804
100
AcDbArc
 50
180.5111799999999
 51
268.51506
  0
LINE
  5
498
330
1F
100
AcDbEntity
  8
0
 62
     7
 48
0.192178
370
    35
100
AcDbLine
 10
261.6561446879379
 20
49.57468551466239
 30
0.0
 11
253.9690116879379
 21
49.57468551466239
 31
0.0
  0
LINE
  5
499
330
1F
100
AcDbEntity
  8
0
 62
     7
 48
0.028065
370
    13
100
AcDbLine
 10
270.9535996879379
 20
59.31815451466238
 30
0.0
 11
269.8309806879379
 21
59.31815451466238
 31
0.0
  0
LINE
  5
49A
330
1F
100
AcDbEntity
  8
0
 62
     7
370
    13
100
AcDbLine
 10
253.6407946879378
 20
59.31815451466238
 30
0.0
 11
79.68714150793788
 21
59.23781797466239
 31
0.0
  0
LINE
  5
49B
330
1F
100
AcDbEntity
  8
0
 62
     7
370
    13
100
AcDbLine
 10
63.48135534793788
 20
59.23033370466239
 30
0.0
 11
60.24324293793788
 21
59.22883825466239
 31
0.0
  0
LINE
  5
49C
330
1F
100
AcDbEntity
  8
0
100
AcDbLine
 10
71.95407346793789
 20
42.71119051466238
 30
0.0
 11
261.3582159079379
 21
42.71119051466238
 31
0.0
  0
LINE
  5
49D
330
1F
100
AcDbEntity
  8
0
100
AcDbLine
 10
76.74582612793788
 20
405.2111905146623
 30
0.0
 11
256.7458261279379
 21
405.2111905146623
 31
0.0
  0
LINE
  5
49E
330
1F
100
AcDbEntity
  8
0
100
AcDbLine
 10
256.7458261279379
 20
405.2111905146623
 30
0.0
 11
256.7458261279379
 21
360.2111905146624
 31
0.0
  0
LINE
  5
49F
330
1F
100
AcDbEntity
  8
0
100
AcDbLine
 10
256.7458261279379
 20
360.2111905146624
 30
0.0
 11
76.74582612793788
 21
360.2111905146624
 31
0.0
  0
LINE
  5
4A0
330
1F
100
AcDbEntity
  8
0
100
AcDbLine
 10
76.74582612793788
 20
360.2111905146624
 30
0.0
 11
76.74582612793788
 21
405.2111905146623
 31
0.0
  0
DIMENSION
  5
4A1
330
1F
100
AcDbEntity
  8
QUOTE
 62
     7
100
AcDbDimension
  2
*D5
 10
33.54337493793787
 20
42.71060920466239
 30
0.0
 11
33.54337493793788
 21
252.0514283446624
 31
0.0
 70
   160
 71
     0
 42
435.00058131
  3
Standard
100
AcDbAlignedDimension
 13
74.12744225793787
 23
477.7111905146623
 33
0.0
 14
71.65671468793788
 24
42.71060920466239
 34
0.0
 50
90.0
100
AcDbRotatedDimension
1001
ACAD
1000
DSTYLE
1002
{
1070
    45
1040
1.0
1070
    41
1040
15.0
1070
   140
1040
10.0
1070
    78
1070
     8
1070
   284
1070
     8
1002
}
  0
DIMENSION
  5
4A2
330
1F
100
AcDbEntity
  8
QUOTE
 62
     7
100
AcDbDimension
  2
*D6
 10
56.65614468793788
 20
23.75149861466239
 30
0.0
 11
166.6561446879379
 21
23.75149861466239
 31
0.0
 70
   160
 71
     0
 42
220.0
  3
Standard
100
AcDbAlignedDimension
 13
276.6561446879379
 23
57.70881887466239
 33
0.0
 14
56.65614468793788
 24
57.77368920466239
 34
0.0
100
AcDbRotatedDimension
1001
ACAD
1000
DSTYLE
1002
{
1070
    41
1040
15.0
1070
   140
1040
10.0
1070
    78
1070
     8
1070
   284
1070
     8
1002
}
  0
TEXT
  5
4A3
330
1F
100
AcDbEntity
  8
0
 62
     7
100
AcDbText
 10
84.91343434555693
 20
464.9457306946624
 30
0.0
 40
5.0
  1
GW68019N
 72
     1
 11
103.3658152979379
 21
464.9457306946624
 31
0.0
100
AcDbText
  0
LWPOLYLINE
  5
4A4
330
1F
100
AcDbEntity
  8
0
 62
   253
370
    35
100
AcDbPolyline
 90
        7
 70
     0
 43
0.0
 10
266.9207016879379
 20
337.0185635146623
 10
266.9204276879379
 20
337.0197235146624
 10
266.9187186879379
 20
337.0204555146624
 10
266.9115766879379
 20
337.0219505146624
 10
266.8609176879379
 20
337.0263755146624
 10
266.4655936879379
 20
337.0378205146624
 10
265.4209156879379
 20
337.0452355146623
  0
LWPOLYLINE
  5
4A5
330
1F
100
AcDbEntity
  8
0
 62
   253
370
    35
100
AcDbPolyline
 90
        6
 70
     0
 43
0.0
 10
67.89135968793788
 20
337.0452355146623
 10
66.95860468793788
 20
337.0395595146624
 10
66.43004068793789
 20
337.0249415146624
 10
66.39445668793789
 20
337.0207305146624
 10
66.39195468793788
 20
337.0197845146624
 10
66.39158768793788
 20
337.0185635146623
  0
LWPOLYLINE
  5
4A6
330
1F
100
AcDbEntity
  8
0
 62
   253
370
    35
100
AcDbPolyline
 90
        3
 70
     0
 43
0.0
 10
131.0814076879379
 20
337.0161225146624
 10
131.2186906879379
 20
337.0053185146624
 10
132.0599836879378
 20
336.9861235146624
  0
LWPOLYLINE
  5
4A7
330
1F
100
AcDbEntity
  8
0
 62
   253
370
    35
100
AcDbPolyline
 90
        3
 70
     0
 43
0.0
 10
201.2523056879379
 20
336.9861235146624
 10
202.1586166879379
 20
337.0089195146623
 10
202.2308826879379
 20
337.0161225146624
  0
LWPOLYLINE
  5
4A8
330
1F
100
AcDbEntity
  8
0
 62
   253
370
    35
100
AcDbPolyline
 90
        4
 70
     0
 43
0.0
 10
201.1069816879379
 20
332.1420985146624
 10
200.8641526879379
 20
332.0682465146624
 10
200.6346906879379
 20
331.9719325146624
 10
200.4086476879379
 20
331.8567285146624
  0
LWPOLYLINE
  5
4A9
330
1F
100
AcDbEntity
  8
0
 62
   253
370
    35
100
AcDbPolyline
 90
       11
 70
     0
 43
0.0
 10
201.6266646879379
 20
332.2298675146624
 10
201.7619796879379
 20
332.2133875146624
 10
201.8560966879379
 20
332.1731655146623
 10
201.9691946879379
 20
332.0518885146624
 10
201.9944936879379
 20
331.9927155146623
 10
202.0188156879379
 20
331.8584375146624
 10
202.0003836879379
 20
331.6446015146624
 10
201.9116376879379
 20
331.3782135146624
 10
201.7990286879379
 20
331.1819245146624
 10
201.6810166879379
 20
331.0428245146624
 10
201.6136946879379
 20
330.9836815146624
  0
LWPOLYLINE
  5
4AA
330
1F
100
AcDbEntity
  8
0
 62
   253
370
    35
100
AcDbPolyline
 90
       16
 70
     0
 43
0.0
 10
201.6136946879379
 20
330.9836815146624
 10
201.0479906879379
 20
330.5455405146624
 10
200.4646476879379
 20
330.1210415146624
 10
199.6107656879379
 20
329.5454185146624
 10
198.7299366879378
 20
329.0041895146623
 10
197.7335376879379
 20
328.4513945146624
 10
196.7146476879379
 20
327.9468165146624
 10
195.6807416879378
 20
327.4936305146624
 10
194.6266956879379
 20
327.0891815146624
 10
193.5532396879379
 20
326.7340175146624
 10
192.4616866879379
 20
326.4290245146624
 10
191.3480696879379
 20
326.1742035146624
 10
190.2215136879379
 20
325.9727265146624
 10
189.0817126879379
 20
325.8254785146624
 10
187.9371816879379
 20
325.7342005146623
 10
186.6561446879378
 20
325.6989225146624
  0
LWPOLYLINE
  5
4AB
330
1F
100
AcDbEntity
  8
0
 62
   253
370
    35
100
AcDbPolyline
 90
       13
 70
     0
 43
0.0
 10
131.7604536879379
 20
331.0611045146623
 10
131.6700156879379
 20
331.1438385146624
 10
131.5750136879379
 20
331.2620025146624
 10
131.4957746879379
 20
331.3930145146624
 10
131.4133166879378
 20
331.5826805146624
 10
131.3675856879379
 20
331.7601405146624
 10
131.3588736879379
 20
331.8756495146624
 10
131.3675096879379
 20
331.9569785146624
 10
131.3808306879378
 20
332.0039145146624
 10
131.4067706879378
 20
332.0561305146624
 10
131.5175336879379
 20
332.1449975146624
 10
131.5987416879379
 20
332.1640715146624
 10
131.6852736879378
 20
332.1647735146624
  0
LWPOLYLINE
  5
4AC
330
1F
100
AcDbEntity
  8
0
 62
   253
370
    35
100
AcDbPolyline
 90
        4
 70
     0
 43
0.0
 10
132.2052936879378
 20
332.1420985146624
 10
132.4481526879378
 20
332.0682465146624
 10
132.6776136879379
 20
331.9719325146624
 10
132.9036426879378
 20
331.8567285146624
  0
LWPOLYLINE
  5
4AD
330
1F
100
AcDbEntity
  8
0
 62
   253
370
    35
100
AcDbPolyline
 90
       16
 70
     0
 43
0.0
 10
131.6985796879379
 20
330.9836815146624
 10
132.2643146879379
 20
330.5455405146624
 10
132.8476426879378
 20
330.1210415146624
 10
133.7015246879379
 20
329.5454185146624
 10
134.5823686879378
 20
329.0041895146623
 10
135.5787676879379
 20
328.4513945146624
 10
136.5976426879379
 20
327.9468165146624
 10
137.6315626879379
 20
327.4936005146624
 10
138.6855946879379
 20
327.0891815146624
 10
139.7590506879379
 20
326.7340175146624
 10
140.8506186879378
 20
326.4290245146624
 10
141.9642196879379
 20
326.1742035146624
 10
143.0907916879379
 20
325.9727265146624
 10
144.2305926879378
 20
325.8254785146624
 10
145.3751086879378
 20
325.7342005146623
 10
146.6561446879379
 20
325.6989225146624
  0
LWPOLYLINE
  5
4AE
330
1F
100
AcDbEntity
  8
0
 62
   253
370
    35
100
AcDbPolyline
 90
       12
 70
     0
 43
0.0
 10
186.6561446879378
 20
329.2038055146624
 10
188.2916126879378
 20
329.2389615146624
 10
189.9097156879379
 20
329.3432705146624
 10
191.4970566879379
 20
329.5127955146624
 10
193.0504926879379
 20
329.7430205146623
 10
194.7954576879378
 20
330.0771875146624
 10
196.3187116879378
 20
330.4343345146624
 10
197.7258776879379
 20
330.8212675146624
 10
198.7628036879378
 20
331.1499115146624
 10
199.5223556879379
 20
331.4290245146624
 10
200.0733816879379
 20
331.6739585146624
 10
200.2185536879379
 20
331.7508935146624
  0
LWPOLYLINE
  5
4AF
330
1F
100
AcDbEntity
  8
0
 62
   253
370
    35
100
AcDbPolyline
 90
       12
 70
     0
 43
0.0
 10
133.0937366879378
 20
331.7508935146624
 10
133.4046956879378
 20
331.5940945146623
 10
134.0002006879378
 20
331.3469935146624
 10
134.8892386879378
 20
331.0370875146624
 10
136.1206076879379
 20
330.6674285146624
 10
137.6478136879379
 20
330.2734155146624
 10
139.3867356879379
 20
329.9006125146624
 10
140.9237836879379
 20
329.6371545146624
 10
142.4914716879378
 20
329.4324425146623
 10
144.0930646879379
 20
329.2902915146624
 10
145.7207816879378
 20
329.2152795146624
 10
146.6561446879379
 20
329.2038055146624
  0
LWPOLYLINE
  5
4B0
330
1F
100
AcDbEntity
  8
0
 62
   253
370
    35
100
AcDbPolyline
 90
        3
 70
     0
 43
0.0
 10
170.7309126879379
 20
335.5972985146624
 10
165.4239366879378
 20
335.6037685146624
 10
162.5813766879379
 20
335.5972985146624
  0
LWPOLYLINE
  5
4B1
330
1F
100
AcDbEntity
  8
0
 62
   253
370
    35
100
AcDbPolyline
 90
        3
 70
     0
 43
0.0
 10
132.1536116879379
 20
335.6765835146624
 10
131.3779466879378
 20
335.6929715146624
 10
131.2397016879379
 20
335.7006615146624
  0
LWPOLYLINE
  5
4B2
330
1F
100
AcDbEntity
  8
0
 62
     7
370
    35
100
AcDbPolyline
 90
        4
 70
     0
 43
0.0
 10
273.0666676879379
 20
461.7111905146623
 10
273.0786306879379
 20
459.1122525146624
 10
273.1010306879379
 20
457.6835415146624
 10
273.1060046879379
 20
457.5902185146623
  0
LWPOLYLINE
  5
4B3
330
1F
100
AcDbEntity
  8
0
 62
     7
370
    35
100
AcDbPolyline
 90
        8
 70
     0
 43
0.0
 10
273.1060046879379
 20
305.8321625146624
 10
273.0990466879378
 20
305.6832665146623
 10
273.0861986879379
 20
305.0235985146624
 10
273.0695966879379
 20
302.7819915146624
 10
273.0664236879379
 20
299.8661895146624
 10
273.0776846879379
 20
297.2255335146624
 10
273.0996876879379
 20
295.7196745146624
 10
273.1060046879379
 20
295.5902185146624
  0
LWPOLYLINE
  5
4B4
330
1F
100
AcDbEntity
  8
0
 62
     7
370
    35
100
AcDbPolyline
 90
        4
 70
     0
 43
0.0
 10
273.0666676879379
 20
58.71119051466239
 10
273.0786306879379
 20
61.31014351466238
 10
273.1010306879379
 20
62.73883951466238
 10
273.1060046879379
 20
62.83214651466239
  0
LWPOLYLINE
  5
4B5
330
1F
100
AcDbEntity
  8
0
 62
     7
370
    35
100
AcDbPolyline
 90
       10
 70
     0
 43
0.0
 10
271.4973926879379
 20
467.8321625146623
 10
271.6511096879379
 20
467.5276575146623
 10
271.9257376879379
 20
466.9532555146624
 10
272.2379316879379
 20
466.2010585146624
 10
272.5376146879379
 20
465.3147065146624
 10
272.6709156879378
 20
464.8328635146623
 10
272.7885306879378
 20
464.3307585146623
 10
272.9370596879379
 20
463.4978725146623
 10
273.0308096879379
 20
462.6428005146624
 10
273.0666676879379
 20
461.7111905146623
  0
LWPOLYLINE
  5
4B6
330
1F
100
AcDbEntity
  8
0
 62
     7
370
    35
100
AcDbPolyline
 90
       10
 70
     0
 43
0.0
 10
271.4973926879379
 20
52.59023351466239
 10
271.6511096879379
 20
52.89473851466239
 10
271.9257376879379
 20
53.46912451466239
 10
272.2379316879379
 20
54.22132251466239
 10
272.5376146879379
 20
55.10765951466239
 10
272.6709156879378
 20
55.58951651466239
 10
272.7885306879378
 20
56.0916375146624
 10
272.9370596879379
 20
56.92449251466239
 10
273.0308096879379
 20
57.77958051466239
 10
273.0666676879379
 20
58.71119051466239
  0
LWPOLYLINE
  5
4B7
330
1F
100
AcDbEntity
  8
0
 62
     7
370
    35
100
AcDbPolyline
 90
        4
 70
     0
 43
0.0
 10
60.24562268793788
 20
461.7111905146623
 10
60.23367468793788
 20
459.1122525146624
 10
60.21125968793788
 20
457.6835415146624
 10
60.20628568793788
 20
457.5902185146623
  0
LWPOLYLINE
  5
4B8
330
1F
100
AcDbEntity
  8
0
 62
     7
370
    35
100
AcDbPolyline
 90
       10
 70
     0
 43
0.0
 10
61.81489768793788
 20
467.8321625146623
 10
61.66118068793788
 20
467.5276575146623
 10
61.38653768793788
 20
466.9532555146624
 10
61.07435768793788
 20
466.2010585146624
 10
60.77467568793788
 20
465.3147065146624
 10
60.64137468793788
 20
464.8328635146623
 10
60.52375968793788
 20
464.3307585146623
 10
60.37523068793788
 20
463.4978725146623
 10
60.28148068793788
 20
462.6428005146624
 10
60.24562268793788
 20
461.7111905146623
  0
LWPOLYLINE
  5
4B9
330
1F
100
AcDbEntity
  8
0
 62
     7
370
    35
100
AcDbPolyline
 90
       15
 70
     0
 43
0.0
 10
71.65614468793788
 20
471.8521815146623
 10
70.85124368793788
 20
471.8171475146623
 10
70.06079268793787
 20
471.7136925146623
 10
69.29542768793789
 20
471.5460905146624
 10
68.49281468793788
 20
471.2946555146623
 10
67.73074568793788
 20
470.9777915146624
 10
67.01109468793788
 20
470.6002895146623
 10
66.33464268793787
 20
470.1656585146623
 10
65.73915268793789
 20
469.7073145146624
 10
65.18278668793787
 20
469.2013025146624
 10
64.66758868793788
 20
468.6486595146623
 10
64.19636668793788
 20
468.0507895146623
 10
63.77266068793788
 20
467.4093415146623
 10
63.40049968793788
 20
466.7266325146623
 10
63.08419968793788
 20
466.0056855146624
  0
LWPOLYLINE
  5
4BA
330
1F
100
AcDbEntity
  8
0
 62
     7
370
    35
100
AcDbPolyline
 90
       15
 70
     0
 43
0.0
 10
270.2280746879379
 20
466.0056855146624
 10
269.8888716879379
 20
466.7729575146624
 10
269.4865896879379
 20
467.4963465146624
 10
269.0265676879379
 20
468.1723105146623
 10
268.5134446879378
 20
468.7983485146624
 10
267.9588186879379
 20
469.3655485146623
 10
267.3592696879378
 20
469.8809595146624
 10
266.7167526879378
 20
470.3432705146624
 10
266.0324876879379
 20
470.7508025146624
 10
265.3845386879379
 20
471.0674525146623
 10
264.7033256879379
 20
471.3360685146623
 10
263.9903426879379
 20
471.5530485146624
 10
263.2330496879379
 20
471.7169275146623
 10
262.4516166879379
 20
471.8179715146623
 10
261.6561446879379
 20
471.8521815146623
  0
LWPOLYLINE
  5
4BB
330
1F
100
AcDbEntity
  8
0
 62
     7
370
    35
100
AcDbPolyline
 90
       10
 70
     0
 43
0.0
 10
61.81489768793788
 20
52.59023351466239
 10
61.66118068793788
 20
52.89473851466239
 10
61.38653768793788
 20
53.46912451466239
 10
61.07435768793788
 20
54.22133751466239
 10
60.77467568793788
 20
55.10765951466239
 10
60.64137468793788
 20
55.58951651466239
 10
60.52375968793788
 20
56.0916375146624
 10
60.37523068793788
 20
56.92449251466239
 10
60.28148068793788
 20
57.77958051466239
 10
60.24562268793788
 20
58.71119051466239
  0
LWPOLYLINE
  5
4BC
330
1F
100
AcDbEntity
  8
0
 62
     7
370
    35
100
AcDbPolyline
 90
        4
 70
     0
 43
0.0
 10
60.24562268793788
 20
58.71119051466239
 10
60.23367468793788
 20
61.31014351466238
 10
60.21125968793788
 20
62.73883951466238
 10
60.20628568793788
 20
62.83214651466239
  0
LWPOLYLINE
  5
4BD
330
1F
100
AcDbEntity
  8
0
 62
     7
370
    35
100
AcDbPolyline
 90
        8
 70
     0
 43
0.0
 10
60.20628568793788
 20
305.8321625146624
 10
60.21324368793788
 20
305.6832665146623
 10
60.22609168793788
 20
305.0235985146624
 10
60.24267768793787
 20
302.7819915146624
 10
60.24586668793787
 20
299.8661895146624
 10
60.23460568793788
 20
297.2255335146624
 10
60.21258768793788
 20
295.7196745146624
 10
60.20628568793788
 20
295.5902185146624
  0
LWPOLYLINE
  5
4BE
330
1F
100
AcDbEntity
  8
0
 62
     7
370
    35
100
AcDbPolyline
 90
       20
 70
     0
 43
0.0
 10
261.6561446879379
 20
49.57468551466239
 10
262.3344286879379
 20
49.60273051466239
 10
263.0042896879379
 20
49.68605951466239
 10
263.6587086879379
 20
49.82253351466239
 10
264.2923756879379
 20
50.00927051466239
 10
264.8905806879379
 20
50.23854951466239
 10
265.4626636879379
 20
50.51056751466239
 10
266.0069746879379
 20
50.82293051466239
 10
266.5223556879379
 20
51.17363851466239
 10
267.0953236879379
 20
51.63784151466239
 10
267.6238876879379
 20
52.15175751466238
 10
268.1052416879379
 20
52.71317451466239
 10
268.5361196879379
 20
53.31971051466239
 10
268.9126456879379
 20
53.96857551466239
 10
269.1850146879378
 20
54.54654851466239
 10
269.4129506879378
 20
55.14952951466239
 10
269.5937976879378
 20
55.77431551466239
 10
269.7249926879379
 20
56.41700051466239
 10
269.8032706879379
 20
57.06000651466239
 10
269.8301566879379
 20
57.76201751466238
  0
INSERT
  5
4BF
330
1F
100
AcDbEntity
  8
0
 62
    56
100
AcDbBlockReference
  2
IB_oriz_NOFUS
 10
76.94463455793789
 20
179.6032608946624
 30
0.0
  0
INSERT
  5
4C0
330
1F
100
AcDbEntity
  8
0
 62
    56
100
AcDbBlockReference
  2
IB_oriz_NOFUS
 10
76.95208455793788
 20
57.43156089466239
 30
0.0
  0
ENDSEC
  0
SECTION
  2
OBJECTS
  0
DICTIONARY
  5
C
330
0
100
AcDbDictionary
281
     1
  3
ACAD_COLOR
350
73
  3
ACAD_GROUP
350
D
  3
ACAD_LAYOUT
350
1A
  3
ACAD_MATERIAL
350
72
  3
ACAD_MLEADERSTYLE
350
D7
  3
ACAD_MLINESTYLE
350
17
  3
ACAD_PLOTSETTINGS
350
19
  3
ACAD_PLOTSTYLENAME
350
E
  3
ACAD_SCALELIST
350
B6
  3
ACAD_TABLESTYLE
350
86
  3
ACAD_VISUALSTYLE
350
99
  3
ACDB_RECOMPOSE_DATA
350
FF
  3
AcDbVariableDictionary
350
66
  3
DWGPROPS
350
505
  0
DICTIONARY
  5
E6
330
10
100
AcDbDictionary
280
     1
281
     1
  3
ADSK_XREC_LAYER_RECONCILED
360
4FD
  0
DICTIONARY
  5
4FE
330
16B
100
AcDbDictionary
280
     1
281
     1
  3
ADSK_XREC_LAYER_RECONCILED
360
4FF
  0
DICTIONARY
  5
73
102
{ACAD_REACTORS
330
C
102
}
330
C
100
AcDbDictionary
281
     1
  0
DICTIONARY
  5
D
102
{ACAD_REACTORS
330
C
102
}
330
C
100
AcDbDictionary
281
     1
  0
DICTIONARY
  5
1A
102
{ACAD_REACTORS
330
C
102
}
330
C
100
AcDbDictionary
281
     1
  3
Layout1
350
59
  3
Layout2
350
5E
  3
Model
350
22
  0
DICTIONARY
  5
72
102
{ACAD_REACTORS
330
C
102
}
330
C
100
AcDbDictionary
281
     1
  3
ByBlock
350
97
  3
ByLayer
350
96
  3
Global
350
98
  0
DICTIONARY
  5
D7
102
{ACAD_REACTORS
330
C
102
}
330
C
100
AcDbDictionary
281
     1
  3
Annotativa
350
E5
  3
Standard
350
D8
  0
DICTIONARY
  5
17
102
{ACAD_REACTORS
330
C
102
}
330
C
100
AcDbDictionary
281
     1
  3
Standard
350
18
  0
DICTIONARY
  5
19
102
{ACAD_REACTORS
330
C
102
}
330
C
100
AcDbDictionary
281
     1
  0
ACDBDICTIONARYWDFLT
  5
E
102
{ACAD_REACTORS
330
C
102
}
330
C
100
AcDbDictionary
281
     1
  3
Normal
350
F
100
AcDbDictionaryWithDefault
340
F
  0
DICTIONARY
  5
B6
102
{ACAD_REACTORS
330
C
102
}
330
C
100
AcDbDictionary
281
     1
  3
A0
350
B7
  3
A1
350
124
  3
A2
350
125
  3
A3
350
126
  3
A4
350
127
  3
A5
350
128
  3
A6
350
129
  3
A7
350
12A
  3
A8
350
12B
  3
A9
350
12C
  3
B0
350
12D
  3
B1
350
12E
  3
B2
350
12F
  3
B3
350
130
  3
B4
350
131
  3
B5
350
132
  3
B6
350
133
  3
B7
350
134
  3
B8
350
135
  3
B9
350
136
  3
C0
350
137
  3
C1
350
138
  3
C2
350
139
  3
C3
350
13A
  3
C4
350
13B
  3
C5
350
13C
  3
C6
350
13D
  3
C7
350
13E
  3
C8
350
13F
  3
C9
350
140
  3
D0
350
141
  3
D1
350
142
  3
D2
350
143
  0
DICTIONARY
  5
86
102
{ACAD_REACTORS
330
C
102
}
330
C
100
AcDbDictionary
281
     1
  3
Standard
350
87
  0
DICTIONARY
  5
99
102
{ACAD_REACTORS
330
C
102
}
330
C
100
AcDbDictionary
281
     1
  3
2dWireframe
350
9F
  3
3D Hidden
350
A1
  3
3dWireframe
350
A0
  3
Basic
350
9E
  3
Brighten
350
A5
  3
ColorChange
350
A9
  3
Conceptual
350
A2
  3
Dim
350
A4
  3
Facepattern
350
A8
  3
Flat
350
9A
  3
FlatWithEdges
350
9B
  3
Gouraud
350
9C
  3
GouraudWithEdges
350
9D
  3
Linepattern
350
A7
  3
Realistic
350
A3
  3
Thicken
350
A6
  0
XRECORD
  5
FF
102
{ACAD_REACTORS
330
C
102
}
330
C
100
AcDbXrecord
280
     1
 90
        1
330
87
  0
DICTIONARY
  5
66
102
{ACAD_REACTORS
330
C
102
}
330
C
100
AcDbDictionary
281
     1
  3
CANNOSCALE
350
F0
  3
CMLEADERSTYLE
350
EF
  3
CTABLESTYLE
350
89
  3
DIMASSOC
350
67
  3
HIDETEXT
350
6B
  3
INDEXCTL
350
503
  3
LIGHTINGUNITS
350
501
  3
MSLTSCALE
350
500
  3
SORTENTS
350
502
  0
XRECORD
  5
505
102
{ACAD_REACTORS
330
C
102
}
330
C
100
AcDbXrecord
280
     1
  1
DWGPROPS COOKIE
  2

  3

  4

  6

  7

  8
fontanaNZ
  9

300
=
301
=
302
=
303
=
304
=
305
=
306
=
307
=
308
=
309
=
 40
0.0008437384259259
 41
2455511.357315799
 42
2455511.358159537
  1

 90
        0
  0
XRECORD
  5
4FD
102
{ACAD_REACTORS
330
E6
102
}
330
E6
100
AcDbXrecord
280
     1
290
     1
  0
XRECORD
  5
4FF
102
{ACAD_REACTORS
330
4FE
102
}
330
4FE
100
AcDbXrecord
280
     1
290
     1
  0
LAYOUT
  5
59
102
{ACAD_XDICTIONARY
360
508
102
}
102
{ACAD_REACTORS
330
1A
102
}
330
1A
100
AcDbPlotSettings
  1

  2
None
  4

  6

 40
0.0
 41
0.0
 42
0.0
 43
0.0
 44
0.0
 45
0.0
 46
0.0
 47
0.0
 48
0.0
 49
0.0
140
0.0
141
0.0
142
1.0
143
1.0
 70
   688
 72
     0
 73
     0
 74
     5
  7

 75
    16
147
1.0
148
0.0
149
0.0
100
AcDbLayout
  1
Layout1
 70
     1
 71
     1
 10
0.0
 20
0.0
 11
12.0
 21
9.0
 12
0.0
 22
0.0
 32
0.0
 14
0.0
 24
0.0
 34
0.0
 15
0.0
 25
0.0
 35
0.0
146
0.0
 13
0.0
 23
0.0
 33
0.0
 16
1.0
 26
0.0
 36
0.0
 17
0.0
 27
1.0
 37
0.0
 76
     0
330
58
  0
LAYOUT
  5
5E
102
{ACAD_XDICTIONARY
360
50A
102
}
102
{ACAD_REACTORS
330
1A
102
}
330
1A
100
AcDbPlotSettings
  1

  2
None
  4

  6

 40
0.0
 41
0.0
 42
0.0
 43
0.0
 44
0.0
 45
0.0
 46
0.0
 47
0.0
 48
0.0
 49
0.0
140
0.0
141
0.0
142
1.0
143
1.0
 70
   688
 72
     0
 73
     0
 74
     5
  7

 75
    16
147
1.0
148
0.0
149
0.0
100
AcDbLayout
  1
Layout2
 70
     1
 71
     2
 10
0.0
 20
0.0
 11
12.0
 21
9.0
 12
0.0
 22
0.0
 32
0.0
 14
0.0
 24
0.0
 34
0.0
 15
0.0
 25
0.0
 35
0.0
146
0.0
 13
0.0
 23
0.0
 33
0.0
 16
1.0
 26
0.0
 36
0.0
 17
0.0
 27
1.0
 37
0.0
 76
     0
330
5D
  0
LAYOUT
  5
22
102
{ACAD_XDICTIONARY
360
506
102
}
102
{ACAD_REACTORS
330
1A
102
}
330
1A
100
AcDbPlotSettings
  1

  2
none_device
  4
ANSI_A_(8.50_x_11.00_Inches)
  6

 40
6.349999904632568
 41
19.04999923706055
 42
6.350006103515625
 43
19.04998779296875
 44
215.8999938964844
 45
279.3999938964844
 46
0.0
 47
0.0
 48
0.0
 49
0.0
140
0.0
141
0.0
142
1.0
143
2.584895464708373
 70
 11952
 72
     0
 73
     1
 74
     0
  7

 75
     0
147
0.3868628397755418
148
0.0
149
0.0
100
AcDbLayout
  1
Model
 70
     1
 71
     0
 10
0.0
 20
0.0
 11
12.0
 21
9.0
 12
0.0
 22
0.0
 32
0.0
 14
0.0
 24
0.0
 34
0.0
 15
0.0
 25
0.0
 35
0.0
146
0.0
 13
0.0
 23
0.0
 33
0.0
 16
1.0
 26
0.0
 36
0.0
 17
0.0
 27
1.0
 37
0.0
 76
     0
330
1F
331
94
  0
MATERIAL
  5
97
102
{ACAD_XDICTIONARY
360
50F
102
}
102
{ACAD_REACTORS
330
72
102
}
330
72
100
AcDbMaterial
  1
ByBlock
  0
MATERIAL
  5
96
102
{ACAD_XDICTIONARY
360
50D
102
}
102
{ACAD_REACTORS
330
72
102
}
330
72
100
AcDbMaterial
  1
ByLayer
  0
MATERIAL
  5
98
102
{ACAD_XDICTIONARY
360
110
102
}
102
{ACAD_REACTORS
330
72
102
}
330
72
100
AcDbMaterial
  1
Global
 43
0.0208000000566244
 43
0.0
 43
0.0
 43
0.0
 43
0.0
 43
0.0208000000566244
 43
0.0
 43
0.0
 43
0.0
 43
0.0
 43
1.0
 43
0.0
 43
0.0
 43
0.0
 43
0.0
 43
1.0
 49
0.0208000000566244
 49
0.0
 49
0.0
 49
0.0
 49
0.0
 49
0.0208000000566244
 49
0.0
 49
0.0
 49
0.0
 49
0.0
 49
1.0
 49
0.0
 49
0.0
 49
0.0
 49
0.0
 49
1.0
142
0.0208000000566244
142
0.0
142
0.0
142
0.0
142
0.0
142
0.0208000000566244
142
0.0
142
0.0
142
0.0
142
0.0
142
1.0
142
0.0
142
0.0
142
0.0
142
0.0
142
1.0
144
0.0208000000566244
144
0.0
144
0.0
144
0.0
144
0.0
144
0.0208000000566244
144
0.0
144
0.0
144
0.0
144
0.0
144
1.0
144
0.0
144
0.0
144
0.0
144
0.0
144
1.0
1001
ACAD
1070
    -1
1070
     3
1070
     0
1000

1071
        0
1070
     0
  0
MLEADERSTYLE
  5
E5
102
{ACAD_REACTORS
330
D7
102
}
330
D7
100
AcDbMLeaderStyle
170
     2
171
     1
172
     0
 90
        2
 40
0.0
 41
0.0
173
     1
 91
-1056964608
340
14
 92
       -2
290
     1
 42
0.09
291
     1
 43
0.36
  3
Standard
 44
0.18
300

342
11
174
     1
178
     1
175
     1
176
     0
 93
-1056964608
 45
0.18
292
     0
297
     0
 46
0.18
 94
-1056964608
 47
1.0
 49
1.0
140
1.0
293
     1
141
0.0
294
     1
177
     0
142
1.0
295
     0
296
     1
143
0.125
1001
ACAD_MLEADERVER
1070
     2
  0
MLEADERSTYLE
  5
D8
102
{ACAD_REACTORS
330
D7
102
}
330
D7
100
AcDbMLeaderStyle
170
     2
171
     1
172
     0
 90
        2
 40
0.0
 41
0.0
173
     1
 91
-1056964608
340
14
 92
       -2
290
     1
 42
0.09
291
     1
 43
0.36
  3
Standard
 44
0.18
300

342
11
174
     1
178
     1
175
     1
176
     0
 93
-1056964608
 45
0.18
292
     0
297
     0
 46
0.18
 94
-1056964608
 47
1.0
 49
1.0
140
1.0
293
     1
141
0.0
294
     1
177
     0
142
1.0
295
     0
296
     0
143
0.125
1001
ACAD_MLEADERVER
1070
     2
  0
MLINESTYLE
  5
18
102
{ACAD_REACTORS
330
17
102
}
330
17
100
AcDbMlineStyle
  2
STANDARD
 70
     0
  3

 62
   256
 51
90.0
 52
90.0
 71
     2
 49
0.5
 62
   256
  6
BYLAYER
 49
-0.5
 62
   256
  6
BYLAYER
  0
ACDBPLACEHOLDER
  5
F
102
{ACAD_REACTORS
330
E
102
}
330
E
  0
SCALE
  5
B7
102
{ACAD_REACTORS
330
B6
102
}
330
B6
100
AcDbScale
 70
     0
300
1:1
140
1.0
141
1.0
290
     1
  0
SCALE
  5
124
102
{ACAD_REACTORS
330
B6
102
}
330
B6
100
AcDbScale
 70
     0
300
1:2
140
1.0
141
2.0
290
     0
  0
SCALE
  5
125
102
{ACAD_REACTORS
330
B6
102
}
330
B6
100
AcDbScale
 70
     0
300
1:4
140
1.0
141
4.0
290
     0
  0
SCALE
  5
126
102
{ACAD_REACTORS
330
B6
102
}
330
B6
100
AcDbScale
 70
     0
300
1:5
140
1.0
141
5.0
290
     0
  0
SCALE
  5
127
102
{ACAD_REACTORS
330
B6
102
}
330
B6
100
AcDbScale
 70
     0
300
1:8
140
1.0
141
8.0
290
     0
  0
SCALE
  5
128
102
{ACAD_REACTORS
330
B6
102
}
330
B6
100
AcDbScale
 70
     0
300
1:10
140
1.0
141
10.0
290
     0
  0
SCALE
  5
129
102
{ACAD_REACTORS
330
B6
102
}
330
B6
100
AcDbScale
 70
     0
300
1:16
140
1.0
141
16.0
290
     0
  0
SCALE
  5
12A
102
{ACAD_REACTORS
330
B6
102
}
330
B6
100
AcDbScale
 70
     0
300
1:20
140
1.0
141
20.0
290
     0
  0
SCALE
  5
12B
102
{ACAD_REACTORS
330
B6
102
}
330
B6
100
AcDbScale
 70
     0
300
1:30
140
1.0
141
30.0
290
     0
  0
SCALE
  5
12C
102
{ACAD_REACTORS
330
B6
102
}
330
B6
100
AcDbScale
 70
     0
300
1:40
140
1.0
141
40.0
290
     0
  0
SCALE
  5
12D
102
{ACAD_REACTORS
330
B6
102
}
330
B6
100
AcDbScale
 70
     0
300
1:50
140
1.0
141
50.0
290
     0
  0
SCALE
  5
12E
102
{ACAD_REACTORS
330
B6
102
}
330
B6
100
AcDbScale
 70
     0
300
1:100
140
1.0
141
100.0
290
     0
  0
SCALE
  5
12F
102
{ACAD_REACTORS
330
B6
102
}
330
B6
100
AcDbScale
 70
     0
300
2:1
140
2.0
141
1.0
290
     0
  0
SCALE
  5
130
102
{ACAD_REACTORS
330
B6
102
}
330
B6
100
AcDbScale
 70
     0
300
4:1
140
4.0
141
1.0
290
     0
  0
SCALE
  5
131
102
{ACAD_REACTORS
330
B6
102
}
330
B6
100
AcDbScale
 70
     0
300
8:1
140
8.0
141
1.0
290
     0
  0
SCALE
  5
132
102
{ACAD_REACTORS
330
B6
102
}
330
B6
100
AcDbScale
 70
     0
300
10:1
140
10.0
141
1.0
290
     0
  0
SCALE
  5
133
102
{ACAD_REACTORS
330
B6
102
}
330
B6
100
AcDbScale
 70
     0
300
100:1
140
100.0
141
1.0
290
     0
  0
SCALE
  5
134
102
{ACAD_REACTORS
330
B6
102
}
330
B6
100
AcDbScale
 70
     0
300
1/128" = 1'-0"
140
0.0078125
141
12.0
290
     0
  0
SCALE
  5
135
102
{ACAD_REACTORS
330
B6
102
}
330
B6
100
AcDbScale
 70
     0
300
1/64" = 1'-0"
140
0.015625
141
12.0
290
     0
  0
SCALE
  5
136
102
{ACAD_REACTORS
330
B6
102
}
330
B6
100
AcDbScale
 70
     0
300
1/32" = 1'-0"
140
0.03125
141
12.0
290
     0
  0
SCALE
  5
137
102
{ACAD_REACTORS
330
B6
102
}
330
B6
100
AcDbScale
 70
     0
300
1/16" = 1'-0"
140
0.0625
141
12.0
290
     0
  0
SCALE
  5
138
102
{ACAD_REACTORS
330
B6
102
}
330
B6
100
AcDbScale
 70
     0
300
3/32" = 1'-0"
140
0.09375
141
12.0
290
     0
  0
SCALE
  5
139
102
{ACAD_REACTORS
330
B6
102
}
330
B6
100
AcDbScale
 70
     0
300
1/8" = 1'-0"
140
0.125
141
12.0
290
     0
  0
SCALE
  5
13A
102
{ACAD_REACTORS
330
B6
102
}
330
B6
100
AcDbScale
 70
     0
300
3/16" = 1'-0"
140
0.1875
141
12.0
290
     0
  0
SCALE
  5
13B
102
{ACAD_REACTORS
330
B6
102
}
330
B6
100
AcDbScale
 70
     0
300
1/4" = 1'-0"
140
0.25
141
12.0
290
     0
  0
SCALE
  5
13C
102
{ACAD_REACTORS
330
B6
102
}
330
B6
100
AcDbScale
 70
     0
300
3/8" = 1'-0"
140
0.375
141
12.0
290
     0
  0
SCALE
  5
13D
102
{ACAD_REACTORS
330
B6
102
}
330
B6
100
AcDbScale
 70
     0
300
1/2" = 1'-0"
140
0.5
141
12.0
290
     0
  0
SCALE
  5
13E
102
{ACAD_REACTORS
330
B6
102
}
330
B6
100
AcDbScale
 70
     0
300
3/4" = 1'-0"
140
0.75
141
12.0
290
     0
  0
SCALE
  5
13F
102
{ACAD_REACTORS
330
B6
102
}
330
B6
100
AcDbScale
 70
     0
300
1" = 1'-0"
140
1.0
141
12.0
290
     0
  0
SCALE
  5
140
102
{ACAD_REACTORS
330
B6
102
}
330
B6
100
AcDbScale
 70
     0
300
1-1/2" = 1'-0"
140
1.5
141
12.0
290
     0
  0
SCALE
  5
141
102
{ACAD_REACTORS
330
B6
102
}
330
B6
100
AcDbScale
 70
     0
300
3" = 1'-0"
140
3.0
141
12.0
290
     0
  0
SCALE
  5
142
102
{ACAD_REACTORS
330
B6
102
}
330
B6
100
AcDbScale
 70
     0
300
6" = 1'-0"
140
6.0
141
12.0
290
     0
  0
SCALE
  5
143
102
{ACAD_REACTORS
330
B6
102
}
330
B6
100
AcDbScale
 70
     0
300
1'-0" = 1'-0"
140
12.0
141
12.0
290
     0
  0
TABLESTYLE
  5
87
102
{ACAD_XDICTIONARY
360
104
102
}
102
{ACAD_REACTORS
330
86
102
}
330
86
100
AcDbTableStyle
  3
Standard
 70
     0
 71
     0
 40
0.06
 41
0.06
280
     0
281
     0
  7
Standard
140
0.18
170
     2
 62
     0
 63
     7
283
     0
274
    -2
284
     1
 64
     0
275
    -2
285
     1
 65
     0
276
    -2
286
     1
 66
     0
277
    -2
287
     1
 67
     0
278
    -2
288
     1
 68
     0
279
    -2
289
     1
 69
     0
  7
Standard
140
0.25
170
     5
 62
     0
 63
     7
283
     0
274
    -2
284
     1
 64
     0
275
    -2
285
     1
 65
     0
276
    -2
286
     1
 66
     0
277
    -2
287
     1
 67
     0
278
    -2
288
     1
 68
     0
279
    -2
289
     1
 69
     0
  7
Standard
140
0.18
170
     5
 62
     0
 63
     7
283
     0
274
    -2
284
     1
 64
     0
275
    -2
285
     1
 65
     0
276
    -2
286
     1
 66
     0
277
    -2
287
     1
 67
     0
278
    -2
288
     1
 68
     0
279
    -2
289
     1
 69
     0
  0
VISUALSTYLE
  5
9F
102
{ACAD_REACTORS
330
99
102
}
330
99
100
AcDbVisualStyle
  2
2dWireframe
 70
     4
 71
     0
 72
     2
 73
     1
 90
        0
 40
-0.6
 41
-30.0
 62
     5
 63
     7
 74
     1
 91
        4
 64
     7
 65
   257
 75
     1
175
     1
 42
1.0
 92
        0
 66
   257
 43
1.0
 76
     1
 77
     6
 78
     2
 67
     7
 79
     5
170
     0
171
     0
290
     0
174
     0
 93
        1
 44
0.0
173
     0
291
     0
 45
0.0
1001
ACAD
1000
AcDbSavedByObjectVersion
1070
     0
  0
VISUALSTYLE
  5
A1
102
{ACAD_REACTORS
330
99
102
}
330
99
100
AcDbVisualStyle
  2
3D Hidden
 70
     6
 71
     1
 72
     2
 73
     2
 90
        0
 40
-0.6
 41
-30.0
 62
     5
 63
     7
 74
     2
 91
        2
 64
     7
 65
   257
 75
     2
175
     1
 42
40.0
 92
        0
 66
   257
 43
1.0
 76
     1
 77
     6
 78
     2
 67
     7
 79
     3
170
     0
171
     0
290
     0
174
     0
 93
        1
 44
0.0
173
     0
291
     0
 45
0.0
1001
ACAD
1000
AcDbSavedByObjectVersion
1070
     0
  0
VISUALSTYLE
  5
A0
102
{ACAD_REACTORS
330
99
102
}
330
99
100
AcDbVisualStyle
  2
3dWireframe
 70
     5
 71
     0
 72
     2
 73
     1
 90
        0
 40
-0.6
 41
-30.0
 62
     5
 63
     7
 74
     1
 91
        4
 64
     7
 65
   257
 75
     1
175
     1
 42
1.0
 92
        0
 66
   257
 43
1.0
 76
     1
 77
     6
 78
     2
 67
     7
 79
     5
170
     0
171
     0
290
     0
174
     0
 93
        1
 44
0.0
173
     0
291
     0
 45
0.0
1001
ACAD
1000
AcDbSavedByObjectVersion
1070
     0
  0
VISUALSTYLE
  5
9E
102
{ACAD_REACTORS
330
99
102
}
330
99
100
AcDbVisualStyle
  2
Basic
 70
     7
 71
     1
 72
     0
 73
     1
 90
        0
 40
-0.6
 41
-30.0
 62
     5
 63
     7
 74
     0
 91
        4
 64
     7
 65
   257
 75
     1
175
     1
 42
1.0
 92
        8
 66
     7
 43
1.0
 76
     1
 77
     6
 78
     2
 67
     7
 79
     5
170
     0
171
     0
290
     0
174
     0
 93
        1
 44
0.0
173
     0
291
     1
 45
0.0
1001
ACAD
1000
AcDbSavedByObjectVersion
1070
     0
  0
VISUALSTYLE
  5
A5
102
{ACAD_REACTORS
330
99
102
}
330
99
100
AcDbVisualStyle
  2
Brighten
 70
    12
 71
     2
 72
     2
 73
     1
 90
        0
 40
-0.6
 41
-30.0
 62
     5
 63
     7
 74
     1
 91
        4
 64
     7
 65
   257
 75
     1
175
     1
 42
1.0
 92
        8
 66
     7
 43
1.0
 76
     1
 77
     6
 78
     2
 67
     7
 79
     5
170
     0
171
     0
290
     0
174
     0
 93
        1
 44
50.0
173
     0
291
     1
 45
0.0
1001
ACAD
1000
AcDbSavedByObjectVersion
1070
     0
  0
VISUALSTYLE
  5
A9
102
{ACAD_REACTORS
330
99
102
}
330
99
100
AcDbVisualStyle
  2
ColorChange
 70
    16
 71
     2
 72
     2
 73
     3
 90
        0
 40
-0.6
 41
-30.0
 62
     5
 63
     8
 74
     1
 91
        4
 64
     7
 65
   257
 75
     1
175
     1
 42
1.0
 92
        8
 66
     8
 43
1.0
 76
     1
 77
     6
 78
     2
 67
     7
 79
     5
170
     0
171
     0
290
     0
174
     0
 93
        1
 44
0.0
173
     0
291
     1
 45
0.0
1001
ACAD
1000
AcDbSavedByObjectVersion
1070
     0
  0
VISUALSTYLE
  5
A2
102
{ACAD_REACTORS
330
99
102
}
330
99
100
AcDbVisualStyle
  2
Conceptual
 70
     9
 71
     3
 72
     2
 73
     1
 90
        0
 40
-0.6
 41
-30.0
 62
     5
 63
     7
 74
     2
 91
        2
 64
     7
 65
   257
 75
     1
175
     1
 42
40.0
 92
        8
 66
     7
 43
1.0
 76
     1
 77
     6
 78
     2
 67
     7
 79
     3
170
     0
171
     0
290
     0
174
     0
 93
        1
 44
0.0
173
     0
291
     0
 45
0.0
1001
ACAD
1000
AcDbSavedByObjectVersion
1070
     0
  0
VISUALSTYLE
  5
A4
102
{ACAD_REACTORS
330
99
102
}
330
99
100
AcDbVisualStyle
  2
Dim
 70
    11
 71
     2
 72
     2
 73
     1
 90
        0
 40
-0.6
 41
-30.0
 62
     5
 63
     7
 74
     1
 91
        4
 64
     7
 65
   257
 75
     1
175
     1
 42
1.0
 92
        8
 66
     7
 43
1.0
 76
     1
 77
     6
 78
     2
 67
     7
 79
     5
170
     0
171
     0
290
     0
174
     0
 93
        1
 44
-50.0
173
     0
291
     1
 45
0.0
1001
ACAD
1000
AcDbSavedByObjectVersion
1070
     0
  0
VISUALSTYLE
  5
A8
102
{ACAD_REACTORS
330
99
102
}
330
99
100
AcDbVisualStyle
  2
Facepattern
 70
    15
 71
     2
 72
     2
 73
     1
 90
        0
 40
-0.6
 41
-30.0
 62
     5
 63
     7
 74
     1
 91
        4
 64
     7
 65
   257
 75
     1
175
     1
 42
1.0
 92
        8
 66
     7
 43
1.0
 76
     1
 77
     6
 78
     2
 67
     7
 79
     5
170
     0
171
     0
290
     0
174
     0
 93
        1
 44
0.0
173
     0
291
     1
 45
0.0
1001
ACAD
1000
AcDbSavedByObjectVersion
1070
     0
  0
VISUALSTYLE
  5
9A
102
{ACAD_REACTORS
330
99
102
}
330
99
100
AcDbVisualStyle
  2
Flat
 70
     0
 71
     2
 72
     1
 73
     1
 90
        2
 40
-0.6
 41
30.0
 62
     5
 63
     7
 74
     0
 91
        4
 64
     7
 65
   257
 75
     1
175
     1
 42
1.0
 92
        8
 66
     7
 43
1.0
 76
     1
 77
     6
 78
     2
 67
     7
 79
     5
170
     0
171
     0
290
     0
174
     0
 93
        1
 44
0.0
173
     0
291
     1
 45
0.0
1001
ACAD
1000
AcDbSavedByObjectVersion
1070
     0
  0
VISUALSTYLE
  5
9B
102
{ACAD_REACTORS
330
99
102
}
330
99
100
AcDbVisualStyle
  2
FlatWithEdges
 70
     1
 71
     2
 72
     1
 73
     1
 90
        2
 40
-0.6
 41
30.0
 62
     5
 63
     7
 74
     1
 91
        4
 64
     7
 65
   257
 75
     1
175
     1
 42
1.0
 92
        0
 66
   257
 43
1.0
 76
     1
 77
     6
 78
     2
 67
     7
 79
     5
170
     0
171
     0
290
     0
174
     0
 93
        1
 44
0.0
173
     0
291
     1
 45
0.0
1001
ACAD
1000
AcDbSavedByObjectVersion
1070
     0
  0
VISUALSTYLE
  5
9C
102
{ACAD_REACTORS
330
99
102
}
330
99
100
AcDbVisualStyle
  2
Gouraud
 70
     2
 71
     2
 72
     2
 73
     1
 90
        2
 40
-0.6
 41
30.0
 62
     5
 63
     7
 74
     0
 91
        4
 64
     7
 65
   257
 75
     1
175
     1
 42
1.0
 92
        0
 66
     7
 43
1.0
 76
     1
 77
     6
 78
     2
 67
     7
 79
     5
170
     0
171
     0
290
     0
174
     0
 93
        1
 44
0.0
173
     0
291
     1
 45
0.0
1001
ACAD
1000
AcDbSavedByObjectVersion
1070
     0
  0
VISUALSTYLE
  5
9D
102
{ACAD_REACTORS
330
99
102
}
330
99
100
AcDbVisualStyle
  2
GouraudWithEdges
 70
     3
 71
     2
 72
     2
 73
     1
 90
        2
 40
-0.6
 41
30.0
 62
     5
 63
     7
 74
     1
 91
        4
 64
     7
 65
   257
 75
     1
175
     1
 42
1.0
 92
        0
 66
   257
 43
1.0
 76
     1
 77
     6
 78
     2
 67
     7
 79
     5
170
     0
171
     0
290
     0
174
     0
 93
        1
 44
0.0
173
     0
291
     1
 45
0.0
1001
ACAD
1000
AcDbSavedByObjectVersion
1070
     0
  0
VISUALSTYLE
  5
A7
102
{ACAD_REACTORS
330
99
102
}
330
99
100
AcDbVisualStyle
  2
Linepattern
 70
    14
 71
     2
 72
     2
 73
     1
 90
        0
 40
-0.6
 41
-30.0
 62
     5
 63
     7
 74
     1
 91
        4
 64
     7
 65
   257
 75
     7
175
     7
 42
1.0
 92
        8
 66
     7
 43
1.0
 76
     1
 77
     6
 78
     2
 67
     7
 79
     5
170
     0
171
     0
290
     0
174
     0
 93
        1
 44
0.0
173
     0
291
     1
 45
0.0
1001
ACAD
1000
AcDbSavedByObjectVersion
1070
     0
  0
VISUALSTYLE
  5
A3
102
{ACAD_REACTORS
330
99
102
}
330
99
100
AcDbVisualStyle
  2
Realistic
 70
     8
 71
     2
 72
     2
 73
     1
 90
        0
 40
-0.6
 41
-30.0
 62
     5
 63
     7
 74
     1
 91
        0
 64
     7
 65
   257
 75
     1
175
     1
 42
1.0
 92
        8
 66
     8
 43
1.0
 76
     1
 77
     6
 78
     2
 67
     7
 79
     5
170
     0
171
     0
290
     0
174
     0
 93
       13
 44
0.0
173
     0
291
     0
 45
0.0
1001
ACAD
1000
AcDbSavedByObjectVersion
1070
     0
  0
VISUALSTYLE
  5
A6
102
{ACAD_REACTORS
330
99
102
}
330
99
100
AcDbVisualStyle
  2
Thicken
 70
    13
 71
     2
 72
     2
 73
     1
 90
        0
 40
-0.6
 41
-30.0
 62
     5
 63
     7
 74
     1
 91
        4
 64
     7
 65
   257
 75
     1
175
     1
 42
1.0
 92
       12
 66
     7
 43
1.0
 76
     1
 77
     6
 78
     2
 67
     7
 79
     5
170
     0
171
     0
290
     0
174
     0
 93
        1
 44
0.0
173
     0
291
     1
 45
0.0
1001
ACAD
1000
AcDbSavedByObjectVersion
1070
     0
  0
DICTIONARYVAR
  5
F0
102
{ACAD_REACTORS
330
66
102
}
330
66
100
DictionaryVariables
280
     0
  1
1:1
  0
DICTIONARYVAR
  5
EF
102
{ACAD_REACTORS
330
66
102
}
330
66
100
DictionaryVariables
280
     0
  1
STANDARD
  0
DICTIONARYVAR
  5
89
102
{ACAD_REACTORS
330
66
102
}
330
66
100
DictionaryVariables
280
     0
  1
STANDARD
  0
DICTIONARYVAR
  5
67
102
{ACAD_REACTORS
330
66
102
}
330
66
100
DictionaryVariables
280
     0
  1
2
  0
DICTIONARYVAR
  5
6B
102
{ACAD_REACTORS
330
66
102
}
330
66
100
DictionaryVariables
280
     0
  1
1
  0
DICTIONARYVAR
  5
503
102
{ACAD_REACTORS
330
66
102
}
330
66
100
DictionaryVariables
280
     0
  1
0
  0
DICTIONARYVAR
  5
501
102
{ACAD_REACTORS
330
66
102
}
330
66
100
DictionaryVariables
280
     0
  1
2
  0
DICTIONARYVAR
  5
500
102
{ACAD_REACTORS
330
66
102
}
330
66
100
DictionaryVariables
280
     0
  1
1
  0
DICTIONARYVAR
  5
502
102
{ACAD_REACTORS
330
66
102
}
330
66
100
DictionaryVariables
280
     0
  1
127
  0
DICTIONARY
  5
508
330
59
100
AcDbDictionary
280
     1
281
     1
  3
ACAD_XREC_ROUNDTRIP
360
509
  0
DICTIONARY
  5
50A
330
5E
100
AcDbDictionary
280
     1
281
     1
  3
ACAD_XREC_ROUNDTRIP
360
50B
  0
DICTIONARY
  5
506
330
22
100
AcDbDictionary
280
     1
281
     1
  3
ACAD_XREC_ROUNDTRIP
360
507
  0
DICTIONARY
  5
50F
330
97
100
AcDbDictionary
280
     1
281
     1
  3
ACAD_XREC_ROUNDTRIP
360
510
  0
DICTIONARY
  5
50D
330
96
100
AcDbDictionary
280
     1
281
     1
  3
ACAD_XREC_ROUNDTRIP
360
50E
  0
DICTIONARY
  5
110
330
98
100
AcDbDictionary
280
     1
281
     1
  3
ACAD_XREC_ROUNDTRIP
360
511
  3
BUMPTILE
360
112
  3
DIFFUSETILE
360
111
  3
OPACITYTILE
360
113
  3
REFLECTIONTILE
360
114
  0
DICTIONARY
  5
104
330
87
100
AcDbDictionary
280
     1
281
     1
  3
ACAD_ROUNDTRIP_2008_TABLESTYLE_CELLSTYLEMAP
360
504
  3
ACAD_XREC_ROUNDTRIP
360
50C
  0
XRECORD
  5
509
102
{ACAD_REACTORS
330
508
102
}
330
508
100
AcDbXrecord
280
     1
102
SHADEPLOT
 70
     0
102
SHADEPLOTRESLEVEL
 70
     2
102
SHADEPLOTCUSTOMDPI
 70
   300
  0
XRECORD
  5
50B
102
{ACAD_REACTORS
330
50A
102
}
330
50A
100
AcDbXrecord
280
     1
102
SHADEPLOT
 70
     0
102
SHADEPLOTRESLEVEL
 70
     2
102
SHADEPLOTCUSTOMDPI
 70
   300
  0
XRECORD
  5
507
102
{ACAD_REACTORS
330
506
102
}
330
506
100
AcDbXrecord
280
     1
102
SHADEPLOT
 70
     0
102
SHADEPLOTRESLEVEL
 70
     2
102
SHADEPLOTCUSTOMDPI
 70
   300
  0
XRECORD
  5
510
102
{ACAD_REACTORS
330
50F
102
}
330
50F
100
AcDbXrecord
280
     1
102
MATERIAL
148
0.0
149
0.0
149
0.0
 93
        0
 94
       63
282
     0
 72
     1
 77
     1
171
     1
175
     1
179
     1
273
     0
  0
XRECORD
  5
50E
102
{ACAD_REACTORS
330
50D
102
}
330
50D
100
AcDbXrecord
280
     1
102
MATERIAL
148
0.0
149
0.0
149
0.0
 93
        0
 94
       63
282
     0
 72
     1
 77
     1
171
     1
175
     1
179
     1
273
     0
  0
XRECORD
  5
511
102
{ACAD_REACTORS
330
110
102
}
330
110
100
AcDbXrecord
280
     1
102
MATERIAL
148
0.0
149
0.0
149
0.0
 93
        0
 94
       63
282
     0
 72
     1
 77
     1
171
     1
175
     1
179
     1
273
     0
  0
XRECORD
  5
112
102
{ACAD_REACTORS
330
110
102
}
330
110
100
AcDbXrecord
280
     1
270
     1
271
     1
  0
XRECORD
  5
111
102
{ACAD_REACTORS
330
110
102
}
330
110
100
AcDbXrecord
280
     1
270
     1
271
     1
  0
XRECORD
  5
113
102
{ACAD_REACTORS
330
110
102
}
330
110
100
AcDbXrecord
280
     1
270
     1
271
     1
  0
XRECORD
  5
114
102
{ACAD_REACTORS
330
110
102
}
330
110
100
AcDbXrecord
280
     1
270
     1
271
     1
  0
CELLSTYLEMAP
  5
504
102
{ACAD_REACTORS
330
104
102
}
330
104
100
AcDbCellStyleMap
 90
        3
300
CELLSTYLE
  1
TABLEFORMAT_BEGIN
 90
        5
170
     1
 91
        0
 92
    32768
 62
   257
 93
        1
300
CONTENTFORMAT
  1
CONTENTFORMAT_BEGIN
 90
        0
 91
        0
 92
      512
 93
        0
300

 40
0.0
140
1.0
 94
        5
 62
     0
340
11
144
0.25
309
CONTENTFORMAT_END
171
     1
301
MARGIN
  1
CELLMARGIN_BEGIN
 40
0.06
 40
0.06
 40
0.06
 40
0.06
 40
0.18
 40
0.18
309
CELLMARGIN_END
 94
        6
 95
        1
302
GRIDFORMAT
  1
GRIDFORMAT_BEGIN
 90
        0
 91
        1
 62
     0
 92
       -2
340
0
 93
        0
 40
0.045
309
GRIDFORMAT_END
 95
        2
302
GRIDFORMAT
  1
GRIDFORMAT_BEGIN
 90
        0
 91
        1
 62
     0
 92
       -2
340
0
 93
        0
 40
0.045
309
GRIDFORMAT_END
 95
        4
302
GRIDFORMAT
  1
GRIDFORMAT_BEGIN
 90
        0
 91
        1
 62
     0
 92
       -2
340
0
 93
        0
 40
0.045
309
GRIDFORMAT_END
 95
        8
302
GRIDFORMAT
  1
GRIDFORMAT_BEGIN
 90
        0
 91
        1
 62
     0
 92
       -2
340
0
 93
        0
 40
0.045
309
GRIDFORMAT_END
 95
       16
302
GRIDFORMAT
  1
GRIDFORMAT_BEGIN
 90
        0
 91
        1
 62
     0
 92
       -2
340
0
 93
        0
 40
0.045
309
GRIDFORMAT_END
 95
       32
302
GRIDFORMAT
  1
GRIDFORMAT_BEGIN
 90
        0
 91
        1
 62
     0
 92
       -2
340
0
 93
        0
 40
0.045
309
GRIDFORMAT_END
309
TABLEFORMAT_END
  1
CELLSTYLE_BEGIN
 90
        1
 91
        1
300
_TITLE
309
CELLSTYLE_END
300
CELLSTYLE
  1
TABLEFORMAT_BEGIN
 90
        5
170
     1
 91
        0
 92
        0
 62
   257
 93
        1
300
CONTENTFORMAT
  1
CONTENTFORMAT_BEGIN
 90
        0
 91
        0
 92
      512
 93
        0
300

 40
0.0
140
1.0
 94
        5
 62
     0
340
11
144
0.18
309
CONTENTFORMAT_END
171
     1
301
MARGIN
  1
CELLMARGIN_BEGIN
 40
0.06
 40
0.06
 40
0.06
 40
0.06
 40
0.18
 40
0.18
309
CELLMARGIN_END
 94
        6
 95
        1
302
GRIDFORMAT
  1
GRIDFORMAT_BEGIN
 90
        0
 91
        1
 62
     0
 92
       -2
340
0
 93
        0
 40
0.045
309
GRIDFORMAT_END
 95
        2
302
GRIDFORMAT
  1
GRIDFORMAT_BEGIN
 90
        0
 91
        1
 62
     0
 92
       -2
340
0
 93
        0
 40
0.045
309
GRIDFORMAT_END
 95
        4
302
GRIDFORMAT
  1
GRIDFORMAT_BEGIN
 90
        0
 91
        1
 62
     0
 92
       -2
340
0
 93
        0
 40
0.045
309
GRIDFORMAT_END
 95
        8
302
GRIDFORMAT
  1
GRIDFORMAT_BEGIN
 90
        0
 91
        1
 62
     0
 92
       -2
340
0
 93
        0
 40
0.045
309
GRIDFORMAT_END
 95
       16
302
GRIDFORMAT
  1
GRIDFORMAT_BEGIN
 90
        0
 91
        1
 62
     0
 92
       -2
340
0
 93
        0
 40
0.045
309
GRIDFORMAT_END
 95
       32
302
GRIDFORMAT
  1
GRIDFORMAT_BEGIN
 90
        0
 91
        1
 62
     0
 92
       -2
340
0
 93
        0
 40
0.045
309
GRIDFORMAT_END
309
TABLEFORMAT_END
  1
CELLSTYLE_BEGIN
 90
        2
 91
        1
300
_HEADER
309
CELLSTYLE_END
300
CELLSTYLE
  1
TABLEFORMAT_BEGIN
 90
        5
170
     1
 91
        0
 92
        0
 62
   257
 93
        1
300
CONTENTFORMAT
  1
CONTENTFORMAT_BEGIN
 90
        0
 91
        0
 92
      512
 93
        0
300

 40
0.0
140
1.0
 94
        2
 62
     0
340
11
144
0.18
309
CONTENTFORMAT_END
171
     1
301
MARGIN
  1
CELLMARGIN_BEGIN
 40
0.06
 40
0.06
 40
0.06
 40
0.06
 40
0.18
 40
0.18
309
CELLMARGIN_END
 94
        6
 95
        1
302
GRIDFORMAT
  1
GRIDFORMAT_BEGIN
 90
        0
 91
        1
 62
     0
 92
       -2
340
0
 93
        0
 40
0.045
309
GRIDFORMAT_END
 95
        2
302
GRIDFORMAT
  1
GRIDFORMAT_BEGIN
 90
        0
 91
        1
 62
     0
 92
       -2
340
0
 93
        0
 40
0.045
309
GRIDFORMAT_END
 95
        4
302
GRIDFORMAT
  1
GRIDFORMAT_BEGIN
 90
        0
 91
        1
 62
     0
 92
       -2
340
0
 93
        0
 40
0.045
309
GRIDFORMAT_END
 95
        8
302
GRIDFORMAT
  1
GRIDFORMAT_BEGIN
 90
        0
 91
        1
 62
     0
 92
       -2
340
0
 93
        0
 40
0.045
309
GRIDFORMAT_END
 95
       16
302
GRIDFORMAT
  1
GRIDFORMAT_BEGIN
 90
        0
 91
        1
 62
     0
 92
       -2
340
0
 93
        0
 40
0.045
309
GRIDFORMAT_END
 95
       32
302
GRIDFORMAT
  1
GRIDFORMAT_BEGIN
 90
        0
 91
        1
 62
     0
 92
       -2
340
0
 93
        0
 40
0.045
309
GRIDFORMAT_END
309
TABLEFORMAT_END
  1
CELLSTYLE_BEGIN
 90
        3
 91
        2
300
_DATA
309
CELLSTYLE_END
  0
XRECORD
  5
50C
102
{ACAD_REACTORS
330
104
102
}
330
104
100
AcDbXrecord
280
     1
102
ACAD_ROUNDTRIP_PRE2007_TABLESTYLE
 90
      512
 91
        0
  1

 92
      512
 93
        0
  2

 94
      512
 95
        0
  3

  0
ENDSEC
  0
EOF
