  0
SECTION
  2
HEADER
  9
$ACADVER
  1
AC1015
  9
$ACADMAINTVER
 70
    20
  9
$DWGCODEPAGE
  3
ANSI_1252
  9
$INSBASE
 10
0.0
 20
0.0
 30
0.0
  9
$EXTMIN
 10
23.05630368320653
 20
10.92566931588458
 30
0.0
  9
$EXTMAX
 10
164.5024067665398
 20
371.7957436258846
 30
0.0
  9
$LIMMIN
 10
0.0
 20
0.0
  9
$LIMMAX
 10
12.0
 20
9.0
  9
$ORTHOMODE
 70
     0
  9
$REGENMODE
 70
     1
  9
$FILLMODE
 70
     1
  9
$QTEXTMODE
 70
     0
  9
$MIRRTEXT
 70
     0
  9
$LTSCALE
 40
1.0
  9
$ATTMODE
 70
     1
  9
$TEXTSIZE
 40
0.2
  9
$TRACEWID
 40
0.05
  9
$TEXTSTYLE
  7
Standard
  9
$CLAYER
  8
0
  9
$CELTYPE
  6
ByLayer
  9
$CECOLOR
 62
   256
  9
$CELTSCALE
 40
1.0
  9
$DISPSILH
 70
     0
  9
$DIMSCALE
 40
1.0
  9
$DIMASZ
 40
0.18
  9
$DIMEXO
 40
0.0625
  9
$DIMDLI
 40
0.38
  9
$DIMRND
 40
0.0
  9
$DIMDLE
 40
0.0
  9
$DIMEXE
 40
0.18
  9
$DIMTP
 40
0.0
  9
$DIMTM
 40
0.0
  9
$DIMTXT
 40
0.18
  9
$DIMCEN
 40
0.09
  9
$DIMTSZ
 40
0.0
  9
$DIMTOL
 70
     0
  9
$DIMLIM
 70
     0
  9
$DIMTIH
 70
     1
  9
$DIMTOH
 70
     1
  9
$DIMSE1
 70
     0
  9
$DIMSE2
 70
     0
  9
$DIMTAD
 70
     0
  9
$DIMZIN
 70
     0
  9
$DIMBLK
  1

  9
$DIMASO
 70
     1
  9
$DIMSHO
 70
     1
  9
$DIMPOST
  1

  9
$DIMAPOST
  1

  9
$DIMALT
 70
     0
  9
$DIMALTD
 70
     2
  9
$DIMALTF
 40
25.4
  9
$DIMLFAC
 40
1.0
  9
$DIMTOFL
 70
     0
  9
$DIMTVP
 40
0.0
  9
$DIMTIX
 70
     0
  9
$DIMSOXD
 70
     0
  9
$DIMSAH
 70
     0
  9
$DIMBLK1
  1

  9
$DIMBLK2
  1

  9
$DIMSTYLE
  2
Standard
  9
$DIMCLRD
 70
     0
  9
$DIMCLRE
 70
     0
  9
$DIMCLRT
 70
     0
  9
$DIMTFAC
 40
1.0
  9
$DIMGAP
 40
0.09
  9
$DIMJUST
 70
     0
  9
$DIMSD1
 70
     0
  9
$DIMSD2
 70
     0
  9
$DIMTOLJ
 70
     1
  9
$DIMTZIN
 70
     0
  9
$DIMALTZ
 70
     0
  9
$DIMALTTZ
 70
     0
  9
$DIMUPT
 70
     0
  9
$DIMDEC
 70
     4
  9
$DIMTDEC
 70
     4
  9
$DIMALTU
 70
     2
  9
$DIMALTTD
 70
     2
  9
$DIMTXSTY
  7
Standard
  9
$DIMAUNIT
 70
     0
  9
$DIMADEC
 70
     0
  9
$DIMALTRND
 40
0.0
  9
$DIMAZIN
 70
     0
  9
$DIMDSEP
 70
    46
  9
$DIMATFIT
 70
     3
  9
$DIMFRAC
 70
     0
  9
$DIMLDRBLK
  1

  9
$DIMLUNIT
 70
     2
  9
$DIMLWD
 70
    -2
  9
$DIMLWE
 70
    -2
  9
$DIMTMOVE
 70
     0
  9
$LUNITS
 70
     2
  9
$LUPREC
 70
     4
  9
$SKETCHINC
 40
0.1
  9
$FILLETRAD
 40
0.0
  9
$AUNITS
 70
     0
  9
$AUPREC
 70
     0
  9
$MENU
  1
.
  9
$ELEVATION
 40
0.0
  9
$PELEVATION
 40
0.0
  9
$THICKNESS
 40
0.0
  9
$LIMCHECK
 70
     0
  9
$CHAMFERA
 40
0.0
  9
$CHAMFERB
 40
0.0
  9
$CHAMFERC
 40
0.0
  9
$CHAMFERD
 40
0.0
  9
$SKPOLY
 70
     0
  9
$TDCREATE
 40
2455511.364075093
  9
$TDUCREATE
 40
2455511.322408426
  9
$TDUPDATE
 40
2455511.364222246
  9
$TDUUPDATE
 40
2455511.322555579
  9
$TDINDWG
 40
0.0001473264
  9
$TDUSRTIMER
 40
0.0001473264
  9
$USRTIMER
 70
     1
  9
$ANGBASE
 50
0.0
  9
$ANGDIR
 70
     0
  9
$PDMODE
 70
     0
  9
$PDSIZE
 40
0.0
  9
$PLINEWID
 40
0.0
  9
$SPLFRAME
 70
     0
  9
$SPLINETYPE
 70
     6
  9
$SPLINESEGS
 70
     8
  9
$HANDSEED
  5
322
  9
$SURFTAB1
 70
     6
  9
$SURFTAB2
 70
     6
  9
$SURFTYPE
 70
     6
  9
$SURFU
 70
     6
  9
$SURFV
 70
     6
  9
$UCSBASE
  2

  9
$UCSNAME
  2

  9
$UCSORG
 10
0.0
 20
0.0
 30
0.0
  9
$UCSXDIR
 10
1.0
 20
0.0
 30
0.0
  9
$UCSYDIR
 10
0.0
 20
1.0
 30
0.0
  9
$UCSORTHOREF
  2

  9
$UCSORTHOVIEW
 70
     0
  9
$UCSORGTOP
 10
0.0
 20
0.0
 30
0.0
  9
$UCSORGBOTTOM
 10
0.0
 20
0.0
 30
0.0
  9
$UCSORGLEFT
 10
0.0
 20
0.0
 30
0.0
  9
$UCSORGRIGHT
 10
0.0
 20
0.0
 30
0.0
  9
$UCSORGFRONT
 10
0.0
 20
0.0
 30
0.0
  9
$UCSORGBACK
 10
0.0
 20
0.0
 30
0.0
  9
$PUCSBASE
  2

  9
$PUCSNAME
  2

  9
$PUCSORG
 10
0.0
 20
0.0
 30
0.0
  9
$PUCSXDIR
 10
1.0
 20
0.0
 30
0.0
  9
$PUCSYDIR
 10
0.0
 20
1.0
 30
0.0
  9
$PUCSORTHOREF
  2

  9
$PUCSORTHOVIEW
 70
     0
  9
$PUCSORGTOP
 10
0.0
 20
0.0
 30
0.0
  9
$PUCSORGBOTTOM
 10
0.0
 20
0.0
 30
0.0
  9
$PUCSORGLEFT
 10
0.0
 20
0.0
 30
0.0
  9
$PUCSORGRIGHT
 10
0.0
 20
0.0
 30
0.0
  9
$PUCSORGFRONT
 10
0.0
 20
0.0
 30
0.0
  9
$PUCSORGBACK
 10
0.0
 20
0.0
 30
0.0
  9
$USERI1
 70
     0
  9
$USERI2
 70
     0
  9
$USERI3
 70
     0
  9
$USERI4
 70
     0
  9
$USERI5
 70
     0
  9
$USERR1
 40
0.0
  9
$USERR2
 40
0.0
  9
$USERR3
 40
0.0
  9
$USERR4
 40
0.0
  9
$USERR5
 40
0.0
  9
$WORLDVIEW
 70
     1
  9
$SHADEDGE
 70
     3
  9
$SHADEDIF
 70
    70
  9
$TILEMODE
 70
     1
  9
$MAXACTVP
 70
    64
  9
$PINSBASE
 10
0.0
 20
0.0
 30
0.0
  9
$PLIMCHECK
 70
     0
  9
$PEXTMIN
 10
0.0
 20
0.0
 30
0.0
  9
$PEXTMAX
 10
0.0
 20
0.0
 30
0.0
  9
$PLIMMIN
 10
0.0
 20
0.0
  9
$PLIMMAX
 10
12.0
 20
9.0
  9
$UNITMODE
 70
     0
  9
$VISRETAIN
 70
     1
  9
$PLINEGEN
 70
     0
  9
$PSLTSCALE
 70
     1
  9
$TREEDEPTH
 70
  3020
  9
$CMLSTYLE
  2
Standard
  9
$CMLJUST
 70
     0
  9
$CMLSCALE
 40
1.0
  9
$PROXYGRAPHICS
 70
     1
  9
$MEASUREMENT
 70
     0
  9
$CELWEIGHT
370
    -1
  9
$ENDCAPS
280
     0
  9
$JOINSTYLE
280
     0
  9
$LWDISPLAY
290
     0
  9
$INSUNITS
 70
     1
  9
$HYPERLINKBASE
  1

  9
$STYLESHEET
  1

  9
$XEDIT
290
     1
  9
$CEPSNTYPE
380
     0
  9
$PSTYLEMODE
290
     1
  9
$FINGERPRINTGUID
  2
{32F9A9D2-EEB5-40C9-9B2D-4FD8952A22C5}
  9
$VERSIONGUID
  2
{83FB1F65-39D1-49FB-96A3-256D1EB38F47}
  9
$EXTNAMES
290
     1
  9
$PSVPSCALE
 40
0.0
  9
$OLESTARTUP
290
     0
  0
ENDSEC
  0
SECTION
  2
CLASSES
  0
CLASS
  1
ACDBDICTIONARYWDFLT
  2
AcDbDictionaryWithDefault
  3
ObjectDBX Classes
 90
        0
280
     0
281
     0
  0
CLASS
  1
ACDBPLACEHOLDER
  2
AcDbPlaceHolder
  3
ObjectDBX Classes
 90
        0
280
     0
281
     0
  0
CLASS
  1
LAYOUT
  2
AcDbLayout
  3
ObjectDBX Classes
 90
        0
280
     0
281
     0
  0
CLASS
  1
DICTIONARYVAR
  2
AcDbDictionaryVar
  3
ObjectDBX Classes
 90
        0
280
     0
281
     0
  0
CLASS
  1
TABLESTYLE
  2
AcDbTableStyle
  3
ObjectDBX Classes
 90
     4095
280
     0
281
     0
  0
CLASS
  1
MATERIAL
  2
AcDbMaterial
  3
ObjectDBX Classes
 90
     1153
280
     0
281
     0
  0
CLASS
  1
VISUALSTYLE
  2
AcDbVisualStyle
  3
ObjectDBX Classes
 90
     4095
280
     0
281
     0
  0
CLASS
  1
SCALE
  2
AcDbScale
  3
ObjectDBX Classes
 90
     1153
280
     0
281
     0
  0
CLASS
  1
MLEADERSTYLE
  2
AcDbMLeaderStyle
  3
ACDB_MLEADERSTYLE_CLASS
 90
     4095
280
     0
281
     0
  0
CLASS
  1
CELLSTYLEMAP
  2
AcDbCellStyleMap
  3
ObjectDBX Classes
 90
     1152
280
     0
281
     0
  0
ENDSEC
  0
SECTION
  2
TABLES
  0
TABLE
  2
VPORT
  5
8
330
0
100
AcDbSymbolTable
 70
     1
  0
VPORT
  5
94
330
8
100
AcDbSymbolTableRecord
100
AcDbViewportTableRecord
  2
*Active
 70
     0
 10
0.0
 20
0.0
 11
1.0
 21
1.0
 12
129.8634911973322
 22
211.7211296578357
 13
0.0
 23
0.0
 14
0.5
 24
0.5
 15
0.5
 25
0.5
 16
0.0
 26
0.0
 36
1.0
 17
0.0
 27
0.0
 37
0.0
 40
581.9828823236441
 41
1.148760330578512
 42
50.0
 43
0.0
 44
0.0
 50
0.0
 51
0.0
 71
     0
 72
  1000
 73
     1
 74
     3
 75
     0
 76
     0
 77
     0
 78
     0
281
     0
 65
     1
110
0.0
120
0.0
130
0.0
111
1.0
121
0.0
131
0.0
112
0.0
122
1.0
132
0.0
 79
     0
146
0.0
  0
ENDTAB
  0
TABLE
  2
LTYPE
  5
5
330
0
100
AcDbSymbolTable
 70
     1
  0
LTYPE
  5
14
330
5
100
AcDbSymbolTableRecord
100
AcDbLinetypeTableRecord
  2
ByBlock
 70
     0
  3

 72
    65
 73
     0
 40
0.0
  0
LTYPE
  5
15
330
5
100
AcDbSymbolTableRecord
100
AcDbLinetypeTableRecord
  2
ByLayer
 70
     0
  3

 72
    65
 73
     0
 40
0.0
  0
LTYPE
  5
16
330
5
100
AcDbSymbolTableRecord
100
AcDbLinetypeTableRecord
  2
Continuous
 70
     0
  3
Solid line
 72
    65
 73
     0
 40
0.0
  0
ENDTAB
  0
TABLE
  2
LAYER
  5
2
330
0
100
AcDbSymbolTable
 70
     4
  0
LAYER
  5
10
102
{ACAD_XDICTIONARY
360
E6
102
}
330
2
100
AcDbSymbolTableRecord
100
AcDbLayerTableRecord
  2
0
 70
     0
 62
     7
  6
Continuous
370
    -3
390
F
  0
LAYER
  5
174
102
{ACAD_XDICTIONARY
360
30C
102
}
330
2
100
AcDbSymbolTableRecord
100
AcDbLayerTableRecord
  2
Q
 70
     1
 62
     7
  6
Continuous
370
    -3
390
F
1001
AcAecLayerStandard
1000

1000

  0
LAYER
  5
175
102
{ACAD_XDICTIONARY
360
30E
102
}
330
2
100
AcDbSymbolTableRecord
100
AcDbLayerTableRecord
  2
QUOTE
 70
     0
 62
     7
  6
Continuous
370
    -3
390
F
1001
AcAecLayerStandard
1000

1000

  0
LAYER
  5
2D9
330
2
100
AcDbSymbolTableRecord
100
AcDbLayerTableRecord
  2
Defpoints
 70
     0
 62
     7
  6
Continuous
290
     0
370
    -3
390
F
  0
ENDTAB
  0
TABLE
  2
STYLE
  5
3
330
0
100
AcDbSymbolTable
 70
     2
  0
STYLE
  5
11
330
3
100
AcDbSymbolTableRecord
100
AcDbTextStyleTableRecord
  2
Standard
 70
     0
 40
0.0
 41
1.0
 50
0.0
 71
     0
 42
0.2
  3
txt.shx
  4

  0
STYLE
  5
DC
330
3
100
AcDbSymbolTableRecord
100
AcDbTextStyleTableRecord
  2
Annotativa
 70
     0
 40
0.0
 41
1.0
 50
0.0
 71
     0
 42
0.2
  3
txt.shx
  4

1001
AcadAnnotative
1000
AnnotativeData
1002
{
1070
     1
1070
     1
1002
}
  0
ENDTAB
  0
TABLE
  2
VIEW
  5
6
330
0
100
AcDbSymbolTable
 70
     1
  0
ENDTAB
  0
TABLE
  2
UCS
  5
7
330
0
100
AcDbSymbolTable
 70
     0
  0
ENDTAB
  0
TABLE
  2
APPID
  5
9
330
0
100
AcDbSymbolTable
 70
    14
  0
APPID
  5
12
330
9
100
AcDbSymbolTableRecord
100
AcDbRegAppTableRecord
  2
ACAD
 70
     0
  0
APPID
  5
DD
330
9
100
AcDbSymbolTableRecord
100
AcDbRegAppTableRecord
  2
AcadAnnoPO
 70
     0
  0
APPID
  5
DE
330
9
100
AcDbSymbolTableRecord
100
AcDbRegAppTableRecord
  2
AcadAnnotative
 70
     0
  0
APPID
  5
DF
330
9
100
AcDbSymbolTableRecord
100
AcDbRegAppTableRecord
  2
ACAD_DSTYLE_DIMJAG
 70
     0
  0
APPID
  5
E0
330
9
100
AcDbSymbolTableRecord
100
AcDbRegAppTableRecord
  2
ACAD_DSTYLE_DIMTALN
 70
     0
  0
APPID
  5
107
330
9
100
AcDbSymbolTableRecord
100
AcDbRegAppTableRecord
  2
ACAD_MLEADERVER
 70
     0
  0
APPID
  5
176
330
9
100
AcDbSymbolTableRecord
100
AcDbRegAppTableRecord
  2
VDEXTRAPARAM
 70
     0
  0
APPID
  5
177
330
9
100
AcDbSymbolTableRecord
100
AcDbRegAppTableRecord
  2
VD_TEMPHATCH
 70
     0
  0
APPID
  5
178
330
9
100
AcDbSymbolTableRecord
100
AcDbRegAppTableRecord
  2
AcAecLayerStandard
 70
     0
  0
APPID
  5
179
330
9
100
AcDbSymbolTableRecord
100
AcDbRegAppTableRecord
  2
VD_EX_PRINTER_DWG_STYLE_SHEET
 70
     0
  0
APPID
  5
17A
330
9
100
AcDbSymbolTableRecord
100
AcDbRegAppTableRecord
  2
VD_EX_PRINTER_SIZEX
 70
     0
  0
APPID
  5
17B
330
9
100
AcDbSymbolTableRecord
100
AcDbRegAppTableRecord
  2
VD_EX_PRINTER_AVSIZEX
 70
     0
  0
APPID
  5
17C
330
9
100
AcDbSymbolTableRecord
100
AcDbRegAppTableRecord
  2
VD_EX_PRINTER_SIZEY
 70
     0
  0
APPID
  5
17D
330
9
100
AcDbSymbolTableRecord
100
AcDbRegAppTableRecord
  2
VD_EX_PRINTER_AVSIZEY
 70
     0
  0
ENDTAB
  0
TABLE
  2
DIMSTYLE
  5
A
330
0
100
AcDbSymbolTable
 70
     2
100
AcDbDimStyleTable
 71
     2
340
27
340
E1
  0
DIMSTYLE
105
27
102
{ACAD_REACTORS
330
2C2
330
2C3
102
}
330
A
100
AcDbSymbolTableRecord
100
AcDbDimStyleTableRecord
  2
Standard
 70
     0
340
11
  0
DIMSTYLE
105
E1
330
A
100
AcDbSymbolTableRecord
100
AcDbDimStyleTableRecord
  2
Annotativa
 70
     0
 40
0.0
340
11
1001
AcadAnnotative
1000
AnnotativeData
1002
{
1070
     1
1070
     1
1002
}
1001
ACAD_DSTYLE_DIMJAG
1070
   388
1040
1.5
1001
ACAD_DSTYLE_DIMTALN
1070
   392
1070
     0
  0
ENDTAB
  0
TABLE
  2
BLOCK_RECORD
  5
1
330
0
100
AcDbSymbolTable
 70
     7
  0
BLOCK_RECORD
  5
1F
330
1
100
AcDbSymbolTableRecord
100
AcDbBlockTableRecord
  2
*Model_Space
340
22
  0
BLOCK_RECORD
  5
58
330
1
100
AcDbSymbolTableRecord
100
AcDbBlockTableRecord
  2
*Paper_Space
340
59
  0
BLOCK_RECORD
  5
5D
330
1
100
AcDbSymbolTableRecord
100
AcDbBlockTableRecord
  2
*Paper_Space0
340
5E
  0
BLOCK_RECORD
  5
14C
330
1
100
AcDbSymbolTableRecord
100
AcDbBlockTableRecord
  2
VDDIM_DEFAULT
340
0
  0
BLOCK_RECORD
  5
150
330
1
100
AcDbSymbolTableRecord
100
AcDbBlockTableRecord
  2
IEC_309_oriz
340
0
102
{BLKREFS
331
228
331
229
331
2D7
331
2D8
102
}
  0
BLOCK_RECORD
  5
168
330
1
100
AcDbSymbolTableRecord
100
AcDbBlockTableRecord
  2
*D3
340
0
  0
BLOCK_RECORD
  5
2DA
330
1
100
AcDbSymbolTableRecord
100
AcDbBlockTableRecord
  2
*D5
340
0
  0
BLOCK_RECORD
  5
2E7
330
1
100
AcDbSymbolTableRecord
100
AcDbBlockTableRecord
  2
*D6
340
0
  0
ENDTAB
  0
ENDSEC
  0
SECTION
  2
BLOCKS
  0
BLOCK
  5
20
330
1F
100
AcDbEntity
  8
0
100
AcDbBlockBegin
  2
*Model_Space
 70
     0
 10
0.0
 20
0.0
 30
0.0
  3
*Model_Space
  1

  0
ENDBLK
  5
21
330
1F
100
AcDbEntity
  8
0
100
AcDbBlockEnd
  0
BLOCK
  5
5A
330
58
100
AcDbEntity
 67
     1
  8
0
100
AcDbBlockBegin
  2
*Paper_Space
 70
     0
 10
0.0
 20
0.0
 30
0.0
  3
*Paper_Space
  1

  0
ENDBLK
  5
5B
330
58
100
AcDbEntity
 67
     1
  8
0
100
AcDbBlockEnd
  0
BLOCK
  5
5F
330
5D
100
AcDbEntity
 67
     1
  8
0
100
AcDbBlockBegin
  2
*Paper_Space0
 70
     0
 10
0.0
 20
0.0
 30
0.0
  3
*Paper_Space0
  1

  0
ENDBLK
  5
60
330
5D
100
AcDbEntity
 67
     1
  8
0
100
AcDbBlockEnd
  0
BLOCK
  5
14D
330
14C
100
AcDbEntity
  8
0
100
AcDbBlockBegin
  2
VDDIM_DEFAULT
 70
     0
 10
0.0
 20
0.0
 30
0.0
  3
VDDIM_DEFAULT
  1

  0
HATCH
  5
14E
330
14C
100
AcDbEntity
  8
0
  6
Continuous
 62
     0
370
    -2
100
AcDbHatch
 10
0.0
 20
0.0
 30
0.0
210
0.0
220
0.0
230
-1.0
  2
SOLID
 70
     1
 71
     0
 91
        1
 92
        2
 72
     0
 73
     1
 93
        3
 10
0.0
 20
0.0
 10
1.0
 20
-0.1665
 10
1.0
 20
0.1665
 97
        0
 75
     0
 76
     1
 98
        1
 10
0.0
 20
0.0
  0
ENDBLK
  5
14F
330
14C
100
AcDbEntity
  8
0
100
AcDbBlockEnd
  0
BLOCK
  5
151
330
150
100
AcDbEntity
  8
0
100
AcDbBlockBegin
  2
IEC_309_oriz
 70
     0
 10
0.0
 20
0.0
 30
0.0
  3
IEC_309_oriz
  1

  0
ARC
  5
152
330
150
100
AcDbEntity
  8
0
100
AcDbCircle
 10
129.96716842
 20
25.60041199
 30
0.0
 40
7.123136749999999
100
AcDbArc
 50
270.0
 51
0.0
  0
ARC
  5
153
330
150
100
AcDbEntity
  8
0
100
AcDbCircle
 10
129.98116437
 20
86.36609867
 30
0.0
 40
7.123136749999999
100
AcDbArc
 50
0.0
 51
90.0
  0
LINE
  5
154
330
150
100
AcDbEntity
  8
0
100
AcDbLine
 10
137.09030517
 20
25.60041199
 30
0.0
 11
137.10430111
 21
56.7311995
 31
0.0
  0
LINE
  5
155
330
150
100
AcDbEntity
  8
0
100
AcDbLine
 10
137.10430111
 20
86.36609867
 30
0.0
 11
137.10430111
 21
56.7311995
 31
0.0
  0
ARC
  5
156
330
150
100
AcDbEntity
  8
0
100
AcDbCircle
 10
59.33810126
 20
25.60041199
 30
0.0
 40
7.123136749999999
100
AcDbArc
 50
180.0
 51
270.0
  0
LINE
  5
157
330
150
100
AcDbEntity
  8
0
100
AcDbLine
 10
59.35209720999999
 20
93.48923541000001
 30
0.0
 11
129.98116437
 21
93.48923541000001
 31
0.0
  0
CIRCLE
  5
158
330
150
100
AcDbEntity
  8
0
100
AcDbCircle
 10
129.98116437
 20
86.36609867
 30
0.0
 40
2.58835439
  0
CIRCLE
  5
159
330
150
100
AcDbEntity
  8
0
100
AcDbCircle
 10
129.96716842
 20
25.60041199
 30
0.0
 40
2.58835439
  0
CIRCLE
  5
15A
330
150
100
AcDbEntity
  8
0
100
AcDbCircle
 10
59.35209720999999
 20
86.36609867
 30
0.0
 40
2.58835439
  0
ARC
  5
15B
330
150
100
AcDbEntity
  8
0
100
AcDbCircle
 10
59.35209720999999
 20
86.36609867
 30
0.0
 40
7.123136749999999
100
AcDbArc
 50
90.0
 51
180.0
  0
LINE
  5
15C
330
150
100
AcDbEntity
  8
0
100
AcDbLine
 10
52.22896046
 20
56.7311995
 30
0.0
 11
52.21496451
 21
25.60041199
 31
0.0
  0
CIRCLE
  5
15D
330
150
100
AcDbEntity
  8
0
100
AcDbCircle
 10
59.33810126
 20
25.60041199
 30
0.0
 40
2.58835439
  0
LINE
  5
15E
330
150
100
AcDbEntity
  8
0
100
AcDbLine
 10
52.22896046
 20
56.7311995
 30
0.0
 11
52.22896046
 21
86.36609867
 31
0.0
  0
LINE
  5
15F
330
150
100
AcDbEntity
  8
0
100
AcDbLine
 10
59.33810126
 20
18.47727524
 30
0.0
 11
129.96716842
 21
18.47727524
 31
0.0
  0
LINE
  5
160
330
150
100
AcDbEntity
  8
Q
 62
     1
100
AcDbLine
 10
137.09030517
 20
13.47505278
 30
0.0
 11
137.09030517
 21
98.49145787000001
 31
0.0
  0
LINE
  5
161
330
150
100
AcDbEntity
  8
Q
 62
     1
100
AcDbLine
 10
137.09030517
 20
98.49145787000001
 30
0.0
 11
41.83978567999999
 21
98.49145787000001
 31
0.0
  0
LINE
  5
162
330
150
100
AcDbEntity
  8
Q
 62
     1
100
AcDbLine
 10
92.68110413
 20
13.47505278
 30
0.0
 11
43.62664586
 21
13.47505278
 31
0.0
  0
LINE
  5
163
330
150
100
AcDbEntity
  8
Q
 62
     1
100
AcDbLine
 10
43.62664586
 20
13.47505278
 30
0.0
 11
137.09030517
 21
13.47505278
 31
0.0
  0
LINE
  5
164
330
150
100
AcDbEntity
  8
Q
 62
     1
100
AcDbLine
 10
41.83978567999999
 20
56.7311995
 30
0.0
 11
41.83978567999999
 21
98.49145787000001
 31
0.0
  0
LINE
  5
165
330
150
100
AcDbEntity
  8
Q
 62
     1
100
AcDbLine
 10
41.83978567999999
 20
56.7311995
 30
0.0
 11
41.83978567999999
 21
13.47505278
 31
0.0
  0
LINE
  5
166
330
150
100
AcDbEntity
  8
Q
 62
     1
100
AcDbLine
 10
41.83978567999999
 20
13.47505278
 30
0.0
 11
43.62664586
 21
13.47505278
 31
0.0
  0
ENDBLK
  5
167
330
150
100
AcDbEntity
  8
0
100
AcDbBlockEnd
  0
BLOCK
  5
169
330
168
100
AcDbEntity
  8
0
100
AcDbBlockBegin
  2
*D3
 70
     0
 10
0.0
 20
0.0
 30
0.0
  3
*D3
  1

  0
LINE
  5
16A
330
168
100
AcDbEntity
  8
QUOTE
 62
     7
100
AcDbLine
 10
130.32970973
 20
17.47816794
 30
0.0
 11
130.32970973
 21
-11.50703446
 31
0.0
  0
LINE
  5
16B
330
168
100
AcDbEntity
  8
QUOTE
 62
     7
100
AcDbLine
 10
25.32970973
 20
17.54303827
 30
0.0
 11
25.32970973
 21
-11.50703446
 31
0.0
  0
LINE
  5
16C
330
168
100
AcDbEntity
  8
QUOTE
 62
     7
100
AcDbLine
 10
115.32970973
 20
-11.32703446
 30
0.0
 11
88.02144938000001
 21
-11.32703446
 31
0.0
  0
LINE
  5
16D
330
168
100
AcDbEntity
  8
QUOTE
 62
     7
100
AcDbLine
 10
40.32970973
 20
-11.32703446
 30
0.0
 11
66.17478271
 21
-11.32703446
 31
0.0
  0
LWPOLYLINE
  5
16E
102
{ACAD_REACTORS
330
16F
102
}
330
168
100
AcDbEntity
  8
QUOTE
 62
     7
100
AcDbPolyline
 90
        3
 70
     1
 43
0.0
 10
115.32970973
 20
-8.82703446
 10
115.32970973
 20
-13.82703446
 10
130.32970973
 20
-11.32703446
  0
HATCH
  5
16F
330
168
100
AcDbEntity
  8
QUOTE
 62
     7
100
AcDbHatch
 10
0.0
 20
0.0
 30
0.0
210
0.0
220
0.0
230
1.0
  2
SOLID
 70
     1
 71
     1
 91
        1
 92
        2
 72
     0
 73
     1
 93
        3
 10
115.32970973
 20
-8.82703446
 10
115.32970973
 20
-13.82703446
 10
130.32970973
 20
-11.32703446
 97
        1
330
16E
 75
     0
 76
     1
 98
        1
 10
0.0
 20
0.0
1001
VD_TEMPHATCH
1000
VD_TEMPHATCH
  0
LWPOLYLINE
  5
170
102
{ACAD_REACTORS
330
171
102
}
330
168
100
AcDbEntity
  8
QUOTE
 62
     7
100
AcDbPolyline
 90
        3
 70
     1
 43
0.0
 10
40.32970973
 20
-8.82703446
 10
40.32970973
 20
-13.82703446
 10
25.32970973
 20
-11.32703446
  0
HATCH
  5
171
330
168
100
AcDbEntity
  8
QUOTE
 62
     7
100
AcDbHatch
 10
0.0
 20
0.0
 30
0.0
210
0.0
220
0.0
230
1.0
  2
SOLID
 70
     1
 71
     1
 91
        1
 92
        2
 72
     0
 73
     1
 93
        3
 10
40.32970973
 20
-8.82703446
 10
40.32970973
 20
-13.82703446
 10
25.32970973
 20
-11.32703446
 97
        1
330
170
 75
     0
 76
     1
 98
        1
 10
0.0
 20
0.0
1001
VD_TEMPHATCH
1000
VD_TEMPHATCH
  0
MTEXT
  5
172
330
168
100
AcDbEntity
  8
QUOTE
 62
     7
100
AcDbMText
 10
77.09811603999999
 20
-11.32703446
 30
0.0
 40
10.0
 41
21.48123324
 71
     5
 72
     1
  1
\A1;105
 73
     1
 44
1.0
1001
ACAD
1000
MTEXTBEGIN
1070
    73
1070
     1
1070
    44
1040
1.0
1070
    74
1070
     0
1000
MTEXTEND
  0
ENDBLK
  5
173
330
168
100
AcDbEntity
  8
0
100
AcDbBlockEnd
  0
BLOCK
  5
2DB
330
2DA
100
AcDbEntity
  8
0
100
AcDbBlockBegin
  2
*D5
 70
     1
 10
0.0
 20
0.0
 30
0.0
  3
*D5
  1

  0
LINE
  5
2F4
330
2DA
100
AcDbEntity
  8
QUOTE
 62
     0
370
    -2
100
AcDbLine
 10
76.91120433653985
 20
371.7957436258846
 30
0.0
 11
36.20963701653993
 21
371.7957436258846
 31
0.0
  0
LINE
  5
2F5
330
2DA
100
AcDbEntity
  8
QUOTE
 62
     0
370
    -2
100
AcDbLine
 10
69.43990676653985
 20
34.79574362588458
 30
0.0
 11
36.20963701653985
 21
34.79574362588459
 31
0.0
  0
LINE
  5
2F6
330
2DA
100
AcDbEntity
  8
QUOTE
 62
     0
370
    -2
100
AcDbLine
 10
36.38963701653992
 20
356.7957436258846
 30
0.0
 11
36.38963701653989
 21
208.9190661758846
 31
0.0
  0
LINE
  5
2F7
330
2DA
100
AcDbEntity
  8
QUOTE
 62
     0
370
    -2
100
AcDbLine
 10
36.38963701653986
 20
49.79574362588459
 30
0.0
 11
36.38963701653989
 21
198.7390661758846
 31
0.0
  0
SOLID
  5
2F8
330
2DA
100
AcDbEntity
  8
QUOTE
 62
     0
100
AcDbTrace
 10
33.88963701653992
 20
356.7957436258846
 30
0.0
 11
38.88963701653992
 21
356.7957436258846
 31
0.0
 12
36.38963701653993
 22
371.7957436258846
 32
0.0
 13
36.38963701653993
 23
371.7957436258846
 33
0.0
  0
SOLID
  5
2F9
330
2DA
100
AcDbEntity
  8
QUOTE
 62
     0
100
AcDbTrace
 10
33.88963701653986
 20
49.79574362588459
 30
0.0
 11
38.88963701653986
 21
49.79574362588459
 31
0.0
 12
36.38963701653985
 22
34.79574362588459
 32
0.0
 13
36.38963701653985
 23
34.79574362588459
 33
0.0
  0
MTEXT
  5
2FA
330
2DA
100
AcDbEntity
  8
QUOTE
 62
     0
100
AcDbMText
 10
36.38963701653986
 20
203.8290661758846
 30
0.0
 40
10.0
 41
0.0
 71
     5
 72
     1
  1
\A1;337
 73
     1
 44
1.0
1001
ACAD
1000
MTEXTBEGIN
1070
    73
1070
     1
1070
    44
1040
1.0
1070
    74
1070
     0
1000
MTEXTEND
  0
POINT
  5
2FB
330
2DA
100
AcDbEntity
  8
Defpoints
 62
     0
100
AcDbPoint
 10
76.97370433653985
 20
371.7957436258846
 30
0.0
  0
POINT
  5
2FC
330
2DA
100
AcDbEntity
  8
Defpoints
 62
     0
100
AcDbPoint
 10
69.50240676653985
 20
34.79574362588458
 30
0.0
  0
POINT
  5
2FD
330
2DA
100
AcDbEntity
  8
Defpoints
 62
     0
100
AcDbPoint
 10
36.38963701653985
 20
34.79574362588459
 30
0.0
  0
ENDBLK
  5
2DC
330
2DA
100
AcDbEntity
  8
0
100
AcDbBlockEnd
  0
BLOCK
  5
2E8
330
2E7
100
AcDbEntity
  8
0
100
AcDbBlockBegin
  2
*D6
 70
     1
 10
0.0
 20
0.0
 30
0.0
  3
*D6
  1

  0
LINE
  5
2FE
330
2E7
100
AcDbEntity
  8
QUOTE
 62
     0
370
    -2
100
AcDbLine
 10
164.5024067665398
 20
44.73087171588458
 30
0.0
 11
164.5024067665398
 21
15.74566931588458
 31
0.0
  0
LINE
  5
2FF
330
2E7
100
AcDbEntity
  8
QUOTE
 62
     0
370
    -2
100
AcDbLine
 10
59.50240676653987
 20
44.79574204588458
 30
0.0
 11
59.50240676653987
 21
15.74566931588458
 31
0.0
  0
LINE
  5
300
330
2E7
100
AcDbEntity
  8
QUOTE
 62
     0
370
    -2
100
AcDbLine
 10
149.5024067665398
 20
15.92566931588458
 30
0.0
 11
122.1941464098732
 21
15.92566931588458
 31
0.0
  0
LINE
  5
301
330
2E7
100
AcDbEntity
  8
QUOTE
 62
     0
370
    -2
100
AcDbLine
 10
74.50240676653987
 20
15.92566931588458
 30
0.0
 11
100.3474797432065
 21
15.92566931588458
 31
0.0
  0
SOLID
  5
302
330
2E7
100
AcDbEntity
  8
QUOTE
 62
     0
100
AcDbTrace
 10
149.5024067665398
 20
18.42566931588458
 30
0.0
 11
149.5024067665398
 21
13.42566931588458
 31
0.0
 12
164.5024067665398
 22
15.92566931588458
 32
0.0
 13
164.5024067665398
 23
15.92566931588458
 33
0.0
  0
SOLID
  5
303
330
2E7
100
AcDbEntity
  8
QUOTE
 62
     0
100
AcDbTrace
 10
74.50240676653987
 20
18.42566931588458
 30
0.0
 11
74.50240676653987
 21
13.42566931588458
 31
0.0
 12
59.50240676653987
 22
15.92566931588458
 32
0.0
 13
59.50240676653987
 23
15.92566931588458
 33
0.0
  0
MTEXT
  5
304
330
2E7
100
AcDbEntity
  8
QUOTE
 62
     0
100
AcDbMText
 10
111.2708130765398
 20
15.92566931588458
 30
0.0
 40
10.0
 41
0.0
 71
     5
 72
     1
  1
\A1;105
 73
     1
 44
1.0
1001
ACAD
1000
MTEXTBEGIN
1070
    73
1070
     1
1070
    44
1040
1.0
1070
    74
1070
     0
1000
MTEXTEND
  0
POINT
  5
305
330
2E7
100
AcDbEntity
  8
Defpoints
 62
     0
100
AcDbPoint
 10
164.5024067665398
 20
44.79337171588458
 30
0.0
  0
POINT
  5
306
330
2E7
100
AcDbEntity
  8
Defpoints
 62
     0
100
AcDbPoint
 10
59.50240676653987
 20
44.85824204588458
 30
0.0
  0
POINT
  5
307
330
2E7
100
AcDbEntity
  8
Defpoints
 62
     0
100
AcDbPoint
 10
59.50240676653987
 20
15.92566931588458
 30
0.0
  0
ENDBLK
  5
2E9
330
2E7
100
AcDbEntity
  8
0
100
AcDbBlockEnd
  0
ENDSEC
  0
SECTION
  2
ENTITIES
  0
LINE
  5
22E
330
1F
100
AcDbEntity
  8
0
 62
   253
 48
0.030625
370
    35
100
AcDbLine
 10
160.9730797665398
 20
243.2957436258846
 30
0.0
 11
162.1980857665398
 21
243.2957436258846
 31
0.0
  0
LINE
  5
22F
330
1F
100
AcDbEntity
  8
0
 62
   253
 48
0.067392
370
    35
100
AcDbLine
 10
159.5024067665398
 20
241.9872116258846
 30
0.0
 11
162.1980857665398
 21
241.9872116258846
 31
0.0
  0
LINE
  5
230
330
1F
100
AcDbEntity
  8
0
 62
   253
 48
0.273235
370
    35
100
AcDbLine
 10
106.5377157665398
 20
243.2957436258846
 30
0.0
 11
117.4670977665398
 21
243.2957436258846
 31
0.0
  0
LINE
  5
231
330
1F
100
AcDbEntity
  8
0
 62
   253
 48
0.030625
370
    35
100
AcDbLine
 10
63.03173376653986
 20
243.2957436258846
 30
0.0
 11
61.80672776653985
 21
243.2957436258846
 31
0.0
  0
LINE
  5
232
330
1F
100
AcDbEntity
  8
0
 62
   253
 48
0.067392
370
    35
100
AcDbLine
 10
64.50240676653987
 20
241.9872116258846
 30
0.0
 11
61.80672776653985
 21
241.9877296258846
 31
0.0
  0
LINE
  5
233
330
1F
100
AcDbEntity
  8
0
 62
   253
370
    35
100
AcDbLine
 10
84.64989776653984
 20
241.9934066258846
 30
0.0
 11
139.3549157665399
 21
241.9934066258846
 31
0.0
  0
LINE
  5
234
330
1F
100
AcDbEntity
  8
0
 62
     7
 48
0.024905
370
    35
100
AcDbLine
 10
63.85079576653986
 20
227.5859046258846
 30
0.0
 11
63.85079576653986
 21
228.5820906258846
 31
0.0
  0
LINE
  5
235
330
1F
100
AcDbEntity
  8
0
 62
     7
 48
0.024905
370
    35
100
AcDbLine
 10
160.1540177665398
 20
227.5859046258846
 30
0.0
 11
160.1540177665398
 21
228.5820906258846
 31
0.0
  0
LINE
  5
236
330
1F
100
AcDbEntity
  8
0
 62
   253
370
    35
100
AcDbLine
 10
61.80672776653985
 20
232.3580306258846
 30
0.0
 11
61.80672776653985
 21
337.5494666258846
 31
0.0
  0
LINE
  5
237
330
1F
100
AcDbEntity
  8
0
 62
   253
370
    35
100
AcDbLine
 10
162.1980857665398
 20
337.5494666258846
 30
0.0
 11
162.1980857665398
 21
232.3580306258846
 31
0.0
  0
ARC
  5
238
330
1F
100
AcDbEntity
  8
0
 62
   253
370
    35
100
AcDbCircle
 10
161.1981767665398
 20
337.5495276258846
 30
0.0
 40
0.999887
100
AcDbArc
 50
359.995857
 51
90.00415500000004
  0
LINE
  5
239
330
1F
100
AcDbEntity
  8
0
 62
   253
370
    35
100
AcDbLine
 10
62.80669776653986
 20
338.5494056258846
 30
0.0
 11
161.1981157665399
 21
338.5494056258846
 31
0.0
  0
ARC
  5
23A
330
1F
100
AcDbEntity
  8
0
 62
   253
370
    35
100
AcDbCircle
 10
62.80663676653986
 20
337.5495276258846
 30
0.0
 40
0.999887
100
AcDbArc
 50
89.995843
 51
180.004175
  0
ARC
  5
23B
330
1F
100
AcDbEntity
  8
0
 62
   253
370
    35
100
AcDbCircle
 10
62.80672776653986
 20
232.3579996258846
 30
0.0
 40
0.9999919999999999
100
AcDbArc
 50
179.997478
 51
201.830086
  0
ARC
  5
23C
330
1F
100
AcDbEntity
  8
0
 62
   253
370
    35
100
AcDbCircle
 10
62.80639276653985
 20
232.3601966258846
 30
0.0
 40
1.000693
100
AcDbArc
 50
201.9554600000001
 51
270.090812
  0
LINE
  5
23D
330
1F
100
AcDbEntity
  8
0
 62
   253
 48
0.000507
370
    13
100
AcDbLine
 10
62.80797976653985
 20
231.3593426258846
 30
0.0
 11
62.82824276653986
 21
231.3593426258846
 31
0.0
  0
LINE
  5
23E
330
1F
100
AcDbEntity
  8
0
 62
   253
370
    35
100
AcDbLine
 10
161.1765707665398
 20
231.3593426258846
 30
0.0
 11
62.82824276653986
 21
231.3593426258846
 31
0.0
  0
LINE
  5
23F
330
1F
100
AcDbEntity
  8
0
 62
   253
 48
0.000507
370
    13
100
AcDbLine
 10
161.1765707665398
 20
231.3593426258846
 30
0.0
 11
161.1968337665398
 21
231.3593426258846
 31
0.0
  0
ARC
  5
240
330
1F
100
AcDbEntity
  8
0
 62
   253
370
    35
100
AcDbCircle
 10
161.1984207665398
 20
232.3601966258846
 30
0.0
 40
1.000693
100
AcDbArc
 50
269.9091829999999
 51
338.044558
  0
ARC
  5
241
330
1F
100
AcDbEntity
  8
0
 62
   253
370
    35
100
AcDbCircle
 10
161.1980857665398
 20
232.3579996258846
 30
0.0
 40
0.9999919999999999
100
AcDbArc
 50
338.169933
 51
0.0025260000000685
  0
LINE
  5
242
330
1F
100
AcDbEntity
  8
0
 62
     7
 48
0.290076
370
    35
100
AcDbLine
 10
119.5024067665398
 20
352.3987716258846
 30
0.0
 11
119.5024067665398
 21
340.7957436258846
 31
0.0
  0
ARC
  5
243
330
1F
100
AcDbEntity
  8
0
 62
     7
370
    35
100
AcDbCircle
 10
121.0024067665398
 20
340.7957436258846
 30
0.0
 40
1.5
100
AcDbArc
 50
180.0
 51
270.0
  0
LINE
  5
244
330
1F
100
AcDbEntity
  8
0
 62
     7
370
    35
100
AcDbLine
 10
121.0024067665398
 20
339.2957436258846
 30
0.0
 11
145.0024067665399
 21
339.2957436258846
 31
0.0
  0
ARC
  5
245
330
1F
100
AcDbEntity
  8
0
 62
     7
370
    35
100
AcDbCircle
 10
145.0024067665399
 20
340.7957436258846
 30
0.0
 40
1.5
100
AcDbArc
 50
270.0
 51
0.0
  0
LINE
  5
246
330
1F
100
AcDbEntity
  8
0
 62
     7
 48
0.290076
370
    35
100
AcDbLine
 10
146.5024067665398
 20
352.3987716258846
 30
0.0
 11
146.5024067665398
 21
340.7957436258846
 31
0.0
  0
ARC
  5
247
330
1F
100
AcDbEntity
  8
0
 62
     7
370
    35
100
AcDbCircle
 10
160.7033647665398
 20
229.2287276258846
 30
0.0
 40
0.6534750000000001
100
AcDbArc
 50
266.9327509999999
 51
278.1068309999999
  0
ARC
  5
248
330
1F
100
AcDbEntity
  8
0
 62
     7
370
    35
100
AcDbCircle
 10
160.1578027665398
 20
206.3919966258846
 30
0.0
 40
22.190077
100
AcDbArc
 50
88.68150999999988
 51
90.00977699999998
  0
LINE
  5
249
330
1F
100
AcDbEntity
  8
0
 62
     7
370
    35
100
AcDbLine
 10
63.85079576653986
 20
228.5820906258846
 30
0.0
 11
160.1540177665398
 21
228.5820906258846
 31
0.0
  0
ARC
  5
24A
330
1F
100
AcDbEntity
  8
0
 62
     7
370
    35
100
AcDbCircle
 10
63.84701076653986
 20
206.3919966258846
 30
0.0
 40
22.190094
100
AcDbArc
 50
89.99022899999998
 51
91.31849500000013
  0
ARC
  5
24B
330
1F
100
AcDbEntity
  8
0
 62
     7
370
    35
100
AcDbCircle
 10
1563.115840766539
 20
352.8857706258845
 30
0.0
 40
1402.140503
100
AcDbArc
 50
179.6359149999999
 51
180.019912
  0
LINE
  5
24C
330
1F
100
AcDbEntity
  8
0
 62
     7
 48
0.226231
370
    35
100
AcDbLine
 10
160.9750627665398
 20
352.3987716258846
 30
0.0
 11
160.9750627665398
 21
343.3495156258846
 31
0.0
  0
ARC
  5
24D
330
1F
100
AcDbEntity
  8
0
 62
     7
370
    35
100
AcDbCircle
 10
63.30144876653986
 20
229.2287276258846
 30
0.0
 40
0.6534750000000001
100
AcDbArc
 50
261.8931089999999
 51
273.067244
  0
LINE
  5
24E
330
1F
100
AcDbEntity
  8
0
 62
     7
 48
0.226231
370
    35
100
AcDbLine
 10
63.02975076653986
 20
352.3987716258846
 30
0.0
 11
63.02975076653986
 21
343.3495156258846
 31
0.0
  0
ARC
  5
24F
330
1F
100
AcDbEntity
  8
0
 62
     7
370
    35
100
AcDbCircle
 10
-1339.11096623346
 20
352.8857706258845
 30
0.0
 40
1402.140503
100
AcDbArc
 50
359.9801209999999
 51
0.3640909999999148
  0
ARC
  5
250
330
1F
100
AcDbEntity
  8
0
 62
     7
370
    35
100
AcDbCircle
 10
161.9751237665398
 20
343.3495766258846
 30
0.0
 40
1.000044
100
AcDbArc
 50
180.0027409999999
 51
239.9972779999998
  0
ARC
  5
251
330
1F
100
AcDbEntity
  8
0
 62
     7
370
    13
100
AcDbCircle
 10
161.3277847665398
 20
339.1045816258846
 30
0.0
 40
2.99994
100
AcDbArc
 50
359.998043
 51
59.99978999999997
  0
LINE
  5
252
330
1F
100
AcDbEntity
  8
0
 62
     7
 48
0.004409
370
    35
100
AcDbLine
 10
162.8277547665399
 20
341.7026046258846
 30
0.0
 11
162.6750447665398
 21
341.7907996258846
 31
0.0
  0
LINE
  5
253
330
1F
100
AcDbEntity
  8
0
 62
     7
 48
0.034636
370
    35
100
AcDbLine
 10
161.4751847665398
 20
342.4834876258846
 30
0.0
 11
162.6750447665398
 21
341.7907996258846
 31
0.0
  0
ARC
  5
254
330
1F
100
AcDbEntity
  8
0
 62
     7
370
    13
100
AcDbCircle
 10
62.02968976653986
 20
343.3495766258846
 30
0.0
 40
1.000044
100
AcDbArc
 50
300.0027239999999
 51
359.9972779999999
  0
ARC
  5
255
330
1F
100
AcDbEntity
  8
0
 62
     7
370
    13
100
AcDbCircle
 10
62.67702876653986
 20
339.1045816258846
 30
0.0
 40
2.99994
100
AcDbArc
 50
120.0002079999999
 51
180.0019619999999
  0
LINE
  5
256
330
1F
100
AcDbEntity
  8
0
 62
     7
 48
0.034636
370
    35
100
AcDbLine
 10
62.52962876653985
 20
342.4834876258846
 30
0.0
 11
61.32976876653986
 21
341.7907996258846
 31
0.0
  0
LINE
  5
257
330
1F
100
AcDbEntity
  8
0
 62
     7
 48
0.004409
370
    35
100
AcDbLine
 10
61.17705876653985
 20
341.7026046258846
 30
0.0
 11
61.32976876653986
 21
341.7907996258846
 31
0.0
  0
ARC
  5
258
330
1F
100
AcDbEntity
  8
0
 62
     7
370
    35
100
AcDbCircle
 10
69.50240676653985
 20
223.2970566258846
 30
0.0
 40
4.362157999999999
100
AcDbArc
 50
79.48017899999995
 51
100.519826
  0
ARC
  5
259
330
1F
100
AcDbEntity
  8
0
 62
     7
370
    35
100
AcDbCircle
 10
154.5024067665398
 20
223.2970566258846
 30
0.0
 40
4.362157999999999
100
AcDbArc
 50
79.48017899999995
 51
100.519826
  0
LINE
  5
25A
330
1F
100
AcDbEntity
  8
0
 62
     7
370
    35
100
AcDbLine
 10
160.1540177665398
 20
48.06594662588459
 30
0.0
 11
160.1540177665398
 21
227.5859046258846
 31
0.0
  0
LINE
  5
25B
330
1F
100
AcDbEntity
  8
0
 62
     7
370
    35
100
AcDbLine
 10
63.85079576653986
 20
48.06594662588459
 30
0.0
 11
63.85079576653986
 21
227.5859046258846
 31
0.0
  0
ARC
  5
25C
330
1F
100
AcDbEntity
  8
0
 62
     7
370
    35
100
AcDbCircle
 10
154.5024067665398
 20
223.2957436258846
 30
0.0
 40
4.363449
100
AcDbArc
 50
100.516684
 51
79.48332099999993
  0
ARC
  5
25D
330
1F
100
AcDbEntity
  8
0
 62
     7
370
    35
100
AcDbCircle
 10
69.50240676653985
 20
223.2957436258846
 30
0.0
 40
4.363449
100
AcDbArc
 50
100.516684
 51
79.48332099999993
  0
ARC
  5
25E
330
1F
100
AcDbEntity
  8
0
 62
     7
370
    35
100
AcDbCircle
 10
69.50240676653985
 20
44.79574362588458
 30
0.0
 40
4.363449
100
AcDbArc
 50
48.54292999999999
 51
131.457072
  0
ARC
  5
25F
330
1F
100
AcDbEntity
  8
0
 62
     7
370
    35
100
AcDbCircle
 10
154.5024067665398
 20
44.79574362588458
 30
0.0
 40
4.363449
100
AcDbArc
 50
48.54292999999999
 51
131.457072
  0
LINE
  5
260
330
1F
100
AcDbEntity
  8
0
 62
     7
370
    13
100
AcDbLine
 10
164.3277237665398
 20
231.6878946258846
 30
0.0
 11
164.3277237665398
 21
339.1044906258846
 31
0.0
  0
LINE
  5
261
330
1F
100
AcDbEntity
  8
0
 62
     7
370
    13
100
AcDbLine
 10
59.67708976653986
 20
339.1044906258846
 30
0.0
 11
59.67708976653986
 21
231.6878946258846
 31
0.0
  0
ARC
  5
262
330
1F
100
AcDbEntity
  8
0
 62
     7
370
    35
100
AcDbCircle
 10
1357.61950276654
 20
48.01049662588458
 30
0.0
 40
1197.465454
100
AcDbArc
 50
179.997341
 51
180.1712139999999
  0
ARC
  5
263
330
1F
100
AcDbEntity
  8
0
 62
     7
370
    35
100
AcDbCircle
 10
154.5194967665398
 20
44.80944662588458
 30
0.0
 40
4.341484999999999
100
AcDbArc
 50
298.3633759999999
 51
48.59218899999991
  0
ARC
  5
264
330
1F
100
AcDbEntity
  8
0
 62
     7
370
    35
100
AcDbCircle
 10
69.48531676653985
 20
44.80944662588458
 30
0.0
 40
4.341484999999999
100
AcDbArc
 50
131.407813
 51
241.636633
  0
ARC
  5
265
330
1F
100
AcDbEntity
  8
0
 62
     7
370
    35
100
AcDbCircle
 10
-1134.19665923346
 20
48.00967262588458
 30
0.0
 40
1198.047485
100
AcDbArc
 50
359.8289269999999
 51
0.0026909999999506
  0
LINE
  5
266
330
1F
100
AcDbEntity
  8
0
 62
     7
370
    35
100
AcDbLine
 10
154.5024067665398
 20
38.06631262588459
 30
0.0
 11
69.50240676653985
 21
38.06631262588459
 31
0.0
  0
LINE
  5
267
330
1F
100
AcDbEntity
  8
0
 62
     7
370
    35
100
AcDbLine
 10
69.50240676653985
 20
34.79574362588458
 30
0.0
 11
154.5024067665398
 21
34.79574362588458
 31
0.0
  0
ARC
  5
268
330
1F
100
AcDbEntity
  8
0
 62
     7
370
    35
100
AcDbCircle
 10
154.5024067665398
 20
44.79574362588458
 30
0.0
 40
10.0
100
AcDbArc
 50
270.0
 51
0.0
  0
ARC
  5
269
330
1F
100
AcDbEntity
  8
0
 62
     7
370
    35
100
AcDbCircle
 10
69.50240676653985
 20
44.79574362588458
 30
0.0
 40
10.0
100
AcDbArc
 50
180.0
 51
270.0
  0
LINE
  5
26A
330
1F
100
AcDbEntity
  8
0
 62
     7
370
    35
100
AcDbLine
 10
164.5024067665398
 20
361.7957436258846
 30
0.0
 11
164.5024067665398
 21
44.79574362588458
 31
0.0
  0
ARC
  5
26B
330
1F
100
AcDbEntity
  8
0
 62
     7
370
    35
100
AcDbCircle
 10
154.5024067665398
 20
361.7957436258846
 30
0.0
 40
10.0
100
AcDbArc
 50
0.0
 51
90.0
  0
LINE
  5
26C
330
1F
100
AcDbEntity
  8
0
 62
     7
370
    35
100
AcDbLine
 10
154.5024067665398
 20
371.7957436258846
 30
0.0
 11
69.50240676653985
 21
371.7957436258846
 31
0.0
  0
ARC
  5
26D
330
1F
100
AcDbEntity
  8
0
 62
     7
370
    35
100
AcDbCircle
 10
69.50240676653985
 20
361.7957436258846
 30
0.0
 40
10.0
100
AcDbArc
 50
90.0
 51
180.0
  0
LINE
  5
26E
330
1F
100
AcDbEntity
  8
0
 62
     7
370
    35
100
AcDbLine
 10
59.50240676653987
 20
44.79574362588458
 30
0.0
 11
59.50240676653987
 21
361.7957436258846
 31
0.0
  0
ARC
  5
26F
330
1F
100
AcDbEntity
  8
0
 62
     7
370
    35
100
AcDbCircle
 10
145.0024067665399
 20
355.7957436258846
 30
0.0
 40
1.5
100
AcDbArc
 50
0.0060920000000458
 51
90.0
  0
LINE
  5
270
330
1F
100
AcDbEntity
  8
0
 62
     7
370
    35
100
AcDbLine
 10
121.0024067665398
 20
357.2957436258846
 30
0.0
 11
145.0024067665399
 21
357.2957436258846
 31
0.0
  0
ARC
  5
271
330
1F
100
AcDbEntity
  8
0
 62
     7
370
    35
100
AcDbCircle
 10
121.0024067665398
 20
355.7957436258846
 30
0.0
 40
1.5
100
AcDbArc
 50
90.0
 51
180.000077
  0
LINE
  5
272
330
1F
100
AcDbEntity
  8
0
 62
     7
 48
0.084924
370
    35
100
AcDbLine
 10
146.5024067665398
 20
355.7957436258846
 30
0.0
 11
146.5024067665398
 21
352.3987716258846
 31
0.0
  0
LINE
  5
273
330
1F
100
AcDbEntity
  8
0
 62
     7
 48
0.084924
370
    35
100
AcDbLine
 10
119.5024067665398
 20
352.3987716258846
 30
0.0
 11
119.5024067665398
 21
355.7957436258846
 31
0.0
  0
LINE
  5
274
330
1F
100
AcDbEntity
  8
0
 62
     7
370
    35
100
AcDbLine
 10
154.5024067665398
 20
368.3981606258846
 30
0.0
 11
69.50240676653985
 21
368.3981606258846
 31
0.0
  0
ARC
  5
275
330
1F
100
AcDbEntity
  8
0
 62
     7
370
    35
100
AcDbCircle
 10
162.9593467665398
 20
211.9295936258846
 30
0.0
 40
16.792645
100
AcDbArc
 50
95.23426999999989
 51
97.40370900000009
  0
ARC
  5
276
330
1F
100
AcDbEntity
  8
0
 62
     7
370
    35
100
AcDbCircle
 10
161.0924637665398
 20
231.8121626258846
 30
0.0
 40
3.176925999999999
100
AcDbArc
 50
276.0506159999999
 51
284.3550399999998
  0
LINE
  5
277
330
1F
100
AcDbEntity
  8
0
 62
     7
 48
0.001226
370
    35
100
AcDbLine
 10
161.9278827665398
 20
228.7453896258845
 30
0.0
 11
161.8800927665398
 21
228.7344336258846
 31
0.0
  0
ARC
  5
278
330
1F
100
AcDbEntity
  8
0
 62
     7
370
    35
100
AcDbCircle
 10
65.41433294653986
 20
248.2373278458846
 30
0.0
 40
19.77838792
100
AcDbArc
 50
260.4257796300001
 51
263.59913897
  0
LINE
  5
279
330
1F
100
AcDbEntity
  8
0
 62
     7
 48
0.001225
370
    35
100
AcDbLine
 10
62.07693076653986
 20
228.7453896258845
 30
0.0
 11
62.12469076653985
 21
228.7344336258846
 31
0.0
  0
ARC
  5
27A
330
1F
100
AcDbEntity
  8
0
 62
     7
370
    35
100
AcDbCircle
 10
161.3256487665398
 20
231.6861246258846
 30
0.0
 40
3.001943999999999
100
AcDbArc
 50
281.5733709999999
 51
0.0338970000000927
  0
ARC
  5
27B
330
1F
100
AcDbEntity
  8
0
 62
     7
370
    35
100
AcDbCircle
 10
161.3277237665398
 20
339.1044596258846
 30
0.0
 40
3.000061999999999
100
AcDbArc
 50
0.0002389999999534
 51
60.00020000000006
  0
ARC
  5
27C
330
1F
100
AcDbEntity
  8
0
 62
     7
370
    35
100
AcDbCircle
 10
62.67916476653986
 20
231.6861246258846
 30
0.0
 40
3.001945999999999
100
AcDbArc
 50
179.966209
 51
258.42657
  0
ARC
  5
27D
330
1F
100
AcDbEntity
  8
0
 62
     7
370
    35
100
AcDbCircle
 10
62.67708976653985
 20
339.1044596258846
 30
0.0
 40
3.000062999999999
100
AcDbArc
 50
119.9998119999999
 51
179.999677
  0
LINE
  5
27E
330
1F
100
AcDbEntity
  8
0
 62
     7
370
    35
100
AcDbLine
 10
164.3277847665398
 20
231.6878946258846
 30
0.0
 11
164.3277847665398
 21
339.1044596258846
 31
0.0
  0
LINE
  5
27F
330
1F
100
AcDbEntity
  8
0
 62
     7
370
    35
100
AcDbLine
 10
59.67702876653986
 20
339.1044906258846
 30
0.0
 11
59.67702876653986
 21
231.6878946258846
 31
0.0
  0
CIRCLE
  5
280
330
1F
100
AcDbEntity
  8
0
 62
     7
370
    35
100
AcDbCircle
 10
154.5024067665398
 20
223.2957436258846
 30
0.0
 40
1.393407999999999
  0
CIRCLE
  5
281
330
1F
100
AcDbEntity
  8
0
 62
     7
370
    35
100
AcDbCircle
 10
154.5024067665398
 20
44.79574362588458
 30
0.0
 40
1.393407999999999
  0
CIRCLE
  5
282
330
1F
100
AcDbEntity
  8
0
 62
     7
370
    35
100
AcDbCircle
 10
69.50240676653985
 20
223.2957436258846
 30
0.0
 40
1.393407999999999
  0
CIRCLE
  5
283
330
1F
100
AcDbEntity
  8
0
 62
     7
370
    35
100
AcDbCircle
 10
69.50240676653985
 20
44.79574362588458
 30
0.0
 40
1.393407999999999
  0
CIRCLE
  5
284
330
1F
100
AcDbEntity
  8
0
 62
     7
370
    35
100
AcDbCircle
 10
154.5024067665398
 20
361.7957436258846
 30
0.0
 40
1.405629
  0
CIRCLE
  5
285
330
1F
100
AcDbEntity
  8
0
 62
     7
370
    35
100
AcDbCircle
 10
69.50240676653985
 20
361.7957436258846
 30
0.0
 40
1.405629
  0
ARC
  5
286
330
1F
100
AcDbEntity
  8
0
 62
     7
370
    35
100
AcDbCircle
 10
69.50240676653985
 20
361.7957436258846
 30
0.0
 40
10.0
100
AcDbArc
 50
90.0
 51
180.0
  0
LINE
  5
287
330
1F
100
AcDbEntity
  8
0
 62
     7
370
    35
100
AcDbLine
 10
59.50240676653987
 20
44.79574362588458
 30
0.0
 11
59.50240676653987
 21
361.7957436258846
 31
0.0
  0
ARC
  5
288
330
1F
100
AcDbEntity
  8
0
 62
     7
370
    35
100
AcDbCircle
 10
154.5024067665398
 20
361.7957436258846
 30
0.0
 40
10.0
100
AcDbArc
 50
0.0
 51
90.0
  0
LINE
  5
289
330
1F
100
AcDbEntity
  8
0
 62
     7
370
    35
100
AcDbLine
 10
154.5024067665398
 20
371.7957436258846
 30
0.0
 11
69.50240676653985
 21
371.7957436258846
 31
0.0
  0
LINE
  5
28A
330
1F
100
AcDbEntity
  8
0
 62
   253
 48
0.036767
370
    35
100
AcDbLine
 10
160.9730797665398
 20
243.2957436258846
 30
0.0
 11
159.5024067665398
 21
243.2957436258846
 31
0.0
  0
LINE
  5
28B
330
1F
100
AcDbEntity
  8
0
 62
   253
 48
0.4875
370
    35
100
AcDbLine
 10
140.0024067665398
 20
243.2957436258846
 30
0.0
 11
159.5024067665398
 21
243.2957436258846
 31
0.0
  0
LINE
  5
28C
330
1F
100
AcDbEntity
  8
0
 62
   253
 48
0.019813
370
    35
100
AcDbLine
 10
140.0024067665398
 20
243.2957436258846
 30
0.0
 11
139.2098957665398
 21
243.2957436258846
 31
0.0
  0
LINE
  5
28D
330
1F
100
AcDbEntity
  8
0
 62
   253
 48
0.305187
370
    35
100
AcDbLine
 10
139.2098957665398
 20
243.2957436258846
 30
0.0
 11
127.0024067665398
 21
243.2957436258846
 31
0.0
  0
LINE
  5
28E
330
1F
100
AcDbEntity
  8
0
 62
   253
 48
0.238383
370
    35
100
AcDbLine
 10
127.0024067665398
 20
243.2957436258846
 30
0.0
 11
117.4670977665398
 21
243.2957436258846
 31
0.0
  0
LINE
  5
28F
330
1F
100
AcDbEntity
  8
0
 62
   253
 48
0.036767
370
    35
100
AcDbLine
 10
64.50240676653987
 20
243.2957436258846
 30
0.0
 11
63.03173376653986
 21
243.2957436258846
 31
0.0
  0
LINE
  5
290
330
1F
100
AcDbEntity
  8
0
 62
   253
 48
0.238383
370
    35
100
AcDbLine
 10
106.5377157665398
 20
243.2957436258846
 30
0.0
 11
97.00240676653985
 21
243.2957436258846
 31
0.0
  0
LINE
  5
291
330
1F
100
AcDbEntity
  8
0
 62
   253
 48
0.305187
370
    35
100
AcDbLine
 10
97.00240676653985
 20
243.2957436258846
 30
0.0
 11
84.79491776653986
 21
243.2957436258846
 31
0.0
  0
LINE
  5
292
330
1F
100
AcDbEntity
  8
0
 62
   253
 48
0.019813
370
    35
100
AcDbLine
 10
84.79491776653986
 20
243.2957436258846
 30
0.0
 11
84.00240676653984
 21
243.2957436258846
 31
0.0
  0
LINE
  5
293
330
1F
100
AcDbEntity
  8
0
 62
   253
 48
0.4875
370
    35
100
AcDbLine
 10
64.50240676653987
 20
243.2957436258846
 30
0.0
 11
84.00240676653984
 21
243.2957436258846
 31
0.0
  0
ARC
  5
294
330
1F
100
AcDbEntity
  8
0
 62
   253
370
    35
100
AcDbCircle
 10
86.33840576653986
 20
247.4567856258846
 30
0.0
 40
1.835285999999999
100
AcDbArc
 50
131.5020009999999
 51
180.4376329999999
  0
ARC
  5
295
330
1F
100
AcDbEntity
  8
0
 62
   253
370
    35
100
AcDbCircle
 10
96.99636476653985
 20
235.2144446258846
 30
0.0
 40
18.067045
100
AcDbArc
 50
89.98080300000005
 51
131.088952
  0
LINE
  5
296
330
1F
100
AcDbEntity
  8
0
 62
   253
370
    35
100
AcDbLine
 10
97.00240676653985
 20
253.2818886258846
 30
0.0
 11
127.0024067665398
 21
253.2818886258846
 31
0.0
  0
ARC
  5
297
330
1F
100
AcDbEntity
  8
0
 62
   253
370
    35
100
AcDbCircle
 10
127.0084487665398
 20
235.2144446258846
 30
0.0
 40
18.067057
100
AcDbArc
 50
48.9110670000001
 51
90.01918899999987
  0
ARC
  5
298
330
1F
100
AcDbEntity
  8
0
 62
   253
370
    35
100
AcDbCircle
 10
137.6664077665398
 20
247.4567856258846
 30
0.0
 40
1.835286999999999
100
AcDbArc
 50
359.562413
 51
48.49799400000008
  0
LINE
  5
299
330
1F
100
AcDbEntity
  8
0
 62
   253
 48
0.091175
370
    35
100
AcDbLine
 10
84.50240676653985
 20
243.7957436258846
 30
0.0
 11
84.50240676653985
 21
247.4427466258846
 31
0.0
  0
LINE
  5
29A
330
1F
100
AcDbEntity
  8
0
 62
   253
 48
0.091175
370
    35
100
AcDbLine
 10
139.5024067665399
 20
243.7957436258846
 30
0.0
 11
139.5024067665399
 21
247.4427466258846
 31
0.0
  0
ARC
  5
29B
330
1F
100
AcDbEntity
  8
0
 62
   253
370
    35
100
AcDbCircle
 10
140.0024067665398
 20
243.7957436258846
 30
0.0
 40
0.5
100
AcDbArc
 50
180.0
 51
270.0
  0
ARC
  5
29C
330
1F
100
AcDbEntity
  8
0
 62
   253
370
    35
100
AcDbCircle
 10
84.00240676653984
 20
243.7957436258846
 30
0.0
 40
0.5
100
AcDbArc
 50
270.0
 51
0.0
  0
LINE
  5
29D
330
1F
100
AcDbEntity
  8
0
 62
   253
 48
0.001338
370
    35
100
AcDbLine
 10
139.1849327665398
 20
241.7318396258846
 30
0.0
 11
139.1323507665398
 21
241.7218916258846
 31
0.0
  0
LINE
  5
29E
330
1F
100
AcDbEntity
  8
0
 62
   253
 48
0.003186
370
    35
100
AcDbLine
 10
139.1849327665398
 20
241.7318396258846
 30
0.0
 11
139.3123737665398
 21
241.7318396258846
 31
0.0
  0
LINE
  5
29F
330
1F
100
AcDbEntity
  8
0
 62
   253
 48
0.034277
370
    35
100
AcDbLine
 10
139.3123737665398
 20
241.7318396258846
 30
0.0
 11
140.6834677665399
 21
241.7318396258846
 31
0.0
  0
ARC
  5
2A0
330
1F
100
AcDbEntity
  8
0
 62
   253
370
    35
100
AcDbCircle
 10
140.6294817665398
 20
241.0988746258846
 30
0.0
 40
0.6345380000000001
100
AcDbArc
 50
53.41975299999989
 51
85.12413500000008
  0
ARC
  5
2A1
330
1F
100
AcDbEntity
  8
0
 62
   253
370
    35
100
AcDbCircle
 10
83.37548376653986
 20
241.0985396258846
 30
0.0
 40
0.6348630000000001
100
AcDbArc
 50
94.88537699999985
 51
126.573159
  0
LINE
  5
2A2
330
1F
100
AcDbEntity
  8
0
 62
   253
 48
0.034277
370
    35
100
AcDbLine
 10
84.69243976653984
 20
241.7318396258846
 30
0.0
 11
83.32134576653984
 21
241.7318396258846
 31
0.0
  0
LINE
  5
2A3
330
1F
100
AcDbEntity
  8
0
 62
   253
 48
0.003186
370
    35
100
AcDbLine
 10
84.81988076653985
 20
241.7318396258846
 30
0.0
 11
84.69243976653984
 21
241.7318396258846
 31
0.0
  0
LINE
  5
2A4
330
1F
100
AcDbEntity
  8
0
 62
   253
 48
0.001338
370
    35
100
AcDbLine
 10
84.81988076653985
 20
241.7318396258846
 30
0.0
 11
84.87246276653985
 21
241.7218916258846
 31
0.0
  0
LINE
  5
2A5
330
1F
100
AcDbEntity
  8
0
 62
   253
370
    35
100
AcDbLine
 10
127.0024067665398
 20
238.7957436258846
 30
0.0
 11
97.00240676653985
 21
238.7957436258846
 31
0.0
  0
ARC
  5
2A6
330
1F
100
AcDbEntity
  8
0
 62
   253
370
    35
100
AcDbCircle
 10
126.9840657665398
 20
257.7760906258846
 30
0.0
 40
22.859152
100
AcDbArc
 50
270.045978
 51
280.4481109999999
  0
LINE
  5
2A7
330
1F
100
AcDbEntity
  8
0
 62
   253
370
    35
100
AcDbLine
 10
97.00240676653985
 20
234.9171736258846
 30
0.0
 11
127.0024067665398
 21
234.9171736258846
 31
0.0
  0
ARC
  5
2A8
330
1F
100
AcDbEntity
  8
0
 62
   253
370
    35
100
AcDbCircle
 10
97.02090076653986
 20
257.7752976258846
 30
0.0
 40
22.858364
100
AcDbArc
 50
259.551174
 51
269.9536889999999
  0
LINE
  5
2A9
330
1F
100
AcDbEntity
  8
0
 62
   253
 48
0.00058
370
    35
100
AcDbLine
 10
85.03942476653987
 20
241.6706526258846
 30
0.0
 11
85.06106176653986
 21
241.6622596258846
 31
0.0
  0
ARC
  5
2AA
330
1F
100
AcDbEntity
  8
0
 62
   253
370
    35
100
AcDbCircle
 10
84.61501676653986
 20
240.5874916258846
 30
0.0
 40
1.163277
100
AcDbArc
 50
68.60348599999993
 51
77.21468800000001
  0
LINE
  5
2AB
330
1F
100
AcDbEntity
  8
0
 62
   253
 48
0.000734
370
    35
100
AcDbLine
 10
85.06100076653984
 20
241.6621376258846
 30
0.0
 11
85.08831376653986
 21
241.6513956258846
 31
0.0
  0
LINE
  5
2AC
330
1F
100
AcDbEntity
  8
0
 62
   253
 48
0.002258
370
    35
100
AcDbLine
 10
85.57577076653986
 20
241.3513466258846
 30
0.0
 11
85.50454276653985
 21
241.4068886258846
 31
0.0
  0
ARC
  5
2AD
330
1F
100
AcDbEntity
  8
0
 62
   253
370
    35
100
AcDbCircle
 10
84.36925876653985
 20
239.9624006258846
 30
0.0
 40
1.836344
100
AcDbArc
 50
51.83522799999997
 51
66.93906399999997
  0
LINE
  5
2AE
330
1F
100
AcDbEntity
  8
0
 62
   253
 48
0.000595
370
    35
100
AcDbLine
 10
85.55718576653985
 20
241.3664836258845
 30
0.0
 11
85.57564876653986
 21
241.3514686258846
 31
0.0
  0
ARC
  5
2AF
330
1F
100
AcDbEntity
  8
0
 62
   253
370
    35
100
AcDbCircle
 10
139.6355857665398
 20
239.9623696258846
 30
0.0
 40
1.836392999999999
100
AcDbArc
 50
113.0612069999999
 51
128.164648
  0
LINE
  5
2B0
330
1F
100
AcDbEntity
  8
0
 62
   253
 48
0.002258
370
    35
100
AcDbLine
 10
138.4290427665398
 20
241.3513466258846
 30
0.0
 11
138.5002707665399
 21
241.4068886258846
 31
0.0
  0
LINE
  5
2B1
330
1F
100
AcDbEntity
  8
0
 62
   253
 48
0.000734
370
    35
100
AcDbLine
 10
138.9438127665398
 20
241.6621376258846
 30
0.0
 11
138.9164997665398
 21
241.6513956258846
 31
0.0
  0
ARC
  5
2B2
330
1F
100
AcDbEntity
  8
0
 62
   253
370
    35
100
AcDbCircle
 10
139.3899187665398
 20
240.5873696258846
 30
0.0
 40
1.163462999999999
100
AcDbArc
 50
102.78958
 51
111.399395
  0
LINE
  5
2B3
330
1F
100
AcDbEntity
  8
0
 62
   253
 48
0.00058
370
    35
100
AcDbLine
 10
138.9653887665398
 20
241.6706526258846
 30
0.0
 11
138.9437517665398
 21
241.6622596258846
 31
0.0
  0
ARC
  5
2B4
330
1F
100
AcDbEntity
  8
0
 62
   253
370
    35
100
AcDbCircle
 10
126.9744217665398
 20
266.9593186258846
 30
0.0
 40
28.164162
100
AcDbArc
 50
270.0569340000001
 51
282.7320709999999
  0
ARC
  5
2B5
330
1F
100
AcDbEntity
  8
0
 62
   253
370
    35
100
AcDbCircle
 10
97.03039176653986
 20
266.9593796258846
 30
0.0
 40
28.164249
100
AcDbArc
 50
257.2679850000001
 51
269.9430880000001
  0
ARC
  5
2B6
330
1F
100
AcDbEntity
  8
0
 62
   253
370
    35
100
AcDbCircle
 10
68.35543376653986
 20
20496.82906962588
 30
0.0
 40
20254.84375
100
AcDbArc
 50
269.9891239999999
 51
270.046115
  0
LINE
  5
2B7
330
1F
100
AcDbEntity
  8
0
 62
   253
 48
0.000595
370
    35
100
AcDbLine
 10
85.55718576653985
 20
241.3664836258845
 30
0.0
 11
85.57564876653986
 21
241.3514686258846
 31
0.0
  0
ARC
  5
2B8
330
1F
100
AcDbEntity
  8
0
 62
   253
370
    35
100
AcDbCircle
 10
155.6439777665398
 20
20490.47945962588
 30
0.0
 40
20248.492188
100
AcDbArc
 50
269.953907
 51
270.0109259999999
  0
LINE
  5
2B9
330
1F
100
AcDbEntity
  8
0
 62
     7
370
    13
100
AcDbLine
 10
63.02975076653986
 20
351.6476116258846
 30
0.0
 11
119.5024067665398
 21
351.6476116258846
 31
0.0
  0
LINE
  5
2BA
330
1F
100
AcDbEntity
  8
0
 62
     7
 48
0.361816
370
    13
100
AcDbLine
 10
160.9750627665398
 20
351.6476116258846
 30
0.0
 11
146.5024067665398
 21
351.6476116258846
 31
0.0
  0
LINE
  5
2BB
330
1F
100
AcDbEntity
  8
0
 62
     7
 48
0.069069
370
    13
100
AcDbLine
 10
160.1540177665398
 20
48.06594662588459
 30
0.0
 11
157.3912617665398
 21
48.06594662588459
 31
0.0
  0
LINE
  5
2BC
330
1F
100
AcDbEntity
  8
0
 62
     7
370
    13
100
AcDbLine
 10
151.6135517665398
 20
48.06594662588459
 30
0.0
 11
72.39126176653986
 21
48.06594662588459
 31
0.0
  0
LINE
  5
2BD
330
1F
100
AcDbEntity
  8
0
 62
     7
 48
0.069075
370
    13
100
AcDbLine
 10
66.61379576653985
 20
48.06564162588458
 30
0.0
 11
63.85079576653986
 21
48.06594662588459
 31
0.0
  0
LINE
  5
2BE
330
1F
100
AcDbEntity
  8
0
 62
     7
100
AcDbLine
 10
67.00240676653985
 20
312.3220341058846
 30
0.0
 11
67.00240676653985
 21
267.2694531358846
 31
0.0
  0
LINE
  5
2BF
330
1F
100
AcDbEntity
  8
0
 62
     7
100
AcDbLine
 10
67.00240676653985
 20
267.2694531358846
 30
0.0
 11
157.0024067665398
 21
267.2694531358846
 31
0.0
  0
LINE
  5
2C0
330
1F
100
AcDbEntity
  8
0
 62
     7
100
AcDbLine
 10
157.0024067665398
 20
267.2694531358846
 30
0.0
 11
157.0024067665398
 21
312.3220341058846
 31
0.0
  0
LINE
  5
2C1
330
1F
100
AcDbEntity
  8
0
 62
     7
100
AcDbLine
 10
157.0024067665398
 20
312.3220341058846
 30
0.0
 11
67.00240676653985
 21
312.3220341058846
 31
0.0
  0
DIMENSION
  5
2C2
330
1F
100
AcDbEntity
  8
QUOTE
 62
     7
100
AcDbDimension
  2
*D5
 10
36.38963701653985
 20
34.79574362588459
 30
0.0
 11
36.38963701653986
 21
203.8290661758846
 31
0.0
 70
   160
 71
     0
 42
337.0
  3
Standard
100
AcDbAlignedDimension
 13
76.97370433653985
 23
371.7957436258846
 33
0.0
 14
69.50240676653985
 24
34.79574362588458
 34
0.0
 50
90.0
100
AcDbRotatedDimension
1001
ACAD
1000
DSTYLE
1002
{
1070
    41
1040
15.0
1070
   140
1040
10.0
1070
    78
1070
     8
1070
   284
1070
     8
1002
}
  0
DIMENSION
  5
2C3
330
1F
100
AcDbEntity
  8
QUOTE
 62
     7
100
AcDbDimension
  2
*D6
 10
59.50240676653987
 20
15.92566931588458
 30
0.0
 11
111.2708130765398
 21
15.92566931588458
 31
0.0
 70
   160
 71
     0
 42
105.0
  3
Standard
100
AcDbAlignedDimension
 13
164.5024067665398
 23
44.79337171588458
 33
0.0
 14
59.50240676653987
 24
44.85824204588458
 34
0.0
100
AcDbRotatedDimension
1001
ACAD
1000
DSTYLE
1002
{
1070
    41
1040
15.0
1070
   140
1040
10.0
1070
    78
1070
     8
1070
   284
1070
     8
1002
}
  0
TEXT
  5
2C4
330
1F
100
AcDbEntity
  8
0
 62
     7
100
AcDbText
 10
77.06547637415891
 20
359.3696294358846
 30
0.0
 40
5.0
  1
GW68018N
 72
     1
 11
95.51785732653986
 21
359.3696294358846
 31
0.0
100
AcDbText
  0
LWPOLYLINE
  5
2C5
330
1F
100
AcDbEntity
  8
0
 62
     7
370
    13
100
AcDbPolyline
 90
        8
 70
     0
 43
0.0
 10
160.9752157665398
 20
343.3495156258846
 10
160.9852867665398
 20
343.2078836258846
 10
161.0153457665398
 20
343.0690896258846
 10
161.0647537665398
 20
342.9359416258846
 10
161.1325027665398
 20
342.8111556258846
 10
161.2172507665398
 20
342.6972026258846
 10
161.3172867665398
 20
342.5964026258846
 10
161.4751847665398
 20
342.4834876258846
  0
LWPOLYLINE
  5
2C6
330
1F
100
AcDbEntity
  8
0
 62
     7
370
    35
100
AcDbPolyline
 90
        8
 70
     0
 43
0.0
 10
62.52962876653985
 20
342.4834876258846
 10
62.64724276653986
 20
342.5630776258846
 10
62.75243776653986
 20
342.6584756258846
 10
62.84301376653985
 20
342.7678506258846
 10
62.91720176653986
 20
342.8889136258846
 10
62.97350676653985
 20
343.0192856258846
 10
63.01073776653986
 20
343.1563396258846
 10
63.02959776653985
 20
343.3495156258846
  0
LWPOLYLINE
  5
2C7
330
1F
100
AcDbEntity
  8
0
 62
     7
370
    35
100
AcDbPolyline
 90
       28
 70
     0
 43
0.0
 10
154.5024067665398
 20
38.06631262588459
 10
154.8236957665398
 20
38.08025962588458
 10
155.1440997665398
 20
38.11422562588459
 10
155.4623977665398
 20
38.16816562588459
 10
155.7783467665398
 20
38.24212462588459
 10
156.0901757665398
 20
38.33581362588459
 10
156.3981887665398
 20
38.44946062588459
 10
156.6997637665398
 20
38.58227362588458
 10
156.9959977665398
 20
38.73492262588459
 10
157.2835647665398
 20
38.90585162588458
 10
157.5641747665398
 20
39.09635762588459
 10
157.8338577665398
 20
39.30396862588459
 10
158.0948447665399
 20
39.53066862588459
 10
158.3427387665398
 20
39.77297762588459
 10
158.5801657665398
 20
40.03365862588458
 10
158.8024857665398
 20
40.30804262588458
 10
159.0125387665398
 20
40.59989762588458
 10
159.2056847665398
 20
40.90321162588458
 10
159.3847007665398
 20
41.22265462588458
 10
159.5451927665398
 20
41.55079462588458
 10
159.6897537665398
 20
41.89330862588458
 10
159.8146627665398
 20
42.24175862588459
 10
159.9220537665398
 20
42.60239962588459
 10
160.0090897665398
 20
42.96615362588458
 10
160.0772357665398
 20
43.33953662588458
 10
160.1246597665398
 20
43.71282762588458
 10
160.1522177665398
 20
44.09280162588458
 10
160.1593887665399
 20
44.43238662588458
  0
LWPOLYLINE
  5
2C8
330
1F
100
AcDbEntity
  8
0
 62
     7
370
    35
100
AcDbPolyline
 90
       44
 70
     0
 43
0.0
 10
156.5820877665398
 20
40.98893562588457
 10
156.3153947665398
 20
40.85624462588458
 10
156.0403397665398
 20
40.74207862588458
 10
155.7600667665398
 20
40.64750462588458
 10
155.4740867665398
 20
40.57211062588458
 10
155.1834367665398
 20
40.51617262588458
 10
154.8897057665398
 20
40.48003962588459
 10
154.5940207665398
 20
40.46383462588458
 10
154.2979387665398
 20
40.46764962588458
 10
154.0027427665398
 20
40.49148362588458
 10
153.7098347665398
 20
40.53524562588458
 10
153.4206197665398
 20
40.59869162588458
 10
153.1363487665398
 20
40.68157762588458
 10
152.8585167665398
 20
40.78346062588458
 10
152.5881607665398
 20
40.90395962588458
 10
152.3268387665398
 20
41.04235662588457
 10
152.0754357665398
 20
41.19822462588458
 10
151.8354447665398
 20
41.37060362588458
 10
151.6076007665398
 20
41.55892762588458
 10
151.3933067665398
 20
41.76208262588458
 10
151.1932327665398
 20
41.97936862588458
 10
151.0085107665398
 20
42.20954662588458
 10
150.8398397665398
 20
42.45178062588458
 10
150.6881057665399
 20
42.70477062588458
 10
150.5538597665398
 20
42.96752762588458
 10
150.4378317665398
 20
43.23869162588458
 10
150.3404807665398
 20
43.51717962588458
 10
150.2622947665398
 20
43.80151162588458
 10
150.2036087665398
 20
44.09060462588458
 10
150.1646987665398
 20
44.38290262588458
 10
150.1457177665398
 20
44.67730562588458
 10
150.1468157665398
 20
44.97221162588458
 10
150.1679337665398
 20
45.26647762588458
 10
150.2089797665398
 20
45.55857662588458
 10
150.2698017665398
 20
45.84728762588458
 10
150.3500627665398
 20
46.13119362588459
 10
150.4494277665398
 20
46.40899462588459
 10
150.5674397665398
 20
46.67945662588458
 10
150.7035477665398
 20
46.94129762588459
 10
150.8571427665398
 20
47.19338762588458
 10
151.0274917665398
 20
47.43449162588458
 10
151.2138327665398
 20
47.66355662588458
 10
151.4152787665399
 20
47.87945362588458
 10
151.6135517665398
 20
48.06594662588459
  0
LWPOLYLINE
  5
2C9
330
1F
100
AcDbEntity
  8
0
 62
     7
370
    35
100
AcDbPolyline
 90
       44
 70
     0
 43
0.0
 10
67.42272576653985
 20
40.98893562588457
 10
67.68777076653986
 20
40.85699262588458
 10
67.96105576653985
 20
40.74336062588458
 10
68.24123776653985
 20
40.64855762588458
 10
68.52715676653986
 20
40.57291962588458
 10
68.81777576653985
 20
40.51675262588458
 10
69.11147676653985
 20
40.48037562588458
 10
69.40716176653985
 20
40.46391062588457
 10
69.70324276653986
 20
40.46748162588459
 10
69.99843976653986
 20
40.49108662588458
 10
70.29140776653986
 20
40.53457462588458
 10
70.58065376653985
 20
40.59779162588458
 10
70.86498576653986
 20
40.68044862588457
 10
71.14290976653986
 20
40.78208762588459
 10
71.41335676653986
 20
40.90235662588458
 10
71.67480076653986
 20
41.04055562588458
 10
71.92632676653985
 20
41.19619562588458
 10
72.16649976653986
 20
41.36837562588458
 10
72.39449676653986
 20
41.55651662588458
 10
72.60897376653986
 20
41.75948862588458
 10
72.80923076653985
 20
41.97660662588458
 10
72.99410576653986
 20
42.20663262588458
 10
73.16299076653985
 20
42.44872862588458
 10
73.31496776653986
 20
42.70159762588458
 10
73.44942776653986
 20
42.96424662588458
 10
73.56566976653986
 20
43.23528862588458
 10
73.66326476653987
 20
43.51370062588458
 10
73.74166476653986
 20
43.79797162588459
 10
73.80062476653987
 20
44.08701862588458
 10
73.83977876653986
 20
44.37930062588458
 10
73.85897376653986
 20
44.67367362588458
 10
73.85814976653986
 20
44.96858062588458
 10
73.83727576653986
 20
45.26287662588458
 10
73.79644376653985
 20
45.55499062588459
 10
73.73589676653987
 20
45.84376362588458
 10
73.65584876653986
 20
46.12771462588457
 10
73.55669776653986
 20
46.40562262588458
 10
73.43892976653986
 20
46.67617562588458
 10
73.30306576653986
 20
46.93813862588458
 10
73.14968476653985
 20
47.19035162588459
 10
72.97954876653986
 20
47.43159262588458
 10
72.79336176653986
 20
47.66081062588457
 10
72.59209776653986
 20
47.87689062588458
 10
72.39126176653986
 20
48.06594662588459
  0
LWPOLYLINE
  5
2CA
330
1F
100
AcDbEntity
  8
0
 62
     7
370
    35
100
AcDbPolyline
 90
       15
 70
     0
 43
0.0
 10
63.84542476653986
 20
44.43238662588458
 10
63.88238076653985
 20
43.69082462588458
 10
63.99694376653986
 20
42.96020362588458
 10
64.18700776653986
 20
42.25134062588458
 10
64.44915376653987
 20
41.57398762588458
 10
64.77889576653986
 20
40.93728462588458
 10
65.17077176653986
 20
40.34966862588458
 10
65.61864776653985
 20
39.81841862588458
 10
66.11574876653986
 20
39.34969862588459
 10
66.65505576653986
 20
38.94857562588459
 10
67.22936576653985
 20
38.61910862588459
 10
67.83190476653985
 20
38.36427162588459
 10
68.45489076653986
 20
38.18661262588459
 10
69.09051076653986
 20
38.08781262588458
 10
69.50240676653985
 20
38.06631262588459
  0
LWPOLYLINE
  5
2CB
330
1F
100
AcDbEntity
  8
0
 62
     7
370
    35
100
AcDbPolyline
 90
       30
 70
     0
 43
0.0
 10
69.50240676653985
 20
368.3981606258846
 10
69.13909476653985
 20
368.3837566258846
 10
68.77657676653986
 20
368.3493026258846
 10
68.41671376653986
 20
368.2949196258846
 10
68.05932176653985
 20
368.2205486258846
 10
67.70745476653985
 20
368.1267376258846
 10
67.35961476653987
 20
368.0130596258846
 10
67.02007676653986
 20
367.8808876258846
 10
66.68624476653985
 20
367.7290626258846
 10
66.36327676653985
 20
367.5599646258846
 10
66.04766476653987
 20
367.3716716258846
 10
65.74532676653986
 20
367.1676926258846
 10
65.45199176653986
 20
366.9450966258846
 10
65.17412876653986
 20
366.7086776258846
 10
64.90691776653986
 20
366.4543436258846
 10
64.65703976653987
 20
366.1883526258846
 10
64.41945976653986
 20
365.9053326258846
 10
64.20074076653986
 20
365.6130046258846
 10
63.99590676653986
 20
365.3046856258846
 10
63.81118376653986
 20
364.9897136258846
 10
63.64196376653985
 20
364.6601236258846
 10
63.49367876653985
 20
364.3264756258846
 10
63.36242276653986
 20
363.9800086258846
 10
63.25246776653986
 20
363.6320166258846
 10
63.16088476653986
 20
363.2732216258846
 10
63.09063276653986
 20
362.9153116258846
 10
63.03985176653985
 20
362.5487956258846
 10
63.01018876653985
 20
362.1854536258846
 10
63.00078976653986
 20
361.8158856258846
 10
63.00088076653985
 20
361.7957436258846
  0
LWPOLYLINE
  5
2CC
330
1F
100
AcDbEntity
  8
0
 62
     7
370
    35
100
AcDbPolyline
 90
       16
 70
     0
 43
0.0
 10
161.0039327665398
 20
361.7957436258846
 10
160.9692337665398
 20
362.5085736258846
 10
160.8571427665398
 20
363.2132856258845
 10
160.6690327665398
 20
363.9016396258846
 10
160.4071007665398
 20
364.5657026258846
 10
160.0742147665398
 20
365.1979046258846
 10
159.6741597665398
 20
365.7907386258846
 10
159.2114217665399
 20
366.3371256258846
 10
158.6912187665398
 20
366.8306556258845
 10
158.1193807665399
 20
367.2652876258846
 10
157.5024067665398
 20
367.6356186258846
 10
156.8474997665398
 20
367.9369186258846
 10
156.1622577665398
 20
368.1652206258846
 10
155.4547077665398
 20
368.3174416258846
 10
154.7332717665398
 20
368.3913246258846
 10
154.5024067665398
 20
368.3981606258846
  0
LWPOLYLINE
  5
2CD
330
1F
100
AcDbEntity
  8
0
 62
     7
370
    35
100
AcDbPolyline
 90
       48
 70
     0
 43
0.0
 10
152.3938857665398
 20
365.6553626258846
 10
152.6629287665398
 20
365.7886636258846
 10
152.9403037665398
 20
365.9034406258846
 10
153.2230487665398
 20
365.9986856258846
 10
153.5114707665399
 20
366.0747966258846
 10
153.8046527665398
 20
366.1314376258846
 10
154.1009477665398
 20
366.1682716258846
 10
154.3992267665398
 20
366.1852096258846
 10
154.6979937665398
 20
366.1820966258846
 10
154.9958757665398
 20
366.1589946258846
 10
155.2915917665398
 20
366.1159346258846
 10
155.5836137665398
 20
366.0531906258846
 10
155.8707847665398
 20
365.9709756258846
 10
156.1515767665398
 20
365.8697796258846
 10
156.4249837665398
 20
365.7499066258846
 10
156.6894487665399
 20
365.6120276258846
 10
156.9440877665399
 20
365.4566936258846
 10
157.1874347665398
 20
365.2847576258846
 10
157.4187277665398
 20
365.0967996258846
 10
157.6365927665398
 20
364.8939186258846
 10
157.8403887665398
 20
364.6767556258846
 10
158.0288957665399
 20
364.4465616258846
 10
158.2015647665398
 20
364.2040996258846
 10
158.3573867665398
 20
363.9507126258846
 10
158.4958457665399
 20
363.6873146258846
 10
158.6161457665398
 20
363.4153116258846
 10
158.7178917665398
 20
363.1357096258846
 10
158.8005327665398
 20
362.8500656258846
 10
158.8637657665398
 20
362.5592936258846
 10
158.9072227665398
 20
362.2651046258846
 10
158.9307817665399
 20
361.9684126258846
 10
158.9342607665398
 20
361.6709876258846
 10
158.9176897665398
 20
361.3738076258846
 10
158.8811607665398
 20
361.0785196258846
 10
158.8247947665398
 20
360.7862226258846
 10
158.7488967665398
 20
360.4984416258846
 10
158.6537737665398
 20
360.2163676258846
 10
158.5398827665398
 20
359.9413736258846
 10
158.4077107665398
 20
359.6745896258846
 10
158.2578697665399
 20
359.4172956258846
 10
158.0910607665398
 20
359.1705916258846
 10
157.9079857665398
 20
358.9356366258846
 10
157.7094687665398
 20
358.7134686258846
 10
157.4964557665398
 20
358.5051556258846
 10
157.2698937665398
 20
358.3115516258846
 10
157.0307877665398
 20
358.1336036258846
 10
156.7802087665398
 20
357.9720746258846
 10
156.6363177665398
 20
357.8896766258846
  0
LWPOLYLINE
  5
2CE
330
1F
100
AcDbEntity
  8
0
 62
     7
370
    35
100
AcDbPolyline
 90
       48
 70
     0
 43
0.0
 10
152.3938857665398
 20
365.6553626258846
 10
152.1320757665398
 20
365.5026226258846
 10
151.8812517665398
 20
365.3323036258846
 10
151.6467547665398
 20
365.1486496258846
 10
151.4250747665398
 20
364.9495526258846
 10
151.2175247665398
 20
364.7362046258846
 10
151.0247147665398
 20
364.5092446258846
 10
150.8478047665398
 20
364.2700486258846
 10
150.6873127665398
 20
364.0193466258846
 10
150.5442157665399
 20
363.7586036258846
 10
150.4189407665398
 20
363.4886456258846
 10
150.3122207665398
 20
363.2110886258846
 10
150.2244217665398
 20
362.9267256258846
 10
150.1560017665398
 20
362.6373276258846
 10
150.1072347665399
 20
362.3437786258846
 10
150.0783647665398
 20
362.0477576258846
 10
150.0695147665398
 20
361.7502726258846
 10
150.0807457665398
 20
361.4530316258846
 10
150.1119347665398
 20
361.1571326258846
 10
150.1629907665398
 20
360.8640426258846
 10
150.2336997665399
 20
360.5749796258846
 10
150.3236657665399
 20
360.2913496258846
 10
150.4325827665398
 20
360.0143416258846
 10
150.5599017665398
 20
359.7452676258846
 10
150.7050437665398
 20
359.4853196258846
 10
150.8673967665398
 20
359.2356546258846
 10
151.0461997665399
 20
358.9974036258846
 10
151.2406577665398
 20
358.7717266258846
 10
151.4498857665398
 20
358.5595376258845
 10
151.6729387665398
 20
358.3619056258846
 10
151.9088397665398
 20
358.1796546258846
 10
152.1564287665398
 20
358.0137006258846
 10
152.4146987665398
 20
357.8646526258846
 10
152.6823997665399
 20
357.7333656258846
 10
152.9583397665398
 20
357.6202986258846
 10
153.2412677665398
 20
357.5260296258846
 10
153.5298727665398
 20
357.4509566258846
 10
153.8229027665398
 20
357.3954446258846
 10
154.1189837665398
 20
357.3597086258846
 10
154.4168357665398
 20
357.3439616258846
 10
154.7150527665398
 20
357.3482346258846
 10
155.0123247665398
 20
357.3725266258846
 10
155.3073077665399
 20
357.4167156258846
 10
155.5986287665398
 20
357.4805886258846
 10
155.8850057665399
 20
357.5639016258846
 10
156.1650957665398
 20
357.6662276258846
 10
156.4376787665398
 20
357.7871686258846
 10
156.6363177665398
 20
357.8896766258846
  0
LWPOLYLINE
  5
2CF
330
1F
100
AcDbEntity
  8
0
 62
     7
370
    35
100
AcDbPolyline
 90
       47
 70
     0
 43
0.0
 10
71.61092776653986
 20
365.6553626258846
 10
72.11349076653985
 20
365.3396286258846
 10
72.34850676653985
 20
365.1566446258846
 10
72.57073576653986
 20
364.9581886258846
 10
72.77889576653986
 20
364.7454206258846
 10
72.97234676653985
 20
364.5190106258846
 10
73.14992876653986
 20
364.2803016258846
 10
73.31112276653986
 20
364.0300576258846
 10
73.45495176653987
 20
363.7697126258846
 10
73.58098976653986
 20
363.5000896258846
 10
73.68847276653986
 20
363.2228376258846
 10
73.77709576653986
 20
362.9387496258846
 10
73.84630976653986
 20
362.6495646258846
 10
73.89593076653986
 20
362.3561076258846
 10
73.92562476653987
 20
362.0602096258846
 10
73.93532876653987
 20
361.7627236258846
 10
73.92495276653986
 20
361.4654826258846
 10
73.89458776653985
 20
361.1694626258846
 10
73.84435576653984
 20
360.8762496258846
 10
73.77447076653985
 20
360.5870036258846
 10
73.68529876653986
 20
360.3030986258846
 10
73.57717476653985
 20
360.0257856258846
 10
73.45061876653986
 20
359.7563766258846
 10
73.30617876653986
 20
359.4960006258846
 10
73.14455776653986
 20
359.2458786258846
 10
72.96642676653985
 20
359.0071396258846
 10
72.77260976653986
 20
358.7809126258846
 10
72.56396076653985
 20
358.5681436258846
 10
72.34148776653985
 20
358.3699016258846
 10
72.10610576653985
 20
358.1869796258846
 10
71.85897376653986
 20
358.0202926258845
 10
71.60110076653985
 20
357.8705726258846
 10
71.33379676653984
 20
357.7384926258846
 10
71.05816276653985
 20
357.6246626258846
 10
70.77553876653985
 20
357.5295696258846
 10
70.48711776653985
 20
357.4537026258846
 10
70.19427076653986
 20
357.3973676258845
 10
69.89828076653985
 20
357.3608076258846
 10
69.60045976653986
 20
357.3442056258846
 10
69.30224176653985
 20
357.3476546258846
 10
69.00487876653986
 20
357.3710916258846
 10
68.70980376653986
 20
357.4144576258846
 10
68.41830076653986
 20
357.4775066258846
 10
68.13167876653986
 20
357.5600266258846
 10
67.85131376653986
 20
357.6615886258846
 10
67.57836476653986
 20
357.7817366258846
 10
67.36849576653987
 20
357.8896766258846
  0
LWPOLYLINE
  5
2D0
330
1F
100
AcDbEntity
  8
0
 62
     7
370
    35
100
AcDbPolyline
 90
       47
 70
     0
 43
0.0
 10
71.61092776653986
 20
365.6553626258846
 10
71.07000276653986
 20
365.9013956258846
 10
70.78741076653987
 20
365.9970076258846
 10
70.49908076653986
 20
366.0734536258846
 10
70.20598976653985
 20
366.1304916258846
 10
69.90972476653985
 20
366.1677536258846
 10
69.61147676653985
 20
366.1850876258846
 10
69.31270976653985
 20
366.1823406258846
 10
69.01479676653986
 20
366.1596356258846
 10
68.71902076653985
 20
366.1169716258846
 10
68.42693676653985
 20
366.0546246258846
 10
68.13961376653987
 20
365.9728066258846
 10
67.85869976653986
 20
365.8719466258846
 10
67.58513976653986
 20
365.7524086258846
 10
67.32049176653986
 20
365.6149576258846
 10
67.06563876653985
 20
365.4599286258846
 10
66.82207876653986
 20
365.2883286258846
 10
66.59051076653986
 20
365.1006756258846
 10
66.37237176653986
 20
364.8980386258846
 10
66.16833076653986
 20
364.6811806258846
 10
65.97948776653986
 20
364.4512006258846
 10
65.80651476653986
 20
364.2089826258846
 10
65.65035576653986
 20
363.9558396258846
 10
65.51153176653986
 20
363.6925946258846
 10
65.39086476653986
 20
363.4207746258846
 10
65.28872276653986
 20
363.1412946258846
 10
65.20571476653985
 20
362.8557416258846
 10
65.14211576653986
 20
362.5650306258846
 10
65.09826276653986
 20
362.2709026258846
 10
65.07430576653985
 20
361.9742716258846
 10
65.07043076653985
 20
361.6768476258846
 10
65.08660476653986
 20
361.3796676258846
 10
65.12273776653985
 20
361.0843186258846
 10
65.17870676653986
 20
360.7919296258846
 10
65.25423776653986
 20
360.5040876258846
 10
65.34899476653986
 20
360.2218916258846
 10
65.46252076653985
 20
359.9467446258846
 10
65.59432576653986
 20
359.6797776258846
 10
65.74380076653986
 20
359.4222696258846
 10
65.91030476653987
 20
359.1753516258846
 10
66.09307476653985
 20
358.9401526258846
 10
66.29128576653986
 20
358.7177406258846
 10
66.50402376653985
 20
358.5091226258846
 10
66.73034276653985
 20
358.3152146258846
 10
66.96920376653986
 20
358.1369606258846
 10
67.21953976653987
 20
357.9751266258846
 10
67.36849576653987
 20
357.8896766258846
  0
LWPOLYLINE
  5
2D1
330
1F
100
AcDbEntity
  8
0
 62
   253
370
    13
100
AcDbPolyline
 90
       10
 70
     0
 43
0.0
 10
133.1992447665398
 20
239.4827866258846
 10
132.4122577665398
 20
239.3208296258846
 10
131.6198077665398
 20
239.1790446258846
 10
130.8525657665398
 20
239.0626206258846
 10
130.0767777665398
 20
238.9660316258846
 10
129.3222617665398
 20
238.8927286258846
 10
128.5610617665398
 20
238.8394756258846
 10
127.8142657665398
 20
238.8075846258846
 10
127.0653337665399
 20
238.7958046258846
 10
127.0024067665398
 20
238.7957436258846
  0
LWPOLYLINE
  5
2D2
330
1F
100
AcDbEntity
  8
0
 62
   253
370
    13
100
AcDbPolyline
 90
        7
 70
     0
 43
0.0
 10
97.00240676653985
 20
238.7957436258846
 10
96.25579376653986
 20
238.8057536258846
 10
95.51095176653985
 20
238.8357826258846
 10
94.03271076653984
 20
238.9546796258846
 10
92.54799976653986
 20
239.1526166258846
 10
91.03808176653986
 20
239.4327676258846
 10
90.80550776653986
 20
239.4828166258846
  0
LWPOLYLINE
  5
2D3
330
1F
100
AcDbEntity
  8
0
 62
   253
370
    35
100
AcDbPolyline
 90
       20
 70
     0
 43
0.0
 10
131.1294817665398
 20
235.2957436258846
 10
132.3033707665398
 20
235.6083656258846
 10
133.4563247665398
 20
235.9977706258846
 10
134.5819657665398
 20
236.4621256258846
 10
135.1328087665398
 20
236.7217696258846
 10
135.6752887665398
 20
236.9996626258846
 10
136.2083697665398
 20
237.2952556258846
 10
136.7316547665398
 20
237.6084576258846
 10
137.2410537665398
 20
237.9366736258846
 10
137.7378497665398
 20
238.2805466258846
 10
138.2191727665398
 20
238.6380896258846
 10
138.6851157665399
 20
239.0091836258846
 10
139.1288717665398
 20
239.3882736258846
 10
139.5525167665398
 20
239.7770066258846
 10
139.9348717665398
 20
240.1552106258846
 10
140.2811237665398
 20
240.5270676258846
 10
140.5475427665398
 20
240.8416116258846
 10
140.7460897665398
 20
241.1045816258846
 10
140.9482987665398
 20
241.4412216258846
 10
141.0072897665398
 20
241.6079386258846
  0
LWPOLYLINE
  5
2D4
330
1F
100
AcDbEntity
  8
0
 62
   253
370
    35
100
AcDbPolyline
 90
       20
 70
     0
 43
0.0
 10
92.87533176653985
 20
235.2957436258846
 10
91.70159476653985
 20
235.6083046258846
 10
90.54867176653985
 20
235.9977096258846
 10
89.42287776653985
 20
236.4620956258846
 10
88.87209676653986
 20
236.7217386258846
 10
88.32970776653985
 20
236.9995706258846
 10
87.79665676653985
 20
237.2951336258846
 10
87.27343376653985
 20
237.6082436258846
 10
86.76403376653984
 20
237.9364606258846
 10
86.26726876653986
 20
238.2803626258846
 10
85.78600676653985
 20
238.6377846258846
 10
85.32024776653987
 20
239.0087256258846
 10
84.87636876653985
 20
239.3878766258846
 10
84.45263276653987
 20
239.7767006258846
 10
84.07015576653986
 20
240.1549666258846
 10
83.72393376653986
 20
240.5267616258846
 10
83.45724076653985
 20
240.8416426258846
 10
83.25857176653986
 20
241.1048256258846
 10
83.05627076653985
 20
241.4417396258846
 10
82.99752376653986
 20
241.6079386258846
  0
LWPOLYLINE
  5
2D5
330
1F
100
AcDbEntity
  8
0
 62
   253
370
    35
100
AcDbPolyline
 90
        9
 70
     0
 43
0.0
 10
133.1817587665399
 20
239.4869056258846
 10
134.6710167665398
 20
239.8613566258846
 10
135.4089927665398
 20
240.0777876258846
 10
136.1406817665398
 20
240.3146036258846
 10
136.7940937665398
 20
240.5484596258846
 10
137.4376787665398
 20
240.8081036258846
 10
137.8589437665398
 20
241.0041786258846
 10
138.2635757665398
 20
241.2323896258846
 10
138.4291647665398
 20
241.3514686258846
  0
LWPOLYLINE
  5
2D6
330
1F
100
AcDbEntity
  8
0
 62
   253
370
    35
100
AcDbPolyline
 90
        7
 70
     0
 43
0.0
 10
85.57564876653986
 20
241.3514686258846
 10
85.85030676653985
 20
241.1647316258846
 10
86.32995176653986
 20
240.9149756258846
 10
87.07787676653985
 20
240.5992106258846
 10
88.16332576653985
 20
240.2149026258846
 10
89.54680976653987
 20
239.8027626258846
 10
90.82305476653985
 20
239.4869056258846
  0
INSERT
  5
2D7
330
1F
100
AcDbEntity
  8
0
 62
    56
100
AcDbBlockReference
  2
IEC_309_oriz
 10
17.41826687653986
 20
124.8124484458846
 30
0.0
 41
0.9998528799999988
  0
INSERT
  5
2D8
330
1F
100
AcDbEntity
  8
0
 62
    56
100
AcDbBlockReference
  2
IEC_309_oriz
 10
17.41826687653986
 20
31.81244844588459
 30
0.0
 41
0.9998528799999988
  0
ENDSEC
  0
SECTION
  2
OBJECTS
  0
DICTIONARY
  5
C
330
0
100
AcDbDictionary
281
     1
  3
ACAD_COLOR
350
73
  3
ACAD_GROUP
350
D
  3
ACAD_LAYOUT
350
1A
  3
ACAD_MATERIAL
350
72
  3
ACAD_MLEADERSTYLE
350
D7
  3
ACAD_MLINESTYLE
350
17
  3
ACAD_PLOTSETTINGS
350
19
  3
ACAD_PLOTSTYLENAME
350
E
  3
ACAD_SCALELIST
350
B6
  3
ACAD_TABLESTYLE
350
86
  3
ACAD_VISUALSTYLE
350
99
  3
ACDB_RECOMPOSE_DATA
350
FF
  3
AcDbVariableDictionary
350
66
  3
DWGPROPS
350
315
  0
DICTIONARY
  5
E6
330
10
100
AcDbDictionary
280
     1
281
     1
  3
ADSK_XREC_LAYER_RECONCILED
360
30B
  0
DICTIONARY
  5
30C
330
174
100
AcDbDictionary
280
     1
281
     1
  3
ADSK_XREC_LAYER_RECONCILED
360
30D
  0
DICTIONARY
  5
30E
330
175
100
AcDbDictionary
280
     1
281
     1
  3
ADSK_XREC_LAYER_RECONCILED
360
30F
  0
DICTIONARY
  5
73
102
{ACAD_REACTORS
330
C
102
}
330
C
100
AcDbDictionary
281
     1
  0
DICTIONARY
  5
D
102
{ACAD_REACTORS
330
C
102
}
330
C
100
AcDbDictionary
281
     1
  0
DICTIONARY
  5
1A
102
{ACAD_REACTORS
330
C
102
}
330
C
100
AcDbDictionary
281
     1
  3
Layout1
350
59
  3
Layout2
350
5E
  3
Model
350
22
  0
DICTIONARY
  5
72
102
{ACAD_REACTORS
330
C
102
}
330
C
100
AcDbDictionary
281
     1
  3
ByBlock
350
97
  3
ByLayer
350
96
  3
Global
350
98
  0
DICTIONARY
  5
D7
102
{ACAD_REACTORS
330
C
102
}
330
C
100
AcDbDictionary
281
     1
  3
Annotativa
350
E5
  3
Standard
350
D8
  0
DICTIONARY
  5
17
102
{ACAD_REACTORS
330
C
102
}
330
C
100
AcDbDictionary
281
     1
  3
Standard
350
18
  0
DICTIONARY
  5
19
102
{ACAD_REACTORS
330
C
102
}
330
C
100
AcDbDictionary
281
     1
  0
ACDBDICTIONARYWDFLT
  5
E
102
{ACAD_REACTORS
330
C
102
}
330
C
100
AcDbDictionary
281
     1
  3
Normal
350
F
100
AcDbDictionaryWithDefault
340
F
  0
DICTIONARY
  5
B6
102
{ACAD_REACTORS
330
C
102
}
330
C
100
AcDbDictionary
281
     1
  3
A0
350
B7
  3
A1
350
124
  3
A2
350
125
  3
A3
350
126
  3
A4
350
127
  3
A5
350
128
  3
A6
350
129
  3
A7
350
12A
  3
A8
350
12B
  3
A9
350
12C
  3
B0
350
12D
  3
B1
350
12E
  3
B2
350
12F
  3
B3
350
130
  3
B4
350
131
  3
B5
350
132
  3
B6
350
133
  3
B7
350
134
  3
B8
350
135
  3
B9
350
136
  3
C0
350
137
  3
C1
350
138
  3
C2
350
139
  3
C3
350
13A
  3
C4
350
13B
  3
C5
350
13C
  3
C6
350
13D
  3
C7
350
13E
  3
C8
350
13F
  3
C9
350
140
  3
D0
350
141
  3
D1
350
142
  3
D2
350
143
  0
DICTIONARY
  5
86
102
{ACAD_REACTORS
330
C
102
}
330
C
100
AcDbDictionary
281
     1
  3
Standard
350
87
  0
DICTIONARY
  5
99
102
{ACAD_REACTORS
330
C
102
}
330
C
100
AcDbDictionary
281
     1
  3
2dWireframe
350
9F
  3
3D Hidden
350
A1
  3
3dWireframe
350
A0
  3
Basic
350
9E
  3
Brighten
350
A5
  3
ColorChange
350
A9
  3
Conceptual
350
A2
  3
Dim
350
A4
  3
Facepattern
350
A8
  3
Flat
350
9A
  3
FlatWithEdges
350
9B
  3
Gouraud
350
9C
  3
GouraudWithEdges
350
9D
  3
Linepattern
350
A7
  3
Realistic
350
A3
  3
Thicken
350
A6
  0
XRECORD
  5
FF
102
{ACAD_REACTORS
330
C
102
}
330
C
100
AcDbXrecord
280
     1
 90
        1
330
87
  0
DICTIONARY
  5
66
102
{ACAD_REACTORS
330
C
102
}
330
C
100
AcDbDictionary
281
     1
  3
CANNOSCALE
350
F0
  3
CMLEADERSTYLE
350
EF
  3
CTABLESTYLE
350
89
  3
DIMASSOC
350
67
  3
HIDETEXT
350
6B
  3
INDEXCTL
350
313
  3
LIGHTINGUNITS
350
311
  3
MSLTSCALE
350
310
  3
SORTENTS
350
312
  0
XRECORD
  5
315
102
{ACAD_REACTORS
330
C
102
}
330
C
100
AcDbXrecord
280
     1
  1
DWGPROPS COOKIE
  2

  3

  4

  6

  7

  8
fontanaNZ
  9

300
=
301
=
302
=
303
=
304
=
305
=
306
=
307
=
308
=
309
=
 40
0.0001471527777778
 41
2455511.364075093
 42
2455511.364222246
  1

 90
        0
  0
XRECORD
  5
30B
102
{ACAD_REACTORS
330
E6
102
}
330
E6
100
AcDbXrecord
280
     1
290
     1
  0
XRECORD
  5
30D
102
{ACAD_REACTORS
330
30C
102
}
330
30C
100
AcDbXrecord
280
     1
290
     1
  0
XRECORD
  5
30F
102
{ACAD_REACTORS
330
30E
102
}
330
30E
100
AcDbXrecord
280
     1
290
     1
  0
LAYOUT
  5
59
102
{ACAD_XDICTIONARY
360
318
102
}
102
{ACAD_REACTORS
330
1A
102
}
330
1A
100
AcDbPlotSettings
  1

  2
None
  4

  6

 40
0.0
 41
0.0
 42
0.0
 43
0.0
 44
0.0
 45
0.0
 46
0.0
 47
0.0
 48
0.0
 49
0.0
140
0.0
141
0.0
142
1.0
143
1.0
 70
   688
 72
     0
 73
     0
 74
     5
  7

 75
    16
147
1.0
148
0.0
149
0.0
100
AcDbLayout
  1
Layout1
 70
     1
 71
     1
 10
0.0
 20
0.0
 11
12.0
 21
9.0
 12
0.0
 22
0.0
 32
0.0
 14
0.0
 24
0.0
 34
0.0
 15
0.0
 25
0.0
 35
0.0
146
0.0
 13
0.0
 23
0.0
 33
0.0
 16
1.0
 26
0.0
 36
0.0
 17
0.0
 27
1.0
 37
0.0
 76
     0
330
58
  0
LAYOUT
  5
5E
102
{ACAD_XDICTIONARY
360
31A
102
}
102
{ACAD_REACTORS
330
1A
102
}
330
1A
100
AcDbPlotSettings
  1

  2
None
  4

  6

 40
0.0
 41
0.0
 42
0.0
 43
0.0
 44
0.0
 45
0.0
 46
0.0
 47
0.0
 48
0.0
 49
0.0
140
0.0
141
0.0
142
1.0
143
1.0
 70
   688
 72
     0
 73
     0
 74
     5
  7

 75
    16
147
1.0
148
0.0
149
0.0
100
AcDbLayout
  1
Layout2
 70
     1
 71
     2
 10
0.0
 20
0.0
 11
12.0
 21
9.0
 12
0.0
 22
0.0
 32
0.0
 14
0.0
 24
0.0
 34
0.0
 15
0.0
 25
0.0
 35
0.0
146
0.0
 13
0.0
 23
0.0
 33
0.0
 16
1.0
 26
0.0
 36
0.0
 17
0.0
 27
1.0
 37
0.0
 76
     0
330
5D
  0
LAYOUT
  5
22
102
{ACAD_XDICTIONARY
360
316
102
}
102
{ACAD_REACTORS
330
1A
102
}
330
1A
100
AcDbPlotSettings
  1

  2
none_device
  4
ANSI_A_(8.50_x_11.00_Inches)
  6

 40
6.349999904632568
 41
19.04999923706055
 42
6.350006103515625
 43
19.04998779296875
 44
215.8999938964844
 45
279.3999938964844
 46
0.0
 47
0.0
 48
0.0
 49
0.0
140
0.0
141
0.0
142
1.0
143
2.584895464708373
 70
 11952
 72
     0
 73
     1
 74
     0
  7

 75
     0
147
0.3868628397755418
148
0.0
149
0.0
100
AcDbLayout
  1
Model
 70
     1
 71
     0
 10
0.0
 20
0.0
 11
12.0
 21
9.0
 12
0.0
 22
0.0
 32
0.0
 14
0.0
 24
0.0
 34
0.0
 15
0.0
 25
0.0
 35
0.0
146
0.0
 13
0.0
 23
0.0
 33
0.0
 16
1.0
 26
0.0
 36
0.0
 17
0.0
 27
1.0
 37
0.0
 76
     0
330
1F
331
94
  0
MATERIAL
  5
97
102
{ACAD_XDICTIONARY
360
31F
102
}
102
{ACAD_REACTORS
330
72
102
}
330
72
100
AcDbMaterial
  1
ByBlock
  0
MATERIAL
  5
96
102
{ACAD_XDICTIONARY
360
31D
102
}
102
{ACAD_REACTORS
330
72
102
}
330
72
100
AcDbMaterial
  1
ByLayer
  0
MATERIAL
  5
98
102
{ACAD_XDICTIONARY
360
110
102
}
102
{ACAD_REACTORS
330
72
102
}
330
72
100
AcDbMaterial
  1
Global
 43
0.0208000000566244
 43
0.0
 43
0.0
 43
0.0
 43
0.0
 43
0.0208000000566244
 43
0.0
 43
0.0
 43
0.0
 43
0.0
 43
1.0
 43
0.0
 43
0.0
 43
0.0
 43
0.0
 43
1.0
 49
0.0208000000566244
 49
0.0
 49
0.0
 49
0.0
 49
0.0
 49
0.0208000000566244
 49
0.0
 49
0.0
 49
0.0
 49
0.0
 49
1.0
 49
0.0
 49
0.0
 49
0.0
 49
0.0
 49
1.0
142
0.0208000000566244
142
0.0
142
0.0
142
0.0
142
0.0
142
0.0208000000566244
142
0.0
142
0.0
142
0.0
142
0.0
142
1.0
142
0.0
142
0.0
142
0.0
142
0.0
142
1.0
144
0.0208000000566244
144
0.0
144
0.0
144
0.0
144
0.0
144
0.0208000000566244
144
0.0
144
0.0
144
0.0
144
0.0
144
1.0
144
0.0
144
0.0
144
0.0
144
0.0
144
1.0
1001
ACAD
1070
    -1
1070
     3
1070
     0
1000

1071
        0
1070
     0
  0
MLEADERSTYLE
  5
E5
102
{ACAD_REACTORS
330
D7
102
}
330
D7
100
AcDbMLeaderStyle
170
     2
171
     1
172
     0
 90
        2
 40
0.0
 41
0.0
173
     1
 91
-1056964608
340
14
 92
       -2
290
     1
 42
0.09
291
     1
 43
0.36
  3
Standard
 44
0.18
300

342
11
174
     1
178
     1
175
     1
176
     0
 93
-1056964608
 45
0.18
292
     0
297
     0
 46
0.18
 94
-1056964608
 47
1.0
 49
1.0
140
1.0
293
     1
141
0.0
294
     1
177
     0
142
1.0
295
     0
296
     1
143
0.125
1001
ACAD_MLEADERVER
1070
     2
  0
MLEADERSTYLE
  5
D8
102
{ACAD_REACTORS
330
D7
102
}
330
D7
100
AcDbMLeaderStyle
170
     2
171
     1
172
     0
 90
        2
 40
0.0
 41
0.0
173
     1
 91
-1056964608
340
14
 92
       -2
290
     1
 42
0.09
291
     1
 43
0.36
  3
Standard
 44
0.18
300

342
11
174
     1
178
     1
175
     1
176
     0
 93
-1056964608
 45
0.18
292
     0
297
     0
 46
0.18
 94
-1056964608
 47
1.0
 49
1.0
140
1.0
293
     1
141
0.0
294
     1
177
     0
142
1.0
295
     0
296
     0
143
0.125
1001
ACAD_MLEADERVER
1070
     2
  0
MLINESTYLE
  5
18
102
{ACAD_REACTORS
330
17
102
}
330
17
100
AcDbMlineStyle
  2
STANDARD
 70
     0
  3

 62
   256
 51
90.0
 52
90.0
 71
     2
 49
0.5
 62
   256
  6
BYLAYER
 49
-0.5
 62
   256
  6
BYLAYER
  0
ACDBPLACEHOLDER
  5
F
102
{ACAD_REACTORS
330
E
102
}
330
E
  0
SCALE
  5
B7
102
{ACAD_REACTORS
330
B6
102
}
330
B6
100
AcDbScale
 70
     0
300
1:1
140
1.0
141
1.0
290
     1
  0
SCALE
  5
124
102
{ACAD_REACTORS
330
B6
102
}
330
B6
100
AcDbScale
 70
     0
300
1:2
140
1.0
141
2.0
290
     0
  0
SCALE
  5
125
102
{ACAD_REACTORS
330
B6
102
}
330
B6
100
AcDbScale
 70
     0
300
1:4
140
1.0
141
4.0
290
     0
  0
SCALE
  5
126
102
{ACAD_REACTORS
330
B6
102
}
330
B6
100
AcDbScale
 70
     0
300
1:5
140
1.0
141
5.0
290
     0
  0
SCALE
  5
127
102
{ACAD_REACTORS
330
B6
102
}
330
B6
100
AcDbScale
 70
     0
300
1:8
140
1.0
141
8.0
290
     0
  0
SCALE
  5
128
102
{ACAD_REACTORS
330
B6
102
}
330
B6
100
AcDbScale
 70
     0
300
1:10
140
1.0
141
10.0
290
     0
  0
SCALE
  5
129
102
{ACAD_REACTORS
330
B6
102
}
330
B6
100
AcDbScale
 70
     0
300
1:16
140
1.0
141
16.0
290
     0
  0
SCALE
  5
12A
102
{ACAD_REACTORS
330
B6
102
}
330
B6
100
AcDbScale
 70
     0
300
1:20
140
1.0
141
20.0
290
     0
  0
SCALE
  5
12B
102
{ACAD_REACTORS
330
B6
102
}
330
B6
100
AcDbScale
 70
     0
300
1:30
140
1.0
141
30.0
290
     0
  0
SCALE
  5
12C
102
{ACAD_REACTORS
330
B6
102
}
330
B6
100
AcDbScale
 70
     0
300
1:40
140
1.0
141
40.0
290
     0
  0
SCALE
  5
12D
102
{ACAD_REACTORS
330
B6
102
}
330
B6
100
AcDbScale
 70
     0
300
1:50
140
1.0
141
50.0
290
     0
  0
SCALE
  5
12E
102
{ACAD_REACTORS
330
B6
102
}
330
B6
100
AcDbScale
 70
     0
300
1:100
140
1.0
141
100.0
290
     0
  0
SCALE
  5
12F
102
{ACAD_REACTORS
330
B6
102
}
330
B6
100
AcDbScale
 70
     0
300
2:1
140
2.0
141
1.0
290
     0
  0
SCALE
  5
130
102
{ACAD_REACTORS
330
B6
102
}
330
B6
100
AcDbScale
 70
     0
300
4:1
140
4.0
141
1.0
290
     0
  0
SCALE
  5
131
102
{ACAD_REACTORS
330
B6
102
}
330
B6
100
AcDbScale
 70
     0
300
8:1
140
8.0
141
1.0
290
     0
  0
SCALE
  5
132
102
{ACAD_REACTORS
330
B6
102
}
330
B6
100
AcDbScale
 70
     0
300
10:1
140
10.0
141
1.0
290
     0
  0
SCALE
  5
133
102
{ACAD_REACTORS
330
B6
102
}
330
B6
100
AcDbScale
 70
     0
300
100:1
140
100.0
141
1.0
290
     0
  0
SCALE
  5
134
102
{ACAD_REACTORS
330
B6
102
}
330
B6
100
AcDbScale
 70
     0
300
1/128" = 1'-0"
140
0.0078125
141
12.0
290
     0
  0
SCALE
  5
135
102
{ACAD_REACTORS
330
B6
102
}
330
B6
100
AcDbScale
 70
     0
300
1/64" = 1'-0"
140
0.015625
141
12.0
290
     0
  0
SCALE
  5
136
102
{ACAD_REACTORS
330
B6
102
}
330
B6
100
AcDbScale
 70
     0
300
1/32" = 1'-0"
140
0.03125
141
12.0
290
     0
  0
SCALE
  5
137
102
{ACAD_REACTORS
330
B6
102
}
330
B6
100
AcDbScale
 70
     0
300
1/16" = 1'-0"
140
0.0625
141
12.0
290
     0
  0
SCALE
  5
138
102
{ACAD_REACTORS
330
B6
102
}
330
B6
100
AcDbScale
 70
     0
300
3/32" = 1'-0"
140
0.09375
141
12.0
290
     0
  0
SCALE
  5
139
102
{ACAD_REACTORS
330
B6
102
}
330
B6
100
AcDbScale
 70
     0
300
1/8" = 1'-0"
140
0.125
141
12.0
290
     0
  0
SCALE
  5
13A
102
{ACAD_REACTORS
330
B6
102
}
330
B6
100
AcDbScale
 70
     0
300
3/16" = 1'-0"
140
0.1875
141
12.0
290
     0
  0
SCALE
  5
13B
102
{ACAD_REACTORS
330
B6
102
}
330
B6
100
AcDbScale
 70
     0
300
1/4" = 1'-0"
140
0.25
141
12.0
290
     0
  0
SCALE
  5
13C
102
{ACAD_REACTORS
330
B6
102
}
330
B6
100
AcDbScale
 70
     0
300
3/8" = 1'-0"
140
0.375
141
12.0
290
     0
  0
SCALE
  5
13D
102
{ACAD_REACTORS
330
B6
102
}
330
B6
100
AcDbScale
 70
     0
300
1/2" = 1'-0"
140
0.5
141
12.0
290
     0
  0
SCALE
  5
13E
102
{ACAD_REACTORS
330
B6
102
}
330
B6
100
AcDbScale
 70
     0
300
3/4" = 1'-0"
140
0.75
141
12.0
290
     0
  0
SCALE
  5
13F
102
{ACAD_REACTORS
330
B6
102
}
330
B6
100
AcDbScale
 70
     0
300
1" = 1'-0"
140
1.0
141
12.0
290
     0
  0
SCALE
  5
140
102
{ACAD_REACTORS
330
B6
102
}
330
B6
100
AcDbScale
 70
     0
300
1-1/2" = 1'-0"
140
1.5
141
12.0
290
     0
  0
SCALE
  5
141
102
{ACAD_REACTORS
330
B6
102
}
330
B6
100
AcDbScale
 70
     0
300
3" = 1'-0"
140
3.0
141
12.0
290
     0
  0
SCALE
  5
142
102
{ACAD_REACTORS
330
B6
102
}
330
B6
100
AcDbScale
 70
     0
300
6" = 1'-0"
140
6.0
141
12.0
290
     0
  0
SCALE
  5
143
102
{ACAD_REACTORS
330
B6
102
}
330
B6
100
AcDbScale
 70
     0
300
1'-0" = 1'-0"
140
12.0
141
12.0
290
     0
  0
TABLESTYLE
  5
87
102
{ACAD_XDICTIONARY
360
104
102
}
102
{ACAD_REACTORS
330
86
102
}
330
86
100
AcDbTableStyle
  3
Standard
 70
     0
 71
     0
 40
0.06
 41
0.06
280
     0
281
     0
  7
Standard
140
0.18
170
     2
 62
     0
 63
     7
283
     0
274
    -2
284
     1
 64
     0
275
    -2
285
     1
 65
     0
276
    -2
286
     1
 66
     0
277
    -2
287
     1
 67
     0
278
    -2
288
     1
 68
     0
279
    -2
289
     1
 69
     0
  7
Standard
140
0.25
170
     5
 62
     0
 63
     7
283
     0
274
    -2
284
     1
 64
     0
275
    -2
285
     1
 65
     0
276
    -2
286
     1
 66
     0
277
    -2
287
     1
 67
     0
278
    -2
288
     1
 68
     0
279
    -2
289
     1
 69
     0
  7
Standard
140
0.18
170
     5
 62
     0
 63
     7
283
     0
274
    -2
284
     1
 64
     0
275
    -2
285
     1
 65
     0
276
    -2
286
     1
 66
     0
277
    -2
287
     1
 67
     0
278
    -2
288
     1
 68
     0
279
    -2
289
     1
 69
     0
  0
VISUALSTYLE
  5
9F
102
{ACAD_REACTORS
330
99
102
}
330
99
100
AcDbVisualStyle
  2
2dWireframe
 70
     4
 71
     0
 72
     2
 73
     1
 90
        0
 40
-0.6
 41
-30.0
 62
     5
 63
     7
 74
     1
 91
        4
 64
     7
 65
   257
 75
     1
175
     1
 42
1.0
 92
        0
 66
   257
 43
1.0
 76
     1
 77
     6
 78
     2
 67
     7
 79
     5
170
     0
171
     0
290
     0
174
     0
 93
        1
 44
0.0
173
     0
291
     0
 45
0.0
1001
ACAD
1000
AcDbSavedByObjectVersion
1070
     0
  0
VISUALSTYLE
  5
A1
102
{ACAD_REACTORS
330
99
102
}
330
99
100
AcDbVisualStyle
  2
3D Hidden
 70
     6
 71
     1
 72
     2
 73
     2
 90
        0
 40
-0.6
 41
-30.0
 62
     5
 63
     7
 74
     2
 91
        2
 64
     7
 65
   257
 75
     2
175
     1
 42
40.0
 92
        0
 66
   257
 43
1.0
 76
     1
 77
     6
 78
     2
 67
     7
 79
     3
170
     0
171
     0
290
     0
174
     0
 93
        1
 44
0.0
173
     0
291
     0
 45
0.0
1001
ACAD
1000
AcDbSavedByObjectVersion
1070
     0
  0
VISUALSTYLE
  5
A0
102
{ACAD_REACTORS
330
99
102
}
330
99
100
AcDbVisualStyle
  2
3dWireframe
 70
     5
 71
     0
 72
     2
 73
     1
 90
        0
 40
-0.6
 41
-30.0
 62
     5
 63
     7
 74
     1
 91
        4
 64
     7
 65
   257
 75
     1
175
     1
 42
1.0
 92
        0
 66
   257
 43
1.0
 76
     1
 77
     6
 78
     2
 67
     7
 79
     5
170
     0
171
     0
290
     0
174
     0
 93
        1
 44
0.0
173
     0
291
     0
 45
0.0
1001
ACAD
1000
AcDbSavedByObjectVersion
1070
     0
  0
VISUALSTYLE
  5
9E
102
{ACAD_REACTORS
330
99
102
}
330
99
100
AcDbVisualStyle
  2
Basic
 70
     7
 71
     1
 72
     0
 73
     1
 90
        0
 40
-0.6
 41
-30.0
 62
     5
 63
     7
 74
     0
 91
        4
 64
     7
 65
   257
 75
     1
175
     1
 42
1.0
 92
        8
 66
     7
 43
1.0
 76
     1
 77
     6
 78
     2
 67
     7
 79
     5
170
     0
171
     0
290
     0
174
     0
 93
        1
 44
0.0
173
     0
291
     1
 45
0.0
1001
ACAD
1000
AcDbSavedByObjectVersion
1070
     0
  0
VISUALSTYLE
  5
A5
102
{ACAD_REACTORS
330
99
102
}
330
99
100
AcDbVisualStyle
  2
Brighten
 70
    12
 71
     2
 72
     2
 73
     1
 90
        0
 40
-0.6
 41
-30.0
 62
     5
 63
     7
 74
     1
 91
        4
 64
     7
 65
   257
 75
     1
175
     1
 42
1.0
 92
        8
 66
     7
 43
1.0
 76
     1
 77
     6
 78
     2
 67
     7
 79
     5
170
     0
171
     0
290
     0
174
     0
 93
        1
 44
50.0
173
     0
291
     1
 45
0.0
1001
ACAD
1000
AcDbSavedByObjectVersion
1070
     0
  0
VISUALSTYLE
  5
A9
102
{ACAD_REACTORS
330
99
102
}
330
99
100
AcDbVisualStyle
  2
ColorChange
 70
    16
 71
     2
 72
     2
 73
     3
 90
        0
 40
-0.6
 41
-30.0
 62
     5
 63
     8
 74
     1
 91
        4
 64
     7
 65
   257
 75
     1
175
     1
 42
1.0
 92
        8
 66
     8
 43
1.0
 76
     1
 77
     6
 78
     2
 67
     7
 79
     5
170
     0
171
     0
290
     0
174
     0
 93
        1
 44
0.0
173
     0
291
     1
 45
0.0
1001
ACAD
1000
AcDbSavedByObjectVersion
1070
     0
  0
VISUALSTYLE
  5
A2
102
{ACAD_REACTORS
330
99
102
}
330
99
100
AcDbVisualStyle
  2
Conceptual
 70
     9
 71
     3
 72
     2
 73
     1
 90
        0
 40
-0.6
 41
-30.0
 62
     5
 63
     7
 74
     2
 91
        2
 64
     7
 65
   257
 75
     1
175
     1
 42
40.0
 92
        8
 66
     7
 43
1.0
 76
     1
 77
     6
 78
     2
 67
     7
 79
     3
170
     0
171
     0
290
     0
174
     0
 93
        1
 44
0.0
173
     0
291
     0
 45
0.0
1001
ACAD
1000
AcDbSavedByObjectVersion
1070
     0
  0
VISUALSTYLE
  5
A4
102
{ACAD_REACTORS
330
99
102
}
330
99
100
AcDbVisualStyle
  2
Dim
 70
    11
 71
     2
 72
     2
 73
     1
 90
        0
 40
-0.6
 41
-30.0
 62
     5
 63
     7
 74
     1
 91
        4
 64
     7
 65
   257
 75
     1
175
     1
 42
1.0
 92
        8
 66
     7
 43
1.0
 76
     1
 77
     6
 78
     2
 67
     7
 79
     5
170
     0
171
     0
290
     0
174
     0
 93
        1
 44
-50.0
173
     0
291
     1
 45
0.0
1001
ACAD
1000
AcDbSavedByObjectVersion
1070
     0
  0
VISUALSTYLE
  5
A8
102
{ACAD_REACTORS
330
99
102
}
330
99
100
AcDbVisualStyle
  2
Facepattern
 70
    15
 71
     2
 72
     2
 73
     1
 90
        0
 40
-0.6
 41
-30.0
 62
     5
 63
     7
 74
     1
 91
        4
 64
     7
 65
   257
 75
     1
175
     1
 42
1.0
 92
        8
 66
     7
 43
1.0
 76
     1
 77
     6
 78
     2
 67
     7
 79
     5
170
     0
171
     0
290
     0
174
     0
 93
        1
 44
0.0
173
     0
291
     1
 45
0.0
1001
ACAD
1000
AcDbSavedByObjectVersion
1070
     0
  0
VISUALSTYLE
  5
9A
102
{ACAD_REACTORS
330
99
102
}
330
99
100
AcDbVisualStyle
  2
Flat
 70
     0
 71
     2
 72
     1
 73
     1
 90
        2
 40
-0.6
 41
30.0
 62
     5
 63
     7
 74
     0
 91
        4
 64
     7
 65
   257
 75
     1
175
     1
 42
1.0
 92
        8
 66
     7
 43
1.0
 76
     1
 77
     6
 78
     2
 67
     7
 79
     5
170
     0
171
     0
290
     0
174
     0
 93
        1
 44
0.0
173
     0
291
     1
 45
0.0
1001
ACAD
1000
AcDbSavedByObjectVersion
1070
     0
  0
VISUALSTYLE
  5
9B
102
{ACAD_REACTORS
330
99
102
}
330
99
100
AcDbVisualStyle
  2
FlatWithEdges
 70
     1
 71
     2
 72
     1
 73
     1
 90
        2
 40
-0.6
 41
30.0
 62
     5
 63
     7
 74
     1
 91
        4
 64
     7
 65
   257
 75
     1
175
     1
 42
1.0
 92
        0
 66
   257
 43
1.0
 76
     1
 77
     6
 78
     2
 67
     7
 79
     5
170
     0
171
     0
290
     0
174
     0
 93
        1
 44
0.0
173
     0
291
     1
 45
0.0
1001
ACAD
1000
AcDbSavedByObjectVersion
1070
     0
  0
VISUALSTYLE
  5
9C
102
{ACAD_REACTORS
330
99
102
}
330
99
100
AcDbVisualStyle
  2
Gouraud
 70
     2
 71
     2
 72
     2
 73
     1
 90
        2
 40
-0.6
 41
30.0
 62
     5
 63
     7
 74
     0
 91
        4
 64
     7
 65
   257
 75
     1
175
     1
 42
1.0
 92
        0
 66
     7
 43
1.0
 76
     1
 77
     6
 78
     2
 67
     7
 79
     5
170
     0
171
     0
290
     0
174
     0
 93
        1
 44
0.0
173
     0
291
     1
 45
0.0
1001
ACAD
1000
AcDbSavedByObjectVersion
1070
     0
  0
VISUALSTYLE
  5
9D
102
{ACAD_REACTORS
330
99
102
}
330
99
100
AcDbVisualStyle
  2
GouraudWithEdges
 70
     3
 71
     2
 72
     2
 73
     1
 90
        2
 40
-0.6
 41
30.0
 62
     5
 63
     7
 74
     1
 91
        4
 64
     7
 65
   257
 75
     1
175
     1
 42
1.0
 92
        0
 66
   257
 43
1.0
 76
     1
 77
     6
 78
     2
 67
     7
 79
     5
170
     0
171
     0
290
     0
174
     0
 93
        1
 44
0.0
173
     0
291
     1
 45
0.0
1001
ACAD
1000
AcDbSavedByObjectVersion
1070
     0
  0
VISUALSTYLE
  5
A7
102
{ACAD_REACTORS
330
99
102
}
330
99
100
AcDbVisualStyle
  2
Linepattern
 70
    14
 71
     2
 72
     2
 73
     1
 90
        0
 40
-0.6
 41
-30.0
 62
     5
 63
     7
 74
     1
 91
        4
 64
     7
 65
   257
 75
     7
175
     7
 42
1.0
 92
        8
 66
     7
 43
1.0
 76
     1
 77
     6
 78
     2
 67
     7
 79
     5
170
     0
171
     0
290
     0
174
     0
 93
        1
 44
0.0
173
     0
291
     1
 45
0.0
1001
ACAD
1000
AcDbSavedByObjectVersion
1070
     0
  0
VISUALSTYLE
  5
A3
102
{ACAD_REACTORS
330
99
102
}
330
99
100
AcDbVisualStyle
  2
Realistic
 70
     8
 71
     2
 72
     2
 73
     1
 90
        0
 40
-0.6
 41
-30.0
 62
     5
 63
     7
 74
     1
 91
        0
 64
     7
 65
   257
 75
     1
175
     1
 42
1.0
 92
        8
 66
     8
 43
1.0
 76
     1
 77
     6
 78
     2
 67
     7
 79
     5
170
     0
171
     0
290
     0
174
     0
 93
       13
 44
0.0
173
     0
291
     0
 45
0.0
1001
ACAD
1000
AcDbSavedByObjectVersion
1070
     0
  0
VISUALSTYLE
  5
A6
102
{ACAD_REACTORS
330
99
102
}
330
99
100
AcDbVisualStyle
  2
Thicken
 70
    13
 71
     2
 72
     2
 73
     1
 90
        0
 40
-0.6
 41
-30.0
 62
     5
 63
     7
 74
     1
 91
        4
 64
     7
 65
   257
 75
     1
175
     1
 42
1.0
 92
       12
 66
     7
 43
1.0
 76
     1
 77
     6
 78
     2
 67
     7
 79
     5
170
     0
171
     0
290
     0
174
     0
 93
        1
 44
0.0
173
     0
291
     1
 45
0.0
1001
ACAD
1000
AcDbSavedByObjectVersion
1070
     0
  0
DICTIONARYVAR
  5
F0
102
{ACAD_REACTORS
330
66
102
}
330
66
100
DictionaryVariables
280
     0
  1
1:1
  0
DICTIONARYVAR
  5
EF
102
{ACAD_REACTORS
330
66
102
}
330
66
100
DictionaryVariables
280
     0
  1
STANDARD
  0
DICTIONARYVAR
  5
89
102
{ACAD_REACTORS
330
66
102
}
330
66
100
DictionaryVariables
280
     0
  1
STANDARD
  0
DICTIONARYVAR
  5
67
102
{ACAD_REACTORS
330
66
102
}
330
66
100
DictionaryVariables
280
     0
  1
2
  0
DICTIONARYVAR
  5
6B
102
{ACAD_REACTORS
330
66
102
}
330
66
100
DictionaryVariables
280
     0
  1
1
  0
DICTIONARYVAR
  5
313
102
{ACAD_REACTORS
330
66
102
}
330
66
100
DictionaryVariables
280
     0
  1
0
  0
DICTIONARYVAR
  5
311
102
{ACAD_REACTORS
330
66
102
}
330
66
100
DictionaryVariables
280
     0
  1
2
  0
DICTIONARYVAR
  5
310
102
{ACAD_REACTORS
330
66
102
}
330
66
100
DictionaryVariables
280
     0
  1
1
  0
DICTIONARYVAR
  5
312
102
{ACAD_REACTORS
330
66
102
}
330
66
100
DictionaryVariables
280
     0
  1
127
  0
DICTIONARY
  5
318
330
59
100
AcDbDictionary
280
     1
281
     1
  3
ACAD_XREC_ROUNDTRIP
360
319
  0
DICTIONARY
  5
31A
330
5E
100
AcDbDictionary
280
     1
281
     1
  3
ACAD_XREC_ROUNDTRIP
360
31B
  0
DICTIONARY
  5
316
330
22
100
AcDbDictionary
280
     1
281
     1
  3
ACAD_XREC_ROUNDTRIP
360
317
  0
DICTIONARY
  5
31F
330
97
100
AcDbDictionary
280
     1
281
     1
  3
ACAD_XREC_ROUNDTRIP
360
320
  0
DICTIONARY
  5
31D
330
96
100
AcDbDictionary
280
     1
281
     1
  3
ACAD_XREC_ROUNDTRIP
360
31E
  0
DICTIONARY
  5
110
330
98
100
AcDbDictionary
280
     1
281
     1
  3
ACAD_XREC_ROUNDTRIP
360
321
  3
BUMPTILE
360
112
  3
DIFFUSETILE
360
111
  3
OPACITYTILE
360
113
  3
REFLECTIONTILE
360
114
  0
DICTIONARY
  5
104
330
87
100
AcDbDictionary
280
     1
281
     1
  3
ACAD_ROUNDTRIP_2008_TABLESTYLE_CELLSTYLEMAP
360
314
  3
ACAD_XREC_ROUNDTRIP
360
31C
  0
XRECORD
  5
319
102
{ACAD_REACTORS
330
318
102
}
330
318
100
AcDbXrecord
280
     1
102
SHADEPLOT
 70
     0
102
SHADEPLOTRESLEVEL
 70
     2
102
SHADEPLOTCUSTOMDPI
 70
   300
  0
XRECORD
  5
31B
102
{ACAD_REACTORS
330
31A
102
}
330
31A
100
AcDbXrecord
280
     1
102
SHADEPLOT
 70
     0
102
SHADEPLOTRESLEVEL
 70
     2
102
SHADEPLOTCUSTOMDPI
 70
   300
  0
XRECORD
  5
317
102
{ACAD_REACTORS
330
316
102
}
330
316
100
AcDbXrecord
280
     1
102
SHADEPLOT
 70
     0
102
SHADEPLOTRESLEVEL
 70
     2
102
SHADEPLOTCUSTOMDPI
 70
   300
  0
XRECORD
  5
320
102
{ACAD_REACTORS
330
31F
102
}
330
31F
100
AcDbXrecord
280
     1
102
MATERIAL
148
0.0
149
0.0
149
0.0
 93
        0
 94
       63
282
     0
 72
     1
 77
     1
171
     1
175
     1
179
     1
273
     0
  0
XRECORD
  5
31E
102
{ACAD_REACTORS
330
31D
102
}
330
31D
100
AcDbXrecord
280
     1
102
MATERIAL
148
0.0
149
0.0
149
0.0
 93
        0
 94
       63
282
     0
 72
     1
 77
     1
171
     1
175
     1
179
     1
273
     0
  0
XRECORD
  5
321
102
{ACAD_REACTORS
330
110
102
}
330
110
100
AcDbXrecord
280
     1
102
MATERIAL
148
0.0
149
0.0
149
0.0
 93
        0
 94
       63
282
     0
 72
     1
 77
     1
171
     1
175
     1
179
     1
273
     0
  0
XRECORD
  5
112
102
{ACAD_REACTORS
330
110
102
}
330
110
100
AcDbXrecord
280
     1
270
     1
271
     1
  0
XRECORD
  5
111
102
{ACAD_REACTORS
330
110
102
}
330
110
100
AcDbXrecord
280
     1
270
     1
271
     1
  0
XRECORD
  5
113
102
{ACAD_REACTORS
330
110
102
}
330
110
100
AcDbXrecord
280
     1
270
     1
271
     1
  0
XRECORD
  5
114
102
{ACAD_REACTORS
330
110
102
}
330
110
100
AcDbXrecord
280
     1
270
     1
271
     1
  0
CELLSTYLEMAP
  5
314
102
{ACAD_REACTORS
330
104
102
}
330
104
100
AcDbCellStyleMap
 90
        3
300
CELLSTYLE
  1
TABLEFORMAT_BEGIN
 90
        5
170
     1
 91
        0
 92
    32768
 62
   257
 93
        1
300
CONTENTFORMAT
  1
CONTENTFORMAT_BEGIN
 90
        0
 91
        0
 92
      512
 93
        0
300

 40
0.0
140
1.0
 94
        5
 62
     0
340
11
144
0.25
309
CONTENTFORMAT_END
171
     1
301
MARGIN
  1
CELLMARGIN_BEGIN
 40
0.06
 40
0.06
 40
0.06
 40
0.06
 40
0.18
 40
0.18
309
CELLMARGIN_END
 94
        6
 95
        1
302
GRIDFORMAT
  1
GRIDFORMAT_BEGIN
 90
        0
 91
        1
 62
     0
 92
       -2
340
0
 93
        0
 40
0.045
309
GRIDFORMAT_END
 95
        2
302
GRIDFORMAT
  1
GRIDFORMAT_BEGIN
 90
        0
 91
        1
 62
     0
 92
       -2
340
0
 93
        0
 40
0.045
309
GRIDFORMAT_END
 95
        4
302
GRIDFORMAT
  1
GRIDFORMAT_BEGIN
 90
        0
 91
        1
 62
     0
 92
       -2
340
0
 93
        0
 40
0.045
309
GRIDFORMAT_END
 95
        8
302
GRIDFORMAT
  1
GRIDFORMAT_BEGIN
 90
        0
 91
        1
 62
     0
 92
       -2
340
0
 93
        0
 40
0.045
309
GRIDFORMAT_END
 95
       16
302
GRIDFORMAT
  1
GRIDFORMAT_BEGIN
 90
        0
 91
        1
 62
     0
 92
       -2
340
0
 93
        0
 40
0.045
309
GRIDFORMAT_END
 95
       32
302
GRIDFORMAT
  1
GRIDFORMAT_BEGIN
 90
        0
 91
        1
 62
     0
 92
       -2
340
0
 93
        0
 40
0.045
309
GRIDFORMAT_END
309
TABLEFORMAT_END
  1
CELLSTYLE_BEGIN
 90
        1
 91
        1
300
_TITLE
309
CELLSTYLE_END
300
CELLSTYLE
  1
TABLEFORMAT_BEGIN
 90
        5
170
     1
 91
        0
 92
        0
 62
   257
 93
        1
300
CONTENTFORMAT
  1
CONTENTFORMAT_BEGIN
 90
        0
 91
        0
 92
      512
 93
        0
300

 40
0.0
140
1.0
 94
        5
 62
     0
340
11
144
0.18
309
CONTENTFORMAT_END
171
     1
301
MARGIN
  1
CELLMARGIN_BEGIN
 40
0.06
 40
0.06
 40
0.06
 40
0.06
 40
0.18
 40
0.18
309
CELLMARGIN_END
 94
        6
 95
        1
302
GRIDFORMAT
  1
GRIDFORMAT_BEGIN
 90
        0
 91
        1
 62
     0
 92
       -2
340
0
 93
        0
 40
0.045
309
GRIDFORMAT_END
 95
        2
302
GRIDFORMAT
  1
GRIDFORMAT_BEGIN
 90
        0
 91
        1
 62
     0
 92
       -2
340
0
 93
        0
 40
0.045
309
GRIDFORMAT_END
 95
        4
302
GRIDFORMAT
  1
GRIDFORMAT_BEGIN
 90
        0
 91
        1
 62
     0
 92
       -2
340
0
 93
        0
 40
0.045
309
GRIDFORMAT_END
 95
        8
302
GRIDFORMAT
  1
GRIDFORMAT_BEGIN
 90
        0
 91
        1
 62
     0
 92
       -2
340
0
 93
        0
 40
0.045
309
GRIDFORMAT_END
 95
       16
302
GRIDFORMAT
  1
GRIDFORMAT_BEGIN
 90
        0
 91
        1
 62
     0
 92
       -2
340
0
 93
        0
 40
0.045
309
GRIDFORMAT_END
 95
       32
302
GRIDFORMAT
  1
GRIDFORMAT_BEGIN
 90
        0
 91
        1
 62
     0
 92
       -2
340
0
 93
        0
 40
0.045
309
GRIDFORMAT_END
309
TABLEFORMAT_END
  1
CELLSTYLE_BEGIN
 90
        2
 91
        1
300
_HEADER
309
CELLSTYLE_END
300
CELLSTYLE
  1
TABLEFORMAT_BEGIN
 90
        5
170
     1
 91
        0
 92
        0
 62
   257
 93
        1
300
CONTENTFORMAT
  1
CONTENTFORMAT_BEGIN
 90
        0
 91
        0
 92
      512
 93
        0
300

 40
0.0
140
1.0
 94
        2
 62
     0
340
11
144
0.18
309
CONTENTFORMAT_END
171
     1
301
MARGIN
  1
CELLMARGIN_BEGIN
 40
0.06
 40
0.06
 40
0.06
 40
0.06
 40
0.18
 40
0.18
309
CELLMARGIN_END
 94
        6
 95
        1
302
GRIDFORMAT
  1
GRIDFORMAT_BEGIN
 90
        0
 91
        1
 62
     0
 92
       -2
340
0
 93
        0
 40
0.045
309
GRIDFORMAT_END
 95
        2
302
GRIDFORMAT
  1
GRIDFORMAT_BEGIN
 90
        0
 91
        1
 62
     0
 92
       -2
340
0
 93
        0
 40
0.045
309
GRIDFORMAT_END
 95
        4
302
GRIDFORMAT
  1
GRIDFORMAT_BEGIN
 90
        0
 91
        1
 62
     0
 92
       -2
340
0
 93
        0
 40
0.045
309
GRIDFORMAT_END
 95
        8
302
GRIDFORMAT
  1
GRIDFORMAT_BEGIN
 90
        0
 91
        1
 62
     0
 92
       -2
340
0
 93
        0
 40
0.045
309
GRIDFORMAT_END
 95
       16
302
GRIDFORMAT
  1
GRIDFORMAT_BEGIN
 90
        0
 91
        1
 62
     0
 92
       -2
340
0
 93
        0
 40
0.045
309
GRIDFORMAT_END
 95
       32
302
GRIDFORMAT
  1
GRIDFORMAT_BEGIN
 90
        0
 91
        1
 62
     0
 92
       -2
340
0
 93
        0
 40
0.045
309
GRIDFORMAT_END
309
TABLEFORMAT_END
  1
CELLSTYLE_BEGIN
 90
        3
 91
        2
300
_DATA
309
CELLSTYLE_END
  0
XRECORD
  5
31C
102
{ACAD_REACTORS
330
104
102
}
330
104
100
AcDbXrecord
280
     1
102
ACAD_ROUNDTRIP_PRE2007_TABLESTYLE
 90
      512
 91
        0
  1

 92
      512
 93
        0
  2

 94
      512
 95
        0
  3

  0
ENDSEC
  0
EOF
