  0
SECTION
  2
HEADER
  9
$ACADVER
  1
AC1015
  9
$ACADMAINTVER
 70
    20
  9
$DWGCODEPAGE
  3
ANSI_1252
  9
$INSBASE
 10
0.0
 20
0.0
 30
0.0
  9
$EXTMIN
 10
0.9830284691854354
 20
28.20347312807289
 30
0.0
  9
$EXTMAX
 10
164.0957982191854
 20
310.8610491480729
 30
0.0
  9
$LIMMIN
 10
0.0
 20
0.0
  9
$LIMMAX
 10
12.0
 20
9.0
  9
$ORTHOMODE
 70
     0
  9
$REGENMODE
 70
     1
  9
$FILLMODE
 70
     1
  9
$QTEXTMODE
 70
     0
  9
$MIRRTEXT
 70
     0
  9
$LTSCALE
 40
1.0
  9
$ATTMODE
 70
     1
  9
$TEXTSIZE
 40
0.2
  9
$TRACEWID
 40
0.05
  9
$TEXTSTYLE
  7
Standard
  9
$CLAYER
  8
0
  9
$CELTYPE
  6
ByLayer
  9
$CECOLOR
 62
   256
  9
$CELTSCALE
 40
1.0
  9
$DISPSILH
 70
     0
  9
$DIMSCALE
 40
1.0
  9
$DIMASZ
 40
0.18
  9
$DIMEXO
 40
0.0625
  9
$DIMDLI
 40
0.38
  9
$DIMRND
 40
0.0
  9
$DIMDLE
 40
0.0
  9
$DIMEXE
 40
0.18
  9
$DIMTP
 40
0.0
  9
$DIMTM
 40
0.0
  9
$DIMTXT
 40
0.18
  9
$DIMCEN
 40
0.09
  9
$DIMTSZ
 40
0.0
  9
$DIMTOL
 70
     0
  9
$DIMLIM
 70
     0
  9
$DIMTIH
 70
     1
  9
$DIMTOH
 70
     1
  9
$DIMSE1
 70
     0
  9
$DIMSE2
 70
     0
  9
$DIMTAD
 70
     0
  9
$DIMZIN
 70
     0
  9
$DIMBLK
  1

  9
$DIMASO
 70
     1
  9
$DIMSHO
 70
     1
  9
$DIMPOST
  1

  9
$DIMAPOST
  1

  9
$DIMALT
 70
     0
  9
$DIMALTD
 70
     2
  9
$DIMALTF
 40
25.4
  9
$DIMLFAC
 40
1.0
  9
$DIMTOFL
 70
     0
  9
$DIMTVP
 40
0.0
  9
$DIMTIX
 70
     0
  9
$DIMSOXD
 70
     0
  9
$DIMSAH
 70
     0
  9
$DIMBLK1
  1

  9
$DIMBLK2
  1

  9
$DIMSTYLE
  2
Standard
  9
$DIMCLRD
 70
     0
  9
$DIMCLRE
 70
     0
  9
$DIMCLRT
 70
     0
  9
$DIMTFAC
 40
1.0
  9
$DIMGAP
 40
0.09
  9
$DIMJUST
 70
     0
  9
$DIMSD1
 70
     0
  9
$DIMSD2
 70
     0
  9
$DIMTOLJ
 70
     1
  9
$DIMTZIN
 70
     0
  9
$DIMALTZ
 70
     0
  9
$DIMALTTZ
 70
     0
  9
$DIMUPT
 70
     0
  9
$DIMDEC
 70
     4
  9
$DIMTDEC
 70
     4
  9
$DIMALTU
 70
     2
  9
$DIMALTTD
 70
     2
  9
$DIMTXSTY
  7
Standard
  9
$DIMAUNIT
 70
     0
  9
$DIMADEC
 70
     0
  9
$DIMALTRND
 40
0.0
  9
$DIMAZIN
 70
     0
  9
$DIMDSEP
 70
    46
  9
$DIMATFIT
 70
     3
  9
$DIMFRAC
 70
     0
  9
$DIMLDRBLK
  1

  9
$DIMLUNIT
 70
     2
  9
$DIMLWD
 70
    -2
  9
$DIMLWE
 70
    -2
  9
$DIMTMOVE
 70
     0
  9
$LUNITS
 70
     2
  9
$LUPREC
 70
     4
  9
$SKETCHINC
 40
0.1
  9
$FILLETRAD
 40
0.0
  9
$AUNITS
 70
     0
  9
$AUPREC
 70
     0
  9
$MENU
  1
.
  9
$ELEVATION
 40
0.0
  9
$PELEVATION
 40
0.0
  9
$THICKNESS
 40
0.0
  9
$LIMCHECK
 70
     0
  9
$CHAMFERA
 40
0.0
  9
$CHAMFERB
 40
0.0
  9
$CHAMFERC
 40
0.0
  9
$CHAMFERD
 40
0.0
  9
$SKPOLY
 70
     0
  9
$TDCREATE
 40
2455511.363634167
  9
$TDUCREATE
 40
2455511.321967500
  9
$TDUPDATE
 40
2455511.363927569
  9
$TDUUPDATE
 40
2455511.322260903
  9
$TDINDWG
 40
0.0002935880
  9
$TDUSRTIMER
 40
0.0002935880
  9
$USRTIMER
 70
     1
  9
$ANGBASE
 50
0.0
  9
$ANGDIR
 70
     0
  9
$PDMODE
 70
     0
  9
$PDSIZE
 40
0.0
  9
$PLINEWID
 40
0.0
  9
$SPLFRAME
 70
     0
  9
$SPLINETYPE
 70
     6
  9
$SPLINESEGS
 70
     8
  9
$HANDSEED
  5
37A
  9
$SURFTAB1
 70
     6
  9
$SURFTAB2
 70
     6
  9
$SURFTYPE
 70
     6
  9
$SURFU
 70
     6
  9
$SURFV
 70
     6
  9
$UCSBASE
  2

  9
$UCSNAME
  2

  9
$UCSORG
 10
0.0
 20
0.0
 30
0.0
  9
$UCSXDIR
 10
1.0
 20
0.0
 30
0.0
  9
$UCSYDIR
 10
0.0
 20
1.0
 30
0.0
  9
$UCSORTHOREF
  2

  9
$UCSORTHOVIEW
 70
     0
  9
$UCSORGTOP
 10
0.0
 20
0.0
 30
0.0
  9
$UCSORGBOTTOM
 10
0.0
 20
0.0
 30
0.0
  9
$UCSORGLEFT
 10
0.0
 20
0.0
 30
0.0
  9
$UCSORGRIGHT
 10
0.0
 20
0.0
 30
0.0
  9
$UCSORGFRONT
 10
0.0
 20
0.0
 30
0.0
  9
$UCSORGBACK
 10
0.0
 20
0.0
 30
0.0
  9
$PUCSBASE
  2

  9
$PUCSNAME
  2

  9
$PUCSORG
 10
0.0
 20
0.0
 30
0.0
  9
$PUCSXDIR
 10
1.0
 20
0.0
 30
0.0
  9
$PUCSYDIR
 10
0.0
 20
1.0
 30
0.0
  9
$PUCSORTHOREF
  2

  9
$PUCSORTHOVIEW
 70
     0
  9
$PUCSORGTOP
 10
0.0
 20
0.0
 30
0.0
  9
$PUCSORGBOTTOM
 10
0.0
 20
0.0
 30
0.0
  9
$PUCSORGLEFT
 10
0.0
 20
0.0
 30
0.0
  9
$PUCSORGRIGHT
 10
0.0
 20
0.0
 30
0.0
  9
$PUCSORGFRONT
 10
0.0
 20
0.0
 30
0.0
  9
$PUCSORGBACK
 10
0.0
 20
0.0
 30
0.0
  9
$USERI1
 70
     0
  9
$USERI2
 70
     0
  9
$USERI3
 70
     0
  9
$USERI4
 70
     0
  9
$USERI5
 70
     0
  9
$USERR1
 40
0.0
  9
$USERR2
 40
0.0
  9
$USERR3
 40
0.0
  9
$USERR4
 40
0.0
  9
$USERR5
 40
0.0
  9
$WORLDVIEW
 70
     1
  9
$SHADEDGE
 70
     3
  9
$SHADEDIF
 70
    70
  9
$TILEMODE
 70
     1
  9
$MAXACTVP
 70
    64
  9
$PINSBASE
 10
0.0
 20
0.0
 30
0.0
  9
$PLIMCHECK
 70
     0
  9
$PEXTMIN
 10
0.0
 20
0.0
 30
0.0
  9
$PEXTMAX
 10
0.0
 20
0.0
 30
0.0
  9
$PLIMMIN
 10
0.0
 20
0.0
  9
$PLIMMAX
 10
12.0
 20
9.0
  9
$UNITMODE
 70
     0
  9
$VISRETAIN
 70
     1
  9
$PLINEGEN
 70
     0
  9
$PSLTSCALE
 70
     1
  9
$TREEDEPTH
 70
  3020
  9
$CMLSTYLE
  2
Standard
  9
$CMLJUST
 70
     0
  9
$CMLSCALE
 40
1.0
  9
$PROXYGRAPHICS
 70
     1
  9
$MEASUREMENT
 70
     0
  9
$CELWEIGHT
370
    -1
  9
$ENDCAPS
280
     0
  9
$JOINSTYLE
280
     0
  9
$LWDISPLAY
290
     0
  9
$INSUNITS
 70
     1
  9
$HYPERLINKBASE
  1

  9
$STYLESHEET
  1

  9
$XEDIT
290
     1
  9
$CEPSNTYPE
380
     0
  9
$PSTYLEMODE
290
     1
  9
$FINGERPRINTGUID
  2
{5F82EAB6-4CD9-4258-A621-44E8D0CE8B86}
  9
$VERSIONGUID
  2
{918E67AC-4F39-4E7D-B8D9-4A6C1EC49B13}
  9
$EXTNAMES
290
     1
  9
$PSVPSCALE
 40
0.0
  9
$OLESTARTUP
290
     0
  0
ENDSEC
  0
SECTION
  2
CLASSES
  0
CLASS
  1
ACDBDICTIONARYWDFLT
  2
AcDbDictionaryWithDefault
  3
ObjectDBX Classes
 90
        0
280
     0
281
     0
  0
CLASS
  1
ACDBPLACEHOLDER
  2
AcDbPlaceHolder
  3
ObjectDBX Classes
 90
        0
280
     0
281
     0
  0
CLASS
  1
LAYOUT
  2
AcDbLayout
  3
ObjectDBX Classes
 90
        0
280
     0
281
     0
  0
CLASS
  1
DICTIONARYVAR
  2
AcDbDictionaryVar
  3
ObjectDBX Classes
 90
        0
280
     0
281
     0
  0
CLASS
  1
TABLESTYLE
  2
AcDbTableStyle
  3
ObjectDBX Classes
 90
     4095
280
     0
281
     0
  0
CLASS
  1
MATERIAL
  2
AcDbMaterial
  3
ObjectDBX Classes
 90
     1153
280
     0
281
     0
  0
CLASS
  1
VISUALSTYLE
  2
AcDbVisualStyle
  3
ObjectDBX Classes
 90
     4095
280
     0
281
     0
  0
CLASS
  1
SCALE
  2
AcDbScale
  3
ObjectDBX Classes
 90
     1153
280
     0
281
     0
  0
CLASS
  1
MLEADERSTYLE
  2
AcDbMLeaderStyle
  3
ACDB_MLEADERSTYLE_CLASS
 90
     4095
280
     0
281
     0
  0
CLASS
  1
CELLSTYLEMAP
  2
AcDbCellStyleMap
  3
ObjectDBX Classes
 90
     1152
280
     0
281
     0
  0
ENDSEC
  0
SECTION
  2
TABLES
  0
TABLE
  2
VPORT
  5
8
330
0
100
AcDbSymbolTable
 70
     1
  0
VPORT
  5
94
330
8
100
AcDbSymbolTableRecord
100
AcDbViewportTableRecord
  2
*Active
 70
     0
 10
0.0
 20
0.0
 11
1.0
 21
1.0
 12
126.1123222405789
 22
187.8351990800156
 13
0.0
 23
0.0
 14
0.5
 24
0.5
 15
0.5
 25
0.5
 16
0.0
 26
0.0
 36
1.0
 17
0.0
 27
0.0
 37
0.0
 40
455.8479152274477
 41
1.148760330578512
 42
50.0
 43
0.0
 44
0.0
 50
0.0
 51
0.0
 71
     0
 72
  1000
 73
     1
 74
     3
 75
     0
 76
     0
 77
     0
 78
     0
281
     0
 65
     1
110
0.0
120
0.0
130
0.0
111
1.0
121
0.0
131
0.0
112
0.0
122
1.0
132
0.0
 79
     0
146
0.0
  0
ENDTAB
  0
TABLE
  2
LTYPE
  5
5
330
0
100
AcDbSymbolTable
 70
     1
  0
LTYPE
  5
14
330
5
100
AcDbSymbolTableRecord
100
AcDbLinetypeTableRecord
  2
ByBlock
 70
     0
  3

 72
    65
 73
     0
 40
0.0
  0
LTYPE
  5
15
330
5
100
AcDbSymbolTableRecord
100
AcDbLinetypeTableRecord
  2
ByLayer
 70
     0
  3

 72
    65
 73
     0
 40
0.0
  0
LTYPE
  5
16
330
5
100
AcDbSymbolTableRecord
100
AcDbLinetypeTableRecord
  2
Continuous
 70
     0
  3
Solid line
 72
    65
 73
     0
 40
0.0
  0
ENDTAB
  0
TABLE
  2
LAYER
  5
2
330
0
100
AcDbSymbolTable
 70
     4
  0
LAYER
  5
10
102
{ACAD_XDICTIONARY
360
E6
102
}
330
2
100
AcDbSymbolTableRecord
100
AcDbLayerTableRecord
  2
0
 70
     0
 62
     7
  6
Continuous
370
    -3
390
F
  0
LAYER
  5
174
102
{ACAD_XDICTIONARY
360
364
102
}
330
2
100
AcDbSymbolTableRecord
100
AcDbLayerTableRecord
  2
Q
 70
     1
 62
     7
  6
Continuous
370
    -3
390
F
1001
AcAecLayerStandard
1000

1000

  0
LAYER
  5
175
102
{ACAD_XDICTIONARY
360
366
102
}
330
2
100
AcDbSymbolTableRecord
100
AcDbLayerTableRecord
  2
QUOTE
 70
     0
 62
     7
  6
Continuous
370
    -3
390
F
1001
AcAecLayerStandard
1000

1000

  0
LAYER
  5
327
330
2
100
AcDbSymbolTableRecord
100
AcDbLayerTableRecord
  2
Defpoints
 70
     0
 62
     7
  6
Continuous
290
     0
370
    -3
390
F
  0
ENDTAB
  0
TABLE
  2
STYLE
  5
3
330
0
100
AcDbSymbolTable
 70
     2
  0
STYLE
  5
11
330
3
100
AcDbSymbolTableRecord
100
AcDbTextStyleTableRecord
  2
Standard
 70
     0
 40
0.0
 41
1.0
 50
0.0
 71
     0
 42
0.2
  3
txt.shx
  4

  0
STYLE
  5
DC
330
3
100
AcDbSymbolTableRecord
100
AcDbTextStyleTableRecord
  2
Annotativa
 70
     0
 40
0.0
 41
1.0
 50
0.0
 71
     0
 42
0.2
  3
txt.shx
  4

1001
AcadAnnotative
1000
AnnotativeData
1002
{
1070
     1
1070
     1
1002
}
  0
ENDTAB
  0
TABLE
  2
VIEW
  5
6
330
0
100
AcDbSymbolTable
 70
     1
  0
ENDTAB
  0
TABLE
  2
UCS
  5
7
330
0
100
AcDbSymbolTable
 70
     0
  0
ENDTAB
  0
TABLE
  2
APPID
  5
9
330
0
100
AcDbSymbolTable
 70
    14
  0
APPID
  5
12
330
9
100
AcDbSymbolTableRecord
100
AcDbRegAppTableRecord
  2
ACAD
 70
     0
  0
APPID
  5
DD
330
9
100
AcDbSymbolTableRecord
100
AcDbRegAppTableRecord
  2
AcadAnnoPO
 70
     0
  0
APPID
  5
DE
330
9
100
AcDbSymbolTableRecord
100
AcDbRegAppTableRecord
  2
AcadAnnotative
 70
     0
  0
APPID
  5
DF
330
9
100
AcDbSymbolTableRecord
100
AcDbRegAppTableRecord
  2
ACAD_DSTYLE_DIMJAG
 70
     0
  0
APPID
  5
E0
330
9
100
AcDbSymbolTableRecord
100
AcDbRegAppTableRecord
  2
ACAD_DSTYLE_DIMTALN
 70
     0
  0
APPID
  5
107
330
9
100
AcDbSymbolTableRecord
100
AcDbRegAppTableRecord
  2
ACAD_MLEADERVER
 70
     0
  0
APPID
  5
176
330
9
100
AcDbSymbolTableRecord
100
AcDbRegAppTableRecord
  2
VDEXTRAPARAM
 70
     0
  0
APPID
  5
177
330
9
100
AcDbSymbolTableRecord
100
AcDbRegAppTableRecord
  2
VD_TEMPHATCH
 70
     0
  0
APPID
  5
178
330
9
100
AcDbSymbolTableRecord
100
AcDbRegAppTableRecord
  2
AcAecLayerStandard
 70
     0
  0
APPID
  5
179
330
9
100
AcDbSymbolTableRecord
100
AcDbRegAppTableRecord
  2
VD_EX_PRINTER_DWG_STYLE_SHEET
 70
     0
  0
APPID
  5
17A
330
9
100
AcDbSymbolTableRecord
100
AcDbRegAppTableRecord
  2
VD_EX_PRINTER_SIZEX
 70
     0
  0
APPID
  5
17B
330
9
100
AcDbSymbolTableRecord
100
AcDbRegAppTableRecord
  2
VD_EX_PRINTER_AVSIZEX
 70
     0
  0
APPID
  5
17C
330
9
100
AcDbSymbolTableRecord
100
AcDbRegAppTableRecord
  2
VD_EX_PRINTER_SIZEY
 70
     0
  0
APPID
  5
17D
330
9
100
AcDbSymbolTableRecord
100
AcDbRegAppTableRecord
  2
VD_EX_PRINTER_AVSIZEY
 70
     0
  0
ENDTAB
  0
TABLE
  2
DIMSTYLE
  5
A
330
0
100
AcDbSymbolTable
 70
     2
100
AcDbDimStyleTable
 71
     2
340
27
340
E1
  0
DIMSTYLE
105
27
102
{ACAD_REACTORS
330
310
330
311
102
}
330
A
100
AcDbSymbolTableRecord
100
AcDbDimStyleTableRecord
  2
Standard
 70
     0
340
11
  0
DIMSTYLE
105
E1
330
A
100
AcDbSymbolTableRecord
100
AcDbDimStyleTableRecord
  2
Annotativa
 70
     0
 40
0.0
340
11
1001
AcadAnnotative
1000
AnnotativeData
1002
{
1070
     1
1070
     1
1002
}
1001
ACAD_DSTYLE_DIMJAG
1070
   388
1040
1.5
1001
ACAD_DSTYLE_DIMTALN
1070
   392
1070
     0
  0
ENDTAB
  0
TABLE
  2
BLOCK_RECORD
  5
1
330
0
100
AcDbSymbolTable
 70
     7
  0
BLOCK_RECORD
  5
1F
330
1
100
AcDbSymbolTableRecord
100
AcDbBlockTableRecord
  2
*Model_Space
340
22
  0
BLOCK_RECORD
  5
58
330
1
100
AcDbSymbolTableRecord
100
AcDbBlockTableRecord
  2
*Paper_Space
340
59
  0
BLOCK_RECORD
  5
5D
330
1
100
AcDbSymbolTableRecord
100
AcDbBlockTableRecord
  2
*Paper_Space0
340
5E
  0
BLOCK_RECORD
  5
14C
330
1
100
AcDbSymbolTableRecord
100
AcDbBlockTableRecord
  2
VDDIM_DEFAULT
340
0
  0
BLOCK_RECORD
  5
150
330
1
100
AcDbSymbolTableRecord
100
AcDbBlockTableRecord
  2
IEC_309_16
340
0
102
{BLKREFS
331
250
331
326
102
}
  0
BLOCK_RECORD
  5
168
330
1
100
AcDbSymbolTableRecord
100
AcDbBlockTableRecord
  2
*D3
340
0
  0
BLOCK_RECORD
  5
328
330
1
100
AcDbSymbolTableRecord
100
AcDbBlockTableRecord
  2
*D5
340
0
  0
BLOCK_RECORD
  5
335
330
1
100
AcDbSymbolTableRecord
100
AcDbBlockTableRecord
  2
*D6
340
0
  0
ENDTAB
  0
ENDSEC
  0
SECTION
  2
BLOCKS
  0
BLOCK
  5
20
330
1F
100
AcDbEntity
  8
0
100
AcDbBlockBegin
  2
*Model_Space
 70
     0
 10
0.0
 20
0.0
 30
0.0
  3
*Model_Space
  1

  0
ENDBLK
  5
21
330
1F
100
AcDbEntity
  8
0
100
AcDbBlockEnd
  0
BLOCK
  5
5A
330
58
100
AcDbEntity
 67
     1
  8
0
100
AcDbBlockBegin
  2
*Paper_Space
 70
     0
 10
0.0
 20
0.0
 30
0.0
  3
*Paper_Space
  1

  0
ENDBLK
  5
5B
330
58
100
AcDbEntity
 67
     1
  8
0
100
AcDbBlockEnd
  0
BLOCK
  5
5F
330
5D
100
AcDbEntity
 67
     1
  8
0
100
AcDbBlockBegin
  2
*Paper_Space0
 70
     0
 10
0.0
 20
0.0
 30
0.0
  3
*Paper_Space0
  1

  0
ENDBLK
  5
60
330
5D
100
AcDbEntity
 67
     1
  8
0
100
AcDbBlockEnd
  0
BLOCK
  5
14D
330
14C
100
AcDbEntity
  8
0
100
AcDbBlockBegin
  2
VDDIM_DEFAULT
 70
     0
 10
0.0
 20
0.0
 30
0.0
  3
VDDIM_DEFAULT
  1

  0
HATCH
  5
14E
330
14C
100
AcDbEntity
  8
0
  6
Continuous
 62
     0
370
    -2
100
AcDbHatch
 10
0.0
 20
0.0
 30
0.0
210
0.0
220
0.0
230
-1.0
  2
SOLID
 70
     1
 71
     0
 91
        1
 92
        2
 72
     0
 73
     1
 93
        3
 10
0.0
 20
0.0
 10
1.0
 20
-0.1665
 10
1.0
 20
0.1665
 97
        0
 75
     0
 76
     1
 98
        1
 10
0.0
 20
0.0
  0
ENDBLK
  5
14F
330
14C
100
AcDbEntity
  8
0
100
AcDbBlockEnd
  0
BLOCK
  5
151
330
150
100
AcDbEntity
  8
0
100
AcDbBlockBegin
  2
IEC_309_16
 70
     0
 10
0.0
 20
0.0
 30
0.0
  3
IEC_309_16
  1

  0
ARC
  5
152
330
150
100
AcDbEntity
  8
0
100
AcDbCircle
 10
32.67365554
 20
24.89049107
 30
0.0
 40
7.123136749999999
100
AcDbArc
 50
180.0
 51
270.0
  0
ARC
  5
153
330
150
100
AcDbEntity
  8
0
100
AcDbCircle
 10
93.43934221999999
 20
24.87649512
 30
0.0
 40
7.123136749999999
100
AcDbArc
 50
270.0
 51
0.0
  0
LINE
  5
154
330
150
100
AcDbEntity
  8
0
100
AcDbLine
 10
32.67365554
 20
17.76735433
 30
0.0
 11
63.80444306
 21
17.75335838
 31
0.0
  0
LINE
  5
155
330
150
100
AcDbEntity
  8
0
100
AcDbLine
 10
93.43934221999999
 20
17.75335838
 30
0.0
 11
63.80444306
 21
17.75335838
 31
0.0
  0
ARC
  5
156
330
150
100
AcDbEntity
  8
0
100
AcDbCircle
 10
32.67365554
 20
95.51955823
 30
0.0
 40
7.123136749999999
100
AcDbArc
 50
90.0
 51
180.0
  0
LINE
  5
157
330
150
100
AcDbEntity
  8
0
100
AcDbLine
 10
100.56247897
 20
95.50556228999999
 30
0.0
 11
100.56247897
 21
24.87649512
 31
0.0
  0
CIRCLE
  5
158
330
150
100
AcDbEntity
  8
0
100
AcDbCircle
 10
93.43934221999999
 20
24.87649512
 30
0.0
 40
2.58835439
  0
CIRCLE
  5
159
330
150
100
AcDbEntity
  8
0
100
AcDbCircle
 10
32.67365554
 20
24.89049107
 30
0.0
 40
2.58835439
  0
CIRCLE
  5
15A
330
150
100
AcDbEntity
  8
0
100
AcDbCircle
 10
93.43934221999999
 20
95.50556228999999
 30
0.0
 40
2.58835439
  0
ARC
  5
15B
330
150
100
AcDbEntity
  8
0
100
AcDbCircle
 10
93.43934221999999
 20
95.50556228999999
 30
0.0
 40
7.123136749999999
100
AcDbArc
 50
0.0
 51
90.0
  0
LINE
  5
15C
330
150
100
AcDbEntity
  8
0
100
AcDbLine
 10
63.80444306
 20
102.62869903
 30
0.0
 11
32.67365554
 21
102.64269498
 31
0.0
  0
CIRCLE
  5
15D
330
150
100
AcDbEntity
  8
0
100
AcDbCircle
 10
32.67365554
 20
95.51955823
 30
0.0
 40
2.58835439
  0
LINE
  5
15E
330
150
100
AcDbEntity
  8
0
100
AcDbLine
 10
63.80444306
 20
102.62869903
 30
0.0
 11
93.43934221999999
 21
102.62869903
 31
0.0
  0
LINE
  5
15F
330
150
100
AcDbEntity
  8
0
100
AcDbLine
 10
25.5505188
 20
95.51955823
 30
0.0
 11
25.5505188
 21
24.89049107
 31
0.0
  0
LINE
  5
160
330
150
100
AcDbEntity
  8
Q
 62
     1
100
AcDbLine
 10
20.54829634
 20
17.76735433
 30
0.0
 11
105.56470143
 21
17.76735433
 31
0.0
  0
LINE
  5
161
330
150
100
AcDbEntity
  8
Q
 62
     1
100
AcDbLine
 10
105.56470143
 20
17.76735433
 30
0.0
 11
105.56470143
 21
113.01787381
 31
0.0
  0
LINE
  5
162
330
150
100
AcDbEntity
  8
Q
 62
     1
100
AcDbLine
 10
20.54829634
 20
62.17655536
 30
0.0
 11
20.54829634
 21
111.23101363
 31
0.0
  0
LINE
  5
163
330
150
100
AcDbEntity
  8
Q
 62
     1
100
AcDbLine
 10
20.54829634
 20
111.23101363
 30
0.0
 11
20.54829634
 21
17.76735433
 31
0.0
  0
LINE
  5
164
330
150
100
AcDbEntity
  8
Q
 62
     1
100
AcDbLine
 10
63.80444306
 20
113.01787381
 30
0.0
 11
105.56470143
 21
113.01787381
 31
0.0
  0
LINE
  5
165
330
150
100
AcDbEntity
  8
Q
 62
     1
100
AcDbLine
 10
63.80444306
 20
113.01787381
 30
0.0
 11
20.54829634
 21
113.01787381
 31
0.0
  0
LINE
  5
166
330
150
100
AcDbEntity
  8
Q
 62
     1
100
AcDbLine
 10
20.54829634
 20
113.01787381
 30
0.0
 11
20.54829634
 21
111.23101363
 31
0.0
  0
ENDBLK
  5
167
330
150
100
AcDbEntity
  8
0
100
AcDbBlockEnd
  0
BLOCK
  5
169
330
168
100
AcDbEntity
  8
0
100
AcDbBlockBegin
  2
*D3
 70
     0
 10
0.0
 20
0.0
 30
0.0
  3
*D3
  1

  0
LINE
  5
16A
330
168
100
AcDbEntity
  8
QUOTE
 62
     7
100
AcDbLine
 10
125.44100079
 20
14.95338888
 30
0.0
 11
125.44100079
 21
-14.82168888
 31
0.0
  0
LINE
  5
16B
330
168
100
AcDbEntity
  8
QUOTE
 62
     7
100
AcDbLine
 10
20.44100079
 20
14.95338557
 30
0.0
 11
20.44100079
 21
-14.82168888
 31
0.0
  0
LINE
  5
16C
330
168
100
AcDbEntity
  8
QUOTE
 62
     7
100
AcDbLine
 10
110.44100079
 20
-14.64168888
 30
0.0
 11
84.55084392999999
 21
-14.64168888
 31
0.0
  0
LINE
  5
16D
330
168
100
AcDbEntity
  8
QUOTE
 62
     7
100
AcDbLine
 10
35.44100079
 20
-14.64168888
 30
0.0
 11
62.70417726
 21
-14.64168888
 31
0.0
  0
LWPOLYLINE
  5
16E
102
{ACAD_REACTORS
330
16F
102
}
330
168
100
AcDbEntity
  8
QUOTE
 62
     7
100
AcDbPolyline
 90
        3
 70
     1
 43
0.0
 10
110.44100079
 20
-12.14168888
 10
110.44100079
 20
-17.14168888
 10
125.44100079
 20
-14.64168888
  0
HATCH
  5
16F
330
168
100
AcDbEntity
  8
QUOTE
 62
     7
100
AcDbHatch
 10
0.0
 20
0.0
 30
0.0
210
0.0
220
0.0
230
1.0
  2
SOLID
 70
     1
 71
     1
 91
        1
 92
        2
 72
     0
 73
     1
 93
        3
 10
110.44100079
 20
-12.14168888
 10
110.44100079
 20
-17.14168888
 10
125.44100079
 20
-14.64168888
 97
        1
330
16E
 75
     0
 76
     1
 98
        1
 10
0.0
 20
0.0
1001
VD_TEMPHATCH
1000
VD_TEMPHATCH
  0
LWPOLYLINE
  5
170
102
{ACAD_REACTORS
330
171
102
}
330
168
100
AcDbEntity
  8
QUOTE
 62
     7
100
AcDbPolyline
 90
        3
 70
     1
 43
0.0
 10
35.44100079
 20
-12.14168888
 10
35.44100079
 20
-17.14168888
 10
20.44100079
 20
-14.64168888
  0
HATCH
  5
171
330
168
100
AcDbEntity
  8
QUOTE
 62
     7
100
AcDbHatch
 10
0.0
 20
0.0
 30
0.0
210
0.0
220
0.0
230
1.0
  2
SOLID
 70
     1
 71
     1
 91
        1
 92
        2
 72
     0
 73
     1
 93
        3
 10
35.44100079
 20
-12.14168888
 10
35.44100079
 20
-17.14168888
 10
20.44100079
 20
-14.64168888
 97
        1
330
170
 75
     0
 76
     1
 98
        1
 10
0.0
 20
0.0
1001
VD_TEMPHATCH
1000
VD_TEMPHATCH
  0
MTEXT
  5
172
330
168
100
AcDbEntity
  8
QUOTE
 62
     7
100
AcDbMText
 10
73.62751059999999
 20
-14.64168888
 30
0.0
 40
10.0
 41
21.48123324
 71
     5
 72
     1
  1
\A1;105
 73
     1
 44
1.0
1001
ACAD
1000
MTEXTBEGIN
1070
    73
1070
     1
1070
    44
1040
1.0
1070
    74
1070
     0
1000
MTEXTEND
  0
ENDBLK
  5
173
330
168
100
AcDbEntity
  8
0
100
AcDbBlockEnd
  0
BLOCK
  5
329
330
328
100
AcDbEntity
  8
0
100
AcDbBlockBegin
  2
*D5
 70
     1
 10
0.0
 20
0.0
 30
0.0
  3
*D5
  1

  0
LINE
  5
359
330
328
100
AcDbEntity
  8
QUOTE
 62
     0
370
    -2
100
AcDbLine
 10
69.03329821918544
 20
310.8610491480729
 30
0.0
 11
35.80302846918549
 21
310.8610491480729
 31
0.0
  0
LINE
  5
35A
330
328
100
AcDbEntity
  8
QUOTE
 62
     0
370
    -2
100
AcDbLine
 10
69.03329821918544
 20
52.89719714807289
 30
0.0
 11
35.80302846918544
 21
52.8971971480729
 31
0.0
  0
LINE
  5
35B
330
328
100
AcDbEntity
  8
QUOTE
 62
     0
370
    -2
100
AcDbLine
 10
35.98302846918548
 20
295.8610491480729
 30
0.0
 11
35.98302846918546
 21
187.9102107980729
 31
0.0
  0
LINE
  5
35C
330
328
100
AcDbEntity
  8
QUOTE
 62
     0
370
    -2
100
AcDbLine
 10
35.98302846918544
 20
67.89719714807289
 30
0.0
 11
35.98302846918546
 21
177.7302107980728
 31
0.0
  0
SOLID
  5
35D
330
328
100
AcDbEntity
  8
QUOTE
 62
     0
100
AcDbTrace
 10
33.48302846918548
 20
295.8610491480729
 30
0.0
 11
38.48302846918548
 21
295.8610491480729
 31
0.0
 12
35.98302846918549
 22
310.8610491480729
 32
0.0
 13
35.98302846918549
 23
310.8610491480729
 33
0.0
  0
SOLID
  5
35E
330
328
100
AcDbEntity
  8
QUOTE
 62
     0
100
AcDbTrace
 10
33.48302846918544
 20
67.89719714807289
 30
0.0
 11
38.48302846918544
 21
67.89719714807289
 31
0.0
 12
35.98302846918544
 22
52.8971971480729
 32
0.0
 13
35.98302846918544
 23
52.8971971480729
 33
0.0
  0
MTEXT
  5
35F
330
328
100
AcDbEntity
  8
QUOTE
 62
     0
100
AcDbMText
 10
35.98302846918544
 20
182.8202107980729
 30
0.0
 40
10.0
 41
0.0
 71
     5
 72
     1
  1
\A1;258
 73
     1
 44
1.0
1001
ACAD
1000
MTEXTBEGIN
1070
    73
1070
     1
1070
    44
1040
1.0
1070
    74
1070
     0
1000
MTEXTEND
  0
POINT
  5
360
330
328
100
AcDbEntity
  8
Defpoints
 62
     0
100
AcDbPoint
 10
69.09579821918544
 20
310.8610491480729
 30
0.0
  0
POINT
  5
361
330
328
100
AcDbEntity
  8
Defpoints
 62
     0
100
AcDbPoint
 10
69.09579821918544
 20
52.89719714807289
 30
0.0
  0
POINT
  5
362
330
328
100
AcDbEntity
  8
Defpoints
 62
     0
100
AcDbPoint
 10
35.98302846918544
 20
52.8971971480729
 30
0.0
  0
ENDBLK
  5
32A
330
328
100
AcDbEntity
  8
0
100
AcDbBlockEnd
  0
BLOCK
  5
336
330
335
100
AcDbEntity
  8
0
100
AcDbBlockBegin
  2
*D6
 70
     1
 10
0.0
 20
0.0
 30
0.0
  3
*D6
  1

  0
LINE
  5
34C
330
335
100
AcDbEntity
  8
QUOTE
 62
     0
370
    -2
100
AcDbLine
 10
164.0957982191854
 20
62.79855088807289
 30
0.0
 11
164.0957982191854
 21
33.02347312807289
 31
0.0
  0
LINE
  5
34D
330
335
100
AcDbEntity
  8
QUOTE
 62
     0
370
    -2
100
AcDbLine
 10
59.09579821918544
 20
62.79854757807289
 30
0.0
 11
59.09579821918544
 21
33.02347312807289
 31
0.0
  0
LINE
  5
34E
330
335
100
AcDbEntity
  8
QUOTE
 62
     0
370
    -2
100
AcDbLine
 10
149.0957982191854
 20
33.20347312807289
 30
0.0
 11
123.2056413625187
 21
33.20347312807289
 31
0.0
  0
LINE
  5
34F
330
335
100
AcDbEntity
  8
QUOTE
 62
     0
370
    -2
100
AcDbLine
 10
74.09579821918544
 20
33.20347312807289
 30
0.0
 11
101.3589746958521
 21
33.20347312807289
 31
0.0
  0
SOLID
  5
350
330
335
100
AcDbEntity
  8
QUOTE
 62
     0
100
AcDbTrace
 10
149.0957982191854
 20
35.70347312807289
 30
0.0
 11
149.0957982191854
 21
30.70347312807289
 31
0.0
 12
164.0957982191854
 22
33.20347312807289
 32
0.0
 13
164.0957982191854
 23
33.20347312807289
 33
0.0
  0
SOLID
  5
351
330
335
100
AcDbEntity
  8
QUOTE
 62
     0
100
AcDbTrace
 10
74.09579821918544
 20
35.70347312807289
 30
0.0
 11
74.09579821918544
 21
30.70347312807289
 31
0.0
 12
59.09579821918544
 22
33.20347312807289
 32
0.0
 13
59.09579821918544
 23
33.20347312807289
 33
0.0
  0
MTEXT
  5
352
330
335
100
AcDbEntity
  8
QUOTE
 62
     0
100
AcDbMText
 10
112.2823080291854
 20
33.20347312807289
 30
0.0
 40
10.0
 41
0.0
 71
     5
 72
     1
  1
\A1;105
 73
     1
 44
1.0
1001
ACAD
1000
MTEXTBEGIN
1070
    73
1070
     1
1070
    44
1040
1.0
1070
    74
1070
     0
1000
MTEXTEND
  0
POINT
  5
353
330
335
100
AcDbEntity
  8
Defpoints
 62
     0
100
AcDbPoint
 10
164.0957982191854
 20
62.86105088807289
 30
0.0
  0
POINT
  5
354
330
335
100
AcDbEntity
  8
Defpoints
 62
     0
100
AcDbPoint
 10
59.09579821918544
 20
62.86104757807289
 30
0.0
  0
POINT
  5
355
330
335
100
AcDbEntity
  8
Defpoints
 62
     0
100
AcDbPoint
 10
59.09579821918544
 20
33.20347312807289
 30
0.0
  0
ENDBLK
  5
337
330
335
100
AcDbEntity
  8
0
100
AcDbBlockEnd
  0
ENDSEC
  0
SECTION
  2
ENTITIES
  0
LINE
  5
255
330
1F
100
AcDbEntity
  8
0
 62
   253
 48
0.377062
370
    35
100
AcDbLine
 10
161.7149242191854
 20
276.5382041480728
 30
0.0
 11
161.6902352191854
 21
261.4557451480729
 31
0.0
  0
LINE
  5
256
330
1F
100
AcDbEntity
  8
0
 62
   253
370
    35
100
AcDbLine
 10
116.6024362191854
 20
277.5381731480729
 30
0.0
 11
62.47664221918544
 21
277.5381731480729
 31
0.0
  0
LINE
  5
257
330
1F
100
AcDbEntity
  8
0
 62
   253
 48
0.377062
370
    35
100
AcDbLine
 10
61.50136921918543
 20
261.4557451480729
 30
0.0
 11
61.47668021918544
 21
276.5382041480728
 31
0.0
  0
LINE
  5
258
330
1F
100
AcDbEntity
  8
0
 62
   253
370
    35
100
AcDbLine
 10
161.6924632191854
 20
192.5610621480729
 30
0.0
 11
161.6386912191854
 21
171.5961261480729
 31
0.0
  0
LINE
  5
259
330
1F
100
AcDbEntity
  8
0
 62
   253
 48
0.064262
370
    35
100
AcDbLine
 10
159.0957982191854
 20
182.3610491480728
 30
0.0
 11
161.6662942191854
 21
182.3610491480728
 31
0.0
  0
LINE
  5
25A
330
1F
100
AcDbEntity
  8
0
 62
   253
370
    35
100
AcDbLine
 10
126.5957982191854
 20
180.9294391480729
 30
0.0
 11
161.6626162191854
 21
180.9294391480729
 31
0.0
  0
LINE
  5
25B
330
1F
100
AcDbEntity
  8
0
 62
   253
 48
0.273235
370
    35
100
AcDbLine
 10
106.1310922191854
 20
182.3610491480728
 30
0.0
 11
117.0605052191854
 21
182.3610491480728
 31
0.0
  0
LINE
  5
25C
330
1F
100
AcDbEntity
  8
0
 62
   253
 48
0.408155
370
    35
100
AcDbLine
 10
61.50136921918543
 20
187.9223591480729
 30
0.0
 11
61.50136921918543
 21
171.5961571480729
 31
0.0
  0
LINE
  5
25D
330
1F
100
AcDbEntity
  8
0
 62
   253
 48
0.064861
370
    35
100
AcDbLine
 10
64.09579821918544
 20
182.3610491480728
 30
0.0
 11
61.50136921918543
 21
182.3610491480728
 31
0.0
  0
LINE
  5
25E
330
1F
100
AcDbEntity
  8
0
 62
   253
370
    35
100
AcDbLine
 10
96.59579821918544
 20
180.9294391480729
 30
0.0
 11
61.50136921918543
 21
180.9294391480729
 31
0.0
  0
LINE
  5
25F
330
1F
100
AcDbEntity
  8
0
 62
   253
370
    35
100
AcDbLine
 10
133.8931922191854
 20
170.5961571480728
 30
0.0
 11
62.50136921918543
 21
170.5961571480728
 31
0.0
  0
ARC
  5
260
330
1F
100
AcDbEntity
  8
0
 62
   253
370
    35
100
AcDbCircle
 10
62.50136921918543
 20
171.5961571480729
 30
0.0
 40
1.0
100
AcDbArc
 50
180.0
 51
270.0
  0
ARC
  5
261
330
1F
100
AcDbEntity
  8
0
 62
     7
370
    35
100
AcDbCircle
 10
62.27255621918543
 20
170.7514301480729
 30
0.0
 40
3.001943
100
AcDbArc
 50
179.9659909999999
 51
258.426706
  0
ARC
  5
262
330
1F
100
AcDbEntity
  8
0
 62
     7
370
    35
100
AcDbCircle
 10
62.48079321918543
 20
170.8559221480729
 30
0.0
 40
3.149901999999999
100
AcDbArc
 50
255.904481
 51
264.2723099999999
  0
ARC
  5
263
330
1F
100
AcDbEntity
  8
0
 62
     7
370
    35
100
AcDbCircle
 10
60.35916521918544
 20
146.8536031480729
 30
0.0
 40
20.945576
100
AcDbArc
 50
83.25914499999987
 51
85.05031499999992
  0
ARC
  5
264
330
1F
100
AcDbEntity
  8
0
 62
     7
370
    35
100
AcDbCircle
 10
63.44168421918543
 20
145.2925371480729
 30
0.0
 40
22.354864
100
AcDbArc
 50
89.99358199999994
 51
91.14171599999998
  0
ARC
  5
265
330
1F
100
AcDbEntity
  8
0
 62
     7
370
    35
100
AcDbCircle
 10
62.99686021918543
 20
169.1051901480729
 30
0.0
 40
1.462191999999999
100
AcDbArc
 50
262.961679
 51
269.9767479999999
  0
LINE
  5
266
330
1F
100
AcDbEntity
  8
0
 62
     7
 48
0.001111
370
    35
100
AcDbLine
 10
61.67033721918543
 20
167.8106951480728
 30
0.0
 11
61.71366521918543
 21
167.8008691480729
 31
0.0
  0
LINE
  5
267
330
1F
100
AcDbEntity
  8
0
 62
     7
370
    35
100
AcDbLine
 10
160.7473792191854
 20
66.13125214807289
 30
0.0
 11
160.7473792191854
 21
167.6473961480729
 31
0.0
  0
LINE
  5
268
330
1F
100
AcDbEntity
  8
0
 62
     7
370
    35
100
AcDbLine
 10
62.44421721918543
 20
66.13125214807289
 30
0.0
 11
62.44421721918543
 21
167.6473961480729
 31
0.0
  0
ARC
  5
269
330
1F
100
AcDbEntity
  8
0
 62
     7
370
    35
100
AcDbCircle
 10
160.1947362191854
 20
169.1051901480729
 30
0.0
 40
1.462191999999999
100
AcDbArc
 50
270.0232749999999
 51
277.0383160000002
  0
ARC
  5
26A
330
1F
100
AcDbEntity
  8
0
 62
     7
370
    35
100
AcDbCircle
 10
159.7499122191854
 20
145.2925371480729
 30
0.0
 40
22.354864
100
AcDbArc
 50
88.85828900000003
 51
90.00641599999992
  0
LINE
  5
26B
330
1F
100
AcDbEntity
  8
0
 62
     7
370
    35
100
AcDbLine
 10
63.44419421918543
 20
167.6473961480729
 30
0.0
 11
159.7473942191854
 21
167.6473961480729
 31
0.0
  0
ARC
  5
26C
330
1F
100
AcDbEntity
  8
0
 62
     7
370
    35
100
AcDbCircle
 10
63.44168421918543
 20
145.2925071480729
 30
0.0
 40
22.354874
100
AcDbArc
 50
89.99358199999994
 51
91.14170999999993
  0
LINE
  5
26D
330
1F
100
AcDbEntity
  8
0
 62
     7
 48
0.024999
370
    13
100
AcDbLine
 10
159.7473942191854
 20
66.13125214807289
 30
0.0
 11
160.7473642191854
 21
66.13125214807289
 31
0.0
  0
LINE
  5
26E
330
1F
100
AcDbEntity
  8
0
 62
     7
 48
0.024999
370
    13
100
AcDbLine
 10
63.44419421918543
 20
66.13125214807289
 30
0.0
 11
62.44423321918543
 21
66.13125214807289
 31
0.0
  0
LINE
  5
26F
330
1F
100
AcDbEntity
  8
0
 62
     7
 48
0.069069
370
    13
100
AcDbLine
 10
66.20694321918543
 20
66.13125214807289
 30
0.0
 11
63.44419421918543
 21
66.13125214807289
 31
0.0
  0
ARC
  5
270
330
1F
100
AcDbEntity
  8
0
 62
     7
370
    35
100
AcDbCircle
 10
69.09579821918544
 20
62.86104914807289
 30
0.0
 40
4.363449
100
AcDbArc
 50
48.54292999999999
 51
131.457072
  0
LINE
  5
271
330
1F
100
AcDbEntity
  8
0
 62
     7
 48
0.010773
370
    13
100
AcDbLine
 10
72.41556121918543
 20
66.13125214807289
 30
0.0
 11
71.98465321918544
 21
66.13125214807289
 31
0.0
  0
LINE
  5
272
330
1F
100
AcDbEntity
  8
0
 62
     7
 48
0.000318
370
    35
100
AcDbLine
 10
75.36140021918544
 20
63.30512614807289
 30
0.0
 11
75.35165821918544
 21
63.31327414807289
 31
0.0
  0
ARC
  5
273
330
1F
100
AcDbEntity
  8
0
 62
     7
370
    13
100
AcDbCircle
 10
82.09579821918543
 20
71.36106514807289
 30
0.0
 40
10.50001
100
AcDbArc
 50
230.105853
 51
270.0
  0
LINE
  5
274
330
1F
100
AcDbEntity
  8
0
 62
     7
370
    13
100
AcDbLine
 10
141.0957982191854
 20
60.8610491480729
 30
0.0
 11
82.09579821918543
 21
60.8610491480729
 31
0.0
  0
ARC
  5
275
330
1F
100
AcDbEntity
  8
0
 62
     7
370
    13
100
AcDbCircle
 10
141.0957982191854
 20
71.36106514807289
 30
0.0
 40
10.500008
100
AcDbArc
 50
270.0
 51
309.8941249999999
  0
LINE
  5
276
330
1F
100
AcDbEntity
  8
0
 62
     7
 48
0.000318
370
    35
100
AcDbLine
 10
147.8301882191854
 20
63.30512614807289
 30
0.0
 11
147.8399392191854
 21
63.31327414807289
 31
0.0
  0
LINE
  5
277
330
1F
100
AcDbEntity
  8
0
 62
     7
 48
0.010773
370
    13
100
AcDbLine
 10
151.2069432191854
 20
66.13125214807289
 30
0.0
 11
150.7760202191854
 21
66.13125214807289
 31
0.0
  0
ARC
  5
278
330
1F
100
AcDbEntity
  8
0
 62
     7
370
    35
100
AcDbCircle
 10
154.0957982191854
 20
62.86104914807289
 30
0.0
 40
4.363449
100
AcDbArc
 50
48.54292999999999
 51
131.457072
  0
LINE
  5
279
330
1F
100
AcDbEntity
  8
0
 62
     7
 48
0.069069
370
    13
100
AcDbLine
 10
159.7473942191854
 20
66.13125214807289
 30
0.0
 11
156.9846532191854
 21
66.13125214807289
 31
0.0
  0
ARC
  5
27A
330
1F
100
AcDbEntity
  8
0
 62
     7
370
    35
100
AcDbCircle
 10
1131.167286219185
 20
66.08060814807288
 30
0.0
 40
970.419983
100
AcDbArc
 50
179.9970129999999
 51
180.190106
  0
LINE
  5
27B
330
1F
100
AcDbEntity
  8
0
 62
     7
 48
0.006875
370
    13
100
AcDbLine
 10
160.5973392191854
 20
300.8610491480729
 30
0.0
 11
160.8723332191854
 21
300.8610491480729
 31
0.0
  0
ARC
  5
27C
330
1F
100
AcDbEntity
  8
0
 62
     7
370
    35
100
AcDbCircle
 10
1562.530079219185
 20
291.9507401480729
 30
0.0
 40
1401.961548
100
AcDbArc
 50
179.635847
 51
180.019898
  0
LINE
  5
27D
330
1F
100
AcDbEntity
  8
0
 62
     7
 48
0.216188
370
    35
100
AcDbLine
 10
160.5684702191854
 20
291.4640771480729
 30
0.0
 11
160.5684702191854
 21
282.8165551480729
 31
0.0
  0
LINE
  5
27E
330
1F
100
AcDbEntity
  8
0
 62
     7
 48
0.216188
370
    35
100
AcDbLine
 10
62.62312721918544
 20
282.8165551480729
 30
0.0
 11
62.62312721918544
 21
291.4640771480729
 31
0.0
  0
ARC
  5
27F
330
1F
100
AcDbEntity
  8
0
 62
     7
370
    35
100
AcDbCircle
 10
-1339.338573780814
 20
291.9507401480729
 30
0.0
 40
1401.961548
100
AcDbArc
 50
359.9801209999999
 51
0.3641519999999265
  0
LINE
  5
280
330
1F
100
AcDbEntity
  8
0
 62
     7
 48
0.006875
370
    13
100
AcDbLine
 10
62.59425721918543
 20
300.8610491480729
 30
0.0
 11
62.31926321918543
 21
300.8610491480729
 31
0.0
  0
ARC
  5
281
330
1F
100
AcDbEntity
  8
0
 62
     7
370
    35
100
AcDbCircle
 10
-907.9757197808145
 20
66.08060814807288
 30
0.0
 40
970.419983
100
AcDbArc
 50
359.8099120000001
 51
0.0029899999999994
  0
LINE
  5
282
330
1F
100
AcDbEntity
  8
0
 62
   253
370
    35
100
AcDbLine
 10
133.8931922191854
 20
170.5961571480728
 30
0.0
 11
160.6387212191854
 21
170.5961571480728
 31
0.0
  0
LINE
  5
283
330
1F
100
AcDbEntity
  8
0
 62
   253
 48
0.012953
370
    35
100
AcDbLine
 10
61.49877521918543
 20
260.9376181480729
 30
0.0
 11
61.50136921918543
 21
261.4557451480729
 31
0.0
  0
LINE
  5
284
330
1F
100
AcDbEntity
  8
0
 62
   253
 48
0.070247
370
    35
100
AcDbLine
 10
61.49877521918543
 20
258.1277421480729
 30
0.0
 11
61.49877521918543
 21
260.9376181480729
 31
0.0
  0
LINE
  5
285
330
1F
100
AcDbEntity
  8
0
 62
   253
 48
0.032792
370
    35
100
AcDbLine
 10
61.49877521918543
 20
258.1277421480729
 30
0.0
 11
61.49914121918543
 21
256.8160661480729
 31
0.0
  0
LINE
  5
286
330
1F
100
AcDbEntity
  8
0
 62
   253
370
    35
100
AcDbLine
 10
61.49914121918543
 20
256.8160661480729
 30
0.0
 11
61.49914121918543
 21
192.5610621480729
 31
0.0
  0
LINE
  5
287
330
1F
100
AcDbEntity
  8
0
 62
   253
 48
0.032793
370
    35
100
AcDbLine
 10
61.49914121918543
 20
192.5610621480729
 30
0.0
 11
61.49877521918543
 21
191.2493551480729
 31
0.0
  0
LINE
  5
288
330
1F
100
AcDbEntity
  8
0
 62
   253
 48
0.061151
370
    35
100
AcDbLine
 10
61.49877521918543
 20
188.8033101480728
 30
0.0
 11
61.49877521918543
 21
191.2493551480729
 31
0.0
  0
LINE
  5
289
330
1F
100
AcDbEntity
  8
0
 62
   253
 48
0.009071
370
    35
100
AcDbLine
 10
61.49877521918543
 20
188.4404871480729
 30
0.0
 11
61.49877521918543
 21
188.8033101480728
 31
0.0
  0
LINE
  5
28A
330
1F
100
AcDbEntity
  8
0
 62
   253
 48
0.012953
370
    35
100
AcDbLine
 10
61.49877521918543
 20
188.4404871480729
 30
0.0
 11
61.50136921918543
 21
187.9223591480729
 31
0.0
  0
LINE
  5
28B
330
1F
100
AcDbEntity
  8
0
 62
   253
370
    35
100
AcDbLine
 10
161.6924632191854
 20
256.8160661480729
 30
0.0
 11
161.6924632191854
 21
192.5610621480729
 31
0.0
  0
LINE
  5
28C
330
1F
100
AcDbEntity
  8
0
 62
   253
 48
0.032792
370
    35
100
AcDbLine
 10
161.6928292191854
 20
258.1277421480729
 30
0.0
 11
161.6924632191854
 21
256.8160661480729
 31
0.0
  0
LINE
  5
28D
330
1F
100
AcDbEntity
  8
0
 62
   253
 48
0.070247
370
    35
100
AcDbLine
 10
161.6928292191854
 20
258.1277421480729
 30
0.0
 11
161.6928292191854
 21
260.9376181480729
 31
0.0
  0
LINE
  5
28E
330
1F
100
AcDbEntity
  8
0
 62
   253
 48
0.012953
370
    35
100
AcDbLine
 10
161.6928292191854
 20
260.9376181480729
 30
0.0
 11
161.6902352191854
 21
261.4557451480729
 31
0.0
  0
ARC
  5
28F
330
1F
100
AcDbEntity
  8
0
 62
   253
370
    35
100
AcDbCircle
 10
160.6387212191854
 20
171.5961261480729
 30
0.0
 40
0.9999769999999999
100
AcDbArc
 50
270.0009260000001
 51
359.9990809999999
  0
LINE
  5
290
330
1F
100
AcDbEntity
  8
0
 62
     7
370
    35
100
AcDbLine
 10
154.0957982191854
 20
307.4634661480729
 30
0.0
 11
69.09579821918544
 21
307.4634661480729
 31
0.0
  0
LINE
  5
291
330
1F
100
AcDbEntity
  8
0
 62
     7
 48
0.084924
370
    35
100
AcDbLine
 10
119.0957982191854
 20
291.4640771480729
 30
0.0
 11
119.0957982191854
 21
294.8610491480729
 31
0.0
  0
LINE
  5
292
330
1F
100
AcDbEntity
  8
0
 62
     7
 48
0.084924
370
    35
100
AcDbLine
 10
146.0957982191854
 20
294.8610491480729
 30
0.0
 11
146.0957982191854
 21
291.4640771480729
 31
0.0
  0
LINE
  5
293
330
1F
100
AcDbEntity
  8
0
 62
     7
 48
0.004353
370
    13
100
AcDbLine
 10
154.0957982191854
 20
307.4634661480729
 30
0.0
 11
154.0957982191854
 21
307.6376001480729
 31
0.0
  0
LINE
  5
294
330
1F
100
AcDbEntity
  8
0
 62
     7
 48
0.000358
370
    35
100
AcDbLine
 10
163.3593332191854
 20
280.1716881480729
 30
0.0
 11
163.3664742191854
 21
280.1592671480729
 31
0.0
  0
ARC
  5
295
330
1F
100
AcDbEntity
  8
0
 62
     7
370
    35
100
AcDbCircle
 10
160.8088572191854
 20
278.7000391480729
 30
0.0
 40
2.94459
100
AcDbArc
 50
29.98566099999991
 51
60.00105999999997
  0
ARC
  5
296
330
1F
100
AcDbEntity
  8
0
 62
     7
370
    35
100
AcDbCircle
 10
161.5692632191854
 20
282.8167071480729
 30
0.0
 40
1.000807999999999
100
AcDbArc
 50
180.008751
 51
210.0003580000001
  0
LINE
  5
297
330
1F
100
AcDbEntity
  8
0
 62
     7
 48
0.290076
370
    35
100
AcDbLine
 10
146.0957982191854
 20
291.4640771480729
 30
0.0
 11
146.0957982191854
 21
279.8610491480729
 31
0.0
  0
ARC
  5
298
330
1F
100
AcDbEntity
  8
0
 62
     7
370
    35
100
AcDbCircle
 10
144.5957982191854
 20
279.8610491480729
 30
0.0
 40
1.5
100
AcDbArc
 50
270.0
 51
0.0
  0
LINE
  5
299
330
1F
100
AcDbEntity
  8
0
 62
     7
370
    35
100
AcDbLine
 10
120.5957982191854
 20
278.3610491480729
 30
0.0
 11
144.5957982191854
 21
278.3610491480729
 31
0.0
  0
ARC
  5
29A
330
1F
100
AcDbEntity
  8
0
 62
     7
370
    35
100
AcDbCircle
 10
120.5957982191854
 20
279.8610491480729
 30
0.0
 40
1.5
100
AcDbArc
 50
180.0
 51
270.0
  0
LINE
  5
29B
330
1F
100
AcDbEntity
  8
0
 62
     7
 48
0.290076
370
    35
100
AcDbLine
 10
119.0957982191854
 20
291.4640771480729
 30
0.0
 11
119.0957982191854
 21
279.8610491480729
 31
0.0
  0
LINE
  5
29C
330
1F
100
AcDbEntity
  8
0
 62
     7
 48
0.000421
370
    35
100
AcDbLine
 10
163.5190922191854
 20
279.8949851480729
 30
0.0
 11
163.5274852191854
 21
279.8803671480729
 31
0.0
  0
ARC
  5
29D
330
1F
100
AcDbEntity
  8
0
 62
     7
370
    13
100
AcDbCircle
 10
160.9213752191854
 20
278.3948931480729
 30
0.0
 40
2.999731
100
AcDbArc
 50
359.994846
 51
29.682926
  0
LINE
  5
29E
330
1F
100
AcDbEntity
  8
0
 62
     7
370
    13
100
AcDbLine
 10
163.9211002191854
 20
170.7532001480729
 30
0.0
 11
163.9211002191854
 21
278.3946191480729
 31
0.0
  0
LINE
  5
29F
330
1F
100
AcDbEntity
  8
0
 62
     7
 48
0.004353
370
    13
100
AcDbLine
 10
69.09579821918544
 20
307.4634661480729
 30
0.0
 11
69.09579821918544
 21
307.6376001480729
 31
0.0
  0
ARC
  5
2A0
330
1F
100
AcDbEntity
  8
0
 62
     7
370
    35
100
AcDbCircle
 10
62.38276321918544
 20
278.6999781480729
 30
0.0
 40
2.944617
100
AcDbArc
 50
119.9990199999999
 51
150.0141489999998
  0
LINE
  5
2A1
330
1F
100
AcDbEntity
  8
0
 62
     7
 48
0.000358
370
    35
100
AcDbLine
 10
59.83226421918543
 20
280.1716881480729
 30
0.0
 11
59.82512321918544
 21
280.1592671480729
 31
0.0
  0
ARC
  5
2A2
330
1F
100
AcDbEntity
  8
0
 62
     7
370
    35
100
AcDbCircle
 10
61.62232621918544
 20
282.8167071480729
 30
0.0
 40
1.000807999999999
100
AcDbArc
 50
329.9996609999999
 51
359.991267
  0
ARC
  5
2A3
330
1F
100
AcDbEntity
  8
0
 62
     7
370
    13
100
AcDbCircle
 10
62.27022121918544
 20
278.3948931480729
 30
0.0
 40
2.999731
100
AcDbArc
 50
150.0054889999999
 51
180.005186
  0
LINE
  5
2A4
330
1F
100
AcDbEntity
  8
0
 62
     7
370
    13
100
AcDbLine
 10
59.27048821918543
 20
170.7532001480729
 30
0.0
 11
59.27048821918543
 21
278.3946191480729
 31
0.0
  0
LINE
  5
2A5
330
1F
100
AcDbEntity
  8
0
 62
   253
370
    35
100
AcDbLine
 10
160.7149542191854
 20
277.5381731480729
 30
0.0
 11
116.6024362191854
 21
277.5381731480729
 31
0.0
  0
ARC
  5
2A6
330
1F
100
AcDbEntity
  8
0
 62
     7
370
    35
100
AcDbCircle
 10
154.0379982191854
 20
62.84745414807289
 30
0.0
 40
6.715477
100
AcDbArc
 50
270.4931639999998
 51
0.116031000000054
  0
ARC
  5
2A7
330
1F
100
AcDbEntity
  8
0
 62
     7
370
    35
100
AcDbCircle
 10
154.1128732191854
 20
62.87475214807288
 30
0.0
 40
4.341484999999999
100
AcDbArc
 50
298.3633759999999
 51
48.59218899999991
  0
ARC
  5
2A8
330
1F
100
AcDbEntity
  8
0
 62
     7
370
    35
100
AcDbCircle
 10
69.07871621918544
 20
62.87475214807288
 30
0.0
 40
4.341484999999999
100
AcDbArc
 50
131.407813
 51
241.636633
  0
LINE
  5
2A9
330
1F
100
AcDbEntity
  8
0
 62
     7
370
    35
100
AcDbLine
 10
154.0957982191854
 20
56.13161814807289
 30
0.0
 11
69.09579821918544
 21
56.13161814807289
 31
0.0
  0
ARC
  5
2AA
330
1F
100
AcDbEntity
  8
0
 62
     7
370
    35
100
AcDbCircle
 10
69.15360621918543
 20
62.84745414807289
 30
0.0
 40
6.715477
100
AcDbArc
 50
179.8839739999999
 51
269.5068579999999
  0
LINE
  5
2AB
330
1F
100
AcDbEntity
  8
0
 62
     7
 48
0.001178
370
    13
100
AcDbLine
 10
69.09579821918544
 20
56.13161814807289
 30
0.0
 11
69.09579821918544
 21
56.08451414807289
 31
0.0
  0
ARC
  5
2AC
330
1F
100
AcDbEntity
  8
0
 62
     7
370
    35
100
AcDbCircle
 10
144.5957982191854
 20
294.8610491480729
 30
0.0
 40
1.5
100
AcDbArc
 50
0.0
 51
90.0
  0
LINE
  5
2AD
330
1F
100
AcDbEntity
  8
0
 62
     7
370
    35
100
AcDbLine
 10
120.5957982191854
 20
296.3610491480729
 30
0.0
 11
144.5957982191854
 21
296.3610491480729
 31
0.0
  0
ARC
  5
2AE
330
1F
100
AcDbEntity
  8
0
 62
     7
370
    35
100
AcDbCircle
 10
120.5957982191854
 20
294.8610491480729
 30
0.0
 40
1.5
100
AcDbArc
 50
90.0
 51
180.0
  0
LINE
  5
2AF
330
1F
100
AcDbEntity
  8
0
 62
     7
 48
0.018748
370
    13
100
AcDbLine
 10
62.31926321918543
 20
300.8610491480729
 30
0.0
 11
61.56932421918543
 21
300.8610491480729
 31
0.0
  0
LINE
  5
2B0
330
1F
100
AcDbEntity
  8
0
 62
     7
 48
0.018748
370
    13
100
AcDbLine
 10
69.09579821918544
 20
307.6376001480729
 30
0.0
 11
69.09579821918544
 21
308.3875391480729
 31
0.0
  0
LINE
  5
2B1
330
1F
100
AcDbEntity
  8
0
 62
     7
 48
0.018748
370
    13
100
AcDbLine
 10
154.0957982191854
 20
307.6376001480729
 30
0.0
 11
154.0957982191854
 21
308.3875391480729
 31
0.0
  0
LINE
  5
2B2
330
1F
100
AcDbEntity
  8
0
 62
     7
 48
0.018748
370
    13
100
AcDbLine
 10
160.8723332191854
 20
300.8610491480729
 30
0.0
 11
161.6222722191854
 21
300.8610491480729
 31
0.0
  0
LINE
  5
2B3
330
1F
100
AcDbEntity
  8
0
 62
     7
 48
0.042186
370
    13
100
AcDbLine
 10
61.56932421918543
 20
300.8610491480729
 30
0.0
 11
59.88189321918543
 21
300.8610491480729
 31
0.0
  0
LINE
  5
2B4
330
1F
100
AcDbEntity
  8
0
 62
     7
 48
0.042185
370
    13
100
AcDbLine
 10
69.09579821918544
 20
308.3875391480729
 30
0.0
 11
69.09579821918544
 21
310.0749471480729
 31
0.0
  0
LINE
  5
2B5
330
1F
100
AcDbEntity
  8
0
 62
     7
 48
0.042185
370
    13
100
AcDbLine
 10
154.0957982191854
 20
308.3875391480729
 30
0.0
 11
154.0957982191854
 21
310.0749471480729
 31
0.0
  0
LINE
  5
2B6
330
1F
100
AcDbEntity
  8
0
 62
     7
 48
0.042186
370
    13
100
AcDbLine
 10
161.6222722191854
 20
300.8610491480729
 30
0.0
 11
163.3097112191854
 21
300.8610491480729
 31
0.0
  0
LINE
  5
2B7
330
1F
100
AcDbEntity
  8
0
 62
     7
 48
0.018749
370
    13
100
AcDbLine
 10
59.88189321918543
 20
300.8610491480729
 30
0.0
 11
59.13195021918544
 21
300.8610491480729
 31
0.0
  0
LINE
  5
2B8
330
1F
100
AcDbEntity
  8
0
 62
     7
 48
0.018749
370
    13
100
AcDbLine
 10
69.09579821918544
 20
310.0749471480729
 30
0.0
 11
69.09579821918544
 21
310.8249161480729
 31
0.0
  0
LINE
  5
2B9
330
1F
100
AcDbEntity
  8
0
 62
     7
 48
0.018749
370
    13
100
AcDbLine
 10
154.0957982191854
 20
310.0749471480729
 30
0.0
 11
154.0957982191854
 21
310.8249161480729
 31
0.0
  0
LINE
  5
2BA
330
1F
100
AcDbEntity
  8
0
 62
     7
 48
0.018748
370
    13
100
AcDbLine
 10
163.3097112191854
 20
300.8610491480729
 30
0.0
 11
164.0596502191854
 21
300.8610491480729
 31
0.0
  0
ARC
  5
2BB
330
1F
100
AcDbEntity
  8
0
 62
     7
370
    35
100
AcDbCircle
 10
154.0957982191854
 20
62.86104914807289
 30
0.0
 40
10.0
100
AcDbArc
 50
270.0
 51
0.0
  0
LINE
  5
2BC
330
1F
100
AcDbEntity
  8
0
 62
     7
370
    35
100
AcDbLine
 10
69.09579821918544
 20
52.86104914807289
 30
0.0
 11
154.0957982191854
 21
52.86104914807289
 31
0.0
  0
LINE
  5
2BD
330
1F
100
AcDbEntity
  8
0
 62
     7
 48
0.000904
370
    13
100
AcDbLine
 10
69.09579821918544
 20
52.89719714807289
 30
0.0
 11
69.09579821918544
 21
52.86104914807289
 31
0.0
  0
ARC
  5
2BE
330
1F
100
AcDbEntity
  8
0
 62
     7
370
    35
100
AcDbCircle
 10
69.09579821918544
 20
62.86104914807289
 30
0.0
 40
10.0
100
AcDbArc
 50
180.0
 51
270.0
  0
LINE
  5
2BF
330
1F
100
AcDbEntity
  8
0
 62
     7
370
    35
100
AcDbLine
 10
59.09579821918544
 20
62.86104914807289
 30
0.0
 11
59.09579821918544
 21
300.8610491480729
 31
0.0
  0
LINE
  5
2C0
330
1F
100
AcDbEntity
  8
0
 62
     7
 48
0.000904
370
    13
100
AcDbLine
 10
59.13195021918544
 20
300.8610491480729
 30
0.0
 11
59.09579821918544
 21
300.8610491480729
 31
0.0
  0
ARC
  5
2C1
330
1F
100
AcDbEntity
  8
0
 62
     7
370
    35
100
AcDbCircle
 10
69.09579821918544
 20
300.8610491480729
 30
0.0
 40
10.0
100
AcDbArc
 50
90.0
 51
180.0
  0
LINE
  5
2C2
330
1F
100
AcDbEntity
  8
0
 62
     7
 48
0.000903
370
    13
100
AcDbLine
 10
69.09579821918544
 20
310.8249161480729
 30
0.0
 11
69.09579821918544
 21
310.8610491480729
 31
0.0
  0
LINE
  5
2C3
330
1F
100
AcDbEntity
  8
0
 62
     7
370
    35
100
AcDbLine
 10
154.0957982191854
 20
310.8610491480729
 30
0.0
 11
69.09579821918544
 21
310.8610491480729
 31
0.0
  0
LINE
  5
2C4
330
1F
100
AcDbEntity
  8
0
 62
     7
 48
0.000903
370
    13
100
AcDbLine
 10
154.0957982191854
 20
310.8249161480729
 30
0.0
 11
154.0957982191854
 21
310.8610491480729
 31
0.0
  0
ARC
  5
2C5
330
1F
100
AcDbEntity
  8
0
 62
     7
370
    35
100
AcDbCircle
 10
154.0957982191854
 20
300.8610491480729
 30
0.0
 40
10.0
100
AcDbArc
 50
0.0
 51
90.0
  0
LINE
  5
2C6
330
1F
100
AcDbEntity
  8
0
 62
     7
 48
0.000904
370
    13
100
AcDbLine
 10
164.0596502191854
 20
300.8610491480729
 30
0.0
 11
164.0957982191854
 21
300.8610491480729
 31
0.0
  0
LINE
  5
2C7
330
1F
100
AcDbEntity
  8
0
 62
     7
370
    35
100
AcDbLine
 10
164.0957982191854
 20
300.8610491480729
 30
0.0
 11
164.0957982191854
 21
62.86104914807289
 31
0.0
  0
ARC
  5
2C8
330
1F
100
AcDbEntity
  8
0
 62
     7
370
    35
100
AcDbCircle
 10
162.8324312191854
 20
146.8536031480729
 30
0.0
 40
20.945576
100
AcDbArc
 50
94.94969000000008
 51
96.74085299999989
  0
ARC
  5
2C9
330
1F
100
AcDbEntity
  8
0
 62
     7
370
    35
100
AcDbCircle
 10
160.7108042191854
 20
170.8559221480729
 30
0.0
 40
3.149901999999999
100
AcDbArc
 50
275.7277119999999
 51
284.095548
  0
LINE
  5
2CA
330
1F
100
AcDbEntity
  8
0
 62
     7
 48
0.001111
370
    35
100
AcDbLine
 10
161.5212592191854
 20
167.8106951480728
 30
0.0
 11
161.4779242191854
 21
167.8008691480729
 31
0.0
  0
LINE
  5
2CB
330
1F
100
AcDbEntity
  8
0
 62
     7
 48
0.001112
370
    35
100
AcDbLine
 10
61.67033721918543
 20
167.8106951480728
 30
0.0
 11
61.71370321918543
 21
167.8008381480728
 31
0.0
  0
LINE
  5
2CC
330
1F
100
AcDbEntity
  8
0
 62
     7
 48
0.034996
370
    35
100
AcDbLine
 10
162.2810862191854
 20
281.2501481480729
 30
0.0
 11
161.0687752191854
 21
281.9500391480729
 31
0.0
  0
ARC
  5
2CD
330
1F
100
AcDbEntity
  8
0
 62
     7
370
    35
100
AcDbCircle
 10
161.5690502191854
 20
282.8165551480729
 30
0.0
 40
1.000538999999999
100
AcDbArc
 50
210.311418
 51
239.999191
  0
LINE
  5
2CE
330
1F
100
AcDbEntity
  8
0
 62
     7
 48
0.007988
370
    35
100
AcDbLine
 10
163.3593332191854
 20
280.1716881480729
 30
0.0
 11
163.5190922191854
 21
279.8949851480729
 31
0.0
  0
LINE
  5
2CF
330
1F
100
AcDbEntity
  8
0
 62
     7
 48
0.034996
370
    35
100
AcDbLine
 10
62.12282921918543
 20
281.9500391480729
 30
0.0
 11
60.91050321918544
 21
281.2501481480729
 31
0.0
  0
ARC
  5
2D0
330
1F
100
AcDbEntity
  8
0
 62
     7
370
    35
100
AcDbCircle
 10
61.62254721918543
 20
282.8165551480729
 30
0.0
 40
1.000539999999999
100
AcDbArc
 50
300.000838
 51
330.0009999999999
  0
LINE
  5
2D1
330
1F
100
AcDbEntity
  8
0
 62
     7
 48
0.008002
370
    35
100
AcDbLine
 10
59.83226421918543
 20
280.1716881480729
 30
0.0
 11
59.67223321918543
 21
279.8944971480729
 31
0.0
  0
ARC
  5
2D2
330
1F
100
AcDbEntity
  8
0
 62
     7
370
    35
100
AcDbCircle
 10
160.9190402191854
 20
170.7514301480729
 30
0.0
 40
3.001943
100
AcDbArc
 50
281.573295
 51
0.0340109999999511
  0
ARC
  5
2D3
330
1F
100
AcDbEntity
  8
0
 62
     7
370
    35
100
AcDbCircle
 10
160.9209022191854
 20
278.3946191480729
 30
0.0
 40
3.000286
100
AcDbArc
 50
0.0002659999999841
 51
29.68298399999992
  0
ARC
  5
2D4
330
1F
100
AcDbEntity
  8
0
 62
     7
370
    35
100
AcDbCircle
 10
62.27067921918544
 20
278.3946191480729
 30
0.0
 40
3.000265
100
AcDbArc
 50
150.0051879999998
 51
179.999923
  0
LINE
  5
2D5
330
1F
100
AcDbEntity
  8
0
 62
     7
370
    35
100
AcDbLine
 10
59.27041221918543
 20
170.7532001480729
 30
0.0
 11
59.27040821918544
 21
278.3946191480729
 31
0.0
  0
LINE
  5
2D6
330
1F
100
AcDbEntity
  8
0
 62
     7
370
    35
100
AcDbLine
 10
163.9211922191854
 20
170.7532001480729
 30
0.0
 11
163.9211922191854
 21
278.3946191480729
 31
0.0
  0
CIRCLE
  5
2D7
330
1F
100
AcDbEntity
  8
0
 62
     7
370
    35
100
AcDbCircle
 10
69.09579821918544
 20
62.86104914807289
 30
0.0
 40
1.393407999999999
  0
CIRCLE
  5
2D8
330
1F
100
AcDbEntity
  8
0
 62
     7
370
    35
100
AcDbCircle
 10
154.0957982191854
 20
62.86104914807289
 30
0.0
 40
1.393407999999999
  0
CIRCLE
  5
2D9
330
1F
100
AcDbEntity
  8
0
 62
     7
370
    35
100
AcDbCircle
 10
69.09579821918544
 20
300.8610491480729
 30
0.0
 40
1.405629
  0
CIRCLE
  5
2DA
330
1F
100
AcDbEntity
  8
0
 62
     7
370
    35
100
AcDbCircle
 10
154.0957982191854
 20
300.8610491480729
 30
0.0
 40
1.405629
  0
ARC
  5
2DB
330
1F
100
AcDbEntity
  8
0
 62
     7
370
    35
100
AcDbCircle
 10
154.0957982191854
 20
300.8610491480729
 30
0.0
 40
10.0
100
AcDbArc
 50
0.0
 51
90.0
  0
LINE
  5
2DC
330
1F
100
AcDbEntity
  8
0
 62
     7
370
    35
100
AcDbLine
 10
59.09579821918544
 20
62.86104914807289
 30
0.0
 11
59.09579821918544
 21
300.8610491480729
 31
0.0
  0
LINE
  5
2DD
330
1F
100
AcDbEntity
  8
0
 62
     7
370
    35
100
AcDbLine
 10
154.0957982191854
 20
310.8610491480729
 30
0.0
 11
69.09579821918544
 21
310.8610491480729
 31
0.0
  0
ARC
  5
2DE
330
1F
100
AcDbEntity
  8
0
 62
     7
370
    35
100
AcDbCircle
 10
69.09579821918544
 20
300.8610491480729
 30
0.0
 40
10.0
100
AcDbArc
 50
90.0
 51
180.0
  0
LINE
  5
2DF
330
1F
100
AcDbEntity
  8
0
 62
   253
 48
0.4875
370
    35
100
AcDbLine
 10
139.5957982191854
 20
182.3610491480728
 30
0.0
 11
159.0957982191854
 21
182.3610491480728
 31
0.0
  0
LINE
  5
2E0
330
1F
100
AcDbEntity
  8
0
 62
   253
 48
0.019812
370
    35
100
AcDbLine
 10
139.5957982191854
 20
182.3610491480728
 30
0.0
 11
138.8033022191854
 21
182.3610491480728
 31
0.0
  0
LINE
  5
2E1
330
1F
100
AcDbEntity
  8
0
 62
   253
 48
0.305188
370
    35
100
AcDbLine
 10
138.8033022191854
 20
182.3610491480728
 30
0.0
 11
126.5957982191854
 21
182.3610491480728
 31
0.0
  0
LINE
  5
2E2
330
1F
100
AcDbEntity
  8
0
 62
   253
 48
0.238382
370
    35
100
AcDbLine
 10
126.5957982191854
 20
182.3610491480728
 30
0.0
 11
117.0605052191854
 21
182.3610491480728
 31
0.0
  0
LINE
  5
2E3
330
1F
100
AcDbEntity
  8
0
 62
   253
 48
0.000625
370
    35
100
AcDbLine
 10
106.1310922191854
 20
182.3610491480728
 30
0.0
 11
106.1560782191854
 21
182.3610491480728
 31
0.0
  0
LINE
  5
2E4
330
1F
100
AcDbEntity
  8
0
 62
   253
 48
0.238382
370
    35
100
AcDbLine
 10
106.1310922191854
 20
182.3610491480728
 30
0.0
 11
96.59579821918544
 21
182.3610491480728
 31
0.0
  0
LINE
  5
2E5
330
1F
100
AcDbEntity
  8
0
 62
   253
 48
0.305188
370
    35
100
AcDbLine
 10
96.59579821918544
 20
182.3610491480728
 30
0.0
 11
84.38829421918544
 21
182.3610491480728
 31
0.0
  0
LINE
  5
2E6
330
1F
100
AcDbEntity
  8
0
 62
   253
 48
0.019812
370
    35
100
AcDbLine
 10
84.38829421918544
 20
182.3610491480728
 30
0.0
 11
83.59579821918543
 21
182.3610491480728
 31
0.0
  0
LINE
  5
2E7
330
1F
100
AcDbEntity
  8
0
 62
   253
 48
0.4875
370
    35
100
AcDbLine
 10
64.09579821918544
 20
182.3610491480728
 30
0.0
 11
83.59579821918543
 21
182.3610491480728
 31
0.0
  0
ARC
  5
2E8
330
1F
100
AcDbEntity
  8
0
 62
   253
370
    35
100
AcDbCircle
 10
85.93178921918543
 20
186.5220911480729
 30
0.0
 40
1.835285999999999
100
AcDbArc
 50
131.5020009999999
 51
180.4376329999999
  0
ARC
  5
2E9
330
1F
100
AcDbEntity
  8
0
 62
   253
370
    35
100
AcDbCircle
 10
96.58974021918545
 20
174.2797501480729
 30
0.0
 40
18.067045
100
AcDbArc
 50
89.98080300000005
 51
131.088952
  0
LINE
  5
2EA
330
1F
100
AcDbEntity
  8
0
 62
   253
370
    35
100
AcDbLine
 10
96.59579821918544
 20
192.3471941480729
 30
0.0
 11
126.5957982191854
 21
192.3471941480729
 31
0.0
  0
ARC
  5
2EB
330
1F
100
AcDbEntity
  8
0
 62
   253
370
    35
100
AcDbCircle
 10
126.6018562191854
 20
174.2797501480729
 30
0.0
 40
18.067057
100
AcDbArc
 50
48.9110670000001
 51
90.01918899999987
  0
ARC
  5
2EC
330
1F
100
AcDbEntity
  8
0
 62
   253
370
    35
100
AcDbCircle
 10
137.2598152191854
 20
186.5220911480729
 30
0.0
 40
1.835286999999999
100
AcDbArc
 50
359.562413
 51
48.49799400000008
  0
LINE
  5
2ED
330
1F
100
AcDbEntity
  8
0
 62
   253
 48
0.091175
370
    35
100
AcDbLine
 10
84.09579821918544
 20
182.8610491480729
 30
0.0
 11
84.09579821918544
 21
186.5080521480729
 31
0.0
  0
LINE
  5
2EE
330
1F
100
AcDbEntity
  8
0
 62
   253
 48
0.091175
370
    35
100
AcDbLine
 10
139.0957982191854
 20
182.8610491480729
 30
0.0
 11
139.0957982191854
 21
186.5080521480729
 31
0.0
  0
ARC
  5
2EF
330
1F
100
AcDbEntity
  8
0
 62
   253
370
    35
100
AcDbCircle
 10
139.5957982191854
 20
182.8610491480729
 30
0.0
 40
0.5
100
AcDbArc
 50
180.0
 51
270.0
  0
ARC
  5
2F0
330
1F
100
AcDbEntity
  8
0
 62
   253
370
    35
100
AcDbCircle
 10
83.59579821918543
 20
182.8610491480729
 30
0.0
 40
0.5
100
AcDbArc
 50
270.0
 51
0.0
  0
LINE
  5
2F1
330
1F
100
AcDbEntity
  8
0
 62
   253
 48
0.001337
370
    35
100
AcDbLine
 10
138.7783242191854
 20
180.7971451480729
 30
0.0
 11
138.7257572191854
 21
180.7871971480729
 31
0.0
  0
LINE
  5
2F2
330
1F
100
AcDbEntity
  8
0
 62
   253
 48
0.003186
370
    35
100
AcDbLine
 10
138.7783242191854
 20
180.7971451480729
 30
0.0
 11
138.9057652191854
 21
180.7971451480729
 31
0.0
  0
LINE
  5
2F3
330
1F
100
AcDbEntity
  8
0
 62
   253
 48
0.034277
370
    35
100
AcDbLine
 10
138.9057652191854
 20
180.7971451480729
 30
0.0
 11
140.2768592191854
 21
180.7971451480729
 31
0.0
  0
ARC
  5
2F4
330
1F
100
AcDbEntity
  8
0
 62
   253
370
    35
100
AcDbCircle
 10
140.2228582191854
 20
180.1641801480729
 30
0.0
 40
0.6345380000000001
100
AcDbArc
 50
53.41975299999989
 51
85.12413500000008
  0
ARC
  5
2F5
330
1F
100
AcDbEntity
  8
0
 62
   253
370
    35
100
AcDbCircle
 10
82.96886821918544
 20
180.1638451480729
 30
0.0
 40
0.6348630000000001
100
AcDbArc
 50
94.88537699999985
 51
126.573159
  0
LINE
  5
2F6
330
1F
100
AcDbEntity
  8
0
 62
   253
 48
0.034277
370
    35
100
AcDbLine
 10
84.28583121918544
 20
180.7971451480729
 30
0.0
 11
82.91473721918544
 21
180.7971451480729
 31
0.0
  0
LINE
  5
2F7
330
1F
100
AcDbEntity
  8
0
 62
   253
 48
0.003186
370
    35
100
AcDbLine
 10
84.41327321918544
 20
180.7971451480729
 30
0.0
 11
84.28583921918542
 21
180.7971451480729
 31
0.0
  0
LINE
  5
2F8
330
1F
100
AcDbEntity
  8
0
 62
   253
 48
0.001337
370
    35
100
AcDbLine
 10
84.41327321918544
 20
180.7971451480729
 30
0.0
 11
84.46583921918543
 21
180.7871971480729
 31
0.0
  0
LINE
  5
2F9
330
1F
100
AcDbEntity
  8
0
 62
   253
370
    35
100
AcDbLine
 10
96.59579821918544
 20
174.3849751480729
 30
0.0
 11
126.5957982191854
 21
174.3849751480729
 31
0.0
  0
LINE
  5
2FA
330
1F
100
AcDbEntity
  8
0
 62
   253
370
    35
100
AcDbLine
 10
126.5957982191854
 20
177.8610491480729
 30
0.0
 11
96.59579821918544
 21
177.8610491480729
 31
0.0
  0
LINE
  5
2FB
330
1F
100
AcDbEntity
  8
0
 62
   253
 48
0.000579
370
    35
100
AcDbLine
 10
84.63283121918543
 20
180.7359581480729
 30
0.0
 11
84.65443821918544
 21
180.7275651480729
 31
0.0
  0
ARC
  5
2FC
330
1F
100
AcDbEntity
  8
0
 62
   253
370
    35
100
AcDbCircle
 10
84.20842321918543
 20
179.6527971480729
 30
0.0
 40
1.163277
100
AcDbArc
 50
68.60348599999993
 51
77.21468800000001
  0
LINE
  5
2FD
330
1F
100
AcDbEntity
  8
0
 62
   253
 48
0.000734
370
    35
100
AcDbLine
 10
84.65440021918544
 20
180.7274431480729
 30
0.0
 11
84.68170521918542
 21
180.7167011480729
 31
0.0
  0
LINE
  5
2FE
330
1F
100
AcDbEntity
  8
0
 62
   253
 48
0.002258
370
    35
100
AcDbLine
 10
85.16916221918544
 20
180.4166521480729
 30
0.0
 11
85.09792721918543
 21
180.4721941480729
 31
0.0
  0
ARC
  5
2FF
330
1F
100
AcDbEntity
  8
0
 62
   253
370
    35
100
AcDbCircle
 10
83.96265821918545
 20
179.0277061480729
 30
0.0
 40
1.836344
100
AcDbArc
 50
51.83522800000003
 51
66.93906400000002
  0
LINE
  5
300
330
1F
100
AcDbEntity
  8
0
 62
   253
 48
0.000595
370
    35
100
AcDbLine
 10
85.15057021918542
 20
180.4317891480728
 30
0.0
 11
85.16904821918544
 21
180.4167741480729
 31
0.0
  0
ARC
  5
301
330
1F
100
AcDbEntity
  8
0
 62
   253
370
    35
100
AcDbCircle
 10
139.2289622191854
 20
179.0276751480729
 30
0.0
 40
1.836392999999999
100
AcDbArc
 50
113.0612069999999
 51
128.164648
  0
LINE
  5
302
330
1F
100
AcDbEntity
  8
0
 62
   253
 48
0.002258
370
    35
100
AcDbLine
 10
138.0224342191854
 20
180.4166521480729
 30
0.0
 11
138.0936772191854
 21
180.4721941480729
 31
0.0
  0
LINE
  5
303
330
1F
100
AcDbEntity
  8
0
 62
   253
 48
0.000733
370
    35
100
AcDbLine
 10
138.5371892191854
 20
180.7274431480729
 30
0.0
 11
138.5098912191854
 21
180.7167011480729
 31
0.0
  0
ARC
  5
304
330
1F
100
AcDbEntity
  8
0
 62
   253
370
    35
100
AcDbCircle
 10
138.9832952191854
 20
179.6526751480729
 30
0.0
 40
1.163462999999999
100
AcDbArc
 50
102.7895800000001
 51
111.399395
  0
LINE
  5
305
330
1F
100
AcDbEntity
  8
0
 62
   253
 48
0.000579
370
    35
100
AcDbLine
 10
138.5587652191854
 20
180.7359581480729
 30
0.0
 11
138.5371592191854
 21
180.7275651480729
 31
0.0
  0
ARC
  5
306
330
1F
100
AcDbEntity
  8
0
 62
   253
370
    35
100
AcDbCircle
 10
126.5678292191854
 20
206.0246241480729
 30
0.0
 40
28.164162
100
AcDbArc
 50
270.0569340000001
 51
282.7320709999999
  0
ARC
  5
307
330
1F
100
AcDbEntity
  8
0
 62
   253
370
    35
100
AcDbCircle
 10
96.62377521918543
 20
206.0246851480729
 30
0.0
 40
28.164249
100
AcDbArc
 50
257.2679850000001
 51
269.9430880000001
  0
LINE
  5
308
330
1F
100
AcDbEntity
  8
0
 62
   253
370
    35
100
AcDbLine
 10
126.5957982191854
 20
180.9294391480729
 30
0.0
 11
96.59579821918544
 21
180.9294391480729
 31
0.0
  0
LINE
  5
309
330
1F
100
AcDbEntity
  8
0
 62
   253
 48
0.000595
370
    35
100
AcDbLine
 10
85.15057021918542
 20
180.4317891480728
 30
0.0
 11
85.16904821918544
 21
180.4167741480729
 31
0.0
  0
LINE
  5
30A
330
1F
100
AcDbEntity
  8
0
 62
     7
370
    13
100
AcDbLine
 10
62.62312721918544
 20
289.212917148073
 30
0.0
 11
119.0957982191854
 21
289.212917148073
 31
0.0
  0
LINE
  5
30B
330
1F
100
AcDbEntity
  8
0
 62
     7
 48
0.361817
370
    13
100
AcDbLine
 10
160.5684702191854
 20
289.212917148073
 30
0.0
 11
146.0957982191854
 21
289.212917148073
 31
0.0
  0
LINE
  5
30C
330
1F
100
AcDbEntity
  8
0
 62
     7
100
AcDbLine
 10
66.59579821918544
 20
251.3873396280729
 30
0.0
 11
66.59579821918544
 21
206.3347586680729
 31
0.0
  0
LINE
  5
30D
330
1F
100
AcDbEntity
  8
0
 62
     7
100
AcDbLine
 10
66.59579821918544
 20
206.3347586680729
 30
0.0
 11
156.5957982191854
 21
206.3347586680729
 31
0.0
  0
LINE
  5
30E
330
1F
100
AcDbEntity
  8
0
 62
     7
100
AcDbLine
 10
156.5957982191854
 20
206.3347586680729
 30
0.0
 11
156.5957982191854
 21
251.3873396280729
 31
0.0
  0
LINE
  5
30F
330
1F
100
AcDbEntity
  8
0
 62
     7
100
AcDbLine
 10
156.5957982191854
 20
251.3873396280729
 30
0.0
 11
66.59579821918544
 21
251.3873396280729
 31
0.0
  0
DIMENSION
  5
310
330
1F
100
AcDbEntity
  8
QUOTE
 62
     7
100
AcDbDimension
  2
*D5
 10
35.98302846918544
 20
52.8971971480729
 30
0.0
 11
35.98302846918544
 21
182.8202107980729
 31
0.0
 70
   160
 71
     0
 42
257.963852
  3
Standard
100
AcDbAlignedDimension
 13
69.09579821918544
 23
310.8610491480729
 33
0.0
 14
69.09579821918544
 24
52.89719714807289
 34
0.0
 50
90.0
100
AcDbRotatedDimension
1001
ACAD
1000
DSTYLE
1002
{
1070
    45
1040
1.0
1070
    41
1040
15.0
1070
   140
1040
10.0
1070
    78
1070
     8
1070
   284
1070
     8
1002
}
  0
DIMENSION
  5
311
330
1F
100
AcDbEntity
  8
QUOTE
 62
     7
100
AcDbDimension
  2
*D6
 10
59.09579821918544
 20
33.20347312807289
 30
0.0
 11
112.2823080291854
 21
33.20347312807289
 31
0.0
 70
   160
 71
     0
 42
105.0
  3
Standard
100
AcDbAlignedDimension
 13
164.0957982191854
 23
62.86105088807289
 33
0.0
 14
59.09579821918544
 24
62.86104757807289
 34
0.0
100
AcDbRotatedDimension
1001
ACAD
1000
DSTYLE
1002
{
1070
    41
1040
15.0
1070
   140
1040
10.0
1070
    78
1070
     8
1070
   284
1070
     8
1002
}
  0
TEXT
  5
312
330
1F
100
AcDbEntity
  8
0
 62
     7
100
AcDbText
 10
76.79783513680447
 20
298.4495182780729
 30
0.0
 40
5.0
  1
GW68017N
 72
     1
 11
95.25021608918544
 21
298.4495182780729
 31
0.0
100
AcDbText
  0
LWPOLYLINE
  5
313
330
1F
100
AcDbEntity
  8
0
 62
     7
370
    13
100
AcDbPolyline
 90
        6
 70
     0
 43
0.0
 10
75.35165821918544
 20
63.31327414807289
 10
74.57718221918543
 20
63.97088214807289
 10
73.82199421918542
 20
64.6503411480729
 10
73.34422721918542
 20
65.11288014807289
 10
72.88293021918542
 20
65.59441714807289
 10
72.41556121918543
 20
66.13125214807289
  0
LWPOLYLINE
  5
314
330
1F
100
AcDbEntity
  8
0
 62
     7
370
    13
100
AcDbPolyline
 90
        6
 70
     0
 43
0.0
 10
147.8399392191854
 20
63.31327414807289
 10
148.6145212191854
 20
63.97097414807289
 10
149.3697542191854
 20
64.65047814807289
 10
149.8473552191854
 20
65.11285014807289
 10
150.3085972191854
 20
65.59434114807288
 10
150.7760202191854
 20
66.13125214807289
  0
LWPOLYLINE
  5
315
330
1F
100
AcDbEntity
  8
0
 62
     7
370
    35
100
AcDbPolyline
 90
       30
 70
     0
 43
0.0
 10
154.0957982191854
 20
307.4634661480729
 10
154.4588962191854
 20
307.4490621480729
 10
154.8213082191854
 20
307.4146381480729
 10
155.1811412191854
 20
307.3602861480729
 10
155.5384712191854
 20
307.2859461480728
 10
155.8903692191854
 20
307.1921651480729
 10
156.2381632191854
 20
307.0785181480729
 10
156.5777172191854
 20
306.9463461480729
 10
156.9115482191854
 20
306.7945821480729
 10
157.2345312191854
 20
306.6255151480728
 10
157.5501592191854
 20
306.4372521480728
 10
157.8524972191854
 20
306.2333031480729
 10
158.1458322191854
 20
306.0107081480729
 10
158.4237252191854
 20
305.7743181480729
 10
158.6909982191854
 20
305.5199241480729
 10
158.9409372191854
 20
305.2539331480728
 10
159.1786692191854
 20
304.9707291480729
 10
159.3974192191854
 20
304.6783711480729
 10
159.6022982191854
 20
304.3699911480729
 10
159.7870062191854
 20
304.0550191480729
 10
159.9561962191854
 20
303.7254901480729
 10
160.1044502191854
 20
303.3919331480729
 10
160.2356752191854
 20
303.0456501480729
 10
160.3456302191854
 20
302.6977191480729
 10
160.4371982191854
 20
302.3390771480729
 10
160.5074652191854
 20
301.9811661480729
 10
160.5582772191854
 20
301.6146501480729
 10
160.5880012191854
 20
301.2512471480729
 10
160.5974312191854
 20
300.8815271480729
 10
160.5973392191854
 20
300.8610491480729
  0
LWPOLYLINE
  5
316
330
1F
100
AcDbEntity
  8
0
 62
     7
370
    35
100
AcDbPolyline
 90
       48
 70
     0
 43
0.0
 10
71.20431121918542
 20
304.720668148073
 10
70.93643521918543
 20
304.8534201480729
 10
70.66028221918543
 20
304.9678611480729
 10
70.37761321918543
 20
305.0632591480729
 10
70.08922221918544
 20
305.1395221480728
 10
69.79607021918543
 20
305.1963151480729
 10
69.49979821918543
 20
305.2333641480728
 10
69.20151921918543
 20
305.2504541480729
 10
68.90277421918543
 20
305.2475241480729
 10
68.60485421918544
 20
305.2245751480729
 10
68.30913121918543
 20
305.1817281480729
 10
68.01707821918544
 20
305.1191061480729
 10
67.72983121918542
 20
305.0370751480729
 10
67.44899321918544
 20
304.9360001480729
 10
67.17551021918544
 20
304.8163111480729
 10
66.91098421918543
 20
304.6786151480729
 10
66.65624621918543
 20
304.5234031480729
 10
66.41280021918544
 20
304.3516191480729
 10
66.18140021918543
 20
304.1637841480729
 10
65.96340521918543
 20
303.9610251480728
 10
65.75951021918545
 20
303.7439841480729
 10
65.57085021918543
 20
303.5138811480729
 10
65.39806021918543
 20
303.271511148073
 10
65.24208421918544
 20
303.018215148073
 10
65.10348121918544
 20
302.7549091480729
 10
64.98301321918543
 20
302.4829981480729
 10
64.88109221918543
 20
302.2034571480729
 10
64.79829021918543
 20
301.9178121480729
 10
64.73489721918543
 20
301.6271021480729
 10
64.69127221918544
 20
301.3329121480729
 10
64.66754521918542
 20
301.0362811480729
 10
64.66388321918543
 20
300.738857148073
 10
64.68027121918544
 20
300.4416461480729
 10
64.71663321918544
 20
300.146328148073
 10
64.77284621918544
 20
299.854000148073
 10
64.84857521918543
 20
299.5661881480729
 10
64.94354621918543
 20
299.2840531480729
 10
65.05727021918544
 20
299.0089991480729
 10
65.18928921918544
 20
298.7421531480729
 10
65.33896221918543
 20
298.4847681480729
 10
65.50566521918543
 20
298.2379411480729
 10
65.68860221918544
 20
298.0028951480729
 10
65.88696621918543
 20
297.780605148073
 10
66.09985721918544
 20
297.5721701480729
 10
66.32632821918543
 20
297.3784441480729
 10
66.56532621918543
 20
297.2003441480729
 10
66.81579921918544
 20
297.0387231480729
 10
66.96188721918542
 20
296.9549821480729
  0
LWPOLYLINE
  5
317
330
1F
100
AcDbEntity
  8
0
 62
     7
370
    35
100
AcDbPolyline
 90
       48
 70
     0
 43
0.0
 10
71.20431121918542
 20
304.720668148073
 10
71.46239821918545
 20
304.5702781480729
 10
71.70982721918543
 20
304.4027971480729
 10
71.94469021918544
 20
304.2196311480728
 10
72.16675221918544
 20
304.0209611480729
 10
72.37474421918543
 20
303.8080101480729
 10
72.56799721918543
 20
303.581478148073
 10
72.74539521918544
 20
303.3426171480729
 10
72.90637621918543
 20
303.0922201480729
 10
73.04999921918543
 20
302.831752148073
 10
73.17581521918544
 20
302.5620691480729
 10
73.28308521918543
 20
302.284694148073
 10
73.37146321918544
 20
302.0005451480729
 10
73.44044821918544
 20
301.7112691480729
 10
73.48980321918543
 20
301.4178121480729
 10
73.51926021918544
 20
301.1218531480729
 10
73.52870521918544
 20
300.8243981480729
 10
73.51809321918543
 20
300.5271261480729
 10
73.48747621918544
 20
300.2311661480729
 10
73.43700021918543
 20
299.9379841480729
 10
73.36688621918543
 20
299.6487691480729
 10
73.27746221918544
 20
299.3649561480729
 10
73.16911721918543
 20
299.0877341480729
 10
73.04234721918544
 20
298.8184161480729
 10
72.89770121918543
 20
298.5581621480729
 10
72.73585921918544
 20
298.3081931480729
 10
72.55752221918545
 20
298.0696061480729
 10
72.36352921918544
 20
297.8435321480729
 10
72.15470521918544
 20
297.6309471480729
 10
71.93205621918543
 20
297.4328571480729
 10
71.69652121918542
 20
297.2501481480729
 10
71.44925321918544
 20
297.083645148073
 10
71.19128821918543
 20
296.9341391480729
 10
70.92386221918544
 20
296.8022721480729
 10
70.64814321918544
 20
296.6886861480729
 10
70.36542121918543
 20
296.5938371480729
 10
70.07696121918543
 20
296.518215148073
 10
69.78404621918542
 20
296.4621241480729
 10
69.48802521918543
 20
296.4258081480728
 10
69.19020421918543
 20
296.4094501480729
 10
68.89197121918543
 20
296.4131121480729
 10
68.59464621918544
 20
296.4367941480729
 10
68.29958721918544
 20
296.4804341480729
 10
68.00813621918543
 20
296.5437281480729
 10
67.72159221918544
 20
296.6264911480729
 10
67.44130321918544
 20
296.7282371480729
 10
67.16847621918543
 20
296.8486291480729
 10
66.96188721918542
 20
296.9549821480729
  0
LWPOLYLINE
  5
318
330
1F
100
AcDbEntity
  8
0
 62
     7
370
    35
100
AcDbPolyline
 90
       48
 70
     0
 43
0.0
 10
151.9872932191854
 20
304.720668148073
 10
151.7285652191854
 20
304.5698811480729
 10
151.4805492191854
 20
304.4019431480728
 10
151.2457462191854
 20
304.2186541480729
 10
151.0237612191854
 20
304.0199241480729
 10
150.8158452191854
 20
303.8069111480729
 10
150.6226692191854
 20
303.5802881480729
 10
150.4453472191854
 20
303.3413961480729
 10
150.2844582191854
 20
303.0909381480729
 10
150.1409182191854
 20
302.8304101480729
 10
150.0152012191854
 20
302.5606951480729
 10
149.9080242191854
 20
302.2832911480729
 10
149.8197362191854
 20
301.9991111480729
 10
149.7508582191854
 20
301.7098041480729
 10
149.7015872191854
 20
301.4163471480729
 10
149.6722452191854
 20
301.1203571480729
 10
149.6628912191854
 20
300.8229021480729
 10
149.6736032191854
 20
300.5256611480729
 10
149.7043342191854
 20
300.229671148073
 10
149.7549022191854
 20
299.9365191480729
 10
149.8251232191854
 20
299.6473351480729
 10
149.9146312191854
 20
299.3635521480729
 10
150.0230752191854
 20
299.086391148073
 10
150.1499362191854
 20
298.8171041480729
 10
150.2946662191854
 20
298.5568811480728
 10
150.4565922191854
 20
298.3069721480729
 10
150.6350132191854
 20
298.0684471480729
 10
150.8290902191854
 20
297.8424341480729
 10
151.0379832191854
 20
297.6299091480729
 10
151.2607002191854
 20
297.4319111480729
 10
151.4962802191854
 20
297.2492631480729
 10
151.7436102191854
 20
297.0828511480729
 10
152.0016362191854
 20
296.9334371480729
 10
152.2691082191854
 20
296.8016621480729
 10
152.5448492191854
 20
296.6881371480729
 10
152.8276102191854
 20
296.5934101480728
 10
153.1161082191854
 20
296.5178791480729
 10
153.4090462191854
 20
296.4618791480729
 10
153.7050662191854
 20
296.425686148073
 10
154.0028872191854
 20
296.4094201480729
 10
154.3011202191854
 20
296.4131731480729
 10
154.5984382191854
 20
296.4369771480729
 10
154.8934822191854
 20
296.4806781480729
 10
155.1849252191854
 20
296.5440941480729
 10
155.4714242191854
 20
296.6269181480729
 10
155.7516972191854
 20
296.7288171480729
 10
156.0244632191854
 20
296.8492701480729
 10
156.2297092191854
 20
296.9549821480729
  0
LWPOLYLINE
  5
319
330
1F
100
AcDbEntity
  8
0
 62
     7
370
    35
100
AcDbPolyline
 90
       48
 70
     0
 43
0.0
 10
151.9872932191854
 20
304.720668148073
 10
152.2571292191854
 20
304.8543351480729
 10
152.5353582191854
 20
304.9693871480729
 10
152.8181192191854
 20
305.0645411480729
 10
153.1065862191854
 20
305.1404681480728
 10
153.3997842191854
 20
305.1969871480729
 10
153.6960942191854
 20
305.2337301480729
 10
153.9943882191854
 20
305.2505761480729
 10
154.2931402191854
 20
305.2473411480729
 10
154.5910372191854
 20
305.2240861480728
 10
154.8867072191854
 20
305.1809351480729
 10
155.1787142191854
 20
305.1180681480729
 10
155.4658702191854
 20
305.0357321480728
 10
155.7466162191854
 20
304.9344141480728
 10
156.0199772191854
 20
304.814418148073
 10
156.2843662191854
 20
304.6764791480729
 10
156.5389592191854
 20
304.5210221480729
 10
156.7822302191854
 20
304.3490251480729
 10
157.0134462191854
 20
304.1609761480729
 10
157.2312352191854
 20
303.957973148073
 10
157.4349252191854
 20
303.7407491480729
 10
157.6233562191854
 20
303.5104631480729
 10
157.7959172191854
 20
303.2679401480729
 10
157.9516332191854
 20
303.0144921480729
 10
158.0899852191854
 20
302.7510331480729
 10
158.2101932191854
 20
302.479000148073
 10
158.3118472191854
 20
302.1993671480729
 10
158.3943672191854
 20
301.913662148073
 10
158.4574772191854
 20
301.6228291480729
 10
158.5008122191854
 20
301.3286401480729
 10
158.5242502191854
 20
301.0319481480729
 10
158.5276222191854
 20
300.7345231480729
 10
158.5109442191854
 20
300.4373431480729
 10
158.4742922191854
 20
300.1421161480729
 10
158.4178042191854
 20
299.8498191480729
 10
158.3417852191854
 20
299.5620991480729
 10
158.2465402191854
 20
299.280025148073
 10
158.1325412191854
 20
299.0050921480729
 10
158.0002632191854
 20
298.7383691480729
 10
157.8503302191854
 20
298.4811051480729
 10
157.6833992191854
 20
298.2344621480729
 10
157.5002322191854
 20
297.9995991480729
 10
157.3016542191854
 20
297.777492148073
 10
157.0885502191854
 20
297.5692401480729
 10
156.8618962191854
 20
297.3757591480729
 10
156.6227302191854
 20
297.1979021480729
 10
156.3721042191854
 20
297.036495148073
 10
156.2297092191854
 20
296.9549821480729
  0
LWPOLYLINE
  5
31A
330
1F
100
AcDbEntity
  8
0
 62
     7
370
    35
100
AcDbPolyline
 90
       30
 70
     0
 43
0.0
 10
69.09579821918544
 20
307.4634661480729
 10
68.73265421918543
 20
307.4490621480729
 10
68.37019721918543
 20
307.4146381480729
 10
68.01036421918543
 20
307.3602561480728
 10
67.65303421918543
 20
307.2859151480729
 10
67.30115121918544
 20
307.1921351480729
 10
66.95334221918542
 20
307.0784871480729
 10
66.61379621918543
 20
306.9463151480729
 10
66.27995721918543
 20
306.7945211480729
 10
65.95698121918544
 20
306.6254541480729
 10
65.64136121918544
 20
306.4372211480729
 10
65.33902321918543
 20
306.2332421480729
 10
65.04569621918543
 20
306.0106461480728
 10
64.76779521918544
 20
305.774257148073
 10
64.50053821918544
 20
305.5198631480729
 10
64.25059921918543
 20
305.2538721480729
 10
64.01288221918543
 20
304.970668148073
 10
63.79411721918543
 20
304.6782801480729
 10
63.58925221918544
 20
304.3698991480729
 10
63.40453721918543
 20
304.0549271480729
 10
63.23537021918544
 20
303.7254291480729
 10
63.08710121918544
 20
303.3918721480729
 10
62.95589021918543
 20
303.0455591480729
 10
62.84595121918544
 20
302.697658148073
 10
62.75436821918543
 20
302.3389551480729
 10
62.68410821918543
 20
301.9810441480729
 10
62.63330421918543
 20
301.6145281480728
 10
62.60358821918543
 20
301.2511561480729
 10
62.59417321918544
 20
300.8814351480729
 10
62.59425721918543
 20
300.8610491480729
  0
LWPOLYLINE
  5
31B
330
1F
100
AcDbEntity
  8
0
 62
   253
370
    35
100
AcDbPolyline
 90
       12
 70
     0
 43
0.0
 10
161.7149242191854
 20
276.5382041480728
 10
161.7048222191854
 20
276.6798361480729
 10
161.6747622191854
 20
276.8186301480729
 10
161.6253542191854
 20
276.9518091480729
 10
161.5575752191854
 20
277.0765641480728
 10
161.4727972191854
 20
277.1905171480729
 10
161.3727452191854
 20
277.2912861480729
 10
161.2594182191854
 20
277.3769181480729
 10
161.1351202191854
 20
277.4455831480729
 10
161.0023382191854
 20
277.4959371480729
 10
160.8637732191854
 20
277.5270041480729
 10
160.7149542191854
 20
277.5381731480729
  0
LWPOLYLINE
  5
31C
330
1F
100
AcDbEntity
  8
0
 62
   253
370
    35
100
AcDbPolyline
 90
       12
 70
     0
 43
0.0
 10
62.47664221918544
 20
277.5381731480729
 10
62.33499521918544
 20
277.5280721480728
 10
62.19620121918544
 20
277.4980121480729
 10
62.06306021918543
 20
277.4486041480729
 10
61.93826621918543
 20
277.3808251480728
 10
61.82432921918543
 20
277.2960471480729
 10
61.72354521918544
 20
277.1960101480729
 10
61.63794321918543
 20
277.0826681480729
 10
61.56926321918543
 20
276.9583701480729
 10
61.51889421918544
 20
276.8255881480729
 10
61.48782721918543
 20
276.6870381480729
 10
61.47668021918544
 20
276.5382041480728
  0
LWPOLYLINE
  5
31D
330
1F
100
AcDbEntity
  8
0
 62
     7
370
    35
100
AcDbPolyline
 90
       43
 70
     0
 43
0.0
 10
156.1754642191854
 20
59.05424114807289
 10
155.6389962191854
 20
58.80936814807289
 10
155.3588602191854
 20
58.71442814807289
 10
155.0729862191854
 20
58.63866814807288
 10
154.7823982191854
 20
58.58236314807289
 10
154.4886972191854
 20
58.54584814807289
 10
154.1930422191854
 20
58.52926214807289
 10
153.8969462191854
 20
58.53269514807289
 10
153.6017342191854
 20
58.55614814807289
 10
153.3087652191854
 20
58.59952914807289
 10
153.0194742191854
 20
58.66260914807289
 10
152.7350962191854
 20
58.74512814807289
 10
152.4571262191854
 20
58.84664514807289
 10
152.1866342191854
 20
58.96679314807289
 10
151.9251292191854
 20
59.1048691480729
 10
151.6735112191854
 20
59.26040214807289
 10
151.4332922191854
 20
59.43247614807289
 10
151.2052042191854
 20
59.62051014807289
 10
150.9906352191854
 20
59.82339114807288
 10
150.7902712191854
 20
60.04041614807289
 10
150.6052742191854
 20
60.27035114807289
 10
150.4362832191854
 20
60.51238614807289
 10
150.2842142191854
 20
60.76516314807289
 10
150.1496312191854
 20
61.02776714807289
 10
150.0332522191854
 20
61.29876314807289
 10
149.9355352191854
 20
61.57711414807289
 10
149.8569832191854
 20
61.86135414807289
 10
149.7979162191854
 20
62.15037114807289
 10
149.7586252191854
 20
62.44262314807289
 10
149.7392922191854
 20
62.73699514807289
 10
149.7399942191854
 20
63.03190214807289
 10
149.7607302191854
 20
63.32619814807289
 10
149.8014102191854
 20
63.61835814807289
 10
149.8618502191854
 20
63.90714614807289
 10
149.9417612191854
 20
64.19114314807288
 10
150.0407602191854
 20
64.46908214807288
 10
150.1584202191854
 20
64.73968114807289
 10
150.2941782191854
 20
65.00170514807289
 10
150.4474372191854
 20
65.25399414807289
 10
150.6174812191854
 20
65.49532714807289
 10
150.8035472191854
 20
65.72462014807289
 10
151.0047182191854
 20
65.94079214807289
 10
151.2069432191854
 20
66.13125214807289
  0
LWPOLYLINE
  5
31E
330
1F
100
AcDbEntity
  8
0
 62
     7
370
    35
100
AcDbPolyline
 90
       44
 70
     0
 43
0.0
 10
67.01613221918544
 20
59.05424114807289
 10
67.28172721918543
 20
58.92205414807289
 10
67.55562921918543
 20
58.80822314807289
 10
67.83584921918543
 20
58.71349714807289
 10
68.12178421918543
 20
58.63795114807288
 10
68.41241821918544
 20
58.5818591480729
 10
68.70613421918543
 20
58.54555914807288
 10
69.00180421918543
 20
58.52918614807289
 10
69.29789321918544
 20
58.53284814807288
 10
69.59309721918543
 20
58.55653014807288
 10
69.88603621918542
 20
58.6001241480729
 10
70.17526621918543
 20
58.66340214807289
 10
70.45959121918544
 20
58.74615114807289
 10
70.73747621918544
 20
58.84786614807289
 10
71.00789221918543
 20
58.96821214807289
 10
71.26928321918544
 20
59.10648714807289
 10
71.52077121918543
 20
59.26220314807289
 10
71.76088321918545
 20
59.43444414807289
 10
71.98881921918545
 20
59.62266114807289
 10
72.20323521918544
 20
59.82569514807289
 10
72.40343121918543
 20
60.04287314807289
 10
72.58826021918543
 20
60.27294514807289
 10
72.75707621918543
 20
60.51510214807289
 10
72.90895421918543
 20
60.76800114807289
 10
73.04333821918544
 20
61.03069714807289
 10
73.15951921918543
 20
61.30178414807289
 10
73.25702321918544
 20
61.58021114807289
 10
73.33536121918545
 20
61.86449814807289
 10
73.39421421918544
 20
62.15356014807289
 10
73.43328421918544
 20
62.44585814807289
 10
73.45241121918544
 20
62.74023014807289
 10
73.45148121918544
 20
63.03513714807289
 10
73.43052321918543
 20
63.32941814807289
 10
73.38962921918543
 20
63.62154714807289
 10
73.32896821918544
 20
63.91028914807289
 10
73.24885921918543
 20
64.19422514807289
 10
73.14964621918543
 20
64.47210314807289
 10
73.03178821918544
 20
64.74261114807288
 10
72.89583221918544
 20
65.00452814807289
 10
72.74237421918543
 20
65.2567101480729
 10
72.57216221918543
 20
65.49790514807289
 10
72.38592921918544
 20
65.72706214807289
 10
72.18458921918543
 20
65.94308114807289
 10
71.98465321918544
 20
66.13125214807289
  0
LWPOLYLINE
  5
31F
330
1F
100
AcDbEntity
  8
0
 62
   253
370
    35
100
AcDbPolyline
 90
        5
 70
     0
 43
0.0
 10
140.6006812191854
 20
180.6732441480729
 10
140.4913672191854
 20
180.6423301480729
 10
140.2963602191854
 20
180.5254781480729
 10
139.8171882191854
 20
180.1703751480729
 10
139.8088262191854
 20
180.1637231480729
  0
LWPOLYLINE
  5
320
330
1F
100
AcDbEntity
  8
0
 62
   253
370
    35
100
AcDbPolyline
 90
        4
 70
     0
 43
0.0
 10
83.38276321918543
 20
180.1637231480729
 10
82.90251521918543
 20
180.5205651480729
 10
82.75256721918543
 20
180.6155661480729
 10
82.59092321918544
 20
180.6732441480729
  0
LWPOLYLINE
  5
321
330
1F
100
AcDbEntity
  8
0
 62
   253
370
    35
100
AcDbPolyline
 90
       15
 70
     0
 43
0.0
 10
126.5957982191854
 20
174.3849451480729
 10
127.1930732191854
 20
174.3950461480729
 10
127.7882572191854
 20
174.4251971480729
 10
128.9735292191854
 20
174.5453451480728
 10
130.1514772191854
 20
174.7449601480729
 10
131.3174322191854
 20
175.0233721480729
 10
132.4653052191854
 20
175.3793601480729
 10
133.5885502191854
 20
175.8111841480729
 10
134.6815372191854
 20
176.3169821480729
 10
135.7405282191854
 20
176.8952601480729
 10
136.7576182191854
 20
177.5416521480729
 10
137.7266582191854
 20
178.2517961480729
 10
138.6380192191854
 20
179.0170861480729
 10
139.4746592191854
 20
179.8169821480729
 10
139.8088262191854
 20
180.1637231480729
  0
LWPOLYLINE
  5
322
330
1F
100
AcDbEntity
  8
0
 62
   253
370
    35
100
AcDbPolyline
 90
       16
 70
     0
 43
0.0
 10
96.59579821918544
 20
174.3849451480729
 10
96.00084321918544
 20
174.3949541480729
 10
95.40553621918544
 20
174.4250451480729
 10
94.22017321918543
 20
174.5450701480729
 10
93.04229321918544
 20
174.7445331480729
 10
91.87646121918545
 20
175.0227311480729
 10
90.72855021918543
 20
175.3785661480729
 10
89.60498421918543
 20
175.8103601480728
 10
88.51212721918543
 20
176.3159441480729
 10
87.97800021918545
 20
176.5961261480729
 10
87.45302921918543
 20
176.8941301480729
 10
86.43581021918544
 20
177.5404321480729
 10
85.46690021918543
 20
178.2502701480729
 10
84.55419521918543
 20
179.0165361480729
 10
83.69994721918544
 20
179.8342851480729
 10
83.38276321918543
 20
180.1637231480729
  0
LWPOLYLINE
  5
323
330
1F
100
AcDbEntity
  8
0
 62
   253
370
    13
100
AcDbPolyline
 90
       10
 70
     0
 43
0.0
 10
132.7926372191854
 20
178.5480921480729
 10
132.0059392191854
 20
178.3861961480729
 10
131.2137942191854
 20
178.2444721480729
 10
130.4465522191854
 20
178.1280171480729
 10
129.6707802191854
 20
178.0313981480729
 10
128.9162482191854
 20
177.9580651480729
 10
128.1550332191854
 20
177.9048121480729
 10
127.4082372191854
 20
177.8728901480729
 10
126.6592902191854
 20
177.8611101480729
 10
126.5958132191854
 20
177.8610491480729
  0
LWPOLYLINE
  5
324
330
1F
100
AcDbEntity
  8
0
 62
   253
370
    35
100
AcDbPolyline
 90
        9
 70
     0
 43
0.0
 10
132.7751652191854
 20
178.5522111480729
 10
134.2644542191854
 20
178.9266621480729
 10
135.0024302191854
 20
179.1431231480729
 10
135.7341192191854
 20
179.3799091480729
 10
136.3875462191854
 20
179.6137651480729
 10
137.0311162191854
 20
179.8734091480729
 10
137.4523812191854
 20
180.0695151480729
 10
137.8569832191854
 20
180.2976951480729
 10
138.0225412191854
 20
180.4167741480729
  0
LWPOLYLINE
  5
325
330
1F
100
AcDbEntity
  8
0
 62
   253
370
    35
100
AcDbPolyline
 90
        7
 70
     0
 43
0.0
 10
85.16904821918544
 20
180.4167741480729
 10
85.44371421918544
 20
180.2300371480729
 10
85.92334321918542
 20
179.9802811480729
 10
86.67126821918543
 20
179.6645161480729
 10
87.75672521918542
 20
179.2802081480729
 10
89.14021721918544
 20
178.8680681480729
 10
90.41643921918543
 20
178.5522111480729
  0
INSERT
  5
326
330
1F
100
AcDbEntity
  8
0
 62
    56
100
AcDbBlockReference
  2
IEC_309_16
 10
48.53929854918543
 20
45.60771552807288
 30
0.0
 42
0.9998528799999988
  0
ENDSEC
  0
SECTION
  2
OBJECTS
  0
DICTIONARY
  5
C
330
0
100
AcDbDictionary
281
     1
  3
ACAD_COLOR
350
73
  3
ACAD_GROUP
350
D
  3
ACAD_LAYOUT
350
1A
  3
ACAD_MATERIAL
350
72
  3
ACAD_MLEADERSTYLE
350
D7
  3
ACAD_MLINESTYLE
350
17
  3
ACAD_PLOTSETTINGS
350
19
  3
ACAD_PLOTSTYLENAME
350
E
  3
ACAD_SCALELIST
350
B6
  3
ACAD_TABLESTYLE
350
86
  3
ACAD_VISUALSTYLE
350
99
  3
ACDB_RECOMPOSE_DATA
350
FF
  3
AcDbVariableDictionary
350
66
  3
DWGPROPS
350
36D
  0
DICTIONARY
  5
E6
330
10
100
AcDbDictionary
280
     1
281
     1
  3
ADSK_XREC_LAYER_RECONCILED
360
363
  0
DICTIONARY
  5
364
330
174
100
AcDbDictionary
280
     1
281
     1
  3
ADSK_XREC_LAYER_RECONCILED
360
365
  0
DICTIONARY
  5
366
330
175
100
AcDbDictionary
280
     1
281
     1
  3
ADSK_XREC_LAYER_RECONCILED
360
367
  0
DICTIONARY
  5
73
102
{ACAD_REACTORS
330
C
102
}
330
C
100
AcDbDictionary
281
     1
  0
DICTIONARY
  5
D
102
{ACAD_REACTORS
330
C
102
}
330
C
100
AcDbDictionary
281
     1
  0
DICTIONARY
  5
1A
102
{ACAD_REACTORS
330
C
102
}
330
C
100
AcDbDictionary
281
     1
  3
Layout1
350
59
  3
Layout2
350
5E
  3
Model
350
22
  0
DICTIONARY
  5
72
102
{ACAD_REACTORS
330
C
102
}
330
C
100
AcDbDictionary
281
     1
  3
ByBlock
350
97
  3
ByLayer
350
96
  3
Global
350
98
  0
DICTIONARY
  5
D7
102
{ACAD_REACTORS
330
C
102
}
330
C
100
AcDbDictionary
281
     1
  3
Annotativa
350
E5
  3
Standard
350
D8
  0
DICTIONARY
  5
17
102
{ACAD_REACTORS
330
C
102
}
330
C
100
AcDbDictionary
281
     1
  3
Standard
350
18
  0
DICTIONARY
  5
19
102
{ACAD_REACTORS
330
C
102
}
330
C
100
AcDbDictionary
281
     1
  0
ACDBDICTIONARYWDFLT
  5
E
102
{ACAD_REACTORS
330
C
102
}
330
C
100
AcDbDictionary
281
     1
  3
Normal
350
F
100
AcDbDictionaryWithDefault
340
F
  0
DICTIONARY
  5
B6
102
{ACAD_REACTORS
330
C
102
}
330
C
100
AcDbDictionary
281
     1
  3
A0
350
B7
  3
A1
350
124
  3
A2
350
125
  3
A3
350
126
  3
A4
350
127
  3
A5
350
128
  3
A6
350
129
  3
A7
350
12A
  3
A8
350
12B
  3
A9
350
12C
  3
B0
350
12D
  3
B1
350
12E
  3
B2
350
12F
  3
B3
350
130
  3
B4
350
131
  3
B5
350
132
  3
B6
350
133
  3
B7
350
134
  3
B8
350
135
  3
B9
350
136
  3
C0
350
137
  3
C1
350
138
  3
C2
350
139
  3
C3
350
13A
  3
C4
350
13B
  3
C5
350
13C
  3
C6
350
13D
  3
C7
350
13E
  3
C8
350
13F
  3
C9
350
140
  3
D0
350
141
  3
D1
350
142
  3
D2
350
143
  0
DICTIONARY
  5
86
102
{ACAD_REACTORS
330
C
102
}
330
C
100
AcDbDictionary
281
     1
  3
Standard
350
87
  0
DICTIONARY
  5
99
102
{ACAD_REACTORS
330
C
102
}
330
C
100
AcDbDictionary
281
     1
  3
2dWireframe
350
9F
  3
3D Hidden
350
A1
  3
3dWireframe
350
A0
  3
Basic
350
9E
  3
Brighten
350
A5
  3
ColorChange
350
A9
  3
Conceptual
350
A2
  3
Dim
350
A4
  3
Facepattern
350
A8
  3
Flat
350
9A
  3
FlatWithEdges
350
9B
  3
Gouraud
350
9C
  3
GouraudWithEdges
350
9D
  3
Linepattern
350
A7
  3
Realistic
350
A3
  3
Thicken
350
A6
  0
XRECORD
  5
FF
102
{ACAD_REACTORS
330
C
102
}
330
C
100
AcDbXrecord
280
     1
 90
        1
330
87
  0
DICTIONARY
  5
66
102
{ACAD_REACTORS
330
C
102
}
330
C
100
AcDbDictionary
281
     1
  3
CANNOSCALE
350
F0
  3
CMLEADERSTYLE
350
EF
  3
CTABLESTYLE
350
89
  3
DIMASSOC
350
67
  3
HIDETEXT
350
6B
  3
INDEXCTL
350
36B
  3
LIGHTINGUNITS
350
369
  3
MSLTSCALE
350
368
  3
SORTENTS
350
36A
  0
XRECORD
  5
36D
102
{ACAD_REACTORS
330
C
102
}
330
C
100
AcDbXrecord
280
     1
  1
DWGPROPS COOKIE
  2

  3

  4

  6

  7

  8
fontanaNZ
  9

300
=
301
=
302
=
303
=
304
=
305
=
306
=
307
=
308
=
309
=
 40
0.000293587962963
 41
2455511.363634167
 42
2455511.363927569
  1

 90
        0
  0
XRECORD
  5
363
102
{ACAD_REACTORS
330
E6
102
}
330
E6
100
AcDbXrecord
280
     1
290
     1
  0
XRECORD
  5
365
102
{ACAD_REACTORS
330
364
102
}
330
364
100
AcDbXrecord
280
     1
290
     1
  0
XRECORD
  5
367
102
{ACAD_REACTORS
330
366
102
}
330
366
100
AcDbXrecord
280
     1
290
     1
  0
LAYOUT
  5
59
102
{ACAD_XDICTIONARY
360
370
102
}
102
{ACAD_REACTORS
330
1A
102
}
330
1A
100
AcDbPlotSettings
  1

  2
None
  4

  6

 40
0.0
 41
0.0
 42
0.0
 43
0.0
 44
0.0
 45
0.0
 46
0.0
 47
0.0
 48
0.0
 49
0.0
140
0.0
141
0.0
142
1.0
143
1.0
 70
   688
 72
     0
 73
     0
 74
     5
  7

 75
    16
147
1.0
148
0.0
149
0.0
100
AcDbLayout
  1
Layout1
 70
     1
 71
     1
 10
0.0
 20
0.0
 11
12.0
 21
9.0
 12
0.0
 22
0.0
 32
0.0
 14
0.0
 24
0.0
 34
0.0
 15
0.0
 25
0.0
 35
0.0
146
0.0
 13
0.0
 23
0.0
 33
0.0
 16
1.0
 26
0.0
 36
0.0
 17
0.0
 27
1.0
 37
0.0
 76
     0
330
58
  0
LAYOUT
  5
5E
102
{ACAD_XDICTIONARY
360
372
102
}
102
{ACAD_REACTORS
330
1A
102
}
330
1A
100
AcDbPlotSettings
  1

  2
None
  4

  6

 40
0.0
 41
0.0
 42
0.0
 43
0.0
 44
0.0
 45
0.0
 46
0.0
 47
0.0
 48
0.0
 49
0.0
140
0.0
141
0.0
142
1.0
143
1.0
 70
   688
 72
     0
 73
     0
 74
     5
  7

 75
    16
147
1.0
148
0.0
149
0.0
100
AcDbLayout
  1
Layout2
 70
     1
 71
     2
 10
0.0
 20
0.0
 11
12.0
 21
9.0
 12
0.0
 22
0.0
 32
0.0
 14
0.0
 24
0.0
 34
0.0
 15
0.0
 25
0.0
 35
0.0
146
0.0
 13
0.0
 23
0.0
 33
0.0
 16
1.0
 26
0.0
 36
0.0
 17
0.0
 27
1.0
 37
0.0
 76
     0
330
5D
  0
LAYOUT
  5
22
102
{ACAD_XDICTIONARY
360
36E
102
}
102
{ACAD_REACTORS
330
1A
102
}
330
1A
100
AcDbPlotSettings
  1

  2
none_device
  4
ANSI_A_(8.50_x_11.00_Inches)
  6

 40
6.349999904632568
 41
19.04999923706055
 42
6.350006103515625
 43
19.04998779296875
 44
215.8999938964844
 45
279.3999938964844
 46
0.0
 47
0.0
 48
0.0
 49
0.0
140
0.0
141
0.0
142
1.0
143
2.584895464708373
 70
 11952
 72
     0
 73
     1
 74
     0
  7

 75
     0
147
0.3868628397755418
148
0.0
149
0.0
100
AcDbLayout
  1
Model
 70
     1
 71
     0
 10
0.0
 20
0.0
 11
12.0
 21
9.0
 12
0.0
 22
0.0
 32
0.0
 14
0.0
 24
0.0
 34
0.0
 15
0.0
 25
0.0
 35
0.0
146
0.0
 13
0.0
 23
0.0
 33
0.0
 16
1.0
 26
0.0
 36
0.0
 17
0.0
 27
1.0
 37
0.0
 76
     0
330
1F
331
94
  0
MATERIAL
  5
97
102
{ACAD_XDICTIONARY
360
377
102
}
102
{ACAD_REACTORS
330
72
102
}
330
72
100
AcDbMaterial
  1
ByBlock
  0
MATERIAL
  5
96
102
{ACAD_XDICTIONARY
360
375
102
}
102
{ACAD_REACTORS
330
72
102
}
330
72
100
AcDbMaterial
  1
ByLayer
  0
MATERIAL
  5
98
102
{ACAD_XDICTIONARY
360
110
102
}
102
{ACAD_REACTORS
330
72
102
}
330
72
100
AcDbMaterial
  1
Global
 43
0.0208000000566244
 43
0.0
 43
0.0
 43
0.0
 43
0.0
 43
0.0208000000566244
 43
0.0
 43
0.0
 43
0.0
 43
0.0
 43
1.0
 43
0.0
 43
0.0
 43
0.0
 43
0.0
 43
1.0
 49
0.0208000000566244
 49
0.0
 49
0.0
 49
0.0
 49
0.0
 49
0.0208000000566244
 49
0.0
 49
0.0
 49
0.0
 49
0.0
 49
1.0
 49
0.0
 49
0.0
 49
0.0
 49
0.0
 49
1.0
142
0.0208000000566244
142
0.0
142
0.0
142
0.0
142
0.0
142
0.0208000000566244
142
0.0
142
0.0
142
0.0
142
0.0
142
1.0
142
0.0
142
0.0
142
0.0
142
0.0
142
1.0
144
0.0208000000566244
144
0.0
144
0.0
144
0.0
144
0.0
144
0.0208000000566244
144
0.0
144
0.0
144
0.0
144
0.0
144
1.0
144
0.0
144
0.0
144
0.0
144
0.0
144
1.0
1001
ACAD
1070
    -1
1070
     3
1070
     0
1000

1071
        0
1070
     0
  0
MLEADERSTYLE
  5
E5
102
{ACAD_REACTORS
330
D7
102
}
330
D7
100
AcDbMLeaderStyle
170
     2
171
     1
172
     0
 90
        2
 40
0.0
 41
0.0
173
     1
 91
-1056964608
340
14
 92
       -2
290
     1
 42
0.09
291
     1
 43
0.36
  3
Standard
 44
0.18
300

342
11
174
     1
178
     1
175
     1
176
     0
 93
-1056964608
 45
0.18
292
     0
297
     0
 46
0.18
 94
-1056964608
 47
1.0
 49
1.0
140
1.0
293
     1
141
0.0
294
     1
177
     0
142
1.0
295
     0
296
     1
143
0.125
1001
ACAD_MLEADERVER
1070
     2
  0
MLEADERSTYLE
  5
D8
102
{ACAD_REACTORS
330
D7
102
}
330
D7
100
AcDbMLeaderStyle
170
     2
171
     1
172
     0
 90
        2
 40
0.0
 41
0.0
173
     1
 91
-1056964608
340
14
 92
       -2
290
     1
 42
0.09
291
     1
 43
0.36
  3
Standard
 44
0.18
300

342
11
174
     1
178
     1
175
     1
176
     0
 93
-1056964608
 45
0.18
292
     0
297
     0
 46
0.18
 94
-1056964608
 47
1.0
 49
1.0
140
1.0
293
     1
141
0.0
294
     1
177
     0
142
1.0
295
     0
296
     0
143
0.125
1001
ACAD_MLEADERVER
1070
     2
  0
MLINESTYLE
  5
18
102
{ACAD_REACTORS
330
17
102
}
330
17
100
AcDbMlineStyle
  2
STANDARD
 70
     0
  3

 62
   256
 51
90.0
 52
90.0
 71
     2
 49
0.5
 62
   256
  6
BYLAYER
 49
-0.5
 62
   256
  6
BYLAYER
  0
ACDBPLACEHOLDER
  5
F
102
{ACAD_REACTORS
330
E
102
}
330
E
  0
SCALE
  5
B7
102
{ACAD_REACTORS
330
B6
102
}
330
B6
100
AcDbScale
 70
     0
300
1:1
140
1.0
141
1.0
290
     1
  0
SCALE
  5
124
102
{ACAD_REACTORS
330
B6
102
}
330
B6
100
AcDbScale
 70
     0
300
1:2
140
1.0
141
2.0
290
     0
  0
SCALE
  5
125
102
{ACAD_REACTORS
330
B6
102
}
330
B6
100
AcDbScale
 70
     0
300
1:4
140
1.0
141
4.0
290
     0
  0
SCALE
  5
126
102
{ACAD_REACTORS
330
B6
102
}
330
B6
100
AcDbScale
 70
     0
300
1:5
140
1.0
141
5.0
290
     0
  0
SCALE
  5
127
102
{ACAD_REACTORS
330
B6
102
}
330
B6
100
AcDbScale
 70
     0
300
1:8
140
1.0
141
8.0
290
     0
  0
SCALE
  5
128
102
{ACAD_REACTORS
330
B6
102
}
330
B6
100
AcDbScale
 70
     0
300
1:10
140
1.0
141
10.0
290
     0
  0
SCALE
  5
129
102
{ACAD_REACTORS
330
B6
102
}
330
B6
100
AcDbScale
 70
     0
300
1:16
140
1.0
141
16.0
290
     0
  0
SCALE
  5
12A
102
{ACAD_REACTORS
330
B6
102
}
330
B6
100
AcDbScale
 70
     0
300
1:20
140
1.0
141
20.0
290
     0
  0
SCALE
  5
12B
102
{ACAD_REACTORS
330
B6
102
}
330
B6
100
AcDbScale
 70
     0
300
1:30
140
1.0
141
30.0
290
     0
  0
SCALE
  5
12C
102
{ACAD_REACTORS
330
B6
102
}
330
B6
100
AcDbScale
 70
     0
300
1:40
140
1.0
141
40.0
290
     0
  0
SCALE
  5
12D
102
{ACAD_REACTORS
330
B6
102
}
330
B6
100
AcDbScale
 70
     0
300
1:50
140
1.0
141
50.0
290
     0
  0
SCALE
  5
12E
102
{ACAD_REACTORS
330
B6
102
}
330
B6
100
AcDbScale
 70
     0
300
1:100
140
1.0
141
100.0
290
     0
  0
SCALE
  5
12F
102
{ACAD_REACTORS
330
B6
102
}
330
B6
100
AcDbScale
 70
     0
300
2:1
140
2.0
141
1.0
290
     0
  0
SCALE
  5
130
102
{ACAD_REACTORS
330
B6
102
}
330
B6
100
AcDbScale
 70
     0
300
4:1
140
4.0
141
1.0
290
     0
  0
SCALE
  5
131
102
{ACAD_REACTORS
330
B6
102
}
330
B6
100
AcDbScale
 70
     0
300
8:1
140
8.0
141
1.0
290
     0
  0
SCALE
  5
132
102
{ACAD_REACTORS
330
B6
102
}
330
B6
100
AcDbScale
 70
     0
300
10:1
140
10.0
141
1.0
290
     0
  0
SCALE
  5
133
102
{ACAD_REACTORS
330
B6
102
}
330
B6
100
AcDbScale
 70
     0
300
100:1
140
100.0
141
1.0
290
     0
  0
SCALE
  5
134
102
{ACAD_REACTORS
330
B6
102
}
330
B6
100
AcDbScale
 70
     0
300
1/128" = 1'-0"
140
0.0078125
141
12.0
290
     0
  0
SCALE
  5
135
102
{ACAD_REACTORS
330
B6
102
}
330
B6
100
AcDbScale
 70
     0
300
1/64" = 1'-0"
140
0.015625
141
12.0
290
     0
  0
SCALE
  5
136
102
{ACAD_REACTORS
330
B6
102
}
330
B6
100
AcDbScale
 70
     0
300
1/32" = 1'-0"
140
0.03125
141
12.0
290
     0
  0
SCALE
  5
137
102
{ACAD_REACTORS
330
B6
102
}
330
B6
100
AcDbScale
 70
     0
300
1/16" = 1'-0"
140
0.0625
141
12.0
290
     0
  0
SCALE
  5
138
102
{ACAD_REACTORS
330
B6
102
}
330
B6
100
AcDbScale
 70
     0
300
3/32" = 1'-0"
140
0.09375
141
12.0
290
     0
  0
SCALE
  5
139
102
{ACAD_REACTORS
330
B6
102
}
330
B6
100
AcDbScale
 70
     0
300
1/8" = 1'-0"
140
0.125
141
12.0
290
     0
  0
SCALE
  5
13A
102
{ACAD_REACTORS
330
B6
102
}
330
B6
100
AcDbScale
 70
     0
300
3/16" = 1'-0"
140
0.1875
141
12.0
290
     0
  0
SCALE
  5
13B
102
{ACAD_REACTORS
330
B6
102
}
330
B6
100
AcDbScale
 70
     0
300
1/4" = 1'-0"
140
0.25
141
12.0
290
     0
  0
SCALE
  5
13C
102
{ACAD_REACTORS
330
B6
102
}
330
B6
100
AcDbScale
 70
     0
300
3/8" = 1'-0"
140
0.375
141
12.0
290
     0
  0
SCALE
  5
13D
102
{ACAD_REACTORS
330
B6
102
}
330
B6
100
AcDbScale
 70
     0
300
1/2" = 1'-0"
140
0.5
141
12.0
290
     0
  0
SCALE
  5
13E
102
{ACAD_REACTORS
330
B6
102
}
330
B6
100
AcDbScale
 70
     0
300
3/4" = 1'-0"
140
0.75
141
12.0
290
     0
  0
SCALE
  5
13F
102
{ACAD_REACTORS
330
B6
102
}
330
B6
100
AcDbScale
 70
     0
300
1" = 1'-0"
140
1.0
141
12.0
290
     0
  0
SCALE
  5
140
102
{ACAD_REACTORS
330
B6
102
}
330
B6
100
AcDbScale
 70
     0
300
1-1/2" = 1'-0"
140
1.5
141
12.0
290
     0
  0
SCALE
  5
141
102
{ACAD_REACTORS
330
B6
102
}
330
B6
100
AcDbScale
 70
     0
300
3" = 1'-0"
140
3.0
141
12.0
290
     0
  0
SCALE
  5
142
102
{ACAD_REACTORS
330
B6
102
}
330
B6
100
AcDbScale
 70
     0
300
6" = 1'-0"
140
6.0
141
12.0
290
     0
  0
SCALE
  5
143
102
{ACAD_REACTORS
330
B6
102
}
330
B6
100
AcDbScale
 70
     0
300
1'-0" = 1'-0"
140
12.0
141
12.0
290
     0
  0
TABLESTYLE
  5
87
102
{ACAD_XDICTIONARY
360
104
102
}
102
{ACAD_REACTORS
330
86
102
}
330
86
100
AcDbTableStyle
  3
Standard
 70
     0
 71
     0
 40
0.06
 41
0.06
280
     0
281
     0
  7
Standard
140
0.18
170
     2
 62
     0
 63
     7
283
     0
274
    -2
284
     1
 64
     0
275
    -2
285
     1
 65
     0
276
    -2
286
     1
 66
     0
277
    -2
287
     1
 67
     0
278
    -2
288
     1
 68
     0
279
    -2
289
     1
 69
     0
  7
Standard
140
0.25
170
     5
 62
     0
 63
     7
283
     0
274
    -2
284
     1
 64
     0
275
    -2
285
     1
 65
     0
276
    -2
286
     1
 66
     0
277
    -2
287
     1
 67
     0
278
    -2
288
     1
 68
     0
279
    -2
289
     1
 69
     0
  7
Standard
140
0.18
170
     5
 62
     0
 63
     7
283
     0
274
    -2
284
     1
 64
     0
275
    -2
285
     1
 65
     0
276
    -2
286
     1
 66
     0
277
    -2
287
     1
 67
     0
278
    -2
288
     1
 68
     0
279
    -2
289
     1
 69
     0
  0
VISUALSTYLE
  5
9F
102
{ACAD_REACTORS
330
99
102
}
330
99
100
AcDbVisualStyle
  2
2dWireframe
 70
     4
 71
     0
 72
     2
 73
     1
 90
        0
 40
-0.6
 41
-30.0
 62
     5
 63
     7
 74
     1
 91
        4
 64
     7
 65
   257
 75
     1
175
     1
 42
1.0
 92
        0
 66
   257
 43
1.0
 76
     1
 77
     6
 78
     2
 67
     7
 79
     5
170
     0
171
     0
290
     0
174
     0
 93
        1
 44
0.0
173
     0
291
     0
 45
0.0
1001
ACAD
1000
AcDbSavedByObjectVersion
1070
     0
  0
VISUALSTYLE
  5
A1
102
{ACAD_REACTORS
330
99
102
}
330
99
100
AcDbVisualStyle
  2
3D Hidden
 70
     6
 71
     1
 72
     2
 73
     2
 90
        0
 40
-0.6
 41
-30.0
 62
     5
 63
     7
 74
     2
 91
        2
 64
     7
 65
   257
 75
     2
175
     1
 42
40.0
 92
        0
 66
   257
 43
1.0
 76
     1
 77
     6
 78
     2
 67
     7
 79
     3
170
     0
171
     0
290
     0
174
     0
 93
        1
 44
0.0
173
     0
291
     0
 45
0.0
1001
ACAD
1000
AcDbSavedByObjectVersion
1070
     0
  0
VISUALSTYLE
  5
A0
102
{ACAD_REACTORS
330
99
102
}
330
99
100
AcDbVisualStyle
  2
3dWireframe
 70
     5
 71
     0
 72
     2
 73
     1
 90
        0
 40
-0.6
 41
-30.0
 62
     5
 63
     7
 74
     1
 91
        4
 64
     7
 65
   257
 75
     1
175
     1
 42
1.0
 92
        0
 66
   257
 43
1.0
 76
     1
 77
     6
 78
     2
 67
     7
 79
     5
170
     0
171
     0
290
     0
174
     0
 93
        1
 44
0.0
173
     0
291
     0
 45
0.0
1001
ACAD
1000
AcDbSavedByObjectVersion
1070
     0
  0
VISUALSTYLE
  5
9E
102
{ACAD_REACTORS
330
99
102
}
330
99
100
AcDbVisualStyle
  2
Basic
 70
     7
 71
     1
 72
     0
 73
     1
 90
        0
 40
-0.6
 41
-30.0
 62
     5
 63
     7
 74
     0
 91
        4
 64
     7
 65
   257
 75
     1
175
     1
 42
1.0
 92
        8
 66
     7
 43
1.0
 76
     1
 77
     6
 78
     2
 67
     7
 79
     5
170
     0
171
     0
290
     0
174
     0
 93
        1
 44
0.0
173
     0
291
     1
 45
0.0
1001
ACAD
1000
AcDbSavedByObjectVersion
1070
     0
  0
VISUALSTYLE
  5
A5
102
{ACAD_REACTORS
330
99
102
}
330
99
100
AcDbVisualStyle
  2
Brighten
 70
    12
 71
     2
 72
     2
 73
     1
 90
        0
 40
-0.6
 41
-30.0
 62
     5
 63
     7
 74
     1
 91
        4
 64
     7
 65
   257
 75
     1
175
     1
 42
1.0
 92
        8
 66
     7
 43
1.0
 76
     1
 77
     6
 78
     2
 67
     7
 79
     5
170
     0
171
     0
290
     0
174
     0
 93
        1
 44
50.0
173
     0
291
     1
 45
0.0
1001
ACAD
1000
AcDbSavedByObjectVersion
1070
     0
  0
VISUALSTYLE
  5
A9
102
{ACAD_REACTORS
330
99
102
}
330
99
100
AcDbVisualStyle
  2
ColorChange
 70
    16
 71
     2
 72
     2
 73
     3
 90
        0
 40
-0.6
 41
-30.0
 62
     5
 63
     8
 74
     1
 91
        4
 64
     7
 65
   257
 75
     1
175
     1
 42
1.0
 92
        8
 66
     8
 43
1.0
 76
     1
 77
     6
 78
     2
 67
     7
 79
     5
170
     0
171
     0
290
     0
174
     0
 93
        1
 44
0.0
173
     0
291
     1
 45
0.0
1001
ACAD
1000
AcDbSavedByObjectVersion
1070
     0
  0
VISUALSTYLE
  5
A2
102
{ACAD_REACTORS
330
99
102
}
330
99
100
AcDbVisualStyle
  2
Conceptual
 70
     9
 71
     3
 72
     2
 73
     1
 90
        0
 40
-0.6
 41
-30.0
 62
     5
 63
     7
 74
     2
 91
        2
 64
     7
 65
   257
 75
     1
175
     1
 42
40.0
 92
        8
 66
     7
 43
1.0
 76
     1
 77
     6
 78
     2
 67
     7
 79
     3
170
     0
171
     0
290
     0
174
     0
 93
        1
 44
0.0
173
     0
291
     0
 45
0.0
1001
ACAD
1000
AcDbSavedByObjectVersion
1070
     0
  0
VISUALSTYLE
  5
A4
102
{ACAD_REACTORS
330
99
102
}
330
99
100
AcDbVisualStyle
  2
Dim
 70
    11
 71
     2
 72
     2
 73
     1
 90
        0
 40
-0.6
 41
-30.0
 62
     5
 63
     7
 74
     1
 91
        4
 64
     7
 65
   257
 75
     1
175
     1
 42
1.0
 92
        8
 66
     7
 43
1.0
 76
     1
 77
     6
 78
     2
 67
     7
 79
     5
170
     0
171
     0
290
     0
174
     0
 93
        1
 44
-50.0
173
     0
291
     1
 45
0.0
1001
ACAD
1000
AcDbSavedByObjectVersion
1070
     0
  0
VISUALSTYLE
  5
A8
102
{ACAD_REACTORS
330
99
102
}
330
99
100
AcDbVisualStyle
  2
Facepattern
 70
    15
 71
     2
 72
     2
 73
     1
 90
        0
 40
-0.6
 41
-30.0
 62
     5
 63
     7
 74
     1
 91
        4
 64
     7
 65
   257
 75
     1
175
     1
 42
1.0
 92
        8
 66
     7
 43
1.0
 76
     1
 77
     6
 78
     2
 67
     7
 79
     5
170
     0
171
     0
290
     0
174
     0
 93
        1
 44
0.0
173
     0
291
     1
 45
0.0
1001
ACAD
1000
AcDbSavedByObjectVersion
1070
     0
  0
VISUALSTYLE
  5
9A
102
{ACAD_REACTORS
330
99
102
}
330
99
100
AcDbVisualStyle
  2
Flat
 70
     0
 71
     2
 72
     1
 73
     1
 90
        2
 40
-0.6
 41
30.0
 62
     5
 63
     7
 74
     0
 91
        4
 64
     7
 65
   257
 75
     1
175
     1
 42
1.0
 92
        8
 66
     7
 43
1.0
 76
     1
 77
     6
 78
     2
 67
     7
 79
     5
170
     0
171
     0
290
     0
174
     0
 93
        1
 44
0.0
173
     0
291
     1
 45
0.0
1001
ACAD
1000
AcDbSavedByObjectVersion
1070
     0
  0
VISUALSTYLE
  5
9B
102
{ACAD_REACTORS
330
99
102
}
330
99
100
AcDbVisualStyle
  2
FlatWithEdges
 70
     1
 71
     2
 72
     1
 73
     1
 90
        2
 40
-0.6
 41
30.0
 62
     5
 63
     7
 74
     1
 91
        4
 64
     7
 65
   257
 75
     1
175
     1
 42
1.0
 92
        0
 66
   257
 43
1.0
 76
     1
 77
     6
 78
     2
 67
     7
 79
     5
170
     0
171
     0
290
     0
174
     0
 93
        1
 44
0.0
173
     0
291
     1
 45
0.0
1001
ACAD
1000
AcDbSavedByObjectVersion
1070
     0
  0
VISUALSTYLE
  5
9C
102
{ACAD_REACTORS
330
99
102
}
330
99
100
AcDbVisualStyle
  2
Gouraud
 70
     2
 71
     2
 72
     2
 73
     1
 90
        2
 40
-0.6
 41
30.0
 62
     5
 63
     7
 74
     0
 91
        4
 64
     7
 65
   257
 75
     1
175
     1
 42
1.0
 92
        0
 66
     7
 43
1.0
 76
     1
 77
     6
 78
     2
 67
     7
 79
     5
170
     0
171
     0
290
     0
174
     0
 93
        1
 44
0.0
173
     0
291
     1
 45
0.0
1001
ACAD
1000
AcDbSavedByObjectVersion
1070
     0
  0
VISUALSTYLE
  5
9D
102
{ACAD_REACTORS
330
99
102
}
330
99
100
AcDbVisualStyle
  2
GouraudWithEdges
 70
     3
 71
     2
 72
     2
 73
     1
 90
        2
 40
-0.6
 41
30.0
 62
     5
 63
     7
 74
     1
 91
        4
 64
     7
 65
   257
 75
     1
175
     1
 42
1.0
 92
        0
 66
   257
 43
1.0
 76
     1
 77
     6
 78
     2
 67
     7
 79
     5
170
     0
171
     0
290
     0
174
     0
 93
        1
 44
0.0
173
     0
291
     1
 45
0.0
1001
ACAD
1000
AcDbSavedByObjectVersion
1070
     0
  0
VISUALSTYLE
  5
A7
102
{ACAD_REACTORS
330
99
102
}
330
99
100
AcDbVisualStyle
  2
Linepattern
 70
    14
 71
     2
 72
     2
 73
     1
 90
        0
 40
-0.6
 41
-30.0
 62
     5
 63
     7
 74
     1
 91
        4
 64
     7
 65
   257
 75
     7
175
     7
 42
1.0
 92
        8
 66
     7
 43
1.0
 76
     1
 77
     6
 78
     2
 67
     7
 79
     5
170
     0
171
     0
290
     0
174
     0
 93
        1
 44
0.0
173
     0
291
     1
 45
0.0
1001
ACAD
1000
AcDbSavedByObjectVersion
1070
     0
  0
VISUALSTYLE
  5
A3
102
{ACAD_REACTORS
330
99
102
}
330
99
100
AcDbVisualStyle
  2
Realistic
 70
     8
 71
     2
 72
     2
 73
     1
 90
        0
 40
-0.6
 41
-30.0
 62
     5
 63
     7
 74
     1
 91
        0
 64
     7
 65
   257
 75
     1
175
     1
 42
1.0
 92
        8
 66
     8
 43
1.0
 76
     1
 77
     6
 78
     2
 67
     7
 79
     5
170
     0
171
     0
290
     0
174
     0
 93
       13
 44
0.0
173
     0
291
     0
 45
0.0
1001
ACAD
1000
AcDbSavedByObjectVersion
1070
     0
  0
VISUALSTYLE
  5
A6
102
{ACAD_REACTORS
330
99
102
}
330
99
100
AcDbVisualStyle
  2
Thicken
 70
    13
 71
     2
 72
     2
 73
     1
 90
        0
 40
-0.6
 41
-30.0
 62
     5
 63
     7
 74
     1
 91
        4
 64
     7
 65
   257
 75
     1
175
     1
 42
1.0
 92
       12
 66
     7
 43
1.0
 76
     1
 77
     6
 78
     2
 67
     7
 79
     5
170
     0
171
     0
290
     0
174
     0
 93
        1
 44
0.0
173
     0
291
     1
 45
0.0
1001
ACAD
1000
AcDbSavedByObjectVersion
1070
     0
  0
DICTIONARYVAR
  5
F0
102
{ACAD_REACTORS
330
66
102
}
330
66
100
DictionaryVariables
280
     0
  1
1:1
  0
DICTIONARYVAR
  5
EF
102
{ACAD_REACTORS
330
66
102
}
330
66
100
DictionaryVariables
280
     0
  1
STANDARD
  0
DICTIONARYVAR
  5
89
102
{ACAD_REACTORS
330
66
102
}
330
66
100
DictionaryVariables
280
     0
  1
STANDARD
  0
DICTIONARYVAR
  5
67
102
{ACAD_REACTORS
330
66
102
}
330
66
100
DictionaryVariables
280
     0
  1
2
  0
DICTIONARYVAR
  5
6B
102
{ACAD_REACTORS
330
66
102
}
330
66
100
DictionaryVariables
280
     0
  1
1
  0
DICTIONARYVAR
  5
36B
102
{ACAD_REACTORS
330
66
102
}
330
66
100
DictionaryVariables
280
     0
  1
0
  0
DICTIONARYVAR
  5
369
102
{ACAD_REACTORS
330
66
102
}
330
66
100
DictionaryVariables
280
     0
  1
2
  0
DICTIONARYVAR
  5
368
102
{ACAD_REACTORS
330
66
102
}
330
66
100
DictionaryVariables
280
     0
  1
1
  0
DICTIONARYVAR
  5
36A
102
{ACAD_REACTORS
330
66
102
}
330
66
100
DictionaryVariables
280
     0
  1
127
  0
DICTIONARY
  5
370
330
59
100
AcDbDictionary
280
     1
281
     1
  3
ACAD_XREC_ROUNDTRIP
360
371
  0
DICTIONARY
  5
372
330
5E
100
AcDbDictionary
280
     1
281
     1
  3
ACAD_XREC_ROUNDTRIP
360
373
  0
DICTIONARY
  5
36E
330
22
100
AcDbDictionary
280
     1
281
     1
  3
ACAD_XREC_ROUNDTRIP
360
36F
  0
DICTIONARY
  5
377
330
97
100
AcDbDictionary
280
     1
281
     1
  3
ACAD_XREC_ROUNDTRIP
360
378
  0
DICTIONARY
  5
375
330
96
100
AcDbDictionary
280
     1
281
     1
  3
ACAD_XREC_ROUNDTRIP
360
376
  0
DICTIONARY
  5
110
330
98
100
AcDbDictionary
280
     1
281
     1
  3
ACAD_XREC_ROUNDTRIP
360
379
  3
BUMPTILE
360
112
  3
DIFFUSETILE
360
111
  3
OPACITYTILE
360
113
  3
REFLECTIONTILE
360
114
  0
DICTIONARY
  5
104
330
87
100
AcDbDictionary
280
     1
281
     1
  3
ACAD_ROUNDTRIP_2008_TABLESTYLE_CELLSTYLEMAP
360
36C
  3
ACAD_XREC_ROUNDTRIP
360
374
  0
XRECORD
  5
371
102
{ACAD_REACTORS
330
370
102
}
330
370
100
AcDbXrecord
280
     1
102
SHADEPLOT
 70
     0
102
SHADEPLOTRESLEVEL
 70
     2
102
SHADEPLOTCUSTOMDPI
 70
   300
  0
XRECORD
  5
373
102
{ACAD_REACTORS
330
372
102
}
330
372
100
AcDbXrecord
280
     1
102
SHADEPLOT
 70
     0
102
SHADEPLOTRESLEVEL
 70
     2
102
SHADEPLOTCUSTOMDPI
 70
   300
  0
XRECORD
  5
36F
102
{ACAD_REACTORS
330
36E
102
}
330
36E
100
AcDbXrecord
280
     1
102
SHADEPLOT
 70
     0
102
SHADEPLOTRESLEVEL
 70
     2
102
SHADEPLOTCUSTOMDPI
 70
   300
  0
XRECORD
  5
378
102
{ACAD_REACTORS
330
377
102
}
330
377
100
AcDbXrecord
280
     1
102
MATERIAL
148
0.0
149
0.0
149
0.0
 93
        0
 94
       63
282
     0
 72
     1
 77
     1
171
     1
175
     1
179
     1
273
     0
  0
XRECORD
  5
376
102
{ACAD_REACTORS
330
375
102
}
330
375
100
AcDbXrecord
280
     1
102
MATERIAL
148
0.0
149
0.0
149
0.0
 93
        0
 94
       63
282
     0
 72
     1
 77
     1
171
     1
175
     1
179
     1
273
     0
  0
XRECORD
  5
379
102
{ACAD_REACTORS
330
110
102
}
330
110
100
AcDbXrecord
280
     1
102
MATERIAL
148
0.0
149
0.0
149
0.0
 93
        0
 94
       63
282
     0
 72
     1
 77
     1
171
     1
175
     1
179
     1
273
     0
  0
XRECORD
  5
112
102
{ACAD_REACTORS
330
110
102
}
330
110
100
AcDbXrecord
280
     1
270
     1
271
     1
  0
XRECORD
  5
111
102
{ACAD_REACTORS
330
110
102
}
330
110
100
AcDbXrecord
280
     1
270
     1
271
     1
  0
XRECORD
  5
113
102
{ACAD_REACTORS
330
110
102
}
330
110
100
AcDbXrecord
280
     1
270
     1
271
     1
  0
XRECORD
  5
114
102
{ACAD_REACTORS
330
110
102
}
330
110
100
AcDbXrecord
280
     1
270
     1
271
     1
  0
CELLSTYLEMAP
  5
36C
102
{ACAD_REACTORS
330
104
102
}
330
104
100
AcDbCellStyleMap
 90
        3
300
CELLSTYLE
  1
TABLEFORMAT_BEGIN
 90
        5
170
     1
 91
        0
 92
    32768
 62
   257
 93
        1
300
CONTENTFORMAT
  1
CONTENTFORMAT_BEGIN
 90
        0
 91
        0
 92
      512
 93
        0
300

 40
0.0
140
1.0
 94
        5
 62
     0
340
11
144
0.25
309
CONTENTFORMAT_END
171
     1
301
MARGIN
  1
CELLMARGIN_BEGIN
 40
0.06
 40
0.06
 40
0.06
 40
0.06
 40
0.18
 40
0.18
309
CELLMARGIN_END
 94
        6
 95
        1
302
GRIDFORMAT
  1
GRIDFORMAT_BEGIN
 90
        0
 91
        1
 62
     0
 92
       -2
340
0
 93
        0
 40
0.045
309
GRIDFORMAT_END
 95
        2
302
GRIDFORMAT
  1
GRIDFORMAT_BEGIN
 90
        0
 91
        1
 62
     0
 92
       -2
340
0
 93
        0
 40
0.045
309
GRIDFORMAT_END
 95
        4
302
GRIDFORMAT
  1
GRIDFORMAT_BEGIN
 90
        0
 91
        1
 62
     0
 92
       -2
340
0
 93
        0
 40
0.045
309
GRIDFORMAT_END
 95
        8
302
GRIDFORMAT
  1
GRIDFORMAT_BEGIN
 90
        0
 91
        1
 62
     0
 92
       -2
340
0
 93
        0
 40
0.045
309
GRIDFORMAT_END
 95
       16
302
GRIDFORMAT
  1
GRIDFORMAT_BEGIN
 90
        0
 91
        1
 62
     0
 92
       -2
340
0
 93
        0
 40
0.045
309
GRIDFORMAT_END
 95
       32
302
GRIDFORMAT
  1
GRIDFORMAT_BEGIN
 90
        0
 91
        1
 62
     0
 92
       -2
340
0
 93
        0
 40
0.045
309
GRIDFORMAT_END
309
TABLEFORMAT_END
  1
CELLSTYLE_BEGIN
 90
        1
 91
        1
300
_TITLE
309
CELLSTYLE_END
300
CELLSTYLE
  1
TABLEFORMAT_BEGIN
 90
        5
170
     1
 91
        0
 92
        0
 62
   257
 93
        1
300
CONTENTFORMAT
  1
CONTENTFORMAT_BEGIN
 90
        0
 91
        0
 92
      512
 93
        0
300

 40
0.0
140
1.0
 94
        5
 62
     0
340
11
144
0.18
309
CONTENTFORMAT_END
171
     1
301
MARGIN
  1
CELLMARGIN_BEGIN
 40
0.06
 40
0.06
 40
0.06
 40
0.06
 40
0.18
 40
0.18
309
CELLMARGIN_END
 94
        6
 95
        1
302
GRIDFORMAT
  1
GRIDFORMAT_BEGIN
 90
        0
 91
        1
 62
     0
 92
       -2
340
0
 93
        0
 40
0.045
309
GRIDFORMAT_END
 95
        2
302
GRIDFORMAT
  1
GRIDFORMAT_BEGIN
 90
        0
 91
        1
 62
     0
 92
       -2
340
0
 93
        0
 40
0.045
309
GRIDFORMAT_END
 95
        4
302
GRIDFORMAT
  1
GRIDFORMAT_BEGIN
 90
        0
 91
        1
 62
     0
 92
       -2
340
0
 93
        0
 40
0.045
309
GRIDFORMAT_END
 95
        8
302
GRIDFORMAT
  1
GRIDFORMAT_BEGIN
 90
        0
 91
        1
 62
     0
 92
       -2
340
0
 93
        0
 40
0.045
309
GRIDFORMAT_END
 95
       16
302
GRIDFORMAT
  1
GRIDFORMAT_BEGIN
 90
        0
 91
        1
 62
     0
 92
       -2
340
0
 93
        0
 40
0.045
309
GRIDFORMAT_END
 95
       32
302
GRIDFORMAT
  1
GRIDFORMAT_BEGIN
 90
        0
 91
        1
 62
     0
 92
       -2
340
0
 93
        0
 40
0.045
309
GRIDFORMAT_END
309
TABLEFORMAT_END
  1
CELLSTYLE_BEGIN
 90
        2
 91
        1
300
_HEADER
309
CELLSTYLE_END
300
CELLSTYLE
  1
TABLEFORMAT_BEGIN
 90
        5
170
     1
 91
        0
 92
        0
 62
   257
 93
        1
300
CONTENTFORMAT
  1
CONTENTFORMAT_BEGIN
 90
        0
 91
        0
 92
      512
 93
        0
300

 40
0.0
140
1.0
 94
        2
 62
     0
340
11
144
0.18
309
CONTENTFORMAT_END
171
     1
301
MARGIN
  1
CELLMARGIN_BEGIN
 40
0.06
 40
0.06
 40
0.06
 40
0.06
 40
0.18
 40
0.18
309
CELLMARGIN_END
 94
        6
 95
        1
302
GRIDFORMAT
  1
GRIDFORMAT_BEGIN
 90
        0
 91
        1
 62
     0
 92
       -2
340
0
 93
        0
 40
0.045
309
GRIDFORMAT_END
 95
        2
302
GRIDFORMAT
  1
GRIDFORMAT_BEGIN
 90
        0
 91
        1
 62
     0
 92
       -2
340
0
 93
        0
 40
0.045
309
GRIDFORMAT_END
 95
        4
302
GRIDFORMAT
  1
GRIDFORMAT_BEGIN
 90
        0
 91
        1
 62
     0
 92
       -2
340
0
 93
        0
 40
0.045
309
GRIDFORMAT_END
 95
        8
302
GRIDFORMAT
  1
GRIDFORMAT_BEGIN
 90
        0
 91
        1
 62
     0
 92
       -2
340
0
 93
        0
 40
0.045
309
GRIDFORMAT_END
 95
       16
302
GRIDFORMAT
  1
GRIDFORMAT_BEGIN
 90
        0
 91
        1
 62
     0
 92
       -2
340
0
 93
        0
 40
0.045
309
GRIDFORMAT_END
 95
       32
302
GRIDFORMAT
  1
GRIDFORMAT_BEGIN
 90
        0
 91
        1
 62
     0
 92
       -2
340
0
 93
        0
 40
0.045
309
GRIDFORMAT_END
309
TABLEFORMAT_END
  1
CELLSTYLE_BEGIN
 90
        3
 91
        2
300
_DATA
309
CELLSTYLE_END
  0
XRECORD
  5
374
102
{ACAD_REACTORS
330
104
102
}
330
104
100
AcDbXrecord
280
     1
102
ACAD_ROUNDTRIP_PRE2007_TABLESTYLE
 90
      512
 91
        0
  1

 92
      512
 93
        0
  2

 94
      512
 95
        0
  3

  0
ENDSEC
  0
EOF
