  0
SECTION
  2
HEADER
  9
$ACADVER
  1
AC1015
  9
$ACADMAINTVER
 70
    20
  9
$DWGCODEPAGE
  3
ANSI_1252
  9
$INSBASE
 10
0.0
 20
0.0
 30
0.0
  9
$EXTMIN
 10
20.0268515725127
 20
23.93483889194052
 30
0.0
  9
$EXTMAX
 10
505.6396213225126
 20
606.8945294819406
 30
0.0
  9
$LIMMIN
 10
0.0
 20
0.0
  9
$LIMMAX
 10
12.0
 20
9.0
  9
$ORTHOMODE
 70
     0
  9
$REGENMODE
 70
     1
  9
$FILLMODE
 70
     1
  9
$QTEXTMODE
 70
     0
  9
$MIRRTEXT
 70
     0
  9
$LTSCALE
 40
1.0
  9
$ATTMODE
 70
     1
  9
$TEXTSIZE
 40
0.2
  9
$TRACEWID
 40
0.05
  9
$TEXTSTYLE
  7
Standard
  9
$CLAYER
  8
0
  9
$CELTYPE
  6
ByLayer
  9
$CECOLOR
 62
   256
  9
$CELTSCALE
 40
1.0
  9
$DISPSILH
 70
     0
  9
$DIMSCALE
 40
1.0
  9
$DIMASZ
 40
0.18
  9
$DIMEXO
 40
0.0625
  9
$DIMDLI
 40
0.38
  9
$DIMRND
 40
0.0
  9
$DIMDLE
 40
0.0
  9
$DIMEXE
 40
0.18
  9
$DIMTP
 40
0.0
  9
$DIMTM
 40
0.0
  9
$DIMTXT
 40
0.18
  9
$DIMCEN
 40
0.09
  9
$DIMTSZ
 40
0.0
  9
$DIMTOL
 70
     0
  9
$DIMLIM
 70
     0
  9
$DIMTIH
 70
     1
  9
$DIMTOH
 70
     1
  9
$DIMSE1
 70
     0
  9
$DIMSE2
 70
     0
  9
$DIMTAD
 70
     0
  9
$DIMZIN
 70
     0
  9
$DIMBLK
  1

  9
$DIMASO
 70
     1
  9
$DIMSHO
 70
     1
  9
$DIMPOST
  1

  9
$DIMAPOST
  1

  9
$DIMALT
 70
     0
  9
$DIMALTD
 70
     2
  9
$DIMALTF
 40
25.4
  9
$DIMLFAC
 40
1.0
  9
$DIMTOFL
 70
     0
  9
$DIMTVP
 40
0.0
  9
$DIMTIX
 70
     0
  9
$DIMSOXD
 70
     0
  9
$DIMSAH
 70
     0
  9
$DIMBLK1
  1

  9
$DIMBLK2
  1

  9
$DIMSTYLE
  2
Standard
  9
$DIMCLRD
 70
     0
  9
$DIMCLRE
 70
     0
  9
$DIMCLRT
 70
     0
  9
$DIMTFAC
 40
1.0
  9
$DIMGAP
 40
0.09
  9
$DIMJUST
 70
     0
  9
$DIMSD1
 70
     0
  9
$DIMSD2
 70
     0
  9
$DIMTOLJ
 70
     1
  9
$DIMTZIN
 70
     0
  9
$DIMALTZ
 70
     0
  9
$DIMALTTZ
 70
     0
  9
$DIMUPT
 70
     0
  9
$DIMDEC
 70
     4
  9
$DIMTDEC
 70
     4
  9
$DIMALTU
 70
     2
  9
$DIMALTTD
 70
     2
  9
$DIMTXSTY
  7
Standard
  9
$DIMAUNIT
 70
     0
  9
$DIMADEC
 70
     0
  9
$DIMALTRND
 40
0.0
  9
$DIMAZIN
 70
     0
  9
$DIMDSEP
 70
    46
  9
$DIMATFIT
 70
     3
  9
$DIMFRAC
 70
     0
  9
$DIMLDRBLK
  1

  9
$DIMLUNIT
 70
     2
  9
$DIMLWD
 70
    -2
  9
$DIMLWE
 70
    -2
  9
$DIMTMOVE
 70
     0
  9
$LUNITS
 70
     2
  9
$LUPREC
 70
     4
  9
$SKETCHINC
 40
0.1
  9
$FILLETRAD
 40
0.0
  9
$AUNITS
 70
     0
  9
$AUPREC
 70
     0
  9
$MENU
  1
.
  9
$ELEVATION
 40
0.0
  9
$PELEVATION
 40
0.0
  9
$THICKNESS
 40
0.0
  9
$LIMCHECK
 70
     0
  9
$CHAMFERA
 40
0.0
  9
$CHAMFERB
 40
0.0
  9
$CHAMFERC
 40
0.0
  9
$CHAMFERD
 40
0.0
  9
$SKPOLY
 70
     0
  9
$TDCREATE
 40
2455511.361670660
  9
$TDUCREATE
 40
2455511.320003993
  9
$TDUPDATE
 40
2455511.361800290
  9
$TDUUPDATE
 40
2455511.320133623
  9
$TDINDWG
 40
0.0001298148
  9
$TDUSRTIMER
 40
0.0001298148
  9
$USRTIMER
 70
     1
  9
$ANGBASE
 50
0.0
  9
$ANGDIR
 70
     0
  9
$PDMODE
 70
     0
  9
$PDSIZE
 40
0.0
  9
$PLINEWID
 40
0.0
  9
$SPLFRAME
 70
     0
  9
$SPLINETYPE
 70
     6
  9
$SPLINESEGS
 70
     8
  9
$HANDSEED
  5
5EF
  9
$SURFTAB1
 70
     6
  9
$SURFTAB2
 70
     6
  9
$SURFTYPE
 70
     6
  9
$SURFU
 70
     6
  9
$SURFV
 70
     6
  9
$UCSBASE
  2

  9
$UCSNAME
  2

  9
$UCSORG
 10
0.0
 20
0.0
 30
0.0
  9
$UCSXDIR
 10
1.0
 20
0.0
 30
0.0
  9
$UCSYDIR
 10
0.0
 20
1.0
 30
0.0
  9
$UCSORTHOREF
  2

  9
$UCSORTHOVIEW
 70
     0
  9
$UCSORGTOP
 10
0.0
 20
0.0
 30
0.0
  9
$UCSORGBOTTOM
 10
0.0
 20
0.0
 30
0.0
  9
$UCSORGLEFT
 10
0.0
 20
0.0
 30
0.0
  9
$UCSORGRIGHT
 10
0.0
 20
0.0
 30
0.0
  9
$UCSORGFRONT
 10
0.0
 20
0.0
 30
0.0
  9
$UCSORGBACK
 10
0.0
 20
0.0
 30
0.0
  9
$PUCSBASE
  2

  9
$PUCSNAME
  2

  9
$PUCSORG
 10
0.0
 20
0.0
 30
0.0
  9
$PUCSXDIR
 10
1.0
 20
0.0
 30
0.0
  9
$PUCSYDIR
 10
0.0
 20
1.0
 30
0.0
  9
$PUCSORTHOREF
  2

  9
$PUCSORTHOVIEW
 70
     0
  9
$PUCSORGTOP
 10
0.0
 20
0.0
 30
0.0
  9
$PUCSORGBOTTOM
 10
0.0
 20
0.0
 30
0.0
  9
$PUCSORGLEFT
 10
0.0
 20
0.0
 30
0.0
  9
$PUCSORGRIGHT
 10
0.0
 20
0.0
 30
0.0
  9
$PUCSORGFRONT
 10
0.0
 20
0.0
 30
0.0
  9
$PUCSORGBACK
 10
0.0
 20
0.0
 30
0.0
  9
$USERI1
 70
     0
  9
$USERI2
 70
     0
  9
$USERI3
 70
     0
  9
$USERI4
 70
     0
  9
$USERI5
 70
     0
  9
$USERR1
 40
0.0
  9
$USERR2
 40
0.0
  9
$USERR3
 40
0.0
  9
$USERR4
 40
0.0
  9
$USERR5
 40
0.0
  9
$WORLDVIEW
 70
     1
  9
$SHADEDGE
 70
     3
  9
$SHADEDIF
 70
    70
  9
$TILEMODE
 70
     1
  9
$MAXACTVP
 70
    64
  9
$PINSBASE
 10
0.0
 20
0.0
 30
0.0
  9
$PLIMCHECK
 70
     0
  9
$PEXTMIN
 10
0.0
 20
0.0
 30
0.0
  9
$PEXTMAX
 10
0.0
 20
0.0
 30
0.0
  9
$PLIMMIN
 10
0.0
 20
0.0
  9
$PLIMMAX
 10
12.0
 20
9.0
  9
$UNITMODE
 70
     0
  9
$VISRETAIN
 70
     1
  9
$PLINEGEN
 70
     0
  9
$PSLTSCALE
 70
     1
  9
$TREEDEPTH
 70
  3020
  9
$CMLSTYLE
  2
Standard
  9
$CMLJUST
 70
     0
  9
$CMLSCALE
 40
1.0
  9
$PROXYGRAPHICS
 70
     1
  9
$MEASUREMENT
 70
     0
  9
$CELWEIGHT
370
    -1
  9
$ENDCAPS
280
     0
  9
$JOINSTYLE
280
     0
  9
$LWDISPLAY
290
     0
  9
$INSUNITS
 70
     1
  9
$HYPERLINKBASE
  1

  9
$STYLESHEET
  1

  9
$XEDIT
290
     1
  9
$CEPSNTYPE
380
     0
  9
$PSTYLEMODE
290
     1
  9
$FINGERPRINTGUID
  2
{579D22A7-2CDB-4E99-9789-A1F4DAAFBBCA}
  9
$VERSIONGUID
  2
{8946CCE1-CBDA-4B3B-B561-EB8019F11080}
  9
$EXTNAMES
290
     1
  9
$PSVPSCALE
 40
0.0
  9
$OLESTARTUP
290
     0
  0
ENDSEC
  0
SECTION
  2
CLASSES
  0
CLASS
  1
ACDBDICTIONARYWDFLT
  2
AcDbDictionaryWithDefault
  3
ObjectDBX Classes
 90
        0
280
     0
281
     0
  0
CLASS
  1
ACDBPLACEHOLDER
  2
AcDbPlaceHolder
  3
ObjectDBX Classes
 90
        0
280
     0
281
     0
  0
CLASS
  1
LAYOUT
  2
AcDbLayout
  3
ObjectDBX Classes
 90
        0
280
     0
281
     0
  0
CLASS
  1
DICTIONARYVAR
  2
AcDbDictionaryVar
  3
ObjectDBX Classes
 90
        0
280
     0
281
     0
  0
CLASS
  1
TABLESTYLE
  2
AcDbTableStyle
  3
ObjectDBX Classes
 90
     4095
280
     0
281
     0
  0
CLASS
  1
MATERIAL
  2
AcDbMaterial
  3
ObjectDBX Classes
 90
     1153
280
     0
281
     0
  0
CLASS
  1
VISUALSTYLE
  2
AcDbVisualStyle
  3
ObjectDBX Classes
 90
     4095
280
     0
281
     0
  0
CLASS
  1
SCALE
  2
AcDbScale
  3
ObjectDBX Classes
 90
     1153
280
     0
281
     0
  0
CLASS
  1
MLEADERSTYLE
  2
AcDbMLeaderStyle
  3
ACDB_MLEADERSTYLE_CLASS
 90
     4095
280
     0
281
     0
  0
CLASS
  1
CELLSTYLEMAP
  2
AcDbCellStyleMap
  3
ObjectDBX Classes
 90
     1152
280
     0
281
     0
  0
ENDSEC
  0
SECTION
  2
TABLES
  0
TABLE
  2
VPORT
  5
8
330
0
100
AcDbSymbolTable
 70
     1
  0
VPORT
  5
94
330
8
100
AcDbSymbolTableRecord
100
AcDbViewportTableRecord
  2
*Active
 70
     0
 10
0.0
 20
0.0
 11
1.0
 21
1.0
 12
262.8332364475127
 22
315.4146841869405
 13
0.0
 23
0.0
 14
0.5
 24
0.5
 15
0.5
 25
0.5
 16
0.0
 26
0.0
 36
1.0
 17
0.0
 27
0.0
 37
0.0
 40
587.7709122454882
 41
1.148760330578512
 42
50.0
 43
0.0
 44
0.0
 50
0.0
 51
0.0
 71
     0
 72
  1000
 73
     1
 74
     3
 75
     0
 76
     0
 77
     0
 78
     0
281
     0
 65
     1
110
0.0
120
0.0
130
0.0
111
1.0
121
0.0
131
0.0
112
0.0
122
1.0
132
0.0
 79
     0
146
0.0
  0
ENDTAB
  0
TABLE
  2
LTYPE
  5
5
330
0
100
AcDbSymbolTable
 70
     1
  0
LTYPE
  5
14
330
5
100
AcDbSymbolTableRecord
100
AcDbLinetypeTableRecord
  2
ByBlock
 70
     0
  3

 72
    65
 73
     0
 40
0.0
  0
LTYPE
  5
15
330
5
100
AcDbSymbolTableRecord
100
AcDbLinetypeTableRecord
  2
ByLayer
 70
     0
  3

 72
    65
 73
     0
 40
0.0
  0
LTYPE
  5
16
330
5
100
AcDbSymbolTableRecord
100
AcDbLinetypeTableRecord
  2
Continuous
 70
     0
  3
Solid line
 72
    65
 73
     0
 40
0.0
  0
ENDTAB
  0
TABLE
  2
LAYER
  5
2
330
0
100
AcDbSymbolTable
 70
     4
  0
LAYER
  5
10
102
{ACAD_XDICTIONARY
360
E6
102
}
330
2
100
AcDbSymbolTableRecord
100
AcDbLayerTableRecord
  2
0
 70
     0
 62
     7
  6
Continuous
370
    -3
390
F
  0
LAYER
  5
183
102
{ACAD_XDICTIONARY
360
5D9
102
}
330
2
100
AcDbSymbolTableRecord
100
AcDbLayerTableRecord
  2
Q
 70
     1
 62
     7
  6
Continuous
370
    -3
390
F
1001
AcAecLayerStandard
1000

1000

  0
LAYER
  5
184
102
{ACAD_XDICTIONARY
360
5DB
102
}
330
2
100
AcDbSymbolTableRecord
100
AcDbLayerTableRecord
  2
QUOTE
 70
     0
 62
     7
  6
Continuous
370
    -3
390
F
1001
AcAecLayerStandard
1000

1000

  0
LAYER
  5
5A6
330
2
100
AcDbSymbolTableRecord
100
AcDbLayerTableRecord
  2
Defpoints
 70
     0
 62
     7
  6
Continuous
290
     0
370
    -3
390
F
  0
ENDTAB
  0
TABLE
  2
STYLE
  5
3
330
0
100
AcDbSymbolTable
 70
     2
  0
STYLE
  5
11
330
3
100
AcDbSymbolTableRecord
100
AcDbTextStyleTableRecord
  2
Standard
 70
     0
 40
0.0
 41
1.0
 50
0.0
 71
     0
 42
0.2
  3
txt.shx
  4

  0
STYLE
  5
DC
330
3
100
AcDbSymbolTableRecord
100
AcDbTextStyleTableRecord
  2
Annotativa
 70
     0
 40
0.0
 41
1.0
 50
0.0
 71
     0
 42
0.2
  3
txt.shx
  4

1001
AcadAnnotative
1000
AnnotativeData
1002
{
1070
     1
1070
     1
1002
}
  0
ENDTAB
  0
TABLE
  2
VIEW
  5
6
330
0
100
AcDbSymbolTable
 70
     1
  0
ENDTAB
  0
TABLE
  2
UCS
  5
7
330
0
100
AcDbSymbolTable
 70
     0
  0
ENDTAB
  0
TABLE
  2
APPID
  5
9
330
0
100
AcDbSymbolTable
 70
    14
  0
APPID
  5
12
330
9
100
AcDbSymbolTableRecord
100
AcDbRegAppTableRecord
  2
ACAD
 70
     0
  0
APPID
  5
DD
330
9
100
AcDbSymbolTableRecord
100
AcDbRegAppTableRecord
  2
AcadAnnoPO
 70
     0
  0
APPID
  5
DE
330
9
100
AcDbSymbolTableRecord
100
AcDbRegAppTableRecord
  2
AcadAnnotative
 70
     0
  0
APPID
  5
DF
330
9
100
AcDbSymbolTableRecord
100
AcDbRegAppTableRecord
  2
ACAD_DSTYLE_DIMJAG
 70
     0
  0
APPID
  5
E0
330
9
100
AcDbSymbolTableRecord
100
AcDbRegAppTableRecord
  2
ACAD_DSTYLE_DIMTALN
 70
     0
  0
APPID
  5
107
330
9
100
AcDbSymbolTableRecord
100
AcDbRegAppTableRecord
  2
ACAD_MLEADERVER
 70
     0
  0
APPID
  5
185
330
9
100
AcDbSymbolTableRecord
100
AcDbRegAppTableRecord
  2
VDEXTRAPARAM
 70
     0
  0
APPID
  5
186
330
9
100
AcDbSymbolTableRecord
100
AcDbRegAppTableRecord
  2
VD_TEMPHATCH
 70
     0
  0
APPID
  5
187
330
9
100
AcDbSymbolTableRecord
100
AcDbRegAppTableRecord
  2
AcAecLayerStandard
 70
     0
  0
APPID
  5
188
330
9
100
AcDbSymbolTableRecord
100
AcDbRegAppTableRecord
  2
VD_EX_PRINTER_DWG_STYLE_SHEET
 70
     0
  0
APPID
  5
189
330
9
100
AcDbSymbolTableRecord
100
AcDbRegAppTableRecord
  2
VD_EX_PRINTER_SIZEX
 70
     0
  0
APPID
  5
18A
330
9
100
AcDbSymbolTableRecord
100
AcDbRegAppTableRecord
  2
VD_EX_PRINTER_AVSIZEX
 70
     0
  0
APPID
  5
18B
330
9
100
AcDbSymbolTableRecord
100
AcDbRegAppTableRecord
  2
VD_EX_PRINTER_SIZEY
 70
     0
  0
APPID
  5
18C
330
9
100
AcDbSymbolTableRecord
100
AcDbRegAppTableRecord
  2
VD_EX_PRINTER_AVSIZEY
 70
     0
  0
ENDTAB
  0
TABLE
  2
DIMSTYLE
  5
A
330
0
100
AcDbSymbolTable
 70
     2
100
AcDbDimStyleTable
 71
     2
340
27
340
E1
  0
DIMSTYLE
105
27
102
{ACAD_REACTORS
330
549
330
54A
102
}
330
A
100
AcDbSymbolTableRecord
100
AcDbDimStyleTableRecord
  2
Standard
 70
     0
340
11
  0
DIMSTYLE
105
E1
330
A
100
AcDbSymbolTableRecord
100
AcDbDimStyleTableRecord
  2
Annotativa
 70
     0
 40
0.0
340
11
1001
AcadAnnotative
1000
AnnotativeData
1002
{
1070
     1
1070
     1
1002
}
1001
ACAD_DSTYLE_DIMJAG
1070
   388
1040
1.5
1001
ACAD_DSTYLE_DIMTALN
1070
   392
1070
     0
  0
ENDTAB
  0
TABLE
  2
BLOCK_RECORD
  5
1
330
0
100
AcDbSymbolTable
 70
     8
  0
BLOCK_RECORD
  5
1F
330
1
100
AcDbSymbolTableRecord
100
AcDbBlockTableRecord
  2
*Model_Space
340
22
  0
BLOCK_RECORD
  5
58
330
1
100
AcDbSymbolTableRecord
100
AcDbBlockTableRecord
  2
*Paper_Space
340
59
  0
BLOCK_RECORD
  5
5D
330
1
100
AcDbSymbolTableRecord
100
AcDbBlockTableRecord
  2
*Paper_Space0
340
5E
  0
BLOCK_RECORD
  5
14C
330
1
100
AcDbSymbolTableRecord
100
AcDbBlockTableRecord
  2
VDDIM_DEFAULT
340
0
  0
BLOCK_RECORD
  5
150
330
1
100
AcDbSymbolTableRecord
100
AcDbBlockTableRecord
  2
IBvert
340
0
102
{BLKREFS
331
390
331
391
331
392
331
393
331
59E
331
59F
331
5A0
331
5A1
102
}
  0
BLOCK_RECORD
  5
15F
330
1
100
AcDbSymbolTableRecord
100
AcDbBlockTableRecord
  2
IEC_309_16
340
0
102
{BLKREFS
331
394
331
395
331
396
331
397
331
5A2
331
5A3
331
5A4
331
5A5
102
}
  0
BLOCK_RECORD
  5
177
330
1
100
AcDbSymbolTableRecord
100
AcDbBlockTableRecord
  2
*D4
340
0
  0
BLOCK_RECORD
  5
5A7
330
1
100
AcDbSymbolTableRecord
100
AcDbBlockTableRecord
  2
*D6
340
0
  0
BLOCK_RECORD
  5
5B4
330
1
100
AcDbSymbolTableRecord
100
AcDbBlockTableRecord
  2
*D7
340
0
  0
ENDTAB
  0
ENDSEC
  0
SECTION
  2
BLOCKS
  0
BLOCK
  5
20
330
1F
100
AcDbEntity
  8
0
100
AcDbBlockBegin
  2
*Model_Space
 70
     0
 10
0.0
 20
0.0
 30
0.0
  3
*Model_Space
  1

  0
ENDBLK
  5
21
330
1F
100
AcDbEntity
  8
0
100
AcDbBlockEnd
  0
BLOCK
  5
5A
330
58
100
AcDbEntity
 67
     1
  8
0
100
AcDbBlockBegin
  2
*Paper_Space
 70
     0
 10
0.0
 20
0.0
 30
0.0
  3
*Paper_Space
  1

  0
ENDBLK
  5
5B
330
58
100
AcDbEntity
 67
     1
  8
0
100
AcDbBlockEnd
  0
BLOCK
  5
5F
330
5D
100
AcDbEntity
 67
     1
  8
0
100
AcDbBlockBegin
  2
*Paper_Space0
 70
     0
 10
0.0
 20
0.0
 30
0.0
  3
*Paper_Space0
  1

  0
ENDBLK
  5
60
330
5D
100
AcDbEntity
 67
     1
  8
0
100
AcDbBlockEnd
  0
BLOCK
  5
14D
330
14C
100
AcDbEntity
  8
0
100
AcDbBlockBegin
  2
VDDIM_DEFAULT
 70
     0
 10
0.0
 20
0.0
 30
0.0
  3
VDDIM_DEFAULT
  1

  0
HATCH
  5
14E
330
14C
100
AcDbEntity
  8
0
  6
Continuous
 62
     0
370
    -2
100
AcDbHatch
 10
0.0
 20
0.0
 30
0.0
210
0.0
220
0.0
230
-1.0
  2
SOLID
 70
     1
 71
     0
 91
        1
 92
        2
 72
     0
 73
     1
 93
        3
 10
0.0
 20
0.0
 10
1.0
 20
-0.1665
 10
1.0
 20
0.1665
 97
        0
 75
     0
 76
     1
 98
        1
 10
0.0
 20
0.0
  0
ENDBLK
  5
14F
330
14C
100
AcDbEntity
  8
0
100
AcDbBlockEnd
  0
BLOCK
  5
151
330
150
100
AcDbEntity
  8
0
100
AcDbBlockBegin
  2
IBvert
 70
     0
 10
0.0
 20
0.0
 30
0.0
  3
IBvert
  1

  0
LINE
  5
152
330
150
100
AcDbEntity
  8
0
100
AcDbLine
 10
105.74134107
 20
8.212549389999999
 30
0.0
 11
16.97138987
 21
8.212549389999999
 31
0.0
  0
ARC
  5
153
330
150
100
AcDbEntity
  8
0
100
AcDbCircle
 10
16.97138987
 20
15.33568614
 30
0.0
 40
7.123136749999999
100
AcDbArc
 50
180.0
 51
270.0
  0
CIRCLE
  5
154
330
150
100
AcDbEntity
  8
0
100
AcDbCircle
 10
16.97138987
 20
15.33568614
 30
0.0
 40
2.58835439
  0
ARC
  5
155
330
150
100
AcDbEntity
  8
0
100
AcDbCircle
 10
105.74134107
 20
15.33568614
 30
0.0
 40
7.123136749999999
100
AcDbArc
 50
270.0
 51
0.0
  0
CIRCLE
  5
156
330
150
100
AcDbEntity
  8
0
100
AcDbCircle
 10
105.74134107
 20
15.33568614
 30
0.0
 40
2.58835439
  0
LINE
  5
157
330
150
100
AcDbEntity
  8
0
100
AcDbLine
 10
9.848253129999999
 20
15.33568614
 30
0.0
 11
9.848253129999999
 21
221.0912604
 31
0.0
  0
LINE
  5
158
330
150
100
AcDbEntity
  8
0
100
AcDbLine
 10
112.86447781
 20
15.33568614
 30
0.0
 11
112.86447781
 21
221.0912604
 31
0.0
  0
LINE
  5
159
330
150
100
AcDbEntity
  8
0
100
AcDbLine
 10
16.97138987
 20
228.21439714
 30
0.0
 11
105.74134107
 21
228.21439714
 31
0.0
  0
ARC
  5
15A
330
150
100
AcDbEntity
  8
0
100
AcDbCircle
 10
16.97138987
 20
221.0912604
 30
0.0
 40
7.123136749999999
100
AcDbArc
 50
90.0
 51
180.0
  0
CIRCLE
  5
15B
330
150
100
AcDbEntity
  8
0
100
AcDbCircle
 10
16.97138987
 20
221.0912604
 30
0.0
 40
2.58835439
  0
CIRCLE
  5
15C
330
150
100
AcDbEntity
  8
0
100
AcDbCircle
 10
105.74134107
 20
221.0912604
 30
0.0
 40
2.58835439
  0
ARC
  5
15D
330
150
100
AcDbEntity
  8
0
100
AcDbCircle
 10
105.74134107
 20
221.0912604
 30
0.0
 40
7.123136749999999
100
AcDbArc
 50
0.0
 51
90.0
  0
ENDBLK
  5
15E
330
150
100
AcDbEntity
  8
0
100
AcDbBlockEnd
  0
BLOCK
  5
160
330
15F
100
AcDbEntity
  8
0
100
AcDbBlockBegin
  2
IEC_309_16
 70
     0
 10
0.0
 20
0.0
 30
0.0
  3
IEC_309_16
  1

  0
ARC
  5
161
330
15F
100
AcDbEntity
  8
0
100
AcDbCircle
 10
32.67365554
 20
24.89049107
 30
0.0
 40
7.123136749999999
100
AcDbArc
 50
180.0
 51
270.0
  0
ARC
  5
162
330
15F
100
AcDbEntity
  8
0
100
AcDbCircle
 10
93.43934221999999
 20
24.87649512
 30
0.0
 40
7.123136749999999
100
AcDbArc
 50
270.0
 51
0.0
  0
LINE
  5
163
330
15F
100
AcDbEntity
  8
0
100
AcDbLine
 10
32.67365554
 20
17.76735433
 30
0.0
 11
63.80444306
 21
17.75335838
 31
0.0
  0
LINE
  5
164
330
15F
100
AcDbEntity
  8
0
100
AcDbLine
 10
93.43934221999999
 20
17.75335838
 30
0.0
 11
63.80444306
 21
17.75335838
 31
0.0
  0
ARC
  5
165
330
15F
100
AcDbEntity
  8
0
100
AcDbCircle
 10
32.67365554
 20
95.51955823
 30
0.0
 40
7.123136749999999
100
AcDbArc
 50
90.0
 51
180.0
  0
LINE
  5
166
330
15F
100
AcDbEntity
  8
0
100
AcDbLine
 10
100.56247897
 20
95.50556228999999
 30
0.0
 11
100.56247897
 21
24.87649512
 31
0.0
  0
CIRCLE
  5
167
330
15F
100
AcDbEntity
  8
0
100
AcDbCircle
 10
93.43934221999999
 20
24.87649512
 30
0.0
 40
2.58835439
  0
CIRCLE
  5
168
330
15F
100
AcDbEntity
  8
0
100
AcDbCircle
 10
32.67365554
 20
24.89049107
 30
0.0
 40
2.58835439
  0
CIRCLE
  5
169
330
15F
100
AcDbEntity
  8
0
100
AcDbCircle
 10
93.43934221999999
 20
95.50556228999999
 30
0.0
 40
2.58835439
  0
ARC
  5
16A
330
15F
100
AcDbEntity
  8
0
100
AcDbCircle
 10
93.43934221999999
 20
95.50556228999999
 30
0.0
 40
7.123136749999999
100
AcDbArc
 50
0.0
 51
90.0
  0
LINE
  5
16B
330
15F
100
AcDbEntity
  8
0
100
AcDbLine
 10
63.80444306
 20
102.62869903
 30
0.0
 11
32.67365554
 21
102.64269498
 31
0.0
  0
CIRCLE
  5
16C
330
15F
100
AcDbEntity
  8
0
100
AcDbCircle
 10
32.67365554
 20
95.51955823
 30
0.0
 40
2.58835439
  0
LINE
  5
16D
330
15F
100
AcDbEntity
  8
0
100
AcDbLine
 10
63.80444306
 20
102.62869903
 30
0.0
 11
93.43934221999999
 21
102.62869903
 31
0.0
  0
LINE
  5
16E
330
15F
100
AcDbEntity
  8
0
100
AcDbLine
 10
25.5505188
 20
95.51955823
 30
0.0
 11
25.5505188
 21
24.89049107
 31
0.0
  0
LINE
  5
16F
330
15F
100
AcDbEntity
  8
Q
 62
     1
100
AcDbLine
 10
20.54829634
 20
17.76735433
 30
0.0
 11
105.56470143
 21
17.76735433
 31
0.0
  0
LINE
  5
170
330
15F
100
AcDbEntity
  8
Q
 62
     1
100
AcDbLine
 10
105.56470143
 20
17.76735433
 30
0.0
 11
105.56470143
 21
113.01787381
 31
0.0
  0
LINE
  5
171
330
15F
100
AcDbEntity
  8
Q
 62
     1
100
AcDbLine
 10
20.54829634
 20
62.17655536
 30
0.0
 11
20.54829634
 21
111.23101363
 31
0.0
  0
LINE
  5
172
330
15F
100
AcDbEntity
  8
Q
 62
     1
100
AcDbLine
 10
20.54829634
 20
111.23101363
 30
0.0
 11
20.54829634
 21
17.76735433
 31
0.0
  0
LINE
  5
173
330
15F
100
AcDbEntity
  8
Q
 62
     1
100
AcDbLine
 10
63.80444306
 20
113.01787381
 30
0.0
 11
105.56470143
 21
113.01787381
 31
0.0
  0
LINE
  5
174
330
15F
100
AcDbEntity
  8
Q
 62
     1
100
AcDbLine
 10
63.80444306
 20
113.01787381
 30
0.0
 11
20.54829634
 21
113.01787381
 31
0.0
  0
LINE
  5
175
330
15F
100
AcDbEntity
  8
Q
 62
     1
100
AcDbLine
 10
20.54829634
 20
113.01787381
 30
0.0
 11
20.54829634
 21
111.23101363
 31
0.0
  0
ENDBLK
  5
176
330
15F
100
AcDbEntity
  8
0
100
AcDbBlockEnd
  0
BLOCK
  5
178
330
177
100
AcDbEntity
  8
0
100
AcDbBlockBegin
  2
*D4
 70
     0
 10
0.0
 20
0.0
 30
0.0
  3
*D4
  1

  0
LINE
  5
179
330
177
100
AcDbEntity
  8
QUOTE
 62
     7
100
AcDbLine
 10
468.35284441
 20
29.91691359
 30
0.0
 11
468.35284441
 21
-10.366423
 31
0.0
  0
LINE
  5
17A
330
177
100
AcDbEntity
  8
QUOTE
 62
     7
100
AcDbLine
 10
18.35284441
 20
23.77326759
 30
0.0
 11
18.35284441
 21
-10.366423
 31
0.0
  0
LINE
  5
17B
330
177
100
AcDbEntity
  8
QUOTE
 62
     7
100
AcDbLine
 10
453.3528444099999
 20
-10.186423
 30
0.0
 11
254.9123957
 21
-10.186423
 31
0.0
  0
LINE
  5
17C
330
177
100
AcDbEntity
  8
QUOTE
 62
     7
100
AcDbLine
 10
33.35284441000001
 20
-10.186423
 30
0.0
 11
229.7323957
 21
-10.186423
 31
0.0
  0
LWPOLYLINE
  5
17D
102
{ACAD_REACTORS
330
17E
102
}
330
177
100
AcDbEntity
  8
QUOTE
 62
     7
100
AcDbPolyline
 90
        3
 70
     1
 43
0.0
 10
453.3528444099999
 20
-7.686422999999999
 10
453.3528444099999
 20
-12.686423
 10
468.35284441
 20
-10.186423
  0
HATCH
  5
17E
330
177
100
AcDbEntity
  8
QUOTE
 62
     7
100
AcDbHatch
 10
0.0
 20
0.0
 30
0.0
210
0.0
220
0.0
230
1.0
  2
SOLID
 70
     1
 71
     1
 91
        1
 92
        2
 72
     0
 73
     1
 93
        3
 10
453.3528444099999
 20
-7.686422999999999
 10
453.3528444099999
 20
-12.686423
 10
468.35284441
 20
-10.186423
 97
        1
330
17D
 75
     0
 76
     1
 98
        1
 10
0.0
 20
0.0
1001
VD_TEMPHATCH
1000
VD_TEMPHATCH
  0
LWPOLYLINE
  5
17F
102
{ACAD_REACTORS
330
180
102
}
330
177
100
AcDbEntity
  8
QUOTE
 62
     7
100
AcDbPolyline
 90
        3
 70
     1
 43
0.0
 10
33.35284441000001
 20
-7.686422999999999
 10
33.35284441000001
 20
-12.686423
 10
18.35284441
 20
-10.186423
  0
HATCH
  5
180
330
177
100
AcDbEntity
  8
QUOTE
 62
     7
100
AcDbHatch
 10
0.0
 20
0.0
 30
0.0
210
0.0
220
0.0
230
1.0
  2
SOLID
 70
     1
 71
     1
 91
        1
 92
        2
 72
     0
 73
     1
 93
        3
 10
33.35284441000001
 20
-7.686422999999999
 10
33.35284441000001
 20
-12.686423
 10
18.35284441
 20
-10.186423
 97
        1
330
17F
 75
     0
 76
     1
 98
        1
 10
0.0
 20
0.0
1001
VD_TEMPHATCH
1000
VD_TEMPHATCH
  0
MTEXT
  5
181
330
177
100
AcDbEntity
  8
QUOTE
 62
     7
100
AcDbMText
 10
242.3223957
 20
-10.186423
 30
0.0
 40
10.0
 41
22.73081434
 71
     5
 72
     1
  1
\A1;450
 73
     1
 44
1.0
1001
ACAD
1000
MTEXTBEGIN
1070
    73
1070
     1
1070
    44
1040
1.0
1070
    74
1070
     0
1000
MTEXTEND
  0
ENDBLK
  5
182
330
177
100
AcDbEntity
  8
0
100
AcDbBlockEnd
  0
BLOCK
  5
5A8
330
5A7
100
AcDbEntity
  8
0
100
AcDbBlockBegin
  2
*D6
 70
     1
 10
0.0
 20
0.0
 30
0.0
  3
*D6
  1

  0
LINE
  5
5C1
330
5A7
100
AcDbEntity
  8
QUOTE
 62
     0
370
    -2
100
AcDbLine
 10
71.57712132251269
 20
606.8945294819406
 30
0.0
 11
32.34685157251281
 21
606.8945294819406
 31
0.0
  0
LINE
  5
5C2
330
5A7
100
AcDbEntity
  8
QUOTE
 62
     0
370
    -2
100
AcDbLine
 10
71.57712048251269
 20
46.89452948194052
 30
0.0
 11
32.34685157251269
 21
46.89452948194053
 31
0.0
  0
LINE
  5
5C3
330
5A7
100
AcDbEntity
  8
QUOTE
 62
     0
370
    -2
100
AcDbLine
 10
32.5268515725128
 20
591.8945294819406
 30
0.0
 11
32.52685157251275
 21
331.7747570219405
 31
0.0
  0
LINE
  5
5C4
330
5A7
100
AcDbEntity
  8
QUOTE
 62
     0
370
    -2
100
AcDbLine
 10
32.52685157251269
 20
61.89452948194053
 30
0.0
 11
32.52685157251275
 21
321.5947570219406
 31
0.0
  0
SOLID
  5
5C5
330
5A7
100
AcDbEntity
  8
QUOTE
 62
     0
100
AcDbTrace
 10
30.02685157251281
 20
591.8945294819406
 30
0.0
 11
35.0268515725128
 21
591.8945294819406
 31
0.0
 12
32.52685157251281
 22
606.8945294819406
 32
0.0
 13
32.52685157251281
 23
606.8945294819406
 33
0.0
  0
SOLID
  5
5C6
330
5A7
100
AcDbEntity
  8
QUOTE
 62
     0
100
AcDbTrace
 10
30.02685157251269
 20
61.89452948194053
 30
0.0
 11
35.02685157251269
 21
61.89452948194053
 31
0.0
 12
32.52685157251268
 22
46.89452948194053
 32
0.0
 13
32.52685157251268
 23
46.89452948194053
 33
0.0
  0
MTEXT
  5
5C7
330
5A7
100
AcDbEntity
  8
QUOTE
 62
     0
100
AcDbMText
 10
32.5268515725127
 20
326.6847570219405
 30
0.0
 40
10.0
 41
0.0
 71
     5
 72
     1
  1
\A1;560
 73
     1
 44
1.0
1001
ACAD
1000
MTEXTBEGIN
1070
    73
1070
     1
1070
    44
1040
1.0
1070
    74
1070
     0
1000
MTEXTEND
  0
POINT
  5
5C8
330
5A7
100
AcDbEntity
  8
Defpoints
 62
     0
100
AcDbPoint
 10
71.6396213225127
 20
606.8945294819406
 30
0.0
  0
POINT
  5
5C9
330
5A7
100
AcDbEntity
  8
Defpoints
 62
     0
100
AcDbPoint
 10
71.6396204825127
 20
46.89452948194052
 30
0.0
  0
POINT
  5
5CA
330
5A7
100
AcDbEntity
  8
Defpoints
 62
     0
100
AcDbPoint
 10
32.52685157251268
 20
46.89452948194053
 30
0.0
  0
ENDBLK
  5
5A9
330
5A7
100
AcDbEntity
  8
0
100
AcDbBlockEnd
  0
BLOCK
  5
5B5
330
5B4
100
AcDbEntity
  8
0
100
AcDbBlockBegin
  2
*D7
 70
     1
 10
0.0
 20
0.0
 30
0.0
  3
*D7
  1

  0
LINE
  5
5CB
330
5B4
100
AcDbEntity
  8
QUOTE
 62
     0
370
    -2
100
AcDbLine
 10
505.6396213225126
 20
69.03817548194052
 30
0.0
 11
505.6396213225126
 21
28.75483889194052
 31
0.0
  0
LINE
  5
5CC
330
5B4
100
AcDbEntity
  8
QUOTE
 62
     0
370
    -2
100
AcDbLine
 10
55.63962132251269
 20
62.89452948194052
 30
0.0
 11
55.63962132251269
 21
28.75483889194052
 31
0.0
  0
LINE
  5
5CD
330
5B4
100
AcDbEntity
  8
QUOTE
 62
     0
370
    -2
100
AcDbLine
 10
490.6396213225126
 20
28.93483889194052
 30
0.0
 11
292.1991726125126
 21
28.93483889194052
 31
0.0
  0
LINE
  5
5CE
330
5B4
100
AcDbEntity
  8
QUOTE
 62
     0
370
    -2
100
AcDbLine
 10
70.63962132251269
 20
28.93483889194052
 30
0.0
 11
267.0191726125127
 21
28.93483889194052
 31
0.0
  0
SOLID
  5
5CF
330
5B4
100
AcDbEntity
  8
QUOTE
 62
     0
100
AcDbTrace
 10
490.6396213225126
 20
31.43483889194052
 30
0.0
 11
490.6396213225126
 21
26.43483889194052
 31
0.0
 12
505.6396213225126
 22
28.93483889194052
 32
0.0
 13
505.6396213225126
 23
28.93483889194052
 33
0.0
  0
SOLID
  5
5D0
330
5B4
100
AcDbEntity
  8
QUOTE
 62
     0
100
AcDbTrace
 10
70.63962132251269
 20
31.43483889194052
 30
0.0
 11
70.63962132251269
 21
26.43483889194052
 31
0.0
 12
55.63962132251269
 22
28.93483889194052
 32
0.0
 13
55.63962132251269
 23
28.93483889194052
 33
0.0
  0
MTEXT
  5
5D1
330
5B4
100
AcDbEntity
  8
QUOTE
 62
     0
100
AcDbMText
 10
279.6091726125127
 20
28.93483889194052
 30
0.0
 40
10.0
 41
0.0
 71
     5
 72
     1
  1
\A1;450
 73
     1
 44
1.0
1001
ACAD
1000
MTEXTBEGIN
1070
    73
1070
     1
1070
    44
1040
1.0
1070
    74
1070
     0
1000
MTEXTEND
  0
POINT
  5
5D2
330
5B4
100
AcDbEntity
  8
Defpoints
 62
     0
100
AcDbPoint
 10
505.6396213225126
 20
69.10067548194053
 30
0.0
  0
POINT
  5
5D3
330
5B4
100
AcDbEntity
  8
Defpoints
 62
     0
100
AcDbPoint
 10
55.63962132251269
 20
62.95702948194052
 30
0.0
  0
POINT
  5
5D4
330
5B4
100
AcDbEntity
  8
Defpoints
 62
     0
100
AcDbPoint
 10
55.63962132251269
 20
28.93483889194052
 30
0.0
  0
ENDBLK
  5
5B6
330
5B4
100
AcDbEntity
  8
0
100
AcDbBlockEnd
  0
ENDSEC
  0
SECTION
  2
ENTITIES
  0
LINE
  5
39C
330
1F
100
AcDbEntity
  8
0
 62
   253
 48
0.001467
370
    35
100
AcDbLine
 10
87.07350432251269
 20
406.1185284819405
 30
0.0
 11
87.03201632251269
 21
406.0770544819405
 31
0.0
  0
LINE
  5
39D
330
1F
100
AcDbEntity
  8
0
 62
   253
 48
0.001467
370
    35
100
AcDbLine
 10
85.08111932251269
 20
408.1109294819404
 30
0.0
 11
85.0396153225127
 21
408.0694254819404
 31
0.0
  0
ARC
  5
39E
330
1F
100
AcDbEntity
  8
0
 62
   253
370
    35
100
AcDbCircle
 10
87.02859832251268
 20
408.0660384819404
 30
0.0
 40
1.988738999999999
100
AcDbArc
 50
179.9018549999999
 51
270.0981399999999
  0
LINE
  5
39F
330
1F
100
AcDbEntity
  8
0
 62
   253
370
    35
100
AcDbLine
 10
87.03201632251269
 20
406.0770544819405
 30
0.0
 11
474.2472263225127
 21
406.0770544819405
 31
0.0
  0
ARC
  5
3A0
330
1F
100
AcDbEntity
  8
0
 62
   253
370
    35
100
AcDbCircle
 10
474.2506443225127
 20
408.0660384819404
 30
0.0
 40
1.988738999999999
100
AcDbArc
 50
269.901848
 51
0.0981429999999927
  0
LINE
  5
3A1
330
1F
100
AcDbEntity
  8
0
 62
   253
 48
0.003992
370
    35
100
AcDbLine
 10
180.4524573225127
 20
417.6041234819405
 30
0.0
 11
180.4706453225127
 21
417.7627544819405
 31
0.0
  0
LINE
  5
3A2
330
1F
100
AcDbEntity
  8
0
 62
   253
 48
0.004009
370
    35
100
AcDbLine
 10
380.8268773225127
 20
417.6034524819405
 30
0.0
 11
380.8085973225127
 21
417.7627544819405
 31
0.0
  0
LINE
  5
3A3
330
1F
100
AcDbEntity
  8
0
 62
   253
370
    35
100
AcDbLine
 10
201.3340183225127
 20
417.4985334819405
 30
0.0
 11
225.6396213225127
 21
417.4985334819405
 31
0.0
  0
LINE
  5
3A4
330
1F
100
AcDbEntity
  8
0
 62
   253
370
    35
100
AcDbLine
 10
155.6396213225126
 20
417.4985334819405
 30
0.0
 11
179.9452243225127
 21
417.4985334819405
 31
0.0
  0
LINE
  5
3A5
330
1F
100
AcDbEntity
  8
0
 62
   253
370
    35
100
AcDbLine
 10
381.3340183225128
 20
417.4985334819405
 30
0.0
 11
405.6396213225126
 21
417.4985334819405
 31
0.0
  0
LINE
  5
3A6
330
1F
100
AcDbEntity
  8
0
 62
   253
370
    35
100
AcDbLine
 10
335.6396213225127
 20
417.4985334819405
 30
0.0
 11
359.9452243225127
 21
417.4985334819405
 31
0.0
  0
ARC
  5
3A7
330
1F
100
AcDbEntity
  8
0
 62
   253
370
    35
100
AcDbCircle
 10
147.5405003225127
 20
440.4152204819405
 30
0.0
 40
22.428446
100
AcDbArc
 50
241.649282
 51
242.9583559999999
  0
LINE
  5
3A8
330
1F
100
AcDbEntity
  8
0
 62
   253
 48
0.005419
370
    35
100
AcDbLine
 10
136.8899723225126
 20
420.6768774819405
 30
0.0
 11
136.6984433225127
 21
420.7783794819405
 31
0.0
  0
ARC
  5
3A9
330
1F
100
AcDbEntity
  8
0
 62
   253
370
    35
100
AcDbCircle
 10
233.7387423225127
 20
440.4152204819405
 30
0.0
 40
22.428442
100
AcDbArc
 50
297.0416379999999
 51
298.350719
  0
LINE
  5
3AA
330
1F
100
AcDbEntity
  8
0
 62
   253
 48
0.005418
370
    35
100
AcDbLine
 10
244.3892853225127
 20
420.6768774819405
 30
0.0
 11
244.5807833225127
 21
420.7783794819405
 31
0.0
  0
ARC
  5
3AB
330
1F
100
AcDbEntity
  8
0
 62
   253
370
    35
100
AcDbCircle
 10
413.7387423225127
 20
440.4152204819405
 30
0.0
 40
22.428446
100
AcDbArc
 50
297.0416379999999
 51
298.350719
  0
LINE
  5
3AC
330
1F
100
AcDbEntity
  8
0
 62
   253
 48
0.005419
370
    35
100
AcDbLine
 10
424.3892553225126
 20
420.6768774819405
 30
0.0
 11
424.5807833225127
 21
420.7783794819405
 31
0.0
  0
LINE
  5
3AD
330
1F
100
AcDbEntity
  8
0
 62
   253
 48
0.005418
370
    35
100
AcDbLine
 10
316.8899573225127
 20
420.6768774819405
 30
0.0
 11
316.6984593225127
 21
420.7783794819405
 31
0.0
  0
ARC
  5
3AE
330
1F
100
AcDbEntity
  8
0
 62
   253
370
    35
100
AcDbCircle
 10
327.5405003225127
 20
440.4152204819405
 30
0.0
 40
22.428442
100
AcDbArc
 50
241.649282
 51
242.9583559999999
  0
LINE
  5
3AF
330
1F
100
AcDbEntity
  8
0
 62
   253
 48
0.4608090000000001
370
    35
100
AcDbLine
 10
85.0396153225127
 20
408.0694254819404
 30
0.0
 11
85.0396153225127
 21
426.5017674819405
 31
0.0
  0
LINE
  5
3B0
330
1F
100
AcDbEntity
  8
0
 62
   253
 48
0.4608090000000001
370
    35
100
AcDbLine
 10
476.2396573225126
 20
408.0694254819404
 30
0.0
 11
476.2396573225126
 21
426.5017674819405
 31
0.0
  0
LINE
  5
3B1
330
1F
100
AcDbEntity
  8
0
 62
   253
 48
0.1455
370
    35
100
AcDbLine
 10
155.6396213225126
 20
417.4986554819405
 30
0.0
 11
155.6396213225126
 21
423.3186624819404
 31
0.0
  0
LINE
  5
3B2
330
1F
100
AcDbEntity
  8
0
 62
   253
 48
0.074544
370
    35
100
AcDbLine
 10
155.6396213225126
 20
423.3186624819404
 30
0.0
 11
155.6396213225126
 21
426.3004134819404
 31
0.0
  0
LINE
  5
3B3
330
1F
100
AcDbEntity
  8
0
 62
   253
 48
0.1455
370
    35
100
AcDbLine
 10
225.6396213225127
 20
417.4986554819405
 30
0.0
 11
225.6396213225127
 21
423.3186624819404
 31
0.0
  0
LINE
  5
3B4
330
1F
100
AcDbEntity
  8
0
 62
   253
 48
0.074544
370
    35
100
AcDbLine
 10
225.6396213225127
 20
423.3186624819404
 30
0.0
 11
225.6396213225127
 21
426.3004134819404
 31
0.0
  0
LINE
  5
3B5
330
1F
100
AcDbEntity
  8
0
 62
   253
 48
0.074544
370
    35
100
AcDbLine
 10
405.6396213225126
 20
423.3186624819404
 30
0.0
 11
405.6396213225126
 21
426.3004134819404
 31
0.0
  0
LINE
  5
3B6
330
1F
100
AcDbEntity
  8
0
 62
   253
 48
0.1455
370
    35
100
AcDbLine
 10
405.6396213225126
 20
417.4986554819405
 30
0.0
 11
405.6396213225126
 21
423.3186624819404
 31
0.0
  0
LINE
  5
3B7
330
1F
100
AcDbEntity
  8
0
 62
   253
 48
0.1455
370
    35
100
AcDbLine
 10
335.6396213225127
 20
417.4986554819405
 30
0.0
 11
335.6396213225127
 21
423.3186624819404
 31
0.0
  0
LINE
  5
3B8
330
1F
100
AcDbEntity
  8
0
 62
   253
 48
0.074544
370
    35
100
AcDbLine
 10
335.6396213225127
 20
423.3186624819404
 30
0.0
 11
335.6396213225127
 21
426.3004134819404
 31
0.0
  0
LINE
  5
3B9
330
1F
100
AcDbEntity
  8
0
 62
   253
 48
0.067465
370
    35
100
AcDbLine
 10
88.23555332251268
 20
426.9999364819405
 30
0.0
 11
85.5369603225127
 21
426.9999364819405
 31
0.0
  0
LINE
  5
3BA
330
1F
100
AcDbEntity
  8
0
 62
   253
 48
0.013488
370
    35
100
AcDbLine
 10
88.23555332251268
 20
426.9999364819405
 30
0.0
 11
88.77508832251269
 21
426.9999364819405
 31
0.0
  0
LINE
  5
3BB
330
1F
100
AcDbEntity
  8
0
 62
   253
 48
0.024672
370
    35
100
AcDbLine
 10
89.76195132251268
 20
426.9999364819405
 30
0.0
 11
88.77508832251269
 21
426.9999364819405
 31
0.0
  0
LINE
  5
3BC
330
1F
100
AcDbEntity
  8
0
 62
   253
370
    35
100
AcDbLine
 10
89.76195132251268
 20
426.9999364819405
 30
0.0
 11
135.1396213225127
 21
426.9999364819405
 31
0.0
  0
LINE
  5
3BD
330
1F
100
AcDbEntity
  8
0
 62
   253
 48
0.093503
370
    35
100
AcDbLine
 10
135.6396213225127
 20
422.5679304819404
 30
0.0
 11
135.6396213225127
 21
426.3080424819405
 31
0.0
  0
LINE
  5
3BE
330
1F
100
AcDbEntity
  8
0
 62
   253
 48
0.004787
370
    35
100
AcDbLine
 10
135.6396213225127
 20
426.3080424819405
 30
0.0
 11
135.6396213225127
 21
426.4995094819405
 31
0.0
  0
LINE
  5
3BF
330
1F
100
AcDbEntity
  8
0
 62
   253
 48
0.004787
370
    35
100
AcDbLine
 10
245.6396213225127
 20
426.3080424819405
 30
0.0
 11
245.6396213225127
 21
426.4995094819405
 31
0.0
  0
LINE
  5
3C0
330
1F
100
AcDbEntity
  8
0
 62
   253
 48
0.093503
370
    35
100
AcDbLine
 10
245.6396213225127
 20
422.5679304819404
 30
0.0
 11
245.6396213225127
 21
426.3080424819405
 31
0.0
  0
LINE
  5
3C1
330
1F
100
AcDbEntity
  8
0
 62
   253
370
    35
100
AcDbLine
 10
426.1396213225126
 20
426.9999364819405
 30
0.0
 11
471.5173063225127
 21
426.9999364819405
 31
0.0
  0
LINE
  5
3C2
330
1F
100
AcDbEntity
  8
0
 62
   253
 48
0.024672
370
    35
100
AcDbLine
 10
472.5041843225127
 20
426.9999364819405
 30
0.0
 11
471.5173063225127
 21
426.9999364819405
 31
0.0
  0
LINE
  5
3C3
330
1F
100
AcDbEntity
  8
0
 62
   253
 48
0.013487
370
    35
100
AcDbLine
 10
472.5041843225127
 20
426.9999364819405
 30
0.0
 11
473.0436743225127
 21
426.9999364819405
 31
0.0
  0
LINE
  5
3C4
330
1F
100
AcDbEntity
  8
0
 62
   253
 48
0.067465
370
    35
100
AcDbLine
 10
475.7422823225126
 20
426.9999364819405
 30
0.0
 11
473.0436743225127
 21
426.9999364819405
 31
0.0
  0
LINE
  5
3C5
330
1F
100
AcDbEntity
  8
0
 62
   253
 48
0.004787
370
    35
100
AcDbLine
 10
425.6396213225126
 20
426.3080424819405
 30
0.0
 11
425.6396213225126
 21
426.4995094819405
 31
0.0
  0
LINE
  5
3C6
330
1F
100
AcDbEntity
  8
0
 62
   253
 48
0.093503
370
    35
100
AcDbLine
 10
425.6396213225126
 20
422.5679304819404
 30
0.0
 11
425.6396213225126
 21
426.3080424819405
 31
0.0
  0
LINE
  5
3C7
330
1F
100
AcDbEntity
  8
0
 62
   253
 48
0.093503
370
    35
100
AcDbLine
 10
315.6396213225126
 20
422.5679304819404
 30
0.0
 11
315.6396213225126
 21
426.3080424819405
 31
0.0
  0
LINE
  5
3C8
330
1F
100
AcDbEntity
  8
0
 62
   253
 48
0.004787
370
    35
100
AcDbLine
 10
315.6396213225126
 20
426.3080424819405
 30
0.0
 11
315.6396213225126
 21
426.4995094819405
 31
0.0
  0
LINE
  5
3C9
330
1F
100
AcDbEntity
  8
0
 62
   253
370
    35
100
AcDbLine
 10
246.1396213225127
 20
426.9999364819405
 30
0.0
 11
315.1396213225126
 21
426.9999364819405
 31
0.0
  0
LINE
  5
3CA
330
1F
100
AcDbEntity
  8
0
 62
   253
 48
0.011659
370
    35
100
AcDbLine
 10
225.6396213225127
 20
426.3004134819404
 30
0.0
 11
225.6396213225127
 21
426.7667824819405
 31
0.0
  0
LINE
  5
3CB
330
1F
100
AcDbEntity
  8
0
 62
   253
 48
0.011659
370
    35
100
AcDbLine
 10
155.6396213225126
 20
426.3004134819404
 30
0.0
 11
155.6396213225126
 21
426.7667824819405
 31
0.0
  0
LINE
  5
3CC
330
1F
100
AcDbEntity
  8
0
 62
   253
 48
0.011659
370
    35
100
AcDbLine
 10
405.6396213225126
 20
426.3004134819404
 30
0.0
 11
405.6396213225126
 21
426.7667824819405
 31
0.0
  0
LINE
  5
3CD
330
1F
100
AcDbEntity
  8
0
 62
   253
 48
0.011659
370
    35
100
AcDbLine
 10
335.6396213225127
 20
426.3004134819404
 30
0.0
 11
335.6396213225127
 21
426.7667824819405
 31
0.0
  0
ARC
  5
3CE
330
1F
100
AcDbEntity
  8
0
 62
   253
370
    35
100
AcDbCircle
 10
426.1398653225127
 20
426.4997534819404
 30
0.0
 40
0.5002290000000001
100
AcDbArc
 50
90.03028800000008
 51
180.030184
  0
ARC
  5
3CF
330
1F
100
AcDbEntity
  8
0
 62
   253
370
    35
100
AcDbCircle
 10
475.7428313225126
 20
426.5032934819405
 30
0.0
 40
0.4966640000000001
100
AcDbArc
 50
359.826825
 51
90.06193899999995
  0
ARC
  5
3D0
330
1F
100
AcDbEntity
  8
0
 62
   253
370
    35
100
AcDbCircle
 10
315.1393463225127
 20
426.4997534819404
 30
0.0
 40
0.5002290000000001
100
AcDbArc
 50
359.96983
 51
89.969704
  0
ARC
  5
3D1
330
1F
100
AcDbEntity
  8
0
 62
   253
370
    35
100
AcDbCircle
 10
246.1398953225127
 20
426.4997534819404
 30
0.0
 40
0.5002290000000001
100
AcDbArc
 50
90.03028800000008
 51
180.030184
  0
ARC
  5
3D2
330
1F
100
AcDbEntity
  8
0
 62
   253
370
    35
100
AcDbCircle
 10
135.1393613225127
 20
426.4997534819404
 30
0.0
 40
0.5002290000000001
100
AcDbArc
 50
359.96983
 51
89.969704
  0
ARC
  5
3D3
330
1F
100
AcDbEntity
  8
0
 62
   253
370
    35
100
AcDbCircle
 10
85.53642632251269
 20
426.5032934819405
 30
0.0
 40
0.4966640000000001
100
AcDbArc
 50
89.938066
 51
180.1731809999999
  0
LINE
  5
3D4
330
1F
100
AcDbEntity
  8
0
 62
   253
 48
0.016769
370
    35
100
AcDbLine
 10
405.6396213225126
 20
417.4806494819405
 30
0.0
 11
405.6396213225126
 21
416.8098734819404
 31
0.0
  0
LINE
  5
3D5
330
1F
100
AcDbEntity
  8
0
 62
   253
 48
0.067903
370
    35
100
AcDbLine
 10
405.6396213225126
 20
414.0936864819405
 30
0.0
 11
405.6396213225126
 21
416.8098124819405
 31
0.0
  0
LINE
  5
3D6
330
1F
100
AcDbEntity
  8
0
 62
   253
 48
0.000447
370
    35
100
AcDbLine
 10
405.6396213225126
 20
417.4985334819405
 30
0.0
 11
405.6396213225126
 21
417.4806494819405
 31
0.0
  0
ARC
  5
3D7
330
1F
100
AcDbEntity
  8
0
 62
   253
370
    35
100
AcDbCircle
 10
424.7995943225126
 20
419.8569924819405
 30
0.0
 40
0.9169159999999999
100
AcDbArc
 50
102.862949
 51
116.5844169999999
  0
ARC
  5
3D8
330
1F
100
AcDbEntity
  8
0
 62
   253
370
    35
100
AcDbCircle
 10
424.8898043225126
 20
419.5273414819405
 30
0.0
 40
1.258637999999999
100
AcDbArc
 50
97.8635109999999
 51
103.525819
  0
LINE
  5
3D9
330
1F
100
AcDbEntity
  8
0
 62
   253
 48
0.007334
370
    35
100
AcDbLine
 10
424.7175633225126
 20
420.7741674819405
 30
0.0
 11
425.0082123225126
 21
420.8139624819405
 31
0.0
  0
LINE
  5
3DA
330
1F
100
AcDbEntity
  8
0
 62
   253
 48
0.000334
370
    35
100
AcDbLine
 10
425.0082123225126
 20
420.8139624819405
 30
0.0
 11
425.0213963225126
 21
420.8160994819405
 31
0.0
  0
LINE
  5
3DB
330
1F
100
AcDbEntity
  8
0
 62
   253
 48
0.002499
370
    35
100
AcDbLine
 10
405.6396213225126
 20
414.0936864819405
 30
0.0
 11
405.6396213225126
 21
413.9937114819405
 31
0.0
  0
LINE
  5
3DC
330
1F
100
AcDbEntity
  8
0
 62
   253
 48
0.001672
370
    35
100
AcDbLine
 10
425.0882903225126
 20
420.8165264819404
 30
0.0
 11
425.0213963225126
 21
420.8160994819405
 31
0.0
  0
LINE
  5
3DD
330
1F
100
AcDbEntity
  8
0
 62
   253
 48
0.067903
370
    35
100
AcDbLine
 10
335.6396213225127
 20
414.0936864819405
 30
0.0
 11
335.6396213225127
 21
416.8098124819405
 31
0.0
  0
LINE
  5
3DE
330
1F
100
AcDbEntity
  8
0
 62
   253
 48
0.016771
370
    35
100
AcDbLine
 10
335.6396213225127
 20
417.4806494819405
 30
0.0
 11
335.6396213225127
 21
416.8098124819405
 31
0.0
  0
LINE
  5
3DF
330
1F
100
AcDbEntity
  8
0
 62
   253
 48
0.000447
370
    35
100
AcDbLine
 10
335.6396213225127
 20
417.4985334819405
 30
0.0
 11
335.6396213225127
 21
417.4806494819405
 31
0.0
  0
ARC
  5
3E0
330
1F
100
AcDbEntity
  8
0
 62
   253
370
    35
100
AcDbCircle
 10
316.4796783225126
 20
419.8569924819405
 30
0.0
 40
0.9169159999999999
100
AcDbArc
 50
63.415581
 51
77.13704899999992
  0
LINE
  5
3E1
330
1F
100
AcDbEntity
  8
0
 62
   253
 48
0.000335
370
    35
100
AcDbLine
 10
316.2710303225127
 20
420.8139624819405
 30
0.0
 11
316.2578153225127
 21
420.8160994819405
 31
0.0
  0
LINE
  5
3E2
330
1F
100
AcDbEntity
  8
0
 62
   253
 48
0.007334
370
    35
100
AcDbLine
 10
316.5616793225126
 20
420.7741674819405
 30
0.0
 11
316.2710303225127
 21
420.8139624819405
 31
0.0
  0
ARC
  5
3E3
330
1F
100
AcDbEntity
  8
0
 62
   253
370
    35
100
AcDbCircle
 10
316.3894383225127
 20
419.5271584819405
 30
0.0
 40
1.258839999999999
100
AcDbArc
 50
76.47481400000001
 51
82.13620800000002
  0
LINE
  5
3E4
330
1F
100
AcDbEntity
  8
0
 62
   253
 48
0.001672
370
    35
100
AcDbLine
 10
316.1909213225127
 20
420.8165264819404
 30
0.0
 11
316.2578153225127
 21
420.8160994819405
 31
0.0
  0
LINE
  5
3E5
330
1F
100
AcDbEntity
  8
0
 62
   253
 48
0.002499
370
    35
100
AcDbLine
 10
335.6396213225127
 20
414.0936864819405
 30
0.0
 11
335.6396213225127
 21
413.9937114819405
 31
0.0
  0
LINE
  5
3E6
330
1F
100
AcDbEntity
  8
0
 62
   253
 48
0.016771
370
    35
100
AcDbLine
 10
225.6396213225127
 20
417.4806494819405
 30
0.0
 11
225.6396213225127
 21
416.8098124819405
 31
0.0
  0
LINE
  5
3E7
330
1F
100
AcDbEntity
  8
0
 62
   253
 48
0.067903
370
    35
100
AcDbLine
 10
225.6396213225127
 20
414.0936864819405
 30
0.0
 11
225.6396213225127
 21
416.8098124819405
 31
0.0
  0
LINE
  5
3E8
330
1F
100
AcDbEntity
  8
0
 62
   253
 48
0.000447
370
    35
100
AcDbLine
 10
225.6396213225127
 20
417.4985334819405
 30
0.0
 11
225.6396213225127
 21
417.4806494819405
 31
0.0
  0
ARC
  5
3E9
330
1F
100
AcDbEntity
  8
0
 62
   253
370
    35
100
AcDbCircle
 10
244.7997163225127
 20
419.8568094819405
 30
0.0
 40
0.9171229999999999
100
AcDbArc
 50
102.869452
 51
116.5878319999999
  0
ARC
  5
3EA
330
1F
100
AcDbEntity
  8
0
 62
   253
370
    35
100
AcDbCircle
 10
244.8898953225127
 20
419.5272804819405
 30
0.0
 40
1.258703
100
AcDbArc
 50
97.86840799999998
 51
103.5304229999999
  0
LINE
  5
3EB
330
1F
100
AcDbEntity
  8
0
 62
   253
 48
0.007334
370
    35
100
AcDbLine
 10
244.7175633225127
 20
420.7741674819405
 30
0.0
 11
245.0082123225127
 21
420.8139624819405
 31
0.0
  0
LINE
  5
3EC
330
1F
100
AcDbEntity
  8
0
 62
   253
 48
0.000335
370
    35
100
AcDbLine
 10
245.0082123225127
 20
420.8139624819405
 30
0.0
 11
245.0214263225127
 21
420.8160994819405
 31
0.0
  0
LINE
  5
3ED
330
1F
100
AcDbEntity
  8
0
 62
   253
 48
0.002499
370
    35
100
AcDbLine
 10
225.6396213225127
 20
414.0936864819405
 30
0.0
 11
225.6396213225127
 21
413.9937114819405
 31
0.0
  0
LINE
  5
3EE
330
1F
100
AcDbEntity
  8
0
 62
   253
 48
0.001672
370
    35
100
AcDbLine
 10
245.0883213225127
 20
420.8165264819404
 30
0.0
 11
245.0214263225127
 21
420.8160994819405
 31
0.0
  0
LINE
  5
3EF
330
1F
100
AcDbEntity
  8
0
 62
   253
 48
0.067903
370
    35
100
AcDbLine
 10
155.6396213225126
 20
414.0936864819405
 30
0.0
 11
155.6396213225126
 21
416.8098124819405
 31
0.0
  0
LINE
  5
3F0
330
1F
100
AcDbEntity
  8
0
 62
   253
 48
0.016769
370
    35
100
AcDbLine
 10
155.6396213225126
 20
417.4806494819405
 30
0.0
 11
155.6396213225126
 21
416.8098734819404
 31
0.0
  0
LINE
  5
3F1
330
1F
100
AcDbEntity
  8
0
 62
   253
 48
0.000447
370
    35
100
AcDbLine
 10
155.6396213225126
 20
417.4985334819405
 30
0.0
 11
155.6396213225126
 21
417.4806494819405
 31
0.0
  0
ARC
  5
3F2
330
1F
100
AcDbEntity
  8
0
 62
   253
370
    35
100
AcDbCircle
 10
136.4796633225127
 20
419.8569924819405
 30
0.0
 40
0.916947
100
AcDbArc
 50
63.41582699999995
 51
77.13683700000008
  0
LINE
  5
3F3
330
1F
100
AcDbEntity
  8
0
 62
   253
 48
0.000334
370
    35
100
AcDbLine
 10
136.2578153225127
 20
420.8160994819405
 30
0.0
 11
136.2710143225127
 21
420.8139624819405
 31
0.0
  0
LINE
  5
3F4
330
1F
100
AcDbEntity
  8
0
 62
   253
 48
0.007334
370
    35
100
AcDbLine
 10
136.2710143225127
 20
420.8139624819405
 30
0.0
 11
136.5616643225127
 21
420.7741674819405
 31
0.0
  0
ARC
  5
3F5
330
1F
100
AcDbEntity
  8
0
 62
   253
370
    35
100
AcDbCircle
 10
136.3894533225127
 20
419.5273414819405
 30
0.0
 40
1.258636
100
AcDbArc
 50
76.47417899999995
 51
82.13649500000007
  0
LINE
  5
3F6
330
1F
100
AcDbEntity
  8
0
 62
   253
 48
0.002499
370
    35
100
AcDbLine
 10
155.6396213225126
 20
413.9937114819405
 30
0.0
 11
155.6396213225126
 21
414.0936864819405
 31
0.0
  0
LINE
  5
3F7
330
1F
100
AcDbEntity
  8
0
 62
   253
 48
0.001672
370
    35
100
AcDbLine
 10
136.2578153225127
 20
420.8160994819405
 30
0.0
 11
136.1909213225127
 21
420.8165264819404
 31
0.0
  0
ELLIPSE
  5
3F8
330
1F
100
AcDbEntity
  8
0
 62
   253
370
    35
100
AcDbEllipse
 10
377.7583343225127
 20
409.2283914819405
 30
0.0
 11
0.1416626
 21
-0.14117432
 31
0.0
210
0.0
220
0.0
230
1.0
 40
0.012362
 41
4.724709579999999
 42
6.295505907179586
  0
LINE
  5
3F9
330
1F
100
AcDbEntity
  8
0
 62
   253
 48
0.008305
370
    35
100
AcDbLine
 10
381.3340183225128
 20
417.4985334819405
 30
0.0
 11
381.0018343225126
 21
417.4996314819404
 31
0.0
  0
LINE
  5
3FA
330
1F
100
AcDbEntity
  8
0
 62
   253
 48
0.008305
370
    35
100
AcDbLine
 10
359.9452243225127
 20
417.4985334819405
 30
0.0
 11
360.2774083225126
 21
417.4996314819404
 31
0.0
  0
LINE
  5
3FB
330
1F
100
AcDbEntity
  8
0
 62
   253
 48
0.000035
370
    35
100
AcDbLine
 10
360.2774083225126
 20
417.4996314819404
 30
0.0
 11
360.2788113225126
 21
417.4997534819405
 31
0.0
  0
LINE
  5
3FC
330
1F
100
AcDbEntity
  8
0
 62
   253
370
    35
100
AcDbLine
 10
405.6396213225126
 20
413.9937114819405
 30
0.0
 11
380.8124423225127
 21
413.9937114819405
 31
0.0
  0
LINE
  5
3FD
330
1F
100
AcDbEntity
  8
0
 62
   253
370
    35
100
AcDbLine
 10
360.4668003225127
 20
413.9937114819405
 30
0.0
 11
335.6396213225127
 21
413.9937114819405
 31
0.0
  0
ELLIPSE
  5
3FE
330
1F
100
AcDbEntity
  8
0
 62
   253
370
    35
100
AcDbEllipse
 10
370.6396213225127
 20
416.3214704819405
 30
0.0
 11
10.25
 21
0.0
 31
0.0
210
0.0
220
0.0
230
1.0
 40
0.9998479999999998
 41
6.03768056
 42
6.273490269999999
  0
ELLIPSE
  5
3FF
330
1F
100
AcDbEntity
  8
0
 62
   253
370
    35
100
AcDbEllipse
 10
370.6396213225127
 20
416.3214704819405
 30
0.0
 11
10.25
 21
0.0
 31
0.0
210
0.0
220
0.0
230
1.0
 40
0.9998479999999998
 41
3.15128772
 42
3.387097429999999
  0
LINE
  5
400
330
1F
100
AcDbEntity
  8
0
 62
   253
 48
0.000475
370
    35
100
AcDbLine
 10
360.4757413225127
 20
417.6737654819405
 30
0.0
 11
360.4757413225127
 21
417.6547834819404
 31
0.0
  0
LINE
  5
401
330
1F
100
AcDbEntity
  8
0
 62
   253
 48
0.004067
370
    35
100
AcDbLine
 10
360.4757413225127
 20
417.6547834819404
 30
0.0
 11
360.4568513225126
 21
417.4932234819404
 31
0.0
  0
ELLIPSE
  5
402
330
1F
100
AcDbEntity
  8
0
 62
   253
370
    35
100
AcDbEllipse
 10
370.6396213225127
 20
416.3214704819405
 30
0.0
 11
10.25
 21
0.0
 31
0.0
210
0.0
220
0.0
230
1.0
 40
0.9998479999999998
 41
0.11459006
 42
3.027002589999999
  0
LINE
  5
403
330
1F
100
AcDbEntity
  8
0
 62
   253
 48
0.004067
370
    35
100
AcDbLine
 10
380.8223913225127
 20
417.4932234819404
 30
0.0
 11
380.8035003225127
 21
417.6547834819404
 31
0.0
  0
LINE
  5
404
330
1F
100
AcDbEntity
  8
0
 62
   253
 48
0.000475
370
    35
100
AcDbLine
 10
380.8035003225127
 20
417.6547834819404
 30
0.0
 11
380.8035003225127
 21
417.6737654819405
 31
0.0
  0
ARC
  5
405
330
1F
100
AcDbEntity
  8
0
 62
   253
370
    35
100
AcDbCircle
 10
363.5667143225127
 20
416.2245464819404
 30
0.0
 40
3.17682
100
AcDbArc
 50
170.726329
 51
180.0448829999998
  0
ARC
  5
406
330
1F
100
AcDbEntity
  8
0
 62
   253
370
    35
100
AcDbCircle
 10
377.7125273225126
 20
416.2245464819404
 30
0.0
 40
3.17682
100
AcDbArc
 50
359.9551139999999
 51
9.273671999999992
  0
LINE
  5
407
330
1F
100
AcDbEntity
  8
0
 62
   253
 48
0.001197
370
    35
100
AcDbLine
 10
360.5143463225127
 20
413.9992354819405
 30
0.0
 11
360.4668003225127
 21
413.9937114819405
 31
0.0
  0
LINE
  5
408
330
1F
100
AcDbEntity
  8
0
 62
   253
 48
0.001202
370
    35
100
AcDbLine
 10
380.7648953225126
 20
413.9992354819405
 30
0.0
 11
380.8126553225127
 21
413.9936804819404
 31
0.0
  0
LINE
  5
409
330
1F
100
AcDbEntity
  8
0
 62
   253
 48
0.008305
370
    35
100
AcDbLine
 10
201.3340183225127
 20
417.4985334819405
 30
0.0
 11
201.0018343225127
 21
417.4996314819404
 31
0.0
  0
LINE
  5
40A
330
1F
100
AcDbEntity
  8
0
 62
   253
 48
0.000035
370
    35
100
AcDbLine
 10
201.0018343225127
 20
417.4996314819404
 30
0.0
 11
201.0004303225127
 21
417.4997534819405
 31
0.0
  0
LINE
  5
40B
330
1F
100
AcDbEntity
  8
0
 62
   253
 48
0.008305
370
    35
100
AcDbLine
 10
179.9452243225127
 20
417.4985334819405
 30
0.0
 11
180.2774083225127
 21
417.4996314819404
 31
0.0
  0
LINE
  5
40C
330
1F
100
AcDbEntity
  8
0
 62
   253
370
    35
100
AcDbLine
 10
225.6396213225127
 20
413.9937114819405
 30
0.0
 11
200.8124423225127
 21
413.9937114819405
 31
0.0
  0
LINE
  5
40D
330
1F
100
AcDbEntity
  8
0
 62
   253
370
    35
100
AcDbLine
 10
155.6396213225126
 20
413.9937114819405
 30
0.0
 11
180.4668003225127
 21
413.9937114819405
 31
0.0
  0
ELLIPSE
  5
40E
330
1F
100
AcDbEntity
  8
0
 62
   253
370
    35
100
AcDbEllipse
 10
190.6396213225127
 20
416.3214704819405
 30
0.0
 11
10.25
 21
0.0
 31
0.0
210
0.0
220
0.0
230
1.0
 40
0.9998479999999998
 41
6.03768057
 42
6.273490319999999
  0
ELLIPSE
  5
40F
330
1F
100
AcDbEntity
  8
0
 62
   253
370
    35
100
AcDbEllipse
 10
190.6396213225127
 20
416.3214704819405
 30
0.0
 11
10.25
 21
0.0
 31
0.0
210
0.0
220
0.0
230
1.0
 40
0.9998479999999998
 41
3.15128777
 42
3.38709746
  0
LINE
  5
410
330
1F
100
AcDbEntity
  8
0
 62
   253
 48
0.000221
370
    35
100
AcDbLine
 10
180.4756803225127
 20
417.6738264819404
 30
0.0
 11
180.4742773225127
 21
417.6650984819405
 31
0.0
  0
LINE
  5
411
330
1F
100
AcDbEntity
  8
0
 62
   253
 48
0.000475
370
    35
100
AcDbLine
 10
180.4757413225127
 20
417.6547834819404
 30
0.0
 11
180.4757413225127
 21
417.6737654819405
 31
0.0
  0
ELLIPSE
  5
412
330
1F
100
AcDbEntity
  8
0
 62
   253
370
    35
100
AcDbEllipse
 10
190.6396213225127
 20
416.3214704819405
 30
0.0
 11
10.25
 21
0.0
 31
0.0
210
0.0
220
0.0
230
1.0
 40
0.9998479999999998
 41
0.11459006
 42
3.0270026
  0
LINE
  5
413
330
1F
100
AcDbEntity
  8
0
 62
   253
 48
0.004067
370
    35
100
AcDbLine
 10
200.8035003225127
 20
417.6547834819404
 30
0.0
 11
200.8223913225127
 21
417.4932234819404
 31
0.0
  0
LINE
  5
414
330
1F
100
AcDbEntity
  8
0
 62
   253
 48
0.000475
370
    35
100
AcDbLine
 10
200.8035003225127
 20
417.6737654819405
 30
0.0
 11
200.8035003225127
 21
417.6547834819404
 31
0.0
  0
LINE
  5
415
330
1F
100
AcDbEntity
  8
0
 62
   253
 48
0.000221
370
    35
100
AcDbLine
 10
200.8035613225127
 20
417.6738264819404
 30
0.0
 11
200.8049653225127
 21
417.6650984819405
 31
0.0
  0
ARC
  5
416
330
1F
100
AcDbEntity
  8
0
 62
   253
370
    35
100
AcDbCircle
 10
183.5675993225127
 20
416.2242414819405
 30
0.0
 40
3.177723999999999
100
AcDbArc
 50
170.723119
 51
180.0390229999998
  0
ARC
  5
417
330
1F
100
AcDbEntity
  8
0
 62
   253
370
    35
100
AcDbCircle
 10
197.7116423225126
 20
416.2242414819405
 30
0.0
 40
3.177725
100
AcDbArc
 50
359.9609769999999
 51
9.276881999999899
  0
LINE
  5
418
330
1F
100
AcDbEntity
  8
0
 62
   253
 48
0.001197
370
    35
100
AcDbLine
 10
200.7648953225127
 20
413.9992354819405
 30
0.0
 11
200.8124423225127
 21
413.9937114819405
 31
0.0
  0
LINE
  5
419
330
1F
100
AcDbEntity
  8
0
 62
   253
 48
0.001197
370
    35
100
AcDbLine
 10
180.5143463225127
 20
413.9992354819405
 30
0.0
 11
180.4668003225127
 21
413.9937114819405
 31
0.0
  0
LINE
  5
41A
330
1F
100
AcDbEntity
  8
0
 62
   253
370
    35
100
AcDbLine
 10
201.3340183225127
 20
417.4985944819404
 30
0.0
 11
225.6396213225127
 21
417.4985944819404
 31
0.0
  0
LINE
  5
41B
330
1F
100
AcDbEntity
  8
0
 62
   253
370
    35
100
AcDbLine
 10
155.6396213225126
 20
417.4985944819404
 30
0.0
 11
179.9452243225127
 21
417.4985944819404
 31
0.0
  0
LINE
  5
41C
330
1F
100
AcDbEntity
  8
0
 62
   253
370
    35
100
AcDbLine
 10
381.3340183225128
 20
417.4985944819404
 30
0.0
 11
405.6396213225126
 21
417.4985944819404
 31
0.0
  0
LINE
  5
41D
330
1F
100
AcDbEntity
  8
0
 62
   253
370
    35
100
AcDbLine
 10
335.6396213225127
 20
417.4985944819404
 30
0.0
 11
359.9452243225127
 21
417.4985944819404
 31
0.0
  0
LINE
  5
41E
330
1F
100
AcDbEntity
  8
0
 62
   253
 48
0.000076
370
    35
100
AcDbLine
 10
137.3438753225127
 20
420.4386574819404
 30
0.0
 11
137.3411443225127
 21
420.4400004819405
 31
0.0
  0
LINE
  5
41F
330
1F
100
AcDbEntity
  8
0
 62
   253
 48
0.000076
370
    35
100
AcDbLine
 10
423.9353363225127
 20
420.4386574819404
 30
0.0
 11
423.9380833225127
 21
420.4400004819405
 31
0.0
  0
LINE
  5
420
330
1F
100
AcDbEntity
  8
0
 62
   253
 48
0.000076
370
    35
100
AcDbLine
 10
317.3411593225127
 20
420.4400004819405
 30
0.0
 11
317.3438753225127
 21
420.4386574819404
 31
0.0
  0
ARC
  5
421
330
1F
100
AcDbEntity
  8
0
 62
   253
370
    35
100
AcDbCircle
 10
244.5918613225127
 20
469.6199934819405
 30
0.0
 40
42.69666299999999
100
AcDbArc
 50
270.2946310000001
 51
271.7693649999999
  0
ARC
  5
422
330
1F
100
AcDbEntity
  8
0
 62
   253
370
    35
100
AcDbCircle
 10
227.2731963225127
 20
2346.19537148194
 30
0.0
 40
1919.352284
100
AcDbArc
 50
270.204767
 51
270.523552
  0
LINE
  5
423
330
1F
100
AcDbEntity
  8
0
 62
   253
370
    35
100
AcDbLine
 10
225.6396213225127
 20
426.7667824819405
 30
0.0
 11
195.1431003225127
 21
426.7667824819405
 31
0.0
  0
LINE
  5
424
330
1F
100
AcDbEntity
  8
0
 62
   253
370
    35
100
AcDbLine
 10
186.1361423225126
 20
426.7667824819405
 30
0.0
 11
155.6396213225126
 21
426.7667824819405
 31
0.0
  0
ARC
  5
425
330
1F
100
AcDbEntity
  8
0
 62
   253
370
    35
100
AcDbCircle
 10
154.0059543225126
 20
2346.180967481941
 30
0.0
 40
1919.337717
100
AcDbArc
 50
269.4764499999999
 51
269.7952349999999
  0
ARC
  5
426
330
1F
100
AcDbEntity
  8
0
 62
   253
370
    35
100
AcDbCircle
 10
136.6886023225126
 20
469.6951884819404
 30
0.0
 40
42.771846
100
AcDbArc
 50
268.2333489999999
 51
269.704243
  0
ARC
  5
427
330
1F
100
AcDbEntity
  8
0
 62
   253
370
    35
100
AcDbCircle
 10
424.5906713225126
 20
469.6944554819404
 30
0.0
 40
42.77110799999999
100
AcDbArc
 50
270.2957449999999
 51
271.7666669999999
  0
ARC
  5
428
330
1F
100
AcDbEntity
  8
0
 62
   253
370
    35
100
AcDbCircle
 10
407.2732883225127
 20
2346.17974648194
 30
0.0
 40
1919.33666
100
AcDbArc
 50
270.204767
 51
270.523552
  0
LINE
  5
429
330
1F
100
AcDbEntity
  8
0
 62
   253
370
    35
100
AcDbLine
 10
405.6396213225126
 20
426.7667824819405
 30
0.0
 11
375.1431003225127
 21
426.7667824819405
 31
0.0
  0
LINE
  5
42A
330
1F
100
AcDbEntity
  8
0
 62
   253
370
    35
100
AcDbLine
 10
366.1361423225127
 20
426.7667824819405
 30
0.0
 11
335.6396213225127
 21
426.7667824819405
 31
0.0
  0
ARC
  5
42B
330
1F
100
AcDbEntity
  8
0
 62
   253
370
    35
100
AcDbCircle
 10
334.0060153225127
 20
2346.192197481941
 30
0.0
 40
1919.349087
100
AcDbArc
 50
269.4764499999999
 51
269.7952349999999
  0
ARC
  5
42C
330
1F
100
AcDbEntity
  8
0
 62
   253
370
    35
100
AcDbCircle
 10
316.6873813225127
 20
469.6207254819405
 30
0.0
 40
42.697396
100
AcDbArc
 50
268.230644
 51
269.7053499999999
  0
ARC
  5
42D
330
1F
100
AcDbEntity
  8
0
 62
   253
370
    35
100
AcDbCircle
 10
373.6501193225127
 20
413.3232094819404
 30
0.0
 40
6.000426999999999
100
AcDbArc
 50
269.9990749999999
 51
315.0936339999999
  0
LINE
  5
42E
330
1F
100
AcDbEntity
  8
0
 62
   253
 48
0.15052
370
    35
100
AcDbLine
 10
367.6292143225126
 20
407.3227824819404
 30
0.0
 11
373.6500273225126
 21
407.3227824819404
 31
0.0
  0
ARC
  5
42F
330
1F
100
AcDbEntity
  8
0
 62
   253
370
    35
100
AcDbCircle
 10
367.6291233225127
 20
413.3232094819404
 30
0.0
 40
6.000426999999999
100
AcDbArc
 50
224.906371
 51
270.000933
  0
LINE
  5
430
330
1F
100
AcDbEntity
  8
0
 62
   253
 48
0.008381
370
    35
100
AcDbLine
 10
380.9987823225128
 20
417.4996314819404
 30
0.0
 11
381.3340183225128
 21
417.4985944819404
 31
0.0
  0
LINE
  5
431
330
1F
100
AcDbEntity
  8
0
 62
   253
 48
0.00834
370
    35
100
AcDbLine
 10
360.2788113225126
 20
417.4997534819405
 30
0.0
 11
359.9452243225127
 21
417.4985944819404
 31
0.0
  0
ARC
  5
432
330
1F
100
AcDbEntity
  8
0
 62
   253
370
    35
100
AcDbCircle
 10
370.6376373225126
 20
416.3217754819405
 30
0.0
 40
10.248067
100
AcDbArc
 50
194.068914
 51
224.9059069999998
  0
ARC
  5
433
330
1F
100
AcDbEntity
  8
0
 62
   253
370
    35
100
AcDbCircle
 10
370.6416043225126
 20
416.3217754819405
 30
0.0
 40
10.248067
100
AcDbArc
 50
315.0940980000001
 51
345.9310899999999
  0
ARC
  5
434
330
1F
100
AcDbEntity
  8
0
 62
   253
370
    35
100
AcDbCircle
 10
193.6501193225127
 20
413.3232094819404
 30
0.0
 40
6.000426999999999
100
AcDbArc
 50
269.9990749999999
 51
315.0936339999999
  0
LINE
  5
435
330
1F
100
AcDbEntity
  8
0
 62
   253
 48
0.15052
370
    35
100
AcDbLine
 10
187.6292143225127
 20
407.3227824819404
 30
0.0
 11
193.6500273225127
 21
407.3227824819404
 31
0.0
  0
ARC
  5
436
330
1F
100
AcDbEntity
  8
0
 62
   253
370
    35
100
AcDbCircle
 10
187.6291233225127
 20
413.3232094819404
 30
0.0
 40
6.000426999999999
100
AcDbArc
 50
224.906371
 51
270.000933
  0
LINE
  5
437
330
1F
100
AcDbEntity
  8
0
 62
   253
 48
0.00834
370
    35
100
AcDbLine
 10
201.0004303225127
 20
417.4997534819405
 30
0.0
 11
201.3340183225127
 21
417.4985944819404
 31
0.0
  0
LINE
  5
438
330
1F
100
AcDbEntity
  8
0
 62
   253
 48
0.008381
370
    35
100
AcDbLine
 10
180.2804593225127
 20
417.4996314819404
 30
0.0
 11
179.9452243225127
 21
417.4985944819404
 31
0.0
  0
ARC
  5
439
330
1F
100
AcDbEntity
  8
0
 62
   253
370
    35
100
AcDbCircle
 10
190.6376373225127
 20
416.3217754819405
 30
0.0
 40
10.248067
100
AcDbArc
 50
194.068914
 51
224.9059069999998
  0
ARC
  5
43A
330
1F
100
AcDbEntity
  8
0
 62
   253
370
    35
100
AcDbCircle
 10
190.6416043225127
 20
416.3217754819405
 30
0.0
 40
10.248067
100
AcDbArc
 50
315.0940980000001
 51
345.9310909999999
  0
LINE
  5
43B
330
1F
100
AcDbEntity
  8
0
 62
   253
370
    35
100
AcDbLine
 10
84.83961832251269
 20
431.3059064819404
 30
0.0
 11
84.83961832251269
 21
535.0221534819405
 31
0.0
  0
LINE
  5
43C
330
1F
100
AcDbEntity
  8
0
 62
   253
370
    35
100
AcDbLine
 10
476.4396093225126
 20
535.0221534819405
 30
0.0
 11
476.4396093225126
 21
431.3059064819404
 31
0.0
  0
ARC
  5
43D
330
1F
100
AcDbEntity
  8
0
 62
   253
370
    35
100
AcDbCircle
 10
474.4506563225127
 20
535.0255714819406
 30
0.0
 40
1.988738999999999
100
AcDbArc
 50
359.901857
 51
90.09815199999996
  0
LINE
  5
43E
330
1F
100
AcDbEntity
  8
0
 62
   253
370
    35
100
AcDbLine
 10
474.4472383225127
 20
537.0145854819405
 30
0.0
 11
86.83200432251268
 21
537.0145854819405
 31
0.0
  0
ARC
  5
43F
330
1F
100
AcDbEntity
  8
0
 62
   253
370
    35
100
AcDbCircle
 10
86.82860132251269
 20
535.0255714819406
 30
0.0
 40
1.988738999999999
100
AcDbArc
 50
89.90185299999993
 51
180.0981449999998
  0
ELLIPSE
  5
440
330
1F
100
AcDbEntity
  8
0
 62
   253
370
    35
100
AcDbEllipse
 10
84.83781732251269
 20
427.8126814819406
 30
0.0
 11
0.0
 21
-1.00030518
 31
0.0
210
0.0
220
0.0
230
1.0
 40
0.087476
 41
3.159042879999999
 42
3.606658729999999
  0
LINE
  5
441
330
1F
100
AcDbEntity
  8
0
 62
   253
 48
0.001729
370
    35
100
AcDbLine
 10
84.79857232251267
 20
428.7067244819406
 30
0.0
 11
84.78839432251268
 21
428.6383034819404
 31
0.0
  0
LINE
  5
442
330
1F
100
AcDbEntity
  8
0
 62
   253
 48
0.05415
370
    35
100
AcDbLine
 10
84.78839432251268
 20
428.6383034819404
 30
0.0
 11
84.78839432251268
 21
430.8043194819405
 31
0.0
  0
LINE
  5
443
330
1F
100
AcDbEntity
  8
0
 62
   253
 48
0.00021
370
    35
100
AcDbLine
 10
84.78839432251268
 20
430.8043194819405
 30
0.0
 11
84.79663432251269
 21
430.8059674819405
 31
0.0
  0
ELLIPSE
  5
444
330
1F
100
AcDbEntity
  8
0
 62
   253
370
    35
100
AcDbEllipse
 10
84.79587132251269
 20
431.3059064819404
 30
0.0
 11
0.0
 21
-0.5
 31
0.0
210
0.0
220
0.0
230
1.0
 40
0.087489
 41
0.01745329
 42
1.57079633
  0
ELLIPSE
  5
445
330
1F
100
AcDbEntity
  8
0
 62
   253
370
    35
100
AcDbEllipse
 10
476.4833713225126
 20
431.3059064819404
 30
0.0
 11
0.0
 21
-0.5
 31
0.0
210
0.0
220
0.0
230
1.0
 40
0.087489
 41
4.71238898
 42
6.265732009999999
  0
LINE
  5
446
330
1F
100
AcDbEntity
  8
0
 62
   253
 48
0.001729
370
    35
100
AcDbLine
 10
476.4806853225127
 20
428.7067244819406
 30
0.0
 11
476.4908783225126
 21
428.6383034819404
 31
0.0
  0
ELLIPSE
  5
447
330
1F
100
AcDbEntity
  8
0
 62
   253
370
    35
100
AcDbEllipse
 10
476.4414403225126
 20
427.8128644819405
 30
0.0
 11
0.0
 21
-1.000122069999999
 31
0.0
210
0.0
220
0.0
230
1.0
 40
0.087483
 41
2.676486189999999
 42
3.1241407
  0
LINE
  5
448
330
1F
100
AcDbEntity
  8
0
 62
   253
 48
0.000212
370
    35
100
AcDbLine
 10
476.4908783225126
 20
430.8043194819405
 30
0.0
 11
476.4825773225127
 21
430.8059674819405
 31
0.0
  0
LINE
  5
449
330
1F
100
AcDbEntity
  8
0
 62
   253
 48
0.05415
370
    35
100
AcDbLine
 10
476.4908783225126
 20
428.6383034819404
 30
0.0
 11
476.4908783225126
 21
430.8043194819405
 31
0.0
  0
ELLIPSE
  5
44A
330
1F
100
AcDbEntity
  8
0
 62
   253
370
    35
100
AcDbEllipse
 10
85.33438432251269
 20
428.8128034819404
 30
0.0
 11
0.09783936
 21
-0.4903259300000001
 31
0.0
210
0.0
220
0.0
230
1.0
 40
0.996044
 41
4.51622155
 42
6.0854968
  0
LINE
  5
44B
330
1F
100
AcDbEntity
  8
0
 62
   253
 48
0.001589
370
    35
100
AcDbLine
 10
85.3967163225127
 20
428.3253154819404
 30
0.0
 11
85.33438432251269
 21
428.3129254819405
 31
0.0
  0
LINE
  5
44C
330
1F
100
AcDbEntity
  8
0
 62
   253
 48
0.001588
370
    35
100
AcDbLine
 10
475.8825413225126
 20
428.3253154819404
 30
0.0
 11
475.9448583225126
 21
428.3129254819405
 31
0.0
  0
ELLIPSE
  5
44D
330
1F
100
AcDbEntity
  8
0
 62
   253
370
    35
100
AcDbEllipse
 10
475.9448583225126
 20
428.8128034819404
 30
0.0
 11
0.09783936
 21
0.4903259300000001
 31
0.0
210
0.0
220
0.0
230
1.0
 40
0.996044
 41
3.33928116
 42
4.90855641
  0
LINE
  5
44E
330
1F
100
AcDbEntity
  8
0
 62
   253
370
    35
100
AcDbLine
 10
86.89100932251269
 20
428.3492414819405
 30
0.0
 11
135.1396213225127
 21
428.3492414819405
 31
0.0
  0
LINE
  5
44F
330
1F
100
AcDbEntity
  8
0
 62
   253
 48
0.001736
370
    35
100
AcDbLine
 10
135.1396213225127
 20
428.2797834819405
 30
0.0
 11
135.1396213225127
 21
428.3492414819405
 31
0.0
  0
ARC
  5
450
330
1F
100
AcDbEntity
  8
0
 62
   253
370
    35
100
AcDbCircle
 10
155.1148103225127
 20
2524.35674848194
 30
0.0
 40
2096.199158
100
AcDbArc
 50
269.4901849999999
 51
270.014348
  0
LINE
  5
451
330
1F
100
AcDbEntity
  8
0
 62
   253
370
    35
100
AcDbLine
 10
155.6396213225126
 20
428.1572854819406
 30
0.0
 11
225.6396213225127
 21
428.1572854819406
 31
0.0
  0
ARC
  5
452
330
1F
100
AcDbEntity
  8
0
 62
   253
370
    35
100
AcDbCircle
 10
226.1661713225127
 20
2525.014951481941
 30
0.0
 40
2096.857247
100
AcDbArc
 50
269.9856130000001
 51
270.5096120000001
  0
LINE
  5
453
330
1F
100
AcDbEntity
  8
0
 62
   253
 48
0.001736
370
    35
100
AcDbLine
 10
246.1396213225127
 20
428.3492414819405
 30
0.0
 11
246.1396213225127
 21
428.2797834819405
 31
0.0
  0
LINE
  5
454
330
1F
100
AcDbEntity
  8
0
 62
   253
370
    35
100
AcDbLine
 10
246.1396213225127
 20
428.3492414819405
 30
0.0
 11
315.1396213225126
 21
428.3492414819405
 31
0.0
  0
LINE
  5
455
330
1F
100
AcDbEntity
  8
0
 62
   253
 48
0.001736
370
    35
100
AcDbLine
 10
315.1396213225126
 20
428.3492414819405
 30
0.0
 11
315.1396213225126
 21
428.2797834819405
 31
0.0
  0
ARC
  5
456
330
1F
100
AcDbEntity
  8
0
 62
   253
370
    35
100
AcDbCircle
 10
335.1134373225127
 20
2524.878721481941
 30
0.0
 40
2096.721102
100
AcDbArc
 50
269.4903490000001
 51
270.0143819999999
  0
LINE
  5
457
330
1F
100
AcDbEntity
  8
0
 62
   253
370
    35
100
AcDbLine
 10
335.6396213225127
 20
428.1572854819406
 30
0.0
 11
405.6396213225126
 21
428.1572854819406
 31
0.0
  0
ARC
  5
458
330
1F
100
AcDbEntity
  8
0
 62
   253
370
    35
100
AcDbCircle
 10
406.1658053225126
 20
2524.87701248194
 30
0.0
 40
2096.719374
100
AcDbArc
 50
269.9856200000001
 51
270.509653
  0
LINE
  5
459
330
1F
100
AcDbEntity
  8
0
 62
   253
 48
0.001736
370
    35
100
AcDbLine
 10
426.1396213225126
 20
428.2797834819405
 30
0.0
 11
426.1396213225126
 21
428.3492414819405
 31
0.0
  0
LINE
  5
45A
330
1F
100
AcDbEntity
  8
0
 62
   253
370
    35
100
AcDbLine
 10
426.1396213225126
 20
428.3492414819405
 30
0.0
 11
474.3882173225126
 21
428.3492414819405
 31
0.0
  0
LINE
  5
45B
330
1F
100
AcDbEntity
  8
0
 62
   253
 48
0.099519
370
    35
100
AcDbLine
 10
135.6396213225127
 20
432.8299544819405
 30
0.0
 11
135.6396213225127
 21
428.8491804819405
 31
0.0
  0
ARC
  5
45C
330
1F
100
AcDbEntity
  8
0
 62
   253
370
    35
100
AcDbCircle
 10
137.6499513225127
 20
432.8349584819404
 30
0.0
 40
2.009978999999999
100
AcDbArc
 50
118.2594939999999
 51
180.141995
  0
ARC
  5
45D
330
1F
100
AcDbEntity
  8
0
 62
   253
370
    35
100
AcDbCircle
 10
155.6354403225127
 20
399.1626564819405
 30
0.0
 40
40.184578
100
AcDbArc
 50
89.99405300000008
 51
118.115732
  0
LINE
  5
45E
330
1F
100
AcDbEntity
  8
0
 62
   253
370
    35
100
AcDbLine
 10
155.6396213225126
 20
439.3474104819405
 30
0.0
 11
225.6396213225127
 21
439.3474104819405
 31
0.0
  0
ARC
  5
45F
330
1F
100
AcDbEntity
  8
0
 62
   253
370
    35
100
AcDbCircle
 10
225.6438323225127
 20
399.1627784819406
 30
0.0
 40
40.18446599999999
100
AcDbArc
 50
61.88422500000003
 51
90.00599299999999
  0
ARC
  5
460
330
1F
100
AcDbEntity
  8
0
 62
   253
370
    35
100
AcDbCircle
 10
243.6292753225127
 20
432.8349584819404
 30
0.0
 40
2.009978999999999
100
AcDbArc
 50
359.85801
 51
61.74050500000005
  0
LINE
  5
461
330
1F
100
AcDbEntity
  8
0
 62
   253
 48
0.099519
370
    35
100
AcDbLine
 10
245.6396213225127
 20
432.8299544819405
 30
0.0
 11
245.6396213225127
 21
428.8491804819405
 31
0.0
  0
LINE
  5
462
330
1F
100
AcDbEntity
  8
0
 62
   253
 48
0.099519
370
    35
100
AcDbLine
 10
315.6396213225126
 20
432.8299544819405
 30
0.0
 11
315.6396213225126
 21
428.8491804819405
 31
0.0
  0
ARC
  5
463
330
1F
100
AcDbEntity
  8
0
 62
   253
370
    35
100
AcDbCircle
 10
317.6499663225127
 20
432.8348974819404
 30
0.0
 40
2.010003999999999
100
AcDbArc
 50
118.259179
 51
180.1409149999998
  0
ARC
  5
464
330
1F
100
AcDbEntity
  8
0
 62
   253
370
    35
100
AcDbCircle
 10
335.6354403225126
 20
399.1626564819405
 30
0.0
 40
40.184578
100
AcDbArc
 50
89.99405300000008
 51
118.115732
  0
LINE
  5
465
330
1F
100
AcDbEntity
  8
0
 62
   253
370
    35
100
AcDbLine
 10
335.6396213225127
 20
439.3474104819405
 30
0.0
 11
405.6396213225126
 21
439.3474104819405
 31
0.0
  0
ARC
  5
466
330
1F
100
AcDbEntity
  8
0
 62
   253
370
    35
100
AcDbCircle
 10
405.6438323225127
 20
399.1627784819406
 30
0.0
 40
40.18446599999999
100
AcDbArc
 50
61.88422500000003
 51
90.00599299999999
  0
ARC
  5
467
330
1F
100
AcDbEntity
  8
0
 62
   253
370
    35
100
AcDbCircle
 10
423.6293063225126
 20
432.8349584819404
 30
0.0
 40
2.009978999999999
100
AcDbArc
 50
359.85801
 51
61.74050500000005
  0
LINE
  5
468
330
1F
100
AcDbEntity
  8
0
 62
   253
 48
0.099519
370
    35
100
AcDbLine
 10
425.6396213225126
 20
432.8299544819405
 30
0.0
 11
425.6396213225126
 21
428.8491804819405
 31
0.0
  0
ELLIPSE
  5
469
330
1F
100
AcDbEntity
  8
0
 62
   253
370
    35
100
AcDbEllipse
 10
135.1396213225127
 20
428.7797224819406
 30
0.0
 11
-0.5
 21
0.0
 31
0.0
210
0.0
220
0.0
230
1.0
 40
0.9998479999999998
 41
1.57079633
 42
3.14159265
  0
LINE
  5
46A
330
1F
100
AcDbEntity
  8
0
 62
   253
 48
0.001736
370
    35
100
AcDbLine
 10
135.6396213225127
 20
428.7797224819406
 30
0.0
 11
135.6396213225127
 21
428.8491804819405
 31
0.0
  0
ELLIPSE
  5
46B
330
1F
100
AcDbEntity
  8
0
 62
   253
370
    35
100
AcDbEllipse
 10
135.1396213225127
 20
428.8491804819405
 30
0.0
 11
-0.5
 21
0.0
 31
0.0
210
0.0
220
0.0
230
1.0
 40
0.9998479999999998
 41
1.57079633
 42
3.14159265
  0
LINE
  5
46C
330
1F
100
AcDbEntity
  8
0
 62
   253
 48
0.012173
370
    35
100
AcDbLine
 10
155.6396213225126
 20
428.1572854819406
 30
0.0
 11
155.6396213225126
 21
428.6442244819405
 31
0.0
  0
LINE
  5
46D
330
1F
100
AcDbEntity
  8
0
 62
   253
 48
0.012173
370
    35
100
AcDbLine
 10
225.6396213225127
 20
428.1572854819406
 30
0.0
 11
225.6396213225127
 21
428.6442244819405
 31
0.0
  0
LINE
  5
46E
330
1F
100
AcDbEntity
  8
0
 62
   253
 48
0.001736
370
    35
100
AcDbLine
 10
245.6396213225127
 20
428.8491804819405
 30
0.0
 11
245.6396213225127
 21
428.7797224819406
 31
0.0
  0
ELLIPSE
  5
46F
330
1F
100
AcDbEntity
  8
0
 62
   253
370
    35
100
AcDbEllipse
 10
246.1396213225127
 20
428.8491804819405
 30
0.0
 11
-0.5
 21
0.0
 31
0.0
210
0.0
220
0.0
230
1.0
 40
0.9998479999999998
 41
0.0
 42
1.57079633
  0
LINE
  5
470
330
1F
100
AcDbEntity
  8
0
 62
   253
 48
0.001736
370
    35
100
AcDbLine
 10
315.6396213225126
 20
428.8491804819405
 30
0.0
 11
315.6396213225126
 21
428.7797224819406
 31
0.0
  0
ELLIPSE
  5
471
330
1F
100
AcDbEntity
  8
0
 62
   253
370
    35
100
AcDbEllipse
 10
315.1396213225126
 20
428.8491804819405
 30
0.0
 11
-0.5
 21
0.0
 31
0.0
210
0.0
220
0.0
230
1.0
 40
0.9998479999999998
 41
1.57079633
 42
3.14159265
  0
LINE
  5
472
330
1F
100
AcDbEntity
  8
0
 62
   253
 48
0.012173
370
    35
100
AcDbLine
 10
335.6396213225127
 20
428.1572854819406
 30
0.0
 11
335.6396213225127
 21
428.6442244819405
 31
0.0
  0
LINE
  5
473
330
1F
100
AcDbEntity
  8
0
 62
   253
 48
0.012173
370
    35
100
AcDbLine
 10
405.6396213225126
 20
428.1572854819406
 30
0.0
 11
405.6396213225126
 21
428.6442244819405
 31
0.0
  0
LINE
  5
474
330
1F
100
AcDbEntity
  8
0
 62
   253
 48
0.001736
370
    35
100
AcDbLine
 10
425.6396213225126
 20
428.7797224819406
 30
0.0
 11
425.6396213225126
 21
428.8491804819405
 31
0.0
  0
ELLIPSE
  5
475
330
1F
100
AcDbEntity
  8
0
 62
   253
370
    35
100
AcDbEllipse
 10
426.1396213225126
 20
428.8491804819405
 30
0.0
 11
0.5
 21
0.0
 31
0.0
210
0.0
220
0.0
230
1.0
 40
0.9998479999999998
 41
3.14159265
 42
4.71238898
  0
LINE
  5
476
330
1F
100
AcDbEntity
  8
0
 62
   253
 48
0.2675800000000001
370
    35
100
AcDbLine
 10
155.6396213225126
 20
428.6442244819405
 30
0.0
 11
155.6396213225126
 21
439.3474104819405
 31
0.0
  0
LINE
  5
477
330
1F
100
AcDbEntity
  8
0
 62
   253
 48
0.2675800000000001
370
    35
100
AcDbLine
 10
225.6396213225127
 20
428.6442244819405
 30
0.0
 11
225.6396213225127
 21
439.3474104819405
 31
0.0
  0
LINE
  5
478
330
1F
100
AcDbEntity
  8
0
 62
   253
 48
0.2675800000000001
370
    35
100
AcDbLine
 10
335.6396213225127
 20
428.6442244819405
 30
0.0
 11
335.6396213225127
 21
439.3474104819405
 31
0.0
  0
LINE
  5
479
330
1F
100
AcDbEntity
  8
0
 62
   253
 48
0.2675800000000001
370
    35
100
AcDbLine
 10
405.6396213225126
 20
428.6442244819405
 30
0.0
 11
405.6396213225126
 21
439.3474104819405
 31
0.0
  0
LINE
  5
47A
330
1F
100
AcDbEntity
  8
0
 62
   253
 48
0.000185
370
    35
100
AcDbLine
 10
84.79704632251269
 20
427.7965674819405
 30
0.0
 11
84.7969693225127
 21
427.8039534819405
 31
0.0
  0
LINE
  5
47B
330
1F
100
AcDbEntity
  8
0
 62
   253
370
    35
100
AcDbLine
 10
477.9309423225127
 20
538.0919774819406
 30
0.0
 11
477.9309423225127
 21
405.9031044819405
 31
0.0
  0
LINE
  5
47C
330
1F
100
AcDbEntity
  8
0
 62
   253
370
    35
100
AcDbLine
 10
85.34819332251268
 20
403.9031964819405
 30
0.0
 11
475.9310643225127
 21
403.9031964819405
 31
0.0
  0
ARC
  5
47D
330
1F
100
AcDbEntity
  8
0
 62
   253
370
    35
100
AcDbCircle
 10
475.9311863225126
 20
405.9029524819404
 30
0.0
 40
1.999774
100
AcDbArc
 50
269.9958449999999
 51
0.0041570000000082
  0
ARC
  5
47E
330
1F
100
AcDbEntity
  8
0
 62
   253
370
    35
100
AcDbCircle
 10
475.9311863225126
 20
538.0921004819406
 30
0.0
 40
1.999774
100
AcDbArc
 50
359.995843
 51
90.00415500000004
  0
LINE
  5
47F
330
1F
100
AcDbEntity
  8
0
 62
   253
370
    35
100
AcDbLine
 10
83.34826932251269
 20
538.0919774819406
 30
0.0
 11
83.34826932251269
 21
405.9031044819405
 31
0.0
  0
ARC
  5
480
330
1F
100
AcDbEntity
  8
0
 62
   253
370
    35
100
AcDbCircle
 10
85.34805632251268
 20
538.0921004819406
 30
0.0
 40
1.999774
100
AcDbArc
 50
89.995843
 51
180.0041609999999
  0
ARC
  5
481
330
1F
100
AcDbEntity
  8
0
 62
   253
370
    35
100
AcDbCircle
 10
85.34805632251268
 20
405.9029524819404
 30
0.0
 40
1.999774
100
AcDbArc
 50
179.9958389999998
 51
270.004157
  0
LINE
  5
482
330
1F
100
AcDbEntity
  8
0
 62
   253
 48
0.000108
370
    35
100
AcDbLine
 10
468.6482883225127
 20
537.0176374819404
 30
0.0
 11
468.6513403225127
 21
537.0145854819405
 31
0.0
  0
LINE
  5
483
330
1F
100
AcDbEntity
  8
0
 62
   253
 48
0.000108
370
    35
100
AcDbLine
 10
466.6309543225127
 20
537.0176374819404
 30
0.0
 11
466.6279023225126
 21
537.0145854819405
 31
0.0
  0
LINE
  5
484
330
1F
100
AcDbEntity
  8
0
 62
   253
 48
0.000108
370
    35
100
AcDbLine
 10
329.1482883225127
 20
537.0176374819404
 30
0.0
 11
329.1513403225128
 21
537.0145854819405
 31
0.0
  0
LINE
  5
485
330
1F
100
AcDbEntity
  8
0
 62
   253
 48
0.000108
370
    35
100
AcDbLine
 10
327.1309543225127
 20
537.0176374819404
 30
0.0
 11
327.1279023225127
 21
537.0145854819405
 31
0.0
  0
LINE
  5
486
330
1F
100
AcDbEntity
  8
0
 62
   253
 48
0.000108
370
    35
100
AcDbLine
 10
234.1482883225127
 20
537.0176374819404
 30
0.0
 11
234.1513403225127
 21
537.0145854819405
 31
0.0
  0
LINE
  5
487
330
1F
100
AcDbEntity
  8
0
 62
   253
 48
0.000108
370
    35
100
AcDbLine
 10
232.1309543225127
 20
537.0176374819404
 30
0.0
 11
232.1279023225127
 21
537.0145854819405
 31
0.0
  0
LINE
  5
488
330
1F
100
AcDbEntity
  8
0
 62
   253
 48
0.000108
370
    35
100
AcDbLine
 10
94.64828832251269
 20
537.0176374819404
 30
0.0
 11
94.6513553225127
 21
537.0145854819405
 31
0.0
  0
LINE
  5
489
330
1F
100
AcDbEntity
  8
0
 62
   253
 48
0.000108
370
    35
100
AcDbLine
 10
92.63095432251269
 20
537.0176374819404
 30
0.0
 11
92.62788732251269
 21
537.0145854819405
 31
0.0
  0
LINE
  5
48A
330
1F
100
AcDbEntity
  8
0
 62
     7
 48
0.018748
370
    35
100
AcDbLine
 10
489.6396213225126
 20
606.0866064819405
 30
0.0
 11
489.6396213225126
 21
606.8365454819406
 31
0.0
  0
LINE
  5
48B
330
1F
100
AcDbEntity
  8
0
 62
     7
 48
0.018748
370
    35
100
AcDbLine
 10
71.6396213225127
 20
606.0866064819405
 30
0.0
 11
71.6396213225127
 21
606.8365454819406
 31
0.0
  0
LINE
  5
48C
330
1F
100
AcDbEntity
  8
0
 62
     7
 48
0.00145
370
    35
100
AcDbLine
 10
71.6396213225127
 20
606.8365454819406
 30
0.0
 11
71.6396213225127
 21
606.8945294819406
 31
0.0
  0
LINE
  5
48D
330
1F
100
AcDbEntity
  8
0
 62
     7
370
    35
100
AcDbLine
 10
489.6396213225126
 20
606.8945294819406
 30
0.0
 11
71.6396213225127
 21
606.8945294819406
 31
0.0
  0
LINE
  5
48E
330
1F
100
AcDbEntity
  8
0
 62
     7
 48
0.00145
370
    35
100
AcDbLine
 10
489.6396213225126
 20
606.8365454819406
 30
0.0
 11
489.6396213225126
 21
606.8945294819406
 31
0.0
  0
LINE
  5
48F
330
1F
100
AcDbEntity
  8
0
 62
     7
 48
0.00174
370
    35
100
AcDbLine
 10
56.9308503225127
 20
597.0427224819405
 30
0.0
 11
56.89229132251269
 21
597.1006444819405
 31
0.0
  0
ARC
  5
490
330
1F
100
AcDbEntity
  8
0
 62
     7
370
    35
100
AcDbCircle
 10
71.6396213225127
 20
590.8945294819406
 30
0.0
 40
16.0
100
AcDbArc
 50
90.0
 51
157.1770370000001
  0
LINE
  5
491
330
1F
100
AcDbEntity
  8
0
 62
     7
 48
0.054432
370
    35
100
AcDbLine
 10
59.91948232251269
 20
597.0215434819404
 30
0.0
 11
57.7422363225127
 21
597.0314924819405
 31
0.0
  0
LINE
  5
492
330
1F
100
AcDbEntity
  8
0
 62
     7
 48
0.049176
370
    35
100
AcDbLine
 10
71.6396213225127
 20
604.1195654819405
 30
0.0
 11
71.6396213225127
 21
606.0866064819405
 31
0.0
  0
LINE
  5
493
330
1F
100
AcDbEntity
  8
0
 62
   253
 48
0.050433
370
    35
100
AcDbLine
 10
466.6309543225127
 20
537.0176374819404
 30
0.0
 11
468.6482883225127
 21
537.0176374819404
 31
0.0
  0
LINE
  5
494
330
1F
100
AcDbEntity
  8
0
 62
   253
 48
0.050433
370
    35
100
AcDbLine
 10
92.63095432251269
 20
537.0176374819404
 30
0.0
 11
94.64828832251269
 21
537.0176374819404
 31
0.0
  0
LINE
  5
495
330
1F
100
AcDbEntity
  8
0
 62
   253
 48
0.050433
370
    35
100
AcDbLine
 10
232.1309543225127
 20
537.0176374819404
 30
0.0
 11
234.1482883225127
 21
537.0176374819404
 31
0.0
  0
LINE
  5
496
330
1F
100
AcDbEntity
  8
0
 62
   253
 48
0.050433
370
    35
100
AcDbLine
 10
327.1309543225127
 20
537.0176374819404
 30
0.0
 11
329.1482883225127
 21
537.0176374819404
 31
0.0
  0
LINE
  5
497
330
1F
100
AcDbEntity
  8
0
 62
     7
 48
0.049176
370
    35
100
AcDbLine
 10
489.6396213225126
 20
604.1195654819405
 30
0.0
 11
489.6396213225126
 21
606.0866064819405
 31
0.0
  0
LINE
  5
498
330
1F
100
AcDbEntity
  8
0
 62
     7
 48
0.054432
370
    35
100
AcDbLine
 10
503.5370213225127
 20
597.0314924819405
 30
0.0
 11
501.3597753225127
 21
597.0215434819404
 31
0.0
  0
ARC
  5
499
330
1F
100
AcDbEntity
  8
0
 62
     7
370
    35
100
AcDbCircle
 10
489.6396213225126
 20
590.8945294819406
 30
0.0
 40
16.0
100
AcDbArc
 50
22.82296099999997
 51
90.0
  0
LINE
  5
49A
330
1F
100
AcDbEntity
  8
0
 62
     7
 48
0.001739
370
    35
100
AcDbLine
 10
504.3869353225127
 20
597.1006444819405
 30
0.0
 11
504.3484223225126
 21
597.0427224819405
 31
0.0
  0
LINE
  5
49B
330
1F
100
AcDbEntity
  8
0
 62
     7
370
    35
100
AcDbLine
 10
55.63962132251269
 20
388.1007054819405
 30
0.0
 11
55.63962132251269
 21
584.6884134819405
 31
0.0
  0
LINE
  5
49C
330
1F
100
AcDbEntity
  8
0
 62
     7
 48
0.00205
370
    35
100
AcDbLine
 10
55.63962132251269
 20
388.1007054819405
 30
0.0
 11
55.69758932251269
 21
388.0427224819405
 31
0.0
  0
LINE
  5
49D
330
1F
100
AcDbEntity
  8
0
 62
     7
 48
0.002049
370
    35
100
AcDbLine
 10
55.63962132251269
 20
584.6884134819405
 30
0.0
 11
55.69758932251269
 21
584.7463354819406
 31
0.0
  0
LINE
  5
49E
330
1F
100
AcDbEntity
  8
0
 62
     7
 48
0.049176
370
    35
100
AcDbLine
 10
58.41455432251269
 20
584.7675154819405
 30
0.0
 11
56.4475283225127
 21
584.7575664819405
 31
0.0
  0
LINE
  5
49F
330
1F
100
AcDbEntity
  8
0
 62
     7
 48
0.049176
370
    35
100
AcDbLine
 10
58.41455432251269
 20
388.0215734819405
 30
0.0
 11
56.4475283225127
 21
388.0314924819405
 31
0.0
  0
LINE
  5
4A0
330
1F
100
AcDbEntity
  8
0
 62
     7
 48
0.018747
370
    35
100
AcDbLine
 10
71.6396213225127
 20
604.1195654819405
 30
0.0
 11
71.6396213225127
 21
603.3696874819405
 31
0.0
  0
ARC
  5
4A1
330
1F
100
AcDbEntity
  8
0
 62
     7
370
    35
100
AcDbCircle
 10
71.6396213225127
 20
590.8945294819406
 30
0.0
 40
12.475126
100
AcDbArc
 50
90.0
 51
150.6434969999999
  0
LINE
  5
4A2
330
1F
100
AcDbEntity
  8
0
 62
     7
 48
0.000981
370
    35
100
AcDbLine
 10
60.78630432251269
 20
596.9764994819406
 30
0.0
 11
60.76646732251269
 21
597.0103734819405
 31
0.0
  0
LINE
  5
4A3
330
1F
100
AcDbEntity
  8
0
 62
     7
370
    35
100
AcDbLine
 10
55.63962132251269
 20
69.10067548194053
 30
0.0
 11
55.63962132251269
 21
375.6883524819406
 31
0.0
  0
LINE
  5
4A4
330
1F
100
AcDbEntity
  8
0
 62
     7
 48
0.002049
370
    35
100
AcDbLine
 10
55.63962132251269
 20
69.10067548194053
 30
0.0
 11
55.69758932251269
 21
69.04272248194051
 31
0.0
  0
LINE
  5
4A5
330
1F
100
AcDbEntity
  8
0
 62
     7
 48
0.00205
370
    35
100
AcDbLine
 10
55.63962132251269
 20
375.6883524819406
 30
0.0
 11
55.69758932251269
 21
375.7463354819405
 31
0.0
  0
LINE
  5
4A6
330
1F
100
AcDbEntity
  8
0
 62
     7
 48
0.049176
370
    35
100
AcDbLine
 10
58.41455432251269
 20
375.7674844819405
 30
0.0
 11
56.4475283225127
 21
375.7575664819406
 31
0.0
  0
LINE
  5
4A7
330
1F
100
AcDbEntity
  8
0
 62
     7
 48
0.049176
370
    35
100
AcDbLine
 10
58.41455432251269
 20
69.02157348194052
 30
0.0
 11
56.4475283225127
 21
69.03149248194051
 31
0.0
  0
LINE
  5
4A8
330
1F
100
AcDbEntity
  8
0
 62
     7
 48
0.018747
370
    35
100
AcDbLine
 10
489.6396213225126
 20
604.1195654819405
 30
0.0
 11
489.6396213225126
 21
603.3696874819405
 31
0.0
  0
LINE
  5
4A9
330
1F
100
AcDbEntity
  8
0
 62
     7
370
    35
100
AcDbLine
 10
489.6396213225126
 20
603.3696874819405
 30
0.0
 11
71.6396213225127
 21
603.3696874819405
 31
0.0
  0
LINE
  5
4AA
330
1F
100
AcDbEntity
  8
0
 62
     7
 48
0.018748
370
    35
100
AcDbLine
 10
71.6396213225127
 20
47.70245148194052
 30
0.0
 11
71.6396213225127
 21
46.95251248194051
 31
0.0
  0
LINE
  5
4AB
330
1F
100
AcDbEntity
  8
0
 62
     7
 48
0.054432
370
    35
100
AcDbLine
 10
57.7422363225127
 20
56.75756648194052
 30
0.0
 11
59.91948232251269
 21
56.76748448194052
 31
0.0
  0
LINE
  5
4AC
330
1F
100
AcDbEntity
  8
0
 62
     7
 48
0.049175
370
    35
100
AcDbLine
 10
71.6396213225127
 20
49.66946248194052
 30
0.0
 11
71.6396213225127
 21
47.70245148194052
 31
0.0
  0
ARC
  5
4AD
330
1F
100
AcDbEntity
  8
0
 62
     7
370
    35
100
AcDbCircle
 10
489.6396213225126
 20
590.8945294819406
 30
0.0
 40
12.475126
100
AcDbArc
 50
29.35650800000008
 51
90.0
  0
LINE
  5
4AE
330
1F
100
AcDbEntity
  8
0
 62
     7
 48
0.000981
370
    35
100
AcDbLine
 10
500.5127903225127
 20
597.0103734819405
 30
0.0
 11
500.4929533225126
 21
596.9764994819406
 31
0.0
  0
LINE
  5
4AF
330
1F
100
AcDbEntity
  8
0
 62
     7
 48
0.049177
370
    35
100
AcDbLine
 10
502.8646573225127
 20
388.0215734819405
 30
0.0
 11
504.8316983225126
 21
388.0314924819405
 31
0.0
  0
LINE
  5
4B0
330
1F
100
AcDbEntity
  8
0
 62
     7
 48
0.049177
370
    35
100
AcDbLine
 10
502.8646573225127
 20
584.7675154819405
 30
0.0
 11
504.8316983225126
 21
584.7575664819405
 31
0.0
  0
LINE
  5
4B1
330
1F
100
AcDbEntity
  8
0
 62
     7
 48
0.002049
370
    35
100
AcDbLine
 10
505.6396213225126
 20
584.6884134819405
 30
0.0
 11
505.5816373225127
 21
584.7463354819406
 31
0.0
  0
LINE
  5
4B2
330
1F
100
AcDbEntity
  8
0
 62
     7
370
    35
100
AcDbLine
 10
505.6396213225126
 20
584.6884134819405
 30
0.0
 11
505.6396213225126
 21
388.1007054819405
 31
0.0
  0
LINE
  5
4B3
330
1F
100
AcDbEntity
  8
0
 62
     7
 48
0.00205
370
    35
100
AcDbLine
 10
505.6396213225126
 20
388.1007054819405
 30
0.0
 11
505.5816373225127
 21
388.0427224819405
 31
0.0
  0
LINE
  5
4B4
330
1F
100
AcDbEntity
  8
0
 62
     7
 48
0.018748
370
    35
100
AcDbLine
 10
489.6396213225126
 20
47.70245148194052
 30
0.0
 11
489.6396213225126
 21
46.95251248194051
 31
0.0
  0
LINE
  5
4B5
330
1F
100
AcDbEntity
  8
0
 62
     7
 48
0.00145
370
    35
100
AcDbLine
 10
489.6396213225126
 20
46.95251248194051
 30
0.0
 11
489.6396213225126
 21
46.89452948194052
 31
0.0
  0
LINE
  5
4B6
330
1F
100
AcDbEntity
  8
0
 62
     7
370
    35
100
AcDbLine
 10
71.6396213225127
 20
46.89452948194052
 30
0.0
 11
489.6396213225126
 21
46.89452948194052
 31
0.0
  0
LINE
  5
4B7
330
1F
100
AcDbEntity
  8
0
 62
     7
 48
0.00145
370
    35
100
AcDbLine
 10
71.6396213225127
 20
46.95251248194051
 30
0.0
 11
71.6396213225127
 21
46.89452948194052
 31
0.0
  0
ARC
  5
4B8
330
1F
100
AcDbEntity
  8
0
 62
     7
370
    35
100
AcDbCircle
 10
71.6396213225127
 20
62.89452948194052
 30
0.0
 40
16.0
100
AcDbArc
 50
202.8229629999999
 51
270.0
  0
LINE
  5
4B9
330
1F
100
AcDbEntity
  8
0
 62
     7
 48
0.00174
370
    35
100
AcDbLine
 10
56.89229132251269
 20
56.68838248194052
 30
0.0
 11
56.9308503225127
 21
56.74633548194051
 31
0.0
  0
LINE
  5
4BA
330
1F
100
AcDbEntity
  8
0
 62
     7
370
    35
100
AcDbLine
 10
59.1644933225127
 20
69.01037348194051
 30
0.0
 11
59.1644933225127
 21
375.7786844819406
 31
0.0
  0
LINE
  5
4BB
330
1F
100
AcDbEntity
  8
0
 62
     7
 48
0.001198
370
    35
100
AcDbLine
 10
59.19836732251269
 20
375.8125594819405
 30
0.0
 11
59.1644933225127
 21
375.7786844819406
 31
0.0
  0
LINE
  5
4BC
330
1F
100
AcDbEntity
  8
0
 62
     7
 48
0.001198
370
    35
100
AcDbLine
 10
59.19836732251269
 20
387.9764994819406
 30
0.0
 11
59.1644933225127
 21
388.0103734819405
 31
0.0
  0
LINE
  5
4BD
330
1F
100
AcDbEntity
  8
0
 62
     7
370
    35
100
AcDbLine
 10
59.1644933225127
 20
388.0103734819405
 30
0.0
 11
59.1644933225127
 21
584.7786844819405
 31
0.0
  0
LINE
  5
4BE
330
1F
100
AcDbEntity
  8
0
 62
     7
 48
0.001198
370
    35
100
AcDbLine
 10
59.19836732251269
 20
584.8125594819405
 30
0.0
 11
59.1644933225127
 21
584.7786844819405
 31
0.0
  0
LINE
  5
4BF
330
1F
100
AcDbEntity
  8
0
 62
     7
 48
0.000463
370
    35
100
AcDbLine
 10
59.20245732251269
 20
584.7944924819405
 30
0.0
 11
59.19836732251269
 21
584.8125594819405
 31
0.0
  0
LINE
  5
4C0
330
1F
100
AcDbEntity
  8
0
 62
     7
 48
0.000584
370
    35
100
AcDbLine
 10
60.80112032251268
 20
596.9945654819404
 30
0.0
 11
60.78630432251269
 21
596.9764994819406
 31
0.0
  0
LINE
  5
4C1
330
1F
100
AcDbEntity
  8
0
 62
     7
 48
0.001198
370
    35
100
AcDbLine
 10
59.19836732251269
 20
68.97649948194052
 30
0.0
 11
59.1644933225127
 21
69.01037348194051
 31
0.0
  0
LINE
  5
4C2
330
1F
100
AcDbEntity
  8
0
 62
     7
 48
0.000462
370
    35
100
AcDbLine
 10
59.20245732251269
 20
375.7945234819405
 30
0.0
 11
59.19836732251269
 21
375.8125594819405
 31
0.0
  0
LINE
  5
4C3
330
1F
100
AcDbEntity
  8
0
 62
     7
 48
0.000462
370
    35
100
AcDbLine
 10
59.20245732251269
 20
387.9945354819405
 30
0.0
 11
59.19836732251269
 21
387.9764994819406
 31
0.0
  0
LINE
  5
4C4
330
1F
100
AcDbEntity
  8
0
 62
   253
370
    35
100
AcDbLine
 10
85.34819332251268
 20
540.0919164819405
 30
0.0
 11
475.9310643225127
 21
540.0919164819405
 31
0.0
  0
LINE
  5
4C5
330
1F
100
AcDbEntity
  8
0
 62
     7
 48
0.049998
370
    13
100
AcDbLine
 10
61.53677732251269
 20
578.1972024819404
 30
0.0
 11
59.53685332251269
 21
578.1972024819404
 31
0.0
  0
LINE
  5
4C6
330
1F
100
AcDbEntity
  8
0
 62
     7
 48
0.049175
370
    35
100
AcDbLine
 10
489.6396213225126
 20
49.66946248194052
 30
0.0
 11
489.6396213225126
 21
47.70245148194052
 31
0.0
  0
ARC
  5
4C7
330
1F
100
AcDbEntity
  8
0
 62
     7
370
    35
100
AcDbCircle
 10
71.6396213225127
 20
62.89452948194052
 30
0.0
 40
12.475126
100
AcDbArc
 50
209.3565030000001
 51
270.0
  0
LINE
  5
4C8
330
1F
100
AcDbEntity
  8
0
 62
     7
 48
0.018748
370
    35
100
AcDbLine
 10
71.6396213225127
 20
49.66946248194052
 30
0.0
 11
71.6396213225127
 21
50.41940148194052
 31
0.0
  0
LINE
  5
4C9
330
1F
100
AcDbEntity
  8
0
 62
     7
 48
0.000981
370
    35
100
AcDbLine
 10
60.76646732251269
 20
56.77868448194051
 30
0.0
 11
60.78630432251269
 21
56.81255948194053
 31
0.0
  0
LINE
  5
4CA
330
1F
100
AcDbEntity
  8
0
 62
     7
 48
0.049177
370
    35
100
AcDbLine
 10
502.8646573225127
 20
375.7674844819405
 30
0.0
 11
504.8316983225126
 21
375.7575664819406
 31
0.0
  0
LINE
  5
4CB
330
1F
100
AcDbEntity
  8
0
 62
     7
 48
0.049177
370
    35
100
AcDbLine
 10
502.8646573225127
 20
69.02157348194052
 30
0.0
 11
504.8316983225126
 21
69.03149248194051
 31
0.0
  0
LINE
  5
4CC
330
1F
100
AcDbEntity
  8
0
 62
     7
 48
0.00205
370
    35
100
AcDbLine
 10
505.6396213225126
 20
375.6883524819406
 30
0.0
 11
505.5816373225127
 21
375.7463354819405
 31
0.0
  0
LINE
  5
4CD
330
1F
100
AcDbEntity
  8
0
 62
     7
370
    35
100
AcDbLine
 10
505.6396213225126
 20
375.6883524819406
 30
0.0
 11
505.6396213225126
 21
69.10067548194053
 31
0.0
  0
LINE
  5
4CE
330
1F
100
AcDbEntity
  8
0
 62
     7
 48
0.002049
370
    35
100
AcDbLine
 10
505.6396213225126
 20
69.10067548194053
 30
0.0
 11
505.5816373225127
 21
69.04272248194051
 31
0.0
  0
LINE
  5
4CF
330
1F
100
AcDbEntity
  8
0
 62
     7
370
    35
100
AcDbLine
 10
502.1147803225127
 20
375.7786844819406
 30
0.0
 11
502.1147803225127
 21
69.01037348194051
 31
0.0
  0
LINE
  5
4D0
330
1F
100
AcDbEntity
  8
0
 62
     7
 48
0.049998
370
    13
100
AcDbLine
 10
499.7424653225126
 20
578.1972024819404
 30
0.0
 11
501.7424043225126
 21
578.1972024819404
 31
0.0
  0
LINE
  5
4D1
330
1F
100
AcDbEntity
  8
0
 62
     7
 48
0.000584
370
    35
100
AcDbLine
 10
500.4781223225127
 20
596.9945654819404
 30
0.0
 11
500.4929533225126
 21
596.9764994819406
 31
0.0
  0
LINE
  5
4D2
330
1F
100
AcDbEntity
  8
0
 62
     7
 48
0.000463
370
    35
100
AcDbLine
 10
502.0768163225127
 20
584.7944924819405
 30
0.0
 11
502.0808443225127
 21
584.8125594819405
 31
0.0
  0
LINE
  5
4D3
330
1F
100
AcDbEntity
  8
0
 62
     7
 48
0.001199
370
    35
100
AcDbLine
 10
502.0808443225127
 20
584.8125594819405
 30
0.0
 11
502.1147803225127
 21
584.7786844819405
 31
0.0
  0
LINE
  5
4D4
330
1F
100
AcDbEntity
  8
0
 62
     7
370
    35
100
AcDbLine
 10
502.1147803225127
 20
584.7786844819405
 30
0.0
 11
502.1147803225127
 21
388.0103734819405
 31
0.0
  0
LINE
  5
4D5
330
1F
100
AcDbEntity
  8
0
 62
     7
 48
0.001199
370
    35
100
AcDbLine
 10
502.0808443225127
 20
387.9764994819406
 30
0.0
 11
502.1147803225127
 21
388.0103734819405
 31
0.0
  0
LINE
  5
4D6
330
1F
100
AcDbEntity
  8
0
 62
     7
 48
0.000462
370
    35
100
AcDbLine
 10
502.0768163225127
 20
387.9945354819405
 30
0.0
 11
502.0808443225127
 21
387.9764994819406
 31
0.0
  0
LINE
  5
4D7
330
1F
100
AcDbEntity
  8
0
 62
     7
 48
0.000462
370
    35
100
AcDbLine
 10
502.0768163225127
 20
375.7945234819405
 30
0.0
 11
502.0808443225127
 21
375.8125594819405
 31
0.0
  0
LINE
  5
4D8
330
1F
100
AcDbEntity
  8
0
 62
     7
 48
0.001199
370
    35
100
AcDbLine
 10
502.0808443225127
 20
375.8125594819405
 30
0.0
 11
502.1147803225127
 21
375.7786844819406
 31
0.0
  0
LINE
  5
4D9
330
1F
100
AcDbEntity
  8
0
 62
     7
 48
0.018748
370
    35
100
AcDbLine
 10
489.6396213225126
 20
49.66946248194052
 30
0.0
 11
489.6396213225126
 21
50.41940148194052
 31
0.0
  0
ARC
  5
4DA
330
1F
100
AcDbEntity
  8
0
 62
     7
370
    35
100
AcDbCircle
 10
489.6396213225126
 20
62.89452948194052
 30
0.0
 40
12.475126
100
AcDbArc
 50
270.0
 51
330.6434919999999
  0
LINE
  5
4DB
330
1F
100
AcDbEntity
  8
0
 62
     7
 48
0.054432
370
    35
100
AcDbLine
 10
501.3597753225127
 20
56.76748448194052
 30
0.0
 11
503.5370213225127
 21
56.75756648194052
 31
0.0
  0
LINE
  5
4DC
330
1F
100
AcDbEntity
  8
0
 62
     7
 48
0.00174
370
    35
100
AcDbLine
 10
504.3484223225126
 20
56.74633548194051
 30
0.0
 11
504.3869353225127
 21
56.68838248194052
 31
0.0
  0
ARC
  5
4DD
330
1F
100
AcDbEntity
  8
0
 62
     7
370
    35
100
AcDbCircle
 10
489.6396213225126
 20
62.89452948194052
 30
0.0
 40
16.0
100
AcDbArc
 50
270.0
 51
337.177039
  0
LINE
  5
4DE
330
1F
100
AcDbEntity
  8
0
 62
     7
 48
0.000584
370
    35
100
AcDbLine
 10
60.80112032251268
 20
56.79452348194051
 30
0.0
 11
60.78630432251269
 21
56.81255948194053
 31
0.0
  0
LINE
  5
4DF
330
1F
100
AcDbEntity
  8
0
 62
     7
 48
0.000462
370
    35
100
AcDbLine
 10
59.20245732251269
 20
68.99453548194052
 30
0.0
 11
59.19836732251269
 21
68.97649948194052
 31
0.0
  0
ARC
  5
4E0
330
1F
100
AcDbEntity
  8
0
 62
     7
370
    35
100
AcDbCircle
 10
475.1396213225127
 20
564.8945294819405
 30
0.0
 40
2.0
100
AcDbArc
 50
0.0
 51
90.0
  0
LINE
  5
4E1
330
1F
100
AcDbEntity
  8
0
 62
     7
370
    35
100
AcDbLine
 10
475.1396213225127
 20
566.8945294819406
 30
0.0
 11
432.1396213225126
 21
566.8945294819406
 31
0.0
  0
ARC
  5
4E2
330
1F
100
AcDbEntity
  8
0
 62
     7
370
    35
100
AcDbCircle
 10
432.1396213225126
 20
564.8945294819405
 30
0.0
 40
2.0
100
AcDbArc
 50
90.0
 51
180.0
  0
LINE
  5
4E3
330
1F
100
AcDbEntity
  8
0
 62
     7
 48
0.4
370
    35
100
AcDbLine
 10
430.1396213225126
 20
548.8945294819404
 30
0.0
 11
430.1396213225126
 21
564.8945294819405
 31
0.0
  0
ARC
  5
4E4
330
1F
100
AcDbEntity
  8
0
 62
     7
370
    35
100
AcDbCircle
 10
432.1396213225126
 20
548.8945294819404
 30
0.0
 40
2.0
100
AcDbArc
 50
180.0
 51
270.0
  0
LINE
  5
4E5
330
1F
100
AcDbEntity
  8
0
 62
     7
370
    35
100
AcDbLine
 10
432.1396213225126
 20
546.8945294819405
 30
0.0
 11
475.1396213225127
 21
546.8945294819405
 31
0.0
  0
ARC
  5
4E6
330
1F
100
AcDbEntity
  8
0
 62
     7
370
    35
100
AcDbCircle
 10
475.1396213225127
 20
548.8945294819404
 30
0.0
 40
2.0
100
AcDbArc
 50
270.0
 51
0.0
  0
LINE
  5
4E7
330
1F
100
AcDbEntity
  8
0
 62
     7
 48
0.4
370
    35
100
AcDbLine
 10
477.1396213225126
 20
564.8945294819405
 30
0.0
 11
477.1396213225126
 21
548.8945294819404
 31
0.0
  0
LINE
  5
4E8
330
1F
100
AcDbEntity
  8
0
 62
     7
 48
0.049998
370
    13
100
AcDbLine
 10
61.53677732251269
 20
75.59184048194052
 30
0.0
 11
59.53685332251269
 21
75.59184048194052
 31
0.0
  0
LINE
  5
4E9
330
1F
100
AcDbEntity
  8
0
 62
     7
 48
0.049998
370
    13
100
AcDbLine
 10
499.7424653225126
 20
75.59184048194052
 30
0.0
 11
501.7424043225126
 21
75.59184048194052
 31
0.0
  0
LINE
  5
4EA
330
1F
100
AcDbEntity
  8
0
 62
     7
370
    35
100
AcDbLine
 10
71.6396213225127
 20
50.41940148194052
 30
0.0
 11
489.6396213225126
 21
50.41940148194052
 31
0.0
  0
LINE
  5
4EB
330
1F
100
AcDbEntity
  8
0
 62
     7
 48
0.001199
370
    35
100
AcDbLine
 10
502.0808443225127
 20
68.97649948194052
 30
0.0
 11
502.1147803225127
 21
69.01037348194051
 31
0.0
  0
LINE
  5
4EC
330
1F
100
AcDbEntity
  8
0
 62
     7
 48
0.000462
370
    35
100
AcDbLine
 10
502.0768163225127
 20
68.99453548194052
 30
0.0
 11
502.0808443225127
 21
68.97649948194052
 31
0.0
  0
LINE
  5
4ED
330
1F
100
AcDbEntity
  8
0
 62
     7
 48
0.000584
370
    35
100
AcDbLine
 10
500.4781223225127
 20
56.79452348194051
 30
0.0
 11
500.4929533225126
 21
56.81255948194053
 31
0.0
  0
LINE
  5
4EE
330
1F
100
AcDbEntity
  8
0
 62
     7
 48
0.000981
370
    35
100
AcDbLine
 10
500.4929533225126
 20
56.81255948194053
 30
0.0
 11
500.5127903225127
 21
56.77868448194051
 31
0.0
  0
CIRCLE
  5
4EF
330
1F
100
AcDbEntity
  8
0
 62
     7
370
    35
100
AcDbCircle
 10
489.6396213225126
 20
62.89452948194052
 30
0.0
 40
9.113215999999999
  0
CIRCLE
  5
4F0
330
1F
100
AcDbEntity
  8
0
 62
     7
370
    35
100
AcDbCircle
 10
71.6396213225127
 20
62.89452948194052
 30
0.0
 40
9.113215999999999
  0
CIRCLE
  5
4F1
330
1F
100
AcDbEntity
  8
0
 62
     7
370
    35
100
AcDbCircle
 10
489.6396213225126
 20
381.8945294819405
 30
0.0
 40
9.113215999999999
  0
CIRCLE
  5
4F2
330
1F
100
AcDbEntity
  8
0
 62
     7
370
    35
100
AcDbCircle
 10
71.6396213225127
 20
381.8945294819405
 30
0.0
 40
9.113215999999999
  0
CIRCLE
  5
4F3
330
1F
100
AcDbEntity
  8
0
 62
     7
370
    35
100
AcDbCircle
 10
489.6396213225126
 20
590.8945294819406
 30
0.0
 40
9.113215999999999
  0
CIRCLE
  5
4F4
330
1F
100
AcDbEntity
  8
0
 62
     7
370
    35
100
AcDbCircle
 10
71.6396213225127
 20
590.8945294819406
 30
0.0
 40
9.113215999999999
  0
ARC
  5
4F5
330
1F
100
AcDbEntity
  8
0
 62
     7
370
    35
100
AcDbCircle
 10
491.5386693225126
 20
61.57977048194052
 30
0.0
 40
8.154378999999998
100
AcDbArc
 50
323.2013070000001
 51
359.6628329999999
  0
LINE
  5
4F6
330
1F
100
AcDbEntity
  8
0
 62
     7
 48
0.245
370
    35
100
AcDbLine
 10
489.6396213225126
 20
52.49105648194052
 30
0.0
 11
479.8396333225126
 21
52.49105648194052
 31
0.0
  0
ARC
  5
4F7
330
1F
100
AcDbEntity
  8
0
 62
     7
370
    35
100
AcDbCircle
 10
479.8390843225127
 20
53.10598548194052
 30
0.0
 40
0.614857
100
AcDbArc
 50
181.0672669999999
 51
270.048307
  0
ELLIPSE
  5
4F8
330
1F
100
AcDbEntity
  8
0
 62
     7
370
    35
100
AcDbEllipse
 10
479.3195523225127
 20
75.59184048194052
 30
0.0
 11
0.0
 21
-25.0
 31
0.0
210
0.0
220
0.0
230
1.0
 40
0.008727
 41
5.245125179999999
 42
5.831911869999999
  0
LINE
  5
4F9
330
1F
100
AcDbEntity
  8
0
 62
     7
 48
0.233821
370
    35
100
AcDbLine
 10
498.9924653225126
 20
73.4319594819405
 30
0.0
 11
489.6396213225126
 21
73.4319594819405
 31
0.0
  0
ARC
  5
4FA
330
1F
100
AcDbEntity
  8
0
 62
     7
370
    35
100
AcDbCircle
 10
498.9924653225126
 20
72.69521848194052
 30
0.0
 40
0.736725
100
AcDbArc
 50
359.9459729999998
 51
90.00434699999992
  0
ARC
  5
4FB
330
1F
100
AcDbEntity
  8
0
 62
     7
370
    35
100
AcDbCircle
 10
-1823.522549677487
 20
74.58410448194053
 30
0.0
 40
2323.25238
100
AcDbArc
 50
359.6781029999999
 51
359.9534000000001
  0
ARC
  5
4FC
330
1F
100
AcDbEntity
  8
0
 62
     7
370
    35
100
AcDbCircle
 10
498.9924653225126
 20
372.0945414819405
 30
0.0
 40
0.738243
100
AcDbArc
 50
270.0
 51
0.0
  0
LINE
  5
4FD
330
1F
100
AcDbEntity
  8
0
 62
     7
 48
0.233821
370
    35
100
AcDbLine
 10
498.9924653225126
 20
371.3562904819405
 30
0.0
 11
489.6396213225126
 21
371.3562904819405
 31
0.0
  0
ARC
  5
4FE
330
1F
100
AcDbEntity
  8
0
 62
     7
370
    35
100
AcDbCircle
 10
489.6396213225126
 20
381.8945294819405
 30
0.0
 40
10.538243
100
AcDbArc
 50
90.0
 51
270.0
  0
LINE
  5
4FF
330
1F
100
AcDbEntity
  8
0
 62
     7
 48
0.233821
370
    35
100
AcDbLine
 10
498.9924653225126
 20
392.4327674819406
 30
0.0
 11
489.6396213225126
 21
392.4327674819406
 31
0.0
  0
ARC
  5
500
330
1F
100
AcDbEntity
  8
0
 62
     7
370
    35
100
AcDbCircle
 10
498.9924653225126
 20
391.6945174819405
 30
0.0
 40
0.738243
100
AcDbArc
 50
0.0
 51
90.0
  0
LINE
  5
501
330
1F
100
AcDbEntity
  8
0
 62
     7
 48
0.489999
370
    35
100
AcDbLine
 10
499.7307463225126
 20
391.6945174819405
 30
0.0
 11
499.7307463225126
 21
372.0945414819405
 31
0.0
  0
ARC
  5
502
330
1F
100
AcDbEntity
  8
0
 62
     7
370
    35
100
AcDbCircle
 10
498.9924653225126
 20
581.0938094819404
 30
0.0
 40
0.736725
100
AcDbArc
 50
269.9956529999999
 51
0.0540269999999452
  0
LINE
  5
503
330
1F
100
AcDbEntity
  8
0
 62
     7
 48
0.233821
370
    35
100
AcDbLine
 10
498.9924653225126
 20
580.3571144819406
 30
0.0
 11
489.6396213225126
 21
580.3571144819406
 31
0.0
  0
ELLIPSE
  5
504
330
1F
100
AcDbEntity
  8
0
 62
     7
370
    35
100
AcDbEllipse
 10
479.3195523225127
 20
578.1972024819404
 30
0.0
 11
0.0
 21
-25.0
 31
0.0
210
0.0
220
0.0
230
1.0
 40
0.008727
 41
3.592866089999999
 42
4.179652779999999
  0
ARC
  5
505
330
1F
100
AcDbEntity
  8
0
 62
     7
370
    35
100
AcDbCircle
 10
479.8390843225127
 20
600.6830424819405
 30
0.0
 40
0.614857
100
AcDbArc
 50
89.95169300000005
 51
178.9327329999998
  0
LINE
  5
506
330
1F
100
AcDbEntity
  8
0
 62
     7
 48
0.245
370
    35
100
AcDbLine
 10
489.6396213225126
 20
601.2980324819405
 30
0.0
 11
479.8396333225126
 21
601.2980324819405
 31
0.0
  0
ARC
  5
507
330
1F
100
AcDbEntity
  8
0
 62
     7
370
    35
100
AcDbCircle
 10
491.5386693225126
 20
592.2092874819405
 30
0.0
 40
8.154378999999998
100
AcDbArc
 50
0.3371669999999039
 51
36.79869299999997
  0
ARC
  5
508
330
1F
100
AcDbEntity
  8
0
 62
     7
370
    35
100
AcDbCircle
 10
-1823.522549677487
 20
579.2049544819406
 30
0.0
 40
2323.25238
100
AcDbArc
 50
0.046599999999909
 51
0.321897000000079
  0
LINE
  5
509
330
1F
100
AcDbEntity
  8
0
 62
     7
370
    13
100
AcDbLine
 10
499.7424653225126
 20
578.1972024819404
 30
0.0
 11
61.53677732251269
 21
578.1972024819404
 31
0.0
  0
LINE
  5
50A
330
1F
100
AcDbEntity
  8
0
 62
     7
 48
0.23382
370
    35
100
AcDbLine
 10
71.6396213225127
 20
580.3571144819406
 30
0.0
 11
62.2868073225127
 21
580.3571144819406
 31
0.0
  0
ARC
  5
50B
330
1F
100
AcDbEntity
  8
0
 62
     7
370
    35
100
AcDbCircle
 10
62.28676132251269
 20
581.0938094819404
 30
0.0
 40
0.736725
100
AcDbArc
 50
179.9459779999999
 51
270.004341
  0
ARC
  5
50C
330
1F
100
AcDbEntity
  8
0
 62
     7
370
    35
100
AcDbCircle
 10
2384.801669322513
 20
579.2049544819406
 30
0.0
 40
2323.25238
100
AcDbArc
 50
179.6780980000001
 51
179.9533959999998
  0
ARC
  5
50D
330
1F
100
AcDbEntity
  8
0
 62
     7
370
    35
100
AcDbCircle
 10
69.74058832251269
 20
592.2092874819405
 30
0.0
 40
8.154378999999998
100
AcDbArc
 50
143.2013089999999
 51
179.6628399999998
  0
LINE
  5
50E
330
1F
100
AcDbEntity
  8
0
 62
     7
 48
0.245
370
    35
100
AcDbLine
 10
81.43962432251269
 20
601.2980324819405
 30
0.0
 11
71.6396213225127
 21
601.2980324819405
 31
0.0
  0
ARC
  5
50F
330
1F
100
AcDbEntity
  8
0
 62
     7
370
    35
100
AcDbCircle
 10
81.44014332251268
 20
600.6830424819405
 30
0.0
 40
0.614857
100
AcDbArc
 50
1.067268999999982
 51
90.04830600000003
  0
ELLIPSE
  5
510
330
1F
100
AcDbEntity
  8
0
 62
     7
370
    35
100
AcDbEllipse
 10
81.9596893225127
 20
578.1972024819404
 30
0.0
 11
0.0
 21
25.0
 31
0.0
210
0.0
220
0.0
230
1.0
 40
0.008727
 41
5.245125179999999
 42
5.831911869999999
  0
ARC
  5
511
330
1F
100
AcDbEntity
  8
0
 62
     7
370
    35
100
AcDbCircle
 10
62.28677732251269
 20
372.0945414819405
 30
0.0
 40
0.738243
100
AcDbArc
 50
180.0
 51
270.0
  0
LINE
  5
512
330
1F
100
AcDbEntity
  8
0
 62
     7
 48
0.489999
370
    35
100
AcDbLine
 10
61.54852632251269
 20
391.6945174819405
 30
0.0
 11
61.54852632251269
 21
372.0945414819405
 31
0.0
  0
ARC
  5
513
330
1F
100
AcDbEntity
  8
0
 62
     7
370
    35
100
AcDbCircle
 10
62.28677732251269
 20
391.6945174819405
 30
0.0
 40
0.738243
100
AcDbArc
 50
90.0
 51
180.0
  0
LINE
  5
514
330
1F
100
AcDbEntity
  8
0
 62
     7
 48
0.233821
370
    35
100
AcDbLine
 10
71.6396213225127
 20
392.4327674819406
 30
0.0
 11
62.28677732251269
 21
392.4327674819406
 31
0.0
  0
ARC
  5
515
330
1F
100
AcDbEntity
  8
0
 62
     7
370
    35
100
AcDbCircle
 10
71.6396213225127
 20
381.8945294819405
 30
0.0
 40
10.538243
100
AcDbArc
 50
270.0
 51
90.0
  0
LINE
  5
516
330
1F
100
AcDbEntity
  8
0
 62
     7
 48
0.233821
370
    35
100
AcDbLine
 10
71.6396213225127
 20
371.3562904819405
 30
0.0
 11
62.28677732251269
 21
371.3562904819405
 31
0.0
  0
ARC
  5
517
330
1F
100
AcDbEntity
  8
0
 62
     7
370
    35
100
AcDbCircle
 10
81.44014332251268
 20
53.10598548194052
 30
0.0
 40
0.614857
100
AcDbArc
 50
269.951694
 51
358.932731
  0
LINE
  5
518
330
1F
100
AcDbEntity
  8
0
 62
     7
 48
0.245
370
    35
100
AcDbLine
 10
81.43962432251269
 20
52.49105648194052
 30
0.0
 11
71.6396213225127
 21
52.49105648194052
 31
0.0
  0
ARC
  5
519
330
1F
100
AcDbEntity
  8
0
 62
     7
370
    35
100
AcDbCircle
 10
69.74058832251269
 20
61.57977048194052
 30
0.0
 40
8.154378999999998
100
AcDbArc
 50
180.33716
 51
216.7986910000001
  0
ARC
  5
51A
330
1F
100
AcDbEntity
  8
0
 62
     7
370
    35
100
AcDbCircle
 10
2384.801669322513
 20
74.58410448194053
 30
0.0
 40
2323.25238
100
AcDbArc
 50
180.0466039999999
 51
180.3219019999999
  0
ARC
  5
51B
330
1F
100
AcDbEntity
  8
0
 62
     7
370
    35
100
AcDbCircle
 10
62.28676132251269
 20
72.69521848194052
 30
0.0
 40
0.736725
100
AcDbArc
 50
89.99565899999998
 51
180.0540219999998
  0
LINE
  5
51C
330
1F
100
AcDbEntity
  8
0
 62
     7
 48
0.23382
370
    35
100
AcDbLine
 10
71.6396213225127
 20
73.4319594819405
 30
0.0
 11
62.2868073225127
 21
73.4319594819405
 31
0.0
  0
ELLIPSE
  5
51D
330
1F
100
AcDbEntity
  8
0
 62
     7
370
    35
100
AcDbEllipse
 10
81.9596893225127
 20
75.59184048194052
 30
0.0
 11
0.0
 21
25.0
 31
0.0
210
0.0
220
0.0
230
1.0
 40
0.008727
 41
3.592866089999999
 42
4.179652779999999
  0
CIRCLE
  5
51E
330
1F
100
AcDbEntity
  8
0
 62
     7
370
    35
100
AcDbCircle
 10
71.6396213225127
 20
381.8945294819405
 30
0.0
 40
4.883901999999999
  0
LINE
  5
51F
330
1F
100
AcDbEntity
  8
0
 62
     7
 48
0.05
370
    35
100
AcDbLine
 10
76.1396213225127
 20
382.8945294819405
 30
0.0
 11
76.1396213225127
 21
380.8945294819405
 31
0.0
  0
LINE
  5
520
330
1F
100
AcDbEntity
  8
0
 62
     7
 48
0.225
370
    35
100
AcDbLine
 10
76.1396213225127
 20
382.8945294819405
 30
0.0
 11
67.13962132251269
 21
382.8945294819405
 31
0.0
  0
LINE
  5
521
330
1F
100
AcDbEntity
  8
0
 62
     7
 48
0.05
370
    35
100
AcDbLine
 10
67.13962132251269
 20
380.8945294819405
 30
0.0
 11
67.13962132251269
 21
382.8945294819405
 31
0.0
  0
LINE
  5
522
330
1F
100
AcDbEntity
  8
0
 62
     7
 48
0.225
370
    35
100
AcDbLine
 10
67.13962132251269
 20
380.8945294819405
 30
0.0
 11
76.1396213225127
 21
380.8945294819405
 31
0.0
  0
CIRCLE
  5
523
330
1F
100
AcDbEntity
  8
0
 62
     7
370
    35
100
AcDbCircle
 10
489.6396213225126
 20
381.8945294819405
 30
0.0
 40
4.883901999999999
  0
LINE
  5
524
330
1F
100
AcDbEntity
  8
0
 62
     7
 48
0.05
370
    35
100
AcDbLine
 10
494.1396213225126
 20
382.8945294819405
 30
0.0
 11
494.1396213225126
 21
380.8945294819405
 31
0.0
  0
LINE
  5
525
330
1F
100
AcDbEntity
  8
0
 62
     7
 48
0.225
370
    35
100
AcDbLine
 10
494.1396213225126
 20
382.8945294819405
 30
0.0
 11
485.1396213225126
 21
382.8945294819405
 31
0.0
  0
LINE
  5
526
330
1F
100
AcDbEntity
  8
0
 62
     7
 48
0.05
370
    35
100
AcDbLine
 10
485.1396213225126
 20
380.8945294819405
 30
0.0
 11
485.1396213225126
 21
382.8945294819405
 31
0.0
  0
LINE
  5
527
330
1F
100
AcDbEntity
  8
0
 62
     7
 48
0.225
370
    35
100
AcDbLine
 10
485.1396213225126
 20
380.8945294819405
 30
0.0
 11
494.1396213225126
 21
380.8945294819405
 31
0.0
  0
CIRCLE
  5
528
330
1F
100
AcDbEntity
  8
0
 62
     7
370
    35
100
AcDbCircle
 10
71.6396213225127
 20
62.89452948194052
 30
0.0
 40
4.883901999999999
  0
LINE
  5
529
330
1F
100
AcDbEntity
  8
0
 62
     7
 48
0.05
370
    35
100
AcDbLine
 10
76.1396213225127
 20
63.89452948194052
 30
0.0
 11
76.1396213225127
 21
61.89452948194052
 31
0.0
  0
LINE
  5
52A
330
1F
100
AcDbEntity
  8
0
 62
     7
 48
0.225
370
    35
100
AcDbLine
 10
76.1396213225127
 20
63.89452948194052
 30
0.0
 11
67.13962132251269
 21
63.89452948194052
 31
0.0
  0
LINE
  5
52B
330
1F
100
AcDbEntity
  8
0
 62
     7
 48
0.05
370
    35
100
AcDbLine
 10
67.13962132251269
 20
61.89452948194052
 30
0.0
 11
67.13962132251269
 21
63.89452948194052
 31
0.0
  0
LINE
  5
52C
330
1F
100
AcDbEntity
  8
0
 62
     7
 48
0.225
370
    35
100
AcDbLine
 10
67.13962132251269
 20
61.89452948194052
 30
0.0
 11
76.1396213225127
 21
61.89452948194052
 31
0.0
  0
CIRCLE
  5
52D
330
1F
100
AcDbEntity
  8
0
 62
     7
370
    35
100
AcDbCircle
 10
489.6396213225126
 20
62.89452948194052
 30
0.0
 40
4.883901999999999
  0
LINE
  5
52E
330
1F
100
AcDbEntity
  8
0
 62
     7
 48
0.05
370
    35
100
AcDbLine
 10
494.1396213225126
 20
63.89452948194052
 30
0.0
 11
494.1396213225126
 21
61.89452948194052
 31
0.0
  0
LINE
  5
52F
330
1F
100
AcDbEntity
  8
0
 62
     7
 48
0.225
370
    35
100
AcDbLine
 10
494.1396213225126
 20
63.89452948194052
 30
0.0
 11
485.1396213225126
 21
63.89452948194052
 31
0.0
  0
LINE
  5
530
330
1F
100
AcDbEntity
  8
0
 62
     7
 48
0.05
370
    35
100
AcDbLine
 10
485.1396213225126
 20
61.89452948194052
 30
0.0
 11
485.1396213225126
 21
63.89452948194052
 31
0.0
  0
LINE
  5
531
330
1F
100
AcDbEntity
  8
0
 62
     7
 48
0.225
370
    35
100
AcDbLine
 10
485.1396213225126
 20
61.89452948194052
 30
0.0
 11
494.1396213225126
 21
61.89452948194052
 31
0.0
  0
CIRCLE
  5
532
330
1F
100
AcDbEntity
  8
0
 62
     7
370
    35
100
AcDbCircle
 10
71.6396213225127
 20
590.8945294819406
 30
0.0
 40
4.883901999999999
  0
LINE
  5
533
330
1F
100
AcDbEntity
  8
0
 62
     7
 48
0.05
370
    35
100
AcDbLine
 10
76.1396213225127
 20
591.8945294819406
 30
0.0
 11
76.1396213225127
 21
589.8945294819405
 31
0.0
  0
LINE
  5
534
330
1F
100
AcDbEntity
  8
0
 62
     7
 48
0.225
370
    35
100
AcDbLine
 10
76.1396213225127
 20
591.8945294819406
 30
0.0
 11
67.13962132251269
 21
591.8945294819406
 31
0.0
  0
LINE
  5
535
330
1F
100
AcDbEntity
  8
0
 62
     7
 48
0.05
370
    35
100
AcDbLine
 10
67.13962132251269
 20
589.8945294819405
 30
0.0
 11
67.13962132251269
 21
591.8945294819406
 31
0.0
  0
LINE
  5
536
330
1F
100
AcDbEntity
  8
0
 62
     7
 48
0.225
370
    35
100
AcDbLine
 10
67.13962132251269
 20
589.8945294819405
 30
0.0
 11
76.1396213225127
 21
589.8945294819405
 31
0.0
  0
CIRCLE
  5
537
330
1F
100
AcDbEntity
  8
0
 62
     7
370
    35
100
AcDbCircle
 10
489.6396213225126
 20
590.8945294819406
 30
0.0
 40
4.883901999999999
  0
LINE
  5
538
330
1F
100
AcDbEntity
  8
0
 62
     7
 48
0.05
370
    35
100
AcDbLine
 10
494.1396213225126
 20
591.8945294819406
 30
0.0
 11
494.1396213225126
 21
589.8945294819405
 31
0.0
  0
LINE
  5
539
330
1F
100
AcDbEntity
  8
0
 62
     7
 48
0.225
370
    35
100
AcDbLine
 10
494.1396213225126
 20
591.8945294819406
 30
0.0
 11
485.1396213225126
 21
591.8945294819406
 31
0.0
  0
LINE
  5
53A
330
1F
100
AcDbEntity
  8
0
 62
     7
 48
0.05
370
    35
100
AcDbLine
 10
485.1396213225126
 20
589.8945294819405
 30
0.0
 11
485.1396213225126
 21
591.8945294819406
 31
0.0
  0
LINE
  5
53B
330
1F
100
AcDbEntity
  8
0
 62
     7
 48
0.225
370
    35
100
AcDbLine
 10
485.1396213225126
 20
589.8945294819405
 30
0.0
 11
494.1396213225126
 21
589.8945294819405
 31
0.0
  0
LINE
  5
53C
330
1F
100
AcDbEntity
  8
0
 62
     7
370
    35
100
AcDbLine
 10
55.63962132251269
 20
62.89452948194052
 30
0.0
 11
55.63962132251269
 21
590.8945294819406
 31
0.0
  0
ARC
  5
53D
330
1F
100
AcDbEntity
  8
0
 62
     7
370
    35
100
AcDbCircle
 10
71.6396213225127
 20
62.89452948194052
 30
0.0
 40
16.0
100
AcDbArc
 50
180.0
 51
202.8229629999999
  0
ARC
  5
53E
330
1F
100
AcDbEntity
  8
0
 62
     7
370
    35
100
AcDbCircle
 10
489.6396213225126
 20
62.89452948194052
 30
0.0
 40
16.0
100
AcDbArc
 50
337.177039
 51
0.0
  0
LINE
  5
53F
330
1F
100
AcDbEntity
  8
0
 62
     7
 48
0.155154
370
    35
100
AcDbLine
 10
505.6396213225126
 20
69.10067548194053
 30
0.0
 11
505.6396213225126
 21
62.89452948194052
 31
0.0
  0
LINE
  5
540
330
1F
100
AcDbEntity
  8
0
 62
     7
 48
0.310309
370
    35
100
AcDbLine
 10
505.6396213225126
 20
388.1007054819405
 30
0.0
 11
505.6396213225126
 21
375.6883524819406
 31
0.0
  0
LINE
  5
541
330
1F
100
AcDbEntity
  8
0
 62
     7
 48
0.155153
370
    35
100
AcDbLine
 10
505.6396213225126
 20
590.8945294819406
 30
0.0
 11
505.6396213225126
 21
584.6884134819405
 31
0.0
  0
ARC
  5
542
330
1F
100
AcDbEntity
  8
0
 62
     7
370
    35
100
AcDbCircle
 10
489.6396213225126
 20
590.8945294819406
 30
0.0
 40
16.0
100
AcDbArc
 50
0.0
 51
90.0
  0
LINE
  5
543
330
1F
100
AcDbEntity
  8
0
 62
     7
370
    35
100
AcDbLine
 10
489.6396213225126
 20
606.8945294819406
 30
0.0
 11
71.6396213225127
 21
606.8945294819406
 31
0.0
  0
ARC
  5
544
330
1F
100
AcDbEntity
  8
0
 62
     7
370
    35
100
AcDbCircle
 10
71.6396213225127
 20
590.8945294819406
 30
0.0
 40
16.0
100
AcDbArc
 50
90.0
 51
180.0
  0
LINE
  5
545
330
1F
100
AcDbEntity
  8
0
 62
     7
100
AcDbLine
 10
100.6413579125127
 20
514.3945294819404
 30
0.0
 11
460.6413579125126
 21
514.3945294819404
 31
0.0
  0
LINE
  5
546
330
1F
100
AcDbEntity
  8
0
 62
     7
100
AcDbLine
 10
460.6413579125126
 20
514.3945294819404
 30
0.0
 11
460.6413579125126
 21
469.3945294819404
 31
0.0
  0
LINE
  5
547
330
1F
100
AcDbEntity
  8
0
 62
     7
100
AcDbLine
 10
460.6413579125126
 20
469.3945294819404
 30
0.0
 11
100.6413579125127
 21
469.3945294819404
 31
0.0
  0
LINE
  5
548
330
1F
100
AcDbEntity
  8
0
 62
     7
100
AcDbLine
 10
100.6413579125127
 20
469.3945294819404
 30
0.0
 11
100.6413579125127
 21
514.3945294819404
 31
0.0
  0
DIMENSION
  5
549
330
1F
100
AcDbEntity
  8
QUOTE
 62
     7
100
AcDbDimension
  2
*D6
 10
32.52685157251268
 20
46.89452948194053
 30
0.0
 11
32.5268515725127
 21
326.6847570219405
 31
0.0
 70
   160
 71
     0
 42
560.0
  3
Standard
100
AcDbAlignedDimension
 13
71.6396213225127
 23
606.8945294819406
 33
0.0
 14
71.6396204825127
 24
46.89452948194052
 34
0.0
 50
90.0
100
AcDbRotatedDimension
1001
ACAD
1000
DSTYLE
1002
{
1070
    41
1040
15.0
1070
   140
1040
10.0
1070
    78
1070
     8
1070
   284
1070
     8
1002
}
  0
DIMENSION
  5
54A
330
1F
100
AcDbEntity
  8
QUOTE
 62
     7
100
AcDbDimension
  2
*D7
 10
55.63962132251269
 20
28.93483889194052
 30
0.0
 11
279.6091726125127
 21
28.93483889194052
 31
0.0
 70
   160
 71
     0
 42
449.9999999999999
  3
Standard
100
AcDbAlignedDimension
 13
505.6396213225126
 23
69.10067548194053
 33
0.0
 14
55.63962132251269
 24
62.95702948194052
 34
0.0
100
AcDbRotatedDimension
1001
ACAD
1000
DSTYLE
1002
{
1070
    41
1040
15.0
1070
   140
1040
10.0
1070
    78
1070
     8
1070
   284
1070
     8
1002
}
  0
TEXT
  5
54B
330
1F
100
AcDbEntity
  8
0
 62
     7
100
AcDbText
 10
87.97348039013172
 20
588.4353638119405
 30
0.0
 40
5.0
  1
GW68015N
 72
     1
 11
106.4258613425127
 21
588.4353638119405
 31
0.0
100
AcDbText
  0
LWPOLYLINE
  5
54C
330
1F
100
AcDbEntity
  8
0
 62
   253
370
    35
100
AcDbPolyline
 90
        8
 70
     0
 43
0.0
 10
136.6984433225127
 20
420.7783794819405
 10
136.4475893225127
 20
420.9374974819406
 10
136.2242773225127
 20
421.1316504819405
 10
136.0334963225127
 20
421.3558934819404
 10
135.8469113225127
 20
421.6670514819405
 10
135.7183713225127
 20
422.0050024819405
 10
135.6504703225127
 20
422.3579694819404
 10
135.6396213225127
 20
422.5679304819404
  0
LWPOLYLINE
  5
54D
330
1F
100
AcDbEntity
  8
0
 62
   253
370
    35
100
AcDbPolyline
 90
        9
 70
     0
 43
0.0
 10
244.5807833225127
 20
420.7783794819405
 10
244.8316683225127
 20
420.9374974819406
 10
245.0549963225127
 20
421.1317114819405
 10
245.2457613225127
 20
421.3559544819405
 10
245.3997223225127
 20
421.6025374819405
 10
245.5166653225127
 20
421.8674904819405
 10
245.5954623225127
 20
422.1452004819404
 10
245.6285733225127
 20
422.3560774819405
 10
245.6396213225127
 20
422.5679304819404
  0
LWPOLYLINE
  5
54E
330
1F
100
AcDbEntity
  8
0
 62
   253
370
    35
100
AcDbPolyline
 90
        9
 70
     0
 43
0.0
 10
424.5807833225127
 20
420.7783794819405
 10
424.8316983225127
 20
420.9374974819406
 10
425.0549653225126
 20
421.1317114819405
 10
425.2457613225127
 20
421.3559544819405
 10
425.3996923225127
 20
421.6025374819405
 10
425.5166353225126
 20
421.8674904819405
 10
425.5954923225126
 20
422.1452004819404
 10
425.6285733225126
 20
422.3560774819405
 10
425.6396213225126
 20
422.5679304819404
  0
LWPOLYLINE
  5
54F
330
1F
100
AcDbEntity
  8
0
 62
   253
370
    35
100
AcDbPolyline
 90
        8
 70
     0
 43
0.0
 10
316.6984593225127
 20
420.7783794819405
 10
316.4475743225127
 20
420.9374974819406
 10
316.2242773225127
 20
421.1316504819405
 10
316.0334813225127
 20
421.3559544819405
 10
315.8468963225128
 20
421.6670514819405
 10
315.7183563225127
 20
422.0050024819405
 10
315.6504853225127
 20
422.3579694819404
 10
315.6396213225126
 20
422.5679304819404
  0
LWPOLYLINE
  5
550
330
1F
100
AcDbEntity
  8
0
 62
   253
370
    35
100
AcDbPolyline
 90
       15
 70
     0
 43
0.0
 10
405.6396213225126
 20
413.9937114819405
 10
405.7158843225127
 20
413.9938024819405
 10
407.3969453225126
 20
414.0374124819405
 10
409.0649753225127
 20
414.1596654819404
 10
410.7257413225126
 20
414.3598004819405
 10
412.3736303225126
 20
414.6364724819404
 10
414.0050993225127
 20
414.9884014819405
 10
415.6191133225126
 20
415.4149754819404
 10
416.9747043225127
 20
415.8352644819404
 10
418.3221773225127
 20
416.3110334819405
 10
419.6504853225127
 20
416.8389264819405
 10
420.9554783225127
 20
417.4168074819404
 10
422.2328833225127
 20
418.0421124819405
 10
423.4812353225127
 20
418.7136214819405
 10
424.8035613225126
 20
419.4949934819404
  0
LWPOLYLINE
  5
551
330
1F
100
AcDbEntity
  8
0
 62
   253
370
    35
100
AcDbPolyline
 90
       12
 70
     0
 43
0.0
 10
424.8035613225126
 20
419.4949934819404
 10
425.0226163225127
 20
419.6699194819404
 10
425.1586643225127
 20
419.8245214819405
 10
425.3407323225127
 20
420.1076634819405
 10
425.3863863225127
 20
420.2037334819404
 10
425.4485813225127
 20
420.3927594819405
 10
425.4621923225126
 20
420.5278914819404
 10
425.4490083225126
 20
420.6148054819404
 10
425.3489103225126
 20
420.7531714819404
 10
425.2690763225126
 20
420.7916844819404
 10
425.1743503225127
 20
420.8120094819405
 10
425.0882903225126
 20
420.8165264819404
  0
LWPOLYLINE
  5
552
330
1F
100
AcDbEntity
  8
0
 62
   253
370
    35
100
AcDbPolyline
 90
       12
 70
     0
 43
0.0
 10
316.4756803225127
 20
419.4949934819404
 10
316.2540623225127
 20
419.6724834819405
 10
316.1180143225128
 20
419.8278784819405
 10
315.9914883225127
 20
420.0130594819405
 10
315.8912383225127
 20
420.2073954819404
 10
315.8298983225127
 20
420.3962994819405
 10
315.8172033225127
 20
420.5314314819405
 10
315.8314543225127
 20
420.6186504819405
 10
315.9272493225127
 20
420.7510354819405
 10
315.9804723225127
 20
420.7803934819406
 10
316.0630223225127
 20
420.8054174819404
 10
316.1909213225127
 20
420.8165264819404
  0
LWPOLYLINE
  5
553
330
1F
100
AcDbEntity
  8
0
 62
   253
370
    35
100
AcDbPolyline
 90
       16
 70
     0
 43
0.0
 10
335.6396213225127
 20
413.9937114819405
 10
334.2335843225127
 20
414.0216654819405
 10
332.8259923225127
 20
414.1056804819405
 10
331.4127533225127
 20
414.2463964819405
 10
330.0069303225127
 20
414.4428694819405
 10
328.6115453225127
 20
414.6940894819405
 10
327.2282443225126
 20
414.9994484819404
 10
325.8606293225126
 20
415.3576634819406
 10
324.5047333225127
 20
415.7695294819404
 10
323.1548493225127
 20
416.2374854819405
 10
321.8233983225127
 20
416.7578104819405
 10
320.5126683225127
 20
417.3294044819405
 10
319.2281223225127
 20
417.9493994819405
 10
317.9780613225127
 20
418.6129744819405
 10
316.7597073225127
 20
419.3207374819405
 10
316.4756803225127
 20
419.4949934819404
  0
LWPOLYLINE
  5
554
330
1F
100
AcDbEntity
  8
0
 62
   253
370
    35
100
AcDbPolyline
 90
       15
 70
     0
 43
0.0
 10
225.6396213225127
 20
413.9937114819405
 10
225.7158843225127
 20
413.9938024819405
 10
227.3969453225127
 20
414.0374124819405
 10
229.0649753225127
 20
414.1596654819404
 10
230.7257413225127
 20
414.3598004819405
 10
232.3736303225127
 20
414.6364724819404
 10
234.0050993225127
 20
414.9884014819405
 10
235.6191133225127
 20
415.4149754819404
 10
236.9747043225127
 20
415.8352644819404
 10
238.3221463225127
 20
416.3110334819405
 10
239.6505163225127
 20
416.8389264819405
 10
240.9555083225127
 20
417.4168074819404
 10
242.2328833225127
 20
418.0421124819405
 10
243.4812353225127
 20
418.7136214819405
 10
244.8035613225127
 20
419.4949934819404
  0
LWPOLYLINE
  5
555
330
1F
100
AcDbEntity
  8
0
 62
   253
370
    35
100
AcDbPolyline
 90
       12
 70
     0
 43
0.0
 10
244.8035613225127
 20
419.4949934819404
 10
245.0251803225127
 20
419.6724834819405
 10
245.1612273225127
 20
419.8278784819405
 10
245.2877533225127
 20
420.0130594819405
 10
245.3880033225127
 20
420.2073954819404
 10
245.4493443225127
 20
420.3962994819405
 10
245.4620393225127
 20
420.5314314819405
 10
245.4477873225127
 20
420.6186504819405
 10
245.3519933225127
 20
420.7510354819405
 10
245.2987703225127
 20
420.7803934819406
 10
245.2162203225127
 20
420.8054174819404
 10
245.0883213225127
 20
420.8165264819404
  0
LWPOLYLINE
  5
556
330
1F
100
AcDbEntity
  8
0
 62
   253
370
    35
100
AcDbPolyline
 90
       17
 70
     0
 43
0.0
 10
136.4756963225127
 20
419.4949934819404
 10
137.1698943225126
 20
419.0753764819405
 10
138.3703493225127
 20
418.3981304819404
 10
139.5998263225127
 20
417.7637304819405
 10
140.8639863225127
 20
417.1702254819405
 10
142.1524843225127
 20
416.6236554819405
 10
143.4622223225126
 20
416.1257914819405
 10
144.7885623225127
 20
415.6785864819405
 10
146.1236303225127
 20
415.2843604819405
 10
147.4701573225127
 20
414.9419534819405
 10
148.8192473225127
 20
414.6531354819404
 10
150.1796143225127
 20
414.4157084819405
 10
151.5495483225127
 20
414.2303444819405
 10
152.5705293225127
 20
414.1268904819405
 10
153.5937993225127
 20
414.0529154819405
 10
154.6175263225127
 20
414.0084814819405
 10
155.6396213225126
 20
413.9937114819405
  0
LWPOLYLINE
  5
557
330
1F
100
AcDbEntity
  8
0
 62
   253
370
    35
100
AcDbPolyline
 90
       12
 70
     0
 43
0.0
 10
136.4756963225127
 20
419.4949934819404
 10
136.2565953225127
 20
419.6699194819404
 10
136.1205783225127
 20
419.8245214819405
 10
135.9385253225127
 20
420.1076634819405
 10
135.8928253225127
 20
420.2037334819404
 10
135.8306463225126
 20
420.3927594819405
 10
135.8170813225127
 20
420.5278914819404
 10
135.8302643225127
 20
420.6148054819404
 10
135.9303313225127
 20
420.7531714819404
 10
136.0101653225127
 20
420.7916844819404
 10
136.1048773225127
 20
420.8120094819405
 10
136.1909213225127
 20
420.8165264819404
  0
LWPOLYLINE
  5
558
330
1F
100
AcDbEntity
  8
0
 62
   253
370
    35
100
AcDbPolyline
 90
        4
 70
     0
 43
0.0
 10
360.4568513225126
 20
417.4932234819404
 10
360.4526403225127
 20
417.3805524819405
 10
360.4606353225126
 20
417.1363504819405
 10
360.4312163225127
 20
416.7365704819404
  0
LWPOLYLINE
  5
559
330
1F
100
AcDbEntity
  8
0
 62
   253
370
    35
100
AcDbPolyline
 90
        4
 70
     0
 43
0.0
 10
380.8480253225127
 20
416.7365704819404
 10
380.8207433225127
 20
417.2110574819405
 10
380.8267243225127
 20
417.4041724819404
 10
380.8223913225127
 20
417.4932234819404
  0
LWPOLYLINE
  5
55A
330
1F
100
AcDbEntity
  8
0
 62
   253
370
    35
100
AcDbPolyline
 90
        3
 70
     0
 43
0.0
 10
360.6617163225127
 20
413.9759504819405
 10
360.5874973225127
 20
414.0001814819405
 10
360.5143463225127
 20
413.9992354819405
  0
LWPOLYLINE
  5
55B
330
1F
100
AcDbEntity
  8
0
 62
   253
370
    35
100
AcDbPolyline
 90
        3
 70
     0
 43
0.0
 10
380.6175263225128
 20
413.9759504819405
 10
380.6917453225127
 20
414.0001814819405
 10
380.7648953225126
 20
413.9992354819405
  0
LWPOLYLINE
  5
55C
330
1F
100
AcDbEntity
  8
0
 62
   253
370
    35
100
AcDbPolyline
 90
        4
 70
     0
 43
0.0
 10
180.4312163225127
 20
416.7365704819404
 10
180.4584993225127
 20
417.2110574819405
 10
180.4525183225127
 20
417.4041724819404
 10
180.4568513225127
 20
417.4932234819404
  0
LWPOLYLINE
  5
55D
330
1F
100
AcDbEntity
  8
0
 62
   253
370
    35
100
AcDbPolyline
 90
        4
 70
     0
 43
0.0
 10
200.8223913225127
 20
417.4932234819404
 10
200.8266023225127
 20
417.3805524819405
 10
200.8186063225127
 20
417.1363504819405
 10
200.8480253225127
 20
416.7365704819404
  0
LWPOLYLINE
  5
55E
330
1F
100
AcDbEntity
  8
0
 62
   253
370
    35
100
AcDbPolyline
 90
        3
 70
     0
 43
0.0
 10
200.6175263225127
 20
413.9759504819405
 10
200.6917453225127
 20
414.0001814819405
 10
200.7648953225127
 20
413.9992354819405
  0
LWPOLYLINE
  5
55F
330
1F
100
AcDbEntity
  8
0
 62
   253
370
    35
100
AcDbPolyline
 90
        3
 70
     0
 43
0.0
 10
180.6617163225127
 20
413.9759504819405
 10
180.5874973225127
 20
414.0001814819405
 10
180.5143463225127
 20
413.9992354819405
  0
LWPOLYLINE
  5
560
330
1F
100
AcDbEntity
  8
0
 62
   253
370
    35
100
AcDbPolyline
 90
       14
 70
     0
 43
0.0
 10
137.3438753225127
 20
420.4386574819404
 10
137.6054113225126
 20
420.3175634819404
 10
137.9253113225127
 20
420.1904884819405
 10
138.6878843225126
 20
419.9321874819405
 10
139.5237303225127
 20
419.6860334819405
 10
140.9062223225127
 20
419.3231794819405
 10
142.7911563225126
 20
418.8878764819405
 10
144.7845493225127
 20
418.4917584819405
 10
146.7795133225127
 20
418.1607644819405
 10
148.7766753225127
 20
417.8959334819405
 10
150.7994873225127
 20
417.6961644819405
 10
152.8570593225127
 20
417.5638404819404
 10
154.9420353225127
 20
417.5026834819404
 10
155.6396213225126
 20
417.4985944819404
  0
LWPOLYLINE
  5
561
330
1F
100
AcDbEntity
  8
0
 62
   253
370
    35
100
AcDbPolyline
 90
       14
 70
     0
 43
0.0
 10
423.9353363225127
 20
420.4386574819404
 10
423.6738623225127
 20
420.3175634819404
 10
423.3539153225126
 20
420.1904884819405
 10
422.5913423225127
 20
419.9321874819405
 10
421.7555273225126
 20
419.6860334819405
 10
420.3730193225127
 20
419.3231794819405
 10
418.4880713225127
 20
418.8878764819405
 10
416.4946933225126
 20
418.4917584819405
 10
414.4997283225127
 20
418.1607644819405
 10
412.5025663225127
 20
417.8959334819405
 10
410.4797703225126
 20
417.6961644819405
 10
408.4221833225126
 20
417.5638404819404
 10
406.3371923225126
 20
417.5026834819404
 10
405.6396213225126
 20
417.4985944819404
  0
LWPOLYLINE
  5
562
330
1F
100
AcDbEntity
  8
0
 62
   253
370
    35
100
AcDbPolyline
 90
       14
 70
     0
 43
0.0
 10
335.6396213225127
 20
417.4985944819404
 10
333.5489843225126
 20
417.5353984819405
 10
331.4808073225127
 20
417.6444074819405
 10
329.4466893225127
 20
417.8221414819405
 10
327.4431493225127
 20
418.0653664819405
 10
325.4498933225127
 20
418.3740214819405
 10
323.4541353225127
 20
418.7488994819404
 10
321.3127473225127
 20
419.2240584819406
 10
320.0098303225127
 20
419.5533424819404
 10
319.1001623225127
 20
419.8073714819405
 10
318.2929723225127
 20
420.0602394819404
 10
317.9252963225128
 20
420.1904884819405
 10
317.6054113225128
 20
420.3175634819404
 10
317.3438753225127
 20
420.4386574819404
  0
LWPOLYLINE
  5
563
330
1F
100
AcDbEntity
  8
0
 62
   253
370
    35
100
AcDbPolyline
 90
       14
 70
     0
 43
0.0
 10
225.6396213225127
 20
417.4985944819404
 10
227.7302583225127
 20
417.5353984819405
 10
229.7984343225127
 20
417.6444074819405
 10
231.8325533225127
 20
417.8221414819405
 10
233.8360933225127
 20
418.0653664819405
 10
235.8293493225127
 20
418.3740214819405
 10
237.8251073225127
 20
418.7488994819404
 10
239.9664953225127
 20
419.2240584819406
 10
241.2694123225127
 20
419.5533424819404
 10
242.1790803225127
 20
419.8073714819405
 10
242.9862703225127
 20
420.0602394819404
 10
243.3539463225127
 20
420.1904884819405
 10
243.6738313225127
 20
420.3175634819404
 10
243.9353673225127
 20
420.4386574819404
  0
LWPOLYLINE
  5
564
330
1F
100
AcDbEntity
  8
0
 62
   253
370
    35
100
AcDbPolyline
 90
        4
 70
     0
 43
0.0
 10
234.1326023225127
 20
426.8552834819405
 10
230.9673803225127
 20
426.8187844819404
 10
226.7076143225127
 20
426.7693464819404
 10
225.6396213225127
 20
426.7667824819405
  0
LWPOLYLINE
  5
565
330
1F
100
AcDbEntity
  8
0
 62
   253
370
    35
100
AcDbPolyline
 90
        6
 70
     0
 43
0.0
 10
186.1361423225126
 20
426.7667824819405
 10
187.5491063225127
 20
426.7911354819404
 10
189.7648653225127
 20
426.8448464819405
 10
191.9506863225127
 20
426.8377054819405
 10
194.1911043225127
 20
426.7792944819404
 10
195.1431003225127
 20
426.7667824819405
  0
LWPOLYLINE
  5
566
330
1F
100
AcDbEntity
  8
0
 62
   253
370
    35
100
AcDbPolyline
 90
        4
 70
     0
 43
0.0
 10
155.6396213225126
 20
426.7667824819405
 10
151.7282293225127
 20
426.7975444819406
 10
148.1977573225127
 20
426.8476544819405
 10
147.1466553225127
 20
426.8552834819405
  0
LWPOLYLINE
  5
567
330
1F
100
AcDbEntity
  8
0
 62
   253
370
    35
100
AcDbPolyline
 90
        4
 70
     0
 43
0.0
 10
405.6396213225126
 20
426.7667824819405
 10
409.5511203225127
 20
426.7976054819405
 10
413.0815763225126
 20
426.8476544819405
 10
414.1326023225126
 20
426.8552834819405
  0
LWPOLYLINE
  5
568
330
1F
100
AcDbEntity
  8
0
 62
   253
370
    35
100
AcDbPolyline
 90
        6
 70
     0
 43
0.0
 10
375.1431003225127
 20
426.7667824819405
 10
373.7300143225127
 20
426.7911354819404
 10
371.5141943225127
 20
426.8448464819405
 10
369.3283723225127
 20
426.8377054819405
 10
367.0878323225127
 20
426.7792944819404
 10
366.1361423225127
 20
426.7667824819405
  0
LWPOLYLINE
  5
569
330
1F
100
AcDbEntity
  8
0
 62
   253
370
    35
100
AcDbPolyline
 90
        4
 70
     0
 43
0.0
 10
327.1466403225127
 20
426.8552834819405
 10
330.3118623225127
 20
426.8187844819404
 10
334.5715973225127
 20
426.7693464819404
 10
335.6396213225127
 20
426.7667824819405
  0
LWPOLYLINE
  5
56A
330
1F
100
AcDbEntity
  8
0
 62
   253
370
    35
100
AcDbPolyline
 90
        3
 70
     0
 43
0.0
 10
380.8048123225127
 20
417.6657084819405
 10
380.8686863225127
 20
417.5510844819404
 10
381.0004303225127
 20
417.4997534819405
  0
LWPOLYLINE
  5
56B
330
1F
100
AcDbEntity
  8
0
 62
   253
370
    35
100
AcDbPolyline
 90
        3
 70
     0
 43
0.0
 10
360.4744293225127
 20
417.6657084819405
 10
360.4105563225127
 20
417.5510844819404
 10
360.2788113225126
 20
417.4997534819405
  0
LWPOLYLINE
  5
56C
330
1F
100
AcDbEntity
  8
0
 62
   253
370
    35
100
AcDbPolyline
 90
        4
 70
     0
 43
0.0
 10
180.4743683225127
 20
417.6654034819405
 10
180.4105253225127
 20
417.5509624819405
 10
180.3260833225127
 20
417.5058574819405
 10
180.2788113225127
 20
417.4997534819405
  0
LWPOLYLINE
  5
56D
330
1F
100
AcDbEntity
  8
0
 62
   253
370
    35
100
AcDbPolyline
 90
        4
 70
     0
 43
0.0
 10
200.8048743225127
 20
417.6654034819405
 10
200.8687163225127
 20
417.5509624819405
 10
200.9531583225127
 20
417.5058574819405
 10
201.0004303225127
 20
417.4997534819405
  0
LWPOLYLINE
  5
56E
330
1F
100
AcDbEntity
  8
0
 62
   253
370
    35
100
AcDbPolyline
 90
        4
 70
     0
 43
0.0
 10
86.89100932251269
 20
428.3492414819405
 10
85.59402832251269
 20
428.3362404819405
 10
85.43175032251269
 20
428.3290994819404
 10
85.3967163225127
 20
428.3253154819404
  0
LWPOLYLINE
  5
56F
330
1F
100
AcDbEntity
  8
0
 62
   253
370
    35
100
AcDbPolyline
 90
        7
 70
     0
 43
0.0
 10
135.1396213225127
 20
428.2797834819405
 10
135.1401553225127
 20
428.2788674819405
 10
135.1411163225127
 20
428.2782574819405
 10
135.1444883225127
 20
428.2770364819405
 10
135.1833223225127
 20
428.2716044819404
 10
135.3236723225127
 20
428.2632424819405
 10
136.4631533225127
 20
428.2410864819405
  0
LWPOLYLINE
  5
570
330
1F
100
AcDbEntity
  8
0
 62
   253
370
    35
100
AcDbPolyline
 90
        7
 70
     0
 43
0.0
 10
244.8161043225127
 20
428.2410864819405
 10
245.2027313225127
 20
428.2455424819405
 10
246.0307343225127
 20
428.2669654819405
 10
246.1274753225127
 20
428.2754494819405
 10
246.1358673225127
 20
428.2773414819405
 10
246.1382783225127
 20
428.2783184819406
 10
246.1396213225127
 20
428.2797834819405
  0
LWPOLYLINE
  5
571
330
1F
100
AcDbEntity
  8
0
 62
   253
370
    35
100
AcDbPolyline
 90
        6
 70
     0
 43
0.0
 10
315.1396213225126
 20
428.2797834819405
 10
315.1405973225127
 20
428.2785014819405
 10
315.1428253225128
 20
428.2775244819405
 10
315.1683683225127
 20
428.2731304819405
 10
315.5886873225127
 20
428.2546974819405
 10
316.4631383225127
 20
428.2410864819405
  0
LWPOLYLINE
  5
572
330
1F
100
AcDbEntity
  8
0
 62
   253
370
    35
100
AcDbPolyline
 90
        6
 70
     0
 43
0.0
 10
424.8160733225127
 20
428.2410864819405
 10
425.6672703225126
 20
428.2541484819405
 10
426.1042203225127
 20
428.2723974819405
 10
426.1356543225126
 20
428.2772804819404
 10
426.1384003225126
 20
428.2783794819405
 10
426.1396213225126
 20
428.2797834819405
  0
LWPOLYLINE
  5
573
330
1F
100
AcDbEntity
  8
0
 62
   253
370
    35
100
AcDbPolyline
 90
        4
 70
     0
 43
0.0
 10
474.3882173225126
 20
428.3492414819405
 10
475.6852143225127
 20
428.3362404819405
 10
475.8475073225127
 20
428.3290994819404
 10
475.8825413225126
 20
428.3253154819404
  0
LWPOLYLINE
  5
574
330
1F
100
AcDbEntity
  8
0
 62
     7
370
    35
100
AcDbPolyline
 90
        5
 70
     0
 43
0.0
 10
57.7422363225127
 20
597.0314924819405
 10
57.1468083225127
 20
597.0363134819405
 10
56.93951732251269
 20
597.0414404819405
 10
56.93199432251269
 20
597.0422954819404
 10
56.9308503225127
 20
597.0427224819405
  0
LWPOLYLINE
  5
575
330
1F
100
AcDbEntity
  8
0
 62
     7
370
    35
100
AcDbPolyline
 90
        5
 70
     0
 43
0.0
 10
503.5370213225127
 20
597.0314924819405
 10
504.1324193225126
 20
597.0363134819405
 10
504.3397553225126
 20
597.0414404819405
 10
504.3472623225127
 20
597.0422954819404
 10
504.3484223225126
 20
597.0427224819405
  0
LWPOLYLINE
  5
576
330
1F
100
AcDbEntity
  8
0
 62
     7
370
    35
100
AcDbPolyline
 90
        4
 70
     0
 43
0.0
 10
55.69758932251269
 20
388.0427224819405
 10
55.7008543225127
 20
388.0419594819405
 10
55.72235432251269
 20
388.0404644819405
 10
56.4475283225127
 20
388.0314924819405
  0
LWPOLYLINE
  5
577
330
1F
100
AcDbEntity
  8
0
 62
     7
370
    35
100
AcDbPolyline
 90
        4
 70
     0
 43
0.0
 10
55.69758932251269
 20
584.7463354819406
 10
55.7008543225127
 20
584.7471294819405
 10
55.72235432251269
 20
584.7485944819405
 10
56.4475283225127
 20
584.7575664819405
  0
LWPOLYLINE
  5
578
330
1F
100
AcDbEntity
  8
0
 62
     7
370
    35
100
AcDbPolyline
 90
        5
 70
     0
 43
0.0
 10
60.76646732251269
 20
597.0103734819405
 10
60.7642553225127
 20
597.0109844819405
 10
60.74866032251269
 20
597.0121434819406
 10
60.61720632251269
 20
597.0156224819405
 10
59.91948232251269
 20
597.0215434819404
  0
LWPOLYLINE
  5
579
330
1F
100
AcDbEntity
  8
0
 62
     7
370
    35
100
AcDbPolyline
 90
        4
 70
     0
 43
0.0
 10
55.69758932251269
 20
69.04272248194051
 10
55.7008543225127
 20
69.04195948194052
 10
55.72235432251269
 20
69.04046448194051
 10
56.4475283225127
 20
69.03149248194051
  0
LWPOLYLINE
  5
57A
330
1F
100
AcDbEntity
  8
0
 62
     7
370
    35
100
AcDbPolyline
 90
        4
 70
     0
 43
0.0
 10
55.69758932251269
 20
375.7463354819405
 10
55.7008543225127
 20
375.7470984819405
 10
55.72235432251269
 20
375.7485944819405
 10
56.4475283225127
 20
375.7575664819406
  0
LWPOLYLINE
  5
57B
330
1F
100
AcDbEntity
  8
0
 62
     7
370
    35
100
AcDbPolyline
 90
        5
 70
     0
 43
0.0
 10
57.7422363225127
 20
56.75756648194052
 10
57.1468083225127
 20
56.75277548194052
 10
56.93951732251269
 20
56.74761748194052
 10
56.93199432251269
 20
56.74676348194052
 10
56.9308503225127
 20
56.74633548194051
  0
LWPOLYLINE
  5
57C
330
1F
100
AcDbEntity
  8
0
 62
     7
370
    35
100
AcDbPolyline
 90
        5
 70
     0
 43
0.0
 10
500.5127903225127
 20
597.0103734819405
 10
500.5149873225126
 20
597.0109844819405
 10
500.5305513225127
 20
597.0121434819406
 10
500.6620213225127
 20
597.0156224819405
 10
501.3597753225127
 20
597.0215434819404
  0
LWPOLYLINE
  5
57D
330
1F
100
AcDbEntity
  8
0
 62
     7
370
    35
100
AcDbPolyline
 90
        4
 70
     0
 43
0.0
 10
505.5816373225127
 20
584.7463354819406
 10
505.5784033225127
 20
584.7471294819405
 10
505.5569183225127
 20
584.7485944819405
 10
504.8316983225126
 20
584.7575664819405
  0
LWPOLYLINE
  5
57E
330
1F
100
AcDbEntity
  8
0
 62
     7
370
    35
100
AcDbPolyline
 90
        4
 70
     0
 43
0.0
 10
505.5816373225127
 20
388.0427224819405
 10
505.5784033225127
 20
388.0419594819405
 10
505.5569183225127
 20
388.0404644819405
 10
504.8316983225126
 20
388.0314924819405
  0
LWPOLYLINE
  5
57F
330
1F
100
AcDbEntity
  8
0
 62
     7
370
    35
100
AcDbPolyline
 90
        4
 70
     0
 43
0.0
 10
58.41455432251269
 20
375.7674844819405
 10
59.13992632251269
 20
375.7764564819405
 10
59.16125832251269
 20
375.7779524819405
 10
59.1644933225127
 20
375.7786844819406
  0
LWPOLYLINE
  5
580
330
1F
100
AcDbEntity
  8
0
 62
     7
370
    35
100
AcDbPolyline
 90
        4
 70
     0
 43
0.0
 10
58.41455432251269
 20
69.02157348194052
 10
59.13992632251269
 20
69.01260148194052
 10
59.16125832251269
 20
69.01110648194052
 10
59.1644933225127
 20
69.01037348194051
  0
LWPOLYLINE
  5
581
330
1F
100
AcDbEntity
  8
0
 62
     7
370
    35
100
AcDbPolyline
 90
        4
 70
     0
 43
0.0
 10
58.41455432251269
 20
388.0215734819405
 10
59.13992632251269
 20
388.0126014819405
 10
59.16125832251269
 20
388.0111064819405
 10
59.1644933225127
 20
388.0103734819405
  0
LWPOLYLINE
  5
582
330
1F
100
AcDbEntity
  8
0
 62
     7
370
    35
100
AcDbPolyline
 90
        4
 70
     0
 43
0.0
 10
58.41455432251269
 20
584.7675154819405
 10
59.13992632251269
 20
584.7764264819406
 10
59.16125832251269
 20
584.7779524819405
 10
59.1644933225127
 20
584.7786844819405
  0
LWPOLYLINE
  5
583
330
1F
100
AcDbEntity
  8
0
 62
     7
370
    35
100
AcDbPolyline
 90
        8
 70
     0
 43
0.0
 10
59.25569432251269
 20
590.8945294819406
 10
59.25014032251269
 20
588.1826764819406
 10
59.23331032251269
 20
585.9238874819405
 10
59.21478632251269
 20
584.9603864819405
 10
59.20781232251269
 20
584.8256204819405
 10
59.20427232251269
 20
584.7980934819405
 10
59.20346432251269
 20
584.7955914819404
 10
59.20245732251269
 20
584.7944924819405
  0
LWPOLYLINE
  5
584
330
1F
100
AcDbEntity
  8
0
 62
     7
370
    35
100
AcDbPolyline
 90
       13
 70
     0
 43
0.0
 10
60.80112032251268
 20
596.9945654819404
 10
60.8016693225127
 20
596.9935284819405
 10
60.80139432251269
 20
596.9917584819405
 10
60.79939632251269
 20
596.9855324819405
 10
60.76633032251269
 20
596.9146094819405
 10
60.4764593225127
 20
596.3225684819405
 10
60.14534332251269
 20
595.5541364819405
 10
59.97435332251269
 20
595.0953954819405
 10
59.76387332251269
 20
594.4406104819405
 10
59.57825032251268
 20
593.7293684819406
 10
59.40368932251269
 20
592.8208594819405
 10
59.29338432251269
 20
591.8687114819404
 10
59.25569432251269
 20
590.8945294819406
  0
LWPOLYLINE
  5
585
330
1F
100
AcDbEntity
  8
0
 62
     7
370
    35
100
AcDbPolyline
 90
       14
 70
     0
 43
0.0
 10
59.20245732251269
 20
387.9945354819405
 10
59.20378432251268
 20
387.9926434819405
 10
59.20642432251269
 20
387.9775374819406
 10
59.21423632251268
 20
387.8433204819405
 10
59.23472932251269
 20
386.7450844819405
 10
59.25181932251269
 20
384.1754134819405
 10
59.25529832251269
 20
381.1571024819406
 10
59.24264832251269
 20
377.8955364819406
 10
59.22963232251269
 20
376.6491984819405
 10
59.21316832251269
 20
375.9192174819406
 10
59.20715632251269
 20
375.8183264819405
 10
59.20410432251269
 20
375.7974524819405
 10
59.20337232251269
 20
375.7954384819405
 10
59.20245732251269
 20
375.7945234819405
  0
LWPOLYLINE
  5
586
330
1F
100
AcDbEntity
  8
0
 62
     7
370
    35
100
AcDbPolyline
 90
        5
 70
     0
 43
0.0
 10
60.76646732251269
 20
56.77868448194051
 10
60.7642553225127
 20
56.77807448194052
 10
60.74866032251269
 20
56.77688348194052
 10
60.61720632251269
 20
56.77343548194052
 10
59.91948232251269
 20
56.76748448194052
  0
LWPOLYLINE
  5
587
330
1F
100
AcDbEntity
  8
0
 62
     7
370
    35
100
AcDbPolyline
 90
        4
 70
     0
 43
0.0
 10
505.5816373225127
 20
375.7463354819405
 10
505.5784033225127
 20
375.7470984819405
 10
505.5569183225127
 20
375.7485944819405
 10
504.8316983225126
 20
375.7575664819406
  0
LWPOLYLINE
  5
588
330
1F
100
AcDbEntity
  8
0
 62
     7
370
    35
100
AcDbPolyline
 90
        4
 70
     0
 43
0.0
 10
505.5816373225127
 20
69.04272248194051
 10
505.5784033225127
 20
69.04195948194052
 10
505.5569183225127
 20
69.04046448194051
 10
504.8316983225126
 20
69.03149248194051
  0
LWPOLYLINE
  5
589
330
1F
100
AcDbEntity
  8
0
 62
     7
370
    35
100
AcDbPolyline
 90
        4
 70
     0
 43
0.0
 10
502.8646573225127
 20
69.02157348194052
 10
502.1393163225127
 20
69.01260148194052
 10
502.1179533225127
 20
69.01110648194052
 10
502.1147803225127
 20
69.01037348194051
  0
LWPOLYLINE
  5
58A
330
1F
100
AcDbEntity
  8
0
 62
     7
370
    35
100
AcDbPolyline
 90
        4
 70
     0
 43
0.0
 10
502.8646573225127
 20
375.7674844819405
 10
502.1393163225127
 20
375.7764564819405
 10
502.1179533225127
 20
375.7779524819405
 10
502.1147803225127
 20
375.7786844819406
  0
LWPOLYLINE
  5
58B
330
1F
100
AcDbEntity
  8
0
 62
     7
370
    35
100
AcDbPolyline
 90
       13
 70
     0
 43
0.0
 10
500.4781223225127
 20
596.9945654819404
 10
500.4775723225127
 20
596.9935284819405
 10
500.4778173225126
 20
596.9917584819405
 10
500.4798313225127
 20
596.9855324819405
 10
500.5129123225126
 20
596.9146094819405
 10
500.8027683225127
 20
596.3225684819405
 10
501.1338843225127
 20
595.5541364819405
 10
501.3049043225127
 20
595.0953954819405
 10
501.5153533225127
 20
594.4406104819405
 10
501.7009613225127
 20
593.7293684819406
 10
501.8755223225126
 20
592.8208594819405
 10
501.9858733225126
 20
591.8687114819404
 10
502.0235323225127
 20
590.8945294819406
  0
LWPOLYLINE
  5
58C
330
1F
100
AcDbEntity
  8
0
 62
     7
370
    35
100
AcDbPolyline
 90
        8
 70
     0
 43
0.0
 10
502.0235323225127
 20
590.8945294819406
 10
502.0290863225127
 20
588.1826764819406
 10
502.0459323225127
 20
585.9238874819405
 10
502.0644873225127
 20
584.9603864819405
 10
502.0714453225126
 20
584.8256204819405
 10
502.0749853225127
 20
584.7980934819405
 10
502.0757783225128
 20
584.7955914819404
 10
502.0768163225127
 20
584.7944924819405
  0
LWPOLYLINE
  5
58D
330
1F
100
AcDbEntity
  8
0
 62
     7
370
    35
100
AcDbPolyline
 90
        4
 70
     0
 43
0.0
 10
502.8646573225127
 20
584.7675154819405
 10
502.1393163225127
 20
584.7764264819406
 10
502.1179533225127
 20
584.7779524819405
 10
502.1147803225127
 20
584.7786844819405
  0
LWPOLYLINE
  5
58E
330
1F
100
AcDbEntity
  8
0
 62
     7
370
    35
100
AcDbPolyline
 90
        4
 70
     0
 43
0.0
 10
502.8646573225127
 20
388.0215734819405
 10
502.1393163225127
 20
388.0126014819405
 10
502.1179533225127
 20
388.0111064819405
 10
502.1147803225127
 20
388.0103734819405
  0
LWPOLYLINE
  5
58F
330
1F
100
AcDbEntity
  8
0
 62
     7
370
    35
100
AcDbPolyline
 90
       14
 70
     0
 43
0.0
 10
502.0768163225127
 20
387.9945354819405
 10
502.0754733225126
 20
387.9926434819405
 10
502.0727873225126
 20
387.9775374819406
 10
502.0649753225127
 20
387.8433204819405
 10
502.0445283225127
 20
386.7450844819405
 10
502.0274383225126
 20
384.1754134819405
 10
502.0239593225126
 20
381.1571024819406
 10
502.0365933225126
 20
377.8955364819406
 10
502.0495943225126
 20
376.6491984819405
 10
502.0660733225127
 20
375.9192174819406
 10
502.0720553225126
 20
375.8183264819405
 10
502.0751073225127
 20
375.7974524819405
 10
502.0758393225126
 20
375.7954384819405
 10
502.0768163225127
 20
375.7945234819405
  0
LWPOLYLINE
  5
590
330
1F
100
AcDbEntity
  8
0
 62
     7
370
    35
100
AcDbPolyline
 90
        5
 70
     0
 43
0.0
 10
500.5127903225127
 20
56.77868448194051
 10
500.5149873225126
 20
56.77807448194052
 10
500.5305513225127
 20
56.77688348194052
 10
500.6620213225127
 20
56.77343548194052
 10
501.3597753225127
 20
56.76748448194052
  0
LWPOLYLINE
  5
591
330
1F
100
AcDbEntity
  8
0
 62
     7
370
    35
100
AcDbPolyline
 90
        5
 70
     0
 43
0.0
 10
503.5370213225127
 20
56.75756648194052
 10
504.1324193225126
 20
56.75277548194052
 10
504.3397553225126
 20
56.74761748194052
 10
504.3472623225127
 20
56.74676348194052
 10
504.3484223225126
 20
56.74633548194051
  0
LWPOLYLINE
  5
592
330
1F
100
AcDbEntity
  8
0
 62
     7
370
    35
100
AcDbPolyline
 90
       13
 70
     0
 43
0.0
 10
60.80112032251268
 20
56.79452348194051
 10
60.8016693225127
 20
56.79553048194051
 10
60.80139432251269
 20
56.79730048194052
 10
60.79939632251269
 20
56.80349548194051
 10
60.76633032251269
 20
56.87447948194051
 10
60.4764593225127
 20
57.46652048194052
 10
60.14534332251269
 20
58.23495248194053
 10
59.97435332251269
 20
58.69369348194052
 10
59.76387332251269
 20
59.34847848194052
 10
59.57825032251268
 20
60.05969048194052
 10
59.40368932251269
 20
60.96816848194052
 10
59.29338432251269
 20
61.92034748194052
 10
59.25569432251269
 20
62.89452948194052
  0
LWPOLYLINE
  5
593
330
1F
100
AcDbEntity
  8
0
 62
     7
370
    35
100
AcDbPolyline
 90
        8
 70
     0
 43
0.0
 10
59.25569432251269
 20
62.89452948194052
 10
59.25014032251269
 20
65.60638248194052
 10
59.23331032251269
 20
67.86517148194052
 10
59.21478632251269
 20
68.82864148194052
 10
59.20781232251269
 20
68.96346848194053
 10
59.20427232251269
 20
68.99096448194052
 10
59.20346432251269
 20
68.99343648194052
 10
59.20245732251269
 20
68.99453548194052
  0
LWPOLYLINE
  5
594
330
1F
100
AcDbEntity
  8
0
 62
     7
370
    35
100
AcDbPolyline
 90
        8
 70
     0
 43
0.0
 10
502.0235323225127
 20
62.89452948194052
 10
502.0290863225127
 20
65.60638248194052
 10
502.0459323225127
 20
67.86517148194052
 10
502.0644873225127
 20
68.82864148194052
 10
502.0714453225126
 20
68.96346848194053
 10
502.0749853225127
 20
68.99096448194052
 10
502.0757783225128
 20
68.99343648194052
 10
502.0768163225127
 20
68.99453548194052
  0
LWPOLYLINE
  5
595
330
1F
100
AcDbEntity
  8
0
 62
     7
370
    35
100
AcDbPolyline
 90
       13
 70
     0
 43
0.0
 10
500.4781223225127
 20
56.79452348194051
 10
500.4775723225127
 20
56.79553048194051
 10
500.4778173225126
 20
56.79730048194052
 10
500.4798313225127
 20
56.80349548194051
 10
500.5129123225126
 20
56.87447948194051
 10
500.8027683225127
 20
57.46652048194052
 10
501.1338843225127
 20
58.23495248194053
 10
501.3049043225127
 20
58.69369348194052
 10
501.5153533225127
 20
59.34847848194052
 10
501.7009613225127
 20
60.05969048194052
 10
501.8755223225126
 20
60.96816848194052
 10
501.9858733225126
 20
61.92034748194052
 10
502.0235323225127
 20
62.89452948194052
  0
LWPOLYLINE
  5
596
330
1F
100
AcDbEntity
  8
0
 62
     7
370
    35
100
AcDbPolyline
 90
       15
 70
     0
 43
0.0
 10
489.6396213225126
 20
52.49105648194052
 10
490.4430273225126
 20
52.52145148194052
 10
491.2254973225126
 20
52.61010548194052
 10
491.9747653225126
 20
52.75109648194052
 10
492.6588473225126
 20
52.92971548194052
 10
493.3077733225127
 20
53.14568848194052
 10
493.9221533225127
 20
53.39477348194051
 10
494.3465303225126
 20
53.59405348194052
 10
494.7557103225126
 20
53.80880548194053
 10
495.1568333225127
 20
54.04244748194052
 10
495.5433683225127
 20
54.29107448194052
 10
496.2604093225126
 20
54.82055448194052
 10
496.9253263225126
 20
55.40484448194052
 10
497.5379973225126
 20
56.04287548194052
 10
498.0682103225126
 20
56.69524948194052
  0
LWPOLYLINE
  5
597
330
1F
100
AcDbEntity
  8
0
 62
     7
370
    35
100
AcDbPolyline
 90
       20
 70
     0
 43
0.0
 10
479.1316253225127
 20
62.89452948194052
 10
479.1604953225126
 20
63.72659048194051
 10
479.2575413225127
 20
64.56677048194052
 10
479.4250823225127
 20
65.40853648194051
 10
479.6647673225127
 20
66.24474848194052
 10
479.9772063225126
 20
67.06780848194052
 10
480.3618503225127
 20
67.86980948194052
 10
480.8056973225127
 20
68.62463148194052
 10
481.3144263225126
 20
69.34429748194052
 10
481.8847993225126
 20
70.02206248194053
 10
482.5128513225126
 20
70.65167048194052
 10
483.1940033225126
 20
71.22746048194051
 10
483.9230073225126
 20
71.74441348194051
 10
484.6652563225127
 20
72.18253848194052
 10
485.4415623225126
 20
72.55871348194052
 10
486.2464933225127
 20
72.87017648194051
 10
487.0744963225127
 20
73.11469848194052
 10
487.9198333225126
 20
73.29055548194052
 10
488.7768283225126
 20
73.39654348194051
 10
489.6396213225126
 20
73.4319594819405
  0
LWPOLYLINE
  5
598
330
1F
100
AcDbEntity
  8
0
 62
     7
370
    35
100
AcDbPolyline
 90
       20
 70
     0
 43
0.0
 10
479.1316253225127
 20
590.8945294819406
 10
479.1604953225126
 20
590.0624364819405
 10
479.2575413225127
 20
589.2222884819404
 10
479.4250823225127
 20
588.3805524819405
 10
479.6647673225127
 20
587.5443094819405
 10
479.9772063225126
 20
586.7212504819405
 10
480.3618503225127
 20
585.9192484819406
 10
480.8056973225127
 20
585.1644264819404
 10
481.3144263225126
 20
584.4447614819405
 10
481.8847993225126
 20
583.7670264819405
 10
482.5128513225126
 20
583.1373884819405
 10
483.1940033225126
 20
582.5615824819406
 10
483.9230073225126
 20
582.0446144819405
 10
484.6652563225127
 20
581.6065044819405
 10
485.4415623225126
 20
581.2303444819405
 10
486.2464933225127
 20
580.9188824819405
 10
487.0744963225127
 20
580.6743754819405
 10
487.9198333225126
 20
580.4984724819405
 10
488.7768283225126
 20
580.3925154819405
 10
489.6396213225126
 20
580.3571144819406
  0
LWPOLYLINE
  5
599
330
1F
100
AcDbEntity
  8
0
 62
     7
370
    35
100
AcDbPolyline
 90
       15
 70
     0
 43
0.0
 10
489.6396213225126
 20
601.2980324819405
 10
490.4430273225126
 20
601.2676374819406
 10
491.2254973225126
 20
601.1789534819405
 10
491.9747653225126
 20
601.0379614819405
 10
492.6588473225126
 20
600.8593114819404
 10
493.3077733225127
 20
600.6433694819405
 10
493.9221533225127
 20
600.3942854819405
 10
494.3465303225126
 20
600.1950054819405
 10
494.7557103225126
 20
599.9802834819405
 10
495.1568333225127
 20
599.7466414819405
 10
495.5433683225127
 20
599.4979834819405
 10
496.2604093225126
 20
598.9685034819404
 10
496.9253263225126
 20
598.3842144819406
 10
497.5379973225126
 20
597.7461524819404
 10
498.0682103225126
 20
597.0938094819405
  0
LWPOLYLINE
  5
59A
330
1F
100
AcDbEntity
  8
0
 62
     7
370
    35
100
AcDbPolyline
 90
       15
 70
     0
 43
0.0
 10
71.6396213225127
 20
601.2980324819405
 10
70.83618532251269
 20
601.2676374819406
 10
70.0537443225127
 20
601.1789534819405
 10
69.30446232251269
 20
601.0379614819405
 10
68.62042532251269
 20
600.8593114819404
 10
67.97145432251269
 20
600.6433694819405
 10
67.35707432251269
 20
600.3942854819405
 10
66.93269632251269
 20
600.1950054819405
 10
66.52351732251268
 20
599.9802834819405
 10
66.12239432251269
 20
599.7466414819405
 10
65.73584332251269
 20
599.4979834819405
 10
65.0188023225127
 20
598.9685034819404
 10
64.35391532251269
 20
598.3842144819406
 10
63.74126032251269
 20
597.7461524819404
 10
63.21101732251269
 20
597.0938094819405
  0
LWPOLYLINE
  5
59B
330
1F
100
AcDbEntity
  8
0
 62
     7
370
    35
100
AcDbPolyline
 90
       20
 70
     0
 43
0.0
 10
82.1476323225127
 20
590.8945294819406
 10
82.11874732251269
 20
590.0624364819405
 10
82.02170132251268
 20
589.2222884819404
 10
81.85412932251269
 20
588.3805524819405
 10
81.6144743225127
 20
587.5443094819405
 10
81.30206632251271
 20
586.7212504819405
 10
80.91736132251268
 20
585.9192484819406
 10
80.47354432251269
 20
585.1644264819404
 10
79.96481632251269
 20
584.4447614819405
 10
79.39444332251269
 20
583.7670264819405
 10
78.76637632251268
 20
583.1373884819405
 10
78.08525432251269
 20
582.5615824819406
 10
77.3562043225127
 20
582.0446144819405
 10
76.61398632251269
 20
581.6065044819405
 10
75.83771032251269
 20
581.2303444819405
 10
75.03277932251269
 20
580.9188824819405
 10
74.20477632251269
 20
580.6743754819405
 10
73.35939332251268
 20
580.4984724819405
 10
72.5023993225127
 20
580.3925154819405
 10
71.6396213225127
 20
580.3571144819406
  0
LWPOLYLINE
  5
59C
330
1F
100
AcDbEntity
  8
0
 62
     7
370
    35
100
AcDbPolyline
 90
       15
 70
     0
 43
0.0
 10
71.6396213225127
 20
52.49105648194052
 10
70.83618532251269
 20
52.52145148194052
 10
70.0537443225127
 20
52.61010548194052
 10
69.30446232251269
 20
52.75109648194052
 10
68.62042532251269
 20
52.92971548194052
 10
67.97145432251269
 20
53.14568848194052
 10
67.35707432251269
 20
53.39477348194051
 10
66.93269632251269
 20
53.59405348194052
 10
66.52351732251268
 20
53.80880548194053
 10
66.12239432251269
 20
54.04244748194052
 10
65.73584332251269
 20
54.29107448194052
 10
65.0188023225127
 20
54.82055448194052
 10
64.35391532251269
 20
55.40484448194052
 10
63.74126032251269
 20
56.04287548194052
 10
63.21101732251269
 20
56.69524948194052
  0
LWPOLYLINE
  5
59D
330
1F
100
AcDbEntity
  8
0
 62
     7
370
    35
100
AcDbPolyline
 90
       20
 70
     0
 43
0.0
 10
82.1476323225127
 20
62.89452948194052
 10
82.11874732251269
 20
63.72659048194051
 10
82.02170132251268
 20
64.56677048194052
 10
81.85412932251269
 20
65.40853648194051
 10
81.6144743225127
 20
66.24474848194052
 10
81.30206632251271
 20
67.06780848194052
 10
80.91736132251268
 20
67.86980948194052
 10
80.47354432251269
 20
68.62463148194052
 10
79.96481632251269
 20
69.34429748194052
 10
79.39444332251269
 20
70.02206248194053
 10
78.76637632251268
 20
70.65167048194052
 10
78.08525432251269
 20
71.22746048194051
 10
77.3562043225127
 20
71.74441348194051
 10
76.61398632251269
 20
72.18253848194052
 10
75.83771032251269
 20
72.55871348194052
 10
75.03277932251269
 20
72.87017648194051
 10
74.20477632251269
 20
73.11469848194052
 10
73.35939332251268
 20
73.29055548194052
 10
72.5023993225127
 20
73.39654348194051
 10
71.6396213225127
 20
73.4319594819405
  0
INSERT
  5
59E
330
1F
100
AcDbEntity
  8
0
 62
    56
100
AcDbBlockReference
  2
IBvert
 10
59.50181144251269
 20
141.3422886219405
 30
0.0
  0
INSERT
  5
59F
330
1F
100
AcDbEntity
  8
0
 62
    56
100
AcDbBlockReference
  2
IBvert
 10
166.1662614425127
 20
141.3422886219405
 30
0.0
  0
INSERT
  5
5A0
330
1F
100
AcDbEntity
  8
0
 62
    56
100
AcDbBlockReference
  2
IBvert
 10
272.8307114425127
 20
141.3422886219405
 30
0.0
  0
INSERT
  5
5A1
330
1F
100
AcDbEntity
  8
0
 62
    56
100
AcDbBlockReference
  2
IBvert
 10
379.4952114425127
 20
141.3422886219405
 30
0.0
  0
INSERT
  5
5A2
330
1F
100
AcDbEntity
  8
0
 62
    56
100
AcDbBlockReference
  2
IEC_309_16
 10
84.49157803251269
 20
34.82831541194052
 30
0.0
 42
0.9998528799999988
  0
INSERT
  5
5A3
330
1F
100
AcDbEntity
  8
0
 62
    56
100
AcDbBlockReference
  2
IEC_309_16
 10
173.3627780325127
 20
34.82831541194052
 30
0.0
 42
0.9998528799999988
  0
INSERT
  5
5A4
330
1F
100
AcDbEntity
  8
0
 62
    56
100
AcDbBlockReference
  2
IEC_309_16
 10
262.2339780325127
 20
34.82831541194052
 30
0.0
 42
0.9998528799999988
  0
INSERT
  5
5A5
330
1F
100
AcDbEntity
  8
0
 62
    56
100
AcDbBlockReference
  2
IEC_309_16
 10
351.1051780325126
 20
34.82831541194052
 30
0.0
 42
0.9998528799999988
  0
ENDSEC
  0
SECTION
  2
OBJECTS
  0
DICTIONARY
  5
C
330
0
100
AcDbDictionary
281
     1
  3
ACAD_COLOR
350
73
  3
ACAD_GROUP
350
D
  3
ACAD_LAYOUT
350
1A
  3
ACAD_MATERIAL
350
72
  3
ACAD_MLEADERSTYLE
350
D7
  3
ACAD_MLINESTYLE
350
17
  3
ACAD_PLOTSETTINGS
350
19
  3
ACAD_PLOTSTYLENAME
350
E
  3
ACAD_SCALELIST
350
B6
  3
ACAD_TABLESTYLE
350
86
  3
ACAD_VISUALSTYLE
350
99
  3
ACDB_RECOMPOSE_DATA
350
FF
  3
AcDbVariableDictionary
350
66
  3
DWGPROPS
350
5E2
  0
DICTIONARY
  5
E6
330
10
100
AcDbDictionary
280
     1
281
     1
  3
ADSK_XREC_LAYER_RECONCILED
360
5D8
  0
DICTIONARY
  5
5D9
330
183
100
AcDbDictionary
280
     1
281
     1
  3
ADSK_XREC_LAYER_RECONCILED
360
5DA
  0
DICTIONARY
  5
5DB
330
184
100
AcDbDictionary
280
     1
281
     1
  3
ADSK_XREC_LAYER_RECONCILED
360
5DC
  0
DICTIONARY
  5
73
102
{ACAD_REACTORS
330
C
102
}
330
C
100
AcDbDictionary
281
     1
  0
DICTIONARY
  5
D
102
{ACAD_REACTORS
330
C
102
}
330
C
100
AcDbDictionary
281
     1
  0
DICTIONARY
  5
1A
102
{ACAD_REACTORS
330
C
102
}
330
C
100
AcDbDictionary
281
     1
  3
Layout1
350
59
  3
Layout2
350
5E
  3
Model
350
22
  0
DICTIONARY
  5
72
102
{ACAD_REACTORS
330
C
102
}
330
C
100
AcDbDictionary
281
     1
  3
ByBlock
350
97
  3
ByLayer
350
96
  3
Global
350
98
  0
DICTIONARY
  5
D7
102
{ACAD_REACTORS
330
C
102
}
330
C
100
AcDbDictionary
281
     1
  3
Annotativa
350
E5
  3
Standard
350
D8
  0
DICTIONARY
  5
17
102
{ACAD_REACTORS
330
C
102
}
330
C
100
AcDbDictionary
281
     1
  3
Standard
350
18
  0
DICTIONARY
  5
19
102
{ACAD_REACTORS
330
C
102
}
330
C
100
AcDbDictionary
281
     1
  0
ACDBDICTIONARYWDFLT
  5
E
102
{ACAD_REACTORS
330
C
102
}
330
C
100
AcDbDictionary
281
     1
  3
Normal
350
F
100
AcDbDictionaryWithDefault
340
F
  0
DICTIONARY
  5
B6
102
{ACAD_REACTORS
330
C
102
}
330
C
100
AcDbDictionary
281
     1
  3
A0
350
B7
  3
A1
350
124
  3
A2
350
125
  3
A3
350
126
  3
A4
350
127
  3
A5
350
128
  3
A6
350
129
  3
A7
350
12A
  3
A8
350
12B
  3
A9
350
12C
  3
B0
350
12D
  3
B1
350
12E
  3
B2
350
12F
  3
B3
350
130
  3
B4
350
131
  3
B5
350
132
  3
B6
350
133
  3
B7
350
134
  3
B8
350
135
  3
B9
350
136
  3
C0
350
137
  3
C1
350
138
  3
C2
350
139
  3
C3
350
13A
  3
C4
350
13B
  3
C5
350
13C
  3
C6
350
13D
  3
C7
350
13E
  3
C8
350
13F
  3
C9
350
140
  3
D0
350
141
  3
D1
350
142
  3
D2
350
143
  0
DICTIONARY
  5
86
102
{ACAD_REACTORS
330
C
102
}
330
C
100
AcDbDictionary
281
     1
  3
Standard
350
87
  0
DICTIONARY
  5
99
102
{ACAD_REACTORS
330
C
102
}
330
C
100
AcDbDictionary
281
     1
  3
2dWireframe
350
9F
  3
3D Hidden
350
A1
  3
3dWireframe
350
A0
  3
Basic
350
9E
  3
Brighten
350
A5
  3
ColorChange
350
A9
  3
Conceptual
350
A2
  3
Dim
350
A4
  3
Facepattern
350
A8
  3
Flat
350
9A
  3
FlatWithEdges
350
9B
  3
Gouraud
350
9C
  3
GouraudWithEdges
350
9D
  3
Linepattern
350
A7
  3
Realistic
350
A3
  3
Thicken
350
A6
  0
XRECORD
  5
FF
102
{ACAD_REACTORS
330
C
102
}
330
C
100
AcDbXrecord
280
     1
 90
        1
330
87
  0
DICTIONARY
  5
66
102
{ACAD_REACTORS
330
C
102
}
330
C
100
AcDbDictionary
281
     1
  3
CANNOSCALE
350
F0
  3
CMLEADERSTYLE
350
EF
  3
CTABLESTYLE
350
89
  3
DIMASSOC
350
67
  3
HIDETEXT
350
6B
  3
INDEXCTL
350
5E0
  3
LIGHTINGUNITS
350
5DE
  3
MSLTSCALE
350
5DD
  3
SORTENTS
350
5DF
  0
XRECORD
  5
5E2
102
{ACAD_REACTORS
330
C
102
}
330
C
100
AcDbXrecord
280
     1
  1
DWGPROPS COOKIE
  2

  3

  4

  6

  7

  8
fontanaNZ
  9

300
=
301
=
302
=
303
=
304
=
305
=
306
=
307
=
308
=
309
=
 40
0.0001298148148148
 41
2455511.36167066
 42
2455511.36180029
  1

 90
        0
  0
XRECORD
  5
5D8
102
{ACAD_REACTORS
330
E6
102
}
330
E6
100
AcDbXrecord
280
     1
290
     1
  0
XRECORD
  5
5DA
102
{ACAD_REACTORS
330
5D9
102
}
330
5D9
100
AcDbXrecord
280
     1
290
     1
  0
XRECORD
  5
5DC
102
{ACAD_REACTORS
330
5DB
102
}
330
5DB
100
AcDbXrecord
280
     1
290
     1
  0
LAYOUT
  5
59
102
{ACAD_XDICTIONARY
360
5E5
102
}
102
{ACAD_REACTORS
330
1A
102
}
330
1A
100
AcDbPlotSettings
  1

  2
None
  4

  6

 40
0.0
 41
0.0
 42
0.0
 43
0.0
 44
0.0
 45
0.0
 46
0.0
 47
0.0
 48
0.0
 49
0.0
140
0.0
141
0.0
142
1.0
143
1.0
 70
   688
 72
     0
 73
     0
 74
     5
  7

 75
    16
147
1.0
148
0.0
149
0.0
100
AcDbLayout
  1
Layout1
 70
     1
 71
     1
 10
0.0
 20
0.0
 11
12.0
 21
9.0
 12
0.0
 22
0.0
 32
0.0
 14
0.0
 24
0.0
 34
0.0
 15
0.0
 25
0.0
 35
0.0
146
0.0
 13
0.0
 23
0.0
 33
0.0
 16
1.0
 26
0.0
 36
0.0
 17
0.0
 27
1.0
 37
0.0
 76
     0
330
58
  0
LAYOUT
  5
5E
102
{ACAD_XDICTIONARY
360
5E7
102
}
102
{ACAD_REACTORS
330
1A
102
}
330
1A
100
AcDbPlotSettings
  1

  2
None
  4

  6

 40
0.0
 41
0.0
 42
0.0
 43
0.0
 44
0.0
 45
0.0
 46
0.0
 47
0.0
 48
0.0
 49
0.0
140
0.0
141
0.0
142
1.0
143
1.0
 70
   688
 72
     0
 73
     0
 74
     5
  7

 75
    16
147
1.0
148
0.0
149
0.0
100
AcDbLayout
  1
Layout2
 70
     1
 71
     2
 10
0.0
 20
0.0
 11
12.0
 21
9.0
 12
0.0
 22
0.0
 32
0.0
 14
0.0
 24
0.0
 34
0.0
 15
0.0
 25
0.0
 35
0.0
146
0.0
 13
0.0
 23
0.0
 33
0.0
 16
1.0
 26
0.0
 36
0.0
 17
0.0
 27
1.0
 37
0.0
 76
     0
330
5D
  0
LAYOUT
  5
22
102
{ACAD_XDICTIONARY
360
5E3
102
}
102
{ACAD_REACTORS
330
1A
102
}
330
1A
100
AcDbPlotSettings
  1

  2
none_device
  4
ANSI_A_(8.50_x_11.00_Inches)
  6

 40
6.349999904632568
 41
19.04999923706055
 42
6.350006103515625
 43
19.04998779296875
 44
215.8999938964844
 45
279.3999938964844
 46
0.0
 47
0.0
 48
0.0
 49
0.0
140
0.0
141
0.0
142
1.0
143
2.584895464708373
 70
 11952
 72
     0
 73
     1
 74
     0
  7

 75
     0
147
0.3868628397755418
148
0.0
149
0.0
100
AcDbLayout
  1
Model
 70
     1
 71
     0
 10
0.0
 20
0.0
 11
12.0
 21
9.0
 12
0.0
 22
0.0
 32
0.0
 14
0.0
 24
0.0
 34
0.0
 15
0.0
 25
0.0
 35
0.0
146
0.0
 13
0.0
 23
0.0
 33
0.0
 16
1.0
 26
0.0
 36
0.0
 17
0.0
 27
1.0
 37
0.0
 76
     0
330
1F
331
94
  0
MATERIAL
  5
97
102
{ACAD_XDICTIONARY
360
5EC
102
}
102
{ACAD_REACTORS
330
72
102
}
330
72
100
AcDbMaterial
  1
ByBlock
  0
MATERIAL
  5
96
102
{ACAD_XDICTIONARY
360
5EA
102
}
102
{ACAD_REACTORS
330
72
102
}
330
72
100
AcDbMaterial
  1
ByLayer
  0
MATERIAL
  5
98
102
{ACAD_XDICTIONARY
360
110
102
}
102
{ACAD_REACTORS
330
72
102
}
330
72
100
AcDbMaterial
  1
Global
 43
0.0208000000566244
 43
0.0
 43
0.0
 43
0.0
 43
0.0
 43
0.0208000000566244
 43
0.0
 43
0.0
 43
0.0
 43
0.0
 43
1.0
 43
0.0
 43
0.0
 43
0.0
 43
0.0
 43
1.0
 49
0.0208000000566244
 49
0.0
 49
0.0
 49
0.0
 49
0.0
 49
0.0208000000566244
 49
0.0
 49
0.0
 49
0.0
 49
0.0
 49
1.0
 49
0.0
 49
0.0
 49
0.0
 49
0.0
 49
1.0
142
0.0208000000566244
142
0.0
142
0.0
142
0.0
142
0.0
142
0.0208000000566244
142
0.0
142
0.0
142
0.0
142
0.0
142
1.0
142
0.0
142
0.0
142
0.0
142
0.0
142
1.0
144
0.0208000000566244
144
0.0
144
0.0
144
0.0
144
0.0
144
0.0208000000566244
144
0.0
144
0.0
144
0.0
144
0.0
144
1.0
144
0.0
144
0.0
144
0.0
144
0.0
144
1.0
1001
ACAD
1070
    -1
1070
     3
1070
     0
1000

1071
        0
1070
     0
  0
MLEADERSTYLE
  5
E5
102
{ACAD_REACTORS
330
D7
102
}
330
D7
100
AcDbMLeaderStyle
170
     2
171
     1
172
     0
 90
        2
 40
0.0
 41
0.0
173
     1
 91
-1056964608
340
14
 92
       -2
290
     1
 42
0.09
291
     1
 43
0.36
  3
Standard
 44
0.18
300

342
11
174
     1
178
     1
175
     1
176
     0
 93
-1056964608
 45
0.18
292
     0
297
     0
 46
0.18
 94
-1056964608
 47
1.0
 49
1.0
140
1.0
293
     1
141
0.0
294
     1
177
     0
142
1.0
295
     0
296
     1
143
0.125
1001
ACAD_MLEADERVER
1070
     2
  0
MLEADERSTYLE
  5
D8
102
{ACAD_REACTORS
330
D7
102
}
330
D7
100
AcDbMLeaderStyle
170
     2
171
     1
172
     0
 90
        2
 40
0.0
 41
0.0
173
     1
 91
-1056964608
340
14
 92
       -2
290
     1
 42
0.09
291
     1
 43
0.36
  3
Standard
 44
0.18
300

342
11
174
     1
178
     1
175
     1
176
     0
 93
-1056964608
 45
0.18
292
     0
297
     0
 46
0.18
 94
-1056964608
 47
1.0
 49
1.0
140
1.0
293
     1
141
0.0
294
     1
177
     0
142
1.0
295
     0
296
     0
143
0.125
1001
ACAD_MLEADERVER
1070
     2
  0
MLINESTYLE
  5
18
102
{ACAD_REACTORS
330
17
102
}
330
17
100
AcDbMlineStyle
  2
STANDARD
 70
     0
  3

 62
   256
 51
90.0
 52
90.0
 71
     2
 49
0.5
 62
   256
  6
BYLAYER
 49
-0.5
 62
   256
  6
BYLAYER
  0
ACDBPLACEHOLDER
  5
F
102
{ACAD_REACTORS
330
E
102
}
330
E
  0
SCALE
  5
B7
102
{ACAD_REACTORS
330
B6
102
}
330
B6
100
AcDbScale
 70
     0
300
1:1
140
1.0
141
1.0
290
     1
  0
SCALE
  5
124
102
{ACAD_REACTORS
330
B6
102
}
330
B6
100
AcDbScale
 70
     0
300
1:2
140
1.0
141
2.0
290
     0
  0
SCALE
  5
125
102
{ACAD_REACTORS
330
B6
102
}
330
B6
100
AcDbScale
 70
     0
300
1:4
140
1.0
141
4.0
290
     0
  0
SCALE
  5
126
102
{ACAD_REACTORS
330
B6
102
}
330
B6
100
AcDbScale
 70
     0
300
1:5
140
1.0
141
5.0
290
     0
  0
SCALE
  5
127
102
{ACAD_REACTORS
330
B6
102
}
330
B6
100
AcDbScale
 70
     0
300
1:8
140
1.0
141
8.0
290
     0
  0
SCALE
  5
128
102
{ACAD_REACTORS
330
B6
102
}
330
B6
100
AcDbScale
 70
     0
300
1:10
140
1.0
141
10.0
290
     0
  0
SCALE
  5
129
102
{ACAD_REACTORS
330
B6
102
}
330
B6
100
AcDbScale
 70
     0
300
1:16
140
1.0
141
16.0
290
     0
  0
SCALE
  5
12A
102
{ACAD_REACTORS
330
B6
102
}
330
B6
100
AcDbScale
 70
     0
300
1:20
140
1.0
141
20.0
290
     0
  0
SCALE
  5
12B
102
{ACAD_REACTORS
330
B6
102
}
330
B6
100
AcDbScale
 70
     0
300
1:30
140
1.0
141
30.0
290
     0
  0
SCALE
  5
12C
102
{ACAD_REACTORS
330
B6
102
}
330
B6
100
AcDbScale
 70
     0
300
1:40
140
1.0
141
40.0
290
     0
  0
SCALE
  5
12D
102
{ACAD_REACTORS
330
B6
102
}
330
B6
100
AcDbScale
 70
     0
300
1:50
140
1.0
141
50.0
290
     0
  0
SCALE
  5
12E
102
{ACAD_REACTORS
330
B6
102
}
330
B6
100
AcDbScale
 70
     0
300
1:100
140
1.0
141
100.0
290
     0
  0
SCALE
  5
12F
102
{ACAD_REACTORS
330
B6
102
}
330
B6
100
AcDbScale
 70
     0
300
2:1
140
2.0
141
1.0
290
     0
  0
SCALE
  5
130
102
{ACAD_REACTORS
330
B6
102
}
330
B6
100
AcDbScale
 70
     0
300
4:1
140
4.0
141
1.0
290
     0
  0
SCALE
  5
131
102
{ACAD_REACTORS
330
B6
102
}
330
B6
100
AcDbScale
 70
     0
300
8:1
140
8.0
141
1.0
290
     0
  0
SCALE
  5
132
102
{ACAD_REACTORS
330
B6
102
}
330
B6
100
AcDbScale
 70
     0
300
10:1
140
10.0
141
1.0
290
     0
  0
SCALE
  5
133
102
{ACAD_REACTORS
330
B6
102
}
330
B6
100
AcDbScale
 70
     0
300
100:1
140
100.0
141
1.0
290
     0
  0
SCALE
  5
134
102
{ACAD_REACTORS
330
B6
102
}
330
B6
100
AcDbScale
 70
     0
300
1/128" = 1'-0"
140
0.0078125
141
12.0
290
     0
  0
SCALE
  5
135
102
{ACAD_REACTORS
330
B6
102
}
330
B6
100
AcDbScale
 70
     0
300
1/64" = 1'-0"
140
0.015625
141
12.0
290
     0
  0
SCALE
  5
136
102
{ACAD_REACTORS
330
B6
102
}
330
B6
100
AcDbScale
 70
     0
300
1/32" = 1'-0"
140
0.03125
141
12.0
290
     0
  0
SCALE
  5
137
102
{ACAD_REACTORS
330
B6
102
}
330
B6
100
AcDbScale
 70
     0
300
1/16" = 1'-0"
140
0.0625
141
12.0
290
     0
  0
SCALE
  5
138
102
{ACAD_REACTORS
330
B6
102
}
330
B6
100
AcDbScale
 70
     0
300
3/32" = 1'-0"
140
0.09375
141
12.0
290
     0
  0
SCALE
  5
139
102
{ACAD_REACTORS
330
B6
102
}
330
B6
100
AcDbScale
 70
     0
300
1/8" = 1'-0"
140
0.125
141
12.0
290
     0
  0
SCALE
  5
13A
102
{ACAD_REACTORS
330
B6
102
}
330
B6
100
AcDbScale
 70
     0
300
3/16" = 1'-0"
140
0.1875
141
12.0
290
     0
  0
SCALE
  5
13B
102
{ACAD_REACTORS
330
B6
102
}
330
B6
100
AcDbScale
 70
     0
300
1/4" = 1'-0"
140
0.25
141
12.0
290
     0
  0
SCALE
  5
13C
102
{ACAD_REACTORS
330
B6
102
}
330
B6
100
AcDbScale
 70
     0
300
3/8" = 1'-0"
140
0.375
141
12.0
290
     0
  0
SCALE
  5
13D
102
{ACAD_REACTORS
330
B6
102
}
330
B6
100
AcDbScale
 70
     0
300
1/2" = 1'-0"
140
0.5
141
12.0
290
     0
  0
SCALE
  5
13E
102
{ACAD_REACTORS
330
B6
102
}
330
B6
100
AcDbScale
 70
     0
300
3/4" = 1'-0"
140
0.75
141
12.0
290
     0
  0
SCALE
  5
13F
102
{ACAD_REACTORS
330
B6
102
}
330
B6
100
AcDbScale
 70
     0
300
1" = 1'-0"
140
1.0
141
12.0
290
     0
  0
SCALE
  5
140
102
{ACAD_REACTORS
330
B6
102
}
330
B6
100
AcDbScale
 70
     0
300
1-1/2" = 1'-0"
140
1.5
141
12.0
290
     0
  0
SCALE
  5
141
102
{ACAD_REACTORS
330
B6
102
}
330
B6
100
AcDbScale
 70
     0
300
3" = 1'-0"
140
3.0
141
12.0
290
     0
  0
SCALE
  5
142
102
{ACAD_REACTORS
330
B6
102
}
330
B6
100
AcDbScale
 70
     0
300
6" = 1'-0"
140
6.0
141
12.0
290
     0
  0
SCALE
  5
143
102
{ACAD_REACTORS
330
B6
102
}
330
B6
100
AcDbScale
 70
     0
300
1'-0" = 1'-0"
140
12.0
141
12.0
290
     0
  0
TABLESTYLE
  5
87
102
{ACAD_XDICTIONARY
360
104
102
}
102
{ACAD_REACTORS
330
86
102
}
330
86
100
AcDbTableStyle
  3
Standard
 70
     0
 71
     0
 40
0.06
 41
0.06
280
     0
281
     0
  7
Standard
140
0.18
170
     2
 62
     0
 63
     7
283
     0
274
    -2
284
     1
 64
     0
275
    -2
285
     1
 65
     0
276
    -2
286
     1
 66
     0
277
    -2
287
     1
 67
     0
278
    -2
288
     1
 68
     0
279
    -2
289
     1
 69
     0
  7
Standard
140
0.25
170
     5
 62
     0
 63
     7
283
     0
274
    -2
284
     1
 64
     0
275
    -2
285
     1
 65
     0
276
    -2
286
     1
 66
     0
277
    -2
287
     1
 67
     0
278
    -2
288
     1
 68
     0
279
    -2
289
     1
 69
     0
  7
Standard
140
0.18
170
     5
 62
     0
 63
     7
283
     0
274
    -2
284
     1
 64
     0
275
    -2
285
     1
 65
     0
276
    -2
286
     1
 66
     0
277
    -2
287
     1
 67
     0
278
    -2
288
     1
 68
     0
279
    -2
289
     1
 69
     0
  0
VISUALSTYLE
  5
9F
102
{ACAD_REACTORS
330
99
102
}
330
99
100
AcDbVisualStyle
  2
2dWireframe
 70
     4
 71
     0
 72
     2
 73
     1
 90
        0
 40
-0.6
 41
-30.0
 62
     5
 63
     7
 74
     1
 91
        4
 64
     7
 65
   257
 75
     1
175
     1
 42
1.0
 92
        0
 66
   257
 43
1.0
 76
     1
 77
     6
 78
     2
 67
     7
 79
     5
170
     0
171
     0
290
     0
174
     0
 93
        1
 44
0.0
173
     0
291
     0
 45
0.0
1001
ACAD
1000
AcDbSavedByObjectVersion
1070
     0
  0
VISUALSTYLE
  5
A1
102
{ACAD_REACTORS
330
99
102
}
330
99
100
AcDbVisualStyle
  2
3D Hidden
 70
     6
 71
     1
 72
     2
 73
     2
 90
        0
 40
-0.6
 41
-30.0
 62
     5
 63
     7
 74
     2
 91
        2
 64
     7
 65
   257
 75
     2
175
     1
 42
40.0
 92
        0
 66
   257
 43
1.0
 76
     1
 77
     6
 78
     2
 67
     7
 79
     3
170
     0
171
     0
290
     0
174
     0
 93
        1
 44
0.0
173
     0
291
     0
 45
0.0
1001
ACAD
1000
AcDbSavedByObjectVersion
1070
     0
  0
VISUALSTYLE
  5
A0
102
{ACAD_REACTORS
330
99
102
}
330
99
100
AcDbVisualStyle
  2
3dWireframe
 70
     5
 71
     0
 72
     2
 73
     1
 90
        0
 40
-0.6
 41
-30.0
 62
     5
 63
     7
 74
     1
 91
        4
 64
     7
 65
   257
 75
     1
175
     1
 42
1.0
 92
        0
 66
   257
 43
1.0
 76
     1
 77
     6
 78
     2
 67
     7
 79
     5
170
     0
171
     0
290
     0
174
     0
 93
        1
 44
0.0
173
     0
291
     0
 45
0.0
1001
ACAD
1000
AcDbSavedByObjectVersion
1070
     0
  0
VISUALSTYLE
  5
9E
102
{ACAD_REACTORS
330
99
102
}
330
99
100
AcDbVisualStyle
  2
Basic
 70
     7
 71
     1
 72
     0
 73
     1
 90
        0
 40
-0.6
 41
-30.0
 62
     5
 63
     7
 74
     0
 91
        4
 64
     7
 65
   257
 75
     1
175
     1
 42
1.0
 92
        8
 66
     7
 43
1.0
 76
     1
 77
     6
 78
     2
 67
     7
 79
     5
170
     0
171
     0
290
     0
174
     0
 93
        1
 44
0.0
173
     0
291
     1
 45
0.0
1001
ACAD
1000
AcDbSavedByObjectVersion
1070
     0
  0
VISUALSTYLE
  5
A5
102
{ACAD_REACTORS
330
99
102
}
330
99
100
AcDbVisualStyle
  2
Brighten
 70
    12
 71
     2
 72
     2
 73
     1
 90
        0
 40
-0.6
 41
-30.0
 62
     5
 63
     7
 74
     1
 91
        4
 64
     7
 65
   257
 75
     1
175
     1
 42
1.0
 92
        8
 66
     7
 43
1.0
 76
     1
 77
     6
 78
     2
 67
     7
 79
     5
170
     0
171
     0
290
     0
174
     0
 93
        1
 44
50.0
173
     0
291
     1
 45
0.0
1001
ACAD
1000
AcDbSavedByObjectVersion
1070
     0
  0
VISUALSTYLE
  5
A9
102
{ACAD_REACTORS
330
99
102
}
330
99
100
AcDbVisualStyle
  2
ColorChange
 70
    16
 71
     2
 72
     2
 73
     3
 90
        0
 40
-0.6
 41
-30.0
 62
     5
 63
     8
 74
     1
 91
        4
 64
     7
 65
   257
 75
     1
175
     1
 42
1.0
 92
        8
 66
     8
 43
1.0
 76
     1
 77
     6
 78
     2
 67
     7
 79
     5
170
     0
171
     0
290
     0
174
     0
 93
        1
 44
0.0
173
     0
291
     1
 45
0.0
1001
ACAD
1000
AcDbSavedByObjectVersion
1070
     0
  0
VISUALSTYLE
  5
A2
102
{ACAD_REACTORS
330
99
102
}
330
99
100
AcDbVisualStyle
  2
Conceptual
 70
     9
 71
     3
 72
     2
 73
     1
 90
        0
 40
-0.6
 41
-30.0
 62
     5
 63
     7
 74
     2
 91
        2
 64
     7
 65
   257
 75
     1
175
     1
 42
40.0
 92
        8
 66
     7
 43
1.0
 76
     1
 77
     6
 78
     2
 67
     7
 79
     3
170
     0
171
     0
290
     0
174
     0
 93
        1
 44
0.0
173
     0
291
     0
 45
0.0
1001
ACAD
1000
AcDbSavedByObjectVersion
1070
     0
  0
VISUALSTYLE
  5
A4
102
{ACAD_REACTORS
330
99
102
}
330
99
100
AcDbVisualStyle
  2
Dim
 70
    11
 71
     2
 72
     2
 73
     1
 90
        0
 40
-0.6
 41
-30.0
 62
     5
 63
     7
 74
     1
 91
        4
 64
     7
 65
   257
 75
     1
175
     1
 42
1.0
 92
        8
 66
     7
 43
1.0
 76
     1
 77
     6
 78
     2
 67
     7
 79
     5
170
     0
171
     0
290
     0
174
     0
 93
        1
 44
-50.0
173
     0
291
     1
 45
0.0
1001
ACAD
1000
AcDbSavedByObjectVersion
1070
     0
  0
VISUALSTYLE
  5
A8
102
{ACAD_REACTORS
330
99
102
}
330
99
100
AcDbVisualStyle
  2
Facepattern
 70
    15
 71
     2
 72
     2
 73
     1
 90
        0
 40
-0.6
 41
-30.0
 62
     5
 63
     7
 74
     1
 91
        4
 64
     7
 65
   257
 75
     1
175
     1
 42
1.0
 92
        8
 66
     7
 43
1.0
 76
     1
 77
     6
 78
     2
 67
     7
 79
     5
170
     0
171
     0
290
     0
174
     0
 93
        1
 44
0.0
173
     0
291
     1
 45
0.0
1001
ACAD
1000
AcDbSavedByObjectVersion
1070
     0
  0
VISUALSTYLE
  5
9A
102
{ACAD_REACTORS
330
99
102
}
330
99
100
AcDbVisualStyle
  2
Flat
 70
     0
 71
     2
 72
     1
 73
     1
 90
        2
 40
-0.6
 41
30.0
 62
     5
 63
     7
 74
     0
 91
        4
 64
     7
 65
   257
 75
     1
175
     1
 42
1.0
 92
        8
 66
     7
 43
1.0
 76
     1
 77
     6
 78
     2
 67
     7
 79
     5
170
     0
171
     0
290
     0
174
     0
 93
        1
 44
0.0
173
     0
291
     1
 45
0.0
1001
ACAD
1000
AcDbSavedByObjectVersion
1070
     0
  0
VISUALSTYLE
  5
9B
102
{ACAD_REACTORS
330
99
102
}
330
99
100
AcDbVisualStyle
  2
FlatWithEdges
 70
     1
 71
     2
 72
     1
 73
     1
 90
        2
 40
-0.6
 41
30.0
 62
     5
 63
     7
 74
     1
 91
        4
 64
     7
 65
   257
 75
     1
175
     1
 42
1.0
 92
        0
 66
   257
 43
1.0
 76
     1
 77
     6
 78
     2
 67
     7
 79
     5
170
     0
171
     0
290
     0
174
     0
 93
        1
 44
0.0
173
     0
291
     1
 45
0.0
1001
ACAD
1000
AcDbSavedByObjectVersion
1070
     0
  0
VISUALSTYLE
  5
9C
102
{ACAD_REACTORS
330
99
102
}
330
99
100
AcDbVisualStyle
  2
Gouraud
 70
     2
 71
     2
 72
     2
 73
     1
 90
        2
 40
-0.6
 41
30.0
 62
     5
 63
     7
 74
     0
 91
        4
 64
     7
 65
   257
 75
     1
175
     1
 42
1.0
 92
        0
 66
     7
 43
1.0
 76
     1
 77
     6
 78
     2
 67
     7
 79
     5
170
     0
171
     0
290
     0
174
     0
 93
        1
 44
0.0
173
     0
291
     1
 45
0.0
1001
ACAD
1000
AcDbSavedByObjectVersion
1070
     0
  0
VISUALSTYLE
  5
9D
102
{ACAD_REACTORS
330
99
102
}
330
99
100
AcDbVisualStyle
  2
GouraudWithEdges
 70
     3
 71
     2
 72
     2
 73
     1
 90
        2
 40
-0.6
 41
30.0
 62
     5
 63
     7
 74
     1
 91
        4
 64
     7
 65
   257
 75
     1
175
     1
 42
1.0
 92
        0
 66
   257
 43
1.0
 76
     1
 77
     6
 78
     2
 67
     7
 79
     5
170
     0
171
     0
290
     0
174
     0
 93
        1
 44
0.0
173
     0
291
     1
 45
0.0
1001
ACAD
1000
AcDbSavedByObjectVersion
1070
     0
  0
VISUALSTYLE
  5
A7
102
{ACAD_REACTORS
330
99
102
}
330
99
100
AcDbVisualStyle
  2
Linepattern
 70
    14
 71
     2
 72
     2
 73
     1
 90
        0
 40
-0.6
 41
-30.0
 62
     5
 63
     7
 74
     1
 91
        4
 64
     7
 65
   257
 75
     7
175
     7
 42
1.0
 92
        8
 66
     7
 43
1.0
 76
     1
 77
     6
 78
     2
 67
     7
 79
     5
170
     0
171
     0
290
     0
174
     0
 93
        1
 44
0.0
173
     0
291
     1
 45
0.0
1001
ACAD
1000
AcDbSavedByObjectVersion
1070
     0
  0
VISUALSTYLE
  5
A3
102
{ACAD_REACTORS
330
99
102
}
330
99
100
AcDbVisualStyle
  2
Realistic
 70
     8
 71
     2
 72
     2
 73
     1
 90
        0
 40
-0.6
 41
-30.0
 62
     5
 63
     7
 74
     1
 91
        0
 64
     7
 65
   257
 75
     1
175
     1
 42
1.0
 92
        8
 66
     8
 43
1.0
 76
     1
 77
     6
 78
     2
 67
     7
 79
     5
170
     0
171
     0
290
     0
174
     0
 93
       13
 44
0.0
173
     0
291
     0
 45
0.0
1001
ACAD
1000
AcDbSavedByObjectVersion
1070
     0
  0
VISUALSTYLE
  5
A6
102
{ACAD_REACTORS
330
99
102
}
330
99
100
AcDbVisualStyle
  2
Thicken
 70
    13
 71
     2
 72
     2
 73
     1
 90
        0
 40
-0.6
 41
-30.0
 62
     5
 63
     7
 74
     1
 91
        4
 64
     7
 65
   257
 75
     1
175
     1
 42
1.0
 92
       12
 66
     7
 43
1.0
 76
     1
 77
     6
 78
     2
 67
     7
 79
     5
170
     0
171
     0
290
     0
174
     0
 93
        1
 44
0.0
173
     0
291
     1
 45
0.0
1001
ACAD
1000
AcDbSavedByObjectVersion
1070
     0
  0
DICTIONARYVAR
  5
F0
102
{ACAD_REACTORS
330
66
102
}
330
66
100
DictionaryVariables
280
     0
  1
1:1
  0
DICTIONARYVAR
  5
EF
102
{ACAD_REACTORS
330
66
102
}
330
66
100
DictionaryVariables
280
     0
  1
STANDARD
  0
DICTIONARYVAR
  5
89
102
{ACAD_REACTORS
330
66
102
}
330
66
100
DictionaryVariables
280
     0
  1
STANDARD
  0
DICTIONARYVAR
  5
67
102
{ACAD_REACTORS
330
66
102
}
330
66
100
DictionaryVariables
280
     0
  1
2
  0
DICTIONARYVAR
  5
6B
102
{ACAD_REACTORS
330
66
102
}
330
66
100
DictionaryVariables
280
     0
  1
1
  0
DICTIONARYVAR
  5
5E0
102
{ACAD_REACTORS
330
66
102
}
330
66
100
DictionaryVariables
280
     0
  1
0
  0
DICTIONARYVAR
  5
5DE
102
{ACAD_REACTORS
330
66
102
}
330
66
100
DictionaryVariables
280
     0
  1
2
  0
DICTIONARYVAR
  5
5DD
102
{ACAD_REACTORS
330
66
102
}
330
66
100
DictionaryVariables
280
     0
  1
1
  0
DICTIONARYVAR
  5
5DF
102
{ACAD_REACTORS
330
66
102
}
330
66
100
DictionaryVariables
280
     0
  1
127
  0
DICTIONARY
  5
5E5
330
59
100
AcDbDictionary
280
     1
281
     1
  3
ACAD_XREC_ROUNDTRIP
360
5E6
  0
DICTIONARY
  5
5E7
330
5E
100
AcDbDictionary
280
     1
281
     1
  3
ACAD_XREC_ROUNDTRIP
360
5E8
  0
DICTIONARY
  5
5E3
330
22
100
AcDbDictionary
280
     1
281
     1
  3
ACAD_XREC_ROUNDTRIP
360
5E4
  0
DICTIONARY
  5
5EC
330
97
100
AcDbDictionary
280
     1
281
     1
  3
ACAD_XREC_ROUNDTRIP
360
5ED
  0
DICTIONARY
  5
5EA
330
96
100
AcDbDictionary
280
     1
281
     1
  3
ACAD_XREC_ROUNDTRIP
360
5EB
  0
DICTIONARY
  5
110
330
98
100
AcDbDictionary
280
     1
281
     1
  3
ACAD_XREC_ROUNDTRIP
360
5EE
  3
BUMPTILE
360
112
  3
DIFFUSETILE
360
111
  3
OPACITYTILE
360
113
  3
REFLECTIONTILE
360
114
  0
DICTIONARY
  5
104
330
87
100
AcDbDictionary
280
     1
281
     1
  3
ACAD_ROUNDTRIP_2008_TABLESTYLE_CELLSTYLEMAP
360
5E1
  3
ACAD_XREC_ROUNDTRIP
360
5E9
  0
XRECORD
  5
5E6
102
{ACAD_REACTORS
330
5E5
102
}
330
5E5
100
AcDbXrecord
280
     1
102
SHADEPLOT
 70
     0
102
SHADEPLOTRESLEVEL
 70
     2
102
SHADEPLOTCUSTOMDPI
 70
   300
  0
XRECORD
  5
5E8
102
{ACAD_REACTORS
330
5E7
102
}
330
5E7
100
AcDbXrecord
280
     1
102
SHADEPLOT
 70
     0
102
SHADEPLOTRESLEVEL
 70
     2
102
SHADEPLOTCUSTOMDPI
 70
   300
  0
XRECORD
  5
5E4
102
{ACAD_REACTORS
330
5E3
102
}
330
5E3
100
AcDbXrecord
280
     1
102
SHADEPLOT
 70
     0
102
SHADEPLOTRESLEVEL
 70
     2
102
SHADEPLOTCUSTOMDPI
 70
   300
  0
XRECORD
  5
5ED
102
{ACAD_REACTORS
330
5EC
102
}
330
5EC
100
AcDbXrecord
280
     1
102
MATERIAL
148
0.0
149
0.0
149
0.0
 93
        0
 94
       63
282
     0
 72
     1
 77
     1
171
     1
175
     1
179
     1
273
     0
  0
XRECORD
  5
5EB
102
{ACAD_REACTORS
330
5EA
102
}
330
5EA
100
AcDbXrecord
280
     1
102
MATERIAL
148
0.0
149
0.0
149
0.0
 93
        0
 94
       63
282
     0
 72
     1
 77
     1
171
     1
175
     1
179
     1
273
     0
  0
XRECORD
  5
5EE
102
{ACAD_REACTORS
330
110
102
}
330
110
100
AcDbXrecord
280
     1
102
MATERIAL
148
0.0
149
0.0
149
0.0
 93
        0
 94
       63
282
     0
 72
     1
 77
     1
171
     1
175
     1
179
     1
273
     0
  0
XRECORD
  5
112
102
{ACAD_REACTORS
330
110
102
}
330
110
100
AcDbXrecord
280
     1
270
     1
271
     1
  0
XRECORD
  5
111
102
{ACAD_REACTORS
330
110
102
}
330
110
100
AcDbXrecord
280
     1
270
     1
271
     1
  0
XRECORD
  5
113
102
{ACAD_REACTORS
330
110
102
}
330
110
100
AcDbXrecord
280
     1
270
     1
271
     1
  0
XRECORD
  5
114
102
{ACAD_REACTORS
330
110
102
}
330
110
100
AcDbXrecord
280
     1
270
     1
271
     1
  0
CELLSTYLEMAP
  5
5E1
102
{ACAD_REACTORS
330
104
102
}
330
104
100
AcDbCellStyleMap
 90
        3
300
CELLSTYLE
  1
TABLEFORMAT_BEGIN
 90
        5
170
     1
 91
        0
 92
    32768
 62
   257
 93
        1
300
CONTENTFORMAT
  1
CONTENTFORMAT_BEGIN
 90
        0
 91
        0
 92
      512
 93
        0
300

 40
0.0
140
1.0
 94
        5
 62
     0
340
11
144
0.25
309
CONTENTFORMAT_END
171
     1
301
MARGIN
  1
CELLMARGIN_BEGIN
 40
0.06
 40
0.06
 40
0.06
 40
0.06
 40
0.18
 40
0.18
309
CELLMARGIN_END
 94
        6
 95
        1
302
GRIDFORMAT
  1
GRIDFORMAT_BEGIN
 90
        0
 91
        1
 62
     0
 92
       -2
340
0
 93
        0
 40
0.045
309
GRIDFORMAT_END
 95
        2
302
GRIDFORMAT
  1
GRIDFORMAT_BEGIN
 90
        0
 91
        1
 62
     0
 92
       -2
340
0
 93
        0
 40
0.045
309
GRIDFORMAT_END
 95
        4
302
GRIDFORMAT
  1
GRIDFORMAT_BEGIN
 90
        0
 91
        1
 62
     0
 92
       -2
340
0
 93
        0
 40
0.045
309
GRIDFORMAT_END
 95
        8
302
GRIDFORMAT
  1
GRIDFORMAT_BEGIN
 90
        0
 91
        1
 62
     0
 92
       -2
340
0
 93
        0
 40
0.045
309
GRIDFORMAT_END
 95
       16
302
GRIDFORMAT
  1
GRIDFORMAT_BEGIN
 90
        0
 91
        1
 62
     0
 92
       -2
340
0
 93
        0
 40
0.045
309
GRIDFORMAT_END
 95
       32
302
GRIDFORMAT
  1
GRIDFORMAT_BEGIN
 90
        0
 91
        1
 62
     0
 92
       -2
340
0
 93
        0
 40
0.045
309
GRIDFORMAT_END
309
TABLEFORMAT_END
  1
CELLSTYLE_BEGIN
 90
        1
 91
        1
300
_TITLE
309
CELLSTYLE_END
300
CELLSTYLE
  1
TABLEFORMAT_BEGIN
 90
        5
170
     1
 91
        0
 92
        0
 62
   257
 93
        1
300
CONTENTFORMAT
  1
CONTENTFORMAT_BEGIN
 90
        0
 91
        0
 92
      512
 93
        0
300

 40
0.0
140
1.0
 94
        5
 62
     0
340
11
144
0.18
309
CONTENTFORMAT_END
171
     1
301
MARGIN
  1
CELLMARGIN_BEGIN
 40
0.06
 40
0.06
 40
0.06
 40
0.06
 40
0.18
 40
0.18
309
CELLMARGIN_END
 94
        6
 95
        1
302
GRIDFORMAT
  1
GRIDFORMAT_BEGIN
 90
        0
 91
        1
 62
     0
 92
       -2
340
0
 93
        0
 40
0.045
309
GRIDFORMAT_END
 95
        2
302
GRIDFORMAT
  1
GRIDFORMAT_BEGIN
 90
        0
 91
        1
 62
     0
 92
       -2
340
0
 93
        0
 40
0.045
309
GRIDFORMAT_END
 95
        4
302
GRIDFORMAT
  1
GRIDFORMAT_BEGIN
 90
        0
 91
        1
 62
     0
 92
       -2
340
0
 93
        0
 40
0.045
309
GRIDFORMAT_END
 95
        8
302
GRIDFORMAT
  1
GRIDFORMAT_BEGIN
 90
        0
 91
        1
 62
     0
 92
       -2
340
0
 93
        0
 40
0.045
309
GRIDFORMAT_END
 95
       16
302
GRIDFORMAT
  1
GRIDFORMAT_BEGIN
 90
        0
 91
        1
 62
     0
 92
       -2
340
0
 93
        0
 40
0.045
309
GRIDFORMAT_END
 95
       32
302
GRIDFORMAT
  1
GRIDFORMAT_BEGIN
 90
        0
 91
        1
 62
     0
 92
       -2
340
0
 93
        0
 40
0.045
309
GRIDFORMAT_END
309
TABLEFORMAT_END
  1
CELLSTYLE_BEGIN
 90
        2
 91
        1
300
_HEADER
309
CELLSTYLE_END
300
CELLSTYLE
  1
TABLEFORMAT_BEGIN
 90
        5
170
     1
 91
        0
 92
        0
 62
   257
 93
        1
300
CONTENTFORMAT
  1
CONTENTFORMAT_BEGIN
 90
        0
 91
        0
 92
      512
 93
        0
300

 40
0.0
140
1.0
 94
        2
 62
     0
340
11
144
0.18
309
CONTENTFORMAT_END
171
     1
301
MARGIN
  1
CELLMARGIN_BEGIN
 40
0.06
 40
0.06
 40
0.06
 40
0.06
 40
0.18
 40
0.18
309
CELLMARGIN_END
 94
        6
 95
        1
302
GRIDFORMAT
  1
GRIDFORMAT_BEGIN
 90
        0
 91
        1
 62
     0
 92
       -2
340
0
 93
        0
 40
0.045
309
GRIDFORMAT_END
 95
        2
302
GRIDFORMAT
  1
GRIDFORMAT_BEGIN
 90
        0
 91
        1
 62
     0
 92
       -2
340
0
 93
        0
 40
0.045
309
GRIDFORMAT_END
 95
        4
302
GRIDFORMAT
  1
GRIDFORMAT_BEGIN
 90
        0
 91
        1
 62
     0
 92
       -2
340
0
 93
        0
 40
0.045
309
GRIDFORMAT_END
 95
        8
302
GRIDFORMAT
  1
GRIDFORMAT_BEGIN
 90
        0
 91
        1
 62
     0
 92
       -2
340
0
 93
        0
 40
0.045
309
GRIDFORMAT_END
 95
       16
302
GRIDFORMAT
  1
GRIDFORMAT_BEGIN
 90
        0
 91
        1
 62
     0
 92
       -2
340
0
 93
        0
 40
0.045
309
GRIDFORMAT_END
 95
       32
302
GRIDFORMAT
  1
GRIDFORMAT_BEGIN
 90
        0
 91
        1
 62
     0
 92
       -2
340
0
 93
        0
 40
0.045
309
GRIDFORMAT_END
309
TABLEFORMAT_END
  1
CELLSTYLE_BEGIN
 90
        3
 91
        2
300
_DATA
309
CELLSTYLE_END
  0
XRECORD
  5
5E9
102
{ACAD_REACTORS
330
104
102
}
330
104
100
AcDbXrecord
280
     1
102
ACAD_ROUNDTRIP_PRE2007_TABLESTYLE
 90
      512
 91
        0
  1

 92
      512
 93
        0
  2

 94
      512
 95
        0
  3

  0
ENDSEC
  0
EOF
