  0
SECTION
  2
HEADER
  9
$ACADVER
  1
AC1015
  9
$ACADMAINTVER
 70
    20
  9
$DWGCODEPAGE
  3
ANSI_1252
  9
$INSBASE
 10
0.0
 20
0.0
 30
0.0
  9
$EXTMIN
 10
11.69136819676911
 20
15.39757109811358
 30
0.0
  9
$EXTMAX
 10
501.331084206769
 20
598.4197630881136
 30
0.0
  9
$LIMMIN
 10
0.0
 20
0.0
  9
$LIMMAX
 10
12.0
 20
9.0
  9
$ORTHOMODE
 70
     0
  9
$REGENMODE
 70
     1
  9
$FILLMODE
 70
     1
  9
$QTEXTMODE
 70
     0
  9
$MIRRTEXT
 70
     0
  9
$LTSCALE
 40
1.0
  9
$ATTMODE
 70
     1
  9
$TEXTSIZE
 40
0.2
  9
$TRACEWID
 40
0.05
  9
$TEXTSTYLE
  7
Standard
  9
$CLAYER
  8
0
  9
$CELTYPE
  6
ByLayer
  9
$CECOLOR
 62
   256
  9
$CELTSCALE
 40
1.0
  9
$DISPSILH
 70
     0
  9
$DIMSCALE
 40
1.0
  9
$DIMASZ
 40
0.18
  9
$DIMEXO
 40
0.0625
  9
$DIMDLI
 40
0.38
  9
$DIMRND
 40
0.0
  9
$DIMDLE
 40
0.0
  9
$DIMEXE
 40
0.18
  9
$DIMTP
 40
0.0
  9
$DIMTM
 40
0.0
  9
$DIMTXT
 40
0.18
  9
$DIMCEN
 40
0.09
  9
$DIMTSZ
 40
0.0
  9
$DIMTOL
 70
     0
  9
$DIMLIM
 70
     0
  9
$DIMTIH
 70
     1
  9
$DIMTOH
 70
     1
  9
$DIMSE1
 70
     0
  9
$DIMSE2
 70
     0
  9
$DIMTAD
 70
     0
  9
$DIMZIN
 70
     0
  9
$DIMBLK
  1

  9
$DIMASO
 70
     1
  9
$DIMSHO
 70
     1
  9
$DIMPOST
  1

  9
$DIMAPOST
  1

  9
$DIMALT
 70
     0
  9
$DIMALTD
 70
     2
  9
$DIMALTF
 40
25.4
  9
$DIMLFAC
 40
1.0
  9
$DIMTOFL
 70
     0
  9
$DIMTVP
 40
0.0
  9
$DIMTIX
 70
     0
  9
$DIMSOXD
 70
     0
  9
$DIMSAH
 70
     0
  9
$DIMBLK1
  1

  9
$DIMBLK2
  1

  9
$DIMSTYLE
  2
Standard
  9
$DIMCLRD
 70
     0
  9
$DIMCLRE
 70
     0
  9
$DIMCLRT
 70
     0
  9
$DIMTFAC
 40
1.0
  9
$DIMGAP
 40
0.09
  9
$DIMJUST
 70
     0
  9
$DIMSD1
 70
     0
  9
$DIMSD2
 70
     0
  9
$DIMTOLJ
 70
     1
  9
$DIMTZIN
 70
     0
  9
$DIMALTZ
 70
     0
  9
$DIMALTTZ
 70
     0
  9
$DIMUPT
 70
     0
  9
$DIMDEC
 70
     4
  9
$DIMTDEC
 70
     4
  9
$DIMALTU
 70
     2
  9
$DIMALTTD
 70
     2
  9
$DIMTXSTY
  7
Standard
  9
$DIMAUNIT
 70
     0
  9
$DIMADEC
 70
     0
  9
$DIMALTRND
 40
0.0
  9
$DIMAZIN
 70
     0
  9
$DIMDSEP
 70
    46
  9
$DIMATFIT
 70
     3
  9
$DIMFRAC
 70
     0
  9
$DIMLDRBLK
  1

  9
$DIMLUNIT
 70
     2
  9
$DIMLWD
 70
    -2
  9
$DIMLWE
 70
    -2
  9
$DIMTMOVE
 70
     0
  9
$LUNITS
 70
     2
  9
$LUPREC
 70
     4
  9
$SKETCHINC
 40
0.1
  9
$FILLETRAD
 40
0.0
  9
$AUNITS
 70
     0
  9
$AUPREC
 70
     0
  9
$MENU
  1
.
  9
$ELEVATION
 40
0.0
  9
$PELEVATION
 40
0.0
  9
$THICKNESS
 40
0.0
  9
$LIMCHECK
 70
     0
  9
$CHAMFERA
 40
0.0
  9
$CHAMFERB
 40
0.0
  9
$CHAMFERC
 40
0.0
  9
$CHAMFERD
 40
0.0
  9
$SKPOLY
 70
     0
  9
$TDCREATE
 40
2455511.360931458
  9
$TDUCREATE
 40
2455511.319264791
  9
$TDUPDATE
 40
2455511.361105880
  9
$TDUUPDATE
 40
2455511.319439213
  9
$TDINDWG
 40
0.0001745949
  9
$TDUSRTIMER
 40
0.0001745949
  9
$USRTIMER
 70
     1
  9
$ANGBASE
 50
0.0
  9
$ANGDIR
 70
     0
  9
$PDMODE
 70
     0
  9
$PDSIZE
 40
0.0
  9
$PLINEWID
 40
0.0
  9
$SPLFRAME
 70
     0
  9
$SPLINETYPE
 70
     6
  9
$SPLINESEGS
 70
     8
  9
$HANDSEED
  5
5E7
  9
$SURFTAB1
 70
     6
  9
$SURFTAB2
 70
     6
  9
$SURFTYPE
 70
     6
  9
$SURFU
 70
     6
  9
$SURFV
 70
     6
  9
$UCSBASE
  2

  9
$UCSNAME
  2

  9
$UCSORG
 10
0.0
 20
0.0
 30
0.0
  9
$UCSXDIR
 10
1.0
 20
0.0
 30
0.0
  9
$UCSYDIR
 10
0.0
 20
1.0
 30
0.0
  9
$UCSORTHOREF
  2

  9
$UCSORTHOVIEW
 70
     0
  9
$UCSORGTOP
 10
0.0
 20
0.0
 30
0.0
  9
$UCSORGBOTTOM
 10
0.0
 20
0.0
 30
0.0
  9
$UCSORGLEFT
 10
0.0
 20
0.0
 30
0.0
  9
$UCSORGRIGHT
 10
0.0
 20
0.0
 30
0.0
  9
$UCSORGFRONT
 10
0.0
 20
0.0
 30
0.0
  9
$UCSORGBACK
 10
0.0
 20
0.0
 30
0.0
  9
$PUCSBASE
  2

  9
$PUCSNAME
  2

  9
$PUCSORG
 10
0.0
 20
0.0
 30
0.0
  9
$PUCSXDIR
 10
1.0
 20
0.0
 30
0.0
  9
$PUCSYDIR
 10
0.0
 20
1.0
 30
0.0
  9
$PUCSORTHOREF
  2

  9
$PUCSORTHOVIEW
 70
     0
  9
$PUCSORGTOP
 10
0.0
 20
0.0
 30
0.0
  9
$PUCSORGBOTTOM
 10
0.0
 20
0.0
 30
0.0
  9
$PUCSORGLEFT
 10
0.0
 20
0.0
 30
0.0
  9
$PUCSORGRIGHT
 10
0.0
 20
0.0
 30
0.0
  9
$PUCSORGFRONT
 10
0.0
 20
0.0
 30
0.0
  9
$PUCSORGBACK
 10
0.0
 20
0.0
 30
0.0
  9
$USERI1
 70
     0
  9
$USERI2
 70
     0
  9
$USERI3
 70
     0
  9
$USERI4
 70
     0
  9
$USERI5
 70
     0
  9
$USERR1
 40
0.0
  9
$USERR2
 40
0.0
  9
$USERR3
 40
0.0
  9
$USERR4
 40
0.0
  9
$USERR5
 40
0.0
  9
$WORLDVIEW
 70
     1
  9
$SHADEDGE
 70
     3
  9
$SHADEDIF
 70
    70
  9
$TILEMODE
 70
     1
  9
$MAXACTVP
 70
    64
  9
$PINSBASE
 10
0.0
 20
0.0
 30
0.0
  9
$PLIMCHECK
 70
     0
  9
$PEXTMIN
 10
0.0
 20
0.0
 30
0.0
  9
$PEXTMAX
 10
0.0
 20
0.0
 30
0.0
  9
$PLIMMIN
 10
0.0
 20
0.0
  9
$PLIMMAX
 10
12.0
 20
9.0
  9
$UNITMODE
 70
     0
  9
$VISRETAIN
 70
     1
  9
$PLINEGEN
 70
     0
  9
$PSLTSCALE
 70
     1
  9
$TREEDEPTH
 70
  3020
  9
$CMLSTYLE
  2
Standard
  9
$CMLJUST
 70
     0
  9
$CMLSCALE
 40
1.0
  9
$PROXYGRAPHICS
 70
     1
  9
$MEASUREMENT
 70
     0
  9
$CELWEIGHT
370
    -1
  9
$ENDCAPS
280
     0
  9
$JOINSTYLE
280
     0
  9
$LWDISPLAY
290
     0
  9
$INSUNITS
 70
     1
  9
$HYPERLINKBASE
  1

  9
$STYLESHEET
  1

  9
$XEDIT
290
     1
  9
$CEPSNTYPE
380
     0
  9
$PSTYLEMODE
290
     1
  9
$FINGERPRINTGUID
  2
{39DF5CD6-4608-4BFD-92D0-64740C003CB7}
  9
$VERSIONGUID
  2
{C1B51E7A-C079-4E4E-B7DD-FC74EA961F83}
  9
$EXTNAMES
290
     1
  9
$PSVPSCALE
 40
0.0
  9
$OLESTARTUP
290
     0
  0
ENDSEC
  0
SECTION
  2
CLASSES
  0
CLASS
  1
ACDBDICTIONARYWDFLT
  2
AcDbDictionaryWithDefault
  3
ObjectDBX Classes
 90
        0
280
     0
281
     0
  0
CLASS
  1
ACDBPLACEHOLDER
  2
AcDbPlaceHolder
  3
ObjectDBX Classes
 90
        0
280
     0
281
     0
  0
CLASS
  1
LAYOUT
  2
AcDbLayout
  3
ObjectDBX Classes
 90
        0
280
     0
281
     0
  0
CLASS
  1
DICTIONARYVAR
  2
AcDbDictionaryVar
  3
ObjectDBX Classes
 90
        0
280
     0
281
     0
  0
CLASS
  1
TABLESTYLE
  2
AcDbTableStyle
  3
ObjectDBX Classes
 90
     4095
280
     0
281
     0
  0
CLASS
  1
MATERIAL
  2
AcDbMaterial
  3
ObjectDBX Classes
 90
     1153
280
     0
281
     0
  0
CLASS
  1
VISUALSTYLE
  2
AcDbVisualStyle
  3
ObjectDBX Classes
 90
     4095
280
     0
281
     0
  0
CLASS
  1
SCALE
  2
AcDbScale
  3
ObjectDBX Classes
 90
     1153
280
     0
281
     0
  0
CLASS
  1
MLEADERSTYLE
  2
AcDbMLeaderStyle
  3
ACDB_MLEADERSTYLE_CLASS
 90
     4095
280
     0
281
     0
  0
CLASS
  1
CELLSTYLEMAP
  2
AcDbCellStyleMap
  3
ObjectDBX Classes
 90
     1152
280
     0
281
     0
  0
ENDSEC
  0
SECTION
  2
TABLES
  0
TABLE
  2
VPORT
  5
8
330
0
100
AcDbSymbolTable
 70
     1
  0
VPORT
  5
94
330
8
100
AcDbSymbolTableRecord
100
AcDbViewportTableRecord
  2
*Active
 70
     0
 10
0.0
 20
0.0
 11
1.0
 21
1.0
 12
374.7257624890386
 22
335.7545525821085
 13
0.0
 23
0.0
 14
0.5
 24
0.5
 15
0.5
 25
0.5
 16
0.0
 26
0.0
 36
1.0
 17
0.0
 27
0.0
 37
0.0
 40
940.2523509375596
 41
1.148760330578512
 42
50.0
 43
0.0
 44
0.0
 50
0.0
 51
0.0
 71
     0
 72
  1000
 73
     1
 74
     3
 75
     0
 76
     0
 77
     0
 78
     0
281
     0
 65
     1
110
0.0
120
0.0
130
0.0
111
1.0
121
0.0
131
0.0
112
0.0
122
1.0
132
0.0
 79
     0
146
0.0
  0
ENDTAB
  0
TABLE
  2
LTYPE
  5
5
330
0
100
AcDbSymbolTable
 70
     1
  0
LTYPE
  5
14
330
5
100
AcDbSymbolTableRecord
100
AcDbLinetypeTableRecord
  2
ByBlock
 70
     0
  3

 72
    65
 73
     0
 40
0.0
  0
LTYPE
  5
15
330
5
100
AcDbSymbolTableRecord
100
AcDbLinetypeTableRecord
  2
ByLayer
 70
     0
  3

 72
    65
 73
     0
 40
0.0
  0
LTYPE
  5
16
330
5
100
AcDbSymbolTableRecord
100
AcDbLinetypeTableRecord
  2
Continuous
 70
     0
  3
Solid line
 72
    65
 73
     0
 40
0.0
  0
ENDTAB
  0
TABLE
  2
LAYER
  5
2
330
0
100
AcDbSymbolTable
 70
     5
  0
LAYER
  5
10
102
{ACAD_XDICTIONARY
360
E6
102
}
330
2
100
AcDbSymbolTableRecord
100
AcDbLayerTableRecord
  2
0
 70
     0
 62
     7
  6
Continuous
370
    -3
390
F
  0
LAYER
  5
174
102
{ACAD_XDICTIONARY
360
5CF
102
}
330
2
100
AcDbSymbolTableRecord
100
AcDbLayerTableRecord
  2
Q
 70
     1
 62
     7
  6
Continuous
370
    -3
390
F
1001
AcAecLayerStandard
1000

1000

  0
LAYER
  5
175
102
{ACAD_XDICTIONARY
360
5D1
102
}
330
2
100
AcDbSymbolTableRecord
100
AcDbLayerTableRecord
  2
QUOTE
 70
     0
 62
     7
  6
Continuous
370
    -3
390
F
1001
AcAecLayerStandard
1000

1000

  0
LAYER
  5
176
102
{ACAD_XDICTIONARY
360
5D3
102
}
330
2
100
AcDbSymbolTableRecord
100
AcDbLayerTableRecord
  2
DISEGNO
 70
     0
 62
     1
  6
Continuous
370
    -3
390
F
  0
LAYER
  5
59C
330
2
100
AcDbSymbolTableRecord
100
AcDbLayerTableRecord
  2
Defpoints
 70
     0
 62
     7
  6
Continuous
290
     0
370
    -3
390
F
  0
ENDTAB
  0
TABLE
  2
STYLE
  5
3
330
0
100
AcDbSymbolTable
 70
     2
  0
STYLE
  5
11
330
3
100
AcDbSymbolTableRecord
100
AcDbTextStyleTableRecord
  2
Standard
 70
     0
 40
0.0
 41
1.0
 50
0.0
 71
     0
 42
0.2
  3
txt.shx
  4

  0
STYLE
  5
DC
330
3
100
AcDbSymbolTableRecord
100
AcDbTextStyleTableRecord
  2
Annotativa
 70
     0
 40
0.0
 41
1.0
 50
0.0
 71
     0
 42
0.2
  3
txt.shx
  4

1001
AcadAnnotative
1000
AnnotativeData
1002
{
1070
     1
1070
     1
1002
}
  0
ENDTAB
  0
TABLE
  2
VIEW
  5
6
330
0
100
AcDbSymbolTable
 70
     1
  0
ENDTAB
  0
TABLE
  2
UCS
  5
7
330
0
100
AcDbSymbolTable
 70
     0
  0
ENDTAB
  0
TABLE
  2
APPID
  5
9
330
0
100
AcDbSymbolTable
 70
    14
  0
APPID
  5
12
330
9
100
AcDbSymbolTableRecord
100
AcDbRegAppTableRecord
  2
ACAD
 70
     0
  0
APPID
  5
DD
330
9
100
AcDbSymbolTableRecord
100
AcDbRegAppTableRecord
  2
AcadAnnoPO
 70
     0
  0
APPID
  5
DE
330
9
100
AcDbSymbolTableRecord
100
AcDbRegAppTableRecord
  2
AcadAnnotative
 70
     0
  0
APPID
  5
DF
330
9
100
AcDbSymbolTableRecord
100
AcDbRegAppTableRecord
  2
ACAD_DSTYLE_DIMJAG
 70
     0
  0
APPID
  5
E0
330
9
100
AcDbSymbolTableRecord
100
AcDbRegAppTableRecord
  2
ACAD_DSTYLE_DIMTALN
 70
     0
  0
APPID
  5
107
330
9
100
AcDbSymbolTableRecord
100
AcDbRegAppTableRecord
  2
ACAD_MLEADERVER
 70
     0
  0
APPID
  5
177
330
9
100
AcDbSymbolTableRecord
100
AcDbRegAppTableRecord
  2
VDEXTRAPARAM
 70
     0
  0
APPID
  5
178
330
9
100
AcDbSymbolTableRecord
100
AcDbRegAppTableRecord
  2
VD_TEMPHATCH
 70
     0
  0
APPID
  5
179
330
9
100
AcDbSymbolTableRecord
100
AcDbRegAppTableRecord
  2
AcAecLayerStandard
 70
     0
  0
APPID
  5
17A
330
9
100
AcDbSymbolTableRecord
100
AcDbRegAppTableRecord
  2
VD_EX_PRINTER_DWG_STYLE_SHEET
 70
     0
  0
APPID
  5
17B
330
9
100
AcDbSymbolTableRecord
100
AcDbRegAppTableRecord
  2
VD_EX_PRINTER_SIZEX
 70
     0
  0
APPID
  5
17C
330
9
100
AcDbSymbolTableRecord
100
AcDbRegAppTableRecord
  2
VD_EX_PRINTER_AVSIZEX
 70
     0
  0
APPID
  5
17D
330
9
100
AcDbSymbolTableRecord
100
AcDbRegAppTableRecord
  2
VD_EX_PRINTER_SIZEY
 70
     0
  0
APPID
  5
17E
330
9
100
AcDbSymbolTableRecord
100
AcDbRegAppTableRecord
  2
VD_EX_PRINTER_AVSIZEY
 70
     0
  0
ENDTAB
  0
TABLE
  2
DIMSTYLE
  5
A
330
0
100
AcDbSymbolTable
 70
     2
100
AcDbDimStyleTable
 71
     2
340
27
340
E1
  0
DIMSTYLE
105
27
102
{ACAD_REACTORS
330
53F
330
540
102
}
330
A
100
AcDbSymbolTableRecord
100
AcDbDimStyleTableRecord
  2
Standard
 70
     0
340
11
  0
DIMSTYLE
105
E1
330
A
100
AcDbSymbolTableRecord
100
AcDbDimStyleTableRecord
  2
Annotativa
 70
     0
 40
0.0
340
11
1001
AcadAnnotative
1000
AnnotativeData
1002
{
1070
     1
1070
     1
1002
}
1001
ACAD_DSTYLE_DIMJAG
1070
   388
1040
1.5
1001
ACAD_DSTYLE_DIMTALN
1070
   392
1070
     0
  0
ENDTAB
  0
TABLE
  2
BLOCK_RECORD
  5
1
330
0
100
AcDbSymbolTable
 70
     7
  0
BLOCK_RECORD
  5
1F
330
1
100
AcDbSymbolTableRecord
100
AcDbBlockTableRecord
  2
*Model_Space
340
22
  0
BLOCK_RECORD
  5
58
330
1
100
AcDbSymbolTableRecord
100
AcDbBlockTableRecord
  2
*Paper_Space
340
59
  0
BLOCK_RECORD
  5
5D
330
1
100
AcDbSymbolTableRecord
100
AcDbBlockTableRecord
  2
*Paper_Space0
340
5E
  0
BLOCK_RECORD
  5
14C
330
1
100
AcDbSymbolTableRecord
100
AcDbBlockTableRecord
  2
VDDIM_DEFAULT
340
0
  0
BLOCK_RECORD
  5
150
330
1
100
AcDbSymbolTableRecord
100
AcDbBlockTableRecord
  2
IEC_309_16-32
340
0
102
{BLKREFS
331
384
331
385
331
386
331
387
331
388
331
389
331
38A
331
38B
331
594
331
595
331
596
331
597
331
598
331
599
331
59A
331
59B
102
}
  0
BLOCK_RECORD
  5
168
330
1
100
AcDbSymbolTableRecord
100
AcDbBlockTableRecord
  2
*D3
340
0
  0
BLOCK_RECORD
  5
59D
330
1
100
AcDbSymbolTableRecord
100
AcDbBlockTableRecord
  2
*D5
340
0
  0
BLOCK_RECORD
  5
5AA
330
1
100
AcDbSymbolTableRecord
100
AcDbBlockTableRecord
  2
*D6
340
0
  0
ENDTAB
  0
ENDSEC
  0
SECTION
  2
BLOCKS
  0
BLOCK
  5
20
330
1F
100
AcDbEntity
  8
0
100
AcDbBlockBegin
  2
*Model_Space
 70
     0
 10
0.0
 20
0.0
 30
0.0
  3
*Model_Space
  1

  0
ENDBLK
  5
21
330
1F
100
AcDbEntity
  8
0
100
AcDbBlockEnd
  0
BLOCK
  5
5A
330
58
100
AcDbEntity
 67
     1
  8
0
100
AcDbBlockBegin
  2
*Paper_Space
 70
     0
 10
0.0
 20
0.0
 30
0.0
  3
*Paper_Space
  1

  0
ENDBLK
  5
5B
330
58
100
AcDbEntity
 67
     1
  8
0
100
AcDbBlockEnd
  0
BLOCK
  5
5F
330
5D
100
AcDbEntity
 67
     1
  8
0
100
AcDbBlockBegin
  2
*Paper_Space0
 70
     0
 10
0.0
 20
0.0
 30
0.0
  3
*Paper_Space0
  1

  0
ENDBLK
  5
60
330
5D
100
AcDbEntity
 67
     1
  8
0
100
AcDbBlockEnd
  0
BLOCK
  5
14D
330
14C
100
AcDbEntity
  8
0
100
AcDbBlockBegin
  2
VDDIM_DEFAULT
 70
     0
 10
0.0
 20
0.0
 30
0.0
  3
VDDIM_DEFAULT
  1

  0
HATCH
  5
14E
330
14C
100
AcDbEntity
  8
0
  6
Continuous
 62
     0
370
    -2
100
AcDbHatch
 10
0.0
 20
0.0
 30
0.0
210
0.0
220
0.0
230
-1.0
  2
SOLID
 70
     1
 71
     0
 91
        1
 92
        2
 72
     0
 73
     1
 93
        3
 10
0.0
 20
0.0
 10
1.0
 20
-0.1665
 10
1.0
 20
0.1665
 97
        0
 75
     0
 76
     1
 98
        1
 10
0.0
 20
0.0
  0
ENDBLK
  5
14F
330
14C
100
AcDbEntity
  8
0
100
AcDbBlockEnd
  0
BLOCK
  5
151
330
150
100
AcDbEntity
  8
0
100
AcDbBlockBegin
  2
IEC_309_16-32
 70
     0
 10
0.0
 20
0.0
 30
0.0
  3
IEC_309_16-32
  1

  0
ARC
  5
152
330
150
100
AcDbEntity
  8
DISEGNO
 62
     7
100
AcDbCircle
 10
98.92437755000001
 20
101.22342337
 30
0.0
 40
10.45203864
100
AcDbArc
 50
0.0
 51
90.0
  0
ARC
  5
153
330
150
100
AcDbEntity
  8
DISEGNO
 62
     7
100
AcDbCircle
 10
98.92437755000001
 20
27.14615532
 30
0.0
 40
10.45203864
100
AcDbArc
 50
270.0
 51
0.0
  0
LINE
  5
154
330
150
100
AcDbEntity
  8
DISEGNO
 62
     7
100
AcDbLine
 10
29.37485018
 20
27.14615532
 30
0.0
 11
29.37485018
 21
101.22342337
 31
0.0
  0
ARC
  5
155
330
150
100
AcDbEntity
  8
DISEGNO
 62
     7
100
AcDbCircle
 10
39.82688883
 20
27.14615532
 30
0.0
 40
10.45203864
100
AcDbArc
 50
180.0
 51
270.0
  0
ARC
  5
156
330
150
100
AcDbEntity
  8
DISEGNO
 62
     7
100
AcDbCircle
 10
39.82688883
 20
101.22342337
 30
0.0
 40
10.45203864
100
AcDbArc
 50
90.0
 51
180.0
  0
LINE
  5
157
330
150
100
AcDbEntity
  8
DISEGNO
 62
     7
100
AcDbLine
 10
39.82688883
 20
111.67546202
 30
0.0
 11
98.92437755000001
 21
111.67546202
 31
0.0
  0
LINE
  5
158
330
150
100
AcDbEntity
  8
DISEGNO
 62
     7
100
AcDbLine
 10
109.3764162
 20
101.22342337
 30
0.0
 11
109.3764162
 21
27.14615532
 31
0.0
  0
LINE
  5
159
330
150
100
AcDbEntity
  8
Q
 62
     1
100
AcDbLine
 10
116.87657492
 20
16.69411667
 30
0.0
 11
21.87700654
 21
16.69411667
 31
0.0
  0
LINE
  5
15A
330
150
100
AcDbEntity
  8
Q
 62
     1
100
AcDbLine
 10
21.87700654
 20
123.30508831
 30
0.0
 11
116.87657492
 21
123.30508831
 31
0.0
  0
LINE
  5
15B
330
150
100
AcDbEntity
  8
Q
 62
     1
100
AcDbLine
 10
21.87700654
 20
16.69411667
 30
0.0
 11
21.87700654
 21
123.30508831
 31
0.0
  0
LINE
  5
15C
330
150
100
AcDbEntity
  8
Q
 62
     1
100
AcDbLine
 10
116.87657492
 20
16.69411667
 30
0.0
 11
116.87657492
 21
123.30508831
 31
0.0
  0
CIRCLE
  5
15D
330
150
100
AcDbEntity
  8
0
100
AcDbCircle
 10
39.68921445
 20
25.81853611
 30
0.0
 40
3.10602526
  0
CIRCLE
  5
15E
330
150
100
AcDbEntity
  8
0
100
AcDbCircle
 10
39.68921445
 20
102.32521579
 30
0.0
 40
3.10602526
  0
CIRCLE
  5
15F
330
150
100
AcDbEntity
  8
0
100
AcDbCircle
 10
99.11826150999999
 20
25.36875409
 30
0.0
 40
3.10602526
  0
CIRCLE
  5
160
330
150
100
AcDbEntity
  8
0
100
AcDbCircle
 10
99.11826150999999
 20
101.87543378
 30
0.0
 40
3.10602526
  0
LINE
  5
161
330
150
100
AcDbEntity
  8
Q
 62
     2
100
AcDbLine
 10
26.86858819
 20
21.83590155
 30
0.0
 11
111.88499327
 21
21.83590155
 31
0.0
  0
LINE
  5
162
330
150
100
AcDbEntity
  8
Q
 62
     2
100
AcDbLine
 10
111.88499327
 20
21.83590155
 30
0.0
 11
111.88499327
 21
117.08642104
 31
0.0
  0
LINE
  5
163
330
150
100
AcDbEntity
  8
Q
 62
     2
100
AcDbLine
 10
26.86858819
 20
117.08642104
 30
0.0
 11
26.86858819
 21
21.83590155
 31
0.0
  0
LINE
  5
164
330
150
100
AcDbEntity
  8
Q
 62
     2
100
AcDbLine
 10
70.12473491
 20
117.08642104
 30
0.0
 11
111.88499327
 21
117.08642104
 31
0.0
  0
LINE
  5
165
330
150
100
AcDbEntity
  8
Q
 62
     2
100
AcDbLine
 10
70.12473491
 20
117.08642104
 30
0.0
 11
26.86858819
 21
117.08642104
 31
0.0
  0
LINE
  5
166
330
150
100
AcDbEntity
  8
0
 62
     7
100
AcDbLine
 10
39.82688883
 20
16.69411667
 30
0.0
 11
98.92437755000001
 21
16.69411667
 31
0.0
  0
ENDBLK
  5
167
330
150
100
AcDbEntity
  8
0
100
AcDbBlockEnd
  0
BLOCK
  5
169
330
168
100
AcDbEntity
  8
0
100
AcDbBlockBegin
  2
*D3
 70
     0
 10
0.0
 20
0.0
 30
0.0
  3
*D3
  1

  0
LINE
  5
16A
330
168
100
AcDbEntity
  8
QUOTE
 62
     7
100
AcDbLine
 10
468.35284441
 20
23.71076759
 30
0.0
 11
468.35284441
 21
-10.4289244
 31
0.0
  0
LINE
  5
16B
330
168
100
AcDbEntity
  8
QUOTE
 62
     7
100
AcDbLine
 10
18.35284441
 20
23.7107662
 30
0.0
 11
18.35284441
 21
-10.4289244
 31
0.0
  0
LINE
  5
16C
330
168
100
AcDbEntity
  8
QUOTE
 62
     7
100
AcDbLine
 10
453.3528444099999
 20
-10.2489244
 30
0.0
 11
255.37532399
 21
-10.2489244
 31
0.0
  0
LINE
  5
16D
330
168
100
AcDbEntity
  8
QUOTE
 62
     7
100
AcDbLine
 10
33.35284441000001
 20
-10.2489244
 30
0.0
 11
230.19532399
 21
-10.2489244
 31
0.0
  0
LWPOLYLINE
  5
16E
102
{ACAD_REACTORS
330
16F
102
}
330
168
100
AcDbEntity
  8
QUOTE
 62
     7
100
AcDbPolyline
 90
        3
 70
     1
 43
0.0
 10
453.3528444099999
 20
-7.7489244
 10
453.3528444099999
 20
-12.7489244
 10
468.35284441
 20
-10.2489244
  0
HATCH
  5
16F
330
168
100
AcDbEntity
  8
QUOTE
 62
     7
100
AcDbHatch
 10
0.0
 20
0.0
 30
0.0
210
0.0
220
0.0
230
1.0
  2
SOLID
 70
     1
 71
     1
 91
        1
 92
        2
 72
     0
 73
     1
 93
        3
 10
453.3528444099999
 20
-7.7489244
 10
453.3528444099999
 20
-12.7489244
 10
468.35284441
 20
-10.2489244
 97
        1
330
16E
 75
     0
 76
     1
 98
        1
 10
0.0
 20
0.0
1001
VD_TEMPHATCH
1000
VD_TEMPHATCH
  0
LWPOLYLINE
  5
170
102
{ACAD_REACTORS
330
171
102
}
330
168
100
AcDbEntity
  8
QUOTE
 62
     7
100
AcDbPolyline
 90
        3
 70
     1
 43
0.0
 10
33.35284441000001
 20
-7.7489244
 10
33.35284441000001
 20
-12.7489244
 10
18.35284441
 20
-10.2489244
  0
HATCH
  5
171
330
168
100
AcDbEntity
  8
QUOTE
 62
     7
100
AcDbHatch
 10
0.0
 20
0.0
 30
0.0
210
0.0
220
0.0
230
1.0
  2
SOLID
 70
     1
 71
     1
 91
        1
 92
        2
 72
     0
 73
     1
 93
        3
 10
33.35284441000001
 20
-7.7489244
 10
33.35284441000001
 20
-12.7489244
 10
18.35284441
 20
-10.2489244
 97
        1
330
170
 75
     0
 76
     1
 98
        1
 10
0.0
 20
0.0
1001
VD_TEMPHATCH
1000
VD_TEMPHATCH
  0
MTEXT
  5
172
330
168
100
AcDbEntity
  8
QUOTE
 62
     7
100
AcDbMText
 10
242.78532399
 20
-10.2489244
 30
0.0
 40
10.0
 41
22.73081434
 71
     5
 72
     1
  1
\A1;450
 73
     1
 44
1.0
1001
ACAD
1000
MTEXTBEGIN
1070
    73
1070
     1
1070
    44
1040
1.0
1070
    74
1070
     0
1000
MTEXTEND
  0
ENDBLK
  5
173
330
168
100
AcDbEntity
  8
0
100
AcDbBlockEnd
  0
BLOCK
  5
59E
330
59D
100
AcDbEntity
  8
0
100
AcDbBlockBegin
  2
*D5
 70
     1
 10
0.0
 20
0.0
 30
0.0
  3
*D5
  1

  0
LINE
  5
5B7
330
59D
100
AcDbEntity
  8
QUOTE
 62
     0
370
    -2
100
AcDbLine
 10
67.26858336676912
 20
598.4197630881136
 30
0.0
 11
24.01136819676924
 21
598.4197630881136
 31
0.0
  0
LINE
  5
5B8
330
59D
100
AcDbEntity
  8
QUOTE
 62
     0
370
    -2
100
AcDbLine
 10
67.33108336676912
 20
38.41976308811359
 30
0.0
 11
24.01136819676911
 21
38.41976308811359
 31
0.0
  0
LINE
  5
5B9
330
59D
100
AcDbEntity
  8
QUOTE
 62
     0
370
    -2
100
AcDbLine
 10
24.19136819676923
 20
583.4197630881136
 30
0.0
 11
24.19136819676917
 21
323.3013388381135
 31
0.0
  0
LINE
  5
5BA
330
59D
100
AcDbEntity
  8
QUOTE
 62
     0
370
    -2
100
AcDbLine
 10
24.19136819676911
 20
53.41976308811359
 30
0.0
 11
24.19136819676917
 21
313.1213388381135
 31
0.0
  0
SOLID
  5
5BB
330
59D
100
AcDbEntity
  8
QUOTE
 62
     0
100
AcDbTrace
 10
21.69136819676923
 20
583.4197630881136
 30
0.0
 11
26.69136819676923
 21
583.4197630881136
 31
0.0
 12
24.19136819676924
 22
598.4197630881136
 32
0.0
 13
24.19136819676924
 23
598.4197630881136
 33
0.0
  0
SOLID
  5
5BC
330
59D
100
AcDbEntity
  8
QUOTE
 62
     0
100
AcDbTrace
 10
21.69136819676911
 20
53.41976308811359
 30
0.0
 11
26.69136819676911
 21
53.41976308811359
 31
0.0
 12
24.19136819676911
 22
38.41976308811359
 32
0.0
 13
24.19136819676911
 23
38.41976308811359
 33
0.0
  0
MTEXT
  5
5BD
330
59D
100
AcDbEntity
  8
QUOTE
 62
     0
100
AcDbMText
 10
24.19136819676912
 20
318.2113388381135
 30
0.0
 40
10.0
 41
0.0
 71
     5
 72
     1
  1
\A1;560
 73
     1
 44
1.0
1001
ACAD
1000
MTEXTBEGIN
1070
    73
1070
     1
1070
    44
1040
1.0
1070
    74
1070
     0
1000
MTEXTEND
  0
POINT
  5
5BE
330
59D
100
AcDbEntity
  8
Defpoints
 62
     0
100
AcDbPoint
 10
67.33108336676912
 20
598.4197630881136
 30
0.0
  0
POINT
  5
5BF
330
59D
100
AcDbEntity
  8
Defpoints
 62
     0
100
AcDbPoint
 10
67.39358336676912
 20
38.41976308811359
 30
0.0
  0
POINT
  5
5C0
330
59D
100
AcDbEntity
  8
Defpoints
 62
     0
100
AcDbPoint
 10
24.19136819676911
 20
38.41976308811359
 30
0.0
  0
ENDBLK
  5
59F
330
59D
100
AcDbEntity
  8
0
100
AcDbBlockEnd
  0
BLOCK
  5
5AB
330
5AA
100
AcDbEntity
  8
0
100
AcDbBlockBegin
  2
*D6
 70
     1
 10
0.0
 20
0.0
 30
0.0
  3
*D6
  1

  0
LINE
  5
5C1
330
5AA
100
AcDbEntity
  8
QUOTE
 62
     0
370
    -2
100
AcDbLine
 10
501.331084206769
 20
54.35726308811358
 30
0.0
 11
501.331084206769
 21
20.21757109811358
 31
0.0
  0
LINE
  5
5C2
330
5AA
100
AcDbEntity
  8
QUOTE
 62
     0
370
    -2
100
AcDbLine
 10
51.33108420676911
 20
54.35726169811357
 30
0.0
 11
51.33108420676911
 21
20.21757109811358
 31
0.0
  0
LINE
  5
5C3
330
5AA
100
AcDbEntity
  8
QUOTE
 62
     0
370
    -2
100
AcDbLine
 10
486.3310842067691
 20
20.39757109811358
 30
0.0
 11
288.3535637867691
 21
20.39757109811358
 31
0.0
  0
LINE
  5
5C4
330
5AA
100
AcDbEntity
  8
QUOTE
 62
     0
370
    -2
100
AcDbLine
 10
66.33108420676911
 20
20.39757109811358
 30
0.0
 11
263.1735637867691
 21
20.39757109811358
 31
0.0
  0
SOLID
  5
5C5
330
5AA
100
AcDbEntity
  8
QUOTE
 62
     0
100
AcDbTrace
 10
486.3310842067691
 20
22.89757109811358
 30
0.0
 11
486.3310842067691
 21
17.89757109811358
 31
0.0
 12
501.331084206769
 22
20.39757109811358
 32
0.0
 13
501.331084206769
 23
20.39757109811358
 33
0.0
  0
SOLID
  5
5C6
330
5AA
100
AcDbEntity
  8
QUOTE
 62
     0
100
AcDbTrace
 10
66.33108420676911
 20
22.89757109811358
 30
0.0
 11
66.33108420676911
 21
17.89757109811358
 31
0.0
 12
51.33108420676911
 22
20.39757109811358
 32
0.0
 13
51.33108420676911
 23
20.39757109811358
 33
0.0
  0
MTEXT
  5
5C7
330
5AA
100
AcDbEntity
  8
QUOTE
 62
     0
100
AcDbMText
 10
275.7635637867691
 20
20.39757109811358
 30
0.0
 40
10.0
 41
0.0
 71
     5
 72
     1
  1
\A1;450
 73
     1
 44
1.0
1001
ACAD
1000
MTEXTBEGIN
1070
    73
1070
     1
1070
    44
1040
1.0
1070
    74
1070
     0
1000
MTEXTEND
  0
POINT
  5
5C8
330
5AA
100
AcDbEntity
  8
Defpoints
 62
     0
100
AcDbPoint
 10
501.331084206769
 20
54.41976308811359
 30
0.0
  0
POINT
  5
5C9
330
5AA
100
AcDbEntity
  8
Defpoints
 62
     0
100
AcDbPoint
 10
51.33108420676911
 20
54.41976169811358
 30
0.0
  0
POINT
  5
5CA
330
5AA
100
AcDbEntity
  8
Defpoints
 62
     0
100
AcDbPoint
 10
51.33108420676911
 20
20.39757109811358
 30
0.0
  0
ENDBLK
  5
5AC
330
5AA
100
AcDbEntity
  8
0
100
AcDbBlockEnd
  0
ENDSEC
  0
SECTION
  2
ENTITIES
  0
LINE
  5
390
330
1F
100
AcDbEntity
  8
0
 62
   253
 48
0.001467
370
    35
100
AcDbLine
 10
82.76496720676911
 20
397.6437620881136
 30
0.0
 11
82.72347920676912
 21
397.6022880881136
 31
0.0
  0
LINE
  5
391
330
1F
100
AcDbEntity
  8
0
 62
   253
 48
0.001467
370
    35
100
AcDbLine
 10
80.77258220676911
 20
399.6361630881136
 30
0.0
 11
80.73107820676913
 21
399.5946590881136
 31
0.0
  0
ARC
  5
392
330
1F
100
AcDbEntity
  8
0
 62
   253
370
    35
100
AcDbCircle
 10
82.72006120676911
 20
399.5912720881136
 30
0.0
 40
1.988738999999999
100
AcDbArc
 50
179.9018549999999
 51
270.0981399999999
  0
LINE
  5
393
330
1F
100
AcDbEntity
  8
0
 62
   253
370
    35
100
AcDbLine
 10
82.72347920676912
 20
397.6022880881136
 30
0.0
 11
469.9386892067691
 21
397.6022880881136
 31
0.0
  0
ARC
  5
394
330
1F
100
AcDbEntity
  8
0
 62
   253
370
    35
100
AcDbCircle
 10
469.9421072067691
 20
399.5912720881136
 30
0.0
 40
1.988738999999999
100
AcDbArc
 50
269.901848
 51
0.0981429999999929
  0
LINE
  5
395
330
1F
100
AcDbEntity
  8
0
 62
   253
 48
0.003992
370
    35
100
AcDbLine
 10
176.1439202067691
 20
409.1293570881135
 30
0.0
 11
176.1621082067691
 21
409.2879880881135
 31
0.0
  0
LINE
  5
396
330
1F
100
AcDbEntity
  8
0
 62
   253
 48
0.004009
370
    35
100
AcDbLine
 10
376.5183402067691
 20
409.1286860881135
 30
0.0
 11
376.5000602067691
 21
409.2879880881135
 31
0.0
  0
LINE
  5
397
330
1F
100
AcDbEntity
  8
0
 62
   253
370
    35
100
AcDbLine
 10
197.0254812067691
 20
409.0237670881135
 30
0.0
 11
221.3310842067691
 21
409.0237670881135
 31
0.0
  0
LINE
  5
398
330
1F
100
AcDbEntity
  8
0
 62
   253
370
    35
100
AcDbLine
 10
151.3310842067691
 20
409.0237670881135
 30
0.0
 11
175.6366872067691
 21
409.0237670881135
 31
0.0
  0
LINE
  5
399
330
1F
100
AcDbEntity
  8
0
 62
   253
370
    35
100
AcDbLine
 10
377.0254812067691
 20
409.0237670881135
 30
0.0
 11
401.331084206769
 21
409.0237670881135
 31
0.0
  0
LINE
  5
39A
330
1F
100
AcDbEntity
  8
0
 62
   253
370
    35
100
AcDbLine
 10
331.3310842067691
 20
409.0237670881135
 30
0.0
 11
355.6366872067691
 21
409.0237670881135
 31
0.0
  0
ARC
  5
39B
330
1F
100
AcDbEntity
  8
0
 62
   253
370
    35
100
AcDbCircle
 10
143.2319632067691
 20
431.9404540881135
 30
0.0
 40
22.428446
100
AcDbArc
 50
241.649282
 51
242.9583559999999
  0
LINE
  5
39C
330
1F
100
AcDbEntity
  8
0
 62
   253
 48
0.005419
370
    35
100
AcDbLine
 10
132.5814352067691
 20
412.2021110881136
 30
0.0
 11
132.3899062067691
 21
412.3036130881136
 31
0.0
  0
ARC
  5
39D
330
1F
100
AcDbEntity
  8
0
 62
   253
370
    35
100
AcDbCircle
 10
229.4302052067691
 20
431.9404540881135
 30
0.0
 40
22.428442
100
AcDbArc
 50
297.0416380000001
 51
298.350719
  0
LINE
  5
39E
330
1F
100
AcDbEntity
  8
0
 62
   253
 48
0.005418
370
    35
100
AcDbLine
 10
240.0807482067691
 20
412.2021110881136
 30
0.0
 11
240.2722462067691
 21
412.3036130881136
 31
0.0
  0
ARC
  5
39F
330
1F
100
AcDbEntity
  8
0
 62
   253
370
    35
100
AcDbCircle
 10
409.4302052067691
 20
431.9404540881135
 30
0.0
 40
22.428446
100
AcDbArc
 50
297.0416380000001
 51
298.350719
  0
LINE
  5
3A0
330
1F
100
AcDbEntity
  8
0
 62
   253
 48
0.005419
370
    35
100
AcDbLine
 10
420.080718206769
 20
412.2021110881136
 30
0.0
 11
420.2722462067691
 21
412.3036130881136
 31
0.0
  0
LINE
  5
3A1
330
1F
100
AcDbEntity
  8
0
 62
   253
 48
0.005418
370
    35
100
AcDbLine
 10
312.5814202067691
 20
412.2021110881136
 30
0.0
 11
312.3899222067691
 21
412.3036130881136
 31
0.0
  0
ARC
  5
3A2
330
1F
100
AcDbEntity
  8
0
 62
   253
370
    35
100
AcDbCircle
 10
323.2319632067691
 20
431.9404540881135
 30
0.0
 40
22.428442
100
AcDbArc
 50
241.649282
 51
242.9583559999999
  0
LINE
  5
3A3
330
1F
100
AcDbEntity
  8
0
 62
   253
 48
0.4608090000000001
370
    35
100
AcDbLine
 10
80.73107820676913
 20
399.5946590881136
 30
0.0
 11
80.73107820676913
 21
418.0270010881136
 31
0.0
  0
LINE
  5
3A4
330
1F
100
AcDbEntity
  8
0
 62
   253
 48
0.4608090000000001
370
    35
100
AcDbLine
 10
471.931120206769
 20
399.5946590881136
 30
0.0
 11
471.931120206769
 21
418.0270010881136
 31
0.0
  0
LINE
  5
3A5
330
1F
100
AcDbEntity
  8
0
 62
   253
 48
0.1455
370
    35
100
AcDbLine
 10
151.3310842067691
 20
409.0238890881136
 30
0.0
 11
151.3310842067691
 21
414.8438960881135
 31
0.0
  0
LINE
  5
3A6
330
1F
100
AcDbEntity
  8
0
 62
   253
 48
0.074544
370
    35
100
AcDbLine
 10
151.3310842067691
 20
414.8438960881135
 30
0.0
 11
151.3310842067691
 21
417.8256470881136
 31
0.0
  0
LINE
  5
3A7
330
1F
100
AcDbEntity
  8
0
 62
   253
 48
0.1455
370
    35
100
AcDbLine
 10
221.3310842067691
 20
409.0238890881136
 30
0.0
 11
221.3310842067691
 21
414.8438960881135
 31
0.0
  0
LINE
  5
3A8
330
1F
100
AcDbEntity
  8
0
 62
   253
 48
0.074544
370
    35
100
AcDbLine
 10
221.3310842067691
 20
414.8438960881135
 30
0.0
 11
221.3310842067691
 21
417.8256470881136
 31
0.0
  0
LINE
  5
3A9
330
1F
100
AcDbEntity
  8
0
 62
   253
 48
0.074544
370
    35
100
AcDbLine
 10
401.331084206769
 20
414.8438960881135
 30
0.0
 11
401.331084206769
 21
417.8256470881136
 31
0.0
  0
LINE
  5
3AA
330
1F
100
AcDbEntity
  8
0
 62
   253
 48
0.1455
370
    35
100
AcDbLine
 10
401.331084206769
 20
409.0238890881136
 30
0.0
 11
401.331084206769
 21
414.8438960881135
 31
0.0
  0
LINE
  5
3AB
330
1F
100
AcDbEntity
  8
0
 62
   253
 48
0.1455
370
    35
100
AcDbLine
 10
331.3310842067691
 20
409.0238890881136
 30
0.0
 11
331.3310842067691
 21
414.8438960881135
 31
0.0
  0
LINE
  5
3AC
330
1F
100
AcDbEntity
  8
0
 62
   253
 48
0.074544
370
    35
100
AcDbLine
 10
331.3310842067691
 20
414.8438960881135
 30
0.0
 11
331.3310842067691
 21
417.8256470881136
 31
0.0
  0
LINE
  5
3AD
330
1F
100
AcDbEntity
  8
0
 62
   253
 48
0.067465
370
    35
100
AcDbLine
 10
83.92701620676911
 20
418.5251700881135
 30
0.0
 11
81.22842320676912
 21
418.5251700881135
 31
0.0
  0
LINE
  5
3AE
330
1F
100
AcDbEntity
  8
0
 62
   253
 48
0.013488
370
    35
100
AcDbLine
 10
83.92701620676911
 20
418.5251700881135
 30
0.0
 11
84.46655120676911
 21
418.5251700881135
 31
0.0
  0
LINE
  5
3AF
330
1F
100
AcDbEntity
  8
0
 62
   253
 48
0.024672
370
    35
100
AcDbLine
 10
85.4534142067691
 20
418.5251700881135
 30
0.0
 11
84.46655120676911
 21
418.5251700881135
 31
0.0
  0
LINE
  5
3B0
330
1F
100
AcDbEntity
  8
0
 62
   253
370
    35
100
AcDbLine
 10
85.4534142067691
 20
418.5251700881135
 30
0.0
 11
130.8310842067691
 21
418.5251700881135
 31
0.0
  0
LINE
  5
3B1
330
1F
100
AcDbEntity
  8
0
 62
   253
 48
0.093503
370
    35
100
AcDbLine
 10
131.3310842067691
 20
414.0931640881135
 30
0.0
 11
131.3310842067691
 21
417.8332760881136
 31
0.0
  0
LINE
  5
3B2
330
1F
100
AcDbEntity
  8
0
 62
   253
 48
0.004787
370
    35
100
AcDbLine
 10
131.3310842067691
 20
417.8332760881136
 30
0.0
 11
131.3310842067691
 21
418.0247430881136
 31
0.0
  0
LINE
  5
3B3
330
1F
100
AcDbEntity
  8
0
 62
   253
 48
0.004787
370
    35
100
AcDbLine
 10
241.3310842067691
 20
417.8332760881136
 30
0.0
 11
241.3310842067691
 21
418.0247430881136
 31
0.0
  0
LINE
  5
3B4
330
1F
100
AcDbEntity
  8
0
 62
   253
 48
0.093503
370
    35
100
AcDbLine
 10
241.3310842067691
 20
414.0931640881135
 30
0.0
 11
241.3310842067691
 21
417.8332760881136
 31
0.0
  0
LINE
  5
3B5
330
1F
100
AcDbEntity
  8
0
 62
   253
370
    35
100
AcDbLine
 10
421.831084206769
 20
418.5251700881135
 30
0.0
 11
467.208769206769
 21
418.5251700881135
 31
0.0
  0
LINE
  5
3B6
330
1F
100
AcDbEntity
  8
0
 62
   253
 48
0.024672
370
    35
100
AcDbLine
 10
468.1956472067691
 20
418.5251700881135
 30
0.0
 11
467.208769206769
 21
418.5251700881135
 31
0.0
  0
LINE
  5
3B7
330
1F
100
AcDbEntity
  8
0
 62
   253
 48
0.013487
370
    35
100
AcDbLine
 10
468.1956472067691
 20
418.5251700881135
 30
0.0
 11
468.7351372067691
 21
418.5251700881135
 31
0.0
  0
LINE
  5
3B8
330
1F
100
AcDbEntity
  8
0
 62
   253
 48
0.067465
370
    35
100
AcDbLine
 10
471.4337452067691
 20
418.5251700881135
 30
0.0
 11
468.7351372067691
 21
418.5251700881135
 31
0.0
  0
LINE
  5
3B9
330
1F
100
AcDbEntity
  8
0
 62
   253
 48
0.004787
370
    35
100
AcDbLine
 10
421.3310842067691
 20
417.8332760881136
 30
0.0
 11
421.3310842067691
 21
418.0247430881136
 31
0.0
  0
LINE
  5
3BA
330
1F
100
AcDbEntity
  8
0
 62
   253
 48
0.093503
370
    35
100
AcDbLine
 10
421.3310842067691
 20
414.0931640881135
 30
0.0
 11
421.3310842067691
 21
417.8332760881136
 31
0.0
  0
LINE
  5
3BB
330
1F
100
AcDbEntity
  8
0
 62
   253
 48
0.093503
370
    35
100
AcDbLine
 10
311.3310842067691
 20
414.0931640881135
 30
0.0
 11
311.3310842067691
 21
417.8332760881136
 31
0.0
  0
LINE
  5
3BC
330
1F
100
AcDbEntity
  8
0
 62
   253
 48
0.004787
370
    35
100
AcDbLine
 10
311.3310842067691
 20
417.8332760881136
 30
0.0
 11
311.3310842067691
 21
418.0247430881136
 31
0.0
  0
LINE
  5
3BD
330
1F
100
AcDbEntity
  8
0
 62
   253
370
    35
100
AcDbLine
 10
241.8310842067691
 20
418.5251700881135
 30
0.0
 11
310.8310842067691
 21
418.5251700881135
 31
0.0
  0
LINE
  5
3BE
330
1F
100
AcDbEntity
  8
0
 62
   253
 48
0.011659
370
    35
100
AcDbLine
 10
221.3310842067691
 20
417.8256470881136
 30
0.0
 11
221.3310842067691
 21
418.2920160881135
 31
0.0
  0
LINE
  5
3BF
330
1F
100
AcDbEntity
  8
0
 62
   253
 48
0.011659
370
    35
100
AcDbLine
 10
151.3310842067691
 20
417.8256470881136
 30
0.0
 11
151.3310842067691
 21
418.2920160881135
 31
0.0
  0
LINE
  5
3C0
330
1F
100
AcDbEntity
  8
0
 62
   253
 48
0.011659
370
    35
100
AcDbLine
 10
401.331084206769
 20
417.8256470881136
 30
0.0
 11
401.331084206769
 21
418.2920160881135
 31
0.0
  0
LINE
  5
3C1
330
1F
100
AcDbEntity
  8
0
 62
   253
 48
0.011659
370
    35
100
AcDbLine
 10
331.3310842067691
 20
417.8256470881136
 30
0.0
 11
331.3310842067691
 21
418.2920160881135
 31
0.0
  0
ARC
  5
3C2
330
1F
100
AcDbEntity
  8
0
 62
   253
370
    35
100
AcDbCircle
 10
421.8313282067691
 20
418.0249870881135
 30
0.0
 40
0.5002290000000001
100
AcDbArc
 50
90.03028800000008
 51
180.030184
  0
ARC
  5
3C3
330
1F
100
AcDbEntity
  8
0
 62
   253
370
    35
100
AcDbCircle
 10
471.434294206769
 20
418.0285270881135
 30
0.0
 40
0.4966640000000001
100
AcDbArc
 50
359.826825
 51
90.06193899999995
  0
ARC
  5
3C4
330
1F
100
AcDbEntity
  8
0
 62
   253
370
    35
100
AcDbCircle
 10
310.8308092067691
 20
418.0249870881135
 30
0.0
 40
0.5002290000000001
100
AcDbArc
 50
359.96983
 51
89.969704
  0
ARC
  5
3C5
330
1F
100
AcDbEntity
  8
0
 62
   253
370
    35
100
AcDbCircle
 10
241.8313582067691
 20
418.0249870881135
 30
0.0
 40
0.5002290000000001
100
AcDbArc
 50
90.03028800000008
 51
180.030184
  0
ARC
  5
3C6
330
1F
100
AcDbEntity
  8
0
 62
   253
370
    35
100
AcDbCircle
 10
130.8308242067691
 20
418.0249870881135
 30
0.0
 40
0.5002290000000001
100
AcDbArc
 50
359.96983
 51
89.969704
  0
ARC
  5
3C7
330
1F
100
AcDbEntity
  8
0
 62
   253
370
    35
100
AcDbCircle
 10
81.22788920676912
 20
418.0285270881135
 30
0.0
 40
0.4966640000000001
100
AcDbArc
 50
89.938066
 51
180.1731809999999
  0
LINE
  5
3C8
330
1F
100
AcDbEntity
  8
0
 62
   253
 48
0.016769
370
    35
100
AcDbLine
 10
401.331084206769
 20
409.0058830881136
 30
0.0
 11
401.331084206769
 21
408.3351070881135
 31
0.0
  0
LINE
  5
3C9
330
1F
100
AcDbEntity
  8
0
 62
   253
 48
0.067903
370
    35
100
AcDbLine
 10
401.331084206769
 20
405.6189200881135
 30
0.0
 11
401.331084206769
 21
408.3350460881136
 31
0.0
  0
LINE
  5
3CA
330
1F
100
AcDbEntity
  8
0
 62
   253
 48
0.000447
370
    35
100
AcDbLine
 10
401.331084206769
 20
409.0237670881135
 30
0.0
 11
401.331084206769
 21
409.0058830881136
 31
0.0
  0
ARC
  5
3CB
330
1F
100
AcDbEntity
  8
0
 62
   253
370
    35
100
AcDbCircle
 10
420.4910572067691
 20
411.3822260881136
 30
0.0
 40
0.9169159999999999
100
AcDbArc
 50
102.862949
 51
116.5844169999999
  0
ARC
  5
3CC
330
1F
100
AcDbEntity
  8
0
 62
   253
370
    35
100
AcDbCircle
 10
420.5812672067691
 20
411.0525750881135
 30
0.0
 40
1.258637999999999
100
AcDbArc
 50
97.8635109999999
 51
103.525819
  0
LINE
  5
3CD
330
1F
100
AcDbEntity
  8
0
 62
   253
 48
0.007334
370
    35
100
AcDbLine
 10
420.409026206769
 20
412.2994010881135
 30
0.0
 11
420.6996752067691
 21
412.3391960881135
 31
0.0
  0
LINE
  5
3CE
330
1F
100
AcDbEntity
  8
0
 62
   253
 48
0.000334
370
    35
100
AcDbLine
 10
420.6996752067691
 20
412.3391960881135
 30
0.0
 11
420.712859206769
 21
412.3413330881136
 31
0.0
  0
LINE
  5
3CF
330
1F
100
AcDbEntity
  8
0
 62
   253
 48
0.002499
370
    35
100
AcDbLine
 10
401.331084206769
 20
405.6189200881135
 30
0.0
 11
401.331084206769
 21
405.5189450881135
 31
0.0
  0
LINE
  5
3D0
330
1F
100
AcDbEntity
  8
0
 62
   253
 48
0.001672
370
    35
100
AcDbLine
 10
420.7797532067691
 20
412.3417600881135
 30
0.0
 11
420.712859206769
 21
412.3413330881136
 31
0.0
  0
LINE
  5
3D1
330
1F
100
AcDbEntity
  8
0
 62
   253
 48
0.067903
370
    35
100
AcDbLine
 10
331.3310842067691
 20
405.6189200881135
 30
0.0
 11
331.3310842067691
 21
408.3350460881136
 31
0.0
  0
LINE
  5
3D2
330
1F
100
AcDbEntity
  8
0
 62
   253
 48
0.016771
370
    35
100
AcDbLine
 10
331.3310842067691
 20
409.0058830881136
 30
0.0
 11
331.3310842067691
 21
408.3350460881136
 31
0.0
  0
LINE
  5
3D3
330
1F
100
AcDbEntity
  8
0
 62
   253
 48
0.000447
370
    35
100
AcDbLine
 10
331.3310842067691
 20
409.0237670881135
 30
0.0
 11
331.3310842067691
 21
409.0058830881136
 31
0.0
  0
ARC
  5
3D4
330
1F
100
AcDbEntity
  8
0
 62
   253
370
    35
100
AcDbCircle
 10
312.1711412067691
 20
411.3822260881136
 30
0.0
 40
0.9169159999999999
100
AcDbArc
 50
63.41558099999992
 51
77.13704899999992
  0
LINE
  5
3D5
330
1F
100
AcDbEntity
  8
0
 62
   253
 48
0.000335
370
    35
100
AcDbLine
 10
311.9624932067691
 20
412.3391960881135
 30
0.0
 11
311.9492782067691
 21
412.3413330881136
 31
0.0
  0
LINE
  5
3D6
330
1F
100
AcDbEntity
  8
0
 62
   253
 48
0.007334
370
    35
100
AcDbLine
 10
312.2531422067691
 20
412.2994010881135
 30
0.0
 11
311.9624932067691
 21
412.3391960881135
 31
0.0
  0
ARC
  5
3D7
330
1F
100
AcDbEntity
  8
0
 62
   253
370
    35
100
AcDbCircle
 10
312.0809012067691
 20
411.0523920881136
 30
0.0
 40
1.258839999999999
100
AcDbArc
 50
76.47481400000001
 51
82.13620800000002
  0
LINE
  5
3D8
330
1F
100
AcDbEntity
  8
0
 62
   253
 48
0.001672
370
    35
100
AcDbLine
 10
311.8823842067691
 20
412.3417600881135
 30
0.0
 11
311.9492782067691
 21
412.3413330881136
 31
0.0
  0
LINE
  5
3D9
330
1F
100
AcDbEntity
  8
0
 62
   253
 48
0.002499
370
    35
100
AcDbLine
 10
331.3310842067691
 20
405.6189200881135
 30
0.0
 11
331.3310842067691
 21
405.5189450881135
 31
0.0
  0
LINE
  5
3DA
330
1F
100
AcDbEntity
  8
0
 62
   253
 48
0.016771
370
    35
100
AcDbLine
 10
221.3310842067691
 20
409.0058830881136
 30
0.0
 11
221.3310842067691
 21
408.3350460881136
 31
0.0
  0
LINE
  5
3DB
330
1F
100
AcDbEntity
  8
0
 62
   253
 48
0.067903
370
    35
100
AcDbLine
 10
221.3310842067691
 20
405.6189200881135
 30
0.0
 11
221.3310842067691
 21
408.3350460881136
 31
0.0
  0
LINE
  5
3DC
330
1F
100
AcDbEntity
  8
0
 62
   253
 48
0.000447
370
    35
100
AcDbLine
 10
221.3310842067691
 20
409.0237670881135
 30
0.0
 11
221.3310842067691
 21
409.0058830881136
 31
0.0
  0
ARC
  5
3DD
330
1F
100
AcDbEntity
  8
0
 62
   253
370
    35
100
AcDbCircle
 10
240.4911792067691
 20
411.3820430881136
 30
0.0
 40
0.9171229999999999
100
AcDbArc
 50
102.869452
 51
116.5878319999999
  0
ARC
  5
3DE
330
1F
100
AcDbEntity
  8
0
 62
   253
370
    35
100
AcDbCircle
 10
240.5813582067691
 20
411.0525140881135
 30
0.0
 40
1.258703
100
AcDbArc
 50
97.86840799999998
 51
103.5304229999999
  0
LINE
  5
3DF
330
1F
100
AcDbEntity
  8
0
 62
   253
 48
0.007334
370
    35
100
AcDbLine
 10
240.4090262067691
 20
412.2994010881135
 30
0.0
 11
240.6996752067691
 21
412.3391960881135
 31
0.0
  0
LINE
  5
3E0
330
1F
100
AcDbEntity
  8
0
 62
   253
 48
0.000335
370
    35
100
AcDbLine
 10
240.6996752067691
 20
412.3391960881135
 30
0.0
 11
240.7128892067691
 21
412.3413330881136
 31
0.0
  0
LINE
  5
3E1
330
1F
100
AcDbEntity
  8
0
 62
   253
 48
0.002499
370
    35
100
AcDbLine
 10
221.3310842067691
 20
405.6189200881135
 30
0.0
 11
221.3310842067691
 21
405.5189450881135
 31
0.0
  0
LINE
  5
3E2
330
1F
100
AcDbEntity
  8
0
 62
   253
 48
0.001672
370
    35
100
AcDbLine
 10
240.7797842067691
 20
412.3417600881135
 30
0.0
 11
240.7128892067691
 21
412.3413330881136
 31
0.0
  0
LINE
  5
3E3
330
1F
100
AcDbEntity
  8
0
 62
   253
 48
0.067903
370
    35
100
AcDbLine
 10
151.3310842067691
 20
405.6189200881135
 30
0.0
 11
151.3310842067691
 21
408.3350460881136
 31
0.0
  0
LINE
  5
3E4
330
1F
100
AcDbEntity
  8
0
 62
   253
 48
0.016769
370
    35
100
AcDbLine
 10
151.3310842067691
 20
409.0058830881136
 30
0.0
 11
151.3310842067691
 21
408.3351070881135
 31
0.0
  0
LINE
  5
3E5
330
1F
100
AcDbEntity
  8
0
 62
   253
 48
0.000447
370
    35
100
AcDbLine
 10
151.3310842067691
 20
409.0237670881135
 30
0.0
 11
151.3310842067691
 21
409.0058830881136
 31
0.0
  0
ARC
  5
3E6
330
1F
100
AcDbEntity
  8
0
 62
   253
370
    35
100
AcDbCircle
 10
132.1711262067691
 20
411.3822260881136
 30
0.0
 40
0.916947
100
AcDbArc
 50
63.41582699999995
 51
77.13683700000008
  0
LINE
  5
3E7
330
1F
100
AcDbEntity
  8
0
 62
   253
 48
0.000334
370
    35
100
AcDbLine
 10
131.9492782067691
 20
412.3413330881136
 30
0.0
 11
131.9624772067691
 21
412.3391960881135
 31
0.0
  0
LINE
  5
3E8
330
1F
100
AcDbEntity
  8
0
 62
   253
 48
0.007334
370
    35
100
AcDbLine
 10
131.9624772067691
 20
412.3391960881135
 30
0.0
 11
132.2531272067691
 21
412.2994010881135
 31
0.0
  0
ARC
  5
3E9
330
1F
100
AcDbEntity
  8
0
 62
   253
370
    35
100
AcDbCircle
 10
132.0809162067691
 20
411.0525750881135
 30
0.0
 40
1.258636
100
AcDbArc
 50
76.47417899999995
 51
82.13649500000007
  0
LINE
  5
3EA
330
1F
100
AcDbEntity
  8
0
 62
   253
 48
0.002499
370
    35
100
AcDbLine
 10
151.3310842067691
 20
405.5189450881135
 30
0.0
 11
151.3310842067691
 21
405.6189200881135
 31
0.0
  0
LINE
  5
3EB
330
1F
100
AcDbEntity
  8
0
 62
   253
 48
0.001672
370
    35
100
AcDbLine
 10
131.9492782067691
 20
412.3413330881136
 30
0.0
 11
131.8823842067691
 21
412.3417600881135
 31
0.0
  0
ELLIPSE
  5
3EC
330
1F
100
AcDbEntity
  8
0
 62
   253
370
    35
100
AcDbEllipse
 10
373.4497972067691
 20
400.7536250881136
 30
0.0
 11
0.1416626
 21
-0.14117432
 31
0.0
210
0.0
220
0.0
230
1.0
 40
0.012362
 41
4.724709579999999
 42
6.295505907179586
  0
LINE
  5
3ED
330
1F
100
AcDbEntity
  8
0
 62
   253
 48
0.008305
370
    35
100
AcDbLine
 10
377.0254812067691
 20
409.0237670881135
 30
0.0
 11
376.6932972067691
 21
409.0248650881135
 31
0.0
  0
LINE
  5
3EE
330
1F
100
AcDbEntity
  8
0
 62
   253
 48
0.008305
370
    35
100
AcDbLine
 10
355.6366872067691
 20
409.0237670881135
 30
0.0
 11
355.9688712067691
 21
409.0248650881135
 31
0.0
  0
LINE
  5
3EF
330
1F
100
AcDbEntity
  8
0
 62
   253
 48
0.000035
370
    35
100
AcDbLine
 10
355.9688712067691
 20
409.0248650881135
 30
0.0
 11
355.9702742067691
 21
409.0249870881136
 31
0.0
  0
LINE
  5
3F0
330
1F
100
AcDbEntity
  8
0
 62
   253
370
    35
100
AcDbLine
 10
401.331084206769
 20
405.5189450881135
 30
0.0
 11
376.5039052067691
 21
405.5189450881135
 31
0.0
  0
LINE
  5
3F1
330
1F
100
AcDbEntity
  8
0
 62
   253
370
    35
100
AcDbLine
 10
356.1582632067691
 20
405.5189450881135
 30
0.0
 11
331.3310842067691
 21
405.5189450881135
 31
0.0
  0
ELLIPSE
  5
3F2
330
1F
100
AcDbEntity
  8
0
 62
   253
370
    35
100
AcDbEllipse
 10
366.3310842067691
 20
407.8467040881135
 30
0.0
 11
10.25
 21
0.0
 31
0.0
210
0.0
220
0.0
230
1.0
 40
0.9998479999999998
 41
6.03768056
 42
6.273490269999999
  0
ELLIPSE
  5
3F3
330
1F
100
AcDbEntity
  8
0
 62
   253
370
    35
100
AcDbEllipse
 10
366.3310842067691
 20
407.8467040881135
 30
0.0
 11
10.25
 21
0.0
 31
0.0
210
0.0
220
0.0
230
1.0
 40
0.9998479999999998
 41
3.15128772
 42
3.387097429999999
  0
LINE
  5
3F4
330
1F
100
AcDbEntity
  8
0
 62
   253
 48
0.000475
370
    35
100
AcDbLine
 10
356.1672042067691
 20
409.1989990881136
 30
0.0
 11
356.1672042067691
 21
409.1800170881136
 31
0.0
  0
LINE
  5
3F5
330
1F
100
AcDbEntity
  8
0
 62
   253
 48
0.004067
370
    35
100
AcDbLine
 10
356.1672042067691
 20
409.1800170881136
 30
0.0
 11
356.1483142067691
 21
409.0184570881135
 31
0.0
  0
ELLIPSE
  5
3F6
330
1F
100
AcDbEntity
  8
0
 62
   253
370
    35
100
AcDbEllipse
 10
366.3310842067691
 20
407.8467040881135
 30
0.0
 11
10.25
 21
0.0
 31
0.0
210
0.0
220
0.0
230
1.0
 40
0.9998479999999998
 41
0.11459006
 42
3.027002589999999
  0
LINE
  5
3F7
330
1F
100
AcDbEntity
  8
0
 62
   253
 48
0.004067
370
    35
100
AcDbLine
 10
376.5138542067691
 20
409.0184570881135
 30
0.0
 11
376.4949632067691
 21
409.1800170881136
 31
0.0
  0
LINE
  5
3F8
330
1F
100
AcDbEntity
  8
0
 62
   253
 48
0.000475
370
    35
100
AcDbLine
 10
376.4949632067691
 20
409.1800170881136
 30
0.0
 11
376.4949632067691
 21
409.1989990881136
 31
0.0
  0
ARC
  5
3F9
330
1F
100
AcDbEntity
  8
0
 62
   253
370
    35
100
AcDbCircle
 10
359.2581772067691
 20
407.7497800881135
 30
0.0
 40
3.17682
100
AcDbArc
 50
170.726329
 51
180.044883
  0
ARC
  5
3FA
330
1F
100
AcDbEntity
  8
0
 62
   253
370
    35
100
AcDbCircle
 10
373.4039902067691
 20
407.7497800881135
 30
0.0
 40
3.17682
100
AcDbArc
 50
359.955114
 51
9.273671999999974
  0
LINE
  5
3FB
330
1F
100
AcDbEntity
  8
0
 62
   253
 48
0.001197
370
    35
100
AcDbLine
 10
356.2058092067691
 20
405.5244690881136
 30
0.0
 11
356.1582632067691
 21
405.5189450881135
 31
0.0
  0
LINE
  5
3FC
330
1F
100
AcDbEntity
  8
0
 62
   253
 48
0.001202
370
    35
100
AcDbLine
 10
376.4563582067691
 20
405.5244690881136
 30
0.0
 11
376.5041182067691
 21
405.5189140881135
 31
0.0
  0
LINE
  5
3FD
330
1F
100
AcDbEntity
  8
0
 62
   253
 48
0.008305
370
    35
100
AcDbLine
 10
197.0254812067691
 20
409.0237670881135
 30
0.0
 11
196.6932972067691
 21
409.0248650881135
 31
0.0
  0
LINE
  5
3FE
330
1F
100
AcDbEntity
  8
0
 62
   253
 48
0.000035
370
    35
100
AcDbLine
 10
196.6932972067691
 20
409.0248650881135
 30
0.0
 11
196.6918932067691
 21
409.0249870881136
 31
0.0
  0
LINE
  5
3FF
330
1F
100
AcDbEntity
  8
0
 62
   253
 48
0.008305
370
    35
100
AcDbLine
 10
175.6366872067691
 20
409.0237670881135
 30
0.0
 11
175.9688712067691
 21
409.0248650881135
 31
0.0
  0
LINE
  5
400
330
1F
100
AcDbEntity
  8
0
 62
   253
370
    35
100
AcDbLine
 10
221.3310842067691
 20
405.5189450881135
 30
0.0
 11
196.5039052067691
 21
405.5189450881135
 31
0.0
  0
LINE
  5
401
330
1F
100
AcDbEntity
  8
0
 62
   253
370
    35
100
AcDbLine
 10
151.3310842067691
 20
405.5189450881135
 30
0.0
 11
176.1582632067691
 21
405.5189450881135
 31
0.0
  0
ELLIPSE
  5
402
330
1F
100
AcDbEntity
  8
0
 62
   253
370
    35
100
AcDbEllipse
 10
186.3310842067691
 20
407.8467040881135
 30
0.0
 11
10.25
 21
0.0
 31
0.0
210
0.0
220
0.0
230
1.0
 40
0.9998479999999998
 41
6.03768057
 42
6.273490319999999
  0
ELLIPSE
  5
403
330
1F
100
AcDbEntity
  8
0
 62
   253
370
    35
100
AcDbEllipse
 10
186.3310842067691
 20
407.8467040881135
 30
0.0
 11
10.25
 21
0.0
 31
0.0
210
0.0
220
0.0
230
1.0
 40
0.9998479999999998
 41
3.15128777
 42
3.38709746
  0
LINE
  5
404
330
1F
100
AcDbEntity
  8
0
 62
   253
 48
0.000221
370
    35
100
AcDbLine
 10
176.1671432067691
 20
409.1990600881135
 30
0.0
 11
176.1657402067691
 21
409.1903320881135
 31
0.0
  0
LINE
  5
405
330
1F
100
AcDbEntity
  8
0
 62
   253
 48
0.000475
370
    35
100
AcDbLine
 10
176.1672042067691
 20
409.1800170881136
 30
0.0
 11
176.1672042067691
 21
409.1989990881136
 31
0.0
  0
ELLIPSE
  5
406
330
1F
100
AcDbEntity
  8
0
 62
   253
370
    35
100
AcDbEllipse
 10
186.3310842067691
 20
407.8467040881135
 30
0.0
 11
10.25
 21
0.0
 31
0.0
210
0.0
220
0.0
230
1.0
 40
0.9998479999999998
 41
0.11459006
 42
3.0270026
  0
LINE
  5
407
330
1F
100
AcDbEntity
  8
0
 62
   253
 48
0.004067
370
    35
100
AcDbLine
 10
196.4949632067691
 20
409.1800170881136
 30
0.0
 11
196.5138542067691
 21
409.0184570881135
 31
0.0
  0
LINE
  5
408
330
1F
100
AcDbEntity
  8
0
 62
   253
 48
0.000475
370
    35
100
AcDbLine
 10
196.4949632067691
 20
409.1989990881136
 30
0.0
 11
196.4949632067691
 21
409.1800170881136
 31
0.0
  0
LINE
  5
409
330
1F
100
AcDbEntity
  8
0
 62
   253
 48
0.000221
370
    35
100
AcDbLine
 10
196.4950242067691
 20
409.1990600881135
 30
0.0
 11
196.4964282067691
 21
409.1903320881135
 31
0.0
  0
ARC
  5
40A
330
1F
100
AcDbEntity
  8
0
 62
   253
370
    35
100
AcDbCircle
 10
179.2590622067691
 20
407.7494750881136
 30
0.0
 40
3.177723999999999
100
AcDbArc
 50
170.7231189999999
 51
180.0390229999999
  0
ARC
  5
40B
330
1F
100
AcDbEntity
  8
0
 62
   253
370
    35
100
AcDbCircle
 10
193.4031052067691
 20
407.7494750881136
 30
0.0
 40
3.177725
100
AcDbArc
 50
359.960977
 51
9.276882000000014
  0
LINE
  5
40C
330
1F
100
AcDbEntity
  8
0
 62
   253
 48
0.001197
370
    35
100
AcDbLine
 10
196.4563582067691
 20
405.5244690881136
 30
0.0
 11
196.5039052067691
 21
405.5189450881135
 31
0.0
  0
LINE
  5
40D
330
1F
100
AcDbEntity
  8
0
 62
   253
 48
0.001197
370
    35
100
AcDbLine
 10
176.2058092067691
 20
405.5244690881136
 30
0.0
 11
176.1582632067691
 21
405.5189450881135
 31
0.0
  0
LINE
  5
40E
330
1F
100
AcDbEntity
  8
0
 62
   253
370
    35
100
AcDbLine
 10
197.0254812067691
 20
409.0238280881135
 30
0.0
 11
221.3310842067691
 21
409.0238280881135
 31
0.0
  0
LINE
  5
40F
330
1F
100
AcDbEntity
  8
0
 62
   253
370
    35
100
AcDbLine
 10
151.3310842067691
 20
409.0238280881135
 30
0.0
 11
175.6366872067691
 21
409.0238280881135
 31
0.0
  0
LINE
  5
410
330
1F
100
AcDbEntity
  8
0
 62
   253
370
    35
100
AcDbLine
 10
377.0254812067691
 20
409.0238280881135
 30
0.0
 11
401.331084206769
 21
409.0238280881135
 31
0.0
  0
LINE
  5
411
330
1F
100
AcDbEntity
  8
0
 62
   253
370
    35
100
AcDbLine
 10
331.3310842067691
 20
409.0238280881135
 30
0.0
 11
355.6366872067691
 21
409.0238280881135
 31
0.0
  0
LINE
  5
412
330
1F
100
AcDbEntity
  8
0
 62
   253
 48
0.000076
370
    35
100
AcDbLine
 10
133.0353382067691
 20
411.9638910881135
 30
0.0
 11
133.0326072067691
 21
411.9652340881136
 31
0.0
  0
LINE
  5
413
330
1F
100
AcDbEntity
  8
0
 62
   253
 48
0.000076
370
    35
100
AcDbLine
 10
419.6267992067691
 20
411.9638910881135
 30
0.0
 11
419.6295462067691
 21
411.9652340881136
 31
0.0
  0
LINE
  5
414
330
1F
100
AcDbEntity
  8
0
 62
   253
 48
0.000076
370
    35
100
AcDbLine
 10
313.0326222067691
 20
411.9652340881136
 30
0.0
 11
313.0353382067691
 21
411.9638910881135
 31
0.0
  0
ARC
  5
415
330
1F
100
AcDbEntity
  8
0
 62
   253
370
    35
100
AcDbCircle
 10
240.2833242067691
 20
461.1452270881135
 30
0.0
 40
42.69666299999999
100
AcDbArc
 50
270.2946310000001
 51
271.7693649999999
  0
ARC
  5
416
330
1F
100
AcDbEntity
  8
0
 62
   253
370
    35
100
AcDbCircle
 10
222.9646592067691
 20
2337.720605088113
 30
0.0
 40
1919.352284
100
AcDbArc
 50
270.204767
 51
270.523552
  0
LINE
  5
417
330
1F
100
AcDbEntity
  8
0
 62
   253
370
    35
100
AcDbLine
 10
221.3310842067691
 20
418.2920160881135
 30
0.0
 11
190.8345632067691
 21
418.2920160881135
 31
0.0
  0
LINE
  5
418
330
1F
100
AcDbEntity
  8
0
 62
   253
370
    35
100
AcDbLine
 10
181.8276052067691
 20
418.2920160881135
 30
0.0
 11
151.3310842067691
 21
418.2920160881135
 31
0.0
  0
ARC
  5
419
330
1F
100
AcDbEntity
  8
0
 62
   253
370
    35
100
AcDbCircle
 10
149.6974172067691
 20
2337.706201088113
 30
0.0
 40
1919.337717
100
AcDbArc
 50
269.4764499999999
 51
269.7952349999999
  0
ARC
  5
41A
330
1F
100
AcDbEntity
  8
0
 62
   253
370
    35
100
AcDbCircle
 10
132.3800652067691
 20
461.2204220881135
 30
0.0
 40
42.771846
100
AcDbArc
 50
268.2333489999999
 51
269.704243
  0
ARC
  5
41B
330
1F
100
AcDbEntity
  8
0
 62
   253
370
    35
100
AcDbCircle
 10
420.2821342067691
 20
461.2196890881135
 30
0.0
 40
42.77110799999999
100
AcDbArc
 50
270.2957449999999
 51
271.7666669999999
  0
ARC
  5
41C
330
1F
100
AcDbEntity
  8
0
 62
   253
370
    35
100
AcDbCircle
 10
402.9647512067691
 20
2337.704980088113
 30
0.0
 40
1919.33666
100
AcDbArc
 50
270.204767
 51
270.523552
  0
LINE
  5
41D
330
1F
100
AcDbEntity
  8
0
 62
   253
370
    35
100
AcDbLine
 10
401.331084206769
 20
418.2920160881135
 30
0.0
 11
370.8345632067691
 21
418.2920160881135
 31
0.0
  0
LINE
  5
41E
330
1F
100
AcDbEntity
  8
0
 62
   253
370
    35
100
AcDbLine
 10
361.8276052067691
 20
418.2920160881135
 30
0.0
 11
331.3310842067691
 21
418.2920160881135
 31
0.0
  0
ARC
  5
41F
330
1F
100
AcDbEntity
  8
0
 62
   253
370
    35
100
AcDbCircle
 10
329.6974782067691
 20
2337.717431088114
 30
0.0
 40
1919.349087
100
AcDbArc
 50
269.4764499999999
 51
269.7952349999999
  0
ARC
  5
420
330
1F
100
AcDbEntity
  8
0
 62
   253
370
    35
100
AcDbCircle
 10
312.3788442067692
 20
461.1459590881135
 30
0.0
 40
42.697396
100
AcDbArc
 50
268.230644
 51
269.7053499999999
  0
ARC
  5
421
330
1F
100
AcDbEntity
  8
0
 62
   253
370
    35
100
AcDbCircle
 10
369.3415822067691
 20
404.8484430881135
 30
0.0
 40
6.000426999999999
100
AcDbArc
 50
269.9990749999999
 51
315.0936339999999
  0
LINE
  5
422
330
1F
100
AcDbEntity
  8
0
 62
   253
 48
0.15052
370
    35
100
AcDbLine
 10
363.3206772067691
 20
398.8480160881136
 30
0.0
 11
369.3414902067691
 21
398.8480160881136
 31
0.0
  0
ARC
  5
423
330
1F
100
AcDbEntity
  8
0
 62
   253
370
    35
100
AcDbCircle
 10
363.3205862067691
 20
404.8484430881135
 30
0.0
 40
6.000426999999999
100
AcDbArc
 50
224.9063710000001
 51
270.000933
  0
LINE
  5
424
330
1F
100
AcDbEntity
  8
0
 62
   253
 48
0.008381
370
    35
100
AcDbLine
 10
376.6902452067691
 20
409.0248650881135
 30
0.0
 11
377.0254812067691
 21
409.0238280881135
 31
0.0
  0
LINE
  5
425
330
1F
100
AcDbEntity
  8
0
 62
   253
 48
0.00834
370
    35
100
AcDbLine
 10
355.9702742067691
 20
409.0249870881136
 30
0.0
 11
355.6366872067691
 21
409.0238280881135
 31
0.0
  0
ARC
  5
426
330
1F
100
AcDbEntity
  8
0
 62
   253
370
    35
100
AcDbCircle
 10
366.3291002067691
 20
407.8470090881136
 30
0.0
 40
10.248067
100
AcDbArc
 50
194.068914
 51
224.9059069999999
  0
ARC
  5
427
330
1F
100
AcDbEntity
  8
0
 62
   253
370
    35
100
AcDbCircle
 10
366.3330672067691
 20
407.8470090881136
 30
0.0
 40
10.248067
100
AcDbArc
 50
315.0940980000001
 51
345.9310899999999
  0
ARC
  5
428
330
1F
100
AcDbEntity
  8
0
 62
   253
370
    35
100
AcDbCircle
 10
189.3415822067691
 20
404.8484430881135
 30
0.0
 40
6.000426999999999
100
AcDbArc
 50
269.9990749999999
 51
315.0936339999999
  0
LINE
  5
429
330
1F
100
AcDbEntity
  8
0
 62
   253
 48
0.15052
370
    35
100
AcDbLine
 10
183.3206772067691
 20
398.8480160881136
 30
0.0
 11
189.3414902067691
 21
398.8480160881136
 31
0.0
  0
ARC
  5
42A
330
1F
100
AcDbEntity
  8
0
 62
   253
370
    35
100
AcDbCircle
 10
183.3205862067691
 20
404.8484430881135
 30
0.0
 40
6.000426999999999
100
AcDbArc
 50
224.9063710000001
 51
270.000933
  0
LINE
  5
42B
330
1F
100
AcDbEntity
  8
0
 62
   253
 48
0.00834
370
    35
100
AcDbLine
 10
196.6918932067691
 20
409.0249870881136
 30
0.0
 11
197.0254812067691
 21
409.0238280881135
 31
0.0
  0
LINE
  5
42C
330
1F
100
AcDbEntity
  8
0
 62
   253
 48
0.008381
370
    35
100
AcDbLine
 10
175.9719222067691
 20
409.0248650881135
 30
0.0
 11
175.6366872067691
 21
409.0238280881135
 31
0.0
  0
ARC
  5
42D
330
1F
100
AcDbEntity
  8
0
 62
   253
370
    35
100
AcDbCircle
 10
186.3291002067691
 20
407.8470090881136
 30
0.0
 40
10.248067
100
AcDbArc
 50
194.068914
 51
224.9059069999999
  0
ARC
  5
42E
330
1F
100
AcDbEntity
  8
0
 62
   253
370
    35
100
AcDbCircle
 10
186.3330672067691
 20
407.8470090881136
 30
0.0
 40
10.248067
100
AcDbArc
 50
315.0940980000001
 51
345.9310910000001
  0
LINE
  5
42F
330
1F
100
AcDbEntity
  8
0
 62
   253
370
    35
100
AcDbLine
 10
80.53108120676911
 20
422.8311400881135
 30
0.0
 11
80.53108120676911
 21
526.5473870881136
 31
0.0
  0
LINE
  5
430
330
1F
100
AcDbEntity
  8
0
 62
   253
370
    35
100
AcDbLine
 10
472.131072206769
 20
526.5473870881136
 30
0.0
 11
472.131072206769
 21
422.8311400881135
 31
0.0
  0
ARC
  5
431
330
1F
100
AcDbEntity
  8
0
 62
   253
370
    35
100
AcDbCircle
 10
470.1421192067691
 20
526.5508050881136
 30
0.0
 40
1.988738999999999
100
AcDbArc
 50
359.901857
 51
90.09815199999996
  0
LINE
  5
432
330
1F
100
AcDbEntity
  8
0
 62
   253
370
    35
100
AcDbLine
 10
470.1387012067691
 20
528.5398190881136
 30
0.0
 11
82.52346720676911
 21
528.5398190881136
 31
0.0
  0
ARC
  5
433
330
1F
100
AcDbEntity
  8
0
 62
   253
370
    35
100
AcDbCircle
 10
82.52006420676911
 20
526.5508050881136
 30
0.0
 40
1.988738999999999
100
AcDbArc
 50
89.90185299999993
 51
180.0981449999999
  0
ELLIPSE
  5
434
330
1F
100
AcDbEntity
  8
0
 62
   253
370
    35
100
AcDbEllipse
 10
80.52928020676912
 20
419.3379150881136
 30
0.0
 11
0.0
 21
-1.00030518
 31
0.0
210
0.0
220
0.0
230
1.0
 40
0.087476
 41
3.159042879999999
 42
3.606658729999999
  0
LINE
  5
435
330
1F
100
AcDbEntity
  8
0
 62
   253
 48
0.001729
370
    35
100
AcDbLine
 10
80.4900352067691
 20
420.2319580881136
 30
0.0
 11
80.4798572067691
 21
420.1635370881136
 31
0.0
  0
LINE
  5
436
330
1F
100
AcDbEntity
  8
0
 62
   253
 48
0.05415
370
    35
100
AcDbLine
 10
80.4798572067691
 20
420.1635370881136
 30
0.0
 11
80.4798572067691
 21
422.3295530881135
 31
0.0
  0
LINE
  5
437
330
1F
100
AcDbEntity
  8
0
 62
   253
 48
0.00021
370
    35
100
AcDbLine
 10
80.4798572067691
 20
422.3295530881135
 30
0.0
 11
80.48809720676912
 21
422.3312010881135
 31
0.0
  0
ELLIPSE
  5
438
330
1F
100
AcDbEntity
  8
0
 62
   253
370
    35
100
AcDbEllipse
 10
80.48733420676912
 20
422.8311400881135
 30
0.0
 11
0.0
 21
-0.5
 31
0.0
210
0.0
220
0.0
230
1.0
 40
0.087489
 41
0.01745329
 42
1.57079633
  0
ELLIPSE
  5
439
330
1F
100
AcDbEntity
  8
0
 62
   253
370
    35
100
AcDbEllipse
 10
472.1748342067691
 20
422.8311400881135
 30
0.0
 11
0.0
 21
-0.5
 31
0.0
210
0.0
220
0.0
230
1.0
 40
0.087489
 41
4.71238898
 42
6.265732009999999
  0
LINE
  5
43A
330
1F
100
AcDbEntity
  8
0
 62
   253
 48
0.001729
370
    35
100
AcDbLine
 10
472.1721482067691
 20
420.2319580881136
 30
0.0
 11
472.1823412067691
 21
420.1635370881136
 31
0.0
  0
ELLIPSE
  5
43B
330
1F
100
AcDbEntity
  8
0
 62
   253
370
    35
100
AcDbEllipse
 10
472.1329032067691
 20
419.3380980881135
 30
0.0
 11
0.0
 21
-1.000122069999999
 31
0.0
210
0.0
220
0.0
230
1.0
 40
0.087483
 41
2.676486189999999
 42
3.1241407
  0
LINE
  5
43C
330
1F
100
AcDbEntity
  8
0
 62
   253
 48
0.000212
370
    35
100
AcDbLine
 10
472.1823412067691
 20
422.3295530881135
 30
0.0
 11
472.1740402067691
 21
422.3312010881135
 31
0.0
  0
LINE
  5
43D
330
1F
100
AcDbEntity
  8
0
 62
   253
 48
0.05415
370
    35
100
AcDbLine
 10
472.1823412067691
 20
420.1635370881136
 30
0.0
 11
472.1823412067691
 21
422.3295530881135
 31
0.0
  0
ELLIPSE
  5
43E
330
1F
100
AcDbEntity
  8
0
 62
   253
370
    35
100
AcDbEllipse
 10
81.02584720676912
 20
420.3380370881135
 30
0.0
 11
0.09783936
 21
-0.4903259300000001
 31
0.0
210
0.0
220
0.0
230
1.0
 40
0.996044
 41
4.51622155
 42
6.0854968
  0
LINE
  5
43F
330
1F
100
AcDbEntity
  8
0
 62
   253
 48
0.001589
370
    35
100
AcDbLine
 10
81.08817920676912
 20
419.8505490881135
 30
0.0
 11
81.02584720676912
 21
419.8381590881135
 31
0.0
  0
LINE
  5
440
330
1F
100
AcDbEntity
  8
0
 62
   253
 48
0.001588
370
    35
100
AcDbLine
 10
471.5740042067691
 20
419.8505490881135
 30
0.0
 11
471.6363212067691
 21
419.8381590881135
 31
0.0
  0
ELLIPSE
  5
441
330
1F
100
AcDbEntity
  8
0
 62
   253
370
    35
100
AcDbEllipse
 10
471.6363212067691
 20
420.3380370881135
 30
0.0
 11
0.09783936
 21
0.4903259300000001
 31
0.0
210
0.0
220
0.0
230
1.0
 40
0.996044
 41
3.33928116
 42
4.90855641
  0
LINE
  5
442
330
1F
100
AcDbEntity
  8
0
 62
   253
370
    35
100
AcDbLine
 10
82.58247220676912
 20
419.8744750881136
 30
0.0
 11
130.8310842067691
 21
419.8744750881136
 31
0.0
  0
LINE
  5
443
330
1F
100
AcDbEntity
  8
0
 62
   253
 48
0.001736
370
    35
100
AcDbLine
 10
130.8310842067691
 20
419.8050170881136
 30
0.0
 11
130.8310842067691
 21
419.8744750881136
 31
0.0
  0
ARC
  5
444
330
1F
100
AcDbEntity
  8
0
 62
   253
370
    35
100
AcDbCircle
 10
150.8062732067691
 20
2515.881982088114
 30
0.0
 40
2096.199158
100
AcDbArc
 50
269.4901849999999
 51
270.014348
  0
LINE
  5
445
330
1F
100
AcDbEntity
  8
0
 62
   253
370
    35
100
AcDbLine
 10
151.3310842067691
 20
419.6825190881136
 30
0.0
 11
221.3310842067691
 21
419.6825190881136
 31
0.0
  0
ARC
  5
446
330
1F
100
AcDbEntity
  8
0
 62
   253
370
    35
100
AcDbCircle
 10
221.8576342067691
 20
2516.540185088114
 30
0.0
 40
2096.857247
100
AcDbArc
 50
269.9856130000001
 51
270.5096120000001
  0
LINE
  5
447
330
1F
100
AcDbEntity
  8
0
 62
   253
 48
0.001736
370
    35
100
AcDbLine
 10
241.8310842067691
 20
419.8744750881136
 30
0.0
 11
241.8310842067691
 21
419.8050170881136
 31
0.0
  0
LINE
  5
448
330
1F
100
AcDbEntity
  8
0
 62
   253
370
    35
100
AcDbLine
 10
241.8310842067691
 20
419.8744750881136
 30
0.0
 11
310.8310842067691
 21
419.8744750881136
 31
0.0
  0
LINE
  5
449
330
1F
100
AcDbEntity
  8
0
 62
   253
 48
0.001736
370
    35
100
AcDbLine
 10
310.8310842067691
 20
419.8744750881136
 30
0.0
 11
310.8310842067691
 21
419.8050170881136
 31
0.0
  0
ARC
  5
44A
330
1F
100
AcDbEntity
  8
0
 62
   253
370
    35
100
AcDbCircle
 10
330.8049002067691
 20
2516.403955088114
 30
0.0
 40
2096.721102
100
AcDbArc
 50
269.4903490000001
 51
270.0143819999999
  0
LINE
  5
44B
330
1F
100
AcDbEntity
  8
0
 62
   253
370
    35
100
AcDbLine
 10
331.3310842067691
 20
419.6825190881136
 30
0.0
 11
401.331084206769
 21
419.6825190881136
 31
0.0
  0
ARC
  5
44C
330
1F
100
AcDbEntity
  8
0
 62
   253
370
    35
100
AcDbCircle
 10
401.8572682067691
 20
2516.402246088114
 30
0.0
 40
2096.719374
100
AcDbArc
 50
269.9856200000001
 51
270.509653
  0
LINE
  5
44D
330
1F
100
AcDbEntity
  8
0
 62
   253
 48
0.001736
370
    35
100
AcDbLine
 10
421.831084206769
 20
419.8050170881136
 30
0.0
 11
421.831084206769
 21
419.8744750881136
 31
0.0
  0
LINE
  5
44E
330
1F
100
AcDbEntity
  8
0
 62
   253
370
    35
100
AcDbLine
 10
421.831084206769
 20
419.8744750881136
 30
0.0
 11
470.0796802067691
 21
419.8744750881136
 31
0.0
  0
LINE
  5
44F
330
1F
100
AcDbEntity
  8
0
 62
   253
 48
0.099519
370
    35
100
AcDbLine
 10
131.3310842067691
 20
424.3551880881135
 30
0.0
 11
131.3310842067691
 21
420.3744140881135
 31
0.0
  0
ARC
  5
450
330
1F
100
AcDbEntity
  8
0
 62
   253
370
    35
100
AcDbCircle
 10
133.3414142067691
 20
424.3601920881135
 30
0.0
 40
2.009978999999999
100
AcDbArc
 50
118.2594939999999
 51
180.141995
  0
ARC
  5
451
330
1F
100
AcDbEntity
  8
0
 62
   253
370
    35
100
AcDbCircle
 10
151.3269032067691
 20
390.6878900881136
 30
0.0
 40
40.184578
100
AcDbArc
 50
89.99405300000008
 51
118.115732
  0
LINE
  5
452
330
1F
100
AcDbEntity
  8
0
 62
   253
370
    35
100
AcDbLine
 10
151.3310842067691
 20
430.8726440881136
 30
0.0
 11
221.3310842067691
 21
430.8726440881136
 31
0.0
  0
ARC
  5
453
330
1F
100
AcDbEntity
  8
0
 62
   253
370
    35
100
AcDbCircle
 10
221.3352952067691
 20
390.6880120881136
 30
0.0
 40
40.18446599999999
100
AcDbArc
 50
61.88422500000003
 51
90.00599299999999
  0
ARC
  5
454
330
1F
100
AcDbEntity
  8
0
 62
   253
370
    35
100
AcDbCircle
 10
239.3207382067691
 20
424.3601920881135
 30
0.0
 40
2.009978999999999
100
AcDbArc
 50
359.85801
 51
61.74050500000005
  0
LINE
  5
455
330
1F
100
AcDbEntity
  8
0
 62
   253
 48
0.099519
370
    35
100
AcDbLine
 10
241.3310842067691
 20
424.3551880881135
 30
0.0
 11
241.3310842067691
 21
420.3744140881135
 31
0.0
  0
LINE
  5
456
330
1F
100
AcDbEntity
  8
0
 62
   253
 48
0.099519
370
    35
100
AcDbLine
 10
311.3310842067691
 20
424.3551880881135
 30
0.0
 11
311.3310842067691
 21
420.3744140881135
 31
0.0
  0
ARC
  5
457
330
1F
100
AcDbEntity
  8
0
 62
   253
370
    35
100
AcDbCircle
 10
313.3414292067691
 20
424.3601310881135
 30
0.0
 40
2.010003999999999
100
AcDbArc
 50
118.259179
 51
180.1409149999999
  0
ARC
  5
458
330
1F
100
AcDbEntity
  8
0
 62
   253
370
    35
100
AcDbCircle
 10
331.3269032067691
 20
390.6878900881136
 30
0.0
 40
40.184578
100
AcDbArc
 50
89.99405300000008
 51
118.115732
  0
LINE
  5
459
330
1F
100
AcDbEntity
  8
0
 62
   253
370
    35
100
AcDbLine
 10
331.3310842067691
 20
430.8726440881136
 30
0.0
 11
401.331084206769
 21
430.8726440881136
 31
0.0
  0
ARC
  5
45A
330
1F
100
AcDbEntity
  8
0
 62
   253
370
    35
100
AcDbCircle
 10
401.335295206769
 20
390.6880120881136
 30
0.0
 40
40.18446599999999
100
AcDbArc
 50
61.88422500000003
 51
90.00599299999999
  0
ARC
  5
45B
330
1F
100
AcDbEntity
  8
0
 62
   253
370
    35
100
AcDbCircle
 10
419.3207692067691
 20
424.3601920881135
 30
0.0
 40
2.009978999999999
100
AcDbArc
 50
359.85801
 51
61.74050500000005
  0
LINE
  5
45C
330
1F
100
AcDbEntity
  8
0
 62
   253
 48
0.099519
370
    35
100
AcDbLine
 10
421.3310842067691
 20
424.3551880881135
 30
0.0
 11
421.3310842067691
 21
420.3744140881135
 31
0.0
  0
ELLIPSE
  5
45D
330
1F
100
AcDbEntity
  8
0
 62
   253
370
    35
100
AcDbEllipse
 10
130.8310842067691
 20
420.3049560881136
 30
0.0
 11
-0.5
 21
0.0
 31
0.0
210
0.0
220
0.0
230
1.0
 40
0.9998479999999998
 41
1.57079633
 42
3.14159265
  0
LINE
  5
45E
330
1F
100
AcDbEntity
  8
0
 62
   253
 48
0.001736
370
    35
100
AcDbLine
 10
131.3310842067691
 20
420.3049560881136
 30
0.0
 11
131.3310842067691
 21
420.3744140881135
 31
0.0
  0
ELLIPSE
  5
45F
330
1F
100
AcDbEntity
  8
0
 62
   253
370
    35
100
AcDbEllipse
 10
130.8310842067691
 20
420.3744140881135
 30
0.0
 11
-0.5
 21
0.0
 31
0.0
210
0.0
220
0.0
230
1.0
 40
0.9998479999999998
 41
1.57079633
 42
3.14159265
  0
LINE
  5
460
330
1F
100
AcDbEntity
  8
0
 62
   253
 48
0.012173
370
    35
100
AcDbLine
 10
151.3310842067691
 20
419.6825190881136
 30
0.0
 11
151.3310842067691
 21
420.1694580881136
 31
0.0
  0
LINE
  5
461
330
1F
100
AcDbEntity
  8
0
 62
   253
 48
0.012173
370
    35
100
AcDbLine
 10
221.3310842067691
 20
419.6825190881136
 30
0.0
 11
221.3310842067691
 21
420.1694580881136
 31
0.0
  0
LINE
  5
462
330
1F
100
AcDbEntity
  8
0
 62
   253
 48
0.001736
370
    35
100
AcDbLine
 10
241.3310842067691
 20
420.3744140881135
 30
0.0
 11
241.3310842067691
 21
420.3049560881136
 31
0.0
  0
ELLIPSE
  5
463
330
1F
100
AcDbEntity
  8
0
 62
   253
370
    35
100
AcDbEllipse
 10
241.8310842067691
 20
420.3744140881135
 30
0.0
 11
-0.5
 21
0.0
 31
0.0
210
0.0
220
0.0
230
1.0
 40
0.9998479999999998
 41
0.0
 42
1.57079633
  0
LINE
  5
464
330
1F
100
AcDbEntity
  8
0
 62
   253
 48
0.001736
370
    35
100
AcDbLine
 10
311.3310842067691
 20
420.3744140881135
 30
0.0
 11
311.3310842067691
 21
420.3049560881136
 31
0.0
  0
ELLIPSE
  5
465
330
1F
100
AcDbEntity
  8
0
 62
   253
370
    35
100
AcDbEllipse
 10
310.8310842067691
 20
420.3744140881135
 30
0.0
 11
-0.5
 21
0.0
 31
0.0
210
0.0
220
0.0
230
1.0
 40
0.9998479999999998
 41
1.57079633
 42
3.14159265
  0
LINE
  5
466
330
1F
100
AcDbEntity
  8
0
 62
   253
 48
0.012173
370
    35
100
AcDbLine
 10
331.3310842067691
 20
419.6825190881136
 30
0.0
 11
331.3310842067691
 21
420.1694580881136
 31
0.0
  0
LINE
  5
467
330
1F
100
AcDbEntity
  8
0
 62
   253
 48
0.012173
370
    35
100
AcDbLine
 10
401.331084206769
 20
419.6825190881136
 30
0.0
 11
401.331084206769
 21
420.1694580881136
 31
0.0
  0
LINE
  5
468
330
1F
100
AcDbEntity
  8
0
 62
   253
 48
0.001736
370
    35
100
AcDbLine
 10
421.3310842067691
 20
420.3049560881136
 30
0.0
 11
421.3310842067691
 21
420.3744140881135
 31
0.0
  0
ELLIPSE
  5
469
330
1F
100
AcDbEntity
  8
0
 62
   253
370
    35
100
AcDbEllipse
 10
421.831084206769
 20
420.3744140881135
 30
0.0
 11
0.5
 21
0.0
 31
0.0
210
0.0
220
0.0
230
1.0
 40
0.9998479999999998
 41
3.14159265
 42
4.71238898
  0
LINE
  5
46A
330
1F
100
AcDbEntity
  8
0
 62
   253
 48
0.2675800000000001
370
    35
100
AcDbLine
 10
151.3310842067691
 20
420.1694580881136
 30
0.0
 11
151.3310842067691
 21
430.8726440881136
 31
0.0
  0
LINE
  5
46B
330
1F
100
AcDbEntity
  8
0
 62
   253
 48
0.2675800000000001
370
    35
100
AcDbLine
 10
221.3310842067691
 20
420.1694580881136
 30
0.0
 11
221.3310842067691
 21
430.8726440881136
 31
0.0
  0
LINE
  5
46C
330
1F
100
AcDbEntity
  8
0
 62
   253
 48
0.2675800000000001
370
    35
100
AcDbLine
 10
331.3310842067691
 20
420.1694580881136
 30
0.0
 11
331.3310842067691
 21
430.8726440881136
 31
0.0
  0
LINE
  5
46D
330
1F
100
AcDbEntity
  8
0
 62
   253
 48
0.2675800000000001
370
    35
100
AcDbLine
 10
401.331084206769
 20
420.1694580881136
 30
0.0
 11
401.331084206769
 21
430.8726440881136
 31
0.0
  0
LINE
  5
46E
330
1F
100
AcDbEntity
  8
0
 62
   253
 48
0.000185
370
    35
100
AcDbLine
 10
80.48850920676912
 20
419.3218010881135
 30
0.0
 11
80.48843220676912
 21
419.3291870881136
 31
0.0
  0
LINE
  5
46F
330
1F
100
AcDbEntity
  8
0
 62
   253
370
    35
100
AcDbLine
 10
473.6224052067691
 20
529.6172110881136
 30
0.0
 11
473.6224052067691
 21
397.4283380881136
 31
0.0
  0
LINE
  5
470
330
1F
100
AcDbEntity
  8
0
 62
   253
370
    35
100
AcDbLine
 10
81.03965620676911
 20
395.4284300881136
 30
0.0
 11
471.6225272067691
 21
395.4284300881136
 31
0.0
  0
ARC
  5
471
330
1F
100
AcDbEntity
  8
0
 62
   253
370
    35
100
AcDbCircle
 10
471.6226492067691
 20
397.4281860881135
 30
0.0
 40
1.999774
100
AcDbArc
 50
269.9958449999999
 51
0.0041570000000082
  0
ARC
  5
472
330
1F
100
AcDbEntity
  8
0
 62
   253
370
    35
100
AcDbCircle
 10
471.6226492067691
 20
529.6173340881137
 30
0.0
 40
1.999774
100
AcDbArc
 50
359.995843
 51
90.00415500000004
  0
LINE
  5
473
330
1F
100
AcDbEntity
  8
0
 62
   253
370
    35
100
AcDbLine
 10
79.03973220676911
 20
529.6172110881136
 30
0.0
 11
79.03973220676911
 21
397.4283380881136
 31
0.0
  0
ARC
  5
474
330
1F
100
AcDbEntity
  8
0
 62
   253
370
    35
100
AcDbCircle
 10
81.03951920676911
 20
529.6173340881137
 30
0.0
 40
1.999774
100
AcDbArc
 50
89.995843
 51
180.004161
  0
ARC
  5
475
330
1F
100
AcDbEntity
  8
0
 62
   253
370
    35
100
AcDbCircle
 10
81.03951920676911
 20
397.4281860881135
 30
0.0
 40
1.999774
100
AcDbArc
 50
179.9958389999999
 51
270.004157
  0
LINE
  5
476
330
1F
100
AcDbEntity
  8
0
 62
   253
 48
0.000108
370
    35
100
AcDbLine
 10
464.3397512067691
 20
528.5428710881135
 30
0.0
 11
464.3428032067691
 21
528.5398190881136
 31
0.0
  0
LINE
  5
477
330
1F
100
AcDbEntity
  8
0
 62
   253
 48
0.000108
370
    35
100
AcDbLine
 10
462.3224172067691
 20
528.5428710881135
 30
0.0
 11
462.3193652067691
 21
528.5398190881136
 31
0.0
  0
LINE
  5
478
330
1F
100
AcDbEntity
  8
0
 62
   253
 48
0.000108
370
    35
100
AcDbLine
 10
324.8397512067691
 20
528.5428710881135
 30
0.0
 11
324.8428032067691
 21
528.5398190881136
 31
0.0
  0
LINE
  5
479
330
1F
100
AcDbEntity
  8
0
 62
   253
 48
0.000108
370
    35
100
AcDbLine
 10
322.8224172067691
 20
528.5428710881135
 30
0.0
 11
322.8193652067691
 21
528.5398190881136
 31
0.0
  0
LINE
  5
47A
330
1F
100
AcDbEntity
  8
0
 62
   253
 48
0.000108
370
    35
100
AcDbLine
 10
229.8397512067691
 20
528.5428710881135
 30
0.0
 11
229.8428032067691
 21
528.5398190881136
 31
0.0
  0
LINE
  5
47B
330
1F
100
AcDbEntity
  8
0
 62
   253
 48
0.000108
370
    35
100
AcDbLine
 10
227.8224172067691
 20
528.5428710881135
 30
0.0
 11
227.8193652067691
 21
528.5398190881136
 31
0.0
  0
LINE
  5
47C
330
1F
100
AcDbEntity
  8
0
 62
   253
 48
0.000108
370
    35
100
AcDbLine
 10
90.33975120676911
 20
528.5428710881135
 30
0.0
 11
90.34281820676913
 21
528.5398190881136
 31
0.0
  0
LINE
  5
47D
330
1F
100
AcDbEntity
  8
0
 62
   253
 48
0.000108
370
    35
100
AcDbLine
 10
88.32241720676911
 20
528.5428710881135
 30
0.0
 11
88.31935020676912
 21
528.5398190881136
 31
0.0
  0
LINE
  5
47E
330
1F
100
AcDbEntity
  8
0
 62
     7
 48
0.018748
370
    35
100
AcDbLine
 10
485.3310842067691
 20
597.6118400881135
 30
0.0
 11
485.3310842067691
 21
598.3617790881136
 31
0.0
  0
LINE
  5
47F
330
1F
100
AcDbEntity
  8
0
 62
     7
 48
0.018748
370
    35
100
AcDbLine
 10
67.33108420676912
 20
597.6118400881135
 30
0.0
 11
67.33108420676912
 21
598.3617790881136
 31
0.0
  0
LINE
  5
480
330
1F
100
AcDbEntity
  8
0
 62
     7
 48
0.00145
370
    35
100
AcDbLine
 10
67.33108420676912
 20
598.3617790881136
 30
0.0
 11
67.33108420676912
 21
598.4197630881136
 31
0.0
  0
LINE
  5
481
330
1F
100
AcDbEntity
  8
0
 62
     7
370
    35
100
AcDbLine
 10
485.3310842067691
 20
598.4197630881136
 30
0.0
 11
67.33108420676912
 21
598.4197630881136
 31
0.0
  0
LINE
  5
482
330
1F
100
AcDbEntity
  8
0
 62
     7
 48
0.00145
370
    35
100
AcDbLine
 10
485.3310842067691
 20
598.3617790881136
 30
0.0
 11
485.3310842067691
 21
598.4197630881136
 31
0.0
  0
LINE
  5
483
330
1F
100
AcDbEntity
  8
0
 62
     7
 48
0.00174
370
    35
100
AcDbLine
 10
52.62231320676912
 20
588.5679560881136
 30
0.0
 11
52.58375420676911
 21
588.6258780881136
 31
0.0
  0
ARC
  5
484
330
1F
100
AcDbEntity
  8
0
 62
     7
370
    35
100
AcDbCircle
 10
67.33108420676912
 20
582.4197630881136
 30
0.0
 40
16.0
100
AcDbArc
 50
90.0
 51
157.1770369999999
  0
LINE
  5
485
330
1F
100
AcDbEntity
  8
0
 62
     7
 48
0.054432
370
    35
100
AcDbLine
 10
55.61094520676912
 20
588.5467770881136
 30
0.0
 11
53.43369920676912
 21
588.5567260881136
 31
0.0
  0
LINE
  5
486
330
1F
100
AcDbEntity
  8
0
 62
     7
 48
0.049176
370
    35
100
AcDbLine
 10
67.33108420676912
 20
595.6447990881136
 30
0.0
 11
67.33108420676912
 21
597.6118400881135
 31
0.0
  0
LINE
  5
487
330
1F
100
AcDbEntity
  8
0
 62
   253
 48
0.050433
370
    35
100
AcDbLine
 10
462.3224172067691
 20
528.5428710881135
 30
0.0
 11
464.3397512067691
 21
528.5428710881135
 31
0.0
  0
LINE
  5
488
330
1F
100
AcDbEntity
  8
0
 62
   253
 48
0.050433
370
    35
100
AcDbLine
 10
88.32241720676911
 20
528.5428710881135
 30
0.0
 11
90.33975120676911
 21
528.5428710881135
 31
0.0
  0
LINE
  5
489
330
1F
100
AcDbEntity
  8
0
 62
   253
 48
0.050433
370
    35
100
AcDbLine
 10
227.8224172067691
 20
528.5428710881135
 30
0.0
 11
229.8397512067691
 21
528.5428710881135
 31
0.0
  0
LINE
  5
48A
330
1F
100
AcDbEntity
  8
0
 62
   253
 48
0.050433
370
    35
100
AcDbLine
 10
322.8224172067691
 20
528.5428710881135
 30
0.0
 11
324.8397512067691
 21
528.5428710881135
 31
0.0
  0
LINE
  5
48B
330
1F
100
AcDbEntity
  8
0
 62
     7
 48
0.049176
370
    35
100
AcDbLine
 10
485.3310842067691
 20
595.6447990881136
 30
0.0
 11
485.3310842067691
 21
597.6118400881135
 31
0.0
  0
LINE
  5
48C
330
1F
100
AcDbEntity
  8
0
 62
     7
 48
0.054432
370
    35
100
AcDbLine
 10
499.228484206769
 20
588.5567260881136
 30
0.0
 11
497.0512382067691
 21
588.5467770881136
 31
0.0
  0
ARC
  5
48D
330
1F
100
AcDbEntity
  8
0
 62
     7
370
    35
100
AcDbCircle
 10
485.3310842067691
 20
582.4197630881136
 30
0.0
 40
16.0
100
AcDbArc
 50
22.82296099999997
 51
90.0
  0
LINE
  5
48E
330
1F
100
AcDbEntity
  8
0
 62
     7
 48
0.001739
370
    35
100
AcDbLine
 10
500.0783982067691
 20
588.6258780881136
 30
0.0
 11
500.039885206769
 21
588.5679560881136
 31
0.0
  0
LINE
  5
48F
330
1F
100
AcDbEntity
  8
0
 62
     7
370
    35
100
AcDbLine
 10
51.33108420676911
 20
379.6259390881136
 30
0.0
 11
51.33108420676911
 21
576.2136470881135
 31
0.0
  0
LINE
  5
490
330
1F
100
AcDbEntity
  8
0
 62
     7
 48
0.00205
370
    35
100
AcDbLine
 10
51.33108420676911
 20
379.6259390881136
 30
0.0
 11
51.38905220676911
 21
379.5679560881136
 31
0.0
  0
LINE
  5
491
330
1F
100
AcDbEntity
  8
0
 62
     7
 48
0.002049
370
    35
100
AcDbLine
 10
51.33108420676911
 20
576.2136470881135
 30
0.0
 11
51.38905220676911
 21
576.2715690881136
 31
0.0
  0
LINE
  5
492
330
1F
100
AcDbEntity
  8
0
 62
     7
 48
0.049176
370
    35
100
AcDbLine
 10
54.10601720676911
 20
576.2927490881136
 30
0.0
 11
52.13899120676912
 21
576.2828000881135
 31
0.0
  0
LINE
  5
493
330
1F
100
AcDbEntity
  8
0
 62
     7
 48
0.049176
370
    35
100
AcDbLine
 10
54.10601720676911
 20
379.5468070881136
 30
0.0
 11
52.13899120676912
 21
379.5567260881136
 31
0.0
  0
LINE
  5
494
330
1F
100
AcDbEntity
  8
0
 62
     7
 48
0.018747
370
    35
100
AcDbLine
 10
67.33108420676912
 20
595.6447990881136
 30
0.0
 11
67.33108420676912
 21
594.8949210881136
 31
0.0
  0
ARC
  5
495
330
1F
100
AcDbEntity
  8
0
 62
     7
370
    35
100
AcDbCircle
 10
67.33108420676912
 20
582.4197630881136
 30
0.0
 40
12.475126
100
AcDbArc
 50
90.0
 51
150.643497
  0
LINE
  5
496
330
1F
100
AcDbEntity
  8
0
 62
     7
 48
0.000981
370
    35
100
AcDbLine
 10
56.47776720676912
 20
588.5017330881136
 30
0.0
 11
56.45793020676912
 21
588.5356070881136
 31
0.0
  0
LINE
  5
497
330
1F
100
AcDbEntity
  8
0
 62
     7
370
    35
100
AcDbLine
 10
51.33108420676911
 20
60.62590908811358
 30
0.0
 11
51.33108420676911
 21
367.2135860881136
 31
0.0
  0
LINE
  5
498
330
1F
100
AcDbEntity
  8
0
 62
     7
 48
0.002049
370
    35
100
AcDbLine
 10
51.33108420676911
 20
60.62590908811358
 30
0.0
 11
51.38905220676911
 21
60.56795608811357
 31
0.0
  0
LINE
  5
499
330
1F
100
AcDbEntity
  8
0
 62
     7
 48
0.00205
370
    35
100
AcDbLine
 10
51.33108420676911
 20
367.2135860881136
 30
0.0
 11
51.38905220676911
 21
367.2715690881136
 31
0.0
  0
LINE
  5
49A
330
1F
100
AcDbEntity
  8
0
 62
     7
 48
0.049176
370
    35
100
AcDbLine
 10
54.10601720676911
 20
367.2927180881136
 30
0.0
 11
52.13899120676912
 21
367.2828000881136
 31
0.0
  0
LINE
  5
49B
330
1F
100
AcDbEntity
  8
0
 62
     7
 48
0.049176
370
    35
100
AcDbLine
 10
54.10601720676911
 20
60.54680708811358
 30
0.0
 11
52.13899120676912
 21
60.55672608811358
 31
0.0
  0
LINE
  5
49C
330
1F
100
AcDbEntity
  8
0
 62
     7
 48
0.018747
370
    35
100
AcDbLine
 10
485.3310842067691
 20
595.6447990881136
 30
0.0
 11
485.3310842067691
 21
594.8949210881136
 31
0.0
  0
LINE
  5
49D
330
1F
100
AcDbEntity
  8
0
 62
     7
370
    35
100
AcDbLine
 10
485.3310842067691
 20
594.8949210881136
 30
0.0
 11
67.33108420676912
 21
594.8949210881136
 31
0.0
  0
LINE
  5
49E
330
1F
100
AcDbEntity
  8
0
 62
     7
 48
0.018748
370
    35
100
AcDbLine
 10
67.33108420676912
 20
39.22768508811358
 30
0.0
 11
67.33108420676912
 21
38.47774608811358
 31
0.0
  0
LINE
  5
49F
330
1F
100
AcDbEntity
  8
0
 62
     7
 48
0.054432
370
    35
100
AcDbLine
 10
53.43369920676912
 20
48.28280008811358
 30
0.0
 11
55.61094520676912
 21
48.29271808811358
 31
0.0
  0
LINE
  5
4A0
330
1F
100
AcDbEntity
  8
0
 62
     7
 48
0.049175
370
    35
100
AcDbLine
 10
67.33108420676912
 20
41.19469608811358
 30
0.0
 11
67.33108420676912
 21
39.22768508811358
 31
0.0
  0
ARC
  5
4A1
330
1F
100
AcDbEntity
  8
0
 62
     7
370
    35
100
AcDbCircle
 10
485.3310842067691
 20
582.4197630881136
 30
0.0
 40
12.475126
100
AcDbArc
 50
29.35650799999999
 51
90.0
  0
LINE
  5
4A2
330
1F
100
AcDbEntity
  8
0
 62
     7
 48
0.000981
370
    35
100
AcDbLine
 10
496.2042532067691
 20
588.5356070881136
 30
0.0
 11
496.184416206769
 21
588.5017330881136
 31
0.0
  0
LINE
  5
4A3
330
1F
100
AcDbEntity
  8
0
 62
     7
 48
0.049177
370
    35
100
AcDbLine
 10
498.5561202067691
 20
379.5468070881136
 30
0.0
 11
500.523161206769
 21
379.5567260881136
 31
0.0
  0
LINE
  5
4A4
330
1F
100
AcDbEntity
  8
0
 62
     7
 48
0.049177
370
    35
100
AcDbLine
 10
498.5561202067691
 20
576.2927490881136
 30
0.0
 11
500.523161206769
 21
576.2828000881135
 31
0.0
  0
LINE
  5
4A5
330
1F
100
AcDbEntity
  8
0
 62
     7
 48
0.002049
370
    35
100
AcDbLine
 10
501.331084206769
 20
576.2136470881135
 30
0.0
 11
501.2731002067691
 21
576.2715690881136
 31
0.0
  0
LINE
  5
4A6
330
1F
100
AcDbEntity
  8
0
 62
     7
370
    35
100
AcDbLine
 10
501.331084206769
 20
576.2136470881135
 30
0.0
 11
501.331084206769
 21
379.6259390881136
 31
0.0
  0
LINE
  5
4A7
330
1F
100
AcDbEntity
  8
0
 62
     7
 48
0.00205
370
    35
100
AcDbLine
 10
501.331084206769
 20
379.6259390881136
 30
0.0
 11
501.2731002067691
 21
379.5679560881136
 31
0.0
  0
LINE
  5
4A8
330
1F
100
AcDbEntity
  8
0
 62
     7
 48
0.018748
370
    35
100
AcDbLine
 10
485.3310842067691
 20
39.22768508811358
 30
0.0
 11
485.3310842067691
 21
38.47774608811358
 31
0.0
  0
LINE
  5
4A9
330
1F
100
AcDbEntity
  8
0
 62
     7
 48
0.00145
370
    35
100
AcDbLine
 10
485.3310842067691
 20
38.47774608811358
 30
0.0
 11
485.3310842067691
 21
38.41976308811359
 31
0.0
  0
LINE
  5
4AA
330
1F
100
AcDbEntity
  8
0
 62
     7
370
    35
100
AcDbLine
 10
67.33108420676912
 20
38.41976308811359
 30
0.0
 11
485.3310842067691
 21
38.41976308811359
 31
0.0
  0
LINE
  5
4AB
330
1F
100
AcDbEntity
  8
0
 62
     7
 48
0.00145
370
    35
100
AcDbLine
 10
67.33108420676912
 20
38.47774608811358
 30
0.0
 11
67.33108420676912
 21
38.41976308811359
 31
0.0
  0
ARC
  5
4AC
330
1F
100
AcDbEntity
  8
0
 62
     7
370
    35
100
AcDbCircle
 10
67.33108420676912
 20
54.41976308811359
 30
0.0
 40
16.0
100
AcDbArc
 50
202.8229630000001
 51
270.0
  0
LINE
  5
4AD
330
1F
100
AcDbEntity
  8
0
 62
     7
 48
0.00174
370
    35
100
AcDbLine
 10
52.58375420676911
 20
48.21361608811358
 30
0.0
 11
52.62231320676912
 21
48.27156908811358
 31
0.0
  0
LINE
  5
4AE
330
1F
100
AcDbEntity
  8
0
 62
     7
370
    35
100
AcDbLine
 10
54.85595620676912
 20
60.53560708811358
 30
0.0
 11
54.85595620676912
 21
367.3039180881136
 31
0.0
  0
LINE
  5
4AF
330
1F
100
AcDbEntity
  8
0
 62
     7
 48
0.001198
370
    35
100
AcDbLine
 10
54.88983020676911
 20
367.3377930881136
 30
0.0
 11
54.85595620676912
 21
367.3039180881136
 31
0.0
  0
LINE
  5
4B0
330
1F
100
AcDbEntity
  8
0
 62
     7
 48
0.001198
370
    35
100
AcDbLine
 10
54.88983020676911
 20
379.5017330881136
 30
0.0
 11
54.85595620676912
 21
379.5356070881136
 31
0.0
  0
LINE
  5
4B1
330
1F
100
AcDbEntity
  8
0
 62
     7
370
    35
100
AcDbLine
 10
54.85595620676912
 20
379.5356070881136
 30
0.0
 11
54.85595620676912
 21
576.3039180881135
 31
0.0
  0
LINE
  5
4B2
330
1F
100
AcDbEntity
  8
0
 62
     7
 48
0.001198
370
    35
100
AcDbLine
 10
54.88983020676911
 20
576.3377930881135
 30
0.0
 11
54.85595620676912
 21
576.3039180881135
 31
0.0
  0
LINE
  5
4B3
330
1F
100
AcDbEntity
  8
0
 62
     7
 48
0.000463
370
    35
100
AcDbLine
 10
54.89392020676912
 20
576.3197260881136
 30
0.0
 11
54.88983020676911
 21
576.3377930881135
 31
0.0
  0
LINE
  5
4B4
330
1F
100
AcDbEntity
  8
0
 62
     7
 48
0.000584
370
    35
100
AcDbLine
 10
56.49258320676911
 20
588.5197990881136
 30
0.0
 11
56.47776720676912
 21
588.5017330881136
 31
0.0
  0
LINE
  5
4B5
330
1F
100
AcDbEntity
  8
0
 62
     7
 48
0.001198
370
    35
100
AcDbLine
 10
54.88983020676911
 20
60.50173308811358
 30
0.0
 11
54.85595620676912
 21
60.53560708811358
 31
0.0
  0
LINE
  5
4B6
330
1F
100
AcDbEntity
  8
0
 62
     7
 48
0.000462
370
    35
100
AcDbLine
 10
54.89392020676912
 20
367.3197570881135
 30
0.0
 11
54.88983020676911
 21
367.3377930881136
 31
0.0
  0
LINE
  5
4B7
330
1F
100
AcDbEntity
  8
0
 62
     7
 48
0.000462
370
    35
100
AcDbLine
 10
54.89392020676912
 20
379.5197690881135
 30
0.0
 11
54.88983020676911
 21
379.5017330881136
 31
0.0
  0
LINE
  5
4B8
330
1F
100
AcDbEntity
  8
0
 62
   253
370
    35
100
AcDbLine
 10
81.03965620676911
 20
531.6171500881136
 30
0.0
 11
471.6225272067691
 21
531.6171500881136
 31
0.0
  0
LINE
  5
4B9
330
1F
100
AcDbEntity
  8
0
 62
     7
 48
0.049998
370
    13
100
AcDbLine
 10
57.22824020676911
 20
569.7224360881135
 30
0.0
 11
55.22831620676911
 21
569.7224360881135
 31
0.0
  0
LINE
  5
4BA
330
1F
100
AcDbEntity
  8
0
 62
     7
 48
0.049175
370
    35
100
AcDbLine
 10
485.3310842067691
 20
41.19469608811358
 30
0.0
 11
485.3310842067691
 21
39.22768508811358
 31
0.0
  0
ARC
  5
4BB
330
1F
100
AcDbEntity
  8
0
 62
     7
370
    35
100
AcDbCircle
 10
67.33108420676912
 20
54.41976308811359
 30
0.0
 40
12.475126
100
AcDbArc
 50
209.356503
 51
270.0
  0
LINE
  5
4BC
330
1F
100
AcDbEntity
  8
0
 62
     7
 48
0.018748
370
    35
100
AcDbLine
 10
67.33108420676912
 20
41.19469608811358
 30
0.0
 11
67.33108420676912
 21
41.94463508811358
 31
0.0
  0
LINE
  5
4BD
330
1F
100
AcDbEntity
  8
0
 62
     7
 48
0.000981
370
    35
100
AcDbLine
 10
56.45793020676912
 20
48.30391808811357
 30
0.0
 11
56.47776720676912
 21
48.33779308811358
 31
0.0
  0
LINE
  5
4BE
330
1F
100
AcDbEntity
  8
0
 62
     7
 48
0.049177
370
    35
100
AcDbLine
 10
498.5561202067691
 20
367.2927180881136
 30
0.0
 11
500.523161206769
 21
367.2828000881136
 31
0.0
  0
LINE
  5
4BF
330
1F
100
AcDbEntity
  8
0
 62
     7
 48
0.049177
370
    35
100
AcDbLine
 10
498.5561202067691
 20
60.54680708811358
 30
0.0
 11
500.523161206769
 21
60.55672608811358
 31
0.0
  0
LINE
  5
4C0
330
1F
100
AcDbEntity
  8
0
 62
     7
 48
0.00205
370
    35
100
AcDbLine
 10
501.331084206769
 20
367.2135860881136
 30
0.0
 11
501.2731002067691
 21
367.2715690881136
 31
0.0
  0
LINE
  5
4C1
330
1F
100
AcDbEntity
  8
0
 62
     7
370
    35
100
AcDbLine
 10
501.331084206769
 20
367.2135860881136
 30
0.0
 11
501.331084206769
 21
60.62590908811358
 31
0.0
  0
LINE
  5
4C2
330
1F
100
AcDbEntity
  8
0
 62
     7
 48
0.002049
370
    35
100
AcDbLine
 10
501.331084206769
 20
60.62590908811358
 30
0.0
 11
501.2731002067691
 21
60.56795608811357
 31
0.0
  0
LINE
  5
4C3
330
1F
100
AcDbEntity
  8
0
 62
     7
370
    35
100
AcDbLine
 10
497.8062432067691
 20
367.3039180881136
 30
0.0
 11
497.8062432067691
 21
60.53560708811358
 31
0.0
  0
LINE
  5
4C4
330
1F
100
AcDbEntity
  8
0
 62
     7
 48
0.049998
370
    13
100
AcDbLine
 10
495.4339282067691
 20
569.7224360881135
 30
0.0
 11
497.433867206769
 21
569.7224360881135
 31
0.0
  0
LINE
  5
4C5
330
1F
100
AcDbEntity
  8
0
 62
     7
 48
0.000584
370
    35
100
AcDbLine
 10
496.169585206769
 20
588.5197990881136
 30
0.0
 11
496.184416206769
 21
588.5017330881136
 31
0.0
  0
LINE
  5
4C6
330
1F
100
AcDbEntity
  8
0
 62
     7
 48
0.000463
370
    35
100
AcDbLine
 10
497.7682792067691
 20
576.3197260881136
 30
0.0
 11
497.7723072067691
 21
576.3377930881135
 31
0.0
  0
LINE
  5
4C7
330
1F
100
AcDbEntity
  8
0
 62
     7
 48
0.001199
370
    35
100
AcDbLine
 10
497.7723072067691
 20
576.3377930881135
 30
0.0
 11
497.8062432067691
 21
576.3039180881135
 31
0.0
  0
LINE
  5
4C8
330
1F
100
AcDbEntity
  8
0
 62
     7
370
    35
100
AcDbLine
 10
497.8062432067691
 20
576.3039180881135
 30
0.0
 11
497.8062432067691
 21
379.5356070881136
 31
0.0
  0
LINE
  5
4C9
330
1F
100
AcDbEntity
  8
0
 62
     7
 48
0.001199
370
    35
100
AcDbLine
 10
497.7723072067691
 20
379.5017330881136
 30
0.0
 11
497.8062432067691
 21
379.5356070881136
 31
0.0
  0
LINE
  5
4CA
330
1F
100
AcDbEntity
  8
0
 62
     7
 48
0.000462
370
    35
100
AcDbLine
 10
497.7682792067691
 20
379.5197690881135
 30
0.0
 11
497.7723072067691
 21
379.5017330881136
 31
0.0
  0
LINE
  5
4CB
330
1F
100
AcDbEntity
  8
0
 62
     7
 48
0.000462
370
    35
100
AcDbLine
 10
497.7682792067691
 20
367.3197570881135
 30
0.0
 11
497.7723072067691
 21
367.3377930881136
 31
0.0
  0
LINE
  5
4CC
330
1F
100
AcDbEntity
  8
0
 62
     7
 48
0.001199
370
    35
100
AcDbLine
 10
497.7723072067691
 20
367.3377930881136
 30
0.0
 11
497.8062432067691
 21
367.3039180881136
 31
0.0
  0
LINE
  5
4CD
330
1F
100
AcDbEntity
  8
0
 62
     7
 48
0.018748
370
    35
100
AcDbLine
 10
485.3310842067691
 20
41.19469608811358
 30
0.0
 11
485.3310842067691
 21
41.94463508811358
 31
0.0
  0
ARC
  5
4CE
330
1F
100
AcDbEntity
  8
0
 62
     7
370
    35
100
AcDbCircle
 10
485.3310842067691
 20
54.41976308811359
 30
0.0
 40
12.475126
100
AcDbArc
 50
270.0
 51
330.6434919999999
  0
LINE
  5
4CF
330
1F
100
AcDbEntity
  8
0
 62
     7
 48
0.054432
370
    35
100
AcDbLine
 10
497.0512382067691
 20
48.29271808811358
 30
0.0
 11
499.228484206769
 21
48.28280008811358
 31
0.0
  0
LINE
  5
4D0
330
1F
100
AcDbEntity
  8
0
 62
     7
 48
0.00174
370
    35
100
AcDbLine
 10
500.039885206769
 20
48.27156908811358
 30
0.0
 11
500.0783982067691
 21
48.21361608811358
 31
0.0
  0
ARC
  5
4D1
330
1F
100
AcDbEntity
  8
0
 62
     7
370
    35
100
AcDbCircle
 10
485.3310842067691
 20
54.41976308811359
 30
0.0
 40
16.0
100
AcDbArc
 50
270.0
 51
337.177039
  0
LINE
  5
4D2
330
1F
100
AcDbEntity
  8
0
 62
     7
 48
0.000584
370
    35
100
AcDbLine
 10
56.49258320676911
 20
48.31975708811357
 30
0.0
 11
56.47776720676912
 21
48.33779308811358
 31
0.0
  0
LINE
  5
4D3
330
1F
100
AcDbEntity
  8
0
 62
     7
 48
0.000462
370
    35
100
AcDbLine
 10
54.89392020676912
 20
60.51976908811358
 30
0.0
 11
54.88983020676911
 21
60.50173308811358
 31
0.0
  0
ARC
  5
4D4
330
1F
100
AcDbEntity
  8
0
 62
     7
370
    35
100
AcDbCircle
 10
470.8310842067691
 20
556.4197630881136
 30
0.0
 40
2.0
100
AcDbArc
 50
0.0
 51
90.0
  0
LINE
  5
4D5
330
1F
100
AcDbEntity
  8
0
 62
     7
370
    35
100
AcDbLine
 10
470.8310842067691
 20
558.4197630881136
 30
0.0
 11
427.8310842067691
 21
558.4197630881136
 31
0.0
  0
ARC
  5
4D6
330
1F
100
AcDbEntity
  8
0
 62
     7
370
    35
100
AcDbCircle
 10
427.8310842067691
 20
556.4197630881136
 30
0.0
 40
2.0
100
AcDbArc
 50
90.0
 51
180.0
  0
LINE
  5
4D7
330
1F
100
AcDbEntity
  8
0
 62
     7
 48
0.4
370
    35
100
AcDbLine
 10
425.831084206769
 20
540.4197630881135
 30
0.0
 11
425.831084206769
 21
556.4197630881136
 31
0.0
  0
ARC
  5
4D8
330
1F
100
AcDbEntity
  8
0
 62
     7
370
    35
100
AcDbCircle
 10
427.8310842067691
 20
540.4197630881135
 30
0.0
 40
2.0
100
AcDbArc
 50
180.0
 51
270.0
  0
LINE
  5
4D9
330
1F
100
AcDbEntity
  8
0
 62
     7
370
    35
100
AcDbLine
 10
427.8310842067691
 20
538.4197630881135
 30
0.0
 11
470.8310842067691
 21
538.4197630881135
 31
0.0
  0
ARC
  5
4DA
330
1F
100
AcDbEntity
  8
0
 62
     7
370
    35
100
AcDbCircle
 10
470.8310842067691
 20
540.4197630881135
 30
0.0
 40
2.0
100
AcDbArc
 50
270.0
 51
0.0
  0
LINE
  5
4DB
330
1F
100
AcDbEntity
  8
0
 62
     7
 48
0.4
370
    35
100
AcDbLine
 10
472.8310842067691
 20
556.4197630881136
 30
0.0
 11
472.8310842067691
 21
540.4197630881135
 31
0.0
  0
LINE
  5
4DC
330
1F
100
AcDbEntity
  8
0
 62
     7
 48
0.049998
370
    13
100
AcDbLine
 10
57.22824020676911
 20
67.11707408811358
 30
0.0
 11
55.22831620676911
 21
67.11707408811358
 31
0.0
  0
LINE
  5
4DD
330
1F
100
AcDbEntity
  8
0
 62
     7
 48
0.049998
370
    13
100
AcDbLine
 10
495.4339282067691
 20
67.11707408811358
 30
0.0
 11
497.433867206769
 21
67.11707408811358
 31
0.0
  0
LINE
  5
4DE
330
1F
100
AcDbEntity
  8
0
 62
     7
370
    35
100
AcDbLine
 10
67.33108420676912
 20
41.94463508811358
 30
0.0
 11
485.3310842067691
 21
41.94463508811358
 31
0.0
  0
LINE
  5
4DF
330
1F
100
AcDbEntity
  8
0
 62
     7
 48
0.001199
370
    35
100
AcDbLine
 10
497.7723072067691
 20
60.50173308811358
 30
0.0
 11
497.8062432067691
 21
60.53560708811358
 31
0.0
  0
LINE
  5
4E0
330
1F
100
AcDbEntity
  8
0
 62
     7
 48
0.000462
370
    35
100
AcDbLine
 10
497.7682792067691
 20
60.51976908811358
 30
0.0
 11
497.7723072067691
 21
60.50173308811358
 31
0.0
  0
LINE
  5
4E1
330
1F
100
AcDbEntity
  8
0
 62
     7
 48
0.000584
370
    35
100
AcDbLine
 10
496.169585206769
 20
48.31975708811357
 30
0.0
 11
496.184416206769
 21
48.33779308811358
 31
0.0
  0
LINE
  5
4E2
330
1F
100
AcDbEntity
  8
0
 62
     7
 48
0.000981
370
    35
100
AcDbLine
 10
496.184416206769
 20
48.33779308811358
 30
0.0
 11
496.2042532067691
 21
48.30391808811357
 31
0.0
  0
CIRCLE
  5
4E3
330
1F
100
AcDbEntity
  8
0
 62
     7
370
    35
100
AcDbCircle
 10
485.3310842067691
 20
54.41976308811359
 30
0.0
 40
9.113215999999999
  0
CIRCLE
  5
4E4
330
1F
100
AcDbEntity
  8
0
 62
     7
370
    35
100
AcDbCircle
 10
67.33108420676912
 20
54.41976308811359
 30
0.0
 40
9.113215999999999
  0
CIRCLE
  5
4E5
330
1F
100
AcDbEntity
  8
0
 62
     7
370
    35
100
AcDbCircle
 10
485.3310842067691
 20
373.4197630881135
 30
0.0
 40
9.113215999999999
  0
CIRCLE
  5
4E6
330
1F
100
AcDbEntity
  8
0
 62
     7
370
    35
100
AcDbCircle
 10
67.33108420676912
 20
373.4197630881135
 30
0.0
 40
9.113215999999999
  0
CIRCLE
  5
4E7
330
1F
100
AcDbEntity
  8
0
 62
     7
370
    35
100
AcDbCircle
 10
485.3310842067691
 20
582.4197630881136
 30
0.0
 40
9.113215999999999
  0
CIRCLE
  5
4E8
330
1F
100
AcDbEntity
  8
0
 62
     7
370
    35
100
AcDbCircle
 10
67.33108420676912
 20
582.4197630881136
 30
0.0
 40
9.113215999999999
  0
ARC
  5
4E9
330
1F
100
AcDbEntity
  8
0
 62
     7
370
    35
100
AcDbCircle
 10
487.230132206769
 20
53.10500408811358
 30
0.0
 40
8.154378999999998
100
AcDbArc
 50
323.2013070000001
 51
359.662833
  0
LINE
  5
4EA
330
1F
100
AcDbEntity
  8
0
 62
     7
 48
0.245
370
    35
100
AcDbLine
 10
485.3310842067691
 20
44.01629008811357
 30
0.0
 11
475.531096206769
 21
44.01629008811357
 31
0.0
  0
ARC
  5
4EB
330
1F
100
AcDbEntity
  8
0
 62
     7
370
    35
100
AcDbCircle
 10
475.5305472067691
 20
44.63121908811358
 30
0.0
 40
0.614857
100
AcDbArc
 50
181.067267
 51
270.048307
  0
ELLIPSE
  5
4EC
330
1F
100
AcDbEntity
  8
0
 62
     7
370
    35
100
AcDbEllipse
 10
475.0110152067691
 20
67.11707408811358
 30
0.0
 11
0.0
 21
-25.0
 31
0.0
210
0.0
220
0.0
230
1.0
 40
0.008727
 41
5.245125179999999
 42
5.831911869999999
  0
LINE
  5
4ED
330
1F
100
AcDbEntity
  8
0
 62
     7
 48
0.233821
370
    35
100
AcDbLine
 10
494.6839282067691
 20
64.95719308811357
 30
0.0
 11
485.3310842067691
 21
64.95719308811357
 31
0.0
  0
ARC
  5
4EE
330
1F
100
AcDbEntity
  8
0
 62
     7
370
    35
100
AcDbCircle
 10
494.6839282067691
 20
64.22045208811358
 30
0.0
 40
0.736725
100
AcDbArc
 50
359.9459729999999
 51
90.00434699999992
  0
ARC
  5
4EF
330
1F
100
AcDbEntity
  8
0
 62
     7
370
    35
100
AcDbCircle
 10
-1827.831086793231
 20
66.10933808811359
 30
0.0
 40
2323.25238
100
AcDbArc
 50
359.6781029999999
 51
359.9534
  0
ARC
  5
4F0
330
1F
100
AcDbEntity
  8
0
 62
     7
370
    35
100
AcDbCircle
 10
494.6839282067691
 20
363.6197750881136
 30
0.0
 40
0.738243
100
AcDbArc
 50
270.0
 51
0.0
  0
LINE
  5
4F1
330
1F
100
AcDbEntity
  8
0
 62
     7
 48
0.233821
370
    35
100
AcDbLine
 10
494.6839282067691
 20
362.8815240881136
 30
0.0
 11
485.3310842067691
 21
362.8815240881136
 31
0.0
  0
ARC
  5
4F2
330
1F
100
AcDbEntity
  8
0
 62
     7
370
    35
100
AcDbCircle
 10
485.3310842067691
 20
373.4197630881135
 30
0.0
 40
10.538243
100
AcDbArc
 50
90.0
 51
270.0
  0
LINE
  5
4F3
330
1F
100
AcDbEntity
  8
0
 62
     7
 48
0.233821
370
    35
100
AcDbLine
 10
494.6839282067691
 20
383.9580010881136
 30
0.0
 11
485.3310842067691
 21
383.9580010881136
 31
0.0
  0
ARC
  5
4F4
330
1F
100
AcDbEntity
  8
0
 62
     7
370
    35
100
AcDbCircle
 10
494.6839282067691
 20
383.2197510881135
 30
0.0
 40
0.738243
100
AcDbArc
 50
0.0
 51
90.0
  0
LINE
  5
4F5
330
1F
100
AcDbEntity
  8
0
 62
     7
 48
0.489999
370
    35
100
AcDbLine
 10
495.4222092067691
 20
383.2197510881135
 30
0.0
 11
495.4222092067691
 21
363.6197750881136
 31
0.0
  0
ARC
  5
4F6
330
1F
100
AcDbEntity
  8
0
 62
     7
370
    35
100
AcDbCircle
 10
494.6839282067691
 20
572.6190430881135
 30
0.0
 40
0.736725
100
AcDbArc
 50
269.9956529999999
 51
0.054027000000047
  0
LINE
  5
4F7
330
1F
100
AcDbEntity
  8
0
 62
     7
 48
0.233821
370
    35
100
AcDbLine
 10
494.6839282067691
 20
571.8823480881136
 30
0.0
 11
485.3310842067691
 21
571.8823480881136
 31
0.0
  0
ELLIPSE
  5
4F8
330
1F
100
AcDbEntity
  8
0
 62
     7
370
    35
100
AcDbEllipse
 10
475.0110152067691
 20
569.7224360881135
 30
0.0
 11
0.0
 21
-25.0
 31
0.0
210
0.0
220
0.0
230
1.0
 40
0.008727
 41
3.592866089999999
 42
4.179652779999999
  0
ARC
  5
4F9
330
1F
100
AcDbEntity
  8
0
 62
     7
370
    35
100
AcDbCircle
 10
475.5305472067691
 20
592.2082760881136
 30
0.0
 40
0.614857
100
AcDbArc
 50
89.95169300000005
 51
178.932733
  0
LINE
  5
4FA
330
1F
100
AcDbEntity
  8
0
 62
     7
 48
0.245
370
    35
100
AcDbLine
 10
485.3310842067691
 20
592.8232660881136
 30
0.0
 11
475.531096206769
 21
592.8232660881136
 31
0.0
  0
ARC
  5
4FB
330
1F
100
AcDbEntity
  8
0
 62
     7
370
    35
100
AcDbCircle
 10
487.230132206769
 20
583.7345210881136
 30
0.0
 40
8.154378999999998
100
AcDbArc
 50
0.3371670000000063
 51
36.79869299999997
  0
ARC
  5
4FC
330
1F
100
AcDbEntity
  8
0
 62
     7
370
    35
100
AcDbCircle
 10
-1827.831086793231
 20
570.7301880881137
 30
0.0
 40
2323.25238
100
AcDbArc
 50
0.0466000000000109
 51
0.3218969999999772
  0
LINE
  5
4FD
330
1F
100
AcDbEntity
  8
0
 62
     7
370
    13
100
AcDbLine
 10
495.4339282067691
 20
569.7224360881135
 30
0.0
 11
57.22824020676911
 21
569.7224360881135
 31
0.0
  0
LINE
  5
4FE
330
1F
100
AcDbEntity
  8
0
 62
     7
 48
0.23382
370
    35
100
AcDbLine
 10
67.33108420676912
 20
571.8823480881136
 30
0.0
 11
57.97827020676912
 21
571.8823480881136
 31
0.0
  0
ARC
  5
4FF
330
1F
100
AcDbEntity
  8
0
 62
     7
370
    35
100
AcDbCircle
 10
57.97822420676912
 20
572.6190430881135
 30
0.0
 40
0.736725
100
AcDbArc
 50
179.945978
 51
270.004341
  0
ARC
  5
500
330
1F
100
AcDbEntity
  8
0
 62
     7
370
    35
100
AcDbCircle
 10
2380.493132206769
 20
570.7301880881137
 30
0.0
 40
2323.25238
100
AcDbArc
 50
179.678098
 51
179.9533959999999
  0
ARC
  5
501
330
1F
100
AcDbEntity
  8
0
 62
     7
370
    35
100
AcDbCircle
 10
65.43205120676912
 20
583.7345210881136
 30
0.0
 40
8.154378999999998
100
AcDbArc
 50
143.201309
 51
179.6628399999999
  0
LINE
  5
502
330
1F
100
AcDbEntity
  8
0
 62
     7
 48
0.245
370
    35
100
AcDbLine
 10
77.13108720676911
 20
592.8232660881136
 30
0.0
 11
67.33108420676912
 21
592.8232660881136
 31
0.0
  0
ARC
  5
503
330
1F
100
AcDbEntity
  8
0
 62
     7
370
    35
100
AcDbCircle
 10
77.1316062067691
 20
592.2082760881136
 30
0.0
 40
0.614857
100
AcDbArc
 50
1.067268999999982
 51
90.04830600000003
  0
ELLIPSE
  5
504
330
1F
100
AcDbEntity
  8
0
 62
     7
370
    35
100
AcDbEllipse
 10
77.65115220676912
 20
569.7224360881135
 30
0.0
 11
0.0
 21
25.0
 31
0.0
210
0.0
220
0.0
230
1.0
 40
0.008727
 41
5.245125179999999
 42
5.831911869999999
  0
LINE
  5
505
330
1F
100
AcDbEntity
  8
0
 62
     7
370
    13
100
AcDbLine
 10
495.4339282067691
 20
67.11707408811358
 30
0.0
 11
57.22824020676911
 21
67.11707408811358
 31
0.0
  0
ARC
  5
506
330
1F
100
AcDbEntity
  8
0
 62
     7
370
    35
100
AcDbCircle
 10
57.97824020676912
 20
363.6197750881136
 30
0.0
 40
0.738243
100
AcDbArc
 50
180.0
 51
270.0
  0
LINE
  5
507
330
1F
100
AcDbEntity
  8
0
 62
     7
 48
0.489999
370
    35
100
AcDbLine
 10
57.23998920676912
 20
383.2197510881135
 30
0.0
 11
57.23998920676912
 21
363.6197750881136
 31
0.0
  0
ARC
  5
508
330
1F
100
AcDbEntity
  8
0
 62
     7
370
    35
100
AcDbCircle
 10
57.97824020676912
 20
383.2197510881135
 30
0.0
 40
0.738243
100
AcDbArc
 50
90.0
 51
180.0
  0
LINE
  5
509
330
1F
100
AcDbEntity
  8
0
 62
     7
 48
0.233821
370
    35
100
AcDbLine
 10
67.33108420676912
 20
383.9580010881136
 30
0.0
 11
57.97824020676912
 21
383.9580010881136
 31
0.0
  0
ARC
  5
50A
330
1F
100
AcDbEntity
  8
0
 62
     7
370
    35
100
AcDbCircle
 10
67.33108420676912
 20
373.4197630881135
 30
0.0
 40
10.538243
100
AcDbArc
 50
270.0
 51
90.0
  0
LINE
  5
50B
330
1F
100
AcDbEntity
  8
0
 62
     7
 48
0.233821
370
    35
100
AcDbLine
 10
67.33108420676912
 20
362.8815240881136
 30
0.0
 11
57.97824020676912
 21
362.8815240881136
 31
0.0
  0
ARC
  5
50C
330
1F
100
AcDbEntity
  8
0
 62
     7
370
    35
100
AcDbCircle
 10
77.1316062067691
 20
44.63121908811358
 30
0.0
 40
0.614857
100
AcDbArc
 50
269.951694
 51
358.932731
  0
LINE
  5
50D
330
1F
100
AcDbEntity
  8
0
 62
     7
 48
0.245
370
    35
100
AcDbLine
 10
77.13108720676911
 20
44.01629008811357
 30
0.0
 11
67.33108420676912
 21
44.01629008811357
 31
0.0
  0
ARC
  5
50E
330
1F
100
AcDbEntity
  8
0
 62
     7
370
    35
100
AcDbCircle
 10
65.43205120676912
 20
53.10500408811358
 30
0.0
 40
8.154378999999998
100
AcDbArc
 50
180.33716
 51
216.798691
  0
ARC
  5
50F
330
1F
100
AcDbEntity
  8
0
 62
     7
370
    35
100
AcDbCircle
 10
2380.493132206769
 20
66.10933808811359
 30
0.0
 40
2323.25238
100
AcDbArc
 50
180.046604
 51
180.321902
  0
ARC
  5
510
330
1F
100
AcDbEntity
  8
0
 62
     7
370
    35
100
AcDbCircle
 10
57.97822420676912
 20
64.22045208811358
 30
0.0
 40
0.736725
100
AcDbArc
 50
89.99565899999998
 51
180.054022
  0
LINE
  5
511
330
1F
100
AcDbEntity
  8
0
 62
     7
 48
0.23382
370
    35
100
AcDbLine
 10
67.33108420676912
 20
64.95719308811357
 30
0.0
 11
57.97827020676912
 21
64.95719308811357
 31
0.0
  0
ELLIPSE
  5
512
330
1F
100
AcDbEntity
  8
0
 62
     7
370
    35
100
AcDbEllipse
 10
77.65115220676912
 20
67.11707408811358
 30
0.0
 11
0.0
 21
25.0
 31
0.0
210
0.0
220
0.0
230
1.0
 40
0.008727
 41
3.592866089999999
 42
4.179652779999999
  0
CIRCLE
  5
513
330
1F
100
AcDbEntity
  8
0
 62
     7
370
    35
100
AcDbCircle
 10
67.33108420676912
 20
373.4197630881135
 30
0.0
 40
4.883901999999999
  0
LINE
  5
514
330
1F
100
AcDbEntity
  8
0
 62
     7
 48
0.05
370
    35
100
AcDbLine
 10
71.83108420676912
 20
374.4197630881135
 30
0.0
 11
71.83108420676912
 21
372.4197630881135
 31
0.0
  0
LINE
  5
515
330
1F
100
AcDbEntity
  8
0
 62
     7
 48
0.225
370
    35
100
AcDbLine
 10
71.83108420676912
 20
374.4197630881135
 30
0.0
 11
62.83108420676912
 21
374.4197630881135
 31
0.0
  0
LINE
  5
516
330
1F
100
AcDbEntity
  8
0
 62
     7
 48
0.05
370
    35
100
AcDbLine
 10
62.83108420676912
 20
372.4197630881135
 30
0.0
 11
62.83108420676912
 21
374.4197630881135
 31
0.0
  0
LINE
  5
517
330
1F
100
AcDbEntity
  8
0
 62
     7
 48
0.225
370
    35
100
AcDbLine
 10
62.83108420676912
 20
372.4197630881135
 30
0.0
 11
71.83108420676912
 21
372.4197630881135
 31
0.0
  0
CIRCLE
  5
518
330
1F
100
AcDbEntity
  8
0
 62
     7
370
    35
100
AcDbCircle
 10
485.3310842067691
 20
373.4197630881135
 30
0.0
 40
4.883901999999999
  0
LINE
  5
519
330
1F
100
AcDbEntity
  8
0
 62
     7
 48
0.05
370
    35
100
AcDbLine
 10
489.8310842067691
 20
374.4197630881135
 30
0.0
 11
489.8310842067691
 21
372.4197630881135
 31
0.0
  0
LINE
  5
51A
330
1F
100
AcDbEntity
  8
0
 62
     7
 48
0.225
370
    35
100
AcDbLine
 10
489.8310842067691
 20
374.4197630881135
 30
0.0
 11
480.831084206769
 21
374.4197630881135
 31
0.0
  0
LINE
  5
51B
330
1F
100
AcDbEntity
  8
0
 62
     7
 48
0.05
370
    35
100
AcDbLine
 10
480.831084206769
 20
372.4197630881135
 30
0.0
 11
480.831084206769
 21
374.4197630881135
 31
0.0
  0
LINE
  5
51C
330
1F
100
AcDbEntity
  8
0
 62
     7
 48
0.225
370
    35
100
AcDbLine
 10
480.831084206769
 20
372.4197630881135
 30
0.0
 11
489.8310842067691
 21
372.4197630881135
 31
0.0
  0
CIRCLE
  5
51D
330
1F
100
AcDbEntity
  8
0
 62
     7
370
    35
100
AcDbCircle
 10
67.33108420676912
 20
54.41976308811359
 30
0.0
 40
4.883901999999999
  0
LINE
  5
51E
330
1F
100
AcDbEntity
  8
0
 62
     7
 48
0.05
370
    35
100
AcDbLine
 10
71.83108420676912
 20
55.41976308811358
 30
0.0
 11
71.83108420676912
 21
53.41976308811358
 31
0.0
  0
LINE
  5
51F
330
1F
100
AcDbEntity
  8
0
 62
     7
 48
0.225
370
    35
100
AcDbLine
 10
71.83108420676912
 20
55.41976308811358
 30
0.0
 11
62.83108420676912
 21
55.41976308811358
 31
0.0
  0
LINE
  5
520
330
1F
100
AcDbEntity
  8
0
 62
     7
 48
0.05
370
    35
100
AcDbLine
 10
62.83108420676912
 20
53.41976308811358
 30
0.0
 11
62.83108420676912
 21
55.41976308811358
 31
0.0
  0
LINE
  5
521
330
1F
100
AcDbEntity
  8
0
 62
     7
 48
0.225
370
    35
100
AcDbLine
 10
62.83108420676912
 20
53.41976308811358
 30
0.0
 11
71.83108420676912
 21
53.41976308811358
 31
0.0
  0
CIRCLE
  5
522
330
1F
100
AcDbEntity
  8
0
 62
     7
370
    35
100
AcDbCircle
 10
485.3310842067691
 20
54.41976308811359
 30
0.0
 40
4.883901999999999
  0
LINE
  5
523
330
1F
100
AcDbEntity
  8
0
 62
     7
 48
0.05
370
    35
100
AcDbLine
 10
489.8310842067691
 20
55.41976308811358
 30
0.0
 11
489.8310842067691
 21
53.41976308811358
 31
0.0
  0
LINE
  5
524
330
1F
100
AcDbEntity
  8
0
 62
     7
 48
0.225
370
    35
100
AcDbLine
 10
489.8310842067691
 20
55.41976308811358
 30
0.0
 11
480.831084206769
 21
55.41976308811358
 31
0.0
  0
LINE
  5
525
330
1F
100
AcDbEntity
  8
0
 62
     7
 48
0.05
370
    35
100
AcDbLine
 10
480.831084206769
 20
53.41976308811358
 30
0.0
 11
480.831084206769
 21
55.41976308811358
 31
0.0
  0
LINE
  5
526
330
1F
100
AcDbEntity
  8
0
 62
     7
 48
0.225
370
    35
100
AcDbLine
 10
480.831084206769
 20
53.41976308811358
 30
0.0
 11
489.8310842067691
 21
53.41976308811358
 31
0.0
  0
CIRCLE
  5
527
330
1F
100
AcDbEntity
  8
0
 62
     7
370
    35
100
AcDbCircle
 10
67.33108420676912
 20
582.4197630881136
 30
0.0
 40
4.883901999999999
  0
LINE
  5
528
330
1F
100
AcDbEntity
  8
0
 62
     7
 48
0.05
370
    35
100
AcDbLine
 10
71.83108420676912
 20
583.4197630881136
 30
0.0
 11
71.83108420676912
 21
581.4197630881136
 31
0.0
  0
LINE
  5
529
330
1F
100
AcDbEntity
  8
0
 62
     7
 48
0.225
370
    35
100
AcDbLine
 10
71.83108420676912
 20
583.4197630881136
 30
0.0
 11
62.83108420676912
 21
583.4197630881136
 31
0.0
  0
LINE
  5
52A
330
1F
100
AcDbEntity
  8
0
 62
     7
 48
0.05
370
    35
100
AcDbLine
 10
62.83108420676912
 20
581.4197630881136
 30
0.0
 11
62.83108420676912
 21
583.4197630881136
 31
0.0
  0
LINE
  5
52B
330
1F
100
AcDbEntity
  8
0
 62
     7
 48
0.225
370
    35
100
AcDbLine
 10
62.83108420676912
 20
581.4197630881136
 30
0.0
 11
71.83108420676912
 21
581.4197630881136
 31
0.0
  0
CIRCLE
  5
52C
330
1F
100
AcDbEntity
  8
0
 62
     7
370
    35
100
AcDbCircle
 10
485.3310842067691
 20
582.4197630881136
 30
0.0
 40
4.883901999999999
  0
LINE
  5
52D
330
1F
100
AcDbEntity
  8
0
 62
     7
 48
0.05
370
    35
100
AcDbLine
 10
489.8310842067691
 20
583.4197630881136
 30
0.0
 11
489.8310842067691
 21
581.4197630881136
 31
0.0
  0
LINE
  5
52E
330
1F
100
AcDbEntity
  8
0
 62
     7
 48
0.225
370
    35
100
AcDbLine
 10
489.8310842067691
 20
583.4197630881136
 30
0.0
 11
480.831084206769
 21
583.4197630881136
 31
0.0
  0
LINE
  5
52F
330
1F
100
AcDbEntity
  8
0
 62
     7
 48
0.05
370
    35
100
AcDbLine
 10
480.831084206769
 20
581.4197630881136
 30
0.0
 11
480.831084206769
 21
583.4197630881136
 31
0.0
  0
LINE
  5
530
330
1F
100
AcDbEntity
  8
0
 62
     7
 48
0.225
370
    35
100
AcDbLine
 10
480.831084206769
 20
581.4197630881136
 30
0.0
 11
489.8310842067691
 21
581.4197630881136
 31
0.0
  0
LINE
  5
531
330
1F
100
AcDbEntity
  8
0
 62
     7
370
    35
100
AcDbLine
 10
51.33108420676911
 20
54.41976308811359
 30
0.0
 11
51.33108420676911
 21
582.4197630881136
 31
0.0
  0
ARC
  5
532
330
1F
100
AcDbEntity
  8
0
 62
     7
370
    35
100
AcDbCircle
 10
67.33108420676912
 20
54.41976308811359
 30
0.0
 40
16.0
100
AcDbArc
 50
180.0
 51
202.8229630000001
  0
ARC
  5
533
330
1F
100
AcDbEntity
  8
0
 62
     7
370
    35
100
AcDbCircle
 10
485.3310842067691
 20
54.41976308811359
 30
0.0
 40
16.0
100
AcDbArc
 50
337.177039
 51
0.0
  0
LINE
  5
534
330
1F
100
AcDbEntity
  8
0
 62
     7
 48
0.155154
370
    35
100
AcDbLine
 10
501.331084206769
 20
60.62590908811358
 30
0.0
 11
501.331084206769
 21
54.41976308811359
 31
0.0
  0
LINE
  5
535
330
1F
100
AcDbEntity
  8
0
 62
     7
 48
0.310309
370
    35
100
AcDbLine
 10
501.331084206769
 20
379.6259390881136
 30
0.0
 11
501.331084206769
 21
367.2135860881136
 31
0.0
  0
LINE
  5
536
330
1F
100
AcDbEntity
  8
0
 62
     7
 48
0.155153
370
    35
100
AcDbLine
 10
501.331084206769
 20
582.4197630881136
 30
0.0
 11
501.331084206769
 21
576.2136470881135
 31
0.0
  0
ARC
  5
537
330
1F
100
AcDbEntity
  8
0
 62
     7
370
    35
100
AcDbCircle
 10
485.3310842067691
 20
582.4197630881136
 30
0.0
 40
16.0
100
AcDbArc
 50
0.0
 51
90.0
  0
LINE
  5
538
330
1F
100
AcDbEntity
  8
0
 62
     7
370
    35
100
AcDbLine
 10
485.3310842067691
 20
598.4197630881136
 30
0.0
 11
67.33108420676912
 21
598.4197630881136
 31
0.0
  0
ARC
  5
539
330
1F
100
AcDbEntity
  8
0
 62
     7
370
    35
100
AcDbCircle
 10
67.33108420676912
 20
582.4197630881136
 30
0.0
 40
16.0
100
AcDbArc
 50
90.0
 51
180.0
  0
LINE
  5
53A
330
1F
100
AcDbEntity
  8
0
100
AcDbLine
 10
202.0844175367691
 20
598.4197630881136
 30
0.0
 11
350.5777508667691
 21
598.4197630881136
 31
0.0
  0
LINE
  5
53B
330
1F
100
AcDbEntity
  8
0
 62
     7
100
AcDbLine
 10
96.33282079676911
 20
505.9197630881135
 30
0.0
 11
456.332820796769
 21
505.9197630881135
 31
0.0
  0
LINE
  5
53C
330
1F
100
AcDbEntity
  8
0
 62
     7
100
AcDbLine
 10
456.332820796769
 20
505.9197630881135
 30
0.0
 11
456.332820796769
 21
460.9197630881135
 31
0.0
  0
LINE
  5
53D
330
1F
100
AcDbEntity
  8
0
 62
     7
100
AcDbLine
 10
456.332820796769
 20
460.9197630881135
 30
0.0
 11
96.33282079676911
 21
460.9197630881135
 31
0.0
  0
LINE
  5
53E
330
1F
100
AcDbEntity
  8
0
 62
     7
100
AcDbLine
 10
96.33282079676911
 20
460.9197630881135
 30
0.0
 11
96.33282079676911
 21
505.9197630881135
 31
0.0
  0
DIMENSION
  5
53F
330
1F
100
AcDbEntity
  8
QUOTE
 62
     7
100
AcDbDimension
  2
*D5
 10
24.19136819676911
 20
38.41976308811359
 30
0.0
 11
24.19136819676912
 21
318.2113388381135
 31
0.0
 70
   160
 71
     0
 42
560.0
  3
Standard
100
AcDbAlignedDimension
 13
67.33108336676912
 23
598.4197630881136
 33
0.0
 14
67.39358336676912
 24
38.41976308811359
 34
0.0
 50
90.0
100
AcDbRotatedDimension
1001
ACAD
1000
DSTYLE
1002
{
1070
    41
1040
15.0
1070
   140
1040
10.0
1070
    78
1070
     8
1070
   284
1070
     8
1002
}
  0
DIMENSION
  5
540
330
1F
100
AcDbEntity
  8
QUOTE
 62
     7
100
AcDbDimension
  2
*D6
 10
51.33108420676911
 20
20.39757109811358
 30
0.0
 11
275.7635637867691
 21
20.39757109811358
 31
0.0
 70
   160
 71
     0
 42
450.0
  3
Standard
100
AcDbAlignedDimension
 13
501.331084206769
 23
54.41976308811359
 33
0.0
 14
51.33108420676911
 24
54.41976169811358
 34
0.0
100
AcDbRotatedDimension
1001
ACAD
1000
DSTYLE
1002
{
1070
    41
1040
15.0
1070
   140
1040
10.0
1070
    78
1070
     8
1070
   284
1070
     8
1002
}
  0
TEXT
  5
541
330
1F
100
AcDbEntity
  8
0
 62
     7
100
AcDbText
 10
82.69927668438816
 20
579.7486537881136
 30
0.0
 40
5.0
  1
GW68013N
 72
     1
 11
101.1516576367691
 21
579.7486537881136
 31
0.0
100
AcDbText
  0
LWPOLYLINE
  5
542
330
1F
100
AcDbEntity
  8
0
 62
   253
370
    35
100
AcDbPolyline
 90
        8
 70
     0
 43
0.0
 10
132.3899062067691
 20
412.3036130881136
 10
132.1390522067691
 20
412.4627310881136
 10
131.9157402067691
 20
412.6568840881135
 10
131.7249592067691
 20
412.8811270881135
 10
131.5383742067691
 20
413.1922850881136
 10
131.4098342067691
 20
413.5302360881135
 10
131.3419332067691
 20
413.8832030881135
 10
131.3310842067691
 20
414.0931640881135
  0
LWPOLYLINE
  5
543
330
1F
100
AcDbEntity
  8
0
 62
   253
370
    35
100
AcDbPolyline
 90
        9
 70
     0
 43
0.0
 10
240.2722462067691
 20
412.3036130881136
 10
240.5231312067691
 20
412.4627310881136
 10
240.7464592067691
 20
412.6569450881135
 10
240.9372242067691
 20
412.8811880881135
 10
241.0911852067691
 20
413.1277710881136
 10
241.2081282067691
 20
413.3927240881136
 10
241.2869252067691
 20
413.6704340881135
 10
241.3200362067691
 20
413.8813110881135
 10
241.3310842067691
 20
414.0931640881135
  0
LWPOLYLINE
  5
544
330
1F
100
AcDbEntity
  8
0
 62
   253
370
    35
100
AcDbPolyline
 90
        9
 70
     0
 43
0.0
 10
420.2722462067691
 20
412.3036130881136
 10
420.5231612067691
 20
412.4627310881136
 10
420.746428206769
 20
412.6569450881135
 10
420.9372242067691
 20
412.8811880881135
 10
421.0911552067691
 20
413.1277710881136
 10
421.2080982067691
 20
413.3927240881136
 10
421.2869552067691
 20
413.6704340881135
 10
421.320036206769
 20
413.8813110881135
 10
421.3310842067691
 20
414.0931640881135
  0
LWPOLYLINE
  5
545
330
1F
100
AcDbEntity
  8
0
 62
   253
370
    35
100
AcDbPolyline
 90
        8
 70
     0
 43
0.0
 10
312.3899222067691
 20
412.3036130881136
 10
312.1390372067691
 20
412.4627310881136
 10
311.9157402067691
 20
412.6568840881135
 10
311.7249442067691
 20
412.8811880881135
 10
311.5383592067691
 20
413.1922850881136
 10
311.4098192067691
 20
413.5302360881135
 10
311.3419482067691
 20
413.8832030881135
 10
311.3310842067691
 20
414.0931640881135
  0
LWPOLYLINE
  5
546
330
1F
100
AcDbEntity
  8
0
 62
   253
370
    35
100
AcDbPolyline
 90
       15
 70
     0
 43
0.0
 10
401.331084206769
 20
405.5189450881135
 10
401.4073472067691
 20
405.5190360881136
 10
403.0884082067691
 20
405.5626460881135
 10
404.7564382067691
 20
405.6848990881134
 10
406.417204206769
 20
405.8850340881135
 10
408.065093206769
 20
406.1617060881135
 10
409.696562206769
 20
406.5136350881135
 10
411.310576206769
 20
406.9402090881135
 10
412.666167206769
 20
407.3604980881135
 10
414.0136402067691
 20
407.8362670881135
 10
415.3419482067691
 20
408.3641600881136
 10
416.6469412067691
 20
408.9420410881135
 10
417.9243462067691
 20
409.5673460881135
 10
419.1726982067691
 20
410.2388550881135
 10
420.4950242067691
 20
411.0202270881135
  0
LWPOLYLINE
  5
547
330
1F
100
AcDbEntity
  8
0
 62
   253
370
    35
100
AcDbPolyline
 90
       12
 70
     0
 43
0.0
 10
420.4950242067691
 20
411.0202270881135
 10
420.7140792067691
 20
411.1951530881135
 10
420.8501272067691
 20
411.3497550881136
 10
421.0321952067691
 20
411.6328970881136
 10
421.0778492067691
 20
411.7289670881135
 10
421.1400442067691
 20
411.9179930881135
 10
421.1536552067691
 20
412.0531250881136
 10
421.140471206769
 20
412.1400390881135
 10
421.0403732067691
 20
412.2784050881135
 10
420.9605392067691
 20
412.3169180881135
 10
420.8658132067691
 20
412.3372430881135
 10
420.7797532067691
 20
412.3417600881135
  0
LWPOLYLINE
  5
548
330
1F
100
AcDbEntity
  8
0
 62
   253
370
    35
100
AcDbPolyline
 90
       12
 70
     0
 43
0.0
 10
312.1671432067691
 20
411.0202270881135
 10
311.9455252067691
 20
411.1977170881135
 10
311.8094772067692
 20
411.3531120881135
 10
311.6829512067691
 20
411.5382930881136
 10
311.5827012067691
 20
411.7326290881135
 10
311.5213612067691
 20
411.9215330881136
 10
311.5086662067692
 20
412.0566650881135
 10
311.5229172067691
 20
412.1438840881136
 10
311.6187122067691
 20
412.2762690881136
 10
311.6719352067691
 20
412.3056270881136
 10
311.7544852067691
 20
412.3306510881135
 10
311.8823842067691
 20
412.3417600881135
  0
LWPOLYLINE
  5
549
330
1F
100
AcDbEntity
  8
0
 62
   253
370
    35
100
AcDbPolyline
 90
       16
 70
     0
 43
0.0
 10
331.3310842067691
 20
405.5189450881135
 10
329.9250472067691
 20
405.5468990881136
 10
328.5174552067691
 20
405.6309140881136
 10
327.1042162067691
 20
405.7716300881136
 10
325.6983932067691
 20
405.9681030881136
 10
324.3030082067691
 20
406.2193230881136
 10
322.9197072067691
 20
406.5246820881135
 10
321.5520922067691
 20
406.8828970881136
 10
320.1961962067691
 20
407.2947630881135
 10
318.8463122067692
 20
407.7627190881136
 10
317.5148612067691
 20
408.2830440881135
 10
316.2041312067691
 20
408.8546380881135
 10
314.9195852067691
 20
409.4746330881135
 10
313.6695242067691
 20
410.1382080881136
 10
312.4511702067691
 20
410.8459710881136
 10
312.1671432067691
 20
411.0202270881135
  0
LWPOLYLINE
  5
54A
330
1F
100
AcDbEntity
  8
0
 62
   253
370
    35
100
AcDbPolyline
 90
       15
 70
     0
 43
0.0
 10
221.3310842067691
 20
405.5189450881135
 10
221.4073472067691
 20
405.5190360881136
 10
223.0884082067691
 20
405.5626460881135
 10
224.7564382067691
 20
405.6848990881134
 10
226.4172042067691
 20
405.8850340881135
 10
228.0650932067691
 20
406.1617060881135
 10
229.6965622067691
 20
406.5136350881135
 10
231.3105762067691
 20
406.9402090881135
 10
232.6661672067691
 20
407.3604980881135
 10
234.0136092067691
 20
407.8362670881135
 10
235.3419792067691
 20
408.3641600881136
 10
236.6469712067691
 20
408.9420410881135
 10
237.9243462067691
 20
409.5673460881135
 10
239.1726982067691
 20
410.2388550881135
 10
240.4950242067691
 20
411.0202270881135
  0
LWPOLYLINE
  5
54B
330
1F
100
AcDbEntity
  8
0
 62
   253
370
    35
100
AcDbPolyline
 90
       12
 70
     0
 43
0.0
 10
240.4950242067691
 20
411.0202270881135
 10
240.7166432067691
 20
411.1977170881135
 10
240.8526902067691
 20
411.3531120881135
 10
240.9792162067691
 20
411.5382930881136
 10
241.0794662067691
 20
411.7326290881135
 10
241.1408072067691
 20
411.9215330881136
 10
241.1535022067691
 20
412.0566650881135
 10
241.1392502067691
 20
412.1438840881136
 10
241.0434562067691
 20
412.2762690881136
 10
240.9902332067691
 20
412.3056270881136
 10
240.9076832067691
 20
412.3306510881135
 10
240.7797842067691
 20
412.3417600881135
  0
LWPOLYLINE
  5
54C
330
1F
100
AcDbEntity
  8
0
 62
   253
370
    35
100
AcDbPolyline
 90
       17
 70
     0
 43
0.0
 10
132.1671592067691
 20
411.0202270881135
 10
132.8613572067691
 20
410.6006100881136
 10
134.0618122067691
 20
409.9233640881135
 10
135.2912892067691
 20
409.2889640881136
 10
136.5554492067691
 20
408.6954590881135
 10
137.8439472067691
 20
408.1488890881136
 10
139.1536852067691
 20
407.6510250881135
 10
140.4800252067691
 20
407.2038200881136
 10
141.8150932067691
 20
406.8095940881136
 10
143.1616202067691
 20
406.4671870881136
 10
144.5107102067691
 20
406.1783690881135
 10
145.8710772067691
 20
405.9409420881136
 10
147.2410112067691
 20
405.7555780881135
 10
148.2619922067691
 20
405.6521240881136
 10
149.2852622067691
 20
405.5781490881136
 10
150.3089892067691
 20
405.5337150881135
 10
151.3310842067691
 20
405.5189450881135
  0
LWPOLYLINE
  5
54D
330
1F
100
AcDbEntity
  8
0
 62
   253
370
    35
100
AcDbPolyline
 90
       12
 70
     0
 43
0.0
 10
132.1671592067691
 20
411.0202270881135
 10
131.9480582067691
 20
411.1951530881135
 10
131.8120412067691
 20
411.3497550881136
 10
131.6299882067691
 20
411.6328970881136
 10
131.5842882067691
 20
411.7289670881135
 10
131.5221092067691
 20
411.9179930881135
 10
131.5085442067691
 20
412.0531250881136
 10
131.5217272067691
 20
412.1400390881135
 10
131.6217942067691
 20
412.2784050881135
 10
131.7016282067691
 20
412.3169180881135
 10
131.7963402067691
 20
412.3372430881135
 10
131.8823842067691
 20
412.3417600881135
  0
LWPOLYLINE
  5
54E
330
1F
100
AcDbEntity
  8
0
 62
   253
370
    35
100
AcDbPolyline
 90
        4
 70
     0
 43
0.0
 10
356.1483142067691
 20
409.0184570881135
 10
356.1441032067691
 20
408.9057860881135
 10
356.1520982067691
 20
408.6615840881136
 10
356.1226792067691
 20
408.2618040881135
  0
LWPOLYLINE
  5
54F
330
1F
100
AcDbEntity
  8
0
 62
   253
370
    35
100
AcDbPolyline
 90
        4
 70
     0
 43
0.0
 10
376.5394882067691
 20
408.2618040881135
 10
376.5122062067691
 20
408.7362910881136
 10
376.5181872067691
 20
408.9294060881135
 10
376.5138542067691
 20
409.0184570881135
  0
LWPOLYLINE
  5
550
330
1F
100
AcDbEntity
  8
0
 62
   253
370
    35
100
AcDbPolyline
 90
        3
 70
     0
 43
0.0
 10
356.3531792067692
 20
405.5011840881136
 10
356.2789602067691
 20
405.5254150881136
 10
356.2058092067691
 20
405.5244690881136
  0
LWPOLYLINE
  5
551
330
1F
100
AcDbEntity
  8
0
 62
   253
370
    35
100
AcDbPolyline
 90
        3
 70
     0
 43
0.0
 10
376.3089892067691
 20
405.5011840881136
 10
376.3832082067691
 20
405.5254150881136
 10
376.4563582067691
 20
405.5244690881136
  0
LWPOLYLINE
  5
552
330
1F
100
AcDbEntity
  8
0
 62
   253
370
    35
100
AcDbPolyline
 90
        4
 70
     0
 43
0.0
 10
176.1226792067691
 20
408.2618040881135
 10
176.1499622067691
 20
408.7362910881136
 10
176.1439812067691
 20
408.9294060881135
 10
176.1483142067691
 20
409.0184570881135
  0
LWPOLYLINE
  5
553
330
1F
100
AcDbEntity
  8
0
 62
   253
370
    35
100
AcDbPolyline
 90
        4
 70
     0
 43
0.0
 10
196.5138542067691
 20
409.0184570881135
 10
196.5180652067691
 20
408.9057860881135
 10
196.5100692067691
 20
408.6615840881136
 10
196.5394882067691
 20
408.2618040881135
  0
LWPOLYLINE
  5
554
330
1F
100
AcDbEntity
  8
0
 62
   253
370
    35
100
AcDbPolyline
 90
        3
 70
     0
 43
0.0
 10
196.3089892067691
 20
405.5011840881136
 10
196.3832082067691
 20
405.5254150881136
 10
196.4563582067691
 20
405.5244690881136
  0
LWPOLYLINE
  5
555
330
1F
100
AcDbEntity
  8
0
 62
   253
370
    35
100
AcDbPolyline
 90
        3
 70
     0
 43
0.0
 10
176.3531792067691
 20
405.5011840881136
 10
176.2789602067691
 20
405.5254150881136
 10
176.2058092067691
 20
405.5244690881136
  0
LWPOLYLINE
  5
556
330
1F
100
AcDbEntity
  8
0
 62
   253
370
    35
100
AcDbPolyline
 90
       14
 70
     0
 43
0.0
 10
133.0353382067691
 20
411.9638910881135
 10
133.2968742067691
 20
411.8427970881135
 10
133.6167742067691
 20
411.7157220881136
 10
134.3793472067691
 20
411.4574210881135
 10
135.2151932067691
 20
411.2112670881136
 10
136.5976852067691
 20
410.8484130881135
 10
138.4826192067691
 20
410.4131100881136
 10
140.4760122067691
 20
410.0169920881135
 10
142.4709762067691
 20
409.6859980881135
 10
144.4681382067691
 20
409.4211670881136
 10
146.4909502067691
 20
409.2213980881135
 10
148.5485222067691
 20
409.0890740881135
 10
150.6334982067691
 20
409.0279170881135
 10
151.3310842067691
 20
409.0238280881135
  0
LWPOLYLINE
  5
557
330
1F
100
AcDbEntity
  8
0
 62
   253
370
    35
100
AcDbPolyline
 90
       14
 70
     0
 43
0.0
 10
419.6267992067691
 20
411.9638910881135
 10
419.3653252067691
 20
411.8427970881135
 10
419.0453782067691
 20
411.7157220881136
 10
418.2828052067691
 20
411.4574210881135
 10
417.446990206769
 20
411.2112670881136
 10
416.0644822067691
 20
410.8484130881135
 10
414.1795342067691
 20
410.4131100881136
 10
412.1861562067691
 20
410.0169920881135
 10
410.1911912067691
 20
409.6859980881135
 10
408.1940292067691
 20
409.4211670881136
 10
406.171233206769
 20
409.2213980881135
 10
404.113646206769
 20
409.0890740881135
 10
402.0286552067691
 20
409.0279170881135
 10
401.331084206769
 20
409.0238280881135
  0
LWPOLYLINE
  5
558
330
1F
100
AcDbEntity
  8
0
 62
   253
370
    35
100
AcDbPolyline
 90
       14
 70
     0
 43
0.0
 10
331.3310842067691
 20
409.0238280881135
 10
329.2404472067691
 20
409.0606320881136
 10
327.1722702067691
 20
409.1696410881136
 10
325.1381522067691
 20
409.3473750881136
 10
323.1346122067691
 20
409.5906000881135
 10
321.1413562067691
 20
409.8992550881136
 10
319.1455982067691
 20
410.2741330881135
 10
317.0042102067691
 20
410.7492920881136
 10
315.7012932067691
 20
411.0785760881135
 10
314.7916252067691
 20
411.3326050881136
 10
313.9844352067691
 20
411.5854730881135
 10
313.6167592067691
 20
411.7157220881136
 10
313.2968742067691
 20
411.8427970881135
 10
313.0353382067691
 20
411.9638910881135
  0
LWPOLYLINE
  5
559
330
1F
100
AcDbEntity
  8
0
 62
   253
370
    35
100
AcDbPolyline
 90
       14
 70
     0
 43
0.0
 10
221.3310842067691
 20
409.0238280881135
 10
223.4217212067691
 20
409.0606320881136
 10
225.4898972067691
 20
409.1696410881136
 10
227.5240162067691
 20
409.3473750881136
 10
229.5275562067691
 20
409.5906000881135
 10
231.5208122067691
 20
409.8992550881136
 10
233.5165702067691
 20
410.2741330881135
 10
235.6579582067691
 20
410.7492920881136
 10
236.9608752067691
 20
411.0785760881135
 10
237.8705432067691
 20
411.3326050881136
 10
238.6777332067691
 20
411.5854730881135
 10
239.0454092067691
 20
411.7157220881136
 10
239.3652942067691
 20
411.8427970881135
 10
239.6268302067691
 20
411.9638910881135
  0
LWPOLYLINE
  5
55A
330
1F
100
AcDbEntity
  8
0
 62
   253
370
    35
100
AcDbPolyline
 90
        4
 70
     0
 43
0.0
 10
229.8240652067691
 20
418.3805170881136
 10
226.6588432067691
 20
418.3440180881135
 10
222.3990772067691
 20
418.2945800881135
 10
221.3310842067691
 20
418.2920160881135
  0
LWPOLYLINE
  5
55B
330
1F
100
AcDbEntity
  8
0
 62
   253
370
    35
100
AcDbPolyline
 90
        6
 70
     0
 43
0.0
 10
181.8276052067691
 20
418.2920160881135
 10
183.2405692067691
 20
418.3163690881135
 10
185.4563282067691
 20
418.3700800881135
 10
187.6421492067691
 20
418.3629390881135
 10
189.8825672067691
 20
418.3045280881136
 10
190.8345632067691
 20
418.2920160881135
  0
LWPOLYLINE
  5
55C
330
1F
100
AcDbEntity
  8
0
 62
   253
370
    35
100
AcDbPolyline
 90
        4
 70
     0
 43
0.0
 10
151.3310842067691
 20
418.2920160881135
 10
147.4196922067691
 20
418.3227780881136
 10
143.8892202067691
 20
418.3728880881135
 10
142.8381182067691
 20
418.3805170881136
  0
LWPOLYLINE
  5
55D
330
1F
100
AcDbEntity
  8
0
 62
   253
370
    35
100
AcDbPolyline
 90
        4
 70
     0
 43
0.0
 10
401.331084206769
 20
418.2920160881135
 10
405.242583206769
 20
418.3228390881136
 10
408.773039206769
 20
418.3728880881135
 10
409.8240652067691
 20
418.3805170881136
  0
LWPOLYLINE
  5
55E
330
1F
100
AcDbEntity
  8
0
 62
   253
370
    35
100
AcDbPolyline
 90
        6
 70
     0
 43
0.0
 10
370.8345632067691
 20
418.2920160881135
 10
369.4214772067691
 20
418.3163690881135
 10
367.2056572067691
 20
418.3700800881135
 10
365.0198352067691
 20
418.3629390881135
 10
362.7792952067691
 20
418.3045280881136
 10
361.8276052067691
 20
418.2920160881135
  0
LWPOLYLINE
  5
55F
330
1F
100
AcDbEntity
  8
0
 62
   253
370
    35
100
AcDbPolyline
 90
        4
 70
     0
 43
0.0
 10
322.8381032067691
 20
418.3805170881136
 10
326.0033252067691
 20
418.3440180881135
 10
330.2630602067691
 20
418.2945800881135
 10
331.3310842067691
 20
418.2920160881135
  0
LWPOLYLINE
  5
560
330
1F
100
AcDbEntity
  8
0
 62
   253
370
    35
100
AcDbPolyline
 90
        3
 70
     0
 43
0.0
 10
376.4962752067691
 20
409.1909420881136
 10
376.5601492067691
 20
409.0763180881135
 10
376.6918932067691
 20
409.0249870881136
  0
LWPOLYLINE
  5
561
330
1F
100
AcDbEntity
  8
0
 62
   253
370
    35
100
AcDbPolyline
 90
        3
 70
     0
 43
0.0
 10
356.1658922067691
 20
409.1909420881136
 10
356.1020192067691
 20
409.0763180881135
 10
355.9702742067691
 20
409.0249870881136
  0
LWPOLYLINE
  5
562
330
1F
100
AcDbEntity
  8
0
 62
   253
370
    35
100
AcDbPolyline
 90
        4
 70
     0
 43
0.0
 10
176.1658312067691
 20
409.1906370881136
 10
176.1019882067691
 20
409.0761960881135
 10
176.0175462067691
 20
409.0310910881136
 10
175.9702742067691
 20
409.0249870881136
  0
LWPOLYLINE
  5
563
330
1F
100
AcDbEntity
  8
0
 62
   253
370
    35
100
AcDbPolyline
 90
        4
 70
     0
 43
0.0
 10
196.4963372067691
 20
409.1906370881136
 10
196.5601792067691
 20
409.0761960881135
 10
196.6446212067691
 20
409.0310910881136
 10
196.6918932067691
 20
409.0249870881136
  0
LWPOLYLINE
  5
564
330
1F
100
AcDbEntity
  8
0
 62
   253
370
    35
100
AcDbPolyline
 90
        4
 70
     0
 43
0.0
 10
82.58247220676912
 20
419.8744750881136
 10
81.28549120676911
 20
419.8614740881136
 10
81.12321320676912
 20
419.8543330881135
 10
81.08817920676912
 20
419.8505490881135
  0
LWPOLYLINE
  5
565
330
1F
100
AcDbEntity
  8
0
 62
   253
370
    35
100
AcDbPolyline
 90
        7
 70
     0
 43
0.0
 10
130.8310842067691
 20
419.8050170881136
 10
130.8316182067691
 20
419.8041010881135
 10
130.8325792067691
 20
419.8034910881135
 10
130.8359512067691
 20
419.8022700881136
 10
130.8747852067691
 20
419.7968380881134
 10
131.0151352067691
 20
419.7884760881136
 10
132.1546162067691
 20
419.7663200881136
  0
LWPOLYLINE
  5
566
330
1F
100
AcDbEntity
  8
0
 62
   253
370
    35
100
AcDbPolyline
 90
        7
 70
     0
 43
0.0
 10
240.5075672067691
 20
419.7663200881136
 10
240.8941942067691
 20
419.7707760881136
 10
241.7221972067691
 20
419.7921990881135
 10
241.8189382067691
 20
419.8006830881135
 10
241.8273302067691
 20
419.8025750881136
 10
241.8297412067691
 20
419.8035520881136
 10
241.8310842067691
 20
419.8050170881136
  0
LWPOLYLINE
  5
567
330
1F
100
AcDbEntity
  8
0
 62
   253
370
    35
100
AcDbPolyline
 90
        6
 70
     0
 43
0.0
 10
310.8310842067691
 20
419.8050170881136
 10
310.8320602067692
 20
419.8037350881135
 10
310.8342882067692
 20
419.8027580881135
 10
310.8598312067691
 20
419.7983640881135
 10
311.2801502067691
 20
419.7799310881135
 10
312.1546012067692
 20
419.7663200881136
  0
LWPOLYLINE
  5
568
330
1F
100
AcDbEntity
  8
0
 62
   253
370
    35
100
AcDbPolyline
 90
        6
 70
     0
 43
0.0
 10
420.5075362067691
 20
419.7663200881136
 10
421.3587332067691
 20
419.7793820881136
 10
421.7956832067691
 20
419.7976310881135
 10
421.8271172067691
 20
419.8025140881135
 10
421.8298632067691
 20
419.8036130881136
 10
421.831084206769
 20
419.8050170881136
  0
LWPOLYLINE
  5
569
330
1F
100
AcDbEntity
  8
0
 62
   253
370
    35
100
AcDbPolyline
 90
        4
 70
     0
 43
0.0
 10
470.0796802067691
 20
419.8744750881136
 10
471.3766772067691
 20
419.8614740881136
 10
471.5389702067691
 20
419.8543330881135
 10
471.5740042067691
 20
419.8505490881135
  0
LWPOLYLINE
  5
56A
330
1F
100
AcDbEntity
  8
0
 62
     7
370
    35
100
AcDbPolyline
 90
        5
 70
     0
 43
0.0
 10
53.43369920676912
 20
588.5567260881136
 10
52.83827120676912
 20
588.5615470881135
 10
52.63098020676912
 20
588.5666740881135
 10
52.62345720676911
 20
588.5675290881136
 10
52.62231320676912
 20
588.5679560881136
  0
LWPOLYLINE
  5
56B
330
1F
100
AcDbEntity
  8
0
 62
     7
370
    35
100
AcDbPolyline
 90
        5
 70
     0
 43
0.0
 10
499.228484206769
 20
588.5567260881136
 10
499.823882206769
 20
588.5615470881135
 10
500.031218206769
 20
588.5666740881135
 10
500.0387252067691
 20
588.5675290881136
 10
500.039885206769
 20
588.5679560881136
  0
LWPOLYLINE
  5
56C
330
1F
100
AcDbEntity
  8
0
 62
     7
370
    35
100
AcDbPolyline
 90
        4
 70
     0
 43
0.0
 10
51.38905220676911
 20
379.5679560881136
 10
51.39231720676912
 20
379.5671930881135
 10
51.41381720676911
 20
379.5656980881136
 10
52.13899120676912
 20
379.5567260881136
  0
LWPOLYLINE
  5
56D
330
1F
100
AcDbEntity
  8
0
 62
     7
370
    35
100
AcDbPolyline
 90
        4
 70
     0
 43
0.0
 10
51.38905220676911
 20
576.2715690881136
 10
51.39231720676912
 20
576.2723630881136
 10
51.41381720676911
 20
576.2738280881136
 10
52.13899120676912
 20
576.2828000881135
  0
LWPOLYLINE
  5
56E
330
1F
100
AcDbEntity
  8
0
 62
     7
370
    35
100
AcDbPolyline
 90
        5
 70
     0
 43
0.0
 10
56.45793020676912
 20
588.5356070881136
 10
56.45571820676912
 20
588.5362180881136
 10
56.44012320676911
 20
588.5373770881137
 10
56.30866920676911
 20
588.5408560881136
 10
55.61094520676912
 20
588.5467770881136
  0
LWPOLYLINE
  5
56F
330
1F
100
AcDbEntity
  8
0
 62
     7
370
    35
100
AcDbPolyline
 90
        4
 70
     0
 43
0.0
 10
51.38905220676911
 20
60.56795608811357
 10
51.39231720676912
 20
60.56719308811358
 10
51.41381720676911
 20
60.56569808811357
 10
52.13899120676912
 20
60.55672608811358
  0
LWPOLYLINE
  5
570
330
1F
100
AcDbEntity
  8
0
 62
     7
370
    35
100
AcDbPolyline
 90
        4
 70
     0
 43
0.0
 10
51.38905220676911
 20
367.2715690881136
 10
51.39231720676912
 20
367.2723320881136
 10
51.41381720676911
 20
367.2738280881135
 10
52.13899120676912
 20
367.2828000881136
  0
LWPOLYLINE
  5
571
330
1F
100
AcDbEntity
  8
0
 62
     7
370
    35
100
AcDbPolyline
 90
        5
 70
     0
 43
0.0
 10
53.43369920676912
 20
48.28280008811358
 10
52.83827120676912
 20
48.27800908811358
 10
52.63098020676912
 20
48.27285108811358
 10
52.62345720676911
 20
48.27199708811358
 10
52.62231320676912
 20
48.27156908811358
  0
LWPOLYLINE
  5
572
330
1F
100
AcDbEntity
  8
0
 62
     7
370
    35
100
AcDbPolyline
 90
        5
 70
     0
 43
0.0
 10
496.2042532067691
 20
588.5356070881136
 10
496.2064502067691
 20
588.5362180881136
 10
496.2220142067691
 20
588.5373770881137
 10
496.3534842067691
 20
588.5408560881136
 10
497.0512382067691
 20
588.5467770881136
  0
LWPOLYLINE
  5
573
330
1F
100
AcDbEntity
  8
0
 62
     7
370
    35
100
AcDbPolyline
 90
        4
 70
     0
 43
0.0
 10
501.2731002067691
 20
576.2715690881136
 10
501.269866206769
 20
576.2723630881136
 10
501.2483812067691
 20
576.2738280881136
 10
500.523161206769
 20
576.2828000881135
  0
LWPOLYLINE
  5
574
330
1F
100
AcDbEntity
  8
0
 62
     7
370
    35
100
AcDbPolyline
 90
        4
 70
     0
 43
0.0
 10
501.2731002067691
 20
379.5679560881136
 10
501.269866206769
 20
379.5671930881135
 10
501.2483812067691
 20
379.5656980881136
 10
500.523161206769
 20
379.5567260881136
  0
LWPOLYLINE
  5
575
330
1F
100
AcDbEntity
  8
0
 62
     7
370
    35
100
AcDbPolyline
 90
        4
 70
     0
 43
0.0
 10
54.10601720676911
 20
367.2927180881136
 10
54.83138920676911
 20
367.3016900881135
 10
54.85272120676912
 20
367.3031860881135
 10
54.85595620676912
 20
367.3039180881136
  0
LWPOLYLINE
  5
576
330
1F
100
AcDbEntity
  8
0
 62
     7
370
    35
100
AcDbPolyline
 90
        4
 70
     0
 43
0.0
 10
54.10601720676911
 20
60.54680708811358
 10
54.83138920676911
 20
60.53783508811358
 10
54.85272120676912
 20
60.53634008811357
 10
54.85595620676912
 20
60.53560708811358
  0
LWPOLYLINE
  5
577
330
1F
100
AcDbEntity
  8
0
 62
     7
370
    35
100
AcDbPolyline
 90
        4
 70
     0
 43
0.0
 10
54.10601720676911
 20
379.5468070881136
 10
54.83138920676911
 20
379.5378350881135
 10
54.85272120676912
 20
379.5363400881135
 10
54.85595620676912
 20
379.5356070881136
  0
LWPOLYLINE
  5
578
330
1F
100
AcDbEntity
  8
0
 62
     7
370
    35
100
AcDbPolyline
 90
        4
 70
     0
 43
0.0
 10
54.10601720676911
 20
576.2927490881136
 10
54.83138920676911
 20
576.3016600881136
 10
54.85272120676912
 20
576.3031860881136
 10
54.85595620676912
 20
576.3039180881135
  0
LWPOLYLINE
  5
579
330
1F
100
AcDbEntity
  8
0
 62
     7
370
    35
100
AcDbPolyline
 90
        8
 70
     0
 43
0.0
 10
54.94715720676912
 20
582.4197630881136
 10
54.94160320676911
 20
579.7079100881136
 10
54.92477320676911
 20
577.4491210881136
 10
54.90624920676911
 20
576.4856200881135
 10
54.89927520676912
 20
576.3508540881136
 10
54.89573520676912
 20
576.3233270881136
 10
54.89492720676912
 20
576.3208250881135
 10
54.89392020676912
 20
576.3197260881136
  0
LWPOLYLINE
  5
57A
330
1F
100
AcDbEntity
  8
0
 62
     7
370
    35
100
AcDbPolyline
 90
       13
 70
     0
 43
0.0
 10
56.49258320676911
 20
588.5197990881136
 10
56.49313220676912
 20
588.5187620881136
 10
56.49285720676911
 20
588.5169920881136
 10
56.49085920676911
 20
588.5107660881137
 10
56.45779320676911
 20
588.4398430881137
 10
56.16792220676912
 20
587.8478020881135
 10
55.83680620676911
 20
587.0793700881136
 10
55.66581620676911
 20
586.6206290881136
 10
55.45533620676912
 20
585.9658440881136
 10
55.26971320676911
 20
585.2546020881136
 10
55.09515220676911
 20
584.3460930881136
 10
54.98484720676912
 20
583.3939450881135
 10
54.94715720676912
 20
582.4197630881136
  0
LWPOLYLINE
  5
57B
330
1F
100
AcDbEntity
  8
0
 62
     7
370
    35
100
AcDbPolyline
 90
       14
 70
     0
 43
0.0
 10
54.89392020676912
 20
379.5197690881135
 10
54.89524720676911
 20
379.5178770881136
 10
54.89788720676911
 20
379.5027710881136
 10
54.90569920676911
 20
379.3685540881136
 10
54.92619220676911
 20
378.2703180881135
 10
54.94328220676911
 20
375.7006470881135
 10
54.94676120676912
 20
372.6823360881136
 10
54.93411120676912
 20
369.4207700881136
 10
54.92109520676912
 20
368.1744320881136
 10
54.90463120676912
 20
367.4444510881136
 10
54.89861920676911
 20
367.3435600881136
 10
54.89556720676912
 20
367.3226860881135
 10
54.89483520676912
 20
367.3206720881136
 10
54.89392020676912
 20
367.3197570881135
  0
LWPOLYLINE
  5
57C
330
1F
100
AcDbEntity
  8
0
 62
     7
370
    35
100
AcDbPolyline
 90
        5
 70
     0
 43
0.0
 10
56.45793020676912
 20
48.30391808811357
 10
56.45571820676912
 20
48.30330808811358
 10
56.44012320676911
 20
48.30211708811358
 10
56.30866920676911
 20
48.29866908811358
 10
55.61094520676912
 20
48.29271808811358
  0
LWPOLYLINE
  5
57D
330
1F
100
AcDbEntity
  8
0
 62
     7
370
    35
100
AcDbPolyline
 90
        4
 70
     0
 43
0.0
 10
501.2731002067691
 20
367.2715690881136
 10
501.269866206769
 20
367.2723320881136
 10
501.2483812067691
 20
367.2738280881135
 10
500.523161206769
 20
367.2828000881136
  0
LWPOLYLINE
  5
57E
330
1F
100
AcDbEntity
  8
0
 62
     7
370
    35
100
AcDbPolyline
 90
        4
 70
     0
 43
0.0
 10
501.2731002067691
 20
60.56795608811357
 10
501.269866206769
 20
60.56719308811358
 10
501.2483812067691
 20
60.56569808811357
 10
500.523161206769
 20
60.55672608811358
  0
LWPOLYLINE
  5
57F
330
1F
100
AcDbEntity
  8
0
 62
     7
370
    35
100
AcDbPolyline
 90
        4
 70
     0
 43
0.0
 10
498.5561202067691
 20
60.54680708811358
 10
497.8307792067691
 20
60.53783508811358
 10
497.8094162067691
 20
60.53634008811357
 10
497.8062432067691
 20
60.53560708811358
  0
LWPOLYLINE
  5
580
330
1F
100
AcDbEntity
  8
0
 62
     7
370
    35
100
AcDbPolyline
 90
        4
 70
     0
 43
0.0
 10
498.5561202067691
 20
367.2927180881136
 10
497.8307792067691
 20
367.3016900881135
 10
497.8094162067691
 20
367.3031860881135
 10
497.8062432067691
 20
367.3039180881136
  0
LWPOLYLINE
  5
581
330
1F
100
AcDbEntity
  8
0
 62
     7
370
    35
100
AcDbPolyline
 90
       13
 70
     0
 43
0.0
 10
496.169585206769
 20
588.5197990881136
 10
496.1690352067691
 20
588.5187620881136
 10
496.1692802067691
 20
588.5169920881136
 10
496.171294206769
 20
588.5107660881137
 10
496.2043752067691
 20
588.4398430881137
 10
496.4942312067691
 20
587.8478020881135
 10
496.8253472067691
 20
587.0793700881136
 10
496.9963672067691
 20
586.6206290881136
 10
497.2068162067691
 20
585.9658440881136
 10
497.3924242067691
 20
585.2546020881136
 10
497.566985206769
 20
584.3460930881136
 10
497.6773362067691
 20
583.3939450881135
 10
497.7149952067691
 20
582.4197630881136
  0
LWPOLYLINE
  5
582
330
1F
100
AcDbEntity
  8
0
 62
     7
370
    35
100
AcDbPolyline
 90
        8
 70
     0
 43
0.0
 10
497.7149952067691
 20
582.4197630881136
 10
497.7205492067691
 20
579.7079100881136
 10
497.7373952067691
 20
577.4491210881136
 10
497.755950206769
 20
576.4856200881135
 10
497.7629082067691
 20
576.3508540881136
 10
497.7664482067691
 20
576.3233270881136
 10
497.7672412067691
 20
576.3208250881135
 10
497.7682792067691
 20
576.3197260881136
  0
LWPOLYLINE
  5
583
330
1F
100
AcDbEntity
  8
0
 62
     7
370
    35
100
AcDbPolyline
 90
        4
 70
     0
 43
0.0
 10
498.5561202067691
 20
576.2927490881136
 10
497.8307792067691
 20
576.3016600881136
 10
497.8094162067691
 20
576.3031860881136
 10
497.8062432067691
 20
576.3039180881135
  0
LWPOLYLINE
  5
584
330
1F
100
AcDbEntity
  8
0
 62
     7
370
    35
100
AcDbPolyline
 90
        4
 70
     0
 43
0.0
 10
498.5561202067691
 20
379.5468070881136
 10
497.8307792067691
 20
379.5378350881135
 10
497.8094162067691
 20
379.5363400881135
 10
497.8062432067691
 20
379.5356070881136
  0
LWPOLYLINE
  5
585
330
1F
100
AcDbEntity
  8
0
 62
     7
370
    35
100
AcDbPolyline
 90
       14
 70
     0
 43
0.0
 10
497.7682792067691
 20
379.5197690881135
 10
497.7669362067691
 20
379.5178770881136
 10
497.7642502067691
 20
379.5027710881136
 10
497.7564382067691
 20
379.3685540881136
 10
497.7359912067691
 20
378.2703180881135
 10
497.718901206769
 20
375.7006470881135
 10
497.715422206769
 20
372.6823360881136
 10
497.7280562067691
 20
369.4207700881136
 10
497.7410572067691
 20
368.1744320881136
 10
497.7575362067691
 20
367.4444510881136
 10
497.763518206769
 20
367.3435600881136
 10
497.7665702067691
 20
367.3226860881135
 10
497.7673022067691
 20
367.3206720881136
 10
497.7682792067691
 20
367.3197570881135
  0
LWPOLYLINE
  5
586
330
1F
100
AcDbEntity
  8
0
 62
     7
370
    35
100
AcDbPolyline
 90
        5
 70
     0
 43
0.0
 10
496.2042532067691
 20
48.30391808811357
 10
496.2064502067691
 20
48.30330808811358
 10
496.2220142067691
 20
48.30211708811358
 10
496.3534842067691
 20
48.29866908811358
 10
497.0512382067691
 20
48.29271808811358
  0
LWPOLYLINE
  5
587
330
1F
100
AcDbEntity
  8
0
 62
     7
370
    35
100
AcDbPolyline
 90
        5
 70
     0
 43
0.0
 10
499.228484206769
 20
48.28280008811358
 10
499.823882206769
 20
48.27800908811358
 10
500.031218206769
 20
48.27285108811358
 10
500.0387252067691
 20
48.27199708811358
 10
500.039885206769
 20
48.27156908811358
  0
LWPOLYLINE
  5
588
330
1F
100
AcDbEntity
  8
0
 62
     7
370
    35
100
AcDbPolyline
 90
       13
 70
     0
 43
0.0
 10
56.49258320676911
 20
48.31975708811357
 10
56.49313220676912
 20
48.32076408811357
 10
56.49285720676911
 20
48.32253408811358
 10
56.49085920676911
 20
48.32872908811357
 10
56.45779320676911
 20
48.39971308811358
 10
56.16792220676912
 20
48.99175408811358
 10
55.83680620676911
 20
49.76018608811358
 10
55.66581620676911
 20
50.21892708811358
 10
55.45533620676912
 20
50.87371208811358
 10
55.26971320676911
 20
51.58492408811358
 10
55.09515220676911
 20
52.49340208811358
 10
54.98484720676912
 20
53.44558108811359
 10
54.94715720676912
 20
54.41976308811359
  0
LWPOLYLINE
  5
589
330
1F
100
AcDbEntity
  8
0
 62
     7
370
    35
100
AcDbPolyline
 90
        8
 70
     0
 43
0.0
 10
54.94715720676912
 20
54.41976308811359
 10
54.94160320676911
 20
57.13161608811358
 10
54.92477320676911
 20
59.39040508811358
 10
54.90624920676911
 20
60.35387508811358
 10
54.89927520676912
 20
60.48870208811358
 10
54.89573520676912
 20
60.51619808811358
 10
54.89492720676912
 20
60.51867008811358
 10
54.89392020676912
 20
60.51976908811358
  0
LWPOLYLINE
  5
58A
330
1F
100
AcDbEntity
  8
0
 62
     7
370
    35
100
AcDbPolyline
 90
        8
 70
     0
 43
0.0
 10
497.7149952067691
 20
54.41976308811359
 10
497.7205492067691
 20
57.13161608811358
 10
497.7373952067691
 20
59.39040508811358
 10
497.755950206769
 20
60.35387508811358
 10
497.7629082067691
 20
60.48870208811358
 10
497.7664482067691
 20
60.51619808811358
 10
497.7672412067691
 20
60.51867008811358
 10
497.7682792067691
 20
60.51976908811358
  0
LWPOLYLINE
  5
58B
330
1F
100
AcDbEntity
  8
0
 62
     7
370
    35
100
AcDbPolyline
 90
       13
 70
     0
 43
0.0
 10
496.169585206769
 20
48.31975708811357
 10
496.1690352067691
 20
48.32076408811357
 10
496.1692802067691
 20
48.32253408811358
 10
496.171294206769
 20
48.32872908811357
 10
496.2043752067691
 20
48.39971308811358
 10
496.4942312067691
 20
48.99175408811358
 10
496.8253472067691
 20
49.76018608811358
 10
496.9963672067691
 20
50.21892708811358
 10
497.2068162067691
 20
50.87371208811358
 10
497.3924242067691
 20
51.58492408811358
 10
497.566985206769
 20
52.49340208811358
 10
497.6773362067691
 20
53.44558108811359
 10
497.7149952067691
 20
54.41976308811359
  0
LWPOLYLINE
  5
58C
330
1F
100
AcDbEntity
  8
0
 62
     7
370
    35
100
AcDbPolyline
 90
       15
 70
     0
 43
0.0
 10
485.3310842067691
 20
44.01629008811357
 10
486.1344902067691
 20
44.04668508811357
 10
486.9169602067691
 20
44.13533908811358
 10
487.6662282067691
 20
44.27633008811358
 10
488.3503102067691
 20
44.45494908811357
 10
488.9992362067691
 20
44.67092208811357
 10
489.6136162067691
 20
44.92000708811358
 10
490.0379932067691
 20
45.11928708811358
 10
490.447173206769
 20
45.33403908811358
 10
490.8482962067691
 20
45.56768108811358
 10
491.2348312067691
 20
45.81630808811357
 10
491.9518722067691
 20
46.34578808811357
 10
492.6167892067691
 20
46.93007808811358
 10
493.2294602067691
 20
47.56810908811358
 10
493.7596732067691
 20
48.22048308811358
  0
LWPOLYLINE
  5
58D
330
1F
100
AcDbEntity
  8
0
 62
     7
370
    35
100
AcDbPolyline
 90
       20
 70
     0
 43
0.0
 10
474.8230882067691
 20
54.41976308811359
 10
474.851958206769
 20
55.25182408811358
 10
474.9490042067691
 20
56.09200408811358
 10
475.1165452067691
 20
56.93377008811357
 10
475.3562302067691
 20
57.76998208811358
 10
475.6686692067691
 20
58.59304208811358
 10
476.0533132067691
 20
59.39504308811358
 10
476.4971602067691
 20
60.14986508811357
 10
477.0058892067691
 20
60.86953108811357
 10
477.576262206769
 20
61.54729608811358
 10
478.2043142067691
 20
62.17690408811358
 10
478.8854662067691
 20
62.75269408811357
 10
479.6144702067691
 20
63.26964708811358
 10
480.3567192067691
 20
63.70777208811357
 10
481.1330252067691
 20
64.08394708811357
 10
481.9379562067691
 20
64.39541008811358
 10
482.7659592067691
 20
64.63993208811358
 10
483.6112962067691
 20
64.81578908811357
 10
484.4682912067691
 20
64.92177708811357
 10
485.3310842067691
 20
64.95719308811357
  0
LWPOLYLINE
  5
58E
330
1F
100
AcDbEntity
  8
0
 62
     7
370
    35
100
AcDbPolyline
 90
       20
 70
     0
 43
0.0
 10
474.8230882067691
 20
582.4197630881136
 10
474.851958206769
 20
581.5876700881135
 10
474.9490042067691
 20
580.7475220881135
 10
475.1165452067691
 20
579.9057860881135
 10
475.3562302067691
 20
579.0695430881136
 10
475.6686692067691
 20
578.2464840881135
 10
476.0533132067691
 20
577.4444820881136
 10
476.4971602067691
 20
576.6896600881135
 10
477.0058892067691
 20
575.9699950881135
 10
477.576262206769
 20
575.2922600881135
 10
478.2043142067691
 20
574.6626220881136
 10
478.8854662067691
 20
574.0868160881136
 10
479.6144702067691
 20
573.5698480881136
 10
480.3567192067691
 20
573.1317380881136
 10
481.1330252067691
 20
572.7555780881135
 10
481.9379562067691
 20
572.4441160881135
 10
482.7659592067691
 20
572.1996090881135
 10
483.6112962067691
 20
572.0237060881136
 10
484.4682912067691
 20
571.9177490881135
 10
485.3310842067691
 20
571.8823480881136
  0
LWPOLYLINE
  5
58F
330
1F
100
AcDbEntity
  8
0
 62
     7
370
    35
100
AcDbPolyline
 90
       15
 70
     0
 43
0.0
 10
485.3310842067691
 20
592.8232660881136
 10
486.1344902067691
 20
592.7928710881136
 10
486.9169602067691
 20
592.7041870881136
 10
487.6662282067691
 20
592.5631950881136
 10
488.3503102067691
 20
592.3845450881136
 10
488.9992362067691
 20
592.1686030881136
 10
489.6136162067691
 20
591.9195190881135
 10
490.0379932067691
 20
591.7202390881136
 10
490.447173206769
 20
591.5055170881136
 10
490.8482962067691
 20
591.2718750881135
 10
491.2348312067691
 20
591.0232170881136
 10
491.9518722067691
 20
590.4937370881135
 10
492.6167892067691
 20
589.9094480881136
 10
493.2294602067691
 20
589.2713860881135
 10
493.7596732067691
 20
588.6190430881136
  0
LWPOLYLINE
  5
590
330
1F
100
AcDbEntity
  8
0
 62
     7
370
    35
100
AcDbPolyline
 90
       15
 70
     0
 43
0.0
 10
67.33108420676912
 20
592.8232660881136
 10
66.52764820676911
 20
592.7928710881136
 10
65.74520720676912
 20
592.7041870881136
 10
64.99592520676912
 20
592.5631950881136
 10
64.31188820676911
 20
592.3845450881136
 10
63.66291720676912
 20
592.1686030881136
 10
63.04853720676911
 20
591.9195190881135
 10
62.62415920676912
 20
591.7202390881136
 10
62.21498020676911
 20
591.5055170881136
 10
61.81385720676911
 20
591.2718750881135
 10
61.42730620676911
 20
591.0232170881136
 10
60.71026520676912
 20
590.4937370881135
 10
60.04537820676912
 20
589.9094480881136
 10
59.43272320676912
 20
589.2713860881135
 10
58.90248020676911
 20
588.6190430881136
  0
LWPOLYLINE
  5
591
330
1F
100
AcDbEntity
  8
0
 62
     7
370
    35
100
AcDbPolyline
 90
       20
 70
     0
 43
0.0
 10
77.83909520676911
 20
582.4197630881136
 10
77.81021020676911
 20
581.5876700881135
 10
77.7131642067691
 20
580.7475220881135
 10
77.54559220676911
 20
579.9057860881135
 10
77.30593720676911
 20
579.0695430881136
 10
76.99352920676912
 20
578.2464840881135
 10
76.60882420676911
 20
577.4444820881136
 10
76.16500720676912
 20
576.6896600881135
 10
75.65627920676911
 20
575.9699950881135
 10
75.08590620676912
 20
575.2922600881135
 10
74.45783920676911
 20
574.6626220881136
 10
73.77671720676912
 20
574.0868160881136
 10
73.04766720676912
 20
573.5698480881136
 10
72.30544920676911
 20
573.1317380881136
 10
71.52917320676912
 20
572.7555780881135
 10
70.72424220676912
 20
572.4441160881135
 10
69.89623920676911
 20
572.1996090881135
 10
69.05085620676911
 20
572.0237060881136
 10
68.19386220676912
 20
571.9177490881135
 10
67.33108420676912
 20
571.8823480881136
  0
LWPOLYLINE
  5
592
330
1F
100
AcDbEntity
  8
0
 62
     7
370
    35
100
AcDbPolyline
 90
       15
 70
     0
 43
0.0
 10
67.33108420676912
 20
44.01629008811357
 10
66.52764820676911
 20
44.04668508811357
 10
65.74520720676912
 20
44.13533908811358
 10
64.99592520676912
 20
44.27633008811358
 10
64.31188820676911
 20
44.45494908811357
 10
63.66291720676912
 20
44.67092208811357
 10
63.04853720676911
 20
44.92000708811358
 10
62.62415920676912
 20
45.11928708811358
 10
62.21498020676911
 20
45.33403908811358
 10
61.81385720676911
 20
45.56768108811358
 10
61.42730620676911
 20
45.81630808811357
 10
60.71026520676912
 20
46.34578808811357
 10
60.04537820676912
 20
46.93007808811358
 10
59.43272320676912
 20
47.56810908811358
 10
58.90248020676911
 20
48.22048308811358
  0
LWPOLYLINE
  5
593
330
1F
100
AcDbEntity
  8
0
 62
     7
370
    35
100
AcDbPolyline
 90
       20
 70
     0
 43
0.0
 10
77.83909520676911
 20
54.41976308811359
 10
77.81021020676911
 20
55.25182408811358
 10
77.7131642067691
 20
56.09200408811358
 10
77.54559220676911
 20
56.93377008811357
 10
77.30593720676911
 20
57.76998208811358
 10
76.99352920676912
 20
58.59304208811358
 10
76.60882420676911
 20
59.39504308811358
 10
76.16500720676912
 20
60.14986508811357
 10
75.65627920676911
 20
60.86953108811357
 10
75.08590620676912
 20
61.54729608811358
 10
74.45783920676911
 20
62.17690408811358
 10
73.77671720676912
 20
62.75269408811357
 10
73.04766720676912
 20
63.26964708811358
 10
72.30544920676911
 20
63.70777208811357
 10
71.52917320676912
 20
64.08394708811357
 10
70.72424220676912
 20
64.39541008811358
 10
69.89623920676911
 20
64.63993208811358
 10
69.05085620676911
 20
64.81578908811357
 10
68.19386220676912
 20
64.92177708811357
 10
67.33108420676912
 20
64.95719308811357
  0
INSERT
  5
594
330
1F
100
AcDbEntity
  8
0
 62
    56
100
AcDbBlockReference
  2
IEC_309_16-32
 10
49.64549906676912
 20
226.0807430081136
 30
0.0
  0
INSERT
  5
595
330
1F
100
AcDbEntity
  8
0
 62
    56
100
AcDbBlockReference
  2
IEC_309_16-32
 10
153.4905490667691
 20
226.0807430081136
 30
0.0
  0
INSERT
  5
596
330
1F
100
AcDbEntity
  8
0
 62
    56
100
AcDbBlockReference
  2
IEC_309_16-32
 10
257.3355490667691
 20
226.0807430081136
 30
0.0
  0
INSERT
  5
597
330
1F
100
AcDbEntity
  8
0
 62
    56
100
AcDbBlockReference
  2
IEC_309_16-32
 10
361.1805490667691
 20
226.0722402781136
 30
0.0
 42
1.000511469999999
  0
INSERT
  5
598
330
1F
100
AcDbEntity
  8
0
 62
    56
100
AcDbBlockReference
  2
IEC_309_16-32
 10
49.64549906676912
 20
80.89877205811358
 30
0.0
 42
0.9997188699999988
  0
INSERT
  5
599
330
1F
100
AcDbEntity
  8
0
 62
    56
100
AcDbBlockReference
  2
IEC_309_16-32
 10
153.4905490667691
 20
80.89877205811358
 30
0.0
 42
0.9997188699999988
  0
INSERT
  5
59A
330
1F
100
AcDbEntity
  8
0
 62
    56
100
AcDbBlockReference
  2
IEC_309_16-32
 10
257.3355490667691
 20
80.89877205811358
 30
0.0
 42
0.9997188699999988
  0
INSERT
  5
59B
330
1F
100
AcDbEntity
  8
0
 62
    56
100
AcDbBlockReference
  2
IEC_309_16-32
 10
361.1805490667691
 20
80.89409300811357
 30
0.0
  0
ENDSEC
  0
SECTION
  2
OBJECTS
  0
DICTIONARY
  5
C
330
0
100
AcDbDictionary
281
     1
  3
ACAD_COLOR
350
73
  3
ACAD_GROUP
350
D
  3
ACAD_LAYOUT
350
1A
  3
ACAD_MATERIAL
350
72
  3
ACAD_MLEADERSTYLE
350
D7
  3
ACAD_MLINESTYLE
350
17
  3
ACAD_PLOTSETTINGS
350
19
  3
ACAD_PLOTSTYLENAME
350
E
  3
ACAD_SCALELIST
350
B6
  3
ACAD_TABLESTYLE
350
86
  3
ACAD_VISUALSTYLE
350
99
  3
ACDB_RECOMPOSE_DATA
350
FF
  3
AcDbVariableDictionary
350
66
  3
DWGPROPS
350
5DA
  0
DICTIONARY
  5
E6
330
10
100
AcDbDictionary
280
     1
281
     1
  3
ADSK_XREC_LAYER_RECONCILED
360
5CE
  0
DICTIONARY
  5
5CF
330
174
100
AcDbDictionary
280
     1
281
     1
  3
ADSK_XREC_LAYER_RECONCILED
360
5D0
  0
DICTIONARY
  5
5D1
330
175
100
AcDbDictionary
280
     1
281
     1
  3
ADSK_XREC_LAYER_RECONCILED
360
5D2
  0
DICTIONARY
  5
5D3
330
176
100
AcDbDictionary
280
     1
281
     1
  3
ADSK_XREC_LAYER_RECONCILED
360
5D4
  0
DICTIONARY
  5
73
102
{ACAD_REACTORS
330
C
102
}
330
C
100
AcDbDictionary
281
     1
  0
DICTIONARY
  5
D
102
{ACAD_REACTORS
330
C
102
}
330
C
100
AcDbDictionary
281
     1
  0
DICTIONARY
  5
1A
102
{ACAD_REACTORS
330
C
102
}
330
C
100
AcDbDictionary
281
     1
  3
Layout1
350
59
  3
Layout2
350
5E
  3
Model
350
22
  0
DICTIONARY
  5
72
102
{ACAD_REACTORS
330
C
102
}
330
C
100
AcDbDictionary
281
     1
  3
ByBlock
350
97
  3
ByLayer
350
96
  3
Global
350
98
  0
DICTIONARY
  5
D7
102
{ACAD_REACTORS
330
C
102
}
330
C
100
AcDbDictionary
281
     1
  3
Annotativa
350
E5
  3
Standard
350
D8
  0
DICTIONARY
  5
17
102
{ACAD_REACTORS
330
C
102
}
330
C
100
AcDbDictionary
281
     1
  3
Standard
350
18
  0
DICTIONARY
  5
19
102
{ACAD_REACTORS
330
C
102
}
330
C
100
AcDbDictionary
281
     1
  0
ACDBDICTIONARYWDFLT
  5
E
102
{ACAD_REACTORS
330
C
102
}
330
C
100
AcDbDictionary
281
     1
  3
Normal
350
F
100
AcDbDictionaryWithDefault
340
F
  0
DICTIONARY
  5
B6
102
{ACAD_REACTORS
330
C
102
}
330
C
100
AcDbDictionary
281
     1
  3
A0
350
B7
  3
A1
350
124
  3
A2
350
125
  3
A3
350
126
  3
A4
350
127
  3
A5
350
128
  3
A6
350
129
  3
A7
350
12A
  3
A8
350
12B
  3
A9
350
12C
  3
B0
350
12D
  3
B1
350
12E
  3
B2
350
12F
  3
B3
350
130
  3
B4
350
131
  3
B5
350
132
  3
B6
350
133
  3
B7
350
134
  3
B8
350
135
  3
B9
350
136
  3
C0
350
137
  3
C1
350
138
  3
C2
350
139
  3
C3
350
13A
  3
C4
350
13B
  3
C5
350
13C
  3
C6
350
13D
  3
C7
350
13E
  3
C8
350
13F
  3
C9
350
140
  3
D0
350
141
  3
D1
350
142
  3
D2
350
143
  0
DICTIONARY
  5
86
102
{ACAD_REACTORS
330
C
102
}
330
C
100
AcDbDictionary
281
     1
  3
Standard
350
87
  0
DICTIONARY
  5
99
102
{ACAD_REACTORS
330
C
102
}
330
C
100
AcDbDictionary
281
     1
  3
2dWireframe
350
9F
  3
3D Hidden
350
A1
  3
3dWireframe
350
A0
  3
Basic
350
9E
  3
Brighten
350
A5
  3
ColorChange
350
A9
  3
Conceptual
350
A2
  3
Dim
350
A4
  3
Facepattern
350
A8
  3
Flat
350
9A
  3
FlatWithEdges
350
9B
  3
Gouraud
350
9C
  3
GouraudWithEdges
350
9D
  3
Linepattern
350
A7
  3
Realistic
350
A3
  3
Thicken
350
A6
  0
XRECORD
  5
FF
102
{ACAD_REACTORS
330
C
102
}
330
C
100
AcDbXrecord
280
     1
 90
        1
330
87
  0
DICTIONARY
  5
66
102
{ACAD_REACTORS
330
C
102
}
330
C
100
AcDbDictionary
281
     1
  3
CANNOSCALE
350
F0
  3
CMLEADERSTYLE
350
EF
  3
CTABLESTYLE
350
89
  3
DIMASSOC
350
67
  3
HIDETEXT
350
6B
  3
INDEXCTL
350
5D8
  3
LIGHTINGUNITS
350
5D6
  3
MSLTSCALE
350
5D5
  3
SORTENTS
350
5D7
  0
XRECORD
  5
5DA
102
{ACAD_REACTORS
330
C
102
}
330
C
100
AcDbXrecord
280
     1
  1
DWGPROPS COOKIE
  2

  3

  4

  6

  7

  8
fontanaNZ
  9

300
=
301
=
302
=
303
=
304
=
305
=
306
=
307
=
308
=
309
=
 40
0.0001745949074074
 41
2455511.360931458
 42
2455511.36110588
  1

 90
        0
  0
XRECORD
  5
5CE
102
{ACAD_REACTORS
330
E6
102
}
330
E6
100
AcDbXrecord
280
     1
290
     1
  0
XRECORD
  5
5D0
102
{ACAD_REACTORS
330
5CF
102
}
330
5CF
100
AcDbXrecord
280
     1
290
     1
  0
XRECORD
  5
5D2
102
{ACAD_REACTORS
330
5D1
102
}
330
5D1
100
AcDbXrecord
280
     1
290
     1
  0
XRECORD
  5
5D4
102
{ACAD_REACTORS
330
5D3
102
}
330
5D3
100
AcDbXrecord
280
     1
290
     1
  0
LAYOUT
  5
59
102
{ACAD_XDICTIONARY
360
5DD
102
}
102
{ACAD_REACTORS
330
1A
102
}
330
1A
100
AcDbPlotSettings
  1

  2
None
  4

  6

 40
0.0
 41
0.0
 42
0.0
 43
0.0
 44
0.0
 45
0.0
 46
0.0
 47
0.0
 48
0.0
 49
0.0
140
0.0
141
0.0
142
1.0
143
1.0
 70
   688
 72
     0
 73
     0
 74
     5
  7

 75
    16
147
1.0
148
0.0
149
0.0
100
AcDbLayout
  1
Layout1
 70
     1
 71
     1
 10
0.0
 20
0.0
 11
12.0
 21
9.0
 12
0.0
 22
0.0
 32
0.0
 14
0.0
 24
0.0
 34
0.0
 15
0.0
 25
0.0
 35
0.0
146
0.0
 13
0.0
 23
0.0
 33
0.0
 16
1.0
 26
0.0
 36
0.0
 17
0.0
 27
1.0
 37
0.0
 76
     0
330
58
  0
LAYOUT
  5
5E
102
{ACAD_XDICTIONARY
360
5DF
102
}
102
{ACAD_REACTORS
330
1A
102
}
330
1A
100
AcDbPlotSettings
  1

  2
None
  4

  6

 40
0.0
 41
0.0
 42
0.0
 43
0.0
 44
0.0
 45
0.0
 46
0.0
 47
0.0
 48
0.0
 49
0.0
140
0.0
141
0.0
142
1.0
143
1.0
 70
   688
 72
     0
 73
     0
 74
     5
  7

 75
    16
147
1.0
148
0.0
149
0.0
100
AcDbLayout
  1
Layout2
 70
     1
 71
     2
 10
0.0
 20
0.0
 11
12.0
 21
9.0
 12
0.0
 22
0.0
 32
0.0
 14
0.0
 24
0.0
 34
0.0
 15
0.0
 25
0.0
 35
0.0
146
0.0
 13
0.0
 23
0.0
 33
0.0
 16
1.0
 26
0.0
 36
0.0
 17
0.0
 27
1.0
 37
0.0
 76
     0
330
5D
  0
LAYOUT
  5
22
102
{ACAD_XDICTIONARY
360
5DB
102
}
102
{ACAD_REACTORS
330
1A
102
}
330
1A
100
AcDbPlotSettings
  1

  2
none_device
  4
ANSI_A_(8.50_x_11.00_Inches)
  6

 40
6.349999904632568
 41
19.04999923706055
 42
6.350006103515625
 43
19.04998779296875
 44
215.8999938964844
 45
279.3999938964844
 46
0.0
 47
0.0
 48
0.0
 49
0.0
140
0.0
141
0.0
142
1.0
143
2.584895464708373
 70
 11952
 72
     0
 73
     1
 74
     0
  7

 75
     0
147
0.3868628397755418
148
0.0
149
0.0
100
AcDbLayout
  1
Model
 70
     1
 71
     0
 10
0.0
 20
0.0
 11
12.0
 21
9.0
 12
0.0
 22
0.0
 32
0.0
 14
0.0
 24
0.0
 34
0.0
 15
0.0
 25
0.0
 35
0.0
146
0.0
 13
0.0
 23
0.0
 33
0.0
 16
1.0
 26
0.0
 36
0.0
 17
0.0
 27
1.0
 37
0.0
 76
     0
330
1F
331
94
  0
MATERIAL
  5
97
102
{ACAD_XDICTIONARY
360
5E4
102
}
102
{ACAD_REACTORS
330
72
102
}
330
72
100
AcDbMaterial
  1
ByBlock
  0
MATERIAL
  5
96
102
{ACAD_XDICTIONARY
360
5E2
102
}
102
{ACAD_REACTORS
330
72
102
}
330
72
100
AcDbMaterial
  1
ByLayer
  0
MATERIAL
  5
98
102
{ACAD_XDICTIONARY
360
110
102
}
102
{ACAD_REACTORS
330
72
102
}
330
72
100
AcDbMaterial
  1
Global
 43
0.0208000000566244
 43
0.0
 43
0.0
 43
0.0
 43
0.0
 43
0.0208000000566244
 43
0.0
 43
0.0
 43
0.0
 43
0.0
 43
1.0
 43
0.0
 43
0.0
 43
0.0
 43
0.0
 43
1.0
 49
0.0208000000566244
 49
0.0
 49
0.0
 49
0.0
 49
0.0
 49
0.0208000000566244
 49
0.0
 49
0.0
 49
0.0
 49
0.0
 49
1.0
 49
0.0
 49
0.0
 49
0.0
 49
0.0
 49
1.0
142
0.0208000000566244
142
0.0
142
0.0
142
0.0
142
0.0
142
0.0208000000566244
142
0.0
142
0.0
142
0.0
142
0.0
142
1.0
142
0.0
142
0.0
142
0.0
142
0.0
142
1.0
144
0.0208000000566244
144
0.0
144
0.0
144
0.0
144
0.0
144
0.0208000000566244
144
0.0
144
0.0
144
0.0
144
0.0
144
1.0
144
0.0
144
0.0
144
0.0
144
0.0
144
1.0
1001
ACAD
1070
    -1
1070
     3
1070
     0
1000

1071
        0
1070
     0
  0
MLEADERSTYLE
  5
E5
102
{ACAD_REACTORS
330
D7
102
}
330
D7
100
AcDbMLeaderStyle
170
     2
171
     1
172
     0
 90
        2
 40
0.0
 41
0.0
173
     1
 91
-1056964608
340
14
 92
       -2
290
     1
 42
0.09
291
     1
 43
0.36
  3
Standard
 44
0.18
300

342
11
174
     1
178
     1
175
     1
176
     0
 93
-1056964608
 45
0.18
292
     0
297
     0
 46
0.18
 94
-1056964608
 47
1.0
 49
1.0
140
1.0
293
     1
141
0.0
294
     1
177
     0
142
1.0
295
     0
296
     1
143
0.125
1001
ACAD_MLEADERVER
1070
     2
  0
MLEADERSTYLE
  5
D8
102
{ACAD_REACTORS
330
D7
102
}
330
D7
100
AcDbMLeaderStyle
170
     2
171
     1
172
     0
 90
        2
 40
0.0
 41
0.0
173
     1
 91
-1056964608
340
14
 92
       -2
290
     1
 42
0.09
291
     1
 43
0.36
  3
Standard
 44
0.18
300

342
11
174
     1
178
     1
175
     1
176
     0
 93
-1056964608
 45
0.18
292
     0
297
     0
 46
0.18
 94
-1056964608
 47
1.0
 49
1.0
140
1.0
293
     1
141
0.0
294
     1
177
     0
142
1.0
295
     0
296
     0
143
0.125
1001
ACAD_MLEADERVER
1070
     2
  0
MLINESTYLE
  5
18
102
{ACAD_REACTORS
330
17
102
}
330
17
100
AcDbMlineStyle
  2
STANDARD
 70
     0
  3

 62
   256
 51
90.0
 52
90.0
 71
     2
 49
0.5
 62
   256
  6
BYLAYER
 49
-0.5
 62
   256
  6
BYLAYER
  0
ACDBPLACEHOLDER
  5
F
102
{ACAD_REACTORS
330
E
102
}
330
E
  0
SCALE
  5
B7
102
{ACAD_REACTORS
330
B6
102
}
330
B6
100
AcDbScale
 70
     0
300
1:1
140
1.0
141
1.0
290
     1
  0
SCALE
  5
124
102
{ACAD_REACTORS
330
B6
102
}
330
B6
100
AcDbScale
 70
     0
300
1:2
140
1.0
141
2.0
290
     0
  0
SCALE
  5
125
102
{ACAD_REACTORS
330
B6
102
}
330
B6
100
AcDbScale
 70
     0
300
1:4
140
1.0
141
4.0
290
     0
  0
SCALE
  5
126
102
{ACAD_REACTORS
330
B6
102
}
330
B6
100
AcDbScale
 70
     0
300
1:5
140
1.0
141
5.0
290
     0
  0
SCALE
  5
127
102
{ACAD_REACTORS
330
B6
102
}
330
B6
100
AcDbScale
 70
     0
300
1:8
140
1.0
141
8.0
290
     0
  0
SCALE
  5
128
102
{ACAD_REACTORS
330
B6
102
}
330
B6
100
AcDbScale
 70
     0
300
1:10
140
1.0
141
10.0
290
     0
  0
SCALE
  5
129
102
{ACAD_REACTORS
330
B6
102
}
330
B6
100
AcDbScale
 70
     0
300
1:16
140
1.0
141
16.0
290
     0
  0
SCALE
  5
12A
102
{ACAD_REACTORS
330
B6
102
}
330
B6
100
AcDbScale
 70
     0
300
1:20
140
1.0
141
20.0
290
     0
  0
SCALE
  5
12B
102
{ACAD_REACTORS
330
B6
102
}
330
B6
100
AcDbScale
 70
     0
300
1:30
140
1.0
141
30.0
290
     0
  0
SCALE
  5
12C
102
{ACAD_REACTORS
330
B6
102
}
330
B6
100
AcDbScale
 70
     0
300
1:40
140
1.0
141
40.0
290
     0
  0
SCALE
  5
12D
102
{ACAD_REACTORS
330
B6
102
}
330
B6
100
AcDbScale
 70
     0
300
1:50
140
1.0
141
50.0
290
     0
  0
SCALE
  5
12E
102
{ACAD_REACTORS
330
B6
102
}
330
B6
100
AcDbScale
 70
     0
300
1:100
140
1.0
141
100.0
290
     0
  0
SCALE
  5
12F
102
{ACAD_REACTORS
330
B6
102
}
330
B6
100
AcDbScale
 70
     0
300
2:1
140
2.0
141
1.0
290
     0
  0
SCALE
  5
130
102
{ACAD_REACTORS
330
B6
102
}
330
B6
100
AcDbScale
 70
     0
300
4:1
140
4.0
141
1.0
290
     0
  0
SCALE
  5
131
102
{ACAD_REACTORS
330
B6
102
}
330
B6
100
AcDbScale
 70
     0
300
8:1
140
8.0
141
1.0
290
     0
  0
SCALE
  5
132
102
{ACAD_REACTORS
330
B6
102
}
330
B6
100
AcDbScale
 70
     0
300
10:1
140
10.0
141
1.0
290
     0
  0
SCALE
  5
133
102
{ACAD_REACTORS
330
B6
102
}
330
B6
100
AcDbScale
 70
     0
300
100:1
140
100.0
141
1.0
290
     0
  0
SCALE
  5
134
102
{ACAD_REACTORS
330
B6
102
}
330
B6
100
AcDbScale
 70
     0
300
1/128" = 1'-0"
140
0.0078125
141
12.0
290
     0
  0
SCALE
  5
135
102
{ACAD_REACTORS
330
B6
102
}
330
B6
100
AcDbScale
 70
     0
300
1/64" = 1'-0"
140
0.015625
141
12.0
290
     0
  0
SCALE
  5
136
102
{ACAD_REACTORS
330
B6
102
}
330
B6
100
AcDbScale
 70
     0
300
1/32" = 1'-0"
140
0.03125
141
12.0
290
     0
  0
SCALE
  5
137
102
{ACAD_REACTORS
330
B6
102
}
330
B6
100
AcDbScale
 70
     0
300
1/16" = 1'-0"
140
0.0625
141
12.0
290
     0
  0
SCALE
  5
138
102
{ACAD_REACTORS
330
B6
102
}
330
B6
100
AcDbScale
 70
     0
300
3/32" = 1'-0"
140
0.09375
141
12.0
290
     0
  0
SCALE
  5
139
102
{ACAD_REACTORS
330
B6
102
}
330
B6
100
AcDbScale
 70
     0
300
1/8" = 1'-0"
140
0.125
141
12.0
290
     0
  0
SCALE
  5
13A
102
{ACAD_REACTORS
330
B6
102
}
330
B6
100
AcDbScale
 70
     0
300
3/16" = 1'-0"
140
0.1875
141
12.0
290
     0
  0
SCALE
  5
13B
102
{ACAD_REACTORS
330
B6
102
}
330
B6
100
AcDbScale
 70
     0
300
1/4" = 1'-0"
140
0.25
141
12.0
290
     0
  0
SCALE
  5
13C
102
{ACAD_REACTORS
330
B6
102
}
330
B6
100
AcDbScale
 70
     0
300
3/8" = 1'-0"
140
0.375
141
12.0
290
     0
  0
SCALE
  5
13D
102
{ACAD_REACTORS
330
B6
102
}
330
B6
100
AcDbScale
 70
     0
300
1/2" = 1'-0"
140
0.5
141
12.0
290
     0
  0
SCALE
  5
13E
102
{ACAD_REACTORS
330
B6
102
}
330
B6
100
AcDbScale
 70
     0
300
3/4" = 1'-0"
140
0.75
141
12.0
290
     0
  0
SCALE
  5
13F
102
{ACAD_REACTORS
330
B6
102
}
330
B6
100
AcDbScale
 70
     0
300
1" = 1'-0"
140
1.0
141
12.0
290
     0
  0
SCALE
  5
140
102
{ACAD_REACTORS
330
B6
102
}
330
B6
100
AcDbScale
 70
     0
300
1-1/2" = 1'-0"
140
1.5
141
12.0
290
     0
  0
SCALE
  5
141
102
{ACAD_REACTORS
330
B6
102
}
330
B6
100
AcDbScale
 70
     0
300
3" = 1'-0"
140
3.0
141
12.0
290
     0
  0
SCALE
  5
142
102
{ACAD_REACTORS
330
B6
102
}
330
B6
100
AcDbScale
 70
     0
300
6" = 1'-0"
140
6.0
141
12.0
290
     0
  0
SCALE
  5
143
102
{ACAD_REACTORS
330
B6
102
}
330
B6
100
AcDbScale
 70
     0
300
1'-0" = 1'-0"
140
12.0
141
12.0
290
     0
  0
TABLESTYLE
  5
87
102
{ACAD_XDICTIONARY
360
104
102
}
102
{ACAD_REACTORS
330
86
102
}
330
86
100
AcDbTableStyle
  3
Standard
 70
     0
 71
     0
 40
0.06
 41
0.06
280
     0
281
     0
  7
Standard
140
0.18
170
     2
 62
     0
 63
     7
283
     0
274
    -2
284
     1
 64
     0
275
    -2
285
     1
 65
     0
276
    -2
286
     1
 66
     0
277
    -2
287
     1
 67
     0
278
    -2
288
     1
 68
     0
279
    -2
289
     1
 69
     0
  7
Standard
140
0.25
170
     5
 62
     0
 63
     7
283
     0
274
    -2
284
     1
 64
     0
275
    -2
285
     1
 65
     0
276
    -2
286
     1
 66
     0
277
    -2
287
     1
 67
     0
278
    -2
288
     1
 68
     0
279
    -2
289
     1
 69
     0
  7
Standard
140
0.18
170
     5
 62
     0
 63
     7
283
     0
274
    -2
284
     1
 64
     0
275
    -2
285
     1
 65
     0
276
    -2
286
     1
 66
     0
277
    -2
287
     1
 67
     0
278
    -2
288
     1
 68
     0
279
    -2
289
     1
 69
     0
  0
VISUALSTYLE
  5
9F
102
{ACAD_REACTORS
330
99
102
}
330
99
100
AcDbVisualStyle
  2
2dWireframe
 70
     4
 71
     0
 72
     2
 73
     1
 90
        0
 40
-0.6
 41
-30.0
 62
     5
 63
     7
 74
     1
 91
        4
 64
     7
 65
   257
 75
     1
175
     1
 42
1.0
 92
        0
 66
   257
 43
1.0
 76
     1
 77
     6
 78
     2
 67
     7
 79
     5
170
     0
171
     0
290
     0
174
     0
 93
        1
 44
0.0
173
     0
291
     0
 45
0.0
1001
ACAD
1000
AcDbSavedByObjectVersion
1070
     0
  0
VISUALSTYLE
  5
A1
102
{ACAD_REACTORS
330
99
102
}
330
99
100
AcDbVisualStyle
  2
3D Hidden
 70
     6
 71
     1
 72
     2
 73
     2
 90
        0
 40
-0.6
 41
-30.0
 62
     5
 63
     7
 74
     2
 91
        2
 64
     7
 65
   257
 75
     2
175
     1
 42
40.0
 92
        0
 66
   257
 43
1.0
 76
     1
 77
     6
 78
     2
 67
     7
 79
     3
170
     0
171
     0
290
     0
174
     0
 93
        1
 44
0.0
173
     0
291
     0
 45
0.0
1001
ACAD
1000
AcDbSavedByObjectVersion
1070
     0
  0
VISUALSTYLE
  5
A0
102
{ACAD_REACTORS
330
99
102
}
330
99
100
AcDbVisualStyle
  2
3dWireframe
 70
     5
 71
     0
 72
     2
 73
     1
 90
        0
 40
-0.6
 41
-30.0
 62
     5
 63
     7
 74
     1
 91
        4
 64
     7
 65
   257
 75
     1
175
     1
 42
1.0
 92
        0
 66
   257
 43
1.0
 76
     1
 77
     6
 78
     2
 67
     7
 79
     5
170
     0
171
     0
290
     0
174
     0
 93
        1
 44
0.0
173
     0
291
     0
 45
0.0
1001
ACAD
1000
AcDbSavedByObjectVersion
1070
     0
  0
VISUALSTYLE
  5
9E
102
{ACAD_REACTORS
330
99
102
}
330
99
100
AcDbVisualStyle
  2
Basic
 70
     7
 71
     1
 72
     0
 73
     1
 90
        0
 40
-0.6
 41
-30.0
 62
     5
 63
     7
 74
     0
 91
        4
 64
     7
 65
   257
 75
     1
175
     1
 42
1.0
 92
        8
 66
     7
 43
1.0
 76
     1
 77
     6
 78
     2
 67
     7
 79
     5
170
     0
171
     0
290
     0
174
     0
 93
        1
 44
0.0
173
     0
291
     1
 45
0.0
1001
ACAD
1000
AcDbSavedByObjectVersion
1070
     0
  0
VISUALSTYLE
  5
A5
102
{ACAD_REACTORS
330
99
102
}
330
99
100
AcDbVisualStyle
  2
Brighten
 70
    12
 71
     2
 72
     2
 73
     1
 90
        0
 40
-0.6
 41
-30.0
 62
     5
 63
     7
 74
     1
 91
        4
 64
     7
 65
   257
 75
     1
175
     1
 42
1.0
 92
        8
 66
     7
 43
1.0
 76
     1
 77
     6
 78
     2
 67
     7
 79
     5
170
     0
171
     0
290
     0
174
     0
 93
        1
 44
50.0
173
     0
291
     1
 45
0.0
1001
ACAD
1000
AcDbSavedByObjectVersion
1070
     0
  0
VISUALSTYLE
  5
A9
102
{ACAD_REACTORS
330
99
102
}
330
99
100
AcDbVisualStyle
  2
ColorChange
 70
    16
 71
     2
 72
     2
 73
     3
 90
        0
 40
-0.6
 41
-30.0
 62
     5
 63
     8
 74
     1
 91
        4
 64
     7
 65
   257
 75
     1
175
     1
 42
1.0
 92
        8
 66
     8
 43
1.0
 76
     1
 77
     6
 78
     2
 67
     7
 79
     5
170
     0
171
     0
290
     0
174
     0
 93
        1
 44
0.0
173
     0
291
     1
 45
0.0
1001
ACAD
1000
AcDbSavedByObjectVersion
1070
     0
  0
VISUALSTYLE
  5
A2
102
{ACAD_REACTORS
330
99
102
}
330
99
100
AcDbVisualStyle
  2
Conceptual
 70
     9
 71
     3
 72
     2
 73
     1
 90
        0
 40
-0.6
 41
-30.0
 62
     5
 63
     7
 74
     2
 91
        2
 64
     7
 65
   257
 75
     1
175
     1
 42
40.0
 92
        8
 66
     7
 43
1.0
 76
     1
 77
     6
 78
     2
 67
     7
 79
     3
170
     0
171
     0
290
     0
174
     0
 93
        1
 44
0.0
173
     0
291
     0
 45
0.0
1001
ACAD
1000
AcDbSavedByObjectVersion
1070
     0
  0
VISUALSTYLE
  5
A4
102
{ACAD_REACTORS
330
99
102
}
330
99
100
AcDbVisualStyle
  2
Dim
 70
    11
 71
     2
 72
     2
 73
     1
 90
        0
 40
-0.6
 41
-30.0
 62
     5
 63
     7
 74
     1
 91
        4
 64
     7
 65
   257
 75
     1
175
     1
 42
1.0
 92
        8
 66
     7
 43
1.0
 76
     1
 77
     6
 78
     2
 67
     7
 79
     5
170
     0
171
     0
290
     0
174
     0
 93
        1
 44
-50.0
173
     0
291
     1
 45
0.0
1001
ACAD
1000
AcDbSavedByObjectVersion
1070
     0
  0
VISUALSTYLE
  5
A8
102
{ACAD_REACTORS
330
99
102
}
330
99
100
AcDbVisualStyle
  2
Facepattern
 70
    15
 71
     2
 72
     2
 73
     1
 90
        0
 40
-0.6
 41
-30.0
 62
     5
 63
     7
 74
     1
 91
        4
 64
     7
 65
   257
 75
     1
175
     1
 42
1.0
 92
        8
 66
     7
 43
1.0
 76
     1
 77
     6
 78
     2
 67
     7
 79
     5
170
     0
171
     0
290
     0
174
     0
 93
        1
 44
0.0
173
     0
291
     1
 45
0.0
1001
ACAD
1000
AcDbSavedByObjectVersion
1070
     0
  0
VISUALSTYLE
  5
9A
102
{ACAD_REACTORS
330
99
102
}
330
99
100
AcDbVisualStyle
  2
Flat
 70
     0
 71
     2
 72
     1
 73
     1
 90
        2
 40
-0.6
 41
30.0
 62
     5
 63
     7
 74
     0
 91
        4
 64
     7
 65
   257
 75
     1
175
     1
 42
1.0
 92
        8
 66
     7
 43
1.0
 76
     1
 77
     6
 78
     2
 67
     7
 79
     5
170
     0
171
     0
290
     0
174
     0
 93
        1
 44
0.0
173
     0
291
     1
 45
0.0
1001
ACAD
1000
AcDbSavedByObjectVersion
1070
     0
  0
VISUALSTYLE
  5
9B
102
{ACAD_REACTORS
330
99
102
}
330
99
100
AcDbVisualStyle
  2
FlatWithEdges
 70
     1
 71
     2
 72
     1
 73
     1
 90
        2
 40
-0.6
 41
30.0
 62
     5
 63
     7
 74
     1
 91
        4
 64
     7
 65
   257
 75
     1
175
     1
 42
1.0
 92
        0
 66
   257
 43
1.0
 76
     1
 77
     6
 78
     2
 67
     7
 79
     5
170
     0
171
     0
290
     0
174
     0
 93
        1
 44
0.0
173
     0
291
     1
 45
0.0
1001
ACAD
1000
AcDbSavedByObjectVersion
1070
     0
  0
VISUALSTYLE
  5
9C
102
{ACAD_REACTORS
330
99
102
}
330
99
100
AcDbVisualStyle
  2
Gouraud
 70
     2
 71
     2
 72
     2
 73
     1
 90
        2
 40
-0.6
 41
30.0
 62
     5
 63
     7
 74
     0
 91
        4
 64
     7
 65
   257
 75
     1
175
     1
 42
1.0
 92
        0
 66
     7
 43
1.0
 76
     1
 77
     6
 78
     2
 67
     7
 79
     5
170
     0
171
     0
290
     0
174
     0
 93
        1
 44
0.0
173
     0
291
     1
 45
0.0
1001
ACAD
1000
AcDbSavedByObjectVersion
1070
     0
  0
VISUALSTYLE
  5
9D
102
{ACAD_REACTORS
330
99
102
}
330
99
100
AcDbVisualStyle
  2
GouraudWithEdges
 70
     3
 71
     2
 72
     2
 73
     1
 90
        2
 40
-0.6
 41
30.0
 62
     5
 63
     7
 74
     1
 91
        4
 64
     7
 65
   257
 75
     1
175
     1
 42
1.0
 92
        0
 66
   257
 43
1.0
 76
     1
 77
     6
 78
     2
 67
     7
 79
     5
170
     0
171
     0
290
     0
174
     0
 93
        1
 44
0.0
173
     0
291
     1
 45
0.0
1001
ACAD
1000
AcDbSavedByObjectVersion
1070
     0
  0
VISUALSTYLE
  5
A7
102
{ACAD_REACTORS
330
99
102
}
330
99
100
AcDbVisualStyle
  2
Linepattern
 70
    14
 71
     2
 72
     2
 73
     1
 90
        0
 40
-0.6
 41
-30.0
 62
     5
 63
     7
 74
     1
 91
        4
 64
     7
 65
   257
 75
     7
175
     7
 42
1.0
 92
        8
 66
     7
 43
1.0
 76
     1
 77
     6
 78
     2
 67
     7
 79
     5
170
     0
171
     0
290
     0
174
     0
 93
        1
 44
0.0
173
     0
291
     1
 45
0.0
1001
ACAD
1000
AcDbSavedByObjectVersion
1070
     0
  0
VISUALSTYLE
  5
A3
102
{ACAD_REACTORS
330
99
102
}
330
99
100
AcDbVisualStyle
  2
Realistic
 70
     8
 71
     2
 72
     2
 73
     1
 90
        0
 40
-0.6
 41
-30.0
 62
     5
 63
     7
 74
     1
 91
        0
 64
     7
 65
   257
 75
     1
175
     1
 42
1.0
 92
        8
 66
     8
 43
1.0
 76
     1
 77
     6
 78
     2
 67
     7
 79
     5
170
     0
171
     0
290
     0
174
     0
 93
       13
 44
0.0
173
     0
291
     0
 45
0.0
1001
ACAD
1000
AcDbSavedByObjectVersion
1070
     0
  0
VISUALSTYLE
  5
A6
102
{ACAD_REACTORS
330
99
102
}
330
99
100
AcDbVisualStyle
  2
Thicken
 70
    13
 71
     2
 72
     2
 73
     1
 90
        0
 40
-0.6
 41
-30.0
 62
     5
 63
     7
 74
     1
 91
        4
 64
     7
 65
   257
 75
     1
175
     1
 42
1.0
 92
       12
 66
     7
 43
1.0
 76
     1
 77
     6
 78
     2
 67
     7
 79
     5
170
     0
171
     0
290
     0
174
     0
 93
        1
 44
0.0
173
     0
291
     1
 45
0.0
1001
ACAD
1000
AcDbSavedByObjectVersion
1070
     0
  0
DICTIONARYVAR
  5
F0
102
{ACAD_REACTORS
330
66
102
}
330
66
100
DictionaryVariables
280
     0
  1
1:1
  0
DICTIONARYVAR
  5
EF
102
{ACAD_REACTORS
330
66
102
}
330
66
100
DictionaryVariables
280
     0
  1
STANDARD
  0
DICTIONARYVAR
  5
89
102
{ACAD_REACTORS
330
66
102
}
330
66
100
DictionaryVariables
280
     0
  1
STANDARD
  0
DICTIONARYVAR
  5
67
102
{ACAD_REACTORS
330
66
102
}
330
66
100
DictionaryVariables
280
     0
  1
2
  0
DICTIONARYVAR
  5
6B
102
{ACAD_REACTORS
330
66
102
}
330
66
100
DictionaryVariables
280
     0
  1
1
  0
DICTIONARYVAR
  5
5D8
102
{ACAD_REACTORS
330
66
102
}
330
66
100
DictionaryVariables
280
     0
  1
0
  0
DICTIONARYVAR
  5
5D6
102
{ACAD_REACTORS
330
66
102
}
330
66
100
DictionaryVariables
280
     0
  1
2
  0
DICTIONARYVAR
  5
5D5
102
{ACAD_REACTORS
330
66
102
}
330
66
100
DictionaryVariables
280
     0
  1
1
  0
DICTIONARYVAR
  5
5D7
102
{ACAD_REACTORS
330
66
102
}
330
66
100
DictionaryVariables
280
     0
  1
127
  0
DICTIONARY
  5
5DD
330
59
100
AcDbDictionary
280
     1
281
     1
  3
ACAD_XREC_ROUNDTRIP
360
5DE
  0
DICTIONARY
  5
5DF
330
5E
100
AcDbDictionary
280
     1
281
     1
  3
ACAD_XREC_ROUNDTRIP
360
5E0
  0
DICTIONARY
  5
5DB
330
22
100
AcDbDictionary
280
     1
281
     1
  3
ACAD_XREC_ROUNDTRIP
360
5DC
  0
DICTIONARY
  5
5E4
330
97
100
AcDbDictionary
280
     1
281
     1
  3
ACAD_XREC_ROUNDTRIP
360
5E5
  0
DICTIONARY
  5
5E2
330
96
100
AcDbDictionary
280
     1
281
     1
  3
ACAD_XREC_ROUNDTRIP
360
5E3
  0
DICTIONARY
  5
110
330
98
100
AcDbDictionary
280
     1
281
     1
  3
ACAD_XREC_ROUNDTRIP
360
5E6
  3
BUMPTILE
360
112
  3
DIFFUSETILE
360
111
  3
OPACITYTILE
360
113
  3
REFLECTIONTILE
360
114
  0
DICTIONARY
  5
104
330
87
100
AcDbDictionary
280
     1
281
     1
  3
ACAD_ROUNDTRIP_2008_TABLESTYLE_CELLSTYLEMAP
360
5D9
  3
ACAD_XREC_ROUNDTRIP
360
5E1
  0
XRECORD
  5
5DE
102
{ACAD_REACTORS
330
5DD
102
}
330
5DD
100
AcDbXrecord
280
     1
102
SHADEPLOT
 70
     0
102
SHADEPLOTRESLEVEL
 70
     2
102
SHADEPLOTCUSTOMDPI
 70
   300
  0
XRECORD
  5
5E0
102
{ACAD_REACTORS
330
5DF
102
}
330
5DF
100
AcDbXrecord
280
     1
102
SHADEPLOT
 70
     0
102
SHADEPLOTRESLEVEL
 70
     2
102
SHADEPLOTCUSTOMDPI
 70
   300
  0
XRECORD
  5
5DC
102
{ACAD_REACTORS
330
5DB
102
}
330
5DB
100
AcDbXrecord
280
     1
102
SHADEPLOT
 70
     0
102
SHADEPLOTRESLEVEL
 70
     2
102
SHADEPLOTCUSTOMDPI
 70
   300
  0
XRECORD
  5
5E5
102
{ACAD_REACTORS
330
5E4
102
}
330
5E4
100
AcDbXrecord
280
     1
102
MATERIAL
148
0.0
149
0.0
149
0.0
 93
        0
 94
       63
282
     0
 72
     1
 77
     1
171
     1
175
     1
179
     1
273
     0
  0
XRECORD
  5
5E3
102
{ACAD_REACTORS
330
5E2
102
}
330
5E2
100
AcDbXrecord
280
     1
102
MATERIAL
148
0.0
149
0.0
149
0.0
 93
        0
 94
       63
282
     0
 72
     1
 77
     1
171
     1
175
     1
179
     1
273
     0
  0
XRECORD
  5
5E6
102
{ACAD_REACTORS
330
110
102
}
330
110
100
AcDbXrecord
280
     1
102
MATERIAL
148
0.0
149
0.0
149
0.0
 93
        0
 94
       63
282
     0
 72
     1
 77
     1
171
     1
175
     1
179
     1
273
     0
  0
XRECORD
  5
112
102
{ACAD_REACTORS
330
110
102
}
330
110
100
AcDbXrecord
280
     1
270
     1
271
     1
  0
XRECORD
  5
111
102
{ACAD_REACTORS
330
110
102
}
330
110
100
AcDbXrecord
280
     1
270
     1
271
     1
  0
XRECORD
  5
113
102
{ACAD_REACTORS
330
110
102
}
330
110
100
AcDbXrecord
280
     1
270
     1
271
     1
  0
XRECORD
  5
114
102
{ACAD_REACTORS
330
110
102
}
330
110
100
AcDbXrecord
280
     1
270
     1
271
     1
  0
CELLSTYLEMAP
  5
5D9
102
{ACAD_REACTORS
330
104
102
}
330
104
100
AcDbCellStyleMap
 90
        3
300
CELLSTYLE
  1
TABLEFORMAT_BEGIN
 90
        5
170
     1
 91
        0
 92
    32768
 62
   257
 93
        1
300
CONTENTFORMAT
  1
CONTENTFORMAT_BEGIN
 90
        0
 91
        0
 92
      512
 93
        0
300

 40
0.0
140
1.0
 94
        5
 62
     0
340
11
144
0.25
309
CONTENTFORMAT_END
171
     1
301
MARGIN
  1
CELLMARGIN_BEGIN
 40
0.06
 40
0.06
 40
0.06
 40
0.06
 40
0.18
 40
0.18
309
CELLMARGIN_END
 94
        6
 95
        1
302
GRIDFORMAT
  1
GRIDFORMAT_BEGIN
 90
        0
 91
        1
 62
     0
 92
       -2
340
0
 93
        0
 40
0.045
309
GRIDFORMAT_END
 95
        2
302
GRIDFORMAT
  1
GRIDFORMAT_BEGIN
 90
        0
 91
        1
 62
     0
 92
       -2
340
0
 93
        0
 40
0.045
309
GRIDFORMAT_END
 95
        4
302
GRIDFORMAT
  1
GRIDFORMAT_BEGIN
 90
        0
 91
        1
 62
     0
 92
       -2
340
0
 93
        0
 40
0.045
309
GRIDFORMAT_END
 95
        8
302
GRIDFORMAT
  1
GRIDFORMAT_BEGIN
 90
        0
 91
        1
 62
     0
 92
       -2
340
0
 93
        0
 40
0.045
309
GRIDFORMAT_END
 95
       16
302
GRIDFORMAT
  1
GRIDFORMAT_BEGIN
 90
        0
 91
        1
 62
     0
 92
       -2
340
0
 93
        0
 40
0.045
309
GRIDFORMAT_END
 95
       32
302
GRIDFORMAT
  1
GRIDFORMAT_BEGIN
 90
        0
 91
        1
 62
     0
 92
       -2
340
0
 93
        0
 40
0.045
309
GRIDFORMAT_END
309
TABLEFORMAT_END
  1
CELLSTYLE_BEGIN
 90
        1
 91
        1
300
_TITLE
309
CELLSTYLE_END
300
CELLSTYLE
  1
TABLEFORMAT_BEGIN
 90
        5
170
     1
 91
        0
 92
        0
 62
   257
 93
        1
300
CONTENTFORMAT
  1
CONTENTFORMAT_BEGIN
 90
        0
 91
        0
 92
      512
 93
        0
300

 40
0.0
140
1.0
 94
        5
 62
     0
340
11
144
0.18
309
CONTENTFORMAT_END
171
     1
301
MARGIN
  1
CELLMARGIN_BEGIN
 40
0.06
 40
0.06
 40
0.06
 40
0.06
 40
0.18
 40
0.18
309
CELLMARGIN_END
 94
        6
 95
        1
302
GRIDFORMAT
  1
GRIDFORMAT_BEGIN
 90
        0
 91
        1
 62
     0
 92
       -2
340
0
 93
        0
 40
0.045
309
GRIDFORMAT_END
 95
        2
302
GRIDFORMAT
  1
GRIDFORMAT_BEGIN
 90
        0
 91
        1
 62
     0
 92
       -2
340
0
 93
        0
 40
0.045
309
GRIDFORMAT_END
 95
        4
302
GRIDFORMAT
  1
GRIDFORMAT_BEGIN
 90
        0
 91
        1
 62
     0
 92
       -2
340
0
 93
        0
 40
0.045
309
GRIDFORMAT_END
 95
        8
302
GRIDFORMAT
  1
GRIDFORMAT_BEGIN
 90
        0
 91
        1
 62
     0
 92
       -2
340
0
 93
        0
 40
0.045
309
GRIDFORMAT_END
 95
       16
302
GRIDFORMAT
  1
GRIDFORMAT_BEGIN
 90
        0
 91
        1
 62
     0
 92
       -2
340
0
 93
        0
 40
0.045
309
GRIDFORMAT_END
 95
       32
302
GRIDFORMAT
  1
GRIDFORMAT_BEGIN
 90
        0
 91
        1
 62
     0
 92
       -2
340
0
 93
        0
 40
0.045
309
GRIDFORMAT_END
309
TABLEFORMAT_END
  1
CELLSTYLE_BEGIN
 90
        2
 91
        1
300
_HEADER
309
CELLSTYLE_END
300
CELLSTYLE
  1
TABLEFORMAT_BEGIN
 90
        5
170
     1
 91
        0
 92
        0
 62
   257
 93
        1
300
CONTENTFORMAT
  1
CONTENTFORMAT_BEGIN
 90
        0
 91
        0
 92
      512
 93
        0
300

 40
0.0
140
1.0
 94
        2
 62
     0
340
11
144
0.18
309
CONTENTFORMAT_END
171
     1
301
MARGIN
  1
CELLMARGIN_BEGIN
 40
0.06
 40
0.06
 40
0.06
 40
0.06
 40
0.18
 40
0.18
309
CELLMARGIN_END
 94
        6
 95
        1
302
GRIDFORMAT
  1
GRIDFORMAT_BEGIN
 90
        0
 91
        1
 62
     0
 92
       -2
340
0
 93
        0
 40
0.045
309
GRIDFORMAT_END
 95
        2
302
GRIDFORMAT
  1
GRIDFORMAT_BEGIN
 90
        0
 91
        1
 62
     0
 92
       -2
340
0
 93
        0
 40
0.045
309
GRIDFORMAT_END
 95
        4
302
GRIDFORMAT
  1
GRIDFORMAT_BEGIN
 90
        0
 91
        1
 62
     0
 92
       -2
340
0
 93
        0
 40
0.045
309
GRIDFORMAT_END
 95
        8
302
GRIDFORMAT
  1
GRIDFORMAT_BEGIN
 90
        0
 91
        1
 62
     0
 92
       -2
340
0
 93
        0
 40
0.045
309
GRIDFORMAT_END
 95
       16
302
GRIDFORMAT
  1
GRIDFORMAT_BEGIN
 90
        0
 91
        1
 62
     0
 92
       -2
340
0
 93
        0
 40
0.045
309
GRIDFORMAT_END
 95
       32
302
GRIDFORMAT
  1
GRIDFORMAT_BEGIN
 90
        0
 91
        1
 62
     0
 92
       -2
340
0
 93
        0
 40
0.045
309
GRIDFORMAT_END
309
TABLEFORMAT_END
  1
CELLSTYLE_BEGIN
 90
        3
 91
        2
300
_DATA
309
CELLSTYLE_END
  0
XRECORD
  5
5E1
102
{ACAD_REACTORS
330
104
102
}
330
104
100
AcDbXrecord
280
     1
102
ACAD_ROUNDTRIP_PRE2007_TABLESTYLE
 90
      512
 91
        0
  1

 92
      512
 93
        0
  2

 94
      512
 95
        0
  3

  0
ENDSEC
  0
EOF
