  0
SECTION
  2
HEADER
  9
$ACADVER
  1
AC1015
  9
$ACADMAINTVER
 70
    20
  9
$DWGCODEPAGE
  3
ANSI_1252
  9
$INSBASE
 10
0.0
 20
0.0
 30
0.0
  9
$EXTMIN
 10
-21.31233256800556
 20
-15.32206614818278
 30
-0.0000000000000142
  9
$EXTMAX
 10
468.3974593125453
 20
567.802337477051
 30
0.0000000000000163
  9
$LIMMIN
 10
0.0
 20
0.0
  9
$LIMMAX
 10
12.0
 20
9.0
  9
$ORTHOMODE
 70
     1
  9
$REGENMODE
 70
     1
  9
$FILLMODE
 70
     1
  9
$QTEXTMODE
 70
     0
  9
$MIRRTEXT
 70
     0
  9
$LTSCALE
 40
1.0
  9
$ATTMODE
 70
     1
  9
$TEXTSIZE
 40
0.2
  9
$TRACEWID
 40
0.05
  9
$TEXTSTYLE
  7
Standard
  9
$CLAYER
  8
0
  9
$CELTYPE
  6
ByLayer
  9
$CECOLOR
 62
     1
  9
$CELTSCALE
 40
1.0
  9
$DISPSILH
 70
     0
  9
$DIMSCALE
 40
1.0
  9
$DIMASZ
 40
0.18
  9
$DIMEXO
 40
0.0625
  9
$DIMDLI
 40
0.38
  9
$DIMRND
 40
0.0
  9
$DIMDLE
 40
0.0
  9
$DIMEXE
 40
0.18
  9
$DIMTP
 40
0.0
  9
$DIMTM
 40
0.0
  9
$DIMTXT
 40
0.18
  9
$DIMCEN
 40
0.09
  9
$DIMTSZ
 40
0.0
  9
$DIMTOL
 70
     0
  9
$DIMLIM
 70
     0
  9
$DIMTIH
 70
     1
  9
$DIMTOH
 70
     1
  9
$DIMSE1
 70
     0
  9
$DIMSE2
 70
     0
  9
$DIMTAD
 70
     0
  9
$DIMZIN
 70
     0
  9
$DIMBLK
  1

  9
$DIMASO
 70
     1
  9
$DIMSHO
 70
     1
  9
$DIMPOST
  1

  9
$DIMAPOST
  1

  9
$DIMALT
 70
     0
  9
$DIMALTD
 70
     2
  9
$DIMALTF
 40
25.4
  9
$DIMLFAC
 40
1.0
  9
$DIMTOFL
 70
     0
  9
$DIMTVP
 40
0.0
  9
$DIMTIX
 70
     0
  9
$DIMSOXD
 70
     0
  9
$DIMSAH
 70
     0
  9
$DIMBLK1
  1

  9
$DIMBLK2
  1

  9
$DIMSTYLE
  2
Standard
  9
$DIMCLRD
 70
     0
  9
$DIMCLRE
 70
     0
  9
$DIMCLRT
 70
     0
  9
$DIMTFAC
 40
1.0
  9
$DIMGAP
 40
0.09
  9
$DIMJUST
 70
     0
  9
$DIMSD1
 70
     0
  9
$DIMSD2
 70
     0
  9
$DIMTOLJ
 70
     1
  9
$DIMTZIN
 70
     0
  9
$DIMALTZ
 70
     0
  9
$DIMALTTZ
 70
     0
  9
$DIMUPT
 70
     0
  9
$DIMDEC
 70
     4
  9
$DIMTDEC
 70
     4
  9
$DIMALTU
 70
     2
  9
$DIMALTTD
 70
     2
  9
$DIMTXSTY
  7
Standard
  9
$DIMAUNIT
 70
     0
  9
$DIMADEC
 70
     0
  9
$DIMALTRND
 40
0.0
  9
$DIMAZIN
 70
     0
  9
$DIMDSEP
 70
    46
  9
$DIMATFIT
 70
     3
  9
$DIMFRAC
 70
     0
  9
$DIMLDRBLK
  1

  9
$DIMLUNIT
 70
     2
  9
$DIMLWD
 70
    -2
  9
$DIMLWE
 70
    -2
  9
$DIMTMOVE
 70
     0
  9
$LUNITS
 70
     2
  9
$LUPREC
 70
     4
  9
$SKETCHINC
 40
0.1
  9
$FILLETRAD
 40
0.0
  9
$AUNITS
 70
     0
  9
$AUPREC
 70
     0
  9
$MENU
  1
.
  9
$ELEVATION
 40
0.0
  9
$PELEVATION
 40
0.0
  9
$THICKNESS
 40
0.0
  9
$LIMCHECK
 70
     0
  9
$CHAMFERA
 40
0.0
  9
$CHAMFERB
 40
0.0
  9
$CHAMFERC
 40
0.0
  9
$CHAMFERD
 40
0.0
  9
$SKPOLY
 70
     0
  9
$TDCREATE
 40
2455286.594242674
  9
$TDUCREATE
 40
2455286.552576007
  9
$TDUPDATE
 40
2455510.728681273
  9
$TDUUPDATE
 40
2455510.687014606
  9
$TDINDWG
 40
0.0660720833
  9
$TDUSRTIMER
 40
0.0660720602
  9
$USRTIMER
 70
     1
  9
$ANGBASE
 50
0.0
  9
$ANGDIR
 70
     0
  9
$PDMODE
 70
     0
  9
$PDSIZE
 40
0.0
  9
$PLINEWID
 40
0.0
  9
$SPLFRAME
 70
     0
  9
$SPLINETYPE
 70
     6
  9
$SPLINESEGS
 70
     8
  9
$HANDSEED
  5
3C60
  9
$SURFTAB1
 70
     6
  9
$SURFTAB2
 70
     6
  9
$SURFTYPE
 70
     6
  9
$SURFU
 70
     6
  9
$SURFV
 70
     6
  9
$UCSBASE
  2

  9
$UCSNAME
  2

  9
$UCSORG
 10
0.0
 20
0.0
 30
0.0
  9
$UCSXDIR
 10
1.0
 20
0.0
 30
0.0
  9
$UCSYDIR
 10
0.0
 20
1.0
 30
0.0
  9
$UCSORTHOREF
  2

  9
$UCSORTHOVIEW
 70
     0
  9
$UCSORGTOP
 10
0.0
 20
0.0
 30
0.0
  9
$UCSORGBOTTOM
 10
0.0
 20
0.0
 30
0.0
  9
$UCSORGLEFT
 10
0.0
 20
0.0
 30
0.0
  9
$UCSORGRIGHT
 10
0.0
 20
0.0
 30
0.0
  9
$UCSORGFRONT
 10
0.0
 20
0.0
 30
0.0
  9
$UCSORGBACK
 10
0.0
 20
0.0
 30
0.0
  9
$PUCSBASE
  2

  9
$PUCSNAME
  2

  9
$PUCSORG
 10
0.0
 20
0.0
 30
0.0
  9
$PUCSXDIR
 10
1.0
 20
0.0
 30
0.0
  9
$PUCSYDIR
 10
0.0
 20
1.0
 30
0.0
  9
$PUCSORTHOREF
  2

  9
$PUCSORTHOVIEW
 70
     0
  9
$PUCSORGTOP
 10
0.0
 20
0.0
 30
0.0
  9
$PUCSORGBOTTOM
 10
0.0
 20
0.0
 30
0.0
  9
$PUCSORGLEFT
 10
0.0
 20
0.0
 30
0.0
  9
$PUCSORGRIGHT
 10
0.0
 20
0.0
 30
0.0
  9
$PUCSORGFRONT
 10
0.0
 20
0.0
 30
0.0
  9
$PUCSORGBACK
 10
0.0
 20
0.0
 30
0.0
  9
$USERI1
 70
     0
  9
$USERI2
 70
     0
  9
$USERI3
 70
     0
  9
$USERI4
 70
     0
  9
$USERI5
 70
     0
  9
$USERR1
 40
0.0
  9
$USERR2
 40
0.0
  9
$USERR3
 40
0.0
  9
$USERR4
 40
0.0
  9
$USERR5
 40
0.0
  9
$WORLDVIEW
 70
     1
  9
$SHADEDGE
 70
     3
  9
$SHADEDIF
 70
    70
  9
$TILEMODE
 70
     1
  9
$MAXACTVP
 70
    64
  9
$PINSBASE
 10
0.0
 20
0.0
 30
0.0
  9
$PLIMCHECK
 70
     0
  9
$PEXTMIN
 10
0.0
 20
0.0
 30
0.0
  9
$PEXTMAX
 10
0.0
 20
0.0
 30
0.0
  9
$PLIMMIN
 10
0.0
 20
0.0
  9
$PLIMMAX
 10
12.0
 20
9.0
  9
$UNITMODE
 70
     0
  9
$VISRETAIN
 70
     1
  9
$PLINEGEN
 70
     0
  9
$PSLTSCALE
 70
     1
  9
$TREEDEPTH
 70
  3020
  9
$CMLSTYLE
  2
Standard
  9
$CMLJUST
 70
     0
  9
$CMLSCALE
 40
1.0
  9
$PROXYGRAPHICS
 70
     1
  9
$MEASUREMENT
 70
     0
  9
$CELWEIGHT
370
    -1
  9
$ENDCAPS
280
     0
  9
$JOINSTYLE
280
     0
  9
$LWDISPLAY
290
     0
  9
$INSUNITS
 70
     1
  9
$HYPERLINKBASE
  1

  9
$STYLESHEET
  1

  9
$XEDIT
290
     1
  9
$CEPSNTYPE
380
     0
  9
$PSTYLEMODE
290
     1
  9
$FINGERPRINTGUID
  2
{AF1661D2-734B-4C9D-B229-04B01C62F3D4}
  9
$VERSIONGUID
  2
{20E3396A-03D0-4C79-84F5-381DA188D4E6}
  9
$EXTNAMES
290
     1
  9
$PSVPSCALE
 40
0.0
  9
$OLESTARTUP
290
     0
  0
ENDSEC
  0
SECTION
  2
CLASSES
  0
CLASS
  1
ACDBDICTIONARYWDFLT
  2
AcDbDictionaryWithDefault
  3
ObjectDBX Classes
 90
        0
280
     0
281
     0
  0
CLASS
  1
ACDBPLACEHOLDER
  2
AcDbPlaceHolder
  3
ObjectDBX Classes
 90
        0
280
     0
281
     0
  0
CLASS
  1
LAYOUT
  2
AcDbLayout
  3
ObjectDBX Classes
 90
        0
280
     0
281
     0
  0
CLASS
  1
DICTIONARYVAR
  2
AcDbDictionaryVar
  3
ObjectDBX Classes
 90
        0
280
     0
281
     0
  0
CLASS
  1
TABLESTYLE
  2
AcDbTableStyle
  3
ObjectDBX Classes
 90
     4095
280
     0
281
     0
  0
CLASS
  1
MATERIAL
  2
AcDbMaterial
  3
ObjectDBX Classes
 90
     1153
280
     0
281
     0
  0
CLASS
  1
VISUALSTYLE
  2
AcDbVisualStyle
  3
ObjectDBX Classes
 90
     4095
280
     0
281
     0
  0
CLASS
  1
SCALE
  2
AcDbScale
  3
ObjectDBX Classes
 90
     1153
280
     0
281
     0
  0
CLASS
  1
MLEADERSTYLE
  2
AcDbMLeaderStyle
  3
ACDB_MLEADERSTYLE_CLASS
 90
     4095
280
     0
281
     0
  0
CLASS
  1
CELLSTYLEMAP
  2
AcDbCellStyleMap
  3
ObjectDBX Classes
 90
     1152
280
     0
281
     0
  0
CLASS
  1
DIMASSOC
  2
AcDbDimAssoc
  3
"AcDbDimAssoc|Product Desc:     AcDim ARX App For Dimension|Company:          Autodesk, Inc.|WEB Address:      www.autodesk.com"
 90
    32768
280
     0
281
     0
  0
CLASS
  1
SORTENTSTABLE
  2
AcDbSortentsTable
  3
ObjectDBX Classes
 90
        0
280
     0
281
     0
  0
ENDSEC
  0
SECTION
  2
TABLES
  0
TABLE
  2
VPORT
  5
8
330
0
100
AcDbSymbolTable
 70
     1
  0
VPORT
  5
94
330
8
100
AcDbSymbolTableRecord
100
AcDbViewportTableRecord
  2
*Active
 70
     0
 10
0.0
 20
0.0
 11
1.0
 21
1.0
 12
223.5425633722699
 22
276.2401356644341
 13
0.0
 23
0.0
 14
0.5
 24
0.5
 15
0.5
 25
0.5
 16
0.0
 26
0.0
 36
1.0
 17
0.0
 27
0.0
 37
0.0
 40
587.9369846730348
 41
1.148760330578512
 42
50.0
 43
0.0
 44
0.0
 50
0.0
 51
0.0
 71
     0
 72
  1000
 73
     1
 74
     3
 75
     0
 76
     0
 77
     0
 78
     0
281
     0
 65
     1
110
0.0
120
0.0
130
0.0
111
1.0
121
0.0
131
0.0
112
0.0
122
1.0
132
0.0
 79
     0
146
0.0
  0
ENDTAB
  0
TABLE
  2
LTYPE
  5
5
330
0
100
AcDbSymbolTable
 70
     2
  0
LTYPE
  5
14
330
5
100
AcDbSymbolTableRecord
100
AcDbLinetypeTableRecord
  2
ByBlock
 70
     0
  3

 72
    65
 73
     0
 40
0.0
  0
LTYPE
  5
15
330
5
100
AcDbSymbolTableRecord
100
AcDbLinetypeTableRecord
  2
ByLayer
 70
     0
  3

 72
    65
 73
     0
 40
0.0
  0
LTYPE
  5
16
330
5
100
AcDbSymbolTableRecord
100
AcDbLinetypeTableRecord
  2
Continuous
 70
     0
  3
Solid line
 72
    65
 73
     0
 40
0.0
  0
LTYPE
  5
14D
330
5
100
AcDbSymbolTableRecord
100
AcDbLinetypeTableRecord
  2
DASHDOT
 70
     0
  3
 __ . __ . __ . __ . __ . __ . __ . 
 72
    65
 73
     4
 40
18.5
 49
12.0
 74
     0
 49
-3.0
 74
     0
 49
0.5
 74
     0
 49
-3.0
 74
     0
  0
ENDTAB
  0
TABLE
  2
LAYER
  5
2
102
{ACAD_XDICTIONARY
360
13E6
102
}
330
0
100
AcDbSymbolTable
 70
    10
  0
LAYER
  5
10
102
{ACAD_XDICTIONARY
360
E6
102
}
330
2
100
AcDbSymbolTableRecord
100
AcDbLayerTableRecord
  2
0
 70
     0
 62
     7
  6
Continuous
370
    -3
390
F
  0
LAYER
  5
138B
330
2
100
AcDbSymbolTableRecord
100
AcDbLayerTableRecord
  2
Defpoints
 70
     0
 62
     7
  6
Continuous
290
     0
370
    -3
390
F
  0
LAYER
  5
13E4
102
{ACAD_XDICTIONARY
360
16BF
102
}
330
2
100
AcDbSymbolTableRecord
100
AcDbLayerTableRecord
  2
Q
 70
     0
 62
     7
  6
Continuous
370
    -3
390
F
1001
AcAecLayerStandard
1000

1000

  0
LAYER
  5
1560
102
{ACAD_XDICTIONARY
360
16C1
102
}
330
2
100
AcDbSymbolTableRecord
100
AcDbLayerTableRecord
  2
C
 70
     0
 62
     7
  6
Continuous
370
    -3
390
F
1001
AcAecLayerStandard
1000

1000

  0
LAYER
  5
16DA
102
{ACAD_XDICTIONARY
360
16DB
102
}
330
2
100
AcDbSymbolTableRecord
100
AcDbLayerTableRecord
  2
S
 70
     0
 62
     7
  6
Continuous
370
    -3
390
F
1001
AcAecLayerStandard
1000

1000

  0
LAYER
  5
16DC
102
{ACAD_XDICTIONARY
360
16DD
102
}
330
2
100
AcDbSymbolTableRecord
100
AcDbLayerTableRecord
  2
T
 70
     0
 62
     7
  6
Continuous
370
    -3
390
F
1001
AcAecLayerStandard
1000

1000

  0
LAYER
  5
25CB
330
2
100
AcDbSymbolTableRecord
100
AcDbLayerTableRecord
  2
E
 70
     0
 62
     7
  6
Continuous
370
    -3
390
F
1001
AcAecLayerStandard
1000

1000

  0
LAYER
  5
3B34
330
2
100
AcDbSymbolTableRecord
100
AcDbLayerTableRecord
  2
STM
 70
     0
 62
     7
  6
Continuous
370
    -3
390
F
1001
AcAecLayerStandard
1000

1000

  0
LAYER
  5
3B35
330
2
100
AcDbSymbolTableRecord
100
AcDbLayerTableRecord
  2
CTM
 70
     0
 62
     7
  6
Continuous
370
    -3
390
F
1001
AcAecLayerStandard
1000

1000

  0
LAYER
  5
3B9D
330
2
100
AcDbSymbolTableRecord
100
AcDbLayerTableRecord
  2
QUOTE
 70
     0
 62
     7
  6
Continuous
370
    -3
390
F
1001
AcAecLayerStandard
1000

1000

  0
ENDTAB
  0
TABLE
  2
STYLE
  5
3
330
0
100
AcDbSymbolTable
 70
     3
  0
STYLE
  5
11
330
3
100
AcDbSymbolTableRecord
100
AcDbTextStyleTableRecord
  2
Standard
 70
     0
 40
0.0
 41
1.0
 50
0.0
 71
     0
 42
0.2
  3
txt.shx
  4

  0
STYLE
  5
DC
330
3
100
AcDbSymbolTableRecord
100
AcDbTextStyleTableRecord
  2
Annotativa
 70
     0
 40
0.0
 41
1.0
 50
0.0
 71
     0
 42
0.2
  3
txt.shx
  4

1001
AcadAnnotative
1000
AnnotativeData
1002
{
1070
     1
1070
     1
1002
}
  0
STYLE
  5
13CE
330
3
100
AcDbSymbolTableRecord
100
AcDbTextStyleTableRecord
  2
H
 70
     0
 40
0.0
 41
1.0
 50
0.0
 71
     0
 42
1.0
  3
ROMANS.SHX
  4

  0
ENDTAB
  0
TABLE
  2
VIEW
  5
6
330
0
100
AcDbSymbolTable
 70
     2
  0
ENDTAB
  0
TABLE
  2
UCS
  5
7
330
0
100
AcDbSymbolTable
 70
     0
  0
ENDTAB
  0
TABLE
  2
APPID
  5
9
330
0
100
AcDbSymbolTable
 70
     8
  0
APPID
  5
12
330
9
100
AcDbSymbolTableRecord
100
AcDbRegAppTableRecord
  2
ACAD
 70
     0
  0
APPID
  5
DD
330
9
100
AcDbSymbolTableRecord
100
AcDbRegAppTableRecord
  2
AcadAnnoPO
 70
     0
  0
APPID
  5
DE
330
9
100
AcDbSymbolTableRecord
100
AcDbRegAppTableRecord
  2
AcadAnnotative
 70
     0
  0
APPID
  5
DF
330
9
100
AcDbSymbolTableRecord
100
AcDbRegAppTableRecord
  2
ACAD_DSTYLE_DIMJAG
 70
     0
  0
APPID
  5
E0
330
9
100
AcDbSymbolTableRecord
100
AcDbRegAppTableRecord
  2
ACAD_DSTYLE_DIMTALN
 70
     0
  0
APPID
  5
107
330
9
100
AcDbSymbolTableRecord
100
AcDbRegAppTableRecord
  2
ACAD_MLEADERVER
 70
     0
  0
APPID
  5
13E5
330
9
100
AcDbSymbolTableRecord
100
AcDbRegAppTableRecord
  2
AcAecLayerStandard
 70
     0
  0
APPID
  5
1DDB
330
9
100
AcDbSymbolTableRecord
100
AcDbRegAppTableRecord
  2
ACAD_EXEMPT_FROM_CAD_STANDARDS
 70
     0
  0
ENDTAB
  0
TABLE
  2
DIMSTYLE
  5
A
330
0
100
AcDbSymbolTable
 70
     2
100
AcDbDimStyleTable
 71
     2
340
27
340
E1
  0
DIMSTYLE
105
27
102
{ACAD_REACTORS
330
3BA5
330
3BA6
102
}
330
A
100
AcDbSymbolTableRecord
100
AcDbDimStyleTableRecord
  2
Standard
 70
     0
340
11
  0
DIMSTYLE
105
E1
330
A
100
AcDbSymbolTableRecord
100
AcDbDimStyleTableRecord
  2
Annotativa
 70
     0
 40
0.0
340
11
1001
AcadAnnotative
1000
AnnotativeData
1002
{
1070
     1
1070
     1
1002
}
1001
ACAD_DSTYLE_DIMJAG
1070
   388
1040
1.5
1001
ACAD_DSTYLE_DIMTALN
1070
   392
1070
     0
  0
ENDTAB
  0
TABLE
  2
BLOCK_RECORD
  5
1
330
0
100
AcDbSymbolTable
 70
     9
  0
BLOCK_RECORD
  5
1F
102
{ACAD_XDICTIONARY
360
3688
102
}
330
1
100
AcDbSymbolTableRecord
100
AcDbBlockTableRecord
  2
*Model_Space
340
22
  0
BLOCK_RECORD
  5
58
330
1
100
AcDbSymbolTableRecord
100
AcDbBlockTableRecord
  2
*Paper_Space
340
59
  0
BLOCK_RECORD
  5
5D
330
1
100
AcDbSymbolTableRecord
100
AcDbBlockTableRecord
  2
*Paper_Space0
340
5E
  0
BLOCK_RECORD
  5
138C
330
1
100
AcDbSymbolTableRecord
100
AcDbBlockTableRecord
  2
*D1
340
0
  0
BLOCK_RECORD
  5
13A6
330
1
100
AcDbSymbolTableRecord
100
AcDbBlockTableRecord
  2
*D2
340
0
  0
BLOCK_RECORD
  5
1540
330
1
100
AcDbSymbolTableRecord
100
AcDbBlockTableRecord
  2
*D3
340
0
  0
BLOCK_RECORD
  5
34C5
330
1
100
AcDbSymbolTableRecord
100
AcDbBlockTableRecord
  2
*D4
340
0
  0
BLOCK_RECORD
  5
3B83
330
1
100
AcDbSymbolTableRecord
100
AcDbBlockTableRecord
  2
*D5
340
0
  0
BLOCK_RECORD
  5
3B90
330
1
100
AcDbSymbolTableRecord
100
AcDbBlockTableRecord
  2
*D6
340
0
  0
BLOCK_RECORD
  5
3BA7
330
1
100
AcDbSymbolTableRecord
100
AcDbBlockTableRecord
  2
*D7
340
0
  0
BLOCK_RECORD
  5
3BB4
330
1
100
AcDbSymbolTableRecord
100
AcDbBlockTableRecord
  2
*D8
340
0
  0
ENDTAB
  0
ENDSEC
  0
SECTION
  2
BLOCKS
  0
BLOCK
  5
20
330
1F
100
AcDbEntity
  8
0
100
AcDbBlockBegin
  2
*Model_Space
 70
     0
 10
0.0
 20
0.0
 30
0.0
  3
*Model_Space
  1

  0
ENDBLK
  5
21
330
1F
100
AcDbEntity
  8
0
100
AcDbBlockEnd
  0
BLOCK
  5
5A
330
58
100
AcDbEntity
 67
     1
  8
0
100
AcDbBlockBegin
  2
*Paper_Space
 70
     0
 10
0.0
 20
0.0
 30
0.0
  3
*Paper_Space
  1

  0
ENDBLK
  5
5B
330
58
100
AcDbEntity
 67
     1
  8
0
100
AcDbBlockEnd
  0
BLOCK
  5
5F
330
5D
100
AcDbEntity
 67
     1
  8
0
100
AcDbBlockBegin
  2
*Paper_Space0
 70
     0
 10
0.0
 20
0.0
 30
0.0
  3
*Paper_Space0
  1

  0
ENDBLK
  5
60
330
5D
100
AcDbEntity
 67
     1
  8
0
100
AcDbBlockEnd
  0
BLOCK
  5
138D
330
138C
100
AcDbEntity
  8
0
100
AcDbBlockBegin
  2
*D1
 70
     1
 10
0.0
 20
0.0
 30
0.0
  3
*D1
  1

  0
LINE
  5
139A
330
138C
100
AcDbEntity
  8
0
 62
     0
370
    -2
100
AcDbLine
 10
18.35284440643218
 20
599.0350956577945
 30
0.0
 11
18.35284440643219
 21
637.331537765332
 31
0.0
  0
LINE
  5
139B
330
138C
100
AcDbEntity
  8
0
 62
     0
370
    -2
100
AcDbLine
 10
468.3528444064322
 20
599.0350956577945
 30
0.0
 11
468.3528444064322
 21
637.331537765332
 31
0.0
  0
LINE
  5
139C
330
138C
100
AcDbEntity
  8
0
 62
     0
370
    -2
100
AcDbLine
 10
18.53284440643218
 20
637.1515377653322
 30
0.0
 11
242.7078444064322
 21
637.1515377653322
 31
0.0
  0
LINE
  5
139D
330
138C
100
AcDbEntity
  8
0
 62
     0
370
    -2
100
AcDbLine
 10
468.172844406432
 20
637.1515377653322
 30
0.0
 11
243.9978444064322
 21
637.1515377653322
 31
0.0
  0
SOLID
  5
139E
330
138C
100
AcDbEntity
  8
0
 62
     0
100
AcDbTrace
 10
18.53284440643218
 20
637.1815377653322
 30
0.0
 11
18.53284440643218
 21
637.1215377653323
 31
0.0
 12
18.35284440643219
 22
637.1515377653322
 32
0.0
 13
18.35284440643219
 23
637.1515377653322
 33
0.0
  0
SOLID
  5
139F
330
138C
100
AcDbEntity
  8
0
 62
     0
100
AcDbTrace
 10
468.172844406432
 20
637.1815377653322
 30
0.0
 11
468.172844406432
 21
637.1215377653323
 31
0.0
 12
468.3528444064322
 22
637.1515377653322
 32
0.0
 13
468.3528444064322
 23
637.1515377653322
 33
0.0
  0
MTEXT
  5
13A0
330
138C
100
AcDbEntity
  8
0
 62
     0
100
AcDbMText
 10
243.3528444064322
 20
637.1515377653322
 30
0.0
 40
0.18
 41
0.0
 71
     5
 72
     1
  1
\A1;450.0000
 73
     1
 44
1.0
1001
ACAD
1000
MTEXTBEGIN
1070
    73
1070
     1
1070
    44
1040
1.0
1070
    74
1070
     0
1000
MTEXTEND
  0
POINT
  5
13A1
330
138C
100
AcDbEntity
  8
Defpoints
 62
     0
100
AcDbPoint
 10
18.35284440643218
 20
598.9725956577943
 30
0.0
  0
POINT
  5
13A2
330
138C
100
AcDbEntity
  8
Defpoints
 62
     0
100
AcDbPoint
 10
468.3528444064322
 20
598.9725956577943
 30
0.0
  0
POINT
  5
13A3
330
138C
100
AcDbEntity
  8
Defpoints
 62
     0
100
AcDbPoint
 10
468.3528444064322
 20
637.1515377653322
 30
0.0
  0
ENDBLK
  5
138E
330
138C
100
AcDbEntity
  8
0
100
AcDbBlockEnd
  0
BLOCK
  5
13A7
330
13A6
100
AcDbEntity
  8
0
100
AcDbBlockBegin
  2
*D2
 70
     1
 10
0.0
 20
0.0
 30
0.0
  3
*D2
  1

  0
LINE
  5
13B4
330
13A6
100
AcDbEntity
  8
0
 62
     0
370
    -2
100
AcDbLine
 10
82.3684194865523
 20
567.7732675942142
 30
0.0
 11
118.7416251565431
 21
567.7732675942142
 31
0.0
  0
LINE
  5
13B5
330
13A6
100
AcDbEntity
  8
0
 62
     0
370
    -2
100
AcDbLine
 10
82.3684194865523
 20
7.773267594214327
 30
0.0
 11
118.7416251565429
 21
7.773267594214321
 31
0.0
  0
LINE
  5
13B6
330
13A6
100
AcDbEntity
  8
0
 62
     0
370
    -2
100
AcDbLine
 10
118.5616251565431
 20
567.5932675942142
 30
0.0
 11
118.561625156543
 21
287.9532675942144
 31
0.0
  0
LINE
  5
13B7
330
13A6
100
AcDbEntity
  8
0
 62
     0
370
    -2
100
AcDbLine
 10
118.5616251565429
 20
7.953267594214322
 30
0.0
 11
118.561625156543
 21
287.5932675942144
 31
0.0
  0
SOLID
  5
13B8
330
13A6
100
AcDbEntity
  8
0
 62
     0
100
AcDbTrace
 10
118.5316251565431
 20
567.5932675942142
 30
0.0
 11
118.5916251565431
 21
567.5932675942142
 31
0.0
 12
118.5616251565431
 22
567.7732675942142
 32
0.0
 13
118.5616251565431
 23
567.7732675942142
 33
0.0
  0
SOLID
  5
13B9
330
13A6
100
AcDbEntity
  8
0
 62
     0
100
AcDbTrace
 10
118.5316251565429
 20
7.953267594214322
 30
0.0
 11
118.5916251565429
 21
7.953267594214322
 31
0.0
 12
118.5616251565429
 22
7.773267594214322
 32
0.0
 13
118.5616251565429
 23
7.773267594214322
 33
0.0
  0
MTEXT
  5
13BA
330
13A6
100
AcDbEntity
  8
0
 62
     0
100
AcDbMText
 10
118.561625156543
 20
287.7732675942143
 30
0.0
 40
0.18
 41
0.0
 71
     5
 72
     1
  1
\A1;560.0000
 73
     1
 44
1.0
1001
ACAD
1000
MTEXTBEGIN
1070
    73
1070
     1
1070
    44
1040
1.0
1070
    74
1070
     0
1000
MTEXTEND
  0
POINT
  5
13BB
330
13A6
100
AcDbEntity
  8
Defpoints
 62
     0
100
AcDbPoint
 10
82.30591948655229
 20
567.7732675942142
 30
0.0
  0
POINT
  5
13BC
330
13A6
100
AcDbEntity
  8
Defpoints
 62
     0
100
AcDbPoint
 10
82.30591948655229
 20
7.773267594214327
 30
0.0
  0
POINT
  5
13BD
330
13A6
100
AcDbEntity
  8
Defpoints
 62
     0
100
AcDbPoint
 10
118.5616251565429
 20
7.773267594214322
 30
0.0
  0
ENDBLK
  5
13A8
330
13A6
100
AcDbEntity
  8
0
100
AcDbBlockEnd
  0
BLOCK
  5
1541
330
1540
100
AcDbEntity
  8
0
100
AcDbBlockBegin
  2
*D3
 70
     1
 10
0.0
 20
0.0
 30
0.0
  3
*D3
  1

  0
LINE
  5
154E
330
1540
100
AcDbEntity
  8
0
 62
     0
370
    -2
100
AcDbLine
 10
189.9515685925458
 20
66.9416831002568
 30
0.0
 11
197.9587500517211
 21
66.9416831002568
 31
0.0
  0
LINE
  5
154F
330
1540
100
AcDbEntity
  8
0
 62
     0
370
    -2
100
AcDbLine
 10
189.9515685925458
 20
36.47057859421432
 30
0.0
 11
197.9587500517211
 21
36.47057859421432
 31
0.0
  0
LINE
  5
1550
330
1540
100
AcDbEntity
  8
0
 62
     0
370
    -2
100
AcDbLine
 10
197.7787500517211
 20
66.76168310025679
 30
0.0
 11
197.778750051721
 21
51.88613084723556
 31
0.0
  0
LINE
  5
1551
330
1540
100
AcDbEntity
  8
0
 62
     0
370
    -2
100
AcDbLine
 10
197.778750051721
 20
36.65057859421433
 30
0.0
 11
197.778750051721
 21
51.52613084723554
 31
0.0
  0
SOLID
  5
1552
330
1540
100
AcDbEntity
  8
0
 62
     0
100
AcDbTrace
 10
197.7487500517211
 20
66.76168310025679
 30
0.0
 11
197.808750051721
 21
66.76168310025679
 31
0.0
 12
197.7787500517211
 22
66.9416831002568
 32
0.0
 13
197.7787500517211
 23
66.9416831002568
 33
0.0
  0
SOLID
  5
1553
330
1540
100
AcDbEntity
  8
0
 62
     0
100
AcDbTrace
 10
197.748750051721
 20
36.65057859421433
 30
0.0
 11
197.808750051721
 21
36.65057859421433
 31
0.0
 12
197.778750051721
 22
36.47057859421432
 32
0.0
 13
197.778750051721
 23
36.47057859421432
 33
0.0
  0
MTEXT
  5
1554
330
1540
100
AcDbEntity
  8
0
 62
     0
100
AcDbMText
 10
197.778750051721
 20
51.70613084723559
 30
0.0
 40
0.18
 41
0.0
 71
     5
 72
     1
  1
\A1;30.4711
 73
     1
 44
1.0
1001
ACAD
1000
MTEXTBEGIN
1070
    73
1070
     1
1070
    44
1040
1.0
1070
    74
1070
     0
1000
MTEXTEND
  0
POINT
  5
1555
330
1540
100
AcDbEntity
  8
Defpoints
 62
     0
100
AcDbPoint
 10
189.8890685925458
 20
66.9416831002568
 30
0.0
  0
POINT
  5
1556
330
1540
100
AcDbEntity
  8
Defpoints
 62
     0
100
AcDbPoint
 10
189.8890685925458
 20
36.47057859421432
 30
0.0
  0
POINT
  5
1557
330
1540
100
AcDbEntity
  8
Defpoints
 62
     0
100
AcDbPoint
 10
197.778750051721
 20
36.47057859421432
 30
0.0
  0
ENDBLK
  5
1542
330
1540
100
AcDbEntity
  8
0
100
AcDbBlockEnd
  0
BLOCK
  5
34C6
330
34C5
100
AcDbEntity
  8
0
 62
     1
100
AcDbBlockBegin
  2
*D4
 70
     1
 10
0.0
 20
0.0
 30
0.0
  3
*D4
  1

  0
LINE
  5
34D3
330
34C5
100
AcDbEntity
  8
0
 62
     0
370
    -2
100
AcDbLine
 10
744.7551901189394
 20
974.2171614787473
 30
0.0
 11
653.6969573206653
 21
974.2171614787473
 31
0.0
  0
LINE
  5
34D4
330
34C5
100
AcDbEntity
  8
0
 62
     0
370
    -2
100
AcDbLine
 10
744.7551901189394
 20
1089.217161478747
 30
0.0
 11
653.6969573206653
 21
1089.217161478747
 31
0.0
  0
LINE
  5
34D5
330
34C5
100
AcDbEntity
  8
0
 62
     0
370
    -2
100
AcDbLine
 10
653.8769573206653
 20
974.3971614787469
 30
0.0
 11
653.8769573206653
 21
1031.537161478746
 31
0.0
  0
LINE
  5
34D6
330
34C5
100
AcDbEntity
  8
0
 62
     0
370
    -2
100
AcDbLine
 10
653.8769573206653
 20
1089.037161478747
 30
0.0
 11
653.8769573206653
 21
1031.897161478747
 31
0.0
  0
SOLID
  5
34D7
330
34C5
100
AcDbEntity
  8
0
 62
     0
100
AcDbTrace
 10
653.8469573206655
 20
974.3971614787469
 30
0.0
 11
653.9069573206655
 21
974.3971614787469
 31
0.0
 12
653.8769573206653
 22
974.2171614787473
 32
0.0
 13
653.8769573206653
 23
974.2171614787473
 33
0.0
  0
SOLID
  5
34D8
330
34C5
100
AcDbEntity
  8
0
 62
     0
100
AcDbTrace
 10
653.8469573206655
 20
1089.037161478747
 30
0.0
 11
653.9069573206655
 21
1089.037161478747
 31
0.0
 12
653.8769573206653
 22
1089.217161478747
 32
0.0
 13
653.8769573206653
 23
1089.217161478747
 33
0.0
  0
MTEXT
  5
34D9
330
34C5
100
AcDbEntity
  8
0
 62
     0
100
AcDbMText
 10
653.8769573206653
 20
1031.717161478747
 30
0.0
 40
0.18
 41
0.0
 71
     5
 72
     1
  1
\A1;115.0000
 73
     1
 44
1.0
1001
ACAD
1000
MTEXTBEGIN
1070
    73
1070
     1
1070
    44
1040
1.0
1070
    74
1070
     0
1000
MTEXTEND
  0
POINT
  5
34DA
330
34C5
100
AcDbEntity
  8
Defpoints
 62
     0
100
AcDbPoint
 10
744.8176901189392
 20
974.2171614787473
 30
0.0000000000000055
  0
POINT
  5
34DB
330
34C5
100
AcDbEntity
  8
Defpoints
 62
     0
100
AcDbPoint
 10
744.8176901189392
 20
1089.217161478747
 30
0.0
  0
POINT
  5
34DC
330
34C5
100
AcDbEntity
  8
Defpoints
 62
     0
100
AcDbPoint
 10
653.8769573206653
 20
1089.217161478747
 30
0.0
  0
ENDBLK
  5
34C7
330
34C5
100
AcDbEntity
  8
0
 62
     1
100
AcDbBlockEnd
  0
BLOCK
  5
3B84
330
3B83
100
AcDbEntity
  8
0
100
AcDbBlockBegin
  2
*D5
 70
     1
 10
0.0
 20
0.0
 30
0.0
  3
*D5
  1

  0
LINE
  5
3B85
330
3B83
100
AcDbEntity
  8
QUOTE
 62
     7
370
    -2
100
AcDbLine
 10
-107.0805200348571
 20
322.4648743244586
 30
0.0
 11
-147.7820873541619
 21
322.4648743244586
 31
0.0
  0
LINE
  5
3B86
330
3B83
100
AcDbEntity
  8
QUOTE
 62
     7
370
    -2
100
AcDbLine
 10
-109.551247605389
 20
-107.5351256755409
 30
0.0
 11
-147.782087354162
 21
-107.5351256755409
 31
0.0
  0
LINE
  5
3B87
330
3B83
100
AcDbEntity
  8
QUOTE
 62
     7
370
    -2
100
AcDbLine
 10
-147.6020873541619
 20
307.4648743244587
 30
0.0
 11
-147.6020873541619
 21
106.8956934585356
 31
0.0
  0
LINE
  5
3B88
330
3B83
100
AcDbEntity
  8
QUOTE
 62
     7
370
    -2
100
AcDbLine
 10
-147.602087354162
 20
-92.53512567554093
 30
0.0
 11
-147.6020873541619
 21
96.71569345853564
 31
0.0
  0
SOLID
  5
3B89
330
3B83
100
AcDbEntity
  8
QUOTE
 62
     7
100
AcDbTrace
 10
-150.1020873541619
 20
307.4648743244587
 30
0.0
 11
-145.1020873541619
 21
307.4648743244587
 31
0.0
 12
-147.6020873541619
 22
322.4648743244586
 32
0.0
 13
-147.6020873541619
 23
322.4648743244586
 33
0.0
  0
SOLID
  5
3B8A
330
3B83
100
AcDbEntity
  8
QUOTE
 62
     7
100
AcDbTrace
 10
-150.102087354162
 20
-92.53512567554093
 30
0.0
 11
-145.102087354162
 21
-92.53512567554093
 31
0.0
 12
-147.602087354162
 22
-107.5351256755409
 32
0.0
 13
-147.602087354162
 23
-107.5351256755409
 33
0.0
  0
MTEXT
  5
3B8B
330
3B83
100
AcDbEntity
  8
QUOTE
 62
     7
100
AcDbMText
 10
-147.6020873541619
 20
101.8056934585356
 30
0.0
 40
10.0
 41
0.0
 71
     5
 72
     1
  1
\A1;430
 73
     1
 44
1.0
1001
ACAD
1000
MTEXTBEGIN
1070
    73
1070
     1
1070
    44
1040
1.0
1070
    74
1070
     0
1000
MTEXTEND
  0
POINT
  5
3B8C
330
3B83
100
AcDbEntity
  8
Defpoints
 62
     0
100
AcDbPoint
 10
-107.0180200348571
 20
322.4648743244586
 30
0.0
  0
POINT
  5
3B8D
330
3B83
100
AcDbEntity
  8
Defpoints
 62
     0
100
AcDbPoint
 10
-109.488747605389
 20
-107.5351256755409
 30
0.0
  0
POINT
  5
3B8E
330
3B83
100
AcDbEntity
  8
Defpoints
 62
     0
100
AcDbPoint
 10
-147.602087354162
 20
-107.5351256755409
 30
0.0
  0
ENDBLK
  5
3B8F
330
3B83
100
AcDbEntity
  8
0
100
AcDbBlockEnd
  0
BLOCK
  5
3B91
330
3B90
100
AcDbEntity
  8
0
100
AcDbBlockBegin
  2
*D6
 70
     1
 10
0.0
 20
0.0
 30
0.0
  3
*D6
  1

  0
LINE
  5
3B92
330
3B90
100
AcDbEntity
  8
QUOTE
 62
     7
370
    -2
100
AcDbLine
 10
75.5183623946113
 20
-92.59941600788572
 30
0.0
 11
75.5183623946113
 21
-126.6742362736619
 31
0.0
  0
LINE
  5
3B93
330
3B90
100
AcDbEntity
  8
QUOTE
 62
     7
370
    -2
100
AcDbLine
 10
-124.489317605389
 20
-92.53454567554092
 30
0.0
 11
-124.489317605389
 21
-126.6742362736619
 31
0.0
  0
LINE
  5
3B94
330
3B90
100
AcDbEntity
  8
QUOTE
 62
     7
370
    -2
100
AcDbLine
 10
60.5183623946113
 20
-126.4942362736619
 30
0.0
 11
-11.26116932183178
 21
-126.4942362736619
 31
0.0
  0
LINE
  5
3B95
330
3B90
100
AcDbEntity
  8
QUOTE
 62
     7
370
    -2
100
AcDbLine
 10
-109.489317605389
 20
-126.4942362736619
 30
0.0
 11
-34.77450265516512
 21
-126.4942362736619
 31
0.0
  0
SOLID
  5
3B96
330
3B90
100
AcDbEntity
  8
QUOTE
 62
     7
100
AcDbTrace
 10
60.5183623946113
 20
-123.9942362736619
 30
0.0
 11
60.5183623946113
 21
-128.9942362736619
 31
0.0
 12
75.5183623946113
 22
-126.4942362736619
 32
0.0
 13
75.5183623946113
 23
-126.4942362736619
 33
0.0
  0
SOLID
  5
3B97
330
3B90
100
AcDbEntity
  8
QUOTE
 62
     7
100
AcDbTrace
 10
-109.489317605389
 20
-123.9942362736619
 30
0.0
 11
-109.489317605389
 21
-128.9942362736619
 31
0.0
 12
-124.489317605389
 22
-126.4942362736619
 32
0.0
 13
-124.489317605389
 23
-126.4942362736619
 33
0.0
  0
MTEXT
  5
3B98
330
3B90
100
AcDbEntity
  8
QUOTE
 62
     7
100
AcDbMText
 10
-23.01783598849845
 20
-126.4942362736619
 30
0.0
 40
10.0
 41
0.0
 71
     5
 72
     1
  1
\A1;200
 73
     1
 44
1.0
1001
ACAD
1000
MTEXTBEGIN
1070
    73
1070
     1
1070
    44
1040
1.0
1070
    74
1070
     0
1000
MTEXTEND
  0
POINT
  5
3B99
330
3B90
100
AcDbEntity
  8
Defpoints
 62
     0
100
AcDbPoint
 10
75.5183623946113
 20
-92.53691600788574
 30
0.0
  0
POINT
  5
3B9A
330
3B90
100
AcDbEntity
  8
Defpoints
 62
     0
100
AcDbPoint
 10
-124.489317605389
 20
-92.47204567554092
 30
0.0
  0
POINT
  5
3B9B
330
3B90
100
AcDbEntity
  8
Defpoints
 62
     0
100
AcDbPoint
 10
-124.489317605389
 20
-126.4942362736619
 30
0.0
  0
ENDBLK
  5
3B9C
330
3B90
100
AcDbEntity
  8
0
100
AcDbBlockEnd
  0
BLOCK
  5
3BA8
330
3BA7
100
AcDbEntity
  8
0
 62
     1
100
AcDbBlockBegin
  2
*D7
 70
     1
 10
0.0
 20
0.0
 30
0.0
  3
*D7
  1

  0
LINE
  5
3C25
330
3BA7
100
AcDbEntity
  8
QUOTE
 62
     7
370
    -2
100
AcDbLine
 10
34.29034356867411
 20
567.7732675942141
 30
0.0
 11
-8.966871600686806
 21
567.7732675942141
 31
0.0
  0
LINE
  5
3C26
330
3BA7
100
AcDbEntity
  8
QUOTE
 62
     7
370
    -2
100
AcDbLine
 10
34.35284356867414
 20
7.773267594214347
 30
0.0
 11
-8.966871600686934
 21
7.773267594214361
 31
0.0
  0
LINE
  5
3C27
330
3BA7
100
AcDbEntity
  8
QUOTE
 62
     7
370
    -2
100
AcDbLine
 10
-8.786871600686815
 20
552.773267594214
 30
0.0
 11
-8.786871600686872
 21
292.6548433409778
 31
0.0
  0
LINE
  5
3C28
330
3BA7
100
AcDbEntity
  8
QUOTE
 62
     7
370
    -2
100
AcDbLine
 10
-8.786871600686932
 20
22.77326759421436
 30
0.0
 11
-8.786871600686875
 21
282.4748433409779
 31
0.0
  0
SOLID
  5
3C29
330
3BA7
100
AcDbEntity
  8
QUOTE
 62
     7
100
AcDbTrace
 10
-11.28687160068681
 20
552.773267594214
 30
0.0
 11
-6.286871600686816
 21
552.773267594214
 31
0.0
 12
-8.786871600686811
 22
567.7732675942141
 32
0.0
 13
-8.786871600686811
 23
567.7732675942141
 33
0.0
  0
SOLID
  5
3C2A
330
3BA7
100
AcDbEntity
  8
QUOTE
 62
     7
100
AcDbTrace
 10
-11.28687160068693
 20
22.77326759421436
 30
0.0
 11
-6.286871600686932
 21
22.77326759421436
 31
0.0
 12
-8.786871600686936
 22
7.773267594214361
 32
0.0
 13
-8.786871600686936
 23
7.773267594214361
 33
0.0
  0
MTEXT
  5
3C2B
330
3BA7
100
AcDbEntity
  8
QUOTE
 62
     7
100
AcDbMText
 10
-8.78687160068692
 20
287.5648433409779
 30
0.0
 40
10.0
 41
0.0
 71
     5
 72
     1
  1
\A1;560
 73
     1
 44
1.0
1001
ACAD
1000
MTEXTBEGIN
1070
    73
1070
     1
1070
    44
1040
1.0
1070
    74
1070
     0
1000
MTEXTEND
  0
POINT
  5
3C2C
330
3BA7
100
AcDbEntity
  8
Defpoints
 62
     0
100
AcDbPoint
 10
34.35284356867411
 20
567.7732675942141
 30
0.0
  0
POINT
  5
3C2D
330
3BA7
100
AcDbEntity
  8
Defpoints
 62
     0
100
AcDbPoint
 10
34.41534356867414
 20
7.773267594214347
 30
0.0
  0
POINT
  5
3C2E
330
3BA7
100
AcDbEntity
  8
Defpoints
 62
     0
100
AcDbPoint
 10
-8.786871600686936
 20
7.773267594214361
 30
0.0
  0
ENDBLK
  5
3BA9
330
3BA7
100
AcDbEntity
  8
0
 62
     1
100
AcDbBlockEnd
  0
BLOCK
  5
3BB5
330
3BB4
100
AcDbEntity
  8
0
 62
     1
100
AcDbBlockBegin
  2
*D8
 70
     1
 10
0.0
 20
0.0
 30
0.0
  3
*D8
  1

  0
LINE
  5
3BF3
330
3BB4
100
AcDbEntity
  8
QUOTE
 62
     7
370
    -2
100
AcDbLine
 10
468.3528444064322
 20
23.71076759421433
 30
0.0
 11
468.3528444064322
 21
-10.42892440017024
 31
0.0
  0
LINE
  5
3BF4
330
3BB4
100
AcDbEntity
  8
QUOTE
 62
     7
370
    -2
100
AcDbLine
 10
18.35284440643224
 20
23.71076619795079
 30
0.0
 11
18.35284440643224
 21
-10.42892440017024
 31
0.0
  0
LINE
  5
3BF5
330
3BB4
100
AcDbEntity
  8
QUOTE
 62
     7
370
    -2
100
AcDbLine
 10
453.3528444064322
 20
-10.24892440017024
 30
0.0
 11
255.3753239893246
 21
-10.24892440017024
 31
0.0
  0
LINE
  5
3BF6
330
3BB4
100
AcDbEntity
  8
QUOTE
 62
     7
370
    -2
100
AcDbLine
 10
33.35284440643224
 20
-10.24892440017024
 30
0.0
 11
230.1953239893248
 21
-10.24892440017024
 31
0.0
  0
SOLID
  5
3BF7
330
3BB4
100
AcDbEntity
  8
QUOTE
 62
     7
100
AcDbTrace
 10
453.3528444064322
 20
-7.748924400170237
 30
0.0
 11
453.3528444064322
 21
-12.74892440017024
 31
0.0
 12
468.3528444064322
 22
-10.24892440017024
 32
0.0
 13
468.3528444064322
 23
-10.24892440017024
 33
0.0
  0
SOLID
  5
3BF8
330
3BB4
100
AcDbEntity
  8
QUOTE
 62
     7
100
AcDbTrace
 10
33.35284440643224
 20
-7.748924400170237
 30
0.0
 11
33.35284440643224
 21
-12.74892440017024
 31
0.0
 12
18.35284440643224
 22
-10.24892440017024
 32
0.0
 13
18.35284440643224
 23
-10.24892440017024
 33
0.0
  0
MTEXT
  5
3BF9
330
3BB4
100
AcDbEntity
  8
QUOTE
 62
     7
100
AcDbMText
 10
242.7853239893248
 20
-10.24892440017024
 30
0.0
 40
10.0
 41
0.0
 71
     5
 72
     1
  1
\A1;450
 73
     1
 44
1.0
1001
ACAD
1000
MTEXTBEGIN
1070
    73
1070
     1
1070
    44
1040
1.0
1070
    74
1070
     0
1000
MTEXTEND
  0
POINT
  5
3BFA
330
3BB4
100
AcDbEntity
  8
Defpoints
 62
     0
100
AcDbPoint
 10
468.3528444064322
 20
23.77326759421433
 30
0.0
  0
POINT
  5
3BFB
330
3BB4
100
AcDbEntity
  8
Defpoints
 62
     0
100
AcDbPoint
 10
18.35284440643224
 20
23.77326619795079
 30
0.0
  0
POINT
  5
3BFC
330
3BB4
100
AcDbEntity
  8
Defpoints
 62
     0
100
AcDbPoint
 10
18.35284440643224
 20
-10.24892440017024
 30
0.0
  0
ENDBLK
  5
3BB6
330
3BB4
100
AcDbEntity
  8
0
 62
     1
100
AcDbBlockEnd
  0
ENDSEC
  0
SECTION
  2
ENTITIES
  0
LINE
  5
E87
330
1F
100
AcDbEntity
  8
0
 62
   253
 48
0.001467
370
    35
100
AcDbLine
 10
49.78672740643215
 20
366.9972665942144
 30
0.0
 11
49.74523940643218
 21
366.9557925942144
 31
0.0
  0
LINE
  5
E88
330
1F
100
AcDbEntity
  8
0
 62
   253
 48
0.001467
370
    35
100
AcDbLine
 10
47.79434240643218
 20
368.9896675942143
 30
0.0
 11
47.75283840643218
 21
368.9481635942144
 31
0.0
  0
ARC
  5
E89
330
1F
100
AcDbEntity
  8
0
 62
   253
370
    35
100
AcDbCircle
 10
49.74182140643215
 20
368.9447765942143
 30
0.0
 40
1.988738999999999
100
AcDbArc
 50
179.9018549999993
 51
270.0981400000001
  0
LINE
  5
E8A
330
1F
100
AcDbEntity
  8
0
 62
   253
370
    35
100
AcDbLine
 10
49.74523940643218
 20
366.9557925942144
 30
0.0
 11
436.9604494064321
 21
366.9557925942144
 31
0.0
  0
ARC
  5
E8B
330
1F
100
AcDbEntity
  8
0
 62
   253
370
    35
100
AcDbCircle
 10
436.963867406432
 20
368.9447765942143
 30
0.0
 40
1.988738999999999
100
AcDbArc
 50
269.9018479999996
 51
0.0981429999997892
  0
LINE
  5
E8D
330
1F
100
AcDbEntity
  8
0
 62
   253
 48
0.003992
370
    35
100
AcDbLine
 10
143.1656804064321
 20
378.4828615942142
 30
0.0
 11
143.1838684064322
 21
378.6414925942144
 31
0.0
  0
LINE
  5
E8E
330
1F
100
AcDbEntity
  8
0
 62
   253
 48
0.004009
370
    35
100
AcDbLine
 10
343.5401004064321
 20
378.4821905942142
 30
0.0
 11
343.5218204064321
 21
378.6414925942144
 31
0.0
  0
LINE
  5
E8F
330
1F
100
AcDbEntity
  8
0
 62
   253
370
    35
100
AcDbLine
 10
164.0472414064321
 20
378.3772715942143
 30
0.0
 11
188.3528444064322
 21
378.3772715942143
 31
0.0
  0
LINE
  5
E90
330
1F
100
AcDbEntity
  8
0
 62
   253
370
    35
100
AcDbLine
 10
118.3528444064322
 20
378.3772715942143
 30
0.0
 11
142.6584474064322
 21
378.3772715942143
 31
0.0
  0
LINE
  5
E91
330
1F
100
AcDbEntity
  8
0
 62
   253
370
    35
100
AcDbLine
 10
344.0472414064321
 20
378.3772715942143
 30
0.0
 11
368.3528444064322
 21
378.3772715942143
 31
0.0
  0
LINE
  5
E92
330
1F
100
AcDbEntity
  8
0
 62
   253
370
    35
100
AcDbLine
 10
298.3528444064322
 20
378.3772715942143
 30
0.0
 11
322.6584474064322
 21
378.3772715942143
 31
0.0
  0
ARC
  5
E93
330
1F
100
AcDbEntity
  8
0
 62
   253
370
    35
100
AcDbCircle
 10
110.2537234064322
 20
401.2939585942143
 30
0.0
 40
22.428446
100
AcDbArc
 50
241.6492820000002
 51
242.9583560000003
  0
LINE
  5
E94
330
1F
100
AcDbEntity
  8
0
 62
   253
 48
0.005419
370
    35
100
AcDbLine
 10
99.60319540643221
 20
381.5556155942143
 30
0.0
 11
99.41166640643215
 21
381.6571175942144
 31
0.0
  0
POLYLINE
  5
E95
330
1F
100
AcDbEntity
  8
0
 62
   253
370
    35
100
AcDb2dPolyline
 66
     1
 10
0.0
 20
0.0
 30
0.0
  0
VERTEX
  5
E96
330
E95
100
AcDbEntity
  8
0
 62
   253
370
     0
100
AcDbVertex
100
AcDb2dVertex
 10
99.41166640643215
 20
381.6571175942144
 30
0.0
  0
VERTEX
  5
E97
330
E95
100
AcDbEntity
  8
0
 62
   253
370
     0
100
AcDbVertex
100
AcDb2dVertex
 10
99.16081240643215
 20
381.8162355942143
 30
0.0
  0
VERTEX
  5
E98
330
E95
100
AcDbEntity
  8
0
 62
   253
370
     0
100
AcDbVertex
100
AcDb2dVertex
 10
98.93750040643221
 20
382.0103885942143
 30
0.0
  0
VERTEX
  5
E99
330
E95
100
AcDbEntity
  8
0
 62
   253
370
     0
100
AcDbVertex
100
AcDb2dVertex
 10
98.74671940643221
 20
382.2346315942143
 30
0.0
  0
VERTEX
  5
E9A
330
E95
100
AcDbEntity
  8
0
 62
   253
370
     0
100
AcDbVertex
100
AcDb2dVertex
 10
98.56013440643218
 20
382.5457895942144
 30
0.0
  0
VERTEX
  5
E9B
330
E95
100
AcDbEntity
  8
0
 62
   253
370
     0
100
AcDbVertex
100
AcDb2dVertex
 10
98.43159440643221
 20
382.8837405942143
 30
0.0
  0
VERTEX
  5
E9C
330
E95
100
AcDbEntity
  8
0
 62
   253
370
     0
100
AcDbVertex
100
AcDb2dVertex
 10
98.36369340643216
 20
383.2367075942144
 30
0.0
  0
VERTEX
  5
E9D
330
E95
100
AcDbEntity
  8
0
 62
   253
370
     0
100
AcDbVertex
100
AcDb2dVertex
 10
98.35284440643221
 20
383.4466685942143
 30
0.0
  0
SEQEND
  5
E9E
330
E95
100
AcDbEntity
  8
0
 62
   253
370
     0
  0
ARC
  5
E9F
330
1F
100
AcDbEntity
  8
0
 62
   253
370
    35
100
AcDbCircle
 10
196.4519654064322
 20
401.2939585942143
 30
0.0
 40
22.428442
100
AcDbArc
 50
297.0416379999996
 51
298.3507189999997
  0
LINE
  5
EA0
330
1F
100
AcDbEntity
  8
0
 62
   253
 48
0.005418
370
    35
100
AcDbLine
 10
207.102508406432
 20
381.5556155942143
 30
0.0
 11
207.2940064064322
 21
381.6571175942144
 31
0.0
  0
POLYLINE
  5
EA1
330
1F
100
AcDbEntity
  8
0
 62
   253
370
    35
100
AcDb2dPolyline
 66
     1
 10
0.0
 20
0.0
 30
0.0
  0
VERTEX
  5
EA2
330
EA1
100
AcDbEntity
  8
0
 62
   253
370
     0
100
AcDbVertex
100
AcDb2dVertex
 10
207.2940064064322
 20
381.6571175942144
 30
0.0
  0
VERTEX
  5
EA3
330
EA1
100
AcDbEntity
  8
0
 62
   253
370
     0
100
AcDbVertex
100
AcDb2dVertex
 10
207.5448914064322
 20
381.8162355942143
 30
0.0
  0
VERTEX
  5
EA4
330
EA1
100
AcDbEntity
  8
0
 62
   253
370
     0
100
AcDbVertex
100
AcDb2dVertex
 10
207.7682194064322
 20
382.0104495942144
 30
0.0
  0
VERTEX
  5
EA5
330
EA1
100
AcDbEntity
  8
0
 62
   253
370
     0
100
AcDbVertex
100
AcDb2dVertex
 10
207.9589844064322
 20
382.2346925942142
 30
0.0
  0
VERTEX
  5
EA6
330
EA1
100
AcDbEntity
  8
0
 62
   253
370
     0
100
AcDbVertex
100
AcDb2dVertex
 10
208.1129454064322
 20
382.4812755942143
 30
0.0
  0
VERTEX
  5
EA7
330
EA1
100
AcDbEntity
  8
0
 62
   253
370
     0
100
AcDbVertex
100
AcDb2dVertex
 10
208.2298884064321
 20
382.7462285942143
 30
0.0
  0
VERTEX
  5
EA8
330
EA1
100
AcDbEntity
  8
0
 62
   253
370
     0
100
AcDbVertex
100
AcDb2dVertex
 10
208.3086854064322
 20
383.0239385942143
 30
0.0
  0
VERTEX
  5
EA9
330
EA1
100
AcDbEntity
  8
0
 62
   253
370
     0
100
AcDbVertex
100
AcDb2dVertex
 10
208.3417964064322
 20
383.2348155942143
 30
0.0
  0
VERTEX
  5
EAA
330
EA1
100
AcDbEntity
  8
0
 62
   253
370
     0
100
AcDbVertex
100
AcDb2dVertex
 10
208.3528444064322
 20
383.4466685942143
 30
0.0
  0
SEQEND
  5
EAB
330
EA1
100
AcDbEntity
  8
0
 62
   253
370
     0
  0
POLYLINE
  5
EAC
330
1F
100
AcDbEntity
  8
0
 62
   253
370
    35
100
AcDb2dPolyline
 66
     1
 10
0.0
 20
0.0
 30
0.0
  0
VERTEX
  5
EAD
330
EAC
100
AcDbEntity
  8
0
 62
   253
370
     0
100
AcDbVertex
100
AcDb2dVertex
 10
387.2940064064322
 20
381.6571175942144
 30
0.0
  0
VERTEX
  5
EAE
330
EAC
100
AcDbEntity
  8
0
 62
   253
370
     0
100
AcDbVertex
100
AcDb2dVertex
 10
387.5449214064321
 20
381.8162355942143
 30
0.0
  0
VERTEX
  5
EAF
330
EAC
100
AcDbEntity
  8
0
 62
   253
370
     0
100
AcDbVertex
100
AcDb2dVertex
 10
387.7681884064321
 20
382.0104495942144
 30
0.0
  0
VERTEX
  5
EB0
330
EAC
100
AcDbEntity
  8
0
 62
   253
370
     0
100
AcDbVertex
100
AcDb2dVertex
 10
387.9589844064321
 20
382.2346925942142
 30
0.0
  0
VERTEX
  5
EB1
330
EAC
100
AcDbEntity
  8
0
 62
   253
370
     0
100
AcDbVertex
100
AcDb2dVertex
 10
388.1129154064321
 20
382.4812755942143
 30
0.0
  0
VERTEX
  5
EB2
330
EAC
100
AcDbEntity
  8
0
 62
   253
370
     0
100
AcDbVertex
100
AcDb2dVertex
 10
388.2298584064321
 20
382.7462285942143
 30
0.0
  0
VERTEX
  5
EB3
330
EAC
100
AcDbEntity
  8
0
 62
   253
370
     0
100
AcDbVertex
100
AcDb2dVertex
 10
388.3087154064322
 20
383.0239385942143
 30
0.0
  0
VERTEX
  5
EB4
330
EAC
100
AcDbEntity
  8
0
 62
   253
370
     0
100
AcDbVertex
100
AcDb2dVertex
 10
388.3417964064321
 20
383.2348155942143
 30
0.0
  0
VERTEX
  5
EB5
330
EAC
100
AcDbEntity
  8
0
 62
   253
370
     0
100
AcDbVertex
100
AcDb2dVertex
 10
388.3528444064322
 20
383.4466685942143
 30
0.0
  0
SEQEND
  5
EB6
330
EAC
100
AcDbEntity
  8
0
 62
   253
370
     0
  0
ARC
  5
EB7
330
1F
100
AcDbEntity
  8
0
 62
   253
370
    35
100
AcDbCircle
 10
376.4519654064322
 20
401.2939585942143
 30
0.0
 40
22.428446
100
AcDbArc
 50
297.0416379999996
 51
298.3507189999997
  0
LINE
  5
EB8
330
1F
100
AcDbEntity
  8
0
 62
   253
 48
0.005419
370
    35
100
AcDbLine
 10
387.1024784064322
 20
381.5556155942143
 30
0.0
 11
387.2940064064322
 21
381.6571175942144
 31
0.0
  0
LINE
  5
EB9
330
1F
100
AcDbEntity
  8
0
 62
   253
 48
0.005418
370
    35
100
AcDbLine
 10
279.6031804064321
 20
381.5556155942143
 30
0.0
 11
279.4116824064322
 21
381.6571175942144
 31
0.0
  0
ARC
  5
EBA
330
1F
100
AcDbEntity
  8
0
 62
   253
370
    35
100
AcDbCircle
 10
290.2537234064322
 20
401.2939585942143
 30
0.0
 40
22.428442
100
AcDbArc
 50
241.6492820000002
 51
242.9583560000003
  0
POLYLINE
  5
EBB
330
1F
100
AcDbEntity
  8
0
 62
   253
370
    35
100
AcDb2dPolyline
 66
     1
 10
0.0
 20
0.0
 30
0.0
  0
VERTEX
  5
EBC
330
EBB
100
AcDbEntity
  8
0
 62
   253
370
     0
100
AcDbVertex
100
AcDb2dVertex
 10
279.4116824064322
 20
381.6571175942144
 30
0.0
  0
VERTEX
  5
EBD
330
EBB
100
AcDbEntity
  8
0
 62
   253
370
     0
100
AcDbVertex
100
AcDb2dVertex
 10
279.1607974064322
 20
381.8162355942143
 30
0.0
  0
VERTEX
  5
EBE
330
EBB
100
AcDbEntity
  8
0
 62
   253
370
     0
100
AcDbVertex
100
AcDb2dVertex
 10
278.9375004064322
 20
382.0103885942143
 30
0.0
  0
VERTEX
  5
EBF
330
EBB
100
AcDbEntity
  8
0
 62
   253
370
     0
100
AcDbVertex
100
AcDb2dVertex
 10
278.7467044064322
 20
382.2346925942142
 30
0.0
  0
VERTEX
  5
EC0
330
EBB
100
AcDbEntity
  8
0
 62
   253
370
     0
100
AcDbVertex
100
AcDb2dVertex
 10
278.5601194064322
 20
382.5457895942144
 30
0.0
  0
VERTEX
  5
EC1
330
EBB
100
AcDbEntity
  8
0
 62
   253
370
     0
100
AcDbVertex
100
AcDb2dVertex
 10
278.4315794064322
 20
382.8837405942143
 30
0.0
  0
VERTEX
  5
EC2
330
EBB
100
AcDbEntity
  8
0
 62
   253
370
     0
100
AcDbVertex
100
AcDb2dVertex
 10
278.3637084064322
 20
383.2367075942144
 30
0.0
  0
VERTEX
  5
EC3
330
EBB
100
AcDbEntity
  8
0
 62
   253
370
     0
100
AcDbVertex
100
AcDb2dVertex
 10
278.3528444064322
 20
383.4466685942143
 30
0.0
  0
SEQEND
  5
EC4
330
EBB
100
AcDbEntity
  8
0
 62
   253
370
     0
  0
LINE
  5
EC5
330
1F
100
AcDbEntity
  8
0
 62
   253
 48
0.4608090000000001
370
    35
100
AcDbLine
 10
47.75283840643218
 20
368.9481635942144
 30
0.0
 11
47.75283840643218
 21
387.3805055942142
 31
0.0
  0
LINE
  5
EC6
330
1F
100
AcDbEntity
  8
0
 62
   253
 48
0.4608090000000001
370
    35
100
AcDbLine
 10
438.9528804064322
 20
368.9481635942144
 30
0.0
 11
438.9528804064322
 21
387.3805055942142
 31
0.0
  0
LINE
  5
EC7
330
1F
100
AcDbEntity
  8
0
 62
   253
 48
0.1455
370
    35
100
AcDbLine
 10
118.3528444064322
 20
378.3773935942142
 30
0.0
 11
118.3528444064322
 21
384.1974005942144
 31
0.0
  0
LINE
  5
EC8
330
1F
100
AcDbEntity
  8
0
 62
   253
 48
0.074544
370
    35
100
AcDbLine
 10
118.3528444064322
 20
384.1974005942144
 30
0.0
 11
118.3528444064322
 21
387.1791515942143
 31
0.0
  0
LINE
  5
EC9
330
1F
100
AcDbEntity
  8
0
 62
   253
 48
0.1455
370
    35
100
AcDbLine
 10
188.3528444064322
 20
378.3773935942142
 30
0.0
 11
188.3528444064322
 21
384.1974005942144
 31
0.0
  0
LINE
  5
ECA
330
1F
100
AcDbEntity
  8
0
 62
   253
 48
0.074544
370
    35
100
AcDbLine
 10
188.3528444064322
 20
384.1974005942144
 30
0.0
 11
188.3528444064322
 21
387.1791515942143
 31
0.0
  0
LINE
  5
ECB
330
1F
100
AcDbEntity
  8
0
 62
   253
 48
0.074544
370
    35
100
AcDbLine
 10
368.3528444064322
 20
384.1974005942144
 30
0.0
 11
368.3528444064322
 21
387.1791515942143
 31
0.0
  0
LINE
  5
ECC
330
1F
100
AcDbEntity
  8
0
 62
   253
 48
0.1455
370
    35
100
AcDbLine
 10
368.3528444064322
 20
378.3773935942142
 30
0.0
 11
368.3528444064322
 21
384.1974005942144
 31
0.0
  0
LINE
  5
ECD
330
1F
100
AcDbEntity
  8
0
 62
   253
 48
0.1455
370
    35
100
AcDbLine
 10
298.3528444064322
 20
378.3773935942142
 30
0.0
 11
298.3528444064322
 21
384.1974005942144
 31
0.0
  0
LINE
  5
ECE
330
1F
100
AcDbEntity
  8
0
 62
   253
 48
0.074544
370
    35
100
AcDbLine
 10
298.3528444064322
 20
384.1974005942144
 30
0.0
 11
298.3528444064322
 21
387.1791515942143
 31
0.0
  0
LINE
  5
ECF
330
1F
100
AcDbEntity
  8
0
 62
   253
 48
0.067465
370
    35
100
AcDbLine
 10
50.94877640643215
 20
387.8786745942143
 30
0.0
 11
48.25018340643217
 21
387.8786745942143
 31
0.0
  0
LINE
  5
ED0
330
1F
100
AcDbEntity
  8
0
 62
   253
 48
0.013488
370
    35
100
AcDbLine
 10
50.94877640643215
 20
387.8786745942143
 30
0.0
 11
51.48831140643219
 21
387.8786745942143
 31
0.0
  0
LINE
  5
ED1
330
1F
100
AcDbEntity
  8
0
 62
   253
 48
0.024672
370
    35
100
AcDbLine
 10
52.47517440643215
 20
387.8786745942143
 30
0.0
 11
51.48831140643219
 21
387.8786745942143
 31
0.0
  0
LINE
  5
ED2
330
1F
100
AcDbEntity
  8
0
 62
   253
370
    35
100
AcDbLine
 10
52.47517440643215
 20
387.8786745942143
 30
0.0
 11
97.85284440643218
 21
387.8786745942143
 31
0.0
  0
LINE
  5
ED3
330
1F
100
AcDbEntity
  8
0
 62
   253
 48
0.093503
370
    35
100
AcDbLine
 10
98.35284440643221
 20
383.4466685942143
 30
0.0
 11
98.35284440643221
 21
387.1867805942143
 31
0.0
  0
LINE
  5
ED4
330
1F
100
AcDbEntity
  8
0
 62
   253
 48
0.004787
370
    35
100
AcDbLine
 10
98.35284440643221
 20
387.1867805942143
 30
0.0
 11
98.35284440643221
 21
387.3782475942143
 31
0.0
  0
LINE
  5
ED5
330
1F
100
AcDbEntity
  8
0
 62
   253
 48
0.004787
370
    35
100
AcDbLine
 10
208.3528444064322
 20
387.1867805942143
 30
0.0
 11
208.3528444064322
 21
387.3782475942143
 31
0.0
  0
LINE
  5
ED6
330
1F
100
AcDbEntity
  8
0
 62
   253
 48
0.093503
370
    35
100
AcDbLine
 10
208.3528444064322
 20
383.4466685942143
 30
0.0
 11
208.3528444064322
 21
387.1867805942143
 31
0.0
  0
LINE
  5
ED7
330
1F
100
AcDbEntity
  8
0
 62
   253
370
    35
100
AcDbLine
 10
388.8528444064322
 20
387.8786745942143
 30
0.0
 11
434.2305294064321
 21
387.8786745942143
 31
0.0
  0
LINE
  5
ED8
330
1F
100
AcDbEntity
  8
0
 62
   253
 48
0.024672
370
    35
100
AcDbLine
 10
435.2174074064321
 20
387.8786745942143
 30
0.0
 11
434.2305294064321
 21
387.8786745942143
 31
0.0
  0
LINE
  5
ED9
330
1F
100
AcDbEntity
  8
0
 62
   253
 48
0.013487
370
    35
100
AcDbLine
 10
435.2174074064321
 20
387.8786745942143
 30
0.0
 11
435.7568974064322
 21
387.8786745942143
 31
0.0
  0
LINE
  5
EDA
330
1F
100
AcDbEntity
  8
0
 62
   253
 48
0.067465
370
    35
100
AcDbLine
 10
438.455505406432
 20
387.8786745942143
 30
0.0
 11
435.7568974064322
 21
387.8786745942143
 31
0.0
  0
LINE
  5
EDB
330
1F
100
AcDbEntity
  8
0
 62
   253
 48
0.004787
370
    35
100
AcDbLine
 10
388.3528444064322
 20
387.1867805942143
 30
0.0
 11
388.3528444064322
 21
387.3782475942143
 31
0.0
  0
LINE
  5
EDC
330
1F
100
AcDbEntity
  8
0
 62
   253
 48
0.093503
370
    35
100
AcDbLine
 10
388.3528444064322
 20
383.4466685942143
 30
0.0
 11
388.3528444064322
 21
387.1867805942143
 31
0.0
  0
LINE
  5
EDD
330
1F
100
AcDbEntity
  8
0
 62
   253
 48
0.093503
370
    35
100
AcDbLine
 10
278.3528444064322
 20
383.4466685942143
 30
0.0
 11
278.3528444064322
 21
387.1867805942143
 31
0.0
  0
LINE
  5
EDE
330
1F
100
AcDbEntity
  8
0
 62
   253
 48
0.004787
370
    35
100
AcDbLine
 10
278.3528444064322
 20
387.1867805942143
 30
0.0
 11
278.3528444064322
 21
387.3782475942143
 31
0.0
  0
LINE
  5
EDF
330
1F
100
AcDbEntity
  8
0
 62
   253
370
    35
100
AcDbLine
 10
208.8528444064322
 20
387.8786745942143
 30
0.0
 11
277.8528444064322
 21
387.8786745942143
 31
0.0
  0
LINE
  5
EE0
330
1F
100
AcDbEntity
  8
0
 62
   253
 48
0.011659
370
    35
100
AcDbLine
 10
188.3528444064322
 20
387.1791515942143
 30
0.0
 11
188.3528444064322
 21
387.6455205942143
 31
0.0
  0
LINE
  5
EE1
330
1F
100
AcDbEntity
  8
0
 62
   253
 48
0.011659
370
    35
100
AcDbLine
 10
118.3528444064322
 20
387.1791515942143
 30
0.0
 11
118.3528444064322
 21
387.6455205942143
 31
0.0
  0
LINE
  5
EE2
330
1F
100
AcDbEntity
  8
0
 62
   253
 48
0.011659
370
    35
100
AcDbLine
 10
368.3528444064322
 20
387.1791515942143
 30
0.0
 11
368.3528444064322
 21
387.6455205942143
 31
0.0
  0
LINE
  5
EE3
330
1F
100
AcDbEntity
  8
0
 62
   253
 48
0.011659
370
    35
100
AcDbLine
 10
298.3528444064322
 20
387.1791515942143
 30
0.0
 11
298.3528444064322
 21
387.6455205942143
 31
0.0
  0
ARC
  5
EE4
330
1F
100
AcDbEntity
  8
0
 62
   253
370
    35
100
AcDbCircle
 10
388.8530884064321
 20
387.3784915942143
 30
0.0
 40
0.5002290000000002
100
AcDbArc
 50
90.03028800000008
 51
180.030184
  0
ARC
  5
EE5
330
1F
100
AcDbEntity
  8
0
 62
   253
370
    35
100
AcDbCircle
 10
438.4560544064322
 20
387.3820315942142
 30
0.0
 40
0.4966640000000001
100
AcDbArc
 50
359.8268249999994
 51
90.06193900000015
  0
ARC
  5
EE6
330
1F
100
AcDbEntity
  8
0
 62
   253
370
    35
100
AcDbCircle
 10
277.8525694064322
 20
387.3784915942143
 30
0.0
 40
0.5002290000000002
100
AcDbArc
 50
359.9698300000004
 51
89.96970399999979
  0
ARC
  5
EE7
330
1F
100
AcDbEntity
  8
0
 62
   253
370
    35
100
AcDbCircle
 10
208.8531184064322
 20
387.3784915942143
 30
0.0
 40
0.5002290000000002
100
AcDbArc
 50
90.03028800000008
 51
180.030184
  0
ARC
  5
EE8
330
1F
100
AcDbEntity
  8
0
 62
   253
370
    35
100
AcDbCircle
 10
97.85258440643218
 20
387.3784915942143
 30
0.0
 40
0.5002290000000002
100
AcDbArc
 50
359.9698300000004
 51
89.96970399999979
  0
ARC
  5
EE9
330
1F
100
AcDbEntity
  8
0
 62
   253
370
    35
100
AcDbCircle
 10
48.24964940643218
 20
387.3820315942142
 30
0.0
 40
0.4966640000000001
100
AcDbArc
 50
89.938066
 51
180.1731810000005
  0
LINE
  5
EEA
330
1F
100
AcDbEntity
  8
0
 62
   253
 48
0.016769
370
    35
100
AcDbLine
 10
368.3528444064322
 20
378.3593875942143
 30
0.0
 11
368.3528444064322
 21
377.6886115942142
 31
0.0
  0
LINE
  5
EEB
330
1F
100
AcDbEntity
  8
0
 62
   253
 48
0.067903
370
    35
100
AcDbLine
 10
368.3528444064322
 20
374.9724245942143
 30
0.0
 11
368.3528444064322
 21
377.6885505942143
 31
0.0
  0
LINE
  5
EEC
330
1F
100
AcDbEntity
  8
0
 62
   253
 48
0.000447
370
    35
100
AcDbLine
 10
368.3528444064322
 20
378.3772715942143
 30
0.0
 11
368.3528444064322
 21
378.3593875942143
 31
0.0
  0
ARC
  5
EED
330
1F
100
AcDbEntity
  8
0
 62
   253
370
    35
100
AcDbCircle
 10
387.5128174064321
 20
380.7357305942143
 30
0.0
 40
0.9169159999999999
100
AcDbArc
 50
102.8629490000001
 51
116.5844169999999
  0
ARC
  5
EEE
330
1F
100
AcDbEntity
  8
0
 62
   253
370
    35
100
AcDbCircle
 10
387.6030274064322
 20
380.4060795942143
 30
0.0
 40
1.258637999999999
100
AcDbArc
 50
97.86351100000031
 51
103.5258189999996
  0
LINE
  5
EEF
330
1F
100
AcDbEntity
  8
0
 62
   253
 48
0.007334
370
    35
100
AcDbLine
 10
387.4307864064322
 20
381.6529055942143
 30
0.0
 11
387.7214354064324
 21
381.6927005942143
 31
0.0
  0
LINE
  5
EF0
330
1F
100
AcDbEntity
  8
0
 62
   253
 48
0.000334
370
    35
100
AcDbLine
 10
387.7214354064324
 20
381.6927005942143
 30
0.0
 11
387.7346194064322
 21
381.6948375942143
 31
0.0
  0
LINE
  5
EF1
330
1F
100
AcDbEntity
  8
0
 62
   253
 48
0.002499
370
    35
100
AcDbLine
 10
368.3528444064322
 20
374.9724245942143
 30
0.0
 11
368.3528444064322
 21
374.8724495942143
 31
0.0
  0
POLYLINE
  5
EF2
330
1F
100
AcDbEntity
  8
0
 62
   253
370
    35
100
AcDb2dPolyline
 66
     1
 10
0.0
 20
0.0
 30
0.0
  0
VERTEX
  5
EF3
330
EF2
100
AcDbEntity
  8
0
 62
   253
370
     0
100
AcDbVertex
100
AcDb2dVertex
 10
368.3528444064322
 20
374.8724495942143
 30
0.0
  0
VERTEX
  5
EF4
330
EF2
100
AcDbEntity
  8
0
 62
   253
370
     0
100
AcDbVertex
100
AcDb2dVertex
 10
368.4291074064322
 20
374.8725405942142
 30
0.0
  0
VERTEX
  5
EF5
330
EF2
100
AcDbEntity
  8
0
 62
   253
370
     0
100
AcDbVertex
100
AcDb2dVertex
 10
370.1101684064322
 20
374.9161505942144
 30
0.0
  0
VERTEX
  5
EF6
330
EF2
100
AcDbEntity
  8
0
 62
   253
370
     0
100
AcDbVertex
100
AcDb2dVertex
 10
371.7781984064322
 20
375.0384035942143
 30
0.0
  0
VERTEX
  5
EF7
330
EF2
100
AcDbEntity
  8
0
 62
   253
370
     0
100
AcDbVertex
100
AcDb2dVertex
 10
373.4389644064322
 20
375.2385385942143
 30
0.0
  0
VERTEX
  5
EF8
330
EF2
100
AcDbEntity
  8
0
 62
   253
370
     0
100
AcDbVertex
100
AcDb2dVertex
 10
375.0868534064322
 20
375.5152105942144
 30
0.0
  0
VERTEX
  5
EF9
330
EF2
100
AcDbEntity
  8
0
 62
   253
370
     0
100
AcDbVertex
100
AcDb2dVertex
 10
376.7183224064322
 20
375.8671395942142
 30
0.0
  0
VERTEX
  5
EFA
330
EF2
100
AcDbEntity
  8
0
 62
   253
370
     0
100
AcDbVertex
100
AcDb2dVertex
 10
378.3323364064322
 20
376.2937135942144
 30
0.0
  0
VERTEX
  5
EFB
330
EF2
100
AcDbEntity
  8
0
 62
   253
370
     0
100
AcDbVertex
100
AcDb2dVertex
 10
379.6879274064322
 20
376.7140025942142
 30
0.0
  0
VERTEX
  5
EFC
330
EF2
100
AcDbEntity
  8
0
 62
   253
370
     0
100
AcDbVertex
100
AcDb2dVertex
 10
381.0354004064322
 20
377.1897715942143
 30
0.0
  0
VERTEX
  5
EFD
330
EF2
100
AcDbEntity
  8
0
 62
   253
370
     0
100
AcDbVertex
100
AcDb2dVertex
 10
382.3637084064322
 20
377.7176645942144
 30
0.0
  0
VERTEX
  5
EFE
330
EF2
100
AcDbEntity
  8
0
 62
   253
370
     0
100
AcDbVertex
100
AcDb2dVertex
 10
383.6687014064322
 20
378.2955455942143
 30
0.0
  0
VERTEX
  5
EFF
330
EF2
100
AcDbEntity
  8
0
 62
   253
370
     0
100
AcDbVertex
100
AcDb2dVertex
 10
384.9461064064322
 20
378.9208505942144
 30
0.0
  0
VERTEX
  5
F00
330
EF2
100
AcDbEntity
  8
0
 62
   253
370
     0
100
AcDbVertex
100
AcDb2dVertex
 10
386.1944584064321
 20
379.5923595942142
 30
0.0
  0
VERTEX
  5
F01
330
EF2
100
AcDbEntity
  8
0
 62
   253
370
     0
100
AcDbVertex
100
AcDb2dVertex
 10
387.5167844064321
 20
380.3737315942143
 30
0.0
  0
SEQEND
  5
F02
330
EF2
100
AcDbEntity
  8
0
 62
   253
370
     0
  0
POLYLINE
  5
F03
330
1F
100
AcDbEntity
  8
0
 62
   253
370
    35
100
AcDb2dPolyline
 66
     1
 10
0.0
 20
0.0
 30
0.0
  0
VERTEX
  5
F04
330
F03
100
AcDbEntity
  8
0
 62
   253
370
     0
100
AcDbVertex
100
AcDb2dVertex
 10
387.5167844064321
 20
380.3737315942143
 30
0.0
  0
VERTEX
  5
F05
330
F03
100
AcDbEntity
  8
0
 62
   253
370
     0
100
AcDbVertex
100
AcDb2dVertex
 10
387.7358394064323
 20
380.5486575942143
 30
0.0
  0
VERTEX
  5
F06
330
F03
100
AcDbEntity
  8
0
 62
   253
370
     0
100
AcDbVertex
100
AcDb2dVertex
 10
387.8718874064321
 20
380.7032595942143
 30
0.0
  0
VERTEX
  5
F07
330
F03
100
AcDbEntity
  8
0
 62
   253
370
     0
100
AcDbVertex
100
AcDb2dVertex
 10
388.0539554064322
 20
380.9864015942143
 30
0.0
  0
VERTEX
  5
F08
330
F03
100
AcDbEntity
  8
0
 62
   253
370
     0
100
AcDbVertex
100
AcDb2dVertex
 10
388.0996094064321
 20
381.0824715942143
 30
0.0
  0
VERTEX
  5
F09
330
F03
100
AcDbEntity
  8
0
 62
   253
370
     0
100
AcDbVertex
100
AcDb2dVertex
 10
388.1618044064322
 20
381.2714975942142
 30
0.0
  0
VERTEX
  5
F0A
330
F03
100
AcDbEntity
  8
0
 62
   253
370
     0
100
AcDbVertex
100
AcDb2dVertex
 10
388.1754154064322
 20
381.4066295942144
 30
0.0
  0
VERTEX
  5
F0B
330
F03
100
AcDbEntity
  8
0
 62
   253
370
     0
100
AcDbVertex
100
AcDb2dVertex
 10
388.1622314064322
 20
381.4935435942143
 30
0.0
  0
VERTEX
  5
F0C
330
F03
100
AcDbEntity
  8
0
 62
   253
370
     0
100
AcDbVertex
100
AcDb2dVertex
 10
388.0621334064321
 20
381.6319095942144
 30
0.0
  0
VERTEX
  5
F0D
330
F03
100
AcDbEntity
  8
0
 62
   253
370
     0
100
AcDbVertex
100
AcDb2dVertex
 10
387.9822994064322
 20
381.6704225942143
 30
0.0
  0
VERTEX
  5
F0E
330
F03
100
AcDbEntity
  8
0
 62
   253
370
     0
100
AcDbVertex
100
AcDb2dVertex
 10
387.8875734064322
 20
381.6907475942143
 30
0.0
  0
VERTEX
  5
F0F
330
F03
100
AcDbEntity
  8
0
 62
   253
370
     0
100
AcDbVertex
100
AcDb2dVertex
 10
387.8015134064321
 20
381.6952645942142
 30
0.0
  0
SEQEND
  5
F10
330
F03
100
AcDbEntity
  8
0
 62
   253
370
     0
  0
LINE
  5
F11
330
1F
100
AcDbEntity
  8
0
 62
   253
 48
0.001672
370
    35
100
AcDbLine
 10
387.8015134064321
 20
381.6952645942142
 30
0.0
 11
387.7346194064322
 21
381.6948375942143
 31
0.0
  0
LINE
  5
F12
330
1F
100
AcDbEntity
  8
0
 62
   253
 48
0.067903
370
    35
100
AcDbLine
 10
298.3528444064322
 20
374.9724245942143
 30
0.0
 11
298.3528444064322
 21
377.6885505942143
 31
0.0
  0
LINE
  5
F13
330
1F
100
AcDbEntity
  8
0
 62
   253
 48
0.016771
370
    35
100
AcDbLine
 10
298.3528444064322
 20
378.3593875942143
 30
0.0
 11
298.3528444064322
 21
377.6885505942143
 31
0.0
  0
LINE
  5
F14
330
1F
100
AcDbEntity
  8
0
 62
   253
 48
0.000447
370
    35
100
AcDbLine
 10
298.3528444064322
 20
378.3772715942143
 30
0.0
 11
298.3528444064322
 21
378.3593875942143
 31
0.0
  0
ARC
  5
F15
330
1F
100
AcDbEntity
  8
0
 62
   253
370
    35
100
AcDbCircle
 10
279.1929014064322
 20
380.7357305942143
 30
0.0
 40
0.9169159999999999
100
AcDbArc
 50
63.41558099999988
 51
77.13704899999971
  0
LINE
  5
F16
330
1F
100
AcDbEntity
  8
0
 62
   253
 48
0.000335
370
    35
100
AcDbLine
 10
278.9842534064322
 20
381.6927005942143
 30
0.0
 11
278.9710384064322
 21
381.6948375942143
 31
0.0
  0
LINE
  5
F17
330
1F
100
AcDbEntity
  8
0
 62
   253
 48
0.007334
370
    35
100
AcDbLine
 10
279.2749024064322
 20
381.6529055942143
 30
0.0
 11
278.9842534064322
 21
381.6927005942143
 31
0.0
  0
ARC
  5
F18
330
1F
100
AcDbEntity
  8
0
 62
   253
370
    35
100
AcDbCircle
 10
279.1026614064322
 20
380.4058965942143
 30
0.0
 40
1.258839999999997
100
AcDbArc
 50
76.47481400000002
 51
82.13620799999983
  0
LINE
  5
F19
330
1F
100
AcDbEntity
  8
0
 62
   253
 48
0.001672
370
    35
100
AcDbLine
 10
278.9041444064322
 20
381.6952645942142
 30
0.0
 11
278.9710384064322
 21
381.6948375942143
 31
0.0
  0
POLYLINE
  5
F1A
330
1F
100
AcDbEntity
  8
0
 62
   253
370
    35
100
AcDb2dPolyline
 66
     1
 10
0.0
 20
0.0
 30
0.0
  0
VERTEX
  5
F1B
330
F1A
100
AcDbEntity
  8
0
 62
   253
370
     0
100
AcDbVertex
100
AcDb2dVertex
 10
279.1889034064322
 20
380.3737315942143
 30
0.0
  0
VERTEX
  5
F1C
330
F1A
100
AcDbEntity
  8
0
 62
   253
370
     0
100
AcDbVertex
100
AcDb2dVertex
 10
278.9672854064321
 20
380.5512215942144
 30
0.0
  0
VERTEX
  5
F1D
330
F1A
100
AcDbEntity
  8
0
 62
   253
370
     0
100
AcDbVertex
100
AcDb2dVertex
 10
278.8312374064322
 20
380.7066165942143
 30
0.0
  0
VERTEX
  5
F1E
330
F1A
100
AcDbEntity
  8
0
 62
   253
370
     0
100
AcDbVertex
100
AcDb2dVertex
 10
278.7047114064322
 20
380.8917975942143
 30
0.0
  0
VERTEX
  5
F1F
330
F1A
100
AcDbEntity
  8
0
 62
   253
370
     0
100
AcDbVertex
100
AcDb2dVertex
 10
278.6044614064322
 20
381.0861335942144
 30
0.0
  0
VERTEX
  5
F20
330
F1A
100
AcDbEntity
  8
0
 62
   253
370
     0
100
AcDbVertex
100
AcDb2dVertex
 10
278.5431214064322
 20
381.2750375942142
 30
0.0
  0
VERTEX
  5
F21
330
F1A
100
AcDbEntity
  8
0
 62
   253
370
     0
100
AcDbVertex
100
AcDb2dVertex
 10
278.5304264064322
 20
381.4101695942142
 30
0.0
  0
VERTEX
  5
F22
330
F1A
100
AcDbEntity
  8
0
 62
   253
370
     0
100
AcDbVertex
100
AcDb2dVertex
 10
278.5446774064322
 20
381.4973885942143
 30
0.0
  0
VERTEX
  5
F23
330
F1A
100
AcDbEntity
  8
0
 62
   253
370
     0
100
AcDbVertex
100
AcDb2dVertex
 10
278.6404724064322
 20
381.6297735942143
 30
0.0
  0
VERTEX
  5
F24
330
F1A
100
AcDbEntity
  8
0
 62
   253
370
     0
100
AcDbVertex
100
AcDb2dVertex
 10
278.6936954064322
 20
381.6591315942143
 30
0.0
  0
VERTEX
  5
F25
330
F1A
100
AcDbEntity
  8
0
 62
   253
370
     0
100
AcDbVertex
100
AcDb2dVertex
 10
278.7762454064321
 20
381.6841555942143
 30
0.0
  0
VERTEX
  5
F26
330
F1A
100
AcDbEntity
  8
0
 62
   253
370
     0
100
AcDbVertex
100
AcDb2dVertex
 10
278.9041444064322
 20
381.6952645942142
 30
0.0
  0
SEQEND
  5
F27
330
F1A
100
AcDbEntity
  8
0
 62
   253
370
     0
  0
LINE
  5
F28
330
1F
100
AcDbEntity
  8
0
 62
   253
 48
0.002499
370
    35
100
AcDbLine
 10
298.3528444064322
 20
374.9724245942143
 30
0.0
 11
298.3528444064322
 21
374.8724495942143
 31
0.0
  0
POLYLINE
  5
F29
330
1F
100
AcDbEntity
  8
0
 62
   253
370
    35
100
AcDb2dPolyline
 66
     1
 10
0.0
 20
0.0
 30
0.0
  0
VERTEX
  5
F2A
330
F29
100
AcDbEntity
  8
0
 62
   253
370
     0
100
AcDbVertex
100
AcDb2dVertex
 10
298.3528444064322
 20
374.8724495942143
 30
0.0
  0
VERTEX
  5
F2B
330
F29
100
AcDbEntity
  8
0
 62
   253
370
     0
100
AcDbVertex
100
AcDb2dVertex
 10
296.9468074064322
 20
374.9004035942144
 30
0.0
  0
VERTEX
  5
F2C
330
F29
100
AcDbEntity
  8
0
 62
   253
370
     0
100
AcDbVertex
100
AcDb2dVertex
 10
295.5392154064321
 20
374.9844185942143
 30
0.0
  0
VERTEX
  5
F2D
330
F29
100
AcDbEntity
  8
0
 62
   253
370
     0
100
AcDbVertex
100
AcDb2dVertex
 10
294.1259764064323
 20
375.1251345942143
 30
0.0
  0
VERTEX
  5
F2E
330
F29
100
AcDbEntity
  8
0
 62
   253
370
     0
100
AcDbVertex
100
AcDb2dVertex
 10
292.7201534064322
 20
375.3216075942144
 30
0.0
  0
VERTEX
  5
F2F
330
F29
100
AcDbEntity
  8
0
 62
   253
370
     0
100
AcDbVertex
100
AcDb2dVertex
 10
291.3247684064322
 20
375.5728275942142
 30
0.0
  0
VERTEX
  5
F30
330
F29
100
AcDbEntity
  8
0
 62
   253
370
     0
100
AcDbVertex
100
AcDb2dVertex
 10
289.9414674064321
 20
375.8781865942143
 30
0.0
  0
VERTEX
  5
F31
330
F29
100
AcDbEntity
  8
0
 62
   253
370
     0
100
AcDbVertex
100
AcDb2dVertex
 10
288.5738524064322
 20
376.2364015942143
 30
0.0
  0
VERTEX
  5
F32
330
F29
100
AcDbEntity
  8
0
 62
   253
370
     0
100
AcDbVertex
100
AcDb2dVertex
 10
287.2179564064321
 20
376.6482675942143
 30
0.0
  0
VERTEX
  5
F33
330
F29
100
AcDbEntity
  8
0
 62
   253
370
     0
100
AcDbVertex
100
AcDb2dVertex
 10
285.8680724064322
 20
377.1162235942143
 30
0.0
  0
VERTEX
  5
F34
330
F29
100
AcDbEntity
  8
0
 62
   253
370
     0
100
AcDbVertex
100
AcDb2dVertex
 10
284.5366214064322
 20
377.6365485942142
 30
0.0
  0
VERTEX
  5
F35
330
F29
100
AcDbEntity
  8
0
 62
   253
370
     0
100
AcDbVertex
100
AcDb2dVertex
 10
283.2258914064322
 20
378.2081425942144
 30
0.0
  0
VERTEX
  5
F36
330
F29
100
AcDbEntity
  8
0
 62
   253
370
     0
100
AcDbVertex
100
AcDb2dVertex
 10
281.9413454064322
 20
378.8281375942144
 30
0.0
  0
VERTEX
  5
F37
330
F29
100
AcDbEntity
  8
0
 62
   253
370
     0
100
AcDbVertex
100
AcDb2dVertex
 10
280.6912844064322
 20
379.4917125942143
 30
0.0
  0
VERTEX
  5
F38
330
F29
100
AcDbEntity
  8
0
 62
   253
370
     0
100
AcDbVertex
100
AcDb2dVertex
 10
279.4729304064322
 20
380.1994755942143
 30
0.0
  0
VERTEX
  5
F39
330
F29
100
AcDbEntity
  8
0
 62
   253
370
     0
100
AcDbVertex
100
AcDb2dVertex
 10
279.1889034064322
 20
380.3737315942143
 30
0.0
  0
SEQEND
  5
F3A
330
F29
100
AcDbEntity
  8
0
 62
   253
370
     0
  0
LINE
  5
F3B
330
1F
100
AcDbEntity
  8
0
 62
   253
 48
0.016771
370
    35
100
AcDbLine
 10
188.3528444064322
 20
378.3593875942143
 30
0.0
 11
188.3528444064322
 21
377.6885505942143
 31
0.0
  0
LINE
  5
F3C
330
1F
100
AcDbEntity
  8
0
 62
   253
 48
0.067903
370
    35
100
AcDbLine
 10
188.3528444064322
 20
374.9724245942143
 30
0.0
 11
188.3528444064322
 21
377.6885505942143
 31
0.0
  0
LINE
  5
F3D
330
1F
100
AcDbEntity
  8
0
 62
   253
 48
0.000447
370
    35
100
AcDbLine
 10
188.3528444064322
 20
378.3772715942143
 30
0.0
 11
188.3528444064322
 21
378.3593875942143
 31
0.0
  0
ARC
  5
F3E
330
1F
100
AcDbEntity
  8
0
 62
   253
370
    35
100
AcDbCircle
 10
207.5129394064322
 20
380.7355475942143
 30
0.0
 40
0.9171229999999999
100
AcDbArc
 50
102.8694519999996
 51
116.5878320000003
  0
ARC
  5
F3F
330
1F
100
AcDbEntity
  8
0
 62
   253
370
    35
100
AcDbCircle
 10
207.6031184064321
 20
380.4060185942144
 30
0.0
 40
1.258703
100
AcDbArc
 50
97.868408
 51
103.5304230000001
  0
LINE
  5
F40
330
1F
100
AcDbEntity
  8
0
 62
   253
 48
0.007334
370
    35
100
AcDbLine
 10
207.4307864064321
 20
381.6529055942143
 30
0.0
 11
207.7214354064321
 21
381.6927005942143
 31
0.0
  0
LINE
  5
F41
330
1F
100
AcDbEntity
  8
0
 62
   253
 48
0.000335
370
    35
100
AcDbLine
 10
207.7214354064321
 20
381.6927005942143
 30
0.0
 11
207.7346494064322
 21
381.6948375942143
 31
0.0
  0
LINE
  5
F42
330
1F
100
AcDbEntity
  8
0
 62
   253
 48
0.002499
370
    35
100
AcDbLine
 10
188.3528444064322
 20
374.9724245942143
 30
0.0
 11
188.3528444064322
 21
374.8724495942143
 31
0.0
  0
POLYLINE
  5
F43
330
1F
100
AcDbEntity
  8
0
 62
   253
370
    35
100
AcDb2dPolyline
 66
     1
 10
0.0
 20
0.0
 30
0.0
  0
VERTEX
  5
F44
330
F43
100
AcDbEntity
  8
0
 62
   253
370
     0
100
AcDbVertex
100
AcDb2dVertex
 10
188.3528444064322
 20
374.8724495942143
 30
0.0
  0
VERTEX
  5
F45
330
F43
100
AcDbEntity
  8
0
 62
   253
370
     0
100
AcDbVertex
100
AcDb2dVertex
 10
188.4291074064322
 20
374.8725405942142
 30
0.0
  0
VERTEX
  5
F46
330
F43
100
AcDbEntity
  8
0
 62
   253
370
     0
100
AcDbVertex
100
AcDb2dVertex
 10
190.1101684064321
 20
374.9161505942144
 30
0.0
  0
VERTEX
  5
F47
330
F43
100
AcDbEntity
  8
0
 62
   253
370
     0
100
AcDbVertex
100
AcDb2dVertex
 10
191.7781984064322
 20
375.0384035942143
 30
0.0
  0
VERTEX
  5
F48
330
F43
100
AcDbEntity
  8
0
 62
   253
370
     0
100
AcDbVertex
100
AcDb2dVertex
 10
193.438964406432
 20
375.2385385942143
 30
0.0
  0
VERTEX
  5
F49
330
F43
100
AcDbEntity
  8
0
 62
   253
370
     0
100
AcDbVertex
100
AcDb2dVertex
 10
195.0868534064321
 20
375.5152105942144
 30
0.0
  0
VERTEX
  5
F4A
330
F43
100
AcDbEntity
  8
0
 62
   253
370
     0
100
AcDbVertex
100
AcDb2dVertex
 10
196.7183224064321
 20
375.8671395942142
 30
0.0
  0
VERTEX
  5
F4B
330
F43
100
AcDbEntity
  8
0
 62
   253
370
     0
100
AcDbVertex
100
AcDb2dVertex
 10
198.3323364064322
 20
376.2937135942144
 30
0.0
  0
VERTEX
  5
F4C
330
F43
100
AcDbEntity
  8
0
 62
   253
370
     0
100
AcDbVertex
100
AcDb2dVertex
 10
199.6879274064322
 20
376.7140025942142
 30
0.0
  0
VERTEX
  5
F4D
330
F43
100
AcDbEntity
  8
0
 62
   253
370
     0
100
AcDbVertex
100
AcDb2dVertex
 10
201.0353694064322
 20
377.1897715942143
 30
0.0
  0
VERTEX
  5
F4E
330
F43
100
AcDbEntity
  8
0
 62
   253
370
     0
100
AcDbVertex
100
AcDb2dVertex
 10
202.3637394064321
 20
377.7176645942144
 30
0.0
  0
VERTEX
  5
F4F
330
F43
100
AcDbEntity
  8
0
 62
   253
370
     0
100
AcDbVertex
100
AcDb2dVertex
 10
203.6687314064322
 20
378.2955455942143
 30
0.0
  0
VERTEX
  5
F50
330
F43
100
AcDbEntity
  8
0
 62
   253
370
     0
100
AcDbVertex
100
AcDb2dVertex
 10
204.9461064064322
 20
378.9208505942144
 30
0.0
  0
VERTEX
  5
F51
330
F43
100
AcDbEntity
  8
0
 62
   253
370
     0
100
AcDbVertex
100
AcDb2dVertex
 10
206.194458406432
 20
379.5923595942142
 30
0.0
  0
VERTEX
  5
F52
330
F43
100
AcDbEntity
  8
0
 62
   253
370
     0
100
AcDbVertex
100
AcDb2dVertex
 10
207.5167844064322
 20
380.3737315942143
 30
0.0
  0
SEQEND
  5
F53
330
F43
100
AcDbEntity
  8
0
 62
   253
370
     0
  0
POLYLINE
  5
F54
330
1F
100
AcDbEntity
  8
0
 62
   253
370
    35
100
AcDb2dPolyline
 66
     1
 10
0.0
 20
0.0
 30
0.0
  0
VERTEX
  5
F55
330
F54
100
AcDbEntity
  8
0
 62
   253
370
     0
100
AcDbVertex
100
AcDb2dVertex
 10
207.5167844064322
 20
380.3737315942143
 30
0.0
  0
VERTEX
  5
F56
330
F54
100
AcDbEntity
  8
0
 62
   253
370
     0
100
AcDbVertex
100
AcDb2dVertex
 10
207.7384034064321
 20
380.5512215942144
 30
0.0
  0
VERTEX
  5
F57
330
F54
100
AcDbEntity
  8
0
 62
   253
370
     0
100
AcDbVertex
100
AcDb2dVertex
 10
207.8744504064322
 20
380.7066165942143
 30
0.0
  0
VERTEX
  5
F58
330
F54
100
AcDbEntity
  8
0
 62
   253
370
     0
100
AcDbVertex
100
AcDb2dVertex
 10
208.0009764064322
 20
380.8917975942143
 30
0.0
  0
VERTEX
  5
F59
330
F54
100
AcDbEntity
  8
0
 62
   253
370
     0
100
AcDbVertex
100
AcDb2dVertex
 10
208.101226406432
 20
381.0861335942144
 30
0.0
  0
VERTEX
  5
F5A
330
F54
100
AcDbEntity
  8
0
 62
   253
370
     0
100
AcDbVertex
100
AcDb2dVertex
 10
208.1625674064322
 20
381.2750375942142
 30
0.0
  0
VERTEX
  5
F5B
330
F54
100
AcDbEntity
  8
0
 62
   253
370
     0
100
AcDbVertex
100
AcDb2dVertex
 10
208.1752624064322
 20
381.4101695942142
 30
0.0
  0
VERTEX
  5
F5C
330
F54
100
AcDbEntity
  8
0
 62
   253
370
     0
100
AcDbVertex
100
AcDb2dVertex
 10
208.1610104064322
 20
381.4973885942143
 30
0.0
  0
VERTEX
  5
F5D
330
F54
100
AcDbEntity
  8
0
 62
   253
370
     0
100
AcDbVertex
100
AcDb2dVertex
 10
208.0652164064322
 20
381.6297735942143
 30
0.0
  0
VERTEX
  5
F5E
330
F54
100
AcDbEntity
  8
0
 62
   253
370
     0
100
AcDbVertex
100
AcDb2dVertex
 10
208.0119934064322
 20
381.6591315942143
 30
0.0
  0
VERTEX
  5
F5F
330
F54
100
AcDbEntity
  8
0
 62
   253
370
     0
100
AcDbVertex
100
AcDb2dVertex
 10
207.9294434064321
 20
381.6841555942143
 30
0.0
  0
VERTEX
  5
F60
330
F54
100
AcDbEntity
  8
0
 62
   253
370
     0
100
AcDbVertex
100
AcDb2dVertex
 10
207.8015444064322
 20
381.6952645942142
 30
0.0
  0
SEQEND
  5
F61
330
F54
100
AcDbEntity
  8
0
 62
   253
370
     0
  0
LINE
  5
F62
330
1F
100
AcDbEntity
  8
0
 62
   253
 48
0.001672
370
    35
100
AcDbLine
 10
207.8015444064322
 20
381.6952645942142
 30
0.0
 11
207.7346494064322
 21
381.6948375942143
 31
0.0
  0
LINE
  5
F63
330
1F
100
AcDbEntity
  8
0
 62
   253
 48
0.067903
370
    35
100
AcDbLine
 10
118.3528444064322
 20
374.9724245942143
 30
0.0
 11
118.3528444064322
 21
377.6885505942143
 31
0.0
  0
LINE
  5
F64
330
1F
100
AcDbEntity
  8
0
 62
   253
 48
0.016769
370
    35
100
AcDbLine
 10
118.3528444064322
 20
378.3593875942143
 30
0.0
 11
118.3528444064322
 21
377.6886115942142
 31
0.0
  0
LINE
  5
F65
330
1F
100
AcDbEntity
  8
0
 62
   253
 48
0.000447
370
    35
100
AcDbLine
 10
118.3528444064322
 20
378.3772715942143
 30
0.0
 11
118.3528444064322
 21
378.3593875942143
 31
0.0
  0
ARC
  5
F66
330
1F
100
AcDbEntity
  8
0
 62
   253
370
    35
100
AcDbCircle
 10
99.19288640643221
 20
380.7357305942143
 30
0.0
 40
0.916947
100
AcDbArc
 50
63.41582699999972
 51
77.13683699999967
  0
LINE
  5
F67
330
1F
100
AcDbEntity
  8
0
 62
   253
 48
0.000334
370
    35
100
AcDbLine
 10
98.97103840643218
 20
381.6948375942143
 30
0.0
 11
98.98423740643217
 21
381.6927005942143
 31
0.0
  0
LINE
  5
F68
330
1F
100
AcDbEntity
  8
0
 62
   253
 48
0.007334
370
    35
100
AcDbLine
 10
98.98423740643217
 20
381.6927005942143
 30
0.0
 11
99.27488740643216
 21
381.6529055942143
 31
0.0
  0
ARC
  5
F69
330
1F
100
AcDbEntity
  8
0
 62
   253
370
    35
100
AcDbCircle
 10
99.10267640643221
 20
380.4060795942143
 30
0.0
 40
1.258636
100
AcDbArc
 50
76.47417899999975
 51
82.13649500000007
  0
LINE
  5
F6A
330
1F
100
AcDbEntity
  8
0
 62
   253
 48
0.002499
370
    35
100
AcDbLine
 10
118.3528444064322
 20
374.8724495942143
 30
0.0
 11
118.3528444064322
 21
374.9724245942143
 31
0.0
  0
POLYLINE
  5
F6B
330
1F
100
AcDbEntity
  8
0
 62
   253
370
    35
100
AcDb2dPolyline
 66
     1
 10
0.0
 20
0.0
 30
0.0
  0
VERTEX
  5
F6C
330
F6B
100
AcDbEntity
  8
0
 62
   253
370
     0
100
AcDbVertex
100
AcDb2dVertex
 10
99.1889194064322
 20
380.3737315942143
 30
0.0
  0
VERTEX
  5
F6D
330
F6B
100
AcDbEntity
  8
0
 62
   253
370
     0
100
AcDbVertex
100
AcDb2dVertex
 10
99.8831174064322
 20
379.9541145942143
 30
0.0
  0
VERTEX
  5
F6E
330
F6B
100
AcDbEntity
  8
0
 62
   253
370
     0
100
AcDbVertex
100
AcDb2dVertex
 10
101.0835724064321
 20
379.2768685942143
 30
0.0
  0
VERTEX
  5
F6F
330
F6B
100
AcDbEntity
  8
0
 62
   253
370
     0
100
AcDbVertex
100
AcDb2dVertex
 10
102.3130494064321
 20
378.6424685942143
 30
0.0
  0
VERTEX
  5
F70
330
F6B
100
AcDbEntity
  8
0
 62
   253
370
     0
100
AcDbVertex
100
AcDb2dVertex
 10
103.5772094064322
 20
378.0489635942144
 30
0.0
  0
VERTEX
  5
F71
330
F6B
100
AcDbEntity
  8
0
 62
   253
370
     0
100
AcDbVertex
100
AcDb2dVertex
 10
104.8657074064321
 20
377.5023935942142
 30
0.0
  0
VERTEX
  5
F72
330
F6B
100
AcDbEntity
  8
0
 62
   253
370
     0
100
AcDbVertex
100
AcDb2dVertex
 10
106.1754454064322
 20
377.0045295942143
 30
0.0
  0
VERTEX
  5
F73
330
F6B
100
AcDbEntity
  8
0
 62
   253
370
     0
100
AcDbVertex
100
AcDb2dVertex
 10
107.5017854064321
 20
376.5573245942144
 30
0.0
  0
VERTEX
  5
F74
330
F6B
100
AcDbEntity
  8
0
 62
   253
370
     0
100
AcDbVertex
100
AcDb2dVertex
 10
108.8368534064321
 20
376.1630985942143
 30
0.0
  0
VERTEX
  5
F75
330
F6B
100
AcDbEntity
  8
0
 62
   253
370
     0
100
AcDbVertex
100
AcDb2dVertex
 10
110.1833804064322
 20
375.8206915942143
 30
0.0
  0
VERTEX
  5
F76
330
F6B
100
AcDbEntity
  8
0
 62
   253
370
     0
100
AcDbVertex
100
AcDb2dVertex
 10
111.5324704064321
 20
375.5318735942144
 30
0.0
  0
VERTEX
  5
F77
330
F6B
100
AcDbEntity
  8
0
 62
   253
370
     0
100
AcDbVertex
100
AcDb2dVertex
 10
112.8928374064321
 20
375.2944465942143
 30
0.0
  0
VERTEX
  5
F78
330
F6B
100
AcDbEntity
  8
0
 62
   253
370
     0
100
AcDbVertex
100
AcDb2dVertex
 10
114.2627714064322
 20
375.1090825942143
 30
0.0
  0
VERTEX
  5
F79
330
F6B
100
AcDbEntity
  8
0
 62
   253
370
     0
100
AcDbVertex
100
AcDb2dVertex
 10
115.2837524064322
 20
375.0056285942144
 30
0.0
  0
VERTEX
  5
F7A
330
F6B
100
AcDbEntity
  8
0
 62
   253
370
     0
100
AcDbVertex
100
AcDb2dVertex
 10
116.3070224064322
 20
374.9316535942144
 30
0.0
  0
VERTEX
  5
F7B
330
F6B
100
AcDbEntity
  8
0
 62
   253
370
     0
100
AcDbVertex
100
AcDb2dVertex
 10
117.3307494064321
 20
374.8872195942142
 30
0.0
  0
VERTEX
  5
F7C
330
F6B
100
AcDbEntity
  8
0
 62
   253
370
     0
100
AcDbVertex
100
AcDb2dVertex
 10
118.3528444064322
 20
374.8724495942143
 30
0.0
  0
SEQEND
  5
F7D
330
F6B
100
AcDbEntity
  8
0
 62
   253
370
     0
  0
POLYLINE
  5
F7E
330
1F
100
AcDbEntity
  8
0
 62
   253
370
    35
100
AcDb2dPolyline
 66
     1
 10
0.0
 20
0.0
 30
0.0
  0
VERTEX
  5
F7F
330
F7E
100
AcDbEntity
  8
0
 62
   253
370
     0
100
AcDbVertex
100
AcDb2dVertex
 10
99.1889194064322
 20
380.3737315942143
 30
0.0
  0
VERTEX
  5
F80
330
F7E
100
AcDbEntity
  8
0
 62
   253
370
     0
100
AcDbVertex
100
AcDb2dVertex
 10
98.96981840643215
 20
380.5486575942143
 30
0.0
  0
VERTEX
  5
F81
330
F7E
100
AcDbEntity
  8
0
 62
   253
370
     0
100
AcDbVertex
100
AcDb2dVertex
 10
98.83380140643218
 20
380.7032595942143
 30
0.0
  0
VERTEX
  5
F82
330
F7E
100
AcDbEntity
  8
0
 62
   253
370
     0
100
AcDbVertex
100
AcDb2dVertex
 10
98.6517484064322
 20
380.9864015942143
 30
0.0
  0
VERTEX
  5
F83
330
F7E
100
AcDbEntity
  8
0
 62
   253
370
     0
100
AcDbVertex
100
AcDb2dVertex
 10
98.60604840643221
 20
381.0824715942143
 30
0.0
  0
VERTEX
  5
F84
330
F7E
100
AcDbEntity
  8
0
 62
   253
370
     0
100
AcDbVertex
100
AcDb2dVertex
 10
98.54386940643221
 20
381.2714975942142
 30
0.0
  0
VERTEX
  5
F85
330
F7E
100
AcDbEntity
  8
0
 62
   253
370
     0
100
AcDbVertex
100
AcDb2dVertex
 10
98.53030440643221
 20
381.4066295942144
 30
0.0
  0
VERTEX
  5
F86
330
F7E
100
AcDbEntity
  8
0
 62
   253
370
     0
100
AcDbVertex
100
AcDb2dVertex
 10
98.54348740643215
 20
381.4935435942143
 30
0.0
  0
VERTEX
  5
F87
330
F7E
100
AcDbEntity
  8
0
 62
   253
370
     0
100
AcDbVertex
100
AcDb2dVertex
 10
98.64355440643223
 20
381.6319095942144
 30
0.0
  0
VERTEX
  5
F88
330
F7E
100
AcDbEntity
  8
0
 62
   253
370
     0
100
AcDbVertex
100
AcDb2dVertex
 10
98.72338840643221
 20
381.6704225942143
 30
0.0
  0
VERTEX
  5
F89
330
F7E
100
AcDbEntity
  8
0
 62
   253
370
     0
100
AcDbVertex
100
AcDb2dVertex
 10
98.81810040643221
 20
381.6907475942143
 30
0.0
  0
VERTEX
  5
F8A
330
F7E
100
AcDbEntity
  8
0
 62
   253
370
     0
100
AcDbVertex
100
AcDb2dVertex
 10
98.90414440643221
 20
381.6952645942142
 30
0.0
  0
SEQEND
  5
F8B
330
F7E
100
AcDbEntity
  8
0
 62
   253
370
     0
  0
LINE
  5
F8C
330
1F
100
AcDbEntity
  8
0
 62
   253
 48
0.001672
370
    35
100
AcDbLine
 10
98.97103840643218
 20
381.6948375942143
 30
0.0
 11
98.90414440643221
 21
381.6952645942142
 31
0.0
  0
ELLIPSE
  5
F8D
330
1F
100
AcDbEntity
  8
0
 62
   253
370
    35
100
AcDbEllipse
 10
340.4715574064322
 20
370.1071295942144
 30
0.0
 11
0.14166259765625
 21
-0.14117431640625
 31
0.0
210
0.0
220
0.0
230
0.9999999999999998
 40
0.012362
 41
4.724709579236653
 42
6.295505906031637
  0
LINE
  5
F8E
330
1F
100
AcDbEntity
  8
0
 62
   253
 48
0.008305
370
    35
100
AcDbLine
 10
344.0472414064321
 20
378.3772715942143
 30
0.0
 11
343.7150574064322
 21
378.3783695942144
 31
0.0
  0
LINE
  5
F8F
330
1F
100
AcDbEntity
  8
0
 62
   253
 48
0.008305
370
    35
100
AcDbLine
 10
322.6584474064322
 20
378.3772715942143
 30
0.0
 11
322.9906314064322
 21
378.3783695942144
 31
0.0
  0
LINE
  5
F90
330
1F
100
AcDbEntity
  8
0
 62
   253
 48
0.000035
370
    35
100
AcDbLine
 10
322.9906314064322
 20
378.3783695942144
 30
0.0
 11
322.9920344064321
 21
378.3784915942143
 31
0.0
  0
LINE
  5
F91
330
1F
100
AcDbEntity
  8
0
 62
   253
370
    35
100
AcDbLine
 10
368.3528444064322
 20
374.8724495942143
 30
0.0
 11
343.5256654064322
 21
374.8724495942143
 31
0.0
  0
LINE
  5
F92
330
1F
100
AcDbEntity
  8
0
 62
   253
370
    35
100
AcDbLine
 10
323.1800234064322
 20
374.8724495942143
 30
0.0
 11
298.3528444064322
 21
374.8724495942143
 31
0.0
  0
ELLIPSE
  5
F93
330
1F
100
AcDbEntity
  8
0
 62
   253
370
    35
100
AcDbEllipse
 10
333.3528444064322
 20
377.2002085942144
 30
0.0
 11
10.25
 21
0.0
 31
0.0
210
0.0
220
0.0
230
1.0
 40
0.9998479999999998
 41
6.037680563740678
 42
6.273490272901432
  0
ELLIPSE
  5
F94
330
1F
100
AcDbEntity
  8
0
 62
   253
370
    35
100
AcDbEllipse
 10
333.3528444064322
 20
377.2002085942144
 30
0.0
 11
10.25
 21
0.0
 31
0.0
210
0.0
220
0.0
230
1.0
 40
0.9998479999999998
 41
3.151287724727181
 42
3.387097425448886
  0
LINE
  5
F95
330
1F
100
AcDbEntity
  8
0
 62
   253
 48
0.000475
370
    35
100
AcDbLine
 10
323.1889644064322
 20
378.5525035942144
 30
0.0
 11
323.1889644064322
 21
378.5335215942144
 31
0.0
  0
LINE
  5
F96
330
1F
100
AcDbEntity
  8
0
 62
   253
 48
0.004067
370
    35
100
AcDbLine
 10
323.1889644064322
 20
378.5335215942144
 30
0.0
 11
323.1700744064322
 21
378.3719615942142
 31
0.0
  0
ELLIPSE
  5
F97
330
1F
100
AcDbEntity
  8
0
 62
   253
370
    35
100
AcDbEllipse
 10
333.3528444064322
 20
377.2002085942144
 30
0.0
 11
10.25
 21
0.0
 31
0.0
210
0.0
220
0.0
230
1.0
 40
0.9998479999999998
 41
0.1145900568991674
 42
3.027002594663775
  0
LINE
  5
F98
330
1F
100
AcDbEntity
  8
0
 62
   253
 48
0.004067
370
    35
100
AcDbLine
 10
343.5356144064322
 20
378.3719615942142
 30
0.0
 11
343.5167234064322
 21
378.5335215942144
 31
0.0
  0
LINE
  5
F99
330
1F
100
AcDbEntity
  8
0
 62
   253
 48
0.000475
370
    35
100
AcDbLine
 10
343.5167234064322
 20
378.5335215942144
 30
0.0
 11
343.5167234064322
 21
378.5525035942144
 31
0.0
  0
POLYLINE
  5
F9A
330
1F
100
AcDbEntity
  8
0
 62
   253
370
    35
100
AcDb2dPolyline
 66
     1
 10
0.0
 20
0.0
 30
0.0
  0
VERTEX
  5
F9B
330
F9A
100
AcDbEntity
  8
0
 62
   253
370
     0
100
AcDbVertex
100
AcDb2dVertex
 10
323.1700744064322
 20
378.3719615942142
 30
0.0
  0
VERTEX
  5
F9C
330
F9A
100
AcDbEntity
  8
0
 62
   253
370
     0
100
AcDbVertex
100
AcDb2dVertex
 10
323.1658634064321
 20
378.2592905942142
 30
0.0
  0
VERTEX
  5
F9D
330
F9A
100
AcDbEntity
  8
0
 62
   253
370
     0
100
AcDbVertex
100
AcDb2dVertex
 10
323.1738584064321
 20
378.0150885942143
 30
0.0
  0
VERTEX
  5
F9E
330
F9A
100
AcDbEntity
  8
0
 62
   253
370
     0
100
AcDbVertex
100
AcDb2dVertex
 10
323.1444394064322
 20
377.6153085942143
 30
0.0
  0
SEQEND
  5
F9F
330
F9A
100
AcDbEntity
  8
0
 62
   253
370
     0
  0
ARC
  5
FA0
330
1F
100
AcDbEntity
  8
0
 62
   253
370
    35
100
AcDbCircle
 10
326.2799374064322
 20
377.1032845942143
 30
0.0
 40
3.17682
100
AcDbArc
 50
170.7263289999992
 51
180.0448830000003
  0
ARC
  5
FA1
330
1F
100
AcDbEntity
  8
0
 62
   253
370
    35
100
AcDbCircle
 10
340.4257504064322
 20
377.1032845942143
 30
0.0
 40
3.17682
100
AcDbArc
 50
359.9551139999995
 51
9.273672000000829
  0
POLYLINE
  5
FA2
330
1F
100
AcDbEntity
  8
0
 62
   253
370
    35
100
AcDb2dPolyline
 66
     1
 10
0.0
 20
0.0
 30
0.0
  0
VERTEX
  5
FA3
330
FA2
100
AcDbEntity
  8
0
 62
   253
370
     0
100
AcDbVertex
100
AcDb2dVertex
 10
343.5612484064322
 20
377.6153085942143
 30
0.0
  0
VERTEX
  5
FA4
330
FA2
100
AcDbEntity
  8
0
 62
   253
370
     0
100
AcDbVertex
100
AcDb2dVertex
 10
343.5339664064322
 20
378.0897955942144
 30
0.0
  0
VERTEX
  5
FA5
330
FA2
100
AcDbEntity
  8
0
 62
   253
370
     0
100
AcDbVertex
100
AcDb2dVertex
 10
343.5399474064322
 20
378.2829105942143
 30
0.0
  0
VERTEX
  5
FA6
330
FA2
100
AcDbEntity
  8
0
 62
   253
370
     0
100
AcDbVertex
100
AcDb2dVertex
 10
343.5356144064322
 20
378.3719615942142
 30
0.0
  0
SEQEND
  5
FA7
330
FA2
100
AcDbEntity
  8
0
 62
   253
370
     0
  0
LINE
  5
FA8
330
1F
100
AcDbEntity
  8
0
 62
   253
 48
0.001197
370
    35
100
AcDbLine
 10
323.2275694064322
 20
374.8779735942143
 30
0.0
 11
323.1800234064322
 21
374.8724495942143
 31
0.0
  0
POLYLINE
  5
FA9
330
1F
100
AcDbEntity
  8
0
 62
   253
370
    35
100
AcDb2dPolyline
 66
     1
 10
0.0
 20
0.0
 30
0.0
  0
VERTEX
  5
FAA
330
FA9
100
AcDbEntity
  8
0
 62
   253
370
     0
100
AcDbVertex
100
AcDb2dVertex
 10
323.3749394064322
 20
374.8546885942143
 30
0.0
  0
VERTEX
  5
FAB
330
FA9
100
AcDbEntity
  8
0
 62
   253
370
     0
100
AcDbVertex
100
AcDb2dVertex
 10
323.3007204064322
 20
374.8789195942143
 30
0.0
  0
VERTEX
  5
FAC
330
FA9
100
AcDbEntity
  8
0
 62
   253
370
     0
100
AcDbVertex
100
AcDb2dVertex
 10
323.2275694064322
 20
374.8779735942143
 30
0.0
  0
SEQEND
  5
FAD
330
FA9
100
AcDbEntity
  8
0
 62
   253
370
     0
  0
POLYLINE
  5
FAE
330
1F
100
AcDbEntity
  8
0
 62
   253
370
    35
100
AcDb2dPolyline
 66
     1
 10
0.0
 20
0.0
 30
0.0
  0
VERTEX
  5
FAF
330
FAE
100
AcDbEntity
  8
0
 62
   253
370
     0
100
AcDbVertex
100
AcDb2dVertex
 10
343.3307494064322
 20
374.8546885942143
 30
0.0
  0
VERTEX
  5
FB0
330
FAE
100
AcDbEntity
  8
0
 62
   253
370
     0
100
AcDbVertex
100
AcDb2dVertex
 10
343.4049684064322
 20
374.8789195942143
 30
0.0
  0
VERTEX
  5
FB1
330
FAE
100
AcDbEntity
  8
0
 62
   253
370
     0
100
AcDbVertex
100
AcDb2dVertex
 10
343.4781184064322
 20
374.8779735942143
 30
0.0
  0
SEQEND
  5
FB2
330
FAE
100
AcDbEntity
  8
0
 62
   253
370
     0
  0
LINE
  5
FB3
330
1F
100
AcDbEntity
  8
0
 62
   253
 48
0.001202
370
    35
100
AcDbLine
 10
343.4781184064322
 20
374.8779735942143
 30
0.0
 11
343.5258784064322
 21
374.8724185942143
 31
0.0
  0
LINE
  5
FB4
330
1F
100
AcDbEntity
  8
0
 62
   253
 48
0.008305
370
    35
100
AcDbLine
 10
164.0472414064321
 20
378.3772715942143
 30
0.0
 11
163.7150574064321
 21
378.3783695942144
 31
0.0
  0
LINE
  5
FB5
330
1F
100
AcDbEntity
  8
0
 62
   253
 48
0.000035
370
    35
100
AcDbLine
 10
163.7150574064321
 20
378.3783695942144
 30
0.0
 11
163.7136534064322
 21
378.3784915942143
 31
0.0
  0
LINE
  5
FB6
330
1F
100
AcDbEntity
  8
0
 62
   253
 48
0.008305
370
    35
100
AcDbLine
 10
142.6584474064322
 20
378.3772715942143
 30
0.0
 11
142.9906314064322
 21
378.3783695942144
 31
0.0
  0
LINE
  5
FB7
330
1F
100
AcDbEntity
  8
0
 62
   253
370
    35
100
AcDbLine
 10
188.3528444064322
 20
374.8724495942143
 30
0.0
 11
163.5256654064322
 21
374.8724495942143
 31
0.0
  0
LINE
  5
FB8
330
1F
100
AcDbEntity
  8
0
 62
   253
370
    35
100
AcDbLine
 10
118.3528444064322
 20
374.8724495942143
 30
0.0
 11
143.1800234064322
 21
374.8724495942143
 31
0.0
  0
ELLIPSE
  5
FB9
330
1F
100
AcDbEntity
  8
0
 62
   253
370
    35
100
AcDbEllipse
 10
153.3528444064321
 20
377.2002085942144
 30
0.0
 11
10.25
 21
0.0
 31
0.0
210
0.0
220
0.0
230
1.0
 40
0.9998479999999998
 41
6.037680571483487
 42
6.273490315202634
  0
ELLIPSE
  5
FBA
330
1F
100
AcDbEntity
  8
0
 62
   253
370
    35
100
AcDbEllipse
 10
153.3528444064321
 20
377.2002085942144
 30
0.0
 11
10.25
 21
0.0
 31
0.0
210
0.0
220
0.0
230
1.0
 40
0.9998479999999998
 41
3.15128777493543
 42
3.387097460600741
  0
LINE
  5
FBB
330
1F
100
AcDbEntity
  8
0
 62
   253
 48
0.000221
370
    35
100
AcDbLine
 10
143.1889034064322
 20
378.5525645942142
 30
0.0
 11
143.1875004064321
 21
378.5438365942142
 31
0.0
  0
LINE
  5
FBC
330
1F
100
AcDbEntity
  8
0
 62
   253
 48
0.000475
370
    35
100
AcDbLine
 10
143.1889644064321
 20
378.5335215942144
 30
0.0
 11
143.1889644064321
 21
378.5525035942144
 31
0.0
  0
ELLIPSE
  5
FBD
330
1F
100
AcDbEntity
  8
0
 62
   253
370
    35
100
AcDbEllipse
 10
153.3528444064321
 20
377.2002085942144
 30
0.0
 11
10.25
 21
0.0
 31
0.0
210
0.0
220
0.0
230
1.0
 40
0.9998479999999998
 41
0.1145900590462079
 42
3.027002596821608
  0
LINE
  5
FBE
330
1F
100
AcDbEntity
  8
0
 62
   253
 48
0.004067
370
    35
100
AcDbLine
 10
163.5167234064322
 20
378.5335215942144
 30
0.0
 11
163.5356144064321
 21
378.3719615942142
 31
0.0
  0
LINE
  5
FBF
330
1F
100
AcDbEntity
  8
0
 62
   253
 48
0.000475
370
    35
100
AcDbLine
 10
163.5167234064322
 20
378.5525035942144
 30
0.0
 11
163.5167234064322
 21
378.5335215942144
 31
0.0
  0
LINE
  5
FC0
330
1F
100
AcDbEntity
  8
0
 62
   253
 48
0.000221
370
    35
100
AcDbLine
 10
163.5167844064322
 20
378.5525645942142
 30
0.0
 11
163.5181884064321
 21
378.5438365942142
 31
0.0
  0
POLYLINE
  5
FC1
330
1F
100
AcDbEntity
  8
0
 62
   253
370
    35
100
AcDb2dPolyline
 66
     1
 10
0.0
 20
0.0
 30
0.0
  0
VERTEX
  5
FC2
330
FC1
100
AcDbEntity
  8
0
 62
   253
370
     0
100
AcDbVertex
100
AcDb2dVertex
 10
143.1444394064322
 20
377.6153085942143
 30
0.0
  0
VERTEX
  5
FC3
330
FC1
100
AcDbEntity
  8
0
 62
   253
370
     0
100
AcDbVertex
100
AcDb2dVertex
 10
143.1717224064322
 20
378.0897955942144
 30
0.0
  0
VERTEX
  5
FC4
330
FC1
100
AcDbEntity
  8
0
 62
   253
370
     0
100
AcDbVertex
100
AcDb2dVertex
 10
143.1657414064321
 20
378.2829105942143
 30
0.0
  0
VERTEX
  5
FC5
330
FC1
100
AcDbEntity
  8
0
 62
   253
370
     0
100
AcDbVertex
100
AcDb2dVertex
 10
143.1700744064321
 20
378.3719615942142
 30
0.0
  0
SEQEND
  5
FC6
330
FC1
100
AcDbEntity
  8
0
 62
   253
370
     0
  0
ARC
  5
FC7
330
1F
100
AcDbEntity
  8
0
 62
   253
370
    35
100
AcDbCircle
 10
146.2808224064321
 20
377.1029795942143
 30
0.0
 40
3.177723999999998
100
AcDbArc
 50
170.7231189999995
 51
180.0390229999996
  0
ARC
  5
FC8
330
1F
100
AcDbEntity
  8
0
 62
   253
370
    35
100
AcDbCircle
 10
160.4248654064321
 20
377.1029795942143
 30
0.0
 40
3.177725
100
AcDbArc
 50
359.9609770000003
 51
9.27688199999973
  0
POLYLINE
  5
FC9
330
1F
100
AcDbEntity
  8
0
 62
   253
370
    35
100
AcDb2dPolyline
 66
     1
 10
0.0
 20
0.0
 30
0.0
  0
VERTEX
  5
FCA
330
FC9
100
AcDbEntity
  8
0
 62
   253
370
     0
100
AcDbVertex
100
AcDb2dVertex
 10
163.5356144064321
 20
378.3719615942142
 30
0.0
  0
VERTEX
  5
FCB
330
FC9
100
AcDbEntity
  8
0
 62
   253
370
     0
100
AcDbVertex
100
AcDb2dVertex
 10
163.5398254064322
 20
378.2592905942142
 30
0.0
  0
VERTEX
  5
FCC
330
FC9
100
AcDbEntity
  8
0
 62
   253
370
     0
100
AcDbVertex
100
AcDb2dVertex
 10
163.5318294064322
 20
378.0150885942143
 30
0.0
  0
VERTEX
  5
FCD
330
FC9
100
AcDbEntity
  8
0
 62
   253
370
     0
100
AcDbVertex
100
AcDb2dVertex
 10
163.5612484064322
 20
377.6153085942143
 30
0.0
  0
SEQEND
  5
FCE
330
FC9
100
AcDbEntity
  8
0
 62
   253
370
     0
  0
POLYLINE
  5
FCF
330
1F
100
AcDbEntity
  8
0
 62
   253
370
    35
100
AcDb2dPolyline
 66
     1
 10
0.0
 20
0.0
 30
0.0
  0
VERTEX
  5
FD0
330
FCF
100
AcDbEntity
  8
0
 62
   253
370
     0
100
AcDbVertex
100
AcDb2dVertex
 10
163.3307494064322
 20
374.8546885942143
 30
0.0
  0
VERTEX
  5
FD1
330
FCF
100
AcDbEntity
  8
0
 62
   253
370
     0
100
AcDbVertex
100
AcDb2dVertex
 10
163.4049684064321
 20
374.8789195942143
 30
0.0
  0
VERTEX
  5
FD2
330
FCF
100
AcDbEntity
  8
0
 62
   253
370
     0
100
AcDbVertex
100
AcDb2dVertex
 10
163.4781184064321
 20
374.8779735942143
 30
0.0
  0
SEQEND
  5
FD3
330
FCF
100
AcDbEntity
  8
0
 62
   253
370
     0
  0
LINE
  5
FD4
330
1F
100
AcDbEntity
  8
0
 62
   253
 48
0.001197
370
    35
100
AcDbLine
 10
163.4781184064321
 20
374.8779735942143
 30
0.0
 11
163.5256654064322
 21
374.8724495942143
 31
0.0
  0
LINE
  5
FD5
330
1F
100
AcDbEntity
  8
0
 62
   253
 48
0.001197
370
    35
100
AcDbLine
 10
143.2275694064322
 20
374.8779735942143
 30
0.0
 11
143.1800234064322
 21
374.8724495942143
 31
0.0
  0
POLYLINE
  5
FD6
330
1F
100
AcDbEntity
  8
0
 62
   253
370
    35
100
AcDb2dPolyline
 66
     1
 10
0.0
 20
0.0
 30
0.0
  0
VERTEX
  5
FD7
330
FD6
100
AcDbEntity
  8
0
 62
   253
370
     0
100
AcDbVertex
100
AcDb2dVertex
 10
143.3749394064321
 20
374.8546885942143
 30
0.0
  0
VERTEX
  5
FD8
330
FD6
100
AcDbEntity
  8
0
 62
   253
370
     0
100
AcDbVertex
100
AcDb2dVertex
 10
143.3007204064321
 20
374.8789195942143
 30
0.0
  0
VERTEX
  5
FD9
330
FD6
100
AcDbEntity
  8
0
 62
   253
370
     0
100
AcDbVertex
100
AcDb2dVertex
 10
143.2275694064322
 20
374.8779735942143
 30
0.0
  0
SEQEND
  5
FDA
330
FD6
100
AcDbEntity
  8
0
 62
   253
370
     0
  0
POLYLINE
  5
FDB
330
1F
100
AcDbEntity
  8
0
 62
   253
370
    35
100
AcDb2dPolyline
 66
     1
 10
0.0
 20
0.0
 30
0.0
  0
VERTEX
  5
FDC
330
FDB
100
AcDbEntity
  8
0
 62
   253
370
     0
100
AcDbVertex
100
AcDb2dVertex
 10
100.0570984064322
 20
381.3173955942143
 30
0.0
  0
VERTEX
  5
FDD
330
FDB
100
AcDbEntity
  8
0
 62
   253
370
     0
100
AcDbVertex
100
AcDb2dVertex
 10
100.3186344064322
 20
381.1963015942144
 30
0.0
  0
VERTEX
  5
FDE
330
FDB
100
AcDbEntity
  8
0
 62
   253
370
     0
100
AcDbVertex
100
AcDb2dVertex
 10
100.6385344064322
 20
381.0692265942142
 30
0.0
  0
VERTEX
  5
FDF
330
FDB
100
AcDbEntity
  8
0
 62
   253
370
     0
100
AcDbVertex
100
AcDb2dVertex
 10
101.4011074064322
 20
380.8109255942143
 30
0.0
  0
VERTEX
  5
FE0
330
FDB
100
AcDbEntity
  8
0
 62
   253
370
     0
100
AcDbVertex
100
AcDb2dVertex
 10
102.2369534064321
 20
380.5647715942143
 30
0.0
  0
VERTEX
  5
FE1
330
FDB
100
AcDbEntity
  8
0
 62
   253
370
     0
100
AcDbVertex
100
AcDb2dVertex
 10
103.6194454064321
 20
380.2019175942143
 30
0.0
  0
VERTEX
  5
FE2
330
FDB
100
AcDbEntity
  8
0
 62
   253
370
     0
100
AcDbVertex
100
AcDb2dVertex
 10
105.5043794064322
 20
379.7666145942143
 30
0.0
  0
VERTEX
  5
FE3
330
FDB
100
AcDbEntity
  8
0
 62
   253
370
     0
100
AcDbVertex
100
AcDb2dVertex
 10
107.4977724064321
 20
379.3704965942144
 30
0.0
  0
VERTEX
  5
FE4
330
FDB
100
AcDbEntity
  8
0
 62
   253
370
     0
100
AcDbVertex
100
AcDb2dVertex
 10
109.4927364064322
 20
379.0395025942142
 30
0.0
  0
VERTEX
  5
FE5
330
FDB
100
AcDbEntity
  8
0
 62
   253
370
     0
100
AcDbVertex
100
AcDb2dVertex
 10
111.4898984064322
 20
378.7746715942144
 30
0.0
  0
VERTEX
  5
FE6
330
FDB
100
AcDbEntity
  8
0
 62
   253
370
     0
100
AcDbVertex
100
AcDb2dVertex
 10
113.5127104064321
 20
378.5749025942142
 30
0.0
  0
VERTEX
  5
FE7
330
FDB
100
AcDbEntity
  8
0
 62
   253
370
     0
100
AcDbVertex
100
AcDb2dVertex
 10
115.5702824064321
 20
378.4425785942143
 30
0.0
  0
VERTEX
  5
FE8
330
FDB
100
AcDbEntity
  8
0
 62
   253
370
     0
100
AcDbVertex
100
AcDb2dVertex
 10
117.6552584064321
 20
378.3814215942143
 30
0.0
  0
VERTEX
  5
FE9
330
FDB
100
AcDbEntity
  8
0
 62
   253
370
     0
100
AcDbVertex
100
AcDb2dVertex
 10
118.3528444064322
 20
378.3773325942143
 30
0.0
  0
SEQEND
  5
FEA
330
FDB
100
AcDbEntity
  8
0
 62
   253
370
     0
  0
POLYLINE
  5
FEB
330
1F
100
AcDbEntity
  8
0
 62
   253
370
    35
100
AcDb2dPolyline
 66
     1
 10
0.0
 20
0.0
 30
0.0
  0
VERTEX
  5
FEC
330
FEB
100
AcDbEntity
  8
0
 62
   253
370
     0
100
AcDbVertex
100
AcDb2dVertex
 10
386.6485594064322
 20
381.3173955942143
 30
0.0
  0
VERTEX
  5
FED
330
FEB
100
AcDbEntity
  8
0
 62
   253
370
     0
100
AcDbVertex
100
AcDb2dVertex
 10
386.3870854064322
 20
381.1963015942144
 30
0.0
  0
VERTEX
  5
FEE
330
FEB
100
AcDbEntity
  8
0
 62
   253
370
     0
100
AcDbVertex
100
AcDb2dVertex
 10
386.0671384064321
 20
381.0692265942142
 30
0.0
  0
VERTEX
  5
FEF
330
FEB
100
AcDbEntity
  8
0
 62
   253
370
     0
100
AcDbVertex
100
AcDb2dVertex
 10
385.3045654064322
 20
380.8109255942143
 30
0.0
  0
VERTEX
  5
FF0
330
FEB
100
AcDbEntity
  8
0
 62
   253
370
     0
100
AcDbVertex
100
AcDb2dVertex
 10
384.4687504064321
 20
380.5647715942143
 30
0.0
  0
VERTEX
  5
FF1
330
FEB
100
AcDbEntity
  8
0
 62
   253
370
     0
100
AcDbVertex
100
AcDb2dVertex
 10
383.0862424064322
 20
380.2019175942143
 30
0.0
  0
VERTEX
  5
FF2
330
FEB
100
AcDbEntity
  8
0
 62
   253
370
     0
100
AcDbVertex
100
AcDb2dVertex
 10
381.2012944064322
 20
379.7666145942143
 30
0.0
  0
VERTEX
  5
FF3
330
FEB
100
AcDbEntity
  8
0
 62
   253
370
     0
100
AcDbVertex
100
AcDb2dVertex
 10
379.2079164064322
 20
379.3704965942144
 30
0.0
  0
VERTEX
  5
FF4
330
FEB
100
AcDbEntity
  8
0
 62
   253
370
     0
100
AcDbVertex
100
AcDb2dVertex
 10
377.2129514064322
 20
379.0395025942142
 30
0.0
  0
VERTEX
  5
FF5
330
FEB
100
AcDbEntity
  8
0
 62
   253
370
     0
100
AcDbVertex
100
AcDb2dVertex
 10
375.2157894064322
 20
378.7746715942144
 30
0.0
  0
VERTEX
  5
FF6
330
FEB
100
AcDbEntity
  8
0
 62
   253
370
     0
100
AcDbVertex
100
AcDb2dVertex
 10
373.1929934064322
 20
378.5749025942142
 30
0.0
  0
VERTEX
  5
FF7
330
FEB
100
AcDbEntity
  8
0
 62
   253
370
     0
100
AcDbVertex
100
AcDb2dVertex
 10
371.1354064064322
 20
378.4425785942143
 30
0.0
  0
VERTEX
  5
FF8
330
FEB
100
AcDbEntity
  8
0
 62
   253
370
     0
100
AcDbVertex
100
AcDb2dVertex
 10
369.0504154064322
 20
378.3814215942143
 30
0.0
  0
VERTEX
  5
FF9
330
FEB
100
AcDbEntity
  8
0
 62
   253
370
     0
100
AcDbVertex
100
AcDb2dVertex
 10
368.3528444064322
 20
378.3773325942143
 30
0.0
  0
SEQEND
  5
FFA
330
FEB
100
AcDbEntity
  8
0
 62
   253
370
     0
  0
LINE
  5
FFB
330
1F
100
AcDbEntity
  8
0
 62
   253
370
    35
100
AcDbLine
 10
164.0472414064321
 20
378.3773325942143
 30
0.0
 11
188.3528444064322
 21
378.3773325942143
 31
0.0
  0
LINE
  5
FFC
330
1F
100
AcDbEntity
  8
0
 62
   253
370
    35
100
AcDbLine
 10
118.3528444064322
 20
378.3773325942143
 30
0.0
 11
142.6584474064322
 21
378.3773325942143
 31
0.0
  0
POLYLINE
  5
FFD
330
1F
100
AcDbEntity
  8
0
 62
   253
370
    35
100
AcDb2dPolyline
 66
     1
 10
0.0
 20
0.0
 30
0.0
  0
VERTEX
  5
FFE
330
FFD
100
AcDbEntity
  8
0
 62
   253
370
     0
100
AcDbVertex
100
AcDb2dVertex
 10
298.3528444064322
 20
378.3773325942143
 30
0.0
  0
VERTEX
  5
FFF
330
FFD
100
AcDbEntity
  8
0
 62
   253
370
     0
100
AcDbVertex
100
AcDb2dVertex
 10
296.2622074064322
 20
378.4141365942143
 30
0.0
  0
VERTEX
  5
1000
330
FFD
100
AcDbEntity
  8
0
 62
   253
370
     0
100
AcDbVertex
100
AcDb2dVertex
 10
294.1940304064322
 20
378.5231455942143
 30
0.0
  0
VERTEX
  5
1001
330
FFD
100
AcDbEntity
  8
0
 62
   253
370
     0
100
AcDbVertex
100
AcDb2dVertex
 10
292.1599124064321
 20
378.7008795942143
 30
0.0
  0
VERTEX
  5
1002
330
FFD
100
AcDbEntity
  8
0
 62
   253
370
     0
100
AcDbVertex
100
AcDb2dVertex
 10
290.1563724064322
 20
378.9441045942143
 30
0.0
  0
VERTEX
  5
1003
330
FFD
100
AcDbEntity
  8
0
 62
   253
370
     0
100
AcDbVertex
100
AcDb2dVertex
 10
288.1631164064322
 20
379.2527595942142
 30
0.0
  0
VERTEX
  5
1004
330
FFD
100
AcDbEntity
  8
0
 62
   253
370
     0
100
AcDbVertex
100
AcDb2dVertex
 10
286.1673584064321
 20
379.6276375942143
 30
0.0
  0
VERTEX
  5
1005
330
FFD
100
AcDbEntity
  8
0
 62
   253
370
     0
100
AcDbVertex
100
AcDb2dVertex
 10
284.0259704064322
 20
380.1027965942143
 30
0.0
  0
VERTEX
  5
1006
330
FFD
100
AcDbEntity
  8
0
 62
   253
370
     0
100
AcDbVertex
100
AcDb2dVertex
 10
282.7230534064322
 20
380.4320805942143
 30
0.0
  0
VERTEX
  5
1007
330
FFD
100
AcDbEntity
  8
0
 62
   253
370
     0
100
AcDbVertex
100
AcDb2dVertex
 10
281.8133854064321
 20
380.6861095942143
 30
0.0
  0
VERTEX
  5
1008
330
FFD
100
AcDbEntity
  8
0
 62
   253
370
     0
100
AcDbVertex
100
AcDb2dVertex
 10
281.0061954064321
 20
380.9389775942144
 30
0.0
  0
VERTEX
  5
1009
330
FFD
100
AcDbEntity
  8
0
 62
   253
370
     0
100
AcDbVertex
100
AcDb2dVertex
 10
280.6385194064322
 20
381.0692265942142
 30
0.0
  0
VERTEX
  5
100A
330
FFD
100
AcDbEntity
  8
0
 62
   253
370
     0
100
AcDbVertex
100
AcDb2dVertex
 10
280.3186344064322
 20
381.1963015942144
 30
0.0
  0
VERTEX
  5
100B
330
FFD
100
AcDbEntity
  8
0
 62
   253
370
     0
100
AcDbVertex
100
AcDb2dVertex
 10
280.0570984064322
 20
381.3173955942143
 30
0.0
  0
SEQEND
  5
100C
330
FFD
100
AcDbEntity
  8
0
 62
   253
370
     0
  0
POLYLINE
  5
100D
330
1F
100
AcDbEntity
  8
0
 62
   253
370
    35
100
AcDb2dPolyline
 66
     1
 10
0.0
 20
0.0
 30
0.0
  0
VERTEX
  5
100E
330
100D
100
AcDbEntity
  8
0
 62
   253
370
     0
100
AcDbVertex
100
AcDb2dVertex
 10
188.3528444064322
 20
378.3773325942143
 30
0.0
  0
VERTEX
  5
100F
330
100D
100
AcDbEntity
  8
0
 62
   253
370
     0
100
AcDbVertex
100
AcDb2dVertex
 10
190.4434814064322
 20
378.4141365942143
 30
0.0
  0
VERTEX
  5
1010
330
100D
100
AcDbEntity
  8
0
 62
   253
370
     0
100
AcDbVertex
100
AcDb2dVertex
 10
192.511657406432
 20
378.5231455942143
 30
0.0
  0
VERTEX
  5
1011
330
100D
100
AcDbEntity
  8
0
 62
   253
370
     0
100
AcDbVertex
100
AcDb2dVertex
 10
194.5457764064322
 20
378.7008795942143
 30
0.0
  0
VERTEX
  5
1012
330
100D
100
AcDbEntity
  8
0
 62
   253
370
     0
100
AcDbVertex
100
AcDb2dVertex
 10
196.549316406432
 20
378.9441045942143
 30
0.0
  0
VERTEX
  5
1013
330
100D
100
AcDbEntity
  8
0
 62
   253
370
     0
100
AcDbVertex
100
AcDb2dVertex
 10
198.542572406432
 20
379.2527595942142
 30
0.0
  0
VERTEX
  5
1014
330
100D
100
AcDbEntity
  8
0
 62
   253
370
     0
100
AcDbVertex
100
AcDb2dVertex
 10
200.5383304064322
 20
379.6276375942143
 30
0.0
  0
VERTEX
  5
1015
330
100D
100
AcDbEntity
  8
0
 62
   253
370
     0
100
AcDbVertex
100
AcDb2dVertex
 10
202.6797184064322
 20
380.1027965942143
 30
0.0
  0
VERTEX
  5
1016
330
100D
100
AcDbEntity
  8
0
 62
   253
370
     0
100
AcDbVertex
100
AcDb2dVertex
 10
203.9826354064322
 20
380.4320805942143
 30
0.0
  0
VERTEX
  5
1017
330
100D
100
AcDbEntity
  8
0
 62
   253
370
     0
100
AcDbVertex
100
AcDb2dVertex
 10
204.8923034064322
 20
380.6861095942143
 30
0.0
  0
VERTEX
  5
1018
330
100D
100
AcDbEntity
  8
0
 62
   253
370
     0
100
AcDbVertex
100
AcDb2dVertex
 10
205.6994934064322
 20
380.9389775942144
 30
0.0
  0
VERTEX
  5
1019
330
100D
100
AcDbEntity
  8
0
 62
   253
370
     0
100
AcDbVertex
100
AcDb2dVertex
 10
206.0671694064322
 20
381.0692265942142
 30
0.0
  0
VERTEX
  5
101A
330
100D
100
AcDbEntity
  8
0
 62
   253
370
     0
100
AcDbVertex
100
AcDb2dVertex
 10
206.3870544064322
 20
381.1963015942144
 30
0.0
  0
VERTEX
  5
101B
330
100D
100
AcDbEntity
  8
0
 62
   253
370
     0
100
AcDbVertex
100
AcDb2dVertex
 10
206.6485904064322
 20
381.3173955942143
 30
0.0
  0
SEQEND
  5
101C
330
100D
100
AcDbEntity
  8
0
 62
   253
370
     0
  0
LINE
  5
101D
330
1F
100
AcDbEntity
  8
0
 62
   253
370
    35
100
AcDbLine
 10
344.0472414064321
 20
378.3773325942143
 30
0.0
 11
368.3528444064322
 21
378.3773325942143
 31
0.0
  0
LINE
  5
101E
330
1F
100
AcDbEntity
  8
0
 62
   253
370
    35
100
AcDbLine
 10
298.3528444064322
 20
378.3773325942143
 30
0.0
 11
322.6584474064322
 21
378.3773325942143
 31
0.0
  0
LINE
  5
101F
330
1F
100
AcDbEntity
  8
0
 62
   253
 48
0.000076
370
    35
100
AcDbLine
 10
100.0570984064322
 20
381.3173955942143
 30
0.0
 11
100.0543674064322
 21
381.3187385942143
 31
0.0
  0
LINE
  5
1020
330
1F
100
AcDbEntity
  8
0
 62
   253
 48
0.000076
370
    35
100
AcDbLine
 10
386.6485594064322
 20
381.3173955942143
 30
0.0
 11
386.6513064064322
 21
381.3187385942143
 31
0.0
  0
LINE
  5
1021
330
1F
100
AcDbEntity
  8
0
 62
   253
 48
0.000076
370
    35
100
AcDbLine
 10
280.0543824064322
 20
381.3187385942143
 30
0.0
 11
280.0570984064322
 21
381.3173955942143
 31
0.0
  0
ARC
  5
1022
330
1F
100
AcDbEntity
  8
0
 62
   253
370
    35
100
AcDbCircle
 10
207.3050844064322
 20
430.4987315942143
 30
0.0
 40
42.69666299999999
100
AcDbArc
 50
270.2946310000001
 51
271.7693649999997
  0
ARC
  5
1023
330
1F
100
AcDbEntity
  8
0
 62
   253
370
    35
100
AcDbCircle
 10
189.9864194064321
 20
2307.074109594214
 30
0.0
 40
1919.352284
100
AcDbArc
 50
270.2047669999998
 51
270.5235519999996
  0
POLYLINE
  5
1024
330
1F
100
AcDbEntity
  8
0
 62
   253
370
    35
100
AcDb2dPolyline
 66
     1
 10
0.0
 20
0.0
 30
0.0
  0
VERTEX
  5
1025
330
1024
100
AcDbEntity
  8
0
 62
   253
370
     0
100
AcDbVertex
100
AcDb2dVertex
 10
196.8458254064322
 20
387.7340215942142
 30
0.0
  0
VERTEX
  5
1026
330
1024
100
AcDbEntity
  8
0
 62
   253
370
     0
100
AcDbVertex
100
AcDb2dVertex
 10
193.6806034064322
 20
387.6975225942143
 30
0.0
  0
VERTEX
  5
1027
330
1024
100
AcDbEntity
  8
0
 62
   253
370
     0
100
AcDbVertex
100
AcDb2dVertex
 10
189.420837406432
 20
387.6480845942143
 30
0.0
  0
VERTEX
  5
1028
330
1024
100
AcDbEntity
  8
0
 62
   253
370
     0
100
AcDbVertex
100
AcDb2dVertex
 10
188.3528444064322
 20
387.6455205942143
 30
0.0
  0
SEQEND
  5
1029
330
1024
100
AcDbEntity
  8
0
 62
   253
370
     0
  0
LINE
  5
102A
330
1F
100
AcDbEntity
  8
0
 62
   253
370
    35
100
AcDbLine
 10
188.3528444064322
 20
387.6455205942143
 30
0.0
 11
157.8563234064322
 21
387.6455205942143
 31
0.0
  0
POLYLINE
  5
102B
330
1F
100
AcDbEntity
  8
0
 62
   253
370
    35
100
AcDb2dPolyline
 66
     1
 10
0.0
 20
0.0
 30
0.0
  0
VERTEX
  5
102C
330
102B
100
AcDbEntity
  8
0
 62
   253
370
     0
100
AcDbVertex
100
AcDb2dVertex
 10
148.8493654064322
 20
387.6455205942143
 30
0.0
  0
VERTEX
  5
102D
330
102B
100
AcDbEntity
  8
0
 62
   253
370
     0
100
AcDbVertex
100
AcDb2dVertex
 10
150.2623294064322
 20
387.6698735942142
 30
0.0
  0
VERTEX
  5
102E
330
102B
100
AcDbEntity
  8
0
 62
   253
370
     0
100
AcDbVertex
100
AcDb2dVertex
 10
152.4780884064321
 20
387.7235845942144
 30
0.0
  0
VERTEX
  5
102F
330
102B
100
AcDbEntity
  8
0
 62
   253
370
     0
100
AcDbVertex
100
AcDb2dVertex
 10
154.6639094064322
 20
387.7164435942143
 30
0.0
  0
VERTEX
  5
1030
330
102B
100
AcDbEntity
  8
0
 62
   253
370
     0
100
AcDbVertex
100
AcDb2dVertex
 10
156.9043274064322
 20
387.6580325942143
 30
0.0
  0
VERTEX
  5
1031
330
102B
100
AcDbEntity
  8
0
 62
   253
370
     0
100
AcDbVertex
100
AcDb2dVertex
 10
157.8563234064322
 20
387.6455205942143
 30
0.0
  0
SEQEND
  5
1032
330
102B
100
AcDbEntity
  8
0
 62
   253
370
     0
  0
LINE
  5
1033
330
1F
100
AcDbEntity
  8
0
 62
   253
370
    35
100
AcDbLine
 10
148.8493654064322
 20
387.6455205942143
 30
0.0
 11
118.3528444064322
 21
387.6455205942143
 31
0.0
  0
POLYLINE
  5
1034
330
1F
100
AcDbEntity
  8
0
 62
   253
370
    35
100
AcDb2dPolyline
 66
     1
 10
0.0
 20
0.0
 30
0.0
  0
VERTEX
  5
1035
330
1034
100
AcDbEntity
  8
0
 62
   253
370
     0
100
AcDbVertex
100
AcDb2dVertex
 10
118.3528444064322
 20
387.6455205942143
 30
0.0
  0
VERTEX
  5
1036
330
1034
100
AcDbEntity
  8
0
 62
   253
370
     0
100
AcDbVertex
100
AcDb2dVertex
 10
114.4414524064322
 20
387.6762825942143
 30
0.0
  0
VERTEX
  5
1037
330
1034
100
AcDbEntity
  8
0
 62
   253
370
     0
100
AcDbVertex
100
AcDb2dVertex
 10
110.9109804064321
 20
387.7263925942143
 30
0.0
  0
VERTEX
  5
1038
330
1034
100
AcDbEntity
  8
0
 62
   253
370
     0
100
AcDbVertex
100
AcDb2dVertex
 10
109.8598784064322
 20
387.7340215942142
 30
0.0
  0
SEQEND
  5
1039
330
1034
100
AcDbEntity
  8
0
 62
   253
370
     0
  0
ARC
  5
103A
330
1F
100
AcDbEntity
  8
0
 62
   253
370
    35
100
AcDbCircle
 10
116.7191774064322
 20
2307.059705594214
 30
0.0
 40
1919.337717
100
AcDbArc
 50
269.4764500000003
 51
269.7952350000003
  0
ARC
  5
103B
330
1F
100
AcDbEntity
  8
0
 62
   253
370
    35
100
AcDbCircle
 10
99.4018254064322
 20
430.5739265942142
 30
0.0
 40
42.771846
100
AcDbArc
 50
268.2333490000004
 51
269.704243
  0
ARC
  5
103C
330
1F
100
AcDbEntity
  8
0
 62
   253
370
    35
100
AcDbCircle
 10
387.3038944064322
 20
430.5731935942143
 30
0.0
 40
42.77110799999999
100
AcDbArc
 50
270.2957449999999
 51
271.7666669999997
  0
ARC
  5
103D
330
1F
100
AcDbEntity
  8
0
 62
   253
370
    35
100
AcDbCircle
 10
369.9865114064321
 20
2307.058484594215
 30
0.0
 40
1919.33666
100
AcDbArc
 50
270.2047669999998
 51
270.5235519999996
  0
POLYLINE
  5
103E
330
1F
100
AcDbEntity
  8
0
 62
   253
370
    35
100
AcDb2dPolyline
 66
     1
 10
0.0
 20
0.0
 30
0.0
  0
VERTEX
  5
103F
330
103E
100
AcDbEntity
  8
0
 62
   253
370
     0
100
AcDbVertex
100
AcDb2dVertex
 10
368.3528444064322
 20
387.6455205942143
 30
0.0
  0
VERTEX
  5
1040
330
103E
100
AcDbEntity
  8
0
 62
   253
370
     0
100
AcDbVertex
100
AcDb2dVertex
 10
372.2643434064322
 20
387.6763435942142
 30
0.0
  0
VERTEX
  5
1041
330
103E
100
AcDbEntity
  8
0
 62
   253
370
     0
100
AcDbVertex
100
AcDb2dVertex
 10
375.7947994064322
 20
387.7263925942143
 30
0.0
  0
VERTEX
  5
1042
330
103E
100
AcDbEntity
  8
0
 62
   253
370
     0
100
AcDbVertex
100
AcDb2dVertex
 10
376.8458254064321
 20
387.7340215942142
 30
0.0
  0
SEQEND
  5
1043
330
103E
100
AcDbEntity
  8
0
 62
   253
370
     0
  0
LINE
  5
1044
330
1F
100
AcDbEntity
  8
0
 62
   253
370
    35
100
AcDbLine
 10
368.3528444064322
 20
387.6455205942143
 30
0.0
 11
337.8563234064322
 21
387.6455205942143
 31
0.0
  0
POLYLINE
  5
1045
330
1F
100
AcDbEntity
  8
0
 62
   253
370
    35
100
AcDb2dPolyline
 66
     1
 10
0.0
 20
0.0
 30
0.0
  0
VERTEX
  5
1046
330
1045
100
AcDbEntity
  8
0
 62
   253
370
     0
100
AcDbVertex
100
AcDb2dVertex
 10
337.8563234064322
 20
387.6455205942143
 30
0.0
  0
VERTEX
  5
1047
330
1045
100
AcDbEntity
  8
0
 62
   253
370
     0
100
AcDbVertex
100
AcDb2dVertex
 10
336.4432374064322
 20
387.6698735942142
 30
0.0
  0
VERTEX
  5
1048
330
1045
100
AcDbEntity
  8
0
 62
   253
370
     0
100
AcDbVertex
100
AcDb2dVertex
 10
334.2274174064322
 20
387.7235845942144
 30
0.0
  0
VERTEX
  5
1049
330
1045
100
AcDbEntity
  8
0
 62
   253
370
     0
100
AcDbVertex
100
AcDb2dVertex
 10
332.0415954064322
 20
387.7164435942143
 30
0.0
  0
VERTEX
  5
104A
330
1045
100
AcDbEntity
  8
0
 62
   253
370
     0
100
AcDbVertex
100
AcDb2dVertex
 10
329.8010554064322
 20
387.6580325942143
 30
0.0
  0
VERTEX
  5
104B
330
1045
100
AcDbEntity
  8
0
 62
   253
370
     0
100
AcDbVertex
100
AcDb2dVertex
 10
328.8493654064322
 20
387.6455205942143
 30
0.0
  0
SEQEND
  5
104C
330
1045
100
AcDbEntity
  8
0
 62
   253
370
     0
  0
LINE
  5
104D
330
1F
100
AcDbEntity
  8
0
 62
   253
370
    35
100
AcDbLine
 10
328.8493654064322
 20
387.6455205942143
 30
0.0
 11
298.3528444064322
 21
387.6455205942143
 31
0.0
  0
POLYLINE
  5
104E
330
1F
100
AcDbEntity
  8
0
 62
   253
370
    35
100
AcDb2dPolyline
 66
     1
 10
0.0
 20
0.0
 30
0.0
  0
VERTEX
  5
104F
330
104E
100
AcDbEntity
  8
0
 62
   253
370
     0
100
AcDbVertex
100
AcDb2dVertex
 10
289.8598634064321
 20
387.7340215942142
 30
0.0
  0
VERTEX
  5
1050
330
104E
100
AcDbEntity
  8
0
 62
   253
370
     0
100
AcDbVertex
100
AcDb2dVertex
 10
293.0250854064322
 20
387.6975225942143
 30
0.0
  0
VERTEX
  5
1051
330
104E
100
AcDbEntity
  8
0
 62
   253
370
     0
100
AcDbVertex
100
AcDb2dVertex
 10
297.2848204064322
 20
387.6480845942143
 30
0.0
  0
VERTEX
  5
1052
330
104E
100
AcDbEntity
  8
0
 62
   253
370
     0
100
AcDbVertex
100
AcDb2dVertex
 10
298.3528444064322
 20
387.6455205942143
 30
0.0
  0
SEQEND
  5
1053
330
104E
100
AcDbEntity
  8
0
 62
   253
370
     0
  0
ARC
  5
1054
330
1F
100
AcDbEntity
  8
0
 62
   253
370
    35
100
AcDbCircle
 10
296.7192384064321
 20
2307.070935594214
 30
0.0
 40
1919.349087
100
AcDbArc
 50
269.4764500000003
 51
269.7952350000003
  0
ARC
  5
1055
330
1F
100
AcDbEntity
  8
0
 62
   253
370
    35
100
AcDbCircle
 10
279.4006044064322
 20
430.4994635942143
 30
0.0
 40
42.697396
100
AcDbArc
 50
268.230644
 51
269.7053499999997
  0
ARC
  5
1056
330
1F
100
AcDbEntity
  8
0
 62
   253
370
    35
100
AcDbCircle
 10
336.3633424064321
 20
374.2019475942143
 30
0.0
 40
6.000426999999997
100
AcDbArc
 50
269.9990749999997
 51
315.0936339999992
  0
LINE
  5
1057
330
1F
100
AcDbEntity
  8
0
 62
   253
 48
0.15052
370
    35
100
AcDbLine
 10
330.3424374064322
 20
368.2015205942144
 30
0.0
 11
336.3632504064321
 21
368.2015205942144
 31
0.0
  0
ARC
  5
1058
330
1F
100
AcDbEntity
  8
0
 62
   253
370
    35
100
AcDbCircle
 10
330.3423464064322
 20
374.2019475942143
 30
0.0
 40
6.000426999999997
100
AcDbArc
 50
224.9063709999994
 51
270.0009330000002
  0
LINE
  5
1059
330
1F
100
AcDbEntity
  8
0
 62
   253
 48
0.008381
370
    35
100
AcDbLine
 10
343.7120054064322
 20
378.3783695942144
 30
0.0
 11
344.0472414064321
 21
378.3773325942143
 31
0.0
  0
LINE
  5
105A
330
1F
100
AcDbEntity
  8
0
 62
   253
 48
0.00834
370
    35
100
AcDbLine
 10
322.9920344064321
 20
378.3784915942143
 30
0.0
 11
322.6584474064322
 21
378.3773325942143
 31
0.0
  0
ARC
  5
105B
330
1F
100
AcDbEntity
  8
0
 62
   253
370
    35
100
AcDbCircle
 10
333.3508604064322
 20
377.2005135942143
 30
0.0
 40
10.248067
100
AcDbArc
 50
194.0689140000002
 51
224.905907
  0
ARC
  5
105C
330
1F
100
AcDbEntity
  8
0
 62
   253
370
    35
100
AcDbCircle
 10
333.3548274064322
 20
377.2005135942143
 30
0.0
 40
10.248067
100
AcDbArc
 50
315.0940979999997
 51
345.9310900000006
  0
POLYLINE
  5
105D
330
1F
100
AcDbEntity
  8
0
 62
   253
370
    35
100
AcDb2dPolyline
 66
     1
 10
0.0
 20
0.0
 30
0.0
  0
VERTEX
  5
105E
330
105D
100
AcDbEntity
  8
0
 62
   253
370
     0
100
AcDbVertex
100
AcDb2dVertex
 10
343.5180354064322
 20
378.5444465942143
 30
0.0
  0
VERTEX
  5
105F
330
105D
100
AcDbEntity
  8
0
 62
   253
370
     0
100
AcDbVertex
100
AcDb2dVertex
 10
343.5819094064322
 20
378.4298225942143
 30
0.0
  0
VERTEX
  5
1060
330
105D
100
AcDbEntity
  8
0
 62
   253
370
     0
100
AcDbVertex
100
AcDb2dVertex
 10
343.7136534064322
 20
378.3784915942143
 30
0.0
  0
SEQEND
  5
1061
330
105D
100
AcDbEntity
  8
0
 62
   253
370
     0
  0
POLYLINE
  5
1062
330
1F
100
AcDbEntity
  8
0
 62
   253
370
    35
100
AcDb2dPolyline
 66
     1
 10
0.0
 20
0.0
 30
0.0
  0
VERTEX
  5
1063
330
1062
100
AcDbEntity
  8
0
 62
   253
370
     0
100
AcDbVertex
100
AcDb2dVertex
 10
323.1876524064322
 20
378.5444465942143
 30
0.0
  0
VERTEX
  5
1064
330
1062
100
AcDbEntity
  8
0
 62
   253
370
     0
100
AcDbVertex
100
AcDb2dVertex
 10
323.1237794064321
 20
378.4298225942143
 30
0.0
  0
VERTEX
  5
1065
330
1062
100
AcDbEntity
  8
0
 62
   253
370
     0
100
AcDbVertex
100
AcDb2dVertex
 10
322.9920344064321
 20
378.3784915942143
 30
0.0
  0
SEQEND
  5
1066
330
1062
100
AcDbEntity
  8
0
 62
   253
370
     0
  0
ARC
  5
1067
330
1F
100
AcDbEntity
  8
0
 62
   253
370
    35
100
AcDbCircle
 10
156.3633424064322
 20
374.2019475942143
 30
0.0
 40
6.000426999999997
100
AcDbArc
 50
269.9990749999997
 51
315.0936339999992
  0
LINE
  5
1068
330
1F
100
AcDbEntity
  8
0
 62
   253
 48
0.15052
370
    35
100
AcDbLine
 10
150.3424374064321
 20
368.2015205942144
 30
0.0
 11
156.3632504064322
 21
368.2015205942144
 31
0.0
  0
ARC
  5
1069
330
1F
100
AcDbEntity
  8
0
 62
   253
370
    35
100
AcDbCircle
 10
150.3423464064321
 20
374.2019475942143
 30
0.0
 40
6.000426999999997
100
AcDbArc
 50
224.9063709999994
 51
270.0009330000002
  0
LINE
  5
106A
330
1F
100
AcDbEntity
  8
0
 62
   253
 48
0.00834
370
    35
100
AcDbLine
 10
163.7136534064322
 20
378.3784915942143
 30
0.0
 11
164.0472414064321
 21
378.3773325942143
 31
0.0
  0
LINE
  5
106B
330
1F
100
AcDbEntity
  8
0
 62
   253
 48
0.008381
370
    35
100
AcDbLine
 10
142.9936824064322
 20
378.3783695942144
 30
0.0
 11
142.6584474064322
 21
378.3773325942143
 31
0.0
  0
ARC
  5
106C
330
1F
100
AcDbEntity
  8
0
 62
   253
370
    35
100
AcDbCircle
 10
153.3508604064321
 20
377.2005135942143
 30
0.0
 40
10.248067
100
AcDbArc
 50
194.0689140000002
 51
224.905907
  0
ARC
  5
106D
330
1F
100
AcDbEntity
  8
0
 62
   253
370
    35
100
AcDbCircle
 10
153.3548274064322
 20
377.2005135942143
 30
0.0
 40
10.248067
100
AcDbArc
 50
315.0940979999997
 51
345.9310910000003
  0
POLYLINE
  5
106E
330
1F
100
AcDbEntity
  8
0
 62
   253
370
    35
100
AcDb2dPolyline
 66
     1
 10
0.0
 20
0.0
 30
0.0
  0
VERTEX
  5
106F
330
106E
100
AcDbEntity
  8
0
 62
   253
370
     0
100
AcDbVertex
100
AcDb2dVertex
 10
143.1875914064321
 20
378.5441415942143
 30
0.0
  0
VERTEX
  5
1070
330
106E
100
AcDbEntity
  8
0
 62
   253
370
     0
100
AcDbVertex
100
AcDb2dVertex
 10
143.1237484064322
 20
378.4297005942144
 30
0.0
  0
VERTEX
  5
1071
330
106E
100
AcDbEntity
  8
0
 62
   253
370
     0
100
AcDbVertex
100
AcDb2dVertex
 10
143.0393064064322
 20
378.3845955942144
 30
0.0
  0
VERTEX
  5
1072
330
106E
100
AcDbEntity
  8
0
 62
   253
370
     0
100
AcDbVertex
100
AcDb2dVertex
 10
142.9920344064322
 20
378.3784915942143
 30
0.0
  0
SEQEND
  5
1073
330
106E
100
AcDbEntity
  8
0
 62
   253
370
     0
  0
POLYLINE
  5
1074
330
1F
100
AcDbEntity
  8
0
 62
   253
370
    35
100
AcDb2dPolyline
 66
     1
 10
0.0
 20
0.0
 30
0.0
  0
VERTEX
  5
1075
330
1074
100
AcDbEntity
  8
0
 62
   253
370
     0
100
AcDbVertex
100
AcDb2dVertex
 10
163.5180974064321
 20
378.5441415942143
 30
0.0
  0
VERTEX
  5
1076
330
1074
100
AcDbEntity
  8
0
 62
   253
370
     0
100
AcDbVertex
100
AcDb2dVertex
 10
163.5819394064322
 20
378.4297005942144
 30
0.0
  0
VERTEX
  5
1077
330
1074
100
AcDbEntity
  8
0
 62
   253
370
     0
100
AcDbVertex
100
AcDb2dVertex
 10
163.6663814064322
 20
378.3845955942144
 30
0.0
  0
VERTEX
  5
1078
330
1074
100
AcDbEntity
  8
0
 62
   253
370
     0
100
AcDbVertex
100
AcDb2dVertex
 10
163.7136534064322
 20
378.3784915942143
 30
0.0
  0
SEQEND
  5
1079
330
1074
100
AcDbEntity
  8
0
 62
   253
370
     0
  0
LINE
  5
107A
330
1F
100
AcDbEntity
  8
0
 62
   253
370
    35
100
AcDbLine
 10
47.55284140643218
 20
392.1846445942141
 30
0.0
 11
47.55284140643218
 21
495.9008915942141
 31
0.0
  0
LINE
  5
107B
330
1F
100
AcDbEntity
  8
0
 62
   253
370
    35
100
AcDbLine
 10
439.1528324064322
 20
495.9008915942141
 30
0.0
 11
439.1528324064322
 21
392.1846445942141
 31
0.0
  0
ARC
  5
107C
330
1F
100
AcDbEntity
  8
0
 62
   253
370
    35
100
AcDbCircle
 10
437.163879406432
 20
495.9043095942141
 30
0.0
 40
1.988738999999999
100
AcDbArc
 50
359.9018570000002
 51
90.09815200000039
  0
LINE
  5
107D
330
1F
100
AcDbEntity
  8
0
 62
   253
370
    35
100
AcDbLine
 10
437.160461406432
 20
497.893323594214
 30
0.0
 11
49.54522740643215
 21
497.893323594214
 31
0.0
  0
ARC
  5
107E
330
1F
100
AcDbEntity
  8
0
 62
   253
370
    35
100
AcDbCircle
 10
49.54182440643217
 20
495.9043095942141
 30
0.0
 40
1.988738999999999
100
AcDbArc
 50
89.90185300000012
 51
180.0981450000006
  0
ELLIPSE
  5
107F
330
1F
100
AcDbEntity
  8
0
 62
   253
370
    35
100
AcDbEllipse
 10
47.55104040643217
 20
388.6914195942143
 30
0.0
 11
0.0
 21
-1.00030517578125
 31
0.0
210
0.0
220
0.0
230
1.0
 40
0.087476
 41
3.159042884563281
 42
3.606658725752818
  0
LINE
  5
1080
330
1F
100
AcDbEntity
  8
0
 62
   253
 48
0.001729
370
    35
100
AcDbLine
 10
47.51179540643215
 20
389.5854625942143
 30
0.0
 11
47.50161740643219
 21
389.5170415942144
 31
0.0
  0
LINE
  5
1081
330
1F
100
AcDbEntity
  8
0
 62
   253
 48
0.05415
370
    35
100
AcDbLine
 10
47.50161740643219
 20
389.5170415942144
 30
0.0
 11
47.50161740643219
 21
391.6830575942143
 31
0.0
  0
LINE
  5
1082
330
1F
100
AcDbEntity
  8
0
 62
   253
 48
0.00021
370
    35
100
AcDbLine
 10
47.50161740643219
 20
391.6830575942143
 30
0.0
 11
47.50985740643218
 21
391.6847055942143
 31
0.0
  0
ELLIPSE
  5
1083
330
1F
100
AcDbEntity
  8
0
 62
   253
370
    35
100
AcDbEllipse
 10
47.50909440643218
 20
392.1846445942141
 30
0.0
 11
0.0
 21
-0.5
 31
0.0
210
0.0
220
0.0
230
1.0
 40
0.087489
 41
0.0174532923831769
 42
1.570796326794924
  0
ELLIPSE
  5
1084
330
1F
100
AcDbEntity
  8
0
 62
   253
370
    35
100
AcDbEllipse
 10
439.1965944064322
 20
392.1846445942141
 30
0.0
 11
0.0
 21
-0.5
 31
0.0
210
0.0
220
0.0
230
1.0
 40
0.087489
 41
4.71238898038466
 42
6.265732014680807
  0
LINE
  5
1085
330
1F
100
AcDbEntity
  8
0
 62
   253
 48
0.001729
370
    35
100
AcDbLine
 10
439.1939084064321
 20
389.5854625942143
 30
0.0
 11
439.2041014064322
 21
389.5170415942144
 31
0.0
  0
ELLIPSE
  5
1086
330
1F
100
AcDbEntity
  8
0
 62
   253
370
    35
100
AcDbEllipse
 10
439.154663406432
 20
388.6916025942142
 30
0.0
 11
0.0
 21
-1.0001220703125
 31
0.0
210
0.0
220
0.0
230
1.0
 40
0.087483
 41
2.676486193645672
 42
3.124140696866378
  0
LINE
  5
1087
330
1F
100
AcDbEntity
  8
0
 62
   253
 48
0.000212
370
    35
100
AcDbLine
 10
439.2041014064322
 20
391.6830575942143
 30
0.0
 11
439.1958004064322
 21
391.6847055942143
 31
0.0
  0
LINE
  5
1088
330
1F
100
AcDbEntity
  8
0
 62
   253
 48
0.05415
370
    35
100
AcDbLine
 10
439.2041014064322
 20
389.5170415942144
 30
0.0
 11
439.2041014064322
 21
391.6830575942143
 31
0.0
  0
ELLIPSE
  5
1089
330
1F
100
AcDbEntity
  8
0
 62
   253
370
    35
100
AcDbEllipse
 10
48.04760740643217
 20
389.6915415942143
 30
0.0
 11
0.09783935546875
 21
-0.4903259277343753
 31
0.0
210
0.0
220
0.0
230
1.0
 40
0.996044
 41
4.516221549048608
 42
6.085496797811128
  0
LINE
  5
108A
330
1F
100
AcDbEntity
  8
0
 62
   253
 48
0.001589
370
    35
100
AcDbLine
 10
48.10993940643218
 20
389.2040535942143
 30
0.0
 11
48.04760740643217
 21
389.1916635942143
 31
0.0
  0
LINE
  5
108B
330
1F
100
AcDbEntity
  8
0
 62
   253
 48
0.001588
370
    35
100
AcDbLine
 10
438.5957644064322
 20
389.2040535942143
 30
0.0
 11
438.6580814064322
 21
389.1916635942143
 31
0.0
  0
ELLIPSE
  5
108C
330
1F
100
AcDbEntity
  8
0
 62
   253
370
    35
100
AcDbEllipse
 10
438.6580814064322
 20
389.6915415942143
 30
0.0
 11
0.09783935546875
 21
0.4903259277343753
 31
0.0
210
0.0
220
0.0
230
1.0
 40
0.996044
 41
3.339281162958201
 42
4.908556411720776
  0
POLYLINE
  5
108D
330
1F
100
AcDbEntity
  8
0
 62
   253
370
    35
100
AcDb2dPolyline
 66
     1
 10
0.0
 20
0.0
 30
0.0
  0
VERTEX
  5
108E
330
108D
100
AcDbEntity
  8
0
 62
   253
370
     0
100
AcDbVertex
100
AcDb2dVertex
 10
49.60423240643216
 20
389.2279795942144
 30
0.0
  0
VERTEX
  5
108F
330
108D
100
AcDbEntity
  8
0
 62
   253
370
     0
100
AcDbVertex
100
AcDb2dVertex
 10
48.30725140643215
 20
389.2149785942144
 30
0.0
  0
VERTEX
  5
1090
330
108D
100
AcDbEntity
  8
0
 62
   253
370
     0
100
AcDbVertex
100
AcDb2dVertex
 10
48.14497340643217
 20
389.2078375942143
 30
0.0
  0
VERTEX
  5
1091
330
108D
100
AcDbEntity
  8
0
 62
   253
370
     0
100
AcDbVertex
100
AcDb2dVertex
 10
48.10993940643218
 20
389.2040535942143
 30
0.0
  0
SEQEND
  5
1092
330
108D
100
AcDbEntity
  8
0
 62
   253
370
     0
  0
LINE
  5
1093
330
1F
100
AcDbEntity
  8
0
 62
   253
370
    35
100
AcDbLine
 10
49.60423240643216
 20
389.2279795942144
 30
0.0
 11
97.85284440643218
 21
389.2279795942144
 31
0.0
  0
LINE
  5
1094
330
1F
100
AcDbEntity
  8
0
 62
   253
 48
0.001736
370
    35
100
AcDbLine
 10
97.85284440643218
 20
389.1585215942143
 30
0.0
 11
97.85284440643218
 21
389.2279795942144
 31
0.0
  0
POLYLINE
  5
1095
330
1F
100
AcDbEntity
  8
0
 62
   253
370
    35
100
AcDb2dPolyline
 66
     1
 10
0.0
 20
0.0
 30
0.0
  0
VERTEX
  5
1096
330
1095
100
AcDbEntity
  8
0
 62
   253
370
     0
100
AcDbVertex
100
AcDb2dVertex
 10
97.85284440643218
 20
389.1585215942143
 30
0.0
  0
VERTEX
  5
1097
330
1095
100
AcDbEntity
  8
0
 62
   253
370
     0
100
AcDbVertex
100
AcDb2dVertex
 10
97.85337840643215
 20
389.1576055942143
 30
0.0
  0
VERTEX
  5
1098
330
1095
100
AcDbEntity
  8
0
 62
   253
370
     0
100
AcDbVertex
100
AcDb2dVertex
 10
97.85433940643216
 20
389.1569955942143
 30
0.0
  0
VERTEX
  5
1099
330
1095
100
AcDbEntity
  8
0
 62
   253
370
     0
100
AcDbVertex
100
AcDb2dVertex
 10
97.85771140643221
 20
389.1557745942143
 30
0.0
  0
VERTEX
  5
109A
330
1095
100
AcDbEntity
  8
0
 62
   253
370
     0
100
AcDbVertex
100
AcDb2dVertex
 10
97.89654540643216
 20
389.1503425942143
 30
0.0
  0
VERTEX
  5
109B
330
1095
100
AcDbEntity
  8
0
 62
   253
370
     0
100
AcDbVertex
100
AcDb2dVertex
 10
98.03689540643215
 20
389.1419805942143
 30
0.0
  0
VERTEX
  5
109C
330
1095
100
AcDbEntity
  8
0
 62
   253
370
     0
100
AcDbVertex
100
AcDb2dVertex
 10
99.17637640643221
 20
389.1198245942144
 30
0.0
  0
SEQEND
  5
109D
330
1095
100
AcDbEntity
  8
0
 62
   253
370
     0
  0
ARC
  5
109E
330
1F
100
AcDbEntity
  8
0
 62
   253
370
    35
100
AcDbCircle
 10
117.8280334064321
 20
2485.235486594215
 30
0.0
 40
2096.199158
100
AcDbArc
 50
269.4901849999997
 51
270.0143479999996
  0
LINE
  5
109F
330
1F
100
AcDbEntity
  8
0
 62
   253
370
    35
100
AcDbLine
 10
118.3528444064322
 20
389.0360235942143
 30
0.0
 11
188.3528444064322
 21
389.0360235942143
 31
0.0
  0
ARC
  5
10A0
330
1F
100
AcDbEntity
  8
0
 62
   253
370
    35
100
AcDbCircle
 10
188.8793944064322
 20
2485.893689594214
 30
0.0
 40
2096.857247
100
AcDbArc
 50
269.9856129999998
 51
270.5096119999998
  0
POLYLINE
  5
10A1
330
1F
100
AcDbEntity
  8
0
 62
   253
370
    35
100
AcDb2dPolyline
 66
     1
 10
0.0
 20
0.0
 30
0.0
  0
VERTEX
  5
10A2
330
10A1
100
AcDbEntity
  8
0
 62
   253
370
     0
100
AcDbVertex
100
AcDb2dVertex
 10
207.5293274064322
 20
389.1198245942144
 30
0.0
  0
VERTEX
  5
10A3
330
10A1
100
AcDbEntity
  8
0
 62
   253
370
     0
100
AcDbVertex
100
AcDb2dVertex
 10
207.9159544064322
 20
389.1242805942143
 30
0.0
  0
VERTEX
  5
10A4
330
10A1
100
AcDbEntity
  8
0
 62
   253
370
     0
100
AcDbVertex
100
AcDb2dVertex
 10
208.7439574064322
 20
389.1457035942143
 30
0.0
  0
VERTEX
  5
10A5
330
10A1
100
AcDbEntity
  8
0
 62
   253
370
     0
100
AcDbVertex
100
AcDb2dVertex
 10
208.8406984064322
 20
389.1541875942144
 30
0.0
  0
VERTEX
  5
10A6
330
10A1
100
AcDbEntity
  8
0
 62
   253
370
     0
100
AcDbVertex
100
AcDb2dVertex
 10
208.8490904064322
 20
389.1560795942144
 30
0.0
  0
VERTEX
  5
10A7
330
10A1
100
AcDbEntity
  8
0
 62
   253
370
     0
100
AcDbVertex
100
AcDb2dVertex
 10
208.8515014064322
 20
389.1570565942144
 30
0.0
  0
VERTEX
  5
10A8
330
10A1
100
AcDbEntity
  8
0
 62
   253
370
     0
100
AcDbVertex
100
AcDb2dVertex
 10
208.8528444064322
 20
389.1585215942143
 30
0.0
  0
SEQEND
  5
10A9
330
10A1
100
AcDbEntity
  8
0
 62
   253
370
     0
  0
LINE
  5
10AA
330
1F
100
AcDbEntity
  8
0
 62
   253
 48
0.001736
370
    35
100
AcDbLine
 10
208.8528444064322
 20
389.2279795942144
 30
0.0
 11
208.8528444064322
 21
389.1585215942143
 31
0.0
  0
LINE
  5
10AB
330
1F
100
AcDbEntity
  8
0
 62
   253
370
    35
100
AcDbLine
 10
208.8528444064322
 20
389.2279795942144
 30
0.0
 11
277.8528444064322
 21
389.2279795942144
 31
0.0
  0
LINE
  5
10AC
330
1F
100
AcDbEntity
  8
0
 62
   253
 48
0.001736
370
    35
100
AcDbLine
 10
277.8528444064322
 20
389.2279795942144
 30
0.0
 11
277.8528444064322
 21
389.1585215942143
 31
0.0
  0
POLYLINE
  5
10AD
330
1F
100
AcDbEntity
  8
0
 62
   253
370
    35
100
AcDb2dPolyline
 66
     1
 10
0.0
 20
0.0
 30
0.0
  0
VERTEX
  5
10AE
330
10AD
100
AcDbEntity
  8
0
 62
   253
370
     0
100
AcDbVertex
100
AcDb2dVertex
 10
277.8528444064322
 20
389.1585215942143
 30
0.0
  0
VERTEX
  5
10AF
330
10AD
100
AcDbEntity
  8
0
 62
   253
370
     0
100
AcDbVertex
100
AcDb2dVertex
 10
277.8538204064322
 20
389.1572395942143
 30
0.0
  0
VERTEX
  5
10B0
330
10AD
100
AcDbEntity
  8
0
 62
   253
370
     0
100
AcDbVertex
100
AcDb2dVertex
 10
277.8560484064322
 20
389.1562625942143
 30
0.0
  0
VERTEX
  5
10B1
330
10AD
100
AcDbEntity
  8
0
 62
   253
370
     0
100
AcDbVertex
100
AcDb2dVertex
 10
277.8815914064322
 20
389.1518685942143
 30
0.0
  0
VERTEX
  5
10B2
330
10AD
100
AcDbEntity
  8
0
 62
   253
370
     0
100
AcDbVertex
100
AcDb2dVertex
 10
278.3019104064322
 20
389.1334355942142
 30
0.0
  0
VERTEX
  5
10B3
330
10AD
100
AcDbEntity
  8
0
 62
   253
370
     0
100
AcDbVertex
100
AcDb2dVertex
 10
279.1763614064322
 20
389.1198245942144
 30
0.0
  0
SEQEND
  5
10B4
330
10AD
100
AcDbEntity
  8
0
 62
   253
370
     0
  0
ARC
  5
10B5
330
1F
100
AcDbEntity
  8
0
 62
   253
370
    35
100
AcDbCircle
 10
297.8266604064322
 20
2485.757459594215
 30
0.0
 40
2096.721102
100
AcDbArc
 50
269.4903490000001
 51
270.0143820000004
  0
LINE
  5
10B6
330
1F
100
AcDbEntity
  8
0
 62
   253
370
    35
100
AcDbLine
 10
298.3528444064322
 20
389.0360235942143
 30
0.0
 11
368.3528444064322
 21
389.0360235942143
 31
0.0
  0
ARC
  5
10B7
330
1F
100
AcDbEntity
  8
0
 62
   253
370
    35
100
AcDbCircle
 10
368.8790284064321
 20
2485.755750594215
 30
0.0
 40
2096.719374
100
AcDbArc
 50
269.9856200000001
 51
270.5096529999996
  0
POLYLINE
  5
10B8
330
1F
100
AcDbEntity
  8
0
 62
   253
370
    35
100
AcDb2dPolyline
 66
     1
 10
0.0
 20
0.0
 30
0.0
  0
VERTEX
  5
10B9
330
10B8
100
AcDbEntity
  8
0
 62
   253
370
     0
100
AcDbVertex
100
AcDb2dVertex
 10
387.5292964064322
 20
389.1198245942144
 30
0.0
  0
VERTEX
  5
10BA
330
10B8
100
AcDbEntity
  8
0
 62
   253
370
     0
100
AcDbVertex
100
AcDb2dVertex
 10
388.3804934064322
 20
389.1328865942142
 30
0.0
  0
VERTEX
  5
10BB
330
10B8
100
AcDbEntity
  8
0
 62
   253
370
     0
100
AcDbVertex
100
AcDb2dVertex
 10
388.8174434064323
 20
389.1511355942142
 30
0.0
  0
VERTEX
  5
10BC
330
10B8
100
AcDbEntity
  8
0
 62
   253
370
     0
100
AcDbVertex
100
AcDb2dVertex
 10
388.8488774064322
 20
389.1560185942143
 30
0.0
  0
VERTEX
  5
10BD
330
10B8
100
AcDbEntity
  8
0
 62
   253
370
     0
100
AcDbVertex
100
AcDb2dVertex
 10
388.8516234064322
 20
389.1571175942144
 30
0.0
  0
VERTEX
  5
10BE
330
10B8
100
AcDbEntity
  8
0
 62
   253
370
     0
100
AcDbVertex
100
AcDb2dVertex
 10
388.8528444064322
 20
389.1585215942143
 30
0.0
  0
SEQEND
  5
10BF
330
10B8
100
AcDbEntity
  8
0
 62
   253
370
     0
  0
LINE
  5
10C0
330
1F
100
AcDbEntity
  8
0
 62
   253
 48
0.001736
370
    35
100
AcDbLine
 10
388.8528444064322
 20
389.1585215942143
 30
0.0
 11
388.8528444064322
 21
389.2279795942144
 31
0.0
  0
LINE
  5
10C1
330
1F
100
AcDbEntity
  8
0
 62
   253
370
    35
100
AcDbLine
 10
388.8528444064322
 20
389.2279795942144
 30
0.0
 11
437.1014404064322
 21
389.2279795942144
 31
0.0
  0
POLYLINE
  5
10C2
330
1F
100
AcDbEntity
  8
0
 62
   253
370
    35
100
AcDb2dPolyline
 66
     1
 10
0.0
 20
0.0
 30
0.0
  0
VERTEX
  5
10C3
330
10C2
100
AcDbEntity
  8
0
 62
   253
370
     0
100
AcDbVertex
100
AcDb2dVertex
 10
437.1014404064322
 20
389.2279795942144
 30
0.0
  0
VERTEX
  5
10C4
330
10C2
100
AcDbEntity
  8
0
 62
   253
370
     0
100
AcDbVertex
100
AcDb2dVertex
 10
438.398437406432
 20
389.2149785942144
 30
0.0
  0
VERTEX
  5
10C5
330
10C2
100
AcDbEntity
  8
0
 62
   253
370
     0
100
AcDbVertex
100
AcDb2dVertex
 10
438.5607304064321
 20
389.2078375942143
 30
0.0
  0
VERTEX
  5
10C6
330
10C2
100
AcDbEntity
  8
0
 62
   253
370
     0
100
AcDbVertex
100
AcDb2dVertex
 10
438.5957644064322
 20
389.2040535942143
 30
0.0
  0
SEQEND
  5
10C7
330
10C2
100
AcDbEntity
  8
0
 62
   253
370
     0
  0
LINE
  5
10C8
330
1F
100
AcDbEntity
  8
0
 62
   253
 48
0.099519
370
    35
100
AcDbLine
 10
98.35284440643221
 20
393.7086925942143
 30
0.0
 11
98.35284440643221
 21
389.7279185942143
 31
0.0
  0
ARC
  5
10C9
330
1F
100
AcDbEntity
  8
0
 62
   253
370
    35
100
AcDbCircle
 10
100.3631744064321
 20
393.7136965942143
 30
0.0
 40
2.009978999999999
100
AcDbArc
 50
118.2594940000003
 51
180.1419950000004
  0
ARC
  5
10CA
330
1F
100
AcDbEntity
  8
0
 62
   253
370
    35
100
AcDbCircle
 10
118.3486634064322
 20
360.0413945942142
 30
0.0
 40
40.184578
100
AcDbArc
 50
89.99405299999969
 51
118.1157320000001
  0
LINE
  5
10CB
330
1F
100
AcDbEntity
  8
0
 62
   253
370
    35
100
AcDbLine
 10
118.3528444064322
 20
400.2261485942141
 30
0.0
 11
188.3528444064322
 21
400.2261485942141
 31
0.0
  0
ARC
  5
10CC
330
1F
100
AcDbEntity
  8
0
 62
   253
370
    35
100
AcDbCircle
 10
188.357055406432
 20
360.0415165942144
 30
0.0
 40
40.18446599999999
100
AcDbArc
 50
61.8842249999998
 51
90.00599299999995
  0
ARC
  5
10CD
330
1F
100
AcDbEntity
  8
0
 62
   253
370
    35
100
AcDbCircle
 10
206.3424984064322
 20
393.7136965942143
 30
0.0
 40
2.009978999999999
100
AcDbArc
 50
359.8580100000008
 51
61.74050499999999
  0
LINE
  5
10CE
330
1F
100
AcDbEntity
  8
0
 62
   253
 48
0.099519
370
    35
100
AcDbLine
 10
208.3528444064322
 20
393.7086925942143
 30
0.0
 11
208.3528444064322
 21
389.7279185942143
 31
0.0
  0
LINE
  5
10CF
330
1F
100
AcDbEntity
  8
0
 62
   253
 48
0.099519
370
    35
100
AcDbLine
 10
278.3528444064322
 20
393.7086925942143
 30
0.0
 11
278.3528444064322
 21
389.7279185942143
 31
0.0
  0
ARC
  5
10D0
330
1F
100
AcDbEntity
  8
0
 62
   253
370
    35
100
AcDbCircle
 10
280.3631894064322
 20
393.7136355942142
 30
0.0
 40
2.010003999999999
100
AcDbArc
 50
118.2591790000002
 51
180.1409150000004
  0
ARC
  5
10D1
330
1F
100
AcDbEntity
  8
0
 62
   253
370
    35
100
AcDbCircle
 10
298.3486634064322
 20
360.0413945942142
 30
0.0
 40
40.184578
100
AcDbArc
 50
89.99405299999969
 51
118.1157320000001
  0
LINE
  5
10D2
330
1F
100
AcDbEntity
  8
0
 62
   253
370
    35
100
AcDbLine
 10
298.3528444064322
 20
400.2261485942141
 30
0.0
 11
368.3528444064322
 21
400.2261485942141
 31
0.0
  0
ARC
  5
10D3
330
1F
100
AcDbEntity
  8
0
 62
   253
370
    35
100
AcDbCircle
 10
368.3570554064322
 20
360.0415165942144
 30
0.0
 40
40.18446599999999
100
AcDbArc
 50
61.8842249999998
 51
90.00599299999995
  0
ARC
  5
10D4
330
1F
100
AcDbEntity
  8
0
 62
   253
370
    35
100
AcDbCircle
 10
386.3425294064321
 20
393.7136965942143
 30
0.0
 40
2.009978999999999
100
AcDbArc
 50
359.8580100000008
 51
61.74050499999999
  0
LINE
  5
10D5
330
1F
100
AcDbEntity
  8
0
 62
   253
 48
0.099519
370
    35
100
AcDbLine
 10
388.3528444064322
 20
393.7086925942143
 30
0.0
 11
388.3528444064322
 21
389.7279185942143
 31
0.0
  0
ELLIPSE
  5
10D6
330
1F
100
AcDbEntity
  8
0
 62
   253
370
    35
100
AcDbEllipse
 10
97.85284440643218
 20
389.6584605942143
 30
0.0
 11
-0.5
 21
0.0
 31
0.0
210
0.0
220
0.0
230
1.0
 40
0.9998479999999998
 41
1.570796658250896
 42
3.14159262254987
  0
LINE
  5
10D7
330
1F
100
AcDbEntity
  8
0
 62
   253
 48
0.001736
370
    35
100
AcDbLine
 10
98.35284440643221
 20
389.6584605942143
 30
0.0
 11
98.35284440643221
 21
389.7279185942143
 31
0.0
  0
ELLIPSE
  5
10D8
330
1F
100
AcDbEntity
  8
0
 62
   253
370
    35
100
AcDbEllipse
 10
97.85284440643218
 20
389.7279185942143
 30
0.0
 11
-0.5
 21
0.0
 31
0.0
210
0.0
220
0.0
230
1.0
 40
0.9998479999999998
 41
1.570796326794896
 42
3.141592653589792
  0
LINE
  5
10D9
330
1F
100
AcDbEntity
  8
0
 62
   253
 48
0.012173
370
    35
100
AcDbLine
 10
118.3528444064322
 20
389.0360235942143
 30
0.0
 11
118.3528444064322
 21
389.5229625942143
 31
0.0
  0
LINE
  5
10DA
330
1F
100
AcDbEntity
  8
0
 62
   253
 48
0.012173
370
    35
100
AcDbLine
 10
188.3528444064322
 20
389.0360235942143
 30
0.0
 11
188.3528444064322
 21
389.5229625942143
 31
0.0
  0
LINE
  5
10DB
330
1F
100
AcDbEntity
  8
0
 62
   253
 48
0.001736
370
    35
100
AcDbLine
 10
208.3528444064322
 20
389.7279185942143
 30
0.0
 11
208.3528444064322
 21
389.6584605942143
 31
0.0
  0
ELLIPSE
  5
10DC
330
1F
100
AcDbEntity
  8
0
 62
   253
370
    35
100
AcDbEllipse
 10
208.8528444064322
 20
389.7279185942143
 30
0.0
 11
-0.5
 21
0.0
 31
0.0
210
0.0
220
0.0
230
1.0
 40
0.9998479999999998
 41
0.0
 42
1.570796326794896
  0
LINE
  5
10DD
330
1F
100
AcDbEntity
  8
0
 62
   253
 48
0.001736
370
    35
100
AcDbLine
 10
278.3528444064322
 20
389.7279185942143
 30
0.0
 11
278.3528444064322
 21
389.6584605942143
 31
0.0
  0
ELLIPSE
  5
10DE
330
1F
100
AcDbEntity
  8
0
 62
   253
370
    35
100
AcDbEllipse
 10
277.8528444064322
 20
389.7279185942143
 30
0.0
 11
-0.5
 21
0.0
 31
0.0
210
0.0
220
0.0
230
1.0
 40
0.9998479999999998
 41
1.570796326794896
 42
3.141592653589792
  0
LINE
  5
10DF
330
1F
100
AcDbEntity
  8
0
 62
   253
 48
0.012173
370
    35
100
AcDbLine
 10
298.3528444064322
 20
389.0360235942143
 30
0.0
 11
298.3528444064322
 21
389.5229625942143
 31
0.0
  0
LINE
  5
10E0
330
1F
100
AcDbEntity
  8
0
 62
   253
 48
0.012173
370
    35
100
AcDbLine
 10
368.3528444064322
 20
389.0360235942143
 30
0.0
 11
368.3528444064322
 21
389.5229625942143
 31
0.0
  0
LINE
  5
10E1
330
1F
100
AcDbEntity
  8
0
 62
   253
 48
0.001736
370
    35
100
AcDbLine
 10
388.3528444064322
 20
389.6584605942143
 30
0.0
 11
388.3528444064322
 21
389.7279185942143
 31
0.0
  0
ELLIPSE
  5
10E2
330
1F
100
AcDbEntity
  8
0
 62
   253
370
    35
100
AcDbEllipse
 10
388.8528444064322
 20
389.7279185942143
 30
0.0
 11
0.5
 21
0.0
 31
0.0
210
0.0
220
0.0
230
1.0
 40
0.9998479999999998
 41
3.141592653589792
 42
4.712388980384688
  0
LINE
  5
10E3
330
1F
100
AcDbEntity
  8
0
 62
   253
 48
0.2675800000000001
370
    35
100
AcDbLine
 10
118.3528444064322
 20
389.5229625942143
 30
0.0
 11
118.3528444064322
 21
400.2261485942141
 31
0.0
  0
LINE
  5
10E4
330
1F
100
AcDbEntity
  8
0
 62
   253
 48
0.2675800000000001
370
    35
100
AcDbLine
 10
188.3528444064322
 20
389.5229625942143
 30
0.0
 11
188.3528444064322
 21
400.2261485942141
 31
0.0
  0
LINE
  5
10E5
330
1F
100
AcDbEntity
  8
0
 62
   253
 48
0.2675800000000001
370
    35
100
AcDbLine
 10
298.3528444064322
 20
389.5229625942143
 30
0.0
 11
298.3528444064322
 21
400.2261485942141
 31
0.0
  0
LINE
  5
10E6
330
1F
100
AcDbEntity
  8
0
 62
   253
 48
0.2675800000000001
370
    35
100
AcDbLine
 10
368.3528444064322
 20
389.5229625942143
 30
0.0
 11
368.3528444064322
 21
400.2261485942141
 31
0.0
  0
LINE
  5
10E7
330
1F
100
AcDbEntity
  8
0
 62
   253
 48
0.000185
370
    35
100
AcDbLine
 10
47.5102694064322
 20
388.6753055942143
 30
0.0
 11
47.51019240643219
 21
388.6826915942144
 31
0.0
  0
LINE
  5
10E8
330
1F
100
AcDbEntity
  8
0
 62
   253
370
    35
100
AcDbLine
 10
440.6441654064321
 20
498.9707155942141
 30
0.0
 11
440.6441654064321
 21
366.7818425942144
 31
0.0
  0
LINE
  5
10E9
330
1F
100
AcDbEntity
  8
0
 62
   253
370
    35
100
AcDbLine
 10
48.06141640643218
 20
364.7819345942143
 30
0.0
 11
438.6442874064321
 21
364.7819345942143
 31
0.0
  0
ARC
  5
10EA
330
1F
100
AcDbEntity
  8
0
 62
   253
370
    35
100
AcDbCircle
 10
438.644409406432
 20
366.7816905942143
 30
0.0
 40
1.999774
100
AcDbArc
 50
269.9958449999999
 51
0.0041569999996011
  0
ARC
  5
10EB
330
1F
100
AcDbEntity
  8
0
 62
   253
370
    35
100
AcDbCircle
 10
438.644409406432
 20
498.9708385942143
 30
0.0
 40
1.999774
100
AcDbArc
 50
359.9958430000003
 51
90.00415500000004
  0
LINE
  5
10EC
330
1F
100
AcDbEntity
  8
0
 62
   253
370
    35
100
AcDbLine
 10
46.06149240643218
 20
498.9707155942141
 30
0.0
 11
46.06149240643218
 21
366.7818425942144
 31
0.0
  0
ARC
  5
10ED
330
1F
100
AcDbEntity
  8
0
 62
   253
370
    35
100
AcDbCircle
 10
48.06127940643214
 20
498.9708385942143
 30
0.0
 40
1.999774
100
AcDbArc
 50
89.99584300000041
 51
180.0041610000003
  0
ARC
  5
10EE
330
1F
100
AcDbEntity
  8
0
 62
   253
370
    35
100
AcDbCircle
 10
48.06127940643214
 20
366.7816905942143
 30
0.0
 40
1.999774
100
AcDbArc
 50
179.9958389999996
 51
270.0041569999996
  0
LINE
  5
10EF
330
1F
100
AcDbEntity
  8
0
 62
   253
 48
0.000108
370
    35
100
AcDbLine
 10
431.3615114064321
 20
497.8963755942142
 30
0.0
 11
431.3645634064322
 21
497.893323594214
 31
0.0
  0
LINE
  5
10F0
330
1F
100
AcDbEntity
  8
0
 62
   253
 48
0.000108
370
    35
100
AcDbLine
 10
429.344177406432
 20
497.8963755942142
 30
0.0
 11
429.3411254064321
 21
497.893323594214
 31
0.0
  0
LINE
  5
10F1
330
1F
100
AcDbEntity
  8
0
 62
   253
 48
0.000108
370
    35
100
AcDbLine
 10
291.8615114064321
 20
497.8963755942142
 30
0.0
 11
291.8645634064321
 21
497.893323594214
 31
0.0
  0
LINE
  5
10F2
330
1F
100
AcDbEntity
  8
0
 62
   253
 48
0.000108
370
    35
100
AcDbLine
 10
289.8441774064322
 20
497.8963755942142
 30
0.0
 11
289.8411254064321
 21
497.893323594214
 31
0.0
  0
LINE
  5
10F3
330
1F
100
AcDbEntity
  8
0
 62
   253
 48
0.000108
370
    35
100
AcDbLine
 10
196.861511406432
 20
497.8963755942142
 30
0.0
 11
196.8645634064322
 21
497.893323594214
 31
0.0
  0
LINE
  5
10F4
330
1F
100
AcDbEntity
  8
0
 62
   253
 48
0.000108
370
    35
100
AcDbLine
 10
194.8441774064322
 20
497.8963755942142
 30
0.0
 11
194.8411254064322
 21
497.893323594214
 31
0.0
  0
LINE
  5
10F5
330
1F
100
AcDbEntity
  8
0
 62
   253
 48
0.000108
370
    35
100
AcDbLine
 10
57.36151140643219
 20
497.8963755942142
 30
0.0
 11
57.36457840643217
 21
497.893323594214
 31
0.0
  0
LINE
  5
10F6
330
1F
100
AcDbEntity
  8
0
 62
   253
 48
0.000108
370
    35
100
AcDbLine
 10
55.34417740643218
 20
497.8963755942142
 30
0.0
 11
55.34111040643219
 21
497.893323594214
 31
0.0
  0
LINE
  5
10F7
330
1F
100
AcDbEntity
  8
0
 62
     7
 48
0.018748
370
    35
100
AcDbLine
 10
452.3528444064321
 20
566.9653445942142
 30
0.0
 11
452.3528444064321
 21
567.7152835942142
 31
0.0
  0
LINE
  5
10F8
330
1F
100
AcDbEntity
  8
0
 62
     7
 48
0.018748
370
    35
100
AcDbLine
 10
34.35284440643219
 20
566.9653445942142
 30
0.0
 11
34.35284440643219
 21
567.7152835942142
 31
0.0
  0
LINE
  5
10F9
330
1F
100
AcDbEntity
  8
0
 62
     7
 48
0.00145
370
    35
100
AcDbLine
 10
34.35284440643219
 20
567.7152835942142
 30
0.0
 11
34.35284440643219
 21
567.7732675942142
 31
0.0
  0
LINE
  5
10FA
330
1F
100
AcDbEntity
  8
0
 62
     7
370
    35
100
AcDbLine
 10
452.3528444064321
 20
567.7732675942142
 30
0.0
 11
34.35284440643219
 21
567.7732675942142
 31
0.0
  0
LINE
  5
10FB
330
1F
100
AcDbEntity
  8
0
 62
     7
 48
0.00145
370
    35
100
AcDbLine
 10
452.3528444064321
 20
567.7152835942142
 30
0.0
 11
452.3528444064321
 21
567.7732675942142
 31
0.0
  0
LINE
  5
10FC
330
1F
100
AcDbEntity
  8
0
 62
     7
 48
0.00174
370
    35
100
AcDbLine
 10
19.64407340643217
 20
557.9214605942143
 30
0.0
 11
19.60551440643218
 21
557.9793825942143
 31
0.0
  0
ARC
  5
10FD
330
1F
100
AcDbEntity
  8
0
 62
     7
370
    35
100
AcDbCircle
 10
34.35284440643219
 20
551.7732675942141
 30
0.0
 40
16.0
100
AcDbArc
 50
90.00000300000015
 51
157.1770370000004
  0
POLYLINE
  5
10FE
330
1F
100
AcDbEntity
  8
0
 62
     7
370
    35
100
AcDb2dPolyline
 66
     1
 10
0.0
 20
0.0
 30
0.0
  0
VERTEX
  5
10FF
330
10FE
100
AcDbEntity
  8
0
370
     0
100
AcDbVertex
100
AcDb2dVertex
 10
20.45545940643217
 20
557.9102305942143
 30
0.0
  0
VERTEX
  5
1100
330
10FE
100
AcDbEntity
  8
0
370
     0
100
AcDbVertex
100
AcDb2dVertex
 10
19.86003140643217
 20
557.9150515942143
 30
0.0
  0
VERTEX
  5
1101
330
10FE
100
AcDbEntity
  8
0
370
     0
100
AcDbVertex
100
AcDb2dVertex
 10
19.65274040643217
 20
557.9201785942143
 30
0.0
  0
VERTEX
  5
1102
330
10FE
100
AcDbEntity
  8
0
370
     0
100
AcDbVertex
100
AcDb2dVertex
 10
19.64521740643218
 20
557.9210335942143
 30
0.0
  0
VERTEX
  5
1103
330
10FE
100
AcDbEntity
  8
0
370
     0
100
AcDbVertex
100
AcDb2dVertex
 10
19.64407340643217
 20
557.9214605942143
 30
0.0
  0
SEQEND
  5
1104
330
10FE
100
AcDbEntity
  8
0
370
     0
  0
LINE
  5
1105
330
1F
100
AcDbEntity
  8
0
 62
     7
 48
0.054432
370
    35
100
AcDbLine
 10
22.63270540643217
 20
557.9002815942142
 30
0.0
 11
20.45545940643217
 21
557.9102305942143
 31
0.0
  0
LINE
  5
1106
330
1F
100
AcDbEntity
  8
0
 62
     7
 48
0.049176
370
    35
100
AcDbLine
 10
34.35284440643219
 20
564.9983035942142
 30
0.0
 11
34.35284440643219
 21
566.9653445942142
 31
0.0
  0
LINE
  5
1107
330
1F
100
AcDbEntity
  8
0
 62
   253
 48
0.050433
370
    35
100
AcDbLine
 10
429.344177406432
 20
497.8963755942142
 30
0.0
 11
431.3615114064321
 21
497.8963755942142
 31
0.0
  0
LINE
  5
1108
330
1F
100
AcDbEntity
  8
0
 62
   253
 48
0.050433
370
    35
100
AcDbLine
 10
55.34417740643218
 20
497.8963755942142
 30
0.0
 11
57.36151140643219
 21
497.8963755942142
 31
0.0
  0
LINE
  5
1109
330
1F
100
AcDbEntity
  8
0
 62
   253
 48
0.050433
370
    35
100
AcDbLine
 10
194.8441774064322
 20
497.8963755942142
 30
0.0
 11
196.861511406432
 21
497.8963755942142
 31
0.0
  0
LINE
  5
110A
330
1F
100
AcDbEntity
  8
0
 62
   253
 48
0.050433
370
    35
100
AcDbLine
 10
289.8441774064322
 20
497.8963755942142
 30
0.0
 11
291.8615114064321
 21
497.8963755942142
 31
0.0
  0
LINE
  5
110B
330
1F
100
AcDbEntity
  8
0
 62
     7
 48
0.049176
370
    35
100
AcDbLine
 10
452.3528444064321
 20
564.9983035942142
 30
0.0
 11
452.3528444064321
 21
566.9653445942142
 31
0.0
  0
LINE
  5
110C
330
1F
100
AcDbEntity
  8
0
 62
     7
 48
0.054432
370
    35
100
AcDbLine
 10
466.2502444064322
 20
557.9102305942143
 30
0.0
 11
464.0729984064321
 21
557.9002815942142
 31
0.0
  0
POLYLINE
  5
110D
330
1F
100
AcDbEntity
  8
0
 62
     7
370
    35
100
AcDb2dPolyline
 66
     1
 10
0.0
 20
0.0
 30
0.0
  0
VERTEX
  5
110E
330
110D
100
AcDbEntity
  8
0
370
     0
100
AcDbVertex
100
AcDb2dVertex
 10
466.2502444064322
 20
557.9102305942143
 30
0.0
  0
VERTEX
  5
110F
330
110D
100
AcDbEntity
  8
0
370
     0
100
AcDbVertex
100
AcDb2dVertex
 10
466.8456424064321
 20
557.9150515942143
 30
0.0
  0
VERTEX
  5
1110
330
110D
100
AcDbEntity
  8
0
370
     0
100
AcDbVertex
100
AcDb2dVertex
 10
467.0529784064321
 20
557.9201785942143
 30
0.0
  0
VERTEX
  5
1111
330
110D
100
AcDbEntity
  8
0
370
     0
100
AcDbVertex
100
AcDb2dVertex
 10
467.0604854064321
 20
557.9210335942143
 30
0.0
  0
VERTEX
  5
1112
330
110D
100
AcDbEntity
  8
0
370
     0
100
AcDbVertex
100
AcDb2dVertex
 10
467.0616454064322
 20
557.9214605942143
 30
0.0
  0
SEQEND
  5
1113
330
110D
100
AcDbEntity
  8
0
370
     0
  0
ARC
  5
1114
330
1F
100
AcDbEntity
  8
0
 62
     7
370
    35
100
AcDbCircle
 10
452.3528444064321
 20
551.7732675942141
 30
0.0
 40
16.0
100
AcDbArc
 50
22.82296100000014
 51
90.00000300000015
  0
LINE
  5
1115
330
1F
100
AcDbEntity
  8
0
 62
     7
 48
0.001739
370
    35
100
AcDbLine
 10
467.100158406432
 20
557.9793825942143
 30
0.0
 11
467.0616454064322
 21
557.9214605942143
 31
0.0
  0
LINE
  5
1116
330
1F
100
AcDbEntity
  8
0
 62
     7
370
    35
100
AcDbLine
 10
18.35284440643218
 20
348.9794435942144
 30
0.0
 11
18.35284440643218
 21
545.5671515942141
 31
0.0
  0
LINE
  5
1117
330
1F
100
AcDbEntity
  8
0
 62
     7
 48
0.00205
370
    35
100
AcDbLine
 10
18.35284440643218
 20
348.9794435942144
 30
0.0
 11
18.41081240643217
 21
348.9214605942144
 31
0.0
  0
LINE
  5
1118
330
1F
100
AcDbEntity
  8
0
 62
     7
 48
0.002049
370
    35
100
AcDbLine
 10
18.35284440643218
 20
545.5671515942141
 30
0.0
 11
18.41081240643217
 21
545.6250735942143
 31
0.0
  0
POLYLINE
  5
1119
330
1F
100
AcDbEntity
  8
0
 62
     7
370
    35
100
AcDb2dPolyline
 66
     1
 10
0.0
 20
0.0
 30
0.0
  0
VERTEX
  5
111A
330
1119
100
AcDbEntity
  8
0
370
     0
100
AcDbVertex
100
AcDb2dVertex
 10
18.41081240643217
 20
348.9214605942144
 30
0.0
  0
VERTEX
  5
111B
330
1119
100
AcDbEntity
  8
0
370
     0
100
AcDbVertex
100
AcDb2dVertex
 10
18.41407740643217
 20
348.9206975942143
 30
0.0
  0
VERTEX
  5
111C
330
1119
100
AcDbEntity
  8
0
370
     0
100
AcDbVertex
100
AcDb2dVertex
 10
18.43557740643217
 20
348.9192025942143
 30
0.0
  0
VERTEX
  5
111D
330
1119
100
AcDbEntity
  8
0
370
     0
100
AcDbVertex
100
AcDb2dVertex
 10
19.16075140643218
 20
348.9102305942143
 30
0.0
  0
SEQEND
  5
111E
330
1119
100
AcDbEntity
  8
0
370
     0
  0
POLYLINE
  5
111F
330
1F
100
AcDbEntity
  8
0
 62
     7
370
    35
100
AcDb2dPolyline
 66
     1
 10
0.0
 20
0.0
 30
0.0
  0
VERTEX
  5
1120
330
111F
100
AcDbEntity
  8
0
370
     0
100
AcDbVertex
100
AcDb2dVertex
 10
18.41081240643217
 20
545.6250735942143
 30
0.0
  0
VERTEX
  5
1121
330
111F
100
AcDbEntity
  8
0
370
     0
100
AcDbVertex
100
AcDb2dVertex
 10
18.41407740643217
 20
545.6258675942144
 30
0.0
  0
VERTEX
  5
1122
330
111F
100
AcDbEntity
  8
0
370
     0
100
AcDbVertex
100
AcDb2dVertex
 10
18.43557740643217
 20
545.6273325942142
 30
0.0
  0
VERTEX
  5
1123
330
111F
100
AcDbEntity
  8
0
370
     0
100
AcDbVertex
100
AcDb2dVertex
 10
19.16075140643218
 20
545.6363045942143
 30
0.0
  0
SEQEND
  5
1124
330
111F
100
AcDbEntity
  8
0
370
     0
  0
LINE
  5
1125
330
1F
100
AcDbEntity
  8
0
 62
     7
 48
0.049176
370
    35
100
AcDbLine
 10
21.12777740643216
 20
545.6462535942144
 30
0.0
 11
19.16075140643218
 21
545.6363045942143
 31
0.0
  0
LINE
  5
1126
330
1F
100
AcDbEntity
  8
0
 62
     7
 48
0.049176
370
    35
100
AcDbLine
 10
21.12777740643216
 20
348.9003115942143
 30
0.0
 11
19.16075140643218
 21
348.9102305942143
 31
0.0
  0
LINE
  5
1127
330
1F
100
AcDbEntity
  8
0
 62
     7
 48
0.018747
370
    35
100
AcDbLine
 10
34.35284440643219
 20
564.9983035942142
 30
0.0
 11
34.35284440643219
 21
564.2484255942142
 31
0.0
  0
ARC
  5
1128
330
1F
100
AcDbEntity
  8
0
 62
     7
370
    35
100
AcDbCircle
 10
34.35284440643219
 20
551.7732675942141
 30
0.0
 40
12.475126
100
AcDbArc
 50
90.00000300000015
 51
150.6434970000007
  0
POLYLINE
  5
1129
330
1F
100
AcDbEntity
  8
0
 62
     7
370
    35
100
AcDb2dPolyline
 66
     1
 10
0.0
 20
0.0
 30
0.0
  0
VERTEX
  5
112A
330
1129
100
AcDbEntity
  8
0
370
     0
100
AcDbVertex
100
AcDb2dVertex
 10
23.47969040643218
 20
557.8891115942142
 30
0.0
  0
VERTEX
  5
112B
330
1129
100
AcDbEntity
  8
0
370
     0
100
AcDbVertex
100
AcDb2dVertex
 10
23.47747840643217
 20
557.889722594214
 30
0.0
  0
VERTEX
  5
112C
330
1129
100
AcDbEntity
  8
0
370
     0
100
AcDbVertex
100
AcDb2dVertex
 10
23.46188340643218
 20
557.8908815942143
 30
0.0
  0
VERTEX
  5
112D
330
1129
100
AcDbEntity
  8
0
370
     0
100
AcDbVertex
100
AcDb2dVertex
 10
23.33042940643219
 20
557.894360594214
 30
0.0
  0
VERTEX
  5
112E
330
1129
100
AcDbEntity
  8
0
370
     0
100
AcDbVertex
100
AcDb2dVertex
 10
22.63270540643217
 20
557.9002815942142
 30
0.0
  0
SEQEND
  5
112F
330
1129
100
AcDbEntity
  8
0
370
     0
  0
LINE
  5
1130
330
1F
100
AcDbEntity
  8
0
 62
     7
 48
0.000981
370
    35
100
AcDbLine
 10
23.49952740643218
 20
557.8552375942144
 30
0.0
 11
23.47969040643218
 21
557.8891115942142
 31
0.0
  0
LINE
  5
1131
330
1F
100
AcDbEntity
  8
0
 62
     7
370
    35
100
AcDbLine
 10
18.35284440643218
 20
29.97941359421432
 30
0.0
 11
18.35284440643218
 21
336.5670905942143
 31
0.0
  0
LINE
  5
1132
330
1F
100
AcDbEntity
  8
0
 62
     7
 48
0.002049
370
    35
100
AcDbLine
 10
18.35284440643218
 20
29.97941359421432
 30
0.0
 11
18.41081240643217
 21
29.92146059421433
 31
0.0
  0
LINE
  5
1133
330
1F
100
AcDbEntity
  8
0
 62
     7
 48
0.00205
370
    35
100
AcDbLine
 10
18.35284440643218
 20
336.5670905942143
 30
0.0
 11
18.41081240643217
 21
336.6250735942143
 31
0.0
  0
POLYLINE
  5
1134
330
1F
100
AcDbEntity
  8
0
 62
     7
370
    35
100
AcDb2dPolyline
 66
     1
 10
0.0
 20
0.0
 30
0.0
  0
VERTEX
  5
1135
330
1134
100
AcDbEntity
  8
0
370
     0
100
AcDbVertex
100
AcDb2dVertex
 10
18.41081240643217
 20
29.92146059421433
 30
0.0
  0
VERTEX
  5
1136
330
1134
100
AcDbEntity
  8
0
370
     0
100
AcDbVertex
100
AcDb2dVertex
 10
18.41407740643217
 20
29.92069759421432
 30
0.0
  0
VERTEX
  5
1137
330
1134
100
AcDbEntity
  8
0
370
     0
100
AcDbVertex
100
AcDb2dVertex
 10
18.43557740643217
 20
29.91920259421431
 30
0.0
  0
VERTEX
  5
1138
330
1134
100
AcDbEntity
  8
0
370
     0
100
AcDbVertex
100
AcDb2dVertex
 10
19.16075140643218
 20
29.91023059421431
 30
0.0
  0
SEQEND
  5
1139
330
1134
100
AcDbEntity
  8
0
370
     0
  0
POLYLINE
  5
113A
330
1F
100
AcDbEntity
  8
0
 62
     7
370
    35
100
AcDb2dPolyline
 66
     1
 10
0.0
 20
0.0
 30
0.0
  0
VERTEX
  5
113B
330
113A
100
AcDbEntity
  8
0
370
     0
100
AcDbVertex
100
AcDb2dVertex
 10
18.41081240643217
 20
336.6250735942143
 30
0.0
  0
VERTEX
  5
113C
330
113A
100
AcDbEntity
  8
0
370
     0
100
AcDbVertex
100
AcDb2dVertex
 10
18.41407740643217
 20
336.6258365942143
 30
0.0
  0
VERTEX
  5
113D
330
113A
100
AcDbEntity
  8
0
370
     0
100
AcDbVertex
100
AcDb2dVertex
 10
18.43557740643217
 20
336.6273325942144
 30
0.0
  0
VERTEX
  5
113E
330
113A
100
AcDbEntity
  8
0
370
     0
100
AcDbVertex
100
AcDb2dVertex
 10
19.16075140643218
 20
336.6363045942144
 30
0.0
  0
SEQEND
  5
113F
330
113A
100
AcDbEntity
  8
0
370
     0
  0
LINE
  5
1140
330
1F
100
AcDbEntity
  8
0
 62
     7
 48
0.049176
370
    35
100
AcDbLine
 10
21.12777740643216
 20
336.6462225942143
 30
0.0
 11
19.16075140643218
 21
336.6363045942144
 31
0.0
  0
LINE
  5
1141
330
1F
100
AcDbEntity
  8
0
 62
     7
 48
0.049176
370
    35
100
AcDbLine
 10
21.12777740643216
 20
29.90031159421432
 30
0.0
 11
19.16075140643218
 21
29.91023059421431
 31
0.0
  0
LINE
  5
1144
330
1F
100
AcDbEntity
  8
0
 62
     7
 48
0.018747
370
    35
100
AcDbLine
 10
452.3528444064321
 20
564.9983035942142
 30
0.0
 11
452.3528444064321
 21
564.2484255942142
 31
0.0
  0
LINE
  5
1145
330
1F
100
AcDbEntity
  8
0
 62
     7
370
    35
100
AcDbLine
 10
452.3528444064321
 20
564.2484255942142
 30
0.0
 11
34.35284440643219
 21
564.2484255942142
 31
0.0
  0
LINE
  5
1146
330
1F
100
AcDbEntity
  8
0
 62
     7
 48
0.018748
370
    35
100
AcDbLine
 10
34.35284440643219
 20
8.581189594214322
 30
0.0
 11
34.35284440643219
 21
7.831250594214306
 31
0.0
  0
POLYLINE
  5
1147
330
1F
100
AcDbEntity
  8
0
 62
     7
370
    35
100
AcDb2dPolyline
 66
     1
 10
0.0
 20
0.0
 30
0.0
  0
VERTEX
  5
1148
330
1147
100
AcDbEntity
  8
0
370
     0
100
AcDbVertex
100
AcDb2dVertex
 10
20.45545940643217
 20
17.63630459421432
 30
0.0
  0
VERTEX
  5
1149
330
1147
100
AcDbEntity
  8
0
370
     0
100
AcDbVertex
100
AcDb2dVertex
 10
19.86003140643217
 20
17.63151359421431
 30
0.0
  0
VERTEX
  5
114A
330
1147
100
AcDbEntity
  8
0
370
     0
100
AcDbVertex
100
AcDb2dVertex
 10
19.65274040643217
 20
17.62635559421432
 30
0.0
  0
VERTEX
  5
114B
330
1147
100
AcDbEntity
  8
0
370
     0
100
AcDbVertex
100
AcDb2dVertex
 10
19.64521740643218
 20
17.62550159421431
 30
0.0
  0
VERTEX
  5
114C
330
1147
100
AcDbEntity
  8
0
370
     0
100
AcDbVertex
100
AcDb2dVertex
 10
19.64407340643217
 20
17.6250735942143
 30
0.0
  0
SEQEND
  5
114D
330
1147
100
AcDbEntity
  8
0
370
     0
  0
LINE
  5
114E
330
1F
100
AcDbEntity
  8
0
 62
     7
 48
0.054432
370
    35
100
AcDbLine
 10
20.45545940643217
 20
17.63630459421432
 30
0.0
 11
22.63270540643217
 21
17.64622259421432
 31
0.0
  0
LINE
  5
114F
330
1F
100
AcDbEntity
  8
0
 62
     7
 48
0.049175
370
    35
100
AcDbLine
 10
34.35284440643219
 20
10.5482005942143
 30
0.0
 11
34.35284440643219
 21
8.581189594214322
 31
0.0
  0
ARC
  5
1150
330
1F
100
AcDbEntity
  8
0
 62
     7
370
    35
100
AcDbCircle
 10
452.3528444064321
 20
551.7732675942141
 30
0.0
 40
12.475126
100
AcDbArc
 50
29.35650799999935
 51
90.00000300000015
  0
POLYLINE
  5
1151
330
1F
100
AcDbEntity
  8
0
 62
     7
370
    35
100
AcDb2dPolyline
 66
     1
 10
0.0
 20
0.0
 30
0.0
  0
VERTEX
  5
1152
330
1151
100
AcDbEntity
  8
0
370
     0
100
AcDbVertex
100
AcDb2dVertex
 10
463.2260134064321
 20
557.8891115942142
 30
0.0
  0
VERTEX
  5
1153
330
1151
100
AcDbEntity
  8
0
370
     0
100
AcDbVertex
100
AcDb2dVertex
 10
463.2282104064322
 20
557.889722594214
 30
0.0
  0
VERTEX
  5
1154
330
1151
100
AcDbEntity
  8
0
370
     0
100
AcDbVertex
100
AcDb2dVertex
 10
463.2437744064321
 20
557.8908815942143
 30
0.0
  0
VERTEX
  5
1155
330
1151
100
AcDbEntity
  8
0
370
     0
100
AcDbVertex
100
AcDb2dVertex
 10
463.375244406432
 20
557.894360594214
 30
0.0
  0
VERTEX
  5
1156
330
1151
100
AcDbEntity
  8
0
370
     0
100
AcDbVertex
100
AcDb2dVertex
 10
464.0729984064321
 20
557.9002815942142
 30
0.0
  0
SEQEND
  5
1157
330
1151
100
AcDbEntity
  8
0
370
     0
  0
LINE
  5
1158
330
1F
100
AcDbEntity
  8
0
 62
     7
 48
0.000981
370
    35
100
AcDbLine
 10
463.2260134064321
 20
557.8891115942142
 30
0.0
 11
463.2061764064322
 21
557.8552375942144
 31
0.0
  0
LINE
  5
1159
330
1F
100
AcDbEntity
  8
0
 62
     7
 48
0.049177
370
    35
100
AcDbLine
 10
465.5778804064322
 20
348.9003115942143
 30
0.0
 11
467.5449214064321
 21
348.9102305942143
 31
0.0
  0
LINE
  5
115A
330
1F
100
AcDbEntity
  8
0
 62
     7
 48
0.049177
370
    35
100
AcDbLine
 10
465.5778804064322
 20
545.6462535942144
 30
0.0
 11
467.5449214064321
 21
545.6363045942143
 31
0.0
  0
POLYLINE
  5
115B
330
1F
100
AcDbEntity
  8
0
 62
     7
370
    35
100
AcDb2dPolyline
 66
     1
 10
0.0
 20
0.0
 30
0.0
  0
VERTEX
  5
115C
330
115B
100
AcDbEntity
  8
0
370
     0
100
AcDbVertex
100
AcDb2dVertex
 10
468.294860406432
 20
545.6250735942143
 30
0.0
  0
VERTEX
  5
115D
330
115B
100
AcDbEntity
  8
0
370
     0
100
AcDbVertex
100
AcDb2dVertex
 10
468.2916264064322
 20
545.6258675942144
 30
0.0
  0
VERTEX
  5
115E
330
115B
100
AcDbEntity
  8
0
370
     0
100
AcDbVertex
100
AcDb2dVertex
 10
468.2701414064322
 20
545.6273325942142
 30
0.0
  0
VERTEX
  5
115F
330
115B
100
AcDbEntity
  8
0
370
     0
100
AcDbVertex
100
AcDb2dVertex
 10
467.5449214064321
 20
545.6363045942143
 30
0.0
  0
SEQEND
  5
1160
330
115B
100
AcDbEntity
  8
0
370
     0
  0
POLYLINE
  5
1161
330
1F
100
AcDbEntity
  8
0
 62
     7
370
    35
100
AcDb2dPolyline
 66
     1
 10
0.0
 20
0.0
 30
0.0
  0
VERTEX
  5
1162
330
1161
100
AcDbEntity
  8
0
370
     0
100
AcDbVertex
100
AcDb2dVertex
 10
468.294860406432
 20
348.9214605942144
 30
0.0
  0
VERTEX
  5
1163
330
1161
100
AcDbEntity
  8
0
370
     0
100
AcDbVertex
100
AcDb2dVertex
 10
468.2916264064322
 20
348.9206975942143
 30
0.0
  0
VERTEX
  5
1164
330
1161
100
AcDbEntity
  8
0
370
     0
100
AcDbVertex
100
AcDb2dVertex
 10
468.2701414064322
 20
348.9192025942143
 30
0.0
  0
VERTEX
  5
1165
330
1161
100
AcDbEntity
  8
0
370
     0
100
AcDbVertex
100
AcDb2dVertex
 10
467.5449214064321
 20
348.9102305942143
 30
0.0
  0
SEQEND
  5
1166
330
1161
100
AcDbEntity
  8
0
370
     0
  0
LINE
  5
1167
330
1F
100
AcDbEntity
  8
0
 62
     7
 48
0.002049
370
    35
100
AcDbLine
 10
468.3528444064322
 20
545.5671515942141
 30
0.0
 11
468.294860406432
 21
545.6250735942143
 31
0.0
  0
LINE
  5
1168
330
1F
100
AcDbEntity
  8
0
 62
     7
370
    35
100
AcDbLine
 10
468.3528444064322
 20
545.5671515942141
 30
0.0
 11
468.3528444064322
 21
348.9794435942144
 31
0.0
  0
LINE
  5
1169
330
1F
100
AcDbEntity
  8
0
 62
     7
 48
0.00205
370
    35
100
AcDbLine
 10
468.3528444064322
 20
348.9794435942144
 30
0.0
 11
468.294860406432
 21
348.9214605942144
 31
0.0
  0
LINE
  5
116A
330
1F
100
AcDbEntity
  8
0
 62
     7
 48
0.018748
370
    35
100
AcDbLine
 10
452.3528444064321
 20
8.581189594214322
 30
0.0
 11
452.3528444064321
 21
7.831250594214306
 31
0.0
  0
LINE
  5
116B
330
1F
100
AcDbEntity
  8
0
 62
     7
 48
0.00145
370
    35
100
AcDbLine
 10
452.3528444064321
 20
7.831250594214306
 30
0.0
 11
452.3528444064321
 21
7.773267594214327
 31
0.0
  0
LINE
  5
116C
330
1F
100
AcDbEntity
  8
0
 62
     7
370
    35
100
AcDbLine
 10
34.35284440643219
 20
7.773267594214327
 30
0.0
 11
452.3528444064321
 21
7.773267594214327
 31
0.0
  0
LINE
  5
116D
330
1F
100
AcDbEntity
  8
0
 62
     7
 48
0.00145
370
    35
100
AcDbLine
 10
34.35284440643219
 20
7.831250594214306
 30
0.0
 11
34.35284440643219
 21
7.773267594214327
 31
0.0
  0
ARC
  5
116E
330
1F
100
AcDbEntity
  8
0
 62
     7
370
    35
100
AcDbCircle
 10
34.35284440643219
 20
23.77326759421433
 30
0.0
 40
16.0
100
AcDbArc
 50
202.8229629999995
 51
269.9999969999999
  0
LINE
  5
116F
330
1F
100
AcDbEntity
  8
0
 62
     7
 48
0.00174
370
    35
100
AcDbLine
 10
19.60551440643218
 20
17.56712059421434
 30
0.0
 11
19.64407340643217
 21
17.6250735942143
 31
0.0
  0
POLYLINE
  5
1174
330
1F
100
AcDbEntity
  8
0
 62
     7
370
    35
100
AcDb2dPolyline
 66
     1
 10
0.0
 20
0.0
 30
0.0
  0
VERTEX
  5
1175
330
1174
100
AcDbEntity
  8
0
370
     0
100
AcDbVertex
100
AcDb2dVertex
 10
21.12777740643216
 20
336.6462225942143
 30
0.0
  0
VERTEX
  5
1176
330
1174
100
AcDbEntity
  8
0
370
     0
100
AcDbVertex
100
AcDb2dVertex
 10
21.85314940643218
 20
336.6551945942143
 30
0.0
  0
VERTEX
  5
1177
330
1174
100
AcDbEntity
  8
0
370
     0
100
AcDbVertex
100
AcDb2dVertex
 10
21.87448140643218
 20
336.6566905942143
 30
0.0
  0
VERTEX
  5
1178
330
1174
100
AcDbEntity
  8
0
370
     0
100
AcDbVertex
100
AcDb2dVertex
 10
21.8777164064322
 20
336.6574225942143
 30
0.0
  0
SEQEND
  5
1179
330
1174
100
AcDbEntity
  8
0
370
     0
  0
LINE
  5
117A
330
1F
100
AcDbEntity
  8
0
 62
     7
370
    35
100
AcDbLine
 10
21.8777164064322
 20
29.88911159421432
 30
0.0
 11
21.8777164064322
 21
336.6574225942143
 31
0.0
  0
POLYLINE
  5
117B
330
1F
100
AcDbEntity
  8
0
 62
     7
370
    35
100
AcDb2dPolyline
 66
     1
 10
0.0
 20
0.0
 30
0.0
  0
VERTEX
  5
117C
330
117B
100
AcDbEntity
  8
0
370
     0
100
AcDbVertex
100
AcDb2dVertex
 10
21.12777740643216
 20
29.90031159421432
 30
0.0
  0
VERTEX
  5
117D
330
117B
100
AcDbEntity
  8
0
370
     0
100
AcDbVertex
100
AcDb2dVertex
 10
21.85314940643218
 20
29.89133959421432
 30
0.0
  0
VERTEX
  5
117E
330
117B
100
AcDbEntity
  8
0
370
     0
100
AcDbVertex
100
AcDb2dVertex
 10
21.87448140643218
 20
29.88984459421434
 30
0.0
  0
VERTEX
  5
117F
330
117B
100
AcDbEntity
  8
0
370
     0
100
AcDbVertex
100
AcDb2dVertex
 10
21.8777164064322
 20
29.88911159421432
 30
0.0
  0
SEQEND
  5
1180
330
117B
100
AcDbEntity
  8
0
370
     0
  0
LINE
  5
1181
330
1F
100
AcDbEntity
  8
0
 62
     7
 48
0.001198
370
    35
100
AcDbLine
 10
21.9115904064322
 20
336.6912975942144
 30
0.0
 11
21.8777164064322
 21
336.6574225942143
 31
0.0
  0
POLYLINE
  5
1182
330
1F
100
AcDbEntity
  8
0
 62
     7
370
    35
100
AcDb2dPolyline
 66
     1
 10
0.0
 20
0.0
 30
0.0
  0
VERTEX
  5
1183
330
1182
100
AcDbEntity
  8
0
370
     0
100
AcDbVertex
100
AcDb2dVertex
 10
21.12777740643216
 20
348.9003115942143
 30
0.0
  0
VERTEX
  5
1184
330
1182
100
AcDbEntity
  8
0
370
     0
100
AcDbVertex
100
AcDb2dVertex
 10
21.85314940643218
 20
348.8913395942144
 30
0.0
  0
VERTEX
  5
1185
330
1182
100
AcDbEntity
  8
0
370
     0
100
AcDbVertex
100
AcDb2dVertex
 10
21.87448140643218
 20
348.8898445942143
 30
0.0
  0
VERTEX
  5
1186
330
1182
100
AcDbEntity
  8
0
370
     0
100
AcDbVertex
100
AcDb2dVertex
 10
21.8777164064322
 20
348.8891115942142
 30
0.0
  0
SEQEND
  5
1187
330
1182
100
AcDbEntity
  8
0
370
     0
  0
LINE
  5
1188
330
1F
100
AcDbEntity
  8
0
 62
     7
 48
0.001198
370
    35
100
AcDbLine
 10
21.9115904064322
 20
348.8552375942144
 30
0.0
 11
21.8777164064322
 21
348.8891115942142
 31
0.0
  0
POLYLINE
  5
1189
330
1F
100
AcDbEntity
  8
0
 62
     7
370
    35
100
AcDb2dPolyline
 66
     1
 10
0.0
 20
0.0
 30
0.0
  0
VERTEX
  5
118A
330
1189
100
AcDbEntity
  8
0
370
     0
100
AcDbVertex
100
AcDb2dVertex
 10
21.12777740643216
 20
545.6462535942144
 30
0.0
  0
VERTEX
  5
118B
330
1189
100
AcDbEntity
  8
0
370
     0
100
AcDbVertex
100
AcDb2dVertex
 10
21.85314940643218
 20
545.655164594214
 30
0.0
  0
VERTEX
  5
118C
330
1189
100
AcDbEntity
  8
0
370
     0
100
AcDbVertex
100
AcDb2dVertex
 10
21.87448140643218
 20
545.6566905942143
 30
0.0
  0
VERTEX
  5
118D
330
1189
100
AcDbEntity
  8
0
370
     0
100
AcDbVertex
100
AcDb2dVertex
 10
21.8777164064322
 20
545.6574225942143
 30
0.0
  0
SEQEND
  5
118E
330
1189
100
AcDbEntity
  8
0
370
     0
  0
LINE
  5
118F
330
1F
100
AcDbEntity
  8
0
 62
     7
370
    35
100
AcDbLine
 10
21.8777164064322
 20
348.8891115942142
 30
0.0
 11
21.8777164064322
 21
545.6574225942143
 31
0.0
  0
LINE
  5
1190
330
1F
100
AcDbEntity
  8
0
 62
     7
 48
0.001198
370
    35
100
AcDbLine
 10
21.9115904064322
 20
545.6912975942141
 30
0.0
 11
21.8777164064322
 21
545.6574225942143
 31
0.0
  0
LINE
  5
1191
330
1F
100
AcDbEntity
  8
0
 62
     7
 48
0.000463
370
    35
100
AcDbLine
 10
21.91568040643219
 20
545.6732305942141
 30
0.0
 11
21.9115904064322
 21
545.6912975942141
 31
0.0
  0
POLYLINE
  5
1192
330
1F
100
AcDbEntity
  8
0
 62
     7
370
    35
100
AcDb2dPolyline
 66
     1
 10
0.0
 20
0.0
 30
0.0
  0
VERTEX
  5
1193
330
1192
100
AcDbEntity
  8
0
370
     0
100
AcDbVertex
100
AcDb2dVertex
 10
21.96891740643218
 20
551.7732675942141
 30
0.0
  0
VERTEX
  5
1194
330
1192
100
AcDbEntity
  8
0
370
     0
100
AcDbVertex
100
AcDb2dVertex
 10
21.96336340643219
 20
549.061414594214
 30
0.0
  0
VERTEX
  5
1195
330
1192
100
AcDbEntity
  8
0
370
     0
100
AcDbVertex
100
AcDb2dVertex
 10
21.94653340643217
 20
546.8026255942143
 30
0.0
  0
VERTEX
  5
1196
330
1192
100
AcDbEntity
  8
0
370
     0
100
AcDbVertex
100
AcDb2dVertex
 10
21.92800940643218
 20
545.8391245942143
 30
0.0
  0
VERTEX
  5
1197
330
1192
100
AcDbEntity
  8
0
370
     0
100
AcDbVertex
100
AcDb2dVertex
 10
21.92103540643217
 20
545.7043585942143
 30
0.0
  0
VERTEX
  5
1198
330
1192
100
AcDbEntity
  8
0
370
     0
100
AcDbVertex
100
AcDb2dVertex
 10
21.91749540643215
 20
545.6768315942141
 30
0.0
  0
VERTEX
  5
1199
330
1192
100
AcDbEntity
  8
0
370
     0
100
AcDbVertex
100
AcDb2dVertex
 10
21.91668740643217
 20
545.6743295942143
 30
0.0
  0
VERTEX
  5
119A
330
1192
100
AcDbEntity
  8
0
370
     0
100
AcDbVertex
100
AcDb2dVertex
 10
21.91568040643219
 20
545.6732305942141
 30
0.0
  0
SEQEND
  5
119B
330
1192
100
AcDbEntity
  8
0
370
     0
  0
POLYLINE
  5
119C
330
1F
100
AcDbEntity
  8
0
 62
     7
370
    35
100
AcDb2dPolyline
 66
     1
 10
0.0
 20
0.0
 30
0.0
  0
VERTEX
  5
119D
330
119C
100
AcDbEntity
  8
0
370
     0
100
AcDbVertex
100
AcDb2dVertex
 10
23.51434340643217
 20
557.8733035942143
 30
0.0
  0
VERTEX
  5
119E
330
119C
100
AcDbEntity
  8
0
370
     0
100
AcDbVertex
100
AcDb2dVertex
 10
23.51489240643218
 20
557.8722665942144
 30
0.0
  0
VERTEX
  5
119F
330
119C
100
AcDbEntity
  8
0
370
     0
100
AcDbVertex
100
AcDb2dVertex
 10
23.5146174064322
 20
557.8704965942143
 30
0.0
  0
VERTEX
  5
11A0
330
119C
100
AcDbEntity
  8
0
370
     0
100
AcDbVertex
100
AcDb2dVertex
 10
23.51261940643218
 20
557.8642705942143
 30
0.0
  0
VERTEX
  5
11A1
330
119C
100
AcDbEntity
  8
0
370
     0
100
AcDbVertex
100
AcDb2dVertex
 10
23.47955340643216
 20
557.7933475942143
 30
0.0
  0
VERTEX
  5
11A2
330
119C
100
AcDbEntity
  8
0
370
     0
100
AcDbVertex
100
AcDb2dVertex
 10
23.18968240643219
 20
557.2013065942143
 30
0.0
  0
VERTEX
  5
11A3
330
119C
100
AcDbEntity
  8
0
370
     0
100
AcDbVertex
100
AcDb2dVertex
 10
22.85856640643217
 20
556.4328745942143
 30
0.0
  0
VERTEX
  5
11A4
330
119C
100
AcDbEntity
  8
0
370
     0
100
AcDbVertex
100
AcDb2dVertex
 10
22.68757640643219
 20
555.9741335942143
 30
0.0
  0
VERTEX
  5
11A5
330
119C
100
AcDbEntity
  8
0
370
     0
100
AcDbVertex
100
AcDb2dVertex
 10
22.47709640643217
 20
555.3193485942141
 30
0.0
  0
VERTEX
  5
11A6
330
119C
100
AcDbEntity
  8
0
370
     0
100
AcDbVertex
100
AcDb2dVertex
 10
22.29147340643217
 20
554.6081065942143
 30
0.0
  0
VERTEX
  5
11A7
330
119C
100
AcDbEntity
  8
0
370
     0
100
AcDbVertex
100
AcDb2dVertex
 10
22.11691240643219
 20
553.6995975942143
 30
0.0
  0
VERTEX
  5
11A8
330
119C
100
AcDbEntity
  8
0
370
     0
100
AcDbVertex
100
AcDb2dVertex
 10
22.00660740643218
 20
552.7474495942143
 30
0.0
  0
VERTEX
  5
11A9
330
119C
100
AcDbEntity
  8
0
370
     0
100
AcDbVertex
100
AcDb2dVertex
 10
21.96891740643218
 20
551.7732675942141
 30
0.0
  0
SEQEND
  5
11AA
330
119C
100
AcDbEntity
  8
0
370
     0
  0
LINE
  5
11AB
330
1F
100
AcDbEntity
  8
0
 62
     7
 48
0.000584
370
    35
100
AcDbLine
 10
23.51434340643217
 20
557.8733035942143
 30
0.0
 11
23.49952740643218
 21
557.8552375942144
 31
0.0
  0
LINE
  5
11AD
330
1F
100
AcDbEntity
  8
0
 62
     7
 48
0.001198
370
    35
100
AcDbLine
 10
21.9115904064322
 20
29.85523759421432
 30
0.0
 11
21.8777164064322
 21
29.88911159421432
 31
0.0
  0
LINE
  5
11AE
330
1F
100
AcDbEntity
  8
0
 62
     7
 48
0.000462
370
    35
100
AcDbLine
 10
21.91568040643219
 20
336.6732615942144
 30
0.0
 11
21.9115904064322
 21
336.6912975942144
 31
0.0
  0
POLYLINE
  5
11AF
330
1F
100
AcDbEntity
  8
0
 62
     7
370
    35
100
AcDb2dPolyline
 66
     1
 10
0.0
 20
0.0
 30
0.0
  0
VERTEX
  5
11B0
330
11AF
100
AcDbEntity
  8
0
370
     0
100
AcDbVertex
100
AcDb2dVertex
 10
21.91568040643219
 20
348.8732735942143
 30
0.0
  0
VERTEX
  5
11B1
330
11AF
100
AcDbEntity
  8
0
370
     0
100
AcDbVertex
100
AcDb2dVertex
 10
21.91700740643219
 20
348.8713815942143
 30
0.0
  0
VERTEX
  5
11B2
330
11AF
100
AcDbEntity
  8
0
370
     0
100
AcDbVertex
100
AcDb2dVertex
 10
21.91964740643218
 20
348.8562755942144
 30
0.0
  0
VERTEX
  5
11B3
330
11AF
100
AcDbEntity
  8
0
370
     0
100
AcDbVertex
100
AcDb2dVertex
 10
21.92745940643218
 20
348.7220585942143
 30
0.0
  0
VERTEX
  5
11B4
330
11AF
100
AcDbEntity
  8
0
370
     0
100
AcDbVertex
100
AcDb2dVertex
 10
21.94795240643216
 20
347.6238225942144
 30
0.0
  0
VERTEX
  5
11B5
330
11AF
100
AcDbEntity
  8
0
370
     0
100
AcDbVertex
100
AcDb2dVertex
 10
21.96504240643219
 20
345.0541515942143
 30
0.0
  0
VERTEX
  5
11B6
330
11AF
100
AcDbEntity
  8
0
370
     0
100
AcDbVertex
100
AcDb2dVertex
 10
21.96852140643216
 20
342.0358405942143
 30
0.0
  0
VERTEX
  5
11B7
330
11AF
100
AcDbEntity
  8
0
370
     0
100
AcDbVertex
100
AcDb2dVertex
 10
21.95587140643218
 20
338.7742745942144
 30
0.0
  0
VERTEX
  5
11B8
330
11AF
100
AcDbEntity
  8
0
370
     0
100
AcDbVertex
100
AcDb2dVertex
 10
21.94285540643219
 20
337.5279365942142
 30
0.0
  0
VERTEX
  5
11B9
330
11AF
100
AcDbEntity
  8
0
370
     0
100
AcDbVertex
100
AcDb2dVertex
 10
21.92639140643217
 20
336.7979555942143
 30
0.0
  0
VERTEX
  5
11BA
330
11AF
100
AcDbEntity
  8
0
370
     0
100
AcDbVertex
100
AcDb2dVertex
 10
21.92037940643217
 20
336.6970645942144
 30
0.0
  0
VERTEX
  5
11BB
330
11AF
100
AcDbEntity
  8
0
370
     0
100
AcDbVertex
100
AcDb2dVertex
 10
21.91732740643218
 20
336.6761905942143
 30
0.0
  0
VERTEX
  5
11BC
330
11AF
100
AcDbEntity
  8
0
370
     0
100
AcDbVertex
100
AcDb2dVertex
 10
21.91659540643218
 20
336.6741765942143
 30
0.0
  0
VERTEX
  5
11BD
330
11AF
100
AcDbEntity
  8
0
370
     0
100
AcDbVertex
100
AcDb2dVertex
 10
21.91568040643219
 20
336.6732615942144
 30
0.0
  0
SEQEND
  5
11BE
330
11AF
100
AcDbEntity
  8
0
370
     0
  0
LINE
  5
11BF
330
1F
100
AcDbEntity
  8
0
 62
     7
 48
0.000462
370
    35
100
AcDbLine
 10
21.91568040643219
 20
348.8732735942143
 30
0.0
 11
21.9115904064322
 21
348.8552375942144
 31
0.0
  0
LINE
  5
11C0
330
1F
100
AcDbEntity
  8
0
 62
   253
370
    35
100
AcDbLine
 10
48.06141640643218
 20
500.9706545942143
 30
0.0
 11
438.6442874064321
 21
500.9706545942143
 31
0.0
  0
LINE
  5
11C1
330
1F
100
AcDbEntity
  8
0
 62
     7
 48
0.049998
370
    13
100
AcDbLine
 10
24.25000040643218
 20
539.0759405942142
 30
0.0
 11
22.25007640643219
 21
539.0759405942142
 31
0.0
  0
LINE
  5
11C2
330
1F
100
AcDbEntity
  8
0
 62
     7
 48
0.049175
370
    35
100
AcDbLine
 10
452.3528444064321
 20
10.5482005942143
 30
0.0
 11
452.3528444064321
 21
8.581189594214322
 31
0.0
  0
ARC
  5
11C3
330
1F
100
AcDbEntity
  8
0
 62
     7
370
    35
100
AcDbCircle
 10
34.35284440643219
 20
23.77326759421433
 30
0.0
 40
12.475126
100
AcDbArc
 50
209.3565029999993
 51
269.9999969999999
  0
LINE
  5
11C4
330
1F
100
AcDbEntity
  8
0
 62
     7
 48
0.018748
370
    35
100
AcDbLine
 10
34.35284440643219
 20
10.5482005942143
 30
0.0
 11
34.35284440643219
 21
11.29813959421432
 31
0.0
  0
POLYLINE
  5
11C5
330
1F
100
AcDbEntity
  8
0
 62
     7
370
    35
100
AcDb2dPolyline
 66
     1
 10
0.0
 20
0.0
 30
0.0
  0
VERTEX
  5
11C6
330
11C5
100
AcDbEntity
  8
0
370
     0
100
AcDbVertex
100
AcDb2dVertex
 10
23.47969040643218
 20
17.65742259421429
 30
0.0
  0
VERTEX
  5
11C7
330
11C5
100
AcDbEntity
  8
0
370
     0
100
AcDbVertex
100
AcDb2dVertex
 10
23.47747840643217
 20
17.65681259421432
 30
0.0
  0
VERTEX
  5
11C8
330
11C5
100
AcDbEntity
  8
0
370
     0
100
AcDbVertex
100
AcDb2dVertex
 10
23.46188340643218
 20
17.65562159421432
 30
0.0
  0
VERTEX
  5
11C9
330
11C5
100
AcDbEntity
  8
0
370
     0
100
AcDbVertex
100
AcDb2dVertex
 10
23.33042940643219
 20
17.6521735942143
 30
0.0
  0
VERTEX
  5
11CA
330
11C5
100
AcDbEntity
  8
0
370
     0
100
AcDbVertex
100
AcDb2dVertex
 10
22.63270540643217
 20
17.64622259421432
 30
0.0
  0
SEQEND
  5
11CB
330
11C5
100
AcDbEntity
  8
0
370
     0
  0
LINE
  5
11CC
330
1F
100
AcDbEntity
  8
0
 62
     7
 48
0.000981
370
    35
100
AcDbLine
 10
23.47969040643218
 20
17.65742259421429
 30
0.0
 11
23.49952740643218
 21
17.69129759421432
 31
0.0
  0
LINE
  5
11CD
330
1F
100
AcDbEntity
  8
0
 62
     7
 48
0.049177
370
    35
100
AcDbLine
 10
465.5778804064322
 20
336.6462225942143
 30
0.0
 11
467.5449214064321
 21
336.6363045942144
 31
0.0
  0
LINE
  5
11CE
330
1F
100
AcDbEntity
  8
0
 62
     7
 48
0.049177
370
    35
100
AcDbLine
 10
465.5778804064322
 20
29.90031159421432
 30
0.0
 11
467.5449214064321
 21
29.91023059421431
 31
0.0
  0
POLYLINE
  5
11CF
330
1F
100
AcDbEntity
  8
0
 62
     7
370
    35
100
AcDb2dPolyline
 66
     1
 10
0.0
 20
0.0
 30
0.0
  0
VERTEX
  5
11D0
330
11CF
100
AcDbEntity
  8
0
370
     0
100
AcDbVertex
100
AcDb2dVertex
 10
468.294860406432
 20
336.6250735942143
 30
0.0
  0
VERTEX
  5
11D1
330
11CF
100
AcDbEntity
  8
0
370
     0
100
AcDbVertex
100
AcDb2dVertex
 10
468.2916264064322
 20
336.6258365942143
 30
0.0
  0
VERTEX
  5
11D2
330
11CF
100
AcDbEntity
  8
0
370
     0
100
AcDbVertex
100
AcDb2dVertex
 10
468.2701414064322
 20
336.6273325942144
 30
0.0
  0
VERTEX
  5
11D3
330
11CF
100
AcDbEntity
  8
0
370
     0
100
AcDbVertex
100
AcDb2dVertex
 10
467.5449214064321
 20
336.6363045942144
 30
0.0
  0
SEQEND
  5
11D4
330
11CF
100
AcDbEntity
  8
0
370
     0
  0
POLYLINE
  5
11D5
330
1F
100
AcDbEntity
  8
0
 62
     7
370
    35
100
AcDb2dPolyline
 66
     1
 10
0.0
 20
0.0
 30
0.0
  0
VERTEX
  5
11D6
330
11D5
100
AcDbEntity
  8
0
370
     0
100
AcDbVertex
100
AcDb2dVertex
 10
468.294860406432
 20
29.92146059421433
 30
0.0
  0
VERTEX
  5
11D7
330
11D5
100
AcDbEntity
  8
0
370
     0
100
AcDbVertex
100
AcDb2dVertex
 10
468.2916264064322
 20
29.92069759421432
 30
0.0
  0
VERTEX
  5
11D8
330
11D5
100
AcDbEntity
  8
0
370
     0
100
AcDbVertex
100
AcDb2dVertex
 10
468.2701414064322
 20
29.91920259421431
 30
0.0
  0
VERTEX
  5
11D9
330
11D5
100
AcDbEntity
  8
0
370
     0
100
AcDbVertex
100
AcDb2dVertex
 10
467.5449214064321
 20
29.91023059421431
 30
0.0
  0
SEQEND
  5
11DA
330
11D5
100
AcDbEntity
  8
0
370
     0
  0
LINE
  5
11DB
330
1F
100
AcDbEntity
  8
0
 62
     7
 48
0.00205
370
    35
100
AcDbLine
 10
468.3528444064322
 20
336.5670905942143
 30
0.0
 11
468.294860406432
 21
336.6250735942143
 31
0.0
  0
LINE
  5
11DC
330
1F
100
AcDbEntity
  8
0
 62
     7
370
    35
100
AcDbLine
 10
468.3528444064322
 20
336.5670905942143
 30
0.0
 11
468.3528444064322
 21
29.97941359421432
 31
0.0
  0
LINE
  5
11DD
330
1F
100
AcDbEntity
  8
0
 62
     7
 48
0.002049
370
    35
100
AcDbLine
 10
468.3528444064322
 20
29.97941359421432
 30
0.0
 11
468.294860406432
 21
29.92146059421433
 31
0.0
  0
POLYLINE
  5
11DE
330
1F
100
AcDbEntity
  8
0
 62
     7
370
    35
100
AcDb2dPolyline
 66
     1
 10
0.0
 20
0.0
 30
0.0
  0
VERTEX
  5
11DF
330
11DE
100
AcDbEntity
  8
0
370
     0
100
AcDbVertex
100
AcDb2dVertex
 10
465.5778804064322
 20
29.90031159421432
 30
0.0
  0
VERTEX
  5
11E0
330
11DE
100
AcDbEntity
  8
0
370
     0
100
AcDbVertex
100
AcDb2dVertex
 10
464.852539406432
 20
29.89133959421432
 30
0.0
  0
VERTEX
  5
11E1
330
11DE
100
AcDbEntity
  8
0
370
     0
100
AcDbVertex
100
AcDb2dVertex
 10
464.8311764064321
 20
29.88984459421434
 30
0.0
  0
VERTEX
  5
11E2
330
11DE
100
AcDbEntity
  8
0
370
     0
100
AcDbVertex
100
AcDb2dVertex
 10
464.828003406432
 20
29.88911159421432
 30
0.0
  0
SEQEND
  5
11E3
330
11DE
100
AcDbEntity
  8
0
370
     0
  0
LINE
  5
11E4
330
1F
100
AcDbEntity
  8
0
 62
     7
370
    35
100
AcDbLine
 10
464.828003406432
 20
336.6574225942143
 30
0.0
 11
464.828003406432
 21
29.88911159421432
 31
0.0
  0
POLYLINE
  5
11E5
330
1F
100
AcDbEntity
  8
0
 62
     7
370
    35
100
AcDb2dPolyline
 66
     1
 10
0.0
 20
0.0
 30
0.0
  0
VERTEX
  5
11E6
330
11E5
100
AcDbEntity
  8
0
370
     0
100
AcDbVertex
100
AcDb2dVertex
 10
465.5778804064322
 20
336.6462225942143
 30
0.0
  0
VERTEX
  5
11E7
330
11E5
100
AcDbEntity
  8
0
370
     0
100
AcDbVertex
100
AcDb2dVertex
 10
464.852539406432
 20
336.6551945942143
 30
0.0
  0
VERTEX
  5
11E8
330
11E5
100
AcDbEntity
  8
0
370
     0
100
AcDbVertex
100
AcDb2dVertex
 10
464.8311764064321
 20
336.6566905942143
 30
0.0
  0
VERTEX
  5
11E9
330
11E5
100
AcDbEntity
  8
0
370
     0
100
AcDbVertex
100
AcDb2dVertex
 10
464.828003406432
 20
336.6574225942143
 30
0.0
  0
SEQEND
  5
11EA
330
11E5
100
AcDbEntity
  8
0
370
     0
  0
LINE
  5
11EB
330
1F
100
AcDbEntity
  8
0
 62
     7
 48
0.049998
370
    13
100
AcDbLine
 10
462.4556884064321
 20
539.0759405942142
 30
0.0
 11
464.4556274064321
 21
539.0759405942142
 31
0.0
  0
LINE
  5
11EC
330
1F
100
AcDbEntity
  8
0
 62
     7
 48
0.000584
370
    35
100
AcDbLine
 10
463.1913454064322
 20
557.8733035942143
 30
0.0
 11
463.2061764064322
 21
557.8552375942144
 31
0.0
  0
POLYLINE
  5
11ED
330
1F
100
AcDbEntity
  8
0
 62
     7
370
    35
100
AcDb2dPolyline
 66
     1
 10
0.0
 20
0.0
 30
0.0
  0
VERTEX
  5
11EE
330
11ED
100
AcDbEntity
  8
0
370
     0
100
AcDbVertex
100
AcDb2dVertex
 10
463.1913454064322
 20
557.8733035942143
 30
0.0
  0
VERTEX
  5
11EF
330
11ED
100
AcDbEntity
  8
0
370
     0
100
AcDbVertex
100
AcDb2dVertex
 10
463.1907954064321
 20
557.8722665942144
 30
0.0
  0
VERTEX
  5
11F0
330
11ED
100
AcDbEntity
  8
0
370
     0
100
AcDbVertex
100
AcDb2dVertex
 10
463.1910404064321
 20
557.8704965942143
 30
0.0
  0
VERTEX
  5
11F1
330
11ED
100
AcDbEntity
  8
0
370
     0
100
AcDbVertex
100
AcDb2dVertex
 10
463.1930544064322
 20
557.8642705942143
 30
0.0
  0
VERTEX
  5
11F2
330
11ED
100
AcDbEntity
  8
0
370
     0
100
AcDbVertex
100
AcDb2dVertex
 10
463.2261354064322
 20
557.7933475942143
 30
0.0
  0
VERTEX
  5
11F3
330
11ED
100
AcDbEntity
  8
0
370
     0
100
AcDbVertex
100
AcDb2dVertex
 10
463.5159914064321
 20
557.2013065942143
 30
0.0
  0
VERTEX
  5
11F4
330
11ED
100
AcDbEntity
  8
0
370
     0
100
AcDbVertex
100
AcDb2dVertex
 10
463.847107406432
 20
556.4328745942143
 30
0.0
  0
VERTEX
  5
11F5
330
11ED
100
AcDbEntity
  8
0
370
     0
100
AcDbVertex
100
AcDb2dVertex
 10
464.018127406432
 20
555.9741335942143
 30
0.0
  0
VERTEX
  5
11F6
330
11ED
100
AcDbEntity
  8
0
370
     0
100
AcDbVertex
100
AcDb2dVertex
 10
464.2285764064322
 20
555.3193485942141
 30
0.0
  0
VERTEX
  5
11F7
330
11ED
100
AcDbEntity
  8
0
370
     0
100
AcDbVertex
100
AcDb2dVertex
 10
464.414184406432
 20
554.6081065942143
 30
0.0
  0
VERTEX
  5
11F8
330
11ED
100
AcDbEntity
  8
0
370
     0
100
AcDbVertex
100
AcDb2dVertex
 10
464.5887454064321
 20
553.6995975942143
 30
0.0
  0
VERTEX
  5
11F9
330
11ED
100
AcDbEntity
  8
0
370
     0
100
AcDbVertex
100
AcDb2dVertex
 10
464.6990964064321
 20
552.7474495942143
 30
0.0
  0
VERTEX
  5
11FA
330
11ED
100
AcDbEntity
  8
0
370
     0
100
AcDbVertex
100
AcDb2dVertex
 10
464.7367554064321
 20
551.7732675942141
 30
0.0
  0
SEQEND
  5
11FB
330
11ED
100
AcDbEntity
  8
0
370
     0
  0
POLYLINE
  5
11FD
330
1F
100
AcDbEntity
  8
0
 62
     7
370
    35
100
AcDb2dPolyline
 66
     1
 10
0.0
 20
0.0
 30
0.0
  0
VERTEX
  5
11FE
330
11FD
100
AcDbEntity
  8
0
370
     0
100
AcDbVertex
100
AcDb2dVertex
 10
464.7367554064321
 20
551.7732675942141
 30
0.0
  0
VERTEX
  5
11FF
330
11FD
100
AcDbEntity
  8
0
370
     0
100
AcDbVertex
100
AcDb2dVertex
 10
464.7423094064321
 20
549.061414594214
 30
0.0
  0
VERTEX
  5
1200
330
11FD
100
AcDbEntity
  8
0
370
     0
100
AcDbVertex
100
AcDb2dVertex
 10
464.759155406432
 20
546.8026255942143
 30
0.0
  0
VERTEX
  5
1201
330
11FD
100
AcDbEntity
  8
0
370
     0
100
AcDbVertex
100
AcDb2dVertex
 10
464.7777104064322
 20
545.8391245942143
 30
0.0
  0
VERTEX
  5
1202
330
11FD
100
AcDbEntity
  8
0
370
     0
100
AcDbVertex
100
AcDb2dVertex
 10
464.7846684064321
 20
545.7043585942143
 30
0.0
  0
VERTEX
  5
1203
330
11FD
100
AcDbEntity
  8
0
370
     0
100
AcDbVertex
100
AcDb2dVertex
 10
464.788208406432
 20
545.6768315942141
 30
0.0
  0
VERTEX
  5
1204
330
11FD
100
AcDbEntity
  8
0
370
     0
100
AcDbVertex
100
AcDb2dVertex
 10
464.7890014064322
 20
545.6743295942143
 30
0.0
  0
VERTEX
  5
1205
330
11FD
100
AcDbEntity
  8
0
370
     0
100
AcDbVertex
100
AcDb2dVertex
 10
464.7900394064321
 20
545.6732305942141
 30
0.0
  0
SEQEND
  5
1206
330
11FD
100
AcDbEntity
  8
0
370
     0
  0
LINE
  5
1207
330
1F
100
AcDbEntity
  8
0
 62
     7
 48
0.000463
370
    35
100
AcDbLine
 10
464.7900394064321
 20
545.6732305942141
 30
0.0
 11
464.7940674064321
 21
545.6912975942141
 31
0.0
  0
POLYLINE
  5
1208
330
1F
100
AcDbEntity
  8
0
 62
     7
370
    35
100
AcDb2dPolyline
 66
     1
 10
0.0
 20
0.0
 30
0.0
  0
VERTEX
  5
1209
330
1208
100
AcDbEntity
  8
0
370
     0
100
AcDbVertex
100
AcDb2dVertex
 10
465.5778804064322
 20
545.6462535942144
 30
0.0
  0
VERTEX
  5
120A
330
1208
100
AcDbEntity
  8
0
370
     0
100
AcDbVertex
100
AcDb2dVertex
 10
464.852539406432
 20
545.655164594214
 30
0.0
  0
VERTEX
  5
120B
330
1208
100
AcDbEntity
  8
0
370
     0
100
AcDbVertex
100
AcDb2dVertex
 10
464.8311764064321
 20
545.6566905942143
 30
0.0
  0
VERTEX
  5
120C
330
1208
100
AcDbEntity
  8
0
370
     0
100
AcDbVertex
100
AcDb2dVertex
 10
464.828003406432
 20
545.6574225942143
 30
0.0
  0
SEQEND
  5
120D
330
1208
100
AcDbEntity
  8
0
370
     0
  0
LINE
  5
120E
330
1F
100
AcDbEntity
  8
0
 62
     7
 48
0.001199
370
    35
100
AcDbLine
 10
464.7940674064321
 20
545.6912975942141
 30
0.0
 11
464.828003406432
 21
545.6574225942143
 31
0.0
  0
POLYLINE
  5
120F
330
1F
100
AcDbEntity
  8
0
 62
     7
370
    35
100
AcDb2dPolyline
 66
     1
 10
0.0
 20
0.0
 30
0.0
  0
VERTEX
  5
1210
330
120F
100
AcDbEntity
  8
0
370
     0
100
AcDbVertex
100
AcDb2dVertex
 10
465.5778804064322
 20
348.9003115942143
 30
0.0
  0
VERTEX
  5
1211
330
120F
100
AcDbEntity
  8
0
370
     0
100
AcDbVertex
100
AcDb2dVertex
 10
464.852539406432
 20
348.8913395942144
 30
0.0
  0
VERTEX
  5
1212
330
120F
100
AcDbEntity
  8
0
370
     0
100
AcDbVertex
100
AcDb2dVertex
 10
464.8311764064321
 20
348.8898445942143
 30
0.0
  0
VERTEX
  5
1213
330
120F
100
AcDbEntity
  8
0
370
     0
100
AcDbVertex
100
AcDb2dVertex
 10
464.828003406432
 20
348.8891115942142
 30
0.0
  0
SEQEND
  5
1214
330
120F
100
AcDbEntity
  8
0
370
     0
  0
LINE
  5
1215
330
1F
100
AcDbEntity
  8
0
 62
     7
370
    35
100
AcDbLine
 10
464.828003406432
 20
545.6574225942143
 30
0.0
 11
464.828003406432
 21
348.8891115942142
 31
0.0
  0
LINE
  5
1216
330
1F
100
AcDbEntity
  8
0
 62
     7
 48
0.001199
370
    35
100
AcDbLine
 10
464.7940674064321
 20
348.8552375942144
 30
0.0
 11
464.828003406432
 21
348.8891115942142
 31
0.0
  0
LINE
  5
1217
330
1F
100
AcDbEntity
  8
0
 62
     7
 48
0.000462
370
    35
100
AcDbLine
 10
464.7900394064321
 20
348.8732735942143
 30
0.0
 11
464.7940674064321
 21
348.8552375942144
 31
0.0
  0
POLYLINE
  5
1218
330
1F
100
AcDbEntity
  8
0
 62
     7
370
    35
100
AcDb2dPolyline
 66
     1
 10
0.0
 20
0.0
 30
0.0
  0
VERTEX
  5
1219
330
1218
100
AcDbEntity
  8
0
370
     0
100
AcDbVertex
100
AcDb2dVertex
 10
464.7900394064321
 20
348.8732735942143
 30
0.0
  0
VERTEX
  5
121A
330
1218
100
AcDbEntity
  8
0
370
     0
100
AcDbVertex
100
AcDb2dVertex
 10
464.7886964064321
 20
348.8713815942143
 30
0.0
  0
VERTEX
  5
121B
330
1218
100
AcDbEntity
  8
0
370
     0
100
AcDbVertex
100
AcDb2dVertex
 10
464.7860104064322
 20
348.8562755942144
 30
0.0
  0
VERTEX
  5
121C
330
1218
100
AcDbEntity
  8
0
370
     0
100
AcDbVertex
100
AcDb2dVertex
 10
464.7781984064321
 20
348.7220585942143
 30
0.0
  0
VERTEX
  5
121D
330
1218
100
AcDbEntity
  8
0
370
     0
100
AcDbVertex
100
AcDb2dVertex
 10
464.7577514064321
 20
347.6238225942144
 30
0.0
  0
VERTEX
  5
121E
330
1218
100
AcDbEntity
  8
0
370
     0
100
AcDbVertex
100
AcDb2dVertex
 10
464.7406614064321
 20
345.0541515942143
 30
0.0
  0
VERTEX
  5
121F
330
1218
100
AcDbEntity
  8
0
370
     0
100
AcDbVertex
100
AcDb2dVertex
 10
464.7371824064321
 20
342.0358405942143
 30
0.0
  0
VERTEX
  5
1220
330
1218
100
AcDbEntity
  8
0
370
     0
100
AcDbVertex
100
AcDb2dVertex
 10
464.7498164064322
 20
338.7742745942144
 30
0.0
  0
VERTEX
  5
1221
330
1218
100
AcDbEntity
  8
0
370
     0
100
AcDbVertex
100
AcDb2dVertex
 10
464.7628174064321
 20
337.5279365942142
 30
0.0
  0
VERTEX
  5
1222
330
1218
100
AcDbEntity
  8
0
370
     0
100
AcDbVertex
100
AcDb2dVertex
 10
464.7792964064321
 20
336.7979555942143
 30
0.0
  0
VERTEX
  5
1223
330
1218
100
AcDbEntity
  8
0
370
     0
100
AcDbVertex
100
AcDb2dVertex
 10
464.7852784064321
 20
336.6970645942144
 30
0.0
  0
VERTEX
  5
1224
330
1218
100
AcDbEntity
  8
0
370
     0
100
AcDbVertex
100
AcDb2dVertex
 10
464.7883304064321
 20
336.6761905942143
 30
0.0
  0
VERTEX
  5
1225
330
1218
100
AcDbEntity
  8
0
370
     0
100
AcDbVertex
100
AcDb2dVertex
 10
464.7890624064321
 20
336.6741765942143
 30
0.0
  0
VERTEX
  5
1226
330
1218
100
AcDbEntity
  8
0
370
     0
100
AcDbVertex
100
AcDb2dVertex
 10
464.7900394064321
 20
336.6732615942144
 30
0.0
  0
SEQEND
  5
1227
330
1218
100
AcDbEntity
  8
0
370
     0
  0
LINE
  5
1228
330
1F
100
AcDbEntity
  8
0
 62
     7
 48
0.000462
370
    35
100
AcDbLine
 10
464.7900394064321
 20
336.6732615942144
 30
0.0
 11
464.7940674064321
 21
336.6912975942144
 31
0.0
  0
LINE
  5
1229
330
1F
100
AcDbEntity
  8
0
 62
     7
 48
0.001199
370
    35
100
AcDbLine
 10
464.7940674064321
 20
336.6912975942144
 30
0.0
 11
464.828003406432
 21
336.6574225942143
 31
0.0
  0
LINE
  5
122A
330
1F
100
AcDbEntity
  8
0
 62
     7
 48
0.018748
370
    35
100
AcDbLine
 10
452.3528444064321
 20
10.5482005942143
 30
0.0
 11
452.3528444064321
 21
11.29813959421432
 31
0.0
  0
ARC
  5
122B
330
1F
100
AcDbEntity
  8
0
 62
     7
370
    35
100
AcDbCircle
 10
452.3528444064321
 20
23.77326759421433
 30
0.0
 40
12.475126
100
AcDbArc
 50
269.9999969999999
 51
330.6434920000007
  0
POLYLINE
  5
122C
330
1F
100
AcDbEntity
  8
0
 62
     7
370
    35
100
AcDb2dPolyline
 66
     1
 10
0.0
 20
0.0
 30
0.0
  0
VERTEX
  5
122D
330
122C
100
AcDbEntity
  8
0
370
     0
100
AcDbVertex
100
AcDb2dVertex
 10
463.2260134064321
 20
17.65742259421429
 30
0.0
  0
VERTEX
  5
122E
330
122C
100
AcDbEntity
  8
0
370
     0
100
AcDbVertex
100
AcDb2dVertex
 10
463.2282104064322
 20
17.65681259421432
 30
0.0
  0
VERTEX
  5
122F
330
122C
100
AcDbEntity
  8
0
370
     0
100
AcDbVertex
100
AcDb2dVertex
 10
463.2437744064321
 20
17.65562159421432
 30
0.0
  0
VERTEX
  5
1230
330
122C
100
AcDbEntity
  8
0
370
     0
100
AcDbVertex
100
AcDb2dVertex
 10
463.375244406432
 20
17.6521735942143
 30
0.0
  0
VERTEX
  5
1231
330
122C
100
AcDbEntity
  8
0
370
     0
100
AcDbVertex
100
AcDb2dVertex
 10
464.0729984064321
 20
17.64622259421432
 30
0.0
  0
SEQEND
  5
1232
330
122C
100
AcDbEntity
  8
0
370
     0
  0
LINE
  5
1233
330
1F
100
AcDbEntity
  8
0
 62
     7
 48
0.054432
370
    35
100
AcDbLine
 10
464.0729984064321
 20
17.64622259421432
 30
0.0
 11
466.2502444064322
 21
17.63630459421432
 31
0.0
  0
POLYLINE
  5
1234
330
1F
100
AcDbEntity
  8
0
 62
     7
370
    35
100
AcDb2dPolyline
 66
     1
 10
0.0
 20
0.0
 30
0.0
  0
VERTEX
  5
1235
330
1234
100
AcDbEntity
  8
0
370
     0
100
AcDbVertex
100
AcDb2dVertex
 10
466.2502444064322
 20
17.63630459421432
 30
0.0
  0
VERTEX
  5
1236
330
1234
100
AcDbEntity
  8
0
370
     0
100
AcDbVertex
100
AcDb2dVertex
 10
466.8456424064321
 20
17.63151359421431
 30
0.0
  0
VERTEX
  5
1237
330
1234
100
AcDbEntity
  8
0
370
     0
100
AcDbVertex
100
AcDb2dVertex
 10
467.0529784064321
 20
17.62635559421432
 30
0.0
  0
VERTEX
  5
1238
330
1234
100
AcDbEntity
  8
0
370
     0
100
AcDbVertex
100
AcDb2dVertex
 10
467.0604854064321
 20
17.62550159421431
 30
0.0
  0
VERTEX
  5
1239
330
1234
100
AcDbEntity
  8
0
370
     0
100
AcDbVertex
100
AcDb2dVertex
 10
467.0616454064322
 20
17.6250735942143
 30
0.0
  0
SEQEND
  5
123A
330
1234
100
AcDbEntity
  8
0
370
     0
  0
LINE
  5
123B
330
1F
100
AcDbEntity
  8
0
 62
     7
 48
0.00174
370
    35
100
AcDbLine
 10
467.0616454064322
 20
17.6250735942143
 30
0.0
 11
467.100158406432
 21
17.56712059421434
 31
0.0
  0
ARC
  5
123C
330
1F
100
AcDbEntity
  8
0
 62
     7
370
    35
100
AcDbCircle
 10
452.3528444064321
 20
23.77326759421433
 30
0.0
 40
16.0
100
AcDbArc
 50
269.9999969999999
 51
337.1770389999999
  0
LINE
  5
123D
330
1F
100
AcDbEntity
  8
0
 62
     7
 48
0.000584
370
    35
100
AcDbLine
 10
23.51434340643217
 20
17.67326159421432
 30
0.0
 11
23.49952740643218
 21
17.69129759421432
 31
0.0
  0
POLYLINE
  5
123E
330
1F
100
AcDbEntity
  8
0
 62
     7
370
    35
100
AcDb2dPolyline
 66
     1
 10
0.0
 20
0.0
 30
0.0
  0
VERTEX
  5
123F
330
123E
100
AcDbEntity
  8
0
370
     0
100
AcDbVertex
100
AcDb2dVertex
 10
23.51434340643217
 20
17.67326159421432
 30
0.0
  0
VERTEX
  5
1240
330
123E
100
AcDbEntity
  8
0
370
     0
100
AcDbVertex
100
AcDb2dVertex
 10
23.51489240643218
 20
17.67426859421434
 30
0.0
  0
VERTEX
  5
1241
330
123E
100
AcDbEntity
  8
0
370
     0
100
AcDbVertex
100
AcDb2dVertex
 10
23.5146174064322
 20
17.67603859421432
 30
0.0
  0
VERTEX
  5
1242
330
123E
100
AcDbEntity
  8
0
370
     0
100
AcDbVertex
100
AcDb2dVertex
 10
23.51261940643218
 20
17.68223359421432
 30
0.0
  0
VERTEX
  5
1243
330
123E
100
AcDbEntity
  8
0
370
     0
100
AcDbVertex
100
AcDb2dVertex
 10
23.47955340643216
 20
17.75321759421433
 30
0.0
  0
VERTEX
  5
1244
330
123E
100
AcDbEntity
  8
0
370
     0
100
AcDbVertex
100
AcDb2dVertex
 10
23.18968240643219
 20
18.34525859421433
 30
0.0
  0
VERTEX
  5
1245
330
123E
100
AcDbEntity
  8
0
370
     0
100
AcDbVertex
100
AcDb2dVertex
 10
22.85856640643217
 20
19.11369059421432
 30
0.0
  0
VERTEX
  5
1246
330
123E
100
AcDbEntity
  8
0
370
     0
100
AcDbVertex
100
AcDb2dVertex
 10
22.68757640643219
 20
19.57243159421432
 30
0.0
  0
VERTEX
  5
1247
330
123E
100
AcDbEntity
  8
0
370
     0
100
AcDbVertex
100
AcDb2dVertex
 10
22.47709640643217
 20
20.22721659421433
 30
0.0
  0
VERTEX
  5
1248
330
123E
100
AcDbEntity
  8
0
370
     0
100
AcDbVertex
100
AcDb2dVertex
 10
22.29147340643217
 20
20.93842859421432
 30
0.0
  0
VERTEX
  5
1249
330
123E
100
AcDbEntity
  8
0
370
     0
100
AcDbVertex
100
AcDb2dVertex
 10
22.11691240643219
 20
21.84690659421432
 30
0.0
  0
VERTEX
  5
124A
330
123E
100
AcDbEntity
  8
0
370
     0
100
AcDbVertex
100
AcDb2dVertex
 10
22.00660740643218
 20
22.79908559421432
 30
0.0
  0
VERTEX
  5
124B
330
123E
100
AcDbEntity
  8
0
370
     0
100
AcDbVertex
100
AcDb2dVertex
 10
21.96891740643218
 20
23.77326759421433
 30
0.0
  0
SEQEND
  5
124C
330
123E
100
AcDbEntity
  8
0
370
     0
  0
POLYLINE
  5
124D
330
1F
100
AcDbEntity
  8
0
 62
     7
370
    35
100
AcDb2dPolyline
 66
     1
 10
0.0
 20
0.0
 30
0.0
  0
VERTEX
  5
124E
330
124D
100
AcDbEntity
  8
0
370
     0
100
AcDbVertex
100
AcDb2dVertex
 10
21.96891740643218
 20
23.77326759421433
 30
0.0
  0
VERTEX
  5
124F
330
124D
100
AcDbEntity
  8
0
370
     0
100
AcDbVertex
100
AcDb2dVertex
 10
21.96336340643219
 20
26.48512059421432
 30
0.0
  0
VERTEX
  5
1250
330
124D
100
AcDbEntity
  8
0
370
     0
100
AcDbVertex
100
AcDb2dVertex
 10
21.94653340643217
 20
28.74390959421433
 30
0.0
  0
VERTEX
  5
1251
330
124D
100
AcDbEntity
  8
0
370
     0
100
AcDbVertex
100
AcDb2dVertex
 10
21.92800940643218
 20
29.7073795942143
 30
0.0
  0
VERTEX
  5
1252
330
124D
100
AcDbEntity
  8
0
370
     0
100
AcDbVertex
100
AcDb2dVertex
 10
21.92103540643217
 20
29.8422065942143
 30
0.0
  0
VERTEX
  5
1253
330
124D
100
AcDbEntity
  8
0
370
     0
100
AcDbVertex
100
AcDb2dVertex
 10
21.91749540643215
 20
29.86970259421432
 30
0.0
  0
VERTEX
  5
1254
330
124D
100
AcDbEntity
  8
0
370
     0
100
AcDbVertex
100
AcDb2dVertex
 10
21.91668740643217
 20
29.8721745942143
 30
0.0
  0
VERTEX
  5
1255
330
124D
100
AcDbEntity
  8
0
370
     0
100
AcDbVertex
100
AcDb2dVertex
 10
21.91568040643219
 20
29.87327359421431
 30
0.0
  0
SEQEND
  5
1256
330
124D
100
AcDbEntity
  8
0
370
     0
  0
LINE
  5
1257
330
1F
100
AcDbEntity
  8
0
 62
     7
 48
0.000462
370
    35
100
AcDbLine
 10
21.91568040643219
 20
29.87327359421431
 30
0.0
 11
21.9115904064322
 21
29.85523759421432
 31
0.0
  0
ARC
  5
125A
330
1F
100
AcDbEntity
  8
0
 62
     7
370
    35
100
AcDbCircle
 10
437.8528444064322
 20
525.7732675942142
 30
0.0
 40
2.0
100
AcDbArc
 50
0.0
 51
90.00000300000015
  0
LINE
  5
125B
330
1F
100
AcDbEntity
  8
0
 62
     7
370
    35
100
AcDbLine
 10
437.8528444064322
 20
527.7732675942143
 30
0.0
 11
394.8528444064322
 21
527.7732675942143
 31
0.0
  0
ARC
  5
125C
330
1F
100
AcDbEntity
  8
0
 62
     7
370
    35
100
AcDbCircle
 10
394.8528444064322
 20
525.7732675942142
 30
0.0
 40
2.0
100
AcDbArc
 50
90.00000300000015
 51
180.0000050000005
  0
LINE
  5
125D
330
1F
100
AcDbEntity
  8
0
 62
     7
 48
0.4
370
    35
100
AcDbLine
 10
392.8528444064322
 20
509.7732675942141
 30
0.0
 11
392.8528444064322
 21
525.7732675942142
 31
0.0
  0
ARC
  5
125E
330
1F
100
AcDbEntity
  8
0
 62
     7
370
    35
100
AcDbCircle
 10
394.8528444064322
 20
509.7732675942141
 30
0.0
 40
2.0
100
AcDbArc
 50
179.9999949999995
 51
269.9999969999999
  0
LINE
  5
125F
330
1F
100
AcDbEntity
  8
0
 62
     7
370
    35
100
AcDbLine
 10
394.8528444064322
 20
507.7732675942143
 30
0.0
 11
437.8528444064322
 21
507.7732675942143
 31
0.0
  0
ARC
  5
1260
330
1F
100
AcDbEntity
  8
0
 62
     7
370
    35
100
AcDbCircle
 10
437.8528444064322
 20
509.7732675942141
 30
0.0
 40
2.0
100
AcDbArc
 50
269.9999969999999
 51
0.0
  0
LINE
  5
1261
330
1F
100
AcDbEntity
  8
0
 62
     7
 48
0.4
370
    35
100
AcDbLine
 10
439.8528444064321
 20
525.7732675942142
 30
0.0
 11
439.8528444064321
 21
509.7732675942141
 31
0.0
  0
LINE
  5
1262
330
1F
100
AcDbEntity
  8
0
 62
     7
 48
0.049998
370
    13
100
AcDbLine
 10
24.25000040643218
 20
36.47057859421432
 30
0.0
 11
22.25007640643219
 21
36.47057859421432
 31
0.0
  0
LINE
  5
1263
330
1F
100
AcDbEntity
  8
0
 62
     7
 48
0.049998
370
    13
100
AcDbLine
 10
462.4556884064321
 20
36.47057859421432
 30
0.0
 11
464.4556274064321
 21
36.47057859421432
 31
0.0
  0
LINE
  5
1264
330
1F
100
AcDbEntity
  8
0
 62
     7
370
    35
100
AcDbLine
 10
34.35284440643219
 20
11.29813959421432
 30
0.0
 11
452.3528444064321
 21
11.29813959421432
 31
0.0
  0
LINE
  5
1265
330
1F
100
AcDbEntity
  8
0
 62
     7
 48
0.001199
370
    35
100
AcDbLine
 10
464.7940674064321
 20
29.85523759421432
 30
0.0
 11
464.828003406432
 21
29.88911159421432
 31
0.0
  0
LINE
  5
1266
330
1F
100
AcDbEntity
  8
0
 62
     7
 48
0.000462
370
    35
100
AcDbLine
 10
464.7900394064321
 20
29.87327359421431
 30
0.0
 11
464.7940674064321
 21
29.85523759421432
 31
0.0
  0
POLYLINE
  5
1267
330
1F
100
AcDbEntity
  8
0
 62
     7
370
    35
100
AcDb2dPolyline
 66
     1
 10
0.0
 20
0.0
 30
0.0
  0
VERTEX
  5
1268
330
1267
100
AcDbEntity
  8
0
370
     0
100
AcDbVertex
100
AcDb2dVertex
 10
464.7367554064321
 20
23.77326759421433
 30
0.0
  0
VERTEX
  5
1269
330
1267
100
AcDbEntity
  8
0
370
     0
100
AcDbVertex
100
AcDb2dVertex
 10
464.7423094064321
 20
26.48512059421432
 30
0.0
  0
VERTEX
  5
126A
330
1267
100
AcDbEntity
  8
0
370
     0
100
AcDbVertex
100
AcDb2dVertex
 10
464.759155406432
 20
28.74390959421433
 30
0.0
  0
VERTEX
  5
126B
330
1267
100
AcDbEntity
  8
0
370
     0
100
AcDbVertex
100
AcDb2dVertex
 10
464.7777104064322
 20
29.7073795942143
 30
0.0
  0
VERTEX
  5
126C
330
1267
100
AcDbEntity
  8
0
370
     0
100
AcDbVertex
100
AcDb2dVertex
 10
464.7846684064321
 20
29.8422065942143
 30
0.0
  0
VERTEX
  5
126D
330
1267
100
AcDbEntity
  8
0
370
     0
100
AcDbVertex
100
AcDb2dVertex
 10
464.788208406432
 20
29.86970259421432
 30
0.0
  0
VERTEX
  5
126E
330
1267
100
AcDbEntity
  8
0
370
     0
100
AcDbVertex
100
AcDb2dVertex
 10
464.7890014064322
 20
29.8721745942143
 30
0.0
  0
VERTEX
  5
126F
330
1267
100
AcDbEntity
  8
0
370
     0
100
AcDbVertex
100
AcDb2dVertex
 10
464.7900394064321
 20
29.87327359421431
 30
0.0
  0
SEQEND
  5
1270
330
1267
100
AcDbEntity
  8
0
370
     0
  0
POLYLINE
  5
1272
330
1F
100
AcDbEntity
  8
0
 62
     7
370
    35
100
AcDb2dPolyline
 66
     1
 10
0.0
 20
0.0
 30
0.0
  0
VERTEX
  5
1273
330
1272
100
AcDbEntity
  8
0
370
     0
100
AcDbVertex
100
AcDb2dVertex
 10
463.1913454064322
 20
17.67326159421432
 30
0.0
  0
VERTEX
  5
1274
330
1272
100
AcDbEntity
  8
0
370
     0
100
AcDbVertex
100
AcDb2dVertex
 10
463.1907954064321
 20
17.67426859421434
 30
0.0
  0
VERTEX
  5
1275
330
1272
100
AcDbEntity
  8
0
370
     0
100
AcDbVertex
100
AcDb2dVertex
 10
463.1910404064321
 20
17.67603859421432
 30
0.0
  0
VERTEX
  5
1276
330
1272
100
AcDbEntity
  8
0
370
     0
100
AcDbVertex
100
AcDb2dVertex
 10
463.1930544064322
 20
17.68223359421432
 30
0.0
  0
VERTEX
  5
1277
330
1272
100
AcDbEntity
  8
0
370
     0
100
AcDbVertex
100
AcDb2dVertex
 10
463.2261354064322
 20
17.75321759421433
 30
0.0
  0
VERTEX
  5
1278
330
1272
100
AcDbEntity
  8
0
370
     0
100
AcDbVertex
100
AcDb2dVertex
 10
463.5159914064321
 20
18.34525859421433
 30
0.0
  0
VERTEX
  5
1279
330
1272
100
AcDbEntity
  8
0
370
     0
100
AcDbVertex
100
AcDb2dVertex
 10
463.847107406432
 20
19.11369059421432
 30
0.0
  0
VERTEX
  5
127A
330
1272
100
AcDbEntity
  8
0
370
     0
100
AcDbVertex
100
AcDb2dVertex
 10
464.018127406432
 20
19.57243159421432
 30
0.0
  0
VERTEX
  5
127B
330
1272
100
AcDbEntity
  8
0
370
     0
100
AcDbVertex
100
AcDb2dVertex
 10
464.2285764064322
 20
20.22721659421433
 30
0.0
  0
VERTEX
  5
127C
330
1272
100
AcDbEntity
  8
0
370
     0
100
AcDbVertex
100
AcDb2dVertex
 10
464.414184406432
 20
20.93842859421432
 30
0.0
  0
VERTEX
  5
127D
330
1272
100
AcDbEntity
  8
0
370
     0
100
AcDbVertex
100
AcDb2dVertex
 10
464.5887454064321
 20
21.84690659421432
 30
0.0
  0
VERTEX
  5
127E
330
1272
100
AcDbEntity
  8
0
370
     0
100
AcDbVertex
100
AcDb2dVertex
 10
464.6990964064321
 20
22.79908559421432
 30
0.0
  0
VERTEX
  5
127F
330
1272
100
AcDbEntity
  8
0
370
     0
100
AcDbVertex
100
AcDb2dVertex
 10
464.7367554064321
 20
23.77326759421433
 30
0.0
  0
SEQEND
  5
1280
330
1272
100
AcDbEntity
  8
0
370
     0
  0
LINE
  5
1281
330
1F
100
AcDbEntity
  8
0
 62
     7
 48
0.000584
370
    35
100
AcDbLine
 10
463.1913454064322
 20
17.67326159421432
 30
0.0
 11
463.2061764064322
 21
17.69129759421432
 31
0.0
  0
LINE
  5
1282
330
1F
100
AcDbEntity
  8
0
 62
     7
 48
0.000981
370
    35
100
AcDbLine
 10
463.2061764064322
 20
17.69129759421432
 30
0.0
 11
463.2260134064321
 21
17.65742259421429
 31
0.0
  0
CIRCLE
  5
1283
330
1F
100
AcDbEntity
  8
0
 62
     7
370
    35
100
AcDbCircle
 10
452.3528444064321
 20
23.77326759421433
 30
0.0
 40
9.113215999999999
  0
CIRCLE
  5
1284
330
1F
100
AcDbEntity
  8
0
 62
     7
370
    35
100
AcDbCircle
 10
34.35284440643219
 20
23.77326759421433
 30
0.0
 40
9.113215999999999
  0
CIRCLE
  5
1285
330
1F
100
AcDbEntity
  8
0
 62
     7
370
    35
100
AcDbCircle
 10
452.3528444064321
 20
342.7732675942143
 30
0.0
 40
9.113215999999999
  0
CIRCLE
  5
1286
330
1F
100
AcDbEntity
  8
0
 62
     7
370
    35
100
AcDbCircle
 10
34.35284440643219
 20
342.7732675942143
 30
0.0
 40
9.113215999999999
  0
CIRCLE
  5
1287
330
1F
100
AcDbEntity
  8
0
 62
     7
370
    35
100
AcDbCircle
 10
452.3528444064321
 20
551.7732675942141
 30
0.0
 40
9.113215999999999
  0
CIRCLE
  5
1288
330
1F
100
AcDbEntity
  8
0
 62
     7
370
    35
100
AcDbCircle
 10
34.35284440643219
 20
551.7732675942141
 30
0.0
 40
9.113215999999999
  0
ARC
  5
1289
330
1F
100
AcDbEntity
  8
0
 62
     7
370
    35
100
AcDbCircle
 10
454.2518924064321
 20
22.45850859421432
 30
0.0
 40
8.154378999999996
100
AcDbArc
 50
323.2013070000002
 51
359.6628330000003
  0
POLYLINE
  5
128B
330
1F
100
AcDbEntity
  8
0
 62
     7
370
    35
100
AcDb2dPolyline
 66
     1
 10
0.0
 20
0.0
 30
0.0
  0
VERTEX
  5
128C
330
128B
100
AcDbEntity
  8
0
370
     0
100
AcDbVertex
100
AcDb2dVertex
 10
452.3528444064321
 20
13.36979459421434
 30
0.0
  0
VERTEX
  5
128D
330
128B
100
AcDbEntity
  8
0
370
     0
100
AcDbVertex
100
AcDb2dVertex
 10
453.1562504064321
 20
13.40018959421434
 30
0.0
  0
VERTEX
  5
128E
330
128B
100
AcDbEntity
  8
0
370
     0
100
AcDbVertex
100
AcDb2dVertex
 10
453.9387204064322
 20
13.48884359421433
 30
0.0
  0
VERTEX
  5
128F
330
128B
100
AcDbEntity
  8
0
370
     0
100
AcDbVertex
100
AcDb2dVertex
 10
454.687988406432
 20
13.62983459421431
 30
0.0
  0
VERTEX
  5
1290
330
128B
100
AcDbEntity
  8
0
370
     0
100
AcDbVertex
100
AcDb2dVertex
 10
455.3720704064322
 20
13.80845359421431
 30
0.0
  0
VERTEX
  5
1291
330
128B
100
AcDbEntity
  8
0
370
     0
100
AcDbVertex
100
AcDb2dVertex
 10
456.0209964064322
 20
14.0244265942143
 30
0.0
  0
VERTEX
  5
1292
330
128B
100
AcDbEntity
  8
0
370
     0
100
AcDbVertex
100
AcDb2dVertex
 10
456.6353764064323
 20
14.27351159421431
 30
0.0
  0
VERTEX
  5
1293
330
128B
100
AcDbEntity
  8
0
370
     0
100
AcDbVertex
100
AcDb2dVertex
 10
457.0597534064321
 20
14.47279159421433
 30
0.0
  0
VERTEX
  5
1294
330
128B
100
AcDbEntity
  8
0
370
     0
100
AcDbVertex
100
AcDb2dVertex
 10
457.4689334064322
 20
14.68754359421433
 30
0.0
  0
VERTEX
  5
1295
330
128B
100
AcDbEntity
  8
0
370
     0
100
AcDbVertex
100
AcDb2dVertex
 10
457.8700564064321
 20
14.92118559421431
 30
0.0
  0
VERTEX
  5
1296
330
128B
100
AcDbEntity
  8
0
370
     0
100
AcDbVertex
100
AcDb2dVertex
 10
458.256591406432
 20
15.16981259421433
 30
0.0
  0
VERTEX
  5
1297
330
128B
100
AcDbEntity
  8
0
370
     0
100
AcDbVertex
100
AcDb2dVertex
 10
458.9736324064321
 20
15.69929259421434
 30
0.0
  0
VERTEX
  5
1298
330
128B
100
AcDbEntity
  8
0
370
     0
100
AcDbVertex
100
AcDb2dVertex
 10
459.638549406432
 20
16.28358259421432
 30
0.0
  0
VERTEX
  5
1299
330
128B
100
AcDbEntity
  8
0
370
     0
100
AcDbVertex
100
AcDb2dVertex
 10
460.2512204064321
 20
16.92161359421433
 30
0.0
  0
VERTEX
  5
129A
330
128B
100
AcDbEntity
  8
0
370
     0
100
AcDbVertex
100
AcDb2dVertex
 10
460.7814334064322
 20
17.57398759421431
 30
0.0
  0
SEQEND
  5
129B
330
128B
100
AcDbEntity
  8
0
370
     0
  0
LINE
  5
129C
330
1F
100
AcDbEntity
  8
0
 62
     7
 48
0.245
370
    35
100
AcDbLine
 10
452.3528444064321
 20
13.36979459421434
 30
0.0
 11
442.5528564064321
 21
13.36979459421434
 31
0.0
  0
ARC
  5
129D
330
1F
100
AcDbEntity
  8
0
 62
     7
370
    35
100
AcDbCircle
 10
442.5523074064321
 20
13.9847235942143
 30
0.0
 40
0.614857
100
AcDbArc
 50
181.0672670000007
 51
270.0483070000001
  0
ELLIPSE
  5
129F
330
1F
100
AcDbEntity
  8
0
 62
     7
370
    35
100
AcDbEllipse
 10
442.0327754064321
 20
36.47057859421432
 30
0.0
 11
0.0
 21
-25.0
 31
0.0
210
0.0
220
0.0
230
1.0
 40
0.008727
 41
5.245125183427465
 42
5.831911868823887
  0
POLYLINE
  5
12A1
330
1F
100
AcDbEntity
  8
0
 62
     7
370
    35
100
AcDb2dPolyline
 66
     1
 10
0.0
 20
0.0
 30
0.0
  0
VERTEX
  5
12A2
330
12A1
100
AcDbEntity
  8
0
370
     0
100
AcDbVertex
100
AcDb2dVertex
 10
441.844848406432
 20
23.77326759421433
 30
0.0
  0
VERTEX
  5
12A3
330
12A1
100
AcDbEntity
  8
0
370
     0
100
AcDbVertex
100
AcDb2dVertex
 10
441.8737184064323
 20
24.60532859421431
 30
0.0
  0
VERTEX
  5
12A4
330
12A1
100
AcDbEntity
  8
0
370
     0
100
AcDbVertex
100
AcDb2dVertex
 10
441.9707644064321
 20
25.44550859421432
 30
0.0
  0
VERTEX
  5
12A5
330
12A1
100
AcDbEntity
  8
0
370
     0
100
AcDbVertex
100
AcDb2dVertex
 10
442.1383054064322
 20
26.28727459421432
 30
0.0
  0
VERTEX
  5
12A6
330
12A1
100
AcDbEntity
  8
0
370
     0
100
AcDbVertex
100
AcDb2dVertex
 10
442.377990406432
 20
27.12348659421432
 30
0.0
  0
VERTEX
  5
12A7
330
12A1
100
AcDbEntity
  8
0
370
     0
100
AcDbVertex
100
AcDb2dVertex
 10
442.690429406432
 20
27.94654659421434
 30
0.0
  0
VERTEX
  5
12A8
330
12A1
100
AcDbEntity
  8
0
370
     0
100
AcDbVertex
100
AcDb2dVertex
 10
443.0750734064321
 20
28.7485475942143
 30
0.0
  0
VERTEX
  5
12A9
330
12A1
100
AcDbEntity
  8
0
370
     0
100
AcDbVertex
100
AcDb2dVertex
 10
443.5189204064322
 20
29.50336959421432
 30
0.0
  0
VERTEX
  5
12AA
330
12A1
100
AcDbEntity
  8
0
370
     0
100
AcDbVertex
100
AcDb2dVertex
 10
444.027649406432
 20
30.22303559421431
 30
0.0
  0
VERTEX
  5
12AB
330
12A1
100
AcDbEntity
  8
0
370
     0
100
AcDbVertex
100
AcDb2dVertex
 10
444.5980224064321
 20
30.9008005942143
 30
0.0
  0
VERTEX
  5
12AC
330
12A1
100
AcDbEntity
  8
0
370
     0
100
AcDbVertex
100
AcDb2dVertex
 10
445.2260744064321
 20
31.53040859421432
 30
0.0
  0
VERTEX
  5
12AD
330
12A1
100
AcDbEntity
  8
0
370
     0
100
AcDbVertex
100
AcDb2dVertex
 10
445.9072264064322
 20
32.10619859421431
 30
0.0
  0
VERTEX
  5
12AE
330
12A1
100
AcDbEntity
  8
0
370
     0
100
AcDbVertex
100
AcDb2dVertex
 10
446.6362304064323
 20
32.62315159421432
 30
0.0
  0
VERTEX
  5
12AF
330
12A1
100
AcDbEntity
  8
0
370
     0
100
AcDbVertex
100
AcDb2dVertex
 10
447.3784794064322
 20
33.06127659421432
 30
0.0
  0
VERTEX
  5
12B0
330
12A1
100
AcDbEntity
  8
0
370
     0
100
AcDbVertex
100
AcDb2dVertex
 10
448.1547854064321
 20
33.43745159421431
 30
0.0
  0
VERTEX
  5
12B1
330
12A1
100
AcDbEntity
  8
0
370
     0
100
AcDbVertex
100
AcDb2dVertex
 10
448.9597164064321
 20
33.74891459421431
 30
0.0
  0
VERTEX
  5
12B2
330
12A1
100
AcDbEntity
  8
0
370
     0
100
AcDbVertex
100
AcDb2dVertex
 10
449.7877194064321
 20
33.99343659421433
 30
0.0
  0
VERTEX
  5
12B3
330
12A1
100
AcDbEntity
  8
0
370
     0
100
AcDbVertex
100
AcDb2dVertex
 10
450.6330564064322
 20
34.16929359421434
 30
0.0
  0
VERTEX
  5
12B4
330
12A1
100
AcDbEntity
  8
0
370
     0
100
AcDbVertex
100
AcDb2dVertex
 10
451.490051406432
 20
34.27528159421431
 30
0.0
  0
VERTEX
  5
12B5
330
12A1
100
AcDbEntity
  8
0
370
     0
100
AcDbVertex
100
AcDb2dVertex
 10
452.3528444064321
 20
34.3106975942143
 30
0.0
  0
SEQEND
  5
12B6
330
12A1
100
AcDbEntity
  8
0
370
     0
  0
LINE
  5
12B7
330
1F
100
AcDbEntity
  8
0
 62
     7
 48
0.233821
370
    35
100
AcDbLine
 10
461.7056884064321
 20
34.3106975942143
 30
0.0
 11
452.3528444064321
 21
34.3106975942143
 31
0.0
  0
ARC
  5
12B8
330
1F
100
AcDbEntity
  8
0
 62
     7
370
    35
100
AcDbCircle
 10
461.7056884064321
 20
33.57395659421431
 30
0.0
 40
0.736725
100
AcDbArc
 50
359.9459729999996
 51
90.00434699999969
  0
ARC
  5
12B9
330
1F
100
AcDbEntity
  8
0
 62
     7
370
    35
100
AcDbCircle
 10
-1860.809326593567
 20
35.46284259421432
 30
0.0
 40
2323.25238
100
AcDbArc
 50
359.6781030000002
 51
359.9534000000002
  0
ARC
  5
12BA
330
1F
100
AcDbEntity
  8
0
 62
     7
370
    35
100
AcDbCircle
 10
461.7056884064321
 20
332.9732795942143
 30
0.0
 40
0.738243
100
AcDbArc
 50
269.9999969999999
 51
0.0
  0
LINE
  5
12BC
330
1F
100
AcDbEntity
  8
0
 62
     7
 48
0.233821
370
    35
100
AcDbLine
 10
461.7056884064321
 20
332.2350285942143
 30
0.0
 11
452.3528444064321
 21
332.2350285942143
 31
0.0
  0
ARC
  5
12BE
330
1F
100
AcDbEntity
  8
0
 62
     7
370
    35
100
AcDbCircle
 10
452.3528444064321
 20
342.7732675942143
 30
0.0
 40
10.538243
100
AcDbArc
 50
90.00000300000015
 51
269.9999969999999
  0
LINE
  5
12BF
330
1F
100
AcDbEntity
  8
0
 62
     7
 48
0.233821
370
    35
100
AcDbLine
 10
461.7056884064321
 20
353.3115055942143
 30
0.0
 11
452.3528444064321
 21
353.3115055942143
 31
0.0
  0
ARC
  5
12C0
330
1F
100
AcDbEntity
  8
0
 62
     7
370
    35
100
AcDbCircle
 10
461.7056884064321
 20
352.5732555942143
 30
0.0
 40
0.738243
100
AcDbArc
 50
0.0
 51
90.00000300000015
  0
LINE
  5
12C1
330
1F
100
AcDbEntity
  8
0
 62
     7
 48
0.489999
370
    35
100
AcDbLine
 10
462.4439694064322
 20
352.5732555942143
 30
0.0
 11
462.4439694064322
 21
332.9732795942143
 31
0.0
  0
ARC
  5
12C2
330
1F
100
AcDbEntity
  8
0
 62
     7
370
    35
100
AcDbCircle
 10
461.7056884064321
 20
541.9725475942141
 30
0.0
 40
0.736725
100
AcDbArc
 50
269.9956530000003
 51
0.0540270000003523
  0
LINE
  5
12C4
330
1F
100
AcDbEntity
  8
0
 62
     7
 48
0.233821
370
    35
100
AcDbLine
 10
461.7056884064321
 20
541.2358525942143
 30
0.0
 11
452.3528444064321
 21
541.2358525942143
 31
0.0
  0
POLYLINE
  5
12C6
330
1F
100
AcDbEntity
  8
0
 62
     7
370
    35
100
AcDb2dPolyline
 66
     1
 10
0.0
 20
0.0
 30
0.0
  0
VERTEX
  5
12C7
330
12C6
100
AcDbEntity
  8
0
370
     0
100
AcDbVertex
100
AcDb2dVertex
 10
441.844848406432
 20
551.7732675942141
 30
0.0
  0
VERTEX
  5
12C8
330
12C6
100
AcDbEntity
  8
0
370
     0
100
AcDbVertex
100
AcDb2dVertex
 10
441.8737184064323
 20
550.9411745942143
 30
0.0
  0
VERTEX
  5
12C9
330
12C6
100
AcDbEntity
  8
0
370
     0
100
AcDbVertex
100
AcDb2dVertex
 10
441.9707644064321
 20
550.1010265942142
 30
0.0
  0
VERTEX
  5
12CA
330
12C6
100
AcDbEntity
  8
0
370
     0
100
AcDbVertex
100
AcDb2dVertex
 10
442.1383054064322
 20
549.2592905942141
 30
0.0
  0
VERTEX
  5
12CB
330
12C6
100
AcDbEntity
  8
0
370
     0
100
AcDbVertex
100
AcDb2dVertex
 10
442.377990406432
 20
548.423047594214
 30
0.0
  0
VERTEX
  5
12CC
330
12C6
100
AcDbEntity
  8
0
370
     0
100
AcDbVertex
100
AcDb2dVertex
 10
442.690429406432
 20
547.5999885942143
 30
0.0
  0
VERTEX
  5
12CD
330
12C6
100
AcDbEntity
  8
0
370
     0
100
AcDbVertex
100
AcDb2dVertex
 10
443.0750734064321
 20
546.7979865942139
 30
0.0
  0
VERTEX
  5
12CE
330
12C6
100
AcDbEntity
  8
0
370
     0
100
AcDbVertex
100
AcDb2dVertex
 10
443.5189204064322
 20
546.0431645942143
 30
0.0
  0
VERTEX
  5
12CF
330
12C6
100
AcDbEntity
  8
0
370
     0
100
AcDbVertex
100
AcDb2dVertex
 10
444.027649406432
 20
545.3234995942144
 30
0.0
  0
VERTEX
  5
12D0
330
12C6
100
AcDbEntity
  8
0
370
     0
100
AcDbVertex
100
AcDb2dVertex
 10
444.5980224064321
 20
544.6457645942141
 30
0.0
  0
VERTEX
  5
12D1
330
12C6
100
AcDbEntity
  8
0
370
     0
100
AcDbVertex
100
AcDb2dVertex
 10
445.2260744064321
 20
544.0161265942141
 30
0.0
  0
VERTEX
  5
12D2
330
12C6
100
AcDbEntity
  8
0
370
     0
100
AcDbVertex
100
AcDb2dVertex
 10
445.9072264064322
 20
543.4403205942142
 30
0.0
  0
VERTEX
  5
12D3
330
12C6
100
AcDbEntity
  8
0
370
     0
100
AcDbVertex
100
AcDb2dVertex
 10
446.6362304064323
 20
542.9233525942143
 30
0.0
  0
VERTEX
  5
12D4
330
12C6
100
AcDbEntity
  8
0
370
     0
100
AcDbVertex
100
AcDb2dVertex
 10
447.3784794064322
 20
542.4852425942143
 30
0.0
  0
VERTEX
  5
12D5
330
12C6
100
AcDbEntity
  8
0
370
     0
100
AcDbVertex
100
AcDb2dVertex
 10
448.1547854064321
 20
542.1090825942143
 30
0.0
  0
VERTEX
  5
12D6
330
12C6
100
AcDbEntity
  8
0
370
     0
100
AcDbVertex
100
AcDb2dVertex
 10
448.9597164064321
 20
541.7976205942143
 30
0.0
  0
VERTEX
  5
12D7
330
12C6
100
AcDbEntity
  8
0
370
     0
100
AcDbVertex
100
AcDb2dVertex
 10
449.7877194064321
 20
541.5531135942143
 30
0.0
  0
VERTEX
  5
12D8
330
12C6
100
AcDbEntity
  8
0
370
     0
100
AcDbVertex
100
AcDb2dVertex
 10
450.6330564064322
 20
541.3772105942141
 30
0.0
  0
VERTEX
  5
12D9
330
12C6
100
AcDbEntity
  8
0
370
     0
100
AcDbVertex
100
AcDb2dVertex
 10
451.490051406432
 20
541.2712535942143
 30
0.0
  0
VERTEX
  5
12DA
330
12C6
100
AcDbEntity
  8
0
370
     0
100
AcDbVertex
100
AcDb2dVertex
 10
452.3528444064321
 20
541.2358525942143
 30
0.0
  0
SEQEND
  5
12DB
330
12C6
100
AcDbEntity
  8
0
370
     0
  0
ELLIPSE
  5
12DC
330
1F
100
AcDbEntity
  8
0
 62
     7
370
    35
100
AcDbEllipse
 10
442.0327754064321
 20
539.0759405942142
 30
0.0
 11
0.0
 21
-25.0
 31
0.0
210
0.0
220
0.0
230
1.0
 40
0.008727
 41
3.59286609194265
 42
4.17965277734095
  0
ARC
  5
12DD
330
1F
100
AcDbEntity
  8
0
 62
     7
370
    35
100
AcDbCircle
 10
442.5523074064321
 20
561.561780594214
 30
0.0
 40
0.614857
100
AcDbArc
 50
89.95169299999984
 51
178.9327329999992
  0
LINE
  5
12DE
330
1F
100
AcDbEntity
  8
0
 62
     7
 48
0.245
370
    35
100
AcDbLine
 10
452.3528444064321
 20
562.1767705942143
 30
0.0
 11
442.5528564064321
 21
562.1767705942143
 31
0.0
  0
POLYLINE
  5
12E0
330
1F
100
AcDbEntity
  8
0
 62
     7
370
    35
100
AcDb2dPolyline
 66
     1
 10
0.0
 20
0.0
 30
0.0
  0
VERTEX
  5
12E1
330
12E0
100
AcDbEntity
  8
0
370
     0
100
AcDbVertex
100
AcDb2dVertex
 10
452.3528444064321
 20
562.1767705942143
 30
0.0
  0
VERTEX
  5
12E2
330
12E0
100
AcDbEntity
  8
0
370
     0
100
AcDbVertex
100
AcDb2dVertex
 10
453.1562504064321
 20
562.1463755942142
 30
0.0
  0
VERTEX
  5
12E3
330
12E0
100
AcDbEntity
  8
0
370
     0
100
AcDbVertex
100
AcDb2dVertex
 10
453.9387204064322
 20
562.0576915942144
 30
0.0
  0
VERTEX
  5
12E4
330
12E0
100
AcDbEntity
  8
0
370
     0
100
AcDbVertex
100
AcDb2dVertex
 10
454.687988406432
 20
561.9166995942143
 30
0.0
  0
VERTEX
  5
12E5
330
12E0
100
AcDbEntity
  8
0
370
     0
100
AcDbVertex
100
AcDb2dVertex
 10
455.3720704064322
 20
561.7380495942143
 30
0.0
  0
VERTEX
  5
12E6
330
12E0
100
AcDbEntity
  8
0
370
     0
100
AcDbVertex
100
AcDb2dVertex
 10
456.0209964064322
 20
561.5221075942144
 30
0.0
  0
VERTEX
  5
12E7
330
12E0
100
AcDbEntity
  8
0
370
     0
100
AcDbVertex
100
AcDb2dVertex
 10
456.6353764064323
 20
561.2730235942141
 30
0.0
  0
VERTEX
  5
12E8
330
12E0
100
AcDbEntity
  8
0
370
     0
100
AcDbVertex
100
AcDb2dVertex
 10
457.0597534064321
 20
561.0737435942143
 30
0.0
  0
VERTEX
  5
12E9
330
12E0
100
AcDbEntity
  8
0
370
     0
100
AcDbVertex
100
AcDb2dVertex
 10
457.4689334064322
 20
560.8590215942141
 30
0.0
  0
VERTEX
  5
12EA
330
12E0
100
AcDbEntity
  8
0
370
     0
100
AcDbVertex
100
AcDb2dVertex
 10
457.8700564064321
 20
560.6253795942143
 30
0.0
  0
VERTEX
  5
12EB
330
12E0
100
AcDbEntity
  8
0
370
     0
100
AcDbVertex
100
AcDb2dVertex
 10
458.256591406432
 20
560.3767215942143
 30
0.0
  0
VERTEX
  5
12EC
330
12E0
100
AcDbEntity
  8
0
370
     0
100
AcDbVertex
100
AcDb2dVertex
 10
458.9736324064321
 20
559.8472415942143
 30
0.0
  0
VERTEX
  5
12ED
330
12E0
100
AcDbEntity
  8
0
370
     0
100
AcDbVertex
100
AcDb2dVertex
 10
459.638549406432
 20
559.2629525942141
 30
0.0
  0
VERTEX
  5
12EE
330
12E0
100
AcDbEntity
  8
0
370
     0
100
AcDbVertex
100
AcDb2dVertex
 10
460.2512204064321
 20
558.6248905942142
 30
0.0
  0
VERTEX
  5
12EF
330
12E0
100
AcDbEntity
  8
0
370
     0
100
AcDbVertex
100
AcDb2dVertex
 10
460.7814334064322
 20
557.9725475942141
 30
0.0
  0
SEQEND
  5
12F0
330
12E0
100
AcDbEntity
  8
0
370
     0
  0
ARC
  5
12F1
330
1F
100
AcDbEntity
  8
0
 62
     7
370
    35
100
AcDbCircle
 10
454.2518924064321
 20
553.0880255942141
 30
0.0
 40
8.154378999999996
100
AcDbArc
 50
0.3371669999997003
 51
36.79869299999924
  0
ARC
  5
12F2
330
1F
100
AcDbEntity
  8
0
 62
     7
370
    35
100
AcDbCircle
 10
-1860.809326593567
 20
540.0836925942143
 30
0.0
 40
2323.25238
100
AcDbArc
 50
0.046599999999909
 51
0.3218969999998753
  0
LINE
  5
12F3
330
1F
100
AcDbEntity
  8
0
 62
     7
370
    13
100
AcDbLine
 10
462.4556884064321
 20
539.0759405942142
 30
0.0
 11
24.25000040643218
 21
539.0759405942142
 31
0.0
  0
LINE
  5
12F4
330
1F
100
AcDbEntity
  8
0
 62
     7
 48
0.23382
370
    35
100
AcDbLine
 10
34.35284440643219
 20
541.2358525942143
 30
0.0
 11
25.00003040643219
 21
541.2358525942143
 31
0.0
  0
ARC
  5
12F5
330
1F
100
AcDbEntity
  8
0
 62
     7
370
    35
100
AcDbCircle
 10
24.99998440643219
 20
541.9725475942141
 30
0.0
 40
0.736725
100
AcDbArc
 50
179.9459780000006
 51
270.0043410000002
  0
ARC
  5
12F6
330
1F
100
AcDbEntity
  8
0
 62
     7
370
    35
100
AcDbCircle
 10
2347.514892406433
 20
540.0836925942143
 30
0.0
 40
2323.25238
100
AcDbArc
 50
179.6780980000005
 51
179.9533959999996
  0
ARC
  5
12F7
330
1F
100
AcDbEntity
  8
0
 62
     7
370
    35
100
AcDbCircle
 10
32.45381140643218
 20
553.0880255942141
 30
0.0
 40
8.154378999999996
100
AcDbArc
 50
143.2013090000005
 51
179.6628399999994
  0
POLYLINE
  5
12F8
330
1F
100
AcDbEntity
  8
0
 62
     7
370
    35
100
AcDb2dPolyline
 66
     1
 10
0.0
 20
0.0
 30
0.0
  0
VERTEX
  5
12F9
330
12F8
100
AcDbEntity
  8
0
370
     0
100
AcDbVertex
100
AcDb2dVertex
 10
34.35284440643219
 20
562.1767705942143
 30
0.0
  0
VERTEX
  5
12FA
330
12F8
100
AcDbEntity
  8
0
370
     0
100
AcDbVertex
100
AcDb2dVertex
 10
33.54940840643218
 20
562.1463755942142
 30
0.0
  0
VERTEX
  5
12FB
330
12F8
100
AcDbEntity
  8
0
370
     0
100
AcDbVertex
100
AcDb2dVertex
 10
32.7669674064322
 20
562.0576915942144
 30
0.0
  0
VERTEX
  5
12FC
330
12F8
100
AcDbEntity
  8
0
370
     0
100
AcDbVertex
100
AcDb2dVertex
 10
32.01768540643218
 20
561.9166995942143
 30
0.0
  0
VERTEX
  5
12FD
330
12F8
100
AcDbEntity
  8
0
370
     0
100
AcDbVertex
100
AcDb2dVertex
 10
31.33364840643216
 20
561.7380495942143
 30
0.0
  0
VERTEX
  5
12FE
330
12F8
100
AcDbEntity
  8
0
370
     0
100
AcDbVertex
100
AcDb2dVertex
 10
30.68467740643217
 20
561.5221075942144
 30
0.0
  0
VERTEX
  5
12FF
330
12F8
100
AcDbEntity
  8
0
370
     0
100
AcDbVertex
100
AcDb2dVertex
 10
30.07029740643216
 20
561.2730235942141
 30
0.0
  0
VERTEX
  5
1300
330
12F8
100
AcDbEntity
  8
0
370
     0
100
AcDbVertex
100
AcDb2dVertex
 10
29.6459194064322
 20
561.0737435942143
 30
0.0
  0
VERTEX
  5
1301
330
12F8
100
AcDbEntity
  8
0
370
     0
100
AcDbVertex
100
AcDb2dVertex
 10
29.23674040643218
 20
560.8590215942141
 30
0.0
  0
VERTEX
  5
1302
330
12F8
100
AcDbEntity
  8
0
370
     0
100
AcDbVertex
100
AcDb2dVertex
 10
28.83561740643219
 20
560.6253795942143
 30
0.0
  0
VERTEX
  5
1303
330
12F8
100
AcDbEntity
  8
0
370
     0
100
AcDbVertex
100
AcDb2dVertex
 10
28.4490664064322
 20
560.3767215942143
 30
0.0
  0
VERTEX
  5
1304
330
12F8
100
AcDbEntity
  8
0
370
     0
100
AcDbVertex
100
AcDb2dVertex
 10
27.73202540643217
 20
559.8472415942143
 30
0.0
  0
VERTEX
  5
1305
330
12F8
100
AcDbEntity
  8
0
370
     0
100
AcDbVertex
100
AcDb2dVertex
 10
27.06713840643218
 20
559.2629525942141
 30
0.0
  0
VERTEX
  5
1306
330
12F8
100
AcDbEntity
  8
0
370
     0
100
AcDbVertex
100
AcDb2dVertex
 10
26.45448340643219
 20
558.6248905942142
 30
0.0
  0
VERTEX
  5
1307
330
12F8
100
AcDbEntity
  8
0
370
     0
100
AcDbVertex
100
AcDb2dVertex
 10
25.92424040643218
 20
557.9725475942141
 30
0.0
  0
SEQEND
  5
1308
330
12F8
100
AcDbEntity
  8
0
370
     0
  0
LINE
  5
1309
330
1F
100
AcDbEntity
  8
0
 62
     7
 48
0.245
370
    35
100
AcDbLine
 10
44.15284740643214
 20
562.1767705942143
 30
0.0
 11
34.35284440643219
 21
562.1767705942143
 31
0.0
  0
ARC
  5
130A
330
1F
100
AcDbEntity
  8
0
 62
     7
370
    35
100
AcDbCircle
 10
44.15336640643217
 20
561.561780594214
 30
0.0
 40
0.614857
100
AcDbArc
 50
1.067269000000389
 51
90.04830600000003
  0
ELLIPSE
  5
130B
330
1F
100
AcDbEntity
  8
0
 62
     7
370
    35
100
AcDbEllipse
 10
44.67291240643215
 20
539.0759405942142
 30
0.0
 11
0.0
 21
25.0
 31
0.0
210
0.0
220
0.0
230
1.0
 40
0.008727
 41
5.245125183428361
 42
5.831911868827901
  0
POLYLINE
  5
130C
330
1F
100
AcDbEntity
  8
0
 62
     7
370
    35
100
AcDb2dPolyline
 66
     1
 10
0.0
 20
0.0
 30
0.0
  0
VERTEX
  5
130D
330
130C
100
AcDbEntity
  8
0
370
     0
100
AcDbVertex
100
AcDb2dVertex
 10
44.86085540643215
 20
551.7732675942141
 30
0.0
  0
VERTEX
  5
130E
330
130C
100
AcDbEntity
  8
0
370
     0
100
AcDbVertex
100
AcDb2dVertex
 10
44.83197040643214
 20
550.9411745942143
 30
0.0
  0
VERTEX
  5
130F
330
130C
100
AcDbEntity
  8
0
370
     0
100
AcDbVertex
100
AcDb2dVertex
 10
44.73492440643215
 20
550.1010265942142
 30
0.0
  0
VERTEX
  5
1310
330
130C
100
AcDbEntity
  8
0
370
     0
100
AcDbVertex
100
AcDb2dVertex
 10
44.56735240643218
 20
549.2592905942141
 30
0.0
  0
VERTEX
  5
1311
330
130C
100
AcDbEntity
  8
0
370
     0
100
AcDbVertex
100
AcDb2dVertex
 10
44.32769740643218
 20
548.423047594214
 30
0.0
  0
VERTEX
  5
1312
330
130C
100
AcDbEntity
  8
0
370
     0
100
AcDbVertex
100
AcDb2dVertex
 10
44.01528940643217
 20
547.5999885942143
 30
0.0
  0
VERTEX
  5
1313
330
130C
100
AcDbEntity
  8
0
370
     0
100
AcDbVertex
100
AcDb2dVertex
 10
43.63058440643217
 20
546.7979865942139
 30
0.0
  0
VERTEX
  5
1314
330
130C
100
AcDbEntity
  8
0
370
     0
100
AcDbVertex
100
AcDb2dVertex
 10
43.18676740643218
 20
546.0431645942143
 30
0.0
  0
VERTEX
  5
1315
330
130C
100
AcDbEntity
  8
0
370
     0
100
AcDbVertex
100
AcDb2dVertex
 10
42.67803940643218
 20
545.3234995942144
 30
0.0
  0
VERTEX
  5
1316
330
130C
100
AcDbEntity
  8
0
370
     0
100
AcDbVertex
100
AcDb2dVertex
 10
42.10766640643217
 20
544.6457645942141
 30
0.0
  0
VERTEX
  5
1317
330
130C
100
AcDbEntity
  8
0
370
     0
100
AcDbVertex
100
AcDb2dVertex
 10
41.47959940643215
 20
544.0161265942141
 30
0.0
  0
VERTEX
  5
1318
330
130C
100
AcDbEntity
  8
0
370
     0
100
AcDbVertex
100
AcDb2dVertex
 10
40.79847740643216
 20
543.4403205942142
 30
0.0
  0
VERTEX
  5
1319
330
130C
100
AcDbEntity
  8
0
370
     0
100
AcDbVertex
100
AcDb2dVertex
 10
40.06942740643217
 20
542.9233525942143
 30
0.0
  0
VERTEX
  5
131A
330
130C
100
AcDbEntity
  8
0
370
     0
100
AcDbVertex
100
AcDb2dVertex
 10
39.32720940643218
 20
542.4852425942143
 30
0.0
  0
VERTEX
  5
131B
330
130C
100
AcDbEntity
  8
0
370
     0
100
AcDbVertex
100
AcDb2dVertex
 10
38.55093340643217
 20
542.1090825942143
 30
0.0
  0
VERTEX
  5
131C
330
130C
100
AcDbEntity
  8
0
370
     0
100
AcDbVertex
100
AcDb2dVertex
 10
37.74600240643219
 20
541.7976205942143
 30
0.0
  0
VERTEX
  5
131D
330
130C
100
AcDbEntity
  8
0
370
     0
100
AcDbVertex
100
AcDb2dVertex
 10
36.91799940643216
 20
541.5531135942143
 30
0.0
  0
VERTEX
  5
131E
330
130C
100
AcDbEntity
  8
0
370
     0
100
AcDbVertex
100
AcDb2dVertex
 10
36.07261640643218
 20
541.3772105942141
 30
0.0
  0
VERTEX
  5
131F
330
130C
100
AcDbEntity
  8
0
370
     0
100
AcDbVertex
100
AcDb2dVertex
 10
35.21562240643218
 20
541.2712535942143
 30
0.0
  0
VERTEX
  5
1320
330
130C
100
AcDbEntity
  8
0
370
     0
100
AcDbVertex
100
AcDb2dVertex
 10
34.35284440643219
 20
541.2358525942143
 30
0.0
  0
SEQEND
  5
1321
330
130C
100
AcDbEntity
  8
0
370
     0
  0
LINE
  5
1325
330
1F
100
AcDbEntity
  8
0
 62
     7
370
    13
100
AcDbLine
 10
462.4556884064321
 20
36.47057859421432
 30
0.0
 11
24.25000040643218
 21
36.47057859421432
 31
0.0
  0
ARC
  5
1326
330
1F
100
AcDbEntity
  8
0
 62
     7
370
    35
100
AcDbCircle
 10
25.00000040643219
 20
332.9732795942143
 30
0.0
 40
0.738243
100
AcDbArc
 50
180.0000050000005
 51
269.9999969999999
  0
LINE
  5
1327
330
1F
100
AcDbEntity
  8
0
 62
     7
 48
0.489999
370
    35
100
AcDbLine
 10
24.26174940643216
 20
352.5732555942143
 30
0.0
 11
24.26174940643216
 21
332.9732795942143
 31
0.0
  0
ARC
  5
1328
330
1F
100
AcDbEntity
  8
0
 62
     7
370
    35
100
AcDbCircle
 10
25.00000040643219
 20
352.5732555942143
 30
0.0
 40
0.738243
100
AcDbArc
 50
90.00000300000015
 51
179.9999949999995
  0
LINE
  5
1329
330
1F
100
AcDbEntity
  8
0
 62
     7
 48
0.233821
370
    35
100
AcDbLine
 10
34.35284440643219
 20
353.3115055942143
 30
0.0
 11
25.00000040643219
 21
353.3115055942143
 31
0.0
  0
ARC
  5
132A
330
1F
100
AcDbEntity
  8
0
 62
     7
370
    35
100
AcDbCircle
 10
34.35284440643219
 20
342.7732675942143
 30
0.0
 40
10.538243
100
AcDbArc
 50
269.9999969999999
 51
90.00000300000015
  0
LINE
  5
132B
330
1F
100
AcDbEntity
  8
0
 62
     7
 48
0.233821
370
    35
100
AcDbLine
 10
34.35284440643219
 20
332.2350285942143
 30
0.0
 11
25.00000040643219
 21
332.2350285942143
 31
0.0
  0
ARC
  5
132E
330
1F
100
AcDbEntity
  8
0
 62
     7
370
    35
100
AcDbCircle
 10
44.15336640643217
 20
13.9847235942143
 30
0.0
 40
0.614857
100
AcDbArc
 50
269.951694
 51
358.9327309999995
  0
LINE
  5
132F
330
1F
100
AcDbEntity
  8
0
 62
     7
 48
0.245
370
    35
100
AcDbLine
 10
44.15284740643214
 20
13.36979459421434
 30
0.0
 11
34.35284440643219
 21
13.36979459421434
 31
0.0
  0
POLYLINE
  5
1330
330
1F
100
AcDbEntity
  8
0
 62
     7
370
    35
100
AcDb2dPolyline
 66
     1
 10
0.0
 20
0.0
 30
0.0
  0
VERTEX
  5
1331
330
1330
100
AcDbEntity
  8
0
370
     0
100
AcDbVertex
100
AcDb2dVertex
 10
34.35284440643219
 20
13.36979459421434
 30
0.0
  0
VERTEX
  5
1332
330
1330
100
AcDbEntity
  8
0
370
     0
100
AcDbVertex
100
AcDb2dVertex
 10
33.54940840643218
 20
13.40018959421434
 30
0.0
  0
VERTEX
  5
1333
330
1330
100
AcDbEntity
  8
0
370
     0
100
AcDbVertex
100
AcDb2dVertex
 10
32.7669674064322
 20
13.48884359421433
 30
0.0
  0
VERTEX
  5
1334
330
1330
100
AcDbEntity
  8
0
370
     0
100
AcDbVertex
100
AcDb2dVertex
 10
32.01768540643218
 20
13.62983459421431
 30
0.0
  0
VERTEX
  5
1335
330
1330
100
AcDbEntity
  8
0
370
     0
100
AcDbVertex
100
AcDb2dVertex
 10
31.33364840643216
 20
13.80845359421431
 30
0.0
  0
VERTEX
  5
1336
330
1330
100
AcDbEntity
  8
0
370
     0
100
AcDbVertex
100
AcDb2dVertex
 10
30.68467740643217
 20
14.0244265942143
 30
0.0
  0
VERTEX
  5
1337
330
1330
100
AcDbEntity
  8
0
370
     0
100
AcDbVertex
100
AcDb2dVertex
 10
30.07029740643216
 20
14.27351159421431
 30
0.0
  0
VERTEX
  5
1338
330
1330
100
AcDbEntity
  8
0
370
     0
100
AcDbVertex
100
AcDb2dVertex
 10
29.6459194064322
 20
14.47279159421433
 30
0.0
  0
VERTEX
  5
1339
330
1330
100
AcDbEntity
  8
0
370
     0
100
AcDbVertex
100
AcDb2dVertex
 10
29.23674040643218
 20
14.68754359421433
 30
0.0
  0
VERTEX
  5
133A
330
1330
100
AcDbEntity
  8
0
370
     0
100
AcDbVertex
100
AcDb2dVertex
 10
28.83561740643219
 20
14.92118559421431
 30
0.0
  0
VERTEX
  5
133B
330
1330
100
AcDbEntity
  8
0
370
     0
100
AcDbVertex
100
AcDb2dVertex
 10
28.4490664064322
 20
15.16981259421433
 30
0.0
  0
VERTEX
  5
133C
330
1330
100
AcDbEntity
  8
0
370
     0
100
AcDbVertex
100
AcDb2dVertex
 10
27.73202540643217
 20
15.69929259421434
 30
0.0
  0
VERTEX
  5
133D
330
1330
100
AcDbEntity
  8
0
370
     0
100
AcDbVertex
100
AcDb2dVertex
 10
27.06713840643218
 20
16.28358259421432
 30
0.0
  0
VERTEX
  5
133E
330
1330
100
AcDbEntity
  8
0
370
     0
100
AcDbVertex
100
AcDb2dVertex
 10
26.45448340643219
 20
16.92161359421433
 30
0.0
  0
VERTEX
  5
133F
330
1330
100
AcDbEntity
  8
0
370
     0
100
AcDbVertex
100
AcDb2dVertex
 10
25.92424040643218
 20
17.57398759421431
 30
0.0
  0
SEQEND
  5
1340
330
1330
100
AcDbEntity
  8
0
370
     0
  0
ARC
  5
1341
330
1F
100
AcDbEntity
  8
0
 62
     7
370
    35
100
AcDbCircle
 10
32.45381140643218
 20
22.45850859421432
 30
0.0
 40
8.154378999999996
100
AcDbArc
 50
180.3371600000005
 51
216.7986909999995
  0
ARC
  5
1342
330
1F
100
AcDbEntity
  8
0
 62
     7
370
    35
100
AcDbCircle
 10
2347.514892406433
 20
35.46284259421432
 30
0.0
 40
2323.25238
100
AcDbArc
 50
180.0466040000003
 51
180.3219019999995
  0
ARC
  5
1343
330
1F
100
AcDbEntity
  8
0
 62
     7
370
    35
100
AcDbCircle
 10
24.99998440643219
 20
33.57395659421431
 30
0.0
 40
0.736725
100
AcDbArc
 50
89.99565899999977
 51
180.0540219999992
  0
LINE
  5
1344
330
1F
100
AcDbEntity
  8
0
 62
     7
 48
0.23382
370
    35
100
AcDbLine
 10
34.35284440643219
 20
34.3106975942143
 30
0.0
 11
25.00003040643219
 21
34.3106975942143
 31
0.0
  0
POLYLINE
  5
1345
330
1F
100
AcDbEntity
  8
0
 62
     7
370
    35
100
AcDb2dPolyline
 66
     1
 10
0.0
 20
0.0
 30
0.0
  0
VERTEX
  5
1346
330
1345
100
AcDbEntity
  8
0
370
     0
100
AcDbVertex
100
AcDb2dVertex
 10
44.86085540643215
 20
23.77326759421433
 30
0.0
  0
VERTEX
  5
1347
330
1345
100
AcDbEntity
  8
0
370
     0
100
AcDbVertex
100
AcDb2dVertex
 10
44.83197040643214
 20
24.60532859421431
 30
0.0
  0
VERTEX
  5
1348
330
1345
100
AcDbEntity
  8
0
370
     0
100
AcDbVertex
100
AcDb2dVertex
 10
44.73492440643215
 20
25.44550859421432
 30
0.0
  0
VERTEX
  5
1349
330
1345
100
AcDbEntity
  8
0
370
     0
100
AcDbVertex
100
AcDb2dVertex
 10
44.56735240643218
 20
26.28727459421432
 30
0.0
  0
VERTEX
  5
134A
330
1345
100
AcDbEntity
  8
0
370
     0
100
AcDbVertex
100
AcDb2dVertex
 10
44.32769740643218
 20
27.12348659421432
 30
0.0
  0
VERTEX
  5
134B
330
1345
100
AcDbEntity
  8
0
370
     0
100
AcDbVertex
100
AcDb2dVertex
 10
44.01528940643217
 20
27.94654659421434
 30
0.0
  0
VERTEX
  5
134C
330
1345
100
AcDbEntity
  8
0
370
     0
100
AcDbVertex
100
AcDb2dVertex
 10
43.63058440643217
 20
28.7485475942143
 30
0.0
  0
VERTEX
  5
134D
330
1345
100
AcDbEntity
  8
0
370
     0
100
AcDbVertex
100
AcDb2dVertex
 10
43.18676740643218
 20
29.50336959421432
 30
0.0
  0
VERTEX
  5
134E
330
1345
100
AcDbEntity
  8
0
370
     0
100
AcDbVertex
100
AcDb2dVertex
 10
42.67803940643218
 20
30.22303559421431
 30
0.0
  0
VERTEX
  5
134F
330
1345
100
AcDbEntity
  8
0
370
     0
100
AcDbVertex
100
AcDb2dVertex
 10
42.10766640643217
 20
30.9008005942143
 30
0.0
  0
VERTEX
  5
1350
330
1345
100
AcDbEntity
  8
0
370
     0
100
AcDbVertex
100
AcDb2dVertex
 10
41.47959940643215
 20
31.53040859421432
 30
0.0
  0
VERTEX
  5
1351
330
1345
100
AcDbEntity
  8
0
370
     0
100
AcDbVertex
100
AcDb2dVertex
 10
40.79847740643216
 20
32.10619859421431
 30
0.0
  0
VERTEX
  5
1352
330
1345
100
AcDbEntity
  8
0
370
     0
100
AcDbVertex
100
AcDb2dVertex
 10
40.06942740643217
 20
32.62315159421432
 30
0.0
  0
VERTEX
  5
1353
330
1345
100
AcDbEntity
  8
0
370
     0
100
AcDbVertex
100
AcDb2dVertex
 10
39.32720940643218
 20
33.06127659421432
 30
0.0
  0
VERTEX
  5
1354
330
1345
100
AcDbEntity
  8
0
370
     0
100
AcDbVertex
100
AcDb2dVertex
 10
38.55093340643217
 20
33.43745159421431
 30
0.0
  0
VERTEX
  5
1355
330
1345
100
AcDbEntity
  8
0
370
     0
100
AcDbVertex
100
AcDb2dVertex
 10
37.74600240643219
 20
33.74891459421431
 30
0.0
  0
VERTEX
  5
1356
330
1345
100
AcDbEntity
  8
0
370
     0
100
AcDbVertex
100
AcDb2dVertex
 10
36.91799940643216
 20
33.99343659421433
 30
0.0
  0
VERTEX
  5
1357
330
1345
100
AcDbEntity
  8
0
370
     0
100
AcDbVertex
100
AcDb2dVertex
 10
36.07261640643218
 20
34.16929359421434
 30
0.0
  0
VERTEX
  5
1358
330
1345
100
AcDbEntity
  8
0
370
     0
100
AcDbVertex
100
AcDb2dVertex
 10
35.21562240643218
 20
34.27528159421431
 30
0.0
  0
VERTEX
  5
1359
330
1345
100
AcDbEntity
  8
0
370
     0
100
AcDbVertex
100
AcDb2dVertex
 10
34.35284440643219
 20
34.3106975942143
 30
0.0
  0
SEQEND
  5
135A
330
1345
100
AcDbEntity
  8
0
370
     0
  0
ELLIPSE
  5
135B
330
1F
100
AcDbEntity
  8
0
 62
     7
370
    35
100
AcDbEllipse
 10
44.67291240643215
 20
36.47057859421432
 30
0.0
 11
0.0
 21
25.0
 31
0.0
210
0.0
220
0.0
230
1.0
 40
0.008727
 41
3.592866091945488
 42
4.179652777341845
  0
CIRCLE
  5
1360
330
1F
100
AcDbEntity
  8
0
 62
     7
370
    35
100
AcDbCircle
 10
34.35284440643219
 20
342.7732675942143
 30
0.0
 40
4.883901999999999
  0
LINE
  5
1361
330
1F
100
AcDbEntity
  8
0
 62
     7
 48
0.05
370
    35
100
AcDbLine
 10
38.85284440643218
 20
343.7732675942143
 30
0.0
 11
38.85284440643218
 21
341.7732675942143
 31
0.0
  0
LINE
  5
1362
330
1F
100
AcDbEntity
  8
0
 62
     7
 48
0.225
370
    35
100
AcDbLine
 10
38.85284440643218
 20
343.7732675942143
 30
0.0
 11
29.85284440643218
 21
343.7732675942143
 31
0.0
  0
LINE
  5
1363
330
1F
100
AcDbEntity
  8
0
 62
     7
 48
0.05
370
    35
100
AcDbLine
 10
29.85284440643218
 20
341.7732675942143
 30
0.0
 11
29.85284440643218
 21
343.7732675942143
 31
0.0
  0
LINE
  5
1364
330
1F
100
AcDbEntity
  8
0
 62
     7
 48
0.225
370
    35
100
AcDbLine
 10
29.85284440643218
 20
341.7732675942143
 30
0.0
 11
38.85284440643218
 21
341.7732675942143
 31
0.0
  0
CIRCLE
  5
1365
330
1F
100
AcDbEntity
  8
0
 62
     7
370
    35
100
AcDbCircle
 10
452.3528444064321
 20
342.7732675942143
 30
0.0
 40
4.883901999999999
  0
LINE
  5
1366
330
1F
100
AcDbEntity
  8
0
 62
     7
 48
0.05
370
    35
100
AcDbLine
 10
456.8528444064321
 20
343.7732675942143
 30
0.0
 11
456.8528444064321
 21
341.7732675942143
 31
0.0
  0
LINE
  5
1367
330
1F
100
AcDbEntity
  8
0
 62
     7
 48
0.225
370
    35
100
AcDbLine
 10
456.8528444064321
 20
343.7732675942143
 30
0.0
 11
447.8528444064322
 21
343.7732675942143
 31
0.0
  0
LINE
  5
1368
330
1F
100
AcDbEntity
  8
0
 62
     7
 48
0.05
370
    35
100
AcDbLine
 10
447.8528444064322
 20
341.7732675942143
 30
0.0
 11
447.8528444064322
 21
343.7732675942143
 31
0.0
  0
LINE
  5
1369
330
1F
100
AcDbEntity
  8
0
 62
     7
 48
0.225
370
    35
100
AcDbLine
 10
447.8528444064322
 20
341.7732675942143
 30
0.0
 11
456.8528444064321
 21
341.7732675942143
 31
0.0
  0
CIRCLE
  5
136A
330
1F
100
AcDbEntity
  8
0
 62
     7
370
    35
100
AcDbCircle
 10
34.35284440643219
 20
23.77326759421433
 30
0.0
 40
4.883901999999999
  0
LINE
  5
136B
330
1F
100
AcDbEntity
  8
0
 62
     7
 48
0.05
370
    35
100
AcDbLine
 10
38.85284440643218
 20
24.77326759421433
 30
0.0
 11
38.85284440643218
 21
22.77326759421433
 31
0.0
  0
LINE
  5
136C
330
1F
100
AcDbEntity
  8
0
 62
     7
 48
0.225
370
    35
100
AcDbLine
 10
38.85284440643218
 20
24.77326759421433
 30
0.0
 11
29.85284440643218
 21
24.77326759421433
 31
0.0
  0
LINE
  5
136D
330
1F
100
AcDbEntity
  8
0
 62
     7
 48
0.05
370
    35
100
AcDbLine
 10
29.85284440643218
 20
22.77326759421433
 30
0.0
 11
29.85284440643218
 21
24.77326759421433
 31
0.0
  0
LINE
  5
136E
330
1F
100
AcDbEntity
  8
0
 62
     7
 48
0.225
370
    35
100
AcDbLine
 10
29.85284440643218
 20
22.77326759421433
 30
0.0
 11
38.85284440643218
 21
22.77326759421433
 31
0.0
  0
CIRCLE
  5
136F
330
1F
100
AcDbEntity
  8
0
 62
     7
370
    35
100
AcDbCircle
 10
452.3528444064321
 20
23.77326759421433
 30
0.0
 40
4.883901999999999
  0
LINE
  5
1370
330
1F
100
AcDbEntity
  8
0
 62
     7
 48
0.05
370
    35
100
AcDbLine
 10
456.8528444064321
 20
24.77326759421433
 30
0.0
 11
456.8528444064321
 21
22.77326759421433
 31
0.0
  0
LINE
  5
1371
330
1F
100
AcDbEntity
  8
0
 62
     7
 48
0.225
370
    35
100
AcDbLine
 10
456.8528444064321
 20
24.77326759421433
 30
0.0
 11
447.8528444064322
 21
24.77326759421433
 31
0.0
  0
LINE
  5
1372
330
1F
100
AcDbEntity
  8
0
 62
     7
 48
0.05
370
    35
100
AcDbLine
 10
447.8528444064322
 20
22.77326759421433
 30
0.0
 11
447.8528444064322
 21
24.77326759421433
 31
0.0
  0
LINE
  5
1373
330
1F
100
AcDbEntity
  8
0
 62
     7
 48
0.225
370
    35
100
AcDbLine
 10
447.8528444064322
 20
22.77326759421433
 30
0.0
 11
456.8528444064321
 21
22.77326759421433
 31
0.0
  0
CIRCLE
  5
1374
330
1F
100
AcDbEntity
  8
0
 62
     7
370
    35
100
AcDbCircle
 10
34.35284440643219
 20
551.7732675942141
 30
0.0
 40
4.883901999999999
  0
LINE
  5
1375
330
1F
100
AcDbEntity
  8
0
 62
     7
 48
0.05
370
    35
100
AcDbLine
 10
38.85284440643218
 20
552.7732675942143
 30
0.0
 11
38.85284440643218
 21
550.7732675942142
 31
0.0
  0
LINE
  5
1376
330
1F
100
AcDbEntity
  8
0
 62
     7
 48
0.225
370
    35
100
AcDbLine
 10
38.85284440643218
 20
552.7732675942143
 30
0.0
 11
29.85284440643218
 21
552.7732675942143
 31
0.0
  0
LINE
  5
1377
330
1F
100
AcDbEntity
  8
0
 62
     7
 48
0.05
370
    35
100
AcDbLine
 10
29.85284440643218
 20
550.7732675942142
 30
0.0
 11
29.85284440643218
 21
552.7732675942143
 31
0.0
  0
LINE
  5
1378
330
1F
100
AcDbEntity
  8
0
 62
     7
 48
0.225
370
    35
100
AcDbLine
 10
29.85284440643218
 20
550.7732675942142
 30
0.0
 11
38.85284440643218
 21
550.7732675942142
 31
0.0
  0
CIRCLE
  5
1379
330
1F
100
AcDbEntity
  8
0
 62
     7
370
    35
100
AcDbCircle
 10
452.3528444064321
 20
551.7732675942141
 30
0.0
 40
4.883901999999999
  0
LINE
  5
137A
330
1F
100
AcDbEntity
  8
0
 62
     7
 48
0.05
370
    35
100
AcDbLine
 10
456.8528444064321
 20
552.7732675942143
 30
0.0
 11
456.8528444064321
 21
550.7732675942142
 31
0.0
  0
LINE
  5
137B
330
1F
100
AcDbEntity
  8
0
 62
     7
 48
0.225
370
    35
100
AcDbLine
 10
456.8528444064321
 20
552.7732675942143
 30
0.0
 11
447.8528444064322
 21
552.7732675942143
 31
0.0
  0
LINE
  5
137C
330
1F
100
AcDbEntity
  8
0
 62
     7
 48
0.05
370
    35
100
AcDbLine
 10
447.8528444064322
 20
550.7732675942142
 30
0.0
 11
447.8528444064322
 21
552.7732675942143
 31
0.0
  0
LINE
  5
137D
330
1F
100
AcDbEntity
  8
0
 62
     7
 48
0.225
370
    35
100
AcDbLine
 10
447.8528444064322
 20
550.7732675942142
 30
0.0
 11
456.8528444064321
 21
550.7732675942142
 31
0.0
  0
LINE
  5
137E
330
1F
100
AcDbEntity
  8
0
 62
     7
370
    35
100
AcDbLine
 10
18.35284440643218
 20
23.77326759421433
 30
0.0
 11
18.35284440643218
 21
551.7732675942141
 31
0.0
  0
ARC
  5
137F
330
1F
100
AcDbEntity
  8
0
 62
     7
370
    35
100
AcDbCircle
 10
34.35284440643219
 20
23.77326759421433
 30
0.0
 40
16.0
100
AcDbArc
 50
180.0000050000005
 51
202.8229629999995
  0
ARC
  5
1380
330
1F
100
AcDbEntity
  8
0
 62
     7
370
    35
100
AcDbCircle
 10
452.3528444064321
 20
23.77326759421433
 30
0.0
 40
16.0
100
AcDbArc
 50
337.1770389999999
 51
0.0
  0
LINE
  5
1381
330
1F
100
AcDbEntity
  8
0
 62
     7
 48
0.155154
370
    35
100
AcDbLine
 10
468.3528444064322
 20
29.97941359421432
 30
0.0
 11
468.3528444064322
 21
23.77326759421433
 31
0.0
  0
LINE
  5
1382
330
1F
100
AcDbEntity
  8
0
 62
     7
 48
0.310309
370
    35
100
AcDbLine
 10
468.3528444064322
 20
348.9794435942144
 30
0.0
 11
468.3528444064322
 21
336.5670905942143
 31
0.0
  0
LINE
  5
1383
330
1F
100
AcDbEntity
  8
0
 62
     7
 48
0.155153
370
    35
100
AcDbLine
 10
468.3528444064322
 20
551.7732675942141
 30
0.0
 11
468.3528444064322
 21
545.5671515942141
 31
0.0
  0
ARC
  5
1384
330
1F
100
AcDbEntity
  8
0
 62
     7
370
    35
100
AcDbCircle
 10
452.3528444064321
 20
551.7732675942141
 30
0.0
 40
16.0
100
AcDbArc
 50
0.0
 51
90.00000300000015
  0
LINE
  5
1385
330
1F
100
AcDbEntity
  8
0
 62
     7
370
    35
100
AcDbLine
 10
452.3528444064321
 20
567.7732675942142
 30
0.0
 11
34.35284440643219
 21
567.7732675942142
 31
0.0
  0
ARC
  5
1386
330
1F
100
AcDbEntity
  8
0
 62
     7
370
    35
100
AcDbCircle
 10
34.35284440643219
 20
551.7732675942141
 30
0.0
 40
16.0
100
AcDbArc
 50
90.00000300000015
 51
180.0000050000005
  0
LINE
  5
3684
330
1F
100
AcDbEntity
  8
0
100
AcDbLine
 10
169.1061777397642
 20
567.7732675942142
 30
0.0
 11
317.5995110730998
 21
567.7732675942142
 31
0.0
  0
LINE
  5
3B51
330
1F
100
AcDbEntity
  8
0
 62
     7
100
AcDbLine
 10
63.35458099574065
 20
475.273267594214
 30
0.0000000000000055
 11
423.3545809957406
 21
475.273267594214
 31
0.0000000000000055
  0
LINE
  5
3B52
330
1F
100
AcDbEntity
  8
0
 62
     7
100
AcDbLine
 10
423.3545809957406
 20
475.273267594214
 30
0.0000000000000055
 11
423.3545809957406
 21
430.2732675942141
 31
0.0000000000000055
  0
LINE
  5
3B53
330
1F
100
AcDbEntity
  8
0
 62
     7
100
AcDbLine
 10
423.3545809957406
 20
430.2732675942141
 30
0.0000000000000055
 11
63.35458099574065
 21
430.2732675942141
 31
0.0000000000000055
  0
LINE
  5
3B54
330
1F
100
AcDbEntity
  8
0
 62
     7
100
AcDbLine
 10
63.35458099574065
 20
430.2732675942141
 30
0.0000000000000055
 11
63.35458099574065
 21
475.273267594214
 31
0.0000000000000055
  0
DIMENSION
  5
3BA5
330
1F
100
AcDbEntity
  8
QUOTE
 62
     7
100
AcDbDimension
  2
*D7
 10
-8.786871600686936
 20
7.773267594214361
 30
0.0
 11
-8.78687160068692
 21
287.5648433409779
 31
0.0
 70
   160
 71
     5
 42
559.9999999999996
  3
Standard
100
AcDbAlignedDimension
 13
34.35284356867411
 23
567.7732675942141
 33
0.0
 14
34.41534356867414
 24
7.773267594214347
 34
0.0
 50
90.0
100
AcDbRotatedDimension
1001
ACAD
1000
DSTYLE
1002
{
1070
    45
1040
1.0
1070
   178
1070
     7
1070
   177
1070
     7
1070
   176
1070
     7
1070
    78
1070
     8
1070
   285
1070
     8
1070
   148
1040
0.0
1070
   170
1070
     0
1070
    74
1070
     1
1070
    77
1070
     0
1070
   280
1070
     0
1070
   140
1040
10.0
1070
    41
1040
15.0
1002
}
  0
DIMENSION
  5
3BA6
330
1F
100
AcDbEntity
  8
QUOTE
 62
     7
100
AcDbDimension
  2
*D8
 10
18.35284440643224
 20
-10.24892440017024
 30
0.0
 11
242.7853239893248
 21
-10.24892440017024
 31
0.0
 70
   160
 71
     5
 42
450.0
  3
Standard
100
AcDbAlignedDimension
 13
468.3528444064322
 23
23.77326759421433
 33
0.0
 14
18.35284440643224
 24
23.77326619795079
 34
0.0
100
AcDbRotatedDimension
1001
ACAD
1000
DSTYLE
1002
{
1070
   280
1070
     0
1070
    78
1070
     8
1070
    45
1040
1.0
1070
    74
1070
     0
1070
   140
1040
10.0
1070
   178
1070
     7
1070
   177
1070
     7
1070
   176
1070
     7
1070
    41
1040
15.0
1002
}
  0
TEXT
  5
3C42
330
1F
100
AcDbEntity
  8
0
 62
     7
100
AcDbText
 10
49.42341784493574
 20
549.1021582930792
 30
0.0
 40
5.0
  1
GW68013N
 72
     1
 11
68.17341784493574
 21
549.1021582930792
 31
0.0
100
AcDbText
  0
ENDSEC
  0
SECTION
  2
OBJECTS
  0
DICTIONARY
  5
C
330
0
100
AcDbDictionary
281
     1
  3
ACAD_COLOR
350
73
  3
ACAD_GROUP
350
D
  3
ACAD_LAYOUT
350
1A
  3
ACAD_MATERIAL
350
72
  3
ACAD_MLEADERSTYLE
350
D7
  3
ACAD_MLINESTYLE
350
17
  3
ACAD_PLOTSETTINGS
350
19
  3
ACAD_PLOTSTYLENAME
350
E
  3
ACAD_SCALELIST
350
B6
  3
ACAD_TABLESTYLE
350
86
  3
ACAD_VISUALSTYLE
350
99
  3
ACDB_RECOMPOSE_DATA
350
FF
  3
AcDbVariableDictionary
350
66
  3
AEC_PROPERTY_SET_DEFS
350
A6B
  3
DWGPROPS
350
3C58
  0
DICTIONARY
  5
13E6
330
2
100
AcDbDictionary
280
     1
281
     1
  3
ACAD_LAYERFILTERS
360
3B3D
  3
ACAD_LAYERSTATES
360
3B9E
  3
ACLYDICTIONARY
360
3B3C
  0
DICTIONARY
  5
E6
330
10
100
AcDbDictionary
280
     1
281
     1
  3
ADSK_XREC_LAYER_RECONCILED
360
16BE
  0
DICTIONARY
  5
16BF
330
13E4
100
AcDbDictionary
280
     1
281
     1
  3
ADSK_XREC_LAYER_RECONCILED
360
16C0
  0
DICTIONARY
  5
16C1
330
1560
100
AcDbDictionary
280
     1
281
     1
  3
ADSK_XREC_LAYER_RECONCILED
360
16C2
  0
DICTIONARY
  5
16DB
330
16DA
100
AcDbDictionary
280
     1
281
     1
  0
DICTIONARY
  5
16DD
330
16DC
100
AcDbDictionary
280
     1
281
     1
  0
DICTIONARY
  5
3688
330
1F
100
AcDbDictionary
280
     1
281
     1
  3
ACAD_SORTENTS
360
3689
  0
DICTIONARY
  5
73
102
{ACAD_REACTORS
330
C
102
}
330
C
100
AcDbDictionary
281
     1
  0
DICTIONARY
  5
D
102
{ACAD_REACTORS
330
C
102
}
330
C
100
AcDbDictionary
281
     1
  3
*A1
350
26AE
  3
*A2
350
34DE
  3
*A3
350
3544
  0
DICTIONARY
  5
1A
102
{ACAD_REACTORS
330
C
102
}
330
C
100
AcDbDictionary
281
     1
  3
Layout1
350
59
  3
Layout2
350
5E
  3
Model
350
22
  0
DICTIONARY
  5
72
102
{ACAD_REACTORS
330
C
102
}
330
C
100
AcDbDictionary
281
     1
  3
ByBlock
350
97
  3
ByLayer
350
96
  3
Global
350
98
  0
DICTIONARY
  5
D7
102
{ACAD_REACTORS
330
C
102
}
330
C
100
AcDbDictionary
281
     1
  3
Annotativa
350
E5
  3
Standard
350
D8
  0
DICTIONARY
  5
17
102
{ACAD_REACTORS
330
C
102
}
330
C
100
AcDbDictionary
281
     1
  3
Standard
350
18
  0
DICTIONARY
  5
19
102
{ACAD_REACTORS
330
C
102
}
330
C
100
AcDbDictionary
281
     1
  0
ACDBDICTIONARYWDFLT
  5
E
102
{ACAD_REACTORS
330
C
102
}
330
C
100
AcDbDictionary
281
     1
  3
Normal
350
F
100
AcDbDictionaryWithDefault
340
F
  0
DICTIONARY
  5
B6
102
{ACAD_REACTORS
330
C
102
}
330
C
100
AcDbDictionary
281
     1
  3
A0
350
B7
  3
A1
350
124
  3
A2
350
125
  3
A3
350
126
  3
A4
350
127
  3
A5
350
128
  3
A6
350
129
  3
A7
350
12A
  3
A8
350
12B
  3
A9
350
12C
  3
B0
350
12D
  3
B1
350
12E
  3
B2
350
12F
  3
B3
350
130
  3
B4
350
131
  3
B5
350
132
  3
B6
350
133
  3
B7
350
134
  3
B8
350
135
  3
B9
350
136
  3
C0
350
137
  3
C1
350
138
  3
C2
350
139
  3
C3
350
13A
  3
C4
350
13B
  3
C5
350
13C
  3
C6
350
13D
  3
C7
350
13E
  3
C8
350
13F
  3
C9
350
140
  3
D0
350
141
  3
D1
350
142
  3
D2
350
143
  0
DICTIONARY
  5
86
102
{ACAD_REACTORS
330
C
102
}
330
C
100
AcDbDictionary
281
     1
  3
Standard
350
87
  0
DICTIONARY
  5
99
102
{ACAD_REACTORS
330
C
102
}
330
C
100
AcDbDictionary
281
     1
  3
2dWireframe
350
9F
  3
3D Hidden
350
A1
  3
3dWireframe
350
A0
  3
Basic
350
9E
  3
Brighten
350
A5
  3
ColorChange
350
A9
  3
Conceptual
350
A2
  3
Dim
350
A4
  3
Facepattern
350
A8
  3
Flat
350
9A
  3
FlatWithEdges
350
9B
  3
Gouraud
350
9C
  3
GouraudWithEdges
350
9D
  3
Linepattern
350
A7
  3
Realistic
350
A3
  3
Thicken
350
A6
  0
XRECORD
  5
FF
102
{ACAD_REACTORS
330
C
102
}
330
C
100
AcDbXrecord
280
     1
 90
        1
330
87
  0
DICTIONARY
  5
66
102
{ACAD_REACTORS
330
C
102
}
330
C
100
AcDbDictionary
281
     1
  3
CANNOSCALE
350
F0
  3
CMLEADERSTYLE
350
EF
  3
CTABLESTYLE
350
89
  3
DIMASSOC
350
67
  3
HIDETEXT
350
6B
  3
INDEXCTL
350
16C6
  3
LIGHTINGUNITS
350
16C4
  3
MSLTSCALE
350
16C3
  3
SORTENTS
350
16C5
  0
DICTIONARY
  5
A6B
102
{ACAD_REACTORS
330
C
102
}
330
C
100
AcDbDictionary
281
     1
  0
XRECORD
  5
3C58
102
{ACAD_REACTORS
330
C
102
}
330
C
100
AcDbXrecord
280
     1
  1
DWGPROPS COOKIE
  2

  3

  4

  6

  7

  8
fontanaNZ
  9

300
=
301
=
302
=
303
=
304
=
305
=
306
=
307
=
308
=
309
=
 40
0.0660720833333334
 41
2455286.594242674
 42
2455510.728681273
  1

 90
        0
  0
DICTIONARY
  5
3B3D
102
{ACAD_REACTORS
330
13E6
102
}
330
13E6
100
AcDbDictionary
281
     1
  0
DICTIONARY
  5
3B9E
102
{ACAD_REACTORS
330
13E6
102
}
330
13E6
100
AcDbDictionary
281
     1
  0
DICTIONARY
  5
3B3C
102
{ACAD_REACTORS
330
13E6
102
}
330
13E6
100
AcDbDictionary
281
     1
1001
ACAD
1000
<All
  0
XRECORD
  5
16BE
102
{ACAD_REACTORS
330
E6
102
}
330
E6
100
AcDbXrecord
280
     1
290
     1
  0
XRECORD
  5
16C0
102
{ACAD_REACTORS
330
16BF
102
}
330
16BF
100
AcDbXrecord
280
     1
290
     1
  0
XRECORD
  5
16C2
102
{ACAD_REACTORS
330
16C1
102
}
330
16C1
100
AcDbXrecord
280
     1
290
     1
  0
SORTENTSTABLE
  5
3689
102
{ACAD_REACTORS
330
3688
102
}
330
3688
100
AcDbSortentsTable
330
1F
331
E9F
  5
E9F
331
EDD
  5
EDD
331
EDE
  5
EDE
331
EDF
  5
EDF
331
F18
  5
F18
331
F19
  5
F19
331
F1A
  5
F1A
331
F90
  5
F90
331
F3B
  5
F3B
331
F3C
  5
F3C
331
F91
  5
F91
331
F92
  5
F92
331
F3D
  5
F3D
331
10D8
  5
10D8
331
F3E
  5
F3E
331
F93
  5
F93
331
10F8
  5
10F8
331
10D9
  5
10D9
331
F94
  5
F94
331
FB3
  5
FB3
331
F3F
  5
F3F
331
1118
  5
1118
331
10DA
  5
10DA
331
10F9
  5
10F9
331
FB4
  5
FB4
331
F40
  5
F40
331
F95
  5
F95
331
10FA
  5
10FA
331
1119
  5
1119
331
10DB
  5
10DB
331
FD4
  5
FD4
331
FEB
  5
FEB
331
F41
  5
F41
331
F03
  5
F03
331
F96
  5
F96
331
FB5
  5
FB5
331
1150
  5
1150
331
10DC
  5
10DC
331
10FB
  5
10FB
331
FB6
  5
FB6
331
FD5
  5
FD5
331
F42
  5
F42
331
F97
  5
F97
331
102A
  5
102A
331
113A
  5
113A
331
10FC
  5
10FC
331
1151
  5
1151
331
10DD
  5
10DD
331
FD6
  5
FD6
331
102B
  5
102B
331
1080
  5
1080
331
F98
  5
F98
331
F43
  5
F43
331
F62
  5
F62
331
FB7
  5
FB7
331
10DE
  5
10DE
331
10FD
  5
10FD
331
1190
  5
1190
331
1081
  5
1081
331
10A0
  5
10A0
331
FB8
  5
FB8
331
100D
  5
100D
331
1062
  5
1062
331
F63
  5
F63
331
F99
  5
F99
331
10FE
  5
10FE
331
1191
  5
1191
331
10DF
  5
10DF
331
10A1
  5
10A1
331
10C0
  5
10C0
331
1082
  5
1082
331
F9A
  5
F9A
331
F64
  5
F64
331
FB9
  5
FB9
331
12B8
  5
12B8
331
10E0
  5
10E0
331
1192
  5
1192
331
10C1
  5
10C1
331
1083
  5
1083
331
F65
  5
F65
331
FBA
  5
FBA
331
104D
  5
104D
331
12B9
  5
12B9
331
1174
  5
1174
331
10E1
  5
10E1
331
111F
  5
111F
331
10C2
  5
10C2
331
1084
  5
1084
331
F66
  5
F66
331
F28
  5
F28
331
FBB
  5
FBB
331
104E
  5
104E
331
12F8
  5
12F8
331
12BA
  5
12BA
331
10E2
  5
10E2
331
1208
  5
1208
331
1085
  5
1085
331
FBC
  5
FBC
331
F67
  5
F67
331
F29
  5
F29
331
F7E
  5
F7E
331
FDB
  5
FDB
331
10E3
  5
10E3
331
1140
  5
1140
331
1228
  5
1228
331
1067
  5
1067
331
1086
  5
1086
331
F68
  5
F68
331
FBD
  5
FBD
331
12BC
  5
12BC
331
1330
  5
1330
331
1229
  5
1229
331
11EB
  5
11EB
331
1158
  5
1158
331
10E4
  5
10E4
331
1141
  5
1141
331
11CC
  5
11CC
331
1087
  5
1087
331
F69
  5
F69
331
FBE
  5
FBE
331
1068
  5
1068
331
12DC
  5
12DC
331
1260
  5
1260
331
122A
  5
122A
331
11CD
  5
11CD
331
10E5
  5
10E5
331
1159
  5
1159
331
11EC
  5
11EC
331
1069
  5
1069
331
1033
  5
1033
331
1088
  5
1088
331
FA0
  5
FA0
331
F6A
  5
F6A
331
FBF
  5
FBF
331
12BE
  5
12BE
331
12DD
  5
12DD
331
1370
  5
1370
331
1261
  5
1261
331
122B
  5
122B
331
11ED
  5
11ED
331
1105
  5
1105
331
115A
  5
115A
331
10E6
  5
10E6
331
11CE
  5
11CE
331
1089
  5
1089
331
1034
  5
1034
331
FA1
  5
FA1
331
F6B
  5
F6B
331
FC0
  5
FC0
331
106A
  5
106A
331
12DE
  5
12DE
331
1371
  5
1371
331
12BF
  5
12BF
331
1262
  5
1262
331
117A
  5
117A
331
11CF
  5
11CF
331
122C
  5
122C
331
1125
  5
1125
331
1144
  5
1144
331
10E7
  5
10E7
331
1106
  5
1106
331
115B
  5
115B
331
1281
  5
1281
331
10C8
  5
10C8
331
FC1
  5
FC1
331
1054
  5
1054
331
106B
  5
106B
331
FA2
  5
FA2
331
108A
  5
108A
331
12C0
  5
12C0
331
1372
  5
1372
331
1263
  5
1263
331
1282
  5
1282
331
117B
  5
117B
331
120E
  5
120E
331
12A1
  5
12A1
331
1107
  5
1107
331
1126
  5
1126
331
10E8
  5
10E8
331
1145
  5
1145
331
10C9
  5
10C9
331
106C
  5
106C
331
108B
  5
108B
331
1055
  5
1055
331
10AA
  5
10AA
331
12E0
  5
12E0
331
1373
  5
1373
331
12C1
  5
12C1
331
1283
  5
1283
331
120F
  5
120F
331
1127
  5
1127
331
1146
  5
1146
331
1264
  5
1264
331
10E9
  5
10E9
331
1108
  5
1108
331
10AB
  5
10AB
331
10CA
  5
10CA
331
1056
  5
1056
331
106D
  5
106D
331
F11
  5
F11
331
108C
  5
108C
331
12C2
  5
12C2
331
1374
  5
1374
331
1265
  5
1265
331
1147
  5
1147
331
119C
  5
119C
331
1284
  5
1284
331
1109
  5
1109
331
1128
  5
1128
331
10EA
  5
10EA
331
10CB
  5
10CB
331
106E
  5
106E
331
108D
  5
108D
331
F12
  5
F12
331
1057
  5
1057
331
10AC
  5
10AC
331
1375
  5
1375
331
1285
  5
1285
331
1129
  5
1129
331
1266
  5
1266
331
10EB
  5
10EB
331
110A
  5
110A
331
1058
  5
1058
331
10AD
  5
10AD
331
10CC
  5
10CC
331
F13
  5
F13
331
FFB
  5
FFB
331
1376
  5
1376
331
12C4
  5
12C4
331
1267
  5
1267
331
110B
  5
110B
331
1286
  5
1286
331
10EC
  5
10EC
331
10CD
  5
10CD
331
103A
  5
103A
331
F14
  5
F14
331
FFC
  5
FFC
331
1059
  5
1059
331
1377
  5
1377
331
1287
  5
1287
331
1161
  5
1161
331
11D5
  5
11D5
331
10ED
  5
10ED
331
110C
  5
110C
331
EA0
  5
EA0
331
105A
  5
105A
331
FFD
  5
FFD
331
FC7
  5
FC7
331
F15
  5
F15
331
FA8
  5
FA8
331
103B
  5
103B
331
10CE
  5
10CE
331
1378
  5
1378
331
12C6
  5
12C6
331
1233
  5
1233
331
1288
  5
1288
331
11BF
  5
11BF
331
110D
  5
110D
331
10EE
  5
10EE
331
1181
  5
1181
331
EA1
  5
EA1
331
10CF
  5
10CF
331
103C
  5
103C
331
105B
  5
105B
331
F54
  5
F54
331
F16
  5
F16
331
FA9
  5
FA9
331
FC8
  5
FC8
331
101D
  5
101D
331
1379
  5
1379
331
1289
  5
1289
331
11C0
  5
11C0
331
10EF
  5
10EF
331
1182
  5
1182
331
1215
  5
1215
331
1234
  5
1234
331
EE0
  5
EE0
331
105C
  5
105C
331
FC9
  5
FC9
331
101E
  5
101E
331
F17
  5
F17
331
103D
  5
103D
331
10D0
  5
10D0
331
137A
  5
137A
331
135B
  5
135B
331
1325
  5
1325
331
1216
  5
1216
331
11C1
  5
11C1
331
10F0
  5
10F0
331
EE1
  5
EE1
331
10D1
  5
10D1
331
1074
  5
1074
331
1093
  5
1093
331
101F
  5
101F
331
103E
  5
103E
331
105D
  5
105D
331
F8C
  5
F8C
331
1326
  5
1326
331
137B
  5
137B
331
128B
  5
128B
331
124D
  5
124D
331
11C2
  5
11C2
331
1217
  5
1217
331
10F1
  5
10F1
331
114E
  5
114E
331
10D2
  5
10D2
331
1094
  5
1094
331
F8D
  5
F8D
331
1020
  5
1020
331
EE2
  5
EE2
331
137C
  5
137C
331
1327
  5
1327
331
1218
  5
1218
331
114F
  5
114F
331
10F2
  5
10F2
331
1130
  5
1130
331
11C3
  5
11C3
331
EE3
  5
EE3
331
10D3
  5
10D3
331
F8E
  5
F8E
331
1021
  5
1021
331
1095
  5
1095
331
1309
  5
1309
331
1328
  5
1328
331
137D
  5
137D
331
1167
  5
1167
331
1131
  5
1131
331
11C4
  5
11C4
331
10F3
  5
10F3
331
11DB
  5
11DB
331
EC5
  5
EC5
331
10D4
  5
10D4
331
E87
  5
E87
331
1022
  5
1022
331
10B5
  5
10B5
331
EE4
  5
EE4
331
F8F
  5
F8F
331
FAE
  5
FAE
331
1329
  5
1329
331
137E
  5
137E
331
130A
  5
130A
331
11DC
  5
11DC
331
1168
  5
1168
331
10F4
  5
10F4
331
1132
  5
1132
331
11C5
  5
11C5
331
EE5
  5
EE5
331
EC6
  5
EC6
331
1023
  5
1023
331
10B6
  5
10B6
331
10D5
  5
10D5
331
E88
  5
E88
331
1360
  5
1360
331
137F
  5
137F
331
130B
  5
130B
331
132A
  5
132A
331
1341
  5
1341
331
1169
  5
1169
331
1114
  5
1114
331
1133
  5
1133
331
10F5
  5
10F5
331
1188
  5
1188
331
11DD
  5
11DD
331
EC7
  5
EC7
331
10D6
  5
10D6
331
E89
  5
E89
331
FCF
  5
FCF
331
1024
  5
1024
331
10B7
  5
10B7
331
EE6
  5
EE6
331
1380
  5
1380
331
132B
  5
132B
331
1342
  5
1342
331
130C
  5
130C
331
1361
  5
1361
331
123B
  5
123B
331
1189
  5
1189
331
11DE
  5
11DE
331
116A
  5
116A
331
11FD
  5
11FD
331
10F6
  5
10F6
331
1115
  5
1115
331
1134
  5
1134
331
EE7
  5
EE7
331
E8A
  5
E8A
331
10B8
  5
10B8
331
107A
  5
107A
331
1044
  5
1044
331
10D7
  5
10D7
331
EC8
  5
EC8
331
1343
  5
1343
331
1362
  5
1362
331
1381
  5
1381
331
1272
  5
1272
331
123C
  5
123C
331
1116
  5
1116
331
116B
  5
116B
331
10F7
  5
10F7
331
EC9
  5
EC9
331
E8B
  5
E8B
331
EE8
  5
EE8
331
1045
  5
1045
331
107B
  5
107B
331
1382
  5
1382
331
1344
  5
1344
331
1363
  5
1363
331
123D
  5
123D
331
1117
  5
1117
331
116C
  5
116C
331
EE9
  5
EE9
331
107C
  5
107C
331
ECA
  5
ECA
331
1345
  5
1345
331
1364
  5
1364
331
132E
  5
132E
331
1383
  5
1383
331
11AB
  5
11AB
331
123E
  5
123E
331
116D
  5
116D
331
EAC
  5
EAC
331
ECB
  5
ECB
331
107D
  5
107D
331
E8D
  5
E8D
331
EEA
  5
EEA
331
1365
  5
1365
331
132F
  5
132F
331
12F1
  5
12F1
331
1384
  5
1384
331
116E
  5
116E
331
EEB
  5
EEB
331
E8E
  5
E8E
331
107E
  5
107E
331
ECC
  5
ECC
331
1366
  5
1366
331
12F2
  5
12F2
331
1385
  5
1385
331
11AD
  5
11AD
331
116F
  5
116F
331
1257
  5
1257
331
ECD
  5
ECD
331
107F
  5
107F
331
109E
  5
109E
331
E8F
  5
E8F
331
EEC
  5
EEC
331
1367
  5
1367
331
12F3
  5
12F3
331
1386
  5
1386
331
11E4
  5
11E4
331
118F
  5
118F
331
11AE
  5
11AE
331
ECE
  5
ECE
331
109F
  5
109F
331
E90
  5
E90
331
EED
  5
EED
331
1368
  5
1368
331
12F4
  5
12F4
331
11E5
  5
11E5
331
11AF
  5
11AF
331
ECF
  5
ECF
331
E91
  5
E91
331
EEE
  5
EEE
331
1369
  5
1369
331
12F5
  5
12F5
331
125A
  5
125A
331
12B7
  5
12B7
331
ED0
  5
ED0
331
E92
  5
E92
331
EEF
  5
EEF
331
12F6
  5
12F6
331
136A
  5
136A
331
125B
  5
125B
331
EF0
  5
EF0
331
ED1
  5
ED1
331
E93
  5
E93
331
136B
  5
136B
331
12F7
  5
12F7
331
1207
  5
1207
331
125C
  5
125C
331
ED2
  5
ED2
331
E94
  5
E94
331
EF1
  5
EF1
331
136C
  5
136C
331
125D
  5
125D
331
EF2
  5
EF2
331
ED3
  5
ED3
331
E95
  5
E95
331
136D
  5
136D
331
129C
  5
129C
331
125E
  5
125E
331
ED4
  5
ED4
331
136E
  5
136E
331
129D
  5
129D
331
125F
  5
125F
331
ED5
  5
ED5
331
136F
  5
136F
331
ED6
  5
ED6
331
EB7
  5
EB7
331
129F
  5
129F
331
EB8
  5
EB8
331
ED7
  5
ED7
331
ED8
  5
ED8
331
EB9
  5
EB9
331
EBA
  5
EBA
331
ED9
  5
ED9
331
EDA
  5
EDA
331
EBB
  5
EBB
331
EDB
  5
EDB
331
3684
  5
3685
331
EDC
  5
EDC
  0
GROUP
  5
26AE
102
{ACAD_REACTORS
330
D
102
}
330
D
100
AcDbGroup
300

 70
     1
 71
     1
  0
GROUP
  5
34DE
102
{ACAD_REACTORS
330
D
102
}
330
D
100
AcDbGroup
300

 70
     1
 71
     1
  0
GROUP
  5
3544
102
{ACAD_REACTORS
330
D
102
}
330
D
100
AcDbGroup
300

 70
     1
 71
     1
  0
LAYOUT
  5
59
102
{ACAD_XDICTIONARY
360
3C5B
102
}
102
{ACAD_REACTORS
330
1A
102
}
330
1A
100
AcDbPlotSettings
  1

  2
None
  4

  6

 40
0.0
 41
0.0
 42
0.0
 43
0.0
 44
0.0
 45
0.0
 46
0.0
 47
0.0
 48
0.0
 49
0.0
140
0.0
141
0.0
142
1.0
143
1.0
 70
   688
 72
     0
 73
     0
 74
     5
  7

 75
    16
147
1.0
148
0.0
149
0.0
100
AcDbLayout
  1
Layout1
 70
     1
 71
     1
 10
0.0
 20
0.0
 11
12.0
 21
9.0
 12
0.0
 22
0.0
 32
0.0
 14
0.0
 24
0.0
 34
0.0
 15
0.0
 25
0.0
 35
0.0
146
0.0
 13
0.0
 23
0.0
 33
0.0
 16
1.0
 26
0.0
 36
0.0
 17
0.0
 27
1.0
 37
0.0
 76
     0
330
58
  0
LAYOUT
  5
5E
102
{ACAD_XDICTIONARY
360
3C5D
102
}
102
{ACAD_REACTORS
330
1A
102
}
330
1A
100
AcDbPlotSettings
  1

  2
None
  4

  6

 40
0.0
 41
0.0
 42
0.0
 43
0.0
 44
0.0
 45
0.0
 46
0.0
 47
0.0
 48
0.0
 49
0.0
140
0.0
141
0.0
142
1.0
143
1.0
 70
   688
 72
     0
 73
     0
 74
     5
  7

 75
    16
147
1.0
148
0.0
149
0.0
100
AcDbLayout
  1
Layout2
 70
     1
 71
     2
 10
0.0
 20
0.0
 11
12.0
 21
9.0
 12
0.0
 22
0.0
 32
0.0
 14
0.0
 24
0.0
 34
0.0
 15
0.0
 25
0.0
 35
0.0
146
0.0
 13
0.0
 23
0.0
 33
0.0
 16
1.0
 26
0.0
 36
0.0
 17
0.0
 27
1.0
 37
0.0
 76
     0
330
5D
  0
LAYOUT
  5
22
102
{ACAD_XDICTIONARY
360
3C59
102
}
102
{ACAD_REACTORS
330
1A
102
}
330
1A
100
AcDbPlotSettings
  1

  2
none_device
  4
ANSI_A_(8.50_x_11.00_Inches)
  6

 40
6.349999904632567
 41
19.04999923706055
 42
6.350006103515625
 43
19.04998779296875
 44
215.8999938964844
 45
279.3999938964844
 46
0.0
 47
0.0
 48
0.0
 49
0.0
140
0.0
141
0.0
142
1.0
143
2.584895464708373
 70
 11952
 72
     0
 73
     1
 74
     0
  7

 75
     0
147
0.3868628397755418
148
0.0
149
0.0
100
AcDbLayout
  1
Model
 70
     1
 71
     0
 10
0.0
 20
0.0
 11
12.0
 21
9.0
 12
0.0
 22
0.0
 32
0.0
 14
0.0
 24
0.0
 34
0.0
 15
0.0
 25
0.0
 35
0.0
146
0.0
 13
0.0
 23
0.0
 33
0.0
 16
1.0
 26
0.0
 36
0.0
 17
0.0
 27
1.0
 37
0.0
 76
     0
330
1F
331
94
  0
MATERIAL
  5
97
102
{ACAD_XDICTIONARY
360
16D2
102
}
102
{ACAD_REACTORS
330
72
102
}
330
72
100
AcDbMaterial
  1
ByBlock
  0
MATERIAL
  5
96
102
{ACAD_XDICTIONARY
360
16D0
102
}
102
{ACAD_REACTORS
330
72
102
}
330
72
100
AcDbMaterial
  1
ByLayer
  0
MATERIAL
  5
98
102
{ACAD_XDICTIONARY
360
110
102
}
102
{ACAD_REACTORS
330
72
102
}
330
72
100
AcDbMaterial
  1
Global
 43
0.0208000000566244
 43
0.0
 43
0.0
 43
0.0
 43
0.0
 43
0.0208000000566244
 43
0.0
 43
0.0
 43
0.0
 43
0.0
 43
1.0
 43
0.0
 43
0.0
 43
0.0
 43
0.0
 43
1.0
 49
0.0208000000566244
 49
0.0
 49
0.0
 49
0.0
 49
0.0
 49
0.0208000000566244
 49
0.0
 49
0.0
 49
0.0
 49
0.0
 49
1.0
 49
0.0
 49
0.0
 49
0.0
 49
0.0
 49
1.0
142
0.0208000000566244
142
0.0
142
0.0
142
0.0
142
0.0
142
0.0208000000566244
142
0.0
142
0.0
142
0.0
142
0.0
142
1.0
142
0.0
142
0.0
142
0.0
142
0.0
142
1.0
144
0.0208000000566244
144
0.0
144
0.0
144
0.0
144
0.0
144
0.0208000000566244
144
0.0
144
0.0
144
0.0
144
0.0
144
1.0
144
0.0
144
0.0
144
0.0
144
0.0
144
1.0
1001
ACAD
1070
    -1
1070
     3
1070
     0
1000

1071
        0
1070
     0
  0
MLEADERSTYLE
  5
E5
102
{ACAD_REACTORS
330
D7
102
}
330
D7
100
AcDbMLeaderStyle
170
     2
171
     1
172
     0
 90
        2
 40
0.0
 41
0.0
173
     1
 91
-1056964608
340
14
 92
       -2
290
     1
 42
0.09
291
     1
 43
0.36
  3
Standard
 44
0.18
300

342
11
174
     1
178
     1
175
     1
176
     0
 93
-1056964608
 45
0.18
292
     0
297
     0
 46
0.18
 94
-1056964608
 47
1.0
 49
1.0
140
1.0
293
     1
141
0.0
294
     1
177
     0
142
1.0
295
     0
296
     1
143
0.125
1001
ACAD_MLEADERVER
1070
     2
  0
MLEADERSTYLE
  5
D8
102
{ACAD_REACTORS
330
D7
102
}
330
D7
100
AcDbMLeaderStyle
170
     2
171
     1
172
     0
 90
        2
 40
0.0
 41
0.0
173
     1
 91
-1056964608
340
14
 92
       -2
290
     1
 42
0.09
291
     1
 43
0.36
  3
Standard
 44
0.18
300

342
11
174
     1
178
     1
175
     1
176
     0
 93
-1056964608
 45
0.18
292
     0
297
     0
 46
0.18
 94
-1056964608
 47
1.0
 49
1.0
140
1.0
293
     1
141
0.0
294
     1
177
     0
142
1.0
295
     0
296
     0
143
0.125
1001
ACAD_MLEADERVER
1070
     2
  0
MLINESTYLE
  5
18
102
{ACAD_REACTORS
330
17
102
}
330
17
100
AcDbMlineStyle
  2
STANDARD
 70
     0
  3

 62
   256
 51
90.0
 52
90.0
 71
     2
 49
0.5
 62
   256
  6
BYLAYER
 49
-0.5
 62
   256
  6
BYLAYER
  0
ACDBPLACEHOLDER
  5
F
102
{ACAD_REACTORS
330
E
102
}
330
E
  0
SCALE
  5
B7
102
{ACAD_REACTORS
330
B6
102
}
330
B6
100
AcDbScale
 70
     0
300
1:1
140
1.0
141
1.0
290
     1
  0
SCALE
  5
124
102
{ACAD_REACTORS
330
B6
102
}
330
B6
100
AcDbScale
 70
     0
300
1:2
140
1.0
141
2.0
290
     0
  0
SCALE
  5
125
102
{ACAD_REACTORS
330
B6
102
}
330
B6
100
AcDbScale
 70
     0
300
1:4
140
1.0
141
4.0
290
     0
  0
SCALE
  5
126
102
{ACAD_REACTORS
330
B6
102
}
330
B6
100
AcDbScale
 70
     0
300
1:5
140
1.0
141
5.0
290
     0
  0
SCALE
  5
127
102
{ACAD_REACTORS
330
B6
102
}
330
B6
100
AcDbScale
 70
     0
300
1:8
140
1.0
141
8.0
290
     0
  0
SCALE
  5
128
102
{ACAD_REACTORS
330
B6
102
}
330
B6
100
AcDbScale
 70
     0
300
1:10
140
1.0
141
10.0
290
     0
  0
SCALE
  5
129
102
{ACAD_REACTORS
330
B6
102
}
330
B6
100
AcDbScale
 70
     0
300
1:16
140
1.0
141
16.0
290
     0
  0
SCALE
  5
12A
102
{ACAD_REACTORS
330
B6
102
}
330
B6
100
AcDbScale
 70
     0
300
1:20
140
1.0
141
20.0
290
     0
  0
SCALE
  5
12B
102
{ACAD_REACTORS
330
B6
102
}
330
B6
100
AcDbScale
 70
     0
300
1:30
140
1.0
141
30.0
290
     0
  0
SCALE
  5
12C
102
{ACAD_REACTORS
330
B6
102
}
330
B6
100
AcDbScale
 70
     0
300
1:40
140
1.0
141
40.0
290
     0
  0
SCALE
  5
12D
102
{ACAD_REACTORS
330
B6
102
}
330
B6
100
AcDbScale
 70
     0
300
1:50
140
1.0
141
50.0
290
     0
  0
SCALE
  5
12E
102
{ACAD_REACTORS
330
B6
102
}
330
B6
100
AcDbScale
 70
     0
300
1:100
140
1.0
141
100.0
290
     0
  0
SCALE
  5
12F
102
{ACAD_REACTORS
330
B6
102
}
330
B6
100
AcDbScale
 70
     0
300
2:1
140
2.0
141
1.0
290
     0
  0
SCALE
  5
130
102
{ACAD_REACTORS
330
B6
102
}
330
B6
100
AcDbScale
 70
     0
300
4:1
140
4.0
141
1.0
290
     0
  0
SCALE
  5
131
102
{ACAD_REACTORS
330
B6
102
}
330
B6
100
AcDbScale
 70
     0
300
8:1
140
8.0
141
1.0
290
     0
  0
SCALE
  5
132
102
{ACAD_REACTORS
330
B6
102
}
330
B6
100
AcDbScale
 70
     0
300
10:1
140
10.0
141
1.0
290
     0
  0
SCALE
  5
133
102
{ACAD_REACTORS
330
B6
102
}
330
B6
100
AcDbScale
 70
     0
300
100:1
140
100.0
141
1.0
290
     0
  0
SCALE
  5
134
102
{ACAD_REACTORS
330
B6
102
}
330
B6
100
AcDbScale
 70
     0
300
1/128" = 1'-0"
140
0.0078125
141
12.0
290
     0
  0
SCALE
  5
135
102
{ACAD_REACTORS
330
B6
102
}
330
B6
100
AcDbScale
 70
     0
300
1/64" = 1'-0"
140
0.015625
141
12.0
290
     0
  0
SCALE
  5
136
102
{ACAD_REACTORS
330
B6
102
}
330
B6
100
AcDbScale
 70
     0
300
1/32" = 1'-0"
140
0.03125
141
12.0
290
     0
  0
SCALE
  5
137
102
{ACAD_REACTORS
330
B6
102
}
330
B6
100
AcDbScale
 70
     0
300
1/16" = 1'-0"
140
0.0625
141
12.0
290
     0
  0
SCALE
  5
138
102
{ACAD_REACTORS
330
B6
102
}
330
B6
100
AcDbScale
 70
     0
300
3/32" = 1'-0"
140
0.09375
141
12.0
290
     0
  0
SCALE
  5
139
102
{ACAD_REACTORS
330
B6
102
}
330
B6
100
AcDbScale
 70
     0
300
1/8" = 1'-0"
140
0.125
141
12.0
290
     0
  0
SCALE
  5
13A
102
{ACAD_REACTORS
330
B6
102
}
330
B6
100
AcDbScale
 70
     0
300
3/16" = 1'-0"
140
0.1875
141
12.0
290
     0
  0
SCALE
  5
13B
102
{ACAD_REACTORS
330
B6
102
}
330
B6
100
AcDbScale
 70
     0
300
1/4" = 1'-0"
140
0.25
141
12.0
290
     0
  0
SCALE
  5
13C
102
{ACAD_REACTORS
330
B6
102
}
330
B6
100
AcDbScale
 70
     0
300
3/8" = 1'-0"
140
0.375
141
12.0
290
     0
  0
SCALE
  5
13D
102
{ACAD_REACTORS
330
B6
102
}
330
B6
100
AcDbScale
 70
     0
300
1/2" = 1'-0"
140
0.5
141
12.0
290
     0
  0
SCALE
  5
13E
102
{ACAD_REACTORS
330
B6
102
}
330
B6
100
AcDbScale
 70
     0
300
3/4" = 1'-0"
140
0.75
141
12.0
290
     0
  0
SCALE
  5
13F
102
{ACAD_REACTORS
330
B6
102
}
330
B6
100
AcDbScale
 70
     0
300
1" = 1'-0"
140
1.0
141
12.0
290
     0
  0
SCALE
  5
140
102
{ACAD_REACTORS
330
B6
102
}
330
B6
100
AcDbScale
 70
     0
300
1-1/2" = 1'-0"
140
1.5
141
12.0
290
     0
  0
SCALE
  5
141
102
{ACAD_REACTORS
330
B6
102
}
330
B6
100
AcDbScale
 70
     0
300
3" = 1'-0"
140
3.0
141
12.0
290
     0
  0
SCALE
  5
142
102
{ACAD_REACTORS
330
B6
102
}
330
B6
100
AcDbScale
 70
     0
300
6" = 1'-0"
140
6.0
141
12.0
290
     0
  0
SCALE
  5
143
102
{ACAD_REACTORS
330
B6
102
}
330
B6
100
AcDbScale
 70
     0
300
1'-0" = 1'-0"
140
12.0
141
12.0
290
     0
  0
TABLESTYLE
  5
87
102
{ACAD_XDICTIONARY
360
104
102
}
102
{ACAD_REACTORS
330
86
102
}
330
86
100
AcDbTableStyle
  3
Standard
 70
     0
 71
     0
 40
0.06
 41
0.06
280
     0
281
     0
  7
Standard
140
0.18
170
     2
 62
     0
 63
     7
283
     0
274
    -2
284
     1
 64
     0
275
    -2
285
     1
 65
     0
276
    -2
286
     1
 66
     0
277
    -2
287
     1
 67
     0
278
    -2
288
     1
 68
     0
279
    -2
289
     1
 69
     0
  7
Standard
140
0.25
170
     5
 62
     0
 63
     7
283
     0
274
    -2
284
     1
 64
     0
275
    -2
285
     1
 65
     0
276
    -2
286
     1
 66
     0
277
    -2
287
     1
 67
     0
278
    -2
288
     1
 68
     0
279
    -2
289
     1
 69
     0
  7
Standard
140
0.18
170
     5
 62
     0
 63
     7
283
     0
274
    -2
284
     1
 64
     0
275
    -2
285
     1
 65
     0
276
    -2
286
     1
 66
     0
277
    -2
287
     1
 67
     0
278
    -2
288
     1
 68
     0
279
    -2
289
     1
 69
     0
  0
VISUALSTYLE
  5
9F
102
{ACAD_REACTORS
330
99
102
}
330
99
100
AcDbVisualStyle
  2
2dWireframe
 70
     4
 71
     0
 72
     2
 73
     1
 90
        0
 40
-0.6
 41
-30.0
 62
     5
 63
     7
 74
     1
 91
        4
 64
     7
 65
   257
 75
     1
175
     1
 42
1.0
 92
        0
 66
   257
 43
1.0
 76
     1
 77
     6
 78
     2
 67
     7
 79
     5
170
     0
171
     0
290
     0
174
     0
 93
        1
 44
0.0
173
     0
291
     0
 45
0.0
1001
ACAD
1000
AcDbSavedByObjectVersion
1070
     0
1000
AcDbSavedByObjectVersion
1070
     0
1000
AcDbSavedByObjectVersion
1070
     0
1000
AcDbSavedByObjectVersion
1070
     0
1000
AcDbSavedByObjectVersion
1070
     0
1000
AcDbSavedByObjectVersion
1070
     0
  0
VISUALSTYLE
  5
A1
102
{ACAD_REACTORS
330
99
102
}
330
99
100
AcDbVisualStyle
  2
3D Hidden
 70
     6
 71
     1
 72
     2
 73
     2
 90
        0
 40
-0.6
 41
-30.0
 62
     5
 63
     7
 74
     2
 91
        2
 64
     7
 65
   257
 75
     2
175
     1
 42
40.0
 92
        0
 66
   257
 43
1.0
 76
     1
 77
     6
 78
     2
 67
     7
 79
     3
170
     0
171
     0
290
     0
174
     0
 93
        1
 44
0.0
173
     0
291
     0
 45
0.0
1001
ACAD
1000
AcDbSavedByObjectVersion
1070
     0
1000
AcDbSavedByObjectVersion
1070
     0
1000
AcDbSavedByObjectVersion
1070
     0
1000
AcDbSavedByObjectVersion
1070
     0
1000
AcDbSavedByObjectVersion
1070
     0
1000
AcDbSavedByObjectVersion
1070
     0
  0
VISUALSTYLE
  5
A0
102
{ACAD_REACTORS
330
99
102
}
330
99
100
AcDbVisualStyle
  2
3dWireframe
 70
     5
 71
     0
 72
     2
 73
     1
 90
        0
 40
-0.6
 41
-30.0
 62
     5
 63
     7
 74
     1
 91
        4
 64
     7
 65
   257
 75
     1
175
     1
 42
1.0
 92
        0
 66
   257
 43
1.0
 76
     1
 77
     6
 78
     2
 67
     7
 79
     5
170
     0
171
     0
290
     0
174
     0
 93
        1
 44
0.0
173
     0
291
     0
 45
0.0
1001
ACAD
1000
AcDbSavedByObjectVersion
1070
     0
1000
AcDbSavedByObjectVersion
1070
     0
1000
AcDbSavedByObjectVersion
1070
     0
1000
AcDbSavedByObjectVersion
1070
     0
1000
AcDbSavedByObjectVersion
1070
     0
1000
AcDbSavedByObjectVersion
1070
     0
  0
VISUALSTYLE
  5
9E
102
{ACAD_REACTORS
330
99
102
}
330
99
100
AcDbVisualStyle
  2
Basic
 70
     7
 71
     1
 72
     0
 73
     1
 90
        0
 40
-0.6
 41
-30.0
 62
     5
 63
     7
 74
     0
 91
        4
 64
     7
 65
   257
 75
     1
175
     1
 42
1.0
 92
        8
 66
     7
 43
1.0
 76
     1
 77
     6
 78
     2
 67
     7
 79
     5
170
     0
171
     0
290
     0
174
     0
 93
        1
 44
0.0
173
     0
291
     1
 45
0.0
1001
ACAD
1000
AcDbSavedByObjectVersion
1070
     0
1000
AcDbSavedByObjectVersion
1070
     0
1000
AcDbSavedByObjectVersion
1070
     0
1000
AcDbSavedByObjectVersion
1070
     0
1000
AcDbSavedByObjectVersion
1070
     0
1000
AcDbSavedByObjectVersion
1070
     0
  0
VISUALSTYLE
  5
A5
102
{ACAD_REACTORS
330
99
102
}
330
99
100
AcDbVisualStyle
  2
Brighten
 70
    12
 71
     2
 72
     2
 73
     1
 90
        0
 40
-0.6
 41
-30.0
 62
     5
 63
     7
 74
     1
 91
        4
 64
     7
 65
   257
 75
     1
175
     1
 42
1.0
 92
        8
 66
     7
 43
1.0
 76
     1
 77
     6
 78
     2
 67
     7
 79
     5
170
     0
171
     0
290
     0
174
     0
 93
        1
 44
50.0
173
     0
291
     1
 45
0.0
1001
ACAD
1000
AcDbSavedByObjectVersion
1070
     0
1000
AcDbSavedByObjectVersion
1070
     0
1000
AcDbSavedByObjectVersion
1070
     0
1000
AcDbSavedByObjectVersion
1070
     0
1000
AcDbSavedByObjectVersion
1070
     0
1000
AcDbSavedByObjectVersion
1070
     0
  0
VISUALSTYLE
  5
A9
102
{ACAD_REACTORS
330
99
102
}
330
99
100
AcDbVisualStyle
  2
ColorChange
 70
    16
 71
     2
 72
     2
 73
     3
 90
        0
 40
-0.6
 41
-30.0
 62
     5
 63
     8
 74
     1
 91
        4
 64
     7
 65
   257
 75
     1
175
     1
 42
1.0
 92
        8
 66
     8
 43
1.0
 76
     1
 77
     6
 78
     2
 67
     7
 79
     5
170
     0
171
     0
290
     0
174
     0
 93
        1
 44
0.0
173
     0
291
     1
 45
0.0
1001
ACAD
1000
AcDbSavedByObjectVersion
1070
     0
1000
AcDbSavedByObjectVersion
1070
     0
1000
AcDbSavedByObjectVersion
1070
     0
1000
AcDbSavedByObjectVersion
1070
     0
1000
AcDbSavedByObjectVersion
1070
     0
1000
AcDbSavedByObjectVersion
1070
     0
  0
VISUALSTYLE
  5
A2
102
{ACAD_REACTORS
330
99
102
}
330
99
100
AcDbVisualStyle
  2
Conceptual
 70
     9
 71
     3
 72
     2
 73
     1
 90
        0
 40
-0.6
 41
-30.0
 62
     5
 63
     7
 74
     2
 91
        2
 64
     7
 65
   257
 75
     1
175
     1
 42
40.0
 92
        8
 66
     7
 43
1.0
 76
     1
 77
     6
 78
     2
 67
     7
 79
     3
170
     0
171
     0
290
     0
174
     0
 93
        1
 44
0.0
173
     0
291
     0
 45
0.0
1001
ACAD
1000
AcDbSavedByObjectVersion
1070
     0
1000
AcDbSavedByObjectVersion
1070
     0
1000
AcDbSavedByObjectVersion
1070
     0
1000
AcDbSavedByObjectVersion
1070
     0
1000
AcDbSavedByObjectVersion
1070
     0
1000
AcDbSavedByObjectVersion
1070
     0
  0
VISUALSTYLE
  5
A4
102
{ACAD_REACTORS
330
99
102
}
330
99
100
AcDbVisualStyle
  2
Dim
 70
    11
 71
     2
 72
     2
 73
     1
 90
        0
 40
-0.6
 41
-30.0
 62
     5
 63
     7
 74
     1
 91
        4
 64
     7
 65
   257
 75
     1
175
     1
 42
1.0
 92
        8
 66
     7
 43
1.0
 76
     1
 77
     6
 78
     2
 67
     7
 79
     5
170
     0
171
     0
290
     0
174
     0
 93
        1
 44
-50.0
173
     0
291
     1
 45
0.0
1001
ACAD
1000
AcDbSavedByObjectVersion
1070
     0
1000
AcDbSavedByObjectVersion
1070
     0
1000
AcDbSavedByObjectVersion
1070
     0
1000
AcDbSavedByObjectVersion
1070
     0
1000
AcDbSavedByObjectVersion
1070
     0
1000
AcDbSavedByObjectVersion
1070
     0
  0
VISUALSTYLE
  5
A8
102
{ACAD_REACTORS
330
99
102
}
330
99
100
AcDbVisualStyle
  2
Facepattern
 70
    15
 71
     2
 72
     2
 73
     1
 90
        0
 40
-0.6
 41
-30.0
 62
     5
 63
     7
 74
     1
 91
        4
 64
     7
 65
   257
 75
     1
175
     1
 42
1.0
 92
        8
 66
     7
 43
1.0
 76
     1
 77
     6
 78
     2
 67
     7
 79
     5
170
     0
171
     0
290
     0
174
     0
 93
        1
 44
0.0
173
     0
291
     1
 45
0.0
1001
ACAD
1000
AcDbSavedByObjectVersion
1070
     0
1000
AcDbSavedByObjectVersion
1070
     0
1000
AcDbSavedByObjectVersion
1070
     0
1000
AcDbSavedByObjectVersion
1070
     0
1000
AcDbSavedByObjectVersion
1070
     0
1000
AcDbSavedByObjectVersion
1070
     0
  0
VISUALSTYLE
  5
9A
102
{ACAD_REACTORS
330
99
102
}
330
99
100
AcDbVisualStyle
  2
Flat
 70
     0
 71
     2
 72
     1
 73
     1
 90
        2
 40
-0.6
 41
30.0
 62
     5
 63
     7
 74
     0
 91
        4
 64
     7
 65
   257
 75
     1
175
     1
 42
1.0
 92
        8
 66
     7
 43
1.0
 76
     1
 77
     6
 78
     2
 67
     7
 79
     5
170
     0
171
     0
290
     0
174
     0
 93
        1
 44
0.0
173
     0
291
     1
 45
0.0
1001
ACAD
1000
AcDbSavedByObjectVersion
1070
     0
1000
AcDbSavedByObjectVersion
1070
     0
1000
AcDbSavedByObjectVersion
1070
     0
1000
AcDbSavedByObjectVersion
1070
     0
1000
AcDbSavedByObjectVersion
1070
     0
1000
AcDbSavedByObjectVersion
1070
     0
  0
VISUALSTYLE
  5
9B
102
{ACAD_REACTORS
330
99
102
}
330
99
100
AcDbVisualStyle
  2
FlatWithEdges
 70
     1
 71
     2
 72
     1
 73
     1
 90
        2
 40
-0.6
 41
30.0
 62
     5
 63
     7
 74
     1
 91
        4
 64
     7
 65
   257
 75
     1
175
     1
 42
1.0
 92
        0
 66
   257
 43
1.0
 76
     1
 77
     6
 78
     2
 67
     7
 79
     5
170
     0
171
     0
290
     0
174
     0
 93
        1
 44
0.0
173
     0
291
     1
 45
0.0
1001
ACAD
1000
AcDbSavedByObjectVersion
1070
     0
1000
AcDbSavedByObjectVersion
1070
     0
1000
AcDbSavedByObjectVersion
1070
     0
1000
AcDbSavedByObjectVersion
1070
     0
1000
AcDbSavedByObjectVersion
1070
     0
1000
AcDbSavedByObjectVersion
1070
     0
  0
VISUALSTYLE
  5
9C
102
{ACAD_REACTORS
330
99
102
}
330
99
100
AcDbVisualStyle
  2
Gouraud
 70
     2
 71
     2
 72
     2
 73
     1
 90
        2
 40
-0.6
 41
30.0
 62
     5
 63
     7
 74
     0
 91
        4
 64
     7
 65
   257
 75
     1
175
     1
 42
1.0
 92
        0
 66
     7
 43
1.0
 76
     1
 77
     6
 78
     2
 67
     7
 79
     5
170
     0
171
     0
290
     0
174
     0
 93
        1
 44
0.0
173
     0
291
     1
 45
0.0
1001
ACAD
1000
AcDbSavedByObjectVersion
1070
     0
1000
AcDbSavedByObjectVersion
1070
     0
1000
AcDbSavedByObjectVersion
1070
     0
1000
AcDbSavedByObjectVersion
1070
     0
1000
AcDbSavedByObjectVersion
1070
     0
1000
AcDbSavedByObjectVersion
1070
     0
  0
VISUALSTYLE
  5
9D
102
{ACAD_REACTORS
330
99
102
}
330
99
100
AcDbVisualStyle
  2
GouraudWithEdges
 70
     3
 71
     2
 72
     2
 73
     1
 90
        2
 40
-0.6
 41
30.0
 62
     5
 63
     7
 74
     1
 91
        4
 64
     7
 65
   257
 75
     1
175
     1
 42
1.0
 92
        0
 66
   257
 43
1.0
 76
     1
 77
     6
 78
     2
 67
     7
 79
     5
170
     0
171
     0
290
     0
174
     0
 93
        1
 44
0.0
173
     0
291
     1
 45
0.0
1001
ACAD
1000
AcDbSavedByObjectVersion
1070
     0
1000
AcDbSavedByObjectVersion
1070
     0
1000
AcDbSavedByObjectVersion
1070
     0
1000
AcDbSavedByObjectVersion
1070
     0
1000
AcDbSavedByObjectVersion
1070
     0
1000
AcDbSavedByObjectVersion
1070
     0
  0
VISUALSTYLE
  5
A7
102
{ACAD_REACTORS
330
99
102
}
330
99
100
AcDbVisualStyle
  2
Linepattern
 70
    14
 71
     2
 72
     2
 73
     1
 90
        0
 40
-0.6
 41
-30.0
 62
     5
 63
     7
 74
     1
 91
        4
 64
     7
 65
   257
 75
     7
175
     7
 42
1.0
 92
        8
 66
     7
 43
1.0
 76
     1
 77
     6
 78
     2
 67
     7
 79
     5
170
     0
171
     0
290
     0
174
     0
 93
        1
 44
0.0
173
     0
291
     1
 45
0.0
1001
ACAD
1000
AcDbSavedByObjectVersion
1070
     0
1000
AcDbSavedByObjectVersion
1070
     0
1000
AcDbSavedByObjectVersion
1070
     0
1000
AcDbSavedByObjectVersion
1070
     0
1000
AcDbSavedByObjectVersion
1070
     0
1000
AcDbSavedByObjectVersion
1070
     0
  0
VISUALSTYLE
  5
A3
102
{ACAD_REACTORS
330
99
102
}
330
99
100
AcDbVisualStyle
  2
Realistic
 70
     8
 71
     2
 72
     2
 73
     1
 90
        0
 40
-0.6
 41
-30.0
 62
     5
 63
     7
 74
     1
 91
        0
 64
     7
 65
   257
 75
     1
175
     1
 42
1.0
 92
        8
 66
     8
 43
1.0
 76
     1
 77
     6
 78
     2
 67
     7
 79
     5
170
     0
171
     0
290
     0
174
     0
 93
       13
 44
0.0
173
     0
291
     0
 45
0.0
1001
ACAD
1000
AcDbSavedByObjectVersion
1070
     0
1000
AcDbSavedByObjectVersion
1070
     0
1000
AcDbSavedByObjectVersion
1070
     0
1000
AcDbSavedByObjectVersion
1070
     0
1000
AcDbSavedByObjectVersion
1070
     0
1000
AcDbSavedByObjectVersion
1070
     0
  0
VISUALSTYLE
  5
A6
102
{ACAD_REACTORS
330
99
102
}
330
99
100
AcDbVisualStyle
  2
Thicken
 70
    13
 71
     2
 72
     2
 73
     1
 90
        0
 40
-0.6
 41
-30.0
 62
     5
 63
     7
 74
     1
 91
        4
 64
     7
 65
   257
 75
     1
175
     1
 42
1.0
 92
       12
 66
     7
 43
1.0
 76
     1
 77
     6
 78
     2
 67
     7
 79
     5
170
     0
171
     0
290
     0
174
     0
 93
        1
 44
0.0
173
     0
291
     1
 45
0.0
1001
ACAD
1000
AcDbSavedByObjectVersion
1070
     0
1000
AcDbSavedByObjectVersion
1070
     0
1000
AcDbSavedByObjectVersion
1070
     0
1000
AcDbSavedByObjectVersion
1070
     0
1000
AcDbSavedByObjectVersion
1070
     0
1000
AcDbSavedByObjectVersion
1070
     0
  0
DICTIONARYVAR
  5
F0
102
{ACAD_REACTORS
330
66
102
}
330
66
100
DictionaryVariables
280
     0
  1
1:1
  0
DICTIONARYVAR
  5
EF
102
{ACAD_REACTORS
330
66
102
}
330
66
100
DictionaryVariables
280
     0
  1
STANDARD
  0
DICTIONARYVAR
  5
89
102
{ACAD_REACTORS
330
66
102
}
330
66
100
DictionaryVariables
280
     0
  1
STANDARD
  0
DICTIONARYVAR
  5
67
102
{ACAD_REACTORS
330
66
102
}
330
66
100
DictionaryVariables
280
     0
  1
2
  0
DICTIONARYVAR
  5
6B
102
{ACAD_REACTORS
330
66
102
}
330
66
100
DictionaryVariables
280
     0
  1
1
  0
DICTIONARYVAR
  5
16C6
102
{ACAD_REACTORS
330
66
102
}
330
66
100
DictionaryVariables
280
     0
  1
0
  0
DICTIONARYVAR
  5
16C4
102
{ACAD_REACTORS
330
66
102
}
330
66
100
DictionaryVariables
280
     0
  1
2
  0
DICTIONARYVAR
  5
16C3
102
{ACAD_REACTORS
330
66
102
}
330
66
100
DictionaryVariables
280
     0
  1
1
  0
DICTIONARYVAR
  5
16C5
102
{ACAD_REACTORS
330
66
102
}
330
66
100
DictionaryVariables
280
     0
  1
127
  0
DICTIONARY
  5
3C5B
330
59
100
AcDbDictionary
280
     1
281
     1
  3
ACAD_XREC_ROUNDTRIP
360
3C5C
  0
DICTIONARY
  5
3C5D
330
5E
100
AcDbDictionary
280
     1
281
     1
  3
ACAD_XREC_ROUNDTRIP
360
3C5E
  0
DICTIONARY
  5
3C59
330
22
100
AcDbDictionary
280
     1
281
     1
  3
ACAD_XREC_ROUNDTRIP
360
3C5A
  0
DICTIONARY
  5
16D2
330
97
100
AcDbDictionary
280
     1
281
     1
  3
ACAD_XREC_ROUNDTRIP
360
16D3
  0
DICTIONARY
  5
16D0
330
96
100
AcDbDictionary
280
     1
281
     1
  3
ACAD_XREC_ROUNDTRIP
360
16D1
  0
DICTIONARY
  5
110
330
98
100
AcDbDictionary
280
     1
281
     1
  3
ACAD_XREC_ROUNDTRIP
360
16D4
  3
BUMPTILE
360
112
  3
DIFFUSETILE
360
111
  3
OPACITYTILE
360
113
  3
REFLECTIONTILE
360
114
  0
DICTIONARY
  5
104
330
87
100
AcDbDictionary
280
     1
281
     1
  3
ACAD_ROUNDTRIP_2008_TABLESTYLE_CELLSTYLEMAP
360
3C57
  3
ACAD_XREC_ROUNDTRIP
360
3C5F
  0
XRECORD
  5
3C5C
102
{ACAD_REACTORS
330
3C5B
102
}
330
3C5B
100
AcDbXrecord
280
     1
102
SHADEPLOT
 70
     0
102
SHADEPLOTRESLEVEL
 70
     2
102
SHADEPLOTCUSTOMDPI
 70
   300
  0
XRECORD
  5
3C5E
102
{ACAD_REACTORS
330
3C5D
102
}
330
3C5D
100
AcDbXrecord
280
     1
102
SHADEPLOT
 70
     0
102
SHADEPLOTRESLEVEL
 70
     2
102
SHADEPLOTCUSTOMDPI
 70
   300
  0
XRECORD
  5
3C5A
102
{ACAD_REACTORS
330
3C59
102
}
330
3C59
100
AcDbXrecord
280
     1
102
SHADEPLOT
 70
     0
102
SHADEPLOTRESLEVEL
 70
     2
102
SHADEPLOTCUSTOMDPI
 70
   300
  0
XRECORD
  5
16D3
102
{ACAD_REACTORS
330
16D2
102
}
330
16D2
100
AcDbXrecord
280
     1
102
MATERIAL
148
0.0
149
0.0
149
0.0
 93
        0
 94
      127
282
     0
 72
     1
 77
     1
171
     1
175
     1
179
     1
273
     0
  0
XRECORD
  5
16D1
102
{ACAD_REACTORS
330
16D0
102
}
330
16D0
100
AcDbXrecord
280
     1
102
MATERIAL
148
0.0
149
0.0
149
0.0
 93
        0
 94
      127
282
     0
 72
     1
 77
     1
171
     1
175
     1
179
     1
273
     0
  0
XRECORD
  5
16D4
102
{ACAD_REACTORS
330
110
102
}
330
110
100
AcDbXrecord
280
     1
102
MATERIAL
148
0.0
149
0.0
149
0.0
 93
        0
 94
      127
282
     0
 72
     1
 77
     1
171
     1
175
     1
179
     1
273
     0
  0
XRECORD
  5
112
102
{ACAD_REACTORS
330
110
102
}
330
110
100
AcDbXrecord
280
     1
270
     1
271
     1
  0
XRECORD
  5
111
102
{ACAD_REACTORS
330
110
102
}
330
110
100
AcDbXrecord
280
     1
270
     1
271
     1
  0
XRECORD
  5
113
102
{ACAD_REACTORS
330
110
102
}
330
110
100
AcDbXrecord
280
     1
270
     1
271
     1
  0
XRECORD
  5
114
102
{ACAD_REACTORS
330
110
102
}
330
110
100
AcDbXrecord
280
     1
270
     1
271
     1
  0
CELLSTYLEMAP
  5
3C57
102
{ACAD_REACTORS
330
104
102
}
330
104
100
AcDbCellStyleMap
 90
        3
300
CELLSTYLE
  1
TABLEFORMAT_BEGIN
 90
        5
170
     1
 91
        0
 92
    32768
 62
   257
 93
        1
300
CONTENTFORMAT
  1
CONTENTFORMAT_BEGIN
 90
        0
 91
        0
 92
      512
 93
        0
300

 40
0.0
140
1.0
 94
        5
 62
     0
340
11
144
0.25
309
CONTENTFORMAT_END
171
     1
301
MARGIN
  1
CELLMARGIN_BEGIN
 40
0.06
 40
0.06
 40
0.06
 40
0.06
 40
0.18
 40
0.18
309
CELLMARGIN_END
 94
        6
 95
        1
302
GRIDFORMAT
  1
GRIDFORMAT_BEGIN
 90
        0
 91
        1
 62
     0
 92
       -2
340
0
 93
        0
 40
0.045
309
GRIDFORMAT_END
 95
        2
302
GRIDFORMAT
  1
GRIDFORMAT_BEGIN
 90
        0
 91
        1
 62
     0
 92
       -2
340
0
 93
        0
 40
0.045
309
GRIDFORMAT_END
 95
        4
302
GRIDFORMAT
  1
GRIDFORMAT_BEGIN
 90
        0
 91
        1
 62
     0
 92
       -2
340
0
 93
        0
 40
0.045
309
GRIDFORMAT_END
 95
        8
302
GRIDFORMAT
  1
GRIDFORMAT_BEGIN
 90
        0
 91
        1
 62
     0
 92
       -2
340
0
 93
        0
 40
0.045
309
GRIDFORMAT_END
 95
       16
302
GRIDFORMAT
  1
GRIDFORMAT_BEGIN
 90
        0
 91
        1
 62
     0
 92
       -2
340
0
 93
        0
 40
0.045
309
GRIDFORMAT_END
 95
       32
302
GRIDFORMAT
  1
GRIDFORMAT_BEGIN
 90
        0
 91
        1
 62
     0
 92
       -2
340
0
 93
        0
 40
0.045
309
GRIDFORMAT_END
309
TABLEFORMAT_END
  1
CELLSTYLE_BEGIN
 90
        1
 91
        1
300
_TITLE
309
CELLSTYLE_END
300
CELLSTYLE
  1
TABLEFORMAT_BEGIN
 90
        5
170
     1
 91
        0
 92
        0
 62
   257
 93
        1
300
CONTENTFORMAT
  1
CONTENTFORMAT_BEGIN
 90
        0
 91
        0
 92
      512
 93
        0
300

 40
0.0
140
1.0
 94
        5
 62
     0
340
11
144
0.18
309
CONTENTFORMAT_END
171
     1
301
MARGIN
  1
CELLMARGIN_BEGIN
 40
0.06
 40
0.06
 40
0.06
 40
0.06
 40
0.18
 40
0.18
309
CELLMARGIN_END
 94
        6
 95
        1
302
GRIDFORMAT
  1
GRIDFORMAT_BEGIN
 90
        0
 91
        1
 62
     0
 92
       -2
340
0
 93
        0
 40
0.045
309
GRIDFORMAT_END
 95
        2
302
GRIDFORMAT
  1
GRIDFORMAT_BEGIN
 90
        0
 91
        1
 62
     0
 92
       -2
340
0
 93
        0
 40
0.045
309
GRIDFORMAT_END
 95
        4
302
GRIDFORMAT
  1
GRIDFORMAT_BEGIN
 90
        0
 91
        1
 62
     0
 92
       -2
340
0
 93
        0
 40
0.045
309
GRIDFORMAT_END
 95
        8
302
GRIDFORMAT
  1
GRIDFORMAT_BEGIN
 90
        0
 91
        1
 62
     0
 92
       -2
340
0
 93
        0
 40
0.045
309
GRIDFORMAT_END
 95
       16
302
GRIDFORMAT
  1
GRIDFORMAT_BEGIN
 90
        0
 91
        1
 62
     0
 92
       -2
340
0
 93
        0
 40
0.045
309
GRIDFORMAT_END
 95
       32
302
GRIDFORMAT
  1
GRIDFORMAT_BEGIN
 90
        0
 91
        1
 62
     0
 92
       -2
340
0
 93
        0
 40
0.045
309
GRIDFORMAT_END
309
TABLEFORMAT_END
  1
CELLSTYLE_BEGIN
 90
        2
 91
        1
300
_HEADER
309
CELLSTYLE_END
300
CELLSTYLE
  1
TABLEFORMAT_BEGIN
 90
        5
170
     1
 91
        0
 92
        0
 62
   257
 93
        1
300
CONTENTFORMAT
  1
CONTENTFORMAT_BEGIN
 90
        0
 91
        0
 92
      512
 93
        0
300

 40
0.0
140
1.0
 94
        2
 62
     0
340
11
144
0.18
309
CONTENTFORMAT_END
171
     1
301
MARGIN
  1
CELLMARGIN_BEGIN
 40
0.06
 40
0.06
 40
0.06
 40
0.06
 40
0.18
 40
0.18
309
CELLMARGIN_END
 94
        6
 95
        1
302
GRIDFORMAT
  1
GRIDFORMAT_BEGIN
 90
        0
 91
        1
 62
     0
 92
       -2
340
0
 93
        0
 40
0.045
309
GRIDFORMAT_END
 95
        2
302
GRIDFORMAT
  1
GRIDFORMAT_BEGIN
 90
        0
 91
        1
 62
     0
 92
       -2
340
0
 93
        0
 40
0.045
309
GRIDFORMAT_END
 95
        4
302
GRIDFORMAT
  1
GRIDFORMAT_BEGIN
 90
        0
 91
        1
 62
     0
 92
       -2
340
0
 93
        0
 40
0.045
309
GRIDFORMAT_END
 95
        8
302
GRIDFORMAT
  1
GRIDFORMAT_BEGIN
 90
        0
 91
        1
 62
     0
 92
       -2
340
0
 93
        0
 40
0.045
309
GRIDFORMAT_END
 95
       16
302
GRIDFORMAT
  1
GRIDFORMAT_BEGIN
 90
        0
 91
        1
 62
     0
 92
       -2
340
0
 93
        0
 40
0.045
309
GRIDFORMAT_END
 95
       32
302
GRIDFORMAT
  1
GRIDFORMAT_BEGIN
 90
        0
 91
        1
 62
     0
 92
       -2
340
0
 93
        0
 40
0.045
309
GRIDFORMAT_END
309
TABLEFORMAT_END
  1
CELLSTYLE_BEGIN
 90
        3
 91
        2
300
_DATA
309
CELLSTYLE_END
  0
XRECORD
  5
3C5F
102
{ACAD_REACTORS
330
104
102
}
330
104
100
AcDbXrecord
280
     1
102
ACAD_ROUNDTRIP_PRE2007_TABLESTYLE
 90
      512
 91
        0
  1

 92
      512
 93
        0
  2

 94
      512
 95
        0
  3

  0
ENDSEC
  0
EOF
