  0
SECTION
  2
HEADER
  9
$ACADVER
  1
AC1015
  9
$ACADMAINTVER
 70
    20
  9
$DWGCODEPAGE
  3
ANSI_1252
  9
$INSBASE
 10
0.0
 20
0.0
 30
0.0
  9
$EXTMIN
 10
-10.21611404502913
 20
13.16162096557514
 30
0.0
  9
$EXTMAX
 10
366.0013923716375
 20
546.1213425655752
 30
0.0
  9
$LIMMIN
 10
0.0
 20
0.0
  9
$LIMMAX
 10
12.0
 20
9.0
  9
$ORTHOMODE
 70
     0
  9
$REGENMODE
 70
     1
  9
$FILLMODE
 70
     1
  9
$QTEXTMODE
 70
     0
  9
$MIRRTEXT
 70
     0
  9
$LTSCALE
 40
1.0
  9
$ATTMODE
 70
     1
  9
$TEXTSIZE
 40
0.2
  9
$TRACEWID
 40
0.05
  9
$TEXTSTYLE
  7
Standard
  9
$CLAYER
  8
0
  9
$CELTYPE
  6
ByLayer
  9
$CECOLOR
 62
   256
  9
$CELTSCALE
 40
1.0
  9
$DISPSILH
 70
     0
  9
$DIMSCALE
 40
1.0
  9
$DIMASZ
 40
0.18
  9
$DIMEXO
 40
0.0625
  9
$DIMDLI
 40
0.38
  9
$DIMRND
 40
0.0
  9
$DIMDLE
 40
0.0
  9
$DIMEXE
 40
0.18
  9
$DIMTP
 40
0.0
  9
$DIMTM
 40
0.0
  9
$DIMTXT
 40
0.18
  9
$DIMCEN
 40
0.09
  9
$DIMTSZ
 40
0.0
  9
$DIMTOL
 70
     0
  9
$DIMLIM
 70
     0
  9
$DIMTIH
 70
     1
  9
$DIMTOH
 70
     1
  9
$DIMSE1
 70
     0
  9
$DIMSE2
 70
     0
  9
$DIMTAD
 70
     0
  9
$DIMZIN
 70
     0
  9
$DIMBLK
  1

  9
$DIMASO
 70
     1
  9
$DIMSHO
 70
     1
  9
$DIMPOST
  1

  9
$DIMAPOST
  1

  9
$DIMALT
 70
     0
  9
$DIMALTD
 70
     2
  9
$DIMALTF
 40
25.4
  9
$DIMLFAC
 40
1.0
  9
$DIMTOFL
 70
     0
  9
$DIMTVP
 40
0.0
  9
$DIMTIX
 70
     0
  9
$DIMSOXD
 70
     0
  9
$DIMSAH
 70
     0
  9
$DIMBLK1
  1

  9
$DIMBLK2
  1

  9
$DIMSTYLE
  2
Standard
  9
$DIMCLRD
 70
     0
  9
$DIMCLRE
 70
     0
  9
$DIMCLRT
 70
     0
  9
$DIMTFAC
 40
1.0
  9
$DIMGAP
 40
0.09
  9
$DIMJUST
 70
     0
  9
$DIMSD1
 70
     0
  9
$DIMSD2
 70
     0
  9
$DIMTOLJ
 70
     1
  9
$DIMTZIN
 70
     0
  9
$DIMALTZ
 70
     0
  9
$DIMALTTZ
 70
     0
  9
$DIMUPT
 70
     0
  9
$DIMDEC
 70
     4
  9
$DIMTDEC
 70
     4
  9
$DIMALTU
 70
     2
  9
$DIMALTTD
 70
     2
  9
$DIMTXSTY
  7
Standard
  9
$DIMAUNIT
 70
     0
  9
$DIMADEC
 70
     0
  9
$DIMALTRND
 40
0.0
  9
$DIMAZIN
 70
     0
  9
$DIMDSEP
 70
    46
  9
$DIMATFIT
 70
     3
  9
$DIMFRAC
 70
     0
  9
$DIMLDRBLK
  1

  9
$DIMLUNIT
 70
     2
  9
$DIMLWD
 70
    -2
  9
$DIMLWE
 70
    -2
  9
$DIMTMOVE
 70
     0
  9
$LUNITS
 70
     2
  9
$LUPREC
 70
     4
  9
$SKETCHINC
 40
0.1
  9
$FILLETRAD
 40
0.0
  9
$AUNITS
 70
     0
  9
$AUPREC
 70
     0
  9
$MENU
  1
.
  9
$ELEVATION
 40
0.0
  9
$PELEVATION
 40
0.0
  9
$THICKNESS
 40
0.0
  9
$LIMCHECK
 70
     0
  9
$CHAMFERA
 40
0.0
  9
$CHAMFERB
 40
0.0
  9
$CHAMFERC
 40
0.0
  9
$CHAMFERD
 40
0.0
  9
$SKPOLY
 70
     0
  9
$TDCREATE
 40
2455511.360042037
  9
$TDUCREATE
 40
2455511.318375371
  9
$TDUPDATE
 40
2455511.360378415
  9
$TDUUPDATE
 40
2455511.318711748
  9
$TDINDWG
 40
0.0003367361
  9
$TDUSRTIMER
 40
0.0003365509
  9
$USRTIMER
 70
     1
  9
$ANGBASE
 50
0.0
  9
$ANGDIR
 70
     0
  9
$PDMODE
 70
     0
  9
$PDSIZE
 40
0.0
  9
$PLINEWID
 40
0.0
  9
$SPLFRAME
 70
     0
  9
$SPLINETYPE
 70
     6
  9
$SPLINESEGS
 70
     8
  9
$HANDSEED
  5
45E
  9
$SURFTAB1
 70
     6
  9
$SURFTAB2
 70
     6
  9
$SURFTYPE
 70
     6
  9
$SURFU
 70
     6
  9
$SURFV
 70
     6
  9
$UCSBASE
  2

  9
$UCSNAME
  2

  9
$UCSORG
 10
0.0
 20
0.0
 30
0.0
  9
$UCSXDIR
 10
1.0
 20
0.0
 30
0.0
  9
$UCSYDIR
 10
0.0
 20
1.0
 30
0.0
  9
$UCSORTHOREF
  2

  9
$UCSORTHOVIEW
 70
     0
  9
$UCSORGTOP
 10
0.0
 20
0.0
 30
0.0
  9
$UCSORGBOTTOM
 10
0.0
 20
0.0
 30
0.0
  9
$UCSORGLEFT
 10
0.0
 20
0.0
 30
0.0
  9
$UCSORGRIGHT
 10
0.0
 20
0.0
 30
0.0
  9
$UCSORGFRONT
 10
0.0
 20
0.0
 30
0.0
  9
$UCSORGBACK
 10
0.0
 20
0.0
 30
0.0
  9
$PUCSBASE
  2

  9
$PUCSNAME
  2

  9
$PUCSORG
 10
0.0
 20
0.0
 30
0.0
  9
$PUCSXDIR
 10
1.0
 20
0.0
 30
0.0
  9
$PUCSYDIR
 10
0.0
 20
1.0
 30
0.0
  9
$PUCSORTHOREF
  2

  9
$PUCSORTHOVIEW
 70
     0
  9
$PUCSORGTOP
 10
0.0
 20
0.0
 30
0.0
  9
$PUCSORGBOTTOM
 10
0.0
 20
0.0
 30
0.0
  9
$PUCSORGLEFT
 10
0.0
 20
0.0
 30
0.0
  9
$PUCSORGRIGHT
 10
0.0
 20
0.0
 30
0.0
  9
$PUCSORGFRONT
 10
0.0
 20
0.0
 30
0.0
  9
$PUCSORGBACK
 10
0.0
 20
0.0
 30
0.0
  9
$USERI1
 70
     0
  9
$USERI2
 70
     0
  9
$USERI3
 70
     0
  9
$USERI4
 70
     0
  9
$USERI5
 70
     0
  9
$USERR1
 40
0.0
  9
$USERR2
 40
0.0
  9
$USERR3
 40
0.0
  9
$USERR4
 40
0.0
  9
$USERR5
 40
0.0
  9
$WORLDVIEW
 70
     1
  9
$SHADEDGE
 70
     3
  9
$SHADEDIF
 70
    70
  9
$TILEMODE
 70
     1
  9
$MAXACTVP
 70
    64
  9
$PINSBASE
 10
0.0
 20
0.0
 30
0.0
  9
$PLIMCHECK
 70
     0
  9
$PEXTMIN
 10
0.0
 20
0.0
 30
0.0
  9
$PEXTMAX
 10
0.0
 20
0.0
 30
0.0
  9
$PLIMMIN
 10
0.0
 20
0.0
  9
$PLIMMAX
 10
12.0
 20
9.0
  9
$UNITMODE
 70
     0
  9
$VISRETAIN
 70
     1
  9
$PLINEGEN
 70
     0
  9
$PSLTSCALE
 70
     1
  9
$TREEDEPTH
 70
  3020
  9
$CMLSTYLE
  2
Standard
  9
$CMLJUST
 70
     0
  9
$CMLSCALE
 40
1.0
  9
$PROXYGRAPHICS
 70
     1
  9
$MEASUREMENT
 70
     0
  9
$CELWEIGHT
370
    -1
  9
$ENDCAPS
280
     0
  9
$JOINSTYLE
280
     0
  9
$LWDISPLAY
290
     0
  9
$INSUNITS
 70
     1
  9
$HYPERLINKBASE
  1

  9
$STYLESHEET
  1

  9
$XEDIT
290
     1
  9
$CEPSNTYPE
380
     0
  9
$PSTYLEMODE
290
     1
  9
$FINGERPRINTGUID
  2
{39502FA2-C6EF-415F-AE67-6BBBCE29A29E}
  9
$VERSIONGUID
  2
{CA93B4E0-7632-44DF-86D1-AF94E0A285E5}
  9
$EXTNAMES
290
     1
  9
$PSVPSCALE
 40
0.0
  9
$OLESTARTUP
290
     0
  0
ENDSEC
  0
SECTION
  2
CLASSES
  0
CLASS
  1
ACDBDICTIONARYWDFLT
  2
AcDbDictionaryWithDefault
  3
ObjectDBX Classes
 90
        0
280
     0
281
     0
  0
CLASS
  1
ACDBPLACEHOLDER
  2
AcDbPlaceHolder
  3
ObjectDBX Classes
 90
        0
280
     0
281
     0
  0
CLASS
  1
LAYOUT
  2
AcDbLayout
  3
ObjectDBX Classes
 90
        0
280
     0
281
     0
  0
CLASS
  1
DICTIONARYVAR
  2
AcDbDictionaryVar
  3
ObjectDBX Classes
 90
        0
280
     0
281
     0
  0
CLASS
  1
TABLESTYLE
  2
AcDbTableStyle
  3
ObjectDBX Classes
 90
     4095
280
     0
281
     0
  0
CLASS
  1
MATERIAL
  2
AcDbMaterial
  3
ObjectDBX Classes
 90
     1153
280
     0
281
     0
  0
CLASS
  1
VISUALSTYLE
  2
AcDbVisualStyle
  3
ObjectDBX Classes
 90
     4095
280
     0
281
     0
  0
CLASS
  1
SCALE
  2
AcDbScale
  3
ObjectDBX Classes
 90
     1153
280
     0
281
     0
  0
CLASS
  1
MLEADERSTYLE
  2
AcDbMLeaderStyle
  3
ACDB_MLEADERSTYLE_CLASS
 90
     4095
280
     0
281
     0
  0
CLASS
  1
CELLSTYLEMAP
  2
AcDbCellStyleMap
  3
ObjectDBX Classes
 90
     1152
280
     0
281
     0
  0
ENDSEC
  0
SECTION
  2
TABLES
  0
TABLE
  2
VPORT
  5
8
330
0
100
AcDbSymbolTable
 70
     1
  0
VPORT
  5
94
330
8
100
AcDbSymbolTableRecord
100
AcDbViewportTableRecord
  2
*Active
 70
     0
 10
0.0
 20
0.0
 11
1.0
 21
1.0
 12
333.3268543016352
 22
291.9473555396074
 13
0.0
 23
0.0
 14
0.5
 24
0.5
 15
0.5
 25
0.5
 16
0.0
 26
0.0
 36
1.0
 17
0.0
 27
0.0
 37
0.0
 40
859.5155336189725
 41
1.148760330578512
 42
50.0
 43
0.0
 44
0.0
 50
0.0
 51
0.0
 71
     0
 72
  1000
 73
     1
 74
     3
 75
     0
 76
     0
 77
     0
 78
     0
281
     0
 65
     1
110
0.0
120
0.0
130
0.0
111
1.0
121
0.0
131
0.0
112
0.0
122
1.0
132
0.0
 79
     0
146
0.0
  0
ENDTAB
  0
TABLE
  2
LTYPE
  5
5
330
0
100
AcDbSymbolTable
 70
     1
  0
LTYPE
  5
14
330
5
100
AcDbSymbolTableRecord
100
AcDbLinetypeTableRecord
  2
ByBlock
 70
     0
  3

 72
    65
 73
     0
 40
0.0
  0
LTYPE
  5
15
330
5
100
AcDbSymbolTableRecord
100
AcDbLinetypeTableRecord
  2
ByLayer
 70
     0
  3

 72
    65
 73
     0
 40
0.0
  0
LTYPE
  5
16
330
5
100
AcDbSymbolTableRecord
100
AcDbLinetypeTableRecord
  2
Continuous
 70
     0
  3
Solid line
 72
    65
 73
     0
 40
0.0
  0
ENDTAB
  0
TABLE
  2
LAYER
  5
2
330
0
100
AcDbSymbolTable
 70
     3
  0
LAYER
  5
10
102
{ACAD_XDICTIONARY
360
E6
102
}
330
2
100
AcDbSymbolTableRecord
100
AcDbLayerTableRecord
  2
0
 70
     0
 62
     7
  6
Continuous
370
    -3
390
F
  0
LAYER
  5
16B
102
{ACAD_XDICTIONARY
360
44A
102
}
330
2
100
AcDbSymbolTableRecord
100
AcDbLayerTableRecord
  2
QUOTE
 70
     0
 62
     7
  6
Continuous
370
    -3
390
F
1001
AcAecLayerStandard
1000

1000

  0
LAYER
  5
40D
330
2
100
AcDbSymbolTableRecord
100
AcDbLayerTableRecord
  2
Defpoints
 70
     0
 62
     7
  6
Continuous
290
     0
370
    -3
390
F
  0
ENDTAB
  0
TABLE
  2
STYLE
  5
3
330
0
100
AcDbSymbolTable
 70
     2
  0
STYLE
  5
11
330
3
100
AcDbSymbolTableRecord
100
AcDbTextStyleTableRecord
  2
Standard
 70
     0
 40
0.0
 41
1.0
 50
0.0
 71
     0
 42
0.2
  3
txt.shx
  4

  0
STYLE
  5
DC
330
3
100
AcDbSymbolTableRecord
100
AcDbTextStyleTableRecord
  2
Annotativa
 70
     0
 40
0.0
 41
1.0
 50
0.0
 71
     0
 42
0.2
  3
txt.shx
  4

1001
AcadAnnotative
1000
AnnotativeData
1002
{
1070
     1
1070
     1
1002
}
  0
ENDTAB
  0
TABLE
  2
VIEW
  5
6
330
0
100
AcDbSymbolTable
 70
     1
  0
ENDTAB
  0
TABLE
  2
UCS
  5
7
330
0
100
AcDbSymbolTable
 70
     0
  0
ENDTAB
  0
TABLE
  2
APPID
  5
9
330
0
100
AcDbSymbolTable
 70
    14
  0
APPID
  5
12
330
9
100
AcDbSymbolTableRecord
100
AcDbRegAppTableRecord
  2
ACAD
 70
     0
  0
APPID
  5
DD
330
9
100
AcDbSymbolTableRecord
100
AcDbRegAppTableRecord
  2
AcadAnnoPO
 70
     0
  0
APPID
  5
DE
330
9
100
AcDbSymbolTableRecord
100
AcDbRegAppTableRecord
  2
AcadAnnotative
 70
     0
  0
APPID
  5
DF
330
9
100
AcDbSymbolTableRecord
100
AcDbRegAppTableRecord
  2
ACAD_DSTYLE_DIMJAG
 70
     0
  0
APPID
  5
E0
330
9
100
AcDbSymbolTableRecord
100
AcDbRegAppTableRecord
  2
ACAD_DSTYLE_DIMTALN
 70
     0
  0
APPID
  5
107
330
9
100
AcDbSymbolTableRecord
100
AcDbRegAppTableRecord
  2
ACAD_MLEADERVER
 70
     0
  0
APPID
  5
16C
330
9
100
AcDbSymbolTableRecord
100
AcDbRegAppTableRecord
  2
VDEXTRAPARAM
 70
     0
  0
APPID
  5
16D
330
9
100
AcDbSymbolTableRecord
100
AcDbRegAppTableRecord
  2
VD_TEMPHATCH
 70
     0
  0
APPID
  5
16E
330
9
100
AcDbSymbolTableRecord
100
AcDbRegAppTableRecord
  2
AcAecLayerStandard
 70
     0
  0
APPID
  5
16F
330
9
100
AcDbSymbolTableRecord
100
AcDbRegAppTableRecord
  2
VD_EX_PRINTER_DWG_STYLE_SHEET
 70
     0
  0
APPID
  5
170
330
9
100
AcDbSymbolTableRecord
100
AcDbRegAppTableRecord
  2
VD_EX_PRINTER_SIZEX
 70
     0
  0
APPID
  5
171
330
9
100
AcDbSymbolTableRecord
100
AcDbRegAppTableRecord
  2
VD_EX_PRINTER_AVSIZEX
 70
     0
  0
APPID
  5
172
330
9
100
AcDbSymbolTableRecord
100
AcDbRegAppTableRecord
  2
VD_EX_PRINTER_SIZEY
 70
     0
  0
APPID
  5
173
330
9
100
AcDbSymbolTableRecord
100
AcDbRegAppTableRecord
  2
VD_EX_PRINTER_AVSIZEY
 70
     0
  0
ENDTAB
  0
TABLE
  2
DIMSTYLE
  5
A
330
0
100
AcDbSymbolTable
 70
     2
100
AcDbDimStyleTable
 71
     2
340
27
340
E1
  0
DIMSTYLE
105
27
102
{ACAD_REACTORS
330
3CD
330
3CE
102
}
330
A
100
AcDbSymbolTableRecord
100
AcDbDimStyleTableRecord
  2
Standard
 70
     0
340
11
  0
DIMSTYLE
105
E1
330
A
100
AcDbSymbolTableRecord
100
AcDbDimStyleTableRecord
  2
Annotativa
 70
     0
 40
0.0
340
11
1001
AcadAnnotative
1000
AnnotativeData
1002
{
1070
     1
1070
     1
1002
}
1001
ACAD_DSTYLE_DIMJAG
1070
   388
1040
1.5
1001
ACAD_DSTYLE_DIMTALN
1070
   392
1070
     0
  0
ENDTAB
  0
TABLE
  2
BLOCK_RECORD
  5
1
330
0
100
AcDbSymbolTable
 70
     7
  0
BLOCK_RECORD
  5
1F
330
1
100
AcDbSymbolTableRecord
100
AcDbBlockTableRecord
  2
*Model_Space
340
22
  0
BLOCK_RECORD
  5
58
330
1
100
AcDbSymbolTableRecord
100
AcDbBlockTableRecord
  2
*Paper_Space
340
59
  0
BLOCK_RECORD
  5
5D
330
1
100
AcDbSymbolTableRecord
100
AcDbBlockTableRecord
  2
*Paper_Space0
340
5E
  0
BLOCK_RECORD
  5
14C
330
1
100
AcDbSymbolTableRecord
100
AcDbBlockTableRecord
  2
VDDIM_DEFAULT
340
0
  0
BLOCK_RECORD
  5
150
330
1
100
AcDbSymbolTableRecord
100
AcDbBlockTableRecord
  2
IB_oriz_NOFUS
340
0
102
{BLKREFS
331
2BB
331
2BC
331
2BD
331
2BE
331
409
331
40A
331
40B
331
40C
102
}
  0
BLOCK_RECORD
  5
15F
330
1
100
AcDbSymbolTableRecord
100
AcDbBlockTableRecord
  2
*D3
340
0
  0
BLOCK_RECORD
  5
40E
330
1
100
AcDbSymbolTableRecord
100
AcDbBlockTableRecord
  2
*D5
340
0
  0
BLOCK_RECORD
  5
41B
330
1
100
AcDbSymbolTableRecord
100
AcDbBlockTableRecord
  2
*D6
340
0
  0
ENDTAB
  0
ENDSEC
  0
SECTION
  2
BLOCKS
  0
BLOCK
  5
20
330
1F
100
AcDbEntity
  8
0
100
AcDbBlockBegin
  2
*Model_Space
 70
     0
 10
0.0
 20
0.0
 30
0.0
  3
*Model_Space
  1

  0
ENDBLK
  5
21
330
1F
100
AcDbEntity
  8
0
100
AcDbBlockEnd
  0
BLOCK
  5
5A
330
58
100
AcDbEntity
 67
     1
  8
0
100
AcDbBlockBegin
  2
*Paper_Space
 70
     0
 10
0.0
 20
0.0
 30
0.0
  3
*Paper_Space
  1

  0
ENDBLK
  5
5B
330
58
100
AcDbEntity
 67
     1
  8
0
100
AcDbBlockEnd
  0
BLOCK
  5
5F
330
5D
100
AcDbEntity
 67
     1
  8
0
100
AcDbBlockBegin
  2
*Paper_Space0
 70
     0
 10
0.0
 20
0.0
 30
0.0
  3
*Paper_Space0
  1

  0
ENDBLK
  5
60
330
5D
100
AcDbEntity
 67
     1
  8
0
100
AcDbBlockEnd
  0
BLOCK
  5
14D
330
14C
100
AcDbEntity
  8
0
100
AcDbBlockBegin
  2
VDDIM_DEFAULT
 70
     0
 10
0.0
 20
0.0
 30
0.0
  3
VDDIM_DEFAULT
  1

  0
HATCH
  5
14E
330
14C
100
AcDbEntity
  8
0
  6
Continuous
 62
     0
370
    -2
100
AcDbHatch
 10
0.0
 20
0.0
 30
0.0
210
0.0
220
0.0
230
-1.0
  2
SOLID
 70
     1
 71
     0
 91
        1
 92
        2
 72
     0
 73
     1
 93
        3
 10
0.0
 20
0.0
 10
1.0
 20
-0.1665
 10
1.0
 20
0.1665
 97
        0
 75
     0
 76
     1
 98
        1
 10
0.0
 20
0.0
  0
ENDBLK
  5
14F
330
14C
100
AcDbEntity
  8
0
100
AcDbBlockEnd
  0
BLOCK
  5
151
330
150
100
AcDbEntity
  8
0
100
AcDbBlockBegin
  2
IB_oriz_NOFUS
 70
     0
 10
0.0
 20
0.0
 30
0.0
  3
IB_oriz_NOFUS
  1

  0
LINE
  5
152
330
150
100
AcDbEntity
  8
0
100
AcDbLine
 10
19.33069545
 20
8.30875821
 30
0.0
 11
160.09270858
 21
8.30875821
 31
0.0
  0
LINE
  5
153
330
150
100
AcDbEntity
  8
0
100
AcDbLine
 10
160.09270858
 20
123.24719062
 30
0.0
 11
19.33069545
 21
123.24719062
 31
0.0
  0
LINE
  5
154
330
150
100
AcDbEntity
  8
0
100
AcDbLine
 10
12.20755871
 20
15.43189496
 30
0.0
 11
12.20755871
 21
116.12405388
 31
0.0
  0
ARC
  5
155
330
150
100
AcDbEntity
  8
0
100
AcDbCircle
 10
19.33069545
 20
15.43189496
 30
0.0
 40
7.123136749999999
100
AcDbArc
 50
180.0
 51
270.0
  0
CIRCLE
  5
156
330
150
100
AcDbEntity
  8
0
100
AcDbCircle
 10
19.33069545
 20
15.43189496
 30
0.0
 40
2.58835439
  0
ARC
  5
157
330
150
100
AcDbEntity
  8
0
100
AcDbCircle
 10
19.33069545
 20
116.12405388
 30
0.0
 40
7.123136749999999
100
AcDbArc
 50
90.0
 51
180.0
  0
CIRCLE
  5
158
330
150
100
AcDbEntity
  8
0
100
AcDbCircle
 10
19.33069545
 20
116.12405388
 30
0.0
 40
2.58835439
  0
LINE
  5
159
330
150
100
AcDbEntity
  8
0
100
AcDbLine
 10
167.21584532
 20
15.43189496
 30
0.0
 11
167.21584532
 21
116.12405388
 31
0.0
  0
CIRCLE
  5
15A
330
150
100
AcDbEntity
  8
0
100
AcDbCircle
 10
160.09270858
 20
15.43189496
 30
0.0
 40
2.58835439
  0
ARC
  5
15B
330
150
100
AcDbEntity
  8
0
100
AcDbCircle
 10
160.09270858
 20
15.43189496
 30
0.0
 40
7.123136749999999
100
AcDbArc
 50
270.0
 51
0.0
  0
CIRCLE
  5
15C
330
150
100
AcDbEntity
  8
0
100
AcDbCircle
 10
160.09270858
 20
116.12405388
 30
0.0
 40
2.58835439
  0
ARC
  5
15D
330
150
100
AcDbEntity
  8
0
100
AcDbCircle
 10
160.09270858
 20
116.12405388
 30
0.0
 40
7.123136749999999
100
AcDbArc
 50
0.0
 51
90.0
  0
ENDBLK
  5
15E
330
150
100
AcDbEntity
  8
0
100
AcDbBlockEnd
  0
BLOCK
  5
160
330
15F
100
AcDbEntity
  8
0
100
AcDbBlockBegin
  2
*D3
 70
     0
 10
0.0
 20
0.0
 30
0.0
  3
*D3
  1

  0
LINE
  5
161
330
15F
100
AcDbEntity
  8
QUOTE
 62
     7
100
AcDbLine
 10
340.87410625
 20
-127.23099548
 30
0.0
 11
340.87410625
 21
-161.30581575
 31
0.0
  0
LINE
  5
162
330
15F
100
AcDbEntity
  8
QUOTE
 62
     7
100
AcDbLine
 10
20.87410625
 20
-127.16612515
 30
0.0
 11
20.87410625
 21
-161.30581575
 31
0.0
  0
LINE
  5
163
330
15F
100
AcDbEntity
  8
QUOTE
 62
     7
100
AcDbLine
 10
325.87410625
 20
-161.12581575
 30
0.0
 11
193.80893576
 21
-161.12581575
 31
0.0
  0
LINE
  5
164
330
15F
100
AcDbEntity
  8
QUOTE
 62
     7
100
AcDbLine
 10
35.87410625
 20
-161.12581575
 30
0.0
 11
168.62893576
 21
-161.12581575
 31
0.0
  0
LWPOLYLINE
  5
165
102
{ACAD_REACTORS
330
166
102
}
330
15F
100
AcDbEntity
  8
QUOTE
 62
     7
100
AcDbPolyline
 90
        3
 70
     1
 43
0.0
 10
325.87410625
 20
-158.62581575
 10
325.87410625
 20
-163.62581575
 10
340.87410625
 20
-161.12581575
  0
HATCH
  5
166
330
15F
100
AcDbEntity
  8
QUOTE
 62
     7
100
AcDbHatch
 10
0.0
 20
0.0
 30
0.0
210
0.0
220
0.0
230
1.0
  2
SOLID
 70
     1
 71
     1
 91
        1
 92
        2
 72
     0
 73
     1
 93
        3
 10
325.87410625
 20
-158.62581575
 10
325.87410625
 20
-163.62581575
 10
340.87410625
 20
-161.12581575
 97
        1
330
165
 75
     0
 76
     1
 98
        1
 10
0.0
 20
0.0
1001
VD_TEMPHATCH
1000
VD_TEMPHATCH
  0
LWPOLYLINE
  5
167
102
{ACAD_REACTORS
330
168
102
}
330
15F
100
AcDbEntity
  8
QUOTE
 62
     7
100
AcDbPolyline
 90
        3
 70
     1
 43
0.0
 10
35.87410625
 20
-158.62581575
 10
35.87410625
 20
-163.62581575
 10
20.87410625
 20
-161.12581575
  0
HATCH
  5
168
330
15F
100
AcDbEntity
  8
QUOTE
 62
     7
100
AcDbHatch
 10
0.0
 20
0.0
 30
0.0
210
0.0
220
0.0
230
1.0
  2
SOLID
 70
     1
 71
     1
 91
        1
 92
        2
 72
     0
 73
     1
 93
        3
 10
35.87410625
 20
-158.62581575
 10
35.87410625
 20
-163.62581575
 10
20.87410625
 20
-161.12581575
 97
        1
330
167
 75
     0
 76
     1
 98
        1
 10
0.0
 20
0.0
1001
VD_TEMPHATCH
1000
VD_TEMPHATCH
  0
MTEXT
  5
169
330
15F
100
AcDbEntity
  8
QUOTE
 62
     7
100
AcDbMText
 10
181.21893576
 20
-161.12581575
 30
0.0
 40
10.0
 41
22.31652145
 71
     5
 72
     1
  1
\A1;320
 73
     1
 44
1.0
1001
ACAD
1000
MTEXTBEGIN
1070
    73
1070
     1
1070
    44
1040
1.0
1070
    74
1070
     0
1000
MTEXTEND
  0
ENDBLK
  5
16A
330
15F
100
AcDbEntity
  8
0
100
AcDbBlockEnd
  0
BLOCK
  5
40F
330
40E
100
AcDbEntity
  8
0
100
AcDbBlockBegin
  2
*D5
 70
     1
 10
0.0
 20
0.0
 30
0.0
  3
*D5
  1

  0
LINE
  5
43F
330
40E
100
AcDbEntity
  8
QUOTE
 62
     0
370
    -2
100
AcDbLine
 10
61.93889237163752
 20
546.0658005655751
 30
0.0
 11
23.77055262163763
 21
546.0658005655751
 31
0.0
  0
LINE
  5
440
330
40E
100
AcDbEntity
  8
QUOTE
 62
     0
370
    -2
100
AcDbLine
 10
62.00139237163752
 20
36.12131156557513
 30
0.0
 11
23.77055262163751
 21
36.12131156557513
 31
0.0
  0
LINE
  5
441
330
40E
100
AcDbEntity
  8
QUOTE
 62
     0
370
    -2
100
AcDbLine
 10
23.95055262163763
 20
531.0658005655751
 30
0.0
 11
23.95055262163758
 21
296.0900774755751
 31
0.0
  0
LINE
  5
442
330
40E
100
AcDbEntity
  8
QUOTE
 62
     0
370
    -2
100
AcDbLine
 10
23.95055262163752
 20
51.12131156557513
 30
0.0
 11
23.95055262163757
 21
285.9100774755752
 31
0.0
  0
SOLID
  5
443
330
40E
100
AcDbEntity
  8
QUOTE
 62
     0
100
AcDbTrace
 10
21.45055262163763
 20
531.0658005655751
 30
0.0
 11
26.45055262163763
 21
531.0658005655751
 31
0.0
 12
23.95055262163763
 22
546.0658005655751
 32
0.0
 13
23.95055262163763
 23
546.0658005655751
 33
0.0
  0
SOLID
  5
444
330
40E
100
AcDbEntity
  8
QUOTE
 62
     0
100
AcDbTrace
 10
21.45055262163752
 20
51.12131156557513
 30
0.0
 11
26.45055262163752
 21
51.12131156557513
 31
0.0
 12
23.95055262163752
 22
36.12131156557513
 32
0.0
 13
23.95055262163752
 23
36.12131156557513
 33
0.0
  0
MTEXT
  5
445
330
40E
100
AcDbEntity
  8
QUOTE
 62
     0
100
AcDbMText
 10
23.95055262163753
 20
291.0000774755752
 30
0.0
 40
10.0
 41
0.0
 71
     5
 72
     1
  1
\A1;510
 73
     1
 44
1.0
1001
ACAD
1000
MTEXTBEGIN
1070
    73
1070
     1
1070
    44
1040
1.0
1070
    74
1070
     0
1000
MTEXTEND
  0
POINT
  5
446
330
40E
100
AcDbEntity
  8
Defpoints
 62
     0
100
AcDbPoint
 10
62.00139237163752
 20
546.0658005655751
 30
0.0
  0
POINT
  5
447
330
40E
100
AcDbEntity
  8
Defpoints
 62
     0
100
AcDbPoint
 10
62.06389237163752
 20
36.12131156557513
 30
0.0
  0
POINT
  5
448
330
40E
100
AcDbEntity
  8
Defpoints
 62
     0
100
AcDbPoint
 10
23.95055262163752
 20
36.12131156557513
 30
0.0
  0
ENDBLK
  5
410
330
40E
100
AcDbEntity
  8
0
100
AcDbBlockEnd
  0
BLOCK
  5
41C
330
41B
100
AcDbEntity
  8
0
100
AcDbBlockBegin
  2
*D6
 70
     1
 10
0.0
 20
0.0
 30
0.0
  3
*D6
  1

  0
LINE
  5
432
330
41B
100
AcDbEntity
  8
QUOTE
 62
     0
370
    -2
100
AcDbLine
 10
366.0013923716375
 20
52.05644123557512
 30
0.0
 11
366.0013923716375
 21
17.98162096557514
 31
0.0
  0
LINE
  5
433
330
41B
100
AcDbEntity
  8
QUOTE
 62
     0
370
    -2
100
AcDbLine
 10
46.00139237163752
 20
52.12131156557513
 30
0.0
 11
46.00139237163752
 21
17.98162096557514
 31
0.0
  0
LINE
  5
434
330
41B
100
AcDbEntity
  8
QUOTE
 62
     0
370
    -2
100
AcDbLine
 10
351.0013923716375
 20
18.16162096557514
 30
0.0
 11
218.9362218816375
 21
18.16162096557514
 31
0.0
  0
LINE
  5
435
330
41B
100
AcDbEntity
  8
QUOTE
 62
     0
370
    -2
100
AcDbLine
 10
61.00139237163752
 20
18.16162096557514
 30
0.0
 11
193.7562218816375
 21
18.16162096557514
 31
0.0
  0
SOLID
  5
436
330
41B
100
AcDbEntity
  8
QUOTE
 62
     0
100
AcDbTrace
 10
351.0013923716375
 20
20.66162096557514
 30
0.0
 11
351.0013923716375
 21
15.66162096557514
 31
0.0
 12
366.0013923716375
 22
18.16162096557514
 32
0.0
 13
366.0013923716375
 23
18.16162096557514
 33
0.0
  0
SOLID
  5
437
330
41B
100
AcDbEntity
  8
QUOTE
 62
     0
100
AcDbTrace
 10
61.00139237163752
 20
20.66162096557514
 30
0.0
 11
61.00139237163752
 21
15.66162096557514
 31
0.0
 12
46.00139237163752
 22
18.16162096557514
 32
0.0
 13
46.00139237163752
 23
18.16162096557514
 33
0.0
  0
MTEXT
  5
438
330
41B
100
AcDbEntity
  8
QUOTE
 62
     0
100
AcDbMText
 10
206.3462218816375
 20
18.16162096557514
 30
0.0
 40
10.0
 41
0.0
 71
     5
 72
     1
  1
\A1;320
 73
     1
 44
1.0
1001
ACAD
1000
MTEXTBEGIN
1070
    73
1070
     1
1070
    44
1040
1.0
1070
    74
1070
     0
1000
MTEXTEND
  0
POINT
  5
439
330
41B
100
AcDbEntity
  8
Defpoints
 62
     0
100
AcDbPoint
 10
366.0013923716375
 20
52.11894123557512
 30
0.0
  0
POINT
  5
43A
330
41B
100
AcDbEntity
  8
Defpoints
 62
     0
100
AcDbPoint
 10
46.00139237163752
 20
52.18381156557512
 30
0.0
  0
POINT
  5
43B
330
41B
100
AcDbEntity
  8
Defpoints
 62
     0
100
AcDbPoint
 10
46.00139237163752
 20
18.16162096557514
 30
0.0
  0
ENDBLK
  5
41D
330
41B
100
AcDbEntity
  8
0
100
AcDbBlockEnd
  0
ENDSEC
  0
SECTION
  2
ENTITIES
  0
LINE
  5
2C3
330
1F
100
AcDbEntity
  8
0
 62
   253
370
    35
100
AcDbLine
 10
150.5013923716375
 20
378.5501755655752
 30
0.0
 11
261.5013923716375
 21
378.6196635655751
 31
0.0
  0
ARC
  5
2C4
330
1F
100
AcDbEntity
  8
0
 62
   253
370
    35
100
AcDbCircle
 10
206.0121343716375
 20
366.5860335655751
 30
0.0
 40
10.452045
100
AcDbArc
 50
0.0
 51
232.8935809999999
  0
ARC
  5
2C5
330
1F
100
AcDbEntity
  8
0
 62
   253
370
    35
100
AcDbCircle
 10
206.0121343716375
 20
366.5860335655751
 30
0.0
 40
10.452045
100
AcDbArc
 50
303.2396360000002
 51
0.0
  0
LINE
  5
2C6
330
1F
100
AcDbEntity
  8
0
 62
   253
370
    35
100
AcDbLine
 10
61.71013237163752
 20
477.3187295655751
 30
0.0
 11
61.71013237163752
 21
356.4298745655751
 31
0.0
  0
LINE
  5
2C7
330
1F
100
AcDbEntity
  8
0
 62
   253
370
    35
100
AcDbLine
 10
350.2927133716375
 20
477.3187295655751
 30
0.0
 11
350.2927133716375
 21
356.4298745655751
 31
0.0
  0
ARC
  5
2C8
330
1F
100
AcDbEntity
  8
0
 62
   253
370
    35
100
AcDbCircle
 10
64.70994937163752
 20
477.3188515655751
 30
0.0
 40
2.999829999999999
100
AcDbArc
 50
89.99901200000001
 51
180.0009919999999
  0
ARC
  5
2C9
330
1F
100
AcDbEntity
  8
0
 62
   253
370
    35
100
AcDbCircle
 10
64.70994937163752
 20
356.4298445655752
 30
0.0
 40
2.999829999999999
100
AcDbArc
 50
179.9990080000001
 51
270.000988
  0
LINE
  5
2CA
330
1F
100
AcDbEntity
  8
0
 62
     7
370
    13
100
AcDbLine
 10
362.0955693716376
 20
64.81862356557512
 30
0.0
 11
49.90727637163752
 21
64.81862356557512
 31
0.0
  0
LINE
  5
2CB
330
1F
100
AcDbEntity
  8
0
 62
     7
370
    13
100
AcDbLine
 10
362.0955693716376
 20
517.4240155655751
 30
0.0
 11
49.90727637163752
 21
517.4240155655751
 31
0.0
  0
LINE
  5
2CC
330
1F
100
AcDbEntity
  8
0
 62
   253
370
    35
100
AcDbLine
 10
64.71001037163752
 20
480.3186685655751
 30
0.0
 11
347.2928353716376
 21
480.3186685655751
 31
0.0
  0
ARC
  5
2CD
330
1F
100
AcDbEntity
  8
0
 62
   253
370
    35
100
AcDbCircle
 10
347.2928963716376
 20
477.3188515655751
 30
0.0
 40
2.999829999999999
100
AcDbArc
 50
359.9990140000004
 51
90.00098600000002
  0
ARC
  5
2CE
330
1F
100
AcDbEntity
  8
0
 62
   253
370
    35
100
AcDbCircle
 10
347.2928963716376
 20
356.4298445655752
 30
0.0
 40
2.999829999999999
100
AcDbArc
 50
269.999014
 51
0.0009859999996218
  0
LINE
  5
2CF
330
1F
100
AcDbEntity
  8
0
 62
   253
370
    35
100
AcDbLine
 10
64.71001037163752
 20
353.4299965655752
 30
0.0
 11
347.2928353716376
 21
353.4299965655752
 31
0.0
  0
ARC
  5
2D0
330
1F
100
AcDbEntity
  8
0
 62
     7
370
    35
100
AcDbCircle
 10
347.5013923716375
 20
504.3272745655752
 30
0.0
 40
2.0
100
AcDbArc
 50
0.0
 51
90.0
  0
LINE
  5
2D1
330
1F
100
AcDbEntity
  8
0
 62
     7
 48
0.45
370
    35
100
AcDbLine
 10
349.5013923716375
 20
504.3272745655752
 30
0.0
 11
349.5013923716375
 21
486.3272745655751
 31
0.0
  0
ARC
  5
2D2
330
1F
100
AcDbEntity
  8
0
 62
     7
370
    35
100
AcDbCircle
 10
347.5013923716375
 20
486.3272745655751
 30
0.0
 40
2.0
100
AcDbArc
 50
270.0
 51
0.0
  0
LINE
  5
2D3
330
1F
100
AcDbEntity
  8
0
 62
     7
370
    35
100
AcDbLine
 10
302.5013923716375
 20
484.3272745655752
 30
0.0
 11
347.5013923716375
 21
484.3272745655752
 31
0.0
  0
ARC
  5
2D4
330
1F
100
AcDbEntity
  8
0
 62
     7
370
    35
100
AcDbCircle
 10
302.5013923716375
 20
486.3272745655751
 30
0.0
 40
2.0
100
AcDbArc
 50
180.0
 51
270.0
  0
LINE
  5
2D5
330
1F
100
AcDbEntity
  8
0
 62
     7
 48
0.45
370
    35
100
AcDbLine
 10
300.5013923716375
 20
486.3272745655751
 30
0.0
 11
300.5013923716375
 21
504.3272745655752
 31
0.0
  0
ARC
  5
2D6
330
1F
100
AcDbEntity
  8
0
 62
     7
370
    35
100
AcDbCircle
 10
302.5013923716375
 20
504.3272745655752
 30
0.0
 40
2.0
100
AcDbArc
 50
90.0
 51
180.0
  0
LINE
  5
2D7
330
1F
100
AcDbEntity
  8
0
 62
     7
370
    35
100
AcDbLine
 10
347.5013923716375
 20
506.3272745655751
 30
0.0
 11
302.5013923716375
 21
506.3272745655751
 31
0.0
  0
CIRCLE
  5
2D8
330
1F
100
AcDbEntity
  8
0
 62
     7
370
    35
100
AcDbCircle
 10
350.0013923716375
 20
321.1213115655752
 30
0.0
 40
9.352035
  0
CIRCLE
  5
2D9
330
1F
100
AcDbEntity
  8
0
 62
     7
370
    35
100
AcDbCircle
 10
62.00139237163752
 20
321.1213115655752
 30
0.0
 40
9.352035
  0
ARC
  5
2DA
330
1F
100
AcDbEntity
  8
0
 62
     7
370
    35
100
AcDbCircle
 10
350.0013923716375
 20
52.12131156557513
 30
0.0
 40
16.0
100
AcDbArc
 50
270.0
 51
337.0910520000002
  0
LINE
  5
2DB
330
1F
100
AcDbEntity
  8
0
 62
     7
370
    35
100
AcDbLine
 10
62.00139237163752
 20
36.12131156557513
 30
0.0
 11
350.0013923716375
 21
36.12131156557513
 31
0.0
  0
ARC
  5
2DC
330
1F
100
AcDbEntity
  8
0
 62
     7
370
    35
100
AcDbCircle
 10
62.00139237163752
 20
52.12131156557513
 30
0.0
 40
16.0
100
AcDbArc
 50
202.9089409999996
 51
270.0
  0
LINE
  5
2DD
330
1F
100
AcDbEntity
  8
0
 62
     7
 48
0.001465
370
    35
100
AcDbLine
 10
363.4376713716375
 20
58.22038656557513
 30
0.0
 11
363.4791143716375
 21
58.26184556557513
 31
0.0
  0
LINE
  5
2DE
330
1F
100
AcDbEntity
  8
0
 62
     7
 48
0.011675
370
    35
100
AcDbLine
 10
364.4790533716375
 20
58.27679856557512
 30
0.0
 11
364.9460333716376
 21
58.27916356557513
 31
0.0
  0
LINE
  5
2DF
330
1F
100
AcDbEntity
  8
0
 62
     7
 48
0.00196
370
    35
100
AcDbLine
 10
366.0013923716375
 20
58.34959856557512
 30
0.0
 11
365.9459723716375
 21
58.29411756557512
 31
0.0
  0
LINE
  5
2E0
330
1F
100
AcDbEntity
  8
0
 62
     7
 48
0.001665
370
    35
100
AcDbLine
 10
364.7394293716375
 20
45.89302456557513
 30
0.0
 11
364.7025643716375
 21
45.94850556557512
 31
0.0
  0
LINE
  5
2E1
330
1F
100
AcDbEntity
  8
0
 62
     7
 48
0.015674
370
    35
100
AcDbLine
 10
363.6183963716376
 20
45.96345956557513
 30
0.0
 11
362.9914433716375
 21
45.96634356557513
 31
0.0
  0
LINE
  5
2E2
330
1F
100
AcDbEntity
  8
0
 62
     7
 48
0.001155
370
    35
100
AcDbLine
 10
361.8632083716375
 20
45.98140356557514
 30
0.0
 11
361.8398933716376
 21
46.02130556557511
 31
0.0
  0
LINE
  5
2E3
330
1F
100
AcDbEntity
  8
0
 62
     7
 48
0.000026
370
    35
100
AcDbLine
 10
361.8398933716376
 20
46.02130556557511
 30
0.0
 11
361.8394053716376
 21
46.02223656557512
 31
0.0
  0
LINE
  5
2E4
330
1F
100
AcDbEntity
  8
0
 62
     7
370
    35
100
AcDbLine
 10
366.0013923716375
 20
314.8930405655751
 30
0.0
 11
366.0013923716375
 21
58.34959856557512
 31
0.0
  0
LINE
  5
2E5
330
1F
100
AcDbEntity
  8
0
 62
     7
 48
0.001466
370
    35
100
AcDbLine
 10
363.4376713716375
 20
327.2203715655752
 30
0.0
 11
363.4791143716375
 21
327.2618455655752
 31
0.0
  0
LINE
  5
2E6
330
1F
100
AcDbEntity
  8
0
 62
     7
 48
0.011675
370
    35
100
AcDbLine
 10
364.4790533716375
 20
327.2767985655752
 30
0.0
 11
364.9460333716376
 21
327.2791485655752
 31
0.0
  0
LINE
  5
2E7
330
1F
100
AcDbEntity
  8
0
 62
     7
 48
0.00196
370
    35
100
AcDbLine
 10
366.0013923716375
 20
327.3496135655752
 30
0.0
 11
365.9459723716375
 21
327.2941325655752
 31
0.0
  0
LINE
  5
2E8
330
1F
100
AcDbEntity
  8
0
 62
     7
 48
0.00196
370
    35
100
AcDbLine
 10
366.0013923716375
 20
314.8930405655751
 30
0.0
 11
365.9459723716375
 21
314.9484905655752
 31
0.0
  0
LINE
  5
2E9
330
1F
100
AcDbEntity
  8
0
 62
     7
 48
0.011675
370
    35
100
AcDbLine
 10
364.4790533716375
 20
314.9658245655752
 30
0.0
 11
364.9460333716376
 21
314.9634745655751
 31
0.0
  0
LINE
  5
2EA
330
1F
100
AcDbEntity
  8
0
 62
     7
 48
0.001466
370
    35
100
AcDbLine
 10
363.4376713716375
 20
315.0222515655752
 30
0.0
 11
363.4791143716375
 21
314.9807785655752
 31
0.0
  0
LINE
  5
2EB
330
1F
100
AcDbEntity
  8
0
 62
     7
370
    35
100
AcDbLine
 10
366.0013923716375
 20
523.893009565575
 30
0.0
 11
366.0013923716375
 21
327.3496135655752
 31
0.0
  0
LINE
  5
2EC
330
1F
100
AcDbEntity
  8
0
 62
     7
 48
0.000026
370
    35
100
AcDbLine
 10
361.8398933716376
 20
536.221317565575
 30
0.0
 11
361.8394053716376
 21
536.2204025655752
 31
0.0
  0
LINE
  5
2ED
330
1F
100
AcDbEntity
  8
0
 62
     7
 48
0.001156
370
    35
100
AcDbLine
 10
361.8398933716376
 20
536.221317565575
 30
0.0
 11
361.8632083716375
 21
536.2612345655751
 31
0.0
  0
LINE
  5
2EE
330
1F
100
AcDbEntity
  8
0
 62
     7
 48
0.015674
370
    35
100
AcDbLine
 10
362.9914433716375
 20
536.2762495655751
 30
0.0
 11
363.6183963716376
 21
536.2791795655751
 31
0.0
  0
LINE
  5
2EF
330
1F
100
AcDbEntity
  8
0
 62
     7
 48
0.001665
370
    35
100
AcDbLine
 10
364.7025643716375
 20
536.2941325655752
 30
0.0
 11
364.7394293716375
 21
536.3496135655752
 31
0.0
  0
LINE
  5
2F0
330
1F
100
AcDbEntity
  8
0
 62
     7
 48
0.00196
370
    35
100
AcDbLine
 10
366.0013923716375
 20
523.893009565575
 30
0.0
 11
365.9459723716375
 21
523.948490565575
 31
0.0
  0
LINE
  5
2F1
330
1F
100
AcDbEntity
  8
0
 62
     7
 48
0.011675
370
    35
100
AcDbLine
 10
364.4790533716375
 20
523.9658245655751
 30
0.0
 11
364.9460333716376
 21
523.9634445655751
 31
0.0
  0
LINE
  5
2F2
330
1F
100
AcDbEntity
  8
0
 62
     7
 48
0.001465
370
    35
100
AcDbLine
 10
363.4376713716375
 20
524.0222215655751
 30
0.0
 11
363.4791143716375
 21
523.9807785655751
 31
0.0
  0
ARC
  5
2F3
330
1F
100
AcDbEntity
  8
0
 62
     7
370
    35
100
AcDbCircle
 10
62.00139237163752
 20
530.1213425655752
 30
0.0
 40
16.0
100
AcDbArc
 50
90.0
 51
157.0910590000004
  0
LINE
  5
2F4
330
1F
100
AcDbEntity
  8
0
 62
     7
370
    35
100
AcDbLine
 10
350.0013923716375
 20
546.1213425655752
 30
0.0
 11
62.00139237163752
 21
546.1213425655752
 31
0.0
  0
ARC
  5
2F5
330
1F
100
AcDbEntity
  8
0
 62
     7
370
    35
100
AcDbCircle
 10
350.0013923716375
 20
530.1213425655752
 30
0.0
 40
16.0
100
AcDbArc
 50
22.90894799999983
 51
90.0
  0
LINE
  5
2F6
330
1F
100
AcDbEntity
  8
0
 62
     7
 48
0.001465
370
    35
100
AcDbLine
 10
48.56517437163752
 20
524.0222215655751
 30
0.0
 11
48.52373137163752
 21
523.9807785655751
 31
0.0
  0
LINE
  5
2F7
330
1F
100
AcDbEntity
  8
0
 62
     7
 48
0.011675
370
    35
100
AcDbLine
 10
47.52379237163752
 20
523.9658245655751
 30
0.0
 11
47.05681237163751
 21
523.9634445655751
 31
0.0
  0
LINE
  5
2F8
330
1F
100
AcDbEntity
  8
0
 62
     7
 48
0.001962
370
    35
100
AcDbLine
 10
46.00139237163752
 20
523.893009565575
 30
0.0
 11
46.05687337163752
 21
523.948490565575
 31
0.0
  0
LINE
  5
2F9
330
1F
100
AcDbEntity
  8
0
 62
     7
 48
0.001664
370
    35
100
AcDbLine
 10
47.26341637163752
 20
536.3496135655752
 30
0.0
 11
47.30022037163752
 21
536.2941325655752
 31
0.0
  0
LINE
  5
2FA
330
1F
100
AcDbEntity
  8
0
 62
     7
 48
0.015674
370
    35
100
AcDbLine
 10
48.38444937163753
 20
536.2791795655751
 30
0.0
 11
49.01140237163753
 21
536.2762495655751
 31
0.0
  0
LINE
  5
2FB
330
1F
100
AcDbEntity
  8
0
 62
     7
 48
0.001156
370
    35
100
AcDbLine
 10
50.13957637163752
 20
536.2612345655751
 30
0.0
 11
50.16289137163752
 21
536.221317565575
 31
0.0
  0
LINE
  5
2FC
330
1F
100
AcDbEntity
  8
0
 62
     7
 48
0.000027
370
    35
100
AcDbLine
 10
50.16289137163752
 20
536.221317565575
 30
0.0
 11
50.16344037163752
 21
536.2204025655752
 31
0.0
  0
LINE
  5
2FD
330
1F
100
AcDbEntity
  8
0
 62
     7
370
    35
100
AcDbLine
 10
46.00139237163752
 20
327.3496135655752
 30
0.0
 11
46.00139237163752
 21
523.893009565575
 31
0.0
  0
LINE
  5
2FE
330
1F
100
AcDbEntity
  8
0
 62
     7
 48
0.001466
370
    35
100
AcDbLine
 10
48.56517437163752
 20
315.0222515655752
 30
0.0
 11
48.52373137163752
 21
314.9807785655752
 31
0.0
  0
LINE
  5
2FF
330
1F
100
AcDbEntity
  8
0
 62
     7
 48
0.011675
370
    35
100
AcDbLine
 10
47.52379237163752
 20
314.9658245655752
 30
0.0
 11
47.05681237163751
 21
314.9634745655751
 31
0.0
  0
LINE
  5
300
330
1F
100
AcDbEntity
  8
0
 62
     7
 48
0.001961
370
    35
100
AcDbLine
 10
46.00139237163752
 20
314.8930405655751
 30
0.0
 11
46.05687337163752
 21
314.9484905655752
 31
0.0
  0
LINE
  5
301
330
1F
100
AcDbEntity
  8
0
 62
     7
 48
0.001962
370
    35
100
AcDbLine
 10
46.00139237163752
 20
327.3496135655752
 30
0.0
 11
46.05687337163752
 21
327.2941325655752
 31
0.0
  0
LINE
  5
302
330
1F
100
AcDbEntity
  8
0
 62
     7
 48
0.011675
370
    35
100
AcDbLine
 10
47.52379237163752
 20
327.2767985655752
 30
0.0
 11
47.05681237163751
 21
327.2791485655752
 31
0.0
  0
LINE
  5
303
330
1F
100
AcDbEntity
  8
0
 62
     7
 48
0.001466
370
    35
100
AcDbLine
 10
48.56517437163752
 20
327.2203715655752
 30
0.0
 11
48.52373137163752
 21
327.2618455655752
 31
0.0
  0
LINE
  5
304
330
1F
100
AcDbEntity
  8
0
 62
     7
370
    35
100
AcDbLine
 10
46.00139237163752
 20
58.34959856557512
 30
0.0
 11
46.00139237163752
 21
314.8930405655751
 31
0.0
  0
LINE
  5
305
330
1F
100
AcDbEntity
  8
0
 62
     7
 48
0.000027
370
    35
100
AcDbLine
 10
50.16289137163752
 20
46.02130556557511
 30
0.0
 11
50.16344037163752
 21
46.02223656557512
 31
0.0
  0
LINE
  5
306
330
1F
100
AcDbEntity
  8
0
 62
     7
 48
0.001155
370
    35
100
AcDbLine
 10
50.16289137163752
 20
46.02130556557511
 30
0.0
 11
50.13957637163752
 21
45.98140356557514
 31
0.0
  0
LINE
  5
307
330
1F
100
AcDbEntity
  8
0
 62
     7
 48
0.015674
370
    35
100
AcDbLine
 10
49.01140237163753
 20
45.96634356557513
 30
0.0
 11
48.38444937163753
 21
45.96345956557513
 31
0.0
  0
LINE
  5
308
330
1F
100
AcDbEntity
  8
0
 62
     7
 48
0.001664
370
    35
100
AcDbLine
 10
47.30022037163752
 20
45.94850556557512
 30
0.0
 11
47.26341637163752
 21
45.89302456557513
 31
0.0
  0
LINE
  5
309
330
1F
100
AcDbEntity
  8
0
 62
     7
 48
0.001962
370
    35
100
AcDbLine
 10
46.00139237163752
 20
58.34959856557512
 30
0.0
 11
46.05687337163752
 21
58.29411756557512
 31
0.0
  0
LINE
  5
30A
330
1F
100
AcDbEntity
  8
0
 62
     7
 48
0.011675
370
    35
100
AcDbLine
 10
47.52379237163752
 20
58.27679856557512
 30
0.0
 11
47.05681237163751
 21
58.27916356557513
 31
0.0
  0
LINE
  5
30B
330
1F
100
AcDbEntity
  8
0
 62
     7
 48
0.001465
370
    35
100
AcDbLine
 10
48.56517437163752
 20
58.22038656557513
 30
0.0
 11
48.52373137163752
 21
58.26184556557513
 31
0.0
  0
LINE
  5
30C
330
1F
100
AcDbEntity
  8
0
 62
     7
 48
0.024998
370
    35
100
AcDbLine
 10
362.0955693716376
 20
64.81862356557512
 30
0.0
 11
363.0955083716375
 21
64.81862356557512
 31
0.0
  0
LINE
  5
30D
330
1F
100
AcDbEntity
  8
0
 62
     7
 48
0.024998
370
    35
100
AcDbLine
 10
362.0955693716376
 20
517.4240155655751
 30
0.0
 11
363.0955083716375
 21
517.4240155655751
 31
0.0
  0
LINE
  5
30E
330
1F
100
AcDbEntity
  8
0
 62
     7
 48
0.025
370
    35
100
AcDbLine
 10
49.90727637163752
 20
517.4240155655751
 30
0.0
 11
48.90727637163752
 21
517.4240155655751
 31
0.0
  0
LINE
  5
30F
330
1F
100
AcDbEntity
  8
0
 62
     7
 48
0.025
370
    35
100
AcDbLine
 10
49.90727637163752
 20
64.81862356557512
 30
0.0
 11
48.90727637163752
 21
64.81862356557512
 31
0.0
  0
LINE
  5
310
330
1F
100
AcDbEntity
  8
0
 62
     7
 48
0.001387
370
    35
100
AcDbLine
 10
62.00139237163752
 20
36.17679256557511
 30
0.0
 11
62.00139237163752
 21
36.12131156557513
 31
0.0
  0
LINE
  5
311
330
1F
100
AcDbEntity
  8
0
 62
     7
 48
0.001387
370
    35
100
AcDbLine
 10
350.0013923716375
 20
36.17679256557511
 30
0.0
 11
350.0013923716375
 21
36.12131156557513
 31
0.0
  0
LINE
  5
312
330
1F
100
AcDbEntity
  8
0
 62
     7
370
    35
100
AcDbLine
 10
363.4791143716375
 20
327.2618455655752
 30
0.0
 11
363.4791143716375
 21
523.9807785655751
 31
0.0
  0
LINE
  5
313
330
1F
100
AcDbEntity
  8
0
 62
     7
370
    35
100
AcDbLine
 10
363.4791143716375
 20
58.26184556557513
 30
0.0
 11
363.4791143716375
 21
314.9807785655752
 31
0.0
  0
LINE
  5
314
330
1F
100
AcDbEntity
  8
0
 62
     7
 48
0.024998
370
    35
100
AcDbLine
 10
350.0013923716375
 20
37.17671656557513
 30
0.0
 11
350.0013923716375
 21
36.17679256557511
 31
0.0
  0
LINE
  5
315
330
1F
100
AcDbEntity
  8
0
 62
     7
 48
0.036801
370
    35
100
AcDbLine
 10
350.0013923716375
 20
38.64876256557511
 30
0.0
 11
350.0013923716375
 21
37.17671656557513
 31
0.0
  0
ARC
  5
316
330
1F
100
AcDbEntity
  8
0
 62
     7
370
    35
100
AcDbCircle
 10
351.0063973716375
 20
52.12111356557513
 30
0.0
 40
12.47262
100
AcDbArc
 50
269.97698
 51
330.5110889999993
  0
ARC
  5
317
330
1F
100
AcDbEntity
  8
0
 62
     7
370
    35
100
AcDbCircle
 10
351.0063973716375
 20
530.121525565575
 30
0.0
 40
12.47262
100
AcDbArc
 50
29.48896299999935
 51
90.02302000000003
  0
LINE
  5
318
330
1F
100
AcDbEntity
  8
0
 62
     7
 48
0.036801
370
    35
100
AcDbLine
 10
350.0013923716375
 20
543.5938765655752
 30
0.0
 11
350.0013923716375
 21
545.065922565575
 31
0.0
  0
LINE
  5
319
330
1F
100
AcDbEntity
  8
0
 62
     7
 48
0.024997
370
    35
100
AcDbLine
 10
350.0013923716375
 20
545.065922565575
 30
0.0
 11
350.0013923716375
 21
546.0658005655751
 31
0.0
  0
LINE
  5
31A
330
1F
100
AcDbEntity
  8
0
 62
     7
 48
0.001389
370
    35
100
AcDbLine
 10
350.0013923716375
 20
546.0658005655751
 30
0.0
 11
350.0013923716375
 21
546.1213425655752
 31
0.0
  0
LINE
  5
31B
330
1F
100
AcDbEntity
  8
0
 62
     7
 48
0.001389
370
    35
100
AcDbLine
 10
62.00139237163752
 20
546.0658005655751
 30
0.0
 11
62.00139237163752
 21
546.1213425655752
 31
0.0
  0
LINE
  5
31C
330
1F
100
AcDbEntity
  8
0
 62
     7
370
    35
100
AcDbLine
 10
48.52373137163752
 20
523.9807785655751
 30
0.0
 11
48.52373137163752
 21
327.2618455655752
 31
0.0
  0
LINE
  5
31D
330
1F
100
AcDbEntity
  8
0
 62
     7
370
    35
100
AcDbLine
 10
48.52373137163752
 20
314.9807785655752
 30
0.0
 11
48.52373137163752
 21
58.26184556557513
 31
0.0
  0
ARC
  5
31E
330
1F
100
AcDbEntity
  8
0
 62
     7
370
    35
100
AcDbCircle
 10
60.99638737163752
 20
530.121525565575
 30
0.0
 40
12.47262
100
AcDbArc
 50
89.97697800000004
 51
150.5110180000006
  0
LINE
  5
31F
330
1F
100
AcDbEntity
  8
0
 62
     7
 48
0.036801
370
    35
100
AcDbLine
 10
62.00139237163752
 20
543.5938765655752
 30
0.0
 11
62.00139237163752
 21
545.065922565575
 31
0.0
  0
LINE
  5
320
330
1F
100
AcDbEntity
  8
0
 62
     7
 48
0.024997
370
    35
100
AcDbLine
 10
62.00139237163752
 20
545.065922565575
 30
0.0
 11
62.00139237163752
 21
546.0658005655751
 31
0.0
  0
LINE
  5
321
330
1F
100
AcDbEntity
  8
0
 62
     7
 48
0.024998
370
    35
100
AcDbLine
 10
62.00139237163752
 20
37.17671656557513
 30
0.0
 11
62.00139237163752
 21
36.17679256557511
 31
0.0
  0
LINE
  5
322
330
1F
100
AcDbEntity
  8
0
 62
     7
 48
0.036801
370
    35
100
AcDbLine
 10
62.00139237163752
 20
38.64874656557513
 30
0.0
 11
62.00139237163752
 21
37.17671656557513
 31
0.0
  0
ARC
  5
323
330
1F
100
AcDbEntity
  8
0
 62
     7
370
    35
100
AcDbCircle
 10
60.99638737163752
 20
52.12111356557513
 30
0.0
 40
12.47262
100
AcDbArc
 50
209.4889679999994
 51
270.023022
  0
LINE
  5
324
330
1F
100
AcDbEntity
  8
0
 62
     7
 48
0.025
370
    35
100
AcDbLine
 10
351.0013923716375
 20
39.64850256557511
 30
0.0
 11
350.0013923716375
 21
39.64868556557514
 31
0.0
  0
LINE
  5
325
330
1F
100
AcDbEntity
  8
0
 62
     7
370
    35
100
AcDbLine
 10
350.0013923716375
 20
39.64868556557514
 30
0.0
 11
62.00139237163752
 21
39.64868556557514
 31
0.0
  0
LINE
  5
326
330
1F
100
AcDbEntity
  8
0
 62
     7
 48
0.025
370
    35
100
AcDbLine
 10
62.00139237163752
 20
39.64868556557514
 30
0.0
 11
61.00139237163752
 21
39.64850256557511
 31
0.0
  0
LINE
  5
327
330
1F
100
AcDbEntity
  8
0
 62
     7
 48
0.025
370
    35
100
AcDbLine
 10
62.00139237163752
 20
542.5939375655751
 30
0.0
 11
61.00139237163752
 21
542.5941205655751
 31
0.0
  0
LINE
  5
328
330
1F
100
AcDbEntity
  8
0
 62
     7
370
    35
100
AcDbLine
 10
350.0013923716375
 20
542.5939375655751
 30
0.0
 11
62.00139237163752
 21
542.5939375655751
 31
0.0
  0
LINE
  5
329
330
1F
100
AcDbEntity
  8
0
 62
     7
 48
0.025
370
    35
100
AcDbLine
 10
351.0013923716375
 20
542.5941205655751
 30
0.0
 11
350.0013923716375
 21
542.5939375655751
 31
0.0
  0
LINE
  5
32A
330
1F
100
AcDbEntity
  8
0
 62
     7
 48
0.024998
370
    35
100
AcDbLine
 10
350.0013923716375
 20
38.64876256557511
 30
0.0
 11
350.0013923716375
 21
39.64868556557514
 31
0.0
  0
LINE
  5
32B
330
1F
100
AcDbEntity
  8
0
 62
     7
 48
0.024998
370
    35
100
AcDbLine
 10
350.0013923716375
 20
542.5939375655751
 30
0.0
 11
350.0013923716375
 21
543.5938765655752
 31
0.0
  0
LINE
  5
32C
330
1F
100
AcDbEntity
  8
0
 62
     7
 48
0.024998
370
    35
100
AcDbLine
 10
62.00139237163752
 20
542.5939375655751
 30
0.0
 11
62.00139237163752
 21
543.5938765655752
 31
0.0
  0
LINE
  5
32D
330
1F
100
AcDbEntity
  8
0
 62
     7
 48
0.024998
370
    35
100
AcDbLine
 10
62.00139237163752
 20
38.64876256557511
 30
0.0
 11
62.00139237163752
 21
39.64868556557514
 31
0.0
  0
ARC
  5
32E
330
1F
100
AcDbEntity
  8
0
 62
   253
370
    35
100
AcDbCircle
 10
153.0109133716375
 20
383.1044965655751
 30
0.0
 40
2.509187999999999
100
AcDbArc
 50
118.2091819999998
 51
180.0944839999992
  0
LINE
  5
32F
330
1F
100
AcDbEntity
  8
0
 62
   253
 48
0.012489
370
    35
100
AcDbLine
 10
171.0013923716375
 20
389.6178025655752
 30
0.0
 11
171.0013923716375
 21
390.1173745655751
 31
0.0
  0
ARC
  5
330
330
1F
100
AcDbEntity
  8
0
 62
   253
370
    35
100
AcDbCircle
 10
170.9965093716375
 20
349.4404035655751
 30
0.0
 40
40.676739
100
AcDbArc
 50
89.99309699999995
 51
118.11998
  0
LINE
  5
331
330
1F
100
AcDbEntity
  8
0
 62
   253
 48
0.012489
370
    35
100
AcDbLine
 10
241.0013923716376
 20
389.6178025655752
 30
0.0
 11
241.0013923716376
 21
390.1173745655751
 31
0.0
  0
LINE
  5
332
330
1F
100
AcDbEntity
  8
0
 62
   253
370
    35
100
AcDbLine
 10
241.0013923716376
 20
390.1173745655751
 30
0.0
 11
171.0013923716375
 21
390.1173745655751
 31
0.0
  0
ARC
  5
333
330
1F
100
AcDbEntity
  8
0
 62
   253
370
    35
100
AcDbCircle
 10
241.0063363716375
 20
349.4404955655751
 30
0.0
 40
40.676641
100
AcDbArc
 50
61.87997700000013
 51
90.00692800000001
  0
ARC
  5
334
330
1F
100
AcDbEntity
  8
0
 62
   253
370
    35
100
AcDbCircle
 10
258.9919323716375
 20
383.1045575655752
 30
0.0
 40
2.509184999999999
100
AcDbArc
 50
359.9050050000001
 51
61.79036499999994
  0
LINE
  5
335
330
1F
100
AcDbEntity
  8
0
 62
   253
 48
0.012172
370
    35
100
AcDbLine
 10
171.0013923716375
 20
378.9146165655751
 30
0.0
 11
171.0013923716375
 21
378.4277385655752
 31
0.0
  0
LINE
  5
336
330
1F
100
AcDbEntity
  8
0
 62
   253
 48
0.012172
370
    35
100
AcDbLine
 10
241.0013923716376
 20
378.9146165655751
 30
0.0
 11
241.0013923716376
 21
378.4277385655752
 31
0.0
  0
LINE
  5
337
330
1F
100
AcDbEntity
  8
0
 62
   253
 48
0.2675800000000001
370
    35
100
AcDbLine
 10
171.0013923716375
 20
378.9146165655751
 30
0.0
 11
171.0013923716375
 21
389.6178025655752
 31
0.0
  0
LINE
  5
338
330
1F
100
AcDbEntity
  8
0
 62
   253
 48
0.2675800000000001
370
    35
100
AcDbLine
 10
241.0013923716376
 20
378.9146165655751
 30
0.0
 11
241.0013923716376
 21
389.6178025655752
 31
0.0
  0
LINE
  5
339
330
1F
100
AcDbEntity
  8
0
 62
   253
370
    35
100
AcDbLine
 10
345.8090093716375
 20
476.2849775655751
 30
0.0
 11
66.19377537163751
 21
476.2849775655751
 31
0.0
  0
ARC
  5
33A
330
1F
100
AcDbEntity
  8
0
 62
   253
370
    35
100
AcDbCircle
 10
66.19041837163752
 20
474.2960245655751
 30
0.0
 40
1.988738999999999
100
AcDbArc
 50
89.90185300000003
 51
180.0981450000006
  0
ARC
  5
33B
330
1F
100
AcDbEntity
  8
0
 62
   253
370
    35
100
AcDbCircle
 10
345.8124273716375
 20
474.2960245655751
 30
0.0
 40
1.988738999999999
100
AcDbArc
 50
359.9018499999996
 51
90.09814500000002
  0
LINE
  5
33C
330
1F
100
AcDbEntity
  8
0
 62
   253
 48
0.099519
370
    35
100
AcDbLine
 10
150.5013923716375
 20
379.1195725655752
 30
0.0
 11
150.5013923716375
 21
383.1003465655751
 31
0.0
  0
LINE
  5
33D
330
1F
100
AcDbEntity
  8
0
 62
   253
 48
0.001737
370
    35
100
AcDbLine
 10
150.5013923716375
 20
378.6196635655751
 30
0.0
 11
150.5013923716375
 21
378.5501755655752
 31
0.0
  0
LINE
  5
33E
330
1F
100
AcDbEntity
  8
0
 62
   253
 48
0.050026
370
    35
100
AcDbLine
 10
64.20140437163752
 20
379.0839275655751
 30
0.0
 11
64.20140437163752
 21
381.0849655655751
 31
0.0
  0
LINE
  5
33F
330
1F
100
AcDbEntity
  8
0
 62
   253
 48
0.012283
370
    35
100
AcDbLine
 10
64.20140437163752
 20
381.0849655655751
 30
0.0
 11
64.20140437163752
 21
381.5762985655752
 31
0.0
  0
LINE
  5
340
330
1F
100
AcDbEntity
  8
0
 62
   253
370
    35
100
AcDbLine
 10
64.20140437163752
 20
381.5762985655752
 30
0.0
 11
64.20140437163752
 21
474.2926065655751
 31
0.0
  0
LINE
  5
341
330
1F
100
AcDbEntity
  8
0
 62
   253
 48
0.012498
370
    35
100
AcDbLine
 10
150.5013923716375
 20
378.6196635655751
 30
0.0
 11
150.5013923716375
 21
379.1195725655752
 31
0.0
  0
LINE
  5
342
330
1F
100
AcDbEntity
  8
0
 62
   253
370
    35
100
AcDbLine
 10
66.25279637163751
 20
378.6196635655751
 30
0.0
 11
150.5013923716375
 21
378.6196635655751
 31
0.0
  0
LINE
  5
343
330
1F
100
AcDbEntity
  8
0
 62
   253
 48
0.099519
370
    35
100
AcDbLine
 10
261.5013923716375
 20
379.1195725655752
 30
0.0
 11
261.5013923716375
 21
383.1003465655751
 31
0.0
  0
LINE
  5
344
330
1F
100
AcDbEntity
  8
0
 62
   253
 48
0.001737
370
    35
100
AcDbLine
 10
261.5013923716375
 20
378.6196635655751
 30
0.0
 11
261.5013923716375
 21
378.5501755655752
 31
0.0
  0
LINE
  5
345
330
1F
100
AcDbEntity
  8
0
 62
   253
370
    35
100
AcDbLine
 10
347.8014413716376
 20
474.2926065655751
 30
0.0
 11
347.8014413716376
 21
381.0849655655751
 31
0.0
  0
LINE
  5
346
330
1F
100
AcDbEntity
  8
0
 62
   253
 48
0.050026
370
    35
100
AcDbLine
 10
347.8014413716376
 20
381.0849655655751
 30
0.0
 11
347.8014413716376
 21
379.0839275655751
 31
0.0
  0
LINE
  5
347
330
1F
100
AcDbEntity
  8
0
 62
   253
 48
0.012498
370
    35
100
AcDbLine
 10
261.5013923716375
 20
379.1195725655752
 30
0.0
 11
261.5013923716375
 21
378.6196635655751
 31
0.0
  0
LINE
  5
348
330
1F
100
AcDbEntity
  8
0
 62
   253
370
    35
100
AcDbLine
 10
261.5013923716375
 20
378.6196635655751
 30
0.0
 11
345.7500493716375
 21
378.6196635655751
 31
0.0
  0
ARC
  5
349
330
1F
100
AcDbEntity
  8
0
 62
   253
370
    35
100
AcDbCircle
 10
67.27305937163752
 20
379.0836835655751
 30
0.0
 40
3.071624
100
AcDbArc
 50
179.9955379999998
 51
184.1382020000007
  0
LINE
  5
34A
330
1F
100
AcDbEntity
  8
0
 62
   253
 48
0.001193
370
    35
100
AcDbLine
 10
64.20946137163753
 20
378.8620035655752
 30
0.0
 11
64.21336737163753
 21
378.8144265655751
 31
0.0
  0
LINE
  5
34B
330
1F
100
AcDbEntity
  8
0
 62
   253
 48
0.001589
370
    35
100
AcDbLine
 10
64.75847237163752
 20
378.5957685655751
 30
0.0
 11
64.69615537163753
 21
378.5833175655751
 31
0.0
  0
LINE
  5
34C
330
1F
100
AcDbEntity
  8
0
 62
   253
 48
0.000594
370
    35
100
AcDbLine
 10
64.71989837163753
 20
378.5833175655751
 30
0.0
 11
64.69615537163753
 21
378.5833175655751
 31
0.0
  0
ARC
  5
34D
330
1F
100
AcDbEntity
  8
0
 62
   253
370
    35
100
AcDbCircle
 10
344.7881353716375
 20
379.0816385655752
 30
0.0
 40
3.013288
100
AcDbArc
 50
354.9125380000005
 51
0.0431890000000184
  0
LINE
  5
34E
330
1F
100
AcDbEntity
  8
0
 62
   253
 48
0.00159
370
    35
100
AcDbLine
 10
347.2443123716375
 20
378.5957685655751
 30
0.0
 11
347.3066903716375
 21
378.5833175655751
 31
0.0
  0
LINE
  5
34F
330
1F
100
AcDbEntity
  8
0
 62
   253
 48
0.000296
370
    35
100
AcDbLine
 10
347.2947883716376
 20
378.1529885655751
 30
0.0
 11
347.2829473716375
 21
378.1529885655751
 31
0.0
  0
LINE
  5
350
330
1F
100
AcDbEntity
  8
0
 62
   253
 48
0.000594
370
    35
100
AcDbLine
 10
347.3066903716375
 20
378.5833175655751
 30
0.0
 11
347.2829473716375
 21
378.5833175655751
 31
0.0
  0
LINE
  5
351
330
1F
100
AcDbEntity
  8
0
 62
   253
 48
0.004033
370
    35
100
AcDbLine
 10
261.5142093716376
 20
377.0400435655752
 30
0.0
 11
261.5142093716376
 21
377.2013595655751
 31
0.0
  0
LINE
  5
352
330
1F
100
AcDbEntity
  8
0
 62
   253
370
    35
100
AcDbLine
 10
261.5142093716376
 20
377.2013595655751
 30
0.0
 11
342.7918583716376
 21
377.2013595655751
 31
0.0
  0
LINE
  5
353
330
1F
100
AcDbEntity
  8
0
 62
   253
 48
0.024672
370
    35
100
AcDbLine
 10
343.7787363716375
 20
377.2013595655751
 30
0.0
 11
342.7918583716376
 21
377.2013595655751
 31
0.0
  0
LINE
  5
354
330
1F
100
AcDbEntity
  8
0
 62
   253
 48
0.013489
370
    35
100
AcDbLine
 10
343.7787363716375
 20
377.2013595655751
 30
0.0
 11
344.3182863716375
 21
377.2013595655751
 31
0.0
  0
LINE
  5
355
330
1F
100
AcDbEntity
  8
0
 62
   253
 48
0.067445
370
    35
100
AcDbLine
 10
347.0161013716376
 20
377.2013595655751
 30
0.0
 11
344.3182863716375
 21
377.2013595655751
 31
0.0
  0
LINE
  5
356
330
1F
100
AcDbEntity
  8
0
 62
   253
 48
0.004033
370
    35
100
AcDbLine
 10
150.5142093716375
 20
377.0400435655752
 30
0.0
 11
150.5142093716375
 21
377.2013595655751
 31
0.0
  0
LINE
  5
357
330
1F
100
AcDbEntity
  8
0
 62
   253
 48
0.067445
370
    35
100
AcDbLine
 10
65.01231737163752
 20
377.2013595655751
 30
0.0
 11
67.71013237163753
 21
377.2013595655751
 31
0.0
  0
LINE
  5
358
330
1F
100
AcDbEntity
  8
0
 62
   253
 48
0.013489
370
    35
100
AcDbLine
 10
67.71013237163753
 20
377.2013595655751
 30
0.0
 11
68.24968337163753
 21
377.2013595655751
 31
0.0
  0
LINE
  5
359
330
1F
100
AcDbEntity
  8
0
 62
   253
 48
0.024672
370
    35
100
AcDbLine
 10
69.23656037163752
 20
377.2013595655751
 30
0.0
 11
68.24968337163753
 21
377.2013595655751
 31
0.0
  0
LINE
  5
35A
330
1F
100
AcDbEntity
  8
0
 62
   253
370
    35
100
AcDbLine
 10
69.23656037163752
 20
377.2013595655751
 30
0.0
 11
150.5142093716375
 21
377.2013595655751
 31
0.0
  0
ARC
  5
35B
330
1F
100
AcDbEntity
  8
0
 62
   253
370
    35
100
AcDbCircle
 10
65.01146337163752
 20
376.7041055655751
 30
0.0
 40
0.4971850000000001
100
AcDbArc
 50
89.90185300000003
 51
180.0981450000006
  0
LINE
  5
35C
330
1F
100
AcDbEntity
  8
0
 62
   253
 48
0.460811
370
    35
100
AcDbLine
 10
64.51420937163752
 20
358.2708175655751
 30
0.0
 11
64.51420937163752
 21
376.7032515655751
 31
0.0
  0
ARC
  5
35D
330
1F
100
AcDbEntity
  8
0
 62
   253
370
    35
100
AcDbCircle
 10
66.50322337163752
 20
358.2674295655752
 30
0.0
 40
1.988738999999999
100
AcDbArc
 50
179.9018549999993
 51
270.09814
  0
LINE
  5
35E
330
1F
100
AcDbEntity
  8
0
 62
   253
370
    35
100
AcDbLine
 10
66.50658037163752
 20
356.2784465655751
 30
0.0
 11
345.5218393716375
 21
356.2784465655751
 31
0.0
  0
ARC
  5
35F
330
1F
100
AcDbEntity
  8
0
 62
   253
370
    35
100
AcDbCircle
 10
345.5251963716376
 20
358.2674295655752
 30
0.0
 40
1.988738999999999
100
AcDbArc
 50
269.901848
 51
0.0981429999997894
  0
LINE
  5
360
330
1F
100
AcDbEntity
  8
0
 62
   253
 48
0.460811
370
    35
100
AcDbLine
 10
347.5142093716375
 20
358.2708175655751
 30
0.0
 11
347.5142093716375
 21
376.7032515655751
 31
0.0
  0
ARC
  5
361
330
1F
100
AcDbEntity
  8
0
 62
   253
370
    35
100
AcDbCircle
 10
347.0169563716376
 20
376.7041055655751
 30
0.0
 40
0.4971850000000001
100
AcDbArc
 50
359.9018570000002
 51
90.09815199999996
  0
LINE
  5
362
330
1F
100
AcDbEntity
  8
0
 62
   253
 48
0.011659
370
    35
100
AcDbLine
 10
171.0142093716375
 20
376.5018045655752
 30
0.0
 11
171.0142093716375
 21
376.9681745655752
 31
0.0
  0
LINE
  5
363
330
1F
100
AcDbEntity
  8
0
 62
   253
 48
0.011659
370
    35
100
AcDbLine
 10
241.0142093716375
 20
376.5018045655752
 30
0.0
 11
241.0142093716375
 21
376.9681745655752
 31
0.0
  0
LINE
  5
364
330
1F
100
AcDbEntity
  8
0
 62
   253
 48
0.150519
370
    35
100
AcDbLine
 10
209.0245853716375
 20
357.4725075655751
 30
0.0
 11
203.0038333716375
 21
357.4725075655751
 31
0.0
  0
LINE
  5
365
330
1F
100
AcDbEntity
  8
0
 62
   253
 48
0.220043
370
    35
100
AcDbLine
 10
171.0142093716375
 20
376.5017745655752
 30
0.0
 11
171.0142093716375
 21
367.7000475655751
 31
0.0
  0
LINE
  5
366
330
1F
100
AcDbEntity
  8
0
 62
   253
 48
0.220044
370
    35
100
AcDbLine
 10
241.0142093716375
 20
376.5018045655752
 30
0.0
 11
241.0142093716375
 21
367.7000475655751
 31
0.0
  0
LINE
  5
367
330
1F
100
AcDbEntity
  8
0
 62
   253
 48
0.000222
370
    35
100
AcDbLine
 10
195.8502693716375
 20
367.8752175655751
 30
0.0
 11
195.8488653716375
 21
367.8664595655752
 31
0.0
  0
ARC
  5
368
330
1F
100
AcDbEntity
  8
0
 62
   253
370
    35
100
AcDbCircle
 10
260.9697763716375
 20
367.4369545655751
 30
0.0
 40
3.607188999999999
100
AcDbArc
 50
103.9843639999999
 51
117.3690280000001
  0
LINE
  5
369
330
1F
100
AcDbEntity
  8
0
 62
   253
 48
0.000033
370
    35
100
AcDbLine
 10
259.3113283716375
 20
370.6407205655752
 30
0.0
 11
259.3101693716375
 21
370.6401105655751
 31
0.0
  0
LINE
  5
36A
330
1F
100
AcDbEntity
  8
0
 62
   253
 48
0.067931
370
    35
100
AcDbLine
 10
241.0142093716375
 20
364.2939495655752
 30
0.0
 11
241.0142093716375
 21
367.0112045655751
 31
0.0
  0
LINE
  5
36B
330
1F
100
AcDbEntity
  8
0
 62
   253
370
    35
100
AcDbLine
 10
216.2097663716375
 20
364.2939495655752
 30
0.0
 11
241.0142093716375
 21
364.2939495655752
 31
0.0
  0
LINE
  5
36C
330
1F
100
AcDbEntity
  8
0
 62
   253
 48
0.001198
370
    35
100
AcDbLine
 10
216.2097663716375
 20
364.2939495655752
 30
0.0
 11
216.1618533716375
 21
364.2939495655752
 31
0.0
  0
ARC
  5
36D
330
1F
100
AcDbEntity
  8
0
 62
   253
370
    35
100
AcDbCircle
 10
206.0121343716375
 20
366.5860335655751
 30
0.0
 40
10.452045
100
AcDbArc
 50
315.1042069999996
 51
347.3322150000003
  0
ARC
  5
36E
330
1F
100
AcDbEntity
  8
0
 62
   253
370
    35
100
AcDbCircle
 10
209.0241583716375
 20
363.5850265655752
 30
0.0
 40
6.200150999999999
100
AcDbArc
 50
301.7433430000001
 51
315.1036199999995
  0
LINE
  5
36F
330
1F
100
AcDbEntity
  8
0
 62
   253
 48
0.067931
370
    35
100
AcDbLine
 10
171.0142093716375
 20
364.2939495655752
 30
0.0
 11
171.0142093716375
 21
367.0112045655751
 31
0.0
  0
LINE
  5
370
330
1F
100
AcDbEntity
  8
0
 62
   253
370
    35
100
AcDbLine
 10
171.0142093716375
 20
364.2939495655752
 30
0.0
 11
195.8186533716375
 21
364.2939495655752
 31
0.0
  0
LINE
  5
371
330
1F
100
AcDbEntity
  8
0
 62
   253
 48
0.001198
370
    35
100
AcDbLine
 10
195.8186533716375
 20
364.2939495655752
 30
0.0
 11
195.8665653716375
 21
364.2939495655752
 31
0.0
  0
LINE
  5
372
330
1F
100
AcDbEntity
  8
0
 62
   253
 48
0.000033
370
    35
100
AcDbLine
 10
152.7170903716375
 20
370.6407205655752
 30
0.0
 11
152.7182503716375
 21
370.6401105655751
 31
0.0
  0
ARC
  5
373
330
1F
100
AcDbEntity
  8
0
 62
   253
370
    35
100
AcDbCircle
 10
151.0586433716375
 20
367.4369545655751
 30
0.0
 40
3.60719
100
AcDbArc
 50
62.63097000000023
 51
76.01564099999992
  0
ARC
  5
374
330
1F
100
AcDbEntity
  8
0
 62
   253
370
    35
100
AcDbCircle
 10
203.0042613716375
 20
363.5850265655752
 30
0.0
 40
6.200150999999999
100
AcDbArc
 50
224.896386
 51
238.256659
  0
ARC
  5
375
330
1F
100
AcDbEntity
  8
0
 62
   253
370
    35
100
AcDbCircle
 10
206.0162853716375
 20
366.5860335655751
 30
0.0
 40
10.452045
100
AcDbArc
 50
192.6677830000001
 51
224.8957979999993
  0
LINE
  5
376
330
1F
100
AcDbEntity
  8
0
 62
   253
 48
0.001712
370
    35
100
AcDbLine
 10
216.3764533716375
 20
367.6820415655751
 30
0.0
 11
216.3876223716375
 21
367.6144755655752
 31
0.0
  0
LINE
  5
377
330
1F
100
AcDbEntity
  8
0
 62
   253
 48
0.000475
370
    35
100
AcDbLine
 10
216.3764533716375
 20
367.7010235655751
 30
0.0
 11
216.3764533716375
 21
367.6820415655751
 31
0.0
  0
LINE
  5
378
330
1F
100
AcDbEntity
  8
0
 62
   253
 48
0.000035
370
    35
100
AcDbLine
 10
216.3764533716375
 20
367.7010235655751
 30
0.0
 11
216.3750493716375
 21
367.7011155655752
 31
0.0
  0
LINE
  5
379
330
1F
100
AcDbEntity
  8
0
 62
   253
 48
0.000447
370
    35
100
AcDbLine
 10
241.0142093716375
 20
367.6999245655751
 30
0.0
 11
241.0142093716375
 21
367.6820415655751
 31
0.0
  0
LINE
  5
37A
330
1F
100
AcDbEntity
  8
0
 62
   253
 48
0.001154
370
    35
100
AcDbLine
 10
260.4492683716375
 20
370.9766885655751
 30
0.0
 11
260.4954113716375
 21
370.9766885655751
 31
0.0
  0
LINE
  5
37B
330
1F
100
AcDbEntity
  8
0
 62
   253
 48
0.000822
370
    35
100
AcDbLine
 10
260.4492683716375
 20
370.9766885655751
 30
0.0
 11
260.4163703716375
 21
370.9764145655752
 31
0.0
  0
LINE
  5
37C
330
1F
100
AcDbEntity
  8
0
 62
   253
 48
0.016771
370
    35
100
AcDbLine
 10
241.0142093716375
 20
367.6820415655751
 30
0.0
 11
241.0142093716375
 21
367.0112045655751
 31
0.0
  0
LINE
  5
37D
330
1F
100
AcDbEntity
  8
0
 62
   253
 48
0.016769
370
    35
100
AcDbLine
 10
171.0142093716375
 20
367.6820415655751
 30
0.0
 11
171.0142093716375
 21
367.0112655655752
 31
0.0
  0
LINE
  5
37E
330
1F
100
AcDbEntity
  8
0
 62
   253
 48
0.000447
370
    35
100
AcDbLine
 10
171.0142093716375
 20
367.6999245655751
 30
0.0
 11
171.0142093716375
 21
367.6820415655751
 31
0.0
  0
LINE
  5
37F
330
1F
100
AcDbEntity
  8
0
 62
   253
 48
0.001154
370
    35
100
AcDbLine
 10
151.5791513716375
 20
370.9766885655751
 30
0.0
 11
151.5330083716375
 21
370.9766885655751
 31
0.0
  0
LINE
  5
380
330
1F
100
AcDbEntity
  8
0
 62
   253
 48
0.000822
370
    35
100
AcDbLine
 10
151.5791513716375
 20
370.9766885655751
 30
0.0
 11
151.6120493716375
 21
370.9764145655752
 31
0.0
  0
LINE
  5
381
330
1F
100
AcDbEntity
  8
0
 62
   253
370
    35
100
AcDbLine
 10
171.0142093716375
 20
367.6999245655751
 30
0.0
 11
195.3198123716375
 21
367.6999245655751
 31
0.0
  0
LINE
  5
382
330
1F
100
AcDbEntity
  8
0
 62
   253
 48
0.008304
370
    35
100
AcDbLine
 10
216.7086063716375
 20
367.6999245655751
 30
0.0
 11
216.3764533716375
 21
367.7010235655751
 31
0.0
  0
LINE
  5
383
330
1F
100
AcDbEntity
  8
0
 62
   253
 48
0.008304
370
    35
100
AcDbLine
 10
195.3198123716375
 20
367.6999245655751
 30
0.0
 11
195.6519663716375
 21
367.7010235655751
 31
0.0
  0
LINE
  5
384
330
1F
100
AcDbEntity
  8
0
 62
   253
370
    35
100
AcDbLine
 10
216.7086063716375
 20
367.6999245655751
 30
0.0
 11
241.0142093716375
 21
367.6999245655751
 31
0.0
  0
LINE
  5
385
330
1F
100
AcDbEntity
  8
0
 62
   253
 48
0.002676
370
    35
100
AcDbLine
 10
260.6024663716375
 20
370.9767805655752
 30
0.0
 11
260.4954113716375
 21
370.9766885655751
 31
0.0
  0
LINE
  5
386
330
1F
100
AcDbEntity
  8
0
 62
   253
 48
0.002024
370
    35
100
AcDbLine
 10
260.7181893716376
 20
370.9319505655751
 30
0.0
 11
260.6508673716376
 21
370.9769025655752
 31
0.0
  0
LINE
  5
387
330
1F
100
AcDbEntity
  8
0
 62
   253
 48
0.00121
370
    35
100
AcDbLine
 10
260.6024663716375
 20
370.9767805655752
 30
0.0
 11
260.6508673716376
 21
370.9769025655752
 31
0.0
  0
LINE
  5
388
330
1F
100
AcDbEntity
  8
0
 62
   253
 48
0.012452
370
    35
100
AcDbLine
 10
261.5142093716376
 20
377.0400435655752
 30
0.0
 11
261.5142093716376
 21
376.5419655655752
 31
0.0
  0
ARC
  5
389
330
1F
100
AcDbEntity
  8
0
 62
   253
370
    35
100
AcDbCircle
 10
259.0008433716375
 20
372.7666975655751
 30
0.0
 40
2.513238
100
AcDbArc
 50
313.1076269999997
 51
0.0605569999994749
  0
LINE
  5
38A
330
1F
100
AcDbEntity
  8
0
 62
   253
 48
0.094332
370
    35
100
AcDbLine
 10
261.5142093716376
 20
372.7686815655751
 30
0.0
 11
261.5142093716376
 21
376.5419655655752
 31
0.0
  0
LINE
  5
38B
330
1F
100
AcDbEntity
  8
0
 62
   253
 48
0.002678
370
    35
100
AcDbLine
 10
151.4258913716375
 20
370.9767805655752
 30
0.0
 11
151.5330083716375
 21
370.9766885655751
 31
0.0
  0
LINE
  5
38C
330
1F
100
AcDbEntity
  8
0
 62
   253
 48
0.001208
370
    35
100
AcDbLine
 10
151.4258913716375
 20
370.9767805655752
 30
0.0
 11
151.3775523716375
 21
370.9769025655752
 31
0.0
  0
LINE
  5
38D
330
1F
100
AcDbEntity
  8
0
 62
   253
 48
0.002024
370
    35
100
AcDbLine
 10
151.3102303716375
 20
370.9319505655751
 30
0.0
 11
151.3775523716375
 21
370.9769025655752
 31
0.0
  0
LINE
  5
38E
330
1F
100
AcDbEntity
  8
0
 62
   253
 48
0.012452
370
    35
100
AcDbLine
 10
150.5142093716375
 20
376.5419655655752
 30
0.0
 11
150.5142093716375
 21
377.0400435655752
 31
0.0
  0
LINE
  5
38F
330
1F
100
AcDbEntity
  8
0
 62
   253
 48
0.094332
370
    35
100
AcDbLine
 10
150.5142093716375
 20
372.7686815655751
 30
0.0
 11
150.5142093716375
 21
376.5419655655752
 31
0.0
  0
ARC
  5
390
330
1F
100
AcDbEntity
  8
0
 62
   253
370
    35
100
AcDbCircle
 10
153.0275763716375
 20
372.7666975655751
 30
0.0
 40
2.513238
100
AcDbArc
 50
179.9394489999993
 51
226.8922759999999
  0
LINE
  5
391
330
1F
100
AcDbEntity
  8
0
 62
   253
 48
0.005013
370
    35
100
AcDbLine
 10
151.3775523716375
 20
370.9769025655752
 30
0.0
 11
151.5780523716375
 21
370.9776045655751
 31
0.0
  0
LINE
  5
392
330
1F
100
AcDbEntity
  8
0
 62
   253
 48
0.003484
370
    35
100
AcDbLine
 10
151.7938113716375
 20
370.9652145655752
 30
0.0
 11
151.9302253716375
 21
370.9367715655751
 31
0.0
  0
ARC
  5
393
330
1F
100
AcDbEntity
  8
0
 62
   253
370
    35
100
AcDbCircle
 10
151.5674323716375
 20
368.8022195655751
 30
0.0
 40
2.174854999999999
100
AcDbArc
 50
84.02470700000005
 51
88.82365999999999
  0
LINE
  5
394
330
1F
100
AcDbEntity
  8
0
 62
   253
 48
0.000036
370
    35
100
AcDbLine
 10
151.5780523716375
 20
370.9776045655751
 30
0.0
 11
151.5791513716375
 21
370.9766885655751
 31
0.0
  0
ARC
  5
395
330
1F
100
AcDbEntity
  8
0
 62
   253
370
    35
100
AcDbCircle
 10
260.4609873716376
 20
368.8021895655752
 30
0.0
 40
2.174881999999999
100
AcDbArc
 50
91.176516
 51
95.97558500000006
  0
LINE
  5
396
330
1F
100
AcDbEntity
  8
0
 62
   253
 48
0.003484
370
    35
100
AcDbLine
 10
260.2346073716375
 20
370.9652145655752
 30
0.0
 11
260.0981943716375
 21
370.9367715655751
 31
0.0
  0
LINE
  5
397
330
1F
100
AcDbEntity
  8
0
 62
   253
 48
0.000036
370
    35
100
AcDbLine
 10
260.4492683716375
 20
370.9766885655751
 30
0.0
 11
260.4503673716375
 21
370.9776045655751
 31
0.0
  0
ARC
  5
398
330
1F
100
AcDbEntity
  8
0
 62
   253
370
    35
100
AcDbCircle
 10
169.3806033716375
 20
2296.393436565575
 30
0.0
 40
1919.348851
100
AcDbArc
 50
269.4764499999999
 51
269.7952349999999
  0
ARC
  5
399
330
1F
100
AcDbEntity
  8
0
 62
   253
370
    35
100
AcDbCircle
 10
152.0632213716375
 20
419.8982585655751
 30
0.0
 40
42.773528
100
AcDbArc
 50
268.2334029999999
 51
269.704216
  0
LINE
  5
39A
330
1F
100
AcDbEntity
  8
0
 62
   253
370
    35
100
AcDbLine
 10
201.5107303716375
 20
376.9681745655752
 30
0.0
 11
171.0142093716375
 21
376.9682045655751
 31
0.0
  0
LINE
  5
39B
330
1F
100
AcDbEntity
  8
0
 62
   253
370
    35
100
AcDbLine
 10
241.0142093716375
 20
376.9681745655752
 30
0.0
 11
210.5176883716375
 21
376.9681745655752
 31
0.0
  0
ARC
  5
39C
330
1F
100
AcDbEntity
  8
0
 62
   253
370
    35
100
AcDbCircle
 10
259.9664193716375
 20
419.8230025655751
 30
0.0
 40
42.698279
100
AcDbArc
 50
270.294652
 51
271.769303
  0
ARC
  5
39D
330
1F
100
AcDbEntity
  8
0
 62
   253
370
    35
100
AcDbCircle
 10
242.6462893716375
 20
2296.606571565575
 30
0.0
 40
1919.562071
100
AcDbArc
 50
270.2047869999999
 51
270.523538
  0
LINE
  5
39E
330
1F
100
AcDbEntity
  8
0
 62
   253
370
    35
100
AcDbLine
 10
171.0142093716375
 20
367.7000165655751
 30
0.0
 11
195.3198123716375
 21
367.7000165655751
 31
0.0
  0
LINE
  5
39F
330
1F
100
AcDbEntity
  8
0
 62
   253
 48
0.008339
370
    35
100
AcDbLine
 10
216.3750493716375
 20
367.7011155655752
 30
0.0
 11
216.7086063716375
 21
367.7000165655751
 31
0.0
  0
LINE
  5
3A0
330
1F
100
AcDbEntity
  8
0
 62
   253
 48
0.008339
370
    35
100
AcDbLine
 10
195.6533693716375
 20
367.7011155655752
 30
0.0
 11
195.3198123716375
 21
367.7000165655751
 31
0.0
  0
LINE
  5
3A1
330
1F
100
AcDbEntity
  8
0
 62
   253
370
    35
100
AcDbLine
 10
216.7086063716375
 20
367.7000165655751
 30
0.0
 11
241.0142093716375
 21
367.7000165655751
 31
0.0
  0
ARC
  5
3A2
330
1F
100
AcDbEntity
  8
0
 62
     7
370
    35
100
AcDbCircle
 10
350.0013923716375
 20
52.12131156557513
 30
0.0
 40
16.0
100
AcDbArc
 50
270.0
 51
0.0
  0
LINE
  5
3A3
330
1F
100
AcDbEntity
  8
0
 62
     7
370
    35
100
AcDbLine
 10
62.00139237163752
 20
36.12131156557513
 30
0.0
 11
350.0013923716375
 21
36.12131156557513
 31
0.0
  0
ARC
  5
3A4
330
1F
100
AcDbEntity
  8
0
 62
     7
370
    35
100
AcDbCircle
 10
62.00139237163752
 20
52.12131156557513
 30
0.0
 40
16.0
100
AcDbArc
 50
180.0
 51
270.0
  0
LINE
  5
3A5
330
1F
100
AcDbEntity
  8
0
 62
     7
370
    35
100
AcDbLine
 10
46.00139237163752
 20
530.1213425655752
 30
0.0
 11
46.00139237163752
 21
52.12131156557513
 31
0.0
  0
ARC
  5
3A6
330
1F
100
AcDbEntity
  8
0
 62
     7
370
    35
100
AcDbCircle
 10
62.00139237163752
 20
530.1213425655752
 30
0.0
 40
16.0
100
AcDbArc
 50
157.0910590000004
 51
180.0
  0
ARC
  5
3A7
330
1F
100
AcDbEntity
  8
0
 62
     7
370
    35
100
AcDbCircle
 10
350.0013923716375
 20
530.1213425655752
 30
0.0
 40
16.0
100
AcDbArc
 50
0.0
 51
22.90894799999983
  0
LINE
  5
3A8
330
1F
100
AcDbEntity
  8
0
 62
     7
 48
0.155707
370
    35
100
AcDbLine
 10
366.0013923716375
 20
58.34959856557512
 30
0.0
 11
366.0013923716375
 21
52.12131156557513
 31
0.0
  0
LINE
  5
3A9
330
1F
100
AcDbEntity
  8
0
 62
     7
 48
0.311414
370
    35
100
AcDbLine
 10
366.0013923716375
 20
327.3496135655752
 30
0.0
 11
366.0013923716375
 21
314.8930405655751
 31
0.0
  0
LINE
  5
3AA
330
1F
100
AcDbEntity
  8
0
 62
     7
 48
0.155708
370
    35
100
AcDbLine
 10
366.0013923716375
 20
530.1213425655752
 30
0.0
 11
366.0013923716375
 21
523.893009565575
 31
0.0
  0
CIRCLE
  5
3AB
330
1F
100
AcDbEntity
  8
0
 62
     7
370
    35
100
AcDbCircle
 10
62.00139237163752
 20
52.12131156557513
 30
0.0
 40
4.883901999999999
  0
LINE
  5
3AC
330
1F
100
AcDbEntity
  8
0
 62
     7
 48
0.05
370
    35
100
AcDbLine
 10
61.00139237163752
 20
56.62131156557513
 30
0.0
 11
63.00139237163752
 21
56.62131156557513
 31
0.0
  0
LINE
  5
3AD
330
1F
100
AcDbEntity
  8
0
 62
     7
 48
0.225
370
    35
100
AcDbLine
 10
61.00139237163752
 20
56.62131156557513
 30
0.0
 11
61.00139237163752
 21
47.62131156557512
 31
0.0
  0
LINE
  5
3AE
330
1F
100
AcDbEntity
  8
0
 62
     7
 48
0.05
370
    35
100
AcDbLine
 10
63.00139237163752
 20
47.62131156557512
 30
0.0
 11
61.00139237163752
 21
47.62131156557512
 31
0.0
  0
LINE
  5
3AF
330
1F
100
AcDbEntity
  8
0
 62
     7
 48
0.225
370
    35
100
AcDbLine
 10
63.00139237163752
 20
47.62131156557512
 30
0.0
 11
63.00139237163752
 21
56.62131156557513
 31
0.0
  0
CIRCLE
  5
3B0
330
1F
100
AcDbEntity
  8
0
 62
     7
370
    35
100
AcDbCircle
 10
350.0013923716375
 20
52.12131156557513
 30
0.0
 40
4.883901999999999
  0
LINE
  5
3B1
330
1F
100
AcDbEntity
  8
0
 62
     7
 48
0.05
370
    35
100
AcDbLine
 10
349.0013923716375
 20
56.62131156557513
 30
0.0
 11
351.0013923716375
 21
56.62131156557513
 31
0.0
  0
LINE
  5
3B2
330
1F
100
AcDbEntity
  8
0
 62
     7
 48
0.225
370
    35
100
AcDbLine
 10
349.0013923716375
 20
56.62131156557513
 30
0.0
 11
349.0013923716375
 21
47.62131156557512
 31
0.0
  0
LINE
  5
3B3
330
1F
100
AcDbEntity
  8
0
 62
     7
 48
0.05
370
    35
100
AcDbLine
 10
351.0013923716375
 20
47.62131156557512
 30
0.0
 11
349.0013923716375
 21
47.62131156557512
 31
0.0
  0
LINE
  5
3B4
330
1F
100
AcDbEntity
  8
0
 62
     7
 48
0.225
370
    35
100
AcDbLine
 10
351.0013923716375
 20
47.62131156557512
 30
0.0
 11
351.0013923716375
 21
56.62131156557513
 31
0.0
  0
CIRCLE
  5
3B5
330
1F
100
AcDbEntity
  8
0
 62
     7
370
    35
100
AcDbCircle
 10
350.0013923716375
 20
321.1213115655752
 30
0.0
 40
4.883901999999999
  0
LINE
  5
3B6
330
1F
100
AcDbEntity
  8
0
 62
     7
 48
0.05
370
    35
100
AcDbLine
 10
349.0013923716375
 20
325.6213115655752
 30
0.0
 11
351.0013923716375
 21
325.6213115655752
 31
0.0
  0
LINE
  5
3B7
330
1F
100
AcDbEntity
  8
0
 62
     7
 48
0.225
370
    35
100
AcDbLine
 10
349.0013923716375
 20
325.6213115655752
 30
0.0
 11
349.0013923716375
 21
316.6213115655752
 31
0.0
  0
LINE
  5
3B8
330
1F
100
AcDbEntity
  8
0
 62
     7
 48
0.05
370
    35
100
AcDbLine
 10
351.0013923716375
 20
316.6213115655752
 30
0.0
 11
349.0013923716375
 21
316.6213115655752
 31
0.0
  0
LINE
  5
3B9
330
1F
100
AcDbEntity
  8
0
 62
     7
 48
0.225
370
    35
100
AcDbLine
 10
351.0013923716375
 20
316.6213115655752
 30
0.0
 11
351.0013923716375
 21
325.6213115655752
 31
0.0
  0
CIRCLE
  5
3BA
330
1F
100
AcDbEntity
  8
0
 62
     7
370
    35
100
AcDbCircle
 10
62.00139237163752
 20
321.1213115655752
 30
0.0
 40
4.883901999999999
  0
LINE
  5
3BB
330
1F
100
AcDbEntity
  8
0
 62
     7
 48
0.05
370
    35
100
AcDbLine
 10
61.00139237163752
 20
325.6213115655752
 30
0.0
 11
63.00139237163752
 21
325.6213115655752
 31
0.0
  0
LINE
  5
3BC
330
1F
100
AcDbEntity
  8
0
 62
     7
 48
0.225
370
    35
100
AcDbLine
 10
61.00139237163752
 20
325.6213115655752
 30
0.0
 11
61.00139237163752
 21
316.6213115655752
 31
0.0
  0
LINE
  5
3BD
330
1F
100
AcDbEntity
  8
0
 62
     7
 48
0.05
370
    35
100
AcDbLine
 10
63.00139237163752
 20
316.6213115655752
 30
0.0
 11
61.00139237163752
 21
316.6213115655752
 31
0.0
  0
LINE
  5
3BE
330
1F
100
AcDbEntity
  8
0
 62
     7
 48
0.225
370
    35
100
AcDbLine
 10
63.00139237163752
 20
316.6213115655752
 30
0.0
 11
63.00139237163752
 21
325.6213115655752
 31
0.0
  0
CIRCLE
  5
3BF
330
1F
100
AcDbEntity
  8
0
 62
     7
370
    35
100
AcDbCircle
 10
62.00139237163752
 20
530.1213425655752
 30
0.0
 40
4.883901999999999
  0
LINE
  5
3C0
330
1F
100
AcDbEntity
  8
0
 62
     7
 48
0.05
370
    35
100
AcDbLine
 10
61.00139237163752
 20
534.6213425655752
 30
0.0
 11
63.00139237163752
 21
534.6213425655752
 31
0.0
  0
LINE
  5
3C1
330
1F
100
AcDbEntity
  8
0
 62
     7
 48
0.225
370
    35
100
AcDbLine
 10
61.00139237163752
 20
534.6213425655752
 30
0.0
 11
61.00139237163752
 21
525.6213425655752
 31
0.0
  0
LINE
  5
3C2
330
1F
100
AcDbEntity
  8
0
 62
     7
 48
0.05
370
    35
100
AcDbLine
 10
63.00139237163752
 20
525.6213425655752
 30
0.0
 11
61.00139237163752
 21
525.6213425655752
 31
0.0
  0
LINE
  5
3C3
330
1F
100
AcDbEntity
  8
0
 62
     7
 48
0.225
370
    35
100
AcDbLine
 10
63.00139237163752
 20
525.6213425655752
 30
0.0
 11
63.00139237163752
 21
534.6213425655752
 31
0.0
  0
CIRCLE
  5
3C4
330
1F
100
AcDbEntity
  8
0
 62
     7
370
    35
100
AcDbCircle
 10
350.0013923716375
 20
530.1213425655752
 30
0.0
 40
4.883901999999999
  0
LINE
  5
3C5
330
1F
100
AcDbEntity
  8
0
 62
     7
 48
0.05
370
    35
100
AcDbLine
 10
349.0013923716375
 20
534.6213425655752
 30
0.0
 11
351.0013923716375
 21
534.6213425655752
 31
0.0
  0
LINE
  5
3C6
330
1F
100
AcDbEntity
  8
0
 62
     7
 48
0.225
370
    35
100
AcDbLine
 10
349.0013923716375
 20
534.6213425655752
 30
0.0
 11
349.0013923716375
 21
525.6213425655752
 31
0.0
  0
LINE
  5
3C7
330
1F
100
AcDbEntity
  8
0
 62
     7
 48
0.05
370
    35
100
AcDbLine
 10
351.0013923716375
 20
525.6213425655752
 30
0.0
 11
349.0013923716375
 21
525.6213425655752
 31
0.0
  0
LINE
  5
3C8
330
1F
100
AcDbEntity
  8
0
 62
     7
 48
0.225
370
    35
100
AcDbLine
 10
351.0013923716375
 20
525.6213425655752
 30
0.0
 11
351.0013923716375
 21
534.6213425655752
 31
0.0
  0
LINE
  5
3C9
330
1F
100
AcDbEntity
  8
0
 62
     7
100
AcDbLine
 10
80.00139237163752
 20
453.6213425655751
 30
0.0
 11
332.0013923716375
 21
453.6213425655751
 31
0.0
  0
LINE
  5
3CA
330
1F
100
AcDbEntity
  8
0
 62
     7
100
AcDbLine
 10
332.0013923716375
 20
453.6213425655751
 30
0.0
 11
332.0013923716375
 21
408.6213425655751
 31
0.0
  0
LINE
  5
3CB
330
1F
100
AcDbEntity
  8
0
 62
     7
100
AcDbLine
 10
332.0013923716375
 20
408.6213425655751
 30
0.0
 11
80.00139237163752
 21
408.6213425655751
 31
0.0
  0
LINE
  5
3CC
330
1F
100
AcDbEntity
  8
0
 62
     7
100
AcDbLine
 10
80.00139237163752
 20
408.6213425655751
 30
0.0
 11
80.00139237163752
 21
453.6213425655751
 31
0.0
  0
DIMENSION
  5
3CD
330
1F
100
AcDbEntity
  8
QUOTE
 62
     7
100
AcDbDimension
  2
*D5
 10
23.95055262163752
 20
36.12131156557513
 30
0.0
 11
23.95055262163753
 21
291.0000774755752
 31
0.0
 70
   160
 71
     0
 42
509.944489
  3
Standard
100
AcDbAlignedDimension
 13
62.00139237163752
 23
546.0658005655751
 33
0.0
 14
62.06389237163752
 24
36.12131156557513
 34
0.0
 50
90.0
100
AcDbRotatedDimension
1001
ACAD
1000
DSTYLE
1002
{
1070
    45
1040
1.0
1070
    41
1040
15.0
1070
   140
1040
10.0
1070
    78
1070
     8
1070
   284
1070
     8
1002
}
  0
DIMENSION
  5
3CE
330
1F
100
AcDbEntity
  8
QUOTE
 62
     7
100
AcDbDimension
  2
*D6
 10
46.00139237163752
 20
18.16162096557514
 30
0.0
 11
206.3462218816375
 21
18.16162096557514
 31
0.0
 70
   160
 71
     0
 42
320.0
  3
Standard
100
AcDbAlignedDimension
 13
366.0013923716375
 23
52.11894123557512
 33
0.0
 14
46.00139237163752
 24
52.18381156557512
 34
0.0
100
AcDbRotatedDimension
1001
ACAD
1000
DSTYLE
1002
{
1070
    41
1040
15.0
1070
   140
1040
10.0
1070
    78
1070
     8
1070
   284
1070
     8
1002
}
  0
TEXT
  5
3CF
330
1F
100
AcDbEntity
  8
0
 62
     7
100
AcDbText
 10
75.16980520306609
 20
527.4230889755751
 30
0.0
 40
5.0
  1
GW68009N
 72
     1
 11
94.09837663163752
 21
527.4230889755751
 31
0.0
100
AcDbText
  0
LWPOLYLINE
  5
3D0
330
1F
100
AcDbEntity
  8
0
 62
     7
370
    35
100
AcDbPolyline
 90
        4
 70
     0
 43
0.0
 10
364.4790533716375
 20
58.27679856557512
 10
363.5118903716375
 20
58.26483556557512
 10
363.4834483716375
 20
58.26285256557513
 10
363.4791143716375
 20
58.26184556557513
  0
LWPOLYLINE
  5
3D1
330
1F
100
AcDbEntity
  8
0
 62
     7
370
    35
100
AcDbPolyline
 90
        4
 70
     0
 43
0.0
 10
365.9459723716375
 20
58.29411756557512
 10
365.9415783716375
 20
58.29311056557512
 10
365.9128913716376
 20
58.29111156557512
 10
364.9460333716376
 20
58.27916356557513
  0
LWPOLYLINE
  5
3D2
330
1F
100
AcDbEntity
  8
0
 62
     7
370
    35
100
AcDbPolyline
 90
        5
 70
     0
 43
0.0
 10
363.6183963716376
 20
45.96345956557513
 10
364.4144783716375
 20
45.95708156557512
 10
364.6910283716376
 20
45.95021456557512
 10
364.7010383716375
 20
45.94907056557511
 10
364.7025643716375
 20
45.94850556557512
  0
LWPOLYLINE
  5
3D3
330
1F
100
AcDbEntity
  8
0
 62
     7
370
    35
100
AcDbPolyline
 90
        5
 70
     0
 43
0.0
 10
361.8632083716375
 20
45.98140356557514
 10
361.8643073716376
 20
45.98094656557512
 10
361.8693733716375
 20
45.98019856557513
 10
362.1117443716376
 20
45.97356056557512
 10
362.9914433716375
 20
45.96634356557513
  0
LWPOLYLINE
  5
3D4
330
1F
100
AcDbEntity
  8
0
 62
     7
370
    35
100
AcDbPolyline
 90
        4
 70
     0
 43
0.0
 10
364.4790533716375
 20
327.2767985655752
 10
363.5118903716375
 20
327.2648355655751
 10
363.4834483716375
 20
327.2628525655751
 10
363.4791143716375
 20
327.2618455655752
  0
LWPOLYLINE
  5
3D5
330
1F
100
AcDbEntity
  8
0
 62
     7
370
    35
100
AcDbPolyline
 90
        4
 70
     0
 43
0.0
 10
365.9459723716375
 20
327.2941325655752
 10
365.9415783716375
 20
327.2930955655752
 10
365.9128913716376
 20
327.2911115655752
 10
364.9460333716376
 20
327.2791485655752
  0
LWPOLYLINE
  5
3D6
330
1F
100
AcDbEntity
  8
0
 62
     7
370
    35
100
AcDbPolyline
 90
        4
 70
     0
 43
0.0
 10
365.9459723716375
 20
314.9484905655752
 10
365.9415783716375
 20
314.9494975655751
 10
365.9128913716376
 20
314.9515115655752
 10
364.9460333716376
 20
314.9634745655751
  0
LWPOLYLINE
  5
3D7
330
1F
100
AcDbEntity
  8
0
 62
     7
370
    35
100
AcDbPolyline
 90
        4
 70
     0
 43
0.0
 10
364.4790533716375
 20
314.9658245655752
 10
363.5118903716375
 20
314.9777875655751
 10
363.4834483716375
 20
314.9797715655751
 10
363.4791143716375
 20
314.9807785655752
  0
LWPOLYLINE
  5
3D8
330
1F
100
AcDbEntity
  8
0
 62
     7
370
    35
100
AcDbPolyline
 90
        5
 70
     0
 43
0.0
 10
361.8632083716375
 20
536.2612345655751
 10
361.8678473716375
 20
536.2622725655751
 10
361.8979373716376
 20
536.2641645655751
 10
362.2237433716375
 20
536.270573565575
 10
362.9914433716375
 20
536.2762495655751
  0
LWPOLYLINE
  5
3D9
330
1F
100
AcDbEntity
  8
0
 62
     7
370
    35
100
AcDbPolyline
 90
        5
 70
     0
 43
0.0
 10
363.6183963716376
 20
536.2791795655751
 10
364.4144783716375
 20
536.2855265655752
 10
364.6910283716376
 20
536.2924235655752
 10
364.7010383716375
 20
536.2935835655751
 10
364.7025643716375
 20
536.2941325655752
  0
LWPOLYLINE
  5
3DA
330
1F
100
AcDbEntity
  8
0
 62
     7
370
    35
100
AcDbPolyline
 90
        4
 70
     0
 43
0.0
 10
365.9459723716375
 20
523.948490565575
 10
365.9415783716375
 20
523.9495285655752
 10
365.9128913716376
 20
523.9515425655751
 10
364.9460333716376
 20
523.9634445655751
  0
LWPOLYLINE
  5
3DB
330
1F
100
AcDbEntity
  8
0
 62
     7
370
    35
100
AcDbPolyline
 90
        4
 70
     0
 43
0.0
 10
364.4790533716375
 20
523.9658245655751
 10
363.5118903716375
 20
523.9777875655751
 10
363.4834483716375
 20
523.9797405655751
 10
363.4791143716375
 20
523.9807785655751
  0
LWPOLYLINE
  5
3DC
330
1F
100
AcDbEntity
  8
0
 62
     7
370
    35
100
AcDbPolyline
 90
        4
 70
     0
 43
0.0
 10
47.52379237163752
 20
523.9658245655751
 10
48.49095537163752
 20
523.9777875655751
 10
48.51939737163752
 20
523.9797405655751
 10
48.52373137163752
 20
523.9807785655751
  0
LWPOLYLINE
  5
3DD
330
1F
100
AcDbEntity
  8
0
 62
     7
370
    35
100
AcDbPolyline
 90
        4
 70
     0
 43
0.0
 10
46.05687337163752
 20
523.948490565575
 10
46.06120637163752
 20
523.9495285655752
 10
46.08989337163753
 20
523.9515425655751
 10
47.05681237163751
 20
523.9634445655751
  0
LWPOLYLINE
  5
3DE
330
1F
100
AcDbEntity
  8
0
 62
     7
370
    35
100
AcDbPolyline
 90
        5
 70
     0
 43
0.0
 10
48.38444937163753
 20
536.2791795655751
 10
47.58836737163752
 20
536.2855265655752
 10
47.31181737163752
 20
536.2924235655752
 10
47.30180737163752
 20
536.2935835655751
 10
47.30022037163752
 20
536.2941325655752
  0
LWPOLYLINE
  5
3DF
330
1F
100
AcDbEntity
  8
0
 62
     7
370
    35
100
AcDbPolyline
 90
        5
 70
     0
 43
0.0
 10
50.13957637163752
 20
536.2612345655751
 10
50.13493737163752
 20
536.2622725655751
 10
50.10490837163752
 20
536.2641645655751
 10
49.77910237163752
 20
536.270573565575
 10
49.01140237163753
 20
536.2762495655751
  0
LWPOLYLINE
  5
3E0
330
1F
100
AcDbEntity
  8
0
 62
     7
370
    35
100
AcDbPolyline
 90
        4
 70
     0
 43
0.0
 10
47.52379237163752
 20
314.9658245655752
 10
48.49095537163752
 20
314.9777875655751
 10
48.51939737163752
 20
314.9797715655751
 10
48.52373137163752
 20
314.9807785655752
  0
LWPOLYLINE
  5
3E1
330
1F
100
AcDbEntity
  8
0
 62
     7
370
    35
100
AcDbPolyline
 90
        4
 70
     0
 43
0.0
 10
46.05687337163752
 20
314.9484905655752
 10
46.06120637163752
 20
314.9494975655751
 10
46.08989337163753
 20
314.9515115655752
 10
47.05681237163751
 20
314.9634745655751
  0
LWPOLYLINE
  5
3E2
330
1F
100
AcDbEntity
  8
0
 62
     7
370
    35
100
AcDbPolyline
 90
        4
 70
     0
 43
0.0
 10
46.05687337163752
 20
327.2941325655752
 10
46.06120637163752
 20
327.2930955655752
 10
46.08989337163753
 20
327.2911115655752
 10
47.05681237163751
 20
327.2791485655752
  0
LWPOLYLINE
  5
3E3
330
1F
100
AcDbEntity
  8
0
 62
     7
370
    35
100
AcDbPolyline
 90
        4
 70
     0
 43
0.0
 10
47.52379237163752
 20
327.2767985655752
 10
48.49095537163752
 20
327.2648355655751
 10
48.51939737163752
 20
327.2628525655751
 10
48.52373137163752
 20
327.2618455655752
  0
LWPOLYLINE
  5
3E4
330
1F
100
AcDbEntity
  8
0
 62
     7
370
    35
100
AcDbPolyline
 90
        5
 70
     0
 43
0.0
 10
50.13957637163752
 20
45.98140356557514
 10
50.13493737163752
 20
45.98036656557513
 10
50.10490837163752
 20
45.97844356557513
 10
49.77910237163752
 20
45.97205056557513
 10
49.01140237163753
 20
45.96634356557513
  0
LWPOLYLINE
  5
3E5
330
1F
100
AcDbEntity
  8
0
 62
     7
370
    35
100
AcDbPolyline
 90
        5
 70
     0
 43
0.0
 10
48.38444937163753
 20
45.96345956557513
 10
47.58836737163752
 20
45.95708156557512
 10
47.31181737163752
 20
45.95021456557512
 10
47.30180737163752
 20
45.94907056557511
 10
47.30022037163752
 20
45.94850556557512
  0
LWPOLYLINE
  5
3E6
330
1F
100
AcDbEntity
  8
0
 62
     7
370
    35
100
AcDbPolyline
 90
        4
 70
     0
 43
0.0
 10
46.05687337163752
 20
58.29411756557512
 10
46.06120637163752
 20
58.29311056557512
 10
46.08989337163753
 20
58.29111156557512
 10
47.05681237163751
 20
58.27916356557513
  0
LWPOLYLINE
  5
3E7
330
1F
100
AcDbEntity
  8
0
 62
     7
370
    35
100
AcDbPolyline
 90
        4
 70
     0
 43
0.0
 10
47.52379237163752
 20
58.27679856557512
 10
48.49095537163752
 20
58.26483556557512
 10
48.51939737163752
 20
58.26285256557513
 10
48.52373137163752
 20
58.26184556557513
  0
LWPOLYLINE
  5
3E8
330
1F
100
AcDbEntity
  8
0
 62
     7
370
    35
100
AcDbPolyline
 90
       38
 70
     0
 43
0.0
 10
57.56450237163752
 20
43.99959256557511
 10
58.27006937163752
 20
43.65726156557511
 10
59.00218537163752
 20
43.37524856557513
 10
59.75578637163753
 20
43.15550656557514
 10
60.52550137163752
 20
42.99959256557511
 10
61.30583537163753
 20
42.90860456557513
 10
62.09129737163753
 20
42.88322856557513
 10
62.87608737163752
 20
42.92363456557512
 10
63.70134337163753
 20
43.03805956557513
 10
64.51286737163752
 20
43.22519356557513
 10
65.30400437163752
 20
43.48357056557512
 10
66.06865337163752
 20
43.81111556557513
 10
66.80083037163751
 20
44.20529656557514
 10
67.49480037163753
 20
44.66312056557512
 10
68.10075737163753
 20
45.14259756557513
 10
68.66484437163752
 20
45.67088756557512
 10
69.18333837163752
 20
46.24454156557513
 10
69.65251537163752
 20
46.85973056557512
 10
70.06901937163752
 20
47.51237956557512
 10
70.42992037163752
 20
48.19810956557512
 10
70.73253237163751
 20
48.91228156557511
 10
70.97459837163753
 20
49.65002856557513
 10
71.15422437163752
 20
50.40622356557512
 10
71.27244937163752
 20
51.19890256557514
 10
71.32182737163752
 20
51.99951656557512
 10
71.30174637163753
 20
52.80196056557513
 10
71.21226837163752
 20
53.60016256557513
 10
71.05406537163753
 20
54.38812656557512
 10
70.82811337163753
 20
55.15991656557513
 10
70.53612137163753
 20
55.90968756557512
 10
70.18010337163753
 20
56.63182456557513
 10
69.76274437163752
 20
57.32083556557512
 10
69.28697537163753
 20
57.97153156557512
 10
68.75645837163753
 20
58.57893856557513
 10
68.17509837163751
 20
59.13840156557512
 10
67.54729037163753
 20
59.64564956557513
 10
67.02684437163752
 20
60.00352956557512
 10
66.48332637163753
 20
60.32538256557512
  0
LWPOLYLINE
  5
3E9
330
1F
100
AcDbEntity
  8
0
 62
     7
370
    35
100
AcDbPolyline
 90
       37
 70
     0
 43
0.0
 10
57.56450237163752
 20
43.99959256557511
 10
56.88090937163753
 20
44.40608656557512
 10
56.23454637163752
 20
44.86938956557511
 10
55.63011537163752
 20
45.38629556557512
 10
55.07194937163752
 20
45.95322056557512
 10
54.56407537163753
 20
46.56618156557513
 10
54.11040137163752
 20
47.22090556557512
 10
53.71422237163752
 20
47.91275456557511
 10
53.37871137163752
 20
48.63681456557512
 10
53.10643337163752
 20
49.38783656557513
 10
52.89964637163752
 20
50.16037456557512
 10
52.76005937163752
 20
50.94943656557513
 10
52.68901437163752
 20
51.74829556557511
 10
52.68736637163752
 20
52.55087756557512
 10
52.75511537163753
 20
53.35112456557512
 10
52.89189537163752
 20
54.14300956557513
 10
53.09685137163753
 20
54.92058256557513
 10
53.36845737163752
 20
55.67796756557513
 10
53.70476137163752
 20
56.40945856557512
 10
54.10332137163752
 20
57.10953156557512
 10
54.56132837163753
 20
57.77287756557512
 10
55.07524437163752
 20
58.39444456557512
 10
55.64140737163753
 20
58.96945656557512
 10
56.25529837163752
 20
59.49351956557513
 10
56.93608437163752
 20
59.97787956557512
 10
57.65745937163752
 20
60.39938756557512
 10
58.41362337163753
 20
60.75464256557513
 10
59.19853637163752
 20
61.04082156557513
 10
60.00578637163752
 20
61.25566556557513
 10
60.82896837163752
 20
61.39749556557513
 10
61.66154837163752
 20
61.46519956557511
 10
62.49687537163752
 20
61.45822556557511
 10
63.32823537163752
 20
61.37665256557513
 10
64.14909737163752
 20
61.22107356557513
 10
64.95286937163752
 20
60.99269556557513
 10
65.73302037163752
 20
60.69333356557513
 10
66.48332637163753
 20
60.32538256557512
  0
LWPOLYLINE
  5
3EA
330
1F
100
AcDbEntity
  8
0
 62
     7
370
    35
100
AcDbPolyline
 90
       37
 70
     0
 43
0.0
 10
354.4383433716375
 20
43.99959256557511
 10
355.1219363716375
 20
44.40608656557512
 10
355.7682383716375
 20
44.86938956557511
 10
356.3727303716376
 20
45.38629556557512
 10
356.9308963716376
 20
45.95322056557512
 10
357.4387703716375
 20
46.56618156557513
 10
357.8924443716376
 20
47.22090556557512
 10
358.2886233716375
 20
47.91275456557511
 10
358.6241343716375
 20
48.63681456557512
 10
358.8964113716376
 20
49.38783656557513
 10
359.1031993716375
 20
50.16037456557512
 10
359.2427863716375
 20
50.94943656557513
 10
359.3137703716375
 20
51.74829556557511
 10
359.3154793716375
 20
52.55087756557512
 10
359.2477303716375
 20
53.35112456557512
 10
359.1108893716375
 20
54.14300956557513
 10
358.9059943716376
 20
54.92058256557513
 10
358.6343883716375
 20
55.67796756557513
 10
358.2980843716375
 20
56.40945856557512
 10
357.8994633716376
 20
57.10953156557512
 10
357.4415163716375
 20
57.77287756557512
 10
356.9275393716375
 20
58.39444456557512
 10
356.3614993716375
 20
58.96945656557512
 10
355.7474863716375
 20
59.49351956557513
 10
355.0667613716375
 20
59.97787956557512
 10
354.3453863716376
 20
60.39938756557512
 10
353.5891613716375
 20
60.75464256557513
 10
352.8043093716375
 20
61.04082156557513
 10
351.9970583716375
 20
61.25566556557513
 10
351.1738773716376
 20
61.39749556557513
 10
350.3412973716375
 20
61.46519956557511
 10
349.5060313716375
 20
61.45822556557511
 10
348.6746103716375
 20
61.37665256557513
 10
347.8536873716375
 20
61.22107356557513
 10
347.0499763716375
 20
60.99269556557513
 10
346.2698253716376
 20
60.69333356557513
 10
345.5195193716376
 20
60.32538256557512
  0
LWPOLYLINE
  5
3EB
330
1F
100
AcDbEntity
  8
0
 62
     7
370
    35
100
AcDbPolyline
 90
       38
 70
     0
 43
0.0
 10
354.4383433716375
 20
43.99959256557511
 10
353.7327763716376
 20
43.65726156557511
 10
353.0006603716375
 20
43.37524856557513
 10
352.2470583716375
 20
43.15550656557514
 10
351.4773443716375
 20
42.99959256557511
 10
350.6969493716375
 20
42.90860456557513
 10
349.9115483716376
 20
42.88322856557513
 10
349.1267583716375
 20
42.92363456557512
 10
348.3014413716376
 20
43.03805956557513
 10
347.4899783716375
 20
43.22519356557513
 10
346.6987803716376
 20
43.48357056557512
 10
345.9341313716375
 20
43.81111556557513
 10
345.2019533716375
 20
44.20529656557514
 10
344.5080453716375
 20
44.66312056557512
 10
343.9020883716375
 20
45.14259756557513
 10
343.3379403716375
 20
45.67088756557512
 10
342.8195073716375
 20
46.24454156557513
 10
342.3503303716375
 20
46.85973056557512
 10
341.9338263716376
 20
47.51237956557512
 10
341.5729253716376
 20
48.19810956557512
 10
341.2703133716375
 20
48.91228156557511
 10
341.0282473716376
 20
49.65002856557513
 10
340.8485603716375
 20
50.40622356557512
 10
340.7303963716375
 20
51.19890256557514
 10
340.6810793716376
 20
51.99951656557512
 10
340.7010993716375
 20
52.80196056557513
 10
340.7905773716375
 20
53.60016256557513
 10
340.9487803716376
 20
54.38812656557512
 10
341.1747323716376
 20
55.15991656557513
 10
341.4667243716375
 20
55.90968756557512
 10
341.8227423716376
 20
56.63182456557513
 10
342.2401003716375
 20
57.32083556557512
 10
342.7158693716375
 20
57.97153156557512
 10
343.2463873716375
 20
58.57893856557513
 10
343.8277473716376
 20
59.13840156557512
 10
344.4555553716375
 20
59.64564956557513
 10
344.9760013716375
 20
60.00352956557512
 10
345.5195193716376
 20
60.32538256557512
  0
LWPOLYLINE
  5
3EC
330
1F
100
AcDbEntity
  8
0
 62
     7
370
    35
100
AcDbPolyline
 90
       38
 70
     0
 43
0.0
 10
66.43834337163752
 20
538.2430465655751
 10
65.73277637163752
 20
538.585331565575
 10
65.00066037163752
 20
538.8673745655752
 10
64.24705837163752
 20
539.0871015655751
 10
63.47734437163752
 20
539.2430465655751
 10
62.69694937163752
 20
539.3339885655751
 10
61.91154837163752
 20
539.3593795655752
 10
61.12675837163752
 20
539.318974565575
 10
60.30144137163752
 20
539.2045945655751
 10
59.48997837163752
 20
539.0174605655751
 10
58.69878037163752
 20
538.7590375655751
 10
57.93413137163753
 20
538.4315225655751
 10
57.20195337163752
 20
538.0373575655752
 10
56.50804537163752
 20
537.5794725655752
 10
55.90208837163753
 20
537.1000405655751
 10
55.33794037163753
 20
536.5717205655752
 10
54.81950737163753
 20
535.9980515655751
 10
54.35033037163752
 20
535.3828775655751
 10
53.93382637163752
 20
534.7302285655752
 10
53.57292537163752
 20
534.0444985655751
 10
53.27031337163752
 20
533.330326565575
 10
53.02824737163753
 20
532.5925945655751
 10
52.84856037163752
 20
531.8364305655751
 10
52.73039637163752
 20
531.0437055655751
 10
52.68107937163752
 20
530.2431075655751
 10
52.70109937163752
 20
529.4406785655751
 10
52.79057737163753
 20
528.6424605655751
 10
52.94878037163752
 20
527.8544965655752
 10
53.17473237163753
 20
527.0827065655752
 10
53.46672437163753
 20
526.3329515655751
 10
53.82274237163752
 20
525.6107835655751
 10
54.24010037163752
 20
524.9217575655751
 10
54.71586937163753
 20
524.271122565575
 10
55.24638737163752
 20
523.6637005655751
 10
55.82774737163752
 20
523.1042525655751
 10
56.45555537163753
 20
522.596989565575
 10
56.97600137163752
 20
522.2390795655751
 10
57.51951937163752
 20
521.9172405655751
  0
LWPOLYLINE
  5
3ED
330
1F
100
AcDbEntity
  8
0
 62
     7
370
    35
100
AcDbPolyline
 90
       37
 70
     0
 43
0.0
 10
66.43834337163752
 20
538.2430465655751
 10
67.12193637163753
 20
537.8365525655751
 10
67.76823837163752
 20
537.3732345655752
 10
68.37273037163751
 20
536.8563275655751
 10
68.93089637163751
 20
536.2894335655751
 10
69.43877037163753
 20
535.6764565655752
 10
69.89244437163752
 20
535.0217325655752
 10
70.28862337163753
 20
534.3298385655751
 10
70.62413437163752
 20
533.6058395655751
 10
70.89641137163752
 20
532.8548015655751
 10
71.10319937163751
 20
532.0822795655751
 10
71.24278637163752
 20
531.2932175655752
 10
71.31377037163753
 20
530.4943285655751
 10
71.31547937163752
 20
529.6917765655751
 10
71.24773037163752
 20
528.8914835655751
 10
71.11088937163753
 20
528.0996135655751
 10
70.90599437163752
 20
527.3220255655751
 10
70.63438837163753
 20
526.5646405655751
 10
70.29808437163751
 20
525.8331345655752
 10
69.89946337163752
 20
525.133060565575
 10
69.44151637163753
 20
524.469730565575
 10
68.92753937163752
 20
523.8481485655751
 10
68.36149937163753
 20
523.2731975655751
 10
67.74748637163753
 20
522.749088565575
 10
67.06676137163753
 20
522.2647745655751
 10
66.34538637163752
 20
521.8432665655751
 10
65.58916137163752
 20
521.487980565575
 10
64.80430937163752
 20
521.2017865655751
 10
63.99705837163752
 20
520.986942565575
 10
63.17387737163752
 20
520.845097565575
 10
62.34129737163752
 20
520.7774095655751
 10
61.50603137163752
 20
520.7844285655751
 10
60.67461037163752
 20
520.8659715655751
 10
59.85368737163753
 20
521.0215495655751
 10
59.04997637163752
 20
521.249943565575
 10
58.26982537163752
 20
521.5493205655751
 10
57.51951937163752
 20
521.9172405655751
  0
LWPOLYLINE
  5
3EE
330
1F
100
AcDbEntity
  8
0
 62
     7
370
    35
100
AcDbPolyline
 90
       37
 70
     0
 43
0.0
 10
345.5645023716376
 20
538.2430465655751
 10
344.8809093716375
 20
537.8365525655751
 10
344.2345463716375
 20
537.3732345655752
 10
343.6301153716375
 20
536.8563275655751
 10
343.0719493716375
 20
536.2894335655751
 10
342.5640753716375
 20
535.6764565655752
 10
342.1104013716375
 20
535.0217325655752
 10
341.7142223716376
 20
534.3298385655751
 10
341.3787113716375
 20
533.6058395655751
 10
341.1064333716375
 20
532.8548015655751
 10
340.8996463716376
 20
532.0822795655751
 10
340.7600593716376
 20
531.2932175655752
 10
340.6890143716375
 20
530.4943285655751
 10
340.6873663716375
 20
529.6917765655751
 10
340.7551153716375
 20
528.8914835655751
 10
340.8918953716375
 20
528.0996135655751
 10
341.0968513716375
 20
527.3220255655751
 10
341.3684573716375
 20
526.5646405655751
 10
341.7047613716376
 20
525.8331345655752
 10
342.1033213716376
 20
525.133060565575
 10
342.5613283716375
 20
524.469730565575
 10
343.0752443716375
 20
523.8481485655751
 10
343.6414073716376
 20
523.2731975655751
 10
344.2552983716375
 20
522.749088565575
 10
344.9360843716375
 20
522.2647745655751
 10
345.6574593716375
 20
521.8432665655751
 10
346.4136233716375
 20
521.487980565575
 10
347.1985363716375
 20
521.2017865655751
 10
348.0057863716376
 20
520.986942565575
 10
348.8289683716375
 20
520.845097565575
 10
349.6615483716376
 20
520.7774095655751
 10
350.4968753716375
 20
520.7844285655751
 10
351.3282353716375
 20
520.8659715655751
 10
352.1490973716375
 20
521.0215495655751
 10
352.9528693716376
 20
521.249943565575
 10
353.7330203716375
 20
521.5493205655751
 10
354.4833263716375
 20
521.9172405655751
  0
LWPOLYLINE
  5
3EF
330
1F
100
AcDbEntity
  8
0
 62
     7
370
    35
100
AcDbPolyline
 90
       38
 70
     0
 43
0.0
 10
345.5645023716376
 20
538.2430465655751
 10
346.2700693716375
 20
538.585331565575
 10
347.0021853716375
 20
538.8673745655752
 10
347.7557863716376
 20
539.0871015655751
 10
348.5255013716376
 20
539.2430465655751
 10
349.3058353716375
 20
539.3339885655751
 10
350.0912973716375
 20
539.3593795655752
 10
350.8760873716375
 20
539.318974565575
 10
351.7013433716376
 20
539.2045945655751
 10
352.5128673716375
 20
539.0174605655751
 10
353.3040043716376
 20
538.7590375655751
 10
354.0686533716375
 20
538.4315225655751
 10
354.8008303716375
 20
538.0373575655752
 10
355.4948003716376
 20
537.5794725655752
 10
356.1007573716375
 20
537.1000405655751
 10
356.6648443716375
 20
536.5717205655752
 10
357.1833383716375
 20
535.9980515655751
 10
357.6525153716375
 20
535.3828775655751
 10
358.0690193716375
 20
534.7302285655752
 10
358.4299203716375
 20
534.0444985655751
 10
358.7325323716375
 20
533.330326565575
 10
358.9745983716375
 20
532.5925945655751
 10
359.1542243716375
 20
531.8364305655751
 10
359.2724493716375
 20
531.0437055655751
 10
359.3218273716375
 20
530.2431075655751
 10
359.3017463716375
 20
529.4406785655751
 10
359.2122683716375
 20
528.6424605655751
 10
359.0540653716375
 20
527.8544965655752
 10
358.8281133716375
 20
527.0827065655752
 10
358.5361213716375
 20
526.3329515655751
 10
358.1801033716375
 20
525.6107835655751
 10
357.7627443716375
 20
524.9217575655751
 10
357.2869753716375
 20
524.271122565575
 10
356.7564583716376
 20
523.6637005655751
 10
356.1750983716375
 20
523.1042525655751
 10
355.5472903716375
 20
522.596989565575
 10
355.0268443716375
 20
522.2390795655751
 10
354.4833263716375
 20
521.9172405655751
  0
LWPOLYLINE
  5
3F0
330
1F
100
AcDbEntity
  8
0
 62
     7
370
    35
100
AcDbPolyline
 90
        7
 70
     0
 43
0.0
 10
363.3853643716375
 20
52.12131156557513
 10
363.3907963716375
 20
54.80623256557513
 10
363.4072763716375
 20
57.05356256557512
 10
363.4254643716375
 20
58.03331456557512
 10
363.4358403716375
 20
58.21326156557512
 10
363.4370613716375
 20
58.21878456557512
 10
363.4376713716375
 20
58.22038656557513
  0
LWPOLYLINE
  5
3F1
330
1F
100
AcDbEntity
  8
0
 62
     7
370
    35
100
AcDbPolyline
 90
       12
 70
     0
 43
0.0
 10
361.8394053716376
 20
46.02223656557512
 10
361.8400153716375
 20
46.02537956557512
 10
361.8448983716376
 20
46.03831956557513
 10
361.8885993716375
 20
46.12930756557512
 10
362.2202643716375
 20
46.81389256557511
 10
362.5326423716375
 20
47.55652256557513
 10
362.8420293716375
 20
48.45698956557512
 10
362.9816173716375
 20
48.95438056557512
 10
363.1052743716375
 20
49.47757356557511
 10
363.2574343716375
 20
50.32960956557511
 10
363.3528323716376
 20
51.21655756557513
 10
363.3853643716375
 20
52.12131156557513
  0
LWPOLYLINE
  5
3F2
330
1F
100
AcDbEntity
  8
0
 62
     7
370
    35
100
AcDbPolyline
 90
       13
 70
     0
 43
0.0
 10
363.4376713716375
 20
327.2203715655752
 10
363.4362673716375
 20
327.2154275655752
 10
363.4334603716376
 20
327.1928145655752
 10
363.4252203716376
 20
327.0254255655751
 10
363.4040413716375
 20
325.7637985655752
 10
363.3879893716376
 20
323.0221295655752
 10
363.3864633716375
 20
319.8912095655752
 10
363.4007453716375
 20
316.8304185655751
 10
363.4140513716375
 20
315.7068825655751
 10
363.4293703716376
 20
315.1130415655751
 10
363.4348643716375
 20
315.0361065655751
 10
363.4366953716375
 20
315.0250285655751
 10
363.4376713716375
 20
315.0222515655752
  0
LWPOLYLINE
  5
3F3
330
1F
100
AcDbEntity
  8
0
 62
     7
370
    35
100
AcDbPolyline
 90
        7
 70
     0
 43
0.0
 10
363.3853643716375
 20
530.1213425655752
 10
363.3907963716375
 20
527.4364055655752
 10
363.4072763716375
 20
525.1890915655751
 10
363.4254643716375
 20
524.209293565575
 10
363.4358403716375
 20
524.029362565575
 10
363.4370613716375
 20
524.0238085655751
 10
363.4376713716375
 20
524.0222215655751
  0
LWPOLYLINE
  5
3F4
330
1F
100
AcDbEntity
  8
0
 62
     7
370
    35
100
AcDbPolyline
 90
       12
 70
     0
 43
0.0
 10
361.8394053716376
 20
536.2204025655752
 10
361.8400153716375
 20
536.2172285655751
 10
361.8448983716376
 20
536.2042885655752
 10
361.8885993716375
 20
536.1132855655752
 10
362.2202643716375
 20
535.428715565575
 10
362.5326423716375
 20
534.6861005655751
 10
362.8420293716375
 20
533.7856485655751
 10
362.9816173716375
 20
533.2882125655752
 10
363.1052743716375
 20
532.7650185655751
 10
363.2574343716375
 20
531.9130295655751
 10
363.3528323716376
 20
531.0260665655752
 10
363.3853643716375
 20
530.1213425655752
  0
LWPOLYLINE
  5
3F5
330
1F
100
AcDbEntity
  8
0
 62
     7
370
    35
100
AcDbPolyline
 90
       13
 70
     0
 43
0.0
 10
48.56517437163752
 20
327.2203715655752
 10
48.56657837163752
 20
327.2154275655752
 10
48.56938537163753
 20
327.1928145655752
 10
48.57762537163752
 20
327.0254255655751
 10
48.59880437163752
 20
325.7637985655752
 10
48.61479537163752
 20
323.0221295655752
 10
48.61638237163752
 20
319.8912095655752
 10
48.60210037163753
 20
316.8304185655751
 10
48.58879437163753
 20
315.7068825655751
 10
48.57341337163752
 20
315.1130415655751
 10
48.56792037163753
 20
315.0361065655751
 10
48.56608937163752
 20
315.0250285655751
 10
48.56517437163752
 20
315.0222515655752
  0
LWPOLYLINE
  5
3F6
330
1F
100
AcDbEntity
  8
0
 62
     7
370
    35
100
AcDbPolyline
 90
        7
 70
     0
 43
0.0
 10
48.61748137163752
 20
530.1213425655752
 10
48.61204937163752
 20
527.4364055655752
 10
48.59556937163752
 20
525.1890915655751
 10
48.57738137163753
 20
524.209293565575
 10
48.56700537163752
 20
524.029362565575
 10
48.56578437163752
 20
524.0238085655751
 10
48.56517437163752
 20
524.0222215655751
  0
LWPOLYLINE
  5
3F7
330
1F
100
AcDbEntity
  8
0
 62
     7
370
    35
100
AcDbPolyline
 90
        7
 70
     0
 43
0.0
 10
48.61748137163752
 20
52.12131156557513
 10
48.61204937163752
 20
54.80623256557513
 10
48.59556937163752
 20
57.05356256557512
 10
48.57738137163753
 20
58.03331456557512
 10
48.56700537163752
 20
58.21326156557512
 10
48.56578437163752
 20
58.21878456557512
 10
48.56517437163752
 20
58.22038656557513
  0
LWPOLYLINE
  5
3F8
330
1F
100
AcDbEntity
  8
0
 62
     7
370
    35
100
AcDbPolyline
 90
       12
 70
     0
 43
0.0
 10
50.16344037163752
 20
536.2204025655752
 10
50.16289137163752
 20
536.2172285655751
 10
50.15788637163752
 20
536.2042885655752
 10
50.11424637163752
 20
536.1132855655752
 10
49.78258137163752
 20
535.428715565575
 10
49.47014237163752
 20
534.6861005655751
 10
49.16081637163753
 20
533.7856485655751
 10
49.02128937163752
 20
533.2882125655752
 10
48.89757137163752
 20
532.7650185655751
 10
48.74541137163753
 20
531.9130295655751
 10
48.64995237163753
 20
531.0260665655752
 10
48.61748137163752
 20
530.1213425655752
  0
LWPOLYLINE
  5
3F9
330
1F
100
AcDbEntity
  8
0
 62
     7
370
    35
100
AcDbPolyline
 90
       12
 70
     0
 43
0.0
 10
50.16344037163752
 20
46.02223656557512
 10
50.16289137163752
 20
46.02537956557512
 10
50.15788637163752
 20
46.03831956557513
 10
50.11424637163752
 20
46.12930756557512
 10
49.78258137163752
 20
46.81389256557511
 10
49.47014237163752
 20
47.55652256557513
 10
49.16081637163753
 20
48.45698956557512
 10
49.02128937163752
 20
48.95438056557512
 10
48.89757137163752
 20
49.47757356557511
 10
48.74541137163753
 20
50.32960956557511
 10
48.64995237163753
 20
51.21655756557513
 10
48.61748137163752
 20
52.12131156557513
  0
LWPOLYLINE
  5
3FA
330
1F
100
AcDbEntity
  8
0
 62
   253
370
    35
100
AcDbPolyline
 90
        4
 70
     0
 43
0.0
 10
66.25279637163751
 20
378.6196635655751
 10
64.95586037163753
 20
378.6066325655752
 10
64.79356737163752
 20
378.5995525655751
 10
64.75847237163752
 20
378.5957685655751
  0
LWPOLYLINE
  5
3FB
330
1F
100
AcDbEntity
  8
0
 62
   253
370
    35
100
AcDbPolyline
 90
        4
 70
     0
 43
0.0
 10
345.7500493716375
 20
378.6196635655751
 10
347.0470463716375
 20
378.6066325655752
 10
347.2092783716375
 20
378.5995525655751
 10
347.2443123716375
 20
378.5957685655751
  0
LWPOLYLINE
  5
3FC
330
1F
100
AcDbEntity
  8
0
 62
   253
370
    35
100
AcDbPolyline
 90
        5
 70
     0
 43
0.0
 10
64.21336737163753
 20
378.8144265655751
 10
64.33751337163752
 20
378.7042275655752
 10
64.42607537163752
 20
378.6501505655751
 10
64.54899937163753
 20
378.6027875655751
 10
64.69615537163753
 20
378.5833175655751
  0
LWPOLYLINE
  5
3FD
330
1F
100
AcDbEntity
  8
0
 62
   253
370
    35
100
AcDbPolyline
 90
        5
 70
     0
 43
0.0
 10
347.3066903716375
 20
378.5833175655751
 10
347.4542123716375
 20
378.6029095655751
 10
347.5774423716375
 20
378.6504865655752
 10
347.6537363716375
 20
378.6961405655751
 10
347.7894783716375
 20
378.8144265655751
  0
LWPOLYLINE
  5
3FE
330
1F
100
AcDbEntity
  8
0
 62
   253
370
    35
100
AcDbPolyline
 90
        6
 70
     0
 43
0.0
 10
212.2861213716376
 20
358.3123215655752
 10
211.6781503716375
 20
358.0120895655751
 10
211.0407603716375
 20
357.7769515655751
 10
210.3817023716375
 20
357.6082195655752
 10
209.7079353716375
 20
357.5065965655751
 10
209.0245853716375
 20
357.4725075655751
  0
LWPOLYLINE
  5
3FF
330
1F
100
AcDbEntity
  8
0
 62
   253
370
    35
100
AcDbPolyline
 90
        7
 70
     0
 43
0.0
 10
203.0038333716375
 20
357.4725075655751
 10
202.4058113716375
 20
357.4986005655751
 10
201.8132213716375
 20
357.5766335655751
 10
201.2310063716375
 20
357.7063035655751
 10
200.6636843716375
 20
357.8870585655751
 10
200.1943243716375
 20
358.0814865655751
 10
199.7422983716375
 20
358.3123215655752
  0
LWPOLYLINE
  5
400
330
1F
100
AcDbEntity
  8
0
 62
   253
370
    35
100
AcDbPolyline
 90
       16
 70
     0
 43
0.0
 10
260.1704593716375
 20
369.8013655655751
 10
259.0469853716375
 20
369.1333055655751
 10
257.8986093716375
 20
368.5036965655752
 10
256.5648073716375
 20
367.8361855655752
 10
255.2015263716375
 20
367.2211345655751
 10
253.8121223716375
 20
366.6607405655751
 10
252.7504763716375
 20
366.2760055655752
 10
251.6790653716376
 20
365.9245955655752
 10
250.6039923716375
 20
365.6082195655752
 10
249.2534063716375
 20
365.2609905655752
 10
247.8906743716375
 20
364.9659775655751
 10
246.5163463716375
 20
364.7235155655751
 10
245.1321903716376
 20
364.5343975655751
 10
243.7610363716375
 20
364.4009135655752
 10
242.3868293716375
 20
364.3206525655752
 10
241.0142093716375
 20
364.2939495655752
  0
LWPOLYLINE
  5
401
330
1F
100
AcDbEntity
  8
0
 62
   253
370
    35
100
AcDbPolyline
 90
       16
 70
     0
 43
0.0
 10
151.8579593716375
 20
369.8013955655751
 10
152.9814333716375
 20
369.1333355655752
 10
154.1298103716375
 20
368.5036965655752
 10
155.4636113716375
 20
367.8361855655752
 10
156.8268923716375
 20
367.2211345655751
 10
158.2162973716375
 20
366.6607705655752
 10
159.2779423716375
 20
366.2760055655752
 10
160.3493533716375
 20
365.9245955655752
 10
161.4244273716375
 20
365.6082195655752
 10
162.7750133716375
 20
365.2609905655752
 10
164.1377443716375
 20
364.9659775655751
 10
165.5120123716375
 20
364.7235155655751
 10
166.8962283716375
 20
364.5343975655751
 10
168.2673223716375
 20
364.4009135655752
 10
169.6415903716375
 20
364.3206525655752
 10
171.0142093716375
 20
364.2939495655752
  0
LWPOLYLINE
  5
402
330
1F
100
AcDbEntity
  8
0
 62
   253
370
    35
100
AcDbPolyline
 90
       10
 70
     0
 43
0.0
 10
260.1704593716375
 20
369.8013655655751
 10
260.3862803716376
 20
369.9718365655751
 10
260.5184213716375
 20
370.1155135655751
 10
260.6380503716375
 20
370.2788735655752
 10
260.7320443716375
 20
370.4457745655751
 10
260.7928353716375
 20
370.6084335655752
 10
260.8075443716375
 20
370.6838425655751
 10
260.8091923716376
 20
370.7687115655752
 10
260.7954593716375
 20
370.8317305655752
 10
260.7181893716376
 20
370.9319505655751
  0
LWPOLYLINE
  5
403
330
1F
100
AcDbEntity
  8
0
 62
   253
370
    35
100
AcDbPolyline
 90
       10
 70
     0
 43
0.0
 10
151.8579593716375
 20
369.8013955655751
 10
151.6184573716375
 20
369.9951825655752
 10
151.4875983716375
 20
370.1433455655751
 10
151.3717533716375
 20
370.3082315655752
 10
151.2831303716375
 20
370.4746745655751
 10
151.2289313716375
 20
370.6364175655751
 10
151.2175783716375
 20
370.7375225655751
 10
151.2209353716375
 20
370.7830245655752
 10
151.2372323716375
 20
370.8425945655752
 10
151.3102303716375
 20
370.9319505655751
  0
LWPOLYLINE
  5
404
330
1F
100
AcDbEntity
  8
0
 62
   253
370
    35
100
AcDbPolyline
 90
        4
 70
     0
 43
0.0
 10
162.5212283716375
 20
377.0567055655752
 10
165.6864513716375
 20
377.0202065655751
 10
169.9462163716375
 20
376.9707075655751
 10
171.0142093716375
 20
376.9682045655751
  0
LWPOLYLINE
  5
405
330
1F
100
AcDbEntity
  8
0
 62
   253
370
    35
100
AcDbPolyline
 90
        6
 70
     0
 43
0.0
 10
201.5107303716375
 20
376.9681745655752
 10
202.9236943716375
 20
376.9925275655752
 10
205.1393923716375
 20
377.0462075655752
 10
207.3252443716375
 20
377.0390665655751
 10
209.5656623716375
 20
376.9807175655751
 10
210.5176883716375
 20
376.9681745655752
  0
LWPOLYLINE
  5
406
330
1F
100
AcDbEntity
  8
0
 62
   253
370
    35
100
AcDbPolyline
 90
        4
 70
     0
 43
0.0
 10
241.0142093716375
 20
376.9681745655752
 10
244.9257083716375
 20
376.9989665655752
 10
248.4561653716375
 20
377.0490465655752
 10
249.5071903716375
 20
377.0567055655752
  0
LWPOLYLINE
  5
407
330
1F
100
AcDbEntity
  8
0
 62
   253
370
    35
100
AcDbPolyline
 90
       14
 70
     0
 43
0.0
 10
241.0142093716375
 20
367.7000165655751
 10
243.1048473716376
 20
367.7367905655751
 10
245.1730233716375
 20
367.8458295655752
 10
247.2071413716375
 20
368.0235335655751
 10
249.2106823716375
 20
368.2667585655752
 10
251.2039683716375
 20
368.5754435655752
 10
253.1996953716375
 20
368.9502915655752
 10
255.3410533716375
 20
369.4254495655751
 10
256.6440313716376
 20
369.7547345655752
 10
257.5536383716375
 20
370.0087935655752
 10
258.3608283716375
 20
370.2616625655752
 10
258.7285043716375
 20
370.3918505655752
 10
259.0484503716375
 20
370.5189865655751
 10
259.3099863716375
 20
370.6400185655752
  0
LWPOLYLINE
  5
408
330
1F
100
AcDbEntity
  8
0
 62
   253
370
    35
100
AcDbPolyline
 90
       14
 70
     0
 43
0.0
 10
152.7184333716375
 20
370.6400185655752
 10
152.9799693716375
 20
370.5189865655751
 10
153.2999153716375
 20
370.3918505655752
 10
154.0624883716375
 20
370.1336105655752
 10
154.8983043716375
 20
369.8873945655752
 10
156.2808113716375
 20
369.5245705655751
 10
158.1657603716375
 20
369.0892375655751
 10
160.1591683716375
 20
368.6931195655751
 10
162.1541023716375
 20
368.3621865655752
 10
164.1512333716375
 20
368.0973555655752
 10
166.1740603716375
 20
367.8975565655751
 10
168.2316173716375
 20
367.7652325655752
 10
170.3166393716375
 20
367.7040755655752
 10
171.0142093716375
 20
367.7000165655751
  0
INSERT
  5
409
330
1F
100
AcDbEntity
  8
0
 62
    56
100
AcDbBlockReference
  2
IB_oriz_NOFUS
 10
37.86948410163752
 20
183.5825622955751
 30
0.0
  0
INSERT
  5
40A
330
1F
100
AcDbEntity
  8
0
 62
    56
100
AcDbBlockReference
  2
IB_oriz_NOFUS
 10
194.7099341016375
 20
183.5828121755751
 30
0.0
 42
0.9999718800000039
  0
INSERT
  5
40B
330
1F
100
AcDbEntity
  8
0
 62
    56
100
AcDbBlockReference
  2
IB_oriz_NOFUS
 10
37.86948410163752
 20
62.97256229557513
 30
0.0
  0
INSERT
  5
40C
330
1F
100
AcDbEntity
  8
0
 62
    56
100
AcDbBlockReference
  2
IB_oriz_NOFUS
 10
194.7099341016375
 20
62.97256229557513
 30
0.0
  0
ENDSEC
  0
SECTION
  2
OBJECTS
  0
DICTIONARY
  5
C
330
0
100
AcDbDictionary
281
     1
  3
ACAD_COLOR
350
73
  3
ACAD_GROUP
350
D
  3
ACAD_LAYOUT
350
1A
  3
ACAD_MATERIAL
350
72
  3
ACAD_MLEADERSTYLE
350
D7
  3
ACAD_MLINESTYLE
350
17
  3
ACAD_PLOTSETTINGS
350
19
  3
ACAD_PLOTSTYLENAME
350
E
  3
ACAD_SCALELIST
350
B6
  3
ACAD_TABLESTYLE
350
86
  3
ACAD_VISUALSTYLE
350
99
  3
ACDB_RECOMPOSE_DATA
350
FF
  3
AcDbVariableDictionary
350
66
  3
DWGPROPS
350
451
  0
DICTIONARY
  5
E6
330
10
100
AcDbDictionary
280
     1
281
     1
  3
ADSK_XREC_LAYER_RECONCILED
360
449
  0
DICTIONARY
  5
44A
330
16B
100
AcDbDictionary
280
     1
281
     1
  3
ADSK_XREC_LAYER_RECONCILED
360
44B
  0
DICTIONARY
  5
73
102
{ACAD_REACTORS
330
C
102
}
330
C
100
AcDbDictionary
281
     1
  0
DICTIONARY
  5
D
102
{ACAD_REACTORS
330
C
102
}
330
C
100
AcDbDictionary
281
     1
  0
DICTIONARY
  5
1A
102
{ACAD_REACTORS
330
C
102
}
330
C
100
AcDbDictionary
281
     1
  3
Layout1
350
59
  3
Layout2
350
5E
  3
Model
350
22
  0
DICTIONARY
  5
72
102
{ACAD_REACTORS
330
C
102
}
330
C
100
AcDbDictionary
281
     1
  3
ByBlock
350
97
  3
ByLayer
350
96
  3
Global
350
98
  0
DICTIONARY
  5
D7
102
{ACAD_REACTORS
330
C
102
}
330
C
100
AcDbDictionary
281
     1
  3
Annotativa
350
E5
  3
Standard
350
D8
  0
DICTIONARY
  5
17
102
{ACAD_REACTORS
330
C
102
}
330
C
100
AcDbDictionary
281
     1
  3
Standard
350
18
  0
DICTIONARY
  5
19
102
{ACAD_REACTORS
330
C
102
}
330
C
100
AcDbDictionary
281
     1
  0
ACDBDICTIONARYWDFLT
  5
E
102
{ACAD_REACTORS
330
C
102
}
330
C
100
AcDbDictionary
281
     1
  3
Normal
350
F
100
AcDbDictionaryWithDefault
340
F
  0
DICTIONARY
  5
B6
102
{ACAD_REACTORS
330
C
102
}
330
C
100
AcDbDictionary
281
     1
  3
A0
350
B7
  3
A1
350
124
  3
A2
350
125
  3
A3
350
126
  3
A4
350
127
  3
A5
350
128
  3
A6
350
129
  3
A7
350
12A
  3
A8
350
12B
  3
A9
350
12C
  3
B0
350
12D
  3
B1
350
12E
  3
B2
350
12F
  3
B3
350
130
  3
B4
350
131
  3
B5
350
132
  3
B6
350
133
  3
B7
350
134
  3
B8
350
135
  3
B9
350
136
  3
C0
350
137
  3
C1
350
138
  3
C2
350
139
  3
C3
350
13A
  3
C4
350
13B
  3
C5
350
13C
  3
C6
350
13D
  3
C7
350
13E
  3
C8
350
13F
  3
C9
350
140
  3
D0
350
141
  3
D1
350
142
  3
D2
350
143
  0
DICTIONARY
  5
86
102
{ACAD_REACTORS
330
C
102
}
330
C
100
AcDbDictionary
281
     1
  3
Standard
350
87
  0
DICTIONARY
  5
99
102
{ACAD_REACTORS
330
C
102
}
330
C
100
AcDbDictionary
281
     1
  3
2dWireframe
350
9F
  3
3D Hidden
350
A1
  3
3dWireframe
350
A0
  3
Basic
350
9E
  3
Brighten
350
A5
  3
ColorChange
350
A9
  3
Conceptual
350
A2
  3
Dim
350
A4
  3
Facepattern
350
A8
  3
Flat
350
9A
  3
FlatWithEdges
350
9B
  3
Gouraud
350
9C
  3
GouraudWithEdges
350
9D
  3
Linepattern
350
A7
  3
Realistic
350
A3
  3
Thicken
350
A6
  0
XRECORD
  5
FF
102
{ACAD_REACTORS
330
C
102
}
330
C
100
AcDbXrecord
280
     1
 90
        1
330
87
  0
DICTIONARY
  5
66
102
{ACAD_REACTORS
330
C
102
}
330
C
100
AcDbDictionary
281
     1
  3
CANNOSCALE
350
F0
  3
CMLEADERSTYLE
350
EF
  3
CTABLESTYLE
350
89
  3
DIMASSOC
350
67
  3
HIDETEXT
350
6B
  3
INDEXCTL
350
44F
  3
LIGHTINGUNITS
350
44D
  3
MSLTSCALE
350
44C
  3
SORTENTS
350
44E
  0
XRECORD
  5
451
102
{ACAD_REACTORS
330
C
102
}
330
C
100
AcDbXrecord
280
     1
  1
DWGPROPS COOKIE
  2

  3

  4

  6

  7

  8
fontanaNZ
  9

300
=
301
=
302
=
303
=
304
=
305
=
306
=
307
=
308
=
309
=
 40
0.0003367361111111
 41
2455511.360042037
 42
2455511.360378415
  1

 90
        0
  0
XRECORD
  5
449
102
{ACAD_REACTORS
330
E6
102
}
330
E6
100
AcDbXrecord
280
     1
290
     1
  0
XRECORD
  5
44B
102
{ACAD_REACTORS
330
44A
102
}
330
44A
100
AcDbXrecord
280
     1
290
     1
  0
LAYOUT
  5
59
102
{ACAD_XDICTIONARY
360
454
102
}
102
{ACAD_REACTORS
330
1A
102
}
330
1A
100
AcDbPlotSettings
  1

  2
None
  4

  6

 40
0.0
 41
0.0
 42
0.0
 43
0.0
 44
0.0
 45
0.0
 46
0.0
 47
0.0
 48
0.0
 49
0.0
140
0.0
141
0.0
142
1.0
143
1.0
 70
   688
 72
     0
 73
     0
 74
     5
  7

 75
    16
147
1.0
148
0.0
149
0.0
100
AcDbLayout
  1
Layout1
 70
     1
 71
     1
 10
0.0
 20
0.0
 11
12.0
 21
9.0
 12
0.0
 22
0.0
 32
0.0
 14
0.0
 24
0.0
 34
0.0
 15
0.0
 25
0.0
 35
0.0
146
0.0
 13
0.0
 23
0.0
 33
0.0
 16
1.0
 26
0.0
 36
0.0
 17
0.0
 27
1.0
 37
0.0
 76
     0
330
58
  0
LAYOUT
  5
5E
102
{ACAD_XDICTIONARY
360
456
102
}
102
{ACAD_REACTORS
330
1A
102
}
330
1A
100
AcDbPlotSettings
  1

  2
None
  4

  6

 40
0.0
 41
0.0
 42
0.0
 43
0.0
 44
0.0
 45
0.0
 46
0.0
 47
0.0
 48
0.0
 49
0.0
140
0.0
141
0.0
142
1.0
143
1.0
 70
   688
 72
     0
 73
     0
 74
     5
  7

 75
    16
147
1.0
148
0.0
149
0.0
100
AcDbLayout
  1
Layout2
 70
     1
 71
     2
 10
0.0
 20
0.0
 11
12.0
 21
9.0
 12
0.0
 22
0.0
 32
0.0
 14
0.0
 24
0.0
 34
0.0
 15
0.0
 25
0.0
 35
0.0
146
0.0
 13
0.0
 23
0.0
 33
0.0
 16
1.0
 26
0.0
 36
0.0
 17
0.0
 27
1.0
 37
0.0
 76
     0
330
5D
  0
LAYOUT
  5
22
102
{ACAD_XDICTIONARY
360
452
102
}
102
{ACAD_REACTORS
330
1A
102
}
330
1A
100
AcDbPlotSettings
  1

  2
none_device
  4
ANSI_A_(8.50_x_11.00_Inches)
  6

 40
6.349999904632568
 41
19.04999923706055
 42
6.350006103515625
 43
19.04998779296875
 44
215.8999938964844
 45
279.3999938964844
 46
0.0
 47
0.0
 48
0.0
 49
0.0
140
0.0
141
0.0
142
1.0
143
2.584895464708373
 70
 11952
 72
     0
 73
     1
 74
     0
  7

 75
     0
147
0.3868628397755418
148
0.0
149
0.0
100
AcDbLayout
  1
Model
 70
     1
 71
     0
 10
0.0
 20
0.0
 11
12.0
 21
9.0
 12
0.0
 22
0.0
 32
0.0
 14
0.0
 24
0.0
 34
0.0
 15
0.0
 25
0.0
 35
0.0
146
0.0
 13
0.0
 23
0.0
 33
0.0
 16
1.0
 26
0.0
 36
0.0
 17
0.0
 27
1.0
 37
0.0
 76
     0
330
1F
331
94
  0
MATERIAL
  5
97
102
{ACAD_XDICTIONARY
360
45B
102
}
102
{ACAD_REACTORS
330
72
102
}
330
72
100
AcDbMaterial
  1
ByBlock
  0
MATERIAL
  5
96
102
{ACAD_XDICTIONARY
360
459
102
}
102
{ACAD_REACTORS
330
72
102
}
330
72
100
AcDbMaterial
  1
ByLayer
  0
MATERIAL
  5
98
102
{ACAD_XDICTIONARY
360
110
102
}
102
{ACAD_REACTORS
330
72
102
}
330
72
100
AcDbMaterial
  1
Global
 43
0.0208000000566244
 43
0.0
 43
0.0
 43
0.0
 43
0.0
 43
0.0208000000566244
 43
0.0
 43
0.0
 43
0.0
 43
0.0
 43
1.0
 43
0.0
 43
0.0
 43
0.0
 43
0.0
 43
1.0
 49
0.0208000000566244
 49
0.0
 49
0.0
 49
0.0
 49
0.0
 49
0.0208000000566244
 49
0.0
 49
0.0
 49
0.0
 49
0.0
 49
1.0
 49
0.0
 49
0.0
 49
0.0
 49
0.0
 49
1.0
142
0.0208000000566244
142
0.0
142
0.0
142
0.0
142
0.0
142
0.0208000000566244
142
0.0
142
0.0
142
0.0
142
0.0
142
1.0
142
0.0
142
0.0
142
0.0
142
0.0
142
1.0
144
0.0208000000566244
144
0.0
144
0.0
144
0.0
144
0.0
144
0.0208000000566244
144
0.0
144
0.0
144
0.0
144
0.0
144
1.0
144
0.0
144
0.0
144
0.0
144
0.0
144
1.0
1001
ACAD
1070
    -1
1070
     3
1070
     0
1000

1071
        0
1070
     0
  0
MLEADERSTYLE
  5
E5
102
{ACAD_REACTORS
330
D7
102
}
330
D7
100
AcDbMLeaderStyle
170
     2
171
     1
172
     0
 90
        2
 40
0.0
 41
0.0
173
     1
 91
-1056964608
340
14
 92
       -2
290
     1
 42
0.09
291
     1
 43
0.36
  3
Standard
 44
0.18
300

342
11
174
     1
178
     1
175
     1
176
     0
 93
-1056964608
 45
0.18
292
     0
297
     0
 46
0.18
 94
-1056964608
 47
1.0
 49
1.0
140
1.0
293
     1
141
0.0
294
     1
177
     0
142
1.0
295
     0
296
     1
143
0.125
1001
ACAD_MLEADERVER
1070
     2
  0
MLEADERSTYLE
  5
D8
102
{ACAD_REACTORS
330
D7
102
}
330
D7
100
AcDbMLeaderStyle
170
     2
171
     1
172
     0
 90
        2
 40
0.0
 41
0.0
173
     1
 91
-1056964608
340
14
 92
       -2
290
     1
 42
0.09
291
     1
 43
0.36
  3
Standard
 44
0.18
300

342
11
174
     1
178
     1
175
     1
176
     0
 93
-1056964608
 45
0.18
292
     0
297
     0
 46
0.18
 94
-1056964608
 47
1.0
 49
1.0
140
1.0
293
     1
141
0.0
294
     1
177
     0
142
1.0
295
     0
296
     0
143
0.125
1001
ACAD_MLEADERVER
1070
     2
  0
MLINESTYLE
  5
18
102
{ACAD_REACTORS
330
17
102
}
330
17
100
AcDbMlineStyle
  2
STANDARD
 70
     0
  3

 62
   256
 51
90.0
 52
90.0
 71
     2
 49
0.5
 62
   256
  6
BYLAYER
 49
-0.5
 62
   256
  6
BYLAYER
  0
ACDBPLACEHOLDER
  5
F
102
{ACAD_REACTORS
330
E
102
}
330
E
  0
SCALE
  5
B7
102
{ACAD_REACTORS
330
B6
102
}
330
B6
100
AcDbScale
 70
     0
300
1:1
140
1.0
141
1.0
290
     1
  0
SCALE
  5
124
102
{ACAD_REACTORS
330
B6
102
}
330
B6
100
AcDbScale
 70
     0
300
1:2
140
1.0
141
2.0
290
     0
  0
SCALE
  5
125
102
{ACAD_REACTORS
330
B6
102
}
330
B6
100
AcDbScale
 70
     0
300
1:4
140
1.0
141
4.0
290
     0
  0
SCALE
  5
126
102
{ACAD_REACTORS
330
B6
102
}
330
B6
100
AcDbScale
 70
     0
300
1:5
140
1.0
141
5.0
290
     0
  0
SCALE
  5
127
102
{ACAD_REACTORS
330
B6
102
}
330
B6
100
AcDbScale
 70
     0
300
1:8
140
1.0
141
8.0
290
     0
  0
SCALE
  5
128
102
{ACAD_REACTORS
330
B6
102
}
330
B6
100
AcDbScale
 70
     0
300
1:10
140
1.0
141
10.0
290
     0
  0
SCALE
  5
129
102
{ACAD_REACTORS
330
B6
102
}
330
B6
100
AcDbScale
 70
     0
300
1:16
140
1.0
141
16.0
290
     0
  0
SCALE
  5
12A
102
{ACAD_REACTORS
330
B6
102
}
330
B6
100
AcDbScale
 70
     0
300
1:20
140
1.0
141
20.0
290
     0
  0
SCALE
  5
12B
102
{ACAD_REACTORS
330
B6
102
}
330
B6
100
AcDbScale
 70
     0
300
1:30
140
1.0
141
30.0
290
     0
  0
SCALE
  5
12C
102
{ACAD_REACTORS
330
B6
102
}
330
B6
100
AcDbScale
 70
     0
300
1:40
140
1.0
141
40.0
290
     0
  0
SCALE
  5
12D
102
{ACAD_REACTORS
330
B6
102
}
330
B6
100
AcDbScale
 70
     0
300
1:50
140
1.0
141
50.0
290
     0
  0
SCALE
  5
12E
102
{ACAD_REACTORS
330
B6
102
}
330
B6
100
AcDbScale
 70
     0
300
1:100
140
1.0
141
100.0
290
     0
  0
SCALE
  5
12F
102
{ACAD_REACTORS
330
B6
102
}
330
B6
100
AcDbScale
 70
     0
300
2:1
140
2.0
141
1.0
290
     0
  0
SCALE
  5
130
102
{ACAD_REACTORS
330
B6
102
}
330
B6
100
AcDbScale
 70
     0
300
4:1
140
4.0
141
1.0
290
     0
  0
SCALE
  5
131
102
{ACAD_REACTORS
330
B6
102
}
330
B6
100
AcDbScale
 70
     0
300
8:1
140
8.0
141
1.0
290
     0
  0
SCALE
  5
132
102
{ACAD_REACTORS
330
B6
102
}
330
B6
100
AcDbScale
 70
     0
300
10:1
140
10.0
141
1.0
290
     0
  0
SCALE
  5
133
102
{ACAD_REACTORS
330
B6
102
}
330
B6
100
AcDbScale
 70
     0
300
100:1
140
100.0
141
1.0
290
     0
  0
SCALE
  5
134
102
{ACAD_REACTORS
330
B6
102
}
330
B6
100
AcDbScale
 70
     0
300
1/128" = 1'-0"
140
0.0078125
141
12.0
290
     0
  0
SCALE
  5
135
102
{ACAD_REACTORS
330
B6
102
}
330
B6
100
AcDbScale
 70
     0
300
1/64" = 1'-0"
140
0.015625
141
12.0
290
     0
  0
SCALE
  5
136
102
{ACAD_REACTORS
330
B6
102
}
330
B6
100
AcDbScale
 70
     0
300
1/32" = 1'-0"
140
0.03125
141
12.0
290
     0
  0
SCALE
  5
137
102
{ACAD_REACTORS
330
B6
102
}
330
B6
100
AcDbScale
 70
     0
300
1/16" = 1'-0"
140
0.0625
141
12.0
290
     0
  0
SCALE
  5
138
102
{ACAD_REACTORS
330
B6
102
}
330
B6
100
AcDbScale
 70
     0
300
3/32" = 1'-0"
140
0.09375
141
12.0
290
     0
  0
SCALE
  5
139
102
{ACAD_REACTORS
330
B6
102
}
330
B6
100
AcDbScale
 70
     0
300
1/8" = 1'-0"
140
0.125
141
12.0
290
     0
  0
SCALE
  5
13A
102
{ACAD_REACTORS
330
B6
102
}
330
B6
100
AcDbScale
 70
     0
300
3/16" = 1'-0"
140
0.1875
141
12.0
290
     0
  0
SCALE
  5
13B
102
{ACAD_REACTORS
330
B6
102
}
330
B6
100
AcDbScale
 70
     0
300
1/4" = 1'-0"
140
0.25
141
12.0
290
     0
  0
SCALE
  5
13C
102
{ACAD_REACTORS
330
B6
102
}
330
B6
100
AcDbScale
 70
     0
300
3/8" = 1'-0"
140
0.375
141
12.0
290
     0
  0
SCALE
  5
13D
102
{ACAD_REACTORS
330
B6
102
}
330
B6
100
AcDbScale
 70
     0
300
1/2" = 1'-0"
140
0.5
141
12.0
290
     0
  0
SCALE
  5
13E
102
{ACAD_REACTORS
330
B6
102
}
330
B6
100
AcDbScale
 70
     0
300
3/4" = 1'-0"
140
0.75
141
12.0
290
     0
  0
SCALE
  5
13F
102
{ACAD_REACTORS
330
B6
102
}
330
B6
100
AcDbScale
 70
     0
300
1" = 1'-0"
140
1.0
141
12.0
290
     0
  0
SCALE
  5
140
102
{ACAD_REACTORS
330
B6
102
}
330
B6
100
AcDbScale
 70
     0
300
1-1/2" = 1'-0"
140
1.5
141
12.0
290
     0
  0
SCALE
  5
141
102
{ACAD_REACTORS
330
B6
102
}
330
B6
100
AcDbScale
 70
     0
300
3" = 1'-0"
140
3.0
141
12.0
290
     0
  0
SCALE
  5
142
102
{ACAD_REACTORS
330
B6
102
}
330
B6
100
AcDbScale
 70
     0
300
6" = 1'-0"
140
6.0
141
12.0
290
     0
  0
SCALE
  5
143
102
{ACAD_REACTORS
330
B6
102
}
330
B6
100
AcDbScale
 70
     0
300
1'-0" = 1'-0"
140
12.0
141
12.0
290
     0
  0
TABLESTYLE
  5
87
102
{ACAD_XDICTIONARY
360
104
102
}
102
{ACAD_REACTORS
330
86
102
}
330
86
100
AcDbTableStyle
  3
Standard
 70
     0
 71
     0
 40
0.06
 41
0.06
280
     0
281
     0
  7
Standard
140
0.18
170
     2
 62
     0
 63
     7
283
     0
274
    -2
284
     1
 64
     0
275
    -2
285
     1
 65
     0
276
    -2
286
     1
 66
     0
277
    -2
287
     1
 67
     0
278
    -2
288
     1
 68
     0
279
    -2
289
     1
 69
     0
  7
Standard
140
0.25
170
     5
 62
     0
 63
     7
283
     0
274
    -2
284
     1
 64
     0
275
    -2
285
     1
 65
     0
276
    -2
286
     1
 66
     0
277
    -2
287
     1
 67
     0
278
    -2
288
     1
 68
     0
279
    -2
289
     1
 69
     0
  7
Standard
140
0.18
170
     5
 62
     0
 63
     7
283
     0
274
    -2
284
     1
 64
     0
275
    -2
285
     1
 65
     0
276
    -2
286
     1
 66
     0
277
    -2
287
     1
 67
     0
278
    -2
288
     1
 68
     0
279
    -2
289
     1
 69
     0
  0
VISUALSTYLE
  5
9F
102
{ACAD_REACTORS
330
99
102
}
330
99
100
AcDbVisualStyle
  2
2dWireframe
 70
     4
 71
     0
 72
     2
 73
     1
 90
        0
 40
-0.6
 41
-30.0
 62
     5
 63
     7
 74
     1
 91
        4
 64
     7
 65
   257
 75
     1
175
     1
 42
1.0
 92
        0
 66
   257
 43
1.0
 76
     1
 77
     6
 78
     2
 67
     7
 79
     5
170
     0
171
     0
290
     0
174
     0
 93
        1
 44
0.0
173
     0
291
     0
 45
0.0
1001
ACAD
1000
AcDbSavedByObjectVersion
1070
     0
  0
VISUALSTYLE
  5
A1
102
{ACAD_REACTORS
330
99
102
}
330
99
100
AcDbVisualStyle
  2
3D Hidden
 70
     6
 71
     1
 72
     2
 73
     2
 90
        0
 40
-0.6
 41
-30.0
 62
     5
 63
     7
 74
     2
 91
        2
 64
     7
 65
   257
 75
     2
175
     1
 42
40.0
 92
        0
 66
   257
 43
1.0
 76
     1
 77
     6
 78
     2
 67
     7
 79
     3
170
     0
171
     0
290
     0
174
     0
 93
        1
 44
0.0
173
     0
291
     0
 45
0.0
1001
ACAD
1000
AcDbSavedByObjectVersion
1070
     0
  0
VISUALSTYLE
  5
A0
102
{ACAD_REACTORS
330
99
102
}
330
99
100
AcDbVisualStyle
  2
3dWireframe
 70
     5
 71
     0
 72
     2
 73
     1
 90
        0
 40
-0.6
 41
-30.0
 62
     5
 63
     7
 74
     1
 91
        4
 64
     7
 65
   257
 75
     1
175
     1
 42
1.0
 92
        0
 66
   257
 43
1.0
 76
     1
 77
     6
 78
     2
 67
     7
 79
     5
170
     0
171
     0
290
     0
174
     0
 93
        1
 44
0.0
173
     0
291
     0
 45
0.0
1001
ACAD
1000
AcDbSavedByObjectVersion
1070
     0
  0
VISUALSTYLE
  5
9E
102
{ACAD_REACTORS
330
99
102
}
330
99
100
AcDbVisualStyle
  2
Basic
 70
     7
 71
     1
 72
     0
 73
     1
 90
        0
 40
-0.6
 41
-30.0
 62
     5
 63
     7
 74
     0
 91
        4
 64
     7
 65
   257
 75
     1
175
     1
 42
1.0
 92
        8
 66
     7
 43
1.0
 76
     1
 77
     6
 78
     2
 67
     7
 79
     5
170
     0
171
     0
290
     0
174
     0
 93
        1
 44
0.0
173
     0
291
     1
 45
0.0
1001
ACAD
1000
AcDbSavedByObjectVersion
1070
     0
  0
VISUALSTYLE
  5
A5
102
{ACAD_REACTORS
330
99
102
}
330
99
100
AcDbVisualStyle
  2
Brighten
 70
    12
 71
     2
 72
     2
 73
     1
 90
        0
 40
-0.6
 41
-30.0
 62
     5
 63
     7
 74
     1
 91
        4
 64
     7
 65
   257
 75
     1
175
     1
 42
1.0
 92
        8
 66
     7
 43
1.0
 76
     1
 77
     6
 78
     2
 67
     7
 79
     5
170
     0
171
     0
290
     0
174
     0
 93
        1
 44
50.0
173
     0
291
     1
 45
0.0
1001
ACAD
1000
AcDbSavedByObjectVersion
1070
     0
  0
VISUALSTYLE
  5
A9
102
{ACAD_REACTORS
330
99
102
}
330
99
100
AcDbVisualStyle
  2
ColorChange
 70
    16
 71
     2
 72
     2
 73
     3
 90
        0
 40
-0.6
 41
-30.0
 62
     5
 63
     8
 74
     1
 91
        4
 64
     7
 65
   257
 75
     1
175
     1
 42
1.0
 92
        8
 66
     8
 43
1.0
 76
     1
 77
     6
 78
     2
 67
     7
 79
     5
170
     0
171
     0
290
     0
174
     0
 93
        1
 44
0.0
173
     0
291
     1
 45
0.0
1001
ACAD
1000
AcDbSavedByObjectVersion
1070
     0
  0
VISUALSTYLE
  5
A2
102
{ACAD_REACTORS
330
99
102
}
330
99
100
AcDbVisualStyle
  2
Conceptual
 70
     9
 71
     3
 72
     2
 73
     1
 90
        0
 40
-0.6
 41
-30.0
 62
     5
 63
     7
 74
     2
 91
        2
 64
     7
 65
   257
 75
     1
175
     1
 42
40.0
 92
        8
 66
     7
 43
1.0
 76
     1
 77
     6
 78
     2
 67
     7
 79
     3
170
     0
171
     0
290
     0
174
     0
 93
        1
 44
0.0
173
     0
291
     0
 45
0.0
1001
ACAD
1000
AcDbSavedByObjectVersion
1070
     0
  0
VISUALSTYLE
  5
A4
102
{ACAD_REACTORS
330
99
102
}
330
99
100
AcDbVisualStyle
  2
Dim
 70
    11
 71
     2
 72
     2
 73
     1
 90
        0
 40
-0.6
 41
-30.0
 62
     5
 63
     7
 74
     1
 91
        4
 64
     7
 65
   257
 75
     1
175
     1
 42
1.0
 92
        8
 66
     7
 43
1.0
 76
     1
 77
     6
 78
     2
 67
     7
 79
     5
170
     0
171
     0
290
     0
174
     0
 93
        1
 44
-50.0
173
     0
291
     1
 45
0.0
1001
ACAD
1000
AcDbSavedByObjectVersion
1070
     0
  0
VISUALSTYLE
  5
A8
102
{ACAD_REACTORS
330
99
102
}
330
99
100
AcDbVisualStyle
  2
Facepattern
 70
    15
 71
     2
 72
     2
 73
     1
 90
        0
 40
-0.6
 41
-30.0
 62
     5
 63
     7
 74
     1
 91
        4
 64
     7
 65
   257
 75
     1
175
     1
 42
1.0
 92
        8
 66
     7
 43
1.0
 76
     1
 77
     6
 78
     2
 67
     7
 79
     5
170
     0
171
     0
290
     0
174
     0
 93
        1
 44
0.0
173
     0
291
     1
 45
0.0
1001
ACAD
1000
AcDbSavedByObjectVersion
1070
     0
  0
VISUALSTYLE
  5
9A
102
{ACAD_REACTORS
330
99
102
}
330
99
100
AcDbVisualStyle
  2
Flat
 70
     0
 71
     2
 72
     1
 73
     1
 90
        2
 40
-0.6
 41
30.0
 62
     5
 63
     7
 74
     0
 91
        4
 64
     7
 65
   257
 75
     1
175
     1
 42
1.0
 92
        8
 66
     7
 43
1.0
 76
     1
 77
     6
 78
     2
 67
     7
 79
     5
170
     0
171
     0
290
     0
174
     0
 93
        1
 44
0.0
173
     0
291
     1
 45
0.0
1001
ACAD
1000
AcDbSavedByObjectVersion
1070
     0
  0
VISUALSTYLE
  5
9B
102
{ACAD_REACTORS
330
99
102
}
330
99
100
AcDbVisualStyle
  2
FlatWithEdges
 70
     1
 71
     2
 72
     1
 73
     1
 90
        2
 40
-0.6
 41
30.0
 62
     5
 63
     7
 74
     1
 91
        4
 64
     7
 65
   257
 75
     1
175
     1
 42
1.0
 92
        0
 66
   257
 43
1.0
 76
     1
 77
     6
 78
     2
 67
     7
 79
     5
170
     0
171
     0
290
     0
174
     0
 93
        1
 44
0.0
173
     0
291
     1
 45
0.0
1001
ACAD
1000
AcDbSavedByObjectVersion
1070
     0
  0
VISUALSTYLE
  5
9C
102
{ACAD_REACTORS
330
99
102
}
330
99
100
AcDbVisualStyle
  2
Gouraud
 70
     2
 71
     2
 72
     2
 73
     1
 90
        2
 40
-0.6
 41
30.0
 62
     5
 63
     7
 74
     0
 91
        4
 64
     7
 65
   257
 75
     1
175
     1
 42
1.0
 92
        0
 66
     7
 43
1.0
 76
     1
 77
     6
 78
     2
 67
     7
 79
     5
170
     0
171
     0
290
     0
174
     0
 93
        1
 44
0.0
173
     0
291
     1
 45
0.0
1001
ACAD
1000
AcDbSavedByObjectVersion
1070
     0
  0
VISUALSTYLE
  5
9D
102
{ACAD_REACTORS
330
99
102
}
330
99
100
AcDbVisualStyle
  2
GouraudWithEdges
 70
     3
 71
     2
 72
     2
 73
     1
 90
        2
 40
-0.6
 41
30.0
 62
     5
 63
     7
 74
     1
 91
        4
 64
     7
 65
   257
 75
     1
175
     1
 42
1.0
 92
        0
 66
   257
 43
1.0
 76
     1
 77
     6
 78
     2
 67
     7
 79
     5
170
     0
171
     0
290
     0
174
     0
 93
        1
 44
0.0
173
     0
291
     1
 45
0.0
1001
ACAD
1000
AcDbSavedByObjectVersion
1070
     0
  0
VISUALSTYLE
  5
A7
102
{ACAD_REACTORS
330
99
102
}
330
99
100
AcDbVisualStyle
  2
Linepattern
 70
    14
 71
     2
 72
     2
 73
     1
 90
        0
 40
-0.6
 41
-30.0
 62
     5
 63
     7
 74
     1
 91
        4
 64
     7
 65
   257
 75
     7
175
     7
 42
1.0
 92
        8
 66
     7
 43
1.0
 76
     1
 77
     6
 78
     2
 67
     7
 79
     5
170
     0
171
     0
290
     0
174
     0
 93
        1
 44
0.0
173
     0
291
     1
 45
0.0
1001
ACAD
1000
AcDbSavedByObjectVersion
1070
     0
  0
VISUALSTYLE
  5
A3
102
{ACAD_REACTORS
330
99
102
}
330
99
100
AcDbVisualStyle
  2
Realistic
 70
     8
 71
     2
 72
     2
 73
     1
 90
        0
 40
-0.6
 41
-30.0
 62
     5
 63
     7
 74
     1
 91
        0
 64
     7
 65
   257
 75
     1
175
     1
 42
1.0
 92
        8
 66
     8
 43
1.0
 76
     1
 77
     6
 78
     2
 67
     7
 79
     5
170
     0
171
     0
290
     0
174
     0
 93
       13
 44
0.0
173
     0
291
     0
 45
0.0
1001
ACAD
1000
AcDbSavedByObjectVersion
1070
     0
  0
VISUALSTYLE
  5
A6
102
{ACAD_REACTORS
330
99
102
}
330
99
100
AcDbVisualStyle
  2
Thicken
 70
    13
 71
     2
 72
     2
 73
     1
 90
        0
 40
-0.6
 41
-30.0
 62
     5
 63
     7
 74
     1
 91
        4
 64
     7
 65
   257
 75
     1
175
     1
 42
1.0
 92
       12
 66
     7
 43
1.0
 76
     1
 77
     6
 78
     2
 67
     7
 79
     5
170
     0
171
     0
290
     0
174
     0
 93
        1
 44
0.0
173
     0
291
     1
 45
0.0
1001
ACAD
1000
AcDbSavedByObjectVersion
1070
     0
  0
DICTIONARYVAR
  5
F0
102
{ACAD_REACTORS
330
66
102
}
330
66
100
DictionaryVariables
280
     0
  1
1:1
  0
DICTIONARYVAR
  5
EF
102
{ACAD_REACTORS
330
66
102
}
330
66
100
DictionaryVariables
280
     0
  1
STANDARD
  0
DICTIONARYVAR
  5
89
102
{ACAD_REACTORS
330
66
102
}
330
66
100
DictionaryVariables
280
     0
  1
STANDARD
  0
DICTIONARYVAR
  5
67
102
{ACAD_REACTORS
330
66
102
}
330
66
100
DictionaryVariables
280
     0
  1
2
  0
DICTIONARYVAR
  5
6B
102
{ACAD_REACTORS
330
66
102
}
330
66
100
DictionaryVariables
280
     0
  1
1
  0
DICTIONARYVAR
  5
44F
102
{ACAD_REACTORS
330
66
102
}
330
66
100
DictionaryVariables
280
     0
  1
0
  0
DICTIONARYVAR
  5
44D
102
{ACAD_REACTORS
330
66
102
}
330
66
100
DictionaryVariables
280
     0
  1
2
  0
DICTIONARYVAR
  5
44C
102
{ACAD_REACTORS
330
66
102
}
330
66
100
DictionaryVariables
280
     0
  1
1
  0
DICTIONARYVAR
  5
44E
102
{ACAD_REACTORS
330
66
102
}
330
66
100
DictionaryVariables
280
     0
  1
127
  0
DICTIONARY
  5
454
330
59
100
AcDbDictionary
280
     1
281
     1
  3
ACAD_XREC_ROUNDTRIP
360
455
  0
DICTIONARY
  5
456
330
5E
100
AcDbDictionary
280
     1
281
     1
  3
ACAD_XREC_ROUNDTRIP
360
457
  0
DICTIONARY
  5
452
330
22
100
AcDbDictionary
280
     1
281
     1
  3
ACAD_XREC_ROUNDTRIP
360
453
  0
DICTIONARY
  5
45B
330
97
100
AcDbDictionary
280
     1
281
     1
  3
ACAD_XREC_ROUNDTRIP
360
45C
  0
DICTIONARY
  5
459
330
96
100
AcDbDictionary
280
     1
281
     1
  3
ACAD_XREC_ROUNDTRIP
360
45A
  0
DICTIONARY
  5
110
330
98
100
AcDbDictionary
280
     1
281
     1
  3
ACAD_XREC_ROUNDTRIP
360
45D
  3
BUMPTILE
360
112
  3
DIFFUSETILE
360
111
  3
OPACITYTILE
360
113
  3
REFLECTIONTILE
360
114
  0
DICTIONARY
  5
104
330
87
100
AcDbDictionary
280
     1
281
     1
  3
ACAD_ROUNDTRIP_2008_TABLESTYLE_CELLSTYLEMAP
360
450
  3
ACAD_XREC_ROUNDTRIP
360
458
  0
XRECORD
  5
455
102
{ACAD_REACTORS
330
454
102
}
330
454
100
AcDbXrecord
280
     1
102
SHADEPLOT
 70
     0
102
SHADEPLOTRESLEVEL
 70
     2
102
SHADEPLOTCUSTOMDPI
 70
   300
  0
XRECORD
  5
457
102
{ACAD_REACTORS
330
456
102
}
330
456
100
AcDbXrecord
280
     1
102
SHADEPLOT
 70
     0
102
SHADEPLOTRESLEVEL
 70
     2
102
SHADEPLOTCUSTOMDPI
 70
   300
  0
XRECORD
  5
453
102
{ACAD_REACTORS
330
452
102
}
330
452
100
AcDbXrecord
280
     1
102
SHADEPLOT
 70
     0
102
SHADEPLOTRESLEVEL
 70
     2
102
SHADEPLOTCUSTOMDPI
 70
   300
  0
XRECORD
  5
45C
102
{ACAD_REACTORS
330
45B
102
}
330
45B
100
AcDbXrecord
280
     1
102
MATERIAL
148
0.0
149
0.0
149
0.0
 93
        0
 94
       63
282
     0
 72
     1
 77
     1
171
     1
175
     1
179
     1
273
     0
  0
XRECORD
  5
45A
102
{ACAD_REACTORS
330
459
102
}
330
459
100
AcDbXrecord
280
     1
102
MATERIAL
148
0.0
149
0.0
149
0.0
 93
        0
 94
       63
282
     0
 72
     1
 77
     1
171
     1
175
     1
179
     1
273
     0
  0
XRECORD
  5
45D
102
{ACAD_REACTORS
330
110
102
}
330
110
100
AcDbXrecord
280
     1
102
MATERIAL
148
0.0
149
0.0
149
0.0
 93
        0
 94
       63
282
     0
 72
     1
 77
     1
171
     1
175
     1
179
     1
273
     0
  0
XRECORD
  5
112
102
{ACAD_REACTORS
330
110
102
}
330
110
100
AcDbXrecord
280
     1
270
     1
271
     1
  0
XRECORD
  5
111
102
{ACAD_REACTORS
330
110
102
}
330
110
100
AcDbXrecord
280
     1
270
     1
271
     1
  0
XRECORD
  5
113
102
{ACAD_REACTORS
330
110
102
}
330
110
100
AcDbXrecord
280
     1
270
     1
271
     1
  0
XRECORD
  5
114
102
{ACAD_REACTORS
330
110
102
}
330
110
100
AcDbXrecord
280
     1
270
     1
271
     1
  0
CELLSTYLEMAP
  5
450
102
{ACAD_REACTORS
330
104
102
}
330
104
100
AcDbCellStyleMap
 90
        3
300
CELLSTYLE
  1
TABLEFORMAT_BEGIN
 90
        5
170
     1
 91
        0
 92
    32768
 62
   257
 93
        1
300
CONTENTFORMAT
  1
CONTENTFORMAT_BEGIN
 90
        0
 91
        0
 92
      512
 93
        0
300

 40
0.0
140
1.0
 94
        5
 62
     0
340
11
144
0.25
309
CONTENTFORMAT_END
171
     1
301
MARGIN
  1
CELLMARGIN_BEGIN
 40
0.06
 40
0.06
 40
0.06
 40
0.06
 40
0.18
 40
0.18
309
CELLMARGIN_END
 94
        6
 95
        1
302
GRIDFORMAT
  1
GRIDFORMAT_BEGIN
 90
        0
 91
        1
 62
     0
 92
       -2
340
0
 93
        0
 40
0.045
309
GRIDFORMAT_END
 95
        2
302
GRIDFORMAT
  1
GRIDFORMAT_BEGIN
 90
        0
 91
        1
 62
     0
 92
       -2
340
0
 93
        0
 40
0.045
309
GRIDFORMAT_END
 95
        4
302
GRIDFORMAT
  1
GRIDFORMAT_BEGIN
 90
        0
 91
        1
 62
     0
 92
       -2
340
0
 93
        0
 40
0.045
309
GRIDFORMAT_END
 95
        8
302
GRIDFORMAT
  1
GRIDFORMAT_BEGIN
 90
        0
 91
        1
 62
     0
 92
       -2
340
0
 93
        0
 40
0.045
309
GRIDFORMAT_END
 95
       16
302
GRIDFORMAT
  1
GRIDFORMAT_BEGIN
 90
        0
 91
        1
 62
     0
 92
       -2
340
0
 93
        0
 40
0.045
309
GRIDFORMAT_END
 95
       32
302
GRIDFORMAT
  1
GRIDFORMAT_BEGIN
 90
        0
 91
        1
 62
     0
 92
       -2
340
0
 93
        0
 40
0.045
309
GRIDFORMAT_END
309
TABLEFORMAT_END
  1
CELLSTYLE_BEGIN
 90
        1
 91
        1
300
_TITLE
309
CELLSTYLE_END
300
CELLSTYLE
  1
TABLEFORMAT_BEGIN
 90
        5
170
     1
 91
        0
 92
        0
 62
   257
 93
        1
300
CONTENTFORMAT
  1
CONTENTFORMAT_BEGIN
 90
        0
 91
        0
 92
      512
 93
        0
300

 40
0.0
140
1.0
 94
        5
 62
     0
340
11
144
0.18
309
CONTENTFORMAT_END
171
     1
301
MARGIN
  1
CELLMARGIN_BEGIN
 40
0.06
 40
0.06
 40
0.06
 40
0.06
 40
0.18
 40
0.18
309
CELLMARGIN_END
 94
        6
 95
        1
302
GRIDFORMAT
  1
GRIDFORMAT_BEGIN
 90
        0
 91
        1
 62
     0
 92
       -2
340
0
 93
        0
 40
0.045
309
GRIDFORMAT_END
 95
        2
302
GRIDFORMAT
  1
GRIDFORMAT_BEGIN
 90
        0
 91
        1
 62
     0
 92
       -2
340
0
 93
        0
 40
0.045
309
GRIDFORMAT_END
 95
        4
302
GRIDFORMAT
  1
GRIDFORMAT_BEGIN
 90
        0
 91
        1
 62
     0
 92
       -2
340
0
 93
        0
 40
0.045
309
GRIDFORMAT_END
 95
        8
302
GRIDFORMAT
  1
GRIDFORMAT_BEGIN
 90
        0
 91
        1
 62
     0
 92
       -2
340
0
 93
        0
 40
0.045
309
GRIDFORMAT_END
 95
       16
302
GRIDFORMAT
  1
GRIDFORMAT_BEGIN
 90
        0
 91
        1
 62
     0
 92
       -2
340
0
 93
        0
 40
0.045
309
GRIDFORMAT_END
 95
       32
302
GRIDFORMAT
  1
GRIDFORMAT_BEGIN
 90
        0
 91
        1
 62
     0
 92
       -2
340
0
 93
        0
 40
0.045
309
GRIDFORMAT_END
309
TABLEFORMAT_END
  1
CELLSTYLE_BEGIN
 90
        2
 91
        1
300
_HEADER
309
CELLSTYLE_END
300
CELLSTYLE
  1
TABLEFORMAT_BEGIN
 90
        5
170
     1
 91
        0
 92
        0
 62
   257
 93
        1
300
CONTENTFORMAT
  1
CONTENTFORMAT_BEGIN
 90
        0
 91
        0
 92
      512
 93
        0
300

 40
0.0
140
1.0
 94
        2
 62
     0
340
11
144
0.18
309
CONTENTFORMAT_END
171
     1
301
MARGIN
  1
CELLMARGIN_BEGIN
 40
0.06
 40
0.06
 40
0.06
 40
0.06
 40
0.18
 40
0.18
309
CELLMARGIN_END
 94
        6
 95
        1
302
GRIDFORMAT
  1
GRIDFORMAT_BEGIN
 90
        0
 91
        1
 62
     0
 92
       -2
340
0
 93
        0
 40
0.045
309
GRIDFORMAT_END
 95
        2
302
GRIDFORMAT
  1
GRIDFORMAT_BEGIN
 90
        0
 91
        1
 62
     0
 92
       -2
340
0
 93
        0
 40
0.045
309
GRIDFORMAT_END
 95
        4
302
GRIDFORMAT
  1
GRIDFORMAT_BEGIN
 90
        0
 91
        1
 62
     0
 92
       -2
340
0
 93
        0
 40
0.045
309
GRIDFORMAT_END
 95
        8
302
GRIDFORMAT
  1
GRIDFORMAT_BEGIN
 90
        0
 91
        1
 62
     0
 92
       -2
340
0
 93
        0
 40
0.045
309
GRIDFORMAT_END
 95
       16
302
GRIDFORMAT
  1
GRIDFORMAT_BEGIN
 90
        0
 91
        1
 62
     0
 92
       -2
340
0
 93
        0
 40
0.045
309
GRIDFORMAT_END
 95
       32
302
GRIDFORMAT
  1
GRIDFORMAT_BEGIN
 90
        0
 91
        1
 62
     0
 92
       -2
340
0
 93
        0
 40
0.045
309
GRIDFORMAT_END
309
TABLEFORMAT_END
  1
CELLSTYLE_BEGIN
 90
        3
 91
        2
300
_DATA
309
CELLSTYLE_END
  0
XRECORD
  5
458
102
{ACAD_REACTORS
330
104
102
}
330
104
100
AcDbXrecord
280
     1
102
ACAD_ROUNDTRIP_PRE2007_TABLESTYLE
 90
      512
 91
        0
  1

 92
      512
 93
        0
  2

 94
      512
 95
        0
  3

  0
ENDSEC
  0
EOF
