  0
SECTION
  2
HEADER
  9
$ACADVER
  1
AC1015
  9
$ACADMAINTVER
 70
    20
  9
$DWGCODEPAGE
  3
ANSI_1252
  9
$INSBASE
 10
0.0
 20
0.0
 30
0.0
  9
$EXTMIN
 10
14.13374183523338
 20
16.71881571862857
 30
0.0
  9
$EXTMAX
 10
367.0179149185667
 20
549.6785373186286
 30
0.0
  9
$LIMMIN
 10
0.0
 20
0.0
  9
$LIMMAX
 10
12.0
 20
9.0
  9
$ORTHOMODE
 70
     0
  9
$REGENMODE
 70
     1
  9
$FILLMODE
 70
     1
  9
$QTEXTMODE
 70
     0
  9
$MIRRTEXT
 70
     0
  9
$LTSCALE
 40
1.0
  9
$ATTMODE
 70
     1
  9
$TEXTSIZE
 40
0.2
  9
$TRACEWID
 40
0.05
  9
$TEXTSTYLE
  7
Standard
  9
$CLAYER
  8
0
  9
$CELTYPE
  6
ByLayer
  9
$CECOLOR
 62
   256
  9
$CELTSCALE
 40
1.0
  9
$DISPSILH
 70
     0
  9
$DIMSCALE
 40
1.0
  9
$DIMASZ
 40
0.18
  9
$DIMEXO
 40
0.0625
  9
$DIMDLI
 40
0.38
  9
$DIMRND
 40
0.0
  9
$DIMDLE
 40
0.0
  9
$DIMEXE
 40
0.18
  9
$DIMTP
 40
0.0
  9
$DIMTM
 40
0.0
  9
$DIMTXT
 40
0.18
  9
$DIMCEN
 40
0.09
  9
$DIMTSZ
 40
0.0
  9
$DIMTOL
 70
     0
  9
$DIMLIM
 70
     0
  9
$DIMTIH
 70
     1
  9
$DIMTOH
 70
     1
  9
$DIMSE1
 70
     0
  9
$DIMSE2
 70
     0
  9
$DIMTAD
 70
     0
  9
$DIMZIN
 70
     0
  9
$DIMBLK
  1

  9
$DIMASO
 70
     1
  9
$DIMSHO
 70
     1
  9
$DIMPOST
  1

  9
$DIMAPOST
  1

  9
$DIMALT
 70
     0
  9
$DIMALTD
 70
     2
  9
$DIMALTF
 40
25.4
  9
$DIMLFAC
 40
1.0
  9
$DIMTOFL
 70
     0
  9
$DIMTVP
 40
0.0
  9
$DIMTIX
 70
     0
  9
$DIMSOXD
 70
     0
  9
$DIMSAH
 70
     0
  9
$DIMBLK1
  1

  9
$DIMBLK2
  1

  9
$DIMSTYLE
  2
Standard
  9
$DIMCLRD
 70
     0
  9
$DIMCLRE
 70
     0
  9
$DIMCLRT
 70
     0
  9
$DIMTFAC
 40
1.0
  9
$DIMGAP
 40
0.09
  9
$DIMJUST
 70
     0
  9
$DIMSD1
 70
     0
  9
$DIMSD2
 70
     0
  9
$DIMTOLJ
 70
     1
  9
$DIMTZIN
 70
     0
  9
$DIMALTZ
 70
     0
  9
$DIMALTTZ
 70
     0
  9
$DIMUPT
 70
     0
  9
$DIMDEC
 70
     4
  9
$DIMTDEC
 70
     4
  9
$DIMALTU
 70
     2
  9
$DIMALTTD
 70
     2
  9
$DIMTXSTY
  7
Standard
  9
$DIMAUNIT
 70
     0
  9
$DIMADEC
 70
     0
  9
$DIMALTRND
 40
0.0
  9
$DIMAZIN
 70
     0
  9
$DIMDSEP
 70
    46
  9
$DIMATFIT
 70
     3
  9
$DIMFRAC
 70
     0
  9
$DIMLDRBLK
  1

  9
$DIMLUNIT
 70
     2
  9
$DIMLWD
 70
    -2
  9
$DIMLWE
 70
    -2
  9
$DIMTMOVE
 70
     0
  9
$LUNITS
 70
     2
  9
$LUPREC
 70
     4
  9
$SKETCHINC
 40
0.1
  9
$FILLETRAD
 40
0.0
  9
$AUNITS
 70
     0
  9
$AUPREC
 70
     0
  9
$MENU
  1
.
  9
$ELEVATION
 40
0.0
  9
$PELEVATION
 40
0.0
  9
$THICKNESS
 40
0.0
  9
$LIMCHECK
 70
     0
  9
$CHAMFERA
 40
0.0
  9
$CHAMFERB
 40
0.0
  9
$CHAMFERC
 40
0.0
  9
$CHAMFERD
 40
0.0
  9
$SKPOLY
 70
     0
  9
$TDCREATE
 40
2455511.359527083
  9
$TDUCREATE
 40
2455511.317860417
  9
$TDUPDATE
 40
2455511.359703495
  9
$TDUUPDATE
 40
2455511.318036829
  9
$TDINDWG
 40
0.0001765856
  9
$TDUSRTIMER
 40
0.0001765856
  9
$USRTIMER
 70
     1
  9
$ANGBASE
 50
0.0
  9
$ANGDIR
 70
     0
  9
$PDMODE
 70
     0
  9
$PDSIZE
 40
0.0
  9
$PLINEWID
 40
0.0
  9
$SPLFRAME
 70
     0
  9
$SPLINETYPE
 70
     6
  9
$SPLINESEGS
 70
     8
  9
$HANDSEED
  5
46B
  9
$SURFTAB1
 70
     6
  9
$SURFTAB2
 70
     6
  9
$SURFTYPE
 70
     6
  9
$SURFU
 70
     6
  9
$SURFV
 70
     6
  9
$UCSBASE
  2

  9
$UCSNAME
  2

  9
$UCSORG
 10
0.0
 20
0.0
 30
0.0
  9
$UCSXDIR
 10
1.0
 20
0.0
 30
0.0
  9
$UCSYDIR
 10
0.0
 20
1.0
 30
0.0
  9
$UCSORTHOREF
  2

  9
$UCSORTHOVIEW
 70
     0
  9
$UCSORGTOP
 10
0.0
 20
0.0
 30
0.0
  9
$UCSORGBOTTOM
 10
0.0
 20
0.0
 30
0.0
  9
$UCSORGLEFT
 10
0.0
 20
0.0
 30
0.0
  9
$UCSORGRIGHT
 10
0.0
 20
0.0
 30
0.0
  9
$UCSORGFRONT
 10
0.0
 20
0.0
 30
0.0
  9
$UCSORGBACK
 10
0.0
 20
0.0
 30
0.0
  9
$PUCSBASE
  2

  9
$PUCSNAME
  2

  9
$PUCSORG
 10
0.0
 20
0.0
 30
0.0
  9
$PUCSXDIR
 10
1.0
 20
0.0
 30
0.0
  9
$PUCSYDIR
 10
0.0
 20
1.0
 30
0.0
  9
$PUCSORTHOREF
  2

  9
$PUCSORTHOVIEW
 70
     0
  9
$PUCSORGTOP
 10
0.0
 20
0.0
 30
0.0
  9
$PUCSORGBOTTOM
 10
0.0
 20
0.0
 30
0.0
  9
$PUCSORGLEFT
 10
0.0
 20
0.0
 30
0.0
  9
$PUCSORGRIGHT
 10
0.0
 20
0.0
 30
0.0
  9
$PUCSORGFRONT
 10
0.0
 20
0.0
 30
0.0
  9
$PUCSORGBACK
 10
0.0
 20
0.0
 30
0.0
  9
$USERI1
 70
     0
  9
$USERI2
 70
     0
  9
$USERI3
 70
     0
  9
$USERI4
 70
     0
  9
$USERI5
 70
     0
  9
$USERR1
 40
0.0
  9
$USERR2
 40
0.0
  9
$USERR3
 40
0.0
  9
$USERR4
 40
0.0
  9
$USERR5
 40
0.0
  9
$WORLDVIEW
 70
     1
  9
$SHADEDGE
 70
     3
  9
$SHADEDIF
 70
    70
  9
$TILEMODE
 70
     1
  9
$MAXACTVP
 70
    64
  9
$PINSBASE
 10
0.0
 20
0.0
 30
0.0
  9
$PLIMCHECK
 70
     0
  9
$PEXTMIN
 10
0.0
 20
0.0
 30
0.0
  9
$PEXTMAX
 10
0.0
 20
0.0
 30
0.0
  9
$PLIMMIN
 10
0.0
 20
0.0
  9
$PLIMMAX
 10
12.0
 20
9.0
  9
$UNITMODE
 70
     0
  9
$VISRETAIN
 70
     1
  9
$PLINEGEN
 70
     0
  9
$PSLTSCALE
 70
     1
  9
$TREEDEPTH
 70
  3020
  9
$CMLSTYLE
  2
Standard
  9
$CMLJUST
 70
     0
  9
$CMLSCALE
 40
1.0
  9
$PROXYGRAPHICS
 70
     1
  9
$MEASUREMENT
 70
     0
  9
$CELWEIGHT
370
    -1
  9
$ENDCAPS
280
     0
  9
$JOINSTYLE
280
     0
  9
$LWDISPLAY
290
     0
  9
$INSUNITS
 70
     1
  9
$HYPERLINKBASE
  1

  9
$STYLESHEET
  1

  9
$XEDIT
290
     1
  9
$CEPSNTYPE
380
     0
  9
$PSTYLEMODE
290
     1
  9
$FINGERPRINTGUID
  2
{B7D2BEDB-B045-4173-86C9-E143ACF1F21E}
  9
$VERSIONGUID
  2
{F9E53005-AD56-4224-AA5A-914085D686AF}
  9
$EXTNAMES
290
     1
  9
$PSVPSCALE
 40
0.0
  9
$OLESTARTUP
290
     0
  0
ENDSEC
  0
SECTION
  2
CLASSES
  0
CLASS
  1
ACDBDICTIONARYWDFLT
  2
AcDbDictionaryWithDefault
  3
ObjectDBX Classes
 90
        0
280
     0
281
     0
  0
CLASS
  1
ACDBPLACEHOLDER
  2
AcDbPlaceHolder
  3
ObjectDBX Classes
 90
        0
280
     0
281
     0
  0
CLASS
  1
LAYOUT
  2
AcDbLayout
  3
ObjectDBX Classes
 90
        0
280
     0
281
     0
  0
CLASS
  1
DICTIONARYVAR
  2
AcDbDictionaryVar
  3
ObjectDBX Classes
 90
        0
280
     0
281
     0
  0
CLASS
  1
TABLESTYLE
  2
AcDbTableStyle
  3
ObjectDBX Classes
 90
     4095
280
     0
281
     0
  0
CLASS
  1
MATERIAL
  2
AcDbMaterial
  3
ObjectDBX Classes
 90
     1153
280
     0
281
     0
  0
CLASS
  1
VISUALSTYLE
  2
AcDbVisualStyle
  3
ObjectDBX Classes
 90
     4095
280
     0
281
     0
  0
CLASS
  1
SCALE
  2
AcDbScale
  3
ObjectDBX Classes
 90
     1153
280
     0
281
     0
  0
CLASS
  1
MLEADERSTYLE
  2
AcDbMLeaderStyle
  3
ACDB_MLEADERSTYLE_CLASS
 90
     4095
280
     0
281
     0
  0
CLASS
  1
CELLSTYLEMAP
  2
AcDbCellStyleMap
  3
ObjectDBX Classes
 90
     1152
280
     0
281
     0
  0
ENDSEC
  0
SECTION
  2
TABLES
  0
TABLE
  2
VPORT
  5
8
330
0
100
AcDbSymbolTable
 70
     1
  0
VPORT
  5
94
330
8
100
AcDbSymbolTableRecord
100
AcDbViewportTableRecord
  2
*Active
 70
     0
 10
0.0
 20
0.0
 11
1.0
 21
1.0
 12
216.4815308999552
 22
283.9388390868466
 13
0.0
 23
0.0
 14
0.5
 24
0.5
 15
0.5
 25
0.5
 16
0.0
 26
0.0
 36
1.0
 17
0.0
 27
0.0
 37
0.0
 40
537.3582885156622
 41
1.148760330578512
 42
50.0
 43
0.0
 44
0.0
 50
0.0
 51
0.0
 71
     0
 72
  1000
 73
     1
 74
     3
 75
     0
 76
     0
 77
     0
 78
     0
281
     0
 65
     1
110
0.0
120
0.0
130
0.0
111
1.0
121
0.0
131
0.0
112
0.0
122
1.0
132
0.0
 79
     0
146
0.0
  0
ENDTAB
  0
TABLE
  2
LTYPE
  5
5
330
0
100
AcDbSymbolTable
 70
     1
  0
LTYPE
  5
14
330
5
100
AcDbSymbolTableRecord
100
AcDbLinetypeTableRecord
  2
ByBlock
 70
     0
  3

 72
    65
 73
     0
 40
0.0
  0
LTYPE
  5
15
330
5
100
AcDbSymbolTableRecord
100
AcDbLinetypeTableRecord
  2
ByLayer
 70
     0
  3

 72
    65
 73
     0
 40
0.0
  0
LTYPE
  5
16
330
5
100
AcDbSymbolTableRecord
100
AcDbLinetypeTableRecord
  2
Continuous
 70
     0
  3
Solid line
 72
    65
 73
     0
 40
0.0
  0
ENDTAB
  0
TABLE
  2
LAYER
  5
2
330
0
100
AcDbSymbolTable
 70
     5
  0
LAYER
  5
10
102
{ACAD_XDICTIONARY
360
E6
102
}
330
2
100
AcDbSymbolTableRecord
100
AcDbLayerTableRecord
  2
0
 70
     0
 62
     7
  6
Continuous
370
    -3
390
F
  0
LAYER
  5
174
102
{ACAD_XDICTIONARY
360
453
102
}
330
2
100
AcDbSymbolTableRecord
100
AcDbLayerTableRecord
  2
Q
 70
     1
 62
     7
  6
Continuous
370
    -3
390
F
1001
AcAecLayerStandard
1000

1000

  0
LAYER
  5
175
102
{ACAD_XDICTIONARY
360
455
102
}
330
2
100
AcDbSymbolTableRecord
100
AcDbLayerTableRecord
  2
QUOTE
 70
     0
 62
     7
  6
Continuous
370
    -3
390
F
1001
AcAecLayerStandard
1000

1000

  0
LAYER
  5
176
102
{ACAD_XDICTIONARY
360
457
102
}
330
2
100
AcDbSymbolTableRecord
100
AcDbLayerTableRecord
  2
DISEGNO
 70
     0
 62
     1
  6
Continuous
370
    -3
390
F
  0
LAYER
  5
420
330
2
100
AcDbSymbolTableRecord
100
AcDbLayerTableRecord
  2
Defpoints
 70
     0
 62
     7
  6
Continuous
290
     0
370
    -3
390
F
  0
ENDTAB
  0
TABLE
  2
STYLE
  5
3
330
0
100
AcDbSymbolTable
 70
     2
  0
STYLE
  5
11
330
3
100
AcDbSymbolTableRecord
100
AcDbTextStyleTableRecord
  2
Standard
 70
     0
 40
0.0
 41
1.0
 50
0.0
 71
     0
 42
0.2
  3
txt.shx
  4

  0
STYLE
  5
DC
330
3
100
AcDbSymbolTableRecord
100
AcDbTextStyleTableRecord
  2
Annotativa
 70
     0
 40
0.0
 41
1.0
 50
0.0
 71
     0
 42
0.2
  3
txt.shx
  4

1001
AcadAnnotative
1000
AnnotativeData
1002
{
1070
     1
1070
     1
1002
}
  0
ENDTAB
  0
TABLE
  2
VIEW
  5
6
330
0
100
AcDbSymbolTable
 70
     1
  0
ENDTAB
  0
TABLE
  2
UCS
  5
7
330
0
100
AcDbSymbolTable
 70
     0
  0
ENDTAB
  0
TABLE
  2
APPID
  5
9
330
0
100
AcDbSymbolTable
 70
    14
  0
APPID
  5
12
330
9
100
AcDbSymbolTableRecord
100
AcDbRegAppTableRecord
  2
ACAD
 70
     0
  0
APPID
  5
DD
330
9
100
AcDbSymbolTableRecord
100
AcDbRegAppTableRecord
  2
AcadAnnoPO
 70
     0
  0
APPID
  5
DE
330
9
100
AcDbSymbolTableRecord
100
AcDbRegAppTableRecord
  2
AcadAnnotative
 70
     0
  0
APPID
  5
DF
330
9
100
AcDbSymbolTableRecord
100
AcDbRegAppTableRecord
  2
ACAD_DSTYLE_DIMJAG
 70
     0
  0
APPID
  5
E0
330
9
100
AcDbSymbolTableRecord
100
AcDbRegAppTableRecord
  2
ACAD_DSTYLE_DIMTALN
 70
     0
  0
APPID
  5
107
330
9
100
AcDbSymbolTableRecord
100
AcDbRegAppTableRecord
  2
ACAD_MLEADERVER
 70
     0
  0
APPID
  5
177
330
9
100
AcDbSymbolTableRecord
100
AcDbRegAppTableRecord
  2
VDEXTRAPARAM
 70
     0
  0
APPID
  5
178
330
9
100
AcDbSymbolTableRecord
100
AcDbRegAppTableRecord
  2
VD_TEMPHATCH
 70
     0
  0
APPID
  5
179
330
9
100
AcDbSymbolTableRecord
100
AcDbRegAppTableRecord
  2
AcAecLayerStandard
 70
     0
  0
APPID
  5
17A
330
9
100
AcDbSymbolTableRecord
100
AcDbRegAppTableRecord
  2
VD_EX_PRINTER_DWG_STYLE_SHEET
 70
     0
  0
APPID
  5
17B
330
9
100
AcDbSymbolTableRecord
100
AcDbRegAppTableRecord
  2
VD_EX_PRINTER_SIZEX
 70
     0
  0
APPID
  5
17C
330
9
100
AcDbSymbolTableRecord
100
AcDbRegAppTableRecord
  2
VD_EX_PRINTER_AVSIZEX
 70
     0
  0
APPID
  5
17D
330
9
100
AcDbSymbolTableRecord
100
AcDbRegAppTableRecord
  2
VD_EX_PRINTER_SIZEY
 70
     0
  0
APPID
  5
17E
330
9
100
AcDbSymbolTableRecord
100
AcDbRegAppTableRecord
  2
VD_EX_PRINTER_AVSIZEY
 70
     0
  0
ENDTAB
  0
TABLE
  2
DIMSTYLE
  5
A
330
0
100
AcDbSymbolTable
 70
     2
100
AcDbDimStyleTable
 71
     2
340
27
340
E1
  0
DIMSTYLE
105
27
102
{ACAD_REACTORS
330
3DE
330
3DF
102
}
330
A
100
AcDbSymbolTableRecord
100
AcDbDimStyleTableRecord
  2
Standard
 70
     0
340
11
  0
DIMSTYLE
105
E1
330
A
100
AcDbSymbolTableRecord
100
AcDbDimStyleTableRecord
  2
Annotativa
 70
     0
 40
0.0
340
11
1001
AcadAnnotative
1000
AnnotativeData
1002
{
1070
     1
1070
     1
1002
}
1001
ACAD_DSTYLE_DIMJAG
1070
   388
1040
1.5
1001
ACAD_DSTYLE_DIMTALN
1070
   392
1070
     0
  0
ENDTAB
  0
TABLE
  2
BLOCK_RECORD
  5
1
330
0
100
AcDbSymbolTable
 70
     7
  0
BLOCK_RECORD
  5
1F
330
1
100
AcDbSymbolTableRecord
100
AcDbBlockTableRecord
  2
*Model_Space
340
22
  0
BLOCK_RECORD
  5
58
330
1
100
AcDbSymbolTableRecord
100
AcDbBlockTableRecord
  2
*Paper_Space
340
59
  0
BLOCK_RECORD
  5
5D
330
1
100
AcDbSymbolTableRecord
100
AcDbBlockTableRecord
  2
*Paper_Space0
340
5E
  0
BLOCK_RECORD
  5
14C
330
1
100
AcDbSymbolTableRecord
100
AcDbBlockTableRecord
  2
VDDIM_DEFAULT
340
0
  0
BLOCK_RECORD
  5
150
330
1
100
AcDbSymbolTableRecord
100
AcDbBlockTableRecord
  2
IEC_309_16-32
340
0
102
{BLKREFS
331
2C8
331
2C9
331
2CA
331
2CB
331
2CC
331
2CD
331
41A
331
41B
331
41C
331
41D
331
41E
331
41F
102
}
  0
BLOCK_RECORD
  5
168
330
1
100
AcDbSymbolTableRecord
100
AcDbBlockTableRecord
  2
*D3
340
0
  0
BLOCK_RECORD
  5
421
330
1
100
AcDbSymbolTableRecord
100
AcDbBlockTableRecord
  2
*D5
340
0
  0
BLOCK_RECORD
  5
42E
330
1
100
AcDbSymbolTableRecord
100
AcDbBlockTableRecord
  2
*D6
340
0
  0
ENDTAB
  0
ENDSEC
  0
SECTION
  2
BLOCKS
  0
BLOCK
  5
20
330
1F
100
AcDbEntity
  8
0
100
AcDbBlockBegin
  2
*Model_Space
 70
     0
 10
0.0
 20
0.0
 30
0.0
  3
*Model_Space
  1

  0
ENDBLK
  5
21
330
1F
100
AcDbEntity
  8
0
100
AcDbBlockEnd
  0
BLOCK
  5
5A
330
58
100
AcDbEntity
 67
     1
  8
0
100
AcDbBlockBegin
  2
*Paper_Space
 70
     0
 10
0.0
 20
0.0
 30
0.0
  3
*Paper_Space
  1

  0
ENDBLK
  5
5B
330
58
100
AcDbEntity
 67
     1
  8
0
100
AcDbBlockEnd
  0
BLOCK
  5
5F
330
5D
100
AcDbEntity
 67
     1
  8
0
100
AcDbBlockBegin
  2
*Paper_Space0
 70
     0
 10
0.0
 20
0.0
 30
0.0
  3
*Paper_Space0
  1

  0
ENDBLK
  5
60
330
5D
100
AcDbEntity
 67
     1
  8
0
100
AcDbBlockEnd
  0
BLOCK
  5
14D
330
14C
100
AcDbEntity
  8
0
100
AcDbBlockBegin
  2
VDDIM_DEFAULT
 70
     0
 10
0.0
 20
0.0
 30
0.0
  3
VDDIM_DEFAULT
  1

  0
HATCH
  5
14E
330
14C
100
AcDbEntity
  8
0
  6
Continuous
 62
     0
370
    -2
100
AcDbHatch
 10
0.0
 20
0.0
 30
0.0
210
0.0
220
0.0
230
-1.0
  2
SOLID
 70
     1
 71
     0
 91
        1
 92
        2
 72
     0
 73
     1
 93
        3
 10
0.0
 20
0.0
 10
1.0
 20
-0.1665
 10
1.0
 20
0.1665
 97
        0
 75
     0
 76
     1
 98
        1
 10
0.0
 20
0.0
  0
ENDBLK
  5
14F
330
14C
100
AcDbEntity
  8
0
100
AcDbBlockEnd
  0
BLOCK
  5
151
330
150
100
AcDbEntity
  8
0
100
AcDbBlockBegin
  2
IEC_309_16-32
 70
     0
 10
0.0
 20
0.0
 30
0.0
  3
IEC_309_16-32
  1

  0
ARC
  5
152
330
150
100
AcDbEntity
  8
DISEGNO
 62
     7
100
AcDbCircle
 10
98.92437755000001
 20
101.22342337
 30
0.0
 40
10.45203864
100
AcDbArc
 50
0.0
 51
90.0
  0
ARC
  5
153
330
150
100
AcDbEntity
  8
DISEGNO
 62
     7
100
AcDbCircle
 10
98.92437755000001
 20
27.14615532
 30
0.0
 40
10.45203864
100
AcDbArc
 50
270.0
 51
0.0
  0
LINE
  5
154
330
150
100
AcDbEntity
  8
DISEGNO
 62
     7
100
AcDbLine
 10
29.37485018
 20
27.14615532
 30
0.0
 11
29.37485018
 21
101.22342337
 31
0.0
  0
ARC
  5
155
330
150
100
AcDbEntity
  8
DISEGNO
 62
     7
100
AcDbCircle
 10
39.82688883
 20
27.14615532
 30
0.0
 40
10.45203864
100
AcDbArc
 50
180.0
 51
270.0
  0
ARC
  5
156
330
150
100
AcDbEntity
  8
DISEGNO
 62
     7
100
AcDbCircle
 10
39.82688883
 20
101.22342337
 30
0.0
 40
10.45203864
100
AcDbArc
 50
90.0
 51
180.0
  0
LINE
  5
157
330
150
100
AcDbEntity
  8
DISEGNO
 62
     7
100
AcDbLine
 10
39.82688883
 20
111.67546202
 30
0.0
 11
98.92437755000001
 21
111.67546202
 31
0.0
  0
LINE
  5
158
330
150
100
AcDbEntity
  8
DISEGNO
 62
     7
100
AcDbLine
 10
109.3764162
 20
101.22342337
 30
0.0
 11
109.3764162
 21
27.14615532
 31
0.0
  0
LINE
  5
159
330
150
100
AcDbEntity
  8
Q
 62
     1
100
AcDbLine
 10
116.87657492
 20
16.69411667
 30
0.0
 11
21.87700654
 21
16.69411667
 31
0.0
  0
LINE
  5
15A
330
150
100
AcDbEntity
  8
Q
 62
     1
100
AcDbLine
 10
21.87700654
 20
123.30508831
 30
0.0
 11
116.87657492
 21
123.30508831
 31
0.0
  0
LINE
  5
15B
330
150
100
AcDbEntity
  8
Q
 62
     1
100
AcDbLine
 10
21.87700654
 20
16.69411667
 30
0.0
 11
21.87700654
 21
123.30508831
 31
0.0
  0
LINE
  5
15C
330
150
100
AcDbEntity
  8
Q
 62
     1
100
AcDbLine
 10
116.87657492
 20
16.69411667
 30
0.0
 11
116.87657492
 21
123.30508831
 31
0.0
  0
CIRCLE
  5
15D
330
150
100
AcDbEntity
  8
0
100
AcDbCircle
 10
39.68921445
 20
25.81853611
 30
0.0
 40
3.10602526
  0
CIRCLE
  5
15E
330
150
100
AcDbEntity
  8
0
100
AcDbCircle
 10
39.68921445
 20
102.32521579
 30
0.0
 40
3.10602526
  0
CIRCLE
  5
15F
330
150
100
AcDbEntity
  8
0
100
AcDbCircle
 10
99.11826150999999
 20
25.36875409
 30
0.0
 40
3.10602526
  0
CIRCLE
  5
160
330
150
100
AcDbEntity
  8
0
100
AcDbCircle
 10
99.11826150999999
 20
101.87543378
 30
0.0
 40
3.10602526
  0
LINE
  5
161
330
150
100
AcDbEntity
  8
Q
 62
     2
100
AcDbLine
 10
26.86858819
 20
21.83590155
 30
0.0
 11
111.88499327
 21
21.83590155
 31
0.0
  0
LINE
  5
162
330
150
100
AcDbEntity
  8
Q
 62
     2
100
AcDbLine
 10
111.88499327
 20
21.83590155
 30
0.0
 11
111.88499327
 21
117.08642104
 31
0.0
  0
LINE
  5
163
330
150
100
AcDbEntity
  8
Q
 62
     2
100
AcDbLine
 10
26.86858819
 20
117.08642104
 30
0.0
 11
26.86858819
 21
21.83590155
 31
0.0
  0
LINE
  5
164
330
150
100
AcDbEntity
  8
Q
 62
     2
100
AcDbLine
 10
70.12473491
 20
117.08642104
 30
0.0
 11
111.88499327
 21
117.08642104
 31
0.0
  0
LINE
  5
165
330
150
100
AcDbEntity
  8
Q
 62
     2
100
AcDbLine
 10
70.12473491
 20
117.08642104
 30
0.0
 11
26.86858819
 21
117.08642104
 31
0.0
  0
LINE
  5
166
330
150
100
AcDbEntity
  8
0
 62
     7
100
AcDbLine
 10
39.82688883
 20
16.69411667
 30
0.0
 11
98.92437755000001
 21
16.69411667
 31
0.0
  0
ENDBLK
  5
167
330
150
100
AcDbEntity
  8
0
100
AcDbBlockEnd
  0
BLOCK
  5
169
330
168
100
AcDbEntity
  8
0
100
AcDbBlockBegin
  2
*D3
 70
     0
 10
0.0
 20
0.0
 30
0.0
  3
*D3
  1

  0
LINE
  5
16A
330
168
100
AcDbEntity
  8
QUOTE
 62
     7
100
AcDbLine
 10
340.87410625
 20
-127.23099548
 30
0.0
 11
340.87410625
 21
-161.30581575
 31
0.0
  0
LINE
  5
16B
330
168
100
AcDbEntity
  8
QUOTE
 62
     7
100
AcDbLine
 10
20.87410625
 20
-127.16612515
 30
0.0
 11
20.87410625
 21
-161.30581575
 31
0.0
  0
LINE
  5
16C
330
168
100
AcDbEntity
  8
QUOTE
 62
     7
100
AcDbLine
 10
325.87410625
 20
-161.12581575
 30
0.0
 11
193.64910861
 21
-161.12581575
 31
0.0
  0
LINE
  5
16D
330
168
100
AcDbEntity
  8
QUOTE
 62
     7
100
AcDbLine
 10
35.87410625
 20
-161.12581575
 30
0.0
 11
168.46910861
 21
-161.12581575
 31
0.0
  0
LWPOLYLINE
  5
16E
102
{ACAD_REACTORS
330
16F
102
}
330
168
100
AcDbEntity
  8
QUOTE
 62
     7
100
AcDbPolyline
 90
        3
 70
     1
 43
0.0
 10
325.87410625
 20
-158.62581575
 10
325.87410625
 20
-163.62581575
 10
340.87410625
 20
-161.12581575
  0
HATCH
  5
16F
330
168
100
AcDbEntity
  8
QUOTE
 62
     7
100
AcDbHatch
 10
0.0
 20
0.0
 30
0.0
210
0.0
220
0.0
230
1.0
  2
SOLID
 70
     1
 71
     1
 91
        1
 92
        2
 72
     0
 73
     1
 93
        3
 10
325.87410625
 20
-158.62581575
 10
325.87410625
 20
-163.62581575
 10
340.87410625
 20
-161.12581575
 97
        1
330
16E
 75
     0
 76
     1
 98
        1
 10
0.0
 20
0.0
1001
VD_TEMPHATCH
1000
VD_TEMPHATCH
  0
LWPOLYLINE
  5
170
102
{ACAD_REACTORS
330
171
102
}
330
168
100
AcDbEntity
  8
QUOTE
 62
     7
100
AcDbPolyline
 90
        3
 70
     1
 43
0.0
 10
35.87410625
 20
-158.62581575
 10
35.87410625
 20
-163.62581575
 10
20.87410625
 20
-161.12581575
  0
HATCH
  5
171
330
168
100
AcDbEntity
  8
QUOTE
 62
     7
100
AcDbHatch
 10
0.0
 20
0.0
 30
0.0
210
0.0
220
0.0
230
1.0
  2
SOLID
 70
     1
 71
     1
 91
        1
 92
        2
 72
     0
 73
     1
 93
        3
 10
35.87410625
 20
-158.62581575
 10
35.87410625
 20
-163.62581575
 10
20.87410625
 20
-161.12581575
 97
        1
330
170
 75
     0
 76
     1
 98
        1
 10
0.0
 20
0.0
1001
VD_TEMPHATCH
1000
VD_TEMPHATCH
  0
MTEXT
  5
172
330
168
100
AcDbEntity
  8
QUOTE
 62
     7
100
AcDbMText
 10
181.05910861
 20
-161.12581575
 30
0.0
 40
10.0
 41
22.31652145
 71
     5
 72
     1
  1
\A1;320
 73
     1
 44
1.0
1001
ACAD
1000
MTEXTBEGIN
1070
    73
1070
     1
1070
    44
1040
1.0
1070
    74
1070
     0
1000
MTEXTEND
  0
ENDBLK
  5
173
330
168
100
AcDbEntity
  8
0
100
AcDbBlockEnd
  0
BLOCK
  5
422
330
421
100
AcDbEntity
  8
0
100
AcDbBlockBegin
  2
*D5
 70
     1
 10
0.0
 20
0.0
 30
0.0
  3
*D5
  1

  0
LINE
  5
43B
330
421
100
AcDbEntity
  8
QUOTE
 62
     0
370
    -2
100
AcDbLine
 10
62.95541491856671
 20
549.6785373186286
 30
0.0
 11
24.78707516856682
 21
549.6785373186286
 31
0.0
  0
LINE
  5
43C
330
421
100
AcDbEntity
  8
QUOTE
 62
     0
370
    -2
100
AcDbLine
 10
63.01791491856672
 20
39.67850631862857
 30
0.0
 11
24.78707516856671
 21
39.67850631862857
 31
0.0
  0
LINE
  5
43D
330
421
100
AcDbEntity
  8
QUOTE
 62
     0
370
    -2
100
AcDbLine
 10
24.96707516856683
 20
534.6785373186285
 30
0.0
 11
24.96707516856677
 21
299.4354487086285
 31
0.0
  0
LINE
  5
43E
330
421
100
AcDbEntity
  8
QUOTE
 62
     0
370
    -2
100
AcDbLine
 10
24.96707516856672
 20
54.67850631862857
 30
0.0
 11
24.96707516856677
 21
289.2554487086286
 31
0.0
  0
SOLID
  5
43F
330
421
100
AcDbEntity
  8
QUOTE
 62
     0
100
AcDbTrace
 10
22.46707516856682
 20
534.6785373186285
 30
0.0
 11
27.46707516856683
 21
534.6785373186285
 31
0.0
 12
24.96707516856683
 22
549.6785373186286
 32
0.0
 13
24.96707516856683
 23
549.6785373186286
 33
0.0
  0
SOLID
  5
440
330
421
100
AcDbEntity
  8
QUOTE
 62
     0
100
AcDbTrace
 10
22.46707516856671
 20
54.67850631862857
 30
0.0
 11
27.46707516856672
 21
54.67850631862857
 31
0.0
 12
24.96707516856671
 22
39.67850631862857
 32
0.0
 13
24.96707516856671
 23
39.67850631862857
 33
0.0
  0
MTEXT
  5
441
330
421
100
AcDbEntity
  8
QUOTE
 62
     0
100
AcDbMText
 10
24.96707516856672
 20
294.3454487086285
 30
0.0
 40
10.0
 41
0.0
 71
     5
 72
     1
  1
\A1;510
 73
     1
 44
1.0
1001
ACAD
1000
MTEXTBEGIN
1070
    73
1070
     1
1070
    44
1040
1.0
1070
    74
1070
     0
1000
MTEXTEND
  0
POINT
  5
442
330
421
100
AcDbEntity
  8
Defpoints
 62
     0
100
AcDbPoint
 10
63.01791491856672
 20
549.6785373186286
 30
0.0
  0
POINT
  5
443
330
421
100
AcDbEntity
  8
Defpoints
 62
     0
100
AcDbPoint
 10
63.08041491856672
 20
39.67850631862857
 30
0.0
  0
POINT
  5
444
330
421
100
AcDbEntity
  8
Defpoints
 62
     0
100
AcDbPoint
 10
24.96707516856671
 20
39.67850631862857
 30
0.0
  0
ENDBLK
  5
423
330
421
100
AcDbEntity
  8
0
100
AcDbBlockEnd
  0
BLOCK
  5
42F
330
42E
100
AcDbEntity
  8
0
100
AcDbBlockBegin
  2
*D6
 70
     1
 10
0.0
 20
0.0
 30
0.0
  3
*D6
  1

  0
LINE
  5
445
330
42E
100
AcDbEntity
  8
QUOTE
 62
     0
370
    -2
100
AcDbLine
 10
367.0179149185667
 20
55.61363598862856
 30
0.0
 11
367.0179149185667
 21
21.53881571862858
 31
0.0
  0
LINE
  5
446
330
42E
100
AcDbEntity
  8
QUOTE
 62
     0
370
    -2
100
AcDbLine
 10
47.01791491856671
 20
55.67850631862857
 30
0.0
 11
47.01791491856671
 21
21.53881571862858
 31
0.0
  0
LINE
  5
447
330
42E
100
AcDbEntity
  8
QUOTE
 62
     0
370
    -2
100
AcDbLine
 10
352.0179149185667
 20
21.71881571862858
 30
0.0
 11
219.7929172785667
 21
21.71881571862858
 31
0.0
  0
LINE
  5
448
330
42E
100
AcDbEntity
  8
QUOTE
 62
     0
370
    -2
100
AcDbLine
 10
62.01791491856671
 20
21.71881571862858
 30
0.0
 11
194.6129172785667
 21
21.71881571862858
 31
0.0
  0
SOLID
  5
449
330
42E
100
AcDbEntity
  8
QUOTE
 62
     0
100
AcDbTrace
 10
352.0179149185667
 20
24.21881571862858
 30
0.0
 11
352.0179149185667
 21
19.21881571862857
 31
0.0
 12
367.0179149185667
 22
21.71881571862858
 32
0.0
 13
367.0179149185667
 23
21.71881571862858
 33
0.0
  0
SOLID
  5
44A
330
42E
100
AcDbEntity
  8
QUOTE
 62
     0
100
AcDbTrace
 10
62.01791491856671
 20
24.21881571862858
 30
0.0
 11
62.01791491856671
 21
19.21881571862857
 31
0.0
 12
47.01791491856671
 22
21.71881571862858
 32
0.0
 13
47.01791491856671
 23
21.71881571862858
 33
0.0
  0
MTEXT
  5
44B
330
42E
100
AcDbEntity
  8
QUOTE
 62
     0
100
AcDbMText
 10
207.2029172785667
 20
21.71881571862858
 30
0.0
 40
10.0
 41
0.0
 71
     5
 72
     1
  1
\A1;320
 73
     1
 44
1.0
1001
ACAD
1000
MTEXTBEGIN
1070
    73
1070
     1
1070
    44
1040
1.0
1070
    74
1070
     0
1000
MTEXTEND
  0
POINT
  5
44C
330
42E
100
AcDbEntity
  8
Defpoints
 62
     0
100
AcDbPoint
 10
367.0179149185667
 20
55.67613598862855
 30
0.0
  0
POINT
  5
44D
330
42E
100
AcDbEntity
  8
Defpoints
 62
     0
100
AcDbPoint
 10
47.01791491856671
 20
55.74100631862856
 30
0.0
  0
POINT
  5
44E
330
42E
100
AcDbEntity
  8
Defpoints
 62
     0
100
AcDbPoint
 10
47.01791491856671
 20
21.71881571862858
 30
0.0
  0
ENDBLK
  5
430
330
42E
100
AcDbEntity
  8
0
100
AcDbBlockEnd
  0
ENDSEC
  0
SECTION
  2
ENTITIES
  0
LINE
  5
2D2
330
1F
100
AcDbEntity
  8
0
 62
   253
370
    35
100
AcDbLine
 10
151.5179149185667
 20
382.1073703186286
 30
0.0
 11
262.5179149185667
 21
382.1768583186285
 31
0.0
  0
ARC
  5
2D3
330
1F
100
AcDbEntity
  8
0
 62
   253
370
    35
100
AcDbCircle
 10
207.0286569185667
 20
370.1432283186286
 30
0.0
 40
10.452045
100
AcDbArc
 50
0.0
 51
232.8935809999999
  0
ARC
  5
2D4
330
1F
100
AcDbEntity
  8
0
 62
   253
370
    35
100
AcDbCircle
 10
207.0286569185667
 20
370.1432283186286
 30
0.0
 40
10.452045
100
AcDbArc
 50
303.2396360000002
 51
0.0
  0
LINE
  5
2D5
330
1F
100
AcDbEntity
  8
0
 62
   253
370
    35
100
AcDbLine
 10
62.72665491856672
 20
480.8759243186285
 30
0.0
 11
62.72665491856672
 21
359.9870693186285
 31
0.0
  0
LINE
  5
2D6
330
1F
100
AcDbEntity
  8
0
 62
   253
370
    35
100
AcDbLine
 10
351.3092359185667
 20
480.8759243186285
 30
0.0
 11
351.3092359185667
 21
359.9870693186285
 31
0.0
  0
ARC
  5
2D7
330
1F
100
AcDbEntity
  8
0
 62
   253
370
    35
100
AcDbCircle
 10
65.72647191856671
 20
480.8760463186285
 30
0.0
 40
2.999829999999999
100
AcDbArc
 50
89.99901200000001
 51
180.0009919999999
  0
ARC
  5
2D8
330
1F
100
AcDbEntity
  8
0
 62
   253
370
    35
100
AcDbCircle
 10
65.72647191856671
 20
359.9870393186286
 30
0.0
 40
2.999829999999999
100
AcDbArc
 50
179.9990080000001
 51
270.000988
  0
LINE
  5
2D9
330
1F
100
AcDbEntity
  8
0
 62
     7
370
    13
100
AcDbLine
 10
363.1120919185668
 20
68.37581831862856
 30
0.0
 11
50.92379891856672
 21
68.37581831862856
 31
0.0
  0
LINE
  5
2DA
330
1F
100
AcDbEntity
  8
0
 62
     7
370
    13
100
AcDbLine
 10
363.1120919185668
 20
520.9812103186285
 30
0.0
 11
50.92379891856672
 21
520.9812103186285
 31
0.0
  0
LINE
  5
2DB
330
1F
100
AcDbEntity
  8
0
 62
   253
370
    35
100
AcDbLine
 10
65.72653291856672
 20
483.8758633186285
 30
0.0
 11
348.3093579185668
 21
483.8758633186285
 31
0.0
  0
ARC
  5
2DC
330
1F
100
AcDbEntity
  8
0
 62
   253
370
    35
100
AcDbCircle
 10
348.3094189185667
 20
480.8760463186285
 30
0.0
 40
2.999829999999999
100
AcDbArc
 50
359.9990140000004
 51
90.00098600000002
  0
ARC
  5
2DD
330
1F
100
AcDbEntity
  8
0
 62
   253
370
    35
100
AcDbCircle
 10
348.3094189185667
 20
359.9870393186286
 30
0.0
 40
2.999829999999999
100
AcDbArc
 50
269.999014
 51
0.0009859999996218
  0
LINE
  5
2DE
330
1F
100
AcDbEntity
  8
0
 62
   253
370
    35
100
AcDbLine
 10
65.72653291856672
 20
356.9871913186286
 30
0.0
 11
348.3093579185668
 21
356.9871913186286
 31
0.0
  0
ARC
  5
2DF
330
1F
100
AcDbEntity
  8
0
 62
     7
370
    35
100
AcDbCircle
 10
348.5179149185667
 20
507.8844693186286
 30
0.0
 40
2.0
100
AcDbArc
 50
0.0
 51
90.0
  0
LINE
  5
2E0
330
1F
100
AcDbEntity
  8
0
 62
     7
 48
0.45
370
    35
100
AcDbLine
 10
350.5179149185667
 20
507.8844693186286
 30
0.0
 11
350.5179149185667
 21
489.8844693186285
 31
0.0
  0
ARC
  5
2E1
330
1F
100
AcDbEntity
  8
0
 62
     7
370
    35
100
AcDbCircle
 10
348.5179149185667
 20
489.8844693186285
 30
0.0
 40
2.0
100
AcDbArc
 50
270.0
 51
0.0
  0
LINE
  5
2E2
330
1F
100
AcDbEntity
  8
0
 62
     7
370
    35
100
AcDbLine
 10
303.5179149185667
 20
487.8844693186286
 30
0.0
 11
348.5179149185667
 21
487.8844693186286
 31
0.0
  0
ARC
  5
2E3
330
1F
100
AcDbEntity
  8
0
 62
     7
370
    35
100
AcDbCircle
 10
303.5179149185667
 20
489.8844693186285
 30
0.0
 40
2.0
100
AcDbArc
 50
180.0
 51
270.0
  0
LINE
  5
2E4
330
1F
100
AcDbEntity
  8
0
 62
     7
 48
0.45
370
    35
100
AcDbLine
 10
301.5179149185667
 20
489.8844693186285
 30
0.0
 11
301.5179149185667
 21
507.8844693186286
 31
0.0
  0
ARC
  5
2E5
330
1F
100
AcDbEntity
  8
0
 62
     7
370
    35
100
AcDbCircle
 10
303.5179149185667
 20
507.8844693186286
 30
0.0
 40
2.0
100
AcDbArc
 50
90.0
 51
180.0
  0
LINE
  5
2E6
330
1F
100
AcDbEntity
  8
0
 62
     7
370
    35
100
AcDbLine
 10
348.5179149185667
 20
509.8844693186285
 30
0.0
 11
303.5179149185667
 21
509.8844693186285
 31
0.0
  0
CIRCLE
  5
2E7
330
1F
100
AcDbEntity
  8
0
 62
     7
370
    35
100
AcDbCircle
 10
351.0179149185667
 20
324.6785063186286
 30
0.0
 40
9.352035
  0
CIRCLE
  5
2E8
330
1F
100
AcDbEntity
  8
0
 62
     7
370
    35
100
AcDbCircle
 10
63.01791491856672
 20
324.6785063186286
 30
0.0
 40
9.352035
  0
ARC
  5
2E9
330
1F
100
AcDbEntity
  8
0
 62
     7
370
    35
100
AcDbCircle
 10
351.0179149185667
 20
55.67850631862857
 30
0.0
 40
16.0
100
AcDbArc
 50
270.0
 51
337.0910520000002
  0
LINE
  5
2EA
330
1F
100
AcDbEntity
  8
0
 62
     7
370
    35
100
AcDbLine
 10
63.01791491856672
 20
39.67850631862857
 30
0.0
 11
351.0179149185667
 21
39.67850631862857
 31
0.0
  0
ARC
  5
2EB
330
1F
100
AcDbEntity
  8
0
 62
     7
370
    35
100
AcDbCircle
 10
63.01791491856672
 20
55.67850631862857
 30
0.0
 40
16.0
100
AcDbArc
 50
202.9089409999995
 51
270.0
  0
LINE
  5
2EC
330
1F
100
AcDbEntity
  8
0
 62
     7
 48
0.001465
370
    35
100
AcDbLine
 10
364.4541939185667
 20
61.77758131862856
 30
0.0
 11
364.4956369185667
 21
61.81904031862856
 31
0.0
  0
LINE
  5
2ED
330
1F
100
AcDbEntity
  8
0
 62
     7
 48
0.011675
370
    35
100
AcDbLine
 10
365.4955759185667
 20
61.83399331862855
 30
0.0
 11
365.9625559185668
 21
61.83635831862857
 31
0.0
  0
LINE
  5
2EE
330
1F
100
AcDbEntity
  8
0
 62
     7
 48
0.00196
370
    35
100
AcDbLine
 10
367.0179149185667
 20
61.90679331862856
 30
0.0
 11
366.9624949185667
 21
61.85131231862856
 31
0.0
  0
LINE
  5
2EF
330
1F
100
AcDbEntity
  8
0
 62
     7
 48
0.001665
370
    35
100
AcDbLine
 10
365.7559519185667
 20
49.45021931862857
 30
0.0
 11
365.7190869185667
 21
49.50570031862856
 31
0.0
  0
LINE
  5
2F0
330
1F
100
AcDbEntity
  8
0
 62
     7
 48
0.015674
370
    35
100
AcDbLine
 10
364.6349189185668
 20
49.52065431862857
 30
0.0
 11
364.0079659185667
 21
49.52353831862857
 31
0.0
  0
LINE
  5
2F1
330
1F
100
AcDbEntity
  8
0
 62
     7
 48
0.001155
370
    35
100
AcDbLine
 10
362.8797309185667
 20
49.53859831862857
 30
0.0
 11
362.8564159185668
 21
49.57850031862855
 31
0.0
  0
LINE
  5
2F2
330
1F
100
AcDbEntity
  8
0
 62
     7
 48
0.000026
370
    35
100
AcDbLine
 10
362.8564159185668
 20
49.57850031862855
 30
0.0
 11
362.8559279185668
 21
49.57943131862856
 31
0.0
  0
LINE
  5
2F3
330
1F
100
AcDbEntity
  8
0
 62
     7
370
    35
100
AcDbLine
 10
367.0179149185667
 20
318.4502353186285
 30
0.0
 11
367.0179149185667
 21
61.90679331862856
 31
0.0
  0
LINE
  5
2F4
330
1F
100
AcDbEntity
  8
0
 62
     7
 48
0.001466
370
    35
100
AcDbLine
 10
364.4541939185667
 20
330.7775663186286
 30
0.0
 11
364.4956369185667
 21
330.8190403186286
 31
0.0
  0
LINE
  5
2F5
330
1F
100
AcDbEntity
  8
0
 62
     7
 48
0.011675
370
    35
100
AcDbLine
 10
365.4955759185667
 20
330.8339933186286
 30
0.0
 11
365.9625559185668
 21
330.8363433186286
 31
0.0
  0
LINE
  5
2F6
330
1F
100
AcDbEntity
  8
0
 62
     7
 48
0.00196
370
    35
100
AcDbLine
 10
367.0179149185667
 20
330.9068083186286
 30
0.0
 11
366.9624949185667
 21
330.8513273186286
 31
0.0
  0
LINE
  5
2F7
330
1F
100
AcDbEntity
  8
0
 62
     7
 48
0.00196
370
    35
100
AcDbLine
 10
367.0179149185667
 20
318.4502353186285
 30
0.0
 11
366.9624949185667
 21
318.5056853186286
 31
0.0
  0
LINE
  5
2F8
330
1F
100
AcDbEntity
  8
0
 62
     7
 48
0.011675
370
    35
100
AcDbLine
 10
365.4955759185667
 20
318.5230193186286
 30
0.0
 11
365.9625559185668
 21
318.5206693186286
 31
0.0
  0
LINE
  5
2F9
330
1F
100
AcDbEntity
  8
0
 62
     7
 48
0.001466
370
    35
100
AcDbLine
 10
364.4541939185667
 20
318.5794463186286
 30
0.0
 11
364.4956369185667
 21
318.5379733186286
 31
0.0
  0
LINE
  5
2FA
330
1F
100
AcDbEntity
  8
0
 62
     7
370
    35
100
AcDbLine
 10
367.0179149185667
 20
527.4502043186284
 30
0.0
 11
367.0179149185667
 21
330.9068083186286
 31
0.0
  0
LINE
  5
2FB
330
1F
100
AcDbEntity
  8
0
 62
     7
 48
0.000026
370
    35
100
AcDbLine
 10
362.8564159185668
 20
539.7785123186285
 30
0.0
 11
362.8559279185668
 21
539.7775973186286
 31
0.0
  0
LINE
  5
2FC
330
1F
100
AcDbEntity
  8
0
 62
     7
 48
0.001156
370
    35
100
AcDbLine
 10
362.8564159185668
 20
539.7785123186285
 30
0.0
 11
362.8797309185667
 21
539.8184293186285
 31
0.0
  0
LINE
  5
2FD
330
1F
100
AcDbEntity
  8
0
 62
     7
 48
0.015674
370
    35
100
AcDbLine
 10
364.0079659185667
 20
539.8334443186285
 30
0.0
 11
364.6349189185668
 21
539.8363743186286
 31
0.0
  0
LINE
  5
2FE
330
1F
100
AcDbEntity
  8
0
 62
     7
 48
0.001665
370
    35
100
AcDbLine
 10
365.7190869185667
 20
539.8513273186286
 30
0.0
 11
365.7559519185667
 21
539.9068083186286
 31
0.0
  0
LINE
  5
2FF
330
1F
100
AcDbEntity
  8
0
 62
     7
 48
0.00196
370
    35
100
AcDbLine
 10
367.0179149185667
 20
527.4502043186284
 30
0.0
 11
366.9624949185667
 21
527.5056853186286
 31
0.0
  0
LINE
  5
300
330
1F
100
AcDbEntity
  8
0
 62
     7
 48
0.011675
370
    35
100
AcDbLine
 10
365.4955759185667
 20
527.5230193186285
 30
0.0
 11
365.9625559185668
 21
527.5206393186286
 31
0.0
  0
LINE
  5
301
330
1F
100
AcDbEntity
  8
0
 62
     7
 48
0.001465
370
    35
100
AcDbLine
 10
364.4541939185667
 20
527.5794163186285
 30
0.0
 11
364.4956369185667
 21
527.5379733186285
 31
0.0
  0
ARC
  5
302
330
1F
100
AcDbEntity
  8
0
 62
     7
370
    35
100
AcDbCircle
 10
63.01791491856672
 20
533.6785373186286
 30
0.0
 40
16.0
100
AcDbArc
 50
90.0
 51
157.0910590000005
  0
LINE
  5
303
330
1F
100
AcDbEntity
  8
0
 62
     7
370
    35
100
AcDbLine
 10
351.0179149185667
 20
549.6785373186286
 30
0.0
 11
63.01791491856672
 21
549.6785373186286
 31
0.0
  0
ARC
  5
304
330
1F
100
AcDbEntity
  8
0
 62
     7
370
    35
100
AcDbCircle
 10
351.0179149185667
 20
533.6785373186286
 30
0.0
 40
16.0
100
AcDbArc
 50
22.90894799999983
 51
90.0
  0
LINE
  5
305
330
1F
100
AcDbEntity
  8
0
 62
     7
 48
0.001465
370
    35
100
AcDbLine
 10
49.58169691856672
 20
527.5794163186285
 30
0.0
 11
49.54025391856672
 21
527.5379733186285
 31
0.0
  0
LINE
  5
306
330
1F
100
AcDbEntity
  8
0
 62
     7
 48
0.011675
370
    35
100
AcDbLine
 10
48.54031491856672
 20
527.5230193186285
 30
0.0
 11
48.07333491856671
 21
527.5206393186286
 31
0.0
  0
LINE
  5
307
330
1F
100
AcDbEntity
  8
0
 62
     7
 48
0.001962
370
    35
100
AcDbLine
 10
47.01791491856671
 20
527.4502043186284
 30
0.0
 11
47.07339591856672
 21
527.5056853186286
 31
0.0
  0
LINE
  5
308
330
1F
100
AcDbEntity
  8
0
 62
     7
 48
0.001664
370
    35
100
AcDbLine
 10
48.27993891856672
 20
539.9068083186286
 30
0.0
 11
48.31674291856671
 21
539.8513273186286
 31
0.0
  0
LINE
  5
309
330
1F
100
AcDbEntity
  8
0
 62
     7
 48
0.015674
370
    35
100
AcDbLine
 10
49.40097191856672
 20
539.8363743186286
 30
0.0
 11
50.02792491856673
 21
539.8334443186285
 31
0.0
  0
LINE
  5
30A
330
1F
100
AcDbEntity
  8
0
 62
     7
 48
0.001156
370
    35
100
AcDbLine
 10
51.15609891856672
 20
539.8184293186285
 30
0.0
 11
51.17941391856672
 21
539.7785123186285
 31
0.0
  0
LINE
  5
30B
330
1F
100
AcDbEntity
  8
0
 62
     7
 48
0.000027
370
    35
100
AcDbLine
 10
51.17941391856672
 20
539.7785123186285
 30
0.0
 11
51.17996291856671
 21
539.7775973186286
 31
0.0
  0
LINE
  5
30C
330
1F
100
AcDbEntity
  8
0
 62
     7
370
    35
100
AcDbLine
 10
47.01791491856671
 20
330.9068083186286
 30
0.0
 11
47.01791491856671
 21
527.4502043186284
 31
0.0
  0
LINE
  5
30D
330
1F
100
AcDbEntity
  8
0
 62
     7
 48
0.001466
370
    35
100
AcDbLine
 10
49.58169691856672
 20
318.5794463186286
 30
0.0
 11
49.54025391856672
 21
318.5379733186286
 31
0.0
  0
LINE
  5
30E
330
1F
100
AcDbEntity
  8
0
 62
     7
 48
0.011675
370
    35
100
AcDbLine
 10
48.54031491856672
 20
318.5230193186286
 30
0.0
 11
48.07333491856671
 21
318.5206693186286
 31
0.0
  0
LINE
  5
30F
330
1F
100
AcDbEntity
  8
0
 62
     7
 48
0.001961
370
    35
100
AcDbLine
 10
47.01791491856671
 20
318.4502353186285
 30
0.0
 11
47.07339591856672
 21
318.5056853186286
 31
0.0
  0
LINE
  5
310
330
1F
100
AcDbEntity
  8
0
 62
     7
 48
0.001962
370
    35
100
AcDbLine
 10
47.01791491856671
 20
330.9068083186286
 30
0.0
 11
47.07339591856672
 21
330.8513273186286
 31
0.0
  0
LINE
  5
311
330
1F
100
AcDbEntity
  8
0
 62
     7
 48
0.011675
370
    35
100
AcDbLine
 10
48.54031491856672
 20
330.8339933186286
 30
0.0
 11
48.07333491856671
 21
330.8363433186286
 31
0.0
  0
LINE
  5
312
330
1F
100
AcDbEntity
  8
0
 62
     7
 48
0.001466
370
    35
100
AcDbLine
 10
49.58169691856672
 20
330.7775663186286
 30
0.0
 11
49.54025391856672
 21
330.8190403186286
 31
0.0
  0
LINE
  5
313
330
1F
100
AcDbEntity
  8
0
 62
     7
370
    35
100
AcDbLine
 10
47.01791491856671
 20
61.90679331862856
 30
0.0
 11
47.01791491856671
 21
318.4502353186285
 31
0.0
  0
LINE
  5
314
330
1F
100
AcDbEntity
  8
0
 62
     7
 48
0.000027
370
    35
100
AcDbLine
 10
51.17941391856672
 20
49.57850031862855
 30
0.0
 11
51.17996291856671
 21
49.57943131862856
 31
0.0
  0
LINE
  5
315
330
1F
100
AcDbEntity
  8
0
 62
     7
 48
0.001155
370
    35
100
AcDbLine
 10
51.17941391856672
 20
49.57850031862855
 30
0.0
 11
51.15609891856672
 21
49.53859831862857
 31
0.0
  0
LINE
  5
316
330
1F
100
AcDbEntity
  8
0
 62
     7
 48
0.015674
370
    35
100
AcDbLine
 10
50.02792491856673
 20
49.52353831862857
 30
0.0
 11
49.40097191856672
 21
49.52065431862857
 31
0.0
  0
LINE
  5
317
330
1F
100
AcDbEntity
  8
0
 62
     7
 48
0.001664
370
    35
100
AcDbLine
 10
48.31674291856671
 20
49.50570031862856
 30
0.0
 11
48.27993891856672
 21
49.45021931862857
 31
0.0
  0
LINE
  5
318
330
1F
100
AcDbEntity
  8
0
 62
     7
 48
0.001962
370
    35
100
AcDbLine
 10
47.01791491856671
 20
61.90679331862856
 30
0.0
 11
47.07339591856672
 21
61.85131231862856
 31
0.0
  0
LINE
  5
319
330
1F
100
AcDbEntity
  8
0
 62
     7
 48
0.011675
370
    35
100
AcDbLine
 10
48.54031491856672
 20
61.83399331862855
 30
0.0
 11
48.07333491856671
 21
61.83635831862857
 31
0.0
  0
LINE
  5
31A
330
1F
100
AcDbEntity
  8
0
 62
     7
 48
0.001465
370
    35
100
AcDbLine
 10
49.58169691856672
 20
61.77758131862856
 30
0.0
 11
49.54025391856672
 21
61.81904031862856
 31
0.0
  0
LINE
  5
31B
330
1F
100
AcDbEntity
  8
0
 62
     7
 48
0.024998
370
    35
100
AcDbLine
 10
363.1120919185668
 20
68.37581831862856
 30
0.0
 11
364.1120309185667
 21
68.37581831862856
 31
0.0
  0
LINE
  5
31C
330
1F
100
AcDbEntity
  8
0
 62
     7
 48
0.024998
370
    35
100
AcDbLine
 10
363.1120919185668
 20
520.9812103186285
 30
0.0
 11
364.1120309185667
 21
520.9812103186285
 31
0.0
  0
LINE
  5
31D
330
1F
100
AcDbEntity
  8
0
 62
     7
 48
0.025
370
    35
100
AcDbLine
 10
50.92379891856672
 20
520.9812103186285
 30
0.0
 11
49.92379891856671
 21
520.9812103186285
 31
0.0
  0
LINE
  5
31E
330
1F
100
AcDbEntity
  8
0
 62
     7
 48
0.025
370
    35
100
AcDbLine
 10
50.92379891856672
 20
68.37581831862856
 30
0.0
 11
49.92379891856671
 21
68.37581831862856
 31
0.0
  0
LINE
  5
31F
330
1F
100
AcDbEntity
  8
0
 62
     7
 48
0.001387
370
    35
100
AcDbLine
 10
63.01791491856672
 20
39.73398731862855
 30
0.0
 11
63.01791491856672
 21
39.67850631862857
 31
0.0
  0
LINE
  5
320
330
1F
100
AcDbEntity
  8
0
 62
     7
 48
0.001387
370
    35
100
AcDbLine
 10
351.0179149185667
 20
39.73398731862855
 30
0.0
 11
351.0179149185667
 21
39.67850631862857
 31
0.0
  0
LINE
  5
321
330
1F
100
AcDbEntity
  8
0
 62
     7
370
    35
100
AcDbLine
 10
364.4956369185667
 20
330.8190403186286
 30
0.0
 11
364.4956369185667
 21
527.5379733186285
 31
0.0
  0
LINE
  5
322
330
1F
100
AcDbEntity
  8
0
 62
     7
370
    35
100
AcDbLine
 10
364.4956369185667
 20
61.81904031862856
 30
0.0
 11
364.4956369185667
 21
318.5379733186286
 31
0.0
  0
LINE
  5
323
330
1F
100
AcDbEntity
  8
0
 62
     7
 48
0.024998
370
    35
100
AcDbLine
 10
351.0179149185667
 20
40.73391131862857
 30
0.0
 11
351.0179149185667
 21
39.73398731862855
 31
0.0
  0
LINE
  5
324
330
1F
100
AcDbEntity
  8
0
 62
     7
 48
0.036801
370
    35
100
AcDbLine
 10
351.0179149185667
 20
42.20595731862855
 30
0.0
 11
351.0179149185667
 21
40.73391131862857
 31
0.0
  0
ARC
  5
325
330
1F
100
AcDbEntity
  8
0
 62
     7
370
    35
100
AcDbCircle
 10
352.0229199185667
 20
55.67830831862856
 30
0.0
 40
12.47262
100
AcDbArc
 50
269.97698
 51
330.5110889999993
  0
ARC
  5
326
330
1F
100
AcDbEntity
  8
0
 62
     7
370
    35
100
AcDbCircle
 10
352.0229199185667
 20
533.6787203186284
 30
0.0
 40
12.47262
100
AcDbArc
 50
29.48896299999935
 51
90.02302000000003
  0
LINE
  5
327
330
1F
100
AcDbEntity
  8
0
 62
     7
 48
0.036801
370
    35
100
AcDbLine
 10
351.0179149185667
 20
547.1510713186286
 30
0.0
 11
351.0179149185667
 21
548.6231173186284
 31
0.0
  0
LINE
  5
328
330
1F
100
AcDbEntity
  8
0
 62
     7
 48
0.024997
370
    35
100
AcDbLine
 10
351.0179149185667
 20
548.6231173186284
 30
0.0
 11
351.0179149185667
 21
549.6229953186285
 31
0.0
  0
LINE
  5
329
330
1F
100
AcDbEntity
  8
0
 62
     7
 48
0.001389
370
    35
100
AcDbLine
 10
351.0179149185667
 20
549.6229953186285
 30
0.0
 11
351.0179149185667
 21
549.6785373186286
 31
0.0
  0
LINE
  5
32A
330
1F
100
AcDbEntity
  8
0
 62
     7
 48
0.001389
370
    35
100
AcDbLine
 10
63.01791491856672
 20
549.6229953186285
 30
0.0
 11
63.01791491856672
 21
549.6785373186286
 31
0.0
  0
LINE
  5
32B
330
1F
100
AcDbEntity
  8
0
 62
     7
370
    35
100
AcDbLine
 10
49.54025391856672
 20
527.5379733186285
 30
0.0
 11
49.54025391856672
 21
330.8190403186286
 31
0.0
  0
LINE
  5
32C
330
1F
100
AcDbEntity
  8
0
 62
     7
370
    35
100
AcDbLine
 10
49.54025391856672
 20
318.5379733186286
 30
0.0
 11
49.54025391856672
 21
61.81904031862856
 31
0.0
  0
ARC
  5
32D
330
1F
100
AcDbEntity
  8
0
 62
     7
370
    35
100
AcDbCircle
 10
62.01290991856672
 20
533.6787203186284
 30
0.0
 40
12.47262
100
AcDbArc
 50
89.97697800000004
 51
150.5110180000006
  0
LINE
  5
32E
330
1F
100
AcDbEntity
  8
0
 62
     7
 48
0.036801
370
    35
100
AcDbLine
 10
63.01791491856672
 20
547.1510713186286
 30
0.0
 11
63.01791491856672
 21
548.6231173186284
 31
0.0
  0
LINE
  5
32F
330
1F
100
AcDbEntity
  8
0
 62
     7
 48
0.024997
370
    35
100
AcDbLine
 10
63.01791491856672
 20
548.6231173186284
 30
0.0
 11
63.01791491856672
 21
549.6229953186285
 31
0.0
  0
LINE
  5
330
330
1F
100
AcDbEntity
  8
0
 62
     7
 48
0.024998
370
    35
100
AcDbLine
 10
63.01791491856672
 20
40.73391131862857
 30
0.0
 11
63.01791491856672
 21
39.73398731862855
 31
0.0
  0
LINE
  5
331
330
1F
100
AcDbEntity
  8
0
 62
     7
 48
0.036801
370
    35
100
AcDbLine
 10
63.01791491856672
 20
42.20594131862855
 30
0.0
 11
63.01791491856672
 21
40.73391131862857
 31
0.0
  0
ARC
  5
332
330
1F
100
AcDbEntity
  8
0
 62
     7
370
    35
100
AcDbCircle
 10
62.01290991856672
 20
55.67830831862856
 30
0.0
 40
12.47262
100
AcDbArc
 50
209.4889679999995
 51
270.023022
  0
LINE
  5
333
330
1F
100
AcDbEntity
  8
0
 62
     7
 48
0.025
370
    35
100
AcDbLine
 10
352.0179149185667
 20
43.20569731862855
 30
0.0
 11
351.0179149185667
 21
43.20588031862857
 31
0.0
  0
LINE
  5
334
330
1F
100
AcDbEntity
  8
0
 62
     7
370
    35
100
AcDbLine
 10
351.0179149185667
 20
43.20588031862857
 30
0.0
 11
63.01791491856672
 21
43.20588031862857
 31
0.0
  0
LINE
  5
335
330
1F
100
AcDbEntity
  8
0
 62
     7
 48
0.025
370
    35
100
AcDbLine
 10
63.01791491856672
 20
43.20588031862857
 30
0.0
 11
62.01791491856671
 21
43.20569731862855
 31
0.0
  0
LINE
  5
336
330
1F
100
AcDbEntity
  8
0
 62
     7
 48
0.025
370
    35
100
AcDbLine
 10
63.01791491856672
 20
546.1511323186285
 30
0.0
 11
62.01791491856671
 21
546.1513153186285
 31
0.0
  0
LINE
  5
337
330
1F
100
AcDbEntity
  8
0
 62
     7
370
    35
100
AcDbLine
 10
351.0179149185667
 20
546.1511323186285
 30
0.0
 11
63.01791491856672
 21
546.1511323186285
 31
0.0
  0
LINE
  5
338
330
1F
100
AcDbEntity
  8
0
 62
     7
 48
0.025
370
    35
100
AcDbLine
 10
352.0179149185667
 20
546.1513153186285
 30
0.0
 11
351.0179149185667
 21
546.1511323186285
 31
0.0
  0
LINE
  5
339
330
1F
100
AcDbEntity
  8
0
 62
     7
 48
0.024998
370
    35
100
AcDbLine
 10
351.0179149185667
 20
42.20595731862855
 30
0.0
 11
351.0179149185667
 21
43.20588031862857
 31
0.0
  0
LINE
  5
33A
330
1F
100
AcDbEntity
  8
0
 62
     7
 48
0.024998
370
    35
100
AcDbLine
 10
351.0179149185667
 20
546.1511323186285
 30
0.0
 11
351.0179149185667
 21
547.1510713186286
 31
0.0
  0
LINE
  5
33B
330
1F
100
AcDbEntity
  8
0
 62
     7
 48
0.024998
370
    35
100
AcDbLine
 10
63.01791491856672
 20
546.1511323186285
 30
0.0
 11
63.01791491856672
 21
547.1510713186286
 31
0.0
  0
LINE
  5
33C
330
1F
100
AcDbEntity
  8
0
 62
     7
 48
0.024998
370
    35
100
AcDbLine
 10
63.01791491856672
 20
42.20595731862855
 30
0.0
 11
63.01791491856672
 21
43.20588031862857
 31
0.0
  0
ARC
  5
33D
330
1F
100
AcDbEntity
  8
0
 62
   253
370
    35
100
AcDbCircle
 10
154.0274359185667
 20
386.6616913186285
 30
0.0
 40
2.509187999999999
100
AcDbArc
 50
118.2091819999998
 51
180.0944839999992
  0
LINE
  5
33E
330
1F
100
AcDbEntity
  8
0
 62
   253
 48
0.012489
370
    35
100
AcDbLine
 10
172.0179149185667
 20
393.1749973186286
 30
0.0
 11
172.0179149185667
 21
393.6745693186285
 31
0.0
  0
ARC
  5
33F
330
1F
100
AcDbEntity
  8
0
 62
   253
370
    35
100
AcDbCircle
 10
172.0130319185667
 20
352.9975983186286
 30
0.0
 40
40.676739
100
AcDbArc
 50
89.99309699999995
 51
118.11998
  0
LINE
  5
340
330
1F
100
AcDbEntity
  8
0
 62
   253
 48
0.012489
370
    35
100
AcDbLine
 10
242.0179149185667
 20
393.1749973186286
 30
0.0
 11
242.0179149185667
 21
393.6745693186285
 31
0.0
  0
LINE
  5
341
330
1F
100
AcDbEntity
  8
0
 62
   253
370
    35
100
AcDbLine
 10
242.0179149185667
 20
393.6745693186285
 30
0.0
 11
172.0179149185667
 21
393.6745693186285
 31
0.0
  0
ARC
  5
342
330
1F
100
AcDbEntity
  8
0
 62
   253
370
    35
100
AcDbCircle
 10
242.0228589185667
 20
352.9976903186285
 30
0.0
 40
40.676641
100
AcDbArc
 50
61.87997700000013
 51
90.00692800000001
  0
ARC
  5
343
330
1F
100
AcDbEntity
  8
0
 62
   253
370
    35
100
AcDbCircle
 10
260.0084549185667
 20
386.6617523186286
 30
0.0
 40
2.509184999999999
100
AcDbArc
 50
359.9050050000001
 51
61.79036499999999
  0
LINE
  5
344
330
1F
100
AcDbEntity
  8
0
 62
   253
 48
0.012172
370
    35
100
AcDbLine
 10
172.0179149185667
 20
382.4718113186286
 30
0.0
 11
172.0179149185667
 21
381.9849333186286
 31
0.0
  0
LINE
  5
345
330
1F
100
AcDbEntity
  8
0
 62
   253
 48
0.012172
370
    35
100
AcDbLine
 10
242.0179149185667
 20
382.4718113186286
 30
0.0
 11
242.0179149185667
 21
381.9849333186286
 31
0.0
  0
LINE
  5
346
330
1F
100
AcDbEntity
  8
0
 62
   253
 48
0.2675800000000001
370
    35
100
AcDbLine
 10
172.0179149185667
 20
382.4718113186286
 30
0.0
 11
172.0179149185667
 21
393.1749973186286
 31
0.0
  0
LINE
  5
347
330
1F
100
AcDbEntity
  8
0
 62
   253
 48
0.2675800000000001
370
    35
100
AcDbLine
 10
242.0179149185667
 20
382.4718113186286
 30
0.0
 11
242.0179149185667
 21
393.1749973186286
 31
0.0
  0
LINE
  5
348
330
1F
100
AcDbEntity
  8
0
 62
   253
370
    35
100
AcDbLine
 10
346.8255319185668
 20
479.8421723186286
 30
0.0
 11
67.21029791856671
 21
479.8421723186286
 31
0.0
  0
ARC
  5
349
330
1F
100
AcDbEntity
  8
0
 62
   253
370
    35
100
AcDbCircle
 10
67.20694091856671
 20
477.8532193186285
 30
0.0
 40
1.988738999999999
100
AcDbArc
 50
89.90185300000003
 51
180.0981450000006
  0
ARC
  5
34A
330
1F
100
AcDbEntity
  8
0
 62
   253
370
    35
100
AcDbCircle
 10
346.8289499185668
 20
477.8532193186285
 30
0.0
 40
1.988738999999999
100
AcDbArc
 50
359.9018499999996
 51
90.09814500000002
  0
LINE
  5
34B
330
1F
100
AcDbEntity
  8
0
 62
   253
 48
0.099519
370
    35
100
AcDbLine
 10
151.5179149185667
 20
382.6767673186285
 30
0.0
 11
151.5179149185667
 21
386.6575413186286
 31
0.0
  0
LINE
  5
34C
330
1F
100
AcDbEntity
  8
0
 62
   253
 48
0.001737
370
    35
100
AcDbLine
 10
151.5179149185667
 20
382.1768583186285
 30
0.0
 11
151.5179149185667
 21
382.1073703186286
 31
0.0
  0
LINE
  5
34D
330
1F
100
AcDbEntity
  8
0
 62
   253
 48
0.050026
370
    35
100
AcDbLine
 10
65.21792691856671
 20
382.6411223186286
 30
0.0
 11
65.21792691856671
 21
384.6421603186286
 31
0.0
  0
LINE
  5
34E
330
1F
100
AcDbEntity
  8
0
 62
   253
 48
0.012283
370
    35
100
AcDbLine
 10
65.21792691856671
 20
384.6421603186286
 30
0.0
 11
65.21792691856671
 21
385.1334933186286
 31
0.0
  0
LINE
  5
34F
330
1F
100
AcDbEntity
  8
0
 62
   253
370
    35
100
AcDbLine
 10
65.21792691856671
 20
385.1334933186286
 30
0.0
 11
65.21792691856671
 21
477.8498013186285
 31
0.0
  0
LINE
  5
350
330
1F
100
AcDbEntity
  8
0
 62
   253
 48
0.012498
370
    35
100
AcDbLine
 10
151.5179149185667
 20
382.1768583186285
 30
0.0
 11
151.5179149185667
 21
382.6767673186285
 31
0.0
  0
LINE
  5
351
330
1F
100
AcDbEntity
  8
0
 62
   253
370
    35
100
AcDbLine
 10
67.26931891856671
 20
382.1768583186285
 30
0.0
 11
151.5179149185667
 21
382.1768583186285
 31
0.0
  0
LINE
  5
352
330
1F
100
AcDbEntity
  8
0
 62
   253
 48
0.099519
370
    35
100
AcDbLine
 10
262.5179149185667
 20
382.6767673186285
 30
0.0
 11
262.5179149185667
 21
386.6575413186286
 31
0.0
  0
LINE
  5
353
330
1F
100
AcDbEntity
  8
0
 62
   253
 48
0.001737
370
    35
100
AcDbLine
 10
262.5179149185667
 20
382.1768583186285
 30
0.0
 11
262.5179149185667
 21
382.1073703186286
 31
0.0
  0
LINE
  5
354
330
1F
100
AcDbEntity
  8
0
 62
   253
370
    35
100
AcDbLine
 10
348.8179639185668
 20
477.8498013186285
 30
0.0
 11
348.8179639185668
 21
384.6421603186286
 31
0.0
  0
LINE
  5
355
330
1F
100
AcDbEntity
  8
0
 62
   253
 48
0.050026
370
    35
100
AcDbLine
 10
348.8179639185668
 20
384.6421603186286
 30
0.0
 11
348.8179639185668
 21
382.6411223186286
 31
0.0
  0
LINE
  5
356
330
1F
100
AcDbEntity
  8
0
 62
   253
 48
0.012498
370
    35
100
AcDbLine
 10
262.5179149185667
 20
382.6767673186285
 30
0.0
 11
262.5179149185667
 21
382.1768583186285
 31
0.0
  0
LINE
  5
357
330
1F
100
AcDbEntity
  8
0
 62
   253
370
    35
100
AcDbLine
 10
262.5179149185667
 20
382.1768583186285
 30
0.0
 11
346.7665719185667
 21
382.1768583186285
 31
0.0
  0
ARC
  5
358
330
1F
100
AcDbEntity
  8
0
 62
   253
370
    35
100
AcDbCircle
 10
68.28958191856671
 20
382.6408783186285
 30
0.0
 40
3.071624
100
AcDbArc
 50
179.9955379999998
 51
184.1382020000007
  0
LINE
  5
359
330
1F
100
AcDbEntity
  8
0
 62
   253
 48
0.001193
370
    35
100
AcDbLine
 10
65.22598391856672
 20
382.4191983186286
 30
0.0
 11
65.22988991856673
 21
382.3716213186285
 31
0.0
  0
LINE
  5
35A
330
1F
100
AcDbEntity
  8
0
 62
   253
 48
0.001589
370
    35
100
AcDbLine
 10
65.77499491856672
 20
382.1529633186285
 30
0.0
 11
65.71267791856673
 21
382.1405123186286
 31
0.0
  0
LINE
  5
35B
330
1F
100
AcDbEntity
  8
0
 62
   253
 48
0.000594
370
    35
100
AcDbLine
 10
65.73642091856672
 20
382.1405123186286
 30
0.0
 11
65.71267791856673
 21
382.1405123186286
 31
0.0
  0
ARC
  5
35C
330
1F
100
AcDbEntity
  8
0
 62
   253
370
    35
100
AcDbCircle
 10
345.8046579185667
 20
382.6388333186286
 30
0.0
 40
3.013288
100
AcDbArc
 50
354.9125380000005
 51
0.0431890000000184
  0
LINE
  5
35D
330
1F
100
AcDbEntity
  8
0
 62
   253
 48
0.00159
370
    35
100
AcDbLine
 10
348.2608349185667
 20
382.1529633186285
 30
0.0
 11
348.3232129185667
 21
382.1405123186286
 31
0.0
  0
LINE
  5
35E
330
1F
100
AcDbEntity
  8
0
 62
   253
 48
0.000296
370
    35
100
AcDbLine
 10
348.3113109185667
 20
381.7101833186285
 30
0.0
 11
348.2994699185667
 21
381.7101833186285
 31
0.0
  0
LINE
  5
35F
330
1F
100
AcDbEntity
  8
0
 62
   253
 48
0.000594
370
    35
100
AcDbLine
 10
348.3232129185667
 20
382.1405123186286
 30
0.0
 11
348.2994699185667
 21
382.1405123186286
 31
0.0
  0
LINE
  5
360
330
1F
100
AcDbEntity
  8
0
 62
   253
 48
0.004033
370
    35
100
AcDbLine
 10
262.5307319185667
 20
380.5972383186286
 30
0.0
 11
262.5307319185667
 21
380.7585543186286
 31
0.0
  0
LINE
  5
361
330
1F
100
AcDbEntity
  8
0
 62
   253
370
    35
100
AcDbLine
 10
262.5307319185667
 20
380.7585543186286
 30
0.0
 11
343.8083809185668
 21
380.7585543186286
 31
0.0
  0
LINE
  5
362
330
1F
100
AcDbEntity
  8
0
 62
   253
 48
0.024672
370
    35
100
AcDbLine
 10
344.7952589185667
 20
380.7585543186286
 30
0.0
 11
343.8083809185668
 21
380.7585543186286
 31
0.0
  0
LINE
  5
363
330
1F
100
AcDbEntity
  8
0
 62
   253
 48
0.013489
370
    35
100
AcDbLine
 10
344.7952589185667
 20
380.7585543186286
 30
0.0
 11
345.3348089185667
 21
380.7585543186286
 31
0.0
  0
LINE
  5
364
330
1F
100
AcDbEntity
  8
0
 62
   253
 48
0.067445
370
    35
100
AcDbLine
 10
348.0326239185667
 20
380.7585543186286
 30
0.0
 11
345.3348089185667
 21
380.7585543186286
 31
0.0
  0
LINE
  5
365
330
1F
100
AcDbEntity
  8
0
 62
   253
 48
0.004033
370
    35
100
AcDbLine
 10
151.5307319185667
 20
380.5972383186286
 30
0.0
 11
151.5307319185667
 21
380.7585543186286
 31
0.0
  0
LINE
  5
366
330
1F
100
AcDbEntity
  8
0
 62
   253
 48
0.067445
370
    35
100
AcDbLine
 10
66.02883991856671
 20
380.7585543186286
 30
0.0
 11
68.72665491856672
 21
380.7585543186286
 31
0.0
  0
LINE
  5
367
330
1F
100
AcDbEntity
  8
0
 62
   253
 48
0.013489
370
    35
100
AcDbLine
 10
68.72665491856672
 20
380.7585543186286
 30
0.0
 11
69.26620591856672
 21
380.7585543186286
 31
0.0
  0
LINE
  5
368
330
1F
100
AcDbEntity
  8
0
 62
   253
 48
0.024672
370
    35
100
AcDbLine
 10
70.25308291856672
 20
380.7585543186286
 30
0.0
 11
69.26620591856672
 21
380.7585543186286
 31
0.0
  0
LINE
  5
369
330
1F
100
AcDbEntity
  8
0
 62
   253
370
    35
100
AcDbLine
 10
70.25308291856672
 20
380.7585543186286
 30
0.0
 11
151.5307319185667
 21
380.7585543186286
 31
0.0
  0
ARC
  5
36A
330
1F
100
AcDbEntity
  8
0
 62
   253
370
    35
100
AcDbCircle
 10
66.02798591856672
 20
380.2613003186286
 30
0.0
 40
0.4971850000000001
100
AcDbArc
 50
89.90185300000003
 51
180.0981450000006
  0
LINE
  5
36B
330
1F
100
AcDbEntity
  8
0
 62
   253
 48
0.460811
370
    35
100
AcDbLine
 10
65.53073191856672
 20
361.8280123186286
 30
0.0
 11
65.53073191856672
 21
380.2604463186286
 31
0.0
  0
ARC
  5
36C
330
1F
100
AcDbEntity
  8
0
 62
   253
370
    35
100
AcDbCircle
 10
67.51974591856671
 20
361.8246243186286
 30
0.0
 40
1.988738999999999
100
AcDbArc
 50
179.9018549999993
 51
270.09814
  0
LINE
  5
36D
330
1F
100
AcDbEntity
  8
0
 62
   253
370
    35
100
AcDbLine
 10
67.52310291856672
 20
359.8356413186286
 30
0.0
 11
346.5383619185667
 21
359.8356413186286
 31
0.0
  0
ARC
  5
36E
330
1F
100
AcDbEntity
  8
0
 62
   253
370
    35
100
AcDbCircle
 10
346.5417189185667
 20
361.8246243186286
 30
0.0
 40
1.988738999999999
100
AcDbArc
 50
269.901848
 51
0.0981429999997894
  0
LINE
  5
36F
330
1F
100
AcDbEntity
  8
0
 62
   253
 48
0.460811
370
    35
100
AcDbLine
 10
348.5307319185667
 20
361.8280123186286
 30
0.0
 11
348.5307319185667
 21
380.2604463186286
 31
0.0
  0
ARC
  5
370
330
1F
100
AcDbEntity
  8
0
 62
   253
370
    35
100
AcDbCircle
 10
348.0334789185667
 20
380.2613003186286
 30
0.0
 40
0.4971850000000001
100
AcDbArc
 50
359.9018570000002
 51
90.09815199999996
  0
LINE
  5
371
330
1F
100
AcDbEntity
  8
0
 62
   253
 48
0.011659
370
    35
100
AcDbLine
 10
172.0307319185667
 20
380.0589993186286
 30
0.0
 11
172.0307319185667
 21
380.5253693186286
 31
0.0
  0
LINE
  5
372
330
1F
100
AcDbEntity
  8
0
 62
   253
 48
0.011659
370
    35
100
AcDbLine
 10
242.0307319185667
 20
380.0589993186286
 30
0.0
 11
242.0307319185667
 21
380.5253693186286
 31
0.0
  0
LINE
  5
373
330
1F
100
AcDbEntity
  8
0
 62
   253
 48
0.150519
370
    35
100
AcDbLine
 10
210.0411079185667
 20
361.0297023186285
 30
0.0
 11
204.0203559185667
 21
361.0297023186285
 31
0.0
  0
LINE
  5
374
330
1F
100
AcDbEntity
  8
0
 62
   253
 48
0.220043
370
    35
100
AcDbLine
 10
172.0307319185667
 20
380.0589693186286
 30
0.0
 11
172.0307319185667
 21
371.2572423186285
 31
0.0
  0
LINE
  5
375
330
1F
100
AcDbEntity
  8
0
 62
   253
 48
0.220044
370
    35
100
AcDbLine
 10
242.0307319185667
 20
380.0589993186286
 30
0.0
 11
242.0307319185667
 21
371.2572423186285
 31
0.0
  0
LINE
  5
376
330
1F
100
AcDbEntity
  8
0
 62
   253
 48
0.000222
370
    35
100
AcDbLine
 10
196.8667919185667
 20
371.4324123186286
 30
0.0
 11
196.8653879185667
 21
371.4236543186286
 31
0.0
  0
ARC
  5
377
330
1F
100
AcDbEntity
  8
0
 62
   253
370
    35
100
AcDbCircle
 10
261.9862989185667
 20
370.9941493186286
 30
0.0
 40
3.607188999999999
100
AcDbArc
 50
103.9843639999998
 51
117.3690280000001
  0
LINE
  5
378
330
1F
100
AcDbEntity
  8
0
 62
   253
 48
0.000033
370
    35
100
AcDbLine
 10
260.3278509185667
 20
374.1979153186286
 30
0.0
 11
260.3266919185667
 21
374.1973053186285
 31
0.0
  0
LINE
  5
379
330
1F
100
AcDbEntity
  8
0
 62
   253
 48
0.067931
370
    35
100
AcDbLine
 10
242.0307319185667
 20
367.8511443186286
 30
0.0
 11
242.0307319185667
 21
370.5683993186286
 31
0.0
  0
LINE
  5
37A
330
1F
100
AcDbEntity
  8
0
 62
   253
370
    35
100
AcDbLine
 10
217.2262889185667
 20
367.8511443186286
 30
0.0
 11
242.0307319185667
 21
367.8511443186286
 31
0.0
  0
LINE
  5
37B
330
1F
100
AcDbEntity
  8
0
 62
   253
 48
0.001198
370
    35
100
AcDbLine
 10
217.2262889185667
 20
367.8511443186286
 30
0.0
 11
217.1783759185667
 21
367.8511443186286
 31
0.0
  0
ARC
  5
37C
330
1F
100
AcDbEntity
  8
0
 62
   253
370
    35
100
AcDbCircle
 10
207.0286569185667
 20
370.1432283186286
 30
0.0
 40
10.452045
100
AcDbArc
 50
315.1042069999996
 51
347.3322150000003
  0
ARC
  5
37D
330
1F
100
AcDbEntity
  8
0
 62
   253
370
    35
100
AcDbCircle
 10
210.0406809185667
 20
367.1422213186286
 30
0.0
 40
6.200150999999999
100
AcDbArc
 50
301.7433430000001
 51
315.1036199999995
  0
LINE
  5
37E
330
1F
100
AcDbEntity
  8
0
 62
   253
 48
0.067931
370
    35
100
AcDbLine
 10
172.0307319185667
 20
367.8511443186286
 30
0.0
 11
172.0307319185667
 21
370.5683993186286
 31
0.0
  0
LINE
  5
37F
330
1F
100
AcDbEntity
  8
0
 62
   253
370
    35
100
AcDbLine
 10
172.0307319185667
 20
367.8511443186286
 30
0.0
 11
196.8351759185667
 21
367.8511443186286
 31
0.0
  0
LINE
  5
380
330
1F
100
AcDbEntity
  8
0
 62
   253
 48
0.001198
370
    35
100
AcDbLine
 10
196.8351759185667
 20
367.8511443186286
 30
0.0
 11
196.8830879185667
 21
367.8511443186286
 31
0.0
  0
LINE
  5
381
330
1F
100
AcDbEntity
  8
0
 62
   253
 48
0.000033
370
    35
100
AcDbLine
 10
153.7336129185667
 20
374.1979153186286
 30
0.0
 11
153.7347729185667
 21
374.1973053186285
 31
0.0
  0
ARC
  5
382
330
1F
100
AcDbEntity
  8
0
 62
   253
370
    35
100
AcDbCircle
 10
152.0751659185667
 20
370.9941493186286
 30
0.0
 40
3.60719
100
AcDbArc
 50
62.63097000000026
 51
76.01564099999992
  0
ARC
  5
383
330
1F
100
AcDbEntity
  8
0
 62
   253
370
    35
100
AcDbCircle
 10
204.0207839185667
 20
367.1422213186286
 30
0.0
 40
6.200150999999999
100
AcDbArc
 50
224.896386
 51
238.256659
  0
ARC
  5
384
330
1F
100
AcDbEntity
  8
0
 62
   253
370
    35
100
AcDbCircle
 10
207.0328079185667
 20
370.1432283186286
 30
0.0
 40
10.452045
100
AcDbArc
 50
192.6677830000001
 51
224.8957979999994
  0
LINE
  5
385
330
1F
100
AcDbEntity
  8
0
 62
   253
 48
0.001712
370
    35
100
AcDbLine
 10
217.3929759185667
 20
371.2392363186286
 30
0.0
 11
217.4041449185667
 21
371.1716703186286
 31
0.0
  0
LINE
  5
386
330
1F
100
AcDbEntity
  8
0
 62
   253
 48
0.000475
370
    35
100
AcDbLine
 10
217.3929759185667
 20
371.2582183186285
 30
0.0
 11
217.3929759185667
 21
371.2392363186286
 31
0.0
  0
LINE
  5
387
330
1F
100
AcDbEntity
  8
0
 62
   253
 48
0.000035
370
    35
100
AcDbLine
 10
217.3929759185667
 20
371.2582183186285
 30
0.0
 11
217.3915719185667
 21
371.2583103186286
 31
0.0
  0
LINE
  5
388
330
1F
100
AcDbEntity
  8
0
 62
   253
 48
0.000447
370
    35
100
AcDbLine
 10
242.0307319185667
 20
371.2571193186286
 30
0.0
 11
242.0307319185667
 21
371.2392363186286
 31
0.0
  0
LINE
  5
389
330
1F
100
AcDbEntity
  8
0
 62
   253
 48
0.001154
370
    35
100
AcDbLine
 10
261.4657909185667
 20
374.5338833186286
 30
0.0
 11
261.5119339185667
 21
374.5338833186286
 31
0.0
  0
LINE
  5
38A
330
1F
100
AcDbEntity
  8
0
 62
   253
 48
0.000822
370
    35
100
AcDbLine
 10
261.4657909185667
 20
374.5338833186286
 30
0.0
 11
261.4328929185667
 21
374.5336093186286
 31
0.0
  0
LINE
  5
38B
330
1F
100
AcDbEntity
  8
0
 62
   253
 48
0.016771
370
    35
100
AcDbLine
 10
242.0307319185667
 20
371.2392363186286
 30
0.0
 11
242.0307319185667
 21
370.5683993186286
 31
0.0
  0
LINE
  5
38C
330
1F
100
AcDbEntity
  8
0
 62
   253
 48
0.016769
370
    35
100
AcDbLine
 10
172.0307319185667
 20
371.2392363186286
 30
0.0
 11
172.0307319185667
 21
370.5684603186286
 31
0.0
  0
LINE
  5
38D
330
1F
100
AcDbEntity
  8
0
 62
   253
 48
0.000447
370
    35
100
AcDbLine
 10
172.0307319185667
 20
371.2571193186286
 30
0.0
 11
172.0307319185667
 21
371.2392363186286
 31
0.0
  0
LINE
  5
38E
330
1F
100
AcDbEntity
  8
0
 62
   253
 48
0.001154
370
    35
100
AcDbLine
 10
152.5956739185667
 20
374.5338833186286
 30
0.0
 11
152.5495309185667
 21
374.5338833186286
 31
0.0
  0
LINE
  5
38F
330
1F
100
AcDbEntity
  8
0
 62
   253
 48
0.000822
370
    35
100
AcDbLine
 10
152.5956739185667
 20
374.5338833186286
 30
0.0
 11
152.6285719185667
 21
374.5336093186286
 31
0.0
  0
LINE
  5
390
330
1F
100
AcDbEntity
  8
0
 62
   253
370
    35
100
AcDbLine
 10
172.0307319185667
 20
371.2571193186286
 30
0.0
 11
196.3363349185667
 21
371.2571193186286
 31
0.0
  0
LINE
  5
391
330
1F
100
AcDbEntity
  8
0
 62
   253
 48
0.008304
370
    35
100
AcDbLine
 10
217.7251289185667
 20
371.2571193186286
 30
0.0
 11
217.3929759185667
 21
371.2582183186285
 31
0.0
  0
LINE
  5
392
330
1F
100
AcDbEntity
  8
0
 62
   253
 48
0.008304
370
    35
100
AcDbLine
 10
196.3363349185667
 20
371.2571193186286
 30
0.0
 11
196.6684889185667
 21
371.2582183186285
 31
0.0
  0
LINE
  5
393
330
1F
100
AcDbEntity
  8
0
 62
   253
370
    35
100
AcDbLine
 10
217.7251289185667
 20
371.2571193186286
 30
0.0
 11
242.0307319185667
 21
371.2571193186286
 31
0.0
  0
LINE
  5
394
330
1F
100
AcDbEntity
  8
0
 62
   253
 48
0.002676
370
    35
100
AcDbLine
 10
261.6189889185668
 20
374.5339753186286
 30
0.0
 11
261.5119339185667
 21
374.5338833186286
 31
0.0
  0
LINE
  5
395
330
1F
100
AcDbEntity
  8
0
 62
   253
 48
0.002024
370
    35
100
AcDbLine
 10
261.7347119185668
 20
374.4891453186286
 30
0.0
 11
261.6673899185668
 21
374.5340973186286
 31
0.0
  0
LINE
  5
396
330
1F
100
AcDbEntity
  8
0
 62
   253
 48
0.00121
370
    35
100
AcDbLine
 10
261.6189889185668
 20
374.5339753186286
 30
0.0
 11
261.6673899185668
 21
374.5340973186286
 31
0.0
  0
LINE
  5
397
330
1F
100
AcDbEntity
  8
0
 62
   253
 48
0.012452
370
    35
100
AcDbLine
 10
262.5307319185667
 20
380.5972383186286
 30
0.0
 11
262.5307319185667
 21
380.0991603186286
 31
0.0
  0
ARC
  5
398
330
1F
100
AcDbEntity
  8
0
 62
   253
370
    35
100
AcDbCircle
 10
260.0173659185667
 20
376.3238923186286
 30
0.0
 40
2.513238
100
AcDbArc
 50
313.1076269999997
 51
0.0605569999994749
  0
LINE
  5
399
330
1F
100
AcDbEntity
  8
0
 62
   253
 48
0.094332
370
    35
100
AcDbLine
 10
262.5307319185667
 20
376.3258763186286
 30
0.0
 11
262.5307319185667
 21
380.0991603186286
 31
0.0
  0
LINE
  5
39A
330
1F
100
AcDbEntity
  8
0
 62
   253
 48
0.002678
370
    35
100
AcDbLine
 10
152.4424139185667
 20
374.5339753186286
 30
0.0
 11
152.5495309185667
 21
374.5338833186286
 31
0.0
  0
LINE
  5
39B
330
1F
100
AcDbEntity
  8
0
 62
   253
 48
0.001208
370
    35
100
AcDbLine
 10
152.4424139185667
 20
374.5339753186286
 30
0.0
 11
152.3940749185667
 21
374.5340973186286
 31
0.0
  0
LINE
  5
39C
330
1F
100
AcDbEntity
  8
0
 62
   253
 48
0.002024
370
    35
100
AcDbLine
 10
152.3267529185667
 20
374.4891453186286
 30
0.0
 11
152.3940749185667
 21
374.5340973186286
 31
0.0
  0
LINE
  5
39D
330
1F
100
AcDbEntity
  8
0
 62
   253
 48
0.012452
370
    35
100
AcDbLine
 10
151.5307319185667
 20
380.0991603186286
 30
0.0
 11
151.5307319185667
 21
380.5972383186286
 31
0.0
  0
LINE
  5
39E
330
1F
100
AcDbEntity
  8
0
 62
   253
 48
0.094332
370
    35
100
AcDbLine
 10
151.5307319185667
 20
376.3258763186286
 30
0.0
 11
151.5307319185667
 21
380.0991603186286
 31
0.0
  0
ARC
  5
39F
330
1F
100
AcDbEntity
  8
0
 62
   253
370
    35
100
AcDbCircle
 10
154.0440989185667
 20
376.3238923186286
 30
0.0
 40
2.513238
100
AcDbArc
 50
179.9394489999993
 51
226.8922759999999
  0
LINE
  5
3A0
330
1F
100
AcDbEntity
  8
0
 62
   253
 48
0.005013
370
    35
100
AcDbLine
 10
152.3940749185667
 20
374.5340973186286
 30
0.0
 11
152.5945749185667
 21
374.5347993186285
 31
0.0
  0
LINE
  5
3A1
330
1F
100
AcDbEntity
  8
0
 62
   253
 48
0.003484
370
    35
100
AcDbLine
 10
152.8103339185667
 20
374.5224093186286
 30
0.0
 11
152.9467479185667
 21
374.4939663186286
 31
0.0
  0
ARC
  5
3A2
330
1F
100
AcDbEntity
  8
0
 62
   253
370
    35
100
AcDbCircle
 10
152.5839549185667
 20
372.3594143186285
 30
0.0
 40
2.174854999999999
100
AcDbArc
 50
84.02470700000005
 51
88.82365999999999
  0
LINE
  5
3A3
330
1F
100
AcDbEntity
  8
0
 62
   253
 48
0.000036
370
    35
100
AcDbLine
 10
152.5945749185667
 20
374.5347993186285
 30
0.0
 11
152.5956739185667
 21
374.5338833186286
 31
0.0
  0
ARC
  5
3A4
330
1F
100
AcDbEntity
  8
0
 62
   253
370
    35
100
AcDbCircle
 10
261.4775099185667
 20
372.3593843186286
 30
0.0
 40
2.174881999999999
100
AcDbArc
 50
91.176516
 51
95.9755850000001
  0
LINE
  5
3A5
330
1F
100
AcDbEntity
  8
0
 62
   253
 48
0.003484
370
    35
100
AcDbLine
 10
261.2511299185667
 20
374.5224093186286
 30
0.0
 11
261.1147169185667
 21
374.4939663186286
 31
0.0
  0
LINE
  5
3A6
330
1F
100
AcDbEntity
  8
0
 62
   253
 48
0.000036
370
    35
100
AcDbLine
 10
261.4657909185667
 20
374.5338833186286
 30
0.0
 11
261.4668899185667
 21
374.5347993186285
 31
0.0
  0
ARC
  5
3A7
330
1F
100
AcDbEntity
  8
0
 62
   253
370
    35
100
AcDbCircle
 10
170.3971259185667
 20
2299.950631318628
 30
0.0
 40
1919.348851
100
AcDbArc
 50
269.4764499999999
 51
269.7952349999999
  0
ARC
  5
3A8
330
1F
100
AcDbEntity
  8
0
 62
   253
370
    35
100
AcDbCircle
 10
153.0797439185667
 20
423.4554533186285
 30
0.0
 40
42.773528
100
AcDbArc
 50
268.2334029999999
 51
269.704216
  0
LINE
  5
3A9
330
1F
100
AcDbEntity
  8
0
 62
   253
370
    35
100
AcDbLine
 10
202.5272529185667
 20
380.5253693186286
 30
0.0
 11
172.0307319185667
 21
380.5253993186286
 31
0.0
  0
LINE
  5
3AA
330
1F
100
AcDbEntity
  8
0
 62
   253
370
    35
100
AcDbLine
 10
242.0307319185667
 20
380.5253693186286
 30
0.0
 11
211.5342109185667
 21
380.5253693186286
 31
0.0
  0
ARC
  5
3AB
330
1F
100
AcDbEntity
  8
0
 62
   253
370
    35
100
AcDbCircle
 10
260.9829419185667
 20
423.3801973186285
 30
0.0
 40
42.698279
100
AcDbArc
 50
270.294652
 51
271.769303
  0
ARC
  5
3AC
330
1F
100
AcDbEntity
  8
0
 62
   253
370
    35
100
AcDbCircle
 10
243.6628119185667
 20
2300.163766318628
 30
0.0
 40
1919.562071
100
AcDbArc
 50
270.2047869999999
 51
270.523538
  0
LINE
  5
3AD
330
1F
100
AcDbEntity
  8
0
 62
   253
370
    35
100
AcDbLine
 10
172.0307319185667
 20
371.2572113186285
 30
0.0
 11
196.3363349185667
 21
371.2572113186285
 31
0.0
  0
LINE
  5
3AE
330
1F
100
AcDbEntity
  8
0
 62
   253
 48
0.008339
370
    35
100
AcDbLine
 10
217.3915719185667
 20
371.2583103186286
 30
0.0
 11
217.7251289185667
 21
371.2572113186285
 31
0.0
  0
LINE
  5
3AF
330
1F
100
AcDbEntity
  8
0
 62
   253
 48
0.008339
370
    35
100
AcDbLine
 10
196.6698919185667
 20
371.2583103186286
 30
0.0
 11
196.3363349185667
 21
371.2572113186285
 31
0.0
  0
LINE
  5
3B0
330
1F
100
AcDbEntity
  8
0
 62
   253
370
    35
100
AcDbLine
 10
217.7251289185667
 20
371.2572113186285
 30
0.0
 11
242.0307319185667
 21
371.2572113186285
 31
0.0
  0
ARC
  5
3B1
330
1F
100
AcDbEntity
  8
0
 62
     7
370
    35
100
AcDbCircle
 10
351.0179149185667
 20
55.67850631862857
 30
0.0
 40
16.0
100
AcDbArc
 50
270.0
 51
0.0
  0
LINE
  5
3B2
330
1F
100
AcDbEntity
  8
0
 62
     7
370
    35
100
AcDbLine
 10
63.01791491856672
 20
39.67850631862857
 30
0.0
 11
351.0179149185667
 21
39.67850631862857
 31
0.0
  0
ARC
  5
3B3
330
1F
100
AcDbEntity
  8
0
 62
     7
370
    35
100
AcDbCircle
 10
63.01791491856672
 20
55.67850631862857
 30
0.0
 40
16.0
100
AcDbArc
 50
180.0
 51
270.0
  0
LINE
  5
3B4
330
1F
100
AcDbEntity
  8
0
 62
     7
370
    35
100
AcDbLine
 10
47.01791491856671
 20
533.6785373186286
 30
0.0
 11
47.01791491856671
 21
55.67850631862857
 31
0.0
  0
ARC
  5
3B5
330
1F
100
AcDbEntity
  8
0
 62
     7
370
    35
100
AcDbCircle
 10
63.01791491856672
 20
533.6785373186286
 30
0.0
 40
16.0
100
AcDbArc
 50
157.0910590000005
 51
180.0
  0
ARC
  5
3B6
330
1F
100
AcDbEntity
  8
0
 62
     7
370
    35
100
AcDbCircle
 10
351.0179149185667
 20
533.6785373186286
 30
0.0
 40
16.0
100
AcDbArc
 50
0.0
 51
22.90894799999983
  0
LINE
  5
3B7
330
1F
100
AcDbEntity
  8
0
 62
     7
 48
0.155707
370
    35
100
AcDbLine
 10
367.0179149185667
 20
61.90679331862856
 30
0.0
 11
367.0179149185667
 21
55.67850631862857
 31
0.0
  0
LINE
  5
3B8
330
1F
100
AcDbEntity
  8
0
 62
     7
 48
0.311414
370
    35
100
AcDbLine
 10
367.0179149185667
 20
330.9068083186286
 30
0.0
 11
367.0179149185667
 21
318.4502353186285
 31
0.0
  0
LINE
  5
3B9
330
1F
100
AcDbEntity
  8
0
 62
     7
 48
0.155708
370
    35
100
AcDbLine
 10
367.0179149185667
 20
533.6785373186286
 30
0.0
 11
367.0179149185667
 21
527.4502043186284
 31
0.0
  0
CIRCLE
  5
3BA
330
1F
100
AcDbEntity
  8
0
 62
     7
370
    35
100
AcDbCircle
 10
63.01791491856672
 20
55.67850631862857
 30
0.0
 40
4.883901999999999
  0
LINE
  5
3BB
330
1F
100
AcDbEntity
  8
0
 62
     7
 48
0.05
370
    35
100
AcDbLine
 10
62.01791491856671
 20
60.17850631862856
 30
0.0
 11
64.01791491856672
 21
60.17850631862856
 31
0.0
  0
LINE
  5
3BC
330
1F
100
AcDbEntity
  8
0
 62
     7
 48
0.225
370
    35
100
AcDbLine
 10
62.01791491856671
 20
60.17850631862856
 30
0.0
 11
62.01791491856671
 21
51.17850631862856
 31
0.0
  0
LINE
  5
3BD
330
1F
100
AcDbEntity
  8
0
 62
     7
 48
0.05
370
    35
100
AcDbLine
 10
64.01791491856672
 20
51.17850631862856
 30
0.0
 11
62.01791491856671
 21
51.17850631862856
 31
0.0
  0
LINE
  5
3BE
330
1F
100
AcDbEntity
  8
0
 62
     7
 48
0.225
370
    35
100
AcDbLine
 10
64.01791491856672
 20
51.17850631862856
 30
0.0
 11
64.01791491856672
 21
60.17850631862856
 31
0.0
  0
CIRCLE
  5
3BF
330
1F
100
AcDbEntity
  8
0
 62
     7
370
    35
100
AcDbCircle
 10
351.0179149185667
 20
55.67850631862857
 30
0.0
 40
4.883901999999999
  0
LINE
  5
3C0
330
1F
100
AcDbEntity
  8
0
 62
     7
 48
0.05
370
    35
100
AcDbLine
 10
350.0179149185667
 20
60.17850631862856
 30
0.0
 11
352.0179149185667
 21
60.17850631862856
 31
0.0
  0
LINE
  5
3C1
330
1F
100
AcDbEntity
  8
0
 62
     7
 48
0.225
370
    35
100
AcDbLine
 10
350.0179149185667
 20
60.17850631862856
 30
0.0
 11
350.0179149185667
 21
51.17850631862856
 31
0.0
  0
LINE
  5
3C2
330
1F
100
AcDbEntity
  8
0
 62
     7
 48
0.05
370
    35
100
AcDbLine
 10
352.0179149185667
 20
51.17850631862856
 30
0.0
 11
350.0179149185667
 21
51.17850631862856
 31
0.0
  0
LINE
  5
3C3
330
1F
100
AcDbEntity
  8
0
 62
     7
 48
0.225
370
    35
100
AcDbLine
 10
352.0179149185667
 20
51.17850631862856
 30
0.0
 11
352.0179149185667
 21
60.17850631862856
 31
0.0
  0
CIRCLE
  5
3C4
330
1F
100
AcDbEntity
  8
0
 62
     7
370
    35
100
AcDbCircle
 10
351.0179149185667
 20
324.6785063186286
 30
0.0
 40
4.883901999999999
  0
LINE
  5
3C5
330
1F
100
AcDbEntity
  8
0
 62
     7
 48
0.05
370
    35
100
AcDbLine
 10
350.0179149185667
 20
329.1785063186286
 30
0.0
 11
352.0179149185667
 21
329.1785063186286
 31
0.0
  0
LINE
  5
3C6
330
1F
100
AcDbEntity
  8
0
 62
     7
 48
0.225
370
    35
100
AcDbLine
 10
350.0179149185667
 20
329.1785063186286
 30
0.0
 11
350.0179149185667
 21
320.1785063186286
 31
0.0
  0
LINE
  5
3C7
330
1F
100
AcDbEntity
  8
0
 62
     7
 48
0.05
370
    35
100
AcDbLine
 10
352.0179149185667
 20
320.1785063186286
 30
0.0
 11
350.0179149185667
 21
320.1785063186286
 31
0.0
  0
LINE
  5
3C8
330
1F
100
AcDbEntity
  8
0
 62
     7
 48
0.225
370
    35
100
AcDbLine
 10
352.0179149185667
 20
320.1785063186286
 30
0.0
 11
352.0179149185667
 21
329.1785063186286
 31
0.0
  0
CIRCLE
  5
3C9
330
1F
100
AcDbEntity
  8
0
 62
     7
370
    35
100
AcDbCircle
 10
63.01791491856672
 20
324.6785063186286
 30
0.0
 40
4.883901999999999
  0
LINE
  5
3CA
330
1F
100
AcDbEntity
  8
0
 62
     7
 48
0.05
370
    35
100
AcDbLine
 10
62.01791491856671
 20
329.1785063186286
 30
0.0
 11
64.01791491856672
 21
329.1785063186286
 31
0.0
  0
LINE
  5
3CB
330
1F
100
AcDbEntity
  8
0
 62
     7
 48
0.225
370
    35
100
AcDbLine
 10
62.01791491856671
 20
329.1785063186286
 30
0.0
 11
62.01791491856671
 21
320.1785063186286
 31
0.0
  0
LINE
  5
3CC
330
1F
100
AcDbEntity
  8
0
 62
     7
 48
0.05
370
    35
100
AcDbLine
 10
64.01791491856672
 20
320.1785063186286
 30
0.0
 11
62.01791491856671
 21
320.1785063186286
 31
0.0
  0
LINE
  5
3CD
330
1F
100
AcDbEntity
  8
0
 62
     7
 48
0.225
370
    35
100
AcDbLine
 10
64.01791491856672
 20
320.1785063186286
 30
0.0
 11
64.01791491856672
 21
329.1785063186286
 31
0.0
  0
CIRCLE
  5
3CE
330
1F
100
AcDbEntity
  8
0
 62
     7
370
    35
100
AcDbCircle
 10
63.01791491856672
 20
533.6785373186286
 30
0.0
 40
4.883901999999999
  0
LINE
  5
3CF
330
1F
100
AcDbEntity
  8
0
 62
     7
 48
0.05
370
    35
100
AcDbLine
 10
62.01791491856671
 20
538.1785373186286
 30
0.0
 11
64.01791491856672
 21
538.1785373186286
 31
0.0
  0
LINE
  5
3D0
330
1F
100
AcDbEntity
  8
0
 62
     7
 48
0.225
370
    35
100
AcDbLine
 10
62.01791491856671
 20
538.1785373186286
 30
0.0
 11
62.01791491856671
 21
529.1785373186286
 31
0.0
  0
LINE
  5
3D1
330
1F
100
AcDbEntity
  8
0
 62
     7
 48
0.05
370
    35
100
AcDbLine
 10
64.01791491856672
 20
529.1785373186286
 30
0.0
 11
62.01791491856671
 21
529.1785373186286
 31
0.0
  0
LINE
  5
3D2
330
1F
100
AcDbEntity
  8
0
 62
     7
 48
0.225
370
    35
100
AcDbLine
 10
64.01791491856672
 20
529.1785373186286
 30
0.0
 11
64.01791491856672
 21
538.1785373186286
 31
0.0
  0
CIRCLE
  5
3D3
330
1F
100
AcDbEntity
  8
0
 62
     7
370
    35
100
AcDbCircle
 10
351.0179149185667
 20
533.6785373186286
 30
0.0
 40
4.883901999999999
  0
LINE
  5
3D4
330
1F
100
AcDbEntity
  8
0
 62
     7
 48
0.05
370
    35
100
AcDbLine
 10
350.0179149185667
 20
538.1785373186286
 30
0.0
 11
352.0179149185667
 21
538.1785373186286
 31
0.0
  0
LINE
  5
3D5
330
1F
100
AcDbEntity
  8
0
 62
     7
 48
0.225
370
    35
100
AcDbLine
 10
350.0179149185667
 20
538.1785373186286
 30
0.0
 11
350.0179149185667
 21
529.1785373186286
 31
0.0
  0
LINE
  5
3D6
330
1F
100
AcDbEntity
  8
0
 62
     7
 48
0.05
370
    35
100
AcDbLine
 10
352.0179149185667
 20
529.1785373186286
 30
0.0
 11
350.0179149185667
 21
529.1785373186286
 31
0.0
  0
LINE
  5
3D7
330
1F
100
AcDbEntity
  8
0
 62
     7
 48
0.225
370
    35
100
AcDbLine
 10
352.0179149185667
 20
529.1785373186286
 30
0.0
 11
352.0179149185667
 21
538.1785373186286
 31
0.0
  0
LINE
  5
3D8
330
1F
100
AcDbEntity
  8
0
 62
     7
100
AcDbLine
 10
81.01791491856671
 20
457.1785373186285
 30
0.0
 11
333.0179149185667
 21
457.1785373186285
 31
0.0
  0
LINE
  5
3D9
330
1F
100
AcDbEntity
  8
0
 62
     7
100
AcDbLine
 10
333.0179149185667
 20
457.1785373186285
 30
0.0
 11
333.0179149185667
 21
412.1785373186285
 31
0.0
  0
LINE
  5
3DA
330
1F
100
AcDbEntity
  8
0
 62
     7
100
AcDbLine
 10
333.0179149185667
 20
412.1785373186285
 30
0.0
 11
81.01791491856671
 21
412.1785373186285
 31
0.0
  0
LINE
  5
3DB
330
1F
100
AcDbEntity
  8
0
 62
     7
100
AcDbLine
 10
81.01791491856671
 20
412.1785373186285
 30
0.0
 11
81.01791491856671
 21
457.1785373186285
 31
0.0
  0
LINE
  5
3DC
330
1F
100
AcDbEntity
  8
0
  6
Continuous
 62
     2
100
AcDbLine
 10
97.02682946856672
 20
39.67850631862857
 30
0.0
 11
97.02682946856672
 21
39.67850631862857
 31
0.0
  0
LINE
  5
3DD
330
1F
100
AcDbEntity
  8
0
 62
     2
100
AcDbLine
 10
97.02682946856672
 20
39.67850631862857
 30
0.0
 11
97.02682946856672
 21
39.67850631862857
 31
0.0
  0
DIMENSION
  5
3DE
330
1F
100
AcDbEntity
  8
QUOTE
 62
     7
100
AcDbDimension
  2
*D5
 10
24.96707516856671
 20
39.67850631862857
 30
0.0
 11
24.96707516856672
 21
294.3454487086285
 31
0.0
 70
   160
 71
     0
 42
510.000031
  3
Standard
100
AcDbAlignedDimension
 13
63.01791491856672
 23
549.6785373186286
 33
0.0
 14
63.08041491856672
 24
39.67850631862857
 34
0.0
 50
90.0
100
AcDbRotatedDimension
1001
ACAD
1000
DSTYLE
1002
{
1070
    41
1040
15.0
1070
   140
1040
10.0
1070
    78
1070
     8
1070
   284
1070
     8
1002
}
  0
DIMENSION
  5
3DF
330
1F
100
AcDbEntity
  8
QUOTE
 62
     7
100
AcDbDimension
  2
*D6
 10
47.01791491856671
 20
21.71881571862858
 30
0.0
 11
207.2029172785667
 21
21.71881571862858
 31
0.0
 70
   160
 71
     0
 42
320.0
  3
Standard
100
AcDbAlignedDimension
 13
367.0179149185667
 23
55.67613598862855
 33
0.0
 14
47.01791491856671
 24
55.74100631862856
 34
0.0
100
AcDbRotatedDimension
1001
ACAD
1000
DSTYLE
1002
{
1070
    41
1040
15.0
1070
   140
1040
10.0
1070
    78
1070
     8
1070
   284
1070
     8
1002
}
  0
TEXT
  5
3E0
330
1F
100
AcDbEntity
  8
0
 62
     7
100
AcDbText
 10
76.2121779899953
 20
531.1647365786285
 30
0.0
 40
5.0
  1
GW68008N
 72
     1
 11
95.14074941856671
 21
531.1647365786285
 31
0.0
100
AcDbText
  0
LWPOLYLINE
  5
3E1
330
1F
100
AcDbEntity
  8
0
 62
     7
370
    35
100
AcDbPolyline
 90
        4
 70
     0
 43
0.0
 10
365.4955759185667
 20
61.83399331862855
 10
364.5284129185667
 20
61.82203031862856
 10
364.4999709185668
 20
61.82004731862857
 10
364.4956369185667
 20
61.81904031862856
  0
LWPOLYLINE
  5
3E2
330
1F
100
AcDbEntity
  8
0
 62
     7
370
    35
100
AcDbPolyline
 90
        4
 70
     0
 43
0.0
 10
366.9624949185667
 20
61.85131231862856
 10
366.9581009185667
 20
61.85030531862856
 10
366.9294139185668
 20
61.84830631862856
 10
365.9625559185668
 20
61.83635831862857
  0
LWPOLYLINE
  5
3E3
330
1F
100
AcDbEntity
  8
0
 62
     7
370
    35
100
AcDbPolyline
 90
        5
 70
     0
 43
0.0
 10
364.6349189185668
 20
49.52065431862857
 10
365.4310009185667
 20
49.51427631862856
 10
365.7075509185668
 20
49.50740931862856
 10
365.7175609185667
 20
49.50626531862855
 10
365.7190869185667
 20
49.50570031862856
  0
LWPOLYLINE
  5
3E4
330
1F
100
AcDbEntity
  8
0
 62
     7
370
    35
100
AcDbPolyline
 90
        5
 70
     0
 43
0.0
 10
362.8797309185667
 20
49.53859831862857
 10
362.8808299185668
 20
49.53814131862856
 10
362.8858959185667
 20
49.53739331862857
 10
363.1282669185667
 20
49.53075531862856
 10
364.0079659185667
 20
49.52353831862857
  0
LWPOLYLINE
  5
3E5
330
1F
100
AcDbEntity
  8
0
 62
     7
370
    35
100
AcDbPolyline
 90
        4
 70
     0
 43
0.0
 10
365.4955759185667
 20
330.8339933186286
 10
364.5284129185667
 20
330.8220303186285
 10
364.4999709185668
 20
330.8200473186285
 10
364.4956369185667
 20
330.8190403186286
  0
LWPOLYLINE
  5
3E6
330
1F
100
AcDbEntity
  8
0
 62
     7
370
    35
100
AcDbPolyline
 90
        4
 70
     0
 43
0.0
 10
366.9624949185667
 20
330.8513273186286
 10
366.9581009185667
 20
330.8502903186286
 10
366.9294139185668
 20
330.8483063186286
 10
365.9625559185668
 20
330.8363433186286
  0
LWPOLYLINE
  5
3E7
330
1F
100
AcDbEntity
  8
0
 62
     7
370
    35
100
AcDbPolyline
 90
        4
 70
     0
 43
0.0
 10
366.9624949185667
 20
318.5056853186286
 10
366.9581009185667
 20
318.5066923186286
 10
366.9294139185668
 20
318.5087063186286
 10
365.9625559185668
 20
318.5206693186286
  0
LWPOLYLINE
  5
3E8
330
1F
100
AcDbEntity
  8
0
 62
     7
370
    35
100
AcDbPolyline
 90
        4
 70
     0
 43
0.0
 10
365.4955759185667
 20
318.5230193186286
 10
364.5284129185667
 20
318.5349823186285
 10
364.4999709185668
 20
318.5369663186286
 10
364.4956369185667
 20
318.5379733186286
  0
LWPOLYLINE
  5
3E9
330
1F
100
AcDbEntity
  8
0
 62
     7
370
    35
100
AcDbPolyline
 90
        5
 70
     0
 43
0.0
 10
362.8797309185667
 20
539.8184293186285
 10
362.8843699185667
 20
539.8194673186285
 10
362.9144599185668
 20
539.8213593186285
 10
363.2402659185667
 20
539.8277683186285
 10
364.0079659185667
 20
539.8334443186285
  0
LWPOLYLINE
  5
3EA
330
1F
100
AcDbEntity
  8
0
 62
     7
370
    35
100
AcDbPolyline
 90
        5
 70
     0
 43
0.0
 10
364.6349189185668
 20
539.8363743186286
 10
365.4310009185667
 20
539.8427213186286
 10
365.7075509185668
 20
539.8496183186286
 10
365.7175609185667
 20
539.8507783186285
 10
365.7190869185667
 20
539.8513273186286
  0
LWPOLYLINE
  5
3EB
330
1F
100
AcDbEntity
  8
0
 62
     7
370
    35
100
AcDbPolyline
 90
        4
 70
     0
 43
0.0
 10
366.9624949185667
 20
527.5056853186286
 10
366.9581009185667
 20
527.5067233186286
 10
366.9294139185668
 20
527.5087373186286
 10
365.9625559185668
 20
527.5206393186286
  0
LWPOLYLINE
  5
3EC
330
1F
100
AcDbEntity
  8
0
 62
     7
370
    35
100
AcDbPolyline
 90
        4
 70
     0
 43
0.0
 10
365.4955759185667
 20
527.5230193186285
 10
364.5284129185667
 20
527.5349823186286
 10
364.4999709185668
 20
527.5369353186285
 10
364.4956369185667
 20
527.5379733186285
  0
LWPOLYLINE
  5
3ED
330
1F
100
AcDbEntity
  8
0
 62
     7
370
    35
100
AcDbPolyline
 90
        4
 70
     0
 43
0.0
 10
48.54031491856672
 20
527.5230193186285
 10
49.50747791856672
 20
527.5349823186286
 10
49.53591991856672
 20
527.5369353186285
 10
49.54025391856672
 20
527.5379733186285
  0
LWPOLYLINE
  5
3EE
330
1F
100
AcDbEntity
  8
0
 62
     7
370
    35
100
AcDbPolyline
 90
        4
 70
     0
 43
0.0
 10
47.07339591856672
 20
527.5056853186286
 10
47.07772891856672
 20
527.5067233186286
 10
47.10641591856672
 20
527.5087373186286
 10
48.07333491856671
 20
527.5206393186286
  0
LWPOLYLINE
  5
3EF
330
1F
100
AcDbEntity
  8
0
 62
     7
370
    35
100
AcDbPolyline
 90
        5
 70
     0
 43
0.0
 10
49.40097191856672
 20
539.8363743186286
 10
48.60488991856672
 20
539.8427213186286
 10
48.32833991856672
 20
539.8496183186286
 10
48.31832991856671
 20
539.8507783186285
 10
48.31674291856671
 20
539.8513273186286
  0
LWPOLYLINE
  5
3F0
330
1F
100
AcDbEntity
  8
0
 62
     7
370
    35
100
AcDbPolyline
 90
        5
 70
     0
 43
0.0
 10
51.15609891856672
 20
539.8184293186285
 10
51.15145991856671
 20
539.8194673186285
 10
51.12143091856672
 20
539.8213593186285
 10
50.79562491856671
 20
539.8277683186285
 10
50.02792491856673
 20
539.8334443186285
  0
LWPOLYLINE
  5
3F1
330
1F
100
AcDbEntity
  8
0
 62
     7
370
    35
100
AcDbPolyline
 90
        4
 70
     0
 43
0.0
 10
48.54031491856672
 20
318.5230193186286
 10
49.50747791856672
 20
318.5349823186285
 10
49.53591991856672
 20
318.5369663186286
 10
49.54025391856672
 20
318.5379733186286
  0
LWPOLYLINE
  5
3F2
330
1F
100
AcDbEntity
  8
0
 62
     7
370
    35
100
AcDbPolyline
 90
        4
 70
     0
 43
0.0
 10
47.07339591856672
 20
318.5056853186286
 10
47.07772891856672
 20
318.5066923186286
 10
47.10641591856672
 20
318.5087063186286
 10
48.07333491856671
 20
318.5206693186286
  0
LWPOLYLINE
  5
3F3
330
1F
100
AcDbEntity
  8
0
 62
     7
370
    35
100
AcDbPolyline
 90
        4
 70
     0
 43
0.0
 10
47.07339591856672
 20
330.8513273186286
 10
47.07772891856672
 20
330.8502903186286
 10
47.10641591856672
 20
330.8483063186286
 10
48.07333491856671
 20
330.8363433186286
  0
LWPOLYLINE
  5
3F4
330
1F
100
AcDbEntity
  8
0
 62
     7
370
    35
100
AcDbPolyline
 90
        4
 70
     0
 43
0.0
 10
48.54031491856672
 20
330.8339933186286
 10
49.50747791856672
 20
330.8220303186285
 10
49.53591991856672
 20
330.8200473186285
 10
49.54025391856672
 20
330.8190403186286
  0
LWPOLYLINE
  5
3F5
330
1F
100
AcDbEntity
  8
0
 62
     7
370
    35
100
AcDbPolyline
 90
        5
 70
     0
 43
0.0
 10
51.15609891856672
 20
49.53859831862857
 10
51.15145991856671
 20
49.53756131862857
 10
51.12143091856672
 20
49.53563831862857
 10
50.79562491856671
 20
49.52924531862857
 10
50.02792491856673
 20
49.52353831862857
  0
LWPOLYLINE
  5
3F6
330
1F
100
AcDbEntity
  8
0
 62
     7
370
    35
100
AcDbPolyline
 90
        5
 70
     0
 43
0.0
 10
49.40097191856672
 20
49.52065431862857
 10
48.60488991856672
 20
49.51427631862856
 10
48.32833991856672
 20
49.50740931862856
 10
48.31832991856671
 20
49.50626531862855
 10
48.31674291856671
 20
49.50570031862856
  0
LWPOLYLINE
  5
3F7
330
1F
100
AcDbEntity
  8
0
 62
     7
370
    35
100
AcDbPolyline
 90
        4
 70
     0
 43
0.0
 10
47.07339591856672
 20
61.85131231862856
 10
47.07772891856672
 20
61.85030531862856
 10
47.10641591856672
 20
61.84830631862856
 10
48.07333491856671
 20
61.83635831862857
  0
LWPOLYLINE
  5
3F8
330
1F
100
AcDbEntity
  8
0
 62
     7
370
    35
100
AcDbPolyline
 90
        4
 70
     0
 43
0.0
 10
48.54031491856672
 20
61.83399331862855
 10
49.50747791856672
 20
61.82203031862856
 10
49.53591991856672
 20
61.82004731862857
 10
49.54025391856672
 20
61.81904031862856
  0
LWPOLYLINE
  5
3F9
330
1F
100
AcDbEntity
  8
0
 62
     7
370
    35
100
AcDbPolyline
 90
       38
 70
     0
 43
0.0
 10
58.58102491856672
 20
47.55678731862855
 10
59.28659191856672
 20
47.21445631862855
 10
60.01870791856672
 20
46.93244331862857
 10
60.77230891856672
 20
46.71270131862857
 10
61.54202391856672
 20
46.55678731862855
 10
62.32235791856672
 20
46.46579931862857
 10
63.10781991856671
 20
46.44042331862857
 10
63.89260991856672
 20
46.48082931862856
 10
64.71786591856673
 20
46.59525431862857
 10
65.52938991856672
 20
46.78238831862856
 10
66.32052691856671
 20
47.04076531862855
 10
67.08517591856672
 20
47.36831031862857
 10
67.81735291856671
 20
47.76249131862857
 10
68.51132291856671
 20
48.22031531862856
 10
69.11727991856672
 20
48.69979231862856
 10
69.6813669185667
 20
49.22808231862856
 10
70.19986091856671
 20
49.80173631862857
 10
70.66903791856671
 20
50.41692531862856
 10
71.08554191856672
 20
51.06957431862856
 10
71.44644291856671
 20
51.75530431862856
 10
71.74905491856671
 20
52.46947631862855
 10
71.99112091856672
 20
53.20722331862857
 10
72.17074691856672
 20
53.96341831862855
 10
72.28897191856671
 20
54.75609731862857
 10
72.33834991856672
 20
55.55671131862855
 10
72.31826891856673
 20
56.35915531862856
 10
72.22879091856672
 20
57.15735731862856
 10
72.07058791856673
 20
57.94532131862855
 10
71.84463591856673
 20
58.71711131862856
 10
71.55264391856673
 20
59.46688231862856
 10
71.19662591856672
 20
60.18901931862856
 10
70.77926691856672
 20
60.87803031862856
 10
70.30349791856671
 20
61.52872631862855
 10
69.77298091856673
 20
62.13613331862856
 10
69.19162091856671
 20
62.69559631862856
 10
68.56381291856672
 20
63.20284431862856
 10
68.04336691856672
 20
63.56072431862855
 10
67.49984891856673
 20
63.88257731862856
  0
LWPOLYLINE
  5
3FA
330
1F
100
AcDbEntity
  8
0
 62
     7
370
    35
100
AcDbPolyline
 90
       37
 70
     0
 43
0.0
 10
58.58102491856672
 20
47.55678731862855
 10
57.89743191856672
 20
47.96328131862856
 10
57.25106891856672
 20
48.42658431862855
 10
56.64663791856672
 20
48.94349031862856
 10
56.08847191856672
 20
49.51041531862856
 10
55.58059791856672
 20
50.12337631862857
 10
55.12692391856671
 20
50.77810031862856
 10
54.73074491856672
 20
51.46994931862855
 10
54.39523391856671
 20
52.19400931862856
 10
54.12295591856672
 20
52.94503131862857
 10
53.91616891856672
 20
53.71756931862856
 10
53.77658191856672
 20
54.50663131862857
 10
53.70553691856672
 20
55.30549031862856
 10
53.70388891856672
 20
56.10807231862856
 10
53.77163791856673
 20
56.90831931862856
 10
53.90841791856672
 20
57.70020431862857
 10
54.11337391856672
 20
58.47777731862857
 10
54.38497991856672
 20
59.23516231862857
 10
54.72128391856672
 20
59.96665331862856
 10
55.11984391856671
 20
60.66672631862856
 10
55.57785091856672
 20
61.33007231862857
 10
56.09176691856672
 20
61.95163931862857
 10
56.65792991856672
 20
62.52665131862856
 10
57.27182091856672
 20
63.05071431862856
 10
57.95260691856672
 20
63.53507431862856
 10
58.67398191856672
 20
63.95658231862856
 10
59.43014591856672
 20
64.31183731862856
 10
60.21505891856672
 20
64.59801631862856
 10
61.02230891856672
 20
64.81286031862857
 10
61.84549091856672
 20
64.95469031862857
 10
62.67807091856671
 20
65.02239431862856
 10
63.51339791856672
 20
65.01542031862856
 10
64.34475791856673
 20
64.93384731862857
 10
65.16561991856672
 20
64.77826831862856
 10
65.96939191856671
 20
64.54989031862857
 10
66.74954291856671
 20
64.25052831862856
 10
67.49984891856673
 20
63.88257731862856
  0
LWPOLYLINE
  5
3FB
330
1F
100
AcDbEntity
  8
0
 62
     7
370
    35
100
AcDbPolyline
 90
       37
 70
     0
 43
0.0
 10
355.4548659185667
 20
47.55678731862855
 10
356.1384589185667
 20
47.96328131862856
 10
356.7847609185667
 20
48.42658431862855
 10
357.3892529185668
 20
48.94349031862856
 10
357.9474189185668
 20
49.51041531862856
 10
358.4552929185667
 20
50.12337631862857
 10
358.9089669185668
 20
50.77810031862856
 10
359.3051459185667
 20
51.46994931862855
 10
359.6406569185667
 20
52.19400931862856
 10
359.9129339185668
 20
52.94503131862857
 10
360.1197219185667
 20
53.71756931862856
 10
360.2593089185667
 20
54.50663131862857
 10
360.3302929185667
 20
55.30549031862856
 10
360.3320019185667
 20
56.10807231862856
 10
360.2642529185668
 20
56.90831931862856
 10
360.1274119185668
 20
57.70020431862857
 10
359.9225169185668
 20
58.47777731862857
 10
359.6509109185668
 20
59.23516231862857
 10
359.3146069185667
 20
59.96665331862856
 10
358.9159859185668
 20
60.66672631862856
 10
358.4580389185667
 20
61.33007231862857
 10
357.9440619185667
 20
61.95163931862857
 10
357.3780219185667
 20
62.52665131862856
 10
356.7640089185667
 20
63.05071431862856
 10
356.0832839185668
 20
63.53507431862856
 10
355.3619089185668
 20
63.95658231862856
 10
354.6056839185667
 20
64.31183731862856
 10
353.8208319185667
 20
64.59801631862856
 10
353.0135809185667
 20
64.81286031862857
 10
352.1903999185667
 20
64.95469031862857
 10
351.3578199185667
 20
65.02239431862856
 10
350.5225539185667
 20
65.01542031862856
 10
349.6911329185667
 20
64.93384731862857
 10
348.8702099185667
 20
64.77826831862856
 10
348.0664989185667
 20
64.54989031862857
 10
347.2863479185668
 20
64.25052831862856
 10
346.5360419185667
 20
63.88257731862856
  0
LWPOLYLINE
  5
3FC
330
1F
100
AcDbEntity
  8
0
 62
     7
370
    35
100
AcDbPolyline
 90
       38
 70
     0
 43
0.0
 10
355.4548659185667
 20
47.55678731862855
 10
354.7492989185668
 20
47.21445631862855
 10
354.0171829185667
 20
46.93244331862857
 10
353.2635809185667
 20
46.71270131862857
 10
352.4938669185667
 20
46.55678731862855
 10
351.7134719185667
 20
46.46579931862857
 10
350.9280709185667
 20
46.44042331862857
 10
350.1432809185667
 20
46.48082931862856
 10
349.3179639185667
 20
46.59525431862857
 10
348.5065009185668
 20
46.78238831862856
 10
347.7153029185668
 20
47.04076531862855
 10
346.9506539185667
 20
47.36831031862857
 10
346.2184759185667
 20
47.76249131862857
 10
345.5245679185667
 20
48.22031531862856
 10
344.9186109185668
 20
48.69979231862856
 10
344.3544629185667
 20
49.22808231862856
 10
343.8360299185668
 20
49.80173631862857
 10
343.3668529185667
 20
50.41692531862856
 10
342.9503489185667
 20
51.06957431862856
 10
342.5894479185668
 20
51.75530431862856
 10
342.2868359185667
 20
52.46947631862855
 10
342.0447699185668
 20
53.20722331862857
 10
341.8650829185667
 20
53.96341831862855
 10
341.7469189185667
 20
54.75609731862857
 10
341.6976019185668
 20
55.55671131862855
 10
341.7176219185667
 20
56.35915531862856
 10
341.8070999185667
 20
57.15735731862856
 10
341.9653029185667
 20
57.94532131862855
 10
342.1912549185667
 20
58.71711131862856
 10
342.4832469185667
 20
59.46688231862856
 10
342.8392649185667
 20
60.18901931862856
 10
343.2566229185667
 20
60.87803031862856
 10
343.7323919185667
 20
61.52872631862855
 10
344.2629099185667
 20
62.13613331862856
 10
344.8442699185668
 20
62.69559631862856
 10
345.4720779185667
 20
63.20284431862856
 10
345.9925239185667
 20
63.56072431862855
 10
346.5360419185667
 20
63.88257731862856
  0
LWPOLYLINE
  5
3FD
330
1F
100
AcDbEntity
  8
0
 62
     7
370
    35
100
AcDbPolyline
 90
       38
 70
     0
 43
0.0
 10
67.45486591856672
 20
541.8002413186285
 10
66.74929891856672
 20
542.1425263186285
 10
66.01718291856672
 20
542.4245693186286
 10
65.26358091856671
 20
542.6442963186286
 10
64.49386691856671
 20
542.8002413186285
 10
63.71347191856671
 20
542.8911833186285
 10
62.92807091856672
 20
542.9165743186286
 10
62.14328091856671
 20
542.8761693186284
 10
61.31796391856672
 20
542.7617893186285
 10
60.50650091856672
 20
542.5746553186285
 10
59.71530291856672
 20
542.3162323186285
 10
58.95065391856672
 20
541.9887173186285
 10
58.21847591856672
 20
541.5945523186286
 10
57.52456791856672
 20
541.1366673186286
 10
56.91861091856672
 20
540.6572353186285
 10
56.35446291856673
 20
540.1289153186286
 10
55.83602991856672
 20
539.5552463186285
 10
55.36685291856672
 20
538.9400723186285
 10
54.95034891856672
 20
538.2874233186286
 10
54.58944791856672
 20
537.6016933186285
 10
54.28683591856672
 20
536.8875213186284
 10
54.04476991856672
 20
536.1497893186285
 10
53.86508291856672
 20
535.3936253186285
 10
53.74691891856672
 20
534.6009003186285
 10
53.69760191856672
 20
533.8003023186285
 10
53.71762191856672
 20
532.9978733186285
 10
53.80709991856672
 20
532.1996553186285
 10
53.96530291856672
 20
531.4116913186286
 10
54.19125491856672
 20
530.6399013186286
 10
54.48324691856672
 20
529.8901463186285
 10
54.83926491856672
 20
529.1679783186285
 10
55.25662291856672
 20
528.4789523186285
 10
55.73239191856671
 20
527.8283173186284
 10
56.26290991856672
 20
527.2208953186285
 10
56.84426991856672
 20
526.6614473186286
 10
57.47207791856673
 20
526.1541843186285
 10
57.99252391856672
 20
525.7962743186285
 10
58.53604191856671
 20
525.4744353186286
  0
LWPOLYLINE
  5
3FE
330
1F
100
AcDbEntity
  8
0
 62
     7
370
    35
100
AcDbPolyline
 90
       37
 70
     0
 43
0.0
 10
67.45486591856672
 20
541.8002413186285
 10
68.13845891856672
 20
541.3937473186286
 10
68.78476091856672
 20
540.9304293186286
 10
69.38925291856671
 20
540.4135223186285
 10
69.94741891856671
 20
539.8466283186286
 10
70.45529291856673
 20
539.2336513186286
 10
70.90896691856672
 20
538.5789273186286
 10
71.30514591856672
 20
537.8870333186285
 10
71.64065691856672
 20
537.1630343186285
 10
71.91293391856672
 20
536.4119963186285
 10
72.11972191856671
 20
535.6394743186285
 10
72.25930891856672
 20
534.8504123186286
 10
72.33029291856673
 20
534.0515233186285
 10
72.33200191856671
 20
533.2489713186285
 10
72.26425291856671
 20
532.4486783186285
 10
72.12741191856672
 20
531.6568083186285
 10
71.92251691856672
 20
530.8792203186285
 10
71.65091091856672
 20
530.1218353186285
 10
71.31460691856671
 20
529.3903293186286
 10
70.91598591856672
 20
528.6902553186284
 10
70.45803891856673
 20
528.0269253186286
 10
69.94406191856672
 20
527.4053433186286
 10
69.37802191856673
 20
526.8303923186286
 10
68.76400891856673
 20
526.3062833186286
 10
68.08328391856672
 20
525.8219693186285
 10
67.36190891856671
 20
525.4004613186285
 10
66.60568391856671
 20
525.0451753186284
 10
65.82083191856671
 20
524.7589813186285
 10
65.01358091856672
 20
524.5441373186285
 10
64.19039991856672
 20
524.4022923186284
 10
63.35781991856672
 20
524.3346043186286
 10
62.52255391856672
 20
524.3416233186285
 10
61.69113291856672
 20
524.4231663186285
 10
60.87020991856672
 20
524.5787443186285
 10
60.06649891856672
 20
524.8071383186286
 10
59.28634791856672
 20
525.1065153186285
 10
58.53604191856671
 20
525.4744353186286
  0
LWPOLYLINE
  5
3FF
330
1F
100
AcDbEntity
  8
0
 62
     7
370
    35
100
AcDbPolyline
 90
       37
 70
     0
 43
0.0
 10
346.5810249185667
 20
541.8002413186285
 10
345.8974319185667
 20
541.3937473186286
 10
345.2510689185667
 20
540.9304293186286
 10
344.6466379185667
 20
540.4135223186285
 10
344.0884719185667
 20
539.8466283186286
 10
343.5805979185667
 20
539.2336513186286
 10
343.1269239185667
 20
538.5789273186286
 10
342.7307449185668
 20
537.8870333186285
 10
342.3952339185668
 20
537.1630343186285
 10
342.1229559185667
 20
536.4119963186285
 10
341.9161689185667
 20
535.6394743186285
 10
341.7765819185668
 20
534.8504123186286
 10
341.7055369185667
 20
534.0515233186285
 10
341.7038889185667
 20
533.2489713186285
 10
341.7716379185667
 20
532.4486783186285
 10
341.9084179185667
 20
531.6568083186285
 10
342.1133739185667
 20
530.8792203186285
 10
342.3849799185668
 20
530.1218353186285
 10
342.7212839185667
 20
529.3903293186286
 10
343.1198439185668
 20
528.6902553186284
 10
343.5778509185667
 20
528.0269253186286
 10
344.0917669185667
 20
527.4053433186286
 10
344.6579299185668
 20
526.8303923186286
 10
345.2718209185667
 20
526.3062833186286
 10
345.9526069185667
 20
525.8219693186285
 10
346.6739819185667
 20
525.4004613186285
 10
347.4301459185667
 20
525.0451753186284
 10
348.2150589185667
 20
524.7589813186285
 10
349.0223089185668
 20
524.5441373186285
 10
349.8454909185667
 20
524.4022923186284
 10
350.6780709185667
 20
524.3346043186286
 10
351.5133979185667
 20
524.3416233186285
 10
352.3447579185667
 20
524.4231663186285
 10
353.1656199185667
 20
524.5787443186285
 10
353.9693919185668
 20
524.8071383186286
 10
354.7495429185667
 20
525.1065153186285
 10
355.4998489185667
 20
525.4744353186286
  0
LWPOLYLINE
  5
400
330
1F
100
AcDbEntity
  8
0
 62
     7
370
    35
100
AcDbPolyline
 90
       38
 70
     0
 43
0.0
 10
346.5810249185667
 20
541.8002413186285
 10
347.2865919185667
 20
542.1425263186285
 10
348.0187079185668
 20
542.4245693186286
 10
348.7723089185668
 20
542.6442963186286
 10
349.5420239185668
 20
542.8002413186285
 10
350.3223579185667
 20
542.8911833186285
 10
351.1078199185667
 20
542.9165743186286
 10
351.8926099185667
 20
542.8761693186284
 10
352.7178659185667
 20
542.7617893186285
 10
353.5293899185667
 20
542.5746553186285
 10
354.3205269185668
 20
542.3162323186285
 10
355.0851759185667
 20
541.9887173186285
 10
355.8173529185667
 20
541.5945523186286
 10
356.5113229185667
 20
541.1366673186286
 10
357.1172799185668
 20
540.6572353186285
 10
357.6813669185667
 20
540.1289153186286
 10
358.1998609185668
 20
539.5552463186285
 10
358.6690379185667
 20
538.9400723186285
 10
359.0855419185667
 20
538.2874233186286
 10
359.4464429185667
 20
537.6016933186285
 10
359.7490549185667
 20
536.8875213186284
 10
359.9911209185667
 20
536.1497893186285
 10
360.1707469185667
 20
535.3936253186285
 10
360.2889719185668
 20
534.6009003186285
 10
360.3383499185667
 20
533.8003023186285
 10
360.3182689185667
 20
532.9978733186285
 10
360.2287909185667
 20
532.1996553186285
 10
360.0705879185667
 20
531.4116913186286
 10
359.8446359185667
 20
530.6399013186286
 10
359.5526439185667
 20
529.8901463186285
 10
359.1966259185667
 20
529.1679783186285
 10
358.7792669185667
 20
528.4789523186285
 10
358.3034979185667
 20
527.8283173186284
 10
357.7729809185667
 20
527.2208953186285
 10
357.1916209185667
 20
526.6614473186286
 10
356.5638129185667
 20
526.1541843186285
 10
356.0433669185667
 20
525.7962743186285
 10
355.4998489185667
 20
525.4744353186286
  0
LWPOLYLINE
  5
401
330
1F
100
AcDbEntity
  8
0
 62
     7
370
    35
100
AcDbPolyline
 90
        7
 70
     0
 43
0.0
 10
364.4018869185667
 20
55.67850631862857
 10
364.4073189185667
 20
58.36342731862856
 10
364.4237989185667
 20
60.61075731862856
 10
364.4419869185667
 20
61.59050931862856
 10
364.4523629185667
 20
61.77045631862856
 10
364.4535839185667
 20
61.77597931862855
 10
364.4541939185667
 20
61.77758131862856
  0
LWPOLYLINE
  5
402
330
1F
100
AcDbEntity
  8
0
 62
     7
370
    35
100
AcDbPolyline
 90
       12
 70
     0
 43
0.0
 10
362.8559279185668
 20
49.57943131862856
 10
362.8565379185667
 20
49.58257431862856
 10
362.8614209185668
 20
49.59551431862857
 10
362.9051219185667
 20
49.68650231862856
 10
363.2367869185667
 20
50.37108731862855
 10
363.5491649185667
 20
51.11371731862857
 10
363.8585519185667
 20
52.01418431862856
 10
363.9981399185667
 20
52.51157531862856
 10
364.1217969185667
 20
53.03476831862855
 10
364.2739569185667
 20
53.88680431862855
 10
364.3693549185667
 20
54.77375231862857
 10
364.4018869185667
 20
55.67850631862857
  0
LWPOLYLINE
  5
403
330
1F
100
AcDbEntity
  8
0
 62
     7
370
    35
100
AcDbPolyline
 90
       13
 70
     0
 43
0.0
 10
364.4541939185667
 20
330.7775663186286
 10
364.4527899185667
 20
330.7726223186286
 10
364.4499829185668
 20
330.7500093186286
 10
364.4417429185668
 20
330.5826203186285
 10
364.4205639185667
 20
329.3209933186286
 10
364.4045119185668
 20
326.5793243186286
 10
364.4029859185668
 20
323.4484043186286
 10
364.4172679185667
 20
320.3876133186286
 10
364.4305739185667
 20
319.2640773186286
 10
364.4458929185668
 20
318.6702363186285
 10
364.4513869185668
 20
318.5933013186286
 10
364.4532179185667
 20
318.5822233186286
 10
364.4541939185667
 20
318.5794463186286
  0
LWPOLYLINE
  5
404
330
1F
100
AcDbEntity
  8
0
 62
     7
370
    35
100
AcDbPolyline
 90
        7
 70
     0
 43
0.0
 10
364.4018869185667
 20
533.6785373186286
 10
364.4073189185667
 20
530.9936003186286
 10
364.4237989185667
 20
528.7462863186285
 10
364.4419869185667
 20
527.7664883186284
 10
364.4523629185667
 20
527.5865573186286
 10
364.4535839185667
 20
527.5810033186285
 10
364.4541939185667
 20
527.5794163186285
  0
LWPOLYLINE
  5
405
330
1F
100
AcDbEntity
  8
0
 62
     7
370
    35
100
AcDbPolyline
 90
       12
 70
     0
 43
0.0
 10
362.8559279185668
 20
539.7775973186286
 10
362.8565379185667
 20
539.7744233186285
 10
362.8614209185668
 20
539.7614833186286
 10
362.9051219185667
 20
539.6704803186286
 10
363.2367869185667
 20
538.9859103186284
 10
363.5491649185667
 20
538.2432953186286
 10
363.8585519185667
 20
537.3428433186285
 10
363.9981399185667
 20
536.8454073186286
 10
364.1217969185667
 20
536.3222133186285
 10
364.2739569185667
 20
535.4702243186285
 10
364.3693549185667
 20
534.5832613186286
 10
364.4018869185667
 20
533.6785373186286
  0
LWPOLYLINE
  5
406
330
1F
100
AcDbEntity
  8
0
 62
     7
370
    35
100
AcDbPolyline
 90
       13
 70
     0
 43
0.0
 10
49.58169691856672
 20
330.7775663186286
 10
49.58310091856672
 20
330.7726223186286
 10
49.58590791856671
 20
330.7500093186286
 10
49.59414791856672
 20
330.5826203186285
 10
49.61532691856672
 20
329.3209933186286
 10
49.63131791856672
 20
326.5793243186286
 10
49.63290491856672
 20
323.4484043186286
 10
49.61862291856672
 20
320.3876133186286
 10
49.60531691856672
 20
319.2640773186286
 10
49.58993591856672
 20
318.6702363186285
 10
49.58444291856672
 20
318.5933013186286
 10
49.58261191856672
 20
318.5822233186286
 10
49.58169691856672
 20
318.5794463186286
  0
LWPOLYLINE
  5
407
330
1F
100
AcDbEntity
  8
0
 62
     7
370
    35
100
AcDbPolyline
 90
        7
 70
     0
 43
0.0
 10
49.63400391856672
 20
533.6785373186286
 10
49.62857191856672
 20
530.9936003186286
 10
49.61209191856672
 20
528.7462863186285
 10
49.59390391856672
 20
527.7664883186284
 10
49.58352791856672
 20
527.5865573186286
 10
49.58230691856671
 20
527.5810033186285
 10
49.58169691856672
 20
527.5794163186285
  0
LWPOLYLINE
  5
408
330
1F
100
AcDbEntity
  8
0
 62
     7
370
    35
100
AcDbPolyline
 90
        7
 70
     0
 43
0.0
 10
49.63400391856672
 20
55.67850631862857
 10
49.62857191856672
 20
58.36342731862856
 10
49.61209191856672
 20
60.61075731862856
 10
49.59390391856672
 20
61.59050931862856
 10
49.58352791856672
 20
61.77045631862856
 10
49.58230691856671
 20
61.77597931862855
 10
49.58169691856672
 20
61.77758131862856
  0
LWPOLYLINE
  5
409
330
1F
100
AcDbEntity
  8
0
 62
     7
370
    35
100
AcDbPolyline
 90
       12
 70
     0
 43
0.0
 10
51.17996291856671
 20
539.7775973186286
 10
51.17941391856672
 20
539.7744233186285
 10
51.17440891856672
 20
539.7614833186286
 10
51.13076891856671
 20
539.6704803186286
 10
50.79910391856672
 20
538.9859103186284
 10
50.48666491856671
 20
538.2432953186286
 10
50.17733891856671
 20
537.3428433186285
 10
50.03781191856671
 20
536.8454073186286
 10
49.91409391856672
 20
536.3222133186285
 10
49.76193391856671
 20
535.4702243186285
 10
49.66647491856672
 20
534.5832613186286
 10
49.63400391856672
 20
533.6785373186286
  0
LWPOLYLINE
  5
40A
330
1F
100
AcDbEntity
  8
0
 62
     7
370
    35
100
AcDbPolyline
 90
       12
 70
     0
 43
0.0
 10
51.17996291856671
 20
49.57943131862856
 10
51.17941391856672
 20
49.58257431862856
 10
51.17440891856672
 20
49.59551431862857
 10
51.13076891856671
 20
49.68650231862856
 10
50.79910391856672
 20
50.37108731862855
 10
50.48666491856671
 20
51.11371731862857
 10
50.17733891856671
 20
52.01418431862856
 10
50.03781191856671
 20
52.51157531862856
 10
49.91409391856672
 20
53.03476831862855
 10
49.76193391856671
 20
53.88680431862855
 10
49.66647491856672
 20
54.77375231862857
 10
49.63400391856672
 20
55.67850631862857
  0
LWPOLYLINE
  5
40B
330
1F
100
AcDbEntity
  8
0
 62
   253
370
    35
100
AcDbPolyline
 90
        4
 70
     0
 43
0.0
 10
67.26931891856671
 20
382.1768583186285
 10
65.97238291856672
 20
382.1638273186286
 10
65.81008991856672
 20
382.1567473186286
 10
65.77499491856672
 20
382.1529633186285
  0
LWPOLYLINE
  5
40C
330
1F
100
AcDbEntity
  8
0
 62
   253
370
    35
100
AcDbPolyline
 90
        4
 70
     0
 43
0.0
 10
346.7665719185667
 20
382.1768583186285
 10
348.0635689185667
 20
382.1638273186286
 10
348.2258009185667
 20
382.1567473186286
 10
348.2608349185667
 20
382.1529633186285
  0
LWPOLYLINE
  5
40D
330
1F
100
AcDbEntity
  8
0
 62
   253
370
    35
100
AcDbPolyline
 90
        5
 70
     0
 43
0.0
 10
65.22988991856673
 20
382.3716213186285
 10
65.35403591856672
 20
382.2614223186286
 10
65.44259791856672
 20
382.2073453186285
 10
65.56552191856673
 20
382.1599823186285
 10
65.71267791856673
 20
382.1405123186286
  0
LWPOLYLINE
  5
40E
330
1F
100
AcDbEntity
  8
0
 62
   253
370
    35
100
AcDbPolyline
 90
        5
 70
     0
 43
0.0
 10
348.3232129185667
 20
382.1405123186286
 10
348.4707349185667
 20
382.1601043186285
 10
348.5939649185667
 20
382.2076813186286
 10
348.6702589185667
 20
382.2533353186285
 10
348.8060009185667
 20
382.3716213186285
  0
LWPOLYLINE
  5
40F
330
1F
100
AcDbEntity
  8
0
 62
   253
370
    35
100
AcDbPolyline
 90
        6
 70
     0
 43
0.0
 10
213.3026439185667
 20
361.8695163186286
 10
212.6946729185667
 20
361.5692843186285
 10
212.0572829185667
 20
361.3341463186285
 10
211.3982249185667
 20
361.1654143186286
 10
210.7244579185667
 20
361.0637913186285
 10
210.0411079185667
 20
361.0297023186285
  0
LWPOLYLINE
  5
410
330
1F
100
AcDbEntity
  8
0
 62
   253
370
    35
100
AcDbPolyline
 90
        7
 70
     0
 43
0.0
 10
204.0203559185667
 20
361.0297023186285
 10
203.4223339185667
 20
361.0557953186285
 10
202.8297439185667
 20
361.1338283186285
 10
202.2475289185667
 20
361.2634983186286
 10
201.6802069185667
 20
361.4442533186286
 10
201.2108469185667
 20
361.6386813186285
 10
200.7588209185667
 20
361.8695163186286
  0
LWPOLYLINE
  5
411
330
1F
100
AcDbEntity
  8
0
 62
   253
370
    35
100
AcDbPolyline
 90
       16
 70
     0
 43
0.0
 10
261.1869819185667
 20
373.3585603186286
 10
260.0635079185668
 20
372.6905003186285
 10
258.9151319185667
 20
372.0608913186286
 10
257.5813299185667
 20
371.3933803186286
 10
256.2180489185668
 20
370.7783293186285
 10
254.8286449185667
 20
370.2179353186286
 10
253.7669989185667
 20
369.8332003186286
 10
252.6955879185667
 20
369.4817903186286
 10
251.6205149185667
 20
369.1654143186286
 10
250.2699289185667
 20
368.8181853186286
 10
248.9071969185667
 20
368.5231723186285
 10
247.5328689185667
 20
368.2807103186286
 10
246.1487129185667
 20
368.0915923186286
 10
244.7775589185667
 20
367.9581083186286
 10
243.4033519185667
 20
367.8778473186286
 10
242.0307319185667
 20
367.8511443186286
  0
LWPOLYLINE
  5
412
330
1F
100
AcDbEntity
  8
0
 62
   253
370
    35
100
AcDbPolyline
 90
       16
 70
     0
 43
0.0
 10
152.8744819185667
 20
373.3585903186285
 10
153.9979559185667
 20
372.6905303186286
 10
155.1463329185667
 20
372.0608913186286
 10
156.4801339185667
 20
371.3933803186286
 10
157.8434149185667
 20
370.7783293186285
 10
159.2328199185667
 20
370.2179653186286
 10
160.2944649185667
 20
369.8332003186286
 10
161.3658759185667
 20
369.4817903186286
 10
162.4409499185667
 20
369.1654143186286
 10
163.7915359185667
 20
368.8181853186286
 10
165.1542669185667
 20
368.5231723186285
 10
166.5285349185667
 20
368.2807103186286
 10
167.9127509185667
 20
368.0915923186286
 10
169.2838449185667
 20
367.9581083186286
 10
170.6581129185667
 20
367.8778473186286
 10
172.0307319185667
 20
367.8511443186286
  0
LWPOLYLINE
  5
413
330
1F
100
AcDbEntity
  8
0
 62
   253
370
    35
100
AcDbPolyline
 90
       10
 70
     0
 43
0.0
 10
261.1869819185667
 20
373.3585603186286
 10
261.4028029185667
 20
373.5290313186285
 10
261.5349439185667
 20
373.6727083186285
 10
261.6545729185667
 20
373.8360683186286
 10
261.7485669185667
 20
374.0029693186286
 10
261.8093579185667
 20
374.1656283186286
 10
261.8240669185667
 20
374.2410373186286
 10
261.8257149185668
 20
374.3259063186286
 10
261.8119819185667
 20
374.3889253186286
 10
261.7347119185668
 20
374.4891453186286
  0
LWPOLYLINE
  5
414
330
1F
100
AcDbEntity
  8
0
 62
   253
370
    35
100
AcDbPolyline
 90
       10
 70
     0
 43
0.0
 10
152.8744819185667
 20
373.3585903186285
 10
152.6349799185667
 20
373.5523773186286
 10
152.5041209185667
 20
373.7005403186286
 10
152.3882759185667
 20
373.8654263186286
 10
152.2996529185667
 20
374.0318693186285
 10
152.2454539185667
 20
374.1936123186285
 10
152.2341009185667
 20
374.2947173186286
 10
152.2374579185667
 20
374.3402193186286
 10
152.2537549185667
 20
374.3997893186286
 10
152.3267529185667
 20
374.4891453186286
  0
LWPOLYLINE
  5
415
330
1F
100
AcDbEntity
  8
0
 62
   253
370
    35
100
AcDbPolyline
 90
        4
 70
     0
 43
0.0
 10
163.5377509185667
 20
380.6139003186286
 10
166.7029739185667
 20
380.5774013186286
 10
170.9627389185667
 20
380.5279023186285
 10
172.0307319185667
 20
380.5253993186286
  0
LWPOLYLINE
  5
416
330
1F
100
AcDbEntity
  8
0
 62
   253
370
    35
100
AcDbPolyline
 90
        6
 70
     0
 43
0.0
 10
202.5272529185667
 20
380.5253693186286
 10
203.9402169185667
 20
380.5497223186286
 10
206.1559149185667
 20
380.6034023186286
 10
208.3417669185667
 20
380.5962613186285
 10
210.5821849185667
 20
380.5379123186286
 10
211.5342109185667
 20
380.5253693186286
  0
LWPOLYLINE
  5
417
330
1F
100
AcDbEntity
  8
0
 62
   253
370
    35
100
AcDbPolyline
 90
        4
 70
     0
 43
0.0
 10
242.0307319185667
 20
380.5253693186286
 10
245.9422309185667
 20
380.5561613186286
 10
249.4726879185667
 20
380.6062413186286
 10
250.5237129185667
 20
380.6139003186286
  0
LWPOLYLINE
  5
418
330
1F
100
AcDbEntity
  8
0
 62
   253
370
    35
100
AcDbPolyline
 90
       14
 70
     0
 43
0.0
 10
242.0307319185667
 20
371.2572113186285
 10
244.1213699185667
 20
371.2939853186285
 10
246.1895459185667
 20
371.4030243186286
 10
248.2236639185667
 20
371.5807283186285
 10
250.2272049185667
 20
371.8239533186286
 10
252.2204909185667
 20
372.1326383186286
 10
254.2162179185667
 20
372.5074863186286
 10
256.3575759185667
 20
372.9826443186285
 10
257.6605539185667
 20
373.3119293186286
 10
258.5701609185667
 20
373.5659883186286
 10
259.3773509185667
 20
373.8188573186286
 10
259.7450269185667
 20
373.9490453186286
 10
260.0649729185667
 20
374.0761813186285
 10
260.3265089185667
 20
374.1972133186286
  0
LWPOLYLINE
  5
419
330
1F
100
AcDbEntity
  8
0
 62
   253
370
    35
100
AcDbPolyline
 90
       14
 70
     0
 43
0.0
 10
153.7349559185667
 20
374.1972133186286
 10
153.9964919185667
 20
374.0761813186285
 10
154.3164379185667
 20
373.9490453186286
 10
155.0790109185667
 20
373.6908053186286
 10
155.9148269185667
 20
373.4445893186286
 10
157.2973339185667
 20
373.0817653186285
 10
159.1822829185667
 20
372.6464323186286
 10
161.1756909185667
 20
372.2503143186286
 10
163.1706249185667
 20
371.9193813186286
 10
165.1677559185667
 20
371.6545503186286
 10
167.1905829185667
 20
371.4547513186285
 10
169.2481399185667
 20
371.3224273186286
 10
171.3331619185667
 20
371.2612703186286
 10
172.0307319185667
 20
371.2572113186285
  0
INSERT
  5
41A
330
1F
100
AcDbEntity
  8
0
 62
    56
100
AcDbBlockReference
  2
IEC_309_16-32
 10
33.79611793856672
 20
191.0925289786285
 30
0.0
  0
INSERT
  5
41B
330
1F
100
AcDbEntity
  8
0
 62
    56
100
AcDbBlockReference
  2
IEC_309_16-32
 10
137.6411679385667
 20
191.0925289786285
 30
0.0
  0
INSERT
  5
41C
330
1F
100
AcDbEntity
  8
0
 62
    56
100
AcDbBlockReference
  2
IEC_309_16-32
 10
241.4861679385667
 20
191.0925289786285
 30
0.0
  0
INSERT
  5
41D
330
1F
100
AcDbEntity
  8
0
 62
    56
100
AcDbBlockReference
  2
IEC_309_16-32
 10
33.79611793856672
 20
60.21227897862856
 30
0.0
  0
INSERT
  5
41E
330
1F
100
AcDbEntity
  8
0
 62
    56
100
AcDbBlockReference
  2
IEC_309_16-32
 10
137.6411679385667
 20
60.21227897862856
 30
0.0
  0
INSERT
  5
41F
330
1F
100
AcDbEntity
  8
0
 62
    56
100
AcDbBlockReference
  2
IEC_309_16-32
 10
241.4861679385667
 20
60.21227897862856
 30
0.0
  0
ENDSEC
  0
SECTION
  2
OBJECTS
  0
DICTIONARY
  5
C
330
0
100
AcDbDictionary
281
     1
  3
ACAD_COLOR
350
73
  3
ACAD_GROUP
350
D
  3
ACAD_LAYOUT
350
1A
  3
ACAD_MATERIAL
350
72
  3
ACAD_MLEADERSTYLE
350
D7
  3
ACAD_MLINESTYLE
350
17
  3
ACAD_PLOTSETTINGS
350
19
  3
ACAD_PLOTSTYLENAME
350
E
  3
ACAD_SCALELIST
350
B6
  3
ACAD_TABLESTYLE
350
86
  3
ACAD_VISUALSTYLE
350
99
  3
ACDB_RECOMPOSE_DATA
350
FF
  3
AcDbVariableDictionary
350
66
  3
DWGPROPS
350
45E
  0
DICTIONARY
  5
E6
330
10
100
AcDbDictionary
280
     1
281
     1
  3
ADSK_XREC_LAYER_RECONCILED
360
452
  0
DICTIONARY
  5
453
330
174
100
AcDbDictionary
280
     1
281
     1
  3
ADSK_XREC_LAYER_RECONCILED
360
454
  0
DICTIONARY
  5
455
330
175
100
AcDbDictionary
280
     1
281
     1
  3
ADSK_XREC_LAYER_RECONCILED
360
456
  0
DICTIONARY
  5
457
330
176
100
AcDbDictionary
280
     1
281
     1
  3
ADSK_XREC_LAYER_RECONCILED
360
458
  0
DICTIONARY
  5
73
102
{ACAD_REACTORS
330
C
102
}
330
C
100
AcDbDictionary
281
     1
  0
DICTIONARY
  5
D
102
{ACAD_REACTORS
330
C
102
}
330
C
100
AcDbDictionary
281
     1
  0
DICTIONARY
  5
1A
102
{ACAD_REACTORS
330
C
102
}
330
C
100
AcDbDictionary
281
     1
  3
Layout1
350
59
  3
Layout2
350
5E
  3
Model
350
22
  0
DICTIONARY
  5
72
102
{ACAD_REACTORS
330
C
102
}
330
C
100
AcDbDictionary
281
     1
  3
ByBlock
350
97
  3
ByLayer
350
96
  3
Global
350
98
  0
DICTIONARY
  5
D7
102
{ACAD_REACTORS
330
C
102
}
330
C
100
AcDbDictionary
281
     1
  3
Annotativa
350
E5
  3
Standard
350
D8
  0
DICTIONARY
  5
17
102
{ACAD_REACTORS
330
C
102
}
330
C
100
AcDbDictionary
281
     1
  3
Standard
350
18
  0
DICTIONARY
  5
19
102
{ACAD_REACTORS
330
C
102
}
330
C
100
AcDbDictionary
281
     1
  0
ACDBDICTIONARYWDFLT
  5
E
102
{ACAD_REACTORS
330
C
102
}
330
C
100
AcDbDictionary
281
     1
  3
Normal
350
F
100
AcDbDictionaryWithDefault
340
F
  0
DICTIONARY
  5
B6
102
{ACAD_REACTORS
330
C
102
}
330
C
100
AcDbDictionary
281
     1
  3
A0
350
B7
  3
A1
350
124
  3
A2
350
125
  3
A3
350
126
  3
A4
350
127
  3
A5
350
128
  3
A6
350
129
  3
A7
350
12A
  3
A8
350
12B
  3
A9
350
12C
  3
B0
350
12D
  3
B1
350
12E
  3
B2
350
12F
  3
B3
350
130
  3
B4
350
131
  3
B5
350
132
  3
B6
350
133
  3
B7
350
134
  3
B8
350
135
  3
B9
350
136
  3
C0
350
137
  3
C1
350
138
  3
C2
350
139
  3
C3
350
13A
  3
C4
350
13B
  3
C5
350
13C
  3
C6
350
13D
  3
C7
350
13E
  3
C8
350
13F
  3
C9
350
140
  3
D0
350
141
  3
D1
350
142
  3
D2
350
143
  0
DICTIONARY
  5
86
102
{ACAD_REACTORS
330
C
102
}
330
C
100
AcDbDictionary
281
     1
  3
Standard
350
87
  0
DICTIONARY
  5
99
102
{ACAD_REACTORS
330
C
102
}
330
C
100
AcDbDictionary
281
     1
  3
2dWireframe
350
9F
  3
3D Hidden
350
A1
  3
3dWireframe
350
A0
  3
Basic
350
9E
  3
Brighten
350
A5
  3
ColorChange
350
A9
  3
Conceptual
350
A2
  3
Dim
350
A4
  3
Facepattern
350
A8
  3
Flat
350
9A
  3
FlatWithEdges
350
9B
  3
Gouraud
350
9C
  3
GouraudWithEdges
350
9D
  3
Linepattern
350
A7
  3
Realistic
350
A3
  3
Thicken
350
A6
  0
XRECORD
  5
FF
102
{ACAD_REACTORS
330
C
102
}
330
C
100
AcDbXrecord
280
     1
 90
        1
330
87
  0
DICTIONARY
  5
66
102
{ACAD_REACTORS
330
C
102
}
330
C
100
AcDbDictionary
281
     1
  3
CANNOSCALE
350
F0
  3
CMLEADERSTYLE
350
EF
  3
CTABLESTYLE
350
89
  3
DIMASSOC
350
67
  3
HIDETEXT
350
6B
  3
INDEXCTL
350
45C
  3
LIGHTINGUNITS
350
45A
  3
MSLTSCALE
350
459
  3
SORTENTS
350
45B
  0
XRECORD
  5
45E
102
{ACAD_REACTORS
330
C
102
}
330
C
100
AcDbXrecord
280
     1
  1
DWGPROPS COOKIE
  2

  3

  4

  6

  7

  8
fontanaNZ
  9

300
=
301
=
302
=
303
=
304
=
305
=
306
=
307
=
308
=
309
=
 40
0.0001765856481481
 41
2455511.359527083
 42
2455511.359703495
  1

 90
        0
  0
XRECORD
  5
452
102
{ACAD_REACTORS
330
E6
102
}
330
E6
100
AcDbXrecord
280
     1
290
     1
  0
XRECORD
  5
454
102
{ACAD_REACTORS
330
453
102
}
330
453
100
AcDbXrecord
280
     1
290
     1
  0
XRECORD
  5
456
102
{ACAD_REACTORS
330
455
102
}
330
455
100
AcDbXrecord
280
     1
290
     1
  0
XRECORD
  5
458
102
{ACAD_REACTORS
330
457
102
}
330
457
100
AcDbXrecord
280
     1
290
     1
  0
LAYOUT
  5
59
102
{ACAD_XDICTIONARY
360
461
102
}
102
{ACAD_REACTORS
330
1A
102
}
330
1A
100
AcDbPlotSettings
  1

  2
None
  4

  6

 40
0.0
 41
0.0
 42
0.0
 43
0.0
 44
0.0
 45
0.0
 46
0.0
 47
0.0
 48
0.0
 49
0.0
140
0.0
141
0.0
142
1.0
143
1.0
 70
   688
 72
     0
 73
     0
 74
     5
  7

 75
    16
147
1.0
148
0.0
149
0.0
100
AcDbLayout
  1
Layout1
 70
     1
 71
     1
 10
0.0
 20
0.0
 11
12.0
 21
9.0
 12
0.0
 22
0.0
 32
0.0
 14
0.0
 24
0.0
 34
0.0
 15
0.0
 25
0.0
 35
0.0
146
0.0
 13
0.0
 23
0.0
 33
0.0
 16
1.0
 26
0.0
 36
0.0
 17
0.0
 27
1.0
 37
0.0
 76
     0
330
58
  0
LAYOUT
  5
5E
102
{ACAD_XDICTIONARY
360
463
102
}
102
{ACAD_REACTORS
330
1A
102
}
330
1A
100
AcDbPlotSettings
  1

  2
None
  4

  6

 40
0.0
 41
0.0
 42
0.0
 43
0.0
 44
0.0
 45
0.0
 46
0.0
 47
0.0
 48
0.0
 49
0.0
140
0.0
141
0.0
142
1.0
143
1.0
 70
   688
 72
     0
 73
     0
 74
     5
  7

 75
    16
147
1.0
148
0.0
149
0.0
100
AcDbLayout
  1
Layout2
 70
     1
 71
     2
 10
0.0
 20
0.0
 11
12.0
 21
9.0
 12
0.0
 22
0.0
 32
0.0
 14
0.0
 24
0.0
 34
0.0
 15
0.0
 25
0.0
 35
0.0
146
0.0
 13
0.0
 23
0.0
 33
0.0
 16
1.0
 26
0.0
 36
0.0
 17
0.0
 27
1.0
 37
0.0
 76
     0
330
5D
  0
LAYOUT
  5
22
102
{ACAD_XDICTIONARY
360
45F
102
}
102
{ACAD_REACTORS
330
1A
102
}
330
1A
100
AcDbPlotSettings
  1

  2
none_device
  4
ANSI_A_(8.50_x_11.00_Inches)
  6

 40
6.349999904632568
 41
19.04999923706055
 42
6.350006103515625
 43
19.04998779296875
 44
215.8999938964844
 45
279.3999938964844
 46
0.0
 47
0.0
 48
0.0
 49
0.0
140
0.0
141
0.0
142
1.0
143
2.584895464708373
 70
 11952
 72
     0
 73
     1
 74
     0
  7

 75
     0
147
0.3868628397755418
148
0.0
149
0.0
100
AcDbLayout
  1
Model
 70
     1
 71
     0
 10
0.0
 20
0.0
 11
12.0
 21
9.0
 12
0.0
 22
0.0
 32
0.0
 14
0.0
 24
0.0
 34
0.0
 15
0.0
 25
0.0
 35
0.0
146
0.0
 13
0.0
 23
0.0
 33
0.0
 16
1.0
 26
0.0
 36
0.0
 17
0.0
 27
1.0
 37
0.0
 76
     0
330
1F
331
94
  0
MATERIAL
  5
97
102
{ACAD_XDICTIONARY
360
468
102
}
102
{ACAD_REACTORS
330
72
102
}
330
72
100
AcDbMaterial
  1
ByBlock
  0
MATERIAL
  5
96
102
{ACAD_XDICTIONARY
360
466
102
}
102
{ACAD_REACTORS
330
72
102
}
330
72
100
AcDbMaterial
  1
ByLayer
  0
MATERIAL
  5
98
102
{ACAD_XDICTIONARY
360
110
102
}
102
{ACAD_REACTORS
330
72
102
}
330
72
100
AcDbMaterial
  1
Global
 43
0.0208000000566244
 43
0.0
 43
0.0
 43
0.0
 43
0.0
 43
0.0208000000566244
 43
0.0
 43
0.0
 43
0.0
 43
0.0
 43
1.0
 43
0.0
 43
0.0
 43
0.0
 43
0.0
 43
1.0
 49
0.0208000000566244
 49
0.0
 49
0.0
 49
0.0
 49
0.0
 49
0.0208000000566244
 49
0.0
 49
0.0
 49
0.0
 49
0.0
 49
1.0
 49
0.0
 49
0.0
 49
0.0
 49
0.0
 49
1.0
142
0.0208000000566244
142
0.0
142
0.0
142
0.0
142
0.0
142
0.0208000000566244
142
0.0
142
0.0
142
0.0
142
0.0
142
1.0
142
0.0
142
0.0
142
0.0
142
0.0
142
1.0
144
0.0208000000566244
144
0.0
144
0.0
144
0.0
144
0.0
144
0.0208000000566244
144
0.0
144
0.0
144
0.0
144
0.0
144
1.0
144
0.0
144
0.0
144
0.0
144
0.0
144
1.0
1001
ACAD
1070
    -1
1070
     3
1070
     0
1000

1071
        0
1070
     0
  0
MLEADERSTYLE
  5
E5
102
{ACAD_REACTORS
330
D7
102
}
330
D7
100
AcDbMLeaderStyle
170
     2
171
     1
172
     0
 90
        2
 40
0.0
 41
0.0
173
     1
 91
-1056964608
340
14
 92
       -2
290
     1
 42
0.09
291
     1
 43
0.36
  3
Standard
 44
0.18
300

342
11
174
     1
178
     1
175
     1
176
     0
 93
-1056964608
 45
0.18
292
     0
297
     0
 46
0.18
 94
-1056964608
 47
1.0
 49
1.0
140
1.0
293
     1
141
0.0
294
     1
177
     0
142
1.0
295
     0
296
     1
143
0.125
1001
ACAD_MLEADERVER
1070
     2
  0
MLEADERSTYLE
  5
D8
102
{ACAD_REACTORS
330
D7
102
}
330
D7
100
AcDbMLeaderStyle
170
     2
171
     1
172
     0
 90
        2
 40
0.0
 41
0.0
173
     1
 91
-1056964608
340
14
 92
       -2
290
     1
 42
0.09
291
     1
 43
0.36
  3
Standard
 44
0.18
300

342
11
174
     1
178
     1
175
     1
176
     0
 93
-1056964608
 45
0.18
292
     0
297
     0
 46
0.18
 94
-1056964608
 47
1.0
 49
1.0
140
1.0
293
     1
141
0.0
294
     1
177
     0
142
1.0
295
     0
296
     0
143
0.125
1001
ACAD_MLEADERVER
1070
     2
  0
MLINESTYLE
  5
18
102
{ACAD_REACTORS
330
17
102
}
330
17
100
AcDbMlineStyle
  2
STANDARD
 70
     0
  3

 62
   256
 51
90.0
 52
90.0
 71
     2
 49
0.5
 62
   256
  6
BYLAYER
 49
-0.5
 62
   256
  6
BYLAYER
  0
ACDBPLACEHOLDER
  5
F
102
{ACAD_REACTORS
330
E
102
}
330
E
  0
SCALE
  5
B7
102
{ACAD_REACTORS
330
B6
102
}
330
B6
100
AcDbScale
 70
     0
300
1:1
140
1.0
141
1.0
290
     1
  0
SCALE
  5
124
102
{ACAD_REACTORS
330
B6
102
}
330
B6
100
AcDbScale
 70
     0
300
1:2
140
1.0
141
2.0
290
     0
  0
SCALE
  5
125
102
{ACAD_REACTORS
330
B6
102
}
330
B6
100
AcDbScale
 70
     0
300
1:4
140
1.0
141
4.0
290
     0
  0
SCALE
  5
126
102
{ACAD_REACTORS
330
B6
102
}
330
B6
100
AcDbScale
 70
     0
300
1:5
140
1.0
141
5.0
290
     0
  0
SCALE
  5
127
102
{ACAD_REACTORS
330
B6
102
}
330
B6
100
AcDbScale
 70
     0
300
1:8
140
1.0
141
8.0
290
     0
  0
SCALE
  5
128
102
{ACAD_REACTORS
330
B6
102
}
330
B6
100
AcDbScale
 70
     0
300
1:10
140
1.0
141
10.0
290
     0
  0
SCALE
  5
129
102
{ACAD_REACTORS
330
B6
102
}
330
B6
100
AcDbScale
 70
     0
300
1:16
140
1.0
141
16.0
290
     0
  0
SCALE
  5
12A
102
{ACAD_REACTORS
330
B6
102
}
330
B6
100
AcDbScale
 70
     0
300
1:20
140
1.0
141
20.0
290
     0
  0
SCALE
  5
12B
102
{ACAD_REACTORS
330
B6
102
}
330
B6
100
AcDbScale
 70
     0
300
1:30
140
1.0
141
30.0
290
     0
  0
SCALE
  5
12C
102
{ACAD_REACTORS
330
B6
102
}
330
B6
100
AcDbScale
 70
     0
300
1:40
140
1.0
141
40.0
290
     0
  0
SCALE
  5
12D
102
{ACAD_REACTORS
330
B6
102
}
330
B6
100
AcDbScale
 70
     0
300
1:50
140
1.0
141
50.0
290
     0
  0
SCALE
  5
12E
102
{ACAD_REACTORS
330
B6
102
}
330
B6
100
AcDbScale
 70
     0
300
1:100
140
1.0
141
100.0
290
     0
  0
SCALE
  5
12F
102
{ACAD_REACTORS
330
B6
102
}
330
B6
100
AcDbScale
 70
     0
300
2:1
140
2.0
141
1.0
290
     0
  0
SCALE
  5
130
102
{ACAD_REACTORS
330
B6
102
}
330
B6
100
AcDbScale
 70
     0
300
4:1
140
4.0
141
1.0
290
     0
  0
SCALE
  5
131
102
{ACAD_REACTORS
330
B6
102
}
330
B6
100
AcDbScale
 70
     0
300
8:1
140
8.0
141
1.0
290
     0
  0
SCALE
  5
132
102
{ACAD_REACTORS
330
B6
102
}
330
B6
100
AcDbScale
 70
     0
300
10:1
140
10.0
141
1.0
290
     0
  0
SCALE
  5
133
102
{ACAD_REACTORS
330
B6
102
}
330
B6
100
AcDbScale
 70
     0
300
100:1
140
100.0
141
1.0
290
     0
  0
SCALE
  5
134
102
{ACAD_REACTORS
330
B6
102
}
330
B6
100
AcDbScale
 70
     0
300
1/128" = 1'-0"
140
0.0078125
141
12.0
290
     0
  0
SCALE
  5
135
102
{ACAD_REACTORS
330
B6
102
}
330
B6
100
AcDbScale
 70
     0
300
1/64" = 1'-0"
140
0.015625
141
12.0
290
     0
  0
SCALE
  5
136
102
{ACAD_REACTORS
330
B6
102
}
330
B6
100
AcDbScale
 70
     0
300
1/32" = 1'-0"
140
0.03125
141
12.0
290
     0
  0
SCALE
  5
137
102
{ACAD_REACTORS
330
B6
102
}
330
B6
100
AcDbScale
 70
     0
300
1/16" = 1'-0"
140
0.0625
141
12.0
290
     0
  0
SCALE
  5
138
102
{ACAD_REACTORS
330
B6
102
}
330
B6
100
AcDbScale
 70
     0
300
3/32" = 1'-0"
140
0.09375
141
12.0
290
     0
  0
SCALE
  5
139
102
{ACAD_REACTORS
330
B6
102
}
330
B6
100
AcDbScale
 70
     0
300
1/8" = 1'-0"
140
0.125
141
12.0
290
     0
  0
SCALE
  5
13A
102
{ACAD_REACTORS
330
B6
102
}
330
B6
100
AcDbScale
 70
     0
300
3/16" = 1'-0"
140
0.1875
141
12.0
290
     0
  0
SCALE
  5
13B
102
{ACAD_REACTORS
330
B6
102
}
330
B6
100
AcDbScale
 70
     0
300
1/4" = 1'-0"
140
0.25
141
12.0
290
     0
  0
SCALE
  5
13C
102
{ACAD_REACTORS
330
B6
102
}
330
B6
100
AcDbScale
 70
     0
300
3/8" = 1'-0"
140
0.375
141
12.0
290
     0
  0
SCALE
  5
13D
102
{ACAD_REACTORS
330
B6
102
}
330
B6
100
AcDbScale
 70
     0
300
1/2" = 1'-0"
140
0.5
141
12.0
290
     0
  0
SCALE
  5
13E
102
{ACAD_REACTORS
330
B6
102
}
330
B6
100
AcDbScale
 70
     0
300
3/4" = 1'-0"
140
0.75
141
12.0
290
     0
  0
SCALE
  5
13F
102
{ACAD_REACTORS
330
B6
102
}
330
B6
100
AcDbScale
 70
     0
300
1" = 1'-0"
140
1.0
141
12.0
290
     0
  0
SCALE
  5
140
102
{ACAD_REACTORS
330
B6
102
}
330
B6
100
AcDbScale
 70
     0
300
1-1/2" = 1'-0"
140
1.5
141
12.0
290
     0
  0
SCALE
  5
141
102
{ACAD_REACTORS
330
B6
102
}
330
B6
100
AcDbScale
 70
     0
300
3" = 1'-0"
140
3.0
141
12.0
290
     0
  0
SCALE
  5
142
102
{ACAD_REACTORS
330
B6
102
}
330
B6
100
AcDbScale
 70
     0
300
6" = 1'-0"
140
6.0
141
12.0
290
     0
  0
SCALE
  5
143
102
{ACAD_REACTORS
330
B6
102
}
330
B6
100
AcDbScale
 70
     0
300
1'-0" = 1'-0"
140
12.0
141
12.0
290
     0
  0
TABLESTYLE
  5
87
102
{ACAD_XDICTIONARY
360
104
102
}
102
{ACAD_REACTORS
330
86
102
}
330
86
100
AcDbTableStyle
  3
Standard
 70
     0
 71
     0
 40
0.06
 41
0.06
280
     0
281
     0
  7
Standard
140
0.18
170
     2
 62
     0
 63
     7
283
     0
274
    -2
284
     1
 64
     0
275
    -2
285
     1
 65
     0
276
    -2
286
     1
 66
     0
277
    -2
287
     1
 67
     0
278
    -2
288
     1
 68
     0
279
    -2
289
     1
 69
     0
  7
Standard
140
0.25
170
     5
 62
     0
 63
     7
283
     0
274
    -2
284
     1
 64
     0
275
    -2
285
     1
 65
     0
276
    -2
286
     1
 66
     0
277
    -2
287
     1
 67
     0
278
    -2
288
     1
 68
     0
279
    -2
289
     1
 69
     0
  7
Standard
140
0.18
170
     5
 62
     0
 63
     7
283
     0
274
    -2
284
     1
 64
     0
275
    -2
285
     1
 65
     0
276
    -2
286
     1
 66
     0
277
    -2
287
     1
 67
     0
278
    -2
288
     1
 68
     0
279
    -2
289
     1
 69
     0
  0
VISUALSTYLE
  5
9F
102
{ACAD_REACTORS
330
99
102
}
330
99
100
AcDbVisualStyle
  2
2dWireframe
 70
     4
 71
     0
 72
     2
 73
     1
 90
        0
 40
-0.6
 41
-30.0
 62
     5
 63
     7
 74
     1
 91
        4
 64
     7
 65
   257
 75
     1
175
     1
 42
1.0
 92
        0
 66
   257
 43
1.0
 76
     1
 77
     6
 78
     2
 67
     7
 79
     5
170
     0
171
     0
290
     0
174
     0
 93
        1
 44
0.0
173
     0
291
     0
 45
0.0
1001
ACAD
1000
AcDbSavedByObjectVersion
1070
     0
  0
VISUALSTYLE
  5
A1
102
{ACAD_REACTORS
330
99
102
}
330
99
100
AcDbVisualStyle
  2
3D Hidden
 70
     6
 71
     1
 72
     2
 73
     2
 90
        0
 40
-0.6
 41
-30.0
 62
     5
 63
     7
 74
     2
 91
        2
 64
     7
 65
   257
 75
     2
175
     1
 42
40.0
 92
        0
 66
   257
 43
1.0
 76
     1
 77
     6
 78
     2
 67
     7
 79
     3
170
     0
171
     0
290
     0
174
     0
 93
        1
 44
0.0
173
     0
291
     0
 45
0.0
1001
ACAD
1000
AcDbSavedByObjectVersion
1070
     0
  0
VISUALSTYLE
  5
A0
102
{ACAD_REACTORS
330
99
102
}
330
99
100
AcDbVisualStyle
  2
3dWireframe
 70
     5
 71
     0
 72
     2
 73
     1
 90
        0
 40
-0.6
 41
-30.0
 62
     5
 63
     7
 74
     1
 91
        4
 64
     7
 65
   257
 75
     1
175
     1
 42
1.0
 92
        0
 66
   257
 43
1.0
 76
     1
 77
     6
 78
     2
 67
     7
 79
     5
170
     0
171
     0
290
     0
174
     0
 93
        1
 44
0.0
173
     0
291
     0
 45
0.0
1001
ACAD
1000
AcDbSavedByObjectVersion
1070
     0
  0
VISUALSTYLE
  5
9E
102
{ACAD_REACTORS
330
99
102
}
330
99
100
AcDbVisualStyle
  2
Basic
 70
     7
 71
     1
 72
     0
 73
     1
 90
        0
 40
-0.6
 41
-30.0
 62
     5
 63
     7
 74
     0
 91
        4
 64
     7
 65
   257
 75
     1
175
     1
 42
1.0
 92
        8
 66
     7
 43
1.0
 76
     1
 77
     6
 78
     2
 67
     7
 79
     5
170
     0
171
     0
290
     0
174
     0
 93
        1
 44
0.0
173
     0
291
     1
 45
0.0
1001
ACAD
1000
AcDbSavedByObjectVersion
1070
     0
  0
VISUALSTYLE
  5
A5
102
{ACAD_REACTORS
330
99
102
}
330
99
100
AcDbVisualStyle
  2
Brighten
 70
    12
 71
     2
 72
     2
 73
     1
 90
        0
 40
-0.6
 41
-30.0
 62
     5
 63
     7
 74
     1
 91
        4
 64
     7
 65
   257
 75
     1
175
     1
 42
1.0
 92
        8
 66
     7
 43
1.0
 76
     1
 77
     6
 78
     2
 67
     7
 79
     5
170
     0
171
     0
290
     0
174
     0
 93
        1
 44
50.0
173
     0
291
     1
 45
0.0
1001
ACAD
1000
AcDbSavedByObjectVersion
1070
     0
  0
VISUALSTYLE
  5
A9
102
{ACAD_REACTORS
330
99
102
}
330
99
100
AcDbVisualStyle
  2
ColorChange
 70
    16
 71
     2
 72
     2
 73
     3
 90
        0
 40
-0.6
 41
-30.0
 62
     5
 63
     8
 74
     1
 91
        4
 64
     7
 65
   257
 75
     1
175
     1
 42
1.0
 92
        8
 66
     8
 43
1.0
 76
     1
 77
     6
 78
     2
 67
     7
 79
     5
170
     0
171
     0
290
     0
174
     0
 93
        1
 44
0.0
173
     0
291
     1
 45
0.0
1001
ACAD
1000
AcDbSavedByObjectVersion
1070
     0
  0
VISUALSTYLE
  5
A2
102
{ACAD_REACTORS
330
99
102
}
330
99
100
AcDbVisualStyle
  2
Conceptual
 70
     9
 71
     3
 72
     2
 73
     1
 90
        0
 40
-0.6
 41
-30.0
 62
     5
 63
     7
 74
     2
 91
        2
 64
     7
 65
   257
 75
     1
175
     1
 42
40.0
 92
        8
 66
     7
 43
1.0
 76
     1
 77
     6
 78
     2
 67
     7
 79
     3
170
     0
171
     0
290
     0
174
     0
 93
        1
 44
0.0
173
     0
291
     0
 45
0.0
1001
ACAD
1000
AcDbSavedByObjectVersion
1070
     0
  0
VISUALSTYLE
  5
A4
102
{ACAD_REACTORS
330
99
102
}
330
99
100
AcDbVisualStyle
  2
Dim
 70
    11
 71
     2
 72
     2
 73
     1
 90
        0
 40
-0.6
 41
-30.0
 62
     5
 63
     7
 74
     1
 91
        4
 64
     7
 65
   257
 75
     1
175
     1
 42
1.0
 92
        8
 66
     7
 43
1.0
 76
     1
 77
     6
 78
     2
 67
     7
 79
     5
170
     0
171
     0
290
     0
174
     0
 93
        1
 44
-50.0
173
     0
291
     1
 45
0.0
1001
ACAD
1000
AcDbSavedByObjectVersion
1070
     0
  0
VISUALSTYLE
  5
A8
102
{ACAD_REACTORS
330
99
102
}
330
99
100
AcDbVisualStyle
  2
Facepattern
 70
    15
 71
     2
 72
     2
 73
     1
 90
        0
 40
-0.6
 41
-30.0
 62
     5
 63
     7
 74
     1
 91
        4
 64
     7
 65
   257
 75
     1
175
     1
 42
1.0
 92
        8
 66
     7
 43
1.0
 76
     1
 77
     6
 78
     2
 67
     7
 79
     5
170
     0
171
     0
290
     0
174
     0
 93
        1
 44
0.0
173
     0
291
     1
 45
0.0
1001
ACAD
1000
AcDbSavedByObjectVersion
1070
     0
  0
VISUALSTYLE
  5
9A
102
{ACAD_REACTORS
330
99
102
}
330
99
100
AcDbVisualStyle
  2
Flat
 70
     0
 71
     2
 72
     1
 73
     1
 90
        2
 40
-0.6
 41
30.0
 62
     5
 63
     7
 74
     0
 91
        4
 64
     7
 65
   257
 75
     1
175
     1
 42
1.0
 92
        8
 66
     7
 43
1.0
 76
     1
 77
     6
 78
     2
 67
     7
 79
     5
170
     0
171
     0
290
     0
174
     0
 93
        1
 44
0.0
173
     0
291
     1
 45
0.0
1001
ACAD
1000
AcDbSavedByObjectVersion
1070
     0
  0
VISUALSTYLE
  5
9B
102
{ACAD_REACTORS
330
99
102
}
330
99
100
AcDbVisualStyle
  2
FlatWithEdges
 70
     1
 71
     2
 72
     1
 73
     1
 90
        2
 40
-0.6
 41
30.0
 62
     5
 63
     7
 74
     1
 91
        4
 64
     7
 65
   257
 75
     1
175
     1
 42
1.0
 92
        0
 66
   257
 43
1.0
 76
     1
 77
     6
 78
     2
 67
     7
 79
     5
170
     0
171
     0
290
     0
174
     0
 93
        1
 44
0.0
173
     0
291
     1
 45
0.0
1001
ACAD
1000
AcDbSavedByObjectVersion
1070
     0
  0
VISUALSTYLE
  5
9C
102
{ACAD_REACTORS
330
99
102
}
330
99
100
AcDbVisualStyle
  2
Gouraud
 70
     2
 71
     2
 72
     2
 73
     1
 90
        2
 40
-0.6
 41
30.0
 62
     5
 63
     7
 74
     0
 91
        4
 64
     7
 65
   257
 75
     1
175
     1
 42
1.0
 92
        0
 66
     7
 43
1.0
 76
     1
 77
     6
 78
     2
 67
     7
 79
     5
170
     0
171
     0
290
     0
174
     0
 93
        1
 44
0.0
173
     0
291
     1
 45
0.0
1001
ACAD
1000
AcDbSavedByObjectVersion
1070
     0
  0
VISUALSTYLE
  5
9D
102
{ACAD_REACTORS
330
99
102
}
330
99
100
AcDbVisualStyle
  2
GouraudWithEdges
 70
     3
 71
     2
 72
     2
 73
     1
 90
        2
 40
-0.6
 41
30.0
 62
     5
 63
     7
 74
     1
 91
        4
 64
     7
 65
   257
 75
     1
175
     1
 42
1.0
 92
        0
 66
   257
 43
1.0
 76
     1
 77
     6
 78
     2
 67
     7
 79
     5
170
     0
171
     0
290
     0
174
     0
 93
        1
 44
0.0
173
     0
291
     1
 45
0.0
1001
ACAD
1000
AcDbSavedByObjectVersion
1070
     0
  0
VISUALSTYLE
  5
A7
102
{ACAD_REACTORS
330
99
102
}
330
99
100
AcDbVisualStyle
  2
Linepattern
 70
    14
 71
     2
 72
     2
 73
     1
 90
        0
 40
-0.6
 41
-30.0
 62
     5
 63
     7
 74
     1
 91
        4
 64
     7
 65
   257
 75
     7
175
     7
 42
1.0
 92
        8
 66
     7
 43
1.0
 76
     1
 77
     6
 78
     2
 67
     7
 79
     5
170
     0
171
     0
290
     0
174
     0
 93
        1
 44
0.0
173
     0
291
     1
 45
0.0
1001
ACAD
1000
AcDbSavedByObjectVersion
1070
     0
  0
VISUALSTYLE
  5
A3
102
{ACAD_REACTORS
330
99
102
}
330
99
100
AcDbVisualStyle
  2
Realistic
 70
     8
 71
     2
 72
     2
 73
     1
 90
        0
 40
-0.6
 41
-30.0
 62
     5
 63
     7
 74
     1
 91
        0
 64
     7
 65
   257
 75
     1
175
     1
 42
1.0
 92
        8
 66
     8
 43
1.0
 76
     1
 77
     6
 78
     2
 67
     7
 79
     5
170
     0
171
     0
290
     0
174
     0
 93
       13
 44
0.0
173
     0
291
     0
 45
0.0
1001
ACAD
1000
AcDbSavedByObjectVersion
1070
     0
  0
VISUALSTYLE
  5
A6
102
{ACAD_REACTORS
330
99
102
}
330
99
100
AcDbVisualStyle
  2
Thicken
 70
    13
 71
     2
 72
     2
 73
     1
 90
        0
 40
-0.6
 41
-30.0
 62
     5
 63
     7
 74
     1
 91
        4
 64
     7
 65
   257
 75
     1
175
     1
 42
1.0
 92
       12
 66
     7
 43
1.0
 76
     1
 77
     6
 78
     2
 67
     7
 79
     5
170
     0
171
     0
290
     0
174
     0
 93
        1
 44
0.0
173
     0
291
     1
 45
0.0
1001
ACAD
1000
AcDbSavedByObjectVersion
1070
     0
  0
DICTIONARYVAR
  5
F0
102
{ACAD_REACTORS
330
66
102
}
330
66
100
DictionaryVariables
280
     0
  1
1:1
  0
DICTIONARYVAR
  5
EF
102
{ACAD_REACTORS
330
66
102
}
330
66
100
DictionaryVariables
280
     0
  1
STANDARD
  0
DICTIONARYVAR
  5
89
102
{ACAD_REACTORS
330
66
102
}
330
66
100
DictionaryVariables
280
     0
  1
STANDARD
  0
DICTIONARYVAR
  5
67
102
{ACAD_REACTORS
330
66
102
}
330
66
100
DictionaryVariables
280
     0
  1
2
  0
DICTIONARYVAR
  5
6B
102
{ACAD_REACTORS
330
66
102
}
330
66
100
DictionaryVariables
280
     0
  1
1
  0
DICTIONARYVAR
  5
45C
102
{ACAD_REACTORS
330
66
102
}
330
66
100
DictionaryVariables
280
     0
  1
0
  0
DICTIONARYVAR
  5
45A
102
{ACAD_REACTORS
330
66
102
}
330
66
100
DictionaryVariables
280
     0
  1
2
  0
DICTIONARYVAR
  5
459
102
{ACAD_REACTORS
330
66
102
}
330
66
100
DictionaryVariables
280
     0
  1
1
  0
DICTIONARYVAR
  5
45B
102
{ACAD_REACTORS
330
66
102
}
330
66
100
DictionaryVariables
280
     0
  1
127
  0
DICTIONARY
  5
461
330
59
100
AcDbDictionary
280
     1
281
     1
  3
ACAD_XREC_ROUNDTRIP
360
462
  0
DICTIONARY
  5
463
330
5E
100
AcDbDictionary
280
     1
281
     1
  3
ACAD_XREC_ROUNDTRIP
360
464
  0
DICTIONARY
  5
45F
330
22
100
AcDbDictionary
280
     1
281
     1
  3
ACAD_XREC_ROUNDTRIP
360
460
  0
DICTIONARY
  5
468
330
97
100
AcDbDictionary
280
     1
281
     1
  3
ACAD_XREC_ROUNDTRIP
360
469
  0
DICTIONARY
  5
466
330
96
100
AcDbDictionary
280
     1
281
     1
  3
ACAD_XREC_ROUNDTRIP
360
467
  0
DICTIONARY
  5
110
330
98
100
AcDbDictionary
280
     1
281
     1
  3
ACAD_XREC_ROUNDTRIP
360
46A
  3
BUMPTILE
360
112
  3
DIFFUSETILE
360
111
  3
OPACITYTILE
360
113
  3
REFLECTIONTILE
360
114
  0
DICTIONARY
  5
104
330
87
100
AcDbDictionary
280
     1
281
     1
  3
ACAD_ROUNDTRIP_2008_TABLESTYLE_CELLSTYLEMAP
360
45D
  3
ACAD_XREC_ROUNDTRIP
360
465
  0
XRECORD
  5
462
102
{ACAD_REACTORS
330
461
102
}
330
461
100
AcDbXrecord
280
     1
102
SHADEPLOT
 70
     0
102
SHADEPLOTRESLEVEL
 70
     2
102
SHADEPLOTCUSTOMDPI
 70
   300
  0
XRECORD
  5
464
102
{ACAD_REACTORS
330
463
102
}
330
463
100
AcDbXrecord
280
     1
102
SHADEPLOT
 70
     0
102
SHADEPLOTRESLEVEL
 70
     2
102
SHADEPLOTCUSTOMDPI
 70
   300
  0
XRECORD
  5
460
102
{ACAD_REACTORS
330
45F
102
}
330
45F
100
AcDbXrecord
280
     1
102
SHADEPLOT
 70
     0
102
SHADEPLOTRESLEVEL
 70
     2
102
SHADEPLOTCUSTOMDPI
 70
   300
  0
XRECORD
  5
469
102
{ACAD_REACTORS
330
468
102
}
330
468
100
AcDbXrecord
280
     1
102
MATERIAL
148
0.0
149
0.0
149
0.0
 93
        0
 94
       63
282
     0
 72
     1
 77
     1
171
     1
175
     1
179
     1
273
     0
  0
XRECORD
  5
467
102
{ACAD_REACTORS
330
466
102
}
330
466
100
AcDbXrecord
280
     1
102
MATERIAL
148
0.0
149
0.0
149
0.0
 93
        0
 94
       63
282
     0
 72
     1
 77
     1
171
     1
175
     1
179
     1
273
     0
  0
XRECORD
  5
46A
102
{ACAD_REACTORS
330
110
102
}
330
110
100
AcDbXrecord
280
     1
102
MATERIAL
148
0.0
149
0.0
149
0.0
 93
        0
 94
       63
282
     0
 72
     1
 77
     1
171
     1
175
     1
179
     1
273
     0
  0
XRECORD
  5
112
102
{ACAD_REACTORS
330
110
102
}
330
110
100
AcDbXrecord
280
     1
270
     1
271
     1
  0
XRECORD
  5
111
102
{ACAD_REACTORS
330
110
102
}
330
110
100
AcDbXrecord
280
     1
270
     1
271
     1
  0
XRECORD
  5
113
102
{ACAD_REACTORS
330
110
102
}
330
110
100
AcDbXrecord
280
     1
270
     1
271
     1
  0
XRECORD
  5
114
102
{ACAD_REACTORS
330
110
102
}
330
110
100
AcDbXrecord
280
     1
270
     1
271
     1
  0
CELLSTYLEMAP
  5
45D
102
{ACAD_REACTORS
330
104
102
}
330
104
100
AcDbCellStyleMap
 90
        3
300
CELLSTYLE
  1
TABLEFORMAT_BEGIN
 90
        5
170
     1
 91
        0
 92
    32768
 62
   257
 93
        1
300
CONTENTFORMAT
  1
CONTENTFORMAT_BEGIN
 90
        0
 91
        0
 92
      512
 93
        0
300

 40
0.0
140
1.0
 94
        5
 62
     0
340
11
144
0.25
309
CONTENTFORMAT_END
171
     1
301
MARGIN
  1
CELLMARGIN_BEGIN
 40
0.06
 40
0.06
 40
0.06
 40
0.06
 40
0.18
 40
0.18
309
CELLMARGIN_END
 94
        6
 95
        1
302
GRIDFORMAT
  1
GRIDFORMAT_BEGIN
 90
        0
 91
        1
 62
     0
 92
       -2
340
0
 93
        0
 40
0.045
309
GRIDFORMAT_END
 95
        2
302
GRIDFORMAT
  1
GRIDFORMAT_BEGIN
 90
        0
 91
        1
 62
     0
 92
       -2
340
0
 93
        0
 40
0.045
309
GRIDFORMAT_END
 95
        4
302
GRIDFORMAT
  1
GRIDFORMAT_BEGIN
 90
        0
 91
        1
 62
     0
 92
       -2
340
0
 93
        0
 40
0.045
309
GRIDFORMAT_END
 95
        8
302
GRIDFORMAT
  1
GRIDFORMAT_BEGIN
 90
        0
 91
        1
 62
     0
 92
       -2
340
0
 93
        0
 40
0.045
309
GRIDFORMAT_END
 95
       16
302
GRIDFORMAT
  1
GRIDFORMAT_BEGIN
 90
        0
 91
        1
 62
     0
 92
       -2
340
0
 93
        0
 40
0.045
309
GRIDFORMAT_END
 95
       32
302
GRIDFORMAT
  1
GRIDFORMAT_BEGIN
 90
        0
 91
        1
 62
     0
 92
       -2
340
0
 93
        0
 40
0.045
309
GRIDFORMAT_END
309
TABLEFORMAT_END
  1
CELLSTYLE_BEGIN
 90
        1
 91
        1
300
_TITLE
309
CELLSTYLE_END
300
CELLSTYLE
  1
TABLEFORMAT_BEGIN
 90
        5
170
     1
 91
        0
 92
        0
 62
   257
 93
        1
300
CONTENTFORMAT
  1
CONTENTFORMAT_BEGIN
 90
        0
 91
        0
 92
      512
 93
        0
300

 40
0.0
140
1.0
 94
        5
 62
     0
340
11
144
0.18
309
CONTENTFORMAT_END
171
     1
301
MARGIN
  1
CELLMARGIN_BEGIN
 40
0.06
 40
0.06
 40
0.06
 40
0.06
 40
0.18
 40
0.18
309
CELLMARGIN_END
 94
        6
 95
        1
302
GRIDFORMAT
  1
GRIDFORMAT_BEGIN
 90
        0
 91
        1
 62
     0
 92
       -2
340
0
 93
        0
 40
0.045
309
GRIDFORMAT_END
 95
        2
302
GRIDFORMAT
  1
GRIDFORMAT_BEGIN
 90
        0
 91
        1
 62
     0
 92
       -2
340
0
 93
        0
 40
0.045
309
GRIDFORMAT_END
 95
        4
302
GRIDFORMAT
  1
GRIDFORMAT_BEGIN
 90
        0
 91
        1
 62
     0
 92
       -2
340
0
 93
        0
 40
0.045
309
GRIDFORMAT_END
 95
        8
302
GRIDFORMAT
  1
GRIDFORMAT_BEGIN
 90
        0
 91
        1
 62
     0
 92
       -2
340
0
 93
        0
 40
0.045
309
GRIDFORMAT_END
 95
       16
302
GRIDFORMAT
  1
GRIDFORMAT_BEGIN
 90
        0
 91
        1
 62
     0
 92
       -2
340
0
 93
        0
 40
0.045
309
GRIDFORMAT_END
 95
       32
302
GRIDFORMAT
  1
GRIDFORMAT_BEGIN
 90
        0
 91
        1
 62
     0
 92
       -2
340
0
 93
        0
 40
0.045
309
GRIDFORMAT_END
309
TABLEFORMAT_END
  1
CELLSTYLE_BEGIN
 90
        2
 91
        1
300
_HEADER
309
CELLSTYLE_END
300
CELLSTYLE
  1
TABLEFORMAT_BEGIN
 90
        5
170
     1
 91
        0
 92
        0
 62
   257
 93
        1
300
CONTENTFORMAT
  1
CONTENTFORMAT_BEGIN
 90
        0
 91
        0
 92
      512
 93
        0
300

 40
0.0
140
1.0
 94
        2
 62
     0
340
11
144
0.18
309
CONTENTFORMAT_END
171
     1
301
MARGIN
  1
CELLMARGIN_BEGIN
 40
0.06
 40
0.06
 40
0.06
 40
0.06
 40
0.18
 40
0.18
309
CELLMARGIN_END
 94
        6
 95
        1
302
GRIDFORMAT
  1
GRIDFORMAT_BEGIN
 90
        0
 91
        1
 62
     0
 92
       -2
340
0
 93
        0
 40
0.045
309
GRIDFORMAT_END
 95
        2
302
GRIDFORMAT
  1
GRIDFORMAT_BEGIN
 90
        0
 91
        1
 62
     0
 92
       -2
340
0
 93
        0
 40
0.045
309
GRIDFORMAT_END
 95
        4
302
GRIDFORMAT
  1
GRIDFORMAT_BEGIN
 90
        0
 91
        1
 62
     0
 92
       -2
340
0
 93
        0
 40
0.045
309
GRIDFORMAT_END
 95
        8
302
GRIDFORMAT
  1
GRIDFORMAT_BEGIN
 90
        0
 91
        1
 62
     0
 92
       -2
340
0
 93
        0
 40
0.045
309
GRIDFORMAT_END
 95
       16
302
GRIDFORMAT
  1
GRIDFORMAT_BEGIN
 90
        0
 91
        1
 62
     0
 92
       -2
340
0
 93
        0
 40
0.045
309
GRIDFORMAT_END
 95
       32
302
GRIDFORMAT
  1
GRIDFORMAT_BEGIN
 90
        0
 91
        1
 62
     0
 92
       -2
340
0
 93
        0
 40
0.045
309
GRIDFORMAT_END
309
TABLEFORMAT_END
  1
CELLSTYLE_BEGIN
 90
        3
 91
        2
300
_DATA
309
CELLSTYLE_END
  0
XRECORD
  5
465
102
{ACAD_REACTORS
330
104
102
}
330
104
100
AcDbXrecord
280
     1
102
ACAD_ROUNDTRIP_PRE2007_TABLESTYLE
 90
      512
 91
        0
  1

 92
      512
 93
        0
  2

 94
      512
 95
        0
  3

  0
ENDSEC
  0
EOF
