  0
SECTION
  2
HEADER
  9
$ACADVER
  1
AC1015
  9
$ACADMAINTVER
 70
    20
  9
$DWGCODEPAGE
  3
ANSI_1252
  9
$INSBASE
 10
0.0
 20
0.0
 30
0.0
  9
$EXTMIN
 10
-7.492135962521221
 20
15.92266378352526
 30
0.0
  9
$EXTMAX
 10
369.6212286274239
 20
402.2646381735253
 30
0.0
  9
$LIMMIN
 10
0.0
 20
0.0
  9
$LIMMAX
 10
12.0
 20
9.0
  9
$ORTHOMODE
 70
     0
  9
$REGENMODE
 70
     1
  9
$FILLMODE
 70
     1
  9
$QTEXTMODE
 70
     0
  9
$MIRRTEXT
 70
     0
  9
$LTSCALE
 40
1.0
  9
$ATTMODE
 70
     1
  9
$TEXTSIZE
 40
0.2
  9
$TRACEWID
 40
0.05
  9
$TEXTSTYLE
  7
Standard
  9
$CLAYER
  8
0
  9
$CELTYPE
  6
ByLayer
  9
$CECOLOR
 62
   256
  9
$CELTSCALE
 40
1.0
  9
$DISPSILH
 70
     0
  9
$DIMSCALE
 40
1.0
  9
$DIMASZ
 40
0.18
  9
$DIMEXO
 40
0.0625
  9
$DIMDLI
 40
0.38
  9
$DIMRND
 40
0.0
  9
$DIMDLE
 40
0.0
  9
$DIMEXE
 40
0.18
  9
$DIMTP
 40
0.0
  9
$DIMTM
 40
0.0
  9
$DIMTXT
 40
0.18
  9
$DIMCEN
 40
0.09
  9
$DIMTSZ
 40
0.0
  9
$DIMTOL
 70
     0
  9
$DIMLIM
 70
     0
  9
$DIMTIH
 70
     1
  9
$DIMTOH
 70
     1
  9
$DIMSE1
 70
     0
  9
$DIMSE2
 70
     0
  9
$DIMTAD
 70
     0
  9
$DIMZIN
 70
     0
  9
$DIMBLK
  1

  9
$DIMASO
 70
     1
  9
$DIMSHO
 70
     1
  9
$DIMPOST
  1

  9
$DIMAPOST
  1

  9
$DIMALT
 70
     0
  9
$DIMALTD
 70
     2
  9
$DIMALTF
 40
25.4
  9
$DIMLFAC
 40
1.0
  9
$DIMTOFL
 70
     0
  9
$DIMTVP
 40
0.0
  9
$DIMTIX
 70
     0
  9
$DIMSOXD
 70
     0
  9
$DIMSAH
 70
     0
  9
$DIMBLK1
  1

  9
$DIMBLK2
  1

  9
$DIMSTYLE
  2
Standard
  9
$DIMCLRD
 70
     0
  9
$DIMCLRE
 70
     0
  9
$DIMCLRT
 70
     0
  9
$DIMTFAC
 40
1.0
  9
$DIMGAP
 40
0.09
  9
$DIMJUST
 70
     0
  9
$DIMSD1
 70
     0
  9
$DIMSD2
 70
     0
  9
$DIMTOLJ
 70
     1
  9
$DIMTZIN
 70
     0
  9
$DIMALTZ
 70
     0
  9
$DIMALTTZ
 70
     0
  9
$DIMUPT
 70
     0
  9
$DIMDEC
 70
     4
  9
$DIMTDEC
 70
     4
  9
$DIMALTU
 70
     2
  9
$DIMALTTD
 70
     2
  9
$DIMTXSTY
  7
Standard
  9
$DIMAUNIT
 70
     0
  9
$DIMADEC
 70
     0
  9
$DIMALTRND
 40
0.0
  9
$DIMAZIN
 70
     0
  9
$DIMDSEP
 70
    46
  9
$DIMATFIT
 70
     3
  9
$DIMFRAC
 70
     0
  9
$DIMLDRBLK
  1

  9
$DIMLUNIT
 70
     2
  9
$DIMLWD
 70
    -2
  9
$DIMLWE
 70
    -2
  9
$DIMTMOVE
 70
     0
  9
$LUNITS
 70
     2
  9
$LUPREC
 70
     4
  9
$SKETCHINC
 40
0.1
  9
$FILLETRAD
 40
0.0
  9
$AUNITS
 70
     0
  9
$AUPREC
 70
     0
  9
$MENU
  1
.
  9
$ELEVATION
 40
0.0
  9
$PELEVATION
 40
0.0
  9
$THICKNESS
 40
0.0
  9
$LIMCHECK
 70
     0
  9
$CHAMFERA
 40
0.0
  9
$CHAMFERB
 40
0.0
  9
$CHAMFERC
 40
0.0
  9
$CHAMFERD
 40
0.0
  9
$SKPOLY
 70
     0
  9
$TDCREATE
 40
2455511.359040660
  9
$TDUCREATE
 40
2455511.317373993
  9
$TDUPDATE
 40
2455511.359378311
  9
$TDUUPDATE
 40
2455511.317711644
  9
$TDINDWG
 40
0.0003378241
  9
$TDUSRTIMER
 40
0.0003378241
  9
$USRTIMER
 70
     1
  9
$ANGBASE
 50
0.0
  9
$ANGDIR
 70
     0
  9
$PDMODE
 70
     0
  9
$PDSIZE
 40
0.0
  9
$PLINEWID
 40
0.0
  9
$SPLFRAME
 70
     0
  9
$SPLINETYPE
 70
     6
  9
$SPLINESEGS
 70
     8
  9
$HANDSEED
  5
42C
  9
$SURFTAB1
 70
     6
  9
$SURFTAB2
 70
     6
  9
$SURFTYPE
 70
     6
  9
$SURFU
 70
     6
  9
$SURFV
 70
     6
  9
$UCSBASE
  2

  9
$UCSNAME
  2

  9
$UCSORG
 10
0.0
 20
0.0
 30
0.0
  9
$UCSXDIR
 10
1.0
 20
0.0
 30
0.0
  9
$UCSYDIR
 10
0.0
 20
1.0
 30
0.0
  9
$UCSORTHOREF
  2

  9
$UCSORTHOVIEW
 70
     0
  9
$UCSORGTOP
 10
0.0
 20
0.0
 30
0.0
  9
$UCSORGBOTTOM
 10
0.0
 20
0.0
 30
0.0
  9
$UCSORGLEFT
 10
0.0
 20
0.0
 30
0.0
  9
$UCSORGRIGHT
 10
0.0
 20
0.0
 30
0.0
  9
$UCSORGFRONT
 10
0.0
 20
0.0
 30
0.0
  9
$UCSORGBACK
 10
0.0
 20
0.0
 30
0.0
  9
$PUCSBASE
  2

  9
$PUCSNAME
  2

  9
$PUCSORG
 10
0.0
 20
0.0
 30
0.0
  9
$PUCSXDIR
 10
1.0
 20
0.0
 30
0.0
  9
$PUCSYDIR
 10
0.0
 20
1.0
 30
0.0
  9
$PUCSORTHOREF
  2

  9
$PUCSORTHOVIEW
 70
     0
  9
$PUCSORGTOP
 10
0.0
 20
0.0
 30
0.0
  9
$PUCSORGBOTTOM
 10
0.0
 20
0.0
 30
0.0
  9
$PUCSORGLEFT
 10
0.0
 20
0.0
 30
0.0
  9
$PUCSORGRIGHT
 10
0.0
 20
0.0
 30
0.0
  9
$PUCSORGFRONT
 10
0.0
 20
0.0
 30
0.0
  9
$PUCSORGBACK
 10
0.0
 20
0.0
 30
0.0
  9
$USERI1
 70
     0
  9
$USERI2
 70
     0
  9
$USERI3
 70
     0
  9
$USERI4
 70
     0
  9
$USERI5
 70
     0
  9
$USERR1
 40
0.0
  9
$USERR2
 40
0.0
  9
$USERR3
 40
0.0
  9
$USERR4
 40
0.0
  9
$USERR5
 40
0.0
  9
$WORLDVIEW
 70
     1
  9
$SHADEDGE
 70
     3
  9
$SHADEDIF
 70
    70
  9
$TILEMODE
 70
     1
  9
$MAXACTVP
 70
    64
  9
$PINSBASE
 10
0.0
 20
0.0
 30
0.0
  9
$PLIMCHECK
 70
     0
  9
$PEXTMIN
 10
0.0
 20
0.0
 30
0.0
  9
$PEXTMAX
 10
0.0
 20
0.0
 30
0.0
  9
$PLIMMIN
 10
0.0
 20
0.0
  9
$PLIMMAX
 10
12.0
 20
9.0
  9
$UNITMODE
 70
     0
  9
$VISRETAIN
 70
     1
  9
$PLINEGEN
 70
     0
  9
$PSLTSCALE
 70
     1
  9
$TREEDEPTH
 70
  3020
  9
$CMLSTYLE
  2
Standard
  9
$CMLJUST
 70
     0
  9
$CMLSCALE
 40
1.0
  9
$PROXYGRAPHICS
 70
     1
  9
$MEASUREMENT
 70
     0
  9
$CELWEIGHT
370
    -1
  9
$ENDCAPS
280
     0
  9
$JOINSTYLE
280
     0
  9
$LWDISPLAY
290
     0
  9
$INSUNITS
 70
     1
  9
$HYPERLINKBASE
  1

  9
$STYLESHEET
  1

  9
$XEDIT
290
     1
  9
$CEPSNTYPE
380
     0
  9
$PSTYLEMODE
290
     1
  9
$FINGERPRINTGUID
  2
{B74A63AF-9BDB-4F7D-B727-50C7B4922E4E}
  9
$VERSIONGUID
  2
{1AD5ABB7-C74D-47BB-8E95-79987F38AEC9}
  9
$EXTNAMES
290
     1
  9
$PSVPSCALE
 40
0.0
  9
$OLESTARTUP
290
     0
  0
ENDSEC
  0
SECTION
  2
CLASSES
  0
CLASS
  1
ACDBDICTIONARYWDFLT
  2
AcDbDictionaryWithDefault
  3
ObjectDBX Classes
 90
        0
280
     0
281
     0
  0
CLASS
  1
ACDBPLACEHOLDER
  2
AcDbPlaceHolder
  3
ObjectDBX Classes
 90
        0
280
     0
281
     0
  0
CLASS
  1
LAYOUT
  2
AcDbLayout
  3
ObjectDBX Classes
 90
        0
280
     0
281
     0
  0
CLASS
  1
DICTIONARYVAR
  2
AcDbDictionaryVar
  3
ObjectDBX Classes
 90
        0
280
     0
281
     0
  0
CLASS
  1
TABLESTYLE
  2
AcDbTableStyle
  3
ObjectDBX Classes
 90
     4095
280
     0
281
     0
  0
CLASS
  1
MATERIAL
  2
AcDbMaterial
  3
ObjectDBX Classes
 90
     1153
280
     0
281
     0
  0
CLASS
  1
VISUALSTYLE
  2
AcDbVisualStyle
  3
ObjectDBX Classes
 90
     4095
280
     0
281
     0
  0
CLASS
  1
SCALE
  2
AcDbScale
  3
ObjectDBX Classes
 90
     1153
280
     0
281
     0
  0
CLASS
  1
MLEADERSTYLE
  2
AcDbMLeaderStyle
  3
ACDB_MLEADERSTYLE_CLASS
 90
     4095
280
     0
281
     0
  0
CLASS
  1
CELLSTYLEMAP
  2
AcDbCellStyleMap
  3
ObjectDBX Classes
 90
     1152
280
     0
281
     0
  0
ENDSEC
  0
SECTION
  2
TABLES
  0
TABLE
  2
VPORT
  5
8
330
0
100
AcDbSymbolTable
 70
     1
  0
VPORT
  5
94
330
8
100
AcDbSymbolTableRecord
100
AcDbViewportTableRecord
  2
*Active
 70
     0
 10
0.0
 20
0.0
 11
1.0
 21
1.0
 12
461.4103907770765
 22
133.2550777964674
 13
0.0
 23
0.0
 14
0.5
 24
0.5
 15
0.5
 25
0.5
 16
0.0
 26
0.0
 36
1.0
 17
0.0
 27
0.0
 37
0.0
 40
996.6003052168007
 41
1.148760330578512
 42
50.0
 43
0.0
 44
0.0
 50
0.0
 51
0.0
 71
     0
 72
  1000
 73
     1
 74
     3
 75
     0
 76
     0
 77
     0
 78
     0
281
     0
 65
     1
110
0.0
120
0.0
130
0.0
111
1.0
121
0.0
131
0.0
112
0.0
122
1.0
132
0.0
 79
     0
146
0.0
  0
ENDTAB
  0
TABLE
  2
LTYPE
  5
5
330
0
100
AcDbSymbolTable
 70
     1
  0
LTYPE
  5
14
330
5
100
AcDbSymbolTableRecord
100
AcDbLinetypeTableRecord
  2
ByBlock
 70
     0
  3

 72
    65
 73
     0
 40
0.0
  0
LTYPE
  5
15
330
5
100
AcDbSymbolTableRecord
100
AcDbLinetypeTableRecord
  2
ByLayer
 70
     0
  3

 72
    65
 73
     0
 40
0.0
  0
LTYPE
  5
16
330
5
100
AcDbSymbolTableRecord
100
AcDbLinetypeTableRecord
  2
Continuous
 70
     0
  3
Solid line
 72
    65
 73
     0
 40
0.0
  0
ENDTAB
  0
TABLE
  2
LAYER
  5
2
330
0
100
AcDbSymbolTable
 70
     3
  0
LAYER
  5
10
102
{ACAD_XDICTIONARY
360
E6
102
}
330
2
100
AcDbSymbolTableRecord
100
AcDbLayerTableRecord
  2
0
 70
     0
 62
     7
  6
Continuous
370
    -3
390
F
  0
LAYER
  5
16B
102
{ACAD_XDICTIONARY
360
418
102
}
330
2
100
AcDbSymbolTableRecord
100
AcDbLayerTableRecord
  2
QUOTE
 70
     0
 62
     7
  6
Continuous
370
    -3
390
F
1001
AcAecLayerStandard
1000

1000

  0
LAYER
  5
3DB
330
2
100
AcDbSymbolTableRecord
100
AcDbLayerTableRecord
  2
Defpoints
 70
     0
 62
     7
  6
Continuous
290
     0
370
    -3
390
F
  0
ENDTAB
  0
TABLE
  2
STYLE
  5
3
330
0
100
AcDbSymbolTable
 70
     2
  0
STYLE
  5
11
330
3
100
AcDbSymbolTableRecord
100
AcDbTextStyleTableRecord
  2
Standard
 70
     0
 40
0.0
 41
1.0
 50
0.0
 71
     0
 42
0.2
  3
txt.shx
  4

  0
STYLE
  5
DC
330
3
100
AcDbSymbolTableRecord
100
AcDbTextStyleTableRecord
  2
Annotativa
 70
     0
 40
0.0
 41
1.0
 50
0.0
 71
     0
 42
0.2
  3
txt.shx
  4

1001
AcadAnnotative
1000
AnnotativeData
1002
{
1070
     1
1070
     1
1002
}
  0
ENDTAB
  0
TABLE
  2
VIEW
  5
6
330
0
100
AcDbSymbolTable
 70
     1
  0
ENDTAB
  0
TABLE
  2
UCS
  5
7
330
0
100
AcDbSymbolTable
 70
     0
  0
ENDTAB
  0
TABLE
  2
APPID
  5
9
330
0
100
AcDbSymbolTable
 70
    14
  0
APPID
  5
12
330
9
100
AcDbSymbolTableRecord
100
AcDbRegAppTableRecord
  2
ACAD
 70
     0
  0
APPID
  5
DD
330
9
100
AcDbSymbolTableRecord
100
AcDbRegAppTableRecord
  2
AcadAnnoPO
 70
     0
  0
APPID
  5
DE
330
9
100
AcDbSymbolTableRecord
100
AcDbRegAppTableRecord
  2
AcadAnnotative
 70
     0
  0
APPID
  5
DF
330
9
100
AcDbSymbolTableRecord
100
AcDbRegAppTableRecord
  2
ACAD_DSTYLE_DIMJAG
 70
     0
  0
APPID
  5
E0
330
9
100
AcDbSymbolTableRecord
100
AcDbRegAppTableRecord
  2
ACAD_DSTYLE_DIMTALN
 70
     0
  0
APPID
  5
107
330
9
100
AcDbSymbolTableRecord
100
AcDbRegAppTableRecord
  2
ACAD_MLEADERVER
 70
     0
  0
APPID
  5
16C
330
9
100
AcDbSymbolTableRecord
100
AcDbRegAppTableRecord
  2
VDEXTRAPARAM
 70
     0
  0
APPID
  5
16D
330
9
100
AcDbSymbolTableRecord
100
AcDbRegAppTableRecord
  2
VD_TEMPHATCH
 70
     0
  0
APPID
  5
16E
330
9
100
AcDbSymbolTableRecord
100
AcDbRegAppTableRecord
  2
AcAecLayerStandard
 70
     0
  0
APPID
  5
16F
330
9
100
AcDbSymbolTableRecord
100
AcDbRegAppTableRecord
  2
VD_EX_PRINTER_DWG_STYLE_SHEET
 70
     0
  0
APPID
  5
170
330
9
100
AcDbSymbolTableRecord
100
AcDbRegAppTableRecord
  2
VD_EX_PRINTER_SIZEX
 70
     0
  0
APPID
  5
171
330
9
100
AcDbSymbolTableRecord
100
AcDbRegAppTableRecord
  2
VD_EX_PRINTER_AVSIZEX
 70
     0
  0
APPID
  5
172
330
9
100
AcDbSymbolTableRecord
100
AcDbRegAppTableRecord
  2
VD_EX_PRINTER_SIZEY
 70
     0
  0
APPID
  5
173
330
9
100
AcDbSymbolTableRecord
100
AcDbRegAppTableRecord
  2
VD_EX_PRINTER_AVSIZEY
 70
     0
  0
ENDTAB
  0
TABLE
  2
DIMSTYLE
  5
A
330
0
100
AcDbSymbolTable
 70
     2
100
AcDbDimStyleTable
 71
     2
340
27
340
E1
  0
DIMSTYLE
105
27
102
{ACAD_REACTORS
330
3B5
330
3B6
102
}
330
A
100
AcDbSymbolTableRecord
100
AcDbDimStyleTableRecord
  2
Standard
 70
     0
340
11
  0
DIMSTYLE
105
E1
330
A
100
AcDbSymbolTableRecord
100
AcDbDimStyleTableRecord
  2
Annotativa
 70
     0
 40
0.0
340
11
1001
AcadAnnotative
1000
AnnotativeData
1002
{
1070
     1
1070
     1
1002
}
1001
ACAD_DSTYLE_DIMJAG
1070
   388
1040
1.5
1001
ACAD_DSTYLE_DIMTALN
1070
   392
1070
     0
  0
ENDTAB
  0
TABLE
  2
BLOCK_RECORD
  5
1
330
0
100
AcDbSymbolTable
 70
     7
  0
BLOCK_RECORD
  5
1F
330
1
100
AcDbSymbolTableRecord
100
AcDbBlockTableRecord
  2
*Model_Space
340
22
  0
BLOCK_RECORD
  5
58
330
1
100
AcDbSymbolTableRecord
100
AcDbBlockTableRecord
  2
*Paper_Space
340
59
  0
BLOCK_RECORD
  5
5D
330
1
100
AcDbSymbolTableRecord
100
AcDbBlockTableRecord
  2
*Paper_Space0
340
5E
  0
BLOCK_RECORD
  5
14C
330
1
100
AcDbSymbolTableRecord
100
AcDbBlockTableRecord
  2
VDDIM_DEFAULT
340
0
  0
BLOCK_RECORD
  5
150
330
1
100
AcDbSymbolTableRecord
100
AcDbBlockTableRecord
  2
IB_oriz_NOFUS
340
0
102
{BLKREFS
331
2A4
331
2A5
331
3D9
331
3DA
102
}
  0
BLOCK_RECORD
  5
15F
330
1
100
AcDbSymbolTableRecord
100
AcDbBlockTableRecord
  2
*D3
340
0
  0
BLOCK_RECORD
  5
3DC
330
1
100
AcDbSymbolTableRecord
100
AcDbBlockTableRecord
  2
*D5
340
0
  0
BLOCK_RECORD
  5
3E9
330
1
100
AcDbSymbolTableRecord
100
AcDbBlockTableRecord
  2
*D6
340
0
  0
ENDTAB
  0
ENDSEC
  0
SECTION
  2
BLOCKS
  0
BLOCK
  5
20
330
1F
100
AcDbEntity
  8
0
100
AcDbBlockBegin
  2
*Model_Space
 70
     0
 10
0.0
 20
0.0
 30
0.0
  3
*Model_Space
  1

  0
ENDBLK
  5
21
330
1F
100
AcDbEntity
  8
0
100
AcDbBlockEnd
  0
BLOCK
  5
5A
330
58
100
AcDbEntity
 67
     1
  8
0
100
AcDbBlockBegin
  2
*Paper_Space
 70
     0
 10
0.0
 20
0.0
 30
0.0
  3
*Paper_Space
  1

  0
ENDBLK
  5
5B
330
58
100
AcDbEntity
 67
     1
  8
0
100
AcDbBlockEnd
  0
BLOCK
  5
5F
330
5D
100
AcDbEntity
 67
     1
  8
0
100
AcDbBlockBegin
  2
*Paper_Space0
 70
     0
 10
0.0
 20
0.0
 30
0.0
  3
*Paper_Space0
  1

  0
ENDBLK
  5
60
330
5D
100
AcDbEntity
 67
     1
  8
0
100
AcDbBlockEnd
  0
BLOCK
  5
14D
330
14C
100
AcDbEntity
  8
0
100
AcDbBlockBegin
  2
VDDIM_DEFAULT
 70
     0
 10
0.0
 20
0.0
 30
0.0
  3
VDDIM_DEFAULT
  1

  0
HATCH
  5
14E
330
14C
100
AcDbEntity
  8
0
  6
Continuous
 62
     0
370
    -2
100
AcDbHatch
 10
0.0
 20
0.0
 30
0.0
210
0.0
220
0.0
230
-1.0
  2
SOLID
 70
     1
 71
     0
 91
        1
 92
        2
 72
     0
 73
     1
 93
        3
 10
0.0
 20
0.0
 10
1.0
 20
-0.1665
 10
1.0
 20
0.1665
 97
        0
 75
     0
 76
     1
 98
        1
 10
0.0
 20
0.0
  0
ENDBLK
  5
14F
330
14C
100
AcDbEntity
  8
0
100
AcDbBlockEnd
  0
BLOCK
  5
151
330
150
100
AcDbEntity
  8
0
100
AcDbBlockBegin
  2
IB_oriz_NOFUS
 70
     0
 10
0.0
 20
0.0
 30
0.0
  3
IB_oriz_NOFUS
  1

  0
LINE
  5
152
330
150
100
AcDbEntity
  8
0
100
AcDbLine
 10
19.33069545
 20
8.30875821
 30
0.0
 11
160.09270858
 21
8.30875821
 31
0.0
  0
LINE
  5
153
330
150
100
AcDbEntity
  8
0
100
AcDbLine
 10
160.09270858
 20
123.24719062
 30
0.0
 11
19.33069545
 21
123.24719062
 31
0.0
  0
LINE
  5
154
330
150
100
AcDbEntity
  8
0
100
AcDbLine
 10
12.20755871
 20
15.43189496
 30
0.0
 11
12.20755871
 21
116.12405388
 31
0.0
  0
ARC
  5
155
330
150
100
AcDbEntity
  8
0
100
AcDbCircle
 10
19.33069545
 20
15.43189496
 30
0.0
 40
7.123136749999999
100
AcDbArc
 50
180.0
 51
270.0
  0
CIRCLE
  5
156
330
150
100
AcDbEntity
  8
0
100
AcDbCircle
 10
19.33069545
 20
15.43189496
 30
0.0
 40
2.58835439
  0
ARC
  5
157
330
150
100
AcDbEntity
  8
0
100
AcDbCircle
 10
19.33069545
 20
116.12405388
 30
0.0
 40
7.123136749999999
100
AcDbArc
 50
90.0
 51
180.0
  0
CIRCLE
  5
158
330
150
100
AcDbEntity
  8
0
100
AcDbCircle
 10
19.33069545
 20
116.12405388
 30
0.0
 40
2.58835439
  0
LINE
  5
159
330
150
100
AcDbEntity
  8
0
100
AcDbLine
 10
167.21584532
 20
15.43189496
 30
0.0
 11
167.21584532
 21
116.12405388
 31
0.0
  0
CIRCLE
  5
15A
330
150
100
AcDbEntity
  8
0
100
AcDbCircle
 10
160.09270858
 20
15.43189496
 30
0.0
 40
2.58835439
  0
ARC
  5
15B
330
150
100
AcDbEntity
  8
0
100
AcDbCircle
 10
160.09270858
 20
15.43189496
 30
0.0
 40
7.123136749999999
100
AcDbArc
 50
270.0
 51
0.0
  0
CIRCLE
  5
15C
330
150
100
AcDbEntity
  8
0
100
AcDbCircle
 10
160.09270858
 20
116.12405388
 30
0.0
 40
2.58835439
  0
ARC
  5
15D
330
150
100
AcDbEntity
  8
0
100
AcDbCircle
 10
160.09270858
 20
116.12405388
 30
0.0
 40
7.123136749999999
100
AcDbArc
 50
0.0
 51
90.0
  0
ENDBLK
  5
15E
330
150
100
AcDbEntity
  8
0
100
AcDbBlockEnd
  0
BLOCK
  5
160
330
15F
100
AcDbEntity
  8
0
100
AcDbBlockBegin
  2
*D3
 70
     0
 10
0.0
 20
0.0
 30
0.0
  3
*D3
  1

  0
LINE
  5
161
330
15F
100
AcDbEntity
  8
QUOTE
 62
     7
100
AcDbLine
 10
340.87410625
 20
22.76900452
 30
0.0
 11
340.87410625
 21
-14.68806854
 31
0.0
  0
LINE
  5
162
330
15F
100
AcDbEntity
  8
QUOTE
 62
     7
100
AcDbLine
 10
20.87410625
 20
22.83387485
 30
0.0
 11
20.87410625
 21
-14.68806854
 31
0.0
  0
LINE
  5
163
330
15F
100
AcDbEntity
  8
QUOTE
 62
     7
100
AcDbLine
 10
325.87410625
 20
-14.50806854
 30
0.0
 11
193.36432475
 21
-14.50806854
 31
0.0
  0
LINE
  5
164
330
15F
100
AcDbEntity
  8
QUOTE
 62
     7
100
AcDbLine
 10
35.87410625
 20
-14.50806854
 30
0.0
 11
168.18432475
 21
-14.50806854
 31
0.0
  0
LWPOLYLINE
  5
165
102
{ACAD_REACTORS
330
166
102
}
330
15F
100
AcDbEntity
  8
QUOTE
 62
     7
100
AcDbPolyline
 90
        3
 70
     1
 43
0.0
 10
325.87410625
 20
-12.00806854
 10
325.87410625
 20
-17.00806854
 10
340.87410625
 20
-14.50806854
  0
HATCH
  5
166
330
15F
100
AcDbEntity
  8
QUOTE
 62
     7
100
AcDbHatch
 10
0.0
 20
0.0
 30
0.0
210
0.0
220
0.0
230
1.0
  2
SOLID
 70
     1
 71
     1
 91
        1
 92
        2
 72
     0
 73
     1
 93
        3
 10
325.87410625
 20
-12.00806854
 10
325.87410625
 20
-17.00806854
 10
340.87410625
 20
-14.50806854
 97
        1
330
165
 75
     0
 76
     1
 98
        1
 10
0.0
 20
0.0
1001
VD_TEMPHATCH
1000
VD_TEMPHATCH
  0
LWPOLYLINE
  5
167
102
{ACAD_REACTORS
330
168
102
}
330
15F
100
AcDbEntity
  8
QUOTE
 62
     7
100
AcDbPolyline
 90
        3
 70
     1
 43
0.0
 10
35.87410625
 20
-12.00806854
 10
35.87410625
 20
-17.00806854
 10
20.87410625
 20
-14.50806854
  0
HATCH
  5
168
330
15F
100
AcDbEntity
  8
QUOTE
 62
     7
100
AcDbHatch
 10
0.0
 20
0.0
 30
0.0
210
0.0
220
0.0
230
1.0
  2
SOLID
 70
     1
 71
     1
 91
        1
 92
        2
 72
     0
 73
     1
 93
        3
 10
35.87410625
 20
-12.00806854
 10
35.87410625
 20
-17.00806854
 10
20.87410625
 20
-14.50806854
 97
        1
330
167
 75
     0
 76
     1
 98
        1
 10
0.0
 20
0.0
1001
VD_TEMPHATCH
1000
VD_TEMPHATCH
  0
MTEXT
  5
169
330
15F
100
AcDbEntity
  8
QUOTE
 62
     7
100
AcDbMText
 10
180.77432475
 20
-14.50806854
 30
0.0
 40
10.0
 41
22.31652145
 71
     5
 72
     1
  1
\A1;320
 73
     1
 44
1.0
1001
ACAD
1000
MTEXTBEGIN
1070
    73
1070
     1
1070
    44
1040
1.0
1070
    74
1070
     0
1000
MTEXTEND
  0
ENDBLK
  5
16A
330
15F
100
AcDbEntity
  8
0
100
AcDbBlockEnd
  0
BLOCK
  5
3DD
330
3DC
100
AcDbEntity
  8
0
100
AcDbBlockBegin
  2
*D5
 70
     1
 10
0.0
 20
0.0
 30
0.0
  3
*D5
  1

  0
LINE
  5
40D
330
3DC
100
AcDbEntity
  8
QUOTE
 62
     0
370
    -2
100
AcDbLine
 10
65.55870462747877
 20
402.2090961735252
 30
0.0
 11
27.32786403747886
 21
402.2090961735252
 31
0.0
  0
LINE
  5
40E
330
3DC
100
AcDbEntity
  8
QUOTE
 62
     0
370
    -2
100
AcDbLine
 10
65.55870378747878
 20
42.26460717352526
 30
0.0
 11
27.32786403747878
 21
42.26460717352527
 31
0.0
  0
LINE
  5
40F
330
3DC
100
AcDbEntity
  8
QUOTE
 62
     0
370
    -2
100
AcDbLine
 10
27.50786403747885
 20
387.2090961735253
 30
0.0
 11
27.50786403747881
 21
228.5500348035253
 31
0.0
  0
LINE
  5
410
330
3DC
100
AcDbEntity
  8
QUOTE
 62
     0
370
    -2
100
AcDbLine
 10
27.50786403747878
 20
57.26460717352527
 30
0.0
 11
27.50786403747881
 21
218.3700348035253
 31
0.0
  0
SOLID
  5
411
330
3DC
100
AcDbEntity
  8
QUOTE
 62
     0
100
AcDbTrace
 10
25.00786403747885
 20
387.2090961735253
 30
0.0
 11
30.00786403747885
 21
387.2090961735253
 31
0.0
 12
27.50786403747885
 22
402.2090961735252
 32
0.0
 13
27.50786403747885
 23
402.2090961735252
 33
0.0
  0
SOLID
  5
412
330
3DC
100
AcDbEntity
  8
QUOTE
 62
     0
100
AcDbTrace
 10
25.00786403747878
 20
57.26460717352527
 30
0.0
 11
30.00786403747878
 21
57.26460717352527
 31
0.0
 12
27.50786403747877
 22
42.26460717352527
 32
0.0
 13
27.50786403747877
 23
42.26460717352527
 33
0.0
  0
MTEXT
  5
413
330
3DC
100
AcDbEntity
  8
QUOTE
 62
     0
100
AcDbMText
 10
27.50786403747878
 20
223.4600348035253
 30
0.0
 40
10.0
 41
0.0
 71
     5
 72
     1
  1
\A1;360
 73
     1
 44
1.0
1001
ACAD
1000
MTEXTBEGIN
1070
    73
1070
     1
1070
    44
1040
1.0
1070
    74
1070
     0
1000
MTEXTEND
  0
POINT
  5
414
330
3DC
100
AcDbEntity
  8
Defpoints
 62
     0
100
AcDbPoint
 10
65.62120462747877
 20
402.2090961735252
 30
0.0
  0
POINT
  5
415
330
3DC
100
AcDbEntity
  8
Defpoints
 62
     0
100
AcDbPoint
 10
65.62120378747877
 20
42.26460717352526
 30
0.0
  0
POINT
  5
416
330
3DC
100
AcDbEntity
  8
Defpoints
 62
     0
100
AcDbPoint
 10
27.50786403747877
 20
42.26460717352527
 30
0.0
  0
ENDBLK
  5
3DE
330
3DC
100
AcDbEntity
  8
0
100
AcDbBlockEnd
  0
BLOCK
  5
3EA
330
3E9
100
AcDbEntity
  8
0
100
AcDbBlockBegin
  2
*D6
 70
     1
 10
0.0
 20
0.0
 30
0.0
  3
*D6
  1

  0
LINE
  5
400
330
3E9
100
AcDbEntity
  8
QUOTE
 62
     0
370
    -2
100
AcDbLine
 10
369.6212046274788
 20
58.19973684352525
 30
0.0
 11
369.6212046274788
 21
20.74266378352527
 31
0.0
  0
LINE
  5
401
330
3E9
100
AcDbEntity
  8
QUOTE
 62
     0
370
    -2
100
AcDbLine
 10
49.62120462747877
 20
58.26460717352526
 30
0.0
 11
49.62120462747877
 21
20.74266378352527
 31
0.0
  0
LINE
  5
402
330
3E9
100
AcDbEntity
  8
QUOTE
 62
     0
370
    -2
100
AcDbLine
 10
354.6212046274788
 20
20.92266378352526
 30
0.0
 11
222.1114231274788
 21
20.92266378352526
 31
0.0
  0
LINE
  5
403
330
3E9
100
AcDbEntity
  8
QUOTE
 62
     0
370
    -2
100
AcDbLine
 10
64.62120462747877
 20
20.92266378352526
 30
0.0
 11
196.9314231274788
 21
20.92266378352526
 31
0.0
  0
SOLID
  5
404
330
3E9
100
AcDbEntity
  8
QUOTE
 62
     0
100
AcDbTrace
 10
354.6212046274788
 20
23.42266378352526
 30
0.0
 11
354.6212046274788
 21
18.42266378352526
 31
0.0
 12
369.6212046274788
 22
20.92266378352526
 32
0.0
 13
369.6212046274788
 23
20.92266378352526
 33
0.0
  0
SOLID
  5
405
330
3E9
100
AcDbEntity
  8
QUOTE
 62
     0
100
AcDbTrace
 10
64.62120462747877
 20
23.42266378352526
 30
0.0
 11
64.62120462747877
 21
18.42266378352526
 31
0.0
 12
49.62120462747877
 22
20.92266378352526
 32
0.0
 13
49.62120462747877
 23
20.92266378352526
 33
0.0
  0
MTEXT
  5
406
330
3E9
100
AcDbEntity
  8
QUOTE
 62
     0
100
AcDbMText
 10
209.5214231274788
 20
20.92266378352526
 30
0.0
 40
10.0
 41
0.0
 71
     5
 72
     1
  1
\A1;320
 73
     1
 44
1.0
1001
ACAD
1000
MTEXTBEGIN
1070
    73
1070
     1
1070
    44
1040
1.0
1070
    74
1070
     0
1000
MTEXTEND
  0
POINT
  5
407
330
3E9
100
AcDbEntity
  8
Defpoints
 62
     0
100
AcDbPoint
 10
369.6212046274788
 20
58.26223684352526
 30
0.0
  0
POINT
  5
408
330
3E9
100
AcDbEntity
  8
Defpoints
 62
     0
100
AcDbPoint
 10
49.62120462747877
 20
58.32710717352526
 30
0.0
  0
POINT
  5
409
330
3E9
100
AcDbEntity
  8
Defpoints
 62
     0
100
AcDbPoint
 10
49.62120462747877
 20
20.92266378352526
 30
0.0
  0
ENDBLK
  5
3EB
330
3E9
100
AcDbEntity
  8
0
100
AcDbBlockEnd
  0
ENDSEC
  0
SECTION
  2
ENTITIES
  0
LINE
  5
2AA
330
1F
100
AcDbEntity
  8
0
 62
   253
370
    35
100
AcDbLine
 10
154.1212046274788
 20
234.7629591735253
 30
0.0
 11
265.1212046274788
 21
234.7629591735253
 31
0.0
  0
LINE
  5
2AB
330
1F
100
AcDbEntity
  8
0
 62
   253
370
    35
100
AcDbLine
 10
68.33000662747878
 20
234.7629591735253
 30
0.0
 11
154.4575236274788
 21
234.7629591735253
 31
0.0
  0
LINE
  5
2AC
330
1F
100
AcDbEntity
  8
0
 62
   253
370
    35
100
AcDbLine
 10
265.1212046274788
 20
234.7629591735253
 30
0.0
 11
350.9124036274788
 21
234.7629591735253
 31
0.0
  0
ARC
  5
2AD
330
1F
100
AcDbEntity
  8
0
 62
   253
370
    35
100
AcDbCircle
 10
209.6212046274788
 20
222.9022721735252
 30
0.0
 40
10.25
100
AcDbArc
 50
0.0
 51
224.9008799999999
  0
ARC
  5
2AE
330
1F
100
AcDbEntity
  8
0
 62
   253
370
    35
100
AcDbCircle
 10
209.6212046274788
 20
222.9022721735252
 30
0.0
 40
10.25
100
AcDbArc
 50
315.099139
 51
0.0
  0
LINE
  5
2AF
330
1F
100
AcDbEntity
  8
0
 62
     7
370
    13
100
AcDbLine
 10
365.7153516274787
 20
70.96190417352525
 30
0.0
 11
53.52704262747877
 21
70.96190417352525
 31
0.0
  0
LINE
  5
2B0
330
1F
100
AcDbEntity
  8
0
 62
     7
 48
0.025
370
    35
100
AcDbLine
 10
365.7153516274787
 20
70.96190417352525
 30
0.0
 11
366.7153516274788
 21
70.96190417352525
 31
0.0
  0
LINE
  5
2B1
330
1F
100
AcDbEntity
  8
0
 62
     7
 48
0.025
370
    35
100
AcDbLine
 10
365.7153516274787
 20
373.5673111735252
 30
0.0
 11
366.7153516274788
 21
373.5673111735252
 31
0.0
  0
LINE
  5
2B2
330
1F
100
AcDbEntity
  8
0
 62
     7
370
    13
100
AcDbLine
 10
365.7153516274787
 20
373.5673111735252
 30
0.0
 11
53.52704262747877
 21
373.5673111735252
 31
0.0
  0
LINE
  5
2B3
330
1F
100
AcDbEntity
  8
0
 62
     7
 48
0.024999
370
    35
100
AcDbLine
 10
53.52704262747877
 20
373.5673111735252
 30
0.0
 11
52.52707362747877
 21
373.5673111735252
 31
0.0
  0
LINE
  5
2B4
330
1F
100
AcDbEntity
  8
0
 62
     7
 48
0.024999
370
    35
100
AcDbLine
 10
53.52704262747877
 20
70.96190417352525
 30
0.0
 11
52.52707362747877
 21
70.96190417352525
 31
0.0
  0
ARC
  5
2B5
330
1F
100
AcDbEntity
  8
0
 62
     7
370
    35
100
AcDbCircle
 10
351.1212046274788
 20
360.4705711735253
 30
0.0
 40
2.0
100
AcDbArc
 50
0.0
 51
90.0
  0
LINE
  5
2B6
330
1F
100
AcDbEntity
  8
0
 62
     7
 48
0.449998
370
    35
100
AcDbLine
 10
353.1212046274788
 20
360.4705711735253
 30
0.0
 11
353.1212046274788
 21
342.4706321735253
 31
0.0
  0
ARC
  5
2B7
330
1F
100
AcDbEntity
  8
0
 62
     7
370
    35
100
AcDbCircle
 10
351.1212046274788
 20
342.4706321735253
 30
0.0
 40
2.0
100
AcDbArc
 50
270.0
 51
0.0
  0
LINE
  5
2B8
330
1F
100
AcDbEntity
  8
0
 62
     7
370
    35
100
AcDbLine
 10
306.1212046274788
 20
340.4706321735253
 30
0.0
 11
351.1212046274788
 21
340.4706321735253
 31
0.0
  0
ARC
  5
2B9
330
1F
100
AcDbEntity
  8
0
 62
     7
370
    35
100
AcDbCircle
 10
306.1212046274788
 20
342.4706321735253
 30
0.0
 40
2.0
100
AcDbArc
 50
180.0
 51
270.0
  0
LINE
  5
2BA
330
1F
100
AcDbEntity
  8
0
 62
     7
 48
0.449998
370
    35
100
AcDbLine
 10
304.1212046274788
 20
342.4706321735253
 30
0.0
 11
304.1212046274788
 21
360.4705711735253
 31
0.0
  0
ARC
  5
2BB
330
1F
100
AcDbEntity
  8
0
 62
     7
370
    35
100
AcDbCircle
 10
306.1212046274788
 20
360.4705711735253
 30
0.0
 40
2.0
100
AcDbArc
 50
90.0
 51
180.0
  0
LINE
  5
2BC
330
1F
100
AcDbEntity
  8
0
 62
     7
370
    35
100
AcDbLine
 10
351.1212046274788
 20
362.4705711735253
 30
0.0
 11
306.1212046274788
 21
362.4705711735253
 31
0.0
  0
LINE
  5
2BD
330
1F
100
AcDbEntity
  8
0
 62
     7
 48
0.025
370
    35
100
AcDbLine
 10
354.6212046274788
 20
45.79179917352526
 30
0.0
 11
353.6212046274788
 21
45.79198217352526
 31
0.0
  0
LINE
  5
2BE
330
1F
100
AcDbEntity
  8
0
 62
     7
370
    35
100
AcDbLine
 10
353.6212046274788
 20
45.79198217352526
 30
0.0
 11
65.62120462747877
 21
45.79198217352526
 31
0.0
  0
LINE
  5
2BF
330
1F
100
AcDbEntity
  8
0
 62
     7
 48
0.025
370
    35
100
AcDbLine
 10
65.62120462747877
 20
45.79198217352526
 30
0.0
 11
64.62120462747877
 21
45.79179917352526
 31
0.0
  0
LINE
  5
2C0
330
1F
100
AcDbEntity
  8
0
 62
     7
 48
0.001473
370
    35
100
AcDbLine
 10
367.0988966274788
 20
379.1239521735253
 30
0.0
 11
367.0572706274788
 21
379.1656391735253
 31
0.0
  0
LINE
  5
2C1
330
1F
100
AcDbEntity
  8
0
 62
     7
370
    35
100
AcDbLine
 10
367.0988966274788
 20
65.40526317352527
 30
0.0
 11
367.0988966274788
 21
379.1239521735253
 31
0.0
  0
LINE
  5
2C2
330
1F
100
AcDbEntity
  8
0
 62
     7
 48
0.025
370
    35
100
AcDbLine
 10
65.62120462747877
 20
398.7372331735253
 30
0.0
 11
64.62120462747877
 21
398.7374161735253
 31
0.0
  0
LINE
  5
2C3
330
1F
100
AcDbEntity
  8
0
 62
     7
370
    35
100
AcDbLine
 10
353.6212046274788
 20
398.7372331735253
 30
0.0
 11
65.62120462747877
 21
398.7372331735253
 31
0.0
  0
LINE
  5
2C4
330
1F
100
AcDbEntity
  8
0
 62
     7
 48
0.025
370
    35
100
AcDbLine
 10
354.6212046274788
 20
398.7374161735253
 30
0.0
 11
353.6212046274788
 21
398.7372331735253
 31
0.0
  0
LINE
  5
2C5
330
1F
100
AcDbEntity
  8
0
 62
     7
 48
0.001473
370
    35
100
AcDbLine
 10
52.14351362747878
 20
65.40526317352527
 30
0.0
 11
52.18515462747878
 21
65.36360617352525
 31
0.0
  0
LINE
  5
2C6
330
1F
100
AcDbEntity
  8
0
 62
     7
370
    35
100
AcDbLine
 10
52.14351362747878
 20
379.1239521735253
 30
0.0
 11
52.14351362747878
 21
65.40526317352527
 31
0.0
  0
ARC
  5
2C7
330
1F
100
AcDbEntity
  8
0
 62
     7
370
    35
100
AcDbCircle
 10
64.61618462747878
 20
58.26439417352526
 30
0.0
 40
12.472586
100
AcDbArc
 50
218.48292
 51
270.023084
  0
ARC
  5
2C8
330
1F
100
AcDbEntity
  8
0
 62
     7
370
    35
100
AcDbCircle
 10
354.6262406274788
 20
58.26439417352526
 30
0.0
 40
12.472586
100
AcDbArc
 50
269.976918
 51
321.517085
  0
LINE
  5
2C9
330
1F
100
AcDbEntity
  8
0
 62
     7
 48
0.001147
370
    35
100
AcDbLine
 10
364.3896986274788
 20
50.50291917352526
 30
0.0
 11
364.3711136274788
 21
50.54488117352526
 31
0.0
  0
LINE
  5
2CA
330
1F
100
AcDbEntity
  8
0
 62
     7
 48
0.024998
370
    35
100
AcDbLine
 10
65.62120462747877
 20
44.79204317352526
 30
0.0
 11
65.62120462747877
 21
45.79198217352526
 31
0.0
  0
LINE
  5
2CB
330
1F
100
AcDbEntity
  8
0
 62
     7
 48
0.00003
370
    35
100
AcDbLine
 10
360.2381176274788
 20
52.16393017352526
 30
0.0
 11
360.2390946274788
 21
52.16460117352526
 31
0.0
  0
LINE
  5
2CC
330
1F
100
AcDbEntity
  8
0
 62
     7
 48
0.000043
370
    35
100
AcDbLine
 10
360.2390946274788
 20
64.36461417352527
 30
0.0
 11
360.2375076274788
 21
64.36528517352527
 31
0.0
  0
LINE
  5
2CD
330
1F
100
AcDbEntity
  8
0
 62
     7
 48
0.000029
370
    35
100
AcDbLine
 10
59.00427662747877
 20
64.36528517352527
 30
0.0
 11
59.00333062747877
 21
64.36461417352527
 31
0.0
  0
LINE
  5
2CE
330
1F
100
AcDbEntity
  8
0
 62
     7
 48
0.000043
370
    35
100
AcDbLine
 10
59.00333062747877
 20
52.16460117352526
 30
0.0
 11
59.00490262747878
 21
52.16393017352526
 31
0.0
  0
ARC
  5
2CF
330
1F
100
AcDbEntity
  8
0
 62
     7
370
    35
100
AcDbCircle
 10
354.6262406274788
 20
386.2648211735253
 30
0.0
 40
12.472586
100
AcDbArc
 50
38.48289799999992
 51
90.02308199999996
  0
LINE
  5
2D0
330
1F
100
AcDbEntity
  8
0
 62
     7
 48
0.001147
370
    35
100
AcDbLine
 10
364.3896986274788
 20
394.0262961735253
 30
0.0
 11
364.3711136274788
 21
393.9843651735253
 31
0.0
  0
ARC
  5
2D1
330
1F
100
AcDbEntity
  8
0
 62
     7
370
    35
100
AcDbCircle
 10
366.0573926274788
 20
65.36351517352525
 30
0.0
 40
0.9998799999999999
100
AcDbArc
 50
351.9181679999999
 51
0.0063550000000167
  0
ELLIPSE
  5
2D2
330
1F
100
AcDbEntity
  8
0
 62
     7
370
    35
100
AcDbEllipse
 10
366.0989576274788
 20
65.40526317352527
 30
0.0
 11
-0.70709229
 21
0.70709229
 31
0.0
210
0.0
220
0.0
230
1.0
 40
0.9999239999999998
 41
3.581878779999999
 42
3.927028889999999
  0
ELLIPSE
  5
2D3
330
1F
100
AcDbEntity
  8
0
 62
     7
370
    35
100
AcDbEllipse
 10
366.0989576274788
 20
379.1239521735253
 30
0.0
 11
-0.70709229
 21
-0.70709229
 31
0.0
210
0.0
220
0.0
230
1.0
 40
0.9999239999999998
 41
2.35615641
 42
2.70397723
  0
ARC
  5
2D4
330
1F
100
AcDbEntity
  8
0
 62
     7
370
    35
100
AcDbCircle
 10
366.0573926274788
 20
379.1657611735252
 30
0.0
 40
0.999862
100
AcDbArc
 50
359.9935129999999
 51
8.186005999999919
  0
ARC
  5
2D5
330
1F
100
AcDbEntity
  8
0
 62
     7
370
    35
100
AcDbCircle
 10
64.61618462747878
 20
386.2648211735253
 30
0.0
 40
12.472586
100
AcDbArc
 50
89.97691600000001
 51
141.517121
  0
LINE
  5
2D6
330
1F
100
AcDbEntity
  8
0
 62
     7
 48
0.024998
370
    35
100
AcDbLine
 10
65.62120462747877
 20
398.7372331735253
 30
0.0
 11
65.62120462747877
 21
399.7371721735253
 31
0.0
  0
LINE
  5
2D7
330
1F
100
AcDbEntity
  8
0
 62
     7
 48
0.024998
370
    35
100
AcDbLine
 10
353.6212046274788
 20
398.7372331735253
 30
0.0
 11
353.6212046274788
 21
399.7371721735253
 31
0.0
  0
LINE
  5
2D8
330
1F
100
AcDbEntity
  8
0
 62
     7
 48
0.00003
370
    35
100
AcDbLine
 10
360.2381176274788
 20
380.1639301735253
 30
0.0
 11
360.2390946274788
 21
380.1646011735253
 31
0.0
  0
LINE
  5
2D9
330
1F
100
AcDbEntity
  8
0
 62
     7
 48
0.000043
370
    35
100
AcDbLine
 10
360.2390946274788
 20
392.3646141735252
 30
0.0
 11
360.2375076274788
 21
392.3652851735253
 31
0.0
  0
LINE
  5
2DA
330
1F
100
AcDbEntity
  8
0
 62
     7
 48
0.000029
370
    35
100
AcDbLine
 10
59.00427662747877
 20
392.3652851735253
 30
0.0
 11
59.00333062747877
 21
392.3646141735252
 31
0.0
  0
LINE
  5
2DB
330
1F
100
AcDbEntity
  8
0
 62
     7
 48
0.000043
370
    35
100
AcDbLine
 10
59.00333062747877
 20
380.1646011735253
 30
0.0
 11
59.00490262747878
 21
380.1639301735253
 31
0.0
  0
ELLIPSE
  5
2DC
330
1F
100
AcDbEntity
  8
0
 62
     7
370
    35
100
AcDbEllipse
 10
53.14346762747877
 20
65.40526317352527
 30
0.0
 11
0.70709229
 21
0.70709229
 31
0.0
210
0.0
220
0.0
230
1.0
 40
0.9999239999999998
 41
2.35615641
 42
2.703978289999999
  0
ARC
  5
2DD
330
1F
100
AcDbEntity
  8
0
 62
     7
370
    35
100
AcDbCircle
 10
53.18501762747878
 20
65.36348417352527
 30
0.0
 40
0.999862
100
AcDbArc
 50
179.9935159999999
 51
188.18696
  0
ELLIPSE
  5
2DE
330
1F
100
AcDbEntity
  8
0
 62
     7
370
    35
100
AcDbEllipse
 10
53.14346762747877
 20
379.1239521735253
 30
0.0
 11
0.70709229
 21
-0.70709229
 31
0.0
210
0.0
220
0.0
230
1.0
 40
0.9999239999999998
 41
3.581867939999999
 42
3.927028889999999
  0
ARC
  5
2DF
330
1F
100
AcDbEntity
  8
0
 62
     7
370
    35
100
AcDbCircle
 10
55.63562462747878
 20
51.12505117352526
 30
0.0
 40
0.9999979999999998
100
AcDbArc
 50
198.345446
 51
218.4715409999999
  0
ARC
  5
2E0
330
1F
100
AcDbEntity
  8
0
 62
     7
370
    35
100
AcDbCircle
 10
363.5872386274788
 20
51.16566917352526
 30
0.0
 40
0.9999540000000001
100
AcDbArc
 50
321.6239979999999
 51
329.490539
  0
ARC
  5
2E1
330
1F
100
AcDbEntity
  8
0
 62
     7
370
    35
100
AcDbCircle
 10
363.6067706274788
 20
51.12505117352526
 30
0.0
 40
0.9999979999999998
100
AcDbArc
 50
321.5285219999998
 51
341.6411309999999
  0
LINE
  5
2E2
330
1F
100
AcDbEntity
  8
0
 62
     7
 48
0.036801
370
    35
100
AcDbLine
 10
65.62120462747877
 20
44.79204317352526
 30
0.0
 11
65.62120462747877
 21
43.31999717352526
 31
0.0
  0
ARC
  5
2E3
330
1F
100
AcDbEntity
  8
0
 62
     7
370
    35
100
AcDbCircle
 10
59.08499562747877
 20
52.61177517352526
 30
0.0
 40
0.455216
100
AcDbArc
 50
259.860991
 51
269.39321
  0
ARC
  5
2E4
330
1F
100
AcDbEntity
  8
0
 62
     7
370
    35
100
AcDbCircle
 10
363.5872086274788
 20
393.3635151735253
 30
0.0
 40
0.999971
100
AcDbArc
 50
30.50255900000005
 51
38.37588599999998
  0
ARC
  5
2E5
330
1F
100
AcDbEntity
  8
0
 62
     7
370
    35
100
AcDbCircle
 10
363.6067706274788
 20
393.4041641735253
 30
0.0
 40
0.9999979999999998
100
AcDbArc
 50
18.346812
 51
38.47154599999999
  0
LINE
  5
2E6
330
1F
100
AcDbEntity
  8
0
 62
     7
 48
0.036801
370
    35
100
AcDbLine
 10
65.62120462747877
 20
399.7371721735253
 30
0.0
 11
65.62120462747877
 21
401.2092181735252
 31
0.0
  0
LINE
  5
2E7
330
1F
100
AcDbEntity
  8
0
 62
     7
 48
0.036801
370
    35
100
AcDbLine
 10
353.6212046274788
 20
399.7371721735253
 30
0.0
 11
353.6212046274788
 21
401.2092181735252
 31
0.0
  0
ARC
  5
2E8
330
1F
100
AcDbEntity
  8
0
 62
     7
370
    35
100
AcDbCircle
 10
360.1574296274788
 20
391.9174701735252
 30
0.0
 40
0.455216
100
AcDbArc
 50
79.86099000000004
 51
89.39320800000004
  0
ARC
  5
2E9
330
1F
100
AcDbEntity
  8
0
 62
     7
370
    35
100
AcDbCircle
 10
59.08499562747877
 20
380.6118061735253
 30
0.0
 40
0.455216
100
AcDbArc
 50
259.860991
 51
269.39321
  0
LINE
  5
2EA
330
1F
100
AcDbEntity
  8
0
 62
     7
 48
0.024998
370
    35
100
AcDbLine
 10
65.62120462747877
 20
43.31999717352526
 30
0.0
 11
65.62120462747877
 21
42.32008817352526
 31
0.0
  0
ARC
  5
2EB
330
1F
100
AcDbEntity
  8
0
 62
     7
370
    35
100
AcDbCircle
 10
366.7646076274788
 20
51.03624417352526
 30
0.0
 40
1.000061
100
AcDbArc
 50
331.191775
 51
30.47239400000011
  0
ARC
  5
2EC
330
1F
100
AcDbEntity
  8
0
 62
     7
370
    35
100
AcDbCircle
 10
368.6211136274788
 20
379.0361831735253
 30
0.0
 40
1.000114999999999
100
AcDbArc
 50
0.0005999999999407
 51
45.00238199999994
  0
LINE
  5
2ED
330
1F
100
AcDbEntity
  8
0
 62
     7
370
    35
100
AcDbLine
 10
369.6212046274788
 20
379.0362441735253
 30
0.0
 11
369.6212046274788
 21
65.49300117352526
 31
0.0
  0
ARC
  5
2EE
330
1F
100
AcDbEntity
  8
0
 62
     7
370
    35
100
AcDbCircle
 10
368.6211136274788
 20
65.49303117352526
 30
0.0
 40
1.000114999999999
100
AcDbArc
 50
314.997618
 51
359.9993999999999
  0
ARC
  5
2EF
330
1F
100
AcDbEntity
  8
0
 62
     7
370
    35
100
AcDbCircle
 10
52.47780262747878
 20
51.03624417352526
 30
0.0
 40
1.000062
100
AcDbArc
 50
149.2800409999999
 51
208.8082169999999
  0
ARC
  5
2F0
330
1F
100
AcDbEntity
  8
0
 62
     7
370
    35
100
AcDbCircle
 10
50.62131162747878
 20
379.0361831735253
 30
0.0
 40
1.000114999999999
100
AcDbArc
 50
134.9976230000001
 51
179.9994039999999
  0
ARC
  5
2F1
330
1F
100
AcDbEntity
  8
0
 62
     7
370
    35
100
AcDbCircle
 10
50.62131162747878
 20
65.49303117352526
 30
0.0
 40
1.000114999999999
100
AcDbArc
 50
180.000596
 51
225.0023769999999
  0
LINE
  5
2F2
330
1F
100
AcDbEntity
  8
0
 62
     7
370
    35
100
AcDbLine
 10
49.62120462747877
 20
65.49300117352526
 30
0.0
 11
49.62120462747877
 21
379.0362441735253
 31
0.0
  0
ELLIPSE
  5
2F3
330
1F
100
AcDbEntity
  8
0
 62
     7
370
    35
100
AcDbEllipse
 10
50.67664062747877
 20
65.43755117352526
 30
0.0
 11
0.70709229
 21
0.70709229
 31
0.0
210
0.0
220
0.0
230
1.0
 40
0.9999239999999998
 41
2.35615641
 42
3.14159265
  0
LINE
  5
2F4
330
1F
100
AcDbEntity
  8
0
 62
     7
 48
0.001961
370
    35
100
AcDbLine
 10
49.67668562747878
 20
65.43755117352526
 30
0.0
 11
49.62120462747877
 21
65.49300117352526
 31
0.0
  0
ELLIPSE
  5
2F5
330
1F
100
AcDbEntity
  8
0
 62
     7
370
    35
100
AcDbEllipse
 10
368.5657546274788
 20
379.0916641735253
 30
0.0
 11
-0.70709229
 21
-0.70709229
 31
0.0
210
0.0
220
0.0
230
1.0
 40
0.9999239999999998
 41
2.35615641
 42
3.14159265
  0
LINE
  5
2F6
330
1F
100
AcDbEntity
  8
0
 62
     7
 48
0.00196
370
    35
100
AcDbLine
 10
369.6212046274788
 20
379.0362441735253
 30
0.0
 11
369.5657236274788
 21
379.0916641735253
 31
0.0
  0
LINE
  5
2F7
330
1F
100
AcDbEntity
  8
0
 62
     7
 48
0.024997
370
    35
100
AcDbLine
 10
65.62120462747877
 20
401.2092181735252
 30
0.0
 11
65.62120462747877
 21
402.2090961735252
 31
0.0
  0
LINE
  5
2F8
330
1F
100
AcDbEntity
  8
0
 62
     7
 48
0.024997
370
    35
100
AcDbLine
 10
353.6212046274788
 20
401.2092181735252
 30
0.0
 11
353.6212046274788
 21
402.2090961735252
 31
0.0
  0
LINE
  5
2F9
330
1F
100
AcDbEntity
  8
0
 62
     7
 48
0.000299
370
    35
100
AcDbLine
 10
367.5869946274787
 20
392.9191791735253
 30
0.0
 11
367.5931596274788
 21
392.9294331735253
 31
0.0
  0
ARC
  5
2FA
330
1F
100
AcDbEntity
  8
0
 62
     7
370
    35
100
AcDbCircle
 10
366.7646076274788
 20
393.4929701735253
 30
0.0
 40
1.000061
100
AcDbArc
 50
329.5276059999999
 51
28.80822499999995
  0
LINE
  5
2FB
330
1F
100
AcDbEntity
  8
0
 62
     7
 48
0.000299
370
    35
100
AcDbLine
 10
51.65539962747878
 20
392.9191791735253
 30
0.0
 11
51.64923562747877
 21
392.9294331735253
 31
0.0
  0
ARC
  5
2FC
330
1F
100
AcDbEntity
  8
0
 62
     7
370
    35
100
AcDbCircle
 10
52.47780262747878
 20
393.4929701735253
 30
0.0
 40
1.000061
100
AcDbArc
 50
151.19177
 51
210.472392
  0
ARC
  5
2FD
330
1F
100
AcDbEntity
  8
0
 62
     7
370
    35
100
AcDbCircle
 10
353.6212046274788
 20
58.26460717352526
 30
0.0
 40
16.0
100
AcDbArc
 50
270.0
 51
331.1909519999999
  0
LINE
  5
2FE
330
1F
100
AcDbEntity
  8
0
 62
     7
370
    35
100
AcDbLine
 10
65.62120462747877
 20
42.26460717352526
 30
0.0
 11
353.6212046274788
 21
42.26460717352526
 31
0.0
  0
LINE
  5
2FF
330
1F
100
AcDbEntity
  8
0
 62
     7
 48
0.001387
370
    35
100
AcDbLine
 10
65.62120462747877
 20
42.32008817352526
 30
0.0
 11
65.62120462747877
 21
42.26460717352526
 31
0.0
  0
ARC
  5
300
330
1F
100
AcDbEntity
  8
0
 62
     7
370
    35
100
AcDbCircle
 10
65.62120462747877
 20
58.26460717352526
 30
0.0
 40
16.0
100
AcDbArc
 50
208.80905
 51
270.0
  0
ARC
  5
301
330
1F
100
AcDbEntity
  8
0
 62
     7
370
    35
100
AcDbCircle
 10
65.62120462747877
 20
386.2646381735253
 30
0.0
 40
16.0
100
AcDbArc
 50
90.0
 51
151.1909499999999
  0
LINE
  5
302
330
1F
100
AcDbEntity
  8
0
 62
     7
 48
0.001389
370
    35
100
AcDbLine
 10
65.62120462747877
 20
402.2090961735252
 30
0.0
 11
65.62120462747877
 21
402.2646381735253
 31
0.0
  0
LINE
  5
303
330
1F
100
AcDbEntity
  8
0
 62
     7
370
    35
100
AcDbLine
 10
353.6212046274788
 20
402.2646381735253
 30
0.0
 11
65.62120462747877
 21
402.2646381735253
 31
0.0
  0
LINE
  5
304
330
1F
100
AcDbEntity
  8
0
 62
     7
 48
0.001389
370
    35
100
AcDbLine
 10
353.6212046274788
 20
402.2090961735252
 30
0.0
 11
353.6212046274788
 21
402.2646381735253
 31
0.0
  0
ARC
  5
305
330
1F
100
AcDbEntity
  8
0
 62
     7
370
    35
100
AcDbCircle
 10
353.6212046274788
 20
386.2646381735253
 30
0.0
 40
16.0
100
AcDbArc
 50
28.80904799999997
 51
90.0
  0
LINE
  5
306
330
1F
100
AcDbEntity
  8
0
 62
   253
370
    35
100
AcDbLine
 10
65.32989962747878
 20
333.4620871735253
 30
0.0
 11
65.32989962747878
 21
212.5731711735252
 31
0.0
  0
ARC
  5
307
330
1F
100
AcDbEntity
  8
0
 62
   253
370
    35
100
AcDbCircle
 10
68.32973162747878
 20
333.4621481735252
 30
0.0
 40
2.999829999999999
100
AcDbArc
 50
89.99901200000001
 51
180.0009919999999
  0
LINE
  5
308
330
1F
100
AcDbEntity
  8
0
 62
   253
370
    35
100
AcDbLine
 10
68.32977762747877
 20
336.4619651735253
 30
0.0
 11
350.9126176274788
 21
336.4619651735253
 31
0.0
  0
ARC
  5
309
330
1F
100
AcDbEntity
  8
0
 62
   253
370
    35
100
AcDbCircle
 10
350.9126786274788
 20
333.4621481735252
 30
0.0
 40
2.999829999999999
100
AcDbArc
 50
359.999014
 51
90.00098600000002
  0
LINE
  5
30A
330
1F
100
AcDbEntity
  8
0
 62
   253
370
    35
100
AcDbLine
 10
353.9124956274788
 20
333.4620871735253
 30
0.0
 11
353.9124956274788
 21
212.5731711735252
 31
0.0
  0
ARC
  5
30B
330
1F
100
AcDbEntity
  8
0
 62
   253
370
    35
100
AcDbCircle
 10
350.9126786274788
 20
212.5731401735253
 30
0.0
 40
2.999829999999999
100
AcDbArc
 50
269.999014
 51
0.0009860000000289
  0
LINE
  5
30C
330
1F
100
AcDbEntity
  8
0
 62
   253
370
    35
100
AcDbLine
 10
68.32977762747877
 20
209.5732931735252
 30
0.0
 11
350.9126176274788
 21
209.5732931735252
 31
0.0
  0
ARC
  5
30D
330
1F
100
AcDbEntity
  8
0
 62
   253
370
    35
100
AcDbCircle
 10
68.32973162747878
 20
212.5731401735253
 30
0.0
 40
2.999829999999999
100
AcDbArc
 50
179.9990079999999
 51
270.000988
  0
LINE
  5
30E
330
1F
100
AcDbEntity
  8
0
 62
     7
 48
0.014389
370
    35
100
AcDbLine
 10
367.0283396274788
 20
64.42394017352526
 30
0.0
 11
367.6038706274788
 21
64.42772417352526
 31
0.0
  0
LINE
  5
30F
330
1F
100
AcDbEntity
  8
0
 62
     7
 48
0.014388
370
    35
100
AcDbLine
 10
367.6038406274788
 20
380.1014911735253
 30
0.0
 11
367.0283396274788
 21
380.1052751735253
 31
0.0
  0
LINE
  5
310
330
1F
100
AcDbEntity
  8
0
 62
     7
 48
0.014388
370
    35
100
AcDbLine
 10
51.63853862747878
 20
64.42772417352526
 30
0.0
 11
52.21405462747878
 21
64.42394017352526
 31
0.0
  0
LINE
  5
311
330
1F
100
AcDbEntity
  8
0
 62
     7
 48
0.014388
370
    35
100
AcDbLine
 10
51.63855462747878
 20
380.1014911735253
 30
0.0
 11
52.21405462747878
 21
380.1052751735253
 31
0.0
  0
LINE
  5
312
330
1F
100
AcDbEntity
  8
0
 62
     7
 48
0.00168
370
    35
100
AcDbLine
 10
53.79433162747878
 20
52.10228417352526
 30
0.0
 11
53.86153062747878
 21
52.10259017352526
 31
0.0
  0
LINE
  5
313
330
1F
100
AcDbEntity
  8
0
 62
     7
 48
0.00168
370
    35
100
AcDbLine
 10
365.3808796274788
 20
52.10259017352526
 30
0.0
 11
365.4480786274788
 21
52.10228417352526
 31
0.0
  0
LINE
  5
314
330
1F
100
AcDbEntity
  8
0
 62
     7
 48
0.017989
370
    35
100
AcDbLine
 10
366.1676226274788
 20
52.09917217352526
 30
0.0
 11
365.4480786274788
 21
52.10228417352526
 31
0.0
  0
LINE
  5
315
330
1F
100
AcDbEntity
  8
0
 62
     7
 48
0.017989
370
    35
100
AcDbLine
 10
53.79433162747878
 20
52.10228417352526
 30
0.0
 11
53.07477262747878
 21
52.09917217352526
 31
0.0
  0
LINE
  5
316
330
1F
100
AcDbEntity
  8
0
 62
     7
 48
0.001638
370
    35
100
AcDbLine
 10
367.5931596274788
 20
51.59975117352527
 30
0.0
 11
367.6265456274788
 21
51.54338517352527
 31
0.0
  0
LINE
  5
317
330
1F
100
AcDbEntity
  8
0
 62
     7
 48
0.011675
370
    35
100
AcDbLine
 10
367.6038706274788
 20
64.42772417352526
 30
0.0
 11
368.0708506274787
 21
64.43004317352526
 31
0.0
  0
LINE
  5
318
330
1F
100
AcDbEntity
  8
0
 62
     7
 48
0.001958
370
    35
100
AcDbLine
 10
369.2728776274788
 20
64.73042817352527
 30
0.0
 11
369.3282666274788
 21
64.78581717352525
 31
0.0
  0
LINE
  5
319
330
1F
100
AcDbEntity
  8
0
 62
     7
 48
0.001637
370
    35
100
AcDbLine
 10
51.61807662747878
 20
51.54710917352526
 30
0.0
 11
51.65143262747879
 21
51.60344417352526
 31
0.0
  0
LINE
  5
31A
330
1F
100
AcDbEntity
  8
0
 62
     7
 48
0.001958
370
    35
100
AcDbLine
 10
49.96953262747878
 20
64.73042817352527
 30
0.0
 11
49.91415862747878
 21
64.78581717352525
 31
0.0
  0
LINE
  5
31B
330
1F
100
AcDbEntity
  8
0
 62
     7
 48
0.011675
370
    35
100
AcDbLine
 10
51.17155862747877
 20
64.43004317352526
 30
0.0
 11
51.63853862747878
 21
64.42772417352526
 31
0.0
  0
LINE
  5
31C
330
1F
100
AcDbEntity
  8
0
 62
     7
 48
0.00168
370
    35
100
AcDbLine
 10
365.3808796274788
 20
392.4266251735253
 30
0.0
 11
365.4480786274788
 21
392.4269301735252
 31
0.0
  0
LINE
  5
31D
330
1F
100
AcDbEntity
  8
0
 62
     7
 48
0.011675
370
    35
100
AcDbLine
 10
368.0708506274787
 20
380.0991721735253
 30
0.0
 11
367.6038406274788
 21
380.1014911735253
 31
0.0
  0
LINE
  5
31E
330
1F
100
AcDbEntity
  8
0
 62
     7
 48
0.001959
370
    35
100
AcDbLine
 10
369.3282666274788
 20
379.7433981735252
 30
0.0
 11
369.2728776274788
 21
379.7988181735253
 31
0.0
  0
LINE
  5
31F
330
1F
100
AcDbEntity
  8
0
 62
     7
 48
0.00168
370
    35
100
AcDbLine
 10
53.86153062747878
 20
392.4266251735253
 30
0.0
 11
53.79433162747878
 21
392.4269301735252
 31
0.0
  0
LINE
  5
320
330
1F
100
AcDbEntity
  8
0
 62
     7
 48
0.017989
370
    35
100
AcDbLine
 10
53.07477262747878
 20
392.4300431735252
 30
0.0
 11
53.79433162747878
 21
392.4269301735252
 31
0.0
  0
LINE
  5
321
330
1F
100
AcDbEntity
  8
0
 62
     7
 48
0.017989
370
    35
100
AcDbLine
 10
366.1676226274788
 20
392.4300431735252
 30
0.0
 11
365.4480786274788
 21
392.4269301735252
 31
0.0
  0
LINE
  5
322
330
1F
100
AcDbEntity
  8
0
 62
     7
 48
0.001638
370
    35
100
AcDbLine
 10
367.5931596274788
 20
392.9294331735253
 30
0.0
 11
367.6265456274788
 21
392.9858291735253
 31
0.0
  0
LINE
  5
323
330
1F
100
AcDbEntity
  8
0
 62
     7
 48
0.001638
370
    35
100
AcDbLine
 10
51.64923562747877
 20
392.9294331735253
 30
0.0
 11
51.61587962747877
 21
392.9858291735253
 31
0.0
  0
LINE
  5
324
330
1F
100
AcDbEntity
  8
0
 62
     7
 48
0.001959
370
    35
100
AcDbLine
 10
49.91415862747878
 20
379.7433981735252
 30
0.0
 11
49.96953262747878
 21
379.7988181735253
 31
0.0
  0
LINE
  5
325
330
1F
100
AcDbEntity
  8
0
 62
     7
 48
0.011675
370
    35
100
AcDbLine
 10
51.17157462747877
 20
380.0991721735253
 30
0.0
 11
51.63855462747878
 21
380.1014911735253
 31
0.0
  0
ELLIPSE
  5
326
330
1F
100
AcDbEntity
  8
0
 62
   253
370
    35
100
AcDbEllipse
 10
350.9124036274788
 20
235.2628681735252
 30
0.0
 11
-0.3535461399999999
 21
0.3535461399999999
 31
0.0
210
0.0
220
0.0
230
1.0
 40
0.9996950000000001
 41
2.3560422
 42
3.14159265
  0
ELLIPSE
  5
327
330
1F
100
AcDbEntity
  8
0
 62
   253
370
    35
100
AcDbEllipse
 10
68.33000662747878
 20
235.2628681735252
 30
0.0
 11
0.3535461399999999
 21
0.3535461399999999
 31
0.0
210
0.0
220
0.0
230
1.0
 40
0.9996950000000001
 41
3.14159265
 42
3.927143109999999
  0
LINE
  5
328
330
1F
100
AcDbEntity
  8
0
 62
   253
 48
0.001736
370
    35
100
AcDbLine
 10
154.6212046274788
 20
235.1934101735253
 30
0.0
 11
154.6212046274788
 21
235.2628681735252
 31
0.0
  0
ELLIPSE
  5
329
330
1F
100
AcDbEntity
  8
0
 62
   253
370
    35
100
AcDbEllipse
 10
154.1212046274788
 20
235.2628681735252
 30
0.0
 11
-0.5
 21
0.0
 31
0.0
210
0.0
220
0.0
230
1.0
 40
0.9998479999999998
 41
1.57079633
 42
3.14159265
  0
LINE
  5
32A
330
1F
100
AcDbEntity
  8
0
 62
   253
 48
0.012173
370
    35
100
AcDbLine
 10
174.6212046274788
 20
234.5710041735252
 30
0.0
 11
174.6212046274788
 21
235.0579121735253
 31
0.0
  0
LINE
  5
32B
330
1F
100
AcDbEntity
  8
0
 62
   253
 48
0.012173
370
    35
100
AcDbLine
 10
244.6212046274788
 20
234.5710041735252
 30
0.0
 11
244.6212046274788
 21
235.0579121735253
 31
0.0
  0
ELLIPSE
  5
32C
330
1F
100
AcDbEntity
  8
0
 62
   253
370
    35
100
AcDbEllipse
 10
265.1212046274788
 20
235.2628681735252
 30
0.0
 11
0.5
 21
0.0
 31
0.0
210
0.0
220
0.0
230
1.0
 40
0.9998479999999998
 41
3.14159265
 42
4.71238898
  0
LINE
  5
32D
330
1F
100
AcDbEntity
  8
0
 62
   253
 48
0.001736
370
    35
100
AcDbLine
 10
264.6212046274788
 20
235.1934101735253
 30
0.0
 11
264.6212046274788
 21
235.2628681735252
 31
0.0
  0
LINE
  5
32E
330
1F
100
AcDbEntity
  8
0
 62
   253
 48
0.099519
370
    35
100
AcDbLine
 10
154.6212046274788
 20
235.2628681735252
 30
0.0
 11
154.6212046274788
 21
239.2436421735253
 31
0.0
  0
ARC
  5
32F
330
1F
100
AcDbEntity
  8
0
 62
   253
370
    35
100
AcDbCircle
 10
156.6315506274787
 20
239.2486471735252
 30
0.0
 40
2.009984
100
AcDbArc
 50
118.259439
 51
180.141762
  0
ARC
  5
330
330
1F
100
AcDbEntity
  8
0
 62
   253
370
    35
100
AcDbCircle
 10
174.6169936274788
 20
205.5767411735252
 30
0.0
 40
40.184224
100
AcDbArc
 50
89.99399200000004
 51
118.115923
  0
LINE
  5
331
330
1F
100
AcDbEntity
  8
0
 62
   253
 48
0.2675800000000001
370
    35
100
AcDbLine
 10
174.6212046274788
 20
235.0579121735253
 30
0.0
 11
174.6212046274788
 21
245.7610981735252
 31
0.0
  0
LINE
  5
332
330
1F
100
AcDbEntity
  8
0
 62
   253
370
    35
100
AcDbLine
 10
244.6212046274788
 20
245.7610981735252
 30
0.0
 11
174.6212046274788
 21
245.7610981735252
 31
0.0
  0
LINE
  5
333
330
1F
100
AcDbEntity
  8
0
 62
   253
 48
0.2675800000000001
370
    35
100
AcDbLine
 10
244.6212046274788
 20
235.0579121735253
 30
0.0
 11
244.6212046274788
 21
245.7610981735252
 31
0.0
  0
ARC
  5
334
330
1F
100
AcDbEntity
  8
0
 62
   253
370
    35
100
AcDbCircle
 10
244.6253856274788
 20
205.5763751735252
 30
0.0
 40
40.184573
100
AcDbArc
 50
61.884266
 51
90.00595200000004
  0
ARC
  5
335
330
1F
100
AcDbEntity
  8
0
 62
   253
370
    35
100
AcDbCircle
 10
262.6108596274788
 20
239.2486471735252
 30
0.0
 40
2.009984
100
AcDbArc
 50
359.8582330000001
 51
61.74056599999993
  0
LINE
  5
336
330
1F
100
AcDbEntity
  8
0
 62
   253
 48
0.099519
370
    35
100
AcDbLine
 10
264.6212046274788
 20
235.2628681735252
 30
0.0
 11
264.6212046274788
 21
239.2436421735253
 31
0.0
  0
LINE
  5
337
330
1F
100
AcDbEntity
  8
0
 62
   253
370
    35
100
AcDbLine
 10
154.1212046274788
 20
234.7629591735253
 30
0.0
 11
109.7784626274787
 21
234.7629591735253
 31
0.0
  0
LINE
  5
338
330
1F
100
AcDbEntity
  8
0
 62
   253
370
    35
100
AcDbLine
 10
93.46394762747877
 20
234.7629591735253
 30
0.0
 11
68.33000662747878
 21
234.7629591735253
 31
0.0
  0
LINE
  5
339
330
1F
100
AcDbEntity
  8
0
 62
   253
 48
0.001304
370
    35
100
AcDbLine
 10
320.1126906274788
 20
234.5971271735252
 30
0.0
 11
320.0758256274788
 21
234.5602311735253
 31
0.0
  0
LINE
  5
33A
330
1F
100
AcDbEntity
  8
0
 62
   253
 48
0.001304
370
    35
100
AcDbLine
 10
111.1297046274787
 20
234.5971271735252
 30
0.0
 11
111.1665846274788
 21
234.5602311735253
 31
0.0
  0
ELLIPSE
  5
33B
330
1F
100
AcDbEntity
  8
0
 62
   253
370
    35
100
AcDbEllipse
 10
350.8102916274788
 20
214.4756061735253
 30
0.0
 11
0.5
 21
-0.0012207
 31
0.0
210
0.0
220
0.0
230
1.0
 40
0.139173
 41
5.383801799999999
 42
6.300810137179586
  0
LINE
  5
33C
330
1F
100
AcDbEntity
  8
0
 62
   253
 48
0.001248
370
    35
100
AcDbLine
 10
351.2659496274788
 20
234.9093221735253
 30
0.0
 11
351.2306406274788
 21
234.8740131735253
 31
0.0
  0
LINE
  5
33D
330
1F
100
AcDbEntity
  8
0
 62
   253
 48
0.001248
370
    35
100
AcDbLine
 10
68.01176862747877
 20
234.8740131735253
 30
0.0
 11
67.97646062747879
 21
234.9093221735253
 31
0.0
  0
LINE
  5
33E
330
1F
100
AcDbEntity
  8
0
 62
   253
370
    35
100
AcDbLine
 10
351.4124036274788
 20
330.3930561735253
 30
0.0
 11
351.4124036274788
 21
235.2628681735252
 31
0.0
  0
ARC
  5
33F
330
1F
100
AcDbEntity
  8
0
 62
   253
370
    35
100
AcDbCircle
 10
350.9124036274788
 20
235.2628681735252
 30
0.0
 40
0.5
100
AcDbArc
 50
314.999999
 51
0.0
  0
ARC
  5
340
330
1F
100
AcDbEntity
  8
0
 62
   253
370
    35
100
AcDbCircle
 10
68.33000662747878
 20
235.2628681735252
 30
0.0
 40
0.5
100
AcDbArc
 50
180.0
 51
224.9999999999999
  0
LINE
  5
341
330
1F
100
AcDbEntity
  8
0
 62
   253
370
    35
100
AcDbLine
 10
67.83000662747878
 20
330.3930561735253
 30
0.0
 11
67.83000662747878
 21
235.2628681735252
 31
0.0
  0
LINE
  5
342
330
1F
100
AcDbEntity
  8
0
 62
   253
370
    35
100
AcDbLine
 10
68.35619062747878
 20
332.3930561735253
 30
0.0
 11
350.8862196274788
 21
332.3930561735253
 31
0.0
  0
LINE
  5
343
330
1F
100
AcDbEntity
  8
0
 62
   253
 48
0.000625
370
    35
100
AcDbLine
 10
68.00348362747877
 20
234.8829241735252
 30
0.0
 11
68.02115362747878
 21
234.8652241735253
 31
0.0
  0
LINE
  5
344
330
1F
100
AcDbEntity
  8
0
 62
   253
 48
0.000626
370
    35
100
AcDbLine
 10
351.2389116274788
 20
234.8829241735252
 30
0.0
 11
351.2212116274788
 21
234.8651931735253
 31
0.0
  0
LINE
  5
345
330
1F
100
AcDbEntity
  8
0
 62
   253
 48
0.011442
370
    35
100
AcDbLine
 10
174.6212046274788
 20
233.0788471735253
 30
0.0
 11
174.6212046274788
 21
232.6211751735253
 31
0.0
  0
LINE
  5
346
330
1F
100
AcDbEntity
  8
0
 62
   253
 48
0.011443
370
    35
100
AcDbLine
 10
244.6212046274788
 20
233.0788471735253
 30
0.0
 11
244.6212046274788
 21
232.6211441735253
 31
0.0
  0
LINE
  5
347
330
1F
100
AcDbEntity
  8
0
 62
   253
 48
0.499564
370
    35
100
AcDbLine
 10
68.12120462747877
 20
233.0348101735253
 30
0.0
 11
68.12120462747877
 21
213.0522661735252
 31
0.0
  0
ARC
  5
348
330
1F
100
AcDbEntity
  8
0
 62
   253
370
    35
100
AcDbCircle
 10
68.62120462747878
 20
213.0522661735252
 30
0.0
 40
0.5
100
AcDbArc
 50
180.0
 51
270.0
  0
LINE
  5
349
330
1F
100
AcDbEntity
  8
0
 62
   253
370
    35
100
AcDbLine
 10
68.62120462747878
 20
212.5522661735252
 30
0.0
 11
350.6212046274788
 21
212.5522661735252
 31
0.0
  0
ARC
  5
34A
330
1F
100
AcDbEntity
  8
0
 62
   253
370
    35
100
AcDbCircle
 10
350.6212046274788
 20
213.0522661735252
 30
0.0
 40
0.5
100
AcDbArc
 50
270.0
 51
0.0
  0
LINE
  5
34B
330
1F
100
AcDbEntity
  8
0
 62
   253
 48
0.499564
370
    35
100
AcDbLine
 10
351.1212046274788
 20
213.0522661735252
 30
0.0
 11
351.1212046274788
 21
233.0348101735253
 31
0.0
  0
LINE
  5
34C
330
1F
100
AcDbEntity
  8
0
 62
   253
 48
0.2141739999999999
370
    35
100
AcDbLine
 10
174.6212046274788
 20
232.6211441735253
 30
0.0
 11
174.6212046274788
 21
224.0541891735253
 31
0.0
  0
LINE
  5
34D
330
1F
100
AcDbEntity
  8
0
 62
   253
 48
0.2141739999999999
370
    35
100
AcDbLine
 10
244.6212046274788
 20
232.6211441735253
 30
0.0
 11
244.6212046274788
 21
224.0541891735253
 31
0.0
  0
LINE
  5
34E
330
1F
100
AcDbEntity
  8
0
 62
   253
 48
0.099085
370
    35
100
AcDbLine
 10
264.6212046274788
 20
233.0348101735253
 30
0.0
 11
264.6212046274788
 21
229.0714011735253
 31
0.0
  0
LINE
  5
34F
330
1F
100
AcDbEntity
  8
0
 62
   253
 48
0.099085
370
    35
100
AcDbLine
 10
154.6212046274788
 20
233.0348101735253
 30
0.0
 11
154.6212046274788
 21
229.0714011735253
 31
0.0
  0
LINE
  5
350
330
1F
100
AcDbEntity
  8
0
 62
   253
 48
0.00038
370
    35
100
AcDbLine
 10
155.6822246274788
 20
227.2885331735253
 30
0.0
 11
155.6974076274788
 21
227.2885331735253
 31
0.0
  0
LINE
  5
351
330
1F
100
AcDbEntity
  8
0
 62
   253
 48
0.000493
370
    35
100
AcDbLine
 10
155.6974076274788
 20
227.2885331735253
 30
0.0
 11
155.6800276274788
 21
227.2978111735253
 31
0.0
  0
ARC
  5
352
330
1F
100
AcDbEntity
  8
0
 62
   253
370
    35
100
AcDbCircle
 10
166.4435926274788
 20
247.0576681735253
 30
0.0
 40
22.508355
100
AcDbArc
 50
241.4382299999999
 51
242.5411959999999
  0
LINE
  5
353
330
1F
100
AcDbEntity
  8
0
 62
   253
 48
0.000493
370
    35
100
AcDbLine
 10
263.5623976274788
 20
227.2978111735253
 30
0.0
 11
263.5450026274788
 21
227.2885331735253
 31
0.0
  0
LINE
  5
354
330
1F
100
AcDbEntity
  8
0
 62
   253
 48
0.00038
370
    35
100
AcDbLine
 10
263.5602006274788
 20
227.2885331735253
 30
0.0
 11
263.5450026274788
 21
227.2885331735253
 31
0.0
  0
ARC
  5
355
330
1F
100
AcDbEntity
  8
0
 62
   253
370
    35
100
AcDbCircle
 10
252.7988176274788
 20
247.0576681735253
 30
0.0
 40
22.508351
100
AcDbArc
 50
297.458799
 51
298.561772
  0
LINE
  5
356
330
1F
100
AcDbEntity
  8
0
 62
   253
 48
0.002541
370
    35
100
AcDbLine
 10
174.6212046274788
 20
220.5078941735253
 30
0.0
 11
174.6212046274788
 21
220.6095481735253
 31
0.0
  0
LINE
  5
357
330
1F
100
AcDbEntity
  8
0
 62
   253
 48
0.000273
370
    35
100
AcDbLine
 10
155.6800276274788
 20
227.2978111735253
 30
0.0
 11
155.6743056274787
 21
227.2885331735253
 31
0.0
  0
ARC
  5
358
330
1F
100
AcDbEntity
  8
0
 62
   253
370
    35
100
AcDbCircle
 10
156.6306046274787
 20
229.0674641735253
 30
0.0
 40
2.009075
100
AcDbArc
 50
179.8683599999999
 51
241.757773
  0
LINE
  5
359
330
1F
100
AcDbEntity
  8
0
 62
   253
 48
0.001318
370
    35
100
AcDbLine
 10
154.9012956274787
 20
227.2587181735253
 30
0.0
 11
154.9447526274787
 21
227.2885331735253
 31
0.0
  0
ARC
  5
35A
330
1F
100
AcDbEntity
  8
0
 62
   253
370
    35
100
AcDbCircle
 10
262.6118366274787
 20
229.0674331735253
 30
0.0
 40
2.009049999999999
100
AcDbArc
 50
298.242502
 51
0.132652999999903
  0
LINE
  5
35B
330
1F
100
AcDbEntity
  8
0
 62
   253
 48
0.000272
370
    35
100
AcDbLine
 10
263.5623976274788
 20
227.2978111735253
 30
0.0
 11
263.5681046274787
 21
227.2885331735253
 31
0.0
  0
LINE
  5
35C
330
1F
100
AcDbEntity
  8
0
 62
   253
 48
0.001318
370
    35
100
AcDbLine
 10
264.2976576274788
 20
227.2885331735253
 30
0.0
 11
264.3411146274788
 21
227.2587181735253
 31
0.0
  0
LINE
  5
35D
330
1F
100
AcDbEntity
  8
0
 62
   253
 48
0.001022
370
    35
100
AcDbLine
 10
264.3411146274788
 20
227.2587181735253
 30
0.0
 11
264.3164866274787
 21
227.2260641735253
 31
0.0
  0
LINE
  5
35E
330
1F
100
AcDbEntity
  8
0
 62
   253
 48
0.002542
370
    35
100
AcDbLine
 10
244.6212046274788
 20
220.5078631735253
 30
0.0
 11
244.6212046274788
 21
220.6095481735253
 31
0.0
  0
LINE
  5
35F
330
1F
100
AcDbEntity
  8
0
 62
   253
 48
0.001897
370
    35
100
AcDbLine
 10
155.0206196274787
 20
227.2885331735253
 30
0.0
 11
154.9447526274787
 21
227.2885331735253
 31
0.0
  0
LINE
  5
360
330
1F
100
AcDbEntity
  8
0
 62
   253
 48
0.012196
370
    35
100
AcDbLine
 10
155.6822246274788
 20
227.2885331735253
 30
0.0
 11
155.1943866274787
 21
227.2885331735253
 31
0.0
  0
LINE
  5
361
330
1F
100
AcDbEntity
  8
0
 62
   253
 48
0.00136
370
    35
100
AcDbLine
 10
155.1943866274787
 20
227.2885331735253
 30
0.0
 11
155.1399736274787
 21
227.2885331735253
 31
0.0
  0
LINE
  5
362
330
1F
100
AcDbEntity
  8
0
 62
   253
 48
0.002984
370
    35
100
AcDbLine
 10
155.0206196274787
 20
227.2885331735253
 30
0.0
 11
155.1399736274787
 21
227.2885331735253
 31
0.0
  0
LINE
  5
363
330
1F
100
AcDbEntity
  8
0
 62
   253
 48
0.069543
370
    35
100
AcDbLine
 10
244.6212046274788
 20
220.6095481735253
 30
0.0
 11
244.6212046274788
 21
223.3912551735253
 31
0.0
  0
LINE
  5
364
330
1F
100
AcDbEntity
  8
0
 62
   253
 48
0.002984
370
    35
100
AcDbLine
 10
264.2217906274788
 20
227.2885331735253
 30
0.0
 11
264.1024366274788
 21
227.2885331735253
 31
0.0
  0
LINE
  5
365
330
1F
100
AcDbEntity
  8
0
 62
   253
 48
0.016567
370
    35
100
AcDbLine
 10
244.6212046274788
 20
224.0539451735252
 30
0.0
 11
244.6212046274788
 21
223.3912551735253
 31
0.0
  0
LINE
  5
366
330
1F
100
AcDbEntity
  8
0
 62
   253
 48
0.00136
370
    35
100
AcDbLine
 10
264.0480236274787
 20
227.2885331735253
 30
0.0
 11
264.1024366274788
 21
227.2885331735253
 31
0.0
  0
LINE
  5
367
330
1F
100
AcDbEntity
  8
0
 62
   253
 48
0.016566
370
    35
100
AcDbLine
 10
174.6212046274788
 20
224.0539451735252
 30
0.0
 11
174.6212046274788
 21
223.3913161735253
 31
0.0
  0
LINE
  5
368
330
1F
100
AcDbEntity
  8
0
 62
   253
 48
0.069543
370
    35
100
AcDbLine
 10
174.6212046274788
 20
220.6095481735253
 30
0.0
 11
174.6212046274788
 21
223.3912551735253
 31
0.0
  0
LINE
  5
369
330
1F
100
AcDbEntity
  8
0
 62
   253
 48
0.001897
370
    35
100
AcDbLine
 10
264.2217906274788
 20
227.2885331735253
 30
0.0
 11
264.2976576274788
 21
227.2885331735253
 31
0.0
  0
LINE
  5
36A
330
1F
100
AcDbEntity
  8
0
 62
   253
 48
0.012196
370
    35
100
AcDbLine
 10
263.5602006274788
 20
227.2885331735253
 30
0.0
 11
264.0480236274787
 21
227.2885331735253
 31
0.0
  0
LINE
  5
36B
330
1F
100
AcDbEntity
  8
0
 62
   253
370
    35
100
AcDbLine
 10
219.8971146274788
 20
220.5078941735253
 30
0.0
 11
244.6212046274788
 21
220.5078941735253
 31
0.0
  0
LINE
  5
36C
330
1F
100
AcDbEntity
  8
0
 62
   253
370
    35
100
AcDbLine
 10
174.6212046274788
 20
220.5078941735253
 30
0.0
 11
199.3452956274787
 21
220.5078941735253
 31
0.0
  0
LINE
  5
36D
330
1F
100
AcDbEntity
  8
0
 62
   253
370
    35
100
AcDbLine
 10
244.6212046274788
 20
224.0539451735252
 30
0.0
 11
220.0708506274788
 21
224.0539451735252
 31
0.0
  0
LINE
  5
36E
330
1F
100
AcDbEntity
  8
0
 62
   253
370
    35
100
AcDbLine
 10
199.1715586274788
 20
224.0539451735252
 30
0.0
 11
174.6212046274788
 21
224.0539451735252
 31
0.0
  0
LINE
  5
36F
330
1F
100
AcDbEntity
  8
0
 62
   253
 48
0.001824
370
    35
100
AcDbLine
 10
199.4180496274788
 20
220.5136311735253
 30
0.0
 11
199.3452956274787
 21
220.5078941735253
 31
0.0
  0
LINE
  5
370
330
1F
100
AcDbEntity
  8
0
 62
   253
 48
0.001824
370
    35
100
AcDbLine
 10
219.8243606274788
 20
220.5136311735253
 30
0.0
 11
219.8971146274788
 21
220.5078941735253
 31
0.0
  0
ARC
  5
371
330
1F
100
AcDbEntity
  8
0
 62
   253
370
    35
100
AcDbCircle
 10
220.0708506274788
 20
224.3539631735253
 30
0.0
 40
0.3
100
AcDbArc
 50
187.9089719999999
 51
270.0
  0
ARC
  5
372
330
1F
100
AcDbEntity
  8
0
 62
   253
370
    35
100
AcDbCircle
 10
199.1715586274788
 20
224.3539631735253
 30
0.0
 40
0.3
100
AcDbArc
 50
270.0
 51
352.0910399999999
  0
ARC
  5
373
330
1F
100
AcDbEntity
  8
0
 62
   253
370
    35
100
AcDbCircle
 10
209.6212046274788
 20
222.9022721735252
 30
0.0
 40
10.25
100
AcDbArc
 50
7.490844000000072
 51
172.5091589999999
  0
ARC
  5
374
330
1F
100
AcDbEntity
  8
0
 62
   253
370
    35
100
AcDbCircle
 10
209.6212046274788
 20
222.9022721735252
 30
0.0
 40
10.25
100
AcDbArc
 50
315.099125
 51
357.3491009999999
  0
ARC
  5
375
330
1F
100
AcDbEntity
  8
0
 62
   253
370
    35
100
AcDbCircle
 10
209.6212046274788
 20
222.9022721735252
 30
0.0
 40
10.25
100
AcDbArc
 50
182.6509009999999
 51
224.9008799999999
  0
ARC
  5
376
330
1F
100
AcDbEntity
  8
0
 62
   253
370
    35
100
AcDbCircle
 10
206.6107986274788
 20
219.9022721735253
 30
0.0
 40
6.0
100
AcDbArc
 50
224.9008799999999
 51
270.0
  0
ARC
  5
377
330
1F
100
AcDbEntity
  8
0
 62
   253
370
    35
100
AcDbCircle
 10
212.6316116274788
 20
219.9022721735253
 30
0.0
 40
6.0
100
AcDbArc
 50
270.0
 51
315.099125
  0
LINE
  5
378
330
1F
100
AcDbEntity
  8
0
 62
   253
 48
0.15052
370
    35
100
AcDbLine
 10
212.6316116274788
 20
213.9022721735253
 30
0.0
 11
206.6107986274788
 21
213.9022721735253
 31
0.0
  0
LINE
  5
379
330
1F
100
AcDbEntity
  8
0
 62
   253
370
    35
100
AcDbLine
 10
174.6212046274788
 20
233.0788471735253
 30
0.0
 11
208.3667796274788
 21
233.0788471735253
 31
0.0
  0
LINE
  5
37A
330
1F
100
AcDbEntity
  8
0
 62
   253
370
    35
100
AcDbLine
 10
210.8756296274788
 20
233.0788471735253
 30
0.0
 11
244.6212046274788
 21
233.0788471735253
 31
0.0
  0
LINE
  5
37B
330
1F
100
AcDbEntity
  8
0
 62
   253
370
    35
100
AcDbLine
 10
265.1212046274788
 20
233.5348101735253
 30
0.0
 11
350.6212046274788
 21
233.5348101735253
 31
0.0
  0
ARC
  5
37C
330
1F
100
AcDbEntity
  8
0
 62
   253
370
    35
100
AcDbCircle
 10
263.4142046274787
 20
259.5042621735252
 30
0.0
 40
26.187453
100
AcDbArc
 50
270.818623
 51
272.889058
  0
ARC
  5
37D
330
1F
100
AcDbEntity
  8
0
 62
   253
370
    35
100
AcDbCircle
 10
246.2534686274788
 20
1192.899770173525
 30
0.0
 40
959.741097
100
AcDbArc
 50
270.4094740000001
 51
271.046874
  0
ARC
  5
37E
330
1F
100
AcDbEntity
  8
0
 62
   253
370
    35
100
AcDbCircle
 10
172.9897356274788
 20
1192.955556173525
 30
0.0
 40
959.7969449999999
100
AcDbArc
 50
268.953134
 51
269.5905069999999
  0
ARC
  5
37F
330
1F
100
AcDbEntity
  8
0
 62
   253
370
    35
100
AcDbCircle
 10
155.8282366274787
 20
259.5051161735252
 30
0.0
 40
26.188336
100
AcDbArc
 50
267.110991
 51
269.1813520000001
  0
LINE
  5
380
330
1F
100
AcDbEntity
  8
0
 62
   253
370
    35
100
AcDbLine
 10
68.62120462747878
 20
233.5348101735253
 30
0.0
 11
154.1212046274788
 21
233.5348101735253
 31
0.0
  0
LINE
  5
381
330
1F
100
AcDbEntity
  8
0
 62
   253
 48
0.001461
370
    35
100
AcDbLine
 10
208.4251296274788
 20
233.0822651735253
 30
0.0
 11
208.3667796274788
 21
233.0788471735253
 31
0.0
  0
LINE
  5
382
330
1F
100
AcDbEntity
  8
0
 62
   253
 48
0.001461
370
    35
100
AcDbLine
 10
210.8756296274788
 20
233.0788471735253
 30
0.0
 11
210.8172806274787
 21
233.0822651735253
 31
0.0
  0
ARC
  5
383
330
1F
100
AcDbEntity
  8
0
 62
   253
370
    35
100
AcDbCircle
 10
68.62120462747878
 20
233.0348101735253
 30
0.0
 40
0.5
100
AcDbArc
 50
90.0
 51
180.0
  0
ARC
  5
384
330
1F
100
AcDbEntity
  8
0
 62
   253
370
    35
100
AcDbCircle
 10
350.6212046274788
 20
233.0348101735253
 30
0.0
 40
0.5
100
AcDbArc
 50
0.0
 51
90.0
  0
ARC
  5
385
330
1F
100
AcDbEntity
  8
0
 62
   253
370
    35
100
AcDbCircle
 10
265.1212046274788
 20
233.0348101735253
 30
0.0
 40
0.5
100
AcDbArc
 50
90.0
 51
180.0
  0
ARC
  5
386
330
1F
100
AcDbEntity
  8
0
 62
   253
370
    35
100
AcDbCircle
 10
154.1212046274788
 20
233.0348101735253
 30
0.0
 40
0.5
100
AcDbArc
 50
0.0
 51
90.0
  0
LINE
  5
387
330
1F
100
AcDbEntity
  8
0
 62
   253
 48
0.007236
370
    35
100
AcDbLine
 10
156.3225146274787
 20
226.9533591735253
 30
0.0
 11
156.0647626274788
 21
227.0850421735253
 31
0.0
  0
LINE
  5
388
330
1F
100
AcDbEntity
  8
0
 62
   253
 48
0.007237
370
    35
100
AcDbLine
 10
262.9198806274788
 20
226.9533591735253
 30
0.0
 11
263.1776626274787
 21
227.0850421735253
 31
0.0
  0
ARC
  5
389
330
1F
100
AcDbEntity
  8
0
 62
     7
370
    35
100
AcDbCircle
 10
65.62120462747877
 20
386.2646381735253
 30
0.0
 40
16.0
100
AcDbArc
 50
151.190936
 51
180.0
  0
LINE
  5
38A
330
1F
100
AcDbEntity
  8
0
 62
     7
370
    35
100
AcDbLine
 10
49.62120462747877
 20
386.2646381735253
 30
0.0
 11
49.62120462747877
 21
58.26460717352526
 31
0.0
  0
ARC
  5
38B
330
1F
100
AcDbEntity
  8
0
 62
     7
370
    35
100
AcDbCircle
 10
65.62120462747877
 20
58.26460717352526
 30
0.0
 40
16.0
100
AcDbArc
 50
180.0
 51
270.0
  0
LINE
  5
38C
330
1F
100
AcDbEntity
  8
0
 62
     7
370
    35
100
AcDbLine
 10
65.62120462747877
 20
42.26460717352526
 30
0.0
 11
353.6212046274788
 21
42.26460717352526
 31
0.0
  0
ARC
  5
38D
330
1F
100
AcDbEntity
  8
0
 62
     7
370
    35
100
AcDbCircle
 10
353.6212046274788
 20
58.26460717352526
 30
0.0
 40
16.0
100
AcDbArc
 50
270.0
 51
0.0
  0
LINE
  5
38E
330
1F
100
AcDbEntity
  8
0
 62
     7
 48
0.180701
370
    35
100
AcDbLine
 10
369.6212046274788
 20
65.49266517352527
 30
0.0
 11
369.6212046274788
 21
58.26460717352526
 31
0.0
  0
LINE
  5
38F
330
1F
100
AcDbEntity
  8
0
 62
     7
 48
0.180702
370
    35
100
AcDbLine
 10
369.6212046274788
 20
386.2646381735253
 30
0.0
 11
369.6212046274788
 21
379.0365501735252
 31
0.0
  0
ARC
  5
390
330
1F
100
AcDbEntity
  8
0
 62
     7
370
    35
100
AcDbCircle
 10
353.6212046274788
 20
386.2646381735253
 30
0.0
 40
16.0
100
AcDbArc
 50
0.0
 51
28.80765099999998
  0
CIRCLE
  5
391
330
1F
100
AcDbEntity
  8
0
 62
     7
370
    35
100
AcDbCircle
 10
65.62120462747877
 20
58.26460717352526
 30
0.0
 40
4.883901999999999
  0
LINE
  5
392
330
1F
100
AcDbEntity
  8
0
 62
     7
 48
0.05
370
    35
100
AcDbLine
 10
64.62120462747877
 20
62.76460717352526
 30
0.0
 11
66.62120462747878
 21
62.76460717352526
 31
0.0
  0
LINE
  5
393
330
1F
100
AcDbEntity
  8
0
 62
     7
 48
0.225
370
    35
100
AcDbLine
 10
64.62120462747877
 20
62.76460717352526
 30
0.0
 11
64.62120462747877
 21
53.76460717352526
 31
0.0
  0
LINE
  5
394
330
1F
100
AcDbEntity
  8
0
 62
     7
 48
0.05
370
    35
100
AcDbLine
 10
66.62120462747878
 20
53.76460717352526
 30
0.0
 11
64.62120462747877
 21
53.76460717352526
 31
0.0
  0
LINE
  5
395
330
1F
100
AcDbEntity
  8
0
 62
     7
 48
0.225
370
    35
100
AcDbLine
 10
66.62120462747878
 20
53.76460717352526
 30
0.0
 11
66.62120462747878
 21
62.76460717352526
 31
0.0
  0
ARC
  5
396
330
1F
100
AcDbEntity
  8
0
 62
     7
370
    35
100
AcDbCircle
 10
65.62120462747877
 20
58.26460717352526
 30
0.0
 40
8.949999999999999
100
AcDbArc
 50
208.6478850000001
 51
28.64788999999992
  0
ARC
  5
397
330
1F
100
AcDbEntity
  8
0
 62
     7
370
    35
100
AcDbCircle
 10
65.62120462747877
 20
58.26460717352526
 30
0.0
 40
8.949999999999999
100
AcDbArc
 50
28.64788999999992
 51
208.6478850000001
  0
CIRCLE
  5
398
330
1F
100
AcDbEntity
  8
0
 62
     7
370
    35
100
AcDbCircle
 10
353.6212046274788
 20
58.26460717352526
 30
0.0
 40
4.883901999999999
  0
LINE
  5
399
330
1F
100
AcDbEntity
  8
0
 62
     7
 48
0.05
370
    35
100
AcDbLine
 10
352.6212046274788
 20
62.76460717352526
 30
0.0
 11
354.6212046274788
 21
62.76460717352526
 31
0.0
  0
LINE
  5
39A
330
1F
100
AcDbEntity
  8
0
 62
     7
 48
0.225
370
    35
100
AcDbLine
 10
352.6212046274788
 20
62.76460717352526
 30
0.0
 11
352.6212046274788
 21
53.76460717352526
 31
0.0
  0
LINE
  5
39B
330
1F
100
AcDbEntity
  8
0
 62
     7
 48
0.05
370
    35
100
AcDbLine
 10
354.6212046274788
 20
53.76460717352526
 30
0.0
 11
352.6212046274788
 21
53.76460717352526
 31
0.0
  0
LINE
  5
39C
330
1F
100
AcDbEntity
  8
0
 62
     7
 48
0.225
370
    35
100
AcDbLine
 10
354.6212046274788
 20
53.76460717352526
 30
0.0
 11
354.6212046274788
 21
62.76460717352526
 31
0.0
  0
ARC
  5
39D
330
1F
100
AcDbEntity
  8
0
 62
     7
370
    35
100
AcDbCircle
 10
353.6212046274788
 20
58.26460717352526
 30
0.0
 40
8.949999999999999
100
AcDbArc
 50
208.6478850000001
 51
28.64788999999992
  0
ARC
  5
39E
330
1F
100
AcDbEntity
  8
0
 62
     7
370
    35
100
AcDbCircle
 10
353.6212046274788
 20
58.26460717352526
 30
0.0
 40
8.949999999999999
100
AcDbArc
 50
28.64788999999992
 51
208.6478850000001
  0
CIRCLE
  5
39F
330
1F
100
AcDbEntity
  8
0
 62
     7
370
    35
100
AcDbCircle
 10
353.6212046274788
 20
386.2646381735253
 30
0.0
 40
4.883901999999999
  0
LINE
  5
3A0
330
1F
100
AcDbEntity
  8
0
 62
     7
 48
0.05
370
    35
100
AcDbLine
 10
352.6212046274788
 20
390.7646381735253
 30
0.0
 11
354.6212046274788
 21
390.7646381735253
 31
0.0
  0
LINE
  5
3A1
330
1F
100
AcDbEntity
  8
0
 62
     7
 48
0.225
370
    35
100
AcDbLine
 10
352.6212046274788
 20
390.7646381735253
 30
0.0
 11
352.6212046274788
 21
381.7646381735253
 31
0.0
  0
LINE
  5
3A2
330
1F
100
AcDbEntity
  8
0
 62
     7
 48
0.05
370
    35
100
AcDbLine
 10
354.6212046274788
 20
381.7646381735253
 30
0.0
 11
352.6212046274788
 21
381.7646381735253
 31
0.0
  0
LINE
  5
3A3
330
1F
100
AcDbEntity
  8
0
 62
     7
 48
0.225
370
    35
100
AcDbLine
 10
354.6212046274788
 20
381.7646381735253
 30
0.0
 11
354.6212046274788
 21
390.7646381735253
 31
0.0
  0
ARC
  5
3A4
330
1F
100
AcDbEntity
  8
0
 62
     7
370
    35
100
AcDbCircle
 10
353.6212046274788
 20
386.2646381735253
 30
0.0
 40
8.949999999999999
100
AcDbArc
 50
208.6478850000001
 51
28.64788999999992
  0
ARC
  5
3A5
330
1F
100
AcDbEntity
  8
0
 62
     7
370
    35
100
AcDbCircle
 10
353.6212046274788
 20
386.2646381735253
 30
0.0
 40
8.949999999999999
100
AcDbArc
 50
28.64788999999992
 51
208.6478850000001
  0
CIRCLE
  5
3A6
330
1F
100
AcDbEntity
  8
0
 62
     7
370
    35
100
AcDbCircle
 10
65.62120462747877
 20
386.2646381735253
 30
0.0
 40
4.883901999999999
  0
LINE
  5
3A7
330
1F
100
AcDbEntity
  8
0
 62
     7
 48
0.05
370
    35
100
AcDbLine
 10
64.62120462747877
 20
390.7646381735253
 30
0.0
 11
66.62120462747878
 21
390.7646381735253
 31
0.0
  0
LINE
  5
3A8
330
1F
100
AcDbEntity
  8
0
 62
     7
 48
0.225
370
    35
100
AcDbLine
 10
64.62120462747877
 20
390.7646381735253
 30
0.0
 11
64.62120462747877
 21
381.7646381735253
 31
0.0
  0
LINE
  5
3A9
330
1F
100
AcDbEntity
  8
0
 62
     7
 48
0.05
370
    35
100
AcDbLine
 10
66.62120462747878
 20
381.7646381735253
 30
0.0
 11
64.62120462747877
 21
381.7646381735253
 31
0.0
  0
LINE
  5
3AA
330
1F
100
AcDbEntity
  8
0
 62
     7
 48
0.225
370
    35
100
AcDbLine
 10
66.62120462747878
 20
381.7646381735253
 30
0.0
 11
66.62120462747878
 21
390.7646381735253
 31
0.0
  0
ARC
  5
3AB
330
1F
100
AcDbEntity
  8
0
 62
     7
370
    35
100
AcDbCircle
 10
65.62120462747877
 20
386.2646381735253
 30
0.0
 40
8.949999999999999
100
AcDbArc
 50
208.6478850000001
 51
28.64788999999992
  0
ARC
  5
3AC
330
1F
100
AcDbEntity
  8
0
 62
     7
370
    35
100
AcDbCircle
 10
65.62120462747877
 20
386.2646381735253
 30
0.0
 40
8.949999999999999
100
AcDbArc
 50
28.64788999999992
 51
208.6478850000001
  0
LINE
  5
3AD
330
1F
100
AcDbEntity
  8
0
 62
     7
 48
0.024998
370
    35
100
AcDbLine
 10
353.6212046274788
 20
44.79204317352526
 30
0.0
 11
353.6212046274788
 21
45.79198217352526
 31
0.0
  0
LINE
  5
3AE
330
1F
100
AcDbEntity
  8
0
 62
     7
 48
0.036801
370
    35
100
AcDbLine
 10
353.6212046274788
 20
44.79204317352526
 30
0.0
 11
353.6212046274788
 21
43.31999717352526
 31
0.0
  0
LINE
  5
3AF
330
1F
100
AcDbEntity
  8
0
 62
     7
 48
0.024998
370
    35
100
AcDbLine
 10
353.6212046274788
 20
43.31999717352526
 30
0.0
 11
353.6212046274788
 21
42.32008817352526
 31
0.0
  0
LINE
  5
3B0
330
1F
100
AcDbEntity
  8
0
 62
     7
 48
0.001387
370
    35
100
AcDbLine
 10
353.6212046274788
 20
42.32008817352526
 30
0.0
 11
353.6212046274788
 21
42.26460717352526
 31
0.0
  0
LINE
  5
3B1
330
1F
100
AcDbEntity
  8
0
 62
     7
100
AcDbLine
 10
83.62120462747878
 20
309.7646381735253
 30
0.0
 11
335.6212046274788
 21
309.7646381735253
 31
0.0
  0
LINE
  5
3B2
330
1F
100
AcDbEntity
  8
0
 62
     7
100
AcDbLine
 10
335.6212046274788
 20
309.7646381735253
 30
0.0
 11
335.6212046274788
 21
264.7646381735253
 31
0.0
  0
LINE
  5
3B3
330
1F
100
AcDbEntity
  8
0
 62
     7
100
AcDbLine
 10
335.6212046274788
 20
264.7646381735253
 30
0.0
 11
83.62120462747878
 21
264.7646381735253
 31
0.0
  0
LINE
  5
3B4
330
1F
100
AcDbEntity
  8
0
 62
     7
100
AcDbLine
 10
83.62120462747878
 20
264.7646381735253
 30
0.0
 11
83.62120462747878
 21
309.7646381735253
 31
0.0
  0
DIMENSION
  5
3B5
330
1F
100
AcDbEntity
  8
QUOTE
 62
     7
100
AcDbDimension
  2
*D5
 10
27.50786403747877
 20
42.26460717352527
 30
0.0
 11
27.50786403747878
 21
223.4600348035253
 31
0.0
 70
   160
 71
     0
 42
359.944489
  3
Standard
100
AcDbAlignedDimension
 13
65.62120462747877
 23
402.2090961735252
 33
0.0
 14
65.62120378747877
 24
42.26460717352526
 34
0.0
 50
90.0
100
AcDbRotatedDimension
1001
ACAD
1000
DSTYLE
1002
{
1070
    45
1040
1.0
1070
    41
1040
15.0
1070
   140
1040
10.0
1070
    78
1070
     8
1070
   284
1070
     8
1002
}
  0
DIMENSION
  5
3B6
330
1F
100
AcDbEntity
  8
QUOTE
 62
     7
100
AcDbDimension
  2
*D6
 10
49.62120462747877
 20
20.92266378352526
 30
0.0
 11
209.5214231274788
 21
20.92266378352526
 31
0.0
 70
   160
 71
     0
 42
320.0
  3
Standard
100
AcDbAlignedDimension
 13
369.6212046274788
 23
58.26223684352526
 33
0.0
 14
49.62120462747877
 24
58.32710717352526
 34
0.0
100
AcDbRotatedDimension
1001
ACAD
1000
DSTYLE
1002
{
1070
    41
1040
15.0
1070
   140
1040
10.0
1070
    78
1070
     8
1070
   284
1070
     8
1002
}
  0
TEXT
  5
3B7
330
1F
100
AcDbEntity
  8
0
 62
     7
100
AcDbText
 10
78.24320895890735
 20
383.9333471135253
 30
0.0
 40
5.0
  1
GW68006N
 72
     1
 11
97.17178038747878
 21
383.9333471135253
 31
0.0
100
AcDbText
  0
LWPOLYLINE
  5
3B8
330
1F
100
AcDbEntity
  8
0
 62
     7
370
    35
100
AcDbPolyline
 90
        7
 70
     0
 43
0.0
 10
367.0572706274788
 20
379.1656391735253
 10
367.0561106274788
 20
379.1690571735253
 10
367.0537916274788
 20
379.1835221735253
 10
367.0468946274788
 20
379.2862441735253
 10
367.0273636274788
 20
380.1116841735252
 10
367.0046586274787
 20
382.7127581735253
 10
366.9963276274788
 20
386.2646381735253
  0
LWPOLYLINE
  5
3B9
330
1F
100
AcDbEntity
  8
0
 62
     7
370
    35
100
AcDbPolyline
 90
        7
 70
     0
 43
0.0
 10
366.9963276274788
 20
58.26460717352526
 10
367.0100906274788
 20
62.72771217352526
 10
367.0360916274788
 20
64.89293417352526
 10
367.0500686274788
 20
65.30153417352526
 10
367.0548296274788
 20
65.35362717352526
 10
367.0564466274788
 20
65.36144017352526
 10
367.0572706274788
 20
65.36360617352525
  0
LWPOLYLINE
  5
3BA
330
1F
100
AcDbEntity
  8
0
 62
     7
370
    35
100
AcDbPolyline
 90
        7
 70
     0
 43
0.0
 10
52.24608262747878
 20
386.2646381735253
 10
52.23776662747877
 20
382.7127581735253
 10
52.21503162747878
 20
380.1116841735252
 10
52.20247593747878
 20
379.4622804535253
 10
52.20247593747878
 20
379.4622804535253
 10
52.20247593747878
 20
379.4622804535253
 10
52.20247593747878
 20
379.4622804535253
  0
LWPOLYLINE
  5
3BB
330
1F
100
AcDbEntity
  8
0
 62
     7
370
    35
100
AcDbPolyline
 90
        7
 70
     0
 43
0.0
 10
52.18515462747878
 20
65.36360617352525
 10
52.18635962747878
 20
65.35994417352526
 10
52.18877062747877
 20
65.34459417352526
 10
52.19591162747878
 20
65.23460917352526
 10
52.21603862747878
 20
64.34929417352527
 10
52.23834662747877
 20
61.69923917352527
 10
52.24608262747878
 20
58.26460717352526
  0
LWPOLYLINE
  5
3BC
330
1F
100
AcDbEntity
  8
0
 62
     7
370
    35
100
AcDbPolyline
 90
       16
 70
     0
 43
0.0
 10
54.68645039747878
 20
50.81030637352526
 10
54.68645039747878
 20
50.81030637352526
 10
54.68645039747878
 20
50.81030637352526
 10
54.68645039747878
 20
50.81030637352526
 10
54.53317662747878
 20
51.02751617352526
 10
54.06557162747877
 20
51.75053917352526
 10
53.80997162747878
 20
52.19438617352526
 10
53.42976862747878
 20
52.94313517352526
 10
53.23212162747878
 20
53.38841717352526
 10
53.04591862747877
 20
53.85646517352526
 10
52.82037762747878
 20
54.51247117352526
 10
52.62610362747878
 20
55.20070417352527
 10
52.46799162747878
 20
55.91606617352526
 10
52.34593662747878
 20
56.68550617352526
 10
52.27121462747877
 20
57.47124217352526
 10
52.24608262747878
 20
58.26460717352526
  0
LWPOLYLINE
  5
3BD
330
1F
100
AcDbEntity
  8
0
 62
     7
370
    35
100
AcDbPolyline
 90
       16
 70
     0
 43
0.0
 10
366.9963276274788
 20
58.26460717352526
 10
366.9706006274788
 20
57.46187317352526
 10
366.8941846274787
 20
56.66750017352526
 10
366.7693066274788
 20
55.88927217352527
 10
366.6058546274788
 20
55.15956617352526
 10
366.4050186274788
 20
54.45854717352526
 10
366.1719556274788
 20
53.79155417352526
 10
365.9798176274788
 20
53.31664017352526
 10
365.7762646274788
 20
52.86595617352526
 10
365.3840526274787
 20
52.10728917352525
 10
365.1220896274788
 20
51.66060417352525
 10
364.6547436274787
 20
50.94908617352526
 10
364.4072766274788
 20
50.60133817352526
 10
364.3756916274788
 20
50.55418917352525
 10
364.3718156274788
 20
50.54692617352526
 10
364.3711136274788
 20
50.54488117352526
  0
LWPOLYLINE
  5
3BE
330
1F
100
AcDbEntity
  8
0
 62
     7
370
    35
100
AcDbPolyline
 90
       15
 70
     0
 43
0.0
 10
364.3711136274788
 20
393.9843651735253
 10
364.3719066274788
 20
393.9820451735252
 10
364.3766066274788
 20
393.9735001735253
 10
364.4148146274788
 20
393.9171651735253
 10
364.7092176274788
 20
393.5017601735253
 10
365.1920056274788
 20
392.7534071735252
 10
365.4557086274788
 20
392.2923481735253
 10
365.8355296274788
 20
391.5368551735253
 10
366.1871226274788
 20
390.6976211735253
 10
366.4453626274788
 20
389.9413351735253
 10
366.6614576274788
 20
389.1433001735253
 10
366.8280836274788
 20
388.3117571735253
 10
366.9396256274788
 20
387.4556781735252
 10
366.9821056274788
 20
386.8618671735252
 10
366.9963276274788
 20
386.2646381735253
  0
LWPOLYLINE
  5
3BF
330
1F
100
AcDbEntity
  8
0
 62
     7
370
    35
100
AcDbPolyline
 90
       16
 70
     0
 43
0.0
 10
52.24608262747878
 20
386.2646381735253
 10
52.27830962747877
 20
387.1631981735252
 10
52.37381462747878
 20
388.0498551735253
 10
52.52911862747878
 20
388.9138691735253
 10
52.73869762747878
 20
389.7452291735253
 10
52.89593962747878
 20
390.2498671735253
 10
53.06955362747878
 20
390.7353411735253
 10
53.25700862747878
 20
391.1996351735253
 10
53.45543362747879
 20
391.6407981735252
 10
53.87114362747878
 20
392.4447531735253
 10
54.12833062747878
 20
392.8818251735253
 10
54.58762062747878
 20
393.5800071735252
 10
54.78135306747877
 20
393.9239873135253
 10
54.85271738747877
 20
394.0262713635253
 10
54.85271738747877
 20
394.0262713635253
 10
54.85271738747877
 20
394.0262713635253
  0
LWPOLYLINE
  5
3C0
330
1F
100
AcDbEntity
  8
0
 62
     7
370
    35
100
AcDbPolyline
 90
        4
 70
     0
 43
0.0
 10
367.0520216274788
 20
65.27394617352526
 10
367.0247996274788
 20
64.22704017352526
 10
367.0030106274788
 20
61.45583117352526
 10
366.9963576274788
 20
58.26460717352526
  0
LWPOLYLINE
  5
3C1
330
1F
100
AcDbEntity
  8
0
 62
     7
370
    35
100
AcDbPolyline
 90
        4
 70
     0
 43
0.0
 10
366.9963576274788
 20
386.2646381735253
 10
367.0122576274788
 20
381.5218401735253
 10
367.0356036274788
 20
379.6709491735253
 10
367.0521436274788
 20
379.2527971735253
  0
LWPOLYLINE
  5
3C2
330
1F
100
AcDbEntity
  8
0
 62
     7
370
    35
100
AcDbPolyline
 90
        4
 70
     0
 43
0.0
 10
52.24603762747878
 20
58.26460717352526
 10
52.23015262747877
 20
63.00737517352526
 10
52.20680662747877
 20
64.85826617352526
 10
52.19025062747878
 20
65.27641817352526
  0
LWPOLYLINE
  5
3C3
330
1F
100
AcDbEntity
  8
0
 62
     7
370
    35
100
AcDbPolyline
 90
       13
 70
     0
 43
0.0
 10
364.4305616274788
 20
50.62932317352526
 10
364.9566236274788
 20
51.39735917352526
 10
365.3405956274788
 20
52.03001917352526
 10
365.7473346274788
 20
52.80534817352526
 10
366.1400956274788
 20
53.70876017352526
 10
366.3211866274788
 20
54.20451817352526
 10
366.4872026274788
 20
54.72722317352526
 10
366.6346936274788
 20
55.27455617352526
 10
366.7604566274788
 20
55.84380117352527
 10
366.8616526274788
 20
56.43169117352527
 10
366.9358716274788
 20
57.03426117352527
 10
366.9811596274788
 20
57.64690117352526
 10
366.9963576274788
 20
58.26460717352526
  0
LWPOLYLINE
  5
3C4
330
1F
100
AcDbEntity
  8
0
 62
     7
370
    35
100
AcDbPolyline
 90
       14
 70
     0
 43
0.0
 10
366.9963576274788
 20
386.2646381735253
 10
366.9811906274788
 20
386.8814591735253
 10
366.9360546274788
 20
387.4930931735253
 10
366.8620806274788
 20
388.0945941735252
 10
366.7612506274788
 20
388.6815691735252
 10
366.6358226274788
 20
389.2499901735252
 10
366.4887896274787
 20
389.7966201735252
 10
366.3232616274787
 20
390.3186541735252
 10
366.1426586274788
 20
390.8138931735253
 10
365.7508136274788
 20
391.7166641735253
 10
365.3447156274788
 20
392.4919331735253
 10
364.9609266274788
 20
393.1252341735253
 10
364.4995926274788
 20
393.7995501735253
 10
364.4282116274788
 20
393.9033101735252
  0
LWPOLYLINE
  5
3C5
330
1F
100
AcDbEntity
  8
0
 62
     7
370
    35
100
AcDbPolyline
 90
        7
 70
     0
 43
0.0
 10
367.5920606274788
 20
51.60161317352526
 10
367.4325146274788
 20
51.80519617352526
 10
367.2267346274788
 20
51.96068317352526
 10
367.0197646274788
 20
52.04942817352526
 10
366.7498366274788
 20
52.09254917352526
 10
366.3712966274788
 20
52.09801217352526
 10
366.1676226274788
 20
52.09917217352526
  0
LWPOLYLINE
  5
3C6
330
1F
100
AcDbEntity
  8
0
 62
     7
370
    35
100
AcDbPolyline
 90
        6
 70
     0
 43
0.0
 10
369.2728776274788
 20
64.73042817352527
 10
369.0656936274788
 20
64.57143117352527
 10
368.8410846274788
 20
64.47612517352526
 10
368.5718586274788
 20
64.43614717352526
 10
368.1376536274787
 20
64.43040917352526
 10
368.0708506274787
 20
64.43004317352526
  0
LWPOLYLINE
  5
3C7
330
1F
100
AcDbEntity
  8
0
 62
     7
370
    35
100
AcDbPolyline
 90
        7
 70
     0
 43
0.0
 10
53.07477262747878
 20
52.09917217352526
 10
52.52350262747878
 20
52.09355617352525
 10
52.31976762747878
 20
52.07344517352526
 10
52.11815362747877
 20
52.01152517352526
 10
51.90991662747878
 20
51.89122517352526
 10
51.72810862747877
 20
51.71440617352526
 10
51.65539962747878
 20
51.61003617352526
  0
LWPOLYLINE
  5
3C8
330
1F
100
AcDbEntity
  8
0
 62
     7
370
    35
100
AcDbPolyline
 90
        6
 70
     0
 43
0.0
 10
51.17155862747877
 20
64.43004317352526
 10
50.68066862747878
 20
64.43578117352527
 10
50.50703862747877
 20
64.45186317352526
 10
50.28752562747878
 20
64.51631617352527
 10
50.06805862747878
 20
64.64403217352526
 10
49.96953262747878
 20
64.73042817352527
  0
LWPOLYLINE
  5
3C9
330
1F
100
AcDbEntity
  8
0
 62
     7
370
    35
100
AcDbPolyline
 90
        6
 70
     0
 43
0.0
 10
368.0708506274787
 20
380.0991721735253
 10
368.5617566274788
 20
380.0934341735253
 10
368.7353716274788
 20
380.0773821735253
 10
368.9548846274788
 20
380.0129291735253
 10
369.1743366274788
 20
379.8851821735253
 10
369.2728776274788
 20
379.7988181735253
  0
LWPOLYLINE
  5
3CA
330
1F
100
AcDbEntity
  8
0
 62
     7
370
    35
100
AcDbPolyline
 90
        7
 70
     0
 43
0.0
 10
367.5869946274787
 20
392.9191791735253
 10
367.4289746274788
 20
392.7205711735253
 10
367.2267346274788
 20
392.5685321735253
 10
367.0197336274788
 20
392.4797871735253
 10
366.7498366274788
 20
392.4366351735253
 10
366.3712966274788
 20
392.4312031735253
 10
366.1676226274788
 20
392.4300431735252
  0
LWPOLYLINE
  5
3CB
330
1F
100
AcDbEntity
  8
0
 62
     7
370
    35
100
AcDbPolyline
 90
        7
 70
     0
 43
0.0
 10
51.65539962747878
 20
392.9191791735253
 10
51.81341962747878
 20
392.7205711735253
 10
52.01567562747878
 20
392.5685321735253
 10
52.22266062747877
 20
392.4797871735253
 10
52.49258862747878
 20
392.4366351735253
 10
52.87111362747878
 20
392.4312031735253
 10
53.07477262747878
 20
392.4300431735252
  0
LWPOLYLINE
  5
3CC
330
1F
100
AcDbEntity
  8
0
 62
     7
370
    35
100
AcDbPolyline
 90
        6
 70
     0
 43
0.0
 10
51.17157462747877
 20
380.0991721735253
 10
50.68065362747877
 20
380.0934341735253
 10
50.50703862747877
 20
380.0773821735253
 10
50.28752562747878
 20
380.0129291735253
 10
50.06805862747878
 20
379.8851821735253
 10
49.96953262747878
 20
379.7988181735253
  0
LWPOLYLINE
  5
3CD
330
1F
100
AcDbEntity
  8
0
 62
   253
370
    35
100
AcDbPolyline
 90
        9
 70
     0
 43
0.0
 10
350.8862196274788
 20
332.3930561735253
 10
351.0159806274788
 20
332.3759661735253
 10
351.1364946274788
 20
332.3259781735253
 10
351.2424516274788
 20
332.2441301735253
 10
351.3200266274788
 20
332.1423231735253
 10
351.3791706274788
 20
331.9835101735252
 10
351.3966266274788
 20
331.7797751735252
 10
351.4096266274787
 20
331.0677391735252
 10
351.4124036274788
 20
330.3930561735253
  0
LWPOLYLINE
  5
3CE
330
1F
100
AcDbEntity
  8
0
 62
   253
370
    35
100
AcDbPolyline
 90
        9
 70
     0
 43
0.0
 10
67.83000662747878
 20
330.3930561735253
 10
67.84059562747877
 20
331.6039931735253
 10
67.85269662747878
 20
331.9044691735253
 10
67.87831562747877
 20
332.0424701735253
 10
67.92236762747878
 20
332.1423231735253
 10
67.99994362747878
 20
332.2441301735253
 10
68.10593062747878
 20
332.3259781735253
 10
68.22642962747877
 20
332.3759661735253
 10
68.35619062747878
 20
332.3930561735253
  0
LWPOLYLINE
  5
3CF
330
1F
100
AcDbEntity
  8
0
 62
   253
370
    35
100
AcDbPolyline
 90
       16
 70
     0
 43
0.0
 10
155.4572796274788
 20
226.0082901735253
 10
156.1746416274787
 20
225.5751241735253
 10
156.9303936274787
 20
225.1426901735253
 10
158.1560106274787
 20
224.4902241735253
 10
159.4092456274788
 20
223.8821921735253
 10
160.6883586274788
 20
223.3199971735253
 10
161.9896436274788
 20
222.8058061735253
 10
163.3090406274788
 20
222.3415421735253
 10
164.6417126274787
 20
221.9289141735253
 10
166.0089006274787
 20
221.5625511735253
 10
167.3885086274788
 20
221.2497761735253
 10
168.7793166274787
 20
220.9910171735252
 10
170.1807906274788
 20
220.7867631735253
 10
171.6585276274788
 20
220.6319781735253
 10
173.1405836274787
 20
220.5388691735253
 10
174.6212046274788
 20
220.5078631735253
  0
LWPOLYLINE
  5
3D0
330
1F
100
AcDbEntity
  8
0
 62
   253
370
    35
100
AcDbPolyline
 90
        8
 70
     0
 43
0.0
 10
155.4572796274788
 20
226.0082901735253
 10
155.2381786274787
 20
226.1832171735253
 10
155.0342756274788
 20
226.4308981735253
 10
154.8744246274788
 20
226.7169081735253
 10
154.8121996274788
 20
226.9060561735253
 10
154.7986646274788
 20
227.0411881735252
 10
154.8118786274788
 20
227.1280411735253
 10
154.9012956274787
 20
227.2587181735253
  0
LWPOLYLINE
  5
3D1
330
1F
100
AcDbEntity
  8
0
 62
   253
370
    35
100
AcDbPolyline
 90
        8
 70
     0
 43
0.0
 10
263.7851146274788
 20
226.0082901735253
 10
264.0067646274788
 20
226.1857501735253
 10
264.2105606274788
 20
226.4344381735253
 10
264.3695876274788
 20
226.7206321735253
 10
264.4309586274788
 20
226.9096571735253
 10
264.4436236274788
 20
227.0447591735253
 10
264.4293406274788
 20
227.1319781735253
 10
264.3411146274788
 20
227.2587181735253
  0
LWPOLYLINE
  5
3D2
330
1F
100
AcDbEntity
  8
0
 62
   253
370
    35
100
AcDbPolyline
 90
       17
 70
     0
 43
0.0
 10
263.7851146274788
 20
226.0082901735253
 10
263.0909626274788
 20
225.5887961735253
 10
261.8904926274788
 20
224.9116111735253
 10
260.6610306274788
 20
224.2773331735253
 10
259.3968396274788
 20
223.6839491735253
 10
258.1083576274788
 20
223.1374411735253
 10
256.7986036274788
 20
222.6396071735253
 10
255.4722796274788
 20
222.1924641735252
 10
254.1371966274788
 20
221.7983291735253
 10
252.7906696274788
 20
221.4559831735253
 10
251.4416086274788
 20
221.1671951735253
 10
250.0812266274788
 20
220.9297991735252
 10
248.7112926274788
 20
220.7444661735252
 10
247.6902966274788
 20
220.6410721735252
 10
246.6670426274788
 20
220.5670671735253
 10
245.6432996274788
 20
220.5226641735253
 10
244.6212046274788
 20
220.5078631735253
  0
LWPOLYLINE
  5
3D3
330
1F
100
AcDbEntity
  8
0
 62
   253
370
    35
100
AcDbPolyline
 90
        5
 70
     0
 43
0.0
 10
199.6824536274787
 20
220.3954971735253
 10
199.6578876274788
 20
220.4421591735253
 10
199.6101276274788
 20
220.4801231735252
 10
199.4572646274787
 20
220.5152181735253
 10
199.4180496274788
 20
220.5136311735253
  0
LWPOLYLINE
  5
3D4
330
1F
100
AcDbEntity
  8
0
 62
   253
370
    35
100
AcDbPolyline
 90
        5
 70
     0
 43
0.0
 10
219.5599566274788
 20
220.3954971735253
 10
219.5845226274788
 20
220.4421591735253
 10
219.6322526274788
 20
220.4801231735252
 10
219.7851456274788
 20
220.5152181735253
 10
219.8243606274788
 20
220.5136311735253
  0
LWPOLYLINE
  5
3D5
330
1F
100
AcDbEntity
  8
0
 62
   253
370
    35
100
AcDbPolyline
 90
        4
 70
     0
 43
0.0
 10
174.6212046274788
 20
233.0788471735253
 10
170.7105296274788
 20
233.1128741735252
 10
166.8300976274788
 20
233.1760451735253
 10
166.1300856274788
 20
233.1828811735253
  0
LWPOLYLINE
  5
3D6
330
1F
100
AcDbEntity
  8
0
 62
   253
370
    35
100
AcDbPolyline
 90
        4
 70
     0
 43
0.0
 10
253.1123246274788
 20
233.1828811735253
 10
249.9478346274788
 20
233.1368911735253
 10
246.0448196274788
 20
233.0837301735253
 10
244.6212046274788
 20
233.0788471735253
  0
LWPOLYLINE
  5
3D7
330
1F
100
AcDbEntity
  8
0
 62
   253
370
    35
100
AcDbPolyline
 90
       13
 70
     0
 43
0.0
 10
156.3225146274787
 20
226.9533591735253
 10
156.5618486274788
 20
226.8436481735252
 10
156.8521926274788
 20
226.7284441735253
 10
157.6368906274788
 20
226.4642841735253
 10
158.8831836274788
 20
226.1098831735253
 10
160.6464886274788
 20
225.6745811735253
 10
162.7669416274788
 20
225.2224021735253
 10
164.7635236274787
 20
224.8630271735253
 10
166.7568866274788
 20
224.5691421735252
 10
168.7648816274788
 20
224.3396201735253
 10
170.8051956274788
 20
224.1751601735253
 10
172.8785906274788
 20
224.0791831735252
 10
174.6212046274788
 20
224.0539451735252
  0
LWPOLYLINE
  5
3D8
330
1F
100
AcDbEntity
  8
0
 62
   253
370
    35
100
AcDbPolyline
 90
       13
 70
     0
 43
0.0
 10
244.6212046274788
 20
224.0539451735252
 10
246.7120556274788
 20
224.0902911735253
 10
248.7804456274788
 20
224.1979571735253
 10
250.8147776274788
 20
224.3734941735253
 10
252.8185016274788
 20
224.6136981735253
 10
254.8120006274788
 20
224.9184771735253
 10
256.8079726274788
 20
225.2885031735253
 10
258.5960586274788
 20
225.6746111735253
 10
260.3592426274788
 20
226.1098831735253
 10
261.6055496274788
 20
226.4642841735253
 10
262.3902176274788
 20
226.7284441735253
 10
262.6805616274788
 20
226.8436481735252
 10
262.9198806274788
 20
226.9533591735253
  0
INSERT
  5
3D9
330
1F
100
AcDbEntity
  8
0
 62
    56
100
AcDbBlockReference
  2
IB_oriz_NOFUS
 10
41.72804635747877
 20
76.65505790352526
 30
0.0
  0
INSERT
  5
3DA
330
1F
100
AcDbEntity
  8
0
 62
    56
100
AcDbBlockReference
  2
IB_oriz_NOFUS
 10
198.0909463574787
 20
76.65505790352526
 30
0.0
  0
ENDSEC
  0
SECTION
  2
OBJECTS
  0
DICTIONARY
  5
C
330
0
100
AcDbDictionary
281
     1
  3
ACAD_COLOR
350
73
  3
ACAD_GROUP
350
D
  3
ACAD_LAYOUT
350
1A
  3
ACAD_MATERIAL
350
72
  3
ACAD_MLEADERSTYLE
350
D7
  3
ACAD_MLINESTYLE
350
17
  3
ACAD_PLOTSETTINGS
350
19
  3
ACAD_PLOTSTYLENAME
350
E
  3
ACAD_SCALELIST
350
B6
  3
ACAD_TABLESTYLE
350
86
  3
ACAD_VISUALSTYLE
350
99
  3
ACDB_RECOMPOSE_DATA
350
FF
  3
AcDbVariableDictionary
350
66
  3
DWGPROPS
350
41F
  0
DICTIONARY
  5
E6
330
10
100
AcDbDictionary
280
     1
281
     1
  3
ADSK_XREC_LAYER_RECONCILED
360
417
  0
DICTIONARY
  5
418
330
16B
100
AcDbDictionary
280
     1
281
     1
  3
ADSK_XREC_LAYER_RECONCILED
360
419
  0
DICTIONARY
  5
73
102
{ACAD_REACTORS
330
C
102
}
330
C
100
AcDbDictionary
281
     1
  0
DICTIONARY
  5
D
102
{ACAD_REACTORS
330
C
102
}
330
C
100
AcDbDictionary
281
     1
  0
DICTIONARY
  5
1A
102
{ACAD_REACTORS
330
C
102
}
330
C
100
AcDbDictionary
281
     1
  3
Layout1
350
59
  3
Layout2
350
5E
  3
Model
350
22
  0
DICTIONARY
  5
72
102
{ACAD_REACTORS
330
C
102
}
330
C
100
AcDbDictionary
281
     1
  3
ByBlock
350
97
  3
ByLayer
350
96
  3
Global
350
98
  0
DICTIONARY
  5
D7
102
{ACAD_REACTORS
330
C
102
}
330
C
100
AcDbDictionary
281
     1
  3
Annotativa
350
E5
  3
Standard
350
D8
  0
DICTIONARY
  5
17
102
{ACAD_REACTORS
330
C
102
}
330
C
100
AcDbDictionary
281
     1
  3
Standard
350
18
  0
DICTIONARY
  5
19
102
{ACAD_REACTORS
330
C
102
}
330
C
100
AcDbDictionary
281
     1
  0
ACDBDICTIONARYWDFLT
  5
E
102
{ACAD_REACTORS
330
C
102
}
330
C
100
AcDbDictionary
281
     1
  3
Normal
350
F
100
AcDbDictionaryWithDefault
340
F
  0
DICTIONARY
  5
B6
102
{ACAD_REACTORS
330
C
102
}
330
C
100
AcDbDictionary
281
     1
  3
A0
350
B7
  3
A1
350
124
  3
A2
350
125
  3
A3
350
126
  3
A4
350
127
  3
A5
350
128
  3
A6
350
129
  3
A7
350
12A
  3
A8
350
12B
  3
A9
350
12C
  3
B0
350
12D
  3
B1
350
12E
  3
B2
350
12F
  3
B3
350
130
  3
B4
350
131
  3
B5
350
132
  3
B6
350
133
  3
B7
350
134
  3
B8
350
135
  3
B9
350
136
  3
C0
350
137
  3
C1
350
138
  3
C2
350
139
  3
C3
350
13A
  3
C4
350
13B
  3
C5
350
13C
  3
C6
350
13D
  3
C7
350
13E
  3
C8
350
13F
  3
C9
350
140
  3
D0
350
141
  3
D1
350
142
  3
D2
350
143
  0
DICTIONARY
  5
86
102
{ACAD_REACTORS
330
C
102
}
330
C
100
AcDbDictionary
281
     1
  3
Standard
350
87
  0
DICTIONARY
  5
99
102
{ACAD_REACTORS
330
C
102
}
330
C
100
AcDbDictionary
281
     1
  3
2dWireframe
350
9F
  3
3D Hidden
350
A1
  3
3dWireframe
350
A0
  3
Basic
350
9E
  3
Brighten
350
A5
  3
ColorChange
350
A9
  3
Conceptual
350
A2
  3
Dim
350
A4
  3
Facepattern
350
A8
  3
Flat
350
9A
  3
FlatWithEdges
350
9B
  3
Gouraud
350
9C
  3
GouraudWithEdges
350
9D
  3
Linepattern
350
A7
  3
Realistic
350
A3
  3
Thicken
350
A6
  0
XRECORD
  5
FF
102
{ACAD_REACTORS
330
C
102
}
330
C
100
AcDbXrecord
280
     1
 90
        1
330
87
  0
DICTIONARY
  5
66
102
{ACAD_REACTORS
330
C
102
}
330
C
100
AcDbDictionary
281
     1
  3
CANNOSCALE
350
F0
  3
CMLEADERSTYLE
350
EF
  3
CTABLESTYLE
350
89
  3
DIMASSOC
350
67
  3
HIDETEXT
350
6B
  3
INDEXCTL
350
41D
  3
LIGHTINGUNITS
350
41B
  3
MSLTSCALE
350
41A
  3
SORTENTS
350
41C
  0
XRECORD
  5
41F
102
{ACAD_REACTORS
330
C
102
}
330
C
100
AcDbXrecord
280
     1
  1
DWGPROPS COOKIE
  2

  3

  4

  6

  7

  8
fontanaNZ
  9

300
=
301
=
302
=
303
=
304
=
305
=
306
=
307
=
308
=
309
=
 40
0.0003378240740741
 41
2455511.35904066
 42
2455511.359378311
  1

 90
        0
  0
XRECORD
  5
417
102
{ACAD_REACTORS
330
E6
102
}
330
E6
100
AcDbXrecord
280
     1
290
     1
  0
XRECORD
  5
419
102
{ACAD_REACTORS
330
418
102
}
330
418
100
AcDbXrecord
280
     1
290
     1
  0
LAYOUT
  5
59
102
{ACAD_XDICTIONARY
360
422
102
}
102
{ACAD_REACTORS
330
1A
102
}
330
1A
100
AcDbPlotSettings
  1

  2
None
  4

  6

 40
0.0
 41
0.0
 42
0.0
 43
0.0
 44
0.0
 45
0.0
 46
0.0
 47
0.0
 48
0.0
 49
0.0
140
0.0
141
0.0
142
1.0
143
1.0
 70
   688
 72
     0
 73
     0
 74
     5
  7

 75
    16
147
1.0
148
0.0
149
0.0
100
AcDbLayout
  1
Layout1
 70
     1
 71
     1
 10
0.0
 20
0.0
 11
12.0
 21
9.0
 12
0.0
 22
0.0
 32
0.0
 14
0.0
 24
0.0
 34
0.0
 15
0.0
 25
0.0
 35
0.0
146
0.0
 13
0.0
 23
0.0
 33
0.0
 16
1.0
 26
0.0
 36
0.0
 17
0.0
 27
1.0
 37
0.0
 76
     0
330
58
  0
LAYOUT
  5
5E
102
{ACAD_XDICTIONARY
360
424
102
}
102
{ACAD_REACTORS
330
1A
102
}
330
1A
100
AcDbPlotSettings
  1

  2
None
  4

  6

 40
0.0
 41
0.0
 42
0.0
 43
0.0
 44
0.0
 45
0.0
 46
0.0
 47
0.0
 48
0.0
 49
0.0
140
0.0
141
0.0
142
1.0
143
1.0
 70
   688
 72
     0
 73
     0
 74
     5
  7

 75
    16
147
1.0
148
0.0
149
0.0
100
AcDbLayout
  1
Layout2
 70
     1
 71
     2
 10
0.0
 20
0.0
 11
12.0
 21
9.0
 12
0.0
 22
0.0
 32
0.0
 14
0.0
 24
0.0
 34
0.0
 15
0.0
 25
0.0
 35
0.0
146
0.0
 13
0.0
 23
0.0
 33
0.0
 16
1.0
 26
0.0
 36
0.0
 17
0.0
 27
1.0
 37
0.0
 76
     0
330
5D
  0
LAYOUT
  5
22
102
{ACAD_XDICTIONARY
360
420
102
}
102
{ACAD_REACTORS
330
1A
102
}
330
1A
100
AcDbPlotSettings
  1

  2
none_device
  4
ANSI_A_(8.50_x_11.00_Inches)
  6

 40
6.349999904632568
 41
19.04999923706055
 42
6.350006103515625
 43
19.04998779296875
 44
215.8999938964844
 45
279.3999938964844
 46
0.0
 47
0.0
 48
0.0
 49
0.0
140
0.0
141
0.0
142
1.0
143
2.584895464708373
 70
 11952
 72
     0
 73
     1
 74
     0
  7

 75
     0
147
0.3868628397755418
148
0.0
149
0.0
100
AcDbLayout
  1
Model
 70
     1
 71
     0
 10
0.0
 20
0.0
 11
12.0
 21
9.0
 12
0.0
 22
0.0
 32
0.0
 14
0.0
 24
0.0
 34
0.0
 15
0.0
 25
0.0
 35
0.0
146
0.0
 13
0.0
 23
0.0
 33
0.0
 16
1.0
 26
0.0
 36
0.0
 17
0.0
 27
1.0
 37
0.0
 76
     0
330
1F
331
94
  0
MATERIAL
  5
97
102
{ACAD_XDICTIONARY
360
429
102
}
102
{ACAD_REACTORS
330
72
102
}
330
72
100
AcDbMaterial
  1
ByBlock
  0
MATERIAL
  5
96
102
{ACAD_XDICTIONARY
360
427
102
}
102
{ACAD_REACTORS
330
72
102
}
330
72
100
AcDbMaterial
  1
ByLayer
  0
MATERIAL
  5
98
102
{ACAD_XDICTIONARY
360
110
102
}
102
{ACAD_REACTORS
330
72
102
}
330
72
100
AcDbMaterial
  1
Global
 43
0.0208000000566244
 43
0.0
 43
0.0
 43
0.0
 43
0.0
 43
0.0208000000566244
 43
0.0
 43
0.0
 43
0.0
 43
0.0
 43
1.0
 43
0.0
 43
0.0
 43
0.0
 43
0.0
 43
1.0
 49
0.0208000000566244
 49
0.0
 49
0.0
 49
0.0
 49
0.0
 49
0.0208000000566244
 49
0.0
 49
0.0
 49
0.0
 49
0.0
 49
1.0
 49
0.0
 49
0.0
 49
0.0
 49
0.0
 49
1.0
142
0.0208000000566244
142
0.0
142
0.0
142
0.0
142
0.0
142
0.0208000000566244
142
0.0
142
0.0
142
0.0
142
0.0
142
1.0
142
0.0
142
0.0
142
0.0
142
0.0
142
1.0
144
0.0208000000566244
144
0.0
144
0.0
144
0.0
144
0.0
144
0.0208000000566244
144
0.0
144
0.0
144
0.0
144
0.0
144
1.0
144
0.0
144
0.0
144
0.0
144
0.0
144
1.0
1001
ACAD
1070
    -1
1070
     3
1070
     0
1000

1071
        0
1070
     0
  0
MLEADERSTYLE
  5
E5
102
{ACAD_REACTORS
330
D7
102
}
330
D7
100
AcDbMLeaderStyle
170
     2
171
     1
172
     0
 90
        2
 40
0.0
 41
0.0
173
     1
 91
-1056964608
340
14
 92
       -2
290
     1
 42
0.09
291
     1
 43
0.36
  3
Standard
 44
0.18
300

342
11
174
     1
178
     1
175
     1
176
     0
 93
-1056964608
 45
0.18
292
     0
297
     0
 46
0.18
 94
-1056964608
 47
1.0
 49
1.0
140
1.0
293
     1
141
0.0
294
     1
177
     0
142
1.0
295
     0
296
     1
143
0.125
1001
ACAD_MLEADERVER
1070
     2
  0
MLEADERSTYLE
  5
D8
102
{ACAD_REACTORS
330
D7
102
}
330
D7
100
AcDbMLeaderStyle
170
     2
171
     1
172
     0
 90
        2
 40
0.0
 41
0.0
173
     1
 91
-1056964608
340
14
 92
       -2
290
     1
 42
0.09
291
     1
 43
0.36
  3
Standard
 44
0.18
300

342
11
174
     1
178
     1
175
     1
176
     0
 93
-1056964608
 45
0.18
292
     0
297
     0
 46
0.18
 94
-1056964608
 47
1.0
 49
1.0
140
1.0
293
     1
141
0.0
294
     1
177
     0
142
1.0
295
     0
296
     0
143
0.125
1001
ACAD_MLEADERVER
1070
     2
  0
MLINESTYLE
  5
18
102
{ACAD_REACTORS
330
17
102
}
330
17
100
AcDbMlineStyle
  2
STANDARD
 70
     0
  3

 62
   256
 51
90.0
 52
90.0
 71
     2
 49
0.5
 62
   256
  6
BYLAYER
 49
-0.5
 62
   256
  6
BYLAYER
  0
ACDBPLACEHOLDER
  5
F
102
{ACAD_REACTORS
330
E
102
}
330
E
  0
SCALE
  5
B7
102
{ACAD_REACTORS
330
B6
102
}
330
B6
100
AcDbScale
 70
     0
300
1:1
140
1.0
141
1.0
290
     1
  0
SCALE
  5
124
102
{ACAD_REACTORS
330
B6
102
}
330
B6
100
AcDbScale
 70
     0
300
1:2
140
1.0
141
2.0
290
     0
  0
SCALE
  5
125
102
{ACAD_REACTORS
330
B6
102
}
330
B6
100
AcDbScale
 70
     0
300
1:4
140
1.0
141
4.0
290
     0
  0
SCALE
  5
126
102
{ACAD_REACTORS
330
B6
102
}
330
B6
100
AcDbScale
 70
     0
300
1:5
140
1.0
141
5.0
290
     0
  0
SCALE
  5
127
102
{ACAD_REACTORS
330
B6
102
}
330
B6
100
AcDbScale
 70
     0
300
1:8
140
1.0
141
8.0
290
     0
  0
SCALE
  5
128
102
{ACAD_REACTORS
330
B6
102
}
330
B6
100
AcDbScale
 70
     0
300
1:10
140
1.0
141
10.0
290
     0
  0
SCALE
  5
129
102
{ACAD_REACTORS
330
B6
102
}
330
B6
100
AcDbScale
 70
     0
300
1:16
140
1.0
141
16.0
290
     0
  0
SCALE
  5
12A
102
{ACAD_REACTORS
330
B6
102
}
330
B6
100
AcDbScale
 70
     0
300
1:20
140
1.0
141
20.0
290
     0
  0
SCALE
  5
12B
102
{ACAD_REACTORS
330
B6
102
}
330
B6
100
AcDbScale
 70
     0
300
1:30
140
1.0
141
30.0
290
     0
  0
SCALE
  5
12C
102
{ACAD_REACTORS
330
B6
102
}
330
B6
100
AcDbScale
 70
     0
300
1:40
140
1.0
141
40.0
290
     0
  0
SCALE
  5
12D
102
{ACAD_REACTORS
330
B6
102
}
330
B6
100
AcDbScale
 70
     0
300
1:50
140
1.0
141
50.0
290
     0
  0
SCALE
  5
12E
102
{ACAD_REACTORS
330
B6
102
}
330
B6
100
AcDbScale
 70
     0
300
1:100
140
1.0
141
100.0
290
     0
  0
SCALE
  5
12F
102
{ACAD_REACTORS
330
B6
102
}
330
B6
100
AcDbScale
 70
     0
300
2:1
140
2.0
141
1.0
290
     0
  0
SCALE
  5
130
102
{ACAD_REACTORS
330
B6
102
}
330
B6
100
AcDbScale
 70
     0
300
4:1
140
4.0
141
1.0
290
     0
  0
SCALE
  5
131
102
{ACAD_REACTORS
330
B6
102
}
330
B6
100
AcDbScale
 70
     0
300
8:1
140
8.0
141
1.0
290
     0
  0
SCALE
  5
132
102
{ACAD_REACTORS
330
B6
102
}
330
B6
100
AcDbScale
 70
     0
300
10:1
140
10.0
141
1.0
290
     0
  0
SCALE
  5
133
102
{ACAD_REACTORS
330
B6
102
}
330
B6
100
AcDbScale
 70
     0
300
100:1
140
100.0
141
1.0
290
     0
  0
SCALE
  5
134
102
{ACAD_REACTORS
330
B6
102
}
330
B6
100
AcDbScale
 70
     0
300
1/128" = 1'-0"
140
0.0078125
141
12.0
290
     0
  0
SCALE
  5
135
102
{ACAD_REACTORS
330
B6
102
}
330
B6
100
AcDbScale
 70
     0
300
1/64" = 1'-0"
140
0.015625
141
12.0
290
     0
  0
SCALE
  5
136
102
{ACAD_REACTORS
330
B6
102
}
330
B6
100
AcDbScale
 70
     0
300
1/32" = 1'-0"
140
0.03125
141
12.0
290
     0
  0
SCALE
  5
137
102
{ACAD_REACTORS
330
B6
102
}
330
B6
100
AcDbScale
 70
     0
300
1/16" = 1'-0"
140
0.0625
141
12.0
290
     0
  0
SCALE
  5
138
102
{ACAD_REACTORS
330
B6
102
}
330
B6
100
AcDbScale
 70
     0
300
3/32" = 1'-0"
140
0.09375
141
12.0
290
     0
  0
SCALE
  5
139
102
{ACAD_REACTORS
330
B6
102
}
330
B6
100
AcDbScale
 70
     0
300
1/8" = 1'-0"
140
0.125
141
12.0
290
     0
  0
SCALE
  5
13A
102
{ACAD_REACTORS
330
B6
102
}
330
B6
100
AcDbScale
 70
     0
300
3/16" = 1'-0"
140
0.1875
141
12.0
290
     0
  0
SCALE
  5
13B
102
{ACAD_REACTORS
330
B6
102
}
330
B6
100
AcDbScale
 70
     0
300
1/4" = 1'-0"
140
0.25
141
12.0
290
     0
  0
SCALE
  5
13C
102
{ACAD_REACTORS
330
B6
102
}
330
B6
100
AcDbScale
 70
     0
300
3/8" = 1'-0"
140
0.375
141
12.0
290
     0
  0
SCALE
  5
13D
102
{ACAD_REACTORS
330
B6
102
}
330
B6
100
AcDbScale
 70
     0
300
1/2" = 1'-0"
140
0.5
141
12.0
290
     0
  0
SCALE
  5
13E
102
{ACAD_REACTORS
330
B6
102
}
330
B6
100
AcDbScale
 70
     0
300
3/4" = 1'-0"
140
0.75
141
12.0
290
     0
  0
SCALE
  5
13F
102
{ACAD_REACTORS
330
B6
102
}
330
B6
100
AcDbScale
 70
     0
300
1" = 1'-0"
140
1.0
141
12.0
290
     0
  0
SCALE
  5
140
102
{ACAD_REACTORS
330
B6
102
}
330
B6
100
AcDbScale
 70
     0
300
1-1/2" = 1'-0"
140
1.5
141
12.0
290
     0
  0
SCALE
  5
141
102
{ACAD_REACTORS
330
B6
102
}
330
B6
100
AcDbScale
 70
     0
300
3" = 1'-0"
140
3.0
141
12.0
290
     0
  0
SCALE
  5
142
102
{ACAD_REACTORS
330
B6
102
}
330
B6
100
AcDbScale
 70
     0
300
6" = 1'-0"
140
6.0
141
12.0
290
     0
  0
SCALE
  5
143
102
{ACAD_REACTORS
330
B6
102
}
330
B6
100
AcDbScale
 70
     0
300
1'-0" = 1'-0"
140
12.0
141
12.0
290
     0
  0
TABLESTYLE
  5
87
102
{ACAD_XDICTIONARY
360
104
102
}
102
{ACAD_REACTORS
330
86
102
}
330
86
100
AcDbTableStyle
  3
Standard
 70
     0
 71
     0
 40
0.06
 41
0.06
280
     0
281
     0
  7
Standard
140
0.18
170
     2
 62
     0
 63
     7
283
     0
274
    -2
284
     1
 64
     0
275
    -2
285
     1
 65
     0
276
    -2
286
     1
 66
     0
277
    -2
287
     1
 67
     0
278
    -2
288
     1
 68
     0
279
    -2
289
     1
 69
     0
  7
Standard
140
0.25
170
     5
 62
     0
 63
     7
283
     0
274
    -2
284
     1
 64
     0
275
    -2
285
     1
 65
     0
276
    -2
286
     1
 66
     0
277
    -2
287
     1
 67
     0
278
    -2
288
     1
 68
     0
279
    -2
289
     1
 69
     0
  7
Standard
140
0.18
170
     5
 62
     0
 63
     7
283
     0
274
    -2
284
     1
 64
     0
275
    -2
285
     1
 65
     0
276
    -2
286
     1
 66
     0
277
    -2
287
     1
 67
     0
278
    -2
288
     1
 68
     0
279
    -2
289
     1
 69
     0
  0
VISUALSTYLE
  5
9F
102
{ACAD_REACTORS
330
99
102
}
330
99
100
AcDbVisualStyle
  2
2dWireframe
 70
     4
 71
     0
 72
     2
 73
     1
 90
        0
 40
-0.6
 41
-30.0
 62
     5
 63
     7
 74
     1
 91
        4
 64
     7
 65
   257
 75
     1
175
     1
 42
1.0
 92
        0
 66
   257
 43
1.0
 76
     1
 77
     6
 78
     2
 67
     7
 79
     5
170
     0
171
     0
290
     0
174
     0
 93
        1
 44
0.0
173
     0
291
     0
 45
0.0
1001
ACAD
1000
AcDbSavedByObjectVersion
1070
     0
  0
VISUALSTYLE
  5
A1
102
{ACAD_REACTORS
330
99
102
}
330
99
100
AcDbVisualStyle
  2
3D Hidden
 70
     6
 71
     1
 72
     2
 73
     2
 90
        0
 40
-0.6
 41
-30.0
 62
     5
 63
     7
 74
     2
 91
        2
 64
     7
 65
   257
 75
     2
175
     1
 42
40.0
 92
        0
 66
   257
 43
1.0
 76
     1
 77
     6
 78
     2
 67
     7
 79
     3
170
     0
171
     0
290
     0
174
     0
 93
        1
 44
0.0
173
     0
291
     0
 45
0.0
1001
ACAD
1000
AcDbSavedByObjectVersion
1070
     0
  0
VISUALSTYLE
  5
A0
102
{ACAD_REACTORS
330
99
102
}
330
99
100
AcDbVisualStyle
  2
3dWireframe
 70
     5
 71
     0
 72
     2
 73
     1
 90
        0
 40
-0.6
 41
-30.0
 62
     5
 63
     7
 74
     1
 91
        4
 64
     7
 65
   257
 75
     1
175
     1
 42
1.0
 92
        0
 66
   257
 43
1.0
 76
     1
 77
     6
 78
     2
 67
     7
 79
     5
170
     0
171
     0
290
     0
174
     0
 93
        1
 44
0.0
173
     0
291
     0
 45
0.0
1001
ACAD
1000
AcDbSavedByObjectVersion
1070
     0
  0
VISUALSTYLE
  5
9E
102
{ACAD_REACTORS
330
99
102
}
330
99
100
AcDbVisualStyle
  2
Basic
 70
     7
 71
     1
 72
     0
 73
     1
 90
        0
 40
-0.6
 41
-30.0
 62
     5
 63
     7
 74
     0
 91
        4
 64
     7
 65
   257
 75
     1
175
     1
 42
1.0
 92
        8
 66
     7
 43
1.0
 76
     1
 77
     6
 78
     2
 67
     7
 79
     5
170
     0
171
     0
290
     0
174
     0
 93
        1
 44
0.0
173
     0
291
     1
 45
0.0
1001
ACAD
1000
AcDbSavedByObjectVersion
1070
     0
  0
VISUALSTYLE
  5
A5
102
{ACAD_REACTORS
330
99
102
}
330
99
100
AcDbVisualStyle
  2
Brighten
 70
    12
 71
     2
 72
     2
 73
     1
 90
        0
 40
-0.6
 41
-30.0
 62
     5
 63
     7
 74
     1
 91
        4
 64
     7
 65
   257
 75
     1
175
     1
 42
1.0
 92
        8
 66
     7
 43
1.0
 76
     1
 77
     6
 78
     2
 67
     7
 79
     5
170
     0
171
     0
290
     0
174
     0
 93
        1
 44
50.0
173
     0
291
     1
 45
0.0
1001
ACAD
1000
AcDbSavedByObjectVersion
1070
     0
  0
VISUALSTYLE
  5
A9
102
{ACAD_REACTORS
330
99
102
}
330
99
100
AcDbVisualStyle
  2
ColorChange
 70
    16
 71
     2
 72
     2
 73
     3
 90
        0
 40
-0.6
 41
-30.0
 62
     5
 63
     8
 74
     1
 91
        4
 64
     7
 65
   257
 75
     1
175
     1
 42
1.0
 92
        8
 66
     8
 43
1.0
 76
     1
 77
     6
 78
     2
 67
     7
 79
     5
170
     0
171
     0
290
     0
174
     0
 93
        1
 44
0.0
173
     0
291
     1
 45
0.0
1001
ACAD
1000
AcDbSavedByObjectVersion
1070
     0
  0
VISUALSTYLE
  5
A2
102
{ACAD_REACTORS
330
99
102
}
330
99
100
AcDbVisualStyle
  2
Conceptual
 70
     9
 71
     3
 72
     2
 73
     1
 90
        0
 40
-0.6
 41
-30.0
 62
     5
 63
     7
 74
     2
 91
        2
 64
     7
 65
   257
 75
     1
175
     1
 42
40.0
 92
        8
 66
     7
 43
1.0
 76
     1
 77
     6
 78
     2
 67
     7
 79
     3
170
     0
171
     0
290
     0
174
     0
 93
        1
 44
0.0
173
     0
291
     0
 45
0.0
1001
ACAD
1000
AcDbSavedByObjectVersion
1070
     0
  0
VISUALSTYLE
  5
A4
102
{ACAD_REACTORS
330
99
102
}
330
99
100
AcDbVisualStyle
  2
Dim
 70
    11
 71
     2
 72
     2
 73
     1
 90
        0
 40
-0.6
 41
-30.0
 62
     5
 63
     7
 74
     1
 91
        4
 64
     7
 65
   257
 75
     1
175
     1
 42
1.0
 92
        8
 66
     7
 43
1.0
 76
     1
 77
     6
 78
     2
 67
     7
 79
     5
170
     0
171
     0
290
     0
174
     0
 93
        1
 44
-50.0
173
     0
291
     1
 45
0.0
1001
ACAD
1000
AcDbSavedByObjectVersion
1070
     0
  0
VISUALSTYLE
  5
A8
102
{ACAD_REACTORS
330
99
102
}
330
99
100
AcDbVisualStyle
  2
Facepattern
 70
    15
 71
     2
 72
     2
 73
     1
 90
        0
 40
-0.6
 41
-30.0
 62
     5
 63
     7
 74
     1
 91
        4
 64
     7
 65
   257
 75
     1
175
     1
 42
1.0
 92
        8
 66
     7
 43
1.0
 76
     1
 77
     6
 78
     2
 67
     7
 79
     5
170
     0
171
     0
290
     0
174
     0
 93
        1
 44
0.0
173
     0
291
     1
 45
0.0
1001
ACAD
1000
AcDbSavedByObjectVersion
1070
     0
  0
VISUALSTYLE
  5
9A
102
{ACAD_REACTORS
330
99
102
}
330
99
100
AcDbVisualStyle
  2
Flat
 70
     0
 71
     2
 72
     1
 73
     1
 90
        2
 40
-0.6
 41
30.0
 62
     5
 63
     7
 74
     0
 91
        4
 64
     7
 65
   257
 75
     1
175
     1
 42
1.0
 92
        8
 66
     7
 43
1.0
 76
     1
 77
     6
 78
     2
 67
     7
 79
     5
170
     0
171
     0
290
     0
174
     0
 93
        1
 44
0.0
173
     0
291
     1
 45
0.0
1001
ACAD
1000
AcDbSavedByObjectVersion
1070
     0
  0
VISUALSTYLE
  5
9B
102
{ACAD_REACTORS
330
99
102
}
330
99
100
AcDbVisualStyle
  2
FlatWithEdges
 70
     1
 71
     2
 72
     1
 73
     1
 90
        2
 40
-0.6
 41
30.0
 62
     5
 63
     7
 74
     1
 91
        4
 64
     7
 65
   257
 75
     1
175
     1
 42
1.0
 92
        0
 66
   257
 43
1.0
 76
     1
 77
     6
 78
     2
 67
     7
 79
     5
170
     0
171
     0
290
     0
174
     0
 93
        1
 44
0.0
173
     0
291
     1
 45
0.0
1001
ACAD
1000
AcDbSavedByObjectVersion
1070
     0
  0
VISUALSTYLE
  5
9C
102
{ACAD_REACTORS
330
99
102
}
330
99
100
AcDbVisualStyle
  2
Gouraud
 70
     2
 71
     2
 72
     2
 73
     1
 90
        2
 40
-0.6
 41
30.0
 62
     5
 63
     7
 74
     0
 91
        4
 64
     7
 65
   257
 75
     1
175
     1
 42
1.0
 92
        0
 66
     7
 43
1.0
 76
     1
 77
     6
 78
     2
 67
     7
 79
     5
170
     0
171
     0
290
     0
174
     0
 93
        1
 44
0.0
173
     0
291
     1
 45
0.0
1001
ACAD
1000
AcDbSavedByObjectVersion
1070
     0
  0
VISUALSTYLE
  5
9D
102
{ACAD_REACTORS
330
99
102
}
330
99
100
AcDbVisualStyle
  2
GouraudWithEdges
 70
     3
 71
     2
 72
     2
 73
     1
 90
        2
 40
-0.6
 41
30.0
 62
     5
 63
     7
 74
     1
 91
        4
 64
     7
 65
   257
 75
     1
175
     1
 42
1.0
 92
        0
 66
   257
 43
1.0
 76
     1
 77
     6
 78
     2
 67
     7
 79
     5
170
     0
171
     0
290
     0
174
     0
 93
        1
 44
0.0
173
     0
291
     1
 45
0.0
1001
ACAD
1000
AcDbSavedByObjectVersion
1070
     0
  0
VISUALSTYLE
  5
A7
102
{ACAD_REACTORS
330
99
102
}
330
99
100
AcDbVisualStyle
  2
Linepattern
 70
    14
 71
     2
 72
     2
 73
     1
 90
        0
 40
-0.6
 41
-30.0
 62
     5
 63
     7
 74
     1
 91
        4
 64
     7
 65
   257
 75
     7
175
     7
 42
1.0
 92
        8
 66
     7
 43
1.0
 76
     1
 77
     6
 78
     2
 67
     7
 79
     5
170
     0
171
     0
290
     0
174
     0
 93
        1
 44
0.0
173
     0
291
     1
 45
0.0
1001
ACAD
1000
AcDbSavedByObjectVersion
1070
     0
  0
VISUALSTYLE
  5
A3
102
{ACAD_REACTORS
330
99
102
}
330
99
100
AcDbVisualStyle
  2
Realistic
 70
     8
 71
     2
 72
     2
 73
     1
 90
        0
 40
-0.6
 41
-30.0
 62
     5
 63
     7
 74
     1
 91
        0
 64
     7
 65
   257
 75
     1
175
     1
 42
1.0
 92
        8
 66
     8
 43
1.0
 76
     1
 77
     6
 78
     2
 67
     7
 79
     5
170
     0
171
     0
290
     0
174
     0
 93
       13
 44
0.0
173
     0
291
     0
 45
0.0
1001
ACAD
1000
AcDbSavedByObjectVersion
1070
     0
  0
VISUALSTYLE
  5
A6
102
{ACAD_REACTORS
330
99
102
}
330
99
100
AcDbVisualStyle
  2
Thicken
 70
    13
 71
     2
 72
     2
 73
     1
 90
        0
 40
-0.6
 41
-30.0
 62
     5
 63
     7
 74
     1
 91
        4
 64
     7
 65
   257
 75
     1
175
     1
 42
1.0
 92
       12
 66
     7
 43
1.0
 76
     1
 77
     6
 78
     2
 67
     7
 79
     5
170
     0
171
     0
290
     0
174
     0
 93
        1
 44
0.0
173
     0
291
     1
 45
0.0
1001
ACAD
1000
AcDbSavedByObjectVersion
1070
     0
  0
DICTIONARYVAR
  5
F0
102
{ACAD_REACTORS
330
66
102
}
330
66
100
DictionaryVariables
280
     0
  1
1:1
  0
DICTIONARYVAR
  5
EF
102
{ACAD_REACTORS
330
66
102
}
330
66
100
DictionaryVariables
280
     0
  1
STANDARD
  0
DICTIONARYVAR
  5
89
102
{ACAD_REACTORS
330
66
102
}
330
66
100
DictionaryVariables
280
     0
  1
STANDARD
  0
DICTIONARYVAR
  5
67
102
{ACAD_REACTORS
330
66
102
}
330
66
100
DictionaryVariables
280
     0
  1
2
  0
DICTIONARYVAR
  5
6B
102
{ACAD_REACTORS
330
66
102
}
330
66
100
DictionaryVariables
280
     0
  1
1
  0
DICTIONARYVAR
  5
41D
102
{ACAD_REACTORS
330
66
102
}
330
66
100
DictionaryVariables
280
     0
  1
0
  0
DICTIONARYVAR
  5
41B
102
{ACAD_REACTORS
330
66
102
}
330
66
100
DictionaryVariables
280
     0
  1
2
  0
DICTIONARYVAR
  5
41A
102
{ACAD_REACTORS
330
66
102
}
330
66
100
DictionaryVariables
280
     0
  1
1
  0
DICTIONARYVAR
  5
41C
102
{ACAD_REACTORS
330
66
102
}
330
66
100
DictionaryVariables
280
     0
  1
127
  0
DICTIONARY
  5
422
330
59
100
AcDbDictionary
280
     1
281
     1
  3
ACAD_XREC_ROUNDTRIP
360
423
  0
DICTIONARY
  5
424
330
5E
100
AcDbDictionary
280
     1
281
     1
  3
ACAD_XREC_ROUNDTRIP
360
425
  0
DICTIONARY
  5
420
330
22
100
AcDbDictionary
280
     1
281
     1
  3
ACAD_XREC_ROUNDTRIP
360
421
  0
DICTIONARY
  5
429
330
97
100
AcDbDictionary
280
     1
281
     1
  3
ACAD_XREC_ROUNDTRIP
360
42A
  0
DICTIONARY
  5
427
330
96
100
AcDbDictionary
280
     1
281
     1
  3
ACAD_XREC_ROUNDTRIP
360
428
  0
DICTIONARY
  5
110
330
98
100
AcDbDictionary
280
     1
281
     1
  3
ACAD_XREC_ROUNDTRIP
360
42B
  3
BUMPTILE
360
112
  3
DIFFUSETILE
360
111
  3
OPACITYTILE
360
113
  3
REFLECTIONTILE
360
114
  0
DICTIONARY
  5
104
330
87
100
AcDbDictionary
280
     1
281
     1
  3
ACAD_ROUNDTRIP_2008_TABLESTYLE_CELLSTYLEMAP
360
41E
  3
ACAD_XREC_ROUNDTRIP
360
426
  0
XRECORD
  5
423
102
{ACAD_REACTORS
330
422
102
}
330
422
100
AcDbXrecord
280
     1
102
SHADEPLOT
 70
     0
102
SHADEPLOTRESLEVEL
 70
     2
102
SHADEPLOTCUSTOMDPI
 70
   300
  0
XRECORD
  5
425
102
{ACAD_REACTORS
330
424
102
}
330
424
100
AcDbXrecord
280
     1
102
SHADEPLOT
 70
     0
102
SHADEPLOTRESLEVEL
 70
     2
102
SHADEPLOTCUSTOMDPI
 70
   300
  0
XRECORD
  5
421
102
{ACAD_REACTORS
330
420
102
}
330
420
100
AcDbXrecord
280
     1
102
SHADEPLOT
 70
     0
102
SHADEPLOTRESLEVEL
 70
     2
102
SHADEPLOTCUSTOMDPI
 70
   300
  0
XRECORD
  5
42A
102
{ACAD_REACTORS
330
429
102
}
330
429
100
AcDbXrecord
280
     1
102
MATERIAL
148
0.0
149
0.0
149
0.0
 93
        0
 94
       63
282
     0
 72
     1
 77
     1
171
     1
175
     1
179
     1
273
     0
  0
XRECORD
  5
428
102
{ACAD_REACTORS
330
427
102
}
330
427
100
AcDbXrecord
280
     1
102
MATERIAL
148
0.0
149
0.0
149
0.0
 93
        0
 94
       63
282
     0
 72
     1
 77
     1
171
     1
175
     1
179
     1
273
     0
  0
XRECORD
  5
42B
102
{ACAD_REACTORS
330
110
102
}
330
110
100
AcDbXrecord
280
     1
102
MATERIAL
148
0.0
149
0.0
149
0.0
 93
        0
 94
       63
282
     0
 72
     1
 77
     1
171
     1
175
     1
179
     1
273
     0
  0
XRECORD
  5
112
102
{ACAD_REACTORS
330
110
102
}
330
110
100
AcDbXrecord
280
     1
270
     1
271
     1
  0
XRECORD
  5
111
102
{ACAD_REACTORS
330
110
102
}
330
110
100
AcDbXrecord
280
     1
270
     1
271
     1
  0
XRECORD
  5
113
102
{ACAD_REACTORS
330
110
102
}
330
110
100
AcDbXrecord
280
     1
270
     1
271
     1
  0
XRECORD
  5
114
102
{ACAD_REACTORS
330
110
102
}
330
110
100
AcDbXrecord
280
     1
270
     1
271
     1
  0
CELLSTYLEMAP
  5
41E
102
{ACAD_REACTORS
330
104
102
}
330
104
100
AcDbCellStyleMap
 90
        3
300
CELLSTYLE
  1
TABLEFORMAT_BEGIN
 90
        5
170
     1
 91
        0
 92
    32768
 62
   257
 93
        1
300
CONTENTFORMAT
  1
CONTENTFORMAT_BEGIN
 90
        0
 91
        0
 92
      512
 93
        0
300

 40
0.0
140
1.0
 94
        5
 62
     0
340
11
144
0.25
309
CONTENTFORMAT_END
171
     1
301
MARGIN
  1
CELLMARGIN_BEGIN
 40
0.06
 40
0.06
 40
0.06
 40
0.06
 40
0.18
 40
0.18
309
CELLMARGIN_END
 94
        6
 95
        1
302
GRIDFORMAT
  1
GRIDFORMAT_BEGIN
 90
        0
 91
        1
 62
     0
 92
       -2
340
0
 93
        0
 40
0.045
309
GRIDFORMAT_END
 95
        2
302
GRIDFORMAT
  1
GRIDFORMAT_BEGIN
 90
        0
 91
        1
 62
     0
 92
       -2
340
0
 93
        0
 40
0.045
309
GRIDFORMAT_END
 95
        4
302
GRIDFORMAT
  1
GRIDFORMAT_BEGIN
 90
        0
 91
        1
 62
     0
 92
       -2
340
0
 93
        0
 40
0.045
309
GRIDFORMAT_END
 95
        8
302
GRIDFORMAT
  1
GRIDFORMAT_BEGIN
 90
        0
 91
        1
 62
     0
 92
       -2
340
0
 93
        0
 40
0.045
309
GRIDFORMAT_END
 95
       16
302
GRIDFORMAT
  1
GRIDFORMAT_BEGIN
 90
        0
 91
        1
 62
     0
 92
       -2
340
0
 93
        0
 40
0.045
309
GRIDFORMAT_END
 95
       32
302
GRIDFORMAT
  1
GRIDFORMAT_BEGIN
 90
        0
 91
        1
 62
     0
 92
       -2
340
0
 93
        0
 40
0.045
309
GRIDFORMAT_END
309
TABLEFORMAT_END
  1
CELLSTYLE_BEGIN
 90
        1
 91
        1
300
_TITLE
309
CELLSTYLE_END
300
CELLSTYLE
  1
TABLEFORMAT_BEGIN
 90
        5
170
     1
 91
        0
 92
        0
 62
   257
 93
        1
300
CONTENTFORMAT
  1
CONTENTFORMAT_BEGIN
 90
        0
 91
        0
 92
      512
 93
        0
300

 40
0.0
140
1.0
 94
        5
 62
     0
340
11
144
0.18
309
CONTENTFORMAT_END
171
     1
301
MARGIN
  1
CELLMARGIN_BEGIN
 40
0.06
 40
0.06
 40
0.06
 40
0.06
 40
0.18
 40
0.18
309
CELLMARGIN_END
 94
        6
 95
        1
302
GRIDFORMAT
  1
GRIDFORMAT_BEGIN
 90
        0
 91
        1
 62
     0
 92
       -2
340
0
 93
        0
 40
0.045
309
GRIDFORMAT_END
 95
        2
302
GRIDFORMAT
  1
GRIDFORMAT_BEGIN
 90
        0
 91
        1
 62
     0
 92
       -2
340
0
 93
        0
 40
0.045
309
GRIDFORMAT_END
 95
        4
302
GRIDFORMAT
  1
GRIDFORMAT_BEGIN
 90
        0
 91
        1
 62
     0
 92
       -2
340
0
 93
        0
 40
0.045
309
GRIDFORMAT_END
 95
        8
302
GRIDFORMAT
  1
GRIDFORMAT_BEGIN
 90
        0
 91
        1
 62
     0
 92
       -2
340
0
 93
        0
 40
0.045
309
GRIDFORMAT_END
 95
       16
302
GRIDFORMAT
  1
GRIDFORMAT_BEGIN
 90
        0
 91
        1
 62
     0
 92
       -2
340
0
 93
        0
 40
0.045
309
GRIDFORMAT_END
 95
       32
302
GRIDFORMAT
  1
GRIDFORMAT_BEGIN
 90
        0
 91
        1
 62
     0
 92
       -2
340
0
 93
        0
 40
0.045
309
GRIDFORMAT_END
309
TABLEFORMAT_END
  1
CELLSTYLE_BEGIN
 90
        2
 91
        1
300
_HEADER
309
CELLSTYLE_END
300
CELLSTYLE
  1
TABLEFORMAT_BEGIN
 90
        5
170
     1
 91
        0
 92
        0
 62
   257
 93
        1
300
CONTENTFORMAT
  1
CONTENTFORMAT_BEGIN
 90
        0
 91
        0
 92
      512
 93
        0
300

 40
0.0
140
1.0
 94
        2
 62
     0
340
11
144
0.18
309
CONTENTFORMAT_END
171
     1
301
MARGIN
  1
CELLMARGIN_BEGIN
 40
0.06
 40
0.06
 40
0.06
 40
0.06
 40
0.18
 40
0.18
309
CELLMARGIN_END
 94
        6
 95
        1
302
GRIDFORMAT
  1
GRIDFORMAT_BEGIN
 90
        0
 91
        1
 62
     0
 92
       -2
340
0
 93
        0
 40
0.045
309
GRIDFORMAT_END
 95
        2
302
GRIDFORMAT
  1
GRIDFORMAT_BEGIN
 90
        0
 91
        1
 62
     0
 92
       -2
340
0
 93
        0
 40
0.045
309
GRIDFORMAT_END
 95
        4
302
GRIDFORMAT
  1
GRIDFORMAT_BEGIN
 90
        0
 91
        1
 62
     0
 92
       -2
340
0
 93
        0
 40
0.045
309
GRIDFORMAT_END
 95
        8
302
GRIDFORMAT
  1
GRIDFORMAT_BEGIN
 90
        0
 91
        1
 62
     0
 92
       -2
340
0
 93
        0
 40
0.045
309
GRIDFORMAT_END
 95
       16
302
GRIDFORMAT
  1
GRIDFORMAT_BEGIN
 90
        0
 91
        1
 62
     0
 92
       -2
340
0
 93
        0
 40
0.045
309
GRIDFORMAT_END
 95
       32
302
GRIDFORMAT
  1
GRIDFORMAT_BEGIN
 90
        0
 91
        1
 62
     0
 92
       -2
340
0
 93
        0
 40
0.045
309
GRIDFORMAT_END
309
TABLEFORMAT_END
  1
CELLSTYLE_BEGIN
 90
        3
 91
        2
300
_DATA
309
CELLSTYLE_END
  0
XRECORD
  5
426
102
{ACAD_REACTORS
330
104
102
}
330
104
100
AcDbXrecord
280
     1
102
ACAD_ROUNDTRIP_PRE2007_TABLESTYLE
 90
      512
 91
        0
  1

 92
      512
 93
        0
  2

 94
      512
 95
        0
  3

  0
ENDSEC
  0
EOF
