  0
SECTION
  2
HEADER
  9
$ACADVER
  1
AC1015
  9
$ACADMAINTVER
 70
    20
  9
$DWGCODEPAGE
  3
ANSI_1252
  9
$INSBASE
 10
0.0
 20
0.0
 30
0.0
  9
$EXTMIN
 10
18.9086776103595
 20
17.22698615397844
 30
0.0
  9
$EXTMAX
 10
373.5220413603047
 20
400.1867063539784
 30
0.0
  9
$LIMMIN
 10
0.0
 20
0.0
  9
$LIMMAX
 10
12.0
 20
9.0
  9
$ORTHOMODE
 70
     0
  9
$REGENMODE
 70
     1
  9
$FILLMODE
 70
     1
  9
$QTEXTMODE
 70
     0
  9
$MIRRTEXT
 70
     0
  9
$LTSCALE
 40
1.0
  9
$ATTMODE
 70
     1
  9
$TEXTSIZE
 40
0.2
  9
$TRACEWID
 40
0.05
  9
$TEXTSTYLE
  7
Standard
  9
$CLAYER
  8
0
  9
$CELTYPE
  6
ByLayer
  9
$CECOLOR
 62
   256
  9
$CELTSCALE
 40
1.0
  9
$DISPSILH
 70
     0
  9
$DIMSCALE
 40
1.0
  9
$DIMASZ
 40
0.18
  9
$DIMEXO
 40
0.0625
  9
$DIMDLI
 40
0.38
  9
$DIMRND
 40
0.0
  9
$DIMDLE
 40
0.0
  9
$DIMEXE
 40
0.18
  9
$DIMTP
 40
0.0
  9
$DIMTM
 40
0.0
  9
$DIMTXT
 40
0.18
  9
$DIMCEN
 40
0.09
  9
$DIMTSZ
 40
0.0
  9
$DIMTOL
 70
     0
  9
$DIMLIM
 70
     0
  9
$DIMTIH
 70
     1
  9
$DIMTOH
 70
     1
  9
$DIMSE1
 70
     0
  9
$DIMSE2
 70
     0
  9
$DIMTAD
 70
     0
  9
$DIMZIN
 70
     0
  9
$DIMBLK
  1

  9
$DIMASO
 70
     1
  9
$DIMSHO
 70
     1
  9
$DIMPOST
  1

  9
$DIMAPOST
  1

  9
$DIMALT
 70
     0
  9
$DIMALTD
 70
     2
  9
$DIMALTF
 40
25.4
  9
$DIMLFAC
 40
1.0
  9
$DIMTOFL
 70
     0
  9
$DIMTVP
 40
0.0
  9
$DIMTIX
 70
     0
  9
$DIMSOXD
 70
     0
  9
$DIMSAH
 70
     0
  9
$DIMBLK1
  1

  9
$DIMBLK2
  1

  9
$DIMSTYLE
  2
Standard
  9
$DIMCLRD
 70
     0
  9
$DIMCLRE
 70
     0
  9
$DIMCLRT
 70
     0
  9
$DIMTFAC
 40
1.0
  9
$DIMGAP
 40
0.09
  9
$DIMJUST
 70
     0
  9
$DIMSD1
 70
     0
  9
$DIMSD2
 70
     0
  9
$DIMTOLJ
 70
     1
  9
$DIMTZIN
 70
     0
  9
$DIMALTZ
 70
     0
  9
$DIMALTTZ
 70
     0
  9
$DIMUPT
 70
     0
  9
$DIMDEC
 70
     4
  9
$DIMTDEC
 70
     4
  9
$DIMALTU
 70
     2
  9
$DIMALTTD
 70
     2
  9
$DIMTXSTY
  7
Standard
  9
$DIMAUNIT
 70
     0
  9
$DIMADEC
 70
     0
  9
$DIMALTRND
 40
0.0
  9
$DIMAZIN
 70
     0
  9
$DIMDSEP
 70
    46
  9
$DIMATFIT
 70
     3
  9
$DIMFRAC
 70
     0
  9
$DIMLDRBLK
  1

  9
$DIMLUNIT
 70
     2
  9
$DIMLWD
 70
    -2
  9
$DIMLWE
 70
    -2
  9
$DIMTMOVE
 70
     0
  9
$LUNITS
 70
     2
  9
$LUPREC
 70
     4
  9
$SKETCHINC
 40
0.1
  9
$FILLETRAD
 40
0.0
  9
$AUNITS
 70
     0
  9
$AUPREC
 70
     0
  9
$MENU
  1
.
  9
$ELEVATION
 40
0.0
  9
$PELEVATION
 40
0.0
  9
$THICKNESS
 40
0.0
  9
$LIMCHECK
 70
     0
  9
$CHAMFERA
 40
0.0
  9
$CHAMFERB
 40
0.0
  9
$CHAMFERC
 40
0.0
  9
$CHAMFERD
 40
0.0
  9
$SKPOLY
 70
     0
  9
$TDCREATE
 40
2455511.358716204
  9
$TDUCREATE
 40
2455511.317049537
  9
$TDUPDATE
 40
2455511.358882130
  9
$TDUUPDATE
 40
2455511.317215463
  9
$TDINDWG
 40
0.0001661111
  9
$TDUSRTIMER
 40
0.0001661111
  9
$USRTIMER
 70
     1
  9
$ANGBASE
 50
0.0
  9
$ANGDIR
 70
     0
  9
$PDMODE
 70
     0
  9
$PDSIZE
 40
0.0
  9
$PLINEWID
 40
0.0
  9
$SPLFRAME
 70
     0
  9
$SPLINETYPE
 70
     6
  9
$SPLINESEGS
 70
     8
  9
$HANDSEED
  5
431
  9
$SURFTAB1
 70
     6
  9
$SURFTAB2
 70
     6
  9
$SURFTYPE
 70
     6
  9
$SURFU
 70
     6
  9
$SURFV
 70
     6
  9
$UCSBASE
  2

  9
$UCSNAME
  2

  9
$UCSORG
 10
0.0
 20
0.0
 30
0.0
  9
$UCSXDIR
 10
1.0
 20
0.0
 30
0.0
  9
$UCSYDIR
 10
0.0
 20
1.0
 30
0.0
  9
$UCSORTHOREF
  2

  9
$UCSORTHOVIEW
 70
     0
  9
$UCSORGTOP
 10
0.0
 20
0.0
 30
0.0
  9
$UCSORGBOTTOM
 10
0.0
 20
0.0
 30
0.0
  9
$UCSORGLEFT
 10
0.0
 20
0.0
 30
0.0
  9
$UCSORGRIGHT
 10
0.0
 20
0.0
 30
0.0
  9
$UCSORGFRONT
 10
0.0
 20
0.0
 30
0.0
  9
$UCSORGBACK
 10
0.0
 20
0.0
 30
0.0
  9
$PUCSBASE
  2

  9
$PUCSNAME
  2

  9
$PUCSORG
 10
0.0
 20
0.0
 30
0.0
  9
$PUCSXDIR
 10
1.0
 20
0.0
 30
0.0
  9
$PUCSYDIR
 10
0.0
 20
1.0
 30
0.0
  9
$PUCSORTHOREF
  2

  9
$PUCSORTHOVIEW
 70
     0
  9
$PUCSORGTOP
 10
0.0
 20
0.0
 30
0.0
  9
$PUCSORGBOTTOM
 10
0.0
 20
0.0
 30
0.0
  9
$PUCSORGLEFT
 10
0.0
 20
0.0
 30
0.0
  9
$PUCSORGRIGHT
 10
0.0
 20
0.0
 30
0.0
  9
$PUCSORGFRONT
 10
0.0
 20
0.0
 30
0.0
  9
$PUCSORGBACK
 10
0.0
 20
0.0
 30
0.0
  9
$USERI1
 70
     0
  9
$USERI2
 70
     0
  9
$USERI3
 70
     0
  9
$USERI4
 70
     0
  9
$USERI5
 70
     0
  9
$USERR1
 40
0.0
  9
$USERR2
 40
0.0
  9
$USERR3
 40
0.0
  9
$USERR4
 40
0.0
  9
$USERR5
 40
0.0
  9
$WORLDVIEW
 70
     1
  9
$SHADEDGE
 70
     3
  9
$SHADEDIF
 70
    70
  9
$TILEMODE
 70
     1
  9
$MAXACTVP
 70
    64
  9
$PINSBASE
 10
0.0
 20
0.0
 30
0.0
  9
$PLIMCHECK
 70
     0
  9
$PEXTMIN
 10
0.0
 20
0.0
 30
0.0
  9
$PEXTMAX
 10
0.0
 20
0.0
 30
0.0
  9
$PLIMMIN
 10
0.0
 20
0.0
  9
$PLIMMAX
 10
12.0
 20
9.0
  9
$UNITMODE
 70
     0
  9
$VISRETAIN
 70
     1
  9
$PLINEGEN
 70
     0
  9
$PSLTSCALE
 70
     1
  9
$TREEDEPTH
 70
  3020
  9
$CMLSTYLE
  2
Standard
  9
$CMLJUST
 70
     0
  9
$CMLSCALE
 40
1.0
  9
$PROXYGRAPHICS
 70
     1
  9
$MEASUREMENT
 70
     0
  9
$CELWEIGHT
370
    -1
  9
$ENDCAPS
280
     0
  9
$JOINSTYLE
280
     0
  9
$LWDISPLAY
290
     0
  9
$INSUNITS
 70
     1
  9
$HYPERLINKBASE
  1

  9
$STYLESHEET
  1

  9
$XEDIT
290
     1
  9
$CEPSNTYPE
380
     0
  9
$PSTYLEMODE
290
     1
  9
$FINGERPRINTGUID
  2
{D87DD1B3-DFBB-4249-85D9-482D023FAABA}
  9
$VERSIONGUID
  2
{A1ED6C6D-5E54-4635-B597-A53274D958EB}
  9
$EXTNAMES
290
     1
  9
$PSVPSCALE
 40
0.0
  9
$OLESTARTUP
290
     0
  0
ENDSEC
  0
SECTION
  2
CLASSES
  0
CLASS
  1
ACDBDICTIONARYWDFLT
  2
AcDbDictionaryWithDefault
  3
ObjectDBX Classes
 90
        0
280
     0
281
     0
  0
CLASS
  1
ACDBPLACEHOLDER
  2
AcDbPlaceHolder
  3
ObjectDBX Classes
 90
        0
280
     0
281
     0
  0
CLASS
  1
LAYOUT
  2
AcDbLayout
  3
ObjectDBX Classes
 90
        0
280
     0
281
     0
  0
CLASS
  1
DICTIONARYVAR
  2
AcDbDictionaryVar
  3
ObjectDBX Classes
 90
        0
280
     0
281
     0
  0
CLASS
  1
TABLESTYLE
  2
AcDbTableStyle
  3
ObjectDBX Classes
 90
     4095
280
     0
281
     0
  0
CLASS
  1
MATERIAL
  2
AcDbMaterial
  3
ObjectDBX Classes
 90
     1153
280
     0
281
     0
  0
CLASS
  1
VISUALSTYLE
  2
AcDbVisualStyle
  3
ObjectDBX Classes
 90
     4095
280
     0
281
     0
  0
CLASS
  1
SCALE
  2
AcDbScale
  3
ObjectDBX Classes
 90
     1153
280
     0
281
     0
  0
CLASS
  1
MLEADERSTYLE
  2
AcDbMLeaderStyle
  3
ACDB_MLEADERSTYLE_CLASS
 90
     4095
280
     0
281
     0
  0
CLASS
  1
CELLSTYLEMAP
  2
AcDbCellStyleMap
  3
ObjectDBX Classes
 90
     1152
280
     0
281
     0
  0
ENDSEC
  0
SECTION
  2
TABLES
  0
TABLE
  2
VPORT
  5
8
330
0
100
AcDbSymbolTable
 70
     1
  0
VPORT
  5
94
330
8
100
AcDbSymbolTableRecord
100
AcDbViewportTableRecord
  2
*Active
 70
     0
 10
0.0
 20
0.0
 11
1.0
 21
1.0
 12
342.7651270061517
 22
260.7263437010049
 13
0.0
 23
0.0
 14
0.5
 24
0.5
 15
0.5
 25
0.5
 16
0.0
 26
0.0
 36
1.0
 17
0.0
 27
0.0
 37
0.0
 40
987.875507546558
 41
1.148760330578512
 42
50.0
 43
0.0
 44
0.0
 50
0.0
 51
0.0
 71
     0
 72
  1000
 73
     1
 74
     3
 75
     0
 76
     0
 77
     0
 78
     0
281
     0
 65
     1
110
0.0
120
0.0
130
0.0
111
1.0
121
0.0
131
0.0
112
0.0
122
1.0
132
0.0
 79
     0
146
0.0
  0
ENDTAB
  0
TABLE
  2
LTYPE
  5
5
330
0
100
AcDbSymbolTable
 70
     1
  0
LTYPE
  5
14
330
5
100
AcDbSymbolTableRecord
100
AcDbLinetypeTableRecord
  2
ByBlock
 70
     0
  3

 72
    65
 73
     0
 40
0.0
  0
LTYPE
  5
15
330
5
100
AcDbSymbolTableRecord
100
AcDbLinetypeTableRecord
  2
ByLayer
 70
     0
  3

 72
    65
 73
     0
 40
0.0
  0
LTYPE
  5
16
330
5
100
AcDbSymbolTableRecord
100
AcDbLinetypeTableRecord
  2
Continuous
 70
     0
  3
Solid line
 72
    65
 73
     0
 40
0.0
  0
ENDTAB
  0
TABLE
  2
LAYER
  5
2
330
0
100
AcDbSymbolTable
 70
     5
  0
LAYER
  5
10
102
{ACAD_XDICTIONARY
360
E6
102
}
330
2
100
AcDbSymbolTableRecord
100
AcDbLayerTableRecord
  2
0
 70
     0
 62
     7
  6
Continuous
370
    -3
390
F
  0
LAYER
  5
174
102
{ACAD_XDICTIONARY
360
419
102
}
330
2
100
AcDbSymbolTableRecord
100
AcDbLayerTableRecord
  2
Q
 70
     1
 62
     7
  6
Continuous
370
    -3
390
F
1001
AcAecLayerStandard
1000

1000

  0
LAYER
  5
175
102
{ACAD_XDICTIONARY
360
41B
102
}
330
2
100
AcDbSymbolTableRecord
100
AcDbLayerTableRecord
  2
QUOTE
 70
     0
 62
     7
  6
Continuous
370
    -3
390
F
1001
AcAecLayerStandard
1000

1000

  0
LAYER
  5
176
102
{ACAD_XDICTIONARY
360
41D
102
}
330
2
100
AcDbSymbolTableRecord
100
AcDbLayerTableRecord
  2
DISEGNO
 70
     0
 62
     1
  6
Continuous
370
    -3
390
F
  0
LAYER
  5
3E6
330
2
100
AcDbSymbolTableRecord
100
AcDbLayerTableRecord
  2
Defpoints
 70
     0
 62
     7
  6
Continuous
290
     0
370
    -3
390
F
  0
ENDTAB
  0
TABLE
  2
STYLE
  5
3
330
0
100
AcDbSymbolTable
 70
     2
  0
STYLE
  5
11
330
3
100
AcDbSymbolTableRecord
100
AcDbTextStyleTableRecord
  2
Standard
 70
     0
 40
0.0
 41
1.0
 50
0.0
 71
     0
 42
0.2
  3
txt.shx
  4

  0
STYLE
  5
DC
330
3
100
AcDbSymbolTableRecord
100
AcDbTextStyleTableRecord
  2
Annotativa
 70
     0
 40
0.0
 41
1.0
 50
0.0
 71
     0
 42
0.2
  3
txt.shx
  4

1001
AcadAnnotative
1000
AnnotativeData
1002
{
1070
     1
1070
     1
1002
}
  0
ENDTAB
  0
TABLE
  2
VIEW
  5
6
330
0
100
AcDbSymbolTable
 70
     1
  0
ENDTAB
  0
TABLE
  2
UCS
  5
7
330
0
100
AcDbSymbolTable
 70
     0
  0
ENDTAB
  0
TABLE
  2
APPID
  5
9
330
0
100
AcDbSymbolTable
 70
    14
  0
APPID
  5
12
330
9
100
AcDbSymbolTableRecord
100
AcDbRegAppTableRecord
  2
ACAD
 70
     0
  0
APPID
  5
DD
330
9
100
AcDbSymbolTableRecord
100
AcDbRegAppTableRecord
  2
AcadAnnoPO
 70
     0
  0
APPID
  5
DE
330
9
100
AcDbSymbolTableRecord
100
AcDbRegAppTableRecord
  2
AcadAnnotative
 70
     0
  0
APPID
  5
DF
330
9
100
AcDbSymbolTableRecord
100
AcDbRegAppTableRecord
  2
ACAD_DSTYLE_DIMJAG
 70
     0
  0
APPID
  5
E0
330
9
100
AcDbSymbolTableRecord
100
AcDbRegAppTableRecord
  2
ACAD_DSTYLE_DIMTALN
 70
     0
  0
APPID
  5
107
330
9
100
AcDbSymbolTableRecord
100
AcDbRegAppTableRecord
  2
ACAD_MLEADERVER
 70
     0
  0
APPID
  5
177
330
9
100
AcDbSymbolTableRecord
100
AcDbRegAppTableRecord
  2
VDEXTRAPARAM
 70
     0
  0
APPID
  5
178
330
9
100
AcDbSymbolTableRecord
100
AcDbRegAppTableRecord
  2
VD_TEMPHATCH
 70
     0
  0
APPID
  5
179
330
9
100
AcDbSymbolTableRecord
100
AcDbRegAppTableRecord
  2
AcAecLayerStandard
 70
     0
  0
APPID
  5
17A
330
9
100
AcDbSymbolTableRecord
100
AcDbRegAppTableRecord
  2
VD_EX_PRINTER_DWG_STYLE_SHEET
 70
     0
  0
APPID
  5
17B
330
9
100
AcDbSymbolTableRecord
100
AcDbRegAppTableRecord
  2
VD_EX_PRINTER_SIZEX
 70
     0
  0
APPID
  5
17C
330
9
100
AcDbSymbolTableRecord
100
AcDbRegAppTableRecord
  2
VD_EX_PRINTER_AVSIZEX
 70
     0
  0
APPID
  5
17D
330
9
100
AcDbSymbolTableRecord
100
AcDbRegAppTableRecord
  2
VD_EX_PRINTER_SIZEY
 70
     0
  0
APPID
  5
17E
330
9
100
AcDbSymbolTableRecord
100
AcDbRegAppTableRecord
  2
VD_EX_PRINTER_AVSIZEY
 70
     0
  0
ENDTAB
  0
TABLE
  2
DIMSTYLE
  5
A
330
0
100
AcDbSymbolTable
 70
     2
100
AcDbDimStyleTable
 71
     2
340
27
340
E1
  0
DIMSTYLE
105
27
102
{ACAD_REACTORS
330
3BF
330
3C0
102
}
330
A
100
AcDbSymbolTableRecord
100
AcDbDimStyleTableRecord
  2
Standard
 70
     0
340
11
  0
DIMSTYLE
105
E1
330
A
100
AcDbSymbolTableRecord
100
AcDbDimStyleTableRecord
  2
Annotativa
 70
     0
 40
0.0
340
11
1001
AcadAnnotative
1000
AnnotativeData
1002
{
1070
     1
1070
     1
1002
}
1001
ACAD_DSTYLE_DIMJAG
1070
   388
1040
1.5
1001
ACAD_DSTYLE_DIMTALN
1070
   392
1070
     0
  0
ENDTAB
  0
TABLE
  2
BLOCK_RECORD
  5
1
330
0
100
AcDbSymbolTable
 70
     7
  0
BLOCK_RECORD
  5
1F
330
1
100
AcDbSymbolTableRecord
100
AcDbBlockTableRecord
  2
*Model_Space
340
22
  0
BLOCK_RECORD
  5
58
330
1
100
AcDbSymbolTableRecord
100
AcDbBlockTableRecord
  2
*Paper_Space
340
59
  0
BLOCK_RECORD
  5
5D
330
1
100
AcDbSymbolTableRecord
100
AcDbBlockTableRecord
  2
*Paper_Space0
340
5E
  0
BLOCK_RECORD
  5
14C
330
1
100
AcDbSymbolTableRecord
100
AcDbBlockTableRecord
  2
VDDIM_DEFAULT
340
0
  0
BLOCK_RECORD
  5
150
330
1
100
AcDbSymbolTableRecord
100
AcDbBlockTableRecord
  2
IEC_309_16-32
340
0
102
{BLKREFS
331
2AE
331
2AF
331
2B0
331
3E3
331
3E4
331
3E5
102
}
  0
BLOCK_RECORD
  5
168
330
1
100
AcDbSymbolTableRecord
100
AcDbBlockTableRecord
  2
*D3
340
0
  0
BLOCK_RECORD
  5
3E7
330
1
100
AcDbSymbolTableRecord
100
AcDbBlockTableRecord
  2
*D5
340
0
  0
BLOCK_RECORD
  5
3F4
330
1
100
AcDbSymbolTableRecord
100
AcDbBlockTableRecord
  2
*D6
340
0
  0
ENDTAB
  0
ENDSEC
  0
SECTION
  2
BLOCKS
  0
BLOCK
  5
20
330
1F
100
AcDbEntity
  8
0
100
AcDbBlockBegin
  2
*Model_Space
 70
     0
 10
0.0
 20
0.0
 30
0.0
  3
*Model_Space
  1

  0
ENDBLK
  5
21
330
1F
100
AcDbEntity
  8
0
100
AcDbBlockEnd
  0
BLOCK
  5
5A
330
58
100
AcDbEntity
 67
     1
  8
0
100
AcDbBlockBegin
  2
*Paper_Space
 70
     0
 10
0.0
 20
0.0
 30
0.0
  3
*Paper_Space
  1

  0
ENDBLK
  5
5B
330
58
100
AcDbEntity
 67
     1
  8
0
100
AcDbBlockEnd
  0
BLOCK
  5
5F
330
5D
100
AcDbEntity
 67
     1
  8
0
100
AcDbBlockBegin
  2
*Paper_Space0
 70
     0
 10
0.0
 20
0.0
 30
0.0
  3
*Paper_Space0
  1

  0
ENDBLK
  5
60
330
5D
100
AcDbEntity
 67
     1
  8
0
100
AcDbBlockEnd
  0
BLOCK
  5
14D
330
14C
100
AcDbEntity
  8
0
100
AcDbBlockBegin
  2
VDDIM_DEFAULT
 70
     0
 10
0.0
 20
0.0
 30
0.0
  3
VDDIM_DEFAULT
  1

  0
HATCH
  5
14E
330
14C
100
AcDbEntity
  8
0
  6
Continuous
 62
     0
370
    -2
100
AcDbHatch
 10
0.0
 20
0.0
 30
0.0
210
0.0
220
0.0
230
-1.0
  2
SOLID
 70
     1
 71
     0
 91
        1
 92
        2
 72
     0
 73
     1
 93
        3
 10
0.0
 20
0.0
 10
1.0
 20
-0.1665
 10
1.0
 20
0.1665
 97
        0
 75
     0
 76
     1
 98
        1
 10
0.0
 20
0.0
  0
ENDBLK
  5
14F
330
14C
100
AcDbEntity
  8
0
100
AcDbBlockEnd
  0
BLOCK
  5
151
330
150
100
AcDbEntity
  8
0
100
AcDbBlockBegin
  2
IEC_309_16-32
 70
     0
 10
0.0
 20
0.0
 30
0.0
  3
IEC_309_16-32
  1

  0
ARC
  5
152
330
150
100
AcDbEntity
  8
DISEGNO
 62
     7
100
AcDbCircle
 10
98.92437755000001
 20
101.22342337
 30
0.0
 40
10.45203864
100
AcDbArc
 50
0.0
 51
90.0
  0
ARC
  5
153
330
150
100
AcDbEntity
  8
DISEGNO
 62
     7
100
AcDbCircle
 10
98.92437755000001
 20
27.14615532
 30
0.0
 40
10.45203864
100
AcDbArc
 50
270.0
 51
0.0
  0
LINE
  5
154
330
150
100
AcDbEntity
  8
DISEGNO
 62
     7
100
AcDbLine
 10
29.37485018
 20
27.14615532
 30
0.0
 11
29.37485018
 21
101.22342337
 31
0.0
  0
ARC
  5
155
330
150
100
AcDbEntity
  8
DISEGNO
 62
     7
100
AcDbCircle
 10
39.82688883
 20
27.14615532
 30
0.0
 40
10.45203864
100
AcDbArc
 50
180.0
 51
270.0
  0
ARC
  5
156
330
150
100
AcDbEntity
  8
DISEGNO
 62
     7
100
AcDbCircle
 10
39.82688883
 20
101.22342337
 30
0.0
 40
10.45203864
100
AcDbArc
 50
90.0
 51
180.0
  0
LINE
  5
157
330
150
100
AcDbEntity
  8
DISEGNO
 62
     7
100
AcDbLine
 10
39.82688883
 20
111.67546202
 30
0.0
 11
98.92437755000001
 21
111.67546202
 31
0.0
  0
LINE
  5
158
330
150
100
AcDbEntity
  8
DISEGNO
 62
     7
100
AcDbLine
 10
109.3764162
 20
101.22342337
 30
0.0
 11
109.3764162
 21
27.14615532
 31
0.0
  0
LINE
  5
159
330
150
100
AcDbEntity
  8
Q
 62
     1
100
AcDbLine
 10
116.87657492
 20
16.69411667
 30
0.0
 11
21.87700654
 21
16.69411667
 31
0.0
  0
LINE
  5
15A
330
150
100
AcDbEntity
  8
Q
 62
     1
100
AcDbLine
 10
21.87700654
 20
123.30508831
 30
0.0
 11
116.87657492
 21
123.30508831
 31
0.0
  0
LINE
  5
15B
330
150
100
AcDbEntity
  8
Q
 62
     1
100
AcDbLine
 10
21.87700654
 20
16.69411667
 30
0.0
 11
21.87700654
 21
123.30508831
 31
0.0
  0
LINE
  5
15C
330
150
100
AcDbEntity
  8
Q
 62
     1
100
AcDbLine
 10
116.87657492
 20
16.69411667
 30
0.0
 11
116.87657492
 21
123.30508831
 31
0.0
  0
CIRCLE
  5
15D
330
150
100
AcDbEntity
  8
0
100
AcDbCircle
 10
39.68921445
 20
25.81853611
 30
0.0
 40
3.10602526
  0
CIRCLE
  5
15E
330
150
100
AcDbEntity
  8
0
100
AcDbCircle
 10
39.68921445
 20
102.32521579
 30
0.0
 40
3.10602526
  0
CIRCLE
  5
15F
330
150
100
AcDbEntity
  8
0
100
AcDbCircle
 10
99.11826150999999
 20
25.36875409
 30
0.0
 40
3.10602526
  0
CIRCLE
  5
160
330
150
100
AcDbEntity
  8
0
100
AcDbCircle
 10
99.11826150999999
 20
101.87543378
 30
0.0
 40
3.10602526
  0
LINE
  5
161
330
150
100
AcDbEntity
  8
Q
 62
     2
100
AcDbLine
 10
26.86858819
 20
21.83590155
 30
0.0
 11
111.88499327
 21
21.83590155
 31
0.0
  0
LINE
  5
162
330
150
100
AcDbEntity
  8
Q
 62
     2
100
AcDbLine
 10
111.88499327
 20
21.83590155
 30
0.0
 11
111.88499327
 21
117.08642104
 31
0.0
  0
LINE
  5
163
330
150
100
AcDbEntity
  8
Q
 62
     2
100
AcDbLine
 10
26.86858819
 20
117.08642104
 30
0.0
 11
26.86858819
 21
21.83590155
 31
0.0
  0
LINE
  5
164
330
150
100
AcDbEntity
  8
Q
 62
     2
100
AcDbLine
 10
70.12473491
 20
117.08642104
 30
0.0
 11
111.88499327
 21
117.08642104
 31
0.0
  0
LINE
  5
165
330
150
100
AcDbEntity
  8
Q
 62
     2
100
AcDbLine
 10
70.12473491
 20
117.08642104
 30
0.0
 11
26.86858819
 21
117.08642104
 31
0.0
  0
LINE
  5
166
330
150
100
AcDbEntity
  8
0
 62
     7
100
AcDbLine
 10
39.82688883
 20
16.69411667
 30
0.0
 11
98.92437755000001
 21
16.69411667
 31
0.0
  0
ENDBLK
  5
167
330
150
100
AcDbEntity
  8
0
100
AcDbBlockEnd
  0
BLOCK
  5
169
330
168
100
AcDbEntity
  8
0
100
AcDbBlockBegin
  2
*D3
 70
     0
 10
0.0
 20
0.0
 30
0.0
  3
*D3
  1

  0
LINE
  5
16A
330
168
100
AcDbEntity
  8
QUOTE
 62
     7
100
AcDbLine
 10
340.87410625
 20
22.76900591
 30
0.0
 11
340.87410625
 21
-11.30581435
 31
0.0
  0
LINE
  5
16B
330
168
100
AcDbEntity
  8
QUOTE
 62
     7
100
AcDbLine
 10
20.87410625
 20
22.83387625
 30
0.0
 11
20.87410625
 21
-11.30581435
 31
0.0
  0
LINE
  5
16C
330
168
100
AcDbEntity
  8
QUOTE
 62
     7
100
AcDbLine
 10
325.87410625
 20
-11.12581435
 30
0.0
 11
195.08570054
 21
-11.12581435
 31
0.0
  0
LINE
  5
16D
330
168
100
AcDbEntity
  8
QUOTE
 62
     7
100
AcDbLine
 10
35.87410625
 20
-11.12581435
 30
0.0
 11
169.90570054
 21
-11.12581435
 31
0.0
  0
LWPOLYLINE
  5
16E
102
{ACAD_REACTORS
330
16F
102
}
330
168
100
AcDbEntity
  8
QUOTE
 62
     7
100
AcDbPolyline
 90
        3
 70
     1
 43
0.0
 10
325.87410625
 20
-8.62581435
 10
325.87410625
 20
-13.62581435
 10
340.87410625
 20
-11.12581435
  0
HATCH
  5
16F
330
168
100
AcDbEntity
  8
QUOTE
 62
     7
100
AcDbHatch
 10
0.0
 20
0.0
 30
0.0
210
0.0
220
0.0
230
1.0
  2
SOLID
 70
     1
 71
     1
 91
        1
 92
        2
 72
     0
 73
     1
 93
        3
 10
325.87410625
 20
-8.62581435
 10
325.87410625
 20
-13.62581435
 10
340.87410625
 20
-11.12581435
 97
        1
330
16E
 75
     0
 76
     1
 98
        1
 10
0.0
 20
0.0
1001
VD_TEMPHATCH
1000
VD_TEMPHATCH
  0
LWPOLYLINE
  5
170
102
{ACAD_REACTORS
330
171
102
}
330
168
100
AcDbEntity
  8
QUOTE
 62
     7
100
AcDbPolyline
 90
        3
 70
     1
 43
0.0
 10
35.87410625
 20
-8.62581435
 10
35.87410625
 20
-13.62581435
 10
20.87410625
 20
-11.12581435
  0
HATCH
  5
171
330
168
100
AcDbEntity
  8
QUOTE
 62
     7
100
AcDbHatch
 10
0.0
 20
0.0
 30
0.0
210
0.0
220
0.0
230
1.0
  2
SOLID
 70
     1
 71
     1
 91
        1
 92
        2
 72
     0
 73
     1
 93
        3
 10
35.87410625
 20
-8.62581435
 10
35.87410625
 20
-13.62581435
 10
20.87410625
 20
-11.12581435
 97
        1
330
170
 75
     0
 76
     1
 98
        1
 10
0.0
 20
0.0
1001
VD_TEMPHATCH
1000
VD_TEMPHATCH
  0
MTEXT
  5
172
330
168
100
AcDbEntity
  8
QUOTE
 62
     7
100
AcDbMText
 10
182.49570054
 20
-11.12581435
 30
0.0
 40
10.0
 41
22.31652145
 71
     5
 72
     1
  1
\A1;320
 73
     1
 44
1.0
1001
ACAD
1000
MTEXTBEGIN
1070
    73
1070
     1
1070
    44
1040
1.0
1070
    74
1070
     0
1000
MTEXTEND
  0
ENDBLK
  5
173
330
168
100
AcDbEntity
  8
0
100
AcDbBlockEnd
  0
BLOCK
  5
3E8
330
3E7
100
AcDbEntity
  8
0
100
AcDbBlockBegin
  2
*D5
 70
     1
 10
0.0
 20
0.0
 30
0.0
  3
*D5
  1

  0
LINE
  5
401
330
3E7
100
AcDbEntity
  8
QUOTE
 62
     0
370
    -2
100
AcDbLine
 10
71.93024493035949
 20
400.1867063539784
 30
0.0
 11
31.22867761035958
 21
400.1867063539784
 31
0.0
  0
LINE
  5
402
330
3E7
100
AcDbEntity
  8
QUOTE
 62
     0
370
    -2
100
AcDbLine
 10
69.4595173603595
 20
40.18667535397844
 30
0.0
 11
31.2286776103595
 21
40.18667535397844
 31
0.0
  0
LINE
  5
403
330
3E7
100
AcDbEntity
  8
QUOTE
 62
     0
370
    -2
100
AcDbLine
 10
31.40867761035958
 20
385.1867063539785
 30
0.0
 11
31.40867761035954
 21
222.7932809339784
 31
0.0
  0
LINE
  5
404
330
3E7
100
AcDbEntity
  8
QUOTE
 62
     0
370
    -2
100
AcDbLine
 10
31.4086776103595
 20
55.18667535397845
 30
0.0
 11
31.40867761035954
 21
212.6132809339785
 31
0.0
  0
SOLID
  5
405
330
3E7
100
AcDbEntity
  8
QUOTE
 62
     0
100
AcDbTrace
 10
28.90867761035958
 20
385.1867063539785
 30
0.0
 11
33.90867761035958
 21
385.1867063539785
 31
0.0
 12
31.40867761035958
 22
400.1867063539784
 32
0.0
 13
31.40867761035958
 23
400.1867063539784
 33
0.0
  0
SOLID
  5
406
330
3E7
100
AcDbEntity
  8
QUOTE
 62
     0
100
AcDbTrace
 10
28.9086776103595
 20
55.18667535397845
 30
0.0
 11
33.90867761035951
 21
55.18667535397845
 31
0.0
 12
31.4086776103595
 22
40.18667535397844
 32
0.0
 13
31.4086776103595
 23
40.18667535397844
 33
0.0
  0
MTEXT
  5
407
330
3E7
100
AcDbEntity
  8
QUOTE
 62
     0
100
AcDbMText
 10
31.40867761035951
 20
217.7032809339785
 30
0.0
 40
10.0
 41
0.0
 71
     5
 72
     1
  1
\A1;360
 73
     1
 44
1.0
1001
ACAD
1000
MTEXTBEGIN
1070
    73
1070
     1
1070
    44
1040
1.0
1070
    74
1070
     0
1000
MTEXTEND
  0
POINT
  5
408
330
3E7
100
AcDbEntity
  8
Defpoints
 62
     0
100
AcDbPoint
 10
71.99274493035949
 20
400.1867063539784
 30
0.0
  0
POINT
  5
409
330
3E7
100
AcDbEntity
  8
Defpoints
 62
     0
100
AcDbPoint
 10
69.5220173603595
 20
40.18667535397844
 30
0.0
  0
POINT
  5
40A
330
3E7
100
AcDbEntity
  8
Defpoints
 62
     0
100
AcDbPoint
 10
31.4086776103595
 20
40.18667535397844
 30
0.0
  0
ENDBLK
  5
3E9
330
3E7
100
AcDbEntity
  8
0
100
AcDbBlockEnd
  0
BLOCK
  5
3F5
330
3F4
100
AcDbEntity
  8
0
100
AcDbBlockBegin
  2
*D6
 70
     1
 10
0.0
 20
0.0
 30
0.0
  3
*D6
  1

  0
LINE
  5
40B
330
3F4
100
AcDbEntity
  8
QUOTE
 62
     0
370
    -2
100
AcDbLine
 10
373.5220173603595
 20
56.12180641397845
 30
0.0
 11
373.5220173603595
 21
22.04698615397845
 31
0.0
  0
LINE
  5
40C
330
3F4
100
AcDbEntity
  8
QUOTE
 62
     0
370
    -2
100
AcDbLine
 10
53.5220173603595
 20
56.18667675397844
 30
0.0
 11
53.5220173603595
 21
22.04698615397845
 31
0.0
  0
LINE
  5
40D
330
3F4
100
AcDbEntity
  8
QUOTE
 62
     0
370
    -2
100
AcDbLine
 10
358.5220173603596
 20
22.22698615397844
 30
0.0
 11
227.7336116503595
 21
22.22698615397844
 31
0.0
  0
LINE
  5
40E
330
3F4
100
AcDbEntity
  8
QUOTE
 62
     0
370
    -2
100
AcDbLine
 10
68.5220173603595
 20
22.22698615397844
 30
0.0
 11
202.5536116503595
 21
22.22698615397844
 31
0.0
  0
SOLID
  5
40F
330
3F4
100
AcDbEntity
  8
QUOTE
 62
     0
100
AcDbTrace
 10
358.5220173603596
 20
24.72698615397844
 30
0.0
 11
358.5220173603596
 21
19.72698615397844
 31
0.0
 12
373.5220173603595
 22
22.22698615397844
 32
0.0
 13
373.5220173603595
 23
22.22698615397844
 33
0.0
  0
SOLID
  5
410
330
3F4
100
AcDbEntity
  8
QUOTE
 62
     0
100
AcDbTrace
 10
68.5220173603595
 20
24.72698615397844
 30
0.0
 11
68.5220173603595
 21
19.72698615397844
 31
0.0
 12
53.5220173603595
 22
22.22698615397844
 32
0.0
 13
53.5220173603595
 23
22.22698615397844
 33
0.0
  0
MTEXT
  5
411
330
3F4
100
AcDbEntity
  8
QUOTE
 62
     0
100
AcDbMText
 10
215.1436116503595
 20
22.22698615397844
 30
0.0
 40
10.0
 41
0.0
 71
     5
 72
     1
  1
\A1;320
 73
     1
 44
1.0
1001
ACAD
1000
MTEXTBEGIN
1070
    73
1070
     1
1070
    44
1040
1.0
1070
    74
1070
     0
1000
MTEXTEND
  0
POINT
  5
412
330
3F4
100
AcDbEntity
  8
Defpoints
 62
     0
100
AcDbPoint
 10
373.5220173603595
 20
56.18430641397845
 30
0.0
  0
POINT
  5
413
330
3F4
100
AcDbEntity
  8
Defpoints
 62
     0
100
AcDbPoint
 10
53.5220173603595
 20
56.24917675397845
 30
0.0
  0
POINT
  5
414
330
3F4
100
AcDbEntity
  8
Defpoints
 62
     0
100
AcDbPoint
 10
53.5220173603595
 20
22.22698615397844
 30
0.0
  0
ENDBLK
  5
3F6
330
3F4
100
AcDbEntity
  8
0
100
AcDbBlockEnd
  0
ENDSEC
  0
SECTION
  2
ENTITIES
  0
LINE
  5
2B5
330
1F
100
AcDbEntity
  8
0
 62
   253
370
    35
100
AcDbLine
 10
158.0220173603595
 20
232.6850273539784
 30
0.0
 11
269.0220173603595
 21
232.6850273539784
 31
0.0
  0
LINE
  5
2B6
330
1F
100
AcDbEntity
  8
0
 62
   253
370
    35
100
AcDbLine
 10
72.2308193603595
 20
232.6850273539784
 30
0.0
 11
158.3583363603595
 21
232.6850273539784
 31
0.0
  0
LINE
  5
2B7
330
1F
100
AcDbEntity
  8
0
 62
   253
370
    35
100
AcDbLine
 10
269.0220173603595
 20
232.6850273539784
 30
0.0
 11
354.8132163603595
 21
232.6850273539784
 31
0.0
  0
ARC
  5
2B8
330
1F
100
AcDbEntity
  8
0
 62
   253
370
    35
100
AcDbCircle
 10
213.5220173603595
 20
220.8243403539785
 30
0.0
 40
10.25
100
AcDbArc
 50
0.0
 51
224.9008800000001
  0
ARC
  5
2B9
330
1F
100
AcDbEntity
  8
0
 62
   253
370
    35
100
AcDbCircle
 10
213.5220173603595
 20
220.8243403539785
 30
0.0
 40
10.25
100
AcDbArc
 50
315.0991390000001
 51
0.0
  0
LINE
  5
2BA
330
1F
100
AcDbEntity
  8
0
 62
     7
370
    13
100
AcDbLine
 10
369.6161643603594
 20
68.88397235397843
 30
0.0
 11
57.4278553603595
 21
68.88397235397843
 31
0.0
  0
LINE
  5
2BB
330
1F
100
AcDbEntity
  8
0
 62
     7
 48
0.025
370
    35
100
AcDbLine
 10
369.6161643603594
 20
68.88397235397843
 30
0.0
 11
370.6161643603595
 21
68.88397235397843
 31
0.0
  0
LINE
  5
2BC
330
1F
100
AcDbEntity
  8
0
 62
     7
 48
0.025
370
    35
100
AcDbLine
 10
369.6161643603594
 20
371.4893793539784
 30
0.0
 11
370.6161643603595
 21
371.4893793539784
 31
0.0
  0
LINE
  5
2BD
330
1F
100
AcDbEntity
  8
0
 62
     7
370
    13
100
AcDbLine
 10
369.6161643603594
 20
371.4893793539784
 30
0.0
 11
57.4278553603595
 21
371.4893793539784
 31
0.0
  0
LINE
  5
2BE
330
1F
100
AcDbEntity
  8
0
 62
     7
 48
0.024999
370
    35
100
AcDbLine
 10
57.4278553603595
 20
371.4893793539784
 30
0.0
 11
56.4278863603595
 21
371.4893793539784
 31
0.0
  0
LINE
  5
2BF
330
1F
100
AcDbEntity
  8
0
 62
     7
 48
0.024999
370
    35
100
AcDbLine
 10
57.4278553603595
 20
68.88397235397843
 30
0.0
 11
56.4278863603595
 21
68.88397235397843
 31
0.0
  0
ARC
  5
2C0
330
1F
100
AcDbEntity
  8
0
 62
     7
370
    35
100
AcDbCircle
 10
355.0220173603595
 20
358.3926393539784
 30
0.0
 40
2.0
100
AcDbArc
 50
0.0
 51
90.0
  0
LINE
  5
2C1
330
1F
100
AcDbEntity
  8
0
 62
     7
 48
0.449998
370
    35
100
AcDbLine
 10
357.0220173603595
 20
358.3926393539784
 30
0.0
 11
357.0220173603595
 21
340.3927003539784
 31
0.0
  0
ARC
  5
2C2
330
1F
100
AcDbEntity
  8
0
 62
     7
370
    35
100
AcDbCircle
 10
355.0220173603595
 20
340.3927003539784
 30
0.0
 40
2.0
100
AcDbArc
 50
270.0
 51
0.0
  0
LINE
  5
2C3
330
1F
100
AcDbEntity
  8
0
 62
     7
370
    35
100
AcDbLine
 10
310.0220173603596
 20
338.3927003539784
 30
0.0
 11
355.0220173603595
 21
338.3927003539784
 31
0.0
  0
ARC
  5
2C4
330
1F
100
AcDbEntity
  8
0
 62
     7
370
    35
100
AcDbCircle
 10
310.0220173603596
 20
340.3927003539784
 30
0.0
 40
2.0
100
AcDbArc
 50
180.0
 51
270.0
  0
LINE
  5
2C5
330
1F
100
AcDbEntity
  8
0
 62
     7
 48
0.449998
370
    35
100
AcDbLine
 10
308.0220173603596
 20
340.3927003539784
 30
0.0
 11
308.0220173603596
 21
358.3926393539784
 31
0.0
  0
ARC
  5
2C6
330
1F
100
AcDbEntity
  8
0
 62
     7
370
    35
100
AcDbCircle
 10
310.0220173603596
 20
358.3926393539784
 30
0.0
 40
2.0
100
AcDbArc
 50
90.0
 51
180.0
  0
LINE
  5
2C7
330
1F
100
AcDbEntity
  8
0
 62
     7
370
    35
100
AcDbLine
 10
355.0220173603595
 20
360.3926393539784
 30
0.0
 11
310.0220173603596
 21
360.3926393539784
 31
0.0
  0
LINE
  5
2C8
330
1F
100
AcDbEntity
  8
0
 62
     7
 48
0.025
370
    35
100
AcDbLine
 10
358.5220173603596
 20
43.71386735397844
 30
0.0
 11
357.5220173603595
 21
43.71405035397844
 31
0.0
  0
LINE
  5
2C9
330
1F
100
AcDbEntity
  8
0
 62
     7
370
    35
100
AcDbLine
 10
357.5220173603595
 20
43.71405035397844
 30
0.0
 11
69.5220173603595
 21
43.71405035397844
 31
0.0
  0
LINE
  5
2CA
330
1F
100
AcDbEntity
  8
0
 62
     7
 48
0.025
370
    35
100
AcDbLine
 10
69.5220173603595
 20
43.71405035397844
 30
0.0
 11
68.5220173603595
 21
43.71386735397844
 31
0.0
  0
LINE
  5
2CB
330
1F
100
AcDbEntity
  8
0
 62
     7
 48
0.001473
370
    35
100
AcDbLine
 10
370.9997093603595
 20
377.0460203539784
 30
0.0
 11
370.9580833603595
 21
377.0877073539784
 31
0.0
  0
LINE
  5
2CC
330
1F
100
AcDbEntity
  8
0
 62
     7
370
    35
100
AcDbLine
 10
370.9997093603595
 20
63.32733135397845
 30
0.0
 11
370.9997093603595
 21
377.0460203539784
 31
0.0
  0
LINE
  5
2CD
330
1F
100
AcDbEntity
  8
0
 62
     7
 48
0.025
370
    35
100
AcDbLine
 10
69.5220173603595
 20
396.6593013539784
 30
0.0
 11
68.5220173603595
 21
396.6594843539784
 31
0.0
  0
LINE
  5
2CE
330
1F
100
AcDbEntity
  8
0
 62
     7
370
    35
100
AcDbLine
 10
357.5220173603595
 20
396.6593013539784
 30
0.0
 11
69.5220173603595
 21
396.6593013539784
 31
0.0
  0
LINE
  5
2CF
330
1F
100
AcDbEntity
  8
0
 62
     7
 48
0.025
370
    35
100
AcDbLine
 10
358.5220173603596
 20
396.6594843539784
 30
0.0
 11
357.5220173603595
 21
396.6593013539784
 31
0.0
  0
LINE
  5
2D0
330
1F
100
AcDbEntity
  8
0
 62
     7
 48
0.001473
370
    35
100
AcDbLine
 10
56.04432636035951
 20
63.32733135397845
 30
0.0
 11
56.0859673603595
 21
63.28567435397844
 31
0.0
  0
LINE
  5
2D1
330
1F
100
AcDbEntity
  8
0
 62
     7
370
    35
100
AcDbLine
 10
56.04432636035951
 20
377.0460203539784
 30
0.0
 11
56.04432636035951
 21
63.32733135397845
 31
0.0
  0
ARC
  5
2D2
330
1F
100
AcDbEntity
  8
0
 62
     7
370
    35
100
AcDbCircle
 10
68.51699736035951
 20
56.18646235397844
 30
0.0
 40
12.472586
100
AcDbArc
 50
218.48292
 51
270.023084
  0
ARC
  5
2D3
330
1F
100
AcDbEntity
  8
0
 62
     7
370
    35
100
AcDbCircle
 10
358.5270533603595
 20
56.18646235397844
 30
0.0
 40
12.472586
100
AcDbArc
 50
269.9769179999999
 51
321.517085
  0
LINE
  5
2D4
330
1F
100
AcDbEntity
  8
0
 62
     7
 48
0.001147
370
    35
100
AcDbLine
 10
368.2905113603595
 20
48.42498735397844
 30
0.0
 11
368.2719263603595
 21
48.46694935397844
 31
0.0
  0
LINE
  5
2D5
330
1F
100
AcDbEntity
  8
0
 62
     7
 48
0.024998
370
    35
100
AcDbLine
 10
69.5220173603595
 20
42.71411135397844
 30
0.0
 11
69.5220173603595
 21
43.71405035397844
 31
0.0
  0
LINE
  5
2D6
330
1F
100
AcDbEntity
  8
0
 62
     7
 48
0.000043
370
    35
100
AcDbLine
 10
364.1399073603595
 20
62.28668235397844
 30
0.0
 11
364.1383203603596
 21
62.28735335397844
 31
0.0
  0
LINE
  5
2D7
330
1F
100
AcDbEntity
  8
0
 62
     7
 48
0.000029
370
    35
100
AcDbLine
 10
62.9050893603595
 20
62.28735335397844
 30
0.0
 11
62.9041433603595
 21
62.28668235397844
 31
0.0
  0
LINE
  5
2D8
330
1F
100
AcDbEntity
  8
0
 62
     7
 48
0.000043
370
    35
100
AcDbLine
 10
62.9041433603595
 20
50.08666935397844
 30
0.0
 11
62.9057153603595
 21
50.08599835397844
 31
0.0
  0
ARC
  5
2D9
330
1F
100
AcDbEntity
  8
0
 62
     7
370
    35
100
AcDbCircle
 10
358.5270533603595
 20
384.1868893539785
 30
0.0
 40
12.472586
100
AcDbArc
 50
38.48289799999992
 51
90.02308199999985
  0
LINE
  5
2DA
330
1F
100
AcDbEntity
  8
0
 62
     7
 48
0.001147
370
    35
100
AcDbLine
 10
368.2905113603595
 20
391.9483643539785
 30
0.0
 11
368.2719263603595
 21
391.9064333539784
 31
0.0
  0
ARC
  5
2DB
330
1F
100
AcDbEntity
  8
0
 62
     7
370
    35
100
AcDbCircle
 10
369.9582053603596
 20
63.28558335397843
 30
0.0
 40
0.9998799999999999
100
AcDbArc
 50
351.9181679999999
 51
0.0063550000000167
  0
ELLIPSE
  5
2DC
330
1F
100
AcDbEntity
  8
0
 62
     7
370
    35
100
AcDbEllipse
 10
369.9997703603596
 20
63.32733135397845
 30
0.0
 11
-0.70709229
 21
0.70709229
 31
0.0
210
0.0
220
0.0
230
1.0
 40
0.9999239999999998
 41
3.581878779999999
 42
3.927028889999999
  0
ELLIPSE
  5
2DD
330
1F
100
AcDbEntity
  8
0
 62
     7
370
    35
100
AcDbEllipse
 10
369.9997703603596
 20
377.0460203539784
 30
0.0
 11
-0.70709229
 21
-0.70709229
 31
0.0
210
0.0
220
0.0
230
1.0
 40
0.9999239999999998
 41
2.35615641
 42
2.70397723
  0
ARC
  5
2DE
330
1F
100
AcDbEntity
  8
0
 62
     7
370
    35
100
AcDbCircle
 10
369.9582053603596
 20
377.0878293539785
 30
0.0
 40
0.999862
100
AcDbArc
 50
359.9935129999999
 51
8.186005999999904
  0
ARC
  5
2DF
330
1F
100
AcDbEntity
  8
0
 62
     7
370
    35
100
AcDbCircle
 10
68.51699736035951
 20
384.1868893539785
 30
0.0
 40
12.472586
100
AcDbArc
 50
89.97691600000001
 51
141.5171210000001
  0
LINE
  5
2E0
330
1F
100
AcDbEntity
  8
0
 62
     7
 48
0.024998
370
    35
100
AcDbLine
 10
69.5220173603595
 20
396.6593013539784
 30
0.0
 11
69.5220173603595
 21
397.6592403539785
 31
0.0
  0
LINE
  5
2E1
330
1F
100
AcDbEntity
  8
0
 62
     7
 48
0.024998
370
    35
100
AcDbLine
 10
357.5220173603595
 20
396.6593013539784
 30
0.0
 11
357.5220173603595
 21
397.6592403539785
 31
0.0
  0
LINE
  5
2E2
330
1F
100
AcDbEntity
  8
0
 62
     7
 48
0.00003
370
    35
100
AcDbLine
 10
364.1389303603595
 20
378.0859983539784
 30
0.0
 11
364.1399073603595
 21
378.0866693539784
 31
0.0
  0
LINE
  5
2E3
330
1F
100
AcDbEntity
  8
0
 62
     7
 48
0.000043
370
    35
100
AcDbLine
 10
364.1399073603595
 20
390.2866823539785
 30
0.0
 11
364.1383203603596
 21
390.2873533539785
 31
0.0
  0
LINE
  5
2E4
330
1F
100
AcDbEntity
  8
0
 62
     7
 48
0.000029
370
    35
100
AcDbLine
 10
62.9050893603595
 20
390.2873533539785
 30
0.0
 11
62.9041433603595
 21
390.2866823539785
 31
0.0
  0
LINE
  5
2E5
330
1F
100
AcDbEntity
  8
0
 62
     7
 48
0.000043
370
    35
100
AcDbLine
 10
62.9041433603595
 20
378.0866693539784
 30
0.0
 11
62.9057153603595
 21
378.0859983539784
 31
0.0
  0
ELLIPSE
  5
2E6
330
1F
100
AcDbEntity
  8
0
 62
     7
370
    35
100
AcDbEllipse
 10
57.0442803603595
 20
63.32733135397845
 30
0.0
 11
0.70709229
 21
0.70709229
 31
0.0
210
0.0
220
0.0
230
1.0
 40
0.9999239999999998
 41
2.35615641
 42
2.703978289999999
  0
ARC
  5
2E7
330
1F
100
AcDbEntity
  8
0
 62
     7
370
    35
100
AcDbCircle
 10
57.0858303603595
 20
63.28555235397844
 30
0.0
 40
0.999862
100
AcDbArc
 50
179.9935159999999
 51
188.18696
  0
ELLIPSE
  5
2E8
330
1F
100
AcDbEntity
  8
0
 62
     7
370
    35
100
AcDbEllipse
 10
57.0442803603595
 20
377.0460203539784
 30
0.0
 11
0.70709229
 21
-0.70709229
 31
0.0
210
0.0
220
0.0
230
1.0
 40
0.9999239999999998
 41
3.581867939999999
 42
3.927028889999999
  0
ARC
  5
2E9
330
1F
100
AcDbEntity
  8
0
 62
     7
370
    35
100
AcDbCircle
 10
59.53643736035949
 20
49.04711935397845
 30
0.0
 40
0.9999979999999998
100
AcDbArc
 50
198.345446
 51
218.4715409999999
  0
ARC
  5
2EA
330
1F
100
AcDbEntity
  8
0
 62
     7
370
    35
100
AcDbCircle
 10
367.4880513603595
 20
49.08773735397844
 30
0.0
 40
0.9999540000000001
100
AcDbArc
 50
321.6239979999999
 51
329.4905390000001
  0
ARC
  5
2EB
330
1F
100
AcDbEntity
  8
0
 62
     7
370
    35
100
AcDbCircle
 10
367.5075833603595
 20
49.04711935397845
 30
0.0
 40
0.9999979999999998
100
AcDbArc
 50
321.5285219999998
 51
341.6411309999999
  0
LINE
  5
2EC
330
1F
100
AcDbEntity
  8
0
 62
     7
 48
0.036801
370
    35
100
AcDbLine
 10
69.5220173603595
 20
42.71411135397844
 30
0.0
 11
69.5220173603595
 21
41.24206535397845
 31
0.0
  0
ARC
  5
2ED
330
1F
100
AcDbEntity
  8
0
 62
     7
370
    35
100
AcDbCircle
 10
62.9858083603595
 20
50.53384335397844
 30
0.0
 40
0.455216
100
AcDbArc
 50
259.8609909999999
 51
269.39321
  0
ARC
  5
2EE
330
1F
100
AcDbEntity
  8
0
 62
     7
370
    35
100
AcDbCircle
 10
367.4880213603596
 20
391.2855833539785
 30
0.0
 40
0.999971
100
AcDbArc
 50
30.5025590000001
 51
38.37588600000005
  0
ARC
  5
2EF
330
1F
100
AcDbEntity
  8
0
 62
     7
370
    35
100
AcDbCircle
 10
367.5075833603595
 20
391.3262323539784
 30
0.0
 40
0.9999979999999998
100
AcDbArc
 50
18.346812
 51
38.47154599999992
  0
LINE
  5
2F0
330
1F
100
AcDbEntity
  8
0
 62
     7
 48
0.036801
370
    35
100
AcDbLine
 10
69.5220173603595
 20
397.6592403539785
 30
0.0
 11
69.5220173603595
 21
399.1312863539785
 31
0.0
  0
LINE
  5
2F1
330
1F
100
AcDbEntity
  8
0
 62
     7
 48
0.036801
370
    35
100
AcDbLine
 10
357.5220173603595
 20
397.6592403539785
 30
0.0
 11
357.5220173603595
 21
399.1312863539785
 31
0.0
  0
ARC
  5
2F2
330
1F
100
AcDbEntity
  8
0
 62
     7
370
    35
100
AcDbCircle
 10
364.0582423603595
 20
389.8395383539785
 30
0.0
 40
0.455216
100
AcDbArc
 50
79.86099000000004
 51
89.39320800000004
  0
ARC
  5
2F3
330
1F
100
AcDbEntity
  8
0
 62
     7
370
    35
100
AcDbCircle
 10
62.9858083603595
 20
378.5338743539785
 30
0.0
 40
0.455216
100
AcDbArc
 50
259.8609909999999
 51
269.39321
  0
LINE
  5
2F4
330
1F
100
AcDbEntity
  8
0
 62
     7
 48
0.024998
370
    35
100
AcDbLine
 10
69.5220173603595
 20
41.24206535397845
 30
0.0
 11
69.5220173603595
 21
40.24215635397844
 31
0.0
  0
ARC
  5
2F5
330
1F
100
AcDbEntity
  8
0
 62
     7
370
    35
100
AcDbCircle
 10
370.6654203603595
 20
48.95831235397844
 30
0.0
 40
1.000061
100
AcDbArc
 50
331.191775
 51
30.47239400000011
  0
ARC
  5
2F6
330
1F
100
AcDbEntity
  8
0
 62
     7
370
    35
100
AcDbCircle
 10
372.5219263603595
 20
376.9582513539784
 30
0.0
 40
1.000114999999999
100
AcDbArc
 50
0.0005999999999407
 51
45.00238199999994
  0
LINE
  5
2F7
330
1F
100
AcDbEntity
  8
0
 62
     7
370
    35
100
AcDbLine
 10
373.5220173603595
 20
376.9583123539785
 30
0.0
 11
373.5220173603595
 21
63.41506935397844
 31
0.0
  0
ARC
  5
2F8
330
1F
100
AcDbEntity
  8
0
 62
     7
370
    35
100
AcDbCircle
 10
372.5219263603595
 20
63.41509935397844
 30
0.0
 40
1.000114999999999
100
AcDbArc
 50
314.997618
 51
359.9993999999999
  0
ARC
  5
2F9
330
1F
100
AcDbEntity
  8
0
 62
     7
370
    35
100
AcDbCircle
 10
56.3786153603595
 20
48.95831235397844
 30
0.0
 40
1.000062
100
AcDbArc
 50
149.2800409999999
 51
208.8082169999999
  0
ARC
  5
2FA
330
1F
100
AcDbEntity
  8
0
 62
     7
370
    35
100
AcDbCircle
 10
54.52212436035949
 20
376.9582513539784
 30
0.0
 40
1.000114999999999
100
AcDbArc
 50
134.9976230000002
 51
179.9994039999999
  0
ARC
  5
2FB
330
1F
100
AcDbEntity
  8
0
 62
     7
370
    35
100
AcDbCircle
 10
54.52212436035949
 20
63.41509935397844
 30
0.0
 40
1.000114999999999
100
AcDbArc
 50
180.000596
 51
225.002377
  0
LINE
  5
2FC
330
1F
100
AcDbEntity
  8
0
 62
     7
370
    35
100
AcDbLine
 10
53.5220173603595
 20
63.41506935397844
 30
0.0
 11
53.5220173603595
 21
376.9583123539785
 31
0.0
  0
ELLIPSE
  5
2FD
330
1F
100
AcDbEntity
  8
0
 62
     7
370
    35
100
AcDbEllipse
 10
54.5774533603595
 20
63.35961935397844
 30
0.0
 11
0.70709229
 21
0.70709229
 31
0.0
210
0.0
220
0.0
230
1.0
 40
0.9999239999999998
 41
2.35615641
 42
3.14159265
  0
LINE
  5
2FE
330
1F
100
AcDbEntity
  8
0
 62
     7
 48
0.001961
370
    35
100
AcDbLine
 10
53.57749836035949
 20
63.35961935397844
 30
0.0
 11
53.5220173603595
 21
63.41506935397844
 31
0.0
  0
ELLIPSE
  5
2FF
330
1F
100
AcDbEntity
  8
0
 62
     7
370
    35
100
AcDbEllipse
 10
372.4665673603595
 20
377.0137323539784
 30
0.0
 11
-0.70709229
 21
-0.70709229
 31
0.0
210
0.0
220
0.0
230
1.0
 40
0.9999239999999998
 41
2.35615641
 42
3.14159265
  0
LINE
  5
300
330
1F
100
AcDbEntity
  8
0
 62
     7
 48
0.00196
370
    35
100
AcDbLine
 10
373.5220173603595
 20
376.9583123539785
 30
0.0
 11
373.4665363603596
 21
377.0137323539784
 31
0.0
  0
LINE
  5
301
330
1F
100
AcDbEntity
  8
0
 62
     7
 48
0.024997
370
    35
100
AcDbLine
 10
69.5220173603595
 20
399.1312863539785
 30
0.0
 11
69.5220173603595
 21
400.1311643539784
 31
0.0
  0
LINE
  5
302
330
1F
100
AcDbEntity
  8
0
 62
     7
 48
0.024997
370
    35
100
AcDbLine
 10
357.5220173603595
 20
399.1312863539785
 30
0.0
 11
357.5220173603595
 21
400.1311643539784
 31
0.0
  0
LINE
  5
303
330
1F
100
AcDbEntity
  8
0
 62
     7
 48
0.000299
370
    35
100
AcDbLine
 10
371.4878073603595
 20
390.8412473539785
 30
0.0
 11
371.4939723603595
 21
390.8515013539784
 31
0.0
  0
ARC
  5
304
330
1F
100
AcDbEntity
  8
0
 62
     7
370
    35
100
AcDbCircle
 10
370.6654203603595
 20
391.4150383539784
 30
0.0
 40
1.000061
100
AcDbArc
 50
329.5276059999999
 51
28.8082249999999
  0
LINE
  5
305
330
1F
100
AcDbEntity
  8
0
 62
     7
 48
0.000299
370
    35
100
AcDbLine
 10
55.5562123603595
 20
390.8412473539785
 30
0.0
 11
55.5500483603595
 21
390.8515013539784
 31
0.0
  0
ARC
  5
306
330
1F
100
AcDbEntity
  8
0
 62
     7
370
    35
100
AcDbCircle
 10
56.3786153603595
 20
391.4150383539784
 30
0.0
 40
1.000061
100
AcDbArc
 50
151.19177
 51
210.472392
  0
ARC
  5
307
330
1F
100
AcDbEntity
  8
0
 62
     7
370
    35
100
AcDbCircle
 10
357.5220173603595
 20
56.18667535397844
 30
0.0
 40
16.0
100
AcDbArc
 50
270.0
 51
331.1909519999999
  0
LINE
  5
308
330
1F
100
AcDbEntity
  8
0
 62
     7
370
    35
100
AcDbLine
 10
69.5220173603595
 20
40.18667535397844
 30
0.0
 11
357.5220173603595
 21
40.18667535397844
 31
0.0
  0
LINE
  5
309
330
1F
100
AcDbEntity
  8
0
 62
     7
 48
0.001387
370
    35
100
AcDbLine
 10
69.5220173603595
 20
40.24215635397844
 30
0.0
 11
69.5220173603595
 21
40.18667535397844
 31
0.0
  0
ARC
  5
30A
330
1F
100
AcDbEntity
  8
0
 62
     7
370
    35
100
AcDbCircle
 10
69.5220173603595
 20
56.18667535397844
 30
0.0
 40
16.0
100
AcDbArc
 50
208.80905
 51
270.0
  0
ARC
  5
30B
330
1F
100
AcDbEntity
  8
0
 62
     7
370
    35
100
AcDbCircle
 10
69.5220173603595
 20
384.1867063539785
 30
0.0
 40
16.0
100
AcDbArc
 50
90.0
 51
151.1909499999999
  0
LINE
  5
30C
330
1F
100
AcDbEntity
  8
0
 62
     7
 48
0.001389
370
    35
100
AcDbLine
 10
69.5220173603595
 20
400.1311643539784
 30
0.0
 11
69.5220173603595
 21
400.1867063539784
 31
0.0
  0
LINE
  5
30D
330
1F
100
AcDbEntity
  8
0
 62
     7
370
    35
100
AcDbLine
 10
357.5220173603595
 20
400.1867063539784
 30
0.0
 11
69.5220173603595
 21
400.1867063539784
 31
0.0
  0
LINE
  5
30E
330
1F
100
AcDbEntity
  8
0
 62
     7
 48
0.001389
370
    35
100
AcDbLine
 10
357.5220173603595
 20
400.1311643539784
 30
0.0
 11
357.5220173603595
 21
400.1867063539784
 31
0.0
  0
ARC
  5
30F
330
1F
100
AcDbEntity
  8
0
 62
     7
370
    35
100
AcDbCircle
 10
357.5220173603595
 20
384.1867063539785
 30
0.0
 40
16.0
100
AcDbArc
 50
28.80904799999997
 51
90.0
  0
LINE
  5
310
330
1F
100
AcDbEntity
  8
0
 62
   253
370
    35
100
AcDbLine
 10
69.2307123603595
 20
331.3841553539785
 30
0.0
 11
69.2307123603595
 21
210.4952393539784
 31
0.0
  0
ARC
  5
311
330
1F
100
AcDbEntity
  8
0
 62
   253
370
    35
100
AcDbCircle
 10
72.2305443603595
 20
331.3842163539785
 30
0.0
 40
2.999829999999999
100
AcDbArc
 50
89.99901200000001
 51
180.0009919999999
  0
LINE
  5
312
330
1F
100
AcDbEntity
  8
0
 62
   253
370
    35
100
AcDbLine
 10
72.2305903603595
 20
334.3840333539784
 30
0.0
 11
354.8134303603595
 21
334.3840333539784
 31
0.0
  0
ARC
  5
313
330
1F
100
AcDbEntity
  8
0
 62
   253
370
    35
100
AcDbCircle
 10
354.8134913603596
 20
331.3842163539785
 30
0.0
 40
2.999829999999999
100
AcDbArc
 50
359.999014
 51
90.00098600000002
  0
LINE
  5
314
330
1F
100
AcDbEntity
  8
0
 62
   253
370
    35
100
AcDbLine
 10
357.8133083603595
 20
331.3841553539785
 30
0.0
 11
357.8133083603595
 21
210.4952393539784
 31
0.0
  0
ARC
  5
315
330
1F
100
AcDbEntity
  8
0
 62
   253
370
    35
100
AcDbCircle
 10
354.8134913603596
 20
210.4952083539785
 30
0.0
 40
2.999829999999999
100
AcDbArc
 50
269.999014
 51
0.0009860000000289
  0
LINE
  5
316
330
1F
100
AcDbEntity
  8
0
 62
   253
370
    35
100
AcDbLine
 10
72.2305903603595
 20
207.4953613539785
 30
0.0
 11
354.8134303603595
 21
207.4953613539785
 31
0.0
  0
ARC
  5
317
330
1F
100
AcDbEntity
  8
0
 62
   253
370
    35
100
AcDbCircle
 10
72.2305443603595
 20
210.4952083539785
 30
0.0
 40
2.999829999999999
100
AcDbArc
 50
179.9990079999999
 51
270.000988
  0
LINE
  5
318
330
1F
100
AcDbEntity
  8
0
 62
     7
 48
0.014389
370
    35
100
AcDbLine
 10
370.9291523603595
 20
62.34600835397845
 30
0.0
 11
371.5046833603595
 21
62.34979235397844
 31
0.0
  0
LINE
  5
319
330
1F
100
AcDbEntity
  8
0
 62
     7
 48
0.014388
370
    35
100
AcDbLine
 10
371.5046533603595
 20
378.0235593539785
 30
0.0
 11
370.9291523603595
 21
378.0273433539785
 31
0.0
  0
LINE
  5
31A
330
1F
100
AcDbEntity
  8
0
 62
     7
 48
0.014388
370
    35
100
AcDbLine
 10
55.5393513603595
 20
62.34979235397844
 30
0.0
 11
56.11486736035949
 21
62.34600835397845
 31
0.0
  0
LINE
  5
31B
330
1F
100
AcDbEntity
  8
0
 62
     7
 48
0.014388
370
    35
100
AcDbLine
 10
55.5393673603595
 20
378.0235593539785
 30
0.0
 11
56.11486736035949
 21
378.0273433539785
 31
0.0
  0
LINE
  5
31C
330
1F
100
AcDbEntity
  8
0
 62
     7
 48
0.00168
370
    35
100
AcDbLine
 10
57.69514436035951
 20
50.02435235397844
 30
0.0
 11
57.7623433603595
 21
50.02465835397844
 31
0.0
  0
LINE
  5
31D
330
1F
100
AcDbEntity
  8
0
 62
     7
 48
0.00168
370
    35
100
AcDbLine
 10
369.2816923603595
 20
50.02465835397844
 30
0.0
 11
369.3488913603595
 21
50.02435235397844
 31
0.0
  0
LINE
  5
31E
330
1F
100
AcDbEntity
  8
0
 62
     7
 48
0.017989
370
    35
100
AcDbLine
 10
370.0684353603596
 20
50.02124035397844
 30
0.0
 11
369.3488913603595
 21
50.02435235397844
 31
0.0
  0
LINE
  5
31F
330
1F
100
AcDbEntity
  8
0
 62
     7
 48
0.017989
370
    35
100
AcDbLine
 10
57.69514436035951
 20
50.02435235397844
 30
0.0
 11
56.9755853603595
 21
50.02124035397844
 31
0.0
  0
LINE
  5
320
330
1F
100
AcDbEntity
  8
0
 62
     7
 48
0.001638
370
    35
100
AcDbLine
 10
371.4939723603595
 20
49.52181935397844
 30
0.0
 11
371.5273583603595
 21
49.46545335397845
 31
0.0
  0
LINE
  5
321
330
1F
100
AcDbEntity
  8
0
 62
     7
 48
0.011675
370
    35
100
AcDbLine
 10
371.5046833603595
 20
62.34979235397844
 30
0.0
 11
371.9716633603594
 21
62.35211135397844
 31
0.0
  0
LINE
  5
322
330
1F
100
AcDbEntity
  8
0
 62
     7
 48
0.001958
370
    35
100
AcDbLine
 10
373.1736903603595
 20
62.65249635397844
 30
0.0
 11
373.2290793603595
 21
62.70788535397844
 31
0.0
  0
LINE
  5
323
330
1F
100
AcDbEntity
  8
0
 62
     7
 48
0.001637
370
    35
100
AcDbLine
 10
55.5188893603595
 20
49.46917735397844
 30
0.0
 11
55.5522453603595
 21
49.52551235397844
 31
0.0
  0
LINE
  5
324
330
1F
100
AcDbEntity
  8
0
 62
     7
 48
0.001958
370
    35
100
AcDbLine
 10
53.8703453603595
 20
62.65249635397844
 30
0.0
 11
53.8149713603595
 21
62.70788535397844
 31
0.0
  0
LINE
  5
325
330
1F
100
AcDbEntity
  8
0
 62
     7
 48
0.011675
370
    35
100
AcDbLine
 10
55.0723713603595
 20
62.35211135397844
 30
0.0
 11
55.5393513603595
 21
62.34979235397844
 31
0.0
  0
LINE
  5
326
330
1F
100
AcDbEntity
  8
0
 62
     7
 48
0.00168
370
    35
100
AcDbLine
 10
369.2816923603595
 20
390.3486933539785
 30
0.0
 11
369.3488913603595
 21
390.3489983539785
 31
0.0
  0
LINE
  5
327
330
1F
100
AcDbEntity
  8
0
 62
     7
 48
0.011675
370
    35
100
AcDbLine
 10
371.9716633603594
 20
378.0212403539784
 30
0.0
 11
371.5046533603595
 21
378.0235593539785
 31
0.0
  0
LINE
  5
328
330
1F
100
AcDbEntity
  8
0
 62
     7
 48
0.001959
370
    35
100
AcDbLine
 10
373.2290793603595
 20
377.6654663539785
 30
0.0
 11
373.1736903603595
 21
377.7208863539785
 31
0.0
  0
LINE
  5
329
330
1F
100
AcDbEntity
  8
0
 62
     7
 48
0.00168
370
    35
100
AcDbLine
 10
57.7623433603595
 20
390.3486933539785
 30
0.0
 11
57.69514436035951
 21
390.3489983539785
 31
0.0
  0
LINE
  5
32A
330
1F
100
AcDbEntity
  8
0
 62
     7
 48
0.017989
370
    35
100
AcDbLine
 10
56.9755853603595
 20
390.3521113539785
 30
0.0
 11
57.69514436035951
 21
390.3489983539785
 31
0.0
  0
LINE
  5
32B
330
1F
100
AcDbEntity
  8
0
 62
     7
 48
0.017989
370
    35
100
AcDbLine
 10
370.0684353603596
 20
390.3521113539785
 30
0.0
 11
369.3488913603595
 21
390.3489983539785
 31
0.0
  0
LINE
  5
32C
330
1F
100
AcDbEntity
  8
0
 62
     7
 48
0.001638
370
    35
100
AcDbLine
 10
371.4939723603595
 20
390.8515013539784
 30
0.0
 11
371.5273583603595
 21
390.9078973539785
 31
0.0
  0
LINE
  5
32D
330
1F
100
AcDbEntity
  8
0
 62
     7
 48
0.001638
370
    35
100
AcDbLine
 10
55.5500483603595
 20
390.8515013539784
 30
0.0
 11
55.5166923603595
 21
390.9078973539785
 31
0.0
  0
LINE
  5
32E
330
1F
100
AcDbEntity
  8
0
 62
     7
 48
0.001959
370
    35
100
AcDbLine
 10
53.8149713603595
 20
377.6654663539785
 30
0.0
 11
53.8703453603595
 21
377.7208863539785
 31
0.0
  0
LINE
  5
32F
330
1F
100
AcDbEntity
  8
0
 62
     7
 48
0.011675
370
    35
100
AcDbLine
 10
55.0723873603595
 20
378.0212403539784
 30
0.0
 11
55.5393673603595
 21
378.0235593539785
 31
0.0
  0
ELLIPSE
  5
330
330
1F
100
AcDbEntity
  8
0
 62
   253
370
    35
100
AcDbEllipse
 10
354.8132163603595
 20
233.1849363539785
 30
0.0
 11
-0.3535461399999999
 21
0.3535461399999999
 31
0.0
210
0.0
220
0.0
230
1.0
 40
0.9996950000000001
 41
2.3560422
 42
3.14159265
  0
ELLIPSE
  5
331
330
1F
100
AcDbEntity
  8
0
 62
   253
370
    35
100
AcDbEllipse
 10
72.2308193603595
 20
233.1849363539785
 30
0.0
 11
0.3535461399999999
 21
0.3535461399999999
 31
0.0
210
0.0
220
0.0
230
1.0
 40
0.9996950000000001
 41
3.14159265
 42
3.927143109999999
  0
LINE
  5
332
330
1F
100
AcDbEntity
  8
0
 62
   253
 48
0.001736
370
    35
100
AcDbLine
 10
158.5220173603595
 20
233.1154783539784
 30
0.0
 11
158.5220173603595
 21
233.1849363539785
 31
0.0
  0
ELLIPSE
  5
333
330
1F
100
AcDbEntity
  8
0
 62
   253
370
    35
100
AcDbEllipse
 10
158.0220173603595
 20
233.1849363539785
 30
0.0
 11
-0.5
 21
0.0
 31
0.0
210
0.0
220
0.0
230
1.0
 40
0.9998479999999998
 41
1.57079633
 42
3.14159265
  0
LINE
  5
334
330
1F
100
AcDbEntity
  8
0
 62
   253
 48
0.012173
370
    35
100
AcDbLine
 10
178.5220173603595
 20
232.4930723539785
 30
0.0
 11
178.5220173603595
 21
232.9799803539784
 31
0.0
  0
LINE
  5
335
330
1F
100
AcDbEntity
  8
0
 62
   253
 48
0.012173
370
    35
100
AcDbLine
 10
248.5220173603595
 20
232.4930723539785
 30
0.0
 11
248.5220173603595
 21
232.9799803539784
 31
0.0
  0
ELLIPSE
  5
336
330
1F
100
AcDbEntity
  8
0
 62
   253
370
    35
100
AcDbEllipse
 10
269.0220173603595
 20
233.1849363539785
 30
0.0
 11
0.5
 21
0.0
 31
0.0
210
0.0
220
0.0
230
1.0
 40
0.9998479999999998
 41
3.14159265
 42
4.71238898
  0
LINE
  5
337
330
1F
100
AcDbEntity
  8
0
 62
   253
 48
0.001736
370
    35
100
AcDbLine
 10
268.5220173603596
 20
233.1154783539784
 30
0.0
 11
268.5220173603596
 21
233.1849363539785
 31
0.0
  0
LINE
  5
338
330
1F
100
AcDbEntity
  8
0
 62
   253
 48
0.099519
370
    35
100
AcDbLine
 10
158.5220173603595
 20
233.1849363539785
 30
0.0
 11
158.5220173603595
 21
237.1657103539785
 31
0.0
  0
ARC
  5
339
330
1F
100
AcDbEntity
  8
0
 62
   253
370
    35
100
AcDbCircle
 10
160.5323633603594
 20
237.1707153539784
 30
0.0
 40
2.009984
100
AcDbArc
 50
118.259439
 51
180.141762
  0
ARC
  5
33A
330
1F
100
AcDbEntity
  8
0
 62
   253
370
    35
100
AcDbCircle
 10
178.5178063603595
 20
203.4988093539784
 30
0.0
 40
40.184224
100
AcDbArc
 50
89.99399200000004
 51
118.1159230000001
  0
LINE
  5
33B
330
1F
100
AcDbEntity
  8
0
 62
   253
 48
0.2675800000000001
370
    35
100
AcDbLine
 10
178.5220173603595
 20
232.9799803539784
 30
0.0
 11
178.5220173603595
 21
243.6831663539784
 31
0.0
  0
LINE
  5
33C
330
1F
100
AcDbEntity
  8
0
 62
   253
370
    35
100
AcDbLine
 10
248.5220173603595
 20
243.6831663539784
 30
0.0
 11
178.5220173603595
 21
243.6831663539784
 31
0.0
  0
LINE
  5
33D
330
1F
100
AcDbEntity
  8
0
 62
   253
 48
0.2675800000000001
370
    35
100
AcDbLine
 10
248.5220173603595
 20
232.9799803539784
 30
0.0
 11
248.5220173603595
 21
243.6831663539784
 31
0.0
  0
ARC
  5
33E
330
1F
100
AcDbEntity
  8
0
 62
   253
370
    35
100
AcDbCircle
 10
248.5261983603595
 20
203.4984433539785
 30
0.0
 40
40.184573
100
AcDbArc
 50
61.88426599999991
 51
90.00595200000004
  0
ARC
  5
33F
330
1F
100
AcDbEntity
  8
0
 62
   253
370
    35
100
AcDbCircle
 10
266.5116723603595
 20
237.1707153539784
 30
0.0
 40
2.009984
100
AcDbArc
 50
359.8582330000001
 51
61.74056599999985
  0
LINE
  5
340
330
1F
100
AcDbEntity
  8
0
 62
   253
 48
0.099519
370
    35
100
AcDbLine
 10
268.5220173603596
 20
233.1849363539785
 30
0.0
 11
268.5220173603596
 21
237.1657103539785
 31
0.0
  0
LINE
  5
341
330
1F
100
AcDbEntity
  8
0
 62
   253
370
    35
100
AcDbLine
 10
158.0220173603595
 20
232.6850273539784
 30
0.0
 11
113.6792753603595
 21
232.6850273539784
 31
0.0
  0
LINE
  5
342
330
1F
100
AcDbEntity
  8
0
 62
   253
370
    35
100
AcDbLine
 10
97.3647603603595
 20
232.6850273539784
 30
0.0
 11
72.2308193603595
 21
232.6850273539784
 31
0.0
  0
LINE
  5
343
330
1F
100
AcDbEntity
  8
0
 62
   253
 48
0.001304
370
    35
100
AcDbLine
 10
324.0135033603595
 20
232.5191953539784
 30
0.0
 11
323.9766383603595
 21
232.4822993539784
 31
0.0
  0
LINE
  5
344
330
1F
100
AcDbEntity
  8
0
 62
   253
 48
0.001304
370
    35
100
AcDbLine
 10
115.0305173603595
 20
232.5191953539784
 30
0.0
 11
115.0673973603595
 21
232.4822993539784
 31
0.0
  0
ELLIPSE
  5
345
330
1F
100
AcDbEntity
  8
0
 62
   253
370
    35
100
AcDbEllipse
 10
354.7111043603595
 20
212.3976743539784
 30
0.0
 11
0.5
 21
-0.0012207
 31
0.0
210
0.0
220
0.0
230
1.0
 40
0.139173
 41
5.383801799999999
 42
6.300810137179586
  0
LINE
  5
346
330
1F
100
AcDbEntity
  8
0
 62
   253
 48
0.001248
370
    35
100
AcDbLine
 10
355.1667623603595
 20
232.8313903539784
 30
0.0
 11
355.1314533603595
 21
232.7960813539784
 31
0.0
  0
LINE
  5
347
330
1F
100
AcDbEntity
  8
0
 62
   253
 48
0.001248
370
    35
100
AcDbLine
 10
71.91258136035949
 20
232.7960813539784
 30
0.0
 11
71.87727336035951
 21
232.8313903539784
 31
0.0
  0
LINE
  5
348
330
1F
100
AcDbEntity
  8
0
 62
   253
370
    35
100
AcDbLine
 10
355.3132163603596
 20
328.3151243539785
 30
0.0
 11
355.3132163603596
 21
233.1849363539785
 31
0.0
  0
ARC
  5
349
330
1F
100
AcDbEntity
  8
0
 62
   253
370
    35
100
AcDbCircle
 10
354.8132163603595
 20
233.1849363539785
 30
0.0
 40
0.5
100
AcDbArc
 50
314.9999990000001
 51
0.0
  0
ARC
  5
34A
330
1F
100
AcDbEntity
  8
0
 62
   253
370
    35
100
AcDbCircle
 10
72.2308193603595
 20
233.1849363539785
 30
0.0
 40
0.5
100
AcDbArc
 50
180.0
 51
225.0
  0
LINE
  5
34B
330
1F
100
AcDbEntity
  8
0
 62
   253
370
    35
100
AcDbLine
 10
71.7308193603595
 20
328.3151243539785
 30
0.0
 11
71.7308193603595
 21
233.1849363539785
 31
0.0
  0
LINE
  5
34C
330
1F
100
AcDbEntity
  8
0
 62
   253
370
    35
100
AcDbLine
 10
72.2570033603595
 20
330.3151243539785
 30
0.0
 11
354.7870323603595
 21
330.3151243539785
 31
0.0
  0
LINE
  5
34D
330
1F
100
AcDbEntity
  8
0
 62
   253
 48
0.000625
370
    35
100
AcDbLine
 10
71.9042963603595
 20
232.8049923539784
 30
0.0
 11
71.92196636035951
 21
232.7872923539784
 31
0.0
  0
LINE
  5
34E
330
1F
100
AcDbEntity
  8
0
 62
   253
 48
0.000626
370
    35
100
AcDbLine
 10
355.1397243603596
 20
232.8049923539784
 30
0.0
 11
355.1220243603595
 21
232.7872613539784
 31
0.0
  0
LINE
  5
34F
330
1F
100
AcDbEntity
  8
0
 62
   253
 48
0.011442
370
    35
100
AcDbLine
 10
178.5220173603595
 20
231.0009153539784
 30
0.0
 11
178.5220173603595
 21
230.5432433539785
 31
0.0
  0
LINE
  5
350
330
1F
100
AcDbEntity
  8
0
 62
   253
 48
0.011443
370
    35
100
AcDbLine
 10
248.5220173603595
 20
231.0009153539784
 30
0.0
 11
248.5220173603595
 21
230.5432123539784
 31
0.0
  0
LINE
  5
351
330
1F
100
AcDbEntity
  8
0
 62
   253
 48
0.499564
370
    35
100
AcDbLine
 10
72.0220173603595
 20
230.9568783539785
 30
0.0
 11
72.0220173603595
 21
210.9743343539784
 31
0.0
  0
ARC
  5
352
330
1F
100
AcDbEntity
  8
0
 62
   253
370
    35
100
AcDbCircle
 10
72.52201736035949
 20
210.9743343539784
 30
0.0
 40
0.5
100
AcDbArc
 50
180.0
 51
270.0
  0
LINE
  5
353
330
1F
100
AcDbEntity
  8
0
 62
   253
370
    35
100
AcDbLine
 10
72.52201736035949
 20
210.4743343539784
 30
0.0
 11
354.5220173603595
 21
210.4743343539784
 31
0.0
  0
ARC
  5
354
330
1F
100
AcDbEntity
  8
0
 62
   253
370
    35
100
AcDbCircle
 10
354.5220173603595
 20
210.9743343539784
 30
0.0
 40
0.5
100
AcDbArc
 50
270.0
 51
0.0
  0
LINE
  5
355
330
1F
100
AcDbEntity
  8
0
 62
   253
 48
0.499564
370
    35
100
AcDbLine
 10
355.0220173603595
 20
210.9743343539784
 30
0.0
 11
355.0220173603595
 21
230.9568783539785
 31
0.0
  0
LINE
  5
356
330
1F
100
AcDbEntity
  8
0
 62
   253
 48
0.2141739999999999
370
    35
100
AcDbLine
 10
178.5220173603595
 20
230.5432123539784
 30
0.0
 11
178.5220173603595
 21
221.9762573539784
 31
0.0
  0
LINE
  5
357
330
1F
100
AcDbEntity
  8
0
 62
   253
 48
0.2141739999999999
370
    35
100
AcDbLine
 10
248.5220173603595
 20
230.5432123539784
 30
0.0
 11
248.5220173603595
 21
221.9762573539784
 31
0.0
  0
LINE
  5
358
330
1F
100
AcDbEntity
  8
0
 62
   253
 48
0.099085
370
    35
100
AcDbLine
 10
268.5220173603596
 20
230.9568783539785
 30
0.0
 11
268.5220173603596
 21
226.9934693539784
 31
0.0
  0
LINE
  5
359
330
1F
100
AcDbEntity
  8
0
 62
   253
 48
0.099085
370
    35
100
AcDbLine
 10
158.5220173603595
 20
230.9568783539785
 30
0.0
 11
158.5220173603595
 21
226.9934693539784
 31
0.0
  0
LINE
  5
35A
330
1F
100
AcDbEntity
  8
0
 62
   253
 48
0.00038
370
    35
100
AcDbLine
 10
159.5830373603595
 20
225.2106013539784
 30
0.0
 11
159.5982203603595
 21
225.2106013539784
 31
0.0
  0
LINE
  5
35B
330
1F
100
AcDbEntity
  8
0
 62
   253
 48
0.000493
370
    35
100
AcDbLine
 10
159.5982203603595
 20
225.2106013539784
 30
0.0
 11
159.5808403603595
 21
225.2198793539784
 31
0.0
  0
ARC
  5
35C
330
1F
100
AcDbEntity
  8
0
 62
   253
370
    35
100
AcDbCircle
 10
170.3444053603595
 20
244.9797363539784
 30
0.0
 40
22.508355
100
AcDbArc
 50
241.4382299999998
 51
242.5411959999999
  0
LINE
  5
35D
330
1F
100
AcDbEntity
  8
0
 62
   253
 48
0.000493
370
    35
100
AcDbLine
 10
267.4632103603595
 20
225.2198793539784
 30
0.0
 11
267.4458153603595
 21
225.2106013539784
 31
0.0
  0
LINE
  5
35E
330
1F
100
AcDbEntity
  8
0
 62
   253
 48
0.00038
370
    35
100
AcDbLine
 10
267.4610133603595
 20
225.2106013539784
 30
0.0
 11
267.4458153603595
 21
225.2106013539784
 31
0.0
  0
ARC
  5
35F
330
1F
100
AcDbEntity
  8
0
 62
   253
370
    35
100
AcDbCircle
 10
256.6996303603595
 20
244.9797363539784
 30
0.0
 40
22.508351
100
AcDbArc
 50
297.4587989999999
 51
298.561772
  0
LINE
  5
360
330
1F
100
AcDbEntity
  8
0
 62
   253
 48
0.002541
370
    35
100
AcDbLine
 10
178.5220173603595
 20
218.4299623539784
 30
0.0
 11
178.5220173603595
 21
218.5316163539785
 31
0.0
  0
LINE
  5
361
330
1F
100
AcDbEntity
  8
0
 62
   253
 48
0.000273
370
    35
100
AcDbLine
 10
159.5808403603595
 20
225.2198793539784
 30
0.0
 11
159.5751183603595
 21
225.2106013539784
 31
0.0
  0
ARC
  5
362
330
1F
100
AcDbEntity
  8
0
 62
   253
370
    35
100
AcDbCircle
 10
160.5314173603595
 20
226.9895323539784
 30
0.0
 40
2.009075
100
AcDbArc
 50
179.8683599999999
 51
241.757773
  0
LINE
  5
363
330
1F
100
AcDbEntity
  8
0
 62
   253
 48
0.001318
370
    35
100
AcDbLine
 10
158.8021083603595
 20
225.1807863539784
 30
0.0
 11
158.8455653603595
 21
225.2106013539784
 31
0.0
  0
ARC
  5
364
330
1F
100
AcDbEntity
  8
0
 62
   253
370
    35
100
AcDbCircle
 10
266.5126493603595
 20
226.9895013539784
 30
0.0
 40
2.009049999999999
100
AcDbArc
 50
298.2425019999999
 51
0.132652999999903
  0
LINE
  5
365
330
1F
100
AcDbEntity
  8
0
 62
   253
 48
0.000272
370
    35
100
AcDbLine
 10
267.4632103603595
 20
225.2198793539784
 30
0.0
 11
267.4689173603595
 21
225.2106013539784
 31
0.0
  0
LINE
  5
366
330
1F
100
AcDbEntity
  8
0
 62
   253
 48
0.001318
370
    35
100
AcDbLine
 10
268.1984703603595
 20
225.2106013539784
 30
0.0
 11
268.2419273603595
 21
225.1807863539784
 31
0.0
  0
LINE
  5
367
330
1F
100
AcDbEntity
  8
0
 62
   253
 48
0.001022
370
    35
100
AcDbLine
 10
268.2419273603595
 20
225.1807863539784
 30
0.0
 11
268.2172993603595
 21
225.1481323539784
 31
0.0
  0
LINE
  5
368
330
1F
100
AcDbEntity
  8
0
 62
   253
 48
0.002542
370
    35
100
AcDbLine
 10
248.5220173603595
 20
218.4299313539785
 30
0.0
 11
248.5220173603595
 21
218.5316163539785
 31
0.0
  0
LINE
  5
369
330
1F
100
AcDbEntity
  8
0
 62
   253
 48
0.001897
370
    35
100
AcDbLine
 10
158.9214323603595
 20
225.2106013539784
 30
0.0
 11
158.8455653603595
 21
225.2106013539784
 31
0.0
  0
LINE
  5
36A
330
1F
100
AcDbEntity
  8
0
 62
   253
 48
0.012196
370
    35
100
AcDbLine
 10
159.5830373603595
 20
225.2106013539784
 30
0.0
 11
159.0951993603595
 21
225.2106013539784
 31
0.0
  0
LINE
  5
36B
330
1F
100
AcDbEntity
  8
0
 62
   253
 48
0.00136
370
    35
100
AcDbLine
 10
159.0951993603595
 20
225.2106013539784
 30
0.0
 11
159.0407863603595
 21
225.2106013539784
 31
0.0
  0
LINE
  5
36C
330
1F
100
AcDbEntity
  8
0
 62
   253
 48
0.002984
370
    35
100
AcDbLine
 10
158.9214323603595
 20
225.2106013539784
 30
0.0
 11
159.0407863603595
 21
225.2106013539784
 31
0.0
  0
LINE
  5
36D
330
1F
100
AcDbEntity
  8
0
 62
   253
 48
0.069543
370
    35
100
AcDbLine
 10
248.5220173603595
 20
218.5316163539785
 30
0.0
 11
248.5220173603595
 21
221.3133233539784
 31
0.0
  0
LINE
  5
36E
330
1F
100
AcDbEntity
  8
0
 62
   253
 48
0.002984
370
    35
100
AcDbLine
 10
268.1226033603595
 20
225.2106013539784
 30
0.0
 11
268.0032493603595
 21
225.2106013539784
 31
0.0
  0
LINE
  5
36F
330
1F
100
AcDbEntity
  8
0
 62
   253
 48
0.016567
370
    35
100
AcDbLine
 10
248.5220173603595
 20
221.9760133539784
 30
0.0
 11
248.5220173603595
 21
221.3133233539784
 31
0.0
  0
LINE
  5
370
330
1F
100
AcDbEntity
  8
0
 62
   253
 48
0.00136
370
    35
100
AcDbLine
 10
267.9488363603595
 20
225.2106013539784
 30
0.0
 11
268.0032493603595
 21
225.2106013539784
 31
0.0
  0
LINE
  5
371
330
1F
100
AcDbEntity
  8
0
 62
   253
 48
0.016566
370
    35
100
AcDbLine
 10
178.5220173603595
 20
221.9760133539784
 30
0.0
 11
178.5220173603595
 21
221.3133843539785
 31
0.0
  0
LINE
  5
372
330
1F
100
AcDbEntity
  8
0
 62
   253
 48
0.069543
370
    35
100
AcDbLine
 10
178.5220173603595
 20
218.5316163539785
 30
0.0
 11
178.5220173603595
 21
221.3133233539784
 31
0.0
  0
LINE
  5
373
330
1F
100
AcDbEntity
  8
0
 62
   253
 48
0.001897
370
    35
100
AcDbLine
 10
268.1226033603595
 20
225.2106013539784
 30
0.0
 11
268.1984703603595
 21
225.2106013539784
 31
0.0
  0
LINE
  5
374
330
1F
100
AcDbEntity
  8
0
 62
   253
 48
0.012196
370
    35
100
AcDbLine
 10
267.4610133603595
 20
225.2106013539784
 30
0.0
 11
267.9488363603595
 21
225.2106013539784
 31
0.0
  0
LINE
  5
375
330
1F
100
AcDbEntity
  8
0
 62
   253
370
    35
100
AcDbLine
 10
223.7979273603595
 20
218.4299623539784
 30
0.0
 11
248.5220173603595
 21
218.4299623539784
 31
0.0
  0
LINE
  5
376
330
1F
100
AcDbEntity
  8
0
 62
   253
370
    35
100
AcDbLine
 10
178.5220173603595
 20
218.4299623539784
 30
0.0
 11
203.2461083603595
 21
218.4299623539784
 31
0.0
  0
LINE
  5
377
330
1F
100
AcDbEntity
  8
0
 62
   253
370
    35
100
AcDbLine
 10
248.5220173603595
 20
221.9760133539784
 30
0.0
 11
223.9716633603595
 21
221.9760133539784
 31
0.0
  0
LINE
  5
378
330
1F
100
AcDbEntity
  8
0
 62
   253
370
    35
100
AcDbLine
 10
203.0723713603595
 20
221.9760133539784
 30
0.0
 11
178.5220173603595
 21
221.9760133539784
 31
0.0
  0
LINE
  5
379
330
1F
100
AcDbEntity
  8
0
 62
   253
 48
0.001824
370
    35
100
AcDbLine
 10
203.3188623603595
 20
218.4356993539784
 30
0.0
 11
203.2461083603595
 21
218.4299623539784
 31
0.0
  0
LINE
  5
37A
330
1F
100
AcDbEntity
  8
0
 62
   253
 48
0.001824
370
    35
100
AcDbLine
 10
223.7251733603595
 20
218.4356993539784
 30
0.0
 11
223.7979273603595
 21
218.4299623539784
 31
0.0
  0
ARC
  5
37B
330
1F
100
AcDbEntity
  8
0
 62
   253
370
    35
100
AcDbCircle
 10
223.9716633603595
 20
222.2760313539784
 30
0.0
 40
0.3
100
AcDbArc
 50
187.9089720000001
 51
270.0
  0
ARC
  5
37C
330
1F
100
AcDbEntity
  8
0
 62
   253
370
    35
100
AcDbCircle
 10
203.0723713603595
 20
222.2760313539784
 30
0.0
 40
0.3
100
AcDbArc
 50
270.0
 51
352.0910399999999
  0
ARC
  5
37D
330
1F
100
AcDbEntity
  8
0
 62
   253
370
    35
100
AcDbCircle
 10
213.5220173603595
 20
220.8243403539785
 30
0.0
 40
10.25
100
AcDbArc
 50
7.490844000000085
 51
172.5091589999999
  0
ARC
  5
37E
330
1F
100
AcDbEntity
  8
0
 62
   253
370
    35
100
AcDbCircle
 10
213.5220173603595
 20
220.8243403539785
 30
0.0
 40
10.25
100
AcDbArc
 50
315.099125
 51
357.3491009999999
  0
ARC
  5
37F
330
1F
100
AcDbEntity
  8
0
 62
   253
370
    35
100
AcDbCircle
 10
213.5220173603595
 20
220.8243403539785
 30
0.0
 40
10.25
100
AcDbArc
 50
182.6509009999999
 51
224.9008800000001
  0
ARC
  5
380
330
1F
100
AcDbEntity
  8
0
 62
   253
370
    35
100
AcDbCircle
 10
210.5116113603595
 20
217.8243403539784
 30
0.0
 40
6.0
100
AcDbArc
 50
224.9008800000001
 51
270.0
  0
ARC
  5
381
330
1F
100
AcDbEntity
  8
0
 62
   253
370
    35
100
AcDbCircle
 10
216.5324243603595
 20
217.8243403539784
 30
0.0
 40
6.0
100
AcDbArc
 50
270.0
 51
315.099125
  0
LINE
  5
382
330
1F
100
AcDbEntity
  8
0
 62
   253
 48
0.15052
370
    35
100
AcDbLine
 10
216.5324243603595
 20
211.8243403539784
 30
0.0
 11
210.5116113603595
 21
211.8243403539784
 31
0.0
  0
LINE
  5
383
330
1F
100
AcDbEntity
  8
0
 62
   253
370
    35
100
AcDbLine
 10
178.5220173603595
 20
231.0009153539784
 30
0.0
 11
212.2675923603595
 21
231.0009153539784
 31
0.0
  0
LINE
  5
384
330
1F
100
AcDbEntity
  8
0
 62
   253
370
    35
100
AcDbLine
 10
214.7764423603595
 20
231.0009153539784
 30
0.0
 11
248.5220173603595
 21
231.0009153539784
 31
0.0
  0
LINE
  5
385
330
1F
100
AcDbEntity
  8
0
 62
   253
370
    35
100
AcDbLine
 10
269.0220173603595
 20
231.4568783539785
 30
0.0
 11
354.5220173603595
 21
231.4568783539785
 31
0.0
  0
ARC
  5
386
330
1F
100
AcDbEntity
  8
0
 62
   253
370
    35
100
AcDbCircle
 10
267.3150173603595
 20
257.4263303539784
 30
0.0
 40
26.187453
100
AcDbArc
 50
270.818623
 51
272.8890579999998
  0
ARC
  5
387
330
1F
100
AcDbEntity
  8
0
 62
   253
370
    35
100
AcDbCircle
 10
250.1542813603595
 20
1190.821838353978
 30
0.0
 40
959.741097
100
AcDbArc
 50
270.4094740000002
 51
271.046874
  0
ARC
  5
388
330
1F
100
AcDbEntity
  8
0
 62
   253
370
    35
100
AcDbCircle
 10
176.8905483603595
 20
1190.877624353978
 30
0.0
 40
959.7969449999999
100
AcDbArc
 50
268.9531340000002
 51
269.5905069999999
  0
ARC
  5
389
330
1F
100
AcDbEntity
  8
0
 62
   253
370
    35
100
AcDbCircle
 10
159.7290493603594
 20
257.4271843539784
 30
0.0
 40
26.188336
100
AcDbArc
 50
267.110991
 51
269.1813520000002
  0
LINE
  5
38A
330
1F
100
AcDbEntity
  8
0
 62
   253
370
    35
100
AcDbLine
 10
72.52201736035949
 20
231.4568783539785
 30
0.0
 11
158.0220173603595
 21
231.4568783539785
 31
0.0
  0
LINE
  5
38B
330
1F
100
AcDbEntity
  8
0
 62
   253
 48
0.001461
370
    35
100
AcDbLine
 10
212.3259423603595
 20
231.0043333539784
 30
0.0
 11
212.2675923603595
 21
231.0009153539784
 31
0.0
  0
LINE
  5
38C
330
1F
100
AcDbEntity
  8
0
 62
   253
 48
0.001461
370
    35
100
AcDbLine
 10
214.7764423603595
 20
231.0009153539784
 30
0.0
 11
214.7180933603595
 21
231.0043333539784
 31
0.0
  0
ARC
  5
38D
330
1F
100
AcDbEntity
  8
0
 62
   253
370
    35
100
AcDbCircle
 10
72.52201736035949
 20
230.9568783539785
 30
0.0
 40
0.5
100
AcDbArc
 50
90.0
 51
180.0
  0
ARC
  5
38E
330
1F
100
AcDbEntity
  8
0
 62
   253
370
    35
100
AcDbCircle
 10
354.5220173603595
 20
230.9568783539785
 30
0.0
 40
0.5
100
AcDbArc
 50
0.0
 51
90.0
  0
ARC
  5
38F
330
1F
100
AcDbEntity
  8
0
 62
   253
370
    35
100
AcDbCircle
 10
269.0220173603595
 20
230.9568783539785
 30
0.0
 40
0.5
100
AcDbArc
 50
90.0
 51
180.0
  0
ARC
  5
390
330
1F
100
AcDbEntity
  8
0
 62
   253
370
    35
100
AcDbCircle
 10
158.0220173603595
 20
230.9568783539785
 30
0.0
 40
0.5
100
AcDbArc
 50
0.0
 51
90.0
  0
LINE
  5
391
330
1F
100
AcDbEntity
  8
0
 62
   253
 48
0.007236
370
    35
100
AcDbLine
 10
160.2233273603595
 20
224.8754273539784
 30
0.0
 11
159.9655753603595
 21
225.0071103539784
 31
0.0
  0
LINE
  5
392
330
1F
100
AcDbEntity
  8
0
 62
   253
 48
0.007237
370
    35
100
AcDbLine
 10
266.8206933603595
 20
224.8754273539784
 30
0.0
 11
267.0784753603595
 21
225.0071103539784
 31
0.0
  0
ARC
  5
393
330
1F
100
AcDbEntity
  8
0
 62
     7
370
    35
100
AcDbCircle
 10
69.5220173603595
 20
384.1867063539785
 30
0.0
 40
16.0
100
AcDbArc
 50
151.190936
 51
180.0
  0
LINE
  5
394
330
1F
100
AcDbEntity
  8
0
 62
     7
370
    35
100
AcDbLine
 10
53.5220173603595
 20
384.1867063539785
 30
0.0
 11
53.5220173603595
 21
56.18667535397844
 31
0.0
  0
ARC
  5
395
330
1F
100
AcDbEntity
  8
0
 62
     7
370
    35
100
AcDbCircle
 10
69.5220173603595
 20
56.18667535397844
 30
0.0
 40
16.0
100
AcDbArc
 50
180.0
 51
270.0
  0
LINE
  5
396
330
1F
100
AcDbEntity
  8
0
 62
     7
370
    35
100
AcDbLine
 10
69.5220173603595
 20
40.18667535397844
 30
0.0
 11
357.5220173603595
 21
40.18667535397844
 31
0.0
  0
ARC
  5
397
330
1F
100
AcDbEntity
  8
0
 62
     7
370
    35
100
AcDbCircle
 10
357.5220173603595
 20
56.18667535397844
 30
0.0
 40
16.0
100
AcDbArc
 50
270.0
 51
0.0
  0
LINE
  5
398
330
1F
100
AcDbEntity
  8
0
 62
     7
 48
0.180701
370
    35
100
AcDbLine
 10
373.5220173603595
 20
63.41473335397845
 30
0.0
 11
373.5220173603595
 21
56.18667535397844
 31
0.0
  0
LINE
  5
399
330
1F
100
AcDbEntity
  8
0
 62
     7
 48
0.180702
370
    35
100
AcDbLine
 10
373.5220173603595
 20
384.1867063539785
 30
0.0
 11
373.5220173603595
 21
376.9586183539784
 31
0.0
  0
ARC
  5
39A
330
1F
100
AcDbEntity
  8
0
 62
     7
370
    35
100
AcDbCircle
 10
357.5220173603595
 20
384.1867063539785
 30
0.0
 40
16.0
100
AcDbArc
 50
0.0
 51
28.80765099999993
  0
CIRCLE
  5
39B
330
1F
100
AcDbEntity
  8
0
 62
     7
370
    35
100
AcDbCircle
 10
69.5220173603595
 20
56.18667535397844
 30
0.0
 40
4.883901999999999
  0
LINE
  5
39C
330
1F
100
AcDbEntity
  8
0
 62
     7
 48
0.05
370
    35
100
AcDbLine
 10
68.5220173603595
 20
60.68667535397844
 30
0.0
 11
70.5220173603595
 21
60.68667535397844
 31
0.0
  0
LINE
  5
39D
330
1F
100
AcDbEntity
  8
0
 62
     7
 48
0.225
370
    35
100
AcDbLine
 10
68.5220173603595
 20
60.68667535397844
 30
0.0
 11
68.5220173603595
 21
51.68667535397844
 31
0.0
  0
LINE
  5
39E
330
1F
100
AcDbEntity
  8
0
 62
     7
 48
0.05
370
    35
100
AcDbLine
 10
70.5220173603595
 20
51.68667535397844
 30
0.0
 11
68.5220173603595
 21
51.68667535397844
 31
0.0
  0
LINE
  5
39F
330
1F
100
AcDbEntity
  8
0
 62
     7
 48
0.225
370
    35
100
AcDbLine
 10
70.5220173603595
 20
51.68667535397844
 30
0.0
 11
70.5220173603595
 21
60.68667535397844
 31
0.0
  0
ARC
  5
3A0
330
1F
100
AcDbEntity
  8
0
 62
     7
370
    35
100
AcDbCircle
 10
69.5220173603595
 20
56.18667535397844
 30
0.0
 40
8.949999999999999
100
AcDbArc
 50
208.6478850000001
 51
28.64788999999997
  0
ARC
  5
3A1
330
1F
100
AcDbEntity
  8
0
 62
     7
370
    35
100
AcDbCircle
 10
69.5220173603595
 20
56.18667535397844
 30
0.0
 40
8.949999999999999
100
AcDbArc
 50
28.64788999999997
 51
208.6478850000001
  0
CIRCLE
  5
3A2
330
1F
100
AcDbEntity
  8
0
 62
     7
370
    35
100
AcDbCircle
 10
357.5220173603595
 20
56.18667535397844
 30
0.0
 40
4.883901999999999
  0
LINE
  5
3A3
330
1F
100
AcDbEntity
  8
0
 62
     7
 48
0.05
370
    35
100
AcDbLine
 10
356.5220173603595
 20
60.68667535397844
 30
0.0
 11
358.5220173603596
 21
60.68667535397844
 31
0.0
  0
LINE
  5
3A4
330
1F
100
AcDbEntity
  8
0
 62
     7
 48
0.225
370
    35
100
AcDbLine
 10
356.5220173603595
 20
60.68667535397844
 30
0.0
 11
356.5220173603595
 21
51.68667535397844
 31
0.0
  0
LINE
  5
3A5
330
1F
100
AcDbEntity
  8
0
 62
     7
 48
0.05
370
    35
100
AcDbLine
 10
358.5220173603596
 20
51.68667535397844
 30
0.0
 11
356.5220173603595
 21
51.68667535397844
 31
0.0
  0
LINE
  5
3A6
330
1F
100
AcDbEntity
  8
0
 62
     7
 48
0.225
370
    35
100
AcDbLine
 10
358.5220173603596
 20
51.68667535397844
 30
0.0
 11
358.5220173603596
 21
60.68667535397844
 31
0.0
  0
ARC
  5
3A7
330
1F
100
AcDbEntity
  8
0
 62
     7
370
    35
100
AcDbCircle
 10
357.5220173603595
 20
56.18667535397844
 30
0.0
 40
8.949999999999999
100
AcDbArc
 50
208.6478850000001
 51
28.64788999999997
  0
ARC
  5
3A8
330
1F
100
AcDbEntity
  8
0
 62
     7
370
    35
100
AcDbCircle
 10
357.5220173603595
 20
56.18667535397844
 30
0.0
 40
8.949999999999999
100
AcDbArc
 50
28.64788999999997
 51
208.6478850000001
  0
CIRCLE
  5
3A9
330
1F
100
AcDbEntity
  8
0
 62
     7
370
    35
100
AcDbCircle
 10
357.5220173603595
 20
384.1867063539785
 30
0.0
 40
4.883901999999999
  0
LINE
  5
3AA
330
1F
100
AcDbEntity
  8
0
 62
     7
 48
0.05
370
    35
100
AcDbLine
 10
356.5220173603595
 20
388.6867063539785
 30
0.0
 11
358.5220173603596
 21
388.6867063539785
 31
0.0
  0
LINE
  5
3AB
330
1F
100
AcDbEntity
  8
0
 62
     7
 48
0.225
370
    35
100
AcDbLine
 10
356.5220173603595
 20
388.6867063539785
 30
0.0
 11
356.5220173603595
 21
379.6867063539785
 31
0.0
  0
LINE
  5
3AC
330
1F
100
AcDbEntity
  8
0
 62
     7
 48
0.05
370
    35
100
AcDbLine
 10
358.5220173603596
 20
379.6867063539785
 30
0.0
 11
356.5220173603595
 21
379.6867063539785
 31
0.0
  0
LINE
  5
3AD
330
1F
100
AcDbEntity
  8
0
 62
     7
 48
0.225
370
    35
100
AcDbLine
 10
358.5220173603596
 20
379.6867063539785
 30
0.0
 11
358.5220173603596
 21
388.6867063539785
 31
0.0
  0
ARC
  5
3AE
330
1F
100
AcDbEntity
  8
0
 62
     7
370
    35
100
AcDbCircle
 10
357.5220173603595
 20
384.1867063539785
 30
0.0
 40
8.949999999999999
100
AcDbArc
 50
208.6478850000001
 51
28.64788999999997
  0
ARC
  5
3AF
330
1F
100
AcDbEntity
  8
0
 62
     7
370
    35
100
AcDbCircle
 10
357.5220173603595
 20
384.1867063539785
 30
0.0
 40
8.949999999999999
100
AcDbArc
 50
28.64788999999997
 51
208.6478850000001
  0
CIRCLE
  5
3B0
330
1F
100
AcDbEntity
  8
0
 62
     7
370
    35
100
AcDbCircle
 10
69.5220173603595
 20
384.1867063539785
 30
0.0
 40
4.883901999999999
  0
LINE
  5
3B1
330
1F
100
AcDbEntity
  8
0
 62
     7
 48
0.05
370
    35
100
AcDbLine
 10
68.5220173603595
 20
388.6867063539785
 30
0.0
 11
70.5220173603595
 21
388.6867063539785
 31
0.0
  0
LINE
  5
3B2
330
1F
100
AcDbEntity
  8
0
 62
     7
 48
0.225
370
    35
100
AcDbLine
 10
68.5220173603595
 20
388.6867063539785
 30
0.0
 11
68.5220173603595
 21
379.6867063539785
 31
0.0
  0
LINE
  5
3B3
330
1F
100
AcDbEntity
  8
0
 62
     7
 48
0.05
370
    35
100
AcDbLine
 10
70.5220173603595
 20
379.6867063539785
 30
0.0
 11
68.5220173603595
 21
379.6867063539785
 31
0.0
  0
LINE
  5
3B4
330
1F
100
AcDbEntity
  8
0
 62
     7
 48
0.225
370
    35
100
AcDbLine
 10
70.5220173603595
 20
379.6867063539785
 30
0.0
 11
70.5220173603595
 21
388.6867063539785
 31
0.0
  0
ARC
  5
3B5
330
1F
100
AcDbEntity
  8
0
 62
     7
370
    35
100
AcDbCircle
 10
69.5220173603595
 20
384.1867063539785
 30
0.0
 40
8.949999999999999
100
AcDbArc
 50
208.6478850000001
 51
28.64788999999997
  0
ARC
  5
3B6
330
1F
100
AcDbEntity
  8
0
 62
     7
370
    35
100
AcDbCircle
 10
69.5220173603595
 20
384.1867063539785
 30
0.0
 40
8.949999999999999
100
AcDbArc
 50
28.64788999999997
 51
208.6478850000001
  0
LINE
  5
3B7
330
1F
100
AcDbEntity
  8
0
 62
     7
 48
0.024998
370
    35
100
AcDbLine
 10
357.5220173603595
 20
42.71411135397844
 30
0.0
 11
357.5220173603595
 21
43.71405035397844
 31
0.0
  0
LINE
  5
3B8
330
1F
100
AcDbEntity
  8
0
 62
     7
 48
0.036801
370
    35
100
AcDbLine
 10
357.5220173603595
 20
42.71411135397844
 30
0.0
 11
357.5220173603595
 21
41.24206535397845
 31
0.0
  0
LINE
  5
3B9
330
1F
100
AcDbEntity
  8
0
 62
     7
 48
0.024998
370
    35
100
AcDbLine
 10
357.5220173603595
 20
41.24206535397845
 30
0.0
 11
357.5220173603595
 21
40.24215635397844
 31
0.0
  0
LINE
  5
3BA
330
1F
100
AcDbEntity
  8
0
 62
     7
 48
0.001387
370
    35
100
AcDbLine
 10
357.5220173603595
 20
40.24215635397844
 30
0.0
 11
357.5220173603595
 21
40.18667535397844
 31
0.0
  0
LINE
  5
3BB
330
1F
100
AcDbEntity
  8
0
 62
     7
100
AcDbLine
 10
87.52201736035949
 20
307.6867063539785
 30
0.0
 11
339.5220173603596
 21
307.6867063539785
 31
0.0
  0
LINE
  5
3BC
330
1F
100
AcDbEntity
  8
0
 62
     7
100
AcDbLine
 10
339.5220173603596
 20
307.6867063539785
 30
0.0
 11
339.5220173603596
 21
262.6867063539785
 31
0.0
  0
LINE
  5
3BD
330
1F
100
AcDbEntity
  8
0
 62
     7
100
AcDbLine
 10
339.5220173603596
 20
262.6867063539785
 30
0.0
 11
87.52201736035949
 21
262.6867063539785
 31
0.0
  0
LINE
  5
3BE
330
1F
100
AcDbEntity
  8
0
 62
     7
100
AcDbLine
 10
87.52201736035949
 20
262.6867063539785
 30
0.0
 11
87.52201736035949
 21
307.6867063539785
 31
0.0
  0
DIMENSION
  5
3BF
330
1F
100
AcDbEntity
  8
QUOTE
 62
     7
100
AcDbDimension
  2
*D5
 10
31.4086776103595
 20
40.18667535397844
 30
0.0
 11
31.40867761035951
 21
217.7032809339785
 31
0.0
 70
   160
 71
     0
 42
360.000031
  3
Standard
100
AcDbAlignedDimension
 13
71.99274493035949
 23
400.1867063539784
 33
0.0
 14
69.5220173603595
 24
40.18667535397844
 34
0.0
 50
90.0
100
AcDbRotatedDimension
1001
ACAD
1000
DSTYLE
1002
{
1070
    41
1040
15.0
1070
   140
1040
10.0
1070
    78
1070
     8
1070
   284
1070
     8
1002
}
  0
DIMENSION
  5
3C0
330
1F
100
AcDbEntity
  8
QUOTE
 62
     7
100
AcDbDimension
  2
*D6
 10
53.5220173603595
 20
22.22698615397844
 30
0.0
 11
215.1436116503595
 21
22.22698615397844
 31
0.0
 70
   160
 71
     0
 42
320.0000000000001
  3
Standard
100
AcDbAlignedDimension
 13
373.5220173603595
 23
56.18430641397845
 33
0.0
 14
53.5220173603595
 24
56.24917675397845
 34
0.0
100
AcDbRotatedDimension
1001
ACAD
1000
DSTYLE
1002
{
1070
    41
1040
15.0
1070
   140
1040
10.0
1070
    78
1070
     8
1070
   284
1070
     8
1002
}
  0
TEXT
  5
3C1
330
1F
100
AcDbEntity
  8
0
 62
     7
100
AcDbText
 10
82.34757372178806
 20
382.1942836139784
 30
0.0
 40
5.0
  1
GW68005N
 72
     1
 11
101.2761451503595
 21
382.1942836139784
 31
0.0
100
AcDbText
  0
LWPOLYLINE
  5
3C2
330
1F
100
AcDbEntity
  8
0
 62
     7
370
    35
100
AcDbPolyline
 90
        7
 70
     0
 43
0.0
 10
370.9580833603595
 20
377.0877073539784
 10
370.9569233603595
 20
377.0911253539785
 10
370.9546043603595
 20
377.1055903539784
 10
370.9477073603594
 20
377.2083123539785
 10
370.9281763603595
 20
378.0337523539785
 10
370.9054713603594
 20
380.6348263539785
 10
370.8971403603595
 20
384.1867063539785
  0
LWPOLYLINE
  5
3C3
330
1F
100
AcDbEntity
  8
0
 62
     7
370
    35
100
AcDbPolyline
 90
        7
 70
     0
 43
0.0
 10
370.8971403603595
 20
56.18667535397844
 10
370.9109033603595
 20
60.64978035397844
 10
370.9369043603595
 20
62.81500235397844
 10
370.9508813603595
 20
63.22360235397844
 10
370.9556423603595
 20
63.27569535397844
 10
370.9572593603596
 20
63.28350835397845
 10
370.9580833603595
 20
63.28567435397844
  0
LWPOLYLINE
  5
3C4
330
1F
100
AcDbEntity
  8
0
 62
     7
370
    35
100
AcDbPolyline
 90
        7
 70
     0
 43
0.0
 10
56.1468953603595
 20
384.1867063539785
 10
56.1385793603595
 20
380.6348263539785
 10
56.11584436035951
 20
378.0337523539785
 10
56.1032886703595
 20
377.3843486339785
 10
56.1032886703595
 20
377.3843486339785
 10
56.1032886703595
 20
377.3843486339785
 10
56.1032886703595
 20
377.3843486339785
  0
LWPOLYLINE
  5
3C5
330
1F
100
AcDbEntity
  8
0
 62
     7
370
    35
100
AcDbPolyline
 90
        7
 70
     0
 43
0.0
 10
56.0859673603595
 20
63.28567435397844
 10
56.0871723603595
 20
63.28201235397845
 10
56.0895833603595
 20
63.26666235397844
 10
56.0967243603595
 20
63.15667735397845
 10
56.1168513603595
 20
62.27136235397844
 10
56.1391593603595
 20
59.62130735397844
 10
56.1468953603595
 20
56.18667535397844
  0
LWPOLYLINE
  5
3C6
330
1F
100
AcDbEntity
  8
0
 62
     7
370
    35
100
AcDbPolyline
 90
       16
 70
     0
 43
0.0
 10
58.5872631303595
 20
48.73237455397845
 10
58.5872631303595
 20
48.73237455397845
 10
58.5872631303595
 20
48.73237455397845
 10
58.5872631303595
 20
48.73237455397845
 10
58.4339893603595
 20
48.94958435397844
 10
57.9663843603595
 20
49.67260735397844
 10
57.71078436035949
 20
50.11645435397844
 10
57.3305813603595
 20
50.86520335397844
 10
57.1329343603595
 20
51.31048535397845
 10
56.9467313603595
 20
51.77853335397845
 10
56.7211903603595
 20
52.43453935397845
 10
56.5269163603595
 20
53.12277235397845
 10
56.36880436035951
 20
53.83813435397844
 10
56.2467493603595
 20
54.60757435397844
 10
56.1720273603595
 20
55.39331035397844
 10
56.1468953603595
 20
56.18667535397844
  0
LWPOLYLINE
  5
3C7
330
1F
100
AcDbEntity
  8
0
 62
     7
370
    35
100
AcDbPolyline
 90
       16
 70
     0
 43
0.0
 10
370.8971403603595
 20
56.18667535397844
 10
370.8714133603595
 20
55.38394135397844
 10
370.7949973603595
 20
54.58956835397844
 10
370.6701193603596
 20
53.81134035397844
 10
370.5066673603595
 20
53.08163435397844
 10
370.3058313603595
 20
52.38061535397844
 10
370.0727683603596
 20
51.71362235397844
 10
369.8806303603595
 20
51.23870835397844
 10
369.6770773603595
 20
50.78802435397844
 10
369.2848653603595
 20
50.02935735397844
 10
369.0229023603595
 20
49.58267235397844
 10
368.5555563603594
 20
48.87115435397844
 10
368.3080893603595
 20
48.52340635397844
 10
368.2765043603595
 20
48.47625735397844
 10
368.2726283603595
 20
48.46899435397844
 10
368.2719263603595
 20
48.46694935397844
  0
LWPOLYLINE
  5
3C8
330
1F
100
AcDbEntity
  8
0
 62
     7
370
    35
100
AcDbPolyline
 90
       15
 70
     0
 43
0.0
 10
368.2719263603595
 20
391.9064333539784
 10
368.2727193603595
 20
391.9041133539785
 10
368.2774193603596
 20
391.8955683539784
 10
368.3156273603595
 20
391.8392333539784
 10
368.6100303603595
 20
391.4238283539785
 10
369.0928183603595
 20
390.6754753539784
 10
369.3565213603595
 20
390.2144163539785
 10
369.7363423603595
 20
389.4589233539784
 10
370.0879353603596
 20
388.6196893539784
 10
370.3461753603595
 20
387.8634033539785
 10
370.5622703603595
 20
387.0653683539785
 10
370.7288963603595
 20
386.2338253539784
 10
370.8404383603595
 20
385.3777463539784
 10
370.8829183603596
 20
384.7839353539784
 10
370.8971403603595
 20
384.1867063539785
  0
LWPOLYLINE
  5
3C9
330
1F
100
AcDbEntity
  8
0
 62
     7
370
    35
100
AcDbPolyline
 90
       16
 70
     0
 43
0.0
 10
56.1468953603595
 20
384.1867063539785
 10
56.1791223603595
 20
385.0852663539784
 10
56.2746273603595
 20
385.9719233539785
 10
56.42993136035951
 20
386.8359373539785
 10
56.6395103603595
 20
387.6672973539785
 10
56.79675236035951
 20
388.1719353539785
 10
56.9703663603595
 20
388.6574093539784
 10
57.15782136035951
 20
389.1217033539784
 10
57.3562463603595
 20
389.5628663539784
 10
57.7719563603595
 20
390.3668213539785
 10
58.0291433603595
 20
390.8038933539785
 10
58.4884333603595
 20
391.5020753539784
 10
58.6821658003595
 20
391.8460554939785
 10
58.7535301203595
 20
391.9483395439785
 10
58.7535301203595
 20
391.9483395439785
 10
58.7535301203595
 20
391.9483395439785
  0
LWPOLYLINE
  5
3CA
330
1F
100
AcDbEntity
  8
0
 62
     7
370
    35
100
AcDbPolyline
 90
        4
 70
     0
 43
0.0
 10
370.9528343603595
 20
63.19601435397844
 10
370.9256123603595
 20
62.14910835397844
 10
370.9038233603595
 20
59.37789935397844
 10
370.8971703603595
 20
56.18667535397844
  0
LWPOLYLINE
  5
3CB
330
1F
100
AcDbEntity
  8
0
 62
     7
370
    35
100
AcDbPolyline
 90
        4
 70
     0
 43
0.0
 10
370.8971703603595
 20
384.1867063539785
 10
370.9130703603595
 20
379.4439083539785
 10
370.9364163603595
 20
377.5930173539784
 10
370.9529563603595
 20
377.1748653539785
  0
LWPOLYLINE
  5
3CC
330
1F
100
AcDbEntity
  8
0
 62
     7
370
    35
100
AcDbPolyline
 90
        4
 70
     0
 43
0.0
 10
56.1468503603595
 20
56.18667535397844
 10
56.1309653603595
 20
60.92944335397844
 10
56.1076193603595
 20
62.78033435397844
 10
56.09106336035949
 20
63.19848635397844
  0
LWPOLYLINE
  5
3CD
330
1F
100
AcDbEntity
  8
0
 62
     7
370
    35
100
AcDbPolyline
 90
       13
 70
     0
 43
0.0
 10
368.3313743603595
 20
48.55139135397845
 10
368.8574363603596
 20
49.31942735397844
 10
369.2414083603595
 20
49.95208735397844
 10
369.6481473603595
 20
50.72741635397844
 10
370.0409083603595
 20
51.63082835397844
 10
370.2219993603595
 20
52.12658635397843
 10
370.3880153603595
 20
52.64929135397844
 10
370.5355063603595
 20
53.19662435397845
 10
370.6612693603595
 20
53.76586935397845
 10
370.7624653603596
 20
54.35375935397845
 10
370.8366843603595
 20
54.95632935397845
 10
370.8819723603596
 20
55.56896935397844
 10
370.8971703603595
 20
56.18667535397844
  0
LWPOLYLINE
  5
3CE
330
1F
100
AcDbEntity
  8
0
 62
     7
370
    35
100
AcDbPolyline
 90
       14
 70
     0
 43
0.0
 10
370.8971703603595
 20
384.1867063539785
 10
370.8820033603595
 20
384.8035273539784
 10
370.8368673603595
 20
385.4151613539784
 10
370.7628933603595
 20
386.0166623539784
 10
370.6620633603595
 20
386.6036373539785
 10
370.5366353603595
 20
387.1720583539784
 10
370.3896023603595
 20
387.7186883539785
 10
370.2240743603595
 20
388.2407223539784
 10
370.0434713603595
 20
388.7359613539785
 10
369.6516263603595
 20
389.6387323539784
 10
369.2455283603595
 20
390.4140013539784
 10
368.8617393603595
 20
391.0473023539785
 10
368.4004053603595
 20
391.7216183539784
 10
368.3290243603595
 20
391.8253783539784
  0
LWPOLYLINE
  5
3CF
330
1F
100
AcDbEntity
  8
0
 62
     7
370
    35
100
AcDbPolyline
 90
        7
 70
     0
 43
0.0
 10
371.4928733603595
 20
49.52368135397844
 10
371.3333273603595
 20
49.72726435397844
 10
371.1275473603595
 20
49.88275135397844
 10
370.9205773603595
 20
49.97149635397844
 10
370.6506493603594
 20
50.01461735397844
 10
370.2721093603595
 20
50.02008035397844
 10
370.0684353603596
 20
50.02124035397844
  0
LWPOLYLINE
  5
3D0
330
1F
100
AcDbEntity
  8
0
 62
     7
370
    35
100
AcDbPolyline
 90
        6
 70
     0
 43
0.0
 10
373.1736903603595
 20
62.65249635397844
 10
372.9665063603595
 20
62.49349935397845
 10
372.7418973603595
 20
62.39819335397844
 10
372.4726713603595
 20
62.35821535397844
 10
372.0384663603595
 20
62.35247735397845
 10
371.9716633603594
 20
62.35211135397844
  0
LWPOLYLINE
  5
3D1
330
1F
100
AcDbEntity
  8
0
 62
     7
370
    35
100
AcDbPolyline
 90
        7
 70
     0
 43
0.0
 10
56.9755853603595
 20
50.02124035397844
 10
56.4243153603595
 20
50.01562435397843
 10
56.22058036035951
 20
49.99551335397844
 10
56.0189663603595
 20
49.93359335397844
 10
55.8107293603595
 20
49.81329335397845
 10
55.6289213603595
 20
49.63647435397844
 10
55.5562123603595
 20
49.53210435397844
  0
LWPOLYLINE
  5
3D2
330
1F
100
AcDbEntity
  8
0
 62
     7
370
    35
100
AcDbPolyline
 90
        6
 70
     0
 43
0.0
 10
55.0723713603595
 20
62.35211135397844
 10
54.5814813603595
 20
62.35784935397845
 10
54.4078513603595
 20
62.37393135397844
 10
54.1883383603595
 20
62.43838435397844
 10
53.9688713603595
 20
62.56610035397844
 10
53.8703453603595
 20
62.65249635397844
  0
LWPOLYLINE
  5
3D3
330
1F
100
AcDbEntity
  8
0
 62
     7
370
    35
100
AcDbPolyline
 90
        6
 70
     0
 43
0.0
 10
371.9716633603594
 20
378.0212403539784
 10
372.4625693603595
 20
378.0155023539785
 10
372.6361843603595
 20
377.9994503539784
 10
372.8556973603595
 20
377.9349973539785
 10
373.0751493603595
 20
377.8072503539785
 10
373.1736903603595
 20
377.7208863539785
  0
LWPOLYLINE
  5
3D4
330
1F
100
AcDbEntity
  8
0
 62
     7
370
    35
100
AcDbPolyline
 90
        7
 70
     0
 43
0.0
 10
371.4878073603595
 20
390.8412473539785
 10
371.3297873603595
 20
390.6426393539785
 10
371.1275473603595
 20
390.4906003539785
 10
370.9205463603595
 20
390.4018553539785
 10
370.6506493603594
 20
390.3587033539784
 10
370.2721093603595
 20
390.3532713539785
 10
370.0684353603596
 20
390.3521113539785
  0
LWPOLYLINE
  5
3D5
330
1F
100
AcDbEntity
  8
0
 62
     7
370
    35
100
AcDbPolyline
 90
        7
 70
     0
 43
0.0
 10
55.5562123603595
 20
390.8412473539785
 10
55.71423236035951
 20
390.6426393539785
 10
55.9164883603595
 20
390.4906003539785
 10
56.12347336035949
 20
390.4018553539785
 10
56.39340136035951
 20
390.3587033539784
 10
56.7719263603595
 20
390.3532713539785
 10
56.9755853603595
 20
390.3521113539785
  0
LWPOLYLINE
  5
3D6
330
1F
100
AcDbEntity
  8
0
 62
     7
370
    35
100
AcDbPolyline
 90
        6
 70
     0
 43
0.0
 10
55.0723873603595
 20
378.0212403539784
 10
54.5814663603595
 20
378.0155023539785
 10
54.4078513603595
 20
377.9994503539784
 10
54.1883383603595
 20
377.9349973539785
 10
53.9688713603595
 20
377.8072503539785
 10
53.8703453603595
 20
377.7208863539785
  0
LWPOLYLINE
  5
3D7
330
1F
100
AcDbEntity
  8
0
 62
   253
370
    35
100
AcDbPolyline
 90
        9
 70
     0
 43
0.0
 10
354.7870323603595
 20
330.3151243539785
 10
354.9167933603595
 20
330.2980343539784
 10
355.0373073603595
 20
330.2480463539784
 10
355.1432643603595
 20
330.1661983539784
 10
355.2208393603595
 20
330.0643913539784
 10
355.2799833603596
 20
329.9055783539784
 10
355.2974393603595
 20
329.7018433539784
 10
355.3104393603595
 20
328.9898073539784
 10
355.3132163603596
 20
328.3151243539785
  0
LWPOLYLINE
  5
3D8
330
1F
100
AcDbEntity
  8
0
 62
   253
370
    35
100
AcDbPolyline
 90
        9
 70
     0
 43
0.0
 10
71.7308193603595
 20
328.3151243539785
 10
71.7414083603595
 20
329.5260613539785
 10
71.7535093603595
 20
329.8265373539785
 10
71.77912836035949
 20
329.9645383539785
 10
71.8231803603595
 20
330.0643913539784
 10
71.90075636035951
 20
330.1661983539784
 10
72.00674336035951
 20
330.2480463539784
 10
72.1272423603595
 20
330.2980343539784
 10
72.2570033603595
 20
330.3151243539785
  0
LWPOLYLINE
  5
3D9
330
1F
100
AcDbEntity
  8
0
 62
   253
370
    35
100
AcDbPolyline
 90
       16
 70
     0
 43
0.0
 10
159.3580923603595
 20
223.9303583539784
 10
160.0754543603595
 20
223.4971923539784
 10
160.8312063603595
 20
223.0647583539784
 10
162.0568233603595
 20
222.4122923539785
 10
163.3100583603595
 20
221.8042603539784
 10
164.5891713603595
 20
221.2420653539784
 10
165.8904563603595
 20
220.7278743539784
 10
167.2098533603595
 20
220.2636103539784
 10
168.5425253603595
 20
219.8509823539784
 10
169.9097133603595
 20
219.4846193539785
 10
171.2893213603595
 20
219.1718443539785
 10
172.6801293603595
 20
218.9130853539784
 10
174.0816033603595
 20
218.7088313539784
 10
175.5593403603595
 20
218.5540463539784
 10
177.0413963603595
 20
218.4609373539784
 10
178.5220173603595
 20
218.4299313539785
  0
LWPOLYLINE
  5
3DA
330
1F
100
AcDbEntity
  8
0
 62
   253
370
    35
100
AcDbPolyline
 90
        8
 70
     0
 43
0.0
 10
159.3580923603595
 20
223.9303583539784
 10
159.1389913603595
 20
224.1052853539784
 10
158.9350883603595
 20
224.3529663539785
 10
158.7752373603595
 20
224.6389763539784
 10
158.7130123603595
 20
224.8281243539784
 10
158.6994773603595
 20
224.9632563539784
 10
158.7126913603595
 20
225.0501093539785
 10
158.8021083603595
 20
225.1807863539784
  0
LWPOLYLINE
  5
3DB
330
1F
100
AcDbEntity
  8
0
 62
   253
370
    35
100
AcDbPolyline
 90
        8
 70
     0
 43
0.0
 10
267.6859273603595
 20
223.9303583539784
 10
267.9075773603595
 20
224.1078183539785
 10
268.1113733603595
 20
224.3565063539784
 10
268.2704003603595
 20
224.6427003539785
 10
268.3317713603595
 20
224.8317253539784
 10
268.3444363603595
 20
224.9668273539784
 10
268.3301533603595
 20
225.0540463539784
 10
268.2419273603595
 20
225.1807863539784
  0
LWPOLYLINE
  5
3DC
330
1F
100
AcDbEntity
  8
0
 62
   253
370
    35
100
AcDbPolyline
 90
       17
 70
     0
 43
0.0
 10
267.6859273603595
 20
223.9303583539784
 10
266.9917753603595
 20
223.5108643539784
 10
265.7913053603595
 20
222.8336793539785
 10
264.5618433603595
 20
222.1994013539784
 10
263.2976523603595
 20
221.6060173539784
 10
262.0091703603595
 20
221.0595093539784
 10
260.6994163603594
 20
220.5616753539784
 10
259.3730923603595
 20
220.1145323539784
 10
258.0380093603595
 20
219.7203973539785
 10
256.6914823603595
 20
219.3780513539784
 10
255.3424213603595
 20
219.0892633539784
 10
253.9820393603595
 20
218.8518673539785
 10
252.6121053603595
 20
218.6665343539785
 10
251.5911093603595
 20
218.5631403539785
 10
250.5678553603595
 20
218.4891353539784
 10
249.5441123603595
 20
218.4447323539785
 10
248.5220173603595
 20
218.4299313539785
  0
LWPOLYLINE
  5
3DD
330
1F
100
AcDbEntity
  8
0
 62
   253
370
    35
100
AcDbPolyline
 90
        5
 70
     0
 43
0.0
 10
203.5832663603595
 20
218.3175653539784
 10
203.5587003603595
 20
218.3642273539784
 10
203.5109403603595
 20
218.4021913539785
 10
203.3580773603595
 20
218.4372863539784
 10
203.3188623603595
 20
218.4356993539784
  0
LWPOLYLINE
  5
3DE
330
1F
100
AcDbEntity
  8
0
 62
   253
370
    35
100
AcDbPolyline
 90
        5
 70
     0
 43
0.0
 10
223.4607693603595
 20
218.3175653539784
 10
223.4853353603595
 20
218.3642273539784
 10
223.5330653603595
 20
218.4021913539785
 10
223.6859583603595
 20
218.4372863539784
 10
223.7251733603595
 20
218.4356993539784
  0
LWPOLYLINE
  5
3DF
330
1F
100
AcDbEntity
  8
0
 62
   253
370
    35
100
AcDbPolyline
 90
        4
 70
     0
 43
0.0
 10
178.5220173603595
 20
231.0009153539784
 10
174.6113423603595
 20
231.0349423539785
 10
170.7309103603595
 20
231.0981133539784
 10
170.0308983603595
 20
231.1049493539784
  0
LWPOLYLINE
  5
3E0
330
1F
100
AcDbEntity
  8
0
 62
   253
370
    35
100
AcDbPolyline
 90
        4
 70
     0
 43
0.0
 10
257.0131373603595
 20
231.1049493539784
 10
253.8486473603595
 20
231.0589593539785
 10
249.9456323603595
 20
231.0057983539784
 10
248.5220173603595
 20
231.0009153539784
  0
LWPOLYLINE
  5
3E1
330
1F
100
AcDbEntity
  8
0
 62
   253
370
    35
100
AcDbPolyline
 90
       13
 70
     0
 43
0.0
 10
160.2233273603595
 20
224.8754273539784
 10
160.4626613603595
 20
224.7657163539784
 10
160.7530053603595
 20
224.6505123539785
 10
161.5377033603595
 20
224.3863523539785
 10
162.7839963603595
 20
224.0319513539784
 10
164.5473013603595
 20
223.5966493539784
 10
166.6677543603595
 20
223.1444703539784
 10
168.6643363603595
 20
222.7850953539785
 10
170.6576993603595
 20
222.4912103539784
 10
172.6656943603595
 20
222.2616883539785
 10
174.7060083603595
 20
222.0972283539784
 10
176.7794033603595
 20
222.0012513539785
 10
178.5220173603595
 20
221.9760133539784
  0
LWPOLYLINE
  5
3E2
330
1F
100
AcDbEntity
  8
0
 62
   253
370
    35
100
AcDbPolyline
 90
       13
 70
     0
 43
0.0
 10
248.5220173603595
 20
221.9760133539784
 10
250.6128683603595
 20
222.0123593539784
 10
252.6812583603595
 20
222.1200253539784
 10
254.7155903603595
 20
222.2955623539784
 10
256.7193143603595
 20
222.5357663539784
 10
258.7128133603595
 20
222.8405453539785
 10
260.7087853603595
 20
223.2105713539784
 10
262.4968713603595
 20
223.5966793539784
 10
264.2600553603595
 20
224.0319513539784
 10
265.5063623603595
 20
224.3863523539785
 10
266.2910303603595
 20
224.6505123539785
 10
266.5813743603595
 20
224.7657163539784
 10
266.8206933603595
 20
224.8754273539784
  0
INSERT
  5
3E3
330
1F
100
AcDbEntity
  8
0
 62
    56
100
AcDbBlockReference
  2
IEC_309_16-32
 10
40.6491203803595
 20
70.23389801397843
 30
0.0
  0
INSERT
  5
3E4
330
1F
100
AcDbEntity
  8
0
 62
    56
100
AcDbBlockReference
  2
IEC_309_16-32
 10
141.7266496703595
 20
70.23389801397843
 30
0.0
 41
1.021052009999998
  0
INSERT
  5
3E5
330
1F
100
AcDbEntity
  8
0
 62
    56
100
AcDbBlockReference
  2
IEC_309_16-32
 10
247.3488203803595
 20
70.23389801397843
 30
0.0
  0
ENDSEC
  0
SECTION
  2
OBJECTS
  0
DICTIONARY
  5
C
330
0
100
AcDbDictionary
281
     1
  3
ACAD_COLOR
350
73
  3
ACAD_GROUP
350
D
  3
ACAD_LAYOUT
350
1A
  3
ACAD_MATERIAL
350
72
  3
ACAD_MLEADERSTYLE
350
D7
  3
ACAD_MLINESTYLE
350
17
  3
ACAD_PLOTSETTINGS
350
19
  3
ACAD_PLOTSTYLENAME
350
E
  3
ACAD_SCALELIST
350
B6
  3
ACAD_TABLESTYLE
350
86
  3
ACAD_VISUALSTYLE
350
99
  3
ACDB_RECOMPOSE_DATA
350
FF
  3
AcDbVariableDictionary
350
66
  3
DWGPROPS
350
424
  0
DICTIONARY
  5
E6
330
10
100
AcDbDictionary
280
     1
281
     1
  3
ADSK_XREC_LAYER_RECONCILED
360
418
  0
DICTIONARY
  5
419
330
174
100
AcDbDictionary
280
     1
281
     1
  3
ADSK_XREC_LAYER_RECONCILED
360
41A
  0
DICTIONARY
  5
41B
330
175
100
AcDbDictionary
280
     1
281
     1
  3
ADSK_XREC_LAYER_RECONCILED
360
41C
  0
DICTIONARY
  5
41D
330
176
100
AcDbDictionary
280
     1
281
     1
  3
ADSK_XREC_LAYER_RECONCILED
360
41E
  0
DICTIONARY
  5
73
102
{ACAD_REACTORS
330
C
102
}
330
C
100
AcDbDictionary
281
     1
  0
DICTIONARY
  5
D
102
{ACAD_REACTORS
330
C
102
}
330
C
100
AcDbDictionary
281
     1
  0
DICTIONARY
  5
1A
102
{ACAD_REACTORS
330
C
102
}
330
C
100
AcDbDictionary
281
     1
  3
Layout1
350
59
  3
Layout2
350
5E
  3
Model
350
22
  0
DICTIONARY
  5
72
102
{ACAD_REACTORS
330
C
102
}
330
C
100
AcDbDictionary
281
     1
  3
ByBlock
350
97
  3
ByLayer
350
96
  3
Global
350
98
  0
DICTIONARY
  5
D7
102
{ACAD_REACTORS
330
C
102
}
330
C
100
AcDbDictionary
281
     1
  3
Annotativa
350
E5
  3
Standard
350
D8
  0
DICTIONARY
  5
17
102
{ACAD_REACTORS
330
C
102
}
330
C
100
AcDbDictionary
281
     1
  3
Standard
350
18
  0
DICTIONARY
  5
19
102
{ACAD_REACTORS
330
C
102
}
330
C
100
AcDbDictionary
281
     1
  0
ACDBDICTIONARYWDFLT
  5
E
102
{ACAD_REACTORS
330
C
102
}
330
C
100
AcDbDictionary
281
     1
  3
Normal
350
F
100
AcDbDictionaryWithDefault
340
F
  0
DICTIONARY
  5
B6
102
{ACAD_REACTORS
330
C
102
}
330
C
100
AcDbDictionary
281
     1
  3
A0
350
B7
  3
A1
350
124
  3
A2
350
125
  3
A3
350
126
  3
A4
350
127
  3
A5
350
128
  3
A6
350
129
  3
A7
350
12A
  3
A8
350
12B
  3
A9
350
12C
  3
B0
350
12D
  3
B1
350
12E
  3
B2
350
12F
  3
B3
350
130
  3
B4
350
131
  3
B5
350
132
  3
B6
350
133
  3
B7
350
134
  3
B8
350
135
  3
B9
350
136
  3
C0
350
137
  3
C1
350
138
  3
C2
350
139
  3
C3
350
13A
  3
C4
350
13B
  3
C5
350
13C
  3
C6
350
13D
  3
C7
350
13E
  3
C8
350
13F
  3
C9
350
140
  3
D0
350
141
  3
D1
350
142
  3
D2
350
143
  0
DICTIONARY
  5
86
102
{ACAD_REACTORS
330
C
102
}
330
C
100
AcDbDictionary
281
     1
  3
Standard
350
87
  0
DICTIONARY
  5
99
102
{ACAD_REACTORS
330
C
102
}
330
C
100
AcDbDictionary
281
     1
  3
2dWireframe
350
9F
  3
3D Hidden
350
A1
  3
3dWireframe
350
A0
  3
Basic
350
9E
  3
Brighten
350
A5
  3
ColorChange
350
A9
  3
Conceptual
350
A2
  3
Dim
350
A4
  3
Facepattern
350
A8
  3
Flat
350
9A
  3
FlatWithEdges
350
9B
  3
Gouraud
350
9C
  3
GouraudWithEdges
350
9D
  3
Linepattern
350
A7
  3
Realistic
350
A3
  3
Thicken
350
A6
  0
XRECORD
  5
FF
102
{ACAD_REACTORS
330
C
102
}
330
C
100
AcDbXrecord
280
     1
 90
        1
330
87
  0
DICTIONARY
  5
66
102
{ACAD_REACTORS
330
C
102
}
330
C
100
AcDbDictionary
281
     1
  3
CANNOSCALE
350
F0
  3
CMLEADERSTYLE
350
EF
  3
CTABLESTYLE
350
89
  3
DIMASSOC
350
67
  3
HIDETEXT
350
6B
  3
INDEXCTL
350
422
  3
LIGHTINGUNITS
350
420
  3
MSLTSCALE
350
41F
  3
SORTENTS
350
421
  0
XRECORD
  5
424
102
{ACAD_REACTORS
330
C
102
}
330
C
100
AcDbXrecord
280
     1
  1
DWGPROPS COOKIE
  2

  3

  4

  6

  7

  8
fontanaNZ
  9

300
=
301
=
302
=
303
=
304
=
305
=
306
=
307
=
308
=
309
=
 40
0.0001661111111111
 41
2455511.358716204
 42
2455511.35888213
  1

 90
        0
  0
XRECORD
  5
418
102
{ACAD_REACTORS
330
E6
102
}
330
E6
100
AcDbXrecord
280
     1
290
     1
  0
XRECORD
  5
41A
102
{ACAD_REACTORS
330
419
102
}
330
419
100
AcDbXrecord
280
     1
290
     1
  0
XRECORD
  5
41C
102
{ACAD_REACTORS
330
41B
102
}
330
41B
100
AcDbXrecord
280
     1
290
     1
  0
XRECORD
  5
41E
102
{ACAD_REACTORS
330
41D
102
}
330
41D
100
AcDbXrecord
280
     1
290
     1
  0
LAYOUT
  5
59
102
{ACAD_XDICTIONARY
360
427
102
}
102
{ACAD_REACTORS
330
1A
102
}
330
1A
100
AcDbPlotSettings
  1

  2
None
  4

  6

 40
0.0
 41
0.0
 42
0.0
 43
0.0
 44
0.0
 45
0.0
 46
0.0
 47
0.0
 48
0.0
 49
0.0
140
0.0
141
0.0
142
1.0
143
1.0
 70
   688
 72
     0
 73
     0
 74
     5
  7

 75
    16
147
1.0
148
0.0
149
0.0
100
AcDbLayout
  1
Layout1
 70
     1
 71
     1
 10
0.0
 20
0.0
 11
12.0
 21
9.0
 12
0.0
 22
0.0
 32
0.0
 14
0.0
 24
0.0
 34
0.0
 15
0.0
 25
0.0
 35
0.0
146
0.0
 13
0.0
 23
0.0
 33
0.0
 16
1.0
 26
0.0
 36
0.0
 17
0.0
 27
1.0
 37
0.0
 76
     0
330
58
  0
LAYOUT
  5
5E
102
{ACAD_XDICTIONARY
360
429
102
}
102
{ACAD_REACTORS
330
1A
102
}
330
1A
100
AcDbPlotSettings
  1

  2
None
  4

  6

 40
0.0
 41
0.0
 42
0.0
 43
0.0
 44
0.0
 45
0.0
 46
0.0
 47
0.0
 48
0.0
 49
0.0
140
0.0
141
0.0
142
1.0
143
1.0
 70
   688
 72
     0
 73
     0
 74
     5
  7

 75
    16
147
1.0
148
0.0
149
0.0
100
AcDbLayout
  1
Layout2
 70
     1
 71
     2
 10
0.0
 20
0.0
 11
12.0
 21
9.0
 12
0.0
 22
0.0
 32
0.0
 14
0.0
 24
0.0
 34
0.0
 15
0.0
 25
0.0
 35
0.0
146
0.0
 13
0.0
 23
0.0
 33
0.0
 16
1.0
 26
0.0
 36
0.0
 17
0.0
 27
1.0
 37
0.0
 76
     0
330
5D
  0
LAYOUT
  5
22
102
{ACAD_XDICTIONARY
360
425
102
}
102
{ACAD_REACTORS
330
1A
102
}
330
1A
100
AcDbPlotSettings
  1

  2
none_device
  4
ANSI_A_(8.50_x_11.00_Inches)
  6

 40
6.349999904632568
 41
19.04999923706055
 42
6.350006103515625
 43
19.04998779296875
 44
215.8999938964844
 45
279.3999938964844
 46
0.0
 47
0.0
 48
0.0
 49
0.0
140
0.0
141
0.0
142
1.0
143
2.584895464708373
 70
 11952
 72
     0
 73
     1
 74
     0
  7

 75
     0
147
0.3868628397755418
148
0.0
149
0.0
100
AcDbLayout
  1
Model
 70
     1
 71
     0
 10
0.0
 20
0.0
 11
12.0
 21
9.0
 12
0.0
 22
0.0
 32
0.0
 14
0.0
 24
0.0
 34
0.0
 15
0.0
 25
0.0
 35
0.0
146
0.0
 13
0.0
 23
0.0
 33
0.0
 16
1.0
 26
0.0
 36
0.0
 17
0.0
 27
1.0
 37
0.0
 76
     0
330
1F
331
94
  0
MATERIAL
  5
97
102
{ACAD_XDICTIONARY
360
42E
102
}
102
{ACAD_REACTORS
330
72
102
}
330
72
100
AcDbMaterial
  1
ByBlock
  0
MATERIAL
  5
96
102
{ACAD_XDICTIONARY
360
42C
102
}
102
{ACAD_REACTORS
330
72
102
}
330
72
100
AcDbMaterial
  1
ByLayer
  0
MATERIAL
  5
98
102
{ACAD_XDICTIONARY
360
110
102
}
102
{ACAD_REACTORS
330
72
102
}
330
72
100
AcDbMaterial
  1
Global
 43
0.0208000000566244
 43
0.0
 43
0.0
 43
0.0
 43
0.0
 43
0.0208000000566244
 43
0.0
 43
0.0
 43
0.0
 43
0.0
 43
1.0
 43
0.0
 43
0.0
 43
0.0
 43
0.0
 43
1.0
 49
0.0208000000566244
 49
0.0
 49
0.0
 49
0.0
 49
0.0
 49
0.0208000000566244
 49
0.0
 49
0.0
 49
0.0
 49
0.0
 49
1.0
 49
0.0
 49
0.0
 49
0.0
 49
0.0
 49
1.0
142
0.0208000000566244
142
0.0
142
0.0
142
0.0
142
0.0
142
0.0208000000566244
142
0.0
142
0.0
142
0.0
142
0.0
142
1.0
142
0.0
142
0.0
142
0.0
142
0.0
142
1.0
144
0.0208000000566244
144
0.0
144
0.0
144
0.0
144
0.0
144
0.0208000000566244
144
0.0
144
0.0
144
0.0
144
0.0
144
1.0
144
0.0
144
0.0
144
0.0
144
0.0
144
1.0
1001
ACAD
1070
    -1
1070
     3
1070
     0
1000

1071
        0
1070
     0
  0
MLEADERSTYLE
  5
E5
102
{ACAD_REACTORS
330
D7
102
}
330
D7
100
AcDbMLeaderStyle
170
     2
171
     1
172
     0
 90
        2
 40
0.0
 41
0.0
173
     1
 91
-1056964608
340
14
 92
       -2
290
     1
 42
0.09
291
     1
 43
0.36
  3
Standard
 44
0.18
300

342
11
174
     1
178
     1
175
     1
176
     0
 93
-1056964608
 45
0.18
292
     0
297
     0
 46
0.18
 94
-1056964608
 47
1.0
 49
1.0
140
1.0
293
     1
141
0.0
294
     1
177
     0
142
1.0
295
     0
296
     1
143
0.125
1001
ACAD_MLEADERVER
1070
     2
  0
MLEADERSTYLE
  5
D8
102
{ACAD_REACTORS
330
D7
102
}
330
D7
100
AcDbMLeaderStyle
170
     2
171
     1
172
     0
 90
        2
 40
0.0
 41
0.0
173
     1
 91
-1056964608
340
14
 92
       -2
290
     1
 42
0.09
291
     1
 43
0.36
  3
Standard
 44
0.18
300

342
11
174
     1
178
     1
175
     1
176
     0
 93
-1056964608
 45
0.18
292
     0
297
     0
 46
0.18
 94
-1056964608
 47
1.0
 49
1.0
140
1.0
293
     1
141
0.0
294
     1
177
     0
142
1.0
295
     0
296
     0
143
0.125
1001
ACAD_MLEADERVER
1070
     2
  0
MLINESTYLE
  5
18
102
{ACAD_REACTORS
330
17
102
}
330
17
100
AcDbMlineStyle
  2
STANDARD
 70
     0
  3

 62
   256
 51
90.0
 52
90.0
 71
     2
 49
0.5
 62
   256
  6
BYLAYER
 49
-0.5
 62
   256
  6
BYLAYER
  0
ACDBPLACEHOLDER
  5
F
102
{ACAD_REACTORS
330
E
102
}
330
E
  0
SCALE
  5
B7
102
{ACAD_REACTORS
330
B6
102
}
330
B6
100
AcDbScale
 70
     0
300
1:1
140
1.0
141
1.0
290
     1
  0
SCALE
  5
124
102
{ACAD_REACTORS
330
B6
102
}
330
B6
100
AcDbScale
 70
     0
300
1:2
140
1.0
141
2.0
290
     0
  0
SCALE
  5
125
102
{ACAD_REACTORS
330
B6
102
}
330
B6
100
AcDbScale
 70
     0
300
1:4
140
1.0
141
4.0
290
     0
  0
SCALE
  5
126
102
{ACAD_REACTORS
330
B6
102
}
330
B6
100
AcDbScale
 70
     0
300
1:5
140
1.0
141
5.0
290
     0
  0
SCALE
  5
127
102
{ACAD_REACTORS
330
B6
102
}
330
B6
100
AcDbScale
 70
     0
300
1:8
140
1.0
141
8.0
290
     0
  0
SCALE
  5
128
102
{ACAD_REACTORS
330
B6
102
}
330
B6
100
AcDbScale
 70
     0
300
1:10
140
1.0
141
10.0
290
     0
  0
SCALE
  5
129
102
{ACAD_REACTORS
330
B6
102
}
330
B6
100
AcDbScale
 70
     0
300
1:16
140
1.0
141
16.0
290
     0
  0
SCALE
  5
12A
102
{ACAD_REACTORS
330
B6
102
}
330
B6
100
AcDbScale
 70
     0
300
1:20
140
1.0
141
20.0
290
     0
  0
SCALE
  5
12B
102
{ACAD_REACTORS
330
B6
102
}
330
B6
100
AcDbScale
 70
     0
300
1:30
140
1.0
141
30.0
290
     0
  0
SCALE
  5
12C
102
{ACAD_REACTORS
330
B6
102
}
330
B6
100
AcDbScale
 70
     0
300
1:40
140
1.0
141
40.0
290
     0
  0
SCALE
  5
12D
102
{ACAD_REACTORS
330
B6
102
}
330
B6
100
AcDbScale
 70
     0
300
1:50
140
1.0
141
50.0
290
     0
  0
SCALE
  5
12E
102
{ACAD_REACTORS
330
B6
102
}
330
B6
100
AcDbScale
 70
     0
300
1:100
140
1.0
141
100.0
290
     0
  0
SCALE
  5
12F
102
{ACAD_REACTORS
330
B6
102
}
330
B6
100
AcDbScale
 70
     0
300
2:1
140
2.0
141
1.0
290
     0
  0
SCALE
  5
130
102
{ACAD_REACTORS
330
B6
102
}
330
B6
100
AcDbScale
 70
     0
300
4:1
140
4.0
141
1.0
290
     0
  0
SCALE
  5
131
102
{ACAD_REACTORS
330
B6
102
}
330
B6
100
AcDbScale
 70
     0
300
8:1
140
8.0
141
1.0
290
     0
  0
SCALE
  5
132
102
{ACAD_REACTORS
330
B6
102
}
330
B6
100
AcDbScale
 70
     0
300
10:1
140
10.0
141
1.0
290
     0
  0
SCALE
  5
133
102
{ACAD_REACTORS
330
B6
102
}
330
B6
100
AcDbScale
 70
     0
300
100:1
140
100.0
141
1.0
290
     0
  0
SCALE
  5
134
102
{ACAD_REACTORS
330
B6
102
}
330
B6
100
AcDbScale
 70
     0
300
1/128" = 1'-0"
140
0.0078125
141
12.0
290
     0
  0
SCALE
  5
135
102
{ACAD_REACTORS
330
B6
102
}
330
B6
100
AcDbScale
 70
     0
300
1/64" = 1'-0"
140
0.015625
141
12.0
290
     0
  0
SCALE
  5
136
102
{ACAD_REACTORS
330
B6
102
}
330
B6
100
AcDbScale
 70
     0
300
1/32" = 1'-0"
140
0.03125
141
12.0
290
     0
  0
SCALE
  5
137
102
{ACAD_REACTORS
330
B6
102
}
330
B6
100
AcDbScale
 70
     0
300
1/16" = 1'-0"
140
0.0625
141
12.0
290
     0
  0
SCALE
  5
138
102
{ACAD_REACTORS
330
B6
102
}
330
B6
100
AcDbScale
 70
     0
300
3/32" = 1'-0"
140
0.09375
141
12.0
290
     0
  0
SCALE
  5
139
102
{ACAD_REACTORS
330
B6
102
}
330
B6
100
AcDbScale
 70
     0
300
1/8" = 1'-0"
140
0.125
141
12.0
290
     0
  0
SCALE
  5
13A
102
{ACAD_REACTORS
330
B6
102
}
330
B6
100
AcDbScale
 70
     0
300
3/16" = 1'-0"
140
0.1875
141
12.0
290
     0
  0
SCALE
  5
13B
102
{ACAD_REACTORS
330
B6
102
}
330
B6
100
AcDbScale
 70
     0
300
1/4" = 1'-0"
140
0.25
141
12.0
290
     0
  0
SCALE
  5
13C
102
{ACAD_REACTORS
330
B6
102
}
330
B6
100
AcDbScale
 70
     0
300
3/8" = 1'-0"
140
0.375
141
12.0
290
     0
  0
SCALE
  5
13D
102
{ACAD_REACTORS
330
B6
102
}
330
B6
100
AcDbScale
 70
     0
300
1/2" = 1'-0"
140
0.5
141
12.0
290
     0
  0
SCALE
  5
13E
102
{ACAD_REACTORS
330
B6
102
}
330
B6
100
AcDbScale
 70
     0
300
3/4" = 1'-0"
140
0.75
141
12.0
290
     0
  0
SCALE
  5
13F
102
{ACAD_REACTORS
330
B6
102
}
330
B6
100
AcDbScale
 70
     0
300
1" = 1'-0"
140
1.0
141
12.0
290
     0
  0
SCALE
  5
140
102
{ACAD_REACTORS
330
B6
102
}
330
B6
100
AcDbScale
 70
     0
300
1-1/2" = 1'-0"
140
1.5
141
12.0
290
     0
  0
SCALE
  5
141
102
{ACAD_REACTORS
330
B6
102
}
330
B6
100
AcDbScale
 70
     0
300
3" = 1'-0"
140
3.0
141
12.0
290
     0
  0
SCALE
  5
142
102
{ACAD_REACTORS
330
B6
102
}
330
B6
100
AcDbScale
 70
     0
300
6" = 1'-0"
140
6.0
141
12.0
290
     0
  0
SCALE
  5
143
102
{ACAD_REACTORS
330
B6
102
}
330
B6
100
AcDbScale
 70
     0
300
1'-0" = 1'-0"
140
12.0
141
12.0
290
     0
  0
TABLESTYLE
  5
87
102
{ACAD_XDICTIONARY
360
104
102
}
102
{ACAD_REACTORS
330
86
102
}
330
86
100
AcDbTableStyle
  3
Standard
 70
     0
 71
     0
 40
0.06
 41
0.06
280
     0
281
     0
  7
Standard
140
0.18
170
     2
 62
     0
 63
     7
283
     0
274
    -2
284
     1
 64
     0
275
    -2
285
     1
 65
     0
276
    -2
286
     1
 66
     0
277
    -2
287
     1
 67
     0
278
    -2
288
     1
 68
     0
279
    -2
289
     1
 69
     0
  7
Standard
140
0.25
170
     5
 62
     0
 63
     7
283
     0
274
    -2
284
     1
 64
     0
275
    -2
285
     1
 65
     0
276
    -2
286
     1
 66
     0
277
    -2
287
     1
 67
     0
278
    -2
288
     1
 68
     0
279
    -2
289
     1
 69
     0
  7
Standard
140
0.18
170
     5
 62
     0
 63
     7
283
     0
274
    -2
284
     1
 64
     0
275
    -2
285
     1
 65
     0
276
    -2
286
     1
 66
     0
277
    -2
287
     1
 67
     0
278
    -2
288
     1
 68
     0
279
    -2
289
     1
 69
     0
  0
VISUALSTYLE
  5
9F
102
{ACAD_REACTORS
330
99
102
}
330
99
100
AcDbVisualStyle
  2
2dWireframe
 70
     4
 71
     0
 72
     2
 73
     1
 90
        0
 40
-0.6
 41
-30.0
 62
     5
 63
     7
 74
     1
 91
        4
 64
     7
 65
   257
 75
     1
175
     1
 42
1.0
 92
        0
 66
   257
 43
1.0
 76
     1
 77
     6
 78
     2
 67
     7
 79
     5
170
     0
171
     0
290
     0
174
     0
 93
        1
 44
0.0
173
     0
291
     0
 45
0.0
1001
ACAD
1000
AcDbSavedByObjectVersion
1070
     0
  0
VISUALSTYLE
  5
A1
102
{ACAD_REACTORS
330
99
102
}
330
99
100
AcDbVisualStyle
  2
3D Hidden
 70
     6
 71
     1
 72
     2
 73
     2
 90
        0
 40
-0.6
 41
-30.0
 62
     5
 63
     7
 74
     2
 91
        2
 64
     7
 65
   257
 75
     2
175
     1
 42
40.0
 92
        0
 66
   257
 43
1.0
 76
     1
 77
     6
 78
     2
 67
     7
 79
     3
170
     0
171
     0
290
     0
174
     0
 93
        1
 44
0.0
173
     0
291
     0
 45
0.0
1001
ACAD
1000
AcDbSavedByObjectVersion
1070
     0
  0
VISUALSTYLE
  5
A0
102
{ACAD_REACTORS
330
99
102
}
330
99
100
AcDbVisualStyle
  2
3dWireframe
 70
     5
 71
     0
 72
     2
 73
     1
 90
        0
 40
-0.6
 41
-30.0
 62
     5
 63
     7
 74
     1
 91
        4
 64
     7
 65
   257
 75
     1
175
     1
 42
1.0
 92
        0
 66
   257
 43
1.0
 76
     1
 77
     6
 78
     2
 67
     7
 79
     5
170
     0
171
     0
290
     0
174
     0
 93
        1
 44
0.0
173
     0
291
     0
 45
0.0
1001
ACAD
1000
AcDbSavedByObjectVersion
1070
     0
  0
VISUALSTYLE
  5
9E
102
{ACAD_REACTORS
330
99
102
}
330
99
100
AcDbVisualStyle
  2
Basic
 70
     7
 71
     1
 72
     0
 73
     1
 90
        0
 40
-0.6
 41
-30.0
 62
     5
 63
     7
 74
     0
 91
        4
 64
     7
 65
   257
 75
     1
175
     1
 42
1.0
 92
        8
 66
     7
 43
1.0
 76
     1
 77
     6
 78
     2
 67
     7
 79
     5
170
     0
171
     0
290
     0
174
     0
 93
        1
 44
0.0
173
     0
291
     1
 45
0.0
1001
ACAD
1000
AcDbSavedByObjectVersion
1070
     0
  0
VISUALSTYLE
  5
A5
102
{ACAD_REACTORS
330
99
102
}
330
99
100
AcDbVisualStyle
  2
Brighten
 70
    12
 71
     2
 72
     2
 73
     1
 90
        0
 40
-0.6
 41
-30.0
 62
     5
 63
     7
 74
     1
 91
        4
 64
     7
 65
   257
 75
     1
175
     1
 42
1.0
 92
        8
 66
     7
 43
1.0
 76
     1
 77
     6
 78
     2
 67
     7
 79
     5
170
     0
171
     0
290
     0
174
     0
 93
        1
 44
50.0
173
     0
291
     1
 45
0.0
1001
ACAD
1000
AcDbSavedByObjectVersion
1070
     0
  0
VISUALSTYLE
  5
A9
102
{ACAD_REACTORS
330
99
102
}
330
99
100
AcDbVisualStyle
  2
ColorChange
 70
    16
 71
     2
 72
     2
 73
     3
 90
        0
 40
-0.6
 41
-30.0
 62
     5
 63
     8
 74
     1
 91
        4
 64
     7
 65
   257
 75
     1
175
     1
 42
1.0
 92
        8
 66
     8
 43
1.0
 76
     1
 77
     6
 78
     2
 67
     7
 79
     5
170
     0
171
     0
290
     0
174
     0
 93
        1
 44
0.0
173
     0
291
     1
 45
0.0
1001
ACAD
1000
AcDbSavedByObjectVersion
1070
     0
  0
VISUALSTYLE
  5
A2
102
{ACAD_REACTORS
330
99
102
}
330
99
100
AcDbVisualStyle
  2
Conceptual
 70
     9
 71
     3
 72
     2
 73
     1
 90
        0
 40
-0.6
 41
-30.0
 62
     5
 63
     7
 74
     2
 91
        2
 64
     7
 65
   257
 75
     1
175
     1
 42
40.0
 92
        8
 66
     7
 43
1.0
 76
     1
 77
     6
 78
     2
 67
     7
 79
     3
170
     0
171
     0
290
     0
174
     0
 93
        1
 44
0.0
173
     0
291
     0
 45
0.0
1001
ACAD
1000
AcDbSavedByObjectVersion
1070
     0
  0
VISUALSTYLE
  5
A4
102
{ACAD_REACTORS
330
99
102
}
330
99
100
AcDbVisualStyle
  2
Dim
 70
    11
 71
     2
 72
     2
 73
     1
 90
        0
 40
-0.6
 41
-30.0
 62
     5
 63
     7
 74
     1
 91
        4
 64
     7
 65
   257
 75
     1
175
     1
 42
1.0
 92
        8
 66
     7
 43
1.0
 76
     1
 77
     6
 78
     2
 67
     7
 79
     5
170
     0
171
     0
290
     0
174
     0
 93
        1
 44
-50.0
173
     0
291
     1
 45
0.0
1001
ACAD
1000
AcDbSavedByObjectVersion
1070
     0
  0
VISUALSTYLE
  5
A8
102
{ACAD_REACTORS
330
99
102
}
330
99
100
AcDbVisualStyle
  2
Facepattern
 70
    15
 71
     2
 72
     2
 73
     1
 90
        0
 40
-0.6
 41
-30.0
 62
     5
 63
     7
 74
     1
 91
        4
 64
     7
 65
   257
 75
     1
175
     1
 42
1.0
 92
        8
 66
     7
 43
1.0
 76
     1
 77
     6
 78
     2
 67
     7
 79
     5
170
     0
171
     0
290
     0
174
     0
 93
        1
 44
0.0
173
     0
291
     1
 45
0.0
1001
ACAD
1000
AcDbSavedByObjectVersion
1070
     0
  0
VISUALSTYLE
  5
9A
102
{ACAD_REACTORS
330
99
102
}
330
99
100
AcDbVisualStyle
  2
Flat
 70
     0
 71
     2
 72
     1
 73
     1
 90
        2
 40
-0.6
 41
30.0
 62
     5
 63
     7
 74
     0
 91
        4
 64
     7
 65
   257
 75
     1
175
     1
 42
1.0
 92
        8
 66
     7
 43
1.0
 76
     1
 77
     6
 78
     2
 67
     7
 79
     5
170
     0
171
     0
290
     0
174
     0
 93
        1
 44
0.0
173
     0
291
     1
 45
0.0
1001
ACAD
1000
AcDbSavedByObjectVersion
1070
     0
  0
VISUALSTYLE
  5
9B
102
{ACAD_REACTORS
330
99
102
}
330
99
100
AcDbVisualStyle
  2
FlatWithEdges
 70
     1
 71
     2
 72
     1
 73
     1
 90
        2
 40
-0.6
 41
30.0
 62
     5
 63
     7
 74
     1
 91
        4
 64
     7
 65
   257
 75
     1
175
     1
 42
1.0
 92
        0
 66
   257
 43
1.0
 76
     1
 77
     6
 78
     2
 67
     7
 79
     5
170
     0
171
     0
290
     0
174
     0
 93
        1
 44
0.0
173
     0
291
     1
 45
0.0
1001
ACAD
1000
AcDbSavedByObjectVersion
1070
     0
  0
VISUALSTYLE
  5
9C
102
{ACAD_REACTORS
330
99
102
}
330
99
100
AcDbVisualStyle
  2
Gouraud
 70
     2
 71
     2
 72
     2
 73
     1
 90
        2
 40
-0.6
 41
30.0
 62
     5
 63
     7
 74
     0
 91
        4
 64
     7
 65
   257
 75
     1
175
     1
 42
1.0
 92
        0
 66
     7
 43
1.0
 76
     1
 77
     6
 78
     2
 67
     7
 79
     5
170
     0
171
     0
290
     0
174
     0
 93
        1
 44
0.0
173
     0
291
     1
 45
0.0
1001
ACAD
1000
AcDbSavedByObjectVersion
1070
     0
  0
VISUALSTYLE
  5
9D
102
{ACAD_REACTORS
330
99
102
}
330
99
100
AcDbVisualStyle
  2
GouraudWithEdges
 70
     3
 71
     2
 72
     2
 73
     1
 90
        2
 40
-0.6
 41
30.0
 62
     5
 63
     7
 74
     1
 91
        4
 64
     7
 65
   257
 75
     1
175
     1
 42
1.0
 92
        0
 66
   257
 43
1.0
 76
     1
 77
     6
 78
     2
 67
     7
 79
     5
170
     0
171
     0
290
     0
174
     0
 93
        1
 44
0.0
173
     0
291
     1
 45
0.0
1001
ACAD
1000
AcDbSavedByObjectVersion
1070
     0
  0
VISUALSTYLE
  5
A7
102
{ACAD_REACTORS
330
99
102
}
330
99
100
AcDbVisualStyle
  2
Linepattern
 70
    14
 71
     2
 72
     2
 73
     1
 90
        0
 40
-0.6
 41
-30.0
 62
     5
 63
     7
 74
     1
 91
        4
 64
     7
 65
   257
 75
     7
175
     7
 42
1.0
 92
        8
 66
     7
 43
1.0
 76
     1
 77
     6
 78
     2
 67
     7
 79
     5
170
     0
171
     0
290
     0
174
     0
 93
        1
 44
0.0
173
     0
291
     1
 45
0.0
1001
ACAD
1000
AcDbSavedByObjectVersion
1070
     0
  0
VISUALSTYLE
  5
A3
102
{ACAD_REACTORS
330
99
102
}
330
99
100
AcDbVisualStyle
  2
Realistic
 70
     8
 71
     2
 72
     2
 73
     1
 90
        0
 40
-0.6
 41
-30.0
 62
     5
 63
     7
 74
     1
 91
        0
 64
     7
 65
   257
 75
     1
175
     1
 42
1.0
 92
        8
 66
     8
 43
1.0
 76
     1
 77
     6
 78
     2
 67
     7
 79
     5
170
     0
171
     0
290
     0
174
     0
 93
       13
 44
0.0
173
     0
291
     0
 45
0.0
1001
ACAD
1000
AcDbSavedByObjectVersion
1070
     0
  0
VISUALSTYLE
  5
A6
102
{ACAD_REACTORS
330
99
102
}
330
99
100
AcDbVisualStyle
  2
Thicken
 70
    13
 71
     2
 72
     2
 73
     1
 90
        0
 40
-0.6
 41
-30.0
 62
     5
 63
     7
 74
     1
 91
        4
 64
     7
 65
   257
 75
     1
175
     1
 42
1.0
 92
       12
 66
     7
 43
1.0
 76
     1
 77
     6
 78
     2
 67
     7
 79
     5
170
     0
171
     0
290
     0
174
     0
 93
        1
 44
0.0
173
     0
291
     1
 45
0.0
1001
ACAD
1000
AcDbSavedByObjectVersion
1070
     0
  0
DICTIONARYVAR
  5
F0
102
{ACAD_REACTORS
330
66
102
}
330
66
100
DictionaryVariables
280
     0
  1
1:1
  0
DICTIONARYVAR
  5
EF
102
{ACAD_REACTORS
330
66
102
}
330
66
100
DictionaryVariables
280
     0
  1
STANDARD
  0
DICTIONARYVAR
  5
89
102
{ACAD_REACTORS
330
66
102
}
330
66
100
DictionaryVariables
280
     0
  1
STANDARD
  0
DICTIONARYVAR
  5
67
102
{ACAD_REACTORS
330
66
102
}
330
66
100
DictionaryVariables
280
     0
  1
2
  0
DICTIONARYVAR
  5
6B
102
{ACAD_REACTORS
330
66
102
}
330
66
100
DictionaryVariables
280
     0
  1
1
  0
DICTIONARYVAR
  5
422
102
{ACAD_REACTORS
330
66
102
}
330
66
100
DictionaryVariables
280
     0
  1
0
  0
DICTIONARYVAR
  5
420
102
{ACAD_REACTORS
330
66
102
}
330
66
100
DictionaryVariables
280
     0
  1
2
  0
DICTIONARYVAR
  5
41F
102
{ACAD_REACTORS
330
66
102
}
330
66
100
DictionaryVariables
280
     0
  1
1
  0
DICTIONARYVAR
  5
421
102
{ACAD_REACTORS
330
66
102
}
330
66
100
DictionaryVariables
280
     0
  1
127
  0
DICTIONARY
  5
427
330
59
100
AcDbDictionary
280
     1
281
     1
  3
ACAD_XREC_ROUNDTRIP
360
428
  0
DICTIONARY
  5
429
330
5E
100
AcDbDictionary
280
     1
281
     1
  3
ACAD_XREC_ROUNDTRIP
360
42A
  0
DICTIONARY
  5
425
330
22
100
AcDbDictionary
280
     1
281
     1
  3
ACAD_XREC_ROUNDTRIP
360
426
  0
DICTIONARY
  5
42E
330
97
100
AcDbDictionary
280
     1
281
     1
  3
ACAD_XREC_ROUNDTRIP
360
42F
  0
DICTIONARY
  5
42C
330
96
100
AcDbDictionary
280
     1
281
     1
  3
ACAD_XREC_ROUNDTRIP
360
42D
  0
DICTIONARY
  5
110
330
98
100
AcDbDictionary
280
     1
281
     1
  3
ACAD_XREC_ROUNDTRIP
360
430
  3
BUMPTILE
360
112
  3
DIFFUSETILE
360
111
  3
OPACITYTILE
360
113
  3
REFLECTIONTILE
360
114
  0
DICTIONARY
  5
104
330
87
100
AcDbDictionary
280
     1
281
     1
  3
ACAD_ROUNDTRIP_2008_TABLESTYLE_CELLSTYLEMAP
360
423
  3
ACAD_XREC_ROUNDTRIP
360
42B
  0
XRECORD
  5
428
102
{ACAD_REACTORS
330
427
102
}
330
427
100
AcDbXrecord
280
     1
102
SHADEPLOT
 70
     0
102
SHADEPLOTRESLEVEL
 70
     2
102
SHADEPLOTCUSTOMDPI
 70
   300
  0
XRECORD
  5
42A
102
{ACAD_REACTORS
330
429
102
}
330
429
100
AcDbXrecord
280
     1
102
SHADEPLOT
 70
     0
102
SHADEPLOTRESLEVEL
 70
     2
102
SHADEPLOTCUSTOMDPI
 70
   300
  0
XRECORD
  5
426
102
{ACAD_REACTORS
330
425
102
}
330
425
100
AcDbXrecord
280
     1
102
SHADEPLOT
 70
     0
102
SHADEPLOTRESLEVEL
 70
     2
102
SHADEPLOTCUSTOMDPI
 70
   300
  0
XRECORD
  5
42F
102
{ACAD_REACTORS
330
42E
102
}
330
42E
100
AcDbXrecord
280
     1
102
MATERIAL
148
0.0
149
0.0
149
0.0
 93
        0
 94
       63
282
     0
 72
     1
 77
     1
171
     1
175
     1
179
     1
273
     0
  0
XRECORD
  5
42D
102
{ACAD_REACTORS
330
42C
102
}
330
42C
100
AcDbXrecord
280
     1
102
MATERIAL
148
0.0
149
0.0
149
0.0
 93
        0
 94
       63
282
     0
 72
     1
 77
     1
171
     1
175
     1
179
     1
273
     0
  0
XRECORD
  5
430
102
{ACAD_REACTORS
330
110
102
}
330
110
100
AcDbXrecord
280
     1
102
MATERIAL
148
0.0
149
0.0
149
0.0
 93
        0
 94
       63
282
     0
 72
     1
 77
     1
171
     1
175
     1
179
     1
273
     0
  0
XRECORD
  5
112
102
{ACAD_REACTORS
330
110
102
}
330
110
100
AcDbXrecord
280
     1
270
     1
271
     1
  0
XRECORD
  5
111
102
{ACAD_REACTORS
330
110
102
}
330
110
100
AcDbXrecord
280
     1
270
     1
271
     1
  0
XRECORD
  5
113
102
{ACAD_REACTORS
330
110
102
}
330
110
100
AcDbXrecord
280
     1
270
     1
271
     1
  0
XRECORD
  5
114
102
{ACAD_REACTORS
330
110
102
}
330
110
100
AcDbXrecord
280
     1
270
     1
271
     1
  0
CELLSTYLEMAP
  5
423
102
{ACAD_REACTORS
330
104
102
}
330
104
100
AcDbCellStyleMap
 90
        3
300
CELLSTYLE
  1
TABLEFORMAT_BEGIN
 90
        5
170
     1
 91
        0
 92
    32768
 62
   257
 93
        1
300
CONTENTFORMAT
  1
CONTENTFORMAT_BEGIN
 90
        0
 91
        0
 92
      512
 93
        0
300

 40
0.0
140
1.0
 94
        5
 62
     0
340
11
144
0.25
309
CONTENTFORMAT_END
171
     1
301
MARGIN
  1
CELLMARGIN_BEGIN
 40
0.06
 40
0.06
 40
0.06
 40
0.06
 40
0.18
 40
0.18
309
CELLMARGIN_END
 94
        6
 95
        1
302
GRIDFORMAT
  1
GRIDFORMAT_BEGIN
 90
        0
 91
        1
 62
     0
 92
       -2
340
0
 93
        0
 40
0.045
309
GRIDFORMAT_END
 95
        2
302
GRIDFORMAT
  1
GRIDFORMAT_BEGIN
 90
        0
 91
        1
 62
     0
 92
       -2
340
0
 93
        0
 40
0.045
309
GRIDFORMAT_END
 95
        4
302
GRIDFORMAT
  1
GRIDFORMAT_BEGIN
 90
        0
 91
        1
 62
     0
 92
       -2
340
0
 93
        0
 40
0.045
309
GRIDFORMAT_END
 95
        8
302
GRIDFORMAT
  1
GRIDFORMAT_BEGIN
 90
        0
 91
        1
 62
     0
 92
       -2
340
0
 93
        0
 40
0.045
309
GRIDFORMAT_END
 95
       16
302
GRIDFORMAT
  1
GRIDFORMAT_BEGIN
 90
        0
 91
        1
 62
     0
 92
       -2
340
0
 93
        0
 40
0.045
309
GRIDFORMAT_END
 95
       32
302
GRIDFORMAT
  1
GRIDFORMAT_BEGIN
 90
        0
 91
        1
 62
     0
 92
       -2
340
0
 93
        0
 40
0.045
309
GRIDFORMAT_END
309
TABLEFORMAT_END
  1
CELLSTYLE_BEGIN
 90
        1
 91
        1
300
_TITLE
309
CELLSTYLE_END
300
CELLSTYLE
  1
TABLEFORMAT_BEGIN
 90
        5
170
     1
 91
        0
 92
        0
 62
   257
 93
        1
300
CONTENTFORMAT
  1
CONTENTFORMAT_BEGIN
 90
        0
 91
        0
 92
      512
 93
        0
300

 40
0.0
140
1.0
 94
        5
 62
     0
340
11
144
0.18
309
CONTENTFORMAT_END
171
     1
301
MARGIN
  1
CELLMARGIN_BEGIN
 40
0.06
 40
0.06
 40
0.06
 40
0.06
 40
0.18
 40
0.18
309
CELLMARGIN_END
 94
        6
 95
        1
302
GRIDFORMAT
  1
GRIDFORMAT_BEGIN
 90
        0
 91
        1
 62
     0
 92
       -2
340
0
 93
        0
 40
0.045
309
GRIDFORMAT_END
 95
        2
302
GRIDFORMAT
  1
GRIDFORMAT_BEGIN
 90
        0
 91
        1
 62
     0
 92
       -2
340
0
 93
        0
 40
0.045
309
GRIDFORMAT_END
 95
        4
302
GRIDFORMAT
  1
GRIDFORMAT_BEGIN
 90
        0
 91
        1
 62
     0
 92
       -2
340
0
 93
        0
 40
0.045
309
GRIDFORMAT_END
 95
        8
302
GRIDFORMAT
  1
GRIDFORMAT_BEGIN
 90
        0
 91
        1
 62
     0
 92
       -2
340
0
 93
        0
 40
0.045
309
GRIDFORMAT_END
 95
       16
302
GRIDFORMAT
  1
GRIDFORMAT_BEGIN
 90
        0
 91
        1
 62
     0
 92
       -2
340
0
 93
        0
 40
0.045
309
GRIDFORMAT_END
 95
       32
302
GRIDFORMAT
  1
GRIDFORMAT_BEGIN
 90
        0
 91
        1
 62
     0
 92
       -2
340
0
 93
        0
 40
0.045
309
GRIDFORMAT_END
309
TABLEFORMAT_END
  1
CELLSTYLE_BEGIN
 90
        2
 91
        1
300
_HEADER
309
CELLSTYLE_END
300
CELLSTYLE
  1
TABLEFORMAT_BEGIN
 90
        5
170
     1
 91
        0
 92
        0
 62
   257
 93
        1
300
CONTENTFORMAT
  1
CONTENTFORMAT_BEGIN
 90
        0
 91
        0
 92
      512
 93
        0
300

 40
0.0
140
1.0
 94
        2
 62
     0
340
11
144
0.18
309
CONTENTFORMAT_END
171
     1
301
MARGIN
  1
CELLMARGIN_BEGIN
 40
0.06
 40
0.06
 40
0.06
 40
0.06
 40
0.18
 40
0.18
309
CELLMARGIN_END
 94
        6
 95
        1
302
GRIDFORMAT
  1
GRIDFORMAT_BEGIN
 90
        0
 91
        1
 62
     0
 92
       -2
340
0
 93
        0
 40
0.045
309
GRIDFORMAT_END
 95
        2
302
GRIDFORMAT
  1
GRIDFORMAT_BEGIN
 90
        0
 91
        1
 62
     0
 92
       -2
340
0
 93
        0
 40
0.045
309
GRIDFORMAT_END
 95
        4
302
GRIDFORMAT
  1
GRIDFORMAT_BEGIN
 90
        0
 91
        1
 62
     0
 92
       -2
340
0
 93
        0
 40
0.045
309
GRIDFORMAT_END
 95
        8
302
GRIDFORMAT
  1
GRIDFORMAT_BEGIN
 90
        0
 91
        1
 62
     0
 92
       -2
340
0
 93
        0
 40
0.045
309
GRIDFORMAT_END
 95
       16
302
GRIDFORMAT
  1
GRIDFORMAT_BEGIN
 90
        0
 91
        1
 62
     0
 92
       -2
340
0
 93
        0
 40
0.045
309
GRIDFORMAT_END
 95
       32
302
GRIDFORMAT
  1
GRIDFORMAT_BEGIN
 90
        0
 91
        1
 62
     0
 92
       -2
340
0
 93
        0
 40
0.045
309
GRIDFORMAT_END
309
TABLEFORMAT_END
  1
CELLSTYLE_BEGIN
 90
        3
 91
        2
300
_DATA
309
CELLSTYLE_END
  0
XRECORD
  5
42B
102
{ACAD_REACTORS
330
104
102
}
330
104
100
AcDbXrecord
280
     1
102
ACAD_ROUNDTRIP_PRE2007_TABLESTYLE
 90
      512
 91
        0
  1

 92
      512
 93
        0
  2

 94
      512
 95
        0
  3

  0
ENDSEC
  0
EOF
