  0
SECTION
  2
HEADER
  9
$ACADVER
  1
AC1015
  9
$ACADMAINTVER
 70
    20
  9
$DWGCODEPAGE
  3
ANSI_1252
  9
$INSBASE
 10
0.0
 20
0.0
 30
0.0
  9
$EXTMIN
 10
-1.396278858490902
 20
12.24691387912743
 30
0.0
  9
$EXTMAX
 10
274.2164908915091
 20
471.2066057791274
 30
0.0
  9
$LIMMIN
 10
0.0
 20
0.0
  9
$LIMMAX
 10
12.0
 20
9.0
  9
$ORTHOMODE
 70
     0
  9
$REGENMODE
 70
     1
  9
$FILLMODE
 70
     1
  9
$QTEXTMODE
 70
     0
  9
$MIRRTEXT
 70
     0
  9
$LTSCALE
 40
1.0
  9
$ATTMODE
 70
     1
  9
$TEXTSIZE
 40
0.2
  9
$TRACEWID
 40
0.05
  9
$TEXTSTYLE
  7
Standard
  9
$CLAYER
  8
0
  9
$CELTYPE
  6
ByLayer
  9
$CECOLOR
 62
   256
  9
$CELTSCALE
 40
1.0
  9
$DISPSILH
 70
     0
  9
$DIMSCALE
 40
1.0
  9
$DIMASZ
 40
0.18
  9
$DIMEXO
 40
0.0625
  9
$DIMDLI
 40
0.38
  9
$DIMRND
 40
0.0
  9
$DIMDLE
 40
0.0
  9
$DIMEXE
 40
0.18
  9
$DIMTP
 40
0.0
  9
$DIMTM
 40
0.0
  9
$DIMTXT
 40
0.18
  9
$DIMCEN
 40
0.09
  9
$DIMTSZ
 40
0.0
  9
$DIMTOL
 70
     0
  9
$DIMLIM
 70
     0
  9
$DIMTIH
 70
     1
  9
$DIMTOH
 70
     1
  9
$DIMSE1
 70
     0
  9
$DIMSE2
 70
     0
  9
$DIMTAD
 70
     0
  9
$DIMZIN
 70
     0
  9
$DIMBLK
  1

  9
$DIMASO
 70
     1
  9
$DIMSHO
 70
     1
  9
$DIMPOST
  1

  9
$DIMAPOST
  1

  9
$DIMALT
 70
     0
  9
$DIMALTD
 70
     2
  9
$DIMALTF
 40
25.4
  9
$DIMLFAC
 40
1.0
  9
$DIMTOFL
 70
     0
  9
$DIMTVP
 40
0.0
  9
$DIMTIX
 70
     0
  9
$DIMSOXD
 70
     0
  9
$DIMSAH
 70
     0
  9
$DIMBLK1
  1

  9
$DIMBLK2
  1

  9
$DIMSTYLE
  2
Standard
  9
$DIMCLRD
 70
     0
  9
$DIMCLRE
 70
     0
  9
$DIMCLRT
 70
     0
  9
$DIMTFAC
 40
1.0
  9
$DIMGAP
 40
0.09
  9
$DIMJUST
 70
     0
  9
$DIMSD1
 70
     0
  9
$DIMSD2
 70
     0
  9
$DIMTOLJ
 70
     1
  9
$DIMTZIN
 70
     0
  9
$DIMALTZ
 70
     0
  9
$DIMALTTZ
 70
     0
  9
$DIMUPT
 70
     0
  9
$DIMDEC
 70
     4
  9
$DIMTDEC
 70
     4
  9
$DIMALTU
 70
     2
  9
$DIMALTTD
 70
     2
  9
$DIMTXSTY
  7
Standard
  9
$DIMAUNIT
 70
     0
  9
$DIMADEC
 70
     0
  9
$DIMALTRND
 40
0.0
  9
$DIMAZIN
 70
     0
  9
$DIMDSEP
 70
    46
  9
$DIMATFIT
 70
     3
  9
$DIMFRAC
 70
     0
  9
$DIMLDRBLK
  1

  9
$DIMLUNIT
 70
     2
  9
$DIMLWD
 70
    -2
  9
$DIMLWE
 70
    -2
  9
$DIMTMOVE
 70
     0
  9
$LUNITS
 70
     2
  9
$LUPREC
 70
     4
  9
$SKETCHINC
 40
0.1
  9
$FILLETRAD
 40
0.0
  9
$AUNITS
 70
     0
  9
$AUPREC
 70
     0
  9
$MENU
  1
.
  9
$ELEVATION
 40
0.0
  9
$PELEVATION
 40
0.0
  9
$THICKNESS
 40
0.0
  9
$LIMCHECK
 70
     0
  9
$CHAMFERA
 40
0.0
  9
$CHAMFERB
 40
0.0
  9
$CHAMFERC
 40
0.0
  9
$CHAMFERD
 40
0.0
  9
$SKPOLY
 70
     0
  9
$TDCREATE
 40
2455511.356624618
  9
$TDUCREATE
 40
2455511.314957951
  9
$TDUPDATE
 40
2455511.356795787
  9
$TDUUPDATE
 40
2455511.315129121
  9
$TDINDWG
 40
0.0001713542
  9
$TDUSRTIMER
 40
0.0001713542
  9
$USRTIMER
 70
     1
  9
$ANGBASE
 50
0.0
  9
$ANGDIR
 70
     0
  9
$PDMODE
 70
     0
  9
$PDSIZE
 40
0.0
  9
$PLINEWID
 40
0.0
  9
$SPLFRAME
 70
     0
  9
$SPLINETYPE
 70
     6
  9
$SPLINESEGS
 70
     8
  9
$HANDSEED
  5
51B
  9
$SURFTAB1
 70
     6
  9
$SURFTAB2
 70
     6
  9
$SURFTYPE
 70
     6
  9
$SURFU
 70
     6
  9
$SURFV
 70
     6
  9
$UCSBASE
  2

  9
$UCSNAME
  2

  9
$UCSORG
 10
0.0
 20
0.0
 30
0.0
  9
$UCSXDIR
 10
1.0
 20
0.0
 30
0.0
  9
$UCSYDIR
 10
0.0
 20
1.0
 30
0.0
  9
$UCSORTHOREF
  2

  9
$UCSORTHOVIEW
 70
     0
  9
$UCSORGTOP
 10
0.0
 20
0.0
 30
0.0
  9
$UCSORGBOTTOM
 10
0.0
 20
0.0
 30
0.0
  9
$UCSORGLEFT
 10
0.0
 20
0.0
 30
0.0
  9
$UCSORGRIGHT
 10
0.0
 20
0.0
 30
0.0
  9
$UCSORGFRONT
 10
0.0
 20
0.0
 30
0.0
  9
$UCSORGBACK
 10
0.0
 20
0.0
 30
0.0
  9
$PUCSBASE
  2

  9
$PUCSNAME
  2

  9
$PUCSORG
 10
0.0
 20
0.0
 30
0.0
  9
$PUCSXDIR
 10
1.0
 20
0.0
 30
0.0
  9
$PUCSYDIR
 10
0.0
 20
1.0
 30
0.0
  9
$PUCSORTHOREF
  2

  9
$PUCSORTHOVIEW
 70
     0
  9
$PUCSORGTOP
 10
0.0
 20
0.0
 30
0.0
  9
$PUCSORGBOTTOM
 10
0.0
 20
0.0
 30
0.0
  9
$PUCSORGLEFT
 10
0.0
 20
0.0
 30
0.0
  9
$PUCSORGRIGHT
 10
0.0
 20
0.0
 30
0.0
  9
$PUCSORGFRONT
 10
0.0
 20
0.0
 30
0.0
  9
$PUCSORGBACK
 10
0.0
 20
0.0
 30
0.0
  9
$USERI1
 70
     0
  9
$USERI2
 70
     0
  9
$USERI3
 70
     0
  9
$USERI4
 70
     0
  9
$USERI5
 70
     0
  9
$USERR1
 40
0.0
  9
$USERR2
 40
0.0
  9
$USERR3
 40
0.0
  9
$USERR4
 40
0.0
  9
$USERR5
 40
0.0
  9
$WORLDVIEW
 70
     1
  9
$SHADEDGE
 70
     3
  9
$SHADEDIF
 70
    70
  9
$TILEMODE
 70
     1
  9
$MAXACTVP
 70
    64
  9
$PINSBASE
 10
0.0
 20
0.0
 30
0.0
  9
$PLIMCHECK
 70
     0
  9
$PEXTMIN
 10
0.0
 20
0.0
 30
0.0
  9
$PEXTMAX
 10
0.0
 20
0.0
 30
0.0
  9
$PLIMMIN
 10
0.0
 20
0.0
  9
$PLIMMAX
 10
12.0
 20
9.0
  9
$UNITMODE
 70
     0
  9
$VISRETAIN
 70
     1
  9
$PLINEGEN
 70
     0
  9
$PSLTSCALE
 70
     1
  9
$TREEDEPTH
 70
  3020
  9
$CMLSTYLE
  2
Standard
  9
$CMLJUST
 70
     0
  9
$CMLSCALE
 40
1.0
  9
$PROXYGRAPHICS
 70
     1
  9
$MEASUREMENT
 70
     0
  9
$CELWEIGHT
370
    -1
  9
$ENDCAPS
280
     0
  9
$JOINSTYLE
280
     0
  9
$LWDISPLAY
290
     0
  9
$INSUNITS
 70
     1
  9
$HYPERLINKBASE
  1

  9
$STYLESHEET
  1

  9
$XEDIT
290
     1
  9
$CEPSNTYPE
380
     0
  9
$PSTYLEMODE
290
     1
  9
$FINGERPRINTGUID
  2
{CC30EF22-4DB8-48BC-847F-9138CBB39EFA}
  9
$VERSIONGUID
  2
{2FAA13C6-D4D4-428D-BCDD-97F2F20EF7A4}
  9
$EXTNAMES
290
     1
  9
$PSVPSCALE
 40
0.0
  9
$OLESTARTUP
290
     0
  0
ENDSEC
  0
SECTION
  2
CLASSES
  0
CLASS
  1
ACDBDICTIONARYWDFLT
  2
AcDbDictionaryWithDefault
  3
ObjectDBX Classes
 90
        0
280
     0
281
     0
  0
CLASS
  1
ACDBPLACEHOLDER
  2
AcDbPlaceHolder
  3
ObjectDBX Classes
 90
        0
280
     0
281
     0
  0
CLASS
  1
LAYOUT
  2
AcDbLayout
  3
ObjectDBX Classes
 90
        0
280
     0
281
     0
  0
CLASS
  1
DICTIONARYVAR
  2
AcDbDictionaryVar
  3
ObjectDBX Classes
 90
        0
280
     0
281
     0
  0
CLASS
  1
TABLESTYLE
  2
AcDbTableStyle
  3
ObjectDBX Classes
 90
     4095
280
     0
281
     0
  0
CLASS
  1
MATERIAL
  2
AcDbMaterial
  3
ObjectDBX Classes
 90
     1153
280
     0
281
     0
  0
CLASS
  1
VISUALSTYLE
  2
AcDbVisualStyle
  3
ObjectDBX Classes
 90
     4095
280
     0
281
     0
  0
CLASS
  1
SCALE
  2
AcDbScale
  3
ObjectDBX Classes
 90
     1153
280
     0
281
     0
  0
CLASS
  1
MLEADERSTYLE
  2
AcDbMLeaderStyle
  3
ACDB_MLEADERSTYLE_CLASS
 90
     4095
280
     0
281
     0
  0
CLASS
  1
CELLSTYLEMAP
  2
AcDbCellStyleMap
  3
ObjectDBX Classes
 90
     1152
280
     0
281
     0
  0
ENDSEC
  0
SECTION
  2
TABLES
  0
TABLE
  2
VPORT
  5
8
330
0
100
AcDbSymbolTable
 70
     1
  0
VPORT
  5
94
330
8
100
AcDbSymbolTableRecord
100
AcDbViewportTableRecord
  2
*Active
 70
     0
 10
0.0
 20
0.0
 11
1.0
 21
1.0
 12
136.4101060165091
 22
241.7267598291275
 13
0.0
 23
0.0
 14
0.5
 24
0.5
 15
0.5
 25
0.5
 16
0.0
 26
0.0
 36
1.0
 17
0.0
 27
0.0
 37
0.0
 40
462.7475297973866
 41
1.148760330578512
 42
50.0
 43
0.0
 44
0.0
 50
0.0
 51
0.0
 71
     0
 72
  1000
 73
     1
 74
     3
 75
     0
 76
     0
 77
     0
 78
     0
281
     0
 65
     1
110
0.0
120
0.0
130
0.0
111
1.0
121
0.0
131
0.0
112
0.0
122
1.0
132
0.0
 79
     0
146
0.0
  0
ENDTAB
  0
TABLE
  2
LTYPE
  5
5
330
0
100
AcDbSymbolTable
 70
     1
  0
LTYPE
  5
14
330
5
100
AcDbSymbolTableRecord
100
AcDbLinetypeTableRecord
  2
ByBlock
 70
     0
  3

 72
    65
 73
     0
 40
0.0
  0
LTYPE
  5
15
330
5
100
AcDbSymbolTableRecord
100
AcDbLinetypeTableRecord
  2
ByLayer
 70
     0
  3

 72
    65
 73
     0
 40
0.0
  0
LTYPE
  5
16
330
5
100
AcDbSymbolTableRecord
100
AcDbLinetypeTableRecord
  2
Continuous
 70
     0
  3
Solid line
 72
    65
 73
     0
 40
0.0
  0
ENDTAB
  0
TABLE
  2
LAYER
  5
2
330
0
100
AcDbSymbolTable
 70
     5
  0
LAYER
  5
10
102
{ACAD_XDICTIONARY
360
E6
102
}
330
2
100
AcDbSymbolTableRecord
100
AcDbLayerTableRecord
  2
0
 70
     0
 62
     7
  6
Continuous
370
    -3
390
F
  0
LAYER
  5
174
102
{ACAD_XDICTIONARY
360
503
102
}
330
2
100
AcDbSymbolTableRecord
100
AcDbLayerTableRecord
  2
Q
 70
     1
 62
     7
  6
Continuous
370
    -3
390
F
1001
AcAecLayerStandard
1000

1000

  0
LAYER
  5
175
102
{ACAD_XDICTIONARY
360
505
102
}
330
2
100
AcDbSymbolTableRecord
100
AcDbLayerTableRecord
  2
QUOTE
 70
     0
 62
     7
  6
Continuous
370
    -3
390
F
1001
AcAecLayerStandard
1000

1000

  0
LAYER
  5
176
102
{ACAD_XDICTIONARY
360
507
102
}
330
2
100
AcDbSymbolTableRecord
100
AcDbLayerTableRecord
  2
DISEGNO
 70
     0
 62
     1
  6
Continuous
370
    -3
390
F
  0
LAYER
  5
4D0
330
2
100
AcDbSymbolTableRecord
100
AcDbLayerTableRecord
  2
Defpoints
 70
     0
 62
     7
  6
Continuous
290
     0
370
    -3
390
F
  0
ENDTAB
  0
TABLE
  2
STYLE
  5
3
330
0
100
AcDbSymbolTable
 70
     2
  0
STYLE
  5
11
330
3
100
AcDbSymbolTableRecord
100
AcDbTextStyleTableRecord
  2
Standard
 70
     0
 40
0.0
 41
1.0
 50
0.0
 71
     0
 42
0.2
  3
txt.shx
  4

  0
STYLE
  5
DC
330
3
100
AcDbSymbolTableRecord
100
AcDbTextStyleTableRecord
  2
Annotativa
 70
     0
 40
0.0
 41
1.0
 50
0.0
 71
     0
 42
0.2
  3
txt.shx
  4

1001
AcadAnnotative
1000
AnnotativeData
1002
{
1070
     1
1070
     1
1002
}
  0
ENDTAB
  0
TABLE
  2
VIEW
  5
6
330
0
100
AcDbSymbolTable
 70
     1
  0
ENDTAB
  0
TABLE
  2
UCS
  5
7
330
0
100
AcDbSymbolTable
 70
     0
  0
ENDTAB
  0
TABLE
  2
APPID
  5
9
330
0
100
AcDbSymbolTable
 70
    14
  0
APPID
  5
12
330
9
100
AcDbSymbolTableRecord
100
AcDbRegAppTableRecord
  2
ACAD
 70
     0
  0
APPID
  5
DD
330
9
100
AcDbSymbolTableRecord
100
AcDbRegAppTableRecord
  2
AcadAnnoPO
 70
     0
  0
APPID
  5
DE
330
9
100
AcDbSymbolTableRecord
100
AcDbRegAppTableRecord
  2
AcadAnnotative
 70
     0
  0
APPID
  5
DF
330
9
100
AcDbSymbolTableRecord
100
AcDbRegAppTableRecord
  2
ACAD_DSTYLE_DIMJAG
 70
     0
  0
APPID
  5
E0
330
9
100
AcDbSymbolTableRecord
100
AcDbRegAppTableRecord
  2
ACAD_DSTYLE_DIMTALN
 70
     0
  0
APPID
  5
107
330
9
100
AcDbSymbolTableRecord
100
AcDbRegAppTableRecord
  2
ACAD_MLEADERVER
 70
     0
  0
APPID
  5
177
330
9
100
AcDbSymbolTableRecord
100
AcDbRegAppTableRecord
  2
VDEXTRAPARAM
 70
     0
  0
APPID
  5
178
330
9
100
AcDbSymbolTableRecord
100
AcDbRegAppTableRecord
  2
VD_TEMPHATCH
 70
     0
  0
APPID
  5
179
330
9
100
AcDbSymbolTableRecord
100
AcDbRegAppTableRecord
  2
AcAecLayerStandard
 70
     0
  0
APPID
  5
17A
330
9
100
AcDbSymbolTableRecord
100
AcDbRegAppTableRecord
  2
VD_EX_PRINTER_DWG_STYLE_SHEET
 70
     0
  0
APPID
  5
17B
330
9
100
AcDbSymbolTableRecord
100
AcDbRegAppTableRecord
  2
VD_EX_PRINTER_SIZEX
 70
     0
  0
APPID
  5
17C
330
9
100
AcDbSymbolTableRecord
100
AcDbRegAppTableRecord
  2
VD_EX_PRINTER_AVSIZEX
 70
     0
  0
APPID
  5
17D
330
9
100
AcDbSymbolTableRecord
100
AcDbRegAppTableRecord
  2
VD_EX_PRINTER_SIZEY
 70
     0
  0
APPID
  5
17E
330
9
100
AcDbSymbolTableRecord
100
AcDbRegAppTableRecord
  2
VD_EX_PRINTER_AVSIZEY
 70
     0
  0
ENDTAB
  0
TABLE
  2
DIMSTYLE
  5
A
330
0
100
AcDbSymbolTable
 70
     2
100
AcDbDimStyleTable
 71
     2
340
27
340
E1
  0
DIMSTYLE
105
27
102
{ACAD_REACTORS
330
4AE
330
4AF
102
}
330
A
100
AcDbSymbolTableRecord
100
AcDbDimStyleTableRecord
  2
Standard
 70
     0
340
11
  0
DIMSTYLE
105
E1
330
A
100
AcDbSymbolTableRecord
100
AcDbDimStyleTableRecord
  2
Annotativa
 70
     0
 40
0.0
340
11
1001
AcadAnnotative
1000
AnnotativeData
1002
{
1070
     1
1070
     1
1002
}
1001
ACAD_DSTYLE_DIMJAG
1070
   388
1040
1.5
1001
ACAD_DSTYLE_DIMTALN
1070
   392
1070
     0
  0
ENDTAB
  0
TABLE
  2
BLOCK_RECORD
  5
1
330
0
100
AcDbSymbolTable
 70
     7
  0
BLOCK_RECORD
  5
1F
330
1
100
AcDbSymbolTableRecord
100
AcDbBlockTableRecord
  2
*Model_Space
340
22
  0
BLOCK_RECORD
  5
58
330
1
100
AcDbSymbolTableRecord
100
AcDbBlockTableRecord
  2
*Paper_Space
340
59
  0
BLOCK_RECORD
  5
5D
330
1
100
AcDbSymbolTableRecord
100
AcDbBlockTableRecord
  2
*Paper_Space0
340
5E
  0
BLOCK_RECORD
  5
14C
330
1
100
AcDbSymbolTableRecord
100
AcDbBlockTableRecord
  2
VDDIM_DEFAULT
340
0
  0
BLOCK_RECORD
  5
150
330
1
100
AcDbSymbolTableRecord
100
AcDbBlockTableRecord
  2
IEC_309_16-32
340
0
102
{BLKREFS
331
322
331
323
331
324
331
325
331
4CC
331
4CD
331
4CE
331
4CF
102
}
  0
BLOCK_RECORD
  5
168
330
1
100
AcDbSymbolTableRecord
100
AcDbBlockTableRecord
  2
*D3
340
0
  0
BLOCK_RECORD
  5
4D1
330
1
100
AcDbSymbolTableRecord
100
AcDbBlockTableRecord
  2
*D5
340
0
  0
BLOCK_RECORD
  5
4DE
330
1
100
AcDbSymbolTableRecord
100
AcDbBlockTableRecord
  2
*D6
340
0
  0
ENDTAB
  0
ENDSEC
  0
SECTION
  2
BLOCKS
  0
BLOCK
  5
20
330
1F
100
AcDbEntity
  8
0
100
AcDbBlockBegin
  2
*Model_Space
 70
     0
 10
0.0
 20
0.0
 30
0.0
  3
*Model_Space
  1

  0
ENDBLK
  5
21
330
1F
100
AcDbEntity
  8
0
100
AcDbBlockEnd
  0
BLOCK
  5
5A
330
58
100
AcDbEntity
 67
     1
  8
0
100
AcDbBlockBegin
  2
*Paper_Space
 70
     0
 10
0.0
 20
0.0
 30
0.0
  3
*Paper_Space
  1

  0
ENDBLK
  5
5B
330
58
100
AcDbEntity
 67
     1
  8
0
100
AcDbBlockEnd
  0
BLOCK
  5
5F
330
5D
100
AcDbEntity
 67
     1
  8
0
100
AcDbBlockBegin
  2
*Paper_Space0
 70
     0
 10
0.0
 20
0.0
 30
0.0
  3
*Paper_Space0
  1

  0
ENDBLK
  5
60
330
5D
100
AcDbEntity
 67
     1
  8
0
100
AcDbBlockEnd
  0
BLOCK
  5
14D
330
14C
100
AcDbEntity
  8
0
100
AcDbBlockBegin
  2
VDDIM_DEFAULT
 70
     0
 10
0.0
 20
0.0
 30
0.0
  3
VDDIM_DEFAULT
  1

  0
HATCH
  5
14E
330
14C
100
AcDbEntity
  8
0
  6
Continuous
 62
     0
370
    -2
100
AcDbHatch
 10
0.0
 20
0.0
 30
0.0
210
0.0
220
0.0
230
-1.0
  2
SOLID
 70
     1
 71
     0
 91
        1
 92
        2
 72
     0
 73
     1
 93
        3
 10
0.0
 20
0.0
 10
1.0
 20
-0.1665
 10
1.0
 20
0.1665
 97
        0
 75
     0
 76
     1
 98
        1
 10
0.0
 20
0.0
  0
ENDBLK
  5
14F
330
14C
100
AcDbEntity
  8
0
100
AcDbBlockEnd
  0
BLOCK
  5
151
330
150
100
AcDbEntity
  8
0
100
AcDbBlockBegin
  2
IEC_309_16-32
 70
     0
 10
0.0
 20
0.0
 30
0.0
  3
IEC_309_16-32
  1

  0
ARC
  5
152
330
150
100
AcDbEntity
  8
DISEGNO
 62
     7
100
AcDbCircle
 10
98.92437755000001
 20
101.22342337
 30
0.0
 40
10.45203864
100
AcDbArc
 50
0.0
 51
90.0
  0
ARC
  5
153
330
150
100
AcDbEntity
  8
DISEGNO
 62
     7
100
AcDbCircle
 10
98.92437755000001
 20
27.14615532
 30
0.0
 40
10.45203864
100
AcDbArc
 50
270.0
 51
0.0
  0
LINE
  5
154
330
150
100
AcDbEntity
  8
DISEGNO
 62
     7
100
AcDbLine
 10
29.37485018
 20
27.14615532
 30
0.0
 11
29.37485018
 21
101.22342337
 31
0.0
  0
ARC
  5
155
330
150
100
AcDbEntity
  8
DISEGNO
 62
     7
100
AcDbCircle
 10
39.82688883
 20
27.14615532
 30
0.0
 40
10.45203864
100
AcDbArc
 50
180.0
 51
270.0
  0
ARC
  5
156
330
150
100
AcDbEntity
  8
DISEGNO
 62
     7
100
AcDbCircle
 10
39.82688883
 20
101.22342337
 30
0.0
 40
10.45203864
100
AcDbArc
 50
90.0
 51
180.0
  0
LINE
  5
157
330
150
100
AcDbEntity
  8
DISEGNO
 62
     7
100
AcDbLine
 10
39.82688883
 20
111.67546202
 30
0.0
 11
98.92437755000001
 21
111.67546202
 31
0.0
  0
LINE
  5
158
330
150
100
AcDbEntity
  8
DISEGNO
 62
     7
100
AcDbLine
 10
109.3764162
 20
101.22342337
 30
0.0
 11
109.3764162
 21
27.14615532
 31
0.0
  0
LINE
  5
159
330
150
100
AcDbEntity
  8
Q
 62
     1
100
AcDbLine
 10
116.87657492
 20
16.69411667
 30
0.0
 11
21.87700654
 21
16.69411667
 31
0.0
  0
LINE
  5
15A
330
150
100
AcDbEntity
  8
Q
 62
     1
100
AcDbLine
 10
21.87700654
 20
123.30508831
 30
0.0
 11
116.87657492
 21
123.30508831
 31
0.0
  0
LINE
  5
15B
330
150
100
AcDbEntity
  8
Q
 62
     1
100
AcDbLine
 10
21.87700654
 20
16.69411667
 30
0.0
 11
21.87700654
 21
123.30508831
 31
0.0
  0
LINE
  5
15C
330
150
100
AcDbEntity
  8
Q
 62
     1
100
AcDbLine
 10
116.87657492
 20
16.69411667
 30
0.0
 11
116.87657492
 21
123.30508831
 31
0.0
  0
CIRCLE
  5
15D
330
150
100
AcDbEntity
  8
0
100
AcDbCircle
 10
39.68921445
 20
25.81853611
 30
0.0
 40
3.10602526
  0
CIRCLE
  5
15E
330
150
100
AcDbEntity
  8
0
100
AcDbCircle
 10
39.68921445
 20
102.32521579
 30
0.0
 40
3.10602526
  0
CIRCLE
  5
15F
330
150
100
AcDbEntity
  8
0
100
AcDbCircle
 10
99.11826150999999
 20
25.36875409
 30
0.0
 40
3.10602526
  0
CIRCLE
  5
160
330
150
100
AcDbEntity
  8
0
100
AcDbCircle
 10
99.11826150999999
 20
101.87543378
 30
0.0
 40
3.10602526
  0
LINE
  5
161
330
150
100
AcDbEntity
  8
Q
 62
     2
100
AcDbLine
 10
26.86858819
 20
21.83590155
 30
0.0
 11
111.88499327
 21
21.83590155
 31
0.0
  0
LINE
  5
162
330
150
100
AcDbEntity
  8
Q
 62
     2
100
AcDbLine
 10
111.88499327
 20
21.83590155
 30
0.0
 11
111.88499327
 21
117.08642104
 31
0.0
  0
LINE
  5
163
330
150
100
AcDbEntity
  8
Q
 62
     2
100
AcDbLine
 10
26.86858819
 20
117.08642104
 30
0.0
 11
26.86858819
 21
21.83590155
 31
0.0
  0
LINE
  5
164
330
150
100
AcDbEntity
  8
Q
 62
     2
100
AcDbLine
 10
70.12473491
 20
117.08642104
 30
0.0
 11
111.88499327
 21
117.08642104
 31
0.0
  0
LINE
  5
165
330
150
100
AcDbEntity
  8
Q
 62
     2
100
AcDbLine
 10
70.12473491
 20
117.08642104
 30
0.0
 11
26.86858819
 21
117.08642104
 31
0.0
  0
LINE
  5
166
330
150
100
AcDbEntity
  8
0
 62
     7
100
AcDbLine
 10
39.82688883
 20
16.69411667
 30
0.0
 11
98.92437755000001
 21
16.69411667
 31
0.0
  0
ENDBLK
  5
167
330
150
100
AcDbEntity
  8
0
100
AcDbBlockEnd
  0
BLOCK
  5
169
330
168
100
AcDbEntity
  8
0
100
AcDbBlockBegin
  2
*D3
 70
     0
 10
0.0
 20
0.0
 30
0.0
  3
*D3
  1

  0
LINE
  5
16A
330
168
100
AcDbEntity
  8
QUOTE
 62
     7
100
AcDbLine
 10
253.76690811
 20
19.7199552
 30
0.0
 11
253.76690811
 21
-14.3572367
 31
0.0
  0
LINE
  5
16B
330
168
100
AcDbEntity
  8
QUOTE
 62
     7
100
AcDbLine
 10
33.76690811
 20
19.78245389
 30
0.0
 11
33.76690811
 21
-14.3572367
 31
0.0
  0
LINE
  5
16C
330
168
100
AcDbEntity
  8
QUOTE
 62
     7
100
AcDbLine
 10
238.76690811
 20
-14.1772367
 30
0.0
 11
160.32838973
 21
-14.1772367
 31
0.0
  0
LINE
  5
16D
330
168
100
AcDbEntity
  8
QUOTE
 62
     7
100
AcDbLine
 10
48.76690811
 20
-14.1772367
 30
0.0
 11
135.14838973
 21
-14.1772367
 31
0.0
  0
LWPOLYLINE
  5
16E
102
{ACAD_REACTORS
330
16F
102
}
330
168
100
AcDbEntity
  8
QUOTE
 62
     7
100
AcDbPolyline
 90
        3
 70
     1
 43
0.0
 10
238.76690811
 20
-11.6772367
 10
238.76690811
 20
-16.6772367
 10
253.76690811
 20
-14.1772367
  0
HATCH
  5
16F
330
168
100
AcDbEntity
  8
QUOTE
 62
     7
100
AcDbHatch
 10
0.0
 20
0.0
 30
0.0
210
0.0
220
0.0
230
1.0
  2
SOLID
 70
     1
 71
     1
 91
        1
 92
        2
 72
     0
 73
     1
 93
        3
 10
238.76690811
 20
-11.6772367
 10
238.76690811
 20
-16.6772367
 10
253.76690811
 20
-14.1772367
 97
        1
330
16E
 75
     0
 76
     1
 98
        1
 10
0.0
 20
0.0
1001
VD_TEMPHATCH
1000
VD_TEMPHATCH
  0
LWPOLYLINE
  5
170
102
{ACAD_REACTORS
330
171
102
}
330
168
100
AcDbEntity
  8
QUOTE
 62
     7
100
AcDbPolyline
 90
        3
 70
     1
 43
0.0
 10
48.76690811
 20
-11.6772367
 10
48.76690811
 20
-16.6772367
 10
33.76690811
 20
-14.1772367
  0
HATCH
  5
171
330
168
100
AcDbEntity
  8
QUOTE
 62
     7
100
AcDbHatch
 10
0.0
 20
0.0
 30
0.0
210
0.0
220
0.0
230
1.0
  2
SOLID
 70
     1
 71
     1
 91
        1
 92
        2
 72
     0
 73
     1
 93
        3
 10
48.76690811
 20
-11.6772367
 10
48.76690811
 20
-16.6772367
 10
33.76690811
 20
-14.1772367
 97
        1
330
170
 75
     0
 76
     1
 98
        1
 10
0.0
 20
0.0
1001
VD_TEMPHATCH
1000
VD_TEMPHATCH
  0
MTEXT
  5
172
330
168
100
AcDbEntity
  8
QUOTE
 62
     7
100
AcDbMText
 10
147.73838973
 20
-14.1772367
 30
0.0
 40
10.0
 41
22.49162198
 71
     5
 72
     1
  1
\A1;220
 73
     1
 44
1.0
1001
ACAD
1000
MTEXTBEGIN
1070
    73
1070
     1
1070
    44
1040
1.0
1070
    74
1070
     0
1000
MTEXTEND
  0
ENDBLK
  5
173
330
168
100
AcDbEntity
  8
0
100
AcDbBlockEnd
  0
BLOCK
  5
4D2
330
4D1
100
AcDbEntity
  8
0
100
AcDbBlockBegin
  2
*D5
 70
     1
 10
0.0
 20
0.0
 30
0.0
  3
*D5
  1

  0
LINE
  5
4EB
330
4D1
100
AcDbEntity
  8
QUOTE
 62
     0
370
    -2
100
AcDbLine
 10
71.62528846150909
 20
471.2066057791274
 30
0.0
 11
30.92372114150918
 21
471.2066057791274
 31
0.0
  0
LINE
  5
4EC
330
4D1
100
AcDbEntity
  8
QUOTE
 62
     0
370
    -2
100
AcDbLine
 10
69.15456089150909
 20
36.20602446912743
 30
0.0
 11
30.92372114150908
 21
36.20602446912744
 31
0.0
  0
LINE
  5
4ED
330
4D1
100
AcDbEntity
  8
QUOTE
 62
     0
370
    -2
100
AcDbLine
 10
31.10372114150918
 20
456.2066057791274
 30
0.0
 11
31.10372114150913
 21
250.6368436091274
 31
0.0
  0
LINE
  5
4EE
330
4D1
100
AcDbEntity
  8
QUOTE
 62
     0
370
    -2
100
AcDbLine
 10
31.10372114150909
 20
51.20602446912744
 30
0.0
 11
31.10372114150913
 21
240.4568436091274
 31
0.0
  0
SOLID
  5
4EF
330
4D1
100
AcDbEntity
  8
QUOTE
 62
     0
100
AcDbTrace
 10
28.60372114150918
 20
456.2066057791274
 30
0.0
 11
33.60372114150918
 21
456.2066057791274
 31
0.0
 12
31.10372114150918
 22
471.2066057791274
 32
0.0
 13
31.10372114150918
 23
471.2066057791274
 33
0.0
  0
SOLID
  5
4F0
330
4D1
100
AcDbEntity
  8
QUOTE
 62
     0
100
AcDbTrace
 10
28.60372114150909
 20
51.20602446912744
 30
0.0
 11
33.60372114150909
 21
51.20602446912744
 31
0.0
 12
31.10372114150909
 22
36.20602446912744
 32
0.0
 13
31.10372114150909
 23
36.20602446912744
 33
0.0
  0
MTEXT
  5
4F1
330
4D1
100
AcDbEntity
  8
QUOTE
 62
     0
100
AcDbMText
 10
31.10372114150909
 20
245.5468436091274
 30
0.0
 40
10.0
 41
0.0
 71
     5
 72
     1
  1
\A1;435.0006
 73
     1
 44
1.0
1001
ACAD
1000
MTEXTBEGIN
1070
    73
1070
     1
1070
    44
1040
1.0
1070
    74
1070
     0
1000
MTEXTEND
  0
POINT
  5
4F2
330
4D1
100
AcDbEntity
  8
Defpoints
 62
     0
100
AcDbPoint
 10
71.68778846150908
 20
471.2066057791274
 30
0.0
  0
POINT
  5
4F3
330
4D1
100
AcDbEntity
  8
Defpoints
 62
     0
100
AcDbPoint
 10
69.21706089150909
 20
36.20602446912743
 30
0.0
  0
POINT
  5
4F4
330
4D1
100
AcDbEntity
  8
Defpoints
 62
     0
100
AcDbPoint
 10
31.10372114150909
 20
36.20602446912744
 30
0.0
  0
ENDBLK
  5
4D3
330
4D1
100
AcDbEntity
  8
0
100
AcDbBlockEnd
  0
BLOCK
  5
4DF
330
4DE
100
AcDbEntity
  8
0
100
AcDbBlockBegin
  2
*D6
 70
     1
 10
0.0
 20
0.0
 30
0.0
  3
*D6
  1

  0
LINE
  5
4F5
330
4DE
100
AcDbEntity
  8
QUOTE
 62
     0
370
    -2
100
AcDbLine
 10
274.2164908915091
 20
51.14410577912742
 30
0.0
 11
274.2164908915091
 21
17.06691387912742
 31
0.0
  0
LINE
  5
4F6
330
4DE
100
AcDbEntity
  8
QUOTE
 62
     0
370
    -2
100
AcDbLine
 10
54.2164908915091
 20
51.20660446912743
 30
0.0
 11
54.2164908915091
 21
17.06691387912742
 31
0.0
  0
LINE
  5
4F7
330
4DE
100
AcDbEntity
  8
QUOTE
 62
     0
370
    -2
100
AcDbLine
 10
259.2164908915091
 20
17.24691387912742
 30
0.0
 11
180.7779725115091
 21
17.24691387912742
 31
0.0
  0
LINE
  5
4F8
330
4DE
100
AcDbEntity
  8
QUOTE
 62
     0
370
    -2
100
AcDbLine
 10
69.2164908915091
 20
17.24691387912742
 30
0.0
 11
155.5979725115091
 21
17.24691387912742
 31
0.0
  0
SOLID
  5
4F9
330
4DE
100
AcDbEntity
  8
QUOTE
 62
     0
100
AcDbTrace
 10
259.2164908915091
 20
19.74691387912742
 30
0.0
 11
259.2164908915091
 21
14.74691387912742
 31
0.0
 12
274.2164908915091
 22
17.24691387912742
 32
0.0
 13
274.2164908915091
 23
17.24691387912742
 33
0.0
  0
SOLID
  5
4FA
330
4DE
100
AcDbEntity
  8
QUOTE
 62
     0
100
AcDbTrace
 10
69.2164908915091
 20
19.74691387912742
 30
0.0
 11
69.2164908915091
 21
14.74691387912742
 31
0.0
 12
54.2164908915091
 22
17.24691387912742
 32
0.0
 13
54.2164908915091
 23
17.24691387912742
 33
0.0
  0
MTEXT
  5
4FB
330
4DE
100
AcDbEntity
  8
QUOTE
 62
     0
100
AcDbMText
 10
168.1879725115091
 20
17.24691387912742
 30
0.0
 40
10.0
 41
0.0
 71
     5
 72
     1
  1
\A1;220
 73
     1
 44
1.0
1001
ACAD
1000
MTEXTBEGIN
1070
    73
1070
     1
1070
    44
1040
1.0
1070
    74
1070
     0
1000
MTEXTEND
  0
POINT
  5
4FC
330
4DE
100
AcDbEntity
  8
Defpoints
 62
     0
100
AcDbPoint
 10
274.2164908915091
 20
51.20660577912743
 30
0.0
  0
POINT
  5
4FD
330
4DE
100
AcDbEntity
  8
Defpoints
 62
     0
100
AcDbPoint
 10
54.2164908915091
 20
51.26910446912742
 30
0.0
  0
POINT
  5
4FE
330
4DE
100
AcDbEntity
  8
Defpoints
 62
     0
100
AcDbPoint
 10
54.2164908915091
 20
17.24691387912742
 30
0.0
  0
ENDBLK
  5
4E0
330
4DE
100
AcDbEntity
  8
0
100
AcDbBlockEnd
  0
ENDSEC
  0
SECTION
  2
ENTITIES
  0
CIRCLE
  5
32A
330
1F
100
AcDbEntity
  8
0
 62
     7
370
    35
100
AcDbCircle
 10
69.2164908915091
 20
456.2066057791274
 30
0.0
 40
7.0
  0
CIRCLE
  5
32B
330
1F
100
AcDbEntity
  8
0
 62
     7
370
    35
100
AcDbCircle
 10
259.2164908915091
 20
456.2066057791274
 30
0.0
 40
7.0
  0
CIRCLE
  5
32C
330
1F
100
AcDbEntity
  8
0
 62
     7
370
    35
100
AcDbCircle
 10
69.2164908915091
 20
294.2066057791274
 30
0.0
 40
7.0
  0
CIRCLE
  5
32D
330
1F
100
AcDbEntity
  8
0
 62
     7
370
    35
100
AcDbCircle
 10
259.2164908915091
 20
294.2066057791274
 30
0.0
 40
7.0
  0
CIRCLE
  5
32E
330
1F
100
AcDbEntity
  8
0
 62
     7
370
    35
100
AcDbCircle
 10
259.2164908915091
 20
51.20660577912743
 30
0.0
 40
7.0
  0
CIRCLE
  5
32F
330
1F
100
AcDbEntity
  8
0
 62
     7
370
    35
100
AcDbCircle
 10
69.2164908915091
 20
51.20660577912743
 30
0.0
 40
7.0
  0
LINE
  5
330
330
1F
100
AcDbEntity
  8
0
 62
     7
 48
0.036012
370
    35
100
AcDbLine
 10
68.46057089150909
 20
57.20202777912742
 30
0.0
 11
69.90104589150909
 21
57.20202777912742
 31
0.0
  0
LINE
  5
331
330
1F
100
AcDbEntity
  8
0
 62
     7
 48
0.30255
370
    35
100
AcDbLine
 10
69.90104589150909
 20
45.10003877912742
 30
0.0
 11
69.90104589150909
 21
57.20202777912742
 31
0.0
  0
LINE
  5
332
330
1F
100
AcDbEntity
  8
0
 62
     7
 48
0.036012
370
    35
100
AcDbLine
 10
69.90104589150909
 20
45.10003877912742
 30
0.0
 11
68.46057089150909
 21
45.10003877912742
 31
0.0
  0
LINE
  5
333
330
1F
100
AcDbEntity
  8
0
 62
     7
 48
0.30255
370
    35
100
AcDbLine
 10
68.46057089150909
 20
57.20202777912742
 30
0.0
 11
68.46057089150909
 21
45.10003877912742
 31
0.0
  0
LINE
  5
334
330
1F
100
AcDbEntity
  8
0
 62
     7
 48
0.03336
370
    35
100
AcDbLine
 10
258.5979608915091
 20
57.33717477912742
 30
0.0
 11
259.9323418915091
 21
57.33717477912742
 31
0.0
  0
LINE
  5
335
330
1F
100
AcDbEntity
  8
0
 62
     7
 48
0.307871
370
    35
100
AcDbLine
 10
259.9323418915091
 20
45.02234077912742
 30
0.0
 11
259.9323418915091
 21
57.33717477912742
 31
0.0
  0
LINE
  5
336
330
1F
100
AcDbEntity
  8
0
 62
     7
 48
0.03336
370
    35
100
AcDbLine
 10
259.9323418915091
 20
45.02234077912742
 30
0.0
 11
258.5979608915091
 21
45.02234077912742
 31
0.0
  0
LINE
  5
337
330
1F
100
AcDbEntity
  8
0
 62
     7
 48
0.307871
370
    35
100
AcDbLine
 10
258.5979608915091
 20
57.33717477912742
 30
0.0
 11
258.5979608915091
 21
45.02234077912742
 31
0.0
  0
LINE
  5
338
330
1F
100
AcDbEntity
  8
0
 62
     7
 48
0.035134
370
    35
100
AcDbLine
 10
68.5578758915091
 20
300.3632827791274
 30
0.0
 11
69.9632258915091
 21
300.3632827791274
 31
0.0
  0
LINE
  5
339
330
1F
100
AcDbEntity
  8
0
 62
     7
 48
0.309845
370
    35
100
AcDbLine
 10
69.9632258915091
 20
287.9694837791275
 30
0.0
 11
69.9632258915091
 21
300.3632827791274
 31
0.0
  0
LINE
  5
33A
330
1F
100
AcDbEntity
  8
0
 62
     7
 48
0.035134
370
    35
100
AcDbLine
 10
69.9632258915091
 20
287.9694837791275
 30
0.0
 11
68.5578758915091
 21
287.9694837791275
 31
0.0
  0
LINE
  5
33B
330
1F
100
AcDbEntity
  8
0
 62
     7
 48
0.309845
370
    35
100
AcDbLine
 10
68.5578758915091
 20
300.3632827791274
 30
0.0
 11
68.5578758915091
 21
287.9694837791275
 31
0.0
  0
LINE
  5
33C
330
1F
100
AcDbEntity
  8
0
 62
     7
 48
0.035134
370
    35
100
AcDbLine
 10
259.8751218915091
 20
300.3632827791274
 30
0.0
 11
258.4697568915091
 21
300.3632827791274
 31
0.0
  0
LINE
  5
33D
330
1F
100
AcDbEntity
  8
0
 62
     7
 48
0.309845
370
    35
100
AcDbLine
 10
258.4697568915091
 20
287.9694837791275
 30
0.0
 11
258.4697568915091
 21
300.3632827791274
 31
0.0
  0
LINE
  5
33E
330
1F
100
AcDbEntity
  8
0
 62
     7
 48
0.309845
370
    35
100
AcDbLine
 10
259.8751218915091
 20
300.3632827791274
 30
0.0
 11
259.8751218915091
 21
287.9694837791275
 31
0.0
  0
LINE
  5
33F
330
1F
100
AcDbEntity
  8
0
 62
     7
 48
0.035134
370
    35
100
AcDbLine
 10
258.4697568915091
 20
287.9694837791275
 30
0.0
 11
259.8751218915091
 21
287.9694837791275
 31
0.0
  0
LINE
  5
340
330
1F
100
AcDbEntity
  8
0
 62
     7
 48
0.024371
370
    35
100
AcDbLine
 10
68.7218468915091
 20
462.6347057791274
 30
0.0
 11
69.69666989150908
 21
462.6347057791274
 31
0.0
  0
LINE
  5
341
330
1F
100
AcDbEntity
  8
0
 62
     7
 48
0.321996
370
    35
100
AcDbLine
 10
69.69666989150908
 20
449.7548847791274
 30
0.0
 11
69.69666989150908
 21
462.6347057791274
 31
0.0
  0
LINE
  5
342
330
1F
100
AcDbEntity
  8
0
 62
     7
 48
0.024371
370
    35
100
AcDbLine
 10
69.69666989150908
 20
449.7548847791274
 30
0.0
 11
68.7218468915091
 21
449.7548847791274
 31
0.0
  0
LINE
  5
343
330
1F
100
AcDbEntity
  8
0
 62
     7
 48
0.321996
370
    35
100
AcDbLine
 10
68.7218468915091
 20
462.6347057791274
 30
0.0
 11
68.7218468915091
 21
449.7548847791274
 31
0.0
  0
LINE
  5
344
330
1F
100
AcDbEntity
  8
0
 62
     7
 48
0.321996
370
    35
100
AcDbLine
 10
258.7363278915091
 20
449.7548847791274
 30
0.0
 11
258.7363278915091
 21
462.6347057791274
 31
0.0
  0
LINE
  5
345
330
1F
100
AcDbEntity
  8
0
 62
     7
 48
0.02437
370
    35
100
AcDbLine
 10
259.7111198915091
 20
462.6347057791274
 30
0.0
 11
258.7363278915091
 21
462.6347057791274
 31
0.0
  0
LINE
  5
346
330
1F
100
AcDbEntity
  8
0
 62
     7
 48
0.321996
370
    35
100
AcDbLine
 10
259.7111198915091
 20
462.6347057791274
 30
0.0
 11
259.7111198915091
 21
449.7548847791274
 31
0.0
  0
LINE
  5
347
330
1F
100
AcDbEntity
  8
0
 62
     7
 48
0.02437
370
    35
100
AcDbLine
 10
258.7363278915091
 20
449.7548847791274
 30
0.0
 11
259.7111198915091
 21
449.7548847791274
 31
0.0
  0
LINE
  5
348
330
1F
100
AcDbEntity
  8
0
 62
     7
 48
0.129758
370
    35
100
AcDbLine
 10
274.2164908915091
 20
56.39692877912743
 30
0.0
 11
274.2164908915091
 21
51.20660577912743
 31
0.0
  0
LINE
  5
349
330
1F
100
AcDbEntity
  8
0
 62
     7
 48
0.259515
370
    35
100
AcDbLine
 10
274.2164908915091
 20
299.3969137791274
 30
0.0
 11
274.2164908915091
 21
289.0162977791274
 31
0.0
  0
LINE
  5
34A
330
1F
100
AcDbEntity
  8
0
 62
     7
 48
0.129758
370
    35
100
AcDbLine
 10
274.2164908915091
 20
456.2066057791274
 30
0.0
 11
274.2164908915091
 21
451.0162977791273
 31
0.0
  0
ARC
  5
34B
330
1F
100
AcDbEntity
  8
0
 62
     7
370
    35
100
AcDbCircle
 10
259.2164908915091
 20
456.2066057791274
 30
0.0
 40
15.0
100
AcDbArc
 50
0.0
 51
90.0
  0
LINE
  5
34C
330
1F
100
AcDbEntity
  8
0
 62
     7
370
    35
100
AcDbLine
 10
259.2164908915091
 20
471.2066057791274
 30
0.0
 11
69.2164908915091
 21
471.2066057791274
 31
0.0
  0
ARC
  5
34D
330
1F
100
AcDbEntity
  8
0
 62
     7
370
    35
100
AcDbCircle
 10
69.2164908915091
 20
456.2066057791274
 30
0.0
 40
15.0
100
AcDbArc
 50
90.0
 51
180.0
  0
LINE
  5
34E
330
1F
100
AcDbEntity
  8
0
 62
     7
370
    35
100
AcDbLine
 10
54.2164908915091
 20
51.20660577912743
 30
0.0
 11
54.2164908915091
 21
456.2066057791274
 31
0.0
  0
ARC
  5
34F
330
1F
100
AcDbEntity
  8
0
 62
     7
370
    35
100
AcDbCircle
 10
69.2164908915091
 20
51.20660577912743
 30
0.0
 40
15.0
100
AcDbArc
 50
180.0
 51
200.2441429999999
  0
ARC
  5
350
330
1F
100
AcDbEntity
  8
0
 62
     7
370
    35
100
AcDbCircle
 10
259.2164908915091
 20
51.20660577912743
 30
0.0
 40
15.0
100
AcDbArc
 50
339.7558549999999
 51
0.0
  0
LINE
  5
351
330
1F
100
AcDbEntity
  8
0
 62
   253
370
    35
100
AcDbLine
 10
264.9815668915091
 20
333.0059527791274
 30
0.0
 11
264.9812618915091
 21
418.9796767791274
 31
0.0
  0
ARC
  5
352
330
1F
100
AcDbEntity
  8
0
 62
   253
370
    35
100
AcDbCircle
 10
262.9411618915091
 20
418.9768387791274
 30
0.0
 40
2.040195
100
AcDbArc
 50
0.0802970000000133
 51
6.676644000000043
  0
ARC
  5
353
330
1F
100
AcDbEntity
  8
0
 62
   253
370
    35
100
AcDbCircle
 10
262.9820548915091
 20
418.9802257791273
 30
0.0
 40
1.999050999999999
100
AcDbArc
 50
29.99454000000003
 51
34.33495099999988
  0
ARC
  5
354
330
1F
100
AcDbEntity
  8
0
 62
   253
370
    35
100
AcDbCircle
 10
262.9812618915091
 20
418.9797077791273
 30
0.0
 40
1.999993
100
AcDbArc
 50
60.9950239999999
 51
90.0
  0
LINE
  5
355
330
1F
100
AcDbEntity
  8
0
 62
   253
370
    35
100
AcDbLine
 10
262.9812618915091
 20
420.9796767791273
 30
0.0
 11
65.45170589150909
 21
420.9796767791273
 31
0.0
  0
ARC
  5
356
330
1F
100
AcDbEntity
  8
0
 62
   253
370
    35
100
AcDbCircle
 10
65.45170589150909
 20
418.9797077791273
 30
0.0
 40
1.999993
100
AcDbArc
 50
90.0
 51
119.0048989999999
  0
ARC
  5
357
330
1F
100
AcDbEntity
  8
0
 62
   253
370
    35
100
AcDbCircle
 10
65.4510188915091
 20
418.9801647791274
 30
0.0
 40
1.999168
100
AcDbArc
 50
145.6557099999999
 51
149.579654
  0
ARC
  5
358
330
1F
100
AcDbEntity
  8
0
 62
   253
370
    35
100
AcDbCircle
 10
65.46035689150909
 20
418.9783647791274
 30
0.0
 40
2.00872
100
AcDbArc
 50
165.0202249999999
 51
179.9621109999999
  0
LINE
  5
359
330
1F
100
AcDbEntity
  8
0
 62
   253
370
    35
100
AcDbLine
 10
63.45139989150909
 20
333.0059527791274
 30
0.0
 11
63.45170589150909
 21
418.9796767791274
 31
0.0
  0
ELLIPSE
  5
35A
330
1F
100
AcDbEntity
  8
0
 62
   253
370
    35
100
AcDbEllipse
 10
264.4810478915091
 20
331.0139177791274
 30
0.0
 11
-0.3535461399999999
 21
0.3535461399999999
 31
0.0
210
0.0
220
0.0
230
1.0
 40
0.9996950000000001
 41
2.3560422
 42
3.14159265
  0
ELLIPSE
  5
35B
330
1F
100
AcDbEntity
  8
0
 62
   253
370
    35
100
AcDbEllipse
 10
63.95193389150909
 20
331.0139177791274
 30
0.0
 11
0.3535461399999999
 21
0.3535461399999999
 31
0.0
210
0.0
220
0.0
230
1.0
 40
0.9996950000000001
 41
3.14159265
 42
3.927143109999999
  0
ELLIPSE
  5
35C
330
1F
100
AcDbEntity
  8
0
 62
   253
370
    13
100
AcDbEllipse
 10
264.4086908915091
 20
311.5173967791275
 30
0.0
 11
-0.5
 21
0.0012207
 31
0.0
210
0.0
220
0.0
230
1.0
 40
0.139173
 41
2.52496481
 42
3.15921749
  0
LINE
  5
35D
330
1F
100
AcDbEntity
  8
0
 62
   253
 48
0.4069840000000001
370
    35
100
AcDbLine
 10
199.9371328915091
 20
330.5406507791274
 30
0.0
 11
216.2164908915091
 21
330.5406507791274
 31
0.0
  0
LINE
  5
35E
330
1F
100
AcDbEntity
  8
0
 62
   253
 48
0.1
370
    35
100
AcDbLine
 10
216.2164908915091
 20
330.5406507791274
 30
0.0
 11
220.2164908915091
 21
330.5406507791274
 31
0.0
  0
LINE
  5
35F
330
1F
100
AcDbEntity
  8
0
 62
   253
 48
0.2
370
    35
100
AcDbLine
 10
220.2164908915091
 20
330.5406507791274
 30
0.0
 11
228.2164908915091
 21
330.5406507791274
 31
0.0
  0
LINE
  5
360
330
1F
100
AcDbEntity
  8
0
 62
   253
 48
0.1
370
    35
100
AcDbLine
 10
228.2164908915091
 20
330.5406507791274
 30
0.0
 11
232.2164908915091
 21
330.5406507791274
 31
0.0
  0
LINE
  5
361
330
1F
100
AcDbEntity
  8
0
 62
   253
370
    35
100
AcDbLine
 10
232.2164908915091
 20
330.5406507791274
 30
0.0
 11
262.9812618915091
 21
330.5406507791274
 31
0.0
  0
LINE
  5
362
330
1F
100
AcDbEntity
  8
0
 62
   253
370
    35
100
AcDbLine
 10
65.45170589150909
 20
330.5406507791274
 30
0.0
 11
96.2164908915091
 21
330.5406507791274
 31
0.0
  0
LINE
  5
363
330
1F
100
AcDbEntity
  8
0
 62
   253
 48
0.1
370
    35
100
AcDbLine
 10
96.2164908915091
 20
330.5406507791274
 30
0.0
 11
100.2164908915091
 21
330.5406507791274
 31
0.0
  0
LINE
  5
364
330
1F
100
AcDbEntity
  8
0
 62
   253
 48
0.2
370
    35
100
AcDbLine
 10
100.2164908915091
 20
330.5406507791274
 30
0.0
 11
108.2164908915091
 21
330.5406507791274
 31
0.0
  0
LINE
  5
365
330
1F
100
AcDbEntity
  8
0
 62
   253
 48
0.1
370
    35
100
AcDbLine
 10
108.2164908915091
 20
330.5406507791274
 30
0.0
 11
112.2164908915091
 21
330.5406507791274
 31
0.0
  0
LINE
  5
366
330
1F
100
AcDbEntity
  8
0
 62
   253
 48
0.4069840000000001
370
    35
100
AcDbLine
 10
112.2164908915091
 20
330.5406507791274
 30
0.0
 11
128.4958638915091
 21
330.5406507791274
 31
0.0
  0
LINE
  5
367
330
1F
100
AcDbEntity
  8
0
 62
   253
 48
0.035079
370
    35
100
AcDbLine
 10
128.9939568915091
 20
331.0405597791274
 30
0.0
 11
128.9939568915091
 21
332.4437267791275
 31
0.0
  0
ARC
  5
368
330
1F
100
AcDbEntity
  8
0
 62
   253
370
    35
100
AcDbCircle
 10
130.7806848915091
 20
332.4495257791274
 30
0.0
 40
1.786661999999999
100
AcDbArc
 50
125.595568
 51
180.186323
  0
ARC
  5
369
330
1F
100
AcDbEntity
  8
0
 62
   253
370
    35
100
AcDbCircle
 10
144.2071218915091
 20
313.6256727791274
 30
0.0
 40
24.909151
100
AcDbArc
 50
89.97843999999991
 51
125.505955
  0
LINE
  5
36A
330
1F
100
AcDbEntity
  8
0
 62
   253
370
    35
100
AcDbLine
 10
184.2164908915091
 20
338.5353407791274
 30
0.0
 11
144.2164908915091
 21
338.5353407791274
 31
0.0
  0
ARC
  5
36B
330
1F
100
AcDbEntity
  8
0
 62
   253
370
    35
100
AcDbCircle
 10
184.2258298915091
 20
313.6255207791275
 30
0.0
 40
24.909298
100
AcDbArc
 50
54.49417599999996
 51
90.02149700000002
  0
ARC
  5
36C
330
1F
100
AcDbEntity
  8
0
 62
   253
370
    35
100
AcDbCircle
 10
197.6523128915091
 20
332.4495257791274
 30
0.0
 40
1.786629999999999
100
AcDbArc
 50
359.8130039999999
 51
54.40470400000002
  0
LINE
  5
36D
330
1F
100
AcDbEntity
  8
0
 62
   253
 48
0.035078
370
    35
100
AcDbLine
 10
199.4390258915091
 20
331.0405597791274
 30
0.0
 11
199.4390258915091
 21
332.4436967791275
 31
0.0
  0
LINE
  5
36E
330
1F
100
AcDbEntity
  8
0
 62
   253
 48
0.000343
370
    35
100
AcDbLine
 10
63.96163889150909
 20
330.5043047791274
 30
0.0
 11
63.95193389150909
 21
330.5139787791274
 31
0.0
  0
LINE
  5
36F
330
1F
100
AcDbEntity
  8
0
 62
   253
 48
0.003719
370
    35
100
AcDbLine
 10
128.4958638915091
 20
330.5406507791274
 30
0.0
 11
128.6417538915091
 21
330.5115377791275
 31
0.0
  0
ARC
  5
370
330
1F
100
AcDbEntity
  8
0
 62
   253
370
    35
100
AcDbCircle
 10
143.5890798915091
 20
1563.628785779127
 30
0.0
 40
1233.227052
100
AcDbArc
 50
269.351
 51
270.029149
  0
LINE
  5
371
330
1F
100
AcDbEntity
  8
0
 62
   253
370
    35
100
AcDbLine
 10
184.2164908915091
 20
330.4011247791275
 30
0.0
 11
144.2164908915091
 21
330.4011247791275
 31
0.0
  0
ARC
  5
372
330
1F
100
AcDbEntity
  8
0
 62
   253
370
    35
100
AcDbCircle
 10
184.843871891509
 20
1563.630738779127
 30
0.0
 40
1233.229111
100
AcDbArc
 50
269.970853
 51
270.649002
  0
LINE
  5
373
330
1F
100
AcDbEntity
  8
0
 62
   253
 48
0.00372
370
    35
100
AcDbLine
 10
199.9371328915091
 20
330.5406507791274
 30
0.0
 11
199.7912288915091
 21
330.5115377791275
 31
0.0
  0
ELLIPSE
  5
374
330
1F
100
AcDbEntity
  8
0
 62
   253
370
    13
100
AcDbEllipse
 10
64.0243068915091
 20
311.5173967791275
 30
0.0
 11
-0.5
 21
-0.0012207
 31
0.0
210
0.0
220
0.0
230
1.0
 40
0.139173
 41
6.265560469999999
 42
6.899813707179585
  0
ELLIPSE
  5
375
330
1F
100
AcDbEntity
  8
0
 62
   253
370
    35
100
AcDbEllipse
 10
199.9371328915091
 20
331.0405597791274
 30
0.0
 11
-0.09783936
 21
0.4903259300000001
 31
0.0
210
0.0
220
0.0
230
1.0
 40
0.996044
 41
1.374628899999999
 42
2.943904139999999
  0
ELLIPSE
  5
376
330
1F
100
AcDbEntity
  8
0
 62
   253
370
    35
100
AcDbEllipse
 10
128.4958638915091
 20
331.0405597791274
 30
0.0
 11
0.09783936
 21
0.4903259300000001
 31
0.0
210
0.0
220
0.0
230
1.0
 40
0.996044
 41
3.33928116
 42
4.90855641
  0
LINE
  5
377
330
1F
100
AcDbEntity
  8
0
 62
   253
 48
0.024136
370
    35
100
AcDbLine
 10
144.2164908915091
 20
338.5353407791274
 30
0.0
 11
144.2164908915091
 21
337.5698867791274
 31
0.0
  0
LINE
  5
378
330
1F
100
AcDbEntity
  8
0
 62
   253
 48
0.024136
370
    35
100
AcDbLine
 10
184.2164908915091
 20
338.5353407791274
 30
0.0
 11
184.2164908915091
 21
337.5698867791274
 31
0.0
  0
LINE
  5
379
330
1F
100
AcDbEntity
  8
0
 62
   253
 48
0.01198
370
    35
100
AcDbLine
 10
144.2164908915091
 20
330.8803417791275
 30
0.0
 11
144.2164908915091
 21
330.4011247791275
 31
0.0
  0
LINE
  5
37A
330
1F
100
AcDbEntity
  8
0
 62
   253
 48
0.01198
370
    35
100
AcDbLine
 10
184.2164908915091
 20
330.8803417791275
 30
0.0
 11
184.2164908915091
 21
330.4011247791275
 31
0.0
  0
LINE
  5
37B
330
1F
100
AcDbEntity
  8
0
 62
   253
 48
0.167238
370
    35
100
AcDbLine
 10
144.2164908915091
 20
337.5698867791274
 30
0.0
 11
144.2164908915091
 21
330.8803727791275
 31
0.0
  0
LINE
  5
37C
330
1F
100
AcDbEntity
  8
0
 62
   253
 48
0.167239
370
    35
100
AcDbLine
 10
184.2164908915091
 20
337.5698867791274
 30
0.0
 11
184.2164908915091
 21
330.8803417791275
 31
0.0
  0
LINE
  5
37D
330
1F
100
AcDbEntity
  8
0
 62
   253
 48
0.049789
370
    35
100
AcDbLine
 10
264.9815668915091
 20
333.0059527791274
 30
0.0
 11
264.9812618915091
 21
331.0143757791274
 31
0.0
  0
ARC
  5
37E
330
1F
100
AcDbEntity
  8
0
 62
   253
370
    35
100
AcDbCircle
 10
262.9812618915091
 20
418.9796767791274
 30
0.0
 40
2.0
100
AcDbArc
 50
6.728933999999926
 51
29.99603900000009
  0
ARC
  5
37F
330
1F
100
AcDbEntity
  8
0
 62
   253
370
    35
100
AcDbCircle
 10
262.9812618915091
 20
418.9796767791274
 30
0.0
 40
2.0
100
AcDbArc
 50
34.33439100000007
 51
60.99513299999989
  0
ARC
  5
380
330
1F
100
AcDbEntity
  8
0
 62
   253
370
    35
100
AcDbCircle
 10
65.45170589150909
 20
418.9796767791274
 30
0.0
 40
2.0
100
AcDbArc
 50
119.0047899999999
 51
145.6561749999999
  0
ARC
  5
381
330
1F
100
AcDbEntity
  8
0
 62
   253
370
    35
100
AcDbCircle
 10
65.45170589150909
 20
418.9796767791274
 30
0.0
 40
2.0
100
AcDbArc
 50
149.5785060000001
 51
164.9928639999999
  0
LINE
  5
382
330
1F
100
AcDbEntity
  8
0
 62
   253
 48
0.049789
370
    35
100
AcDbLine
 10
63.45139989150909
 20
333.0059527791274
 30
0.0
 11
63.45170589150909
 21
331.0143757791274
 31
0.0
  0
ARC
  5
383
330
1F
100
AcDbEntity
  8
0
 62
   253
370
    35
100
AcDbCircle
 10
264.4805288915091
 20
331.0144667791275
 30
0.0
 40
0.500732
100
AcDbArc
 50
314.997188
 51
359.990554
  0
ARC
  5
384
330
1F
100
AcDbEntity
  8
0
 62
   253
370
    35
100
AcDbCircle
 10
63.95243789150909
 20
331.0144667791275
 30
0.0
 40
0.500732
100
AcDbArc
 50
180.009448
 51
225.0028140000001
  0
LINE
  5
385
330
1F
100
AcDbEntity
  8
0
 62
   253
 48
0.000306
370
    35
100
AcDbLine
 10
264.8345938915091
 20
330.6603717791274
 30
0.0
 11
264.8259268915091
 21
330.6517047791274
 31
0.0
  0
LINE
  5
386
330
1F
100
AcDbEntity
  8
0
 62
   253
 48
0.465656
370
    35
100
AcDbLine
 10
264.9543758915091
 20
330.1423357791274
 30
0.0
 11
264.9086908915091
 21
311.5161457791274
 31
0.0
  0
ARC
  5
387
330
1F
100
AcDbEntity
  8
0
 62
   253
370
    35
100
AcDbCircle
 10
293.0417778915091
 20
330.1849987791275
 30
0.0
 40
28.087143
100
AcDbArc
 50
178.5720169999999
 51
180.0870389999999
  0
LINE
  5
388
330
1F
100
AcDbEntity
  8
0
 62
   253
 48
0.000624
370
    35
100
AcDbLine
 10
264.8346548915091
 20
330.6610427791274
 30
0.0
 11
264.8170158915091
 21
330.6433727791274
 31
0.0
  0
LINE
  5
389
330
1F
100
AcDbEntity
  8
0
 62
   253
 48
0.000306
370
    35
100
AcDbLine
 10
63.60705489150909
 20
330.6517047791274
 30
0.0
 11
63.59838789150909
 21
330.6603717791274
 31
0.0
  0
LINE
  5
38A
330
1F
100
AcDbEntity
  8
0
 62
   253
 48
0.00062
370
    35
100
AcDbLine
 10
63.59840389150909
 20
330.6609817791274
 30
0.0
 11
63.61592089150909
 21
330.6434037791274
 31
0.0
  0
ARC
  5
38B
330
1F
100
AcDbEntity
  8
0
 62
   253
370
    35
100
AcDbCircle
 10
35.01374789150909
 20
330.1806347791274
 30
0.0
 40
28.464622
100
AcDbArc
 50
359.922889
 51
1.408302000000024
  0
LINE
  5
38C
330
1F
100
AcDbEntity
  8
0
 62
   253
 48
0.465656
370
    35
100
AcDbLine
 10
63.47860689150909
 20
330.1423357791274
 30
0.0
 11
63.52430689150909
 21
311.5161457791274
 31
0.0
  0
ARC
  5
38D
330
1F
100
AcDbEntity
  8
0
 62
   253
370
    35
100
AcDbCircle
 10
262.4161068915091
 20
311.5223707791274
 30
0.0
 40
2.492569
100
AcDbArc
 50
344.369023
 51
359.8569019999999
  0
ARC
  5
38E
330
1F
100
AcDbEntity
  8
0
 62
   253
370
    35
100
AcDbCircle
 10
66.01686089150908
 20
311.5223707791274
 30
0.0
 40
2.492559999999999
100
AcDbArc
 50
180.1430600000001
 51
195.631388
  0
ARC
  5
38F
330
1F
100
AcDbEntity
  8
0
 62
   253
370
    35
100
AcDbCircle
 10
65.60760489150908
 20
310.2691967791273
 30
0.0
 40
1.991138
100
AcDbArc
 50
179.96692
 51
270.1240749999999
  0
LINE
  5
390
330
1F
100
AcDbEntity
  8
0
 62
   253
370
    35
100
AcDbLine
 10
65.61192289150909
 20
308.2776507791274
 30
0.0
 11
262.8210448915091
 21
308.2776507791274
 31
0.0
  0
ARC
  5
391
330
1F
100
AcDbEntity
  8
0
 62
   253
370
    35
100
AcDbCircle
 10
262.8253778915091
 20
310.2691967791273
 30
0.0
 40
1.991138
100
AcDbArc
 50
269.875927
 51
0.0330860000000776
  0
ELLIPSE
  5
392
330
1F
100
AcDbEntity
  8
0
 62
   253
370
    35
100
AcDbEllipse
 10
161.2060848915091
 20
315.5199597791274
 30
0.0
 11
6.0
 21
0.0
 31
0.0
210
0.0
220
0.0
230
1.0
 40
0.9998479999999998
 41
3.925260709999999
 42
4.71238898
  0
ELLIPSE
  5
393
330
1F
100
AcDbEntity
  8
0
 62
   253
370
    35
100
AcDbEllipse
 10
164.2164908915091
 20
318.5195027791274
 30
0.0
 11
10.25
 21
0.0
 31
0.0
210
0.0
220
0.0
230
1.0
 40
0.9998479999999998
 41
3.14159265
 42
3.925260709999999
  0
LINE
  5
394
330
1F
100
AcDbEntity
  8
0
 62
   253
 48
0.00174
370
    35
100
AcDbLine
 10
153.9664908915091
 20
318.5195027791274
 30
0.0
 11
153.9664908915091
 21
318.5890827791273
 31
0.0
  0
ELLIPSE
  5
395
330
1F
100
AcDbEntity
  8
0
 62
   253
370
    35
100
AcDbEllipse
 10
167.2268978915091
 20
315.5199597791274
 30
0.0
 11
6.0
 21
0.0
 31
0.0
210
0.0
220
0.0
230
1.0
 40
0.9998479999999998
 41
4.71238898
 42
5.49951725
  0
LINE
  5
396
330
1F
100
AcDbEntity
  8
0
 62
   253
 48
0.15052
370
    35
100
AcDbLine
 10
161.2060848915091
 20
309.5208757791275
 30
0.0
 11
167.2268978915091
 21
309.5208757791275
 31
0.0
  0
ELLIPSE
  5
397
330
1F
100
AcDbEntity
  8
0
 62
   253
370
    35
100
AcDbEllipse
 10
164.2164908915091
 20
318.5195027791274
 30
0.0
 11
10.25
 21
0.0
 31
0.0
210
0.0
220
0.0
230
1.0
 40
0.9998479999999998
 41
6.28314778
 42
9.424777957179585
  0
ELLIPSE
  5
398
330
1F
100
AcDbEntity
  8
0
 62
   253
370
    35
100
AcDbEllipse
 10
164.2164908915091
 20
318.5195027791274
 30
0.0
 11
10.25
 21
0.0
 31
0.0
210
0.0
220
0.0
230
1.0
 40
0.9998479999999998
 41
5.49951725
 42
6.28314778
  0
LINE
  5
399
330
1F
100
AcDbEntity
  8
0
 62
   253
 48
0.016771
370
    35
100
AcDbLine
 10
184.2164908915091
 20
322.6812757791274
 30
0.0
 11
184.2164908915091
 21
322.0104387791274
 31
0.0
  0
ARC
  5
39A
330
1F
100
AcDbEntity
  8
0
 62
   253
370
    35
100
AcDbCircle
 10
161.3087758915091
 20
317.4001477791275
 30
0.0
 40
13.366272
100
AcDbArc
 50
20.17714499999994
 51
23.26567200000006
  0
LINE
  5
39B
330
1F
100
AcDbEntity
  8
0
 62
   253
 48
0.000533
370
    35
100
AcDbLine
 10
173.5882558915091
 20
322.6812757791274
 30
0.0
 11
173.5882558915091
 21
322.7025777791274
 31
0.0
  0
LINE
  5
39C
330
1F
100
AcDbEntity
  8
0
 62
   253
 48
0.000446
370
    35
100
AcDbLine
 10
184.2164908915091
 20
322.6991287791274
 30
0.0
 11
184.2164908915091
 21
322.6812757791274
 31
0.0
  0
LINE
  5
39D
330
1F
100
AcDbEntity
  8
0
 62
   253
 48
0.251478
370
    35
100
AcDbLine
 10
174.1573788915091
 20
322.6991287791274
 30
0.0
 11
184.2164908915091
 21
322.6991287791274
 31
0.0
  0
LINE
  5
39E
330
1F
100
AcDbEntity
  8
0
 62
   253
 48
0.014228
370
    35
100
AcDbLine
 10
174.1573788915091
 20
322.6991287791274
 30
0.0
 11
173.5882558915091
 21
322.7025777791274
 31
0.0
  0
LINE
  5
39F
330
1F
100
AcDbEntity
  8
0
 62
   253
 48
0.014228
370
    35
100
AcDbLine
 10
154.2756038915091
 20
322.6991287791274
 30
0.0
 11
154.8447258915091
 21
322.7025777791274
 31
0.0
  0
LINE
  5
3A0
330
1F
100
AcDbEntity
  8
0
 62
   253
 48
0.000446
370
    35
100
AcDbLine
 10
144.2164908915091
 20
322.6991287791274
 30
0.0
 11
144.2164908915091
 21
322.6812757791274
 31
0.0
  0
LINE
  5
3A1
330
1F
100
AcDbEntity
  8
0
 62
   253
 48
0.000533
370
    35
100
AcDbLine
 10
154.8447258915091
 20
322.6812757791274
 30
0.0
 11
154.8447258915091
 21
322.7025777791274
 31
0.0
  0
LINE
  5
3A2
330
1F
100
AcDbEntity
  8
0
 62
   253
 48
0.251478
370
    35
100
AcDbLine
 10
144.2164908915091
 20
322.6991287791274
 30
0.0
 11
154.2756038915091
 21
322.6991287791274
 31
0.0
  0
LINE
  5
3A3
330
1F
100
AcDbEntity
  8
0
 62
   253
 48
0.016769
370
    35
100
AcDbLine
 10
144.2164908915091
 20
322.6812757791274
 30
0.0
 11
144.2164908915091
 21
322.0104997791275
 31
0.0
  0
ARC
  5
3A4
330
1F
100
AcDbEntity
  8
0
 62
   253
370
    35
100
AcDbCircle
 10
167.1242058915091
 20
317.4001477791275
 30
0.0
 40
13.366272
100
AcDbArc
 50
156.7343319999999
 51
159.8228610000001
  0
ARC
  5
3A5
330
1F
100
AcDbEntity
  8
0
 62
   253
370
    35
100
AcDbCircle
 10
164.2894588915091
 20
318.5205097791274
 30
0.0
 40
10.181821
100
AcDbArc
 50
4.358457000000001
 51
20.04494700000002
  0
ARC
  5
3A6
330
1F
100
AcDbEntity
  8
0
 62
   253
370
    35
100
AcDbCircle
 10
164.2124018915091
 20
318.5890517791274
 30
0.0
 40
10.254083
100
AcDbArc
 50
0.0001880000000312
 51
3.384006999999933
  0
LINE
  5
3A7
330
1F
100
AcDbEntity
  8
0
 62
   253
 48
0.002505
370
    35
100
AcDbLine
 10
174.4486078915091
 20
319.1943377791274
 30
0.0
 11
174.4420768915091
 21
319.2943127791274
 31
0.0
  0
ARC
  5
3A8
330
1F
100
AcDbEntity
  8
0
 62
   253
370
    35
100
AcDbCircle
 10
198.9159238915091
 20
324.6011367791274
 30
0.0
 40
1.065674
100
AcDbArc
 50
95.36345599999995
 51
103.4885609999999
  0
LINE
  5
3A9
330
1F
100
AcDbEntity
  8
0
 62
   253
 48
0.067903
370
    35
100
AcDbLine
 10
184.2164908915091
 20
319.2943127791274
 30
0.0
 11
184.2164908915091
 21
322.0104387791274
 31
0.0
  0
LINE
  5
3AA
330
1F
100
AcDbEntity
  8
0
 62
   253
 48
0.005459
370
    35
100
AcDbLine
 10
197.7720638915091
 20
325.2424637791274
 30
0.0
 11
197.9628288915091
 21
325.3487257791274
 31
0.0
  0
LINE
  5
3AB
330
1F
100
AcDbEntity
  8
0
 62
   253
 48
0.002499
370
    35
100
AcDbLine
 10
184.2164908915091
 20
319.1943377791274
 30
0.0
 11
184.2164908915091
 21
319.2943127791274
 31
0.0
  0
LINE
  5
3AC
330
1F
100
AcDbEntity
  8
0
 62
   253
 48
0.2441969999999999
370
    35
100
AcDbLine
 10
174.4486078915091
 20
319.1943377791274
 30
0.0
 11
184.2164908915091
 21
319.1943377791274
 31
0.0
  0
ARC
  5
3AD
330
1F
100
AcDbEntity
  8
0
 62
   253
370
    35
100
AcDbCircle
 10
164.2192378915091
 20
318.5890827791273
 30
0.0
 40
10.252735
100
AcDbArc
 50
176.615756
 51
180.0
  0
ARC
  5
3AE
330
1F
100
AcDbEntity
  8
0
 62
   253
370
    35
100
AcDbCircle
 10
164.1435238915091
 20
318.5205097791274
 30
0.0
 40
10.181821
100
AcDbArc
 50
159.955053
 51
175.641538
  0
LINE
  5
3AF
330
1F
100
AcDbEntity
  8
0
 62
   253
 48
0.002505
370
    35
100
AcDbLine
 10
153.9843748915091
 20
319.1943377791274
 30
0.0
 11
153.9909048915091
 21
319.2943127791274
 31
0.0
  0
LINE
  5
3B0
330
1F
100
AcDbEntity
  8
0
 62
   253
 48
0.067903
370
    35
100
AcDbLine
 10
144.2164908915091
 20
319.2943127791274
 30
0.0
 11
144.2164908915091
 21
322.0104387791274
 31
0.0
  0
ARC
  5
3B1
330
1F
100
AcDbEntity
  8
0
 62
   253
370
    35
100
AcDbCircle
 10
129.5170588915091
 20
324.6011367791274
 30
0.0
 40
1.065678
100
AcDbArc
 50
76.51145100000007
 51
84.63654200000002
  0
LINE
  5
3B2
330
1F
100
AcDbEntity
  8
0
 62
   253
 48
0.009276
370
    35
100
AcDbLine
 10
129.6166528915091
 20
325.6620497791274
 30
0.0
 11
129.2456198915091
 21
325.6602187791274
 31
0.0
  0
LINE
  5
3B3
330
1F
100
AcDbEntity
  8
0
 62
   253
 48
0.005461
370
    35
100
AcDbLine
 10
130.4701528915091
 20
325.3487257791274
 30
0.0
 11
130.6610098915091
 21
325.2424337791274
 31
0.0
  0
LINE
  5
3B4
330
1F
100
AcDbEntity
  8
0
 62
   253
 48
0.002499
370
    35
100
AcDbLine
 10
144.2164908915091
 20
319.1943377791274
 30
0.0
 11
144.2164908915091
 21
319.2943127791274
 31
0.0
  0
LINE
  5
3B5
330
1F
100
AcDbEntity
  8
0
 62
   253
 48
0.002478
370
    35
100
AcDbLine
 10
129.2589258915091
 20
324.4790967791274
 30
0.0
 11
129.3207998915091
 21
324.5565197791274
 31
0.0
  0
LINE
  5
3B6
330
1F
100
AcDbEntity
  8
0
 62
   253
 48
0.2441969999999999
370
    35
100
AcDbLine
 10
144.2164908915091
 20
319.1943377791274
 30
0.0
 11
153.9843748915091
 21
319.1943377791274
 31
0.0
  0
LINE
  5
3B7
330
1F
100
AcDbEntity
  8
0
 62
   253
 48
0.000392
370
    35
100
AcDbLine
 10
198.4531858915091
 20
325.7011427791274
 30
0.0
 11
198.4406118915091
 21
325.6917437791275
 31
0.0
  0
LINE
  5
3B8
330
1F
100
AcDbEntity
  8
0
 62
   253
 48
0.00255
370
    35
100
AcDbLine
 10
198.4531858915091
 20
325.7011427791274
 30
0.0
 11
198.5325918915091
 21
325.7651387791274
 31
0.0
  0
ARC
  5
3B9
330
1F
100
AcDbEntity
  8
0
 62
   253
370
    35
100
AcDbCircle
 10
197.0702208915091
 20
327.4645097791274
 30
0.0
 40
2.242020999999999
100
AcDbArc
 50
310.7134159999999
 51
319.9234649999999
  0
ARC
  5
3BA
330
1F
100
AcDbEntity
  8
0
 62
   253
370
    35
100
AcDbCircle
 10
197.3822318915091
 20
327.2000747791275
 30
0.0
 40
1.833238
100
AcDbArc
 50
319.9692620000002
 51
355.4004610000001
  0
LINE
  5
3BB
330
1F
100
AcDbEntity
  8
0
 62
   253
 48
0.005738
370
    35
100
AcDbLine
 10
199.2100218915091
 20
327.2825637791274
 30
0.0
 11
199.2098078915091
 21
327.0530407791274
 31
0.0
  0
ARC
  5
3BC
330
1F
100
AcDbEntity
  8
0
 62
   253
370
    35
100
AcDbCircle
 10
191.2564078915091
 20
335.5046407791274
 30
0.0
 40
12.161644
100
AcDbArc
 50
303.282676
 51
306.2086639999999
  0
LINE
  5
3BD
330
1F
100
AcDbEntity
  8
0
 62
   253
 48
0.000111
370
    35
100
AcDbLine
 10
198.8163138915091
 20
325.6665057791274
 30
0.0
 11
198.8163138915091
 21
325.6620497791274
 31
0.0
  0
LINE
  5
3BE
330
1F
100
AcDbEntity
  8
0
 62
   253
 48
0.000066
370
    35
100
AcDbLine
 10
198.6669308915091
 20
325.6401077791275
 30
0.0
 11
198.6673278915091
 21
325.6375137791274
 31
0.0
  0
ARC
  5
3BF
330
1F
100
AcDbEntity
  8
0
 62
   253
370
    35
100
AcDbCircle
 10
198.9401238915091
 20
324.5363177791274
 30
0.0
 40
1.137038999999999
100
AcDbArc
 50
96.25213900000007
 51
103.902122
  0
LINE
  5
3C0
330
1F
100
AcDbEntity
  8
0
 62
   253
 48
0.001282
370
    35
100
AcDbLine
 10
199.1357418915091
 20
325.7250077791274
 30
0.0
 11
199.1870108915091
 21
325.7252827791274
 31
0.0
  0
ARC
  5
3C1
330
1F
100
AcDbEntity
  8
0
 62
   253
370
    35
100
AcDbCircle
 10
197.9396968915091
 20
331.3629777791274
 30
0.0
 40
5.763486
100
AcDbArc
 50
278.7482749999999
 51
281.977103
  0
ARC
  5
3C2
330
1F
100
AcDbEntity
  8
0
 62
   253
370
    35
100
AcDbCircle
 10
199.4458308915091
 20
322.7864697791274
 30
0.0
 40
2.959633
100
AcDbArc
 50
105.71594
 51
119.926388
  0
LINE
  5
3C3
330
1F
100
AcDbEntity
  8
0
 62
   253
 48
0.000579
370
    35
100
AcDbLine
 10
198.6669308915091
 20
325.6401077791275
 30
0.0
 11
198.6444088915091
 21
325.6346447791274
 31
0.0
  0
ARC
  5
3C4
330
1F
100
AcDbEntity
  8
0
 62
   253
370
    35
100
AcDbCircle
 10
197.9682608915091
 20
325.2788097791274
 30
0.0
 40
0.070196
100
AcDbArc
 50
94.5201669999999
 51
122.70357
  0
ARC
  5
3C5
330
1F
100
AcDbEntity
  8
0
 62
   253
370
    35
100
AcDbCircle
 10
131.0508718915091
 20
327.2002577791274
 30
0.0
 40
1.833418999999999
100
AcDbArc
 50
184.604813
 51
220.032512
  0
ARC
  5
3C6
330
1F
100
AcDbEntity
  8
0
 62
   253
370
    35
100
AcDbCircle
 10
131.3627618915091
 20
327.4645097791274
 30
0.0
 40
2.242024999999999
100
AcDbArc
 50
220.0765399999999
 51
229.286572
  0
LINE
  5
3C7
330
1F
100
AcDbEntity
  8
0
 62
   253
 48
0.00255
370
    35
100
AcDbLine
 10
129.9003748915091
 20
325.7651387791274
 30
0.0
 11
129.9798118915091
 21
325.7011427791274
 31
0.0
  0
LINE
  5
3C8
330
1F
100
AcDbEntity
  8
0
 62
   253
 48
0.000392
370
    35
100
AcDbLine
 10
129.9923548915091
 20
325.6917437791275
 30
0.0
 11
129.9798118915091
 21
325.7011427791274
 31
0.0
  0
LINE
  5
3C9
330
1F
100
AcDbEntity
  8
0
 62
   253
 48
0.005738
370
    35
100
AcDbLine
 10
129.2229608915091
 20
327.2825637791274
 30
0.0
 11
129.2231898915091
 21
327.0530407791274
 31
0.0
  0
ARC
  5
3CA
330
1F
100
AcDbEntity
  8
0
 62
   253
370
    35
100
AcDbCircle
 10
137.1765738915091
 20
335.5046097791273
 30
0.0
 40
12.161621
100
AcDbArc
 50
233.7913409999999
 51
236.7173259999999
  0
LINE
  5
3CB
330
1F
100
AcDbEntity
  8
0
 62
   253
 48
0.000111
370
    35
100
AcDbLine
 10
129.6166838915091
 20
325.6665057791274
 30
0.0
 11
129.6166528915091
 21
325.6620497791274
 31
0.0
  0
ARC
  5
3CC
330
1F
100
AcDbEntity
  8
0
 62
   253
370
    35
100
AcDbCircle
 10
129.4927058915091
 20
324.5361037791274
 30
0.0
 40
1.137267
100
AcDbArc
 50
76.09325899999991
 51
83.74171899999998
  0
LINE
  5
3CD
330
1F
100
AcDbEntity
  8
0
 62
   253
 48
0.000066
370
    35
100
AcDbLine
 10
129.7660668915091
 20
325.6401077791275
 30
0.0
 11
129.7656398915091
 21
325.6375137791274
 31
0.0
  0
LINE
  5
3CE
330
1F
100
AcDbEntity
  8
0
 62
   253
 48
0.000579
370
    35
100
AcDbLine
 10
129.7885888915091
 20
325.6346447791274
 30
0.0
 11
129.7660668915091
 21
325.6401077791275
 31
0.0
  0
ARC
  5
3CF
330
1F
100
AcDbEntity
  8
0
 62
   253
370
    35
100
AcDbCircle
 10
128.9871518915091
 20
322.7865007791274
 30
0.0
 40
2.959624
100
AcDbArc
 50
60.07350800000003
 51
74.28407199999991
  0
ARC
  5
3D0
330
1F
100
AcDbEntity
  8
0
 62
   253
370
    35
100
AcDbCircle
 10
130.4646598915091
 20
325.2787487791275
 30
0.0
 40
0.07028
100
AcDbArc
 50
57.26852999999999
 51
85.42017599999997
  0
LINE
  5
3D1
330
1F
100
AcDbEntity
  8
0
 62
   253
 48
0.4608010000000001
370
    35
100
AcDbLine
 10
63.61648489150909
 20
310.2703567791274
 30
0.0
 11
63.61648489150909
 21
328.7023937791274
 31
0.0
  0
LINE
  5
3D2
330
1F
100
AcDbEntity
  8
0
 62
   253
 48
0.4608010000000001
370
    35
100
AcDbLine
 10
264.8164968915091
 20
310.2703567791274
 30
0.0
 11
264.8164968915091
 21
328.7023937791274
 31
0.0
  0
LINE
  5
3D3
330
1F
100
AcDbEntity
  8
0
 62
   253
 48
0.14828
370
    35
100
AcDbLine
 10
184.2164908915091
 20
322.6995867791274
 30
0.0
 11
184.2164908915091
 21
328.6307697791274
 31
0.0
  0
LINE
  5
3D4
330
1F
100
AcDbEntity
  8
0
 62
   253
 48
0.14828
370
    35
100
AcDbLine
 10
144.2164908915091
 20
322.6995867791274
 30
0.0
 11
144.2164908915091
 21
328.6307997791274
 31
0.0
  0
LINE
  5
3D5
330
1F
100
AcDbEntity
  8
0
 62
   253
370
    35
100
AcDbLine
 10
68.3388208915091
 20
329.2005627791274
 30
0.0
 11
128.7408898915091
 21
329.2005627791274
 31
0.0
  0
LINE
  5
3D6
330
1F
100
AcDbEntity
  8
0
 62
   253
 48
0.024672
370
    35
100
AcDbLine
 10
68.3388208915091
 20
329.2005627791274
 30
0.0
 11
67.3519588915091
 21
329.2005627791274
 31
0.0
  0
LINE
  5
3D7
330
1F
100
AcDbEntity
  8
0
 62
   253
 48
0.024671
370
    35
100
AcDbLine
 10
261.0810238915091
 20
329.2005627791274
 30
0.0
 11
260.0941768915091
 21
329.2005627791274
 31
0.0
  0
LINE
  5
3D8
330
1F
100
AcDbEntity
  8
0
 62
   253
370
    35
100
AcDbLine
 10
199.6999508915091
 20
329.2005627791274
 30
0.0
 11
260.0941768915091
 21
329.2005627791274
 31
0.0
  0
ARC
  5
3D9
330
1F
100
AcDbEntity
  8
0
 62
   253
370
    35
100
AcDbCircle
 10
264.3197018915091
 20
328.7038897791274
 30
0.0
 40
0.4966630000000001
100
AcDbArc
 50
359.826846
 51
90.06199300000005
  0
LINE
  5
3DA
330
1F
100
AcDbEntity
  8
0
 62
   253
 48
0.067465
370
    35
100
AcDbLine
 10
264.3191518915091
 20
329.2005627791274
 30
0.0
 11
261.6205438915091
 21
329.2005627791274
 31
0.0
  0
LINE
  5
3DB
330
1F
100
AcDbEntity
  8
0
 62
   253
 48
0.007601
370
    35
100
AcDbLine
 10
261.3164968915091
 20
329.2005627791274
 30
0.0
 11
261.6205438915091
 21
329.2005627791274
 31
0.0
  0
LINE
  5
3DC
330
1F
100
AcDbEntity
  8
0
 62
   253
 48
0.005887
370
    35
100
AcDbLine
 10
261.0810238915091
 20
329.2005627791274
 30
0.0
 11
261.3164968915091
 21
329.2005627791274
 31
0.0
  0
LINE
  5
3DD
330
1F
100
AcDbEntity
  8
0
 62
   253
 48
0.005887
370
    35
100
AcDbLine
 10
67.11648489150909
 20
329.2005627791274
 30
0.0
 11
67.3519588915091
 21
329.2005627791274
 31
0.0
  0
LINE
  5
3DE
330
1F
100
AcDbEntity
  8
0
 62
   253
 48
0.007601
370
    35
100
AcDbLine
 10
66.81243889150909
 20
329.2005627791274
 30
0.0
 11
67.11648489150909
 21
329.2005627791274
 31
0.0
  0
LINE
  5
3DF
330
1F
100
AcDbEntity
  8
0
 62
   253
 48
0.067465
370
    35
100
AcDbLine
 10
64.11382989150908
 20
329.2005627791274
 30
0.0
 11
66.81243889150909
 21
329.2005627791274
 31
0.0
  0
ARC
  5
3E0
330
1F
100
AcDbEntity
  8
0
 62
   253
370
    35
100
AcDbCircle
 10
64.11328089150909
 20
328.7038897791274
 30
0.0
 40
0.4966630000000001
100
AcDbArc
 50
89.93800500000004
 51
180.173154
  0
LINE
  5
3E1
330
1F
100
AcDbEntity
  8
0
 62
   253
 48
0.035384
370
    35
100
AcDbLine
 10
199.2100218915091
 20
327.2825637791274
 30
0.0
 11
199.2105708915091
 21
328.6979077791274
 31
0.0
  0
LINE
  5
3E2
330
1F
100
AcDbEntity
  8
0
 62
   253
 48
0.035384
370
    35
100
AcDbLine
 10
129.2229608915091
 20
327.2825637791274
 30
0.0
 11
129.2224268915091
 21
328.6979077791274
 31
0.0
  0
LINE
  5
3E3
330
1F
100
AcDbEntity
  8
0
 62
   253
 48
0.000581
370
    35
100
AcDbLine
 10
199.7088008915091
 20
329.1843887791274
 30
0.0
 11
199.6921078915091
 21
329.2005627791274
 31
0.0
  0
LINE
  5
3E4
330
1F
100
AcDbEntity
  8
0
 62
   253
 48
0.000581
370
    35
100
AcDbLine
 10
128.7408898915091
 20
329.2005627791274
 30
0.0
 11
128.7241968915091
 21
329.1843887791274
 31
0.0
  0
ARC
  5
3E5
330
1F
100
AcDbEntity
  8
0
 62
   253
370
    35
100
AcDbCircle
 10
128.7198328915091
 20
328.6813677791274
 30
0.0
 40
0.5030130000000001
100
AcDbArc
 50
1.776331999999969
 51
89.50294899999994
  0
LINE
  5
3E6
330
1F
100
AcDbEntity
  8
0
 62
   253
 48
0.011547
370
    35
100
AcDbLine
 10
184.2164908915091
 20
328.6308307791275
 30
0.0
 11
184.2164908915091
 21
329.0927137791274
 31
0.0
  0
LINE
  5
3E7
330
1F
100
AcDbEntity
  8
0
 62
   253
 48
0.011548
370
    35
100
AcDbLine
 10
144.2164908915091
 20
328.6307997791274
 30
0.0
 11
144.2164908915091
 21
329.0927137791274
 31
0.0
  0
ARC
  5
3E8
330
1F
100
AcDbEntity
  8
0
 62
   253
370
    35
100
AcDbCircle
 10
199.7133178915091
 20
328.6812147791275
 30
0.0
 40
0.503188
100
AcDbArc
 50
90.51674700000004
 51
178.0963769999999
  0
ARC
  5
3E9
330
1F
100
AcDbEntity
  8
0
 62
   253
370
    35
100
AcDbCircle
 10
199.6988218915091
 20
328.7084367791274
 30
0.0
 40
0.492117
100
AcDbArc
 50
90.77422499999988
 51
98.43219199999996
  0
ARC
  5
3EA
330
1F
100
AcDbEntity
  8
0
 62
   253
370
    35
100
AcDbCircle
 10
128.7315518915091
 20
328.7096877791274
 30
0.0
 40
0.490912
100
AcDbArc
 50
81.17166899999997
 51
88.91889300000007
  0
LINE
  5
3EB
330
1F
100
AcDbEntity
  8
0
 62
   253
 48
0.014227
370
    35
100
AcDbLine
 10
173.5883178915091
 20
322.7026997791274
 30
0.0
 11
174.1573788915091
 21
322.6992207791275
 31
0.0
  0
LINE
  5
3EC
330
1F
100
AcDbEntity
  8
0
 62
   253
 48
0.014227
370
    35
100
AcDbLine
 10
154.8446648915091
 20
322.7026997791274
 30
0.0
 11
154.2756038915091
 21
322.6992207791275
 31
0.0
  0
LINE
  5
3ED
330
1F
100
AcDbEntity
  8
0
 62
   253
 48
0.251478
370
    35
100
AcDbLine
 10
174.1573788915091
 20
322.6992207791275
 30
0.0
 11
184.2164908915091
 21
322.6992207791275
 31
0.0
  0
LINE
  5
3EE
330
1F
100
AcDbEntity
  8
0
 62
   253
 48
0.251478
370
    35
100
AcDbLine
 10
144.2164908915091
 20
322.6992207791275
 30
0.0
 11
154.2756038915091
 21
322.6992207791275
 31
0.0
  0
LINE
  5
3EF
330
1F
100
AcDbEntity
  8
0
 62
   253
 48
0.001749
370
    35
100
AcDbLine
 10
174.4664908915091
 20
318.5191057791274
 30
0.0
 11
174.4664908915091
 21
318.5890827791273
 31
0.0
  0
ARC
  5
3F0
330
1F
100
AcDbEntity
  8
0
 62
   253
370
    35
100
AcDbCircle
 10
196.4546808915091
 20
327.6104757791275
 30
0.0
 40
2.709747999999999
100
AcDbArc
 50
299.0873009999999
 51
302.9996939999999
  0
ARC
  5
3F1
330
1F
100
AcDbEntity
  8
0
 62
   253
370
    35
100
AcDbCircle
 10
131.9869838915091
 20
327.6248797791275
 30
0.0
 40
2.726554
100
AcDbArc
 50
237.011857
 51
240.9021419999999
  0
ARC
  5
3F2
330
1F
100
AcDbEntity
  8
0
 62
   253
370
    35
100
AcDbCircle
 10
184.8328548915091
 20
1565.299684779127
 30
0.0
 40
1236.206481
100
AcDbArc
 50
269.971434
 51
270.6436130000001
  0
LINE
  5
3F3
330
1F
100
AcDbEntity
  8
0
 62
   253
 48
0.398131
370
    35
100
AcDbLine
 10
168.2912588915091
 20
329.0927137791274
 30
0.0
 11
184.2164908915091
 21
329.0927137791274
 31
0.0
  0
LINE
  5
3F4
330
1F
100
AcDbEntity
  8
0
 62
   253
 48
0.398131
370
    35
100
AcDbLine
 10
144.2164908915091
 20
329.0927137791274
 30
0.0
 11
160.1417228915091
 21
329.0927137791274
 31
0.0
  0
ARC
  5
3F5
330
1F
100
AcDbEntity
  8
0
 62
   253
370
    35
100
AcDbCircle
 10
143.6001428915091
 20
1565.301392779127
 30
0.0
 40
1236.208134
100
AcDbArc
 50
269.3563889999999
 51
270.028568
  0
LINE
  5
3F6
330
1F
100
AcDbEntity
  8
0
 62
   253
 48
0.022843
370
    35
100
AcDbLine
 10
199.6324148915091
 20
329.1960157791274
 30
0.0
 11
198.7190238915091
 21
329.1719987791274
 31
0.0
  0
LINE
  5
3F7
330
1F
100
AcDbEntity
  8
0
 62
     7
 48
0.000664
370
    35
100
AcDbLine
 10
270.6663508915091
 20
451.0856337791274
 30
0.0
 11
270.6891168915091
 21
451.0719617791274
 31
0.0
  0
ARC
  5
3F8
330
1F
100
AcDbEntity
  8
0
 62
     7
370
    35
100
AcDbCircle
 10
271.490965891509
 20
493.3136007791274
 30
0.0
 40
42.25009199999999
100
AcDbArc
 50
268.912543
 51
270.2686360000001
  0
LINE
  5
3F9
330
1F
100
AcDbEntity
  8
0
 62
     7
 48
0.036801
370
    35
100
AcDbLine
 10
271.6890558915091
 20
451.0629897791273
 30
0.0
 11
273.1611018915091
 21
451.0585347791273
 31
0.0
  0
LINE
  5
3FA
330
1F
100
AcDbEntity
  8
0
 62
     7
 48
0.011649
370
    35
100
AcDbLine
 10
273.1611018915091
 20
451.0585347791273
 30
0.0
 11
273.6270438915091
 21
451.0566117791273
 31
0.0
  0
ARC
  5
3FB
330
1F
100
AcDbEntity
  8
0
 62
     7
370
    35
100
AcDbCircle
 10
273.7087398915091
 20
434.1204547791273
 30
0.0
 40
16.935699
100
AcDbArc
 50
88.46960999999994
 51
90.276311
  0
LINE
  5
3FC
330
1F
100
AcDbEntity
  8
0
 62
     7
 48
0.001617
370
    35
100
AcDbLine
 10
274.2164908915091
 20
451.0162977791273
 30
0.0
 11
274.1610098915091
 21
451.0495617791274
 31
0.0
  0
LINE
  5
3FD
330
1F
100
AcDbEntity
  8
0
 62
     7
 48
0.001436
370
    35
100
AcDbLine
 10
273.2898858915091
 20
461.3969137791274
 30
0.0
 11
273.243041891509
 21
461.3636487791274
 31
0.0
  0
ARC
  5
3FE
330
1F
100
AcDbEntity
  8
0
 62
     7
370
    35
100
AcDbCircle
 10
272.7656858915091
 20
480.5079967791274
 30
0.0
 40
19.150881
100
AcDbArc
 50
269.7297820000001
 51
271.428279
  0
LINE
  5
3FF
330
1F
100
AcDbEntity
  8
0
 62
     7
 48
0.012484
370
    35
100
AcDbLine
 10
272.6753838915091
 20
461.3565997791273
 30
0.0
 11
272.1760248915091
 21
461.3546767791274
 31
0.0
  0
LINE
  5
400
330
1F
100
AcDbEntity
  8
0
 62
     7
 48
0.049251
370
    35
100
AcDbLine
 10
272.1760248915091
 20
461.3546767791274
 30
0.0
 11
270.2059928915091
 21
461.3491837791274
 31
0.0
  0
ARC
  5
401
330
1F
100
AcDbEntity
  8
0
 62
     7
370
    35
100
AcDbCircle
 10
270.0166928915091
 20
402.9686297791275
 30
0.0
 40
58.38
100
AcDbArc
 50
89.81420099999992
 51
90.92452300000001
  0
LINE
  5
402
330
1F
100
AcDbEntity
  8
0
 62
     7
 48
0.000528
370
    35
100
AcDbLine
 10
269.0747068915091
 20
461.3401507791275
 30
0.0
 11
269.0577388915091
 21
461.3275777791273
 31
0.0
  0
LINE
  5
403
330
1F
100
AcDbEntity
  8
0
 62
     7
370
    35
100
AcDbLine
 10
274.2164908915091
 20
451.0162977791273
 30
0.0
 11
274.2164908915091
 21
299.3969137791274
 31
0.0
  0
LINE
  5
404
330
1F
100
AcDbEntity
  8
0
 62
     7
 48
0.001617
370
    35
100
AcDbLine
 10
274.2164908915091
 20
299.3969137791274
 30
0.0
 11
274.1610098915091
 21
299.3636487791274
 31
0.0
  0
LINE
  5
405
330
1F
100
AcDbEntity
  8
0
 62
     7
 48
0.011649
370
    35
100
AcDbLine
 10
273.6270438915091
 20
299.3565997791275
 30
0.0
 11
273.1611018915091
 21
299.3546767791274
 31
0.0
  0
ARC
  5
406
330
1F
100
AcDbEntity
  8
0
 62
     7
370
    35
100
AcDbCircle
 10
273.7087398915091
 20
316.2928487791274
 30
0.0
 40
16.93578299999999
100
AcDbArc
 50
269.723696
 51
271.53039
  0
LINE
  5
407
330
1F
100
AcDbEntity
  8
0
 62
     7
 48
0.036801
370
    35
100
AcDbLine
 10
271.6890558915091
 20
299.3502217791274
 30
0.0
 11
273.1611018915091
 21
299.3546767791274
 31
0.0
  0
LINE
  5
408
330
1F
100
AcDbEntity
  8
0
 62
     7
370
    35
100
AcDbLine
 10
270.6891168915091
 20
299.3412487791275
 30
0.0
 11
270.6891168915091
 21
451.0719617791274
 31
0.0
  0
ARC
  5
409
330
1F
100
AcDbEntity
  8
0
 62
     7
370
    35
100
AcDbCircle
 10
271.490965891509
 20
257.0995497791274
 30
0.0
 40
42.250146
100
AcDbArc
 50
89.73137099999997
 51
91.087457
  0
LINE
  5
40A
330
1F
100
AcDbEntity
  8
0
 62
     7
 48
0.000664
370
    35
100
AcDbLine
 10
270.6663508915091
 20
299.3275777791274
 30
0.0
 11
270.6891168915091
 21
299.3412487791275
 31
0.0
  0
LINE
  5
40B
330
1F
100
AcDbEntity
  8
0
 62
     7
 48
0.000664
370
    35
100
AcDbLine
 10
270.6663508915091
 20
289.0856337791274
 30
0.0
 11
270.6891168915091
 21
289.0719617791274
 31
0.0
  0
LINE
  5
40C
330
1F
100
AcDbEntity
  8
0
 62
     7
370
    35
100
AcDbLine
 10
270.6891168915091
 20
56.34123377912743
 30
0.0
 11
270.6891168915091
 21
289.0719617791274
 31
0.0
  0
LINE
  5
40D
330
1F
100
AcDbEntity
  8
0
 62
     7
 48
0.000664
370
    35
100
AcDbLine
 10
270.6663508915091
 20
56.32756177912742
 30
0.0
 11
270.6891168915091
 21
56.34123377912743
 31
0.0
  0
LINE
  5
40E
330
1F
100
AcDbEntity
  8
0
 62
     7
370
    35
100
AcDbLine
 10
259.2164908915091
 20
471.2066057791274
 30
0.0
 11
69.2164908915091
 21
471.2066057791274
 31
0.0
  0
ARC
  5
40F
330
1F
100
AcDbEntity
  8
0
 62
     7
370
    35
100
AcDbCircle
 10
258.2109368915091
 20
455.2010817791274
 30
0.0
 40
12.478362
100
AcDbArc
 50
29.4706239999999
 51
86.01425900000009
  0
ARC
  5
410
330
1F
100
AcDbEntity
  8
0
 62
     7
370
    35
100
AcDbCircle
 10
258.2164908915091
 20
455.2794817791274
 30
0.0
 40
12.399775
100
AcDbArc
 50
86.01460800000005
 51
90.0
  0
LINE
  5
411
330
1F
100
AcDbEntity
  8
0
 62
     7
 48
0.000528
370
    35
100
AcDbLine
 10
269.0577388915091
 20
46.08564877912742
 30
0.0
 11
269.0747068915091
 21
46.07306077912742
 31
0.0
  0
ARC
  5
412
330
1F
100
AcDbEntity
  8
0
 62
     7
370
    35
100
AcDbCircle
 10
258.2109368915091
 20
52.21212977912742
 30
0.0
 40
12.478362
100
AcDbArc
 50
273.9857410000001
 51
330.529373
  0
ARC
  5
413
330
1F
100
AcDbEntity
  8
0
 62
     7
370
    35
100
AcDbCircle
 10
258.2164908915091
 20
52.13374477912743
 30
0.0
 40
12.399771
100
AcDbArc
 50
270.0
 51
273.9854129999999
  0
LINE
  5
414
330
1F
100
AcDbEntity
  8
0
 62
     7
 48
0.001618
370
    35
100
AcDbLine
 10
274.2164908915091
 20
56.39692877912743
 30
0.0
 11
274.1610098915091
 21
56.36363377912743
 31
0.0
  0
ARC
  5
415
330
1F
100
AcDbEntity
  8
0
 62
     7
370
    35
100
AcDbCircle
 10
273.7087398915091
 20
73.29283277912742
 30
0.0
 40
16.93578299999999
100
AcDbArc
 50
269.723696
 51
271.53039
  0
LINE
  5
416
330
1F
100
AcDbEntity
  8
0
 62
     7
 48
0.011649
370
    35
100
AcDbLine
 10
273.6270438915091
 20
56.35659977912743
 30
0.0
 11
273.1611018915091
 21
56.35466177912743
 31
0.0
  0
LINE
  5
417
330
1F
100
AcDbEntity
  8
0
 62
     7
 48
0.036801
370
    35
100
AcDbLine
 10
271.6890558915091
 20
56.35020577912743
 30
0.0
 11
273.1611018915091
 21
56.35466177912743
 31
0.0
  0
ARC
  5
418
330
1F
100
AcDbEntity
  8
0
 62
     7
370
    35
100
AcDbCircle
 10
271.490965891509
 20
14.09954977912743
 30
0.0
 40
42.250146
100
AcDbArc
 50
89.73137099999997
 51
91.087457
  0
ARC
  5
419
330
1F
100
AcDbEntity
  8
0
 62
     7
370
    35
100
AcDbCircle
 10
271.490965891509
 20
331.3136007791275
 30
0.0
 40
42.250091
100
AcDbArc
 50
268.912543
 51
270.2686360000001
  0
LINE
  5
41A
330
1F
100
AcDbEntity
  8
0
 62
     7
 48
0.036801
370
    35
100
AcDbLine
 10
271.6890558915091
 20
289.0629897791274
 30
0.0
 11
273.1611018915091
 21
289.0585347791274
 31
0.0
  0
LINE
  5
41B
330
1F
100
AcDbEntity
  8
0
 62
     7
 48
0.011649
370
    35
100
AcDbLine
 10
273.1611018915091
 20
289.0585347791274
 30
0.0
 11
273.6270438915091
 21
289.0566117791274
 31
0.0
  0
ARC
  5
41C
330
1F
100
AcDbEntity
  8
0
 62
     7
370
    35
100
AcDbCircle
 10
273.7087398915091
 20
272.1204547791274
 30
0.0
 40
16.935699
100
AcDbArc
 50
88.46960999999994
 51
90.276311
  0
LINE
  5
41D
330
1F
100
AcDbEntity
  8
0
 62
     7
 48
0.001617
370
    35
100
AcDbLine
 10
274.2164908915091
 20
289.0162977791274
 30
0.0
 11
274.1610098915091
 21
289.0495617791274
 31
0.0
  0
LINE
  5
41E
330
1F
100
AcDbEntity
  8
0
 62
     7
 48
0.021027
370
    35
100
AcDbLine
 10
268.4084768915091
 20
454.4949357791274
 30
0.0
 11
268.4082638915091
 21
455.3359997791273
 31
0.0
  0
LINE
  5
41F
330
1F
100
AcDbEntity
  8
0
 62
     7
 48
0.174508
370
    35
100
AcDbLine
 10
268.409239891509
 20
454.4949357791274
 30
0.0
 11
268.409239891509
 21
447.5146197791274
 31
0.0
  0
LINE
  5
420
330
1F
100
AcDbEntity
  8
0
 62
     7
 48
0.049998
370
    13
100
AcDbLine
 10
270.6891168915091
 20
302.4526387791274
 30
0.0
 11
268.5139458915091
 21
302.4526387791274
 31
0.0
  0
LINE
  5
421
330
1F
100
AcDbEntity
  8
0
 62
     7
 48
0.049998
370
    13
100
AcDbLine
 10
270.513884891509
 20
52.81356977912743
 30
0.0
 11
268.5139458915091
 21
52.81356977912743
 31
0.0
  0
LINE
  5
422
330
1F
100
AcDbEntity
  8
0
 62
     7
 48
0.001387
370
    13
100
AcDbLine
 10
69.2164908915091
 20
471.1511247791273
 30
0.0
 11
69.2164908915091
 21
471.2066057791274
 31
0.0
  0
LINE
  5
423
330
1F
100
AcDbEntity
  8
0
 62
     7
 48
0.001436
370
    35
100
AcDbLine
 10
55.18994089150909
 20
461.3636487791274
 30
0.0
 11
55.14309689150909
 21
461.3969137791274
 31
0.0
  0
LINE
  5
424
330
1F
100
AcDbEntity
  8
0
 62
     7
 48
0.000528
370
    35
100
AcDbLine
 10
59.37524389150909
 20
461.3275777791273
 30
0.0
 11
59.35826089150909
 21
461.3401507791275
 31
0.0
  0
ARC
  5
425
330
1F
100
AcDbEntity
  8
0
 62
     7
370
    35
100
AcDbCircle
 10
58.41630489150909
 20
402.9681107791274
 30
0.0
 40
58.380538
100
AcDbArc
 50
89.07548900000001
 51
90.18581100000002
  0
LINE
  5
426
330
1F
100
AcDbEntity
  8
0
 62
     7
 48
0.049251
370
    35
100
AcDbLine
 10
58.2269738915091
 20
461.3491837791274
 30
0.0
 11
56.2569578915091
 21
461.3546767791274
 31
0.0
  0
LINE
  5
427
330
1F
100
AcDbEntity
  8
0
 62
     7
 48
0.012484
370
    35
100
AcDbLine
 10
56.2569578915091
 20
461.3546767791274
 30
0.0
 11
55.75759889150909
 21
461.3565997791273
 31
0.0
  0
ARC
  5
428
330
1F
100
AcDbEntity
  8
0
 62
     7
370
    35
100
AcDbCircle
 10
55.66613689150909
 20
480.5808117791274
 30
0.0
 40
19.223707
100
AcDbArc
 50
268.5805269999999
 51
270.27259
  0
LINE
  5
429
330
1F
100
AcDbEntity
  8
0
 62
     7
370
    35
100
AcDbLine
 10
258.2164908915091
 20
467.6792007791274
 30
0.0
 11
70.21649089150909
 21
467.6792007791274
 31
0.0
  0
ARC
  5
42A
330
1F
100
AcDbEntity
  8
0
 62
     7
370
    35
100
AcDbCircle
 10
259.2512808915091
 20
456.1903097791274
 30
0.0
 40
9.156788999999999
100
AcDbArc
 50
0.1018679999999961
 51
21.19673900000005
  0
LINE
  5
42B
330
1F
100
AcDbEntity
  8
0
 62
     7
 48
0.021765
370
    35
100
AcDbLine
 10
268.4082638915091
 20
455.3359997791273
 30
0.0
 11
268.4075008915091
 21
456.2066057791274
 31
0.0
  0
ARC
  5
42C
330
1F
100
AcDbEntity
  8
0
 62
     7
370
    35
100
AcDbCircle
 10
270.0166618915091
 20
104.4451007791274
 30
0.0
 40
58.380538
100
AcDbArc
 50
269.0754899999999
 51
270.1858129999999
  0
LINE
  5
42D
330
1F
100
AcDbEntity
  8
0
 62
     7
 48
0.049251
370
    35
100
AcDbLine
 10
270.2059928915091
 20
46.06402777912743
 30
0.0
 11
272.1760248915091
 21
46.05854977912743
 31
0.0
  0
LINE
  5
42E
330
1F
100
AcDbEntity
  8
0
 62
     7
 48
0.012484
370
    35
100
AcDbLine
 10
272.1760248915091
 20
46.05854977912743
 30
0.0
 11
272.6753838915091
 21
46.05661177912742
 31
0.0
  0
ARC
  5
42F
330
1F
100
AcDbEntity
  8
0
 62
     7
370
    35
100
AcDbCircle
 10
272.7668448915091
 20
26.83238377912743
 30
0.0
 40
19.223707
100
AcDbArc
 50
88.58052499999988
 51
90.2725889999999
  0
LINE
  5
430
330
1F
100
AcDbEntity
  8
0
 62
     7
 48
0.001437
370
    35
100
AcDbLine
 10
273.243041891509
 20
46.04957777912742
 30
0.0
 11
273.2898858915091
 21
46.01628277912742
 31
0.0
  0
LINE
  5
431
330
1F
100
AcDbEntity
  8
0
 62
     7
370
    35
100
AcDbLine
 10
258.2164908915091
 20
39.73397977912743
 30
0.0
 11
70.21649089150909
 21
39.73397977912743
 31
0.0
  0
LINE
  5
432
330
1F
100
AcDbEntity
  8
0
 62
     7
370
    35
100
AcDbLine
 10
274.2164908915091
 20
289.0162977791274
 30
0.0
 11
274.2164908915091
 21
56.39692877912743
 31
0.0
  0
ARC
  5
433
330
1F
100
AcDbEntity
  8
0
 62
     7
370
    35
100
AcDbCircle
 10
60.5245048915091
 20
447.5146197791274
 30
0.0
 40
0.5
100
AcDbArc
 50
180.0
 51
270.0
  0
ARC
  5
434
330
1F
100
AcDbEntity
  8
0
 62
     7
370
    35
100
AcDbCircle
 10
267.9084768915091
 20
447.5146197791274
 30
0.0
 40
0.5
100
AcDbArc
 50
270.0
 51
0.0
  0
LINE
  5
435
330
1F
100
AcDbEntity
  8
0
 62
     7
 48
0.2173
370
    35
100
AcDbLine
 10
259.2164908915091
 20
447.0146197791274
 30
0.0
 11
267.9084768915091
 21
447.0146197791274
 31
0.0
  0
ARC
  5
436
330
1F
100
AcDbEntity
  8
0
 62
     7
370
    35
100
AcDbCircle
 10
259.2164908915091
 20
456.2066057791274
 30
0.0
 40
9.191990999999999
100
AcDbArc
 50
180.0
 51
270.0
  0
LINE
  5
437
330
1F
100
AcDbEntity
  8
0
 62
     7
370
    13
100
AcDbLine
 10
250.1852718915091
 20
454.4949357791274
 30
0.0
 11
173.7902218915091
 21
454.4949357791274
 31
0.0
  0
ARC
  5
438
330
1F
100
AcDbEntity
  8
0
 62
     7
370
    13
100
AcDbCircle
 10
164.2164908915091
 20
444.5511487791273
 30
0.0
 40
13.803461
100
AcDbArc
 50
46.08618899999994
 51
133.9138090000001
  0
LINE
  5
439
330
1F
100
AcDbEntity
  8
0
 62
     7
370
    13
100
AcDbLine
 10
154.6427608915091
 20
454.4949357791274
 30
0.0
 11
78.24771089150909
 21
454.4949357791274
 31
0.0
  0
ARC
  5
43A
330
1F
100
AcDbEntity
  8
0
 62
     7
370
    35
100
AcDbCircle
 10
69.2164908915091
 20
456.2066057791274
 30
0.0
 40
9.191990999999999
100
AcDbArc
 50
270.0
 51
0.0
  0
LINE
  5
43B
330
1F
100
AcDbEntity
  8
0
 62
     7
 48
0.2173
370
    35
100
AcDbLine
 10
69.2164908915091
 20
447.0146197791274
 30
0.0
 11
60.5245048915091
 21
447.0146197791274
 31
0.0
  0
LINE
  5
43C
330
1F
100
AcDbEntity
  8
0
 62
     7
 48
0.35
370
    35
100
AcDbLine
 10
222.2164908915091
 20
431.2066057791273
 30
0.0
 11
222.2164908915091
 21
445.2066057791273
 31
0.0
  0
ARC
  5
43D
330
1F
100
AcDbEntity
  8
0
 62
     7
370
    35
100
AcDbCircle
 10
224.2164908915091
 20
445.2066057791273
 30
0.0
 40
2.0
100
AcDbArc
 50
90.0
 51
180.0
  0
LINE
  5
43E
330
1F
100
AcDbEntity
  8
0
 62
     7
370
    35
100
AcDbLine
 10
247.2164908915091
 20
447.2066057791273
 30
0.0
 11
224.2164908915091
 21
447.2066057791273
 31
0.0
  0
ARC
  5
43F
330
1F
100
AcDbEntity
  8
0
 62
     7
370
    35
100
AcDbCircle
 10
247.2164908915091
 20
445.2066057791273
 30
0.0
 40
2.0
100
AcDbArc
 50
0.0
 51
90.0
  0
LINE
  5
440
330
1F
100
AcDbEntity
  8
0
 62
     7
 48
0.35
370
    35
100
AcDbLine
 10
249.2164908915091
 20
445.2066057791273
 30
0.0
 11
249.2164908915091
 21
431.2066057791273
 31
0.0
  0
ARC
  5
441
330
1F
100
AcDbEntity
  8
0
 62
     7
370
    35
100
AcDbCircle
 10
247.2164908915091
 20
431.2066057791273
 30
0.0
 40
2.0
100
AcDbArc
 50
270.0
 51
0.0
  0
LINE
  5
442
330
1F
100
AcDbEntity
  8
0
 62
     7
370
    35
100
AcDbLine
 10
224.2164908915091
 20
429.2066057791273
 30
0.0
 11
247.2164908915091
 21
429.2066057791273
 31
0.0
  0
ARC
  5
443
330
1F
100
AcDbEntity
  8
0
 62
     7
370
    35
100
AcDbCircle
 10
224.2164908915091
 20
431.2066057791273
 30
0.0
 40
2.0
100
AcDbArc
 50
180.0
 51
270.0
  0
LINE
  5
444
330
1F
100
AcDbEntity
  8
0
 62
     7
370
    35
100
AcDbLine
 10
57.7438658915091
 20
303.4512647791274
 30
0.0
 11
270.6891168915091
 21
303.4512647791274
 31
0.0
  0
LINE
  5
445
330
1F
100
AcDbEntity
  8
0
 62
     7
370
    35
100
AcDbLine
 10
59.9190358915091
 20
302.4526387791274
 30
0.0
 11
268.5139458915091
 21
302.4526387791274
 31
0.0
  0
ARC
  5
446
330
1F
100
AcDbEntity
  8
0
 62
     7
370
    35
100
AcDbCircle
 10
70.22202989150909
 20
455.2010817791274
 30
0.0
 40
12.478362
100
AcDbArc
 50
93.985739
 51
150.529378
  0
ARC
  5
447
330
1F
100
AcDbEntity
  8
0
 62
     7
370
    35
100
AcDbCircle
 10
70.21649089150909
 20
455.2794817791274
 30
0.0
 40
12.399771
100
AcDbArc
 50
90.0
 51
93.98541099999997
  0
LINE
  5
448
330
1F
100
AcDbEntity
  8
0
 62
     7
 48
0.2173
370
    35
100
AcDbLine
 10
77.90847689150909
 20
465.3475967791274
 30
0.0
 11
69.2164908915091
 21
465.3475967791274
 31
0.0
  0
ARC
  5
449
330
1F
100
AcDbEntity
  8
0
 62
     7
370
    35
100
AcDbCircle
 10
77.90869089150909
 20
464.8931287791274
 30
0.0
 40
0.4544350000000001
100
AcDbArc
 50
0.6877950000000643
 51
90.02486399999995
  0
ARC
  5
44A
330
1F
100
AcDbEntity
  8
0
 62
     7
370
    35
100
AcDbCircle
 10
-838.6394661084908
 20
456.0398877791274
 30
0.0
 40
917.046174
100
AcDbArc
 50
0.0104160000000369
 51
0.5534889999999971
  0
ARC
  5
44B
330
1F
100
AcDbEntity
  8
0
 62
     7
370
    35
100
AcDbCircle
 10
1167.069518891509
 20
456.0398877791274
 30
0.0
 40
917.0433220000001
100
AcDbArc
 50
179.446514
 51
179.989582
  0
ARC
  5
44C
330
1F
100
AcDbEntity
  8
0
 62
     7
370
    35
100
AcDbCircle
 10
250.5242918915091
 20
464.8931287791274
 30
0.0
 40
0.454434
100
AcDbArc
 50
89.97510000000007
 51
179.312287
  0
LINE
  5
44D
330
1F
100
AcDbEntity
  8
0
 62
     7
 48
0.2173
370
    35
100
AcDbLine
 10
259.2164908915091
 20
465.3475967791274
 30
0.0
 11
250.5245048915091
 21
465.3475967791274
 31
0.0
  0
ARC
  5
44E
330
1F
100
AcDbEntity
  8
0
 62
     7
370
    35
100
AcDbCircle
 10
259.2164908915091
 20
51.20660577912743
 30
0.0
 40
15.0
100
AcDbArc
 50
270.0
 51
339.7558549999999
  0
LINE
  5
44F
330
1F
100
AcDbEntity
  8
0
 62
     7
370
    35
100
AcDbLine
 10
69.2164908915091
 20
36.20660577912743
 30
0.0
 11
259.2164908915091
 21
36.20660577912743
 31
0.0
  0
ARC
  5
450
330
1F
100
AcDbEntity
  8
0
 62
     7
370
    35
100
AcDbCircle
 10
69.2164908915091
 20
51.20660577912743
 30
0.0
 40
15.0
100
AcDbArc
 50
200.2441429999999
 51
270.0
  0
ARC
  5
451
330
1F
100
AcDbEntity
  8
0
 62
     7
370
    35
100
AcDbCircle
 10
70.21649089150909
 20
52.13374477912743
 30
0.0
 40
12.399775
100
AcDbArc
 50
266.014609
 51
270.0
  0
ARC
  5
452
330
1F
100
AcDbEntity
  8
0
 62
     7
370
    35
100
AcDbCircle
 10
70.22202989150909
 20
52.21212977912742
 30
0.0
 40
12.478362
100
AcDbArc
 50
209.470622
 51
266.014261
  0
LINE
  5
453
330
1F
100
AcDbEntity
  8
0
 62
     7
 48
0.000528
370
    35
100
AcDbLine
 10
59.35826089150909
 20
46.07306077912742
 30
0.0
 11
59.37524389150909
 21
46.08564877912742
 31
0.0
  0
ARC
  5
454
330
1F
100
AcDbEntity
  8
0
 62
     7
370
    35
100
AcDbCircle
 10
259.2164908915091
 20
294.2066057791274
 30
0.0
 40
8.174841999999999
100
AcDbArc
 50
90.0
 51
270.0
  0
LINE
  5
455
330
1F
100
AcDbEntity
  8
0
 62
     7
 48
0.174508
370
    35
100
AcDbLine
 10
60.02374189150909
 20
454.4949357791274
 30
0.0
 11
60.02374189150909
 21
447.5146197791274
 31
0.0
  0
ARC
  5
456
330
1F
100
AcDbEntity
  8
0
 62
   253
370
    35
100
AcDbCircle
 10
63.92495689150909
 20
308.3730487791275
 30
0.0
 40
1.999806
100
AcDbArc
 50
179.996194
 51
234.5820450000001
  0
LINE
  5
457
330
1F
100
AcDbEntity
  8
0
 62
   253
370
    35
100
AcDbLine
 10
61.92513989150909
 20
422.0060437791274
 30
0.0
 11
61.92513989150909
 21
308.3731707791275
 31
0.0
  0
ARC
  5
458
330
1F
100
AcDbEntity
  8
0
 62
   253
370
    35
100
AcDbCircle
 10
63.92492589150909
 20
422.0061657791274
 30
0.0
 40
1.999774
100
AcDbArc
 50
89.995843
 51
180.0041609999999
  0
LINE
  5
459
330
1F
100
AcDbEntity
  8
0
 62
   253
370
    35
100
AcDbLine
 10
63.92506389150909
 20
424.0059527791273
 30
0.0
 11
264.5079338915091
 21
424.0059527791273
 31
0.0
  0
ARC
  5
45A
330
1F
100
AcDbEntity
  8
0
 62
   253
370
    35
100
AcDbCircle
 10
264.5080558915091
 20
422.0061657791274
 30
0.0
 40
1.999774
100
AcDbArc
 50
359.995843
 51
90.00415500000004
  0
LINE
  5
45B
330
1F
100
AcDbEntity
  8
0
 62
   253
370
    35
100
AcDbLine
 10
266.5078428915091
 20
422.0060437791274
 30
0.0
 11
266.5078428915091
 21
308.3731707791275
 31
0.0
  0
ARC
  5
45C
330
1F
100
AcDbEntity
  8
0
 62
   253
370
    35
100
AcDbCircle
 10
264.5080258915091
 20
308.3730487791275
 30
0.0
 40
1.999806
100
AcDbArc
 50
305.4179429999999
 51
0.0038010000000824
  0
LINE
  5
45D
330
1F
100
AcDbEntity
  8
0
 62
     7
 48
0.049998
370
    35
100
AcDbLine
 10
59.9190358915091
 20
302.4526387791274
 30
0.0
 11
57.7438658915091
 21
302.4526387791274
 31
0.0
  0
ARC
  5
45E
330
1F
100
AcDbEntity
  8
0
 62
     7
370
    35
100
AcDbCircle
 10
266.8913268915091
 20
301.8814407791274
 30
0.0
 40
0.5
100
AcDbArc
 50
0.0
 51
90.0
  0
LINE
  5
45F
330
1F
100
AcDbEntity
  8
0
 62
     7
 48
0.383742
370
    35
100
AcDbLine
 10
267.3913268915091
 20
301.8814407791274
 30
0.0
 11
267.3913268915091
 21
286.5317707791275
 31
0.0
  0
ARC
  5
460
330
1F
100
AcDbEntity
  8
0
 62
     7
370
    35
100
AcDbCircle
 10
266.8913268915091
 20
286.5317707791275
 30
0.0
 40
0.5
100
AcDbArc
 50
270.0
 51
0.0
  0
LINE
  5
461
330
1F
100
AcDbEntity
  8
0
 62
     7
 48
0.191871
370
    35
100
AcDbLine
 10
259.2164908915091
 20
286.0317707791274
 30
0.0
 11
266.8913268915091
 21
286.0317707791274
 31
0.0
  0
LINE
  5
462
330
1F
100
AcDbEntity
  8
0
 62
     7
 48
0.191871
370
    35
100
AcDbLine
 10
259.2164908915091
 20
302.3814407791274
 30
0.0
 11
266.8913268915091
 21
302.3814407791274
 31
0.0
  0
ARC
  5
463
330
1F
100
AcDbEntity
  8
0
 62
     7
370
    35
100
AcDbCircle
 10
61.5416558915091
 20
286.5317707791275
 30
0.0
 40
0.5
100
AcDbArc
 50
180.0
 51
270.0
  0
LINE
  5
464
330
1F
100
AcDbEntity
  8
0
 62
     7
 48
0.383742
370
    35
100
AcDbLine
 10
61.04165589150909
 20
301.8814407791274
 30
0.0
 11
61.04165589150909
 21
286.5317707791275
 31
0.0
  0
ARC
  5
465
330
1F
100
AcDbEntity
  8
0
 62
     7
370
    35
100
AcDbCircle
 10
61.5416558915091
 20
301.8814407791274
 30
0.0
 40
0.5
100
AcDbArc
 50
90.0
 51
180.0
  0
LINE
  5
466
330
1F
100
AcDbEntity
  8
0
 62
     7
 48
0.191871
370
    35
100
AcDbLine
 10
69.2164908915091
 20
302.3814407791274
 30
0.0
 11
61.5416558915091
 21
302.3814407791274
 31
0.0
  0
ARC
  5
467
330
1F
100
AcDbEntity
  8
0
 62
     7
370
    35
100
AcDbCircle
 10
69.2164908915091
 20
294.2066057791274
 30
0.0
 40
8.174841999999999
100
AcDbArc
 50
270.0
 51
90.0
  0
LINE
  5
468
330
1F
100
AcDbEntity
  8
0
 62
     7
 48
0.191871
370
    35
100
AcDbLine
 10
69.2164908915091
 20
286.0317707791274
 30
0.0
 11
61.5416558915091
 21
286.0317707791274
 31
0.0
  0
LINE
  5
469
330
1F
100
AcDbEntity
  8
0
 62
     7
 48
0.001617
370
    35
100
AcDbLine
 10
54.2164908915091
 20
451.0162977791273
 30
0.0
 11
54.27197189150909
 21
451.0495617791274
 31
0.0
  0
ARC
  5
46A
330
1F
100
AcDbEntity
  8
0
 62
     7
370
    35
100
AcDbCircle
 10
54.72425789150909
 20
434.1203627791274
 30
0.0
 40
16.93578299999999
100
AcDbArc
 50
89.72369400000003
 51
91.53038799999995
  0
LINE
  5
46B
330
1F
100
AcDbEntity
  8
0
 62
     7
 48
0.011649
370
    35
100
AcDbLine
 10
54.80593789150909
 20
451.0566117791273
 30
0.0
 11
55.27188089150909
 21
451.0585347791273
 31
0.0
  0
LINE
  5
46C
330
1F
100
AcDbEntity
  8
0
 62
     7
 48
0.036801
370
    35
100
AcDbLine
 10
56.74392689150909
 20
451.0629897791273
 30
0.0
 11
55.27188089150909
 21
451.0585347791273
 31
0.0
  0
ARC
  5
46D
330
1F
100
AcDbEntity
  8
0
 62
     7
370
    35
100
AcDbCircle
 10
56.94203089150909
 20
493.3136617791274
 30
0.0
 40
42.250146
100
AcDbArc
 50
269.7313660000001
 51
271.0874519999999
  0
LINE
  5
46E
330
1F
100
AcDbEntity
  8
0
 62
     7
 48
0.000664
370
    35
100
AcDbLine
 10
57.76663189150909
 20
451.0856337791274
 30
0.0
 11
57.7438658915091
 21
451.0719617791274
 31
0.0
  0
LINE
  5
46F
330
1F
100
AcDbEntity
  8
0
 62
     7
 48
0.000664
370
    35
100
AcDbLine
 10
57.76663189150909
 20
56.32756177912742
 30
0.0
 11
57.7438658915091
 21
56.34123377912743
 31
0.0
  0
LINE
  5
470
330
1F
100
AcDbEntity
  8
0
 62
     7
370
    35
100
AcDbLine
 10
57.7438658915091
 20
56.34123377912743
 30
0.0
 11
57.7438658915091
 21
289.0719617791274
 31
0.0
  0
LINE
  5
471
330
1F
100
AcDbEntity
  8
0
 62
     7
 48
0.000664
370
    35
100
AcDbLine
 10
57.76663189150909
 20
289.0856337791274
 30
0.0
 11
57.7438658915091
 21
289.0719617791274
 31
0.0
  0
LINE
  5
472
330
1F
100
AcDbEntity
  8
0
 62
     7
 48
0.000664
370
    35
100
AcDbLine
 10
57.76663189150909
 20
299.3275777791274
 30
0.0
 11
57.7438658915091
 21
299.3412187791274
 31
0.0
  0
LINE
  5
473
330
1F
100
AcDbEntity
  8
0
 62
     7
370
    35
100
AcDbLine
 10
57.7438658915091
 20
299.3412187791274
 30
0.0
 11
57.7438658915091
 21
451.0719617791274
 31
0.0
  0
LINE
  5
474
330
1F
100
AcDbEntity
  8
0
 62
     7
 48
0.0043
370
    35
100
AcDbLine
 10
60.02473389150909
 20
455.3359997791273
 30
0.0
 11
60.02484089150909
 21
455.5079967791274
 31
0.0
  0
LINE
  5
475
330
1F
100
AcDbEntity
  8
0
 62
     7
 48
0.017465
370
    35
100
AcDbLine
 10
60.0254818915091
 20
456.2066057791274
 30
0.0
 11
60.02484089150909
 21
455.5079967791274
 31
0.0
  0
ARC
  5
476
330
1F
100
AcDbEntity
  8
0
 62
     7
370
    35
100
AcDbCircle
 10
69.15808089150909
 20
456.1959247791273
 30
0.0
 40
9.132603999999998
100
AcDbArc
 50
158.782664
 51
179.933069
  0
LINE
  5
477
330
1F
100
AcDbEntity
  8
0
 62
     7
 48
0.001437
370
    35
100
AcDbLine
 10
55.14309689150909
 20
46.01628277912742
 30
0.0
 11
55.18994089150909
 21
46.04957777912742
 31
0.0
  0
ARC
  5
478
330
1F
100
AcDbEntity
  8
0
 62
     7
370
    35
100
AcDbCircle
 10
55.66728189150909
 20
26.90522977912743
 30
0.0
 40
19.150881
100
AcDbArc
 50
89.729787
 51
91.42828400000009
  0
LINE
  5
479
330
1F
100
AcDbEntity
  8
0
 62
     7
 48
0.012484
370
    35
100
AcDbLine
 10
55.75759889150909
 20
46.05661177912742
 30
0.0
 11
56.2569578915091
 21
46.05854977912743
 31
0.0
  0
LINE
  5
47A
330
1F
100
AcDbEntity
  8
0
 62
     7
 48
0.049251
370
    35
100
AcDbLine
 10
56.2569578915091
 20
46.05854977912743
 30
0.0
 11
58.2269888915091
 21
46.06402777912743
 31
0.0
  0
ARC
  5
47B
330
1F
100
AcDbEntity
  8
0
 62
     7
370
    35
100
AcDbCircle
 10
58.41628989150909
 20
104.4445667791274
 30
0.0
 40
58.38
100
AcDbArc
 50
269.814196
 51
270.924525
  0
LINE
  5
47C
330
1F
100
AcDbEntity
  8
0
 62
     7
 48
0.021027
370
    35
100
AcDbLine
 10
60.02450489150909
 20
454.4949357791274
 30
0.0
 11
60.02473389150909
 21
455.3359997791273
 31
0.0
  0
ARC
  5
47D
330
1F
100
AcDbEntity
  8
0
 62
   253
370
    35
100
AcDbCircle
 10
264.5092458915091
 20
308.3789077791274
 30
0.0
 40
2.004049999999999
100
AcDbArc
 50
269.920221
 51
305.292528
  0
LINE
  5
47E
330
1F
100
AcDbEntity
  8
0
 62
   253
370
    35
100
AcDbLine
 10
63.92652889150909
 20
306.3747267791274
 30
0.0
 11
264.5064688915091
 21
306.3747267791274
 31
0.0
  0
ARC
  5
47F
330
1F
100
AcDbEntity
  8
0
 62
   253
370
    35
100
AcDbCircle
 10
63.9237358915091
 20
308.3789077791274
 30
0.0
 40
2.004049999999999
100
AcDbArc
 50
234.707488
 51
270.079781
  0
LINE
  5
480
330
1F
100
AcDbEntity
  8
0
 62
     7
370
    35
100
AcDbLine
 10
54.2164908915091
 20
299.3969137791274
 30
0.0
 11
54.2164908915091
 21
451.0162977791273
 31
0.0
  0
ARC
  5
481
330
1F
100
AcDbEntity
  8
0
 62
     7
370
    35
100
AcDbCircle
 10
56.94203089150909
 20
257.0996107791274
 30
0.0
 40
42.250071
100
AcDbArc
 50
88.91254100000011
 51
90.2686339999999
  0
LINE
  5
482
330
1F
100
AcDbEntity
  8
0
 62
     7
 48
0.036801
370
    35
100
AcDbLine
 10
56.74392689150909
 20
299.3502217791274
 30
0.0
 11
55.27188089150909
 21
299.3546767791274
 31
0.0
  0
ARC
  5
483
330
1F
100
AcDbEntity
  8
0
 62
     7
370
    35
100
AcDbCircle
 10
54.72425789150909
 20
316.2927567791275
 30
0.0
 40
16.935699
100
AcDbArc
 50
268.4696049999999
 51
270.276313
  0
LINE
  5
484
330
1F
100
AcDbEntity
  8
0
 62
     7
 48
0.011649
370
    35
100
AcDbLine
 10
55.27188089150909
 20
299.3546767791274
 30
0.0
 11
54.80593789150909
 21
299.3565997791275
 31
0.0
  0
LINE
  5
485
330
1F
100
AcDbEntity
  8
0
 62
     7
 48
0.001617
370
    35
100
AcDbLine
 10
54.2164908915091
 20
299.3969137791274
 30
0.0
 11
54.27197189150909
 21
299.3636487791274
 31
0.0
  0
ARC
  5
486
330
1F
100
AcDbEntity
  8
0
 62
     7
370
    35
100
AcDbCircle
 10
56.94203089150909
 20
14.09959577912743
 30
0.0
 40
42.25009199999999
100
AcDbArc
 50
88.91254100000011
 51
90.2686339999999
  0
LINE
  5
487
330
1F
100
AcDbEntity
  8
0
 62
     7
 48
0.036801
370
    35
100
AcDbLine
 10
56.74392689150909
 20
56.35020577912743
 30
0.0
 11
55.27188089150909
 21
56.35466177912743
 31
0.0
  0
LINE
  5
488
330
1F
100
AcDbEntity
  8
0
 62
     7
 48
0.011649
370
    35
100
AcDbLine
 10
55.27188089150909
 20
56.35466177912743
 30
0.0
 11
54.80593789150909
 21
56.35659977912743
 31
0.0
  0
ARC
  5
489
330
1F
100
AcDbEntity
  8
0
 62
     7
370
    35
100
AcDbCircle
 10
54.72425789150909
 20
73.29275677912743
 30
0.0
 40
16.935699
100
AcDbArc
 50
268.4696049999999
 51
270.276313
  0
LINE
  5
48A
330
1F
100
AcDbEntity
  8
0
 62
     7
 48
0.001618
370
    35
100
AcDbLine
 10
54.2164908915091
 20
56.39692877912743
 30
0.0
 11
54.27197189150909
 21
56.36363377912743
 31
0.0
  0
ARC
  5
48B
330
1F
100
AcDbEntity
  8
0
 62
     7
370
    35
100
AcDbCircle
 10
56.94203089150909
 20
331.3136617791274
 30
0.0
 40
42.250146
100
AcDbArc
 50
269.7313660000001
 51
271.0874519999999
  0
LINE
  5
48C
330
1F
100
AcDbEntity
  8
0
 62
     7
 48
0.001617
370
    35
100
AcDbLine
 10
54.2164908915091
 20
289.0162977791274
 30
0.0
 11
54.27197189150909
 21
289.0495617791274
 31
0.0
  0
ARC
  5
48D
330
1F
100
AcDbEntity
  8
0
 62
     7
370
    35
100
AcDbCircle
 10
54.72425789150909
 20
272.1203627791274
 30
0.0
 40
16.93578299999999
100
AcDbArc
 50
89.72369400000003
 51
91.53038799999995
  0
LINE
  5
48E
330
1F
100
AcDbEntity
  8
0
 62
     7
 48
0.011649
370
    35
100
AcDbLine
 10
54.80593789150909
 20
289.0566117791274
 30
0.0
 11
55.27188089150909
 21
289.0585347791274
 31
0.0
  0
LINE
  5
48F
330
1F
100
AcDbEntity
  8
0
 62
     7
 48
0.036801
370
    35
100
AcDbLine
 10
56.74392689150909
 20
289.0629897791274
 30
0.0
 11
55.27188089150909
 21
289.0585347791274
 31
0.0
  0
LINE
  5
490
330
1F
100
AcDbEntity
  8
0
 62
     7
370
    35
100
AcDbLine
 10
54.2164908915091
 20
56.39692877912743
 30
0.0
 11
54.2164908915091
 21
289.0162977791274
 31
0.0
  0
ARC
  5
491
330
1F
100
AcDbEntity
  8
0
 62
     7
370
    35
100
AcDbCircle
 10
259.1722408915091
 20
51.21539477912742
 30
0.0
 40
8.129723
100
AcDbArc
 50
169.293875
 51
180.061904
  0
LINE
  5
492
330
1F
100
AcDbEntity
  8
0
 62
     7
 48
0.002239
370
    35
100
AcDbLine
 10
251.2011408915091
 20
52.81356977912743
 30
0.0
 11
251.1840208915091
 21
52.72566377912743
 31
0.0
  0
ARC
  5
493
330
1F
100
AcDbEntity
  8
0
 62
     7
370
    35
100
AcDbCircle
 10
259.2164908915091
 20
51.20660577912743
 30
0.0
 40
8.174841999999999
100
AcDbArc
 50
90.0
 51
168.663298
  0
ARC
  5
494
330
1F
100
AcDbEntity
  8
0
 62
     7
370
    35
100
AcDbCircle
 10
266.8913268915091
 20
58.88144077912743
 30
0.0
 40
0.5
100
AcDbArc
 50
0.0
 51
90.0
  0
LINE
  5
495
330
1F
100
AcDbEntity
  8
0
 62
     7
 48
0.191871
370
    35
100
AcDbLine
 10
259.2164908915091
 20
59.38144077912743
 30
0.0
 11
266.8913268915091
 21
59.38144077912743
 31
0.0
  0
ARC
  5
496
330
1F
100
AcDbEntity
  8
0
 62
     7
370
    35
100
AcDbCircle
 10
69.26074189150909
 20
51.21539477912742
 30
0.0
 40
8.129723
100
AcDbArc
 50
359.9381
 51
10.70612599999998
  0
ARC
  5
497
330
1F
100
AcDbEntity
  8
0
 62
     7
370
    35
100
AcDbCircle
 10
69.2164908915091
 20
51.20660577912743
 30
0.0
 40
8.174841999999999
100
AcDbArc
 50
11.33669700000002
 51
90.0
  0
LINE
  5
498
330
1F
100
AcDbEntity
  8
0
 62
     7
 48
0.002239
370
    35
100
AcDbLine
 10
77.24896189150908
 20
52.72566377912743
 30
0.0
 11
77.23184189150909
 21
52.81356977912743
 31
0.0
  0
LINE
  5
499
330
1F
100
AcDbEntity
  8
0
 62
     7
 48
0.191871
370
    35
100
AcDbLine
 10
69.2164908915091
 20
59.38144077912743
 30
0.0
 11
61.5416558915091
 21
59.38144077912743
 31
0.0
  0
ARC
  5
49A
330
1F
100
AcDbEntity
  8
0
 62
     7
370
    35
100
AcDbCircle
 10
61.5416558915091
 20
58.88144077912743
 30
0.0
 40
0.5
100
AcDbArc
 50
90.0
 51
180.0
  0
LINE
  5
49B
330
1F
100
AcDbEntity
  8
0
 62
     7
 48
0.038903
370
    35
100
AcDbLine
 10
61.04165589150909
 20
52.81356977912743
 30
0.0
 11
61.04246489150909
 21
51.25743277912743
 31
0.0
  0
LINE
  5
49C
330
1F
100
AcDbEntity
  8
0
 62
     7
 48
0.151697
370
    35
100
AcDbLine
 10
61.04165589150909
 20
58.88144077912743
 30
0.0
 11
61.04165589150909
 21
52.81356977912743
 31
0.0
  0
LWPOLYLINE
  5
49D
330
1F
100
AcDbEntity
  8
0
 62
     7
370
    35
100
AcDbPolyline
 90
       20
 70
     0
 43
0.0
 10
69.2164908915091
 20
43.07010077912742
 10
68.53819189150908
 20
43.09814577912742
 10
67.86834689150909
 20
43.18147477912742
 10
67.21391289150909
 20
43.31794877912742
 10
66.5802758915091
 20
43.50468577912742
 10
65.9820708915091
 20
43.73396477912742
 10
65.40997289150908
 20
44.00598277912743
 10
64.8656458915091
 20
44.31834577912742
 10
64.3502798915091
 20
44.66905377912743
 10
63.77731289150909
 20
45.13325677912742
 10
63.24874789150909
 20
45.64717277912742
 10
62.76739489150909
 20
46.20858977912742
 10
62.33651689150909
 20
46.81512577912743
 10
61.95999089150909
 20
47.46399077912743
 10
61.68763689150909
 20
48.04196377912743
 10
61.4596858915091
 20
48.64494477912742
 10
61.27883889150909
 20
49.26973077912743
 10
61.14764389150909
 20
49.91241577912743
 10
61.06936589150909
 20
50.55542177912743
 10
61.04246489150909
 20
51.25743277912743
  0
ARC
  5
49E
330
1F
100
AcDbEntity
  8
0
 62
     7
370
    35
100
AcDbCircle
 10
-964.2411501084909
 20
51.75798177912742
 30
0.0
 40
1041.631415
100
AcDbArc
 50
359.5474969999999
 51
359.9696709999999
  0
LINE
  5
49F
330
1F
100
AcDbEntity
  8
0
 62
     7
 48
0.192178
370
    35
100
AcDbLine
 10
76.9036248915091
 20
43.07010077912742
 30
0.0
 11
69.2164908915091
 21
43.07010077912742
 31
0.0
  0
ARC
  5
4A0
330
1F
100
AcDbEntity
  8
0
 62
     7
370
    35
100
AcDbCircle
 10
76.89153989150909
 20
43.53576777912742
 30
0.0
 40
0.465804
100
AcDbArc
 50
271.4849349999999
 51
359.488819
  0
LINE
  5
4A1
330
1F
100
AcDbEntity
  8
0
 62
     7
 48
0.151697
370
    35
100
AcDbLine
 10
267.3913268915091
 20
58.88144077912743
 30
0.0
 11
267.3913268915091
 21
52.81356977912743
 31
0.0
  0
LINE
  5
4A2
330
1F
100
AcDbEntity
  8
0
 62
     7
 48
0.038903
370
    35
100
AcDbLine
 10
267.3913268915091
 20
52.81356977912743
 30
0.0
 11
267.3905028915091
 21
51.25743277912743
 31
0.0
  0
ARC
  5
4A3
330
1F
100
AcDbEntity
  8
0
 62
     7
370
    35
100
AcDbCircle
 10
1292.674132891509
 20
51.75798177912742
 30
0.0
 40
1041.631415
100
AcDbArc
 50
180.0303349999999
 51
180.4525089999999
  0
ARC
  5
4A4
330
1F
100
AcDbEntity
  8
0
 62
     7
370
    35
100
AcDbCircle
 10
251.5414428915091
 20
43.53576777912742
 30
0.0
 40
0.465804
100
AcDbArc
 50
180.5111799999999
 51
268.51506
  0
LINE
  5
4A5
330
1F
100
AcDbEntity
  8
0
 62
     7
 48
0.192178
370
    35
100
AcDbLine
 10
259.2164908915091
 20
43.07010077912742
 30
0.0
 11
251.5293578915091
 21
43.07010077912742
 31
0.0
  0
LINE
  5
4A6
330
1F
100
AcDbEntity
  8
0
 62
     7
 48
0.028065
370
    13
100
AcDbLine
 10
268.5139458915091
 20
52.81356977912743
 30
0.0
 11
267.3913268915091
 21
52.81356977912743
 31
0.0
  0
LINE
  5
4A7
330
1F
100
AcDbEntity
  8
0
 62
     7
370
    13
100
AcDbLine
 10
251.2011408915091
 20
52.81356977912743
 30
0.0
 11
77.2474877115091
 21
52.73323323912743
 31
0.0
  0
LINE
  5
4A8
330
1F
100
AcDbEntity
  8
0
 62
     7
370
    13
100
AcDbLine
 10
61.04170155150909
 20
52.72574896912742
 30
0.0
 11
57.80358914150909
 21
52.72425351912743
 31
0.0
  0
LINE
  5
4A9
330
1F
100
AcDbEntity
  8
0
100
AcDbLine
 10
69.5144196715091
 20
36.20660577912743
 30
0.0
 11
258.9185621115091
 21
36.20660577912743
 31
0.0
  0
LINE
  5
4AA
330
1F
100
AcDbEntity
  8
0
100
AcDbLine
 10
74.30617233150909
 20
398.7066057791274
 30
0.0
 11
254.3061723315091
 21
398.7066057791274
 31
0.0
  0
LINE
  5
4AB
330
1F
100
AcDbEntity
  8
0
100
AcDbLine
 10
254.3061723315091
 20
398.7066057791274
 30
0.0
 11
254.3061723315091
 21
353.7066057791274
 31
0.0
  0
LINE
  5
4AC
330
1F
100
AcDbEntity
  8
0
100
AcDbLine
 10
254.3061723315091
 20
353.7066057791274
 30
0.0
 11
74.30617233150909
 21
353.7066057791274
 31
0.0
  0
LINE
  5
4AD
330
1F
100
AcDbEntity
  8
0
100
AcDbLine
 10
74.30617233150909
 20
353.7066057791274
 30
0.0
 11
74.30617233150909
 21
398.7066057791274
 31
0.0
  0
DIMENSION
  5
4AE
330
1F
100
AcDbEntity
  8
QUOTE
 62
     7
100
AcDbDimension
  2
*D5
 10
31.10372114150909
 20
36.20602446912744
 30
0.0
 11
31.10372114150909
 21
245.5468436091274
 31
0.0
 70
   160
 71
     0
 42
435.00058131
  3
Standard
100
AcDbAlignedDimension
 13
71.68778846150908
 23
471.2066057791274
 33
0.0
 14
69.21706089150909
 24
36.20602446912743
 34
0.0
 50
90.0
100
AcDbRotatedDimension
1001
ACAD
1000
DSTYLE
1002
{
1070
    41
1040
15.0
1070
   140
1040
10.0
1070
    78
1070
     8
1070
   284
1070
     8
1002
}
  0
DIMENSION
  5
4AF
330
1F
100
AcDbEntity
  8
QUOTE
 62
     7
100
AcDbDimension
  2
*D6
 10
54.2164908915091
 20
17.24691387912742
 30
0.0
 11
168.1879725115091
 21
17.24691387912742
 31
0.0
 70
   160
 71
     0
 42
220.0
  3
Standard
100
AcDbAlignedDimension
 13
274.2164908915091
 23
51.20660577912743
 33
0.0
 14
54.2164908915091
 24
51.26910446912742
 34
0.0
100
AcDbRotatedDimension
1001
ACAD
1000
DSTYLE
1002
{
1070
    41
1040
15.0
1070
   140
1040
10.0
1070
    78
1070
     8
1070
   284
1070
     8
1002
}
  0
TEXT
  5
4B0
330
1F
100
AcDbEntity
  8
0
 62
     7
100
AcDbText
 10
81.75397316293766
 20
458.5544848391274
 30
0.0
 40
5.0
  1
GW68003N
 72
     1
 11
100.6825445915091
 21
458.5544848391274
 31
0.0
100
AcDbText
  0
LWPOLYLINE
  5
4B1
330
1F
100
AcDbEntity
  8
0
 62
   253
370
    35
100
AcDbPolyline
 90
        7
 70
     0
 43
0.0
 10
264.4810478915091
 20
330.5139787791274
 10
264.4807738915091
 20
330.5151387791274
 10
264.4790648915091
 20
330.5158707791274
 10
264.4719228915091
 20
330.5173657791274
 10
264.4212638915091
 20
330.5217907791274
 10
264.0259398915091
 20
330.5332357791274
 10
262.9812618915091
 20
330.5406507791274
  0
LWPOLYLINE
  5
4B2
330
1F
100
AcDbEntity
  8
0
 62
   253
370
    35
100
AcDbPolyline
 90
        6
 70
     0
 43
0.0
 10
65.45170589150909
 20
330.5406507791274
 10
64.51895089150909
 20
330.5349747791274
 10
63.99038689150909
 20
330.5203567791274
 10
63.9548028915091
 20
330.5161457791275
 10
63.9523008915091
 20
330.5151997791274
 10
63.95193389150909
 20
330.5139787791274
  0
LWPOLYLINE
  5
4B3
330
1F
100
AcDbEntity
  8
0
 62
   253
370
    35
100
AcDbPolyline
 90
        3
 70
     0
 43
0.0
 10
128.6417538915091
 20
330.5115377791275
 10
128.7790368915091
 20
330.5007337791275
 10
129.620329891509
 20
330.4815387791274
  0
LWPOLYLINE
  5
4B4
330
1F
100
AcDbEntity
  8
0
 62
   253
370
    35
100
AcDbPolyline
 90
        3
 70
     0
 43
0.0
 10
198.8126518915091
 20
330.4815387791274
 10
199.7189628915091
 20
330.5043347791273
 10
199.7912288915091
 20
330.5115377791275
  0
LWPOLYLINE
  5
4B5
330
1F
100
AcDbEntity
  8
0
 62
   253
370
    35
100
AcDbPolyline
 90
        4
 70
     0
 43
0.0
 10
198.6673278915091
 20
325.6375137791274
 10
198.4244988915091
 20
325.5636617791274
 10
198.1950368915091
 20
325.4673477791274
 10
197.9689938915091
 20
325.3521437791274
  0
LWPOLYLINE
  5
4B6
330
1F
100
AcDbEntity
  8
0
 62
   253
370
    35
100
AcDbPolyline
 90
       11
 70
     0
 43
0.0
 10
199.1870108915091
 20
325.7252827791274
 10
199.3223258915091
 20
325.7088027791274
 10
199.4164428915091
 20
325.6685807791274
 10
199.5295408915091
 20
325.5473037791274
 10
199.554839891509
 20
325.4881307791273
 10
199.5791618915091
 20
325.3538527791274
 10
199.5607298915091
 20
325.1400167791274
 10
199.4719838915091
 20
324.8736287791274
 10
199.3593748915091
 20
324.6773397791275
 10
199.2413628915091
 20
324.5382397791275
 10
199.1740408915091
 20
324.4790967791274
  0
LWPOLYLINE
  5
4B7
330
1F
100
AcDbEntity
  8
0
 62
   253
370
    35
100
AcDbPolyline
 90
       16
 70
     0
 43
0.0
 10
199.1740408915091
 20
324.4790967791274
 10
198.6083368915091
 20
324.0409557791275
 10
198.0249938915091
 20
323.6164567791275
 10
197.1711118915091
 20
323.0408337791274
 10
196.2902828915091
 20
322.4996047791274
 10
195.2938838915091
 20
321.9468097791274
 10
194.2749938915091
 20
321.4422317791274
 10
193.2410878915091
 20
320.9890457791274
 10
192.1870418915091
 20
320.5845967791274
 10
191.1135858915091
 20
320.2294327791274
 10
190.0220328915091
 20
319.9244397791274
 10
188.9084158915091
 20
319.6696187791274
 10
187.7818598915091
 20
319.4681417791275
 10
186.6420588915091
 20
319.3208937791275
 10
185.4975278915091
 20
319.2296157791274
 10
184.2164908915091
 20
319.1943377791274
  0
LWPOLYLINE
  5
4B8
330
1F
100
AcDbEntity
  8
0
 62
   253
370
    35
100
AcDbPolyline
 90
       13
 70
     0
 43
0.0
 10
129.3207998915091
 20
324.5565197791274
 10
129.2303618915091
 20
324.6392537791274
 10
129.1353598915091
 20
324.7574177791274
 10
129.0561208915091
 20
324.8884297791274
 10
128.9736628915091
 20
325.0780957791274
 10
128.9279318915091
 20
325.2555557791274
 10
128.9192198915091
 20
325.3710647791274
 10
128.9278558915091
 20
325.4523937791274
 10
128.9411768915091
 20
325.4993297791274
 10
128.9671168915091
 20
325.5515457791274
 10
129.0778798915091
 20
325.6404127791275
 10
129.1590878915091
 20
325.6594867791274
 10
129.2456198915091
 20
325.6601887791275
  0
LWPOLYLINE
  5
4B9
330
1F
100
AcDbEntity
  8
0
 62
   253
370
    35
100
AcDbPolyline
 90
        4
 70
     0
 43
0.0
 10
129.7656398915091
 20
325.6375137791274
 10
130.008498891509
 20
325.5636617791274
 10
130.2379598915091
 20
325.4673477791274
 10
130.463988891509
 20
325.3521437791274
  0
LWPOLYLINE
  5
4BA
330
1F
100
AcDbEntity
  8
0
 62
   253
370
    35
100
AcDbPolyline
 90
       16
 70
     0
 43
0.0
 10
129.2589258915091
 20
324.4790967791274
 10
129.8246608915091
 20
324.0409557791275
 10
130.4079888915091
 20
323.6164567791275
 10
131.2618708915091
 20
323.0408337791274
 10
132.1427148915091
 20
322.4996047791274
 10
133.1391138915091
 20
321.9468097791274
 10
134.1579888915091
 20
321.4422317791274
 10
135.1919088915091
 20
320.9890157791274
 10
136.2459408915091
 20
320.5845967791274
 10
137.3193968915091
 20
320.2294327791274
 10
138.4109648915091
 20
319.9244397791274
 10
139.5245658915091
 20
319.6696187791274
 10
140.6511378915091
 20
319.4681417791275
 10
141.7909388915091
 20
319.3208937791275
 10
142.9354548915091
 20
319.2296157791274
 10
144.2164908915091
 20
319.1943377791274
  0
LWPOLYLINE
  5
4BB
330
1F
100
AcDbEntity
  8
0
 62
   253
370
    35
100
AcDbPolyline
 90
       12
 70
     0
 43
0.0
 10
184.2164908915091
 20
322.6992207791275
 10
185.8519588915091
 20
322.7343767791274
 10
187.4700618915091
 20
322.8386857791274
 10
189.0574028915091
 20
323.0082107791275
 10
190.6108388915091
 20
323.2384357791274
 10
192.3558038915091
 20
323.5726027791275
 10
193.8790578915091
 20
323.9297497791274
 10
195.2862238915091
 20
324.3166827791274
 10
196.3231498915091
 20
324.6453267791275
 10
197.0827018915091
 20
324.9244397791274
 10
197.6337278915091
 20
325.1693737791275
 10
197.7788998915091
 20
325.2463087791274
  0
LWPOLYLINE
  5
4BC
330
1F
100
AcDbEntity
  8
0
 62
   253
370
    35
100
AcDbPolyline
 90
       12
 70
     0
 43
0.0
 10
130.6540828915091
 20
325.2463087791274
 10
130.9650418915091
 20
325.0895097791274
 10
131.5605468915091
 20
324.8424087791274
 10
132.4495848915091
 20
324.5325027791274
 10
133.6809538915091
 20
324.1628437791275
 10
135.2081598915091
 20
323.7688307791274
 10
136.9470818915091
 20
323.3960277791274
 10
138.4841298915091
 20
323.1325697791274
 10
140.051817891509
 20
322.9278577791274
 10
141.6534108915091
 20
322.7857067791274
 10
143.2811278915091
 20
322.7106947791274
 10
144.2164908915091
 20
322.6992207791275
  0
LWPOLYLINE
  5
4BD
330
1F
100
AcDbEntity
  8
0
 62
   253
370
    35
100
AcDbPolyline
 90
        3
 70
     0
 43
0.0
 10
168.2912588915091
 20
329.0927137791274
 10
162.9842828915091
 20
329.0991837791275
 10
160.1417228915091
 20
329.0927137791274
  0
LWPOLYLINE
  5
4BE
330
1F
100
AcDbEntity
  8
0
 62
   253
370
    35
100
AcDbPolyline
 90
        3
 70
     0
 43
0.0
 10
129.7139578915091
 20
329.1719987791274
 10
128.9382928915091
 20
329.1883867791274
 10
128.8000478915091
 20
329.1960767791274
  0
LWPOLYLINE
  5
4BF
330
1F
100
AcDbEntity
  8
0
 62
     7
370
    35
100
AcDbPolyline
 90
        4
 70
     0
 43
0.0
 10
270.6270138915091
 20
455.2066057791274
 10
270.6389768915091
 20
452.6076677791275
 10
270.6613768915091
 20
451.1789567791274
 10
270.6663508915091
 20
451.0856337791274
  0
LWPOLYLINE
  5
4C0
330
1F
100
AcDbEntity
  8
0
 62
     7
370
    35
100
AcDbPolyline
 90
        8
 70
     0
 43
0.0
 10
270.6663508915091
 20
299.3275777791274
 10
270.6593928915091
 20
299.1786817791274
 10
270.646544891509
 20
298.5190137791274
 10
270.6299428915091
 20
296.2774067791274
 10
270.6267698915091
 20
293.3616047791275
 10
270.6380308915091
 20
290.7209487791274
 10
270.6600338915091
 20
289.2150897791274
 10
270.6663508915091
 20
289.0856337791274
  0
LWPOLYLINE
  5
4C1
330
1F
100
AcDbEntity
  8
0
 62
     7
370
    35
100
AcDbPolyline
 90
        4
 70
     0
 43
0.0
 10
270.6270138915091
 20
52.20660577912743
 10
270.6389768915091
 20
54.80555877912742
 10
270.6613768915091
 20
56.23425477912743
 10
270.6663508915091
 20
56.32756177912742
  0
LWPOLYLINE
  5
4C2
330
1F
100
AcDbEntity
  8
0
 62
     7
370
    35
100
AcDbPolyline
 90
       10
 70
     0
 43
0.0
 10
269.0577388915091
 20
461.3275777791273
 10
269.2114558915091
 20
461.0230727791274
 10
269.4860838915091
 20
460.4486707791274
 10
269.7982778915091
 20
459.6964737791274
 10
270.0979608915091
 20
458.8101217791274
 10
270.2312618915091
 20
458.3282787791273
 10
270.3488768915091
 20
457.8261737791274
 10
270.4974058915091
 20
456.9932877791273
 10
270.5911558915091
 20
456.1382157791274
 10
270.6270138915091
 20
455.2066057791274
  0
LWPOLYLINE
  5
4C3
330
1F
100
AcDbEntity
  8
0
 62
     7
370
    35
100
AcDbPolyline
 90
       10
 70
     0
 43
0.0
 10
269.0577388915091
 20
46.08564877912742
 10
269.2114558915091
 20
46.39015377912743
 10
269.4860838915091
 20
46.96453977912742
 10
269.7982778915091
 20
47.71673777912742
 10
270.0979608915091
 20
48.60307477912742
 10
270.2312618915091
 20
49.08493177912743
 10
270.3488768915091
 20
49.58705277912743
 10
270.4974058915091
 20
50.41990777912743
 10
270.5911558915091
 20
51.27499577912742
 10
270.6270138915091
 20
52.20660577912743
  0
LWPOLYLINE
  5
4C4
330
1F
100
AcDbEntity
  8
0
 62
     7
370
    35
100
AcDbPolyline
 90
        4
 70
     0
 43
0.0
 10
57.8059688915091
 20
455.2066057791274
 10
57.79402089150909
 20
452.6076677791275
 10
57.77160589150909
 20
451.1789567791274
 10
57.76663189150909
 20
451.0856337791274
  0
LWPOLYLINE
  5
4C5
330
1F
100
AcDbEntity
  8
0
 62
     7
370
    35
100
AcDbPolyline
 90
       10
 70
     0
 43
0.0
 10
59.37524389150909
 20
461.3275777791273
 10
59.22152689150909
 20
461.0230727791274
 10
58.9468838915091
 20
460.4486707791274
 10
58.63470389150909
 20
459.6964737791274
 10
58.33502189150909
 20
458.8101217791274
 10
58.20172089150909
 20
458.3282787791273
 10
58.08410589150909
 20
457.8261737791274
 10
57.93557689150909
 20
456.9932877791273
 10
57.8418268915091
 20
456.1382157791274
 10
57.8059688915091
 20
455.2066057791274
  0
LWPOLYLINE
  5
4C6
330
1F
100
AcDbEntity
  8
0
 62
     7
370
    35
100
AcDbPolyline
 90
       15
 70
     0
 43
0.0
 10
69.2164908915091
 20
465.3475967791274
 10
68.41158989150909
 20
465.3125627791273
 10
67.62113889150909
 20
465.2091077791274
 10
66.8557738915091
 20
465.0415057791274
 10
66.05316089150909
 20
464.7900707791274
 10
65.2910918915091
 20
464.4732067791274
 10
64.5714408915091
 20
464.0957047791273
 10
63.89498889150909
 20
463.6610737791273
 10
63.2994988915091
 20
463.2027297791274
 10
62.74313289150909
 20
462.6967177791274
 10
62.22793489150909
 20
462.1440747791274
 10
61.75671289150909
 20
461.5462047791274
 10
61.33300689150909
 20
460.9047567791273
 10
60.96084589150909
 20
460.2220477791274
 10
60.64454589150909
 20
459.5011007791274
  0
LWPOLYLINE
  5
4C7
330
1F
100
AcDbEntity
  8
0
 62
     7
370
    35
100
AcDbPolyline
 90
       15
 70
     0
 43
0.0
 10
267.7884208915091
 20
459.5011007791274
 10
267.4492178915091
 20
460.2683727791274
 10
267.0469358915091
 20
460.9917617791274
 10
266.5869138915091
 20
461.6677257791273
 10
266.0737908915091
 20
462.2937637791274
 10
265.5191648915091
 20
462.8609637791274
 10
264.9196158915091
 20
463.3763747791274
 10
264.2770988915091
 20
463.8386857791274
 10
263.5928338915091
 20
464.2462177791275
 10
262.9448848915091
 20
464.5628677791274
 10
262.2636718915091
 20
464.8314837791273
 10
261.5506888915091
 20
465.0484637791274
 10
260.7933958915091
 20
465.2123427791273
 10
260.0119628915091
 20
465.3133867791274
 10
259.2164908915091
 20
465.3475967791274
  0
LWPOLYLINE
  5
4C8
330
1F
100
AcDbEntity
  8
0
 62
     7
370
    35
100
AcDbPolyline
 90
       10
 70
     0
 43
0.0
 10
59.37524389150909
 20
46.08564877912742
 10
59.22152689150909
 20
46.39015377912743
 10
58.9468838915091
 20
46.96453977912742
 10
58.63470389150909
 20
47.71675277912743
 10
58.33502189150909
 20
48.60307477912742
 10
58.20172089150909
 20
49.08493177912743
 10
58.08410589150909
 20
49.58705277912743
 10
57.93557689150909
 20
50.41990777912743
 10
57.8418268915091
 20
51.27499577912742
 10
57.8059688915091
 20
52.20660577912743
  0
LWPOLYLINE
  5
4C9
330
1F
100
AcDbEntity
  8
0
 62
     7
370
    35
100
AcDbPolyline
 90
        4
 70
     0
 43
0.0
 10
57.8059688915091
 20
52.20660577912743
 10
57.79402089150909
 20
54.80555877912742
 10
57.77160589150909
 20
56.23425477912743
 10
57.76663189150909
 20
56.32756177912742
  0
LWPOLYLINE
  5
4CA
330
1F
100
AcDbEntity
  8
0
 62
     7
370
    35
100
AcDbPolyline
 90
        8
 70
     0
 43
0.0
 10
57.76663189150909
 20
299.3275777791274
 10
57.77358989150909
 20
299.1786817791274
 10
57.78643789150909
 20
298.5190137791274
 10
57.80302389150909
 20
296.2774067791274
 10
57.80621289150909
 20
293.3616047791275
 10
57.79495189150909
 20
290.7209487791274
 10
57.77293389150909
 20
289.2150897791274
 10
57.76663189150909
 20
289.0856337791274
  0
LWPOLYLINE
  5
4CB
330
1F
100
AcDbEntity
  8
0
 62
     7
370
    35
100
AcDbPolyline
 90
       20
 70
     0
 43
0.0
 10
259.2164908915091
 20
43.07010077912742
 10
259.8947748915091
 20
43.09814577912742
 10
260.5646358915091
 20
43.18147477912742
 10
261.2190548915091
 20
43.31794877912742
 10
261.8527218915091
 20
43.50468577912742
 10
262.4509268915091
 20
43.73396477912742
 10
263.0230098915091
 20
44.00598277912743
 10
263.5673208915091
 20
44.31834577912742
 10
264.0827018915091
 20
44.66905377912743
 10
264.6556698915091
 20
45.13325677912742
 10
265.184233891509
 20
45.64717277912742
 10
265.6655878915091
 20
46.20858977912742
 10
266.0964658915091
 20
46.81512577912743
 10
266.4729918915091
 20
47.46399077912743
 10
266.7453608915091
 20
48.04196377912743
 10
266.9732968915091
 20
48.64494477912742
 10
267.1541438915091
 20
49.26973077912743
 10
267.2853388915091
 20
49.91241577912743
 10
267.3636168915091
 20
50.55542177912743
 10
267.3905028915091
 20
51.25743277912743
  0
INSERT
  5
4CC
330
1F
100
AcDbEntity
  8
0
 62
    56
100
AcDbBlockReference
  2
IEC_309_16-32
 10
42.64584205150909
 20
168.4843980891274
 30
0.0
  0
INSERT
  5
4CD
330
1F
100
AcDbEntity
  8
0
 62
    56
100
AcDbBlockReference
  2
IEC_309_16-32
 10
147.0335920515091
 20
168.4843980891274
 30
0.0
  0
INSERT
  5
4CE
330
1F
100
AcDbEntity
  8
0
 62
    56
100
AcDbBlockReference
  2
IEC_309_16-32
 10
42.64584205150909
 20
50.74514808912742
 30
0.0
  0
INSERT
  5
4CF
330
1F
100
AcDbEntity
  8
0
 62
    56
100
AcDbBlockReference
  2
IEC_309_16-32
 10
147.0335920515091
 20
50.74514808912742
 30
0.0
  0
ENDSEC
  0
SECTION
  2
OBJECTS
  0
DICTIONARY
  5
C
330
0
100
AcDbDictionary
281
     1
  3
ACAD_COLOR
350
73
  3
ACAD_GROUP
350
D
  3
ACAD_LAYOUT
350
1A
  3
ACAD_MATERIAL
350
72
  3
ACAD_MLEADERSTYLE
350
D7
  3
ACAD_MLINESTYLE
350
17
  3
ACAD_PLOTSETTINGS
350
19
  3
ACAD_PLOTSTYLENAME
350
E
  3
ACAD_SCALELIST
350
B6
  3
ACAD_TABLESTYLE
350
86
  3
ACAD_VISUALSTYLE
350
99
  3
ACDB_RECOMPOSE_DATA
350
FF
  3
AcDbVariableDictionary
350
66
  3
DWGPROPS
350
50E
  0
DICTIONARY
  5
E6
330
10
100
AcDbDictionary
280
     1
281
     1
  3
ADSK_XREC_LAYER_RECONCILED
360
502
  0
DICTIONARY
  5
503
330
174
100
AcDbDictionary
280
     1
281
     1
  3
ADSK_XREC_LAYER_RECONCILED
360
504
  0
DICTIONARY
  5
505
330
175
100
AcDbDictionary
280
     1
281
     1
  3
ADSK_XREC_LAYER_RECONCILED
360
506
  0
DICTIONARY
  5
507
330
176
100
AcDbDictionary
280
     1
281
     1
  3
ADSK_XREC_LAYER_RECONCILED
360
508
  0
DICTIONARY
  5
73
102
{ACAD_REACTORS
330
C
102
}
330
C
100
AcDbDictionary
281
     1
  0
DICTIONARY
  5
D
102
{ACAD_REACTORS
330
C
102
}
330
C
100
AcDbDictionary
281
     1
  0
DICTIONARY
  5
1A
102
{ACAD_REACTORS
330
C
102
}
330
C
100
AcDbDictionary
281
     1
  3
Layout1
350
59
  3
Layout2
350
5E
  3
Model
350
22
  0
DICTIONARY
  5
72
102
{ACAD_REACTORS
330
C
102
}
330
C
100
AcDbDictionary
281
     1
  3
ByBlock
350
97
  3
ByLayer
350
96
  3
Global
350
98
  0
DICTIONARY
  5
D7
102
{ACAD_REACTORS
330
C
102
}
330
C
100
AcDbDictionary
281
     1
  3
Annotativa
350
E5
  3
Standard
350
D8
  0
DICTIONARY
  5
17
102
{ACAD_REACTORS
330
C
102
}
330
C
100
AcDbDictionary
281
     1
  3
Standard
350
18
  0
DICTIONARY
  5
19
102
{ACAD_REACTORS
330
C
102
}
330
C
100
AcDbDictionary
281
     1
  0
ACDBDICTIONARYWDFLT
  5
E
102
{ACAD_REACTORS
330
C
102
}
330
C
100
AcDbDictionary
281
     1
  3
Normal
350
F
100
AcDbDictionaryWithDefault
340
F
  0
DICTIONARY
  5
B6
102
{ACAD_REACTORS
330
C
102
}
330
C
100
AcDbDictionary
281
     1
  3
A0
350
B7
  3
A1
350
124
  3
A2
350
125
  3
A3
350
126
  3
A4
350
127
  3
A5
350
128
  3
A6
350
129
  3
A7
350
12A
  3
A8
350
12B
  3
A9
350
12C
  3
B0
350
12D
  3
B1
350
12E
  3
B2
350
12F
  3
B3
350
130
  3
B4
350
131
  3
B5
350
132
  3
B6
350
133
  3
B7
350
134
  3
B8
350
135
  3
B9
350
136
  3
C0
350
137
  3
C1
350
138
  3
C2
350
139
  3
C3
350
13A
  3
C4
350
13B
  3
C5
350
13C
  3
C6
350
13D
  3
C7
350
13E
  3
C8
350
13F
  3
C9
350
140
  3
D0
350
141
  3
D1
350
142
  3
D2
350
143
  0
DICTIONARY
  5
86
102
{ACAD_REACTORS
330
C
102
}
330
C
100
AcDbDictionary
281
     1
  3
Standard
350
87
  0
DICTIONARY
  5
99
102
{ACAD_REACTORS
330
C
102
}
330
C
100
AcDbDictionary
281
     1
  3
2dWireframe
350
9F
  3
3D Hidden
350
A1
  3
3dWireframe
350
A0
  3
Basic
350
9E
  3
Brighten
350
A5
  3
ColorChange
350
A9
  3
Conceptual
350
A2
  3
Dim
350
A4
  3
Facepattern
350
A8
  3
Flat
350
9A
  3
FlatWithEdges
350
9B
  3
Gouraud
350
9C
  3
GouraudWithEdges
350
9D
  3
Linepattern
350
A7
  3
Realistic
350
A3
  3
Thicken
350
A6
  0
XRECORD
  5
FF
102
{ACAD_REACTORS
330
C
102
}
330
C
100
AcDbXrecord
280
     1
 90
        1
330
87
  0
DICTIONARY
  5
66
102
{ACAD_REACTORS
330
C
102
}
330
C
100
AcDbDictionary
281
     1
  3
CANNOSCALE
350
F0
  3
CMLEADERSTYLE
350
EF
  3
CTABLESTYLE
350
89
  3
DIMASSOC
350
67
  3
HIDETEXT
350
6B
  3
INDEXCTL
350
50C
  3
LIGHTINGUNITS
350
50A
  3
MSLTSCALE
350
509
  3
SORTENTS
350
50B
  0
XRECORD
  5
50E
102
{ACAD_REACTORS
330
C
102
}
330
C
100
AcDbXrecord
280
     1
  1
DWGPROPS COOKIE
  2

  3

  4

  6

  7

  8
fontanaNZ
  9

300
=
301
=
302
=
303
=
304
=
305
=
306
=
307
=
308
=
309
=
 40
0.0001713541666667
 41
2455511.356624618
 42
2455511.356795787
  1

 90
        0
  0
XRECORD
  5
502
102
{ACAD_REACTORS
330
E6
102
}
330
E6
100
AcDbXrecord
280
     1
290
     1
  0
XRECORD
  5
504
102
{ACAD_REACTORS
330
503
102
}
330
503
100
AcDbXrecord
280
     1
290
     1
  0
XRECORD
  5
506
102
{ACAD_REACTORS
330
505
102
}
330
505
100
AcDbXrecord
280
     1
290
     1
  0
XRECORD
  5
508
102
{ACAD_REACTORS
330
507
102
}
330
507
100
AcDbXrecord
280
     1
290
     1
  0
LAYOUT
  5
59
102
{ACAD_XDICTIONARY
360
511
102
}
102
{ACAD_REACTORS
330
1A
102
}
330
1A
100
AcDbPlotSettings
  1

  2
None
  4

  6

 40
0.0
 41
0.0
 42
0.0
 43
0.0
 44
0.0
 45
0.0
 46
0.0
 47
0.0
 48
0.0
 49
0.0
140
0.0
141
0.0
142
1.0
143
1.0
 70
   688
 72
     0
 73
     0
 74
     5
  7

 75
    16
147
1.0
148
0.0
149
0.0
100
AcDbLayout
  1
Layout1
 70
     1
 71
     1
 10
0.0
 20
0.0
 11
12.0
 21
9.0
 12
0.0
 22
0.0
 32
0.0
 14
0.0
 24
0.0
 34
0.0
 15
0.0
 25
0.0
 35
0.0
146
0.0
 13
0.0
 23
0.0
 33
0.0
 16
1.0
 26
0.0
 36
0.0
 17
0.0
 27
1.0
 37
0.0
 76
     0
330
58
  0
LAYOUT
  5
5E
102
{ACAD_XDICTIONARY
360
513
102
}
102
{ACAD_REACTORS
330
1A
102
}
330
1A
100
AcDbPlotSettings
  1

  2
None
  4

  6

 40
0.0
 41
0.0
 42
0.0
 43
0.0
 44
0.0
 45
0.0
 46
0.0
 47
0.0
 48
0.0
 49
0.0
140
0.0
141
0.0
142
1.0
143
1.0
 70
   688
 72
     0
 73
     0
 74
     5
  7

 75
    16
147
1.0
148
0.0
149
0.0
100
AcDbLayout
  1
Layout2
 70
     1
 71
     2
 10
0.0
 20
0.0
 11
12.0
 21
9.0
 12
0.0
 22
0.0
 32
0.0
 14
0.0
 24
0.0
 34
0.0
 15
0.0
 25
0.0
 35
0.0
146
0.0
 13
0.0
 23
0.0
 33
0.0
 16
1.0
 26
0.0
 36
0.0
 17
0.0
 27
1.0
 37
0.0
 76
     0
330
5D
  0
LAYOUT
  5
22
102
{ACAD_XDICTIONARY
360
50F
102
}
102
{ACAD_REACTORS
330
1A
102
}
330
1A
100
AcDbPlotSettings
  1

  2
none_device
  4
ANSI_A_(8.50_x_11.00_Inches)
  6

 40
6.349999904632568
 41
19.04999923706055
 42
6.350006103515625
 43
19.04998779296875
 44
215.8999938964844
 45
279.3999938964844
 46
0.0
 47
0.0
 48
0.0
 49
0.0
140
0.0
141
0.0
142
1.0
143
2.584895464708373
 70
 11952
 72
     0
 73
     1
 74
     0
  7

 75
     0
147
0.3868628397755418
148
0.0
149
0.0
100
AcDbLayout
  1
Model
 70
     1
 71
     0
 10
0.0
 20
0.0
 11
12.0
 21
9.0
 12
0.0
 22
0.0
 32
0.0
 14
0.0
 24
0.0
 34
0.0
 15
0.0
 25
0.0
 35
0.0
146
0.0
 13
0.0
 23
0.0
 33
0.0
 16
1.0
 26
0.0
 36
0.0
 17
0.0
 27
1.0
 37
0.0
 76
     0
330
1F
331
94
  0
MATERIAL
  5
97
102
{ACAD_XDICTIONARY
360
518
102
}
102
{ACAD_REACTORS
330
72
102
}
330
72
100
AcDbMaterial
  1
ByBlock
  0
MATERIAL
  5
96
102
{ACAD_XDICTIONARY
360
516
102
}
102
{ACAD_REACTORS
330
72
102
}
330
72
100
AcDbMaterial
  1
ByLayer
  0
MATERIAL
  5
98
102
{ACAD_XDICTIONARY
360
110
102
}
102
{ACAD_REACTORS
330
72
102
}
330
72
100
AcDbMaterial
  1
Global
 43
0.0208000000566244
 43
0.0
 43
0.0
 43
0.0
 43
0.0
 43
0.0208000000566244
 43
0.0
 43
0.0
 43
0.0
 43
0.0
 43
1.0
 43
0.0
 43
0.0
 43
0.0
 43
0.0
 43
1.0
 49
0.0208000000566244
 49
0.0
 49
0.0
 49
0.0
 49
0.0
 49
0.0208000000566244
 49
0.0
 49
0.0
 49
0.0
 49
0.0
 49
1.0
 49
0.0
 49
0.0
 49
0.0
 49
0.0
 49
1.0
142
0.0208000000566244
142
0.0
142
0.0
142
0.0
142
0.0
142
0.0208000000566244
142
0.0
142
0.0
142
0.0
142
0.0
142
1.0
142
0.0
142
0.0
142
0.0
142
0.0
142
1.0
144
0.0208000000566244
144
0.0
144
0.0
144
0.0
144
0.0
144
0.0208000000566244
144
0.0
144
0.0
144
0.0
144
0.0
144
1.0
144
0.0
144
0.0
144
0.0
144
0.0
144
1.0
1001
ACAD
1070
    -1
1070
     3
1070
     0
1000

1071
        0
1070
     0
  0
MLEADERSTYLE
  5
E5
102
{ACAD_REACTORS
330
D7
102
}
330
D7
100
AcDbMLeaderStyle
170
     2
171
     1
172
     0
 90
        2
 40
0.0
 41
0.0
173
     1
 91
-1056964608
340
14
 92
       -2
290
     1
 42
0.09
291
     1
 43
0.36
  3
Standard
 44
0.18
300

342
11
174
     1
178
     1
175
     1
176
     0
 93
-1056964608
 45
0.18
292
     0
297
     0
 46
0.18
 94
-1056964608
 47
1.0
 49
1.0
140
1.0
293
     1
141
0.0
294
     1
177
     0
142
1.0
295
     0
296
     1
143
0.125
1001
ACAD_MLEADERVER
1070
     2
  0
MLEADERSTYLE
  5
D8
102
{ACAD_REACTORS
330
D7
102
}
330
D7
100
AcDbMLeaderStyle
170
     2
171
     1
172
     0
 90
        2
 40
0.0
 41
0.0
173
     1
 91
-1056964608
340
14
 92
       -2
290
     1
 42
0.09
291
     1
 43
0.36
  3
Standard
 44
0.18
300

342
11
174
     1
178
     1
175
     1
176
     0
 93
-1056964608
 45
0.18
292
     0
297
     0
 46
0.18
 94
-1056964608
 47
1.0
 49
1.0
140
1.0
293
     1
141
0.0
294
     1
177
     0
142
1.0
295
     0
296
     0
143
0.125
1001
ACAD_MLEADERVER
1070
     2
  0
MLINESTYLE
  5
18
102
{ACAD_REACTORS
330
17
102
}
330
17
100
AcDbMlineStyle
  2
STANDARD
 70
     0
  3

 62
   256
 51
90.0
 52
90.0
 71
     2
 49
0.5
 62
   256
  6
BYLAYER
 49
-0.5
 62
   256
  6
BYLAYER
  0
ACDBPLACEHOLDER
  5
F
102
{ACAD_REACTORS
330
E
102
}
330
E
  0
SCALE
  5
B7
102
{ACAD_REACTORS
330
B6
102
}
330
B6
100
AcDbScale
 70
     0
300
1:1
140
1.0
141
1.0
290
     1
  0
SCALE
  5
124
102
{ACAD_REACTORS
330
B6
102
}
330
B6
100
AcDbScale
 70
     0
300
1:2
140
1.0
141
2.0
290
     0
  0
SCALE
  5
125
102
{ACAD_REACTORS
330
B6
102
}
330
B6
100
AcDbScale
 70
     0
300
1:4
140
1.0
141
4.0
290
     0
  0
SCALE
  5
126
102
{ACAD_REACTORS
330
B6
102
}
330
B6
100
AcDbScale
 70
     0
300
1:5
140
1.0
141
5.0
290
     0
  0
SCALE
  5
127
102
{ACAD_REACTORS
330
B6
102
}
330
B6
100
AcDbScale
 70
     0
300
1:8
140
1.0
141
8.0
290
     0
  0
SCALE
  5
128
102
{ACAD_REACTORS
330
B6
102
}
330
B6
100
AcDbScale
 70
     0
300
1:10
140
1.0
141
10.0
290
     0
  0
SCALE
  5
129
102
{ACAD_REACTORS
330
B6
102
}
330
B6
100
AcDbScale
 70
     0
300
1:16
140
1.0
141
16.0
290
     0
  0
SCALE
  5
12A
102
{ACAD_REACTORS
330
B6
102
}
330
B6
100
AcDbScale
 70
     0
300
1:20
140
1.0
141
20.0
290
     0
  0
SCALE
  5
12B
102
{ACAD_REACTORS
330
B6
102
}
330
B6
100
AcDbScale
 70
     0
300
1:30
140
1.0
141
30.0
290
     0
  0
SCALE
  5
12C
102
{ACAD_REACTORS
330
B6
102
}
330
B6
100
AcDbScale
 70
     0
300
1:40
140
1.0
141
40.0
290
     0
  0
SCALE
  5
12D
102
{ACAD_REACTORS
330
B6
102
}
330
B6
100
AcDbScale
 70
     0
300
1:50
140
1.0
141
50.0
290
     0
  0
SCALE
  5
12E
102
{ACAD_REACTORS
330
B6
102
}
330
B6
100
AcDbScale
 70
     0
300
1:100
140
1.0
141
100.0
290
     0
  0
SCALE
  5
12F
102
{ACAD_REACTORS
330
B6
102
}
330
B6
100
AcDbScale
 70
     0
300
2:1
140
2.0
141
1.0
290
     0
  0
SCALE
  5
130
102
{ACAD_REACTORS
330
B6
102
}
330
B6
100
AcDbScale
 70
     0
300
4:1
140
4.0
141
1.0
290
     0
  0
SCALE
  5
131
102
{ACAD_REACTORS
330
B6
102
}
330
B6
100
AcDbScale
 70
     0
300
8:1
140
8.0
141
1.0
290
     0
  0
SCALE
  5
132
102
{ACAD_REACTORS
330
B6
102
}
330
B6
100
AcDbScale
 70
     0
300
10:1
140
10.0
141
1.0
290
     0
  0
SCALE
  5
133
102
{ACAD_REACTORS
330
B6
102
}
330
B6
100
AcDbScale
 70
     0
300
100:1
140
100.0
141
1.0
290
     0
  0
SCALE
  5
134
102
{ACAD_REACTORS
330
B6
102
}
330
B6
100
AcDbScale
 70
     0
300
1/128" = 1'-0"
140
0.0078125
141
12.0
290
     0
  0
SCALE
  5
135
102
{ACAD_REACTORS
330
B6
102
}
330
B6
100
AcDbScale
 70
     0
300
1/64" = 1'-0"
140
0.015625
141
12.0
290
     0
  0
SCALE
  5
136
102
{ACAD_REACTORS
330
B6
102
}
330
B6
100
AcDbScale
 70
     0
300
1/32" = 1'-0"
140
0.03125
141
12.0
290
     0
  0
SCALE
  5
137
102
{ACAD_REACTORS
330
B6
102
}
330
B6
100
AcDbScale
 70
     0
300
1/16" = 1'-0"
140
0.0625
141
12.0
290
     0
  0
SCALE
  5
138
102
{ACAD_REACTORS
330
B6
102
}
330
B6
100
AcDbScale
 70
     0
300
3/32" = 1'-0"
140
0.09375
141
12.0
290
     0
  0
SCALE
  5
139
102
{ACAD_REACTORS
330
B6
102
}
330
B6
100
AcDbScale
 70
     0
300
1/8" = 1'-0"
140
0.125
141
12.0
290
     0
  0
SCALE
  5
13A
102
{ACAD_REACTORS
330
B6
102
}
330
B6
100
AcDbScale
 70
     0
300
3/16" = 1'-0"
140
0.1875
141
12.0
290
     0
  0
SCALE
  5
13B
102
{ACAD_REACTORS
330
B6
102
}
330
B6
100
AcDbScale
 70
     0
300
1/4" = 1'-0"
140
0.25
141
12.0
290
     0
  0
SCALE
  5
13C
102
{ACAD_REACTORS
330
B6
102
}
330
B6
100
AcDbScale
 70
     0
300
3/8" = 1'-0"
140
0.375
141
12.0
290
     0
  0
SCALE
  5
13D
102
{ACAD_REACTORS
330
B6
102
}
330
B6
100
AcDbScale
 70
     0
300
1/2" = 1'-0"
140
0.5
141
12.0
290
     0
  0
SCALE
  5
13E
102
{ACAD_REACTORS
330
B6
102
}
330
B6
100
AcDbScale
 70
     0
300
3/4" = 1'-0"
140
0.75
141
12.0
290
     0
  0
SCALE
  5
13F
102
{ACAD_REACTORS
330
B6
102
}
330
B6
100
AcDbScale
 70
     0
300
1" = 1'-0"
140
1.0
141
12.0
290
     0
  0
SCALE
  5
140
102
{ACAD_REACTORS
330
B6
102
}
330
B6
100
AcDbScale
 70
     0
300
1-1/2" = 1'-0"
140
1.5
141
12.0
290
     0
  0
SCALE
  5
141
102
{ACAD_REACTORS
330
B6
102
}
330
B6
100
AcDbScale
 70
     0
300
3" = 1'-0"
140
3.0
141
12.0
290
     0
  0
SCALE
  5
142
102
{ACAD_REACTORS
330
B6
102
}
330
B6
100
AcDbScale
 70
     0
300
6" = 1'-0"
140
6.0
141
12.0
290
     0
  0
SCALE
  5
143
102
{ACAD_REACTORS
330
B6
102
}
330
B6
100
AcDbScale
 70
     0
300
1'-0" = 1'-0"
140
12.0
141
12.0
290
     0
  0
TABLESTYLE
  5
87
102
{ACAD_XDICTIONARY
360
104
102
}
102
{ACAD_REACTORS
330
86
102
}
330
86
100
AcDbTableStyle
  3
Standard
 70
     0
 71
     0
 40
0.06
 41
0.06
280
     0
281
     0
  7
Standard
140
0.18
170
     2
 62
     0
 63
     7
283
     0
274
    -2
284
     1
 64
     0
275
    -2
285
     1
 65
     0
276
    -2
286
     1
 66
     0
277
    -2
287
     1
 67
     0
278
    -2
288
     1
 68
     0
279
    -2
289
     1
 69
     0
  7
Standard
140
0.25
170
     5
 62
     0
 63
     7
283
     0
274
    -2
284
     1
 64
     0
275
    -2
285
     1
 65
     0
276
    -2
286
     1
 66
     0
277
    -2
287
     1
 67
     0
278
    -2
288
     1
 68
     0
279
    -2
289
     1
 69
     0
  7
Standard
140
0.18
170
     5
 62
     0
 63
     7
283
     0
274
    -2
284
     1
 64
     0
275
    -2
285
     1
 65
     0
276
    -2
286
     1
 66
     0
277
    -2
287
     1
 67
     0
278
    -2
288
     1
 68
     0
279
    -2
289
     1
 69
     0
  0
VISUALSTYLE
  5
9F
102
{ACAD_REACTORS
330
99
102
}
330
99
100
AcDbVisualStyle
  2
2dWireframe
 70
     4
 71
     0
 72
     2
 73
     1
 90
        0
 40
-0.6
 41
-30.0
 62
     5
 63
     7
 74
     1
 91
        4
 64
     7
 65
   257
 75
     1
175
     1
 42
1.0
 92
        0
 66
   257
 43
1.0
 76
     1
 77
     6
 78
     2
 67
     7
 79
     5
170
     0
171
     0
290
     0
174
     0
 93
        1
 44
0.0
173
     0
291
     0
 45
0.0
1001
ACAD
1000
AcDbSavedByObjectVersion
1070
     0
  0
VISUALSTYLE
  5
A1
102
{ACAD_REACTORS
330
99
102
}
330
99
100
AcDbVisualStyle
  2
3D Hidden
 70
     6
 71
     1
 72
     2
 73
     2
 90
        0
 40
-0.6
 41
-30.0
 62
     5
 63
     7
 74
     2
 91
        2
 64
     7
 65
   257
 75
     2
175
     1
 42
40.0
 92
        0
 66
   257
 43
1.0
 76
     1
 77
     6
 78
     2
 67
     7
 79
     3
170
     0
171
     0
290
     0
174
     0
 93
        1
 44
0.0
173
     0
291
     0
 45
0.0
1001
ACAD
1000
AcDbSavedByObjectVersion
1070
     0
  0
VISUALSTYLE
  5
A0
102
{ACAD_REACTORS
330
99
102
}
330
99
100
AcDbVisualStyle
  2
3dWireframe
 70
     5
 71
     0
 72
     2
 73
     1
 90
        0
 40
-0.6
 41
-30.0
 62
     5
 63
     7
 74
     1
 91
        4
 64
     7
 65
   257
 75
     1
175
     1
 42
1.0
 92
        0
 66
   257
 43
1.0
 76
     1
 77
     6
 78
     2
 67
     7
 79
     5
170
     0
171
     0
290
     0
174
     0
 93
        1
 44
0.0
173
     0
291
     0
 45
0.0
1001
ACAD
1000
AcDbSavedByObjectVersion
1070
     0
  0
VISUALSTYLE
  5
9E
102
{ACAD_REACTORS
330
99
102
}
330
99
100
AcDbVisualStyle
  2
Basic
 70
     7
 71
     1
 72
     0
 73
     1
 90
        0
 40
-0.6
 41
-30.0
 62
     5
 63
     7
 74
     0
 91
        4
 64
     7
 65
   257
 75
     1
175
     1
 42
1.0
 92
        8
 66
     7
 43
1.0
 76
     1
 77
     6
 78
     2
 67
     7
 79
     5
170
     0
171
     0
290
     0
174
     0
 93
        1
 44
0.0
173
     0
291
     1
 45
0.0
1001
ACAD
1000
AcDbSavedByObjectVersion
1070
     0
  0
VISUALSTYLE
  5
A5
102
{ACAD_REACTORS
330
99
102
}
330
99
100
AcDbVisualStyle
  2
Brighten
 70
    12
 71
     2
 72
     2
 73
     1
 90
        0
 40
-0.6
 41
-30.0
 62
     5
 63
     7
 74
     1
 91
        4
 64
     7
 65
   257
 75
     1
175
     1
 42
1.0
 92
        8
 66
     7
 43
1.0
 76
     1
 77
     6
 78
     2
 67
     7
 79
     5
170
     0
171
     0
290
     0
174
     0
 93
        1
 44
50.0
173
     0
291
     1
 45
0.0
1001
ACAD
1000
AcDbSavedByObjectVersion
1070
     0
  0
VISUALSTYLE
  5
A9
102
{ACAD_REACTORS
330
99
102
}
330
99
100
AcDbVisualStyle
  2
ColorChange
 70
    16
 71
     2
 72
     2
 73
     3
 90
        0
 40
-0.6
 41
-30.0
 62
     5
 63
     8
 74
     1
 91
        4
 64
     7
 65
   257
 75
     1
175
     1
 42
1.0
 92
        8
 66
     8
 43
1.0
 76
     1
 77
     6
 78
     2
 67
     7
 79
     5
170
     0
171
     0
290
     0
174
     0
 93
        1
 44
0.0
173
     0
291
     1
 45
0.0
1001
ACAD
1000
AcDbSavedByObjectVersion
1070
     0
  0
VISUALSTYLE
  5
A2
102
{ACAD_REACTORS
330
99
102
}
330
99
100
AcDbVisualStyle
  2
Conceptual
 70
     9
 71
     3
 72
     2
 73
     1
 90
        0
 40
-0.6
 41
-30.0
 62
     5
 63
     7
 74
     2
 91
        2
 64
     7
 65
   257
 75
     1
175
     1
 42
40.0
 92
        8
 66
     7
 43
1.0
 76
     1
 77
     6
 78
     2
 67
     7
 79
     3
170
     0
171
     0
290
     0
174
     0
 93
        1
 44
0.0
173
     0
291
     0
 45
0.0
1001
ACAD
1000
AcDbSavedByObjectVersion
1070
     0
  0
VISUALSTYLE
  5
A4
102
{ACAD_REACTORS
330
99
102
}
330
99
100
AcDbVisualStyle
  2
Dim
 70
    11
 71
     2
 72
     2
 73
     1
 90
        0
 40
-0.6
 41
-30.0
 62
     5
 63
     7
 74
     1
 91
        4
 64
     7
 65
   257
 75
     1
175
     1
 42
1.0
 92
        8
 66
     7
 43
1.0
 76
     1
 77
     6
 78
     2
 67
     7
 79
     5
170
     0
171
     0
290
     0
174
     0
 93
        1
 44
-50.0
173
     0
291
     1
 45
0.0
1001
ACAD
1000
AcDbSavedByObjectVersion
1070
     0
  0
VISUALSTYLE
  5
A8
102
{ACAD_REACTORS
330
99
102
}
330
99
100
AcDbVisualStyle
  2
Facepattern
 70
    15
 71
     2
 72
     2
 73
     1
 90
        0
 40
-0.6
 41
-30.0
 62
     5
 63
     7
 74
     1
 91
        4
 64
     7
 65
   257
 75
     1
175
     1
 42
1.0
 92
        8
 66
     7
 43
1.0
 76
     1
 77
     6
 78
     2
 67
     7
 79
     5
170
     0
171
     0
290
     0
174
     0
 93
        1
 44
0.0
173
     0
291
     1
 45
0.0
1001
ACAD
1000
AcDbSavedByObjectVersion
1070
     0
  0
VISUALSTYLE
  5
9A
102
{ACAD_REACTORS
330
99
102
}
330
99
100
AcDbVisualStyle
  2
Flat
 70
     0
 71
     2
 72
     1
 73
     1
 90
        2
 40
-0.6
 41
30.0
 62
     5
 63
     7
 74
     0
 91
        4
 64
     7
 65
   257
 75
     1
175
     1
 42
1.0
 92
        8
 66
     7
 43
1.0
 76
     1
 77
     6
 78
     2
 67
     7
 79
     5
170
     0
171
     0
290
     0
174
     0
 93
        1
 44
0.0
173
     0
291
     1
 45
0.0
1001
ACAD
1000
AcDbSavedByObjectVersion
1070
     0
  0
VISUALSTYLE
  5
9B
102
{ACAD_REACTORS
330
99
102
}
330
99
100
AcDbVisualStyle
  2
FlatWithEdges
 70
     1
 71
     2
 72
     1
 73
     1
 90
        2
 40
-0.6
 41
30.0
 62
     5
 63
     7
 74
     1
 91
        4
 64
     7
 65
   257
 75
     1
175
     1
 42
1.0
 92
        0
 66
   257
 43
1.0
 76
     1
 77
     6
 78
     2
 67
     7
 79
     5
170
     0
171
     0
290
     0
174
     0
 93
        1
 44
0.0
173
     0
291
     1
 45
0.0
1001
ACAD
1000
AcDbSavedByObjectVersion
1070
     0
  0
VISUALSTYLE
  5
9C
102
{ACAD_REACTORS
330
99
102
}
330
99
100
AcDbVisualStyle
  2
Gouraud
 70
     2
 71
     2
 72
     2
 73
     1
 90
        2
 40
-0.6
 41
30.0
 62
     5
 63
     7
 74
     0
 91
        4
 64
     7
 65
   257
 75
     1
175
     1
 42
1.0
 92
        0
 66
     7
 43
1.0
 76
     1
 77
     6
 78
     2
 67
     7
 79
     5
170
     0
171
     0
290
     0
174
     0
 93
        1
 44
0.0
173
     0
291
     1
 45
0.0
1001
ACAD
1000
AcDbSavedByObjectVersion
1070
     0
  0
VISUALSTYLE
  5
9D
102
{ACAD_REACTORS
330
99
102
}
330
99
100
AcDbVisualStyle
  2
GouraudWithEdges
 70
     3
 71
     2
 72
     2
 73
     1
 90
        2
 40
-0.6
 41
30.0
 62
     5
 63
     7
 74
     1
 91
        4
 64
     7
 65
   257
 75
     1
175
     1
 42
1.0
 92
        0
 66
   257
 43
1.0
 76
     1
 77
     6
 78
     2
 67
     7
 79
     5
170
     0
171
     0
290
     0
174
     0
 93
        1
 44
0.0
173
     0
291
     1
 45
0.0
1001
ACAD
1000
AcDbSavedByObjectVersion
1070
     0
  0
VISUALSTYLE
  5
A7
102
{ACAD_REACTORS
330
99
102
}
330
99
100
AcDbVisualStyle
  2
Linepattern
 70
    14
 71
     2
 72
     2
 73
     1
 90
        0
 40
-0.6
 41
-30.0
 62
     5
 63
     7
 74
     1
 91
        4
 64
     7
 65
   257
 75
     7
175
     7
 42
1.0
 92
        8
 66
     7
 43
1.0
 76
     1
 77
     6
 78
     2
 67
     7
 79
     5
170
     0
171
     0
290
     0
174
     0
 93
        1
 44
0.0
173
     0
291
     1
 45
0.0
1001
ACAD
1000
AcDbSavedByObjectVersion
1070
     0
  0
VISUALSTYLE
  5
A3
102
{ACAD_REACTORS
330
99
102
}
330
99
100
AcDbVisualStyle
  2
Realistic
 70
     8
 71
     2
 72
     2
 73
     1
 90
        0
 40
-0.6
 41
-30.0
 62
     5
 63
     7
 74
     1
 91
        0
 64
     7
 65
   257
 75
     1
175
     1
 42
1.0
 92
        8
 66
     8
 43
1.0
 76
     1
 77
     6
 78
     2
 67
     7
 79
     5
170
     0
171
     0
290
     0
174
     0
 93
       13
 44
0.0
173
     0
291
     0
 45
0.0
1001
ACAD
1000
AcDbSavedByObjectVersion
1070
     0
  0
VISUALSTYLE
  5
A6
102
{ACAD_REACTORS
330
99
102
}
330
99
100
AcDbVisualStyle
  2
Thicken
 70
    13
 71
     2
 72
     2
 73
     1
 90
        0
 40
-0.6
 41
-30.0
 62
     5
 63
     7
 74
     1
 91
        4
 64
     7
 65
   257
 75
     1
175
     1
 42
1.0
 92
       12
 66
     7
 43
1.0
 76
     1
 77
     6
 78
     2
 67
     7
 79
     5
170
     0
171
     0
290
     0
174
     0
 93
        1
 44
0.0
173
     0
291
     1
 45
0.0
1001
ACAD
1000
AcDbSavedByObjectVersion
1070
     0
  0
DICTIONARYVAR
  5
F0
102
{ACAD_REACTORS
330
66
102
}
330
66
100
DictionaryVariables
280
     0
  1
1:1
  0
DICTIONARYVAR
  5
EF
102
{ACAD_REACTORS
330
66
102
}
330
66
100
DictionaryVariables
280
     0
  1
STANDARD
  0
DICTIONARYVAR
  5
89
102
{ACAD_REACTORS
330
66
102
}
330
66
100
DictionaryVariables
280
     0
  1
STANDARD
  0
DICTIONARYVAR
  5
67
102
{ACAD_REACTORS
330
66
102
}
330
66
100
DictionaryVariables
280
     0
  1
2
  0
DICTIONARYVAR
  5
6B
102
{ACAD_REACTORS
330
66
102
}
330
66
100
DictionaryVariables
280
     0
  1
1
  0
DICTIONARYVAR
  5
50C
102
{ACAD_REACTORS
330
66
102
}
330
66
100
DictionaryVariables
280
     0
  1
0
  0
DICTIONARYVAR
  5
50A
102
{ACAD_REACTORS
330
66
102
}
330
66
100
DictionaryVariables
280
     0
  1
2
  0
DICTIONARYVAR
  5
509
102
{ACAD_REACTORS
330
66
102
}
330
66
100
DictionaryVariables
280
     0
  1
1
  0
DICTIONARYVAR
  5
50B
102
{ACAD_REACTORS
330
66
102
}
330
66
100
DictionaryVariables
280
     0
  1
127
  0
DICTIONARY
  5
511
330
59
100
AcDbDictionary
280
     1
281
     1
  3
ACAD_XREC_ROUNDTRIP
360
512
  0
DICTIONARY
  5
513
330
5E
100
AcDbDictionary
280
     1
281
     1
  3
ACAD_XREC_ROUNDTRIP
360
514
  0
DICTIONARY
  5
50F
330
22
100
AcDbDictionary
280
     1
281
     1
  3
ACAD_XREC_ROUNDTRIP
360
510
  0
DICTIONARY
  5
518
330
97
100
AcDbDictionary
280
     1
281
     1
  3
ACAD_XREC_ROUNDTRIP
360
519
  0
DICTIONARY
  5
516
330
96
100
AcDbDictionary
280
     1
281
     1
  3
ACAD_XREC_ROUNDTRIP
360
517
  0
DICTIONARY
  5
110
330
98
100
AcDbDictionary
280
     1
281
     1
  3
ACAD_XREC_ROUNDTRIP
360
51A
  3
BUMPTILE
360
112
  3
DIFFUSETILE
360
111
  3
OPACITYTILE
360
113
  3
REFLECTIONTILE
360
114
  0
DICTIONARY
  5
104
330
87
100
AcDbDictionary
280
     1
281
     1
  3
ACAD_ROUNDTRIP_2008_TABLESTYLE_CELLSTYLEMAP
360
50D
  3
ACAD_XREC_ROUNDTRIP
360
515
  0
XRECORD
  5
512
102
{ACAD_REACTORS
330
511
102
}
330
511
100
AcDbXrecord
280
     1
102
SHADEPLOT
 70
     0
102
SHADEPLOTRESLEVEL
 70
     2
102
SHADEPLOTCUSTOMDPI
 70
   300
  0
XRECORD
  5
514
102
{ACAD_REACTORS
330
513
102
}
330
513
100
AcDbXrecord
280
     1
102
SHADEPLOT
 70
     0
102
SHADEPLOTRESLEVEL
 70
     2
102
SHADEPLOTCUSTOMDPI
 70
   300
  0
XRECORD
  5
510
102
{ACAD_REACTORS
330
50F
102
}
330
50F
100
AcDbXrecord
280
     1
102
SHADEPLOT
 70
     0
102
SHADEPLOTRESLEVEL
 70
     2
102
SHADEPLOTCUSTOMDPI
 70
   300
  0
XRECORD
  5
519
102
{ACAD_REACTORS
330
518
102
}
330
518
100
AcDbXrecord
280
     1
102
MATERIAL
148
0.0
149
0.0
149
0.0
 93
        0
 94
       63
282
     0
 72
     1
 77
     1
171
     1
175
     1
179
     1
273
     0
  0
XRECORD
  5
517
102
{ACAD_REACTORS
330
516
102
}
330
516
100
AcDbXrecord
280
     1
102
MATERIAL
148
0.0
149
0.0
149
0.0
 93
        0
 94
       63
282
     0
 72
     1
 77
     1
171
     1
175
     1
179
     1
273
     0
  0
XRECORD
  5
51A
102
{ACAD_REACTORS
330
110
102
}
330
110
100
AcDbXrecord
280
     1
102
MATERIAL
148
0.0
149
0.0
149
0.0
 93
        0
 94
       63
282
     0
 72
     1
 77
     1
171
     1
175
     1
179
     1
273
     0
  0
XRECORD
  5
112
102
{ACAD_REACTORS
330
110
102
}
330
110
100
AcDbXrecord
280
     1
270
     1
271
     1
  0
XRECORD
  5
111
102
{ACAD_REACTORS
330
110
102
}
330
110
100
AcDbXrecord
280
     1
270
     1
271
     1
  0
XRECORD
  5
113
102
{ACAD_REACTORS
330
110
102
}
330
110
100
AcDbXrecord
280
     1
270
     1
271
     1
  0
XRECORD
  5
114
102
{ACAD_REACTORS
330
110
102
}
330
110
100
AcDbXrecord
280
     1
270
     1
271
     1
  0
CELLSTYLEMAP
  5
50D
102
{ACAD_REACTORS
330
104
102
}
330
104
100
AcDbCellStyleMap
 90
        3
300
CELLSTYLE
  1
TABLEFORMAT_BEGIN
 90
        5
170
     1
 91
        0
 92
    32768
 62
   257
 93
        1
300
CONTENTFORMAT
  1
CONTENTFORMAT_BEGIN
 90
        0
 91
        0
 92
      512
 93
        0
300

 40
0.0
140
1.0
 94
        5
 62
     0
340
11
144
0.25
309
CONTENTFORMAT_END
171
     1
301
MARGIN
  1
CELLMARGIN_BEGIN
 40
0.06
 40
0.06
 40
0.06
 40
0.06
 40
0.18
 40
0.18
309
CELLMARGIN_END
 94
        6
 95
        1
302
GRIDFORMAT
  1
GRIDFORMAT_BEGIN
 90
        0
 91
        1
 62
     0
 92
       -2
340
0
 93
        0
 40
0.045
309
GRIDFORMAT_END
 95
        2
302
GRIDFORMAT
  1
GRIDFORMAT_BEGIN
 90
        0
 91
        1
 62
     0
 92
       -2
340
0
 93
        0
 40
0.045
309
GRIDFORMAT_END
 95
        4
302
GRIDFORMAT
  1
GRIDFORMAT_BEGIN
 90
        0
 91
        1
 62
     0
 92
       -2
340
0
 93
        0
 40
0.045
309
GRIDFORMAT_END
 95
        8
302
GRIDFORMAT
  1
GRIDFORMAT_BEGIN
 90
        0
 91
        1
 62
     0
 92
       -2
340
0
 93
        0
 40
0.045
309
GRIDFORMAT_END
 95
       16
302
GRIDFORMAT
  1
GRIDFORMAT_BEGIN
 90
        0
 91
        1
 62
     0
 92
       -2
340
0
 93
        0
 40
0.045
309
GRIDFORMAT_END
 95
       32
302
GRIDFORMAT
  1
GRIDFORMAT_BEGIN
 90
        0
 91
        1
 62
     0
 92
       -2
340
0
 93
        0
 40
0.045
309
GRIDFORMAT_END
309
TABLEFORMAT_END
  1
CELLSTYLE_BEGIN
 90
        1
 91
        1
300
_TITLE
309
CELLSTYLE_END
300
CELLSTYLE
  1
TABLEFORMAT_BEGIN
 90
        5
170
     1
 91
        0
 92
        0
 62
   257
 93
        1
300
CONTENTFORMAT
  1
CONTENTFORMAT_BEGIN
 90
        0
 91
        0
 92
      512
 93
        0
300

 40
0.0
140
1.0
 94
        5
 62
     0
340
11
144
0.18
309
CONTENTFORMAT_END
171
     1
301
MARGIN
  1
CELLMARGIN_BEGIN
 40
0.06
 40
0.06
 40
0.06
 40
0.06
 40
0.18
 40
0.18
309
CELLMARGIN_END
 94
        6
 95
        1
302
GRIDFORMAT
  1
GRIDFORMAT_BEGIN
 90
        0
 91
        1
 62
     0
 92
       -2
340
0
 93
        0
 40
0.045
309
GRIDFORMAT_END
 95
        2
302
GRIDFORMAT
  1
GRIDFORMAT_BEGIN
 90
        0
 91
        1
 62
     0
 92
       -2
340
0
 93
        0
 40
0.045
309
GRIDFORMAT_END
 95
        4
302
GRIDFORMAT
  1
GRIDFORMAT_BEGIN
 90
        0
 91
        1
 62
     0
 92
       -2
340
0
 93
        0
 40
0.045
309
GRIDFORMAT_END
 95
        8
302
GRIDFORMAT
  1
GRIDFORMAT_BEGIN
 90
        0
 91
        1
 62
     0
 92
       -2
340
0
 93
        0
 40
0.045
309
GRIDFORMAT_END
 95
       16
302
GRIDFORMAT
  1
GRIDFORMAT_BEGIN
 90
        0
 91
        1
 62
     0
 92
       -2
340
0
 93
        0
 40
0.045
309
GRIDFORMAT_END
 95
       32
302
GRIDFORMAT
  1
GRIDFORMAT_BEGIN
 90
        0
 91
        1
 62
     0
 92
       -2
340
0
 93
        0
 40
0.045
309
GRIDFORMAT_END
309
TABLEFORMAT_END
  1
CELLSTYLE_BEGIN
 90
        2
 91
        1
300
_HEADER
309
CELLSTYLE_END
300
CELLSTYLE
  1
TABLEFORMAT_BEGIN
 90
        5
170
     1
 91
        0
 92
        0
 62
   257
 93
        1
300
CONTENTFORMAT
  1
CONTENTFORMAT_BEGIN
 90
        0
 91
        0
 92
      512
 93
        0
300

 40
0.0
140
1.0
 94
        2
 62
     0
340
11
144
0.18
309
CONTENTFORMAT_END
171
     1
301
MARGIN
  1
CELLMARGIN_BEGIN
 40
0.06
 40
0.06
 40
0.06
 40
0.06
 40
0.18
 40
0.18
309
CELLMARGIN_END
 94
        6
 95
        1
302
GRIDFORMAT
  1
GRIDFORMAT_BEGIN
 90
        0
 91
        1
 62
     0
 92
       -2
340
0
 93
        0
 40
0.045
309
GRIDFORMAT_END
 95
        2
302
GRIDFORMAT
  1
GRIDFORMAT_BEGIN
 90
        0
 91
        1
 62
     0
 92
       -2
340
0
 93
        0
 40
0.045
309
GRIDFORMAT_END
 95
        4
302
GRIDFORMAT
  1
GRIDFORMAT_BEGIN
 90
        0
 91
        1
 62
     0
 92
       -2
340
0
 93
        0
 40
0.045
309
GRIDFORMAT_END
 95
        8
302
GRIDFORMAT
  1
GRIDFORMAT_BEGIN
 90
        0
 91
        1
 62
     0
 92
       -2
340
0
 93
        0
 40
0.045
309
GRIDFORMAT_END
 95
       16
302
GRIDFORMAT
  1
GRIDFORMAT_BEGIN
 90
        0
 91
        1
 62
     0
 92
       -2
340
0
 93
        0
 40
0.045
309
GRIDFORMAT_END
 95
       32
302
GRIDFORMAT
  1
GRIDFORMAT_BEGIN
 90
        0
 91
        1
 62
     0
 92
       -2
340
0
 93
        0
 40
0.045
309
GRIDFORMAT_END
309
TABLEFORMAT_END
  1
CELLSTYLE_BEGIN
 90
        3
 91
        2
300
_DATA
309
CELLSTYLE_END
  0
XRECORD
  5
515
102
{ACAD_REACTORS
330
104
102
}
330
104
100
AcDbXrecord
280
     1
102
ACAD_ROUNDTRIP_PRE2007_TABLESTYLE
 90
      512
 91
        0
  1

 92
      512
 93
        0
  2

 94
      512
 95
        0
  3

  0
ENDSEC
  0
EOF
