  0
SECTION
  2
HEADER
  9
$ACADVER
  1
AC1015
  9
$ACADMAINTVER
 70
    20
  9
$DWGCODEPAGE
  3
ANSI_1252
  9
$INSBASE
 10
0.0
 20
0.0
 30
0.0
  9
$EXTMIN
 10
-2.715545900122378
 20
-19.18756935618148
 30
-0.0000000000000097
  9
$EXTMAX
 10
253.8086413727995
 20
439.8040916590876
 30
0.0000000000000208
  9
$LIMMIN
 10
0.0
 20
0.0
  9
$LIMMAX
 10
12.0
 20
9.0
  9
$ORTHOMODE
 70
     0
  9
$REGENMODE
 70
     1
  9
$FILLMODE
 70
     1
  9
$QTEXTMODE
 70
     0
  9
$MIRRTEXT
 70
     0
  9
$LTSCALE
 40
1.0
  9
$ATTMODE
 70
     1
  9
$TEXTSIZE
 40
0.2
  9
$TRACEWID
 40
0.05
  9
$TEXTSTYLE
  7
Standard
  9
$CLAYER
  8
0
  9
$CELTYPE
  6
ByLayer
  9
$CECOLOR
 62
     7
  9
$CELTSCALE
 40
1.0
  9
$DISPSILH
 70
     0
  9
$DIMSCALE
 40
1.0
  9
$DIMASZ
 40
0.18
  9
$DIMEXO
 40
0.0625
  9
$DIMDLI
 40
0.38
  9
$DIMRND
 40
0.0
  9
$DIMDLE
 40
0.0
  9
$DIMEXE
 40
0.18
  9
$DIMTP
 40
0.0
  9
$DIMTM
 40
0.0
  9
$DIMTXT
 40
0.18
  9
$DIMCEN
 40
0.09
  9
$DIMTSZ
 40
0.0
  9
$DIMTOL
 70
     0
  9
$DIMLIM
 70
     0
  9
$DIMTIH
 70
     1
  9
$DIMTOH
 70
     1
  9
$DIMSE1
 70
     0
  9
$DIMSE2
 70
     0
  9
$DIMTAD
 70
     0
  9
$DIMZIN
 70
     0
  9
$DIMBLK
  1

  9
$DIMASO
 70
     1
  9
$DIMSHO
 70
     1
  9
$DIMPOST
  1

  9
$DIMAPOST
  1

  9
$DIMALT
 70
     0
  9
$DIMALTD
 70
     2
  9
$DIMALTF
 40
25.4
  9
$DIMLFAC
 40
1.0
  9
$DIMTOFL
 70
     0
  9
$DIMTVP
 40
0.0
  9
$DIMTIX
 70
     0
  9
$DIMSOXD
 70
     0
  9
$DIMSAH
 70
     0
  9
$DIMBLK1
  1

  9
$DIMBLK2
  1

  9
$DIMSTYLE
  2
Standard
  9
$DIMCLRD
 70
     0
  9
$DIMCLRE
 70
     0
  9
$DIMCLRT
 70
     0
  9
$DIMTFAC
 40
1.0
  9
$DIMGAP
 40
0.09
  9
$DIMJUST
 70
     0
  9
$DIMSD1
 70
     0
  9
$DIMSD2
 70
     0
  9
$DIMTOLJ
 70
     1
  9
$DIMTZIN
 70
     0
  9
$DIMALTZ
 70
     0
  9
$DIMALTTZ
 70
     0
  9
$DIMUPT
 70
     0
  9
$DIMDEC
 70
     4
  9
$DIMTDEC
 70
     4
  9
$DIMALTU
 70
     2
  9
$DIMALTTD
 70
     2
  9
$DIMTXSTY
  7
Standard
  9
$DIMAUNIT
 70
     0
  9
$DIMADEC
 70
     0
  9
$DIMALTRND
 40
0.0
  9
$DIMAZIN
 70
     0
  9
$DIMDSEP
 70
    46
  9
$DIMATFIT
 70
     3
  9
$DIMFRAC
 70
     0
  9
$DIMLDRBLK
  1

  9
$DIMLUNIT
 70
     2
  9
$DIMLWD
 70
    -2
  9
$DIMLWE
 70
    -2
  9
$DIMTMOVE
 70
     0
  9
$LUNITS
 70
     2
  9
$LUPREC
 70
     4
  9
$SKETCHINC
 40
0.1
  9
$FILLETRAD
 40
0.0
  9
$AUNITS
 70
     0
  9
$AUPREC
 70
     0
  9
$MENU
  1
.
  9
$ELEVATION
 40
0.0
  9
$PELEVATION
 40
0.0
  9
$THICKNESS
 40
0.0
  9
$LIMCHECK
 70
     0
  9
$CHAMFERA
 40
0.0
  9
$CHAMFERB
 40
0.0
  9
$CHAMFERC
 40
0.0
  9
$CHAMFERD
 40
0.0
  9
$SKPOLY
 70
     0
  9
$TDCREATE
 40
2455286.428724028
  9
$TDUCREATE
 40
2455286.387057361
  9
$TDUPDATE
 40
2455510.726860567
  9
$TDUUPDATE
 40
2455510.685193901
  9
$TDINDWG
 40
0.0370491898
  9
$TDUSRTIMER
 40
0.0370491319
  9
$USRTIMER
 70
     1
  9
$ANGBASE
 50
0.0
  9
$ANGDIR
 70
     0
  9
$PDMODE
 70
     0
  9
$PDSIZE
 40
0.0
  9
$PLINEWID
 40
0.0
  9
$SPLFRAME
 70
     0
  9
$SPLINETYPE
 70
     6
  9
$SPLINESEGS
 70
     8
  9
$HANDSEED
  5
1A46
  9
$SURFTAB1
 70
     6
  9
$SURFTAB2
 70
     6
  9
$SURFTYPE
 70
     6
  9
$SURFU
 70
     6
  9
$SURFV
 70
     6
  9
$UCSBASE
  2

  9
$UCSNAME
  2

  9
$UCSORG
 10
0.0
 20
0.0
 30
0.0
  9
$UCSXDIR
 10
1.0
 20
0.0
 30
0.0
  9
$UCSYDIR
 10
0.0
 20
1.0
 30
0.0
  9
$UCSORTHOREF
  2

  9
$UCSORTHOVIEW
 70
     0
  9
$UCSORGTOP
 10
0.0
 20
0.0
 30
0.0
  9
$UCSORGBOTTOM
 10
0.0
 20
0.0
 30
0.0
  9
$UCSORGLEFT
 10
0.0
 20
0.0
 30
0.0
  9
$UCSORGRIGHT
 10
0.0
 20
0.0
 30
0.0
  9
$UCSORGFRONT
 10
0.0
 20
0.0
 30
0.0
  9
$UCSORGBACK
 10
0.0
 20
0.0
 30
0.0
  9
$PUCSBASE
  2

  9
$PUCSNAME
  2

  9
$PUCSORG
 10
0.0
 20
0.0
 30
0.0
  9
$PUCSXDIR
 10
1.0
 20
0.0
 30
0.0
  9
$PUCSYDIR
 10
0.0
 20
1.0
 30
0.0
  9
$PUCSORTHOREF
  2

  9
$PUCSORTHOVIEW
 70
     0
  9
$PUCSORGTOP
 10
0.0
 20
0.0
 30
0.0
  9
$PUCSORGBOTTOM
 10
0.0
 20
0.0
 30
0.0
  9
$PUCSORGLEFT
 10
0.0
 20
0.0
 30
0.0
  9
$PUCSORGRIGHT
 10
0.0
 20
0.0
 30
0.0
  9
$PUCSORGFRONT
 10
0.0
 20
0.0
 30
0.0
  9
$PUCSORGBACK
 10
0.0
 20
0.0
 30
0.0
  9
$USERI1
 70
     0
  9
$USERI2
 70
     0
  9
$USERI3
 70
     0
  9
$USERI4
 70
     0
  9
$USERI5
 70
     0
  9
$USERR1
 40
0.0
  9
$USERR2
 40
0.0
  9
$USERR3
 40
0.0
  9
$USERR4
 40
0.0
  9
$USERR5
 40
0.0
  9
$WORLDVIEW
 70
     1
  9
$SHADEDGE
 70
     3
  9
$SHADEDIF
 70
    70
  9
$TILEMODE
 70
     1
  9
$MAXACTVP
 70
    64
  9
$PINSBASE
 10
0.0
 20
0.0
 30
0.0
  9
$PLIMCHECK
 70
     0
  9
$PEXTMIN
 10
0.0
 20
0.0
 30
0.0
  9
$PEXTMAX
 10
0.0
 20
0.0
 30
0.0
  9
$PLIMMIN
 10
0.0
 20
0.0
  9
$PLIMMAX
 10
12.0
 20
9.0
  9
$UNITMODE
 70
     0
  9
$VISRETAIN
 70
     1
  9
$PLINEGEN
 70
     0
  9
$PSLTSCALE
 70
     1
  9
$TREEDEPTH
 70
  3020
  9
$CMLSTYLE
  2
Standard
  9
$CMLJUST
 70
     0
  9
$CMLSCALE
 40
1.0
  9
$PROXYGRAPHICS
 70
     1
  9
$MEASUREMENT
 70
     0
  9
$CELWEIGHT
370
    -1
  9
$ENDCAPS
280
     0
  9
$JOINSTYLE
280
     0
  9
$LWDISPLAY
290
     0
  9
$INSUNITS
 70
     1
  9
$HYPERLINKBASE
  1

  9
$STYLESHEET
  1

  9
$XEDIT
290
     1
  9
$CEPSNTYPE
380
     0
  9
$PSTYLEMODE
290
     1
  9
$FINGERPRINTGUID
  2
{9BE2EBA5-E6F9-4041-BBFB-2AC0D06082A4}
  9
$VERSIONGUID
  2
{335E12E4-1F1C-4C42-BC06-12AE5836DABD}
  9
$EXTNAMES
290
     1
  9
$PSVPSCALE
 40
0.0
  9
$OLESTARTUP
290
     0
  0
ENDSEC
  0
SECTION
  2
CLASSES
  0
CLASS
  1
ACDBDICTIONARYWDFLT
  2
AcDbDictionaryWithDefault
  3
ObjectDBX Classes
 90
        0
280
     0
281
     0
  0
CLASS
  1
ACDBPLACEHOLDER
  2
AcDbPlaceHolder
  3
ObjectDBX Classes
 90
        0
280
     0
281
     0
  0
CLASS
  1
LAYOUT
  2
AcDbLayout
  3
ObjectDBX Classes
 90
        0
280
     0
281
     0
  0
CLASS
  1
DICTIONARYVAR
  2
AcDbDictionaryVar
  3
ObjectDBX Classes
 90
        0
280
     0
281
     0
  0
CLASS
  1
TABLESTYLE
  2
AcDbTableStyle
  3
ObjectDBX Classes
 90
     4095
280
     0
281
     0
  0
CLASS
  1
MATERIAL
  2
AcDbMaterial
  3
ObjectDBX Classes
 90
     1153
280
     0
281
     0
  0
CLASS
  1
VISUALSTYLE
  2
AcDbVisualStyle
  3
ObjectDBX Classes
 90
     4095
280
     0
281
     0
  0
CLASS
  1
SCALE
  2
AcDbScale
  3
ObjectDBX Classes
 90
     1153
280
     0
281
     0
  0
CLASS
  1
MLEADERSTYLE
  2
AcDbMLeaderStyle
  3
ACDB_MLEADERSTYLE_CLASS
 90
     4095
280
     0
281
     0
  0
CLASS
  1
CELLSTYLEMAP
  2
AcDbCellStyleMap
  3
ObjectDBX Classes
 90
     1152
280
     0
281
     0
  0
CLASS
  1
SORTENTSTABLE
  2
AcDbSortentsTable
  3
ObjectDBX Classes
 90
        0
280
     0
281
     0
  0
CLASS
  1
DIMASSOC
  2
AcDbDimAssoc
  3
"AcDbDimAssoc|Product Desc:     AcDim ARX App For Dimension|Company:          Autodesk, Inc.|WEB Address:      www.autodesk.com"
 90
    32768
280
     0
281
     0
  0
ENDSEC
  0
SECTION
  2
TABLES
  0
TABLE
  2
VPORT
  5
8
330
0
100
AcDbSymbolTable
 70
     1
  0
VPORT
  5
94
330
8
100
AcDbSymbolTableRecord
100
AcDbViewportTableRecord
  2
*Active
 70
     0
 10
0.0
 20
0.0
 11
1.0
 21
1.0
 12
145.3071167025466
 22
196.046166963497
 13
0.0
 23
0.0
 14
0.5
 24
0.5
 15
0.5
 25
0.5
 16
0.0
 26
0.0
 36
1.0
 17
0.0
 27
0.0
 37
0.0
 40
740.2256628698949
 41
1.148760330578512
 42
50.0
 43
0.0
 44
0.0
 50
0.0
 51
0.0
 71
     0
 72
  1000
 73
     1
 74
     3
 75
     0
 76
     0
 77
     0
 78
     0
281
     0
 65
     1
110
0.0
120
0.0
130
0.0
111
1.0
121
0.0
131
0.0
112
0.0
122
1.0
132
0.0
 79
     0
146
0.0
  0
ENDTAB
  0
TABLE
  2
LTYPE
  5
5
330
0
100
AcDbSymbolTable
 70
     2
  0
LTYPE
  5
14
330
5
100
AcDbSymbolTableRecord
100
AcDbLinetypeTableRecord
  2
ByBlock
 70
     0
  3

 72
    65
 73
     0
 40
0.0
  0
LTYPE
  5
15
330
5
100
AcDbSymbolTableRecord
100
AcDbLinetypeTableRecord
  2
ByLayer
 70
     0
  3

 72
    65
 73
     0
 40
0.0
  0
LTYPE
  5
16
330
5
100
AcDbSymbolTableRecord
100
AcDbLinetypeTableRecord
  2
Continuous
 70
     0
  3
Solid line
 72
    65
 73
     0
 40
0.0
  0
LTYPE
  5
14D
330
5
100
AcDbSymbolTableRecord
100
AcDbLinetypeTableRecord
  2
DASHDOT
 70
     0
  3
 __ . __ . __ . __ . __ . __ . __ . 
 72
    65
 73
     4
 40
18.5
 49
12.0
 74
     0
 49
-3.0
 74
     0
 49
0.5
 74
     0
 49
-3.0
 74
     0
  0
ENDTAB
  0
TABLE
  2
LAYER
  5
2
102
{ACAD_XDICTIONARY
360
10C7
102
}
330
0
100
AcDbSymbolTable
 70
     9
  0
LAYER
  5
10
102
{ACAD_XDICTIONARY
360
E6
102
}
330
2
100
AcDbSymbolTableRecord
100
AcDbLayerTableRecord
  2
0
 70
     0
 62
     7
  6
Continuous
370
    -3
390
F
  0
LAYER
  5
DE8
102
{ACAD_XDICTIONARY
360
102C
102
}
330
2
100
AcDbSymbolTableRecord
100
AcDbLayerTableRecord
  2
Q
 70
     0
 62
     7
  6
Continuous
370
    -3
390
F
1001
AcAecLayerStandard
1000

1000

  0
LAYER
  5
E65
330
2
100
AcDbSymbolTableRecord
100
AcDbLayerTableRecord
  2
Defpoints
 70
     0
 62
     7
  6
Continuous
290
     0
370
    -3
390
F
  0
LAYER
  5
ED3
102
{ACAD_XDICTIONARY
360
102E
102
}
330
2
100
AcDbSymbolTableRecord
100
AcDbLayerTableRecord
  2
C
 70
     0
 62
     7
  6
Continuous
370
    -3
390
F
1001
AcAecLayerStandard
1000

1000

  0
LAYER
  5
10DE
102
{ACAD_XDICTIONARY
360
10DF
102
}
330
2
100
AcDbSymbolTableRecord
100
AcDbLayerTableRecord
  2
S
 70
     0
 62
     7
  6
Continuous
370
    -3
390
F
1001
AcAecLayerStandard
1000

1000

  0
LAYER
  5
10E0
102
{ACAD_XDICTIONARY
360
10E1
102
}
330
2
100
AcDbSymbolTableRecord
100
AcDbLayerTableRecord
  2
T
 70
     0
 62
     7
  6
Continuous
370
    -3
390
F
1001
AcAecLayerStandard
1000

1000

  0
LAYER
  5
10E2
330
2
100
AcDbSymbolTableRecord
100
AcDbLayerTableRecord
  2
E
 70
     0
 62
     7
  6
Continuous
370
    -3
390
F
1001
AcAecLayerStandard
1000

1000

  0
LAYER
  5
10E3
330
2
100
AcDbSymbolTableRecord
100
AcDbLayerTableRecord
  2
STM
 70
     0
 62
     7
  6
Continuous
370
    -3
390
F
1001
AcAecLayerStandard
1000

1000

  0
LAYER
  5
19AC
330
2
100
AcDbSymbolTableRecord
100
AcDbLayerTableRecord
  2
QUOTE
 70
     0
 62
     7
  6
Continuous
370
    -3
390
F
1001
AcAecLayerStandard
1000

1000

  0
ENDTAB
  0
TABLE
  2
STYLE
  5
3
330
0
100
AcDbSymbolTable
 70
     3
  0
STYLE
  5
11
330
3
100
AcDbSymbolTableRecord
100
AcDbTextStyleTableRecord
  2
Standard
 70
     0
 40
0.0
 41
1.0
 50
0.0
 71
     0
 42
0.2
  3
txt.shx
  4

  0
STYLE
  5
DC
330
3
100
AcDbSymbolTableRecord
100
AcDbTextStyleTableRecord
  2
Annotativa
 70
     0
 40
0.0
 41
1.0
 50
0.0
 71
     0
 42
0.2
  3
txt.shx
  4

1001
AcadAnnotative
1000
AnnotativeData
1002
{
1070
     1
1070
     1
1002
}
  0
STYLE
  5
DE9
330
3
100
AcDbSymbolTableRecord
100
AcDbTextStyleTableRecord
  2
H
 70
     0
 40
0.0
 41
1.0
 50
0.0
 71
     0
 42
1.0
  3
ROMANS.SHX
  4

  0
ENDTAB
  0
TABLE
  2
VIEW
  5
6
330
0
100
AcDbSymbolTable
 70
     1
  0
ENDTAB
  0
TABLE
  2
UCS
  5
7
330
0
100
AcDbSymbolTable
 70
     0
  0
ENDTAB
  0
TABLE
  2
APPID
  5
9
330
0
100
AcDbSymbolTable
 70
     8
  0
APPID
  5
12
330
9
100
AcDbSymbolTableRecord
100
AcDbRegAppTableRecord
  2
ACAD
 70
     0
  0
APPID
  5
DD
330
9
100
AcDbSymbolTableRecord
100
AcDbRegAppTableRecord
  2
AcadAnnoPO
 70
     0
  0
APPID
  5
DE
330
9
100
AcDbSymbolTableRecord
100
AcDbRegAppTableRecord
  2
AcadAnnotative
 70
     0
  0
APPID
  5
DF
330
9
100
AcDbSymbolTableRecord
100
AcDbRegAppTableRecord
  2
ACAD_DSTYLE_DIMJAG
 70
     0
  0
APPID
  5
E0
330
9
100
AcDbSymbolTableRecord
100
AcDbRegAppTableRecord
  2
ACAD_DSTYLE_DIMTALN
 70
     0
  0
APPID
  5
107
330
9
100
AcDbSymbolTableRecord
100
AcDbRegAppTableRecord
  2
ACAD_MLEADERVER
 70
     0
  0
APPID
  5
DD1
330
9
100
AcDbSymbolTableRecord
100
AcDbRegAppTableRecord
  2
ACAD_EXEMPT_FROM_CAD_STANDARDS
 70
     0
  0
APPID
  5
DEA
330
9
100
AcDbSymbolTableRecord
100
AcDbRegAppTableRecord
  2
AcAecLayerStandard
 70
     0
  0
ENDTAB
  0
TABLE
  2
DIMSTYLE
  5
A
330
0
100
AcDbSymbolTable
 70
     2
100
AcDbDimStyleTable
 71
     2
340
27
340
E1
  0
DIMSTYLE
105
27
102
{ACAD_REACTORS
330
19B4
330
19B5
102
}
330
A
100
AcDbSymbolTableRecord
100
AcDbDimStyleTableRecord
  2
Standard
 70
     0
340
11
  0
DIMSTYLE
105
E1
330
A
100
AcDbSymbolTableRecord
100
AcDbDimStyleTableRecord
  2
Annotativa
 70
     0
 40
0.0
340
11
1001
AcadAnnotative
1000
AnnotativeData
1002
{
1070
     1
1070
     1
1002
}
1001
ACAD_DSTYLE_DIMJAG
1070
   388
1040
1.5
1001
ACAD_DSTYLE_DIMTALN
1070
   392
1070
     0
  0
ENDTAB
  0
TABLE
  2
BLOCK_RECORD
  5
1
330
0
100
AcDbSymbolTable
 70
     7
  0
BLOCK_RECORD
  5
1F
102
{ACAD_XDICTIONARY
360
DDF
102
}
330
1
100
AcDbSymbolTableRecord
100
AcDbBlockTableRecord
  2
*Model_Space
340
22
  0
BLOCK_RECORD
  5
58
330
1
100
AcDbSymbolTableRecord
100
AcDbBlockTableRecord
  2
*Paper_Space
340
59
  0
BLOCK_RECORD
  5
5D
330
1
100
AcDbSymbolTableRecord
100
AcDbBlockTableRecord
  2
*Paper_Space0
340
5E
  0
BLOCK_RECORD
  5
E66
330
1
100
AcDbSymbolTableRecord
100
AcDbBlockTableRecord
  2
*D1
340
0
  0
BLOCK_RECORD
  5
E80
330
1
100
AcDbSymbolTableRecord
100
AcDbBlockTableRecord
  2
*D2
340
0
  0
BLOCK_RECORD
  5
1992
330
1
100
AcDbSymbolTableRecord
100
AcDbBlockTableRecord
  2
*D3
340
0
  0
BLOCK_RECORD
  5
199F
330
1
100
AcDbSymbolTableRecord
100
AcDbBlockTableRecord
  2
*D4
340
0
  0
BLOCK_RECORD
  5
19B6
330
1
100
AcDbSymbolTableRecord
100
AcDbBlockTableRecord
  2
*D5
340
0
  0
BLOCK_RECORD
  5
19C3
330
1
100
AcDbSymbolTableRecord
100
AcDbBlockTableRecord
  2
*D6
340
0
  0
ENDTAB
  0
ENDSEC
  0
SECTION
  2
BLOCKS
  0
BLOCK
  5
20
330
1F
100
AcDbEntity
  8
0
100
AcDbBlockBegin
  2
*Model_Space
 70
     0
 10
0.0
 20
0.0
 30
0.0
  3
*Model_Space
  1

  0
ENDBLK
  5
21
330
1F
100
AcDbEntity
  8
0
100
AcDbBlockEnd
  0
BLOCK
  5
5A
330
58
100
AcDbEntity
 67
     1
  8
0
100
AcDbBlockBegin
  2
*Paper_Space
 70
     0
 10
0.0
 20
0.0
 30
0.0
  3
*Paper_Space
  1

  0
ENDBLK
  5
5B
330
58
100
AcDbEntity
 67
     1
  8
0
100
AcDbBlockEnd
  0
BLOCK
  5
5F
330
5D
100
AcDbEntity
 67
     1
  8
0
100
AcDbBlockBegin
  2
*Paper_Space0
 70
     0
 10
0.0
 20
0.0
 30
0.0
  3
*Paper_Space0
  1

  0
ENDBLK
  5
60
330
5D
100
AcDbEntity
 67
     1
  8
0
100
AcDbBlockEnd
  0
BLOCK
  5
E67
330
E66
100
AcDbEntity
  8
0
100
AcDbBlockBegin
  2
*D1
 70
     1
 10
0.0
 20
0.0
 30
0.0
  3
*D1
  1

  0
LINE
  5
E74
330
E66
100
AcDbEntity
  8
0
 62
     0
370
    -2
100
AcDbLine
 10
103.6826814376928
 20
21.33070646726511
 30
0.0
 11
115.7215092841179
 21
21.33070646726511
 31
0.0
  0
LINE
  5
E75
330
E66
100
AcDbEntity
  8
0
 62
     0
370
    -2
100
AcDbLine
 10
103.6826814376928
 20
36.01509033026501
 30
0.0
 11
115.7215092841179
 21
36.01509033026501
 31
0.0
  0
LINE
  5
E76
330
E66
100
AcDbEntity
  8
0
 62
     0
370
    -2
100
AcDbLine
 10
115.5415092841179
 20
21.51070646726511
 30
0.0
 11
115.5415092841179
 21
28.49289839876506
 31
0.0
  0
LINE
  5
E77
330
E66
100
AcDbEntity
  8
0
 62
     0
370
    -2
100
AcDbLine
 10
115.5415092841179
 20
35.835090330265
 30
0.0
 11
115.5415092841179
 21
28.85289839876506
 31
0.0
  0
SOLID
  5
E78
330
E66
100
AcDbEntity
  8
0
 62
     0
100
AcDbTrace
 10
115.5115092841179
 20
21.51070646726511
 30
0.0
 11
115.5715092841179
 21
21.51070646726511
 31
0.0
 12
115.5415092841179
 22
21.33070646726511
 32
0.0
 13
115.5415092841179
 23
21.33070646726511
 33
0.0
  0
SOLID
  5
E79
330
E66
100
AcDbEntity
  8
0
 62
     0
100
AcDbTrace
 10
115.5115092841179
 20
35.835090330265
 30
0.0
 11
115.5715092841179
 21
35.835090330265
 31
0.0
 12
115.5415092841179
 22
36.01509033026501
 32
0.0
 13
115.5415092841179
 23
36.01509033026501
 33
0.0
  0
MTEXT
  5
E7A
330
E66
100
AcDbEntity
  8
0
 62
     0
100
AcDbMText
 10
115.5415092841179
 20
28.67289839876507
 30
0.0
 40
0.18
 41
0.0
 71
     5
 72
     1
  1
\A1;14.6844
 73
     1
 44
1.0
1001
ACAD
1000
MTEXTBEGIN
1070
    73
1070
     1
1070
    44
1040
1.0
1070
    74
1070
     0
1000
MTEXTEND
  0
POINT
  5
E7B
330
E66
100
AcDbEntity
  8
Defpoints
 62
     0
100
AcDbPoint
 10
103.6201814376928
 20
21.33070646726511
 30
0.0
  0
POINT
  5
E7C
330
E66
100
AcDbEntity
  8
Defpoints
 62
     0
100
AcDbPoint
 10
103.6201814376928
 20
36.01509033026501
 30
0.0
  0
POINT
  5
E7D
330
E66
100
AcDbEntity
  8
Defpoints
 62
     0
100
AcDbPoint
 10
115.5415092841179
 20
36.01509033026501
 30
0.0
  0
ENDBLK
  5
E68
330
E66
100
AcDbEntity
  8
0
100
AcDbBlockEnd
  0
BLOCK
  5
E81
330
E80
100
AcDbEntity
  8
0
100
AcDbBlockBegin
  2
*D2
 70
     1
 10
0.0
 20
0.0
 30
0.0
  3
*D2
  1

  0
LINE
  5
E8E
330
E80
100
AcDbEntity
  8
0
 62
     0
370
    -2
100
AcDbLine
 10
108.2050297588355
 20
149.6649046263816
 30
0.0
 11
115.8742067604307
 21
149.6649046263816
 31
0.0
  0
LINE
  5
E8F
330
E80
100
AcDbEntity
  8
0
 62
     0
370
    -2
100
AcDbLine
 10
108.2050297588355
 20
130.6898666868937
 30
0.0
 11
115.8742067604307
 21
130.6898666868937
 31
0.0
  0
LINE
  5
E90
330
E80
100
AcDbEntity
  8
0
 62
     0
370
    -2
100
AcDbLine
 10
115.6942067604307
 20
149.4849046263816
 30
0.0
 11
115.6942067604307
 21
140.3573856566376
 31
0.0
  0
LINE
  5
E91
330
E80
100
AcDbEntity
  8
0
 62
     0
370
    -2
100
AcDbLine
 10
115.6942067604307
 20
130.8698666868937
 30
0.0
 11
115.6942067604307
 21
139.9973856566376
 31
0.0
  0
SOLID
  5
E92
330
E80
100
AcDbEntity
  8
0
 62
     0
100
AcDbTrace
 10
115.6642067604307
 20
149.4849046263816
 30
0.0
 11
115.7242067604307
 21
149.4849046263816
 31
0.0
 12
115.6942067604307
 22
149.6649046263816
 32
0.0
 13
115.6942067604307
 23
149.6649046263816
 33
0.0
  0
SOLID
  5
E93
330
E80
100
AcDbEntity
  8
0
 62
     0
100
AcDbTrace
 10
115.6642067604307
 20
130.8698666868937
 30
0.0
 11
115.7242067604307
 21
130.8698666868937
 31
0.0
 12
115.6942067604307
 22
130.6898666868937
 32
0.0
 13
115.6942067604307
 23
130.6898666868937
 33
0.0
  0
MTEXT
  5
E94
330
E80
100
AcDbEntity
  8
0
 62
     0
100
AcDbMText
 10
115.6942067604306
 20
140.1773856566377
 30
0.0
 40
0.18
 41
0.0
 71
     5
 72
     1
  1
\A1;18.9750
 73
     1
 44
1.0
1001
ACAD
1000
MTEXTBEGIN
1070
    73
1070
     1
1070
    44
1040
1.0
1070
    74
1070
     0
1000
MTEXTEND
  0
POINT
  5
E95
330
E80
100
AcDbEntity
  8
Defpoints
 62
     0
100
AcDbPoint
 10
108.1425297588355
 20
149.6649046263816
 30
0.0
  0
POINT
  5
E96
330
E80
100
AcDbEntity
  8
Defpoints
 62
     0
100
AcDbPoint
 10
108.1425297588355
 20
130.6898666868937
 30
0.0
  0
POINT
  5
E97
330
E80
100
AcDbEntity
  8
Defpoints
 62
     0
100
AcDbPoint
 10
115.6942067604307
 20
130.6898666868937
 30
0.0
  0
ENDBLK
  5
E82
330
E80
100
AcDbEntity
  8
0
100
AcDbBlockEnd
  0
BLOCK
  5
1993
330
1992
100
AcDbEntity
  8
0
100
AcDbBlockBegin
  2
*D3
 70
     1
 10
0.0
 20
0.0
 30
0.0
  3
*D3
  1

  0
LINE
  5
1994
330
1992
100
AcDbEntity
  8
QUOTE
 62
     7
370
    -2
100
AcDbLine
 10
-107.0805200348571
 20
322.4648743244586
 30
0.0
 11
-147.7820873541619
 21
322.4648743244586
 31
0.0
  0
LINE
  5
1995
330
1992
100
AcDbEntity
  8
QUOTE
 62
     7
370
    -2
100
AcDbLine
 10
-109.551247605389
 20
-107.5351256755409
 30
0.0
 11
-147.782087354162
 21
-107.5351256755409
 31
0.0
  0
LINE
  5
1996
330
1992
100
AcDbEntity
  8
QUOTE
 62
     7
370
    -2
100
AcDbLine
 10
-147.6020873541619
 20
307.4648743244587
 30
0.0
 11
-147.6020873541619
 21
106.8956934585356
 31
0.0
  0
LINE
  5
1997
330
1992
100
AcDbEntity
  8
QUOTE
 62
     7
370
    -2
100
AcDbLine
 10
-147.602087354162
 20
-92.53512567554093
 30
0.0
 11
-147.6020873541619
 21
96.71569345853564
 31
0.0
  0
SOLID
  5
1998
330
1992
100
AcDbEntity
  8
QUOTE
 62
     7
100
AcDbTrace
 10
-150.1020873541619
 20
307.4648743244587
 30
0.0
 11
-145.1020873541619
 21
307.4648743244587
 31
0.0
 12
-147.6020873541619
 22
322.4648743244586
 32
0.0
 13
-147.6020873541619
 23
322.4648743244586
 33
0.0
  0
SOLID
  5
1999
330
1992
100
AcDbEntity
  8
QUOTE
 62
     7
100
AcDbTrace
 10
-150.102087354162
 20
-92.53512567554093
 30
0.0
 11
-145.102087354162
 21
-92.53512567554093
 31
0.0
 12
-147.602087354162
 22
-107.5351256755409
 32
0.0
 13
-147.602087354162
 23
-107.5351256755409
 33
0.0
  0
MTEXT
  5
199A
330
1992
100
AcDbEntity
  8
QUOTE
 62
     7
100
AcDbMText
 10
-147.6020873541619
 20
101.8056934585356
 30
0.0
 40
10.0
 41
0.0
 71
     5
 72
     1
  1
\A1;430
 73
     1
 44
1.0
1001
ACAD
1000
MTEXTBEGIN
1070
    73
1070
     1
1070
    44
1040
1.0
1070
    74
1070
     0
1000
MTEXTEND
  0
POINT
  5
199B
330
1992
100
AcDbEntity
  8
Defpoints
 62
     0
100
AcDbPoint
 10
-107.0180200348571
 20
322.4648743244586
 30
0.0
  0
POINT
  5
199C
330
1992
100
AcDbEntity
  8
Defpoints
 62
     0
100
AcDbPoint
 10
-109.488747605389
 20
-107.5351256755409
 30
0.0
  0
POINT
  5
199D
330
1992
100
AcDbEntity
  8
Defpoints
 62
     0
100
AcDbPoint
 10
-147.602087354162
 20
-107.5351256755409
 30
0.0
  0
ENDBLK
  5
199E
330
1992
100
AcDbEntity
  8
0
100
AcDbBlockEnd
  0
BLOCK
  5
19A0
330
199F
100
AcDbEntity
  8
0
100
AcDbBlockBegin
  2
*D4
 70
     1
 10
0.0
 20
0.0
 30
0.0
  3
*D4
  1

  0
LINE
  5
19A1
330
199F
100
AcDbEntity
  8
QUOTE
 62
     7
370
    -2
100
AcDbLine
 10
75.5183623946113
 20
-92.59941600788572
 30
0.0
 11
75.5183623946113
 21
-126.6742362736619
 31
0.0
  0
LINE
  5
19A2
330
199F
100
AcDbEntity
  8
QUOTE
 62
     7
370
    -2
100
AcDbLine
 10
-124.489317605389
 20
-92.53454567554092
 30
0.0
 11
-124.489317605389
 21
-126.6742362736619
 31
0.0
  0
LINE
  5
19A3
330
199F
100
AcDbEntity
  8
QUOTE
 62
     7
370
    -2
100
AcDbLine
 10
60.5183623946113
 20
-126.4942362736619
 30
0.0
 11
-11.26116932183178
 21
-126.4942362736619
 31
0.0
  0
LINE
  5
19A4
330
199F
100
AcDbEntity
  8
QUOTE
 62
     7
370
    -2
100
AcDbLine
 10
-109.489317605389
 20
-126.4942362736619
 30
0.0
 11
-34.77450265516512
 21
-126.4942362736619
 31
0.0
  0
SOLID
  5
19A5
330
199F
100
AcDbEntity
  8
QUOTE
 62
     7
100
AcDbTrace
 10
60.5183623946113
 20
-123.9942362736619
 30
0.0
 11
60.5183623946113
 21
-128.9942362736619
 31
0.0
 12
75.5183623946113
 22
-126.4942362736619
 32
0.0
 13
75.5183623946113
 23
-126.4942362736619
 33
0.0
  0
SOLID
  5
19A6
330
199F
100
AcDbEntity
  8
QUOTE
 62
     7
100
AcDbTrace
 10
-109.489317605389
 20
-123.9942362736619
 30
0.0
 11
-109.489317605389
 21
-128.9942362736619
 31
0.0
 12
-124.489317605389
 22
-126.4942362736619
 32
0.0
 13
-124.489317605389
 23
-126.4942362736619
 33
0.0
  0
MTEXT
  5
19A7
330
199F
100
AcDbEntity
  8
QUOTE
 62
     7
100
AcDbMText
 10
-23.01783598849845
 20
-126.4942362736619
 30
0.0
 40
10.0
 41
0.0
 71
     5
 72
     1
  1
\A1;200
 73
     1
 44
1.0
1001
ACAD
1000
MTEXTBEGIN
1070
    73
1070
     1
1070
    44
1040
1.0
1070
    74
1070
     0
1000
MTEXTEND
  0
POINT
  5
19A8
330
199F
100
AcDbEntity
  8
Defpoints
 62
     0
100
AcDbPoint
 10
75.5183623946113
 20
-92.53691600788574
 30
0.0
  0
POINT
  5
19A9
330
199F
100
AcDbEntity
  8
Defpoints
 62
     0
100
AcDbPoint
 10
-124.489317605389
 20
-92.47204567554092
 30
0.0
  0
POINT
  5
19AA
330
199F
100
AcDbEntity
  8
Defpoints
 62
     0
100
AcDbPoint
 10
-124.489317605389
 20
-126.4942362736619
 30
0.0
  0
ENDBLK
  5
19AB
330
199F
100
AcDbEntity
  8
0
100
AcDbBlockEnd
  0
BLOCK
  5
19B7
330
19B6
100
AcDbEntity
  8
0
 62
     7
100
AcDbBlockBegin
  2
*D5
 70
     1
 10
0.0
 20
0.0
 30
0.0
  3
*D5
  1

  0
LINE
  5
1A0C
330
19B6
100
AcDbEntity
  8
QUOTE
 62
     7
370
    -2
100
AcDbLine
 10
51.17570568205049
 20
439.7824552021813
 30
0.0
 11
10.47413836274575
 21
439.7824552021813
 31
0.0
  0
LINE
  5
1A0D
330
19B6
100
AcDbEntity
  8
QUOTE
 62
     7
370
    -2
100
AcDbLine
 10
48.70497811151863
 20
4.781873893184721
 30
0.0
 11
10.47413836274565
 21
4.781873893184733
 31
0.0
  0
LINE
  5
1A0E
330
19B6
100
AcDbEntity
  8
QUOTE
 62
     7
370
    -2
100
AcDbLine
 10
10.65413836274575
 20
424.7824552021813
 30
0.0
 11
10.65413836274569
 21
219.2126930272612
 31
0.0
  0
LINE
  5
1A0F
330
19B6
100
AcDbEntity
  8
QUOTE
 62
     7
370
    -2
100
AcDbLine
 10
10.65413836274566
 20
19.78187389318473
 30
0.0
 11
10.65413836274569
 21
209.0326930272612
 31
0.0
  0
SOLID
  5
1A10
330
19B6
100
AcDbEntity
  8
QUOTE
 62
     7
100
AcDbTrace
 10
8.154138362745751
 20
424.7824552021813
 30
0.0
 11
13.15413836274575
 21
424.7824552021813
 31
0.0
 12
10.65413836274575
 22
439.7824552021813
 32
0.0
 13
10.65413836274575
 23
439.7824552021813
 33
0.0
  0
SOLID
  5
1A11
330
19B6
100
AcDbEntity
  8
QUOTE
 62
     7
100
AcDbTrace
 10
8.15413836274566
 20
19.78187389318473
 30
0.0
 11
13.15413836274566
 21
19.78187389318473
 31
0.0
 12
10.65413836274566
 22
4.781873893184733
 32
0.0
 13
10.65413836274566
 23
4.781873893184733
 33
0.0
  0
MTEXT
  5
1A12
330
19B6
100
AcDbEntity
  8
QUOTE
 62
     7
100
AcDbMText
 10
10.65413836274567
 20
214.1226930272612
 30
0.0
 40
10.0
 41
0.0
 71
     5
 72
     1
  1
\A1;435
 73
     1
 44
1.0
1001
ACAD
1000
MTEXTBEGIN
1070
    73
1070
     1
1070
    44
1040
1.0
1070
    74
1070
     0
1000
MTEXTEND
  0
POINT
  5
1A13
330
19B6
100
AcDbEntity
  8
Defpoints
 62
     0
100
AcDbPoint
 10
51.23820568205051
 20
439.7824552021813
 30
0.0
  0
POINT
  5
1A14
330
19B6
100
AcDbEntity
  8
Defpoints
 62
     0
100
AcDbPoint
 10
48.76747811151862
 20
4.781873893184721
 30
0.0
  0
POINT
  5
1A15
330
19B6
100
AcDbEntity
  8
Defpoints
 62
     0
100
AcDbPoint
 10
10.65413836274566
 20
4.781873893184733
 30
0.0
  0
ENDBLK
  5
19B8
330
19B6
100
AcDbEntity
  8
0
 62
     7
100
AcDbBlockEnd
  0
BLOCK
  5
19C4
330
19C3
100
AcDbEntity
  8
0
 62
     7
100
AcDbBlockBegin
  2
*D6
 70
     1
 10
0.0
 20
0.0
 30
0.0
  3
*D6
  1

  0
LINE
  5
1A02
330
19C3
100
AcDbEntity
  8
QUOTE
 62
     7
370
    -2
100
AcDbLine
 10
253.7669081115186
 20
19.71995520218168
 30
0.0
 11
253.7669081115186
 21
-14.3572367049363
 31
0.0
  0
LINE
  5
1A03
330
19C3
100
AcDbEntity
  8
QUOTE
 62
     7
370
    -2
100
AcDbLine
 10
33.76690811151863
 20
19.78245389318472
 30
0.0
 11
33.76690811151863
 21
-14.3572367049363
 31
0.0
  0
LINE
  5
1A04
330
19C3
100
AcDbEntity
  8
QUOTE
 62
     7
370
    -2
100
AcDbLine
 10
238.7669081115186
 20
-14.1772367049363
 30
0.0
 11
160.3283897284091
 21
-14.1772367049363
 31
0.0
  0
LINE
  5
1A05
330
19C3
100
AcDbEntity
  8
QUOTE
 62
     7
370
    -2
100
AcDbLine
 10
48.76690811151863
 20
-14.1772367049363
 30
0.0
 11
135.1483897284091
 21
-14.1772367049363
 31
0.0
  0
SOLID
  5
1A06
330
19C3
100
AcDbEntity
  8
QUOTE
 62
     7
100
AcDbTrace
 10
238.7669081115186
 20
-11.6772367049363
 30
0.0
 11
238.7669081115186
 21
-16.6772367049363
 31
0.0
 12
253.7669081115186
 22
-14.1772367049363
 32
0.0
 13
253.7669081115186
 23
-14.1772367049363
 33
0.0
  0
SOLID
  5
1A07
330
19C3
100
AcDbEntity
  8
QUOTE
 62
     7
100
AcDbTrace
 10
48.76690811151863
 20
-11.6772367049363
 30
0.0
 11
48.76690811151863
 21
-16.6772367049363
 31
0.0
 12
33.76690811151863
 22
-14.1772367049363
 32
0.0
 13
33.76690811151863
 23
-14.1772367049363
 33
0.0
  0
MTEXT
  5
1A08
330
19C3
100
AcDbEntity
  8
QUOTE
 62
     7
100
AcDbMText
 10
147.7383897284092
 20
-14.1772367049363
 30
0.0
 40
10.0
 41
0.0
 71
     5
 72
     1
  1
\A1;220
 73
     1
 44
1.0
1001
ACAD
1000
MTEXTBEGIN
1070
    73
1070
     1
1070
    44
1040
1.0
1070
    74
1070
     0
1000
MTEXTEND
  0
POINT
  5
1A09
330
19C3
100
AcDbEntity
  8
Defpoints
 62
     0
100
AcDbPoint
 10
253.7669081115186
 20
19.78245520218168
 30
0.0
  0
POINT
  5
1A0A
330
19C3
100
AcDbEntity
  8
Defpoints
 62
     0
100
AcDbPoint
 10
33.76690811151863
 20
19.84495389318472
 30
0.0
  0
POINT
  5
1A0B
330
19C3
100
AcDbEntity
  8
Defpoints
 62
     0
100
AcDbPoint
 10
33.76690811151863
 20
-14.1772367049363
 30
0.0
  0
ENDBLK
  5
19C5
330
19C3
100
AcDbEntity
  8
0
 62
     7
100
AcDbBlockEnd
  0
ENDSEC
  0
SECTION
  2
ENTITIES
  0
CIRCLE
  5
AD8
330
1F
100
AcDbEntity
  8
0
 62
     7
370
    35
100
AcDbCircle
 10
48.76690811151857
 20
424.7824552021817
 30
0.0
 40
7.0
  0
CIRCLE
  5
AD9
330
1F
100
AcDbEntity
  8
0
 62
     7
370
    35
100
AcDbCircle
 10
238.7669081115186
 20
424.7824552021817
 30
0.0
 40
7.0
  0
CIRCLE
  5
ADA
330
1F
100
AcDbEntity
  8
0
 62
     7
370
    35
100
AcDbCircle
 10
48.76690811151857
 20
262.7824552021817
 30
0.0
 40
7.0
  0
CIRCLE
  5
ADB
330
1F
100
AcDbEntity
  8
0
 62
     7
370
    35
100
AcDbCircle
 10
238.7669081115186
 20
262.7824552021817
 30
0.0
 40
7.0
  0
CIRCLE
  5
ADC
330
1F
100
AcDbEntity
  8
0
 62
     7
370
    35
100
AcDbCircle
 10
238.7669081115186
 20
19.78245520218168
 30
0.0
 40
7.0
  0
CIRCLE
  5
ADD
330
1F
100
AcDbEntity
  8
0
 62
     7
370
    35
100
AcDbCircle
 10
48.76690811151857
 20
19.78245520218168
 30
0.0
 40
7.0
  0
LINE
  5
ADE
330
1F
100
AcDbEntity
  8
0
 62
     7
 48
0.036012
370
    35
100
AcDbLine
 10
48.01098811151857
 20
25.77787720218168
 30
0.0
 11
49.45146311151856
 21
25.77787720218168
 31
0.0
  0
LINE
  5
ADF
330
1F
100
AcDbEntity
  8
0
 62
     7
 48
0.30255
370
    35
100
AcDbLine
 10
49.45146311151856
 20
13.67588820218168
 30
0.0
 11
49.45146311151856
 21
25.77787720218168
 31
0.0
  0
LINE
  5
AE0
330
1F
100
AcDbEntity
  8
0
 62
     7
 48
0.036012
370
    35
100
AcDbLine
 10
49.45146311151856
 20
13.67588820218168
 30
0.0
 11
48.01098811151857
 21
13.67588820218168
 31
0.0
  0
LINE
  5
AE1
330
1F
100
AcDbEntity
  8
0
 62
     7
 48
0.30255
370
    35
100
AcDbLine
 10
48.01098811151857
 20
25.77787720218168
 30
0.0
 11
48.01098811151857
 21
13.67588820218168
 31
0.0
  0
LINE
  5
AE2
330
1F
100
AcDbEntity
  8
0
 62
     7
 48
0.03336
370
    35
100
AcDbLine
 10
238.1483781115186
 20
25.91302420218169
 30
0.0
 11
239.4827591115185
 21
25.91302420218169
 31
0.0
  0
LINE
  5
AE3
330
1F
100
AcDbEntity
  8
0
 62
     7
 48
0.307871
370
    35
100
AcDbLine
 10
239.4827591115185
 20
13.59819020218168
 30
0.0
 11
239.4827591115185
 21
25.91302420218169
 31
0.0
  0
LINE
  5
AE4
330
1F
100
AcDbEntity
  8
0
 62
     7
 48
0.03336
370
    35
100
AcDbLine
 10
239.4827591115185
 20
13.59819020218168
 30
0.0
 11
238.1483781115186
 21
13.59819020218168
 31
0.0
  0
LINE
  5
AE5
330
1F
100
AcDbEntity
  8
0
 62
     7
 48
0.307871
370
    35
100
AcDbLine
 10
238.1483781115186
 20
25.91302420218169
 30
0.0
 11
238.1483781115186
 21
13.59819020218168
 31
0.0
  0
LINE
  5
AE6
330
1F
100
AcDbEntity
  8
0
 62
     7
 48
0.035134
370
    35
100
AcDbLine
 10
48.10829311151858
 20
268.9391322021817
 30
0.0
 11
49.51364311151857
 21
268.9391322021817
 31
0.0
  0
LINE
  5
AE7
330
1F
100
AcDbEntity
  8
0
 62
     7
 48
0.309845
370
    35
100
AcDbLine
 10
49.51364311151857
 20
256.5453332021817
 30
0.0
 11
49.51364311151857
 21
268.9391322021817
 31
0.0
  0
LINE
  5
AE8
330
1F
100
AcDbEntity
  8
0
 62
     7
 48
0.035134
370
    35
100
AcDbLine
 10
49.51364311151857
 20
256.5453332021817
 30
0.0
 11
48.10829311151858
 21
256.5453332021817
 31
0.0
  0
LINE
  5
AE9
330
1F
100
AcDbEntity
  8
0
 62
     7
 48
0.309845
370
    35
100
AcDbLine
 10
48.10829311151858
 20
268.9391322021817
 30
0.0
 11
48.10829311151858
 21
256.5453332021817
 31
0.0
  0
LINE
  5
AEA
330
1F
100
AcDbEntity
  8
0
 62
     7
 48
0.035134
370
    35
100
AcDbLine
 10
239.4255391115186
 20
268.9391322021817
 30
0.0
 11
238.0201741115186
 21
268.9391322021817
 31
0.0
  0
LINE
  5
AEB
330
1F
100
AcDbEntity
  8
0
 62
     7
 48
0.309845
370
    35
100
AcDbLine
 10
238.0201741115186
 20
256.5453332021817
 30
0.0
 11
238.0201741115186
 21
268.9391322021817
 31
0.0
  0
LINE
  5
AEC
330
1F
100
AcDbEntity
  8
0
 62
     7
 48
0.309845
370
    35
100
AcDbLine
 10
239.4255391115186
 20
268.9391322021817
 30
0.0
 11
239.4255391115186
 21
256.5453332021817
 31
0.0
  0
LINE
  5
AED
330
1F
100
AcDbEntity
  8
0
 62
     7
 48
0.035134
370
    35
100
AcDbLine
 10
238.0201741115186
 20
256.5453332021817
 30
0.0
 11
239.4255391115186
 21
256.5453332021817
 31
0.0
  0
LINE
  5
AEE
330
1F
100
AcDbEntity
  8
0
 62
     7
 48
0.024371
370
    35
100
AcDbLine
 10
48.27226411151855
 20
431.2105552021817
 30
0.0
 11
49.24708711151858
 21
431.2105552021817
 31
0.0
  0
LINE
  5
AEF
330
1F
100
AcDbEntity
  8
0
 62
     7
 48
0.321996
370
    35
100
AcDbLine
 10
49.24708711151858
 20
418.3307342021817
 30
0.0
 11
49.24708711151858
 21
431.2105552021817
 31
0.0
  0
LINE
  5
AF0
330
1F
100
AcDbEntity
  8
0
 62
     7
 48
0.024371
370
    35
100
AcDbLine
 10
49.24708711151858
 20
418.3307342021817
 30
0.0
 11
48.27226411151855
 21
418.3307342021817
 31
0.0
  0
LINE
  5
AF1
330
1F
100
AcDbEntity
  8
0
 62
     7
 48
0.321996
370
    35
100
AcDbLine
 10
48.27226411151855
 20
431.2105552021817
 30
0.0
 11
48.27226411151855
 21
418.3307342021817
 31
0.0
  0
LINE
  5
AF2
330
1F
100
AcDbEntity
  8
0
 62
     7
 48
0.321996
370
    35
100
AcDbLine
 10
238.2867451115186
 20
418.3307342021817
 30
0.0
 11
238.2867451115186
 21
431.2105552021817
 31
0.0
  0
LINE
  5
AF3
330
1F
100
AcDbEntity
  8
0
 62
     7
 48
0.02437
370
    35
100
AcDbLine
 10
239.2615371115185
 20
431.2105552021817
 30
0.0
 11
238.2867451115186
 21
431.2105552021817
 31
0.0
  0
LINE
  5
AF4
330
1F
100
AcDbEntity
  8
0
 62
     7
 48
0.321996
370
    35
100
AcDbLine
 10
239.2615371115185
 20
431.2105552021817
 30
0.0
 11
239.2615371115185
 21
418.3307342021817
 31
0.0
  0
LINE
  5
AF5
330
1F
100
AcDbEntity
  8
0
 62
     7
 48
0.02437
370
    35
100
AcDbLine
 10
238.2867451115186
 20
418.3307342021817
 30
0.0
 11
239.2615371115185
 21
418.3307342021817
 31
0.0
  0
LINE
  5
AF6
330
1F
100
AcDbEntity
  8
0
 62
     7
 48
0.129758
370
    35
100
AcDbLine
 10
253.7669081115186
 20
24.97277820218168
 30
0.0
 11
253.7669081115186
 21
19.78245520218168
 31
0.0
  0
LINE
  5
AF7
330
1F
100
AcDbEntity
  8
0
 62
     7
 48
0.259515
370
    35
100
AcDbLine
 10
253.7669081115186
 20
267.9727632021817
 30
0.0
 11
253.7669081115186
 21
257.5921472021816
 31
0.0
  0
LINE
  5
AF8
330
1F
100
AcDbEntity
  8
0
 62
     7
 48
0.129758
370
    35
100
AcDbLine
 10
253.7669081115186
 20
424.7824552021817
 30
0.0
 11
253.7669081115186
 21
419.5921472021816
 31
0.0
  0
ARC
  5
AF9
330
1F
100
AcDbEntity
  8
0
 62
     7
370
    35
100
AcDbCircle
 10
238.7669081115186
 20
424.7824552021817
 30
0.0
 40
15.0
100
AcDbArc
 50
0.0
 51
90.00000300000015
  0
LINE
  5
AFA
330
1F
100
AcDbEntity
  8
0
 62
     7
370
    35
100
AcDbLine
 10
238.7669081115186
 20
439.7824552021813
 30
0.0
 11
48.76690811151857
 21
439.7824552021813
 31
0.0
  0
ARC
  5
AFB
330
1F
100
AcDbEntity
  8
0
 62
     7
370
    35
100
AcDbCircle
 10
48.76690811151857
 20
424.7824552021817
 30
0.0
 40
15.0
100
AcDbArc
 50
90.00000300000015
 51
180.0000050000001
  0
LINE
  5
AFC
330
1F
100
AcDbEntity
  8
0
 62
     7
370
    35
100
AcDbLine
 10
33.76690811151858
 20
19.78245520218168
 30
0.0
 11
33.76690811151858
 21
424.7824552021817
 31
0.0
  0
ARC
  5
AFD
330
1F
100
AcDbEntity
  8
0
 62
     7
370
    35
100
AcDbCircle
 10
48.76690811151857
 20
19.78245520218168
 30
0.0
 40
15.0
100
AcDbArc
 50
180.0000050000001
 51
200.2441429999999
  0
ARC
  5
AFE
330
1F
100
AcDbEntity
  8
0
 62
     7
370
    35
100
AcDbCircle
 10
238.7669081115186
 20
19.78245520218168
 30
0.0
 40
15.0
100
AcDbArc
 50
339.7558549999999
 51
0.0
  0
LINE
  5
B01
330
1F
100
AcDbEntity
  8
0
 62
   253
370
    35
100
AcDbLine
 10
244.5319841115186
 20
301.5818022021818
 30
0.0
 11
244.5316791115186
 21
387.5555262021817
 31
0.0
  0
ARC
  5
B02
330
1F
100
AcDbEntity
  8
0
 62
   253
370
    35
100
AcDbCircle
 10
242.4915791115186
 20
387.5526882021817
 30
0.0
 40
2.040195
100
AcDbArc
 50
0.0802969999998098
 51
6.676644000000043
  0
ARC
  5
B03
330
1F
100
AcDbEntity
  8
0
 62
   253
370
    35
100
AcDbCircle
 10
242.5324721115186
 20
387.5560752021817
 30
0.0
 40
1.999050999999995
100
AcDbArc
 50
29.99454000000003
 51
34.33495100000018
  0
ARC
  5
B04
330
1F
100
AcDbEntity
  8
0
 62
   253
370
    35
100
AcDbCircle
 10
242.5316791115186
 20
387.5555572021817
 30
0.0
 40
1.999993
100
AcDbArc
 50
60.99502399999988
 51
89.99999600000004
  0
LINE
  5
B05
330
1F
100
AcDbEntity
  8
0
 62
   253
370
    35
100
AcDbLine
 10
242.5316791115186
 20
389.5555262021817
 30
0.0
 11
45.00212311151857
 21
389.5555262021817
 31
0.0
  0
ARC
  5
B06
330
1F
100
AcDbEntity
  8
0
 62
   253
370
    35
100
AcDbCircle
 10
45.00212311151857
 20
387.5555572021817
 30
0.0
 40
1.999993
100
AcDbArc
 50
90.00000300000015
 51
119.0048989999999
  0
ARC
  5
B07
330
1F
100
AcDbEntity
  8
0
 62
   253
370
    35
100
AcDbCircle
 10
45.00143611151854
 20
387.5560142021817
 30
0.0
 40
1.999168
100
AcDbArc
 50
145.6557099999999
 51
149.5796540000003
  0
ARC
  5
B08
330
1F
100
AcDbEntity
  8
0
 62
   253
370
    35
100
AcDbCircle
 10
45.01077411151856
 20
387.5542142021817
 30
0.0
 40
2.00872
100
AcDbArc
 50
165.0202250000001
 51
179.9621110000002
  0
LINE
  5
B09
330
1F
100
AcDbEntity
  8
0
 62
   253
370
    35
100
AcDbLine
 10
43.00181711151856
 20
301.5818022021818
 30
0.0
 11
43.00212311151859
 21
387.5555262021817
 31
0.0
  0
ELLIPSE
  5
B0A
330
1F
100
AcDbEntity
  8
0
 62
   253
370
    35
100
AcDbEllipse
 10
244.0314651115186
 20
299.5897672021816
 30
0.0
 11
-0.353546142578125
 21
0.353546142578125
 31
0.0
210
0.0
220
0.0
230
1.0
 40
0.9996950000000001
 41
2.356042196944779
 42
3.141592653589808
  0
POLYLINE
  5
B0B
330
1F
100
AcDbEntity
  8
0
 62
   253
370
    35
100
AcDb2dPolyline
 66
     1
 10
0.0
 20
0.0
 30
0.0
  0
VERTEX
  5
B0C
330
B0B
100
AcDbEntity
  8
0
 62
   253
370
     0
100
AcDbVertex
100
AcDb2dVertex
 10
244.0314651115186
 20
299.0898282021817
 30
0.0
  0
VERTEX
  5
B0D
330
B0B
100
AcDbEntity
  8
0
 62
   253
370
     0
100
AcDbVertex
100
AcDb2dVertex
 10
244.0311911115185
 20
299.0909882021816
 30
0.0
  0
VERTEX
  5
B0E
330
B0B
100
AcDbEntity
  8
0
 62
   253
370
     0
100
AcDbVertex
100
AcDb2dVertex
 10
244.0294821115186
 20
299.0917202021817
 30
0.0
  0
VERTEX
  5
B0F
330
B0B
100
AcDbEntity
  8
0
 62
   253
370
     0
100
AcDbVertex
100
AcDb2dVertex
 10
244.0223401115186
 20
299.0932152021817
 30
0.0
  0
VERTEX
  5
B10
330
B0B
100
AcDbEntity
  8
0
 62
   253
370
     0
100
AcDbVertex
100
AcDb2dVertex
 10
243.9716811115186
 20
299.0976402021816
 30
0.0
  0
VERTEX
  5
B11
330
B0B
100
AcDbEntity
  8
0
 62
   253
370
     0
100
AcDbVertex
100
AcDb2dVertex
 10
243.5763571115186
 20
299.1090852021817
 30
0.0
  0
VERTEX
  5
B12
330
B0B
100
AcDbEntity
  8
0
 62
   253
370
     0
100
AcDbVertex
100
AcDb2dVertex
 10
242.5316791115186
 20
299.1165002021817
 30
0.0
  0
SEQEND
  5
B13
330
B0B
100
AcDbEntity
  8
0
 62
   253
370
     0
  0
ELLIPSE
  5
B14
330
1F
100
AcDbEntity
  8
0
 62
   253
370
    35
100
AcDbEllipse
 10
43.50235111151857
 20
299.5897672021816
 30
0.0
 11
0.353546142578125
 21
0.353546142578125
 31
0.0
210
0.0
220
0.0
230
1.0
 40
0.9996950000000001
 41
3.141592157716635
 42
3.927143111449775
  0
POLYLINE
  5
B15
330
1F
100
AcDbEntity
  8
0
 62
   253
370
    35
100
AcDb2dPolyline
 66
     1
 10
0.0
 20
0.0
 30
0.0
  0
VERTEX
  5
B16
330
B15
100
AcDbEntity
  8
0
 62
   253
370
     0
100
AcDbVertex
100
AcDb2dVertex
 10
45.00212311151857
 20
299.1165002021817
 30
0.0
  0
VERTEX
  5
B17
330
B15
100
AcDbEntity
  8
0
 62
   253
370
     0
100
AcDbVertex
100
AcDb2dVertex
 10
44.06936811151857
 20
299.1108242021817
 30
0.0
  0
VERTEX
  5
B18
330
B15
100
AcDbEntity
  8
0
 62
   253
370
     0
100
AcDbVertex
100
AcDb2dVertex
 10
43.54080411151858
 20
299.0962062021818
 30
0.0
  0
VERTEX
  5
B19
330
B15
100
AcDbEntity
  8
0
 62
   253
370
     0
100
AcDbVertex
100
AcDb2dVertex
 10
43.50522011151857
 20
299.0919952021817
 30
0.0
  0
VERTEX
  5
B1A
330
B15
100
AcDbEntity
  8
0
 62
   253
370
     0
100
AcDbVertex
100
AcDb2dVertex
 10
43.50271811151856
 20
299.0910492021817
 30
0.0
  0
VERTEX
  5
B1B
330
B15
100
AcDbEntity
  8
0
 62
   253
370
     0
100
AcDbVertex
100
AcDb2dVertex
 10
43.50235111151857
 20
299.0898282021817
 30
0.0
  0
SEQEND
  5
B1C
330
B15
100
AcDbEntity
  8
0
 62
   253
370
     0
  0
ELLIPSE
  5
B1D
330
1F
100
AcDbEntity
  8
0
 62
   253
370
    13
100
AcDbEllipse
 10
243.9591081115185
 20
280.0932462021817
 30
0.0
 11
-0.5
 21
0.001220703125
 31
0.0
210
0.0
220
0.0
230
1.0
 40
0.139173
 41
2.524964809269873
 42
3.159217487891317
  0
LINE
  5
B1E
330
1F
100
AcDbEntity
  8
0
 62
   253
 48
0.4069840000000001
370
    35
100
AcDbLine
 10
179.4875501115186
 20
299.1165002021817
 30
0.0
 11
195.7669081115185
 21
299.1165002021817
 31
0.0
  0
LINE
  5
B1F
330
1F
100
AcDbEntity
  8
0
 62
   253
 48
0.1
370
    35
100
AcDbLine
 10
195.7669081115185
 20
299.1165002021817
 30
0.0
 11
199.7669081115185
 21
299.1165002021817
 31
0.0
  0
LINE
  5
B20
330
1F
100
AcDbEntity
  8
0
 62
   253
 48
0.2
370
    35
100
AcDbLine
 10
199.7669081115185
 20
299.1165002021817
 30
0.0
 11
207.7669081115186
 21
299.1165002021817
 31
0.0
  0
LINE
  5
B21
330
1F
100
AcDbEntity
  8
0
 62
   253
 48
0.1
370
    35
100
AcDbLine
 10
207.7669081115186
 20
299.1165002021817
 30
0.0
 11
211.7669081115186
 21
299.1165002021817
 31
0.0
  0
LINE
  5
B22
330
1F
100
AcDbEntity
  8
0
 62
   253
370
    35
100
AcDbLine
 10
211.7669081115186
 20
299.1165002021817
 30
0.0
 11
242.5316791115186
 21
299.1165002021817
 31
0.0
  0
LINE
  5
B23
330
1F
100
AcDbEntity
  8
0
 62
   253
370
    35
100
AcDbLine
 10
45.00212311151857
 20
299.1165002021817
 30
0.0
 11
75.76690811151856
 21
299.1165002021817
 31
0.0
  0
LINE
  5
B24
330
1F
100
AcDbEntity
  8
0
 62
   253
 48
0.1
370
    35
100
AcDbLine
 10
75.76690811151856
 20
299.1165002021817
 30
0.0
 11
79.76690811151858
 21
299.1165002021817
 31
0.0
  0
LINE
  5
B25
330
1F
100
AcDbEntity
  8
0
 62
   253
 48
0.2
370
    35
100
AcDbLine
 10
79.76690811151858
 20
299.1165002021817
 30
0.0
 11
87.76690811151857
 21
299.1165002021817
 31
0.0
  0
LINE
  5
B26
330
1F
100
AcDbEntity
  8
0
 62
   253
 48
0.1
370
    35
100
AcDbLine
 10
87.76690811151857
 20
299.1165002021817
 30
0.0
 11
91.76690811151855
 21
299.1165002021817
 31
0.0
  0
LINE
  5
B27
330
1F
100
AcDbEntity
  8
0
 62
   253
 48
0.4069840000000001
370
    35
100
AcDbLine
 10
91.76690811151855
 20
299.1165002021817
 30
0.0
 11
108.0462811115185
 21
299.1165002021817
 31
0.0
  0
LINE
  5
B28
330
1F
100
AcDbEntity
  8
0
 62
   253
 48
0.035079
370
    35
100
AcDbLine
 10
108.5443741115186
 20
299.6164092021817
 30
0.0
 11
108.5443741115186
 21
301.0195762021816
 31
0.0
  0
ARC
  5
B29
330
1F
100
AcDbEntity
  8
0
 62
   253
370
    35
100
AcDbCircle
 10
110.3311021115185
 20
301.0253752021816
 30
0.0
 40
1.786661999999999
100
AcDbArc
 50
125.5955679999995
 51
180.1863229999998
  0
ARC
  5
B2A
330
1F
100
AcDbEntity
  8
0
 62
   253
370
    35
100
AcDbCircle
 10
123.7575391115185
 20
282.2015222021816
 30
0.0
 40
24.909151
100
AcDbArc
 50
89.97844000000013
 51
125.5059549999999
  0
LINE
  5
B2B
330
1F
100
AcDbEntity
  8
0
 62
   253
370
    35
100
AcDbLine
 10
163.7669081115185
 20
307.1111902021816
 30
0.0
 11
123.7669081115185
 21
307.1111902021816
 31
0.0
  0
ARC
  5
B2C
330
1F
100
AcDbEntity
  8
0
 62
   253
370
    35
100
AcDbCircle
 10
163.7762471115186
 20
282.2013702021817
 30
0.0
 40
24.909298
100
AcDbArc
 50
54.49417600000013
 51
90.02149699999987
  0
ARC
  5
B2D
330
1F
100
AcDbEntity
  8
0
 62
   253
370
    35
100
AcDbCircle
 10
177.2027301115186
 20
301.0253752021816
 30
0.0
 40
1.786629999999999
100
AcDbArc
 50
359.8130039999999
 51
54.40470400000029
  0
LINE
  5
B2E
330
1F
100
AcDbEntity
  8
0
 62
   253
 48
0.035078
370
    35
100
AcDbLine
 10
178.9894431115185
 20
299.6164092021817
 30
0.0
 11
178.9894431115185
 21
301.0195462021817
 31
0.0
  0
LINE
  5
B31
330
1F
100
AcDbEntity
  8
0
 62
   253
 48
0.000343
370
    35
100
AcDbLine
 10
43.51205611151857
 20
299.0801542021817
 30
0.0
 11
43.50235111151857
 21
299.0898282021817
 31
0.0
  0
LINE
  5
B32
330
1F
100
AcDbEntity
  8
0
 62
   253
 48
0.003719
370
    35
100
AcDbLine
 10
108.0462811115185
 20
299.1165002021817
 30
0.0
 11
108.1921711115186
 21
299.0873872021817
 31
0.0
  0
POLYLINE
  5
B33
330
1F
100
AcDbEntity
  8
0
 62
   253
370
    35
100
AcDb2dPolyline
 66
     1
 10
0.0
 20
0.0
 30
0.0
  0
VERTEX
  5
B34
330
B33
100
AcDbEntity
  8
0
 62
   253
370
     0
100
AcDbVertex
100
AcDb2dVertex
 10
108.1921711115186
 20
299.0873872021817
 30
0.0
  0
VERTEX
  5
B35
330
B33
100
AcDbEntity
  8
0
 62
   253
370
     0
100
AcDbVertex
100
AcDb2dVertex
 10
108.3294541115185
 20
299.0765832021817
 30
0.0
  0
VERTEX
  5
B36
330
B33
100
AcDbEntity
  8
0
 62
   253
370
     0
100
AcDbVertex
100
AcDb2dVertex
 10
109.1707471115185
 20
299.0573882021816
 30
0.0
  0
SEQEND
  5
B37
330
B33
100
AcDbEntity
  8
0
 62
   253
370
     0
  0
ARC
  5
B38
330
1F
100
AcDbEntity
  8
0
 62
   253
370
    35
100
AcDbCircle
 10
123.1394971115186
 20
1532.204635202181
 30
0.0
 40
1233.227052
100
AcDbArc
 50
269.3509999999998
 51
270.0291489999997
  0
LINE
  5
B39
330
1F
100
AcDbEntity
  8
0
 62
   253
370
    35
100
AcDbLine
 10
163.7669081115185
 20
298.9769742021816
 30
0.0
 11
123.7669081115185
 21
298.9769742021816
 31
0.0
  0
ARC
  5
B3A
330
1F
100
AcDbEntity
  8
0
 62
   253
370
    35
100
AcDbCircle
 10
164.3942891115186
 20
1532.206588202181
 30
0.0
 40
1233.229111
100
AcDbArc
 50
269.970853
 51
270.6490020000002
  0
POLYLINE
  5
B3B
330
1F
100
AcDbEntity
  8
0
 62
   253
370
    35
100
AcDb2dPolyline
 66
     1
 10
0.0
 20
0.0
 30
0.0
  0
VERTEX
  5
B3C
330
B3B
100
AcDbEntity
  8
0
 62
   253
370
     0
100
AcDbVertex
100
AcDb2dVertex
 10
178.3630691115186
 20
299.0573882021816
 30
0.0
  0
VERTEX
  5
B3D
330
B3B
100
AcDbEntity
  8
0
 62
   253
370
     0
100
AcDbVertex
100
AcDb2dVertex
 10
179.2693801115186
 20
299.0801842021817
 30
0.0
  0
VERTEX
  5
B3E
330
B3B
100
AcDbEntity
  8
0
 62
   253
370
     0
100
AcDbVertex
100
AcDb2dVertex
 10
179.3416461115186
 20
299.0873872021817
 30
0.0
  0
SEQEND
  5
B3F
330
B3B
100
AcDbEntity
  8
0
 62
   253
370
     0
  0
LINE
  5
B40
330
1F
100
AcDbEntity
  8
0
 62
   253
 48
0.00372
370
    35
100
AcDbLine
 10
179.4875501115186
 20
299.1165002021817
 30
0.0
 11
179.3416461115186
 21
299.0873872021817
 31
0.0
  0
ELLIPSE
  5
B41
330
1F
100
AcDbEntity
  8
0
 62
   253
370
    13
100
AcDbEllipse
 10
43.57472411151857
 20
280.0932462021817
 30
0.0
 11
-0.5
 21
-0.001220703125
 31
0.0
210
0.0
220
0.0
230
1.0
 40
0.139173
 41
6.265560472866699
 42
6.899813707345875
  0
ELLIPSE
  5
B42
330
1F
100
AcDbEntity
  8
0
 62
   253
370
    35
100
AcDbEllipse
 10
179.4875501115186
 20
299.6164092021817
 30
0.0
 11
-0.09783935546875
 21
0.4903259277343753
 31
0.0
210
0.0
220
0.0
230
1.0
 40
0.996044
 41
1.374628895458827
 42
2.943904144221401
  0
ELLIPSE
  5
B43
330
1F
100
AcDbEntity
  8
0
 62
   253
370
    35
100
AcDbEllipse
 10
108.0462811115185
 20
299.6164092021817
 30
0.0
 11
0.09783935546875
 21
0.4903259277343753
 31
0.0
210
0.0
220
0.0
230
1.0
 40
0.996044
 41
3.339281162958163
 42
4.908556411720738
  0
LINE
  5
B44
330
1F
100
AcDbEntity
  8
0
 62
   253
 48
0.024136
370
    35
100
AcDbLine
 10
123.7669081115185
 20
307.1111902021816
 30
0.0
 11
123.7669081115185
 21
306.1457362021816
 31
0.0
  0
LINE
  5
B45
330
1F
100
AcDbEntity
  8
0
 62
   253
 48
0.024136
370
    35
100
AcDbLine
 10
163.7669081115185
 20
307.1111902021816
 30
0.0
 11
163.7669081115185
 21
306.1457362021816
 31
0.0
  0
LINE
  5
B47
330
1F
100
AcDbEntity
  8
0
 62
   253
 48
0.01198
370
    35
100
AcDbLine
 10
123.7669081115185
 20
299.4561912021817
 30
0.0
 11
123.7669081115185
 21
298.9769742021816
 31
0.0
  0
LINE
  5
B48
330
1F
100
AcDbEntity
  8
0
 62
   253
 48
0.01198
370
    35
100
AcDbLine
 10
163.7669081115185
 20
299.4561912021817
 30
0.0
 11
163.7669081115185
 21
298.9769742021816
 31
0.0
  0
LINE
  5
B49
330
1F
100
AcDbEntity
  8
0
 62
   253
 48
0.167238
370
    35
100
AcDbLine
 10
123.7669081115185
 20
306.1457362021816
 30
0.0
 11
123.7669081115185
 21
299.4562222021816
 31
0.0
  0
LINE
  5
B4A
330
1F
100
AcDbEntity
  8
0
 62
   253
 48
0.167239
370
    35
100
AcDbLine
 10
163.7669081115185
 20
306.1457362021816
 30
0.0
 11
163.7669081115185
 21
299.4561912021817
 31
0.0
  0
LINE
  5
B4B
330
1F
100
AcDbEntity
  8
0
 62
   253
 48
0.049789
370
    35
100
AcDbLine
 10
244.5319841115186
 20
301.5818022021818
 30
0.0
 11
244.5316791115186
 21
299.5902252021817
 31
0.0
  0
ARC
  5
B4C
330
1F
100
AcDbEntity
  8
0
 62
   253
370
    35
100
AcDbCircle
 10
242.5316791115186
 20
387.5555262021817
 30
0.0
 40
2.0
100
AcDbArc
 50
6.728934000000127
 51
29.99603900000009
  0
ARC
  5
B4D
330
1F
100
AcDbEntity
  8
0
 62
   253
370
    35
100
AcDbCircle
 10
242.5316791115186
 20
387.5555262021817
 30
0.0
 40
2.0
100
AcDbArc
 50
34.33439099999979
 51
60.99513300000034
  0
ARC
  5
B4E
330
1F
100
AcDbEntity
  8
0
 62
   253
370
    35
100
AcDbCircle
 10
45.00212311151857
 20
387.5555262021817
 30
0.0
 40
2.0
100
AcDbArc
 50
119.0047899999998
 51
145.656175
  0
ARC
  5
B4F
330
1F
100
AcDbEntity
  8
0
 62
   253
370
    35
100
AcDbCircle
 10
45.00212311151857
 20
387.5555262021817
 30
0.0
 40
2.0
100
AcDbArc
 50
149.5785059999996
 51
164.9928639999999
  0
LINE
  5
B50
330
1F
100
AcDbEntity
  8
0
 62
   253
 48
0.049789
370
    35
100
AcDbLine
 10
43.00181711151856
 20
301.5818022021818
 30
0.0
 11
43.00212311151859
 21
299.5902252021817
 31
0.0
  0
ARC
  5
B51
330
1F
100
AcDbEntity
  8
0
 62
   253
370
    35
100
AcDbCircle
 10
244.0309461115186
 20
299.5903162021818
 30
0.0
 40
0.500732
100
AcDbArc
 50
314.9971880000001
 51
359.9905540000002
  0
ARC
  5
B52
330
1F
100
AcDbEntity
  8
0
 62
   253
370
    35
100
AcDbCircle
 10
43.50285511151859
 20
299.5903162021818
 30
0.0
 40
0.500732
100
AcDbArc
 50
180.0094480000002
 51
225.002814
  0
LINE
  5
B53
330
1F
100
AcDbEntity
  8
0
 62
   253
 48
0.000306
370
    35
100
AcDbLine
 10
244.3850111115186
 20
299.2362212021817
 30
0.0
 11
244.3763441115186
 21
299.2275542021817
 31
0.0
  0
LINE
  5
B54
330
1F
100
AcDbEntity
  8
0
 62
   253
 48
0.465656
370
    35
100
AcDbLine
 10
244.5047931115186
 20
298.7181852021816
 30
0.0
 11
244.4591081115185
 21
280.0919952021817
 31
0.0
  0
ARC
  5
B55
330
1F
100
AcDbEntity
  8
0
 62
   253
370
    35
100
AcDbCircle
 10
272.5921951115186
 20
298.7608482021817
 30
0.0
 40
28.087143
100
AcDbArc
 50
178.572017
 51
180.0870390000001
  0
LINE
  5
B56
330
1F
100
AcDbEntity
  8
0
 62
   253
 48
0.000624
370
    35
100
AcDbLine
 10
244.3850721115186
 20
299.2368922021817
 30
0.0
 11
244.3674331115186
 21
299.2192222021817
 31
0.0
  0
LINE
  5
B57
330
1F
100
AcDbEntity
  8
0
 62
   253
 48
0.000306
370
    35
100
AcDbLine
 10
43.15747211151854
 20
299.2275542021817
 30
0.0
 11
43.14880511151858
 21
299.2362212021817
 31
0.0
  0
LINE
  5
B58
330
1F
100
AcDbEntity
  8
0
 62
   253
 48
0.00062
370
    35
100
AcDbLine
 10
43.14882111151857
 20
299.2368312021818
 30
0.0
 11
43.16633811151858
 21
299.2192532021817
 31
0.0
  0
ARC
  5
B59
330
1F
100
AcDbEntity
  8
0
 62
   253
370
    35
100
AcDbCircle
 10
14.56416511151857
 20
298.7564842021817
 30
0.0
 40
28.464622
100
AcDbArc
 50
359.9228889999998
 51
1.40830199999982
  0
LINE
  5
B5A
330
1F
100
AcDbEntity
  8
0
 62
   253
 48
0.465656
370
    35
100
AcDbLine
 10
43.02902411151857
 20
298.7181852021816
 30
0.0
 11
43.07472411151858
 21
280.0919952021817
 31
0.0
  0
ARC
  5
B5B
330
1F
100
AcDbEntity
  8
0
 62
   253
370
    35
100
AcDbCircle
 10
241.9665241115186
 20
280.0982202021817
 30
0.0
 40
2.492569
100
AcDbArc
 50
344.3690229999999
 51
359.8569019999998
  0
ARC
  5
B5C
330
1F
100
AcDbEntity
  8
0
 62
   253
370
    35
100
AcDbCircle
 10
45.56727811151858
 20
280.0982202021817
 30
0.0
 40
2.492559999999999
100
AcDbArc
 50
180.1430600000001
 51
195.6313879999998
  0
ARC
  5
B5D
330
1F
100
AcDbEntity
  8
0
 62
   253
370
    35
100
AcDbCircle
 10
45.15802211151856
 20
278.8450462021817
 30
0.0
 40
1.991138
100
AcDbArc
 50
179.96692
 51
270.124075
  0
LINE
  5
B5E
330
1F
100
AcDbEntity
  8
0
 62
   253
370
    35
100
AcDbLine
 10
45.16234011151857
 20
276.8535002021816
 30
0.0
 11
242.3714621115186
 21
276.8535002021816
 31
0.0
  0
ARC
  5
B5F
330
1F
100
AcDbEntity
  8
0
 62
   253
370
    35
100
AcDbCircle
 10
242.3757951115185
 20
278.8450462021817
 30
0.0
 40
1.991138
100
AcDbArc
 50
269.8759270000003
 51
0.0330860000000776
  0
ELLIPSE
  5
B64
330
1F
100
AcDbEntity
  8
0
 62
   253
370
    35
100
AcDbEllipse
 10
140.7565021115185
 20
284.0958092021817
 30
0.0
 11
6.0
 21
0.0
 31
0.0
210
0.0
220
0.0
230
1.0
 40
0.9998479999999997
 41
3.925260709728564
 42
4.712388980384688
  0
ELLIPSE
  5
B65
330
1F
100
AcDbEntity
  8
0
 62
   253
370
    35
100
AcDbEllipse
 10
143.7669081115186
 20
287.0953522021817
 30
0.0
 11
10.25
 21
0.0
 31
0.0
210
0.0
220
0.0
230
1.0
 40
0.9998479999999998
 41
3.141592653589792
 42
3.925260709728564
  0
LINE
  5
B66
330
1F
100
AcDbEntity
  8
0
 62
   253
 48
0.00174
370
    35
100
AcDbLine
 10
133.5169081115185
 20
287.0953522021817
 30
0.0
 11
133.5169081115185
 21
287.1649322021817
 31
0.0
  0
ELLIPSE
  5
B67
330
1F
100
AcDbEntity
  8
0
 62
   253
370
    35
100
AcDbEllipse
 10
146.7773151115185
 20
284.0958092021817
 30
0.0
 11
6.0
 21
0.0
 31
0.0
210
0.0
220
0.0
230
1.0
 40
0.9998479999999997
 41
4.712388980384688
 42
5.499517251040813
  0
LINE
  5
B68
330
1F
100
AcDbEntity
  8
0
 62
   253
 48
0.15052
370
    35
100
AcDbLine
 10
140.7565021115185
 20
278.0967252021817
 30
0.0
 11
146.7773151115185
 21
278.0967252021817
 31
0.0
  0
ELLIPSE
  5
B69
330
1F
100
AcDbEntity
  8
0
 62
   253
370
    35
100
AcDbEllipse
 10
143.7669081115186
 20
287.0953522021817
 30
0.0
 11
10.25
 21
0.0
 31
0.0
210
0.0
220
0.0
230
1.0
 40
0.9998479999999998
 41
6.283147779813025
 42
9.424777960769381
  0
ELLIPSE
  5
B6A
330
1F
100
AcDbEntity
  8
0
 62
   253
370
    35
100
AcDbEllipse
 10
143.7669081115186
 20
287.0953522021817
 30
0.0
 11
10.25
 21
0.0
 31
0.0
210
0.0
220
0.0
230
1.0
 40
0.9998479999999998
 41
5.499517251040813
 42
6.283147779813027
  0
LINE
  5
B6B
330
1F
100
AcDbEntity
  8
0
 62
   253
 48
0.016771
370
    35
100
AcDbLine
 10
163.7669081115185
 20
291.2571252021816
 30
0.0
 11
163.7669081115185
 21
290.5862882021817
 31
0.0
  0
ARC
  5
B6C
330
1F
100
AcDbEntity
  8
0
 62
   253
370
    35
100
AcDbCircle
 10
140.8591931115186
 20
285.9759972021817
 30
0.0
 40
13.366272
100
AcDbArc
 50
20.17714499999994
 51
23.26567200000006
  0
LINE
  5
B6D
330
1F
100
AcDbEntity
  8
0
 62
   253
 48
0.000533
370
    35
100
AcDbLine
 10
153.1386731115185
 20
291.2571252021816
 30
0.0
 11
153.1386731115185
 21
291.2784272021816
 31
0.0
  0
LINE
  5
B6E
330
1F
100
AcDbEntity
  8
0
 62
   253
 48
0.000446
370
    35
100
AcDbLine
 10
163.7669081115185
 20
291.2749782021816
 30
0.0
 11
163.7669081115185
 21
291.2571252021816
 31
0.0
  0
LINE
  5
B6F
330
1F
100
AcDbEntity
  8
0
 62
   253
 48
0.251478
370
    35
100
AcDbLine
 10
153.7077961115186
 20
291.2749782021816
 30
0.0
 11
163.7669081115185
 21
291.2749782021816
 31
0.0
  0
LINE
  5
B70
330
1F
100
AcDbEntity
  8
0
 62
   253
 48
0.014228
370
    35
100
AcDbLine
 10
153.7077961115186
 20
291.2749782021816
 30
0.0
 11
153.1386731115185
 21
291.2784272021816
 31
0.0
  0
LINE
  5
B71
330
1F
100
AcDbEntity
  8
0
 62
   253
 48
0.014228
370
    35
100
AcDbLine
 10
133.8260211115186
 20
291.2749782021816
 30
0.0
 11
134.3951431115186
 21
291.2784272021816
 31
0.0
  0
LINE
  5
B72
330
1F
100
AcDbEntity
  8
0
 62
   253
 48
0.000446
370
    35
100
AcDbLine
 10
123.7669081115185
 20
291.2749782021816
 30
0.0
 11
123.7669081115185
 21
291.2571252021816
 31
0.0
  0
LINE
  5
B73
330
1F
100
AcDbEntity
  8
0
 62
   253
 48
0.000533
370
    35
100
AcDbLine
 10
134.3951431115186
 20
291.2571252021816
 30
0.0
 11
134.3951431115186
 21
291.2784272021816
 31
0.0
  0
LINE
  5
B74
330
1F
100
AcDbEntity
  8
0
 62
   253
 48
0.251478
370
    35
100
AcDbLine
 10
123.7669081115185
 20
291.2749782021816
 30
0.0
 11
133.8260211115186
 21
291.2749782021816
 31
0.0
  0
LINE
  5
B75
330
1F
100
AcDbEntity
  8
0
 62
   253
 48
0.016769
370
    35
100
AcDbLine
 10
123.7669081115185
 20
291.2571252021816
 30
0.0
 11
123.7669081115185
 21
290.5863492021816
 31
0.0
  0
ARC
  5
B76
330
1F
100
AcDbEntity
  8
0
 62
   253
370
    35
100
AcDbCircle
 10
146.6746231115186
 20
285.9759972021817
 30
0.0
 40
13.366272
100
AcDbArc
 50
156.7343319999999
 51
159.8228609999999
  0
ARC
  5
B77
330
1F
100
AcDbEntity
  8
0
 62
   253
370
    35
100
AcDbCircle
 10
143.8398761115186
 20
287.0963592021817
 30
0.0
 40
10.181821
100
AcDbArc
 50
4.358457000000201
 51
20.04494700000002
  0
ARC
  5
B78
330
1F
100
AcDbEntity
  8
0
 62
   253
370
    35
100
AcDbCircle
 10
143.7628191115186
 20
287.1649012021817
 30
0.0
 40
10.254083
100
AcDbArc
 50
0.0001880000000312
 51
3.384007000000136
  0
LINE
  5
B79
330
1F
100
AcDbEntity
  8
0
 62
   253
 48
0.002505
370
    35
100
AcDbLine
 10
153.9990251115185
 20
287.7701872021816
 30
0.0
 11
153.9924941115186
 21
287.8701622021818
 31
0.0
  0
POLYLINE
  5
B7A
330
1F
100
AcDbEntity
  8
0
 62
   253
370
    35
100
AcDb2dPolyline
 66
     1
 10
0.0
 20
0.0
 30
0.0
  0
VERTEX
  5
B7B
330
B7A
100
AcDbEntity
  8
0
 62
   253
370
     0
100
AcDbVertex
100
AcDb2dVertex
 10
178.2177451115185
 20
294.2133632021817
 30
0.0
  0
VERTEX
  5
B7C
330
B7A
100
AcDbEntity
  8
0
 62
   253
370
     0
100
AcDbVertex
100
AcDb2dVertex
 10
177.9749161115186
 20
294.1395112021817
 30
0.0
  0
VERTEX
  5
B7D
330
B7A
100
AcDbEntity
  8
0
 62
   253
370
     0
100
AcDbVertex
100
AcDb2dVertex
 10
177.7454541115185
 20
294.0431972021817
 30
0.0
  0
VERTEX
  5
B7E
330
B7A
100
AcDbEntity
  8
0
 62
   253
370
     0
100
AcDbVertex
100
AcDb2dVertex
 10
177.5194111115185
 20
293.9279932021817
 30
0.0
  0
SEQEND
  5
B7F
330
B7A
100
AcDbEntity
  8
0
 62
   253
370
     0
  0
ARC
  5
B80
330
1F
100
AcDbEntity
  8
0
 62
   253
370
    35
100
AcDbCircle
 10
178.4663411115186
 20
293.1769862021816
 30
0.0
 40
1.065674
100
AcDbArc
 50
95.36345600000013
 51
103.4885609999999
  0
LINE
  5
B81
330
1F
100
AcDbEntity
  8
0
 62
   253
 48
0.067903
370
    35
100
AcDbLine
 10
163.7669081115185
 20
287.8701622021818
 30
0.0
 11
163.7669081115185
 21
290.5862882021817
 31
0.0
  0
LINE
  5
B82
330
1F
100
AcDbEntity
  8
0
 62
   253
 48
0.005459
370
    35
100
AcDbLine
 10
177.3224811115185
 20
293.8183132021817
 30
0.0
 11
177.5132461115186
 21
293.9245752021817
 31
0.0
  0
POLYLINE
  5
B83
330
1F
100
AcDbEntity
  8
0
 62
   253
370
    35
100
AcDb2dPolyline
 66
     1
 10
0.0
 20
0.0
 30
0.0
  0
VERTEX
  5
B84
330
B83
100
AcDbEntity
  8
0
 62
   253
370
     0
100
AcDbVertex
100
AcDb2dVertex
 10
178.7374281115186
 20
294.3011322021817
 30
0.0
  0
VERTEX
  5
B85
330
B83
100
AcDbEntity
  8
0
 62
   253
370
     0
100
AcDbVertex
100
AcDb2dVertex
 10
178.8727431115186
 20
294.2846522021818
 30
0.0
  0
VERTEX
  5
B86
330
B83
100
AcDbEntity
  8
0
 62
   253
370
     0
100
AcDbVertex
100
AcDb2dVertex
 10
178.9668601115185
 20
294.2444302021817
 30
0.0
  0
VERTEX
  5
B87
330
B83
100
AcDbEntity
  8
0
 62
   253
370
     0
100
AcDbVertex
100
AcDb2dVertex
 10
179.0799581115185
 20
294.1231532021817
 30
0.0
  0
VERTEX
  5
B88
330
B83
100
AcDbEntity
  8
0
 62
   253
370
     0
100
AcDbVertex
100
AcDb2dVertex
 10
179.1052571115185
 20
294.0639802021817
 30
0.0
  0
VERTEX
  5
B89
330
B83
100
AcDbEntity
  8
0
 62
   253
370
     0
100
AcDbVertex
100
AcDb2dVertex
 10
179.1295791115185
 20
293.9297022021817
 30
0.0
  0
VERTEX
  5
B8A
330
B83
100
AcDbEntity
  8
0
 62
   253
370
     0
100
AcDbVertex
100
AcDb2dVertex
 10
179.1111471115186
 20
293.7158662021817
 30
0.0
  0
VERTEX
  5
B8B
330
B83
100
AcDbEntity
  8
0
 62
   253
370
     0
100
AcDbVertex
100
AcDb2dVertex
 10
179.0224011115185
 20
293.4494782021817
 30
0.0
  0
VERTEX
  5
B8C
330
B83
100
AcDbEntity
  8
0
 62
   253
370
     0
100
AcDbVertex
100
AcDb2dVertex
 10
178.9097921115186
 20
293.2531892021817
 30
0.0
  0
VERTEX
  5
B8D
330
B83
100
AcDbEntity
  8
0
 62
   253
370
     0
100
AcDbVertex
100
AcDb2dVertex
 10
178.7917801115186
 20
293.1140892021817
 30
0.0
  0
VERTEX
  5
B8E
330
B83
100
AcDbEntity
  8
0
 62
   253
370
     0
100
AcDbVertex
100
AcDb2dVertex
 10
178.7244581115185
 20
293.0549462021817
 30
0.0
  0
SEQEND
  5
B8F
330
B83
100
AcDbEntity
  8
0
 62
   253
370
     0
  0
POLYLINE
  5
B90
330
1F
100
AcDbEntity
  8
0
 62
   253
370
    35
100
AcDb2dPolyline
 66
     1
 10
0.0
 20
0.0
 30
0.0
  0
VERTEX
  5
B91
330
B90
100
AcDbEntity
  8
0
 62
   253
370
     0
100
AcDbVertex
100
AcDb2dVertex
 10
178.7244581115185
 20
293.0549462021817
 30
0.0
  0
VERTEX
  5
B92
330
B90
100
AcDbEntity
  8
0
 62
   253
370
     0
100
AcDbVertex
100
AcDb2dVertex
 10
178.1587541115185
 20
292.6168052021817
 30
0.0
  0
VERTEX
  5
B93
330
B90
100
AcDbEntity
  8
0
 62
   253
370
     0
100
AcDbVertex
100
AcDb2dVertex
 10
177.5754111115186
 20
292.1923062021818
 30
0.0
  0
VERTEX
  5
B94
330
B90
100
AcDbEntity
  8
0
 62
   253
370
     0
100
AcDbVertex
100
AcDb2dVertex
 10
176.7215291115185
 20
291.6166832021817
 30
0.0
  0
VERTEX
  5
B95
330
B90
100
AcDbEntity
  8
0
 62
   253
370
     0
100
AcDbVertex
100
AcDb2dVertex
 10
175.8407001115185
 20
291.0754542021818
 30
0.0
  0
VERTEX
  5
B96
330
B90
100
AcDbEntity
  8
0
 62
   253
370
     0
100
AcDbVertex
100
AcDb2dVertex
 10
174.8443011115186
 20
290.5226592021817
 30
0.0
  0
VERTEX
  5
B97
330
B90
100
AcDbEntity
  8
0
 62
   253
370
     0
100
AcDbVertex
100
AcDb2dVertex
 10
173.8254111115186
 20
290.0180812021817
 30
0.0
  0
VERTEX
  5
B98
330
B90
100
AcDbEntity
  8
0
 62
   253
370
     0
100
AcDbVertex
100
AcDb2dVertex
 10
172.7915051115186
 20
289.5648952021817
 30
0.0
  0
VERTEX
  5
B99
330
B90
100
AcDbEntity
  8
0
 62
   253
370
     0
100
AcDbVertex
100
AcDb2dVertex
 10
171.7374591115186
 20
289.1604462021817
 30
0.0
  0
VERTEX
  5
B9A
330
B90
100
AcDbEntity
  8
0
 62
   253
370
     0
100
AcDbVertex
100
AcDb2dVertex
 10
170.6640031115185
 20
288.8052822021816
 30
0.0
  0
VERTEX
  5
B9B
330
B90
100
AcDbEntity
  8
0
 62
   253
370
     0
100
AcDbVertex
100
AcDb2dVertex
 10
169.5724501115186
 20
288.5002892021816
 30
0.0
  0
VERTEX
  5
B9C
330
B90
100
AcDbEntity
  8
0
 62
   253
370
     0
100
AcDbVertex
100
AcDb2dVertex
 10
168.4588331115184
 20
288.2454682021816
 30
0.0
  0
VERTEX
  5
B9D
330
B90
100
AcDbEntity
  8
0
 62
   253
370
     0
100
AcDbVertex
100
AcDb2dVertex
 10
167.3322771115185
 20
288.0439912021817
 30
0.0
  0
VERTEX
  5
B9E
330
B90
100
AcDbEntity
  8
0
 62
   253
370
     0
100
AcDbVertex
100
AcDb2dVertex
 10
166.1924761115185
 20
287.8967432021817
 30
0.0
  0
VERTEX
  5
B9F
330
B90
100
AcDbEntity
  8
0
 62
   253
370
     0
100
AcDbVertex
100
AcDb2dVertex
 10
165.0479451115185
 20
287.8054652021817
 30
0.0
  0
VERTEX
  5
BA0
330
B90
100
AcDbEntity
  8
0
 62
   253
370
     0
100
AcDbVertex
100
AcDb2dVertex
 10
163.7669081115185
 20
287.7701872021816
 30
0.0
  0
SEQEND
  5
BA1
330
B90
100
AcDbEntity
  8
0
 62
   253
370
     0
  0
LINE
  5
BA2
330
1F
100
AcDbEntity
  8
0
 62
   253
 48
0.002499
370
    35
100
AcDbLine
 10
163.7669081115185
 20
287.7701872021816
 30
0.0
 11
163.7669081115185
 21
287.8701622021818
 31
0.0
  0
LINE
  5
BA3
330
1F
100
AcDbEntity
  8
0
 62
   253
 48
0.2441969999999999
370
    35
100
AcDbLine
 10
153.9990251115185
 20
287.7701872021816
 30
0.0
 11
163.7669081115185
 21
287.7701872021816
 31
0.0
  0
ARC
  5
BA4
330
1F
100
AcDbEntity
  8
0
 62
   253
370
    35
100
AcDbCircle
 10
143.7696551115186
 20
287.1649322021817
 30
0.0
 40
10.252735
100
AcDbArc
 50
176.6157560000001
 51
180.0000219999999
  0
ARC
  5
BA5
330
1F
100
AcDbEntity
  8
0
 62
   253
370
    35
100
AcDbCircle
 10
143.6939411115185
 20
287.0963592021817
 30
0.0
 40
10.181821
100
AcDbArc
 50
159.955053
 51
175.641538
  0
LINE
  5
BA6
330
1F
100
AcDbEntity
  8
0
 62
   253
 48
0.002505
370
    35
100
AcDbLine
 10
133.5347921115186
 20
287.7701872021816
 30
0.0
 11
133.5413221115185
 21
287.8701622021818
 31
0.0
  0
LINE
  5
BA7
330
1F
100
AcDbEntity
  8
0
 62
   253
 48
0.067903
370
    35
100
AcDbLine
 10
123.7669081115185
 20
287.8701622021818
 30
0.0
 11
123.7669081115185
 21
290.5862882021817
 31
0.0
  0
POLYLINE
  5
BA8
330
1F
100
AcDbEntity
  8
0
 62
   253
370
    35
100
AcDb2dPolyline
 66
     1
 10
0.0
 20
0.0
 30
0.0
  0
VERTEX
  5
BA9
330
BA8
100
AcDbEntity
  8
0
 62
   253
370
     0
100
AcDbVertex
100
AcDb2dVertex
 10
108.8712171115186
 20
293.1323692021818
 30
0.0
  0
VERTEX
  5
BAA
330
BA8
100
AcDbEntity
  8
0
 62
   253
370
     0
100
AcDbVertex
100
AcDb2dVertex
 10
108.7807791115185
 20
293.2151032021817
 30
0.0
  0
VERTEX
  5
BAB
330
BA8
100
AcDbEntity
  8
0
 62
   253
370
     0
100
AcDbVertex
100
AcDb2dVertex
 10
108.6857771115185
 20
293.3332672021817
 30
0.0
  0
VERTEX
  5
BAC
330
BA8
100
AcDbEntity
  8
0
 62
   253
370
     0
100
AcDbVertex
100
AcDb2dVertex
 10
108.6065381115185
 20
293.4642792021817
 30
0.0
  0
VERTEX
  5
BAD
330
BA8
100
AcDbEntity
  8
0
 62
   253
370
     0
100
AcDbVertex
100
AcDb2dVertex
 10
108.5240801115185
 20
293.6539452021817
 30
0.0
  0
VERTEX
  5
BAE
330
BA8
100
AcDbEntity
  8
0
 62
   253
370
     0
100
AcDbVertex
100
AcDb2dVertex
 10
108.4783491115186
 20
293.8314052021817
 30
0.0
  0
VERTEX
  5
BAF
330
BA8
100
AcDbEntity
  8
0
 62
   253
370
     0
100
AcDbVertex
100
AcDb2dVertex
 10
108.4696371115185
 20
293.9469142021817
 30
0.0
  0
VERTEX
  5
BB0
330
BA8
100
AcDbEntity
  8
0
 62
   253
370
     0
100
AcDbVertex
100
AcDb2dVertex
 10
108.4782731115185
 20
294.0282432021817
 30
0.0
  0
VERTEX
  5
BB1
330
BA8
100
AcDbEntity
  8
0
 62
   253
370
     0
100
AcDbVertex
100
AcDb2dVertex
 10
108.4915941115186
 20
294.0751792021817
 30
0.0
  0
VERTEX
  5
BB2
330
BA8
100
AcDbEntity
  8
0
 62
   253
370
     0
100
AcDbVertex
100
AcDb2dVertex
 10
108.5175341115186
 20
294.1273952021817
 30
0.0
  0
VERTEX
  5
BB3
330
BA8
100
AcDbEntity
  8
0
 62
   253
370
     0
100
AcDbVertex
100
AcDb2dVertex
 10
108.6282971115186
 20
294.2162622021817
 30
0.0
  0
VERTEX
  5
BB4
330
BA8
100
AcDbEntity
  8
0
 62
   253
370
     0
100
AcDbVertex
100
AcDb2dVertex
 10
108.7095051115186
 20
294.2353362021817
 30
0.0
  0
VERTEX
  5
BB5
330
BA8
100
AcDbEntity
  8
0
 62
   253
370
     0
100
AcDbVertex
100
AcDb2dVertex
 10
108.7960371115185
 20
294.2360382021817
 30
0.0
  0
SEQEND
  5
BB6
330
BA8
100
AcDbEntity
  8
0
 62
   253
370
     0
  0
ARC
  5
BB7
330
1F
100
AcDbEntity
  8
0
 62
   253
370
    35
100
AcDbCircle
 10
109.0674761115185
 20
293.1769862021816
 30
0.0
 40
1.065678
100
AcDbArc
 50
76.51145099999985
 51
84.63654200000002
  0
POLYLINE
  5
BB8
330
1F
100
AcDbEntity
  8
0
 62
   253
370
    35
100
AcDb2dPolyline
 66
     1
 10
0.0
 20
0.0
 30
0.0
  0
VERTEX
  5
BB9
330
BB8
100
AcDbEntity
  8
0
 62
   253
370
     0
100
AcDbVertex
100
AcDb2dVertex
 10
109.3160571115185
 20
294.2133632021817
 30
0.0
  0
VERTEX
  5
BBA
330
BB8
100
AcDbEntity
  8
0
 62
   253
370
     0
100
AcDbVertex
100
AcDb2dVertex
 10
109.5589161115185
 20
294.1395112021817
 30
0.0
  0
VERTEX
  5
BBB
330
BB8
100
AcDbEntity
  8
0
 62
   253
370
     0
100
AcDbVertex
100
AcDb2dVertex
 10
109.7883771115185
 20
294.0431972021817
 30
0.0
  0
VERTEX
  5
BBC
330
BB8
100
AcDbEntity
  8
0
 62
   253
370
     0
100
AcDbVertex
100
AcDb2dVertex
 10
110.0144061115185
 20
293.9279932021817
 30
0.0
  0
SEQEND
  5
BBD
330
BB8
100
AcDbEntity
  8
0
 62
   253
370
     0
  0
LINE
  5
BBE
330
1F
100
AcDbEntity
  8
0
 62
   253
 48
0.009276
370
    35
100
AcDbLine
 10
109.1670701115186
 20
294.2378992021817
 30
0.0
 11
108.7960371115185
 21
294.2360682021817
 31
0.0
  0
LINE
  5
BBF
330
1F
100
AcDbEntity
  8
0
 62
   253
 48
0.005461
370
    35
100
AcDbLine
 10
110.0205701115186
 20
293.9245752021817
 30
0.0
 11
110.2114271115185
 21
293.8182832021817
 31
0.0
  0
LINE
  5
BC0
330
1F
100
AcDbEntity
  8
0
 62
   253
 48
0.002499
370
    35
100
AcDbLine
 10
123.7669081115185
 20
287.7701872021816
 30
0.0
 11
123.7669081115185
 21
287.8701622021818
 31
0.0
  0
POLYLINE
  5
BC1
330
1F
100
AcDbEntity
  8
0
 62
   253
370
    35
100
AcDb2dPolyline
 66
     1
 10
0.0
 20
0.0
 30
0.0
  0
VERTEX
  5
BC2
330
BC1
100
AcDbEntity
  8
0
 62
   253
370
     0
100
AcDbVertex
100
AcDb2dVertex
 10
108.8093431115185
 20
293.0549462021817
 30
0.0
  0
VERTEX
  5
BC3
330
BC1
100
AcDbEntity
  8
0
 62
   253
370
     0
100
AcDbVertex
100
AcDb2dVertex
 10
109.3750781115186
 20
292.6168052021817
 30
0.0
  0
VERTEX
  5
BC4
330
BC1
100
AcDbEntity
  8
0
 62
   253
370
     0
100
AcDbVertex
100
AcDb2dVertex
 10
109.9584061115185
 20
292.1923062021818
 30
0.0
  0
VERTEX
  5
BC5
330
BC1
100
AcDbEntity
  8
0
 62
   253
370
     0
100
AcDbVertex
100
AcDb2dVertex
 10
110.8122881115186
 20
291.6166832021817
 30
0.0
  0
VERTEX
  5
BC6
330
BC1
100
AcDbEntity
  8
0
 62
   253
370
     0
100
AcDbVertex
100
AcDb2dVertex
 10
111.6931321115186
 20
291.0754542021818
 30
0.0
  0
VERTEX
  5
BC7
330
BC1
100
AcDbEntity
  8
0
 62
   253
370
     0
100
AcDbVertex
100
AcDb2dVertex
 10
112.6895311115185
 20
290.5226592021817
 30
0.0
  0
VERTEX
  5
BC8
330
BC1
100
AcDbEntity
  8
0
 62
   253
370
     0
100
AcDbVertex
100
AcDb2dVertex
 10
113.7084061115186
 20
290.0180812021817
 30
0.0
  0
VERTEX
  5
BC9
330
BC1
100
AcDbEntity
  8
0
 62
   253
370
     0
100
AcDbVertex
100
AcDb2dVertex
 10
114.7423261115185
 20
289.5648652021817
 30
0.0
  0
VERTEX
  5
BCA
330
BC1
100
AcDbEntity
  8
0
 62
   253
370
     0
100
AcDbVertex
100
AcDb2dVertex
 10
115.7963581115186
 20
289.1604462021817
 30
0.0
  0
VERTEX
  5
BCB
330
BC1
100
AcDbEntity
  8
0
 62
   253
370
     0
100
AcDbVertex
100
AcDb2dVertex
 10
116.8698141115185
 20
288.8052822021816
 30
0.0
  0
VERTEX
  5
BCC
330
BC1
100
AcDbEntity
  8
0
 62
   253
370
     0
100
AcDbVertex
100
AcDb2dVertex
 10
117.9613821115186
 20
288.5002892021816
 30
0.0
  0
VERTEX
  5
BCD
330
BC1
100
AcDbEntity
  8
0
 62
   253
370
     0
100
AcDbVertex
100
AcDb2dVertex
 10
119.0749831115185
 20
288.2454682021816
 30
0.0
  0
VERTEX
  5
BCE
330
BC1
100
AcDbEntity
  8
0
 62
   253
370
     0
100
AcDbVertex
100
AcDb2dVertex
 10
120.2015551115186
 20
288.0439912021817
 30
0.0
  0
VERTEX
  5
BCF
330
BC1
100
AcDbEntity
  8
0
 62
   253
370
     0
100
AcDbVertex
100
AcDb2dVertex
 10
121.3413561115185
 20
287.8967432021817
 30
0.0
  0
VERTEX
  5
BD0
330
BC1
100
AcDbEntity
  8
0
 62
   253
370
     0
100
AcDbVertex
100
AcDb2dVertex
 10
122.4858721115186
 20
287.8054652021817
 30
0.0
  0
VERTEX
  5
BD1
330
BC1
100
AcDbEntity
  8
0
 62
   253
370
     0
100
AcDbVertex
100
AcDb2dVertex
 10
123.7669081115185
 20
287.7701872021816
 30
0.0
  0
SEQEND
  5
BD2
330
BC1
100
AcDbEntity
  8
0
 62
   253
370
     0
  0
LINE
  5
BD3
330
1F
100
AcDbEntity
  8
0
 62
   253
 48
0.002478
370
    35
100
AcDbLine
 10
108.8093431115185
 20
293.0549462021817
 30
0.0
 11
108.8712171115186
 21
293.1323692021818
 31
0.0
  0
LINE
  5
BD4
330
1F
100
AcDbEntity
  8
0
 62
   253
 48
0.2441969999999999
370
    35
100
AcDbLine
 10
123.7669081115185
 20
287.7701872021816
 30
0.0
 11
133.5347921115186
 21
287.7701872021816
 31
0.0
  0
LINE
  5
BD5
330
1F
100
AcDbEntity
  8
0
 62
   253
 48
0.000392
370
    35
100
AcDbLine
 10
178.0036031115185
 20
294.2769922021816
 30
0.0
 11
177.9910291115185
 21
294.2675932021817
 31
0.0
  0
LINE
  5
BD6
330
1F
100
AcDbEntity
  8
0
 62
   253
 48
0.00255
370
    35
100
AcDbLine
 10
178.0036031115185
 20
294.2769922021816
 30
0.0
 11
178.0830091115185
 21
294.3409882021816
 31
0.0
  0
ARC
  5
BD7
330
1F
100
AcDbEntity
  8
0
 62
   253
370
    35
100
AcDbCircle
 10
176.6206381115185
 20
296.0403592021817
 30
0.0
 40
2.242020999999998
100
AcDbArc
 50
310.7134160000001
 51
319.9234650000001
  0
ARC
  5
BD8
330
1F
100
AcDbEntity
  8
0
 62
   253
370
    35
100
AcDbCircle
 10
176.9326491115186
 20
295.7759242021816
 30
0.0
 40
1.833238
100
AcDbArc
 50
319.9692619999999
 51
355.4004609999998
  0
LINE
  5
BD9
330
1F
100
AcDbEntity
  8
0
 62
   253
 48
0.005738
370
    35
100
AcDbLine
 10
178.7604391115185
 20
295.8584132021816
 30
0.0
 11
178.7602251115185
 21
295.6288902021817
 31
0.0
  0
ARC
  5
BDA
330
1F
100
AcDbEntity
  8
0
 62
   253
370
    35
100
AcDbCircle
 10
170.8068251115186
 20
304.0804902021816
 30
0.0
 40
12.161644
100
AcDbArc
 50
303.2826759999998
 51
306.2086640000003
  0
LINE
  5
BDB
330
1F
100
AcDbEntity
  8
0
 62
   253
 48
0.000111
370
    35
100
AcDbLine
 10
178.3667311115185
 20
294.2423552021817
 30
0.0
 11
178.3667311115185
 21
294.2378992021817
 31
0.0
  0
LINE
  5
BDC
330
1F
100
AcDbEntity
  8
0
 62
   253
 48
0.000066
370
    35
100
AcDbLine
 10
178.2173481115185
 20
294.2159572021817
 30
0.0
 11
178.2177451115185
 21
294.2133632021817
 31
0.0
  0
ARC
  5
BDD
330
1F
100
AcDbEntity
  8
0
 62
   253
370
    35
100
AcDbCircle
 10
178.4905411115186
 20
293.1121672021817
 30
0.0
 40
1.137038999999999
100
AcDbArc
 50
96.25213900000007
 51
103.9021220000003
  0
LINE
  5
BDE
330
1F
100
AcDbEntity
  8
0
 62
   253
 48
0.001282
370
    35
100
AcDbLine
 10
178.6861591115186
 20
294.3008572021816
 30
0.0
 11
178.7374281115186
 21
294.3011322021817
 31
0.0
  0
ARC
  5
BDF
330
1F
100
AcDbEntity
  8
0
 62
   253
370
    35
100
AcDbCircle
 10
177.4901141115186
 20
299.9388272021816
 30
0.0
 40
5.763486
100
AcDbArc
 50
278.7482750000001
 51
281.9771029999998
  0
ARC
  5
BE0
330
1F
100
AcDbEntity
  8
0
 62
   253
370
    35
100
AcDbCircle
 10
178.9962481115185
 20
291.3623192021816
 30
0.0
 40
2.959633
100
AcDbArc
 50
105.7159399999996
 51
119.9263879999998
  0
LINE
  5
BE1
330
1F
100
AcDbEntity
  8
0
 62
   253
 48
0.000579
370
    35
100
AcDbLine
 10
178.2173481115185
 20
294.2159572021817
 30
0.0
 11
178.1948261115185
 21
294.2104942021817
 31
0.0
  0
ARC
  5
BE2
330
1F
100
AcDbEntity
  8
0
 62
   253
370
    35
100
AcDbCircle
 10
177.5186781115186
 20
293.8546592021817
 30
0.0
 40
0.070196
100
AcDbArc
 50
94.5201670000001
 51
122.70357
  0
ARC
  5
BE3
330
1F
100
AcDbEntity
  8
0
 62
   253
370
    35
100
AcDbCircle
 10
110.6012891115185
 20
295.7761072021817
 30
0.0
 40
1.833418999999999
100
AcDbArc
 50
184.6048129999999
 51
220.032512
  0
ARC
  5
BE4
330
1F
100
AcDbEntity
  8
0
 62
   253
370
    35
100
AcDbCircle
 10
110.9131791115185
 20
296.0403592021817
 30
0.0
 40
2.242024999999999
100
AcDbArc
 50
220.07654
 51
229.2865719999997
  0
LINE
  5
BE5
330
1F
100
AcDbEntity
  8
0
 62
   253
 48
0.00255
370
    35
100
AcDbLine
 10
109.4507921115186
 20
294.3409882021816
 30
0.0
 11
109.5302291115185
 21
294.2769922021816
 31
0.0
  0
LINE
  5
BE6
330
1F
100
AcDbEntity
  8
0
 62
   253
 48
0.000392
370
    35
100
AcDbLine
 10
109.5427721115185
 20
294.2675932021817
 30
0.0
 11
109.5302291115185
 21
294.2769922021816
 31
0.0
  0
LINE
  5
BE7
330
1F
100
AcDbEntity
  8
0
 62
   253
 48
0.005738
370
    35
100
AcDbLine
 10
108.7733781115186
 20
295.8584132021816
 30
0.0
 11
108.7736071115186
 21
295.6288902021817
 31
0.0
  0
ARC
  5
BE8
330
1F
100
AcDbEntity
  8
0
 62
   253
370
    35
100
AcDbCircle
 10
116.7269911115186
 20
304.0804592021817
 30
0.0
 40
12.161621
100
AcDbArc
 50
233.7913409999998
 51
236.7173259999999
  0
LINE
  5
BE9
330
1F
100
AcDbEntity
  8
0
 62
   253
 48
0.000111
370
    35
100
AcDbLine
 10
109.1671011115185
 20
294.2423552021817
 30
0.0
 11
109.1670701115186
 21
294.2378992021817
 31
0.0
  0
ARC
  5
BEA
330
1F
100
AcDbEntity
  8
0
 62
   253
370
    35
100
AcDbCircle
 10
109.0431231115185
 20
293.1119532021817
 30
0.0
 40
1.137267
100
AcDbArc
 50
76.09325899999991
 51
83.74171900000039
  0
LINE
  5
BEB
330
1F
100
AcDbEntity
  8
0
 62
   253
 48
0.000066
370
    35
100
AcDbLine
 10
109.3164841115185
 20
294.2159572021817
 30
0.0
 11
109.3160571115185
 21
294.2133632021817
 31
0.0
  0
LINE
  5
BEC
330
1F
100
AcDbEntity
  8
0
 62
   253
 48
0.000579
370
    35
100
AcDbLine
 10
109.3390061115185
 20
294.2104942021817
 30
0.0
 11
109.3164841115185
 21
294.2159572021817
 31
0.0
  0
ARC
  5
BED
330
1F
100
AcDbEntity
  8
0
 62
   253
370
    35
100
AcDbCircle
 10
108.5375691115186
 20
291.3623502021817
 30
0.0
 40
2.959624
100
AcDbArc
 50
60.07350799999986
 51
74.28407199999968
  0
ARC
  5
BEE
330
1F
100
AcDbEntity
  8
0
 62
   253
370
    35
100
AcDbCircle
 10
110.0150771115185
 20
293.8545982021817
 30
0.0
 40
0.07028
100
AcDbArc
 50
57.26852999999993
 51
85.42017599999976
  0
LINE
  5
BEF
330
1F
100
AcDbEntity
  8
0
 62
   253
 48
0.4608010000000001
370
    35
100
AcDbLine
 10
43.16690211151857
 20
278.8462062021817
 30
0.0
 11
43.16690211151857
 21
297.2782432021817
 31
0.0
  0
LINE
  5
BF0
330
1F
100
AcDbEntity
  8
0
 62
   253
 48
0.4608010000000001
370
    35
100
AcDbLine
 10
244.3669141115186
 20
278.8462062021817
 30
0.0
 11
244.3669141115186
 21
297.2782432021817
 31
0.0
  0
LINE
  5
BF1
330
1F
100
AcDbEntity
  8
0
 62
   253
 48
0.14828
370
    35
100
AcDbLine
 10
163.7669081115185
 20
291.2754362021817
 30
0.0
 11
163.7669081115185
 21
297.2066192021816
 31
0.0
  0
LINE
  5
BF2
330
1F
100
AcDbEntity
  8
0
 62
   253
 48
0.14828
370
    35
100
AcDbLine
 10
123.7669081115185
 20
291.2754362021817
 30
0.0
 11
123.7669081115185
 21
297.2066492021816
 31
0.0
  0
LINE
  5
BF3
330
1F
100
AcDbEntity
  8
0
 62
   253
370
    35
100
AcDbLine
 10
47.88923811151853
 20
297.7764122021818
 30
0.0
 11
108.2913071115186
 21
297.7764122021818
 31
0.0
  0
LINE
  5
BF4
330
1F
100
AcDbEntity
  8
0
 62
   253
 48
0.024672
370
    35
100
AcDbLine
 10
47.88923811151853
 20
297.7764122021818
 30
0.0
 11
46.90237611151856
 21
297.7764122021818
 31
0.0
  0
LINE
  5
BF5
330
1F
100
AcDbEntity
  8
0
 62
   253
 48
0.024671
370
    35
100
AcDbLine
 10
240.6314411115186
 20
297.7764122021818
 30
0.0
 11
239.6445941115186
 21
297.7764122021818
 31
0.0
  0
LINE
  5
BF6
330
1F
100
AcDbEntity
  8
0
 62
   253
370
    35
100
AcDbLine
 10
179.2503681115185
 20
297.7764122021818
 30
0.0
 11
239.6445941115186
 21
297.7764122021818
 31
0.0
  0
ARC
  5
BF7
330
1F
100
AcDbEntity
  8
0
 62
   253
370
    35
100
AcDbCircle
 10
243.8701191115186
 20
297.2797392021817
 30
0.0
 40
0.4966630000000001
100
AcDbArc
 50
359.8268459999999
 51
90.06199300000004
  0
LINE
  5
BF8
330
1F
100
AcDbEntity
  8
0
 62
   253
 48
0.067465
370
    35
100
AcDbLine
 10
243.8695691115186
 20
297.7764122021818
 30
0.0
 11
241.1709611115186
 21
297.7764122021818
 31
0.0
  0
LINE
  5
BF9
330
1F
100
AcDbEntity
  8
0
 62
   253
 48
0.007601
370
    35
100
AcDbLine
 10
240.8669141115186
 20
297.7764122021818
 30
0.0
 11
241.1709611115186
 21
297.7764122021818
 31
0.0
  0
LINE
  5
BFA
330
1F
100
AcDbEntity
  8
0
 62
   253
 48
0.005887
370
    35
100
AcDbLine
 10
240.6314411115186
 20
297.7764122021818
 30
0.0
 11
240.8669141115186
 21
297.7764122021818
 31
0.0
  0
LINE
  5
BFB
330
1F
100
AcDbEntity
  8
0
 62
   253
 48
0.005887
370
    35
100
AcDbLine
 10
46.66690211151856
 20
297.7764122021818
 30
0.0
 11
46.90237611151856
 21
297.7764122021818
 31
0.0
  0
LINE
  5
BFC
330
1F
100
AcDbEntity
  8
0
 62
   253
 48
0.007601
370
    35
100
AcDbLine
 10
46.36285611151857
 20
297.7764122021818
 30
0.0
 11
46.66690211151856
 21
297.7764122021818
 31
0.0
  0
LINE
  5
BFD
330
1F
100
AcDbEntity
  8
0
 62
   253
 48
0.067465
370
    35
100
AcDbLine
 10
43.66424711151856
 20
297.7764122021818
 30
0.0
 11
46.36285611151857
 21
297.7764122021818
 31
0.0
  0
ARC
  5
BFE
330
1F
100
AcDbEntity
  8
0
 62
   253
370
    35
100
AcDbCircle
 10
43.66369811151857
 20
297.2797392021817
 30
0.0
 40
0.4966630000000001
100
AcDbArc
 50
89.93800500000004
 51
180.1731540000002
  0
LINE
  5
BFF
330
1F
100
AcDbEntity
  8
0
 62
   253
 48
0.035384
370
    35
100
AcDbLine
 10
178.7604391115185
 20
295.8584132021816
 30
0.0
 11
178.7609881115185
 21
297.2737572021816
 31
0.0
  0
LINE
  5
C01
330
1F
100
AcDbEntity
  8
0
 62
   253
 48
0.035384
370
    35
100
AcDbLine
 10
108.7733781115186
 20
295.8584132021816
 30
0.0
 11
108.7728441115186
 21
297.2737572021816
 31
0.0
  0
LINE
  5
C02
330
1F
100
AcDbEntity
  8
0
 62
   253
 48
0.000581
370
    35
100
AcDbLine
 10
179.2592181115185
 20
297.7602382021816
 30
0.0
 11
179.2425251115185
 21
297.7764122021818
 31
0.0
  0
LINE
  5
C04
330
1F
100
AcDbEntity
  8
0
 62
   253
 48
0.000581
370
    35
100
AcDbLine
 10
108.2913071115186
 20
297.7764122021818
 30
0.0
 11
108.2746141115185
 21
297.7602382021816
 31
0.0
  0
ARC
  5
C06
330
1F
100
AcDbEntity
  8
0
 62
   253
370
    35
100
AcDbCircle
 10
108.2702501115185
 20
297.2572172021817
 30
0.0
 40
0.5030130000000002
100
AcDbArc
 50
1.776331999999968
 51
89.50294899999994
  0
LINE
  5
C08
330
1F
100
AcDbEntity
  8
0
 62
   253
 48
0.011547
370
    35
100
AcDbLine
 10
163.7669081115185
 20
297.2066802021817
 30
0.0
 11
163.7669081115185
 21
297.6685632021816
 31
0.0
  0
LINE
  5
C09
330
1F
100
AcDbEntity
  8
0
 62
   253
 48
0.011548
370
    35
100
AcDbLine
 10
123.7669081115185
 20
297.2066492021816
 30
0.0
 11
123.7669081115185
 21
297.6685632021816
 31
0.0
  0
ARC
  5
C0A
330
1F
100
AcDbEntity
  8
0
 62
   253
370
    35
100
AcDbCircle
 10
179.2637351115186
 20
297.2570642021817
 30
0.0
 40
0.503188
100
AcDbArc
 50
90.5167470000002
 51
178.0963769999999
  0
ARC
  5
C0B
330
1F
100
AcDbEntity
  8
0
 62
   253
370
    35
100
AcDbCircle
 10
179.2492391115185
 20
297.2842862021817
 30
0.0
 40
0.492117
100
AcDbArc
 50
90.77422499999988
 51
98.43219200000035
  0
ARC
  5
C0C
330
1F
100
AcDbEntity
  8
0
 62
   253
370
    35
100
AcDbCircle
 10
108.2819691115186
 20
297.2855372021817
 30
0.0
 40
0.490912
100
AcDbArc
 50
81.17166899999997
 51
88.91889299999986
  0
LINE
  5
C0D
330
1F
100
AcDbEntity
  8
0
 62
   253
 48
0.014227
370
    35
100
AcDbLine
 10
153.1387351115185
 20
291.2785492021817
 30
0.0
 11
153.7077961115186
 21
291.2750702021817
 31
0.0
  0
LINE
  5
C0E
330
1F
100
AcDbEntity
  8
0
 62
   253
 48
0.014227
370
    35
100
AcDbLine
 10
134.3950821115186
 20
291.2785492021817
 30
0.0
 11
133.8260211115186
 21
291.2750702021817
 31
0.0
  0
LINE
  5
C0F
330
1F
100
AcDbEntity
  8
0
 62
   253
 48
0.251478
370
    35
100
AcDbLine
 10
153.7077961115186
 20
291.2750702021817
 30
0.0
 11
163.7669081115185
 21
291.2750702021817
 31
0.0
  0
LINE
  5
C10
330
1F
100
AcDbEntity
  8
0
 62
   253
 48
0.251478
370
    35
100
AcDbLine
 10
123.7669081115185
 20
291.2750702021817
 30
0.0
 11
133.8260211115186
 21
291.2750702021817
 31
0.0
  0
LINE
  5
C11
330
1F
100
AcDbEntity
  8
0
 62
   253
 48
0.001749
370
    35
100
AcDbLine
 10
154.0169081115186
 20
287.0949552021817
 30
0.0
 11
154.0169081115186
 21
287.1649322021817
 31
0.0
  0
POLYLINE
  5
C12
330
1F
100
AcDbEntity
  8
0
 62
   253
370
    35
100
AcDb2dPolyline
 66
     1
 10
0.0
 20
0.0
 30
0.0
  0
VERTEX
  5
C13
330
C12
100
AcDbEntity
  8
0
 62
   253
370
     0
100
AcDbVertex
100
AcDb2dVertex
 10
163.7669081115185
 20
291.2750702021817
 30
0.0
  0
VERTEX
  5
C14
330
C12
100
AcDbEntity
  8
0
 62
   253
370
     0
100
AcDbVertex
100
AcDb2dVertex
 10
165.4023761115186
 20
291.3102262021816
 30
0.0
  0
VERTEX
  5
C15
330
C12
100
AcDbEntity
  8
0
 62
   253
370
     0
100
AcDbVertex
100
AcDb2dVertex
 10
167.0204791115185
 20
291.4145352021817
 30
0.0
  0
VERTEX
  5
C16
330
C12
100
AcDbEntity
  8
0
 62
   253
370
     0
100
AcDbVertex
100
AcDb2dVertex
 10
168.6078201115186
 20
291.5840602021817
 30
0.0
  0
VERTEX
  5
C17
330
C12
100
AcDbEntity
  8
0
 62
   253
370
     0
100
AcDbVertex
100
AcDb2dVertex
 10
170.1612561115185
 20
291.8142852021818
 30
0.0
  0
VERTEX
  5
C18
330
C12
100
AcDbEntity
  8
0
 62
   253
370
     0
100
AcDbVertex
100
AcDb2dVertex
 10
171.9062211115186
 20
292.1484522021817
 30
0.0
  0
VERTEX
  5
C19
330
C12
100
AcDbEntity
  8
0
 62
   253
370
     0
100
AcDbVertex
100
AcDb2dVertex
 10
173.4294751115185
 20
292.5055992021817
 30
0.0
  0
VERTEX
  5
C1A
330
C12
100
AcDbEntity
  8
0
 62
   253
370
     0
100
AcDbVertex
100
AcDb2dVertex
 10
174.8366411115185
 20
292.8925322021817
 30
0.0
  0
VERTEX
  5
C1B
330
C12
100
AcDbEntity
  8
0
 62
   253
370
     0
100
AcDbVertex
100
AcDb2dVertex
 10
175.8735671115186
 20
293.2211762021817
 30
0.0
  0
VERTEX
  5
C1C
330
C12
100
AcDbEntity
  8
0
 62
   253
370
     0
100
AcDbVertex
100
AcDb2dVertex
 10
176.6331191115186
 20
293.5002892021817
 30
0.0
  0
VERTEX
  5
C1D
330
C12
100
AcDbEntity
  8
0
 62
   253
370
     0
100
AcDbVertex
100
AcDb2dVertex
 10
177.1841451115186
 20
293.7452232021817
 30
0.0
  0
VERTEX
  5
C1E
330
C12
100
AcDbEntity
  8
0
 62
   253
370
     0
100
AcDbVertex
100
AcDb2dVertex
 10
177.3293171115185
 20
293.8221582021816
 30
0.0
  0
SEQEND
  5
C1F
330
C12
100
AcDbEntity
  8
0
 62
   253
370
     0
  0
POLYLINE
  5
C20
330
1F
100
AcDbEntity
  8
0
 62
   253
370
    35
100
AcDb2dPolyline
 66
     1
 10
0.0
 20
0.0
 30
0.0
  0
VERTEX
  5
C21
330
C20
100
AcDbEntity
  8
0
 62
   253
370
     0
100
AcDbVertex
100
AcDb2dVertex
 10
110.2045001115185
 20
293.8221582021816
 30
0.0
  0
VERTEX
  5
C22
330
C20
100
AcDbEntity
  8
0
 62
   253
370
     0
100
AcDbVertex
100
AcDb2dVertex
 10
110.5154591115186
 20
293.6653592021817
 30
0.0
  0
VERTEX
  5
C23
330
C20
100
AcDbEntity
  8
0
 62
   253
370
     0
100
AcDbVertex
100
AcDb2dVertex
 10
111.1109641115185
 20
293.4182582021817
 30
0.0
  0
VERTEX
  5
C24
330
C20
100
AcDbEntity
  8
0
 62
   253
370
     0
100
AcDbVertex
100
AcDb2dVertex
 10
112.0000021115185
 20
293.1083522021816
 30
0.0
  0
VERTEX
  5
C25
330
C20
100
AcDbEntity
  8
0
 62
   253
370
     0
100
AcDbVertex
100
AcDb2dVertex
 10
113.2313711115186
 20
292.7386932021817
 30
0.0
  0
VERTEX
  5
C26
330
C20
100
AcDbEntity
  8
0
 62
   253
370
     0
100
AcDbVertex
100
AcDb2dVertex
 10
114.7585771115185
 20
292.3446802021816
 30
0.0
  0
VERTEX
  5
C27
330
C20
100
AcDbEntity
  8
0
 62
   253
370
     0
100
AcDbVertex
100
AcDb2dVertex
 10
116.4974991115186
 20
291.9718772021816
 30
0.0
  0
VERTEX
  5
C28
330
C20
100
AcDbEntity
  8
0
 62
   253
370
     0
100
AcDbVertex
100
AcDb2dVertex
 10
118.0345471115185
 20
291.7084192021816
 30
0.0
  0
VERTEX
  5
C29
330
C20
100
AcDbEntity
  8
0
 62
   253
370
     0
100
AcDbVertex
100
AcDb2dVertex
 10
119.6022351115185
 20
291.5037072021817
 30
0.0
  0
VERTEX
  5
C2A
330
C20
100
AcDbEntity
  8
0
 62
   253
370
     0
100
AcDbVertex
100
AcDb2dVertex
 10
121.2038281115186
 20
291.3615562021817
 30
0.0
  0
VERTEX
  5
C2B
330
C20
100
AcDbEntity
  8
0
 62
   253
370
     0
100
AcDbVertex
100
AcDb2dVertex
 10
122.8315451115186
 20
291.2865442021816
 30
0.0
  0
VERTEX
  5
C2C
330
C20
100
AcDbEntity
  8
0
 62
   253
370
     0
100
AcDbVertex
100
AcDb2dVertex
 10
123.7669081115185
 20
291.2750702021817
 30
0.0
  0
SEQEND
  5
C2D
330
C20
100
AcDbEntity
  8
0
 62
   253
370
     0
  0
ARC
  5
C2E
330
1F
100
AcDbEntity
  8
0
 62
   253
370
    35
100
AcDbCircle
 10
176.0050981115185
 20
296.1863252021817
 30
0.0
 40
2.709747999999998
100
AcDbArc
 50
299.0873010000001
 51
302.9996940000004
  0
ARC
  5
C2F
330
1F
100
AcDbEntity
  8
0
 62
   253
370
    35
100
AcDbCircle
 10
111.5374011115185
 20
296.2007292021817
 30
0.0
 40
2.726554
100
AcDbArc
 50
237.0118570000002
 51
240.9021420000001
  0
ARC
  5
C30
330
1F
100
AcDbEntity
  8
0
 62
   253
370
    35
100
AcDbCircle
 10
164.3832721115185
 20
1533.875534202182
 30
0.0
 40
1236.206481
100
AcDbArc
 50
269.971434
 51
270.6436130000001
  0
LINE
  5
C31
330
1F
100
AcDbEntity
  8
0
 62
   253
 48
0.398131
370
    35
100
AcDbLine
 10
147.8416761115186
 20
297.6685632021816
 30
0.0
 11
163.7669081115185
 21
297.6685632021816
 31
0.0
  0
POLYLINE
  5
C32
330
1F
100
AcDbEntity
  8
0
 62
   253
370
    35
100
AcDb2dPolyline
 66
     1
 10
0.0
 20
0.0
 30
0.0
  0
VERTEX
  5
C33
330
C32
100
AcDbEntity
  8
0
 62
   253
370
     0
100
AcDbVertex
100
AcDb2dVertex
 10
147.8416761115186
 20
297.6685632021816
 30
0.0
  0
VERTEX
  5
C34
330
C32
100
AcDbEntity
  8
0
 62
   253
370
     0
100
AcDbVertex
100
AcDb2dVertex
 10
142.5347001115185
 20
297.6750332021817
 30
0.0
  0
VERTEX
  5
C35
330
C32
100
AcDbEntity
  8
0
 62
   253
370
     0
100
AcDbVertex
100
AcDb2dVertex
 10
139.6921401115186
 20
297.6685632021816
 30
0.0
  0
SEQEND
  5
C36
330
C32
100
AcDbEntity
  8
0
 62
   253
370
     0
  0
LINE
  5
C37
330
1F
100
AcDbEntity
  8
0
 62
   253
 48
0.398131
370
    35
100
AcDbLine
 10
123.7669081115185
 20
297.6685632021816
 30
0.0
 11
139.6921401115186
 21
297.6685632021816
 31
0.0
  0
ARC
  5
C38
330
1F
100
AcDbEntity
  8
0
 62
   253
370
    35
100
AcDbCircle
 10
123.1505601115185
 20
1533.877242202182
 30
0.0
 40
1236.208134
100
AcDbArc
 50
269.3563890000003
 51
270.0285679999999
  0
POLYLINE
  5
C39
330
1F
100
AcDbEntity
  8
0
 62
   253
370
    35
100
AcDb2dPolyline
 66
     1
 10
0.0
 20
0.0
 30
0.0
  0
VERTEX
  5
C3A
330
C39
100
AcDbEntity
  8
0
 62
   253
370
     0
100
AcDbVertex
100
AcDb2dVertex
 10
109.2643751115185
 20
297.7478482021817
 30
0.0
  0
VERTEX
  5
C3B
330
C39
100
AcDbEntity
  8
0
 62
   253
370
     0
100
AcDbVertex
100
AcDb2dVertex
 10
108.4887101115185
 20
297.7642362021817
 30
0.0
  0
VERTEX
  5
C3C
330
C39
100
AcDbEntity
  8
0
 62
   253
370
     0
100
AcDbVertex
100
AcDb2dVertex
 10
108.3504651115186
 20
297.7719262021817
 30
0.0
  0
SEQEND
  5
C3D
330
C39
100
AcDbEntity
  8
0
 62
   253
370
     0
  0
LINE
  5
C3E
330
1F
100
AcDbEntity
  8
0
 62
   253
 48
0.022843
370
    35
100
AcDbLine
 10
179.1828321115186
 20
297.7718652021816
 30
0.0
 11
178.2694411115185
 21
297.7478482021817
 31
0.0
  0
LINE
  5
C3F
330
1F
100
AcDbEntity
  8
0
 62
     7
 48
0.000664
370
    35
100
AcDbLine
 10
250.2167681115186
 20
419.6614832021817
 30
0.0
 11
250.2395341115186
 21
419.6478112021816
 31
0.0
  0
ARC
  5
C40
330
1F
100
AcDbEntity
  8
0
 62
     7
370
    35
100
AcDbCircle
 10
251.0413831115186
 20
461.8894502021817
 30
0.0
 40
42.25009199999997
100
AcDbArc
 50
268.9125430000002
 51
270.2686360000001
  0
LINE
  5
C41
330
1F
100
AcDbEntity
  8
0
 62
     7
 48
0.036801
370
    35
100
AcDbLine
 10
251.2394731115186
 20
419.6388392021813
 30
0.0
 11
252.7115191115186
 21
419.6343842021816
 31
0.0
  0
LINE
  5
C42
330
1F
100
AcDbEntity
  8
0
 62
     7
 48
0.011649
370
    35
100
AcDbLine
 10
252.7115191115186
 20
419.6343842021816
 30
0.0
 11
253.1774611115185
 21
419.6324612021816
 31
0.0
  0
ARC
  5
C43
330
1F
100
AcDbEntity
  8
0
 62
     7
370
    35
100
AcDbCircle
 10
253.2591571115186
 20
402.6963042021816
 30
0.0
 40
16.935699
100
AcDbArc
 50
88.46960999999994
 51
90.27631099999979
  0
LINE
  5
C44
330
1F
100
AcDbEntity
  8
0
 62
     7
 48
0.001617
370
    35
100
AcDbLine
 10
253.7669081115186
 20
419.5921472021816
 30
0.0
 11
253.7114271115185
 21
419.6254112021817
 31
0.0
  0
LINE
  5
C45
330
1F
100
AcDbEntity
  8
0
 62
     7
 48
0.001436
370
    35
100
AcDbLine
 10
252.8403031115186
 20
429.9727632021816
 30
0.0
 11
252.7934591115186
 21
429.9394982021816
 31
0.0
  0
ARC
  5
C46
330
1F
100
AcDbEntity
  8
0
 62
     7
370
    35
100
AcDbCircle
 10
252.3161031115186
 20
449.0838462021817
 30
0.0
 40
19.150881
100
AcDbArc
 50
269.7297820000003
 51
271.4282790000003
  0
LINE
  5
C47
330
1F
100
AcDbEntity
  8
0
 62
     7
 48
0.012484
370
    35
100
AcDbLine
 10
252.2258011115185
 20
429.9324492021817
 30
0.0
 11
251.7264421115186
 21
429.9305262021817
 31
0.0
  0
LINE
  5
C48
330
1F
100
AcDbEntity
  8
0
 62
     7
 48
0.049251
370
    35
100
AcDbLine
 10
251.7264421115186
 20
429.9305262021817
 30
0.0
 11
249.7564101115185
 21
429.9250332021816
 31
0.0
  0
ARC
  5
C49
330
1F
100
AcDbEntity
  8
0
 62
     7
370
    35
100
AcDbCircle
 10
249.5671101115186
 20
371.5444792021817
 30
0.0
 40
58.38
100
AcDbArc
 50
89.8142009999997
 51
90.92452299999958
  0
LINE
  5
C4A
330
1F
100
AcDbEntity
  8
0
 62
     7
 48
0.000528
370
    35
100
AcDbLine
 10
248.6251241115186
 20
429.9160002021816
 30
0.0
 11
248.6081561115186
 21
429.9034272021816
 31
0.0
  0
LINE
  5
C4B
330
1F
100
AcDbEntity
  8
0
 62
     7
370
    35
100
AcDbLine
 10
253.7669081115186
 20
419.5921472021816
 30
0.0
 11
253.7669081115186
 21
267.9727632021817
 31
0.0
  0
LINE
  5
C4C
330
1F
100
AcDbEntity
  8
0
 62
     7
 48
0.001617
370
    35
100
AcDbLine
 10
253.7669081115186
 20
267.9727632021817
 30
0.0
 11
253.7114271115185
 21
267.9394982021817
 31
0.0
  0
LINE
  5
C4D
330
1F
100
AcDbEntity
  8
0
 62
     7
 48
0.011649
370
    35
100
AcDbLine
 10
253.1774611115185
 20
267.9324492021817
 30
0.0
 11
252.7115191115186
 21
267.9305262021817
 31
0.0
  0
ARC
  5
C4E
330
1F
100
AcDbEntity
  8
0
 62
     7
370
    35
100
AcDbCircle
 10
253.2591571115186
 20
284.8686982021817
 30
0.0
 40
16.93578299999999
100
AcDbArc
 50
269.7236960000002
 51
271.53039
  0
LINE
  5
C4F
330
1F
100
AcDbEntity
  8
0
 62
     7
 48
0.036801
370
    35
100
AcDbLine
 10
251.2394731115186
 20
267.9260712021817
 30
0.0
 11
252.7115191115186
 21
267.9305262021817
 31
0.0
  0
LINE
  5
C50
330
1F
100
AcDbEntity
  8
0
 62
     7
370
    35
100
AcDbLine
 10
250.2395341115186
 20
267.9170982021817
 30
0.0
 11
250.2395341115186
 21
419.6478112021816
 31
0.0
  0
ARC
  5
C51
330
1F
100
AcDbEntity
  8
0
 62
     7
370
    35
100
AcDbCircle
 10
251.0413831115186
 20
225.6753992021816
 30
0.0
 40
42.250146
100
AcDbArc
 50
89.73137100000037
 51
91.08745699999982
  0
POLYLINE
  5
C54
330
1F
100
AcDbEntity
  8
0
 62
     7
370
    35
100
AcDb2dPolyline
 66
     1
 10
0.0
 20
0.0
 30
0.0
  0
VERTEX
  5
C55
330
C54
100
AcDbEntity
  8
0
370
     0
100
AcDbVertex
100
AcDb2dVertex
 10
250.1774311115185
 20
423.7824552021817
 30
0.0
  0
VERTEX
  5
C56
330
C54
100
AcDbEntity
  8
0
370
     0
100
AcDbVertex
100
AcDb2dVertex
 10
250.1893941115186
 20
421.1835172021816
 30
0.0
  0
VERTEX
  5
C57
330
C54
100
AcDbEntity
  8
0
370
     0
100
AcDbVertex
100
AcDb2dVertex
 10
250.2117941115186
 20
419.7548062021816
 30
0.0
  0
VERTEX
  5
C58
330
C54
100
AcDbEntity
  8
0
370
     0
100
AcDbVertex
100
AcDb2dVertex
 10
250.2167681115186
 20
419.6614832021817
 30
0.0
  0
SEQEND
  5
C59
330
C54
100
AcDbEntity
  8
0
370
     0
  0
LINE
  5
C5A
330
1F
100
AcDbEntity
  8
0
 62
     7
 48
0.000664
370
    35
100
AcDbLine
 10
250.2167681115186
 20
267.9034272021817
 30
0.0
 11
250.2395341115186
 21
267.9170982021817
 31
0.0
  0
POLYLINE
  5
C5B
330
1F
100
AcDbEntity
  8
0
 62
     7
370
    35
100
AcDb2dPolyline
 66
     1
 10
0.0
 20
0.0
 30
0.0
  0
VERTEX
  5
C5C
330
C5B
100
AcDbEntity
  8
0
370
     0
100
AcDbVertex
100
AcDb2dVertex
 10
250.2167681115186
 20
267.9034272021817
 30
0.0
  0
VERTEX
  5
C5D
330
C5B
100
AcDbEntity
  8
0
370
     0
100
AcDbVertex
100
AcDb2dVertex
 10
250.2098101115186
 20
267.7545312021818
 30
0.0
  0
VERTEX
  5
C5E
330
C5B
100
AcDbEntity
  8
0
370
     0
100
AcDbVertex
100
AcDb2dVertex
 10
250.1969621115186
 20
267.0948632021817
 30
0.0
  0
VERTEX
  5
C5F
330
C5B
100
AcDbEntity
  8
0
370
     0
100
AcDbVertex
100
AcDb2dVertex
 10
250.1803601115186
 20
264.8532562021817
 30
0.0
  0
VERTEX
  5
C60
330
C5B
100
AcDbEntity
  8
0
370
     0
100
AcDbVertex
100
AcDb2dVertex
 10
250.1771871115186
 20
261.9374542021817
 30
0.0
  0
VERTEX
  5
C61
330
C5B
100
AcDbEntity
  8
0
370
     0
100
AcDbVertex
100
AcDb2dVertex
 10
250.1884481115186
 20
259.2967982021816
 30
0.0
  0
VERTEX
  5
C62
330
C5B
100
AcDbEntity
  8
0
370
     0
100
AcDbVertex
100
AcDb2dVertex
 10
250.2104511115185
 20
257.7909392021817
 30
0.0
  0
VERTEX
  5
C63
330
C5B
100
AcDbEntity
  8
0
370
     0
100
AcDbVertex
100
AcDb2dVertex
 10
250.2167681115186
 20
257.6614832021817
 30
0.0
  0
SEQEND
  5
C64
330
C5B
100
AcDbEntity
  8
0
370
     0
  0
LINE
  5
C65
330
1F
100
AcDbEntity
  8
0
 62
     7
 48
0.000664
370
    35
100
AcDbLine
 10
250.2167681115186
 20
257.6614832021817
 30
0.0
 11
250.2395341115186
 21
257.6478112021816
 31
0.0
  0
LINE
  5
C66
330
1F
100
AcDbEntity
  8
0
 62
     7
370
    35
100
AcDbLine
 10
250.2395341115186
 20
24.91708320218169
 30
0.0
 11
250.2395341115186
 21
257.6478112021816
 31
0.0
  0
LINE
  5
C67
330
1F
100
AcDbEntity
  8
0
 62
     7
 48
0.000664
370
    35
100
AcDbLine
 10
250.2167681115186
 20
24.9034112021817
 30
0.0
 11
250.2395341115186
 21
24.91708320218169
 31
0.0
  0
POLYLINE
  5
C68
330
1F
100
AcDbEntity
  8
0
 62
     7
370
    35
100
AcDb2dPolyline
 66
     1
 10
0.0
 20
0.0
 30
0.0
  0
VERTEX
  5
C69
330
C68
100
AcDbEntity
  8
0
370
     0
100
AcDbVertex
100
AcDb2dVertex
 10
250.1774311115185
 20
20.78245520218168
 30
0.0
  0
VERTEX
  5
C6A
330
C68
100
AcDbEntity
  8
0
370
     0
100
AcDbVertex
100
AcDb2dVertex
 10
250.1893941115186
 20
23.38140820218169
 30
0.0
  0
VERTEX
  5
C6B
330
C68
100
AcDbEntity
  8
0
370
     0
100
AcDbVertex
100
AcDb2dVertex
 10
250.2117941115186
 20
24.81010420218168
 30
0.0
  0
VERTEX
  5
C6C
330
C68
100
AcDbEntity
  8
0
370
     0
100
AcDbVertex
100
AcDb2dVertex
 10
250.2167681115186
 20
24.9034112021817
 30
0.0
  0
SEQEND
  5
C6D
330
C68
100
AcDbEntity
  8
0
370
     0
  0
POLYLINE
  5
C6E
330
1F
100
AcDbEntity
  8
0
 62
     7
370
    35
100
AcDb2dPolyline
 66
     1
 10
0.0
 20
0.0
 30
0.0
  0
VERTEX
  5
C6F
330
C6E
100
AcDbEntity
  8
0
370
     0
100
AcDbVertex
100
AcDb2dVertex
 10
248.6081561115186
 20
429.9034272021816
 30
0.0
  0
VERTEX
  5
C70
330
C6E
100
AcDbEntity
  8
0
370
     0
100
AcDbVertex
100
AcDb2dVertex
 10
248.7618731115186
 20
429.5989222021817
 30
0.0
  0
VERTEX
  5
C71
330
C6E
100
AcDbEntity
  8
0
370
     0
100
AcDbVertex
100
AcDb2dVertex
 10
249.0365011115186
 20
429.0245202021816
 30
0.0
  0
VERTEX
  5
C72
330
C6E
100
AcDbEntity
  8
0
370
     0
100
AcDbVertex
100
AcDb2dVertex
 10
249.3486951115186
 20
428.2723232021814
 30
0.0
  0
VERTEX
  5
C73
330
C6E
100
AcDbEntity
  8
0
370
     0
100
AcDbVertex
100
AcDb2dVertex
 10
249.6483781115185
 20
427.3859712021816
 30
0.0
  0
VERTEX
  5
C74
330
C6E
100
AcDbEntity
  8
0
370
     0
100
AcDbVertex
100
AcDb2dVertex
 10
249.7816791115186
 20
426.9041282021817
 30
0.0
  0
VERTEX
  5
C75
330
C6E
100
AcDbEntity
  8
0
370
     0
100
AcDbVertex
100
AcDb2dVertex
 10
249.8992941115186
 20
426.4020232021817
 30
0.0
  0
VERTEX
  5
C76
330
C6E
100
AcDbEntity
  8
0
370
     0
100
AcDbVertex
100
AcDb2dVertex
 10
250.0478231115186
 20
425.5691372021816
 30
0.0
  0
VERTEX
  5
C77
330
C6E
100
AcDbEntity
  8
0
370
     0
100
AcDbVertex
100
AcDb2dVertex
 10
250.1415731115186
 20
424.7140652021816
 30
0.0
  0
VERTEX
  5
C78
330
C6E
100
AcDbEntity
  8
0
370
     0
100
AcDbVertex
100
AcDb2dVertex
 10
250.1774311115185
 20
423.7824552021817
 30
0.0
  0
SEQEND
  5
C79
330
C6E
100
AcDbEntity
  8
0
370
     0
  0
LINE
  5
C7B
330
1F
100
AcDbEntity
  8
0
 62
     7
370
    35
100
AcDbLine
 10
238.7669081115186
 20
439.7824552021813
 30
0.0
 11
48.76690811151857
 21
439.7824552021813
 31
0.0
  0
ARC
  5
C7D
330
1F
100
AcDbEntity
  8
0
 62
     7
370
    35
100
AcDbCircle
 10
237.7613541115186
 20
423.7769312021816
 30
0.0
 40
12.478362
100
AcDbArc
 50
29.4706239999999
 51
86.0142590000003
  0
ARC
  5
C7E
330
1F
100
AcDbEntity
  8
0
 62
     7
370
    35
100
AcDbCircle
 10
237.7669081115186
 20
423.8553312021814
 30
0.0
 40
12.399775
100
AcDbArc
 50
86.01460799999966
 51
90.00000300000015
  0
POLYLINE
  5
C7F
330
1F
100
AcDbEntity
  8
0
 62
     7
370
    35
100
AcDb2dPolyline
 66
     1
 10
0.0
 20
0.0
 30
0.0
  0
VERTEX
  5
C80
330
C7F
100
AcDbEntity
  8
0
370
     0
100
AcDbVertex
100
AcDb2dVertex
 10
248.6081561115186
 20
14.66149820218169
 30
0.0
  0
VERTEX
  5
C81
330
C7F
100
AcDbEntity
  8
0
370
     0
100
AcDbVertex
100
AcDb2dVertex
 10
248.7618731115186
 20
14.96600320218168
 30
0.0
  0
VERTEX
  5
C82
330
C7F
100
AcDbEntity
  8
0
370
     0
100
AcDbVertex
100
AcDb2dVertex
 10
249.0365011115186
 20
15.54038920218168
 30
0.0
  0
VERTEX
  5
C83
330
C7F
100
AcDbEntity
  8
0
370
     0
100
AcDbVertex
100
AcDb2dVertex
 10
249.3486951115186
 20
16.29258720218169
 30
0.0
  0
VERTEX
  5
C84
330
C7F
100
AcDbEntity
  8
0
370
     0
100
AcDbVertex
100
AcDb2dVertex
 10
249.6483781115185
 20
17.17892420218169
 30
0.0
  0
VERTEX
  5
C85
330
C7F
100
AcDbEntity
  8
0
370
     0
100
AcDbVertex
100
AcDb2dVertex
 10
249.7816791115186
 20
17.66078120218168
 30
0.0
  0
VERTEX
  5
C86
330
C7F
100
AcDbEntity
  8
0
370
     0
100
AcDbVertex
100
AcDb2dVertex
 10
249.8992941115186
 20
18.16290220218168
 30
0.0
  0
VERTEX
  5
C87
330
C7F
100
AcDbEntity
  8
0
370
     0
100
AcDbVertex
100
AcDb2dVertex
 10
250.0478231115186
 20
18.99575720218168
 30
0.0
  0
VERTEX
  5
C88
330
C7F
100
AcDbEntity
  8
0
370
     0
100
AcDbVertex
100
AcDb2dVertex
 10
250.1415731115186
 20
19.85084520218169
 30
0.0
  0
VERTEX
  5
C89
330
C7F
100
AcDbEntity
  8
0
370
     0
100
AcDbVertex
100
AcDb2dVertex
 10
250.1774311115185
 20
20.78245520218168
 30
0.0
  0
SEQEND
  5
C8A
330
C7F
100
AcDbEntity
  8
0
370
     0
  0
LINE
  5
C8B
330
1F
100
AcDbEntity
  8
0
 62
     7
 48
0.000528
370
    35
100
AcDbLine
 10
248.6081561115186
 20
14.66149820218169
 30
0.0
 11
248.6251241115186
 21
14.64891020218168
 31
0.0
  0
ARC
  5
C8C
330
1F
100
AcDbEntity
  8
0
 62
     7
370
    35
100
AcDbCircle
 10
237.7613541115186
 20
20.78797920218168
 30
0.0
 40
12.478362
100
AcDbArc
 50
273.9857409999997
 51
330.529373
  0
ARC
  5
C8D
330
1F
100
AcDbEntity
  8
0
 62
     7
370
    35
100
AcDbCircle
 10
237.7669081115186
 20
20.70959420218168
 30
0.0
 40
12.399771
100
AcDbArc
 50
269.9999969999999
 51
273.9854129999999
  0
LINE
  5
C8E
330
1F
100
AcDbEntity
  8
0
 62
     7
 48
0.001618
370
    35
100
AcDbLine
 10
253.7669081115186
 20
24.97277820218168
 30
0.0
 11
253.7114271115185
 21
24.93948320218168
 31
0.0
  0
ARC
  5
C8F
330
1F
100
AcDbEntity
  8
0
 62
     7
370
    35
100
AcDbCircle
 10
253.2591571115186
 20
41.86868220218168
 30
0.0
 40
16.93578299999999
100
AcDbArc
 50
269.7236960000002
 51
271.53039
  0
LINE
  5
C90
330
1F
100
AcDbEntity
  8
0
 62
     7
 48
0.011649
370
    35
100
AcDbLine
 10
253.1774611115185
 20
24.93244920218169
 30
0.0
 11
252.7115191115186
 21
24.93051120218169
 31
0.0
  0
LINE
  5
C91
330
1F
100
AcDbEntity
  8
0
 62
     7
 48
0.036801
370
    35
100
AcDbLine
 10
251.2394731115186
 20
24.9260552021817
 30
0.0
 11
252.7115191115186
 21
24.93051120218169
 31
0.0
  0
ARC
  5
C92
330
1F
100
AcDbEntity
  8
0
 62
     7
370
    35
100
AcDbCircle
 10
251.0413831115186
 20
-17.32460079781831
 30
0.0
 40
42.250146
100
AcDbArc
 50
89.73137100000037
 51
91.08745699999982
  0
ARC
  5
C93
330
1F
100
AcDbEntity
  8
0
 62
     7
370
    35
100
AcDbCircle
 10
251.0413831115186
 20
299.8894502021817
 30
0.0
 40
42.250091
100
AcDbArc
 50
268.9125430000002
 51
270.2686360000001
  0
LINE
  5
C94
330
1F
100
AcDbEntity
  8
0
 62
     7
 48
0.036801
370
    35
100
AcDbLine
 10
251.2394731115186
 20
257.6388392021816
 30
0.0
 11
252.7115191115186
 21
257.6343842021817
 31
0.0
  0
LINE
  5
C95
330
1F
100
AcDbEntity
  8
0
 62
     7
 48
0.011649
370
    35
100
AcDbLine
 10
252.7115191115186
 20
257.6343842021817
 30
0.0
 11
253.1774611115185
 21
257.6324612021817
 31
0.0
  0
ARC
  5
C96
330
1F
100
AcDbEntity
  8
0
 62
     7
370
    35
100
AcDbCircle
 10
253.2591571115186
 20
240.6963042021817
 30
0.0
 40
16.935699
100
AcDbArc
 50
88.46960999999994
 51
90.27631099999979
  0
LINE
  5
C97
330
1F
100
AcDbEntity
  8
0
 62
     7
 48
0.001617
370
    35
100
AcDbLine
 10
253.7669081115186
 20
257.5921472021816
 30
0.0
 11
253.7114271115185
 21
257.6254112021817
 31
0.0
  0
LINE
  5
C98
330
1F
100
AcDbEntity
  8
0
 62
     7
 48
0.021027
370
    35
100
AcDbLine
 10
247.9588941115186
 20
423.0707852021817
 30
0.0
 11
247.9586811115185
 21
423.9118492021813
 31
0.0
  0
LINE
  5
C99
330
1F
100
AcDbEntity
  8
0
 62
     7
 48
0.174508
370
    35
100
AcDbLine
 10
247.9596571115186
 20
423.0707852021817
 30
0.0
 11
247.9596571115186
 21
416.0904692021817
 31
0.0
  0
LINE
  5
C9A
330
1F
100
AcDbEntity
  8
0
 62
     7
 48
0.049998
370
    13
100
AcDbLine
 10
250.2395341115186
 20
271.0284882021816
 30
0.0
 11
248.0643631115186
 21
271.0284882021816
 31
0.0
  0
LINE
  5
C9B
330
1F
100
AcDbEntity
  8
0
 62
     7
 48
0.049998
370
    13
100
AcDbLine
 10
250.0643021115186
 20
21.38941920218169
 30
0.0
 11
248.0643631115186
 21
21.38941920218169
 31
0.0
  0
LINE
  5
C9E
330
1F
100
AcDbEntity
  8
0
 62
     7
 48
0.001387
370
    13
100
AcDbLine
 10
48.76690811151857
 20
439.7269742021816
 30
0.0
 11
48.76690811151857
 21
439.7824552021813
 31
0.0
  0
LINE
  5
C9F
330
1F
100
AcDbEntity
  8
0
 62
     7
 48
0.001436
370
    35
100
AcDbLine
 10
34.74035811151859
 20
429.9394982021816
 30
0.0
 11
34.69351411151857
 21
429.9727632021816
 31
0.0
  0
LINE
  5
CA0
330
1F
100
AcDbEntity
  8
0
 62
     7
 48
0.000528
370
    35
100
AcDbLine
 10
38.92566111151857
 20
429.9034272021816
 30
0.0
 11
38.90867811151859
 21
429.9160002021816
 31
0.0
  0
ARC
  5
CA1
330
1F
100
AcDbEntity
  8
0
 62
     7
370
    35
100
AcDbCircle
 10
37.96672211151858
 20
371.5439602021817
 30
0.0
 40
58.380538
100
AcDbArc
 50
89.07548899999978
 51
90.18581099999961
  0
LINE
  5
CA2
330
1F
100
AcDbEntity
  8
0
 62
     7
 48
0.049251
370
    35
100
AcDbLine
 10
37.77739111151857
 20
429.9250332021816
 30
0.0
 11
35.80737511151858
 21
429.9305262021817
 31
0.0
  0
LINE
  5
CA3
330
1F
100
AcDbEntity
  8
0
 62
     7
 48
0.012484
370
    35
100
AcDbLine
 10
35.80737511151858
 20
429.9305262021817
 30
0.0
 11
35.30801611151856
 21
429.9324492021817
 31
0.0
  0
ARC
  5
CA4
330
1F
100
AcDbEntity
  8
0
 62
     7
370
    35
100
AcDbCircle
 10
35.21655411151858
 20
449.1566612021816
 30
0.0
 40
19.223707
100
AcDbArc
 50
268.5805270000001
 51
270.2725899999998
  0
LINE
  5
CA5
330
1F
100
AcDbEntity
  8
0
 62
     7
370
    35
100
AcDbLine
 10
237.7669081115186
 20
436.2550502021816
 30
0.0
 11
49.76690811151858
 21
436.2550502021816
 31
0.0
  0
ARC
  5
CA6
330
1F
100
AcDbEntity
  8
0
 62
     7
370
    35
100
AcDbCircle
 10
238.8016981115185
 20
424.7661592021817
 30
0.0
 40
9.156788999999999
100
AcDbArc
 50
0.1018680000001997
 51
21.19673899999986
  0
LINE
  5
CA7
330
1F
100
AcDbEntity
  8
0
 62
     7
 48
0.021765
370
    35
100
AcDbLine
 10
247.9586811115185
 20
423.9118492021813
 30
0.0
 11
247.9579181115186
 21
424.7824552021817
 31
0.0
  0
ARC
  5
CA8
330
1F
100
AcDbEntity
  8
0
 62
     7
370
    35
100
AcDbCircle
 10
249.5670791115185
 20
73.02095020218169
 30
0.0
 40
58.380538
100
AcDbArc
 50
269.0754900000003
 51
270.1858129999999
  0
LINE
  5
CA9
330
1F
100
AcDbEntity
  8
0
 62
     7
 48
0.049251
370
    35
100
AcDbLine
 10
249.7564101115185
 20
14.63987720218169
 30
0.0
 11
251.7264421115186
 21
14.63439920218168
 31
0.0
  0
LINE
  5
CAA
330
1F
100
AcDbEntity
  8
0
 62
     7
 48
0.012484
370
    35
100
AcDbLine
 10
251.7264421115186
 20
14.63439920218168
 30
0.0
 11
252.2258011115185
 21
14.63246120218169
 31
0.0
  0
ARC
  5
CAB
330
1F
100
AcDbEntity
  8
0
 62
     7
370
    35
100
AcDbCircle
 10
252.3172621115186
 20
-4.591766797818323
 30
0.0
 40
19.223707
100
AcDbArc
 50
88.58052499999987
 51
90.2725890000001
  0
LINE
  5
CAC
330
1F
100
AcDbEntity
  8
0
 62
     7
 48
0.001437
370
    35
100
AcDbLine
 10
252.7934591115186
 20
14.62542720218168
 30
0.0
 11
252.8403031115186
 21
14.59213220218169
 31
0.0
  0
LINE
  5
CAD
330
1F
100
AcDbEntity
  8
0
 62
     7
370
    35
100
AcDbLine
 10
237.7669081115186
 20
8.309829202181674
 30
0.0
 11
49.76690811151858
 21
8.309829202181674
 31
0.0
  0
LINE
  5
CB0
330
1F
100
AcDbEntity
  8
0
 62
     7
370
    35
100
AcDbLine
 10
253.7669081115186
 20
257.5921472021816
 30
0.0
 11
253.7669081115186
 21
24.97277820218168
 31
0.0
  0
ARC
  5
CB4
330
1F
100
AcDbEntity
  8
0
 62
     7
370
    35
100
AcDbCircle
 10
40.07492211151856
 20
416.0904692021817
 30
0.0
 40
0.5
100
AcDbArc
 50
180.0000050000001
 51
269.9999969999999
  0
ARC
  5
CB5
330
1F
100
AcDbEntity
  8
0
 62
     7
370
    35
100
AcDbCircle
 10
247.4588941115186
 20
416.0904692021817
 30
0.0
 40
0.5
100
AcDbArc
 50
269.9999969999999
 51
0.0
  0
LINE
  5
CB6
330
1F
100
AcDbEntity
  8
0
 62
     7
 48
0.2173
370
    35
100
AcDbLine
 10
238.7669081115186
 20
415.5904692021817
 30
0.0
 11
247.4588941115186
 21
415.5904692021817
 31
0.0
  0
ARC
  5
CB7
330
1F
100
AcDbEntity
  8
0
 62
     7
370
    35
100
AcDbCircle
 10
238.7669081115186
 20
424.7824552021817
 30
0.0
 40
9.191990999999999
100
AcDbArc
 50
180.000009
 51
269.9999969999999
  0
LINE
  5
CB8
330
1F
100
AcDbEntity
  8
0
 62
     7
370
    13
100
AcDbLine
 10
229.7356891115185
 20
423.0707852021817
 30
0.0
 11
153.3406391115186
 21
423.0707852021817
 31
0.0
  0
ARC
  5
CB9
330
1F
100
AcDbEntity
  8
0
 62
     7
370
    13
100
AcDbCircle
 10
143.7669081115186
 20
413.1269982021816
 30
0.0
 40
13.803461
100
AcDbArc
 50
46.08618900000037
 51
133.9138090000001
  0
LINE
  5
CBA
330
1F
100
AcDbEntity
  8
0
 62
     7
370
    13
100
AcDbLine
 10
134.1931781115185
 20
423.0707852021817
 30
0.0
 11
57.79812811151856
 21
423.0707852021817
 31
0.0
  0
ARC
  5
CBB
330
1F
100
AcDbEntity
  8
0
 62
     7
370
    35
100
AcDbCircle
 10
48.76690811151857
 20
424.7824552021817
 30
0.0
 40
9.191990999999999
100
AcDbArc
 50
269.9999969999999
 51
359.9999960000002
  0
LINE
  5
CBC
330
1F
100
AcDbEntity
  8
0
 62
     7
 48
0.2173
370
    35
100
AcDbLine
 10
48.76690811151857
 20
415.5904692021817
 30
0.0
 11
40.07492211151856
 21
415.5904692021817
 31
0.0
  0
LINE
  5
CBD
330
1F
100
AcDbEntity
  8
0
 62
     7
 48
0.35
370
    35
100
AcDbLine
 10
201.7669081115186
 20
399.7824552021817
 30
0.0
 11
201.7669081115186
 21
413.7824552021815
 31
0.0
  0
ARC
  5
CBE
330
1F
100
AcDbEntity
  8
0
 62
     7
370
    35
100
AcDbCircle
 10
203.7669081115186
 20
413.7824552021815
 30
0.0
 40
2.0
100
AcDbArc
 50
90.00000300000015
 51
180.0000050000001
  0
LINE
  5
CBF
330
1F
100
AcDbEntity
  8
0
 62
     7
370
    35
100
AcDbLine
 10
226.7669081115186
 20
415.7824552021817
 30
0.0
 11
203.7669081115186
 21
415.7824552021817
 31
0.0
  0
ARC
  5
CC0
330
1F
100
AcDbEntity
  8
0
 62
     7
370
    35
100
AcDbCircle
 10
226.7669081115186
 20
413.7824552021815
 30
0.0
 40
2.0
100
AcDbArc
 50
0.0
 51
90.00000300000015
  0
LINE
  5
CC1
330
1F
100
AcDbEntity
  8
0
 62
     7
 48
0.35
370
    35
100
AcDbLine
 10
228.7669081115186
 20
413.7824552021815
 30
0.0
 11
228.7669081115186
 21
399.7824552021817
 31
0.0
  0
ARC
  5
CC2
330
1F
100
AcDbEntity
  8
0
 62
     7
370
    35
100
AcDbCircle
 10
226.7669081115186
 20
399.7824552021817
 30
0.0
 40
2.0
100
AcDbArc
 50
269.9999969999999
 51
0.0
  0
LINE
  5
CC3
330
1F
100
AcDbEntity
  8
0
 62
     7
370
    35
100
AcDbLine
 10
203.7669081115186
 20
397.7824552021817
 30
0.0
 11
226.7669081115186
 21
397.7824552021817
 31
0.0
  0
ARC
  5
CC4
330
1F
100
AcDbEntity
  8
0
 62
     7
370
    35
100
AcDbCircle
 10
203.7669081115186
 20
399.7824552021817
 30
0.0
 40
2.0
100
AcDbArc
 50
180.0000050000001
 51
269.9999969999999
  0
LINE
  5
CC5
330
1F
100
AcDbEntity
  8
0
 62
     7
370
    35
100
AcDbLine
 10
37.29428311151858
 20
272.0271142021817
 30
0.0
 11
250.2395341115186
 21
272.0271142021817
 31
0.0
  0
LINE
  5
CC6
330
1F
100
AcDbEntity
  8
0
 62
     7
370
    35
100
AcDbLine
 10
39.46945311151859
 20
271.0284882021816
 30
0.0
 11
248.0643631115186
 21
271.0284882021816
 31
0.0
  0
POLYLINE
  5
CC7
330
1F
100
AcDbEntity
  8
0
 62
     7
370
    35
100
AcDb2dPolyline
 66
     1
 10
0.0
 20
0.0
 30
0.0
  0
VERTEX
  5
CC8
330
CC7
100
AcDbEntity
  8
0
370
     0
100
AcDbVertex
100
AcDb2dVertex
 10
37.35638611151857
 20
423.7824552021817
 30
0.0
  0
VERTEX
  5
CC9
330
CC7
100
AcDbEntity
  8
0
370
     0
100
AcDbVertex
100
AcDb2dVertex
 10
37.34443811151857
 20
421.1835172021816
 30
0.0
  0
VERTEX
  5
CCA
330
CC7
100
AcDbEntity
  8
0
370
     0
100
AcDbVertex
100
AcDb2dVertex
 10
37.32202311151858
 20
419.7548062021816
 30
0.0
  0
VERTEX
  5
CCB
330
CC7
100
AcDbEntity
  8
0
370
     0
100
AcDbVertex
100
AcDb2dVertex
 10
37.31704911151857
 20
419.6614832021817
 30
0.0
  0
SEQEND
  5
CCC
330
CC7
100
AcDbEntity
  8
0
370
     0
  0
POLYLINE
  5
CCD
330
1F
100
AcDbEntity
  8
0
 62
     7
370
    35
100
AcDb2dPolyline
 66
     1
 10
0.0
 20
0.0
 30
0.0
  0
VERTEX
  5
CCE
330
CCD
100
AcDbEntity
  8
0
370
     0
100
AcDbVertex
100
AcDb2dVertex
 10
38.92566111151857
 20
429.9034272021816
 30
0.0
  0
VERTEX
  5
CCF
330
CCD
100
AcDbEntity
  8
0
370
     0
100
AcDbVertex
100
AcDb2dVertex
 10
38.77194411151857
 20
429.5989222021817
 30
0.0
  0
VERTEX
  5
CD0
330
CCD
100
AcDbEntity
  8
0
370
     0
100
AcDbVertex
100
AcDb2dVertex
 10
38.49730111151857
 20
429.0245202021816
 30
0.0
  0
VERTEX
  5
CD1
330
CCD
100
AcDbEntity
  8
0
370
     0
100
AcDbVertex
100
AcDb2dVertex
 10
38.18512111151859
 20
428.2723232021814
 30
0.0
  0
VERTEX
  5
CD2
330
CCD
100
AcDbEntity
  8
0
370
     0
100
AcDbVertex
100
AcDb2dVertex
 10
37.88543911151857
 20
427.3859712021816
 30
0.0
  0
VERTEX
  5
CD3
330
CCD
100
AcDbEntity
  8
0
370
     0
100
AcDbVertex
100
AcDb2dVertex
 10
37.75213811151858
 20
426.9041282021817
 30
0.0
  0
VERTEX
  5
CD4
330
CCD
100
AcDbEntity
  8
0
370
     0
100
AcDbVertex
100
AcDb2dVertex
 10
37.63452311151858
 20
426.4020232021817
 30
0.0
  0
VERTEX
  5
CD5
330
CCD
100
AcDbEntity
  8
0
370
     0
100
AcDbVertex
100
AcDb2dVertex
 10
37.48599411151858
 20
425.5691372021816
 30
0.0
  0
VERTEX
  5
CD6
330
CCD
100
AcDbEntity
  8
0
370
     0
100
AcDbVertex
100
AcDb2dVertex
 10
37.39224411151858
 20
424.7140652021816
 30
0.0
  0
VERTEX
  5
CD7
330
CCD
100
AcDbEntity
  8
0
370
     0
100
AcDbVertex
100
AcDb2dVertex
 10
37.35638611151857
 20
423.7824552021817
 30
0.0
  0
SEQEND
  5
CD8
330
CCD
100
AcDbEntity
  8
0
370
     0
  0
ARC
  5
CD9
330
1F
100
AcDbEntity
  8
0
 62
     7
370
    35
100
AcDbCircle
 10
49.77244711151858
 20
423.7769312021816
 30
0.0
 40
12.478362
100
AcDbArc
 50
93.98573900000021
 51
150.5293780000001
  0
ARC
  5
CDA
330
1F
100
AcDbEntity
  8
0
 62
     7
370
    35
100
AcDbCircle
 10
49.76690811151858
 20
423.8553312021814
 30
0.0
 40
12.399771
100
AcDbArc
 50
90.00000300000015
 51
93.98541100000038
  0
POLYLINE
  5
CDB
330
1F
100
AcDbEntity
  8
0
 62
     7
370
    35
100
AcDb2dPolyline
 66
     1
 10
0.0
 20
0.0
 30
0.0
  0
VERTEX
  5
CDC
330
CDB
100
AcDbEntity
  8
0
370
     0
100
AcDbVertex
100
AcDb2dVertex
 10
48.76690811151857
 20
433.9234462021817
 30
0.0
  0
VERTEX
  5
CDD
330
CDB
100
AcDbEntity
  8
0
370
     0
100
AcDbVertex
100
AcDb2dVertex
 10
47.96200711151857
 20
433.8884122021815
 30
0.0
  0
VERTEX
  5
CDE
330
CDB
100
AcDbEntity
  8
0
370
     0
100
AcDbVertex
100
AcDb2dVertex
 10
47.17155611151857
 20
433.7849572021815
 30
0.0
  0
VERTEX
  5
CDF
330
CDB
100
AcDbEntity
  8
0
370
     0
100
AcDbVertex
100
AcDb2dVertex
 10
46.40619111151853
 20
433.6173552021817
 30
0.0
  0
VERTEX
  5
CE0
330
CDB
100
AcDbEntity
  8
0
370
     0
100
AcDbVertex
100
AcDb2dVertex
 10
45.60357811151857
 20
433.3659202021816
 30
0.0
  0
VERTEX
  5
CE1
330
CDB
100
AcDbEntity
  8
0
370
     0
100
AcDbVertex
100
AcDb2dVertex
 10
44.84150911151857
 20
433.0490562021816
 30
0.0
  0
VERTEX
  5
CE2
330
CDB
100
AcDbEntity
  8
0
370
     0
100
AcDbVertex
100
AcDb2dVertex
 10
44.12185811151857
 20
432.6715542021816
 30
0.0
  0
VERTEX
  5
CE3
330
CDB
100
AcDbEntity
  8
0
370
     0
100
AcDbVertex
100
AcDb2dVertex
 10
43.44540611151859
 20
432.2369232021816
 30
0.0
  0
VERTEX
  5
CE4
330
CDB
100
AcDbEntity
  8
0
370
     0
100
AcDbVertex
100
AcDb2dVertex
 10
42.84991611151855
 20
431.7785792021815
 30
0.0
  0
VERTEX
  5
CE5
330
CDB
100
AcDbEntity
  8
0
370
     0
100
AcDbVertex
100
AcDb2dVertex
 10
42.29355011151858
 20
431.2725672021817
 30
0.0
  0
VERTEX
  5
CE6
330
CDB
100
AcDbEntity
  8
0
370
     0
100
AcDbVertex
100
AcDb2dVertex
 10
41.77835211151857
 20
430.7199242021816
 30
0.0
  0
VERTEX
  5
CE7
330
CDB
100
AcDbEntity
  8
0
370
     0
100
AcDbVertex
100
AcDb2dVertex
 10
41.30713011151857
 20
430.1220542021816
 30
0.0
  0
VERTEX
  5
CE8
330
CDB
100
AcDbEntity
  8
0
370
     0
100
AcDbVertex
100
AcDb2dVertex
 10
40.88342411151856
 20
429.4806062021816
 30
0.0
  0
VERTEX
  5
CE9
330
CDB
100
AcDbEntity
  8
0
370
     0
100
AcDbVertex
100
AcDb2dVertex
 10
40.51126311151857
 20
428.7978972021816
 30
0.0
  0
VERTEX
  5
CEA
330
CDB
100
AcDbEntity
  8
0
370
     0
100
AcDbVertex
100
AcDb2dVertex
 10
40.19496311151857
 20
428.0769502021817
 30
0.0
  0
SEQEND
  5
CEB
330
CDB
100
AcDbEntity
  8
0
370
     0
  0
LINE
  5
CEC
330
1F
100
AcDbEntity
  8
0
 62
     7
 48
0.2173
370
    35
100
AcDbLine
 10
57.45889411151857
 20
433.9234462021817
 30
0.0
 11
48.76690811151857
 21
433.9234462021817
 31
0.0
  0
ARC
  5
CED
330
1F
100
AcDbEntity
  8
0
 62
     7
370
    35
100
AcDbCircle
 10
57.45910811151857
 20
433.4689782021817
 30
0.0
 40
0.4544350000000001
100
AcDbArc
 50
0.6877950000000645
 51
90.02486400000014
  0
ARC
  5
CEE
330
1F
100
AcDbEntity
  8
0
 62
     7
370
    35
100
AcDbCircle
 10
-859.0890488884815
 20
424.6157372021817
 30
0.0
 40
917.046174
100
AcDbArc
 50
0.0104160000000369
 51
0.5534890000002008
  0
ARC
  5
CEF
330
1F
100
AcDbEntity
  8
0
 62
     7
370
    35
100
AcDbCircle
 10
1146.619936111519
 20
424.6157372021817
 30
0.0
 40
917.0433219999999
100
AcDbArc
 50
179.4465139999998
 51
179.989582
  0
ARC
  5
CF0
330
1F
100
AcDbEntity
  8
0
 62
     7
370
    35
100
AcDbCircle
 10
230.0747091115185
 20
433.4689782021817
 30
0.0
 40
0.454434
100
AcDbArc
 50
89.97509999999966
 51
179.312287
  0
LINE
  5
CF1
330
1F
100
AcDbEntity
  8
0
 62
     7
 48
0.2173
370
    35
100
AcDbLine
 10
238.7669081115186
 20
433.9234462021817
 30
0.0
 11
230.0749221115186
 21
433.9234462021817
 31
0.0
  0
POLYLINE
  5
CF2
330
1F
100
AcDbEntity
  8
0
 62
     7
370
    35
100
AcDb2dPolyline
 66
     1
 10
0.0
 20
0.0
 30
0.0
  0
VERTEX
  5
CF3
330
CF2
100
AcDbEntity
  8
0
370
     0
100
AcDbVertex
100
AcDb2dVertex
 10
247.3388381115186
 20
428.0769502021817
 30
0.0
  0
VERTEX
  5
CF4
330
CF2
100
AcDbEntity
  8
0
370
     0
100
AcDbVertex
100
AcDb2dVertex
 10
246.9996351115186
 20
428.8442222021816
 30
0.0
  0
VERTEX
  5
CF5
330
CF2
100
AcDbEntity
  8
0
370
     0
100
AcDbVertex
100
AcDb2dVertex
 10
246.5973531115186
 20
429.5676112021816
 30
0.0
  0
VERTEX
  5
CF6
330
CF2
100
AcDbEntity
  8
0
370
     0
100
AcDbVertex
100
AcDb2dVertex
 10
246.1373311115185
 20
430.2435752021816
 30
0.0
  0
VERTEX
  5
CF7
330
CF2
100
AcDbEntity
  8
0
370
     0
100
AcDbVertex
100
AcDb2dVertex
 10
245.6242081115186
 20
430.8696132021816
 30
0.0
  0
VERTEX
  5
CF8
330
CF2
100
AcDbEntity
  8
0
370
     0
100
AcDbVertex
100
AcDb2dVertex
 10
245.0695821115186
 20
431.4368132021817
 30
0.0
  0
VERTEX
  5
CF9
330
CF2
100
AcDbEntity
  8
0
370
     0
100
AcDbVertex
100
AcDb2dVertex
 10
244.4700331115186
 20
431.9522242021816
 30
0.0
  0
VERTEX
  5
CFA
330
CF2
100
AcDbEntity
  8
0
370
     0
100
AcDbVertex
100
AcDb2dVertex
 10
243.8275161115186
 20
432.4145352021816
 30
0.0
  0
VERTEX
  5
CFB
330
CF2
100
AcDbEntity
  8
0
370
     0
100
AcDbVertex
100
AcDb2dVertex
 10
243.1432511115186
 20
432.8220672021816
 30
0.0
  0
VERTEX
  5
CFC
330
CF2
100
AcDbEntity
  8
0
370
     0
100
AcDbVertex
100
AcDb2dVertex
 10
242.4953021115185
 20
433.1387172021816
 30
0.0
  0
VERTEX
  5
CFD
330
CF2
100
AcDbEntity
  8
0
370
     0
100
AcDbVertex
100
AcDb2dVertex
 10
241.8140891115185
 20
433.4073332021817
 30
0.0
  0
VERTEX
  5
CFE
330
CF2
100
AcDbEntity
  8
0
370
     0
100
AcDbVertex
100
AcDb2dVertex
 10
241.1011061115186
 20
433.6243132021817
 30
0.0
  0
VERTEX
  5
CFF
330
CF2
100
AcDbEntity
  8
0
370
     0
100
AcDbVertex
100
AcDb2dVertex
 10
240.3438131115186
 20
433.7881922021816
 30
0.0
  0
VERTEX
  5
D00
330
CF2
100
AcDbEntity
  8
0
370
     0
100
AcDbVertex
100
AcDb2dVertex
 10
239.5623801115186
 20
433.8892362021816
 30
0.0
  0
VERTEX
  5
D01
330
CF2
100
AcDbEntity
  8
0
370
     0
100
AcDbVertex
100
AcDb2dVertex
 10
238.7669081115186
 20
433.9234462021817
 30
0.0
  0
SEQEND
  5
D02
330
CF2
100
AcDbEntity
  8
0
370
     0
  0
ARC
  5
D04
330
1F
100
AcDbEntity
  8
0
 62
     7
370
    35
100
AcDbCircle
 10
238.7669081115186
 20
19.78245520218168
 30
0.0
 40
15.0
100
AcDbArc
 50
269.9999969999999
 51
339.7558549999999
  0
LINE
  5
D05
330
1F
100
AcDbEntity
  8
0
 62
     7
370
    35
100
AcDbLine
 10
48.76690811151857
 20
4.782455202181678
 30
0.0
 11
238.7669081115186
 21
4.782455202181678
 31
0.0
  0
ARC
  5
D06
330
1F
100
AcDbEntity
  8
0
 62
     7
370
    35
100
AcDbCircle
 10
48.76690811151857
 20
19.78245520218168
 30
0.0
 40
15.0
100
AcDbArc
 50
200.2441429999999
 51
269.9999969999999
  0
ARC
  5
D07
330
1F
100
AcDbEntity
  8
0
 62
     7
370
    35
100
AcDbCircle
 10
49.76690811151858
 20
20.70959420218168
 30
0.0
 40
12.399775
100
AcDbArc
 50
266.0146090000002
 51
269.9999969999999
  0
ARC
  5
D08
330
1F
100
AcDbEntity
  8
0
 62
     7
370
    35
100
AcDbCircle
 10
49.77244711151858
 20
20.78797920218168
 30
0.0
 40
12.478362
100
AcDbArc
 50
209.4706219999999
 51
266.0142609999998
  0
LINE
  5
D09
330
1F
100
AcDbEntity
  8
0
 62
     7
 48
0.000528
370
    35
100
AcDbLine
 10
38.90867811151859
 20
14.64891020218168
 30
0.0
 11
38.92566111151857
 21
14.66149820218169
 31
0.0
  0
POLYLINE
  5
D0A
330
1F
100
AcDbEntity
  8
0
 62
     7
370
    35
100
AcDb2dPolyline
 66
     1
 10
0.0
 20
0.0
 30
0.0
  0
VERTEX
  5
D0B
330
D0A
100
AcDbEntity
  8
0
370
     0
100
AcDbVertex
100
AcDb2dVertex
 10
38.92566111151857
 20
14.66149820218169
 30
0.0
  0
VERTEX
  5
D0C
330
D0A
100
AcDbEntity
  8
0
370
     0
100
AcDbVertex
100
AcDb2dVertex
 10
38.77194411151857
 20
14.96600320218168
 30
0.0
  0
VERTEX
  5
D0D
330
D0A
100
AcDbEntity
  8
0
370
     0
100
AcDbVertex
100
AcDb2dVertex
 10
38.49730111151857
 20
15.54038920218168
 30
0.0
  0
VERTEX
  5
D0E
330
D0A
100
AcDbEntity
  8
0
370
     0
100
AcDbVertex
100
AcDb2dVertex
 10
38.18512111151859
 20
16.29260220218168
 30
0.0
  0
VERTEX
  5
D0F
330
D0A
100
AcDbEntity
  8
0
370
     0
100
AcDbVertex
100
AcDb2dVertex
 10
37.88543911151857
 20
17.17892420218169
 30
0.0
  0
VERTEX
  5
D10
330
D0A
100
AcDbEntity
  8
0
370
     0
100
AcDbVertex
100
AcDb2dVertex
 10
37.75213811151858
 20
17.66078120218168
 30
0.0
  0
VERTEX
  5
D11
330
D0A
100
AcDbEntity
  8
0
370
     0
100
AcDbVertex
100
AcDb2dVertex
 10
37.63452311151858
 20
18.16290220218168
 30
0.0
  0
VERTEX
  5
D12
330
D0A
100
AcDbEntity
  8
0
370
     0
100
AcDbVertex
100
AcDb2dVertex
 10
37.48599411151858
 20
18.99575720218168
 30
0.0
  0
VERTEX
  5
D13
330
D0A
100
AcDbEntity
  8
0
370
     0
100
AcDbVertex
100
AcDb2dVertex
 10
37.39224411151858
 20
19.85084520218169
 30
0.0
  0
VERTEX
  5
D14
330
D0A
100
AcDbEntity
  8
0
370
     0
100
AcDbVertex
100
AcDb2dVertex
 10
37.35638611151857
 20
20.78245520218168
 30
0.0
  0
SEQEND
  5
D15
330
D0A
100
AcDbEntity
  8
0
370
     0
  0
ARC
  5
D17
330
1F
100
AcDbEntity
  8
0
 62
     7
370
    35
100
AcDbCircle
 10
238.7669081115186
 20
262.7824552021817
 30
0.0
 40
8.174841999999998
100
AcDbArc
 50
90.00000300000015
 51
269.9999969999999
  0
LINE
  5
D1A
330
1F
100
AcDbEntity
  8
0
 62
     7
 48
0.174508
370
    35
100
AcDbLine
 10
39.57415911151858
 20
423.0707852021817
 30
0.0
 11
39.57415911151858
 21
416.0904692021817
 31
0.0
  0
ARC
  5
D1B
330
1F
100
AcDbEntity
  8
0
 62
   253
370
    35
100
AcDbCircle
 10
43.47537411151856
 20
276.9488982021817
 30
0.0
 40
1.999806
100
AcDbArc
 50
179.996194
 51
234.5820449999997
  0
LINE
  5
D1C
330
1F
100
AcDbEntity
  8
0
 62
   253
370
    35
100
AcDbLine
 10
41.47555711151857
 20
390.5818932021816
 30
0.0
 11
41.47555711151857
 21
276.9490202021817
 31
0.0
  0
ARC
  5
D1D
330
1F
100
AcDbEntity
  8
0
 62
   253
370
    35
100
AcDbCircle
 10
43.47534311151853
 20
390.5820152021818
 30
0.0
 40
1.999774
100
AcDbArc
 50
89.99584300000041
 51
180.0041609999999
  0
LINE
  5
D1E
330
1F
100
AcDbEntity
  8
0
 62
   253
370
    35
100
AcDbLine
 10
43.47548111151858
 20
392.5818022021816
 30
0.0
 11
244.0583511115186
 21
392.5818022021816
 31
0.0
  0
ARC
  5
D1F
330
1F
100
AcDbEntity
  8
0
 62
   253
370
    35
100
AcDbCircle
 10
244.0584731115186
 20
390.5820152021818
 30
0.0
 40
1.999774
100
AcDbArc
 50
359.995843
 51
90.00415500000004
  0
LINE
  5
D20
330
1F
100
AcDbEntity
  8
0
 62
   253
370
    35
100
AcDbLine
 10
246.0582601115185
 20
390.5818932021816
 30
0.0
 11
246.0582601115185
 21
276.9490202021817
 31
0.0
  0
ARC
  5
D21
330
1F
100
AcDbEntity
  8
0
 62
   253
370
    35
100
AcDbCircle
 10
244.0584431115186
 20
276.9488982021817
 30
0.0
 40
1.999806
100
AcDbArc
 50
305.4179429999999
 51
0.0038009999998789
  0
LINE
  5
D26
330
1F
100
AcDbEntity
  8
0
 62
     7
 48
0.049998
370
    35
100
AcDbLine
 10
39.46945311151859
 20
271.0284882021816
 30
0.0
 11
37.29428311151858
 21
271.0284882021816
 31
0.0
  0
ARC
  5
D27
330
1F
100
AcDbEntity
  8
0
 62
     7
370
    35
100
AcDbCircle
 10
246.4417441115186
 20
270.4572902021816
 30
0.0
 40
0.5
100
AcDbArc
 50
0.0
 51
90.00000300000015
  0
LINE
  5
D28
330
1F
100
AcDbEntity
  8
0
 62
     7
 48
0.383742
370
    35
100
AcDbLine
 10
246.9417441115186
 20
270.4572902021816
 30
0.0
 11
246.9417441115186
 21
255.1076202021817
 31
0.0
  0
ARC
  5
D29
330
1F
100
AcDbEntity
  8
0
 62
     7
370
    35
100
AcDbCircle
 10
246.4417441115186
 20
255.1076202021817
 30
0.0
 40
0.5
100
AcDbArc
 50
269.9999969999999
 51
0.0
  0
LINE
  5
D2A
330
1F
100
AcDbEntity
  8
0
 62
     7
 48
0.191871
370
    35
100
AcDbLine
 10
238.7669081115186
 20
254.6076202021817
 30
0.0
 11
246.4417441115186
 21
254.6076202021817
 31
0.0
  0
LINE
  5
D2B
330
1F
100
AcDbEntity
  8
0
 62
     7
 48
0.191871
370
    35
100
AcDbLine
 10
238.7669081115186
 20
270.9572902021816
 30
0.0
 11
246.4417441115186
 21
270.9572902021816
 31
0.0
  0
ARC
  5
D2C
330
1F
100
AcDbEntity
  8
0
 62
     7
370
    35
100
AcDbCircle
 10
41.09207311151856
 20
255.1076202021817
 30
0.0
 40
0.5
100
AcDbArc
 50
179.9999949999999
 51
269.9999969999999
  0
LINE
  5
D2D
330
1F
100
AcDbEntity
  8
0
 62
     7
 48
0.383742
370
    35
100
AcDbLine
 10
40.59207311151856
 20
270.4572902021816
 30
0.0
 11
40.59207311151856
 21
255.1076202021817
 31
0.0
  0
ARC
  5
D2E
330
1F
100
AcDbEntity
  8
0
 62
     7
370
    35
100
AcDbCircle
 10
41.09207311151856
 20
270.4572902021816
 30
0.0
 40
0.5
100
AcDbArc
 50
90.00000300000015
 51
180.0000050000001
  0
LINE
  5
D2F
330
1F
100
AcDbEntity
  8
0
 62
     7
 48
0.191871
370
    35
100
AcDbLine
 10
48.76690811151857
 20
270.9572902021816
 30
0.0
 11
41.09207311151856
 21
270.9572902021816
 31
0.0
  0
ARC
  5
D31
330
1F
100
AcDbEntity
  8
0
 62
     7
370
    35
100
AcDbCircle
 10
48.76690811151857
 20
262.7824552021817
 30
0.0
 40
8.174841999999998
100
AcDbArc
 50
269.9999969999999
 51
90.00000300000015
  0
LINE
  5
D33
330
1F
100
AcDbEntity
  8
0
 62
     7
 48
0.191871
370
    35
100
AcDbLine
 10
48.76690811151857
 20
254.6076202021817
 30
0.0
 11
41.09207311151856
 21
254.6076202021817
 31
0.0
  0
LINE
  5
D34
330
1F
100
AcDbEntity
  8
0
 62
     7
 48
0.001617
370
    35
100
AcDbLine
 10
33.76690811151858
 20
419.5921472021816
 30
0.0
 11
33.82238911151856
 21
419.6254112021817
 31
0.0
  0
ARC
  5
D35
330
1F
100
AcDbEntity
  8
0
 62
     7
370
    35
100
AcDbCircle
 10
34.27467511151858
 20
402.6962122021816
 30
0.0
 40
16.93578299999999
100
AcDbArc
 50
89.72369400000021
 51
91.53038800000036
  0
LINE
  5
D36
330
1F
100
AcDbEntity
  8
0
 62
     7
 48
0.011649
370
    35
100
AcDbLine
 10
34.35635511151858
 20
419.6324612021816
 30
0.0
 11
34.82229811151857
 21
419.6343842021816
 31
0.0
  0
LINE
  5
D37
330
1F
100
AcDbEntity
  8
0
 62
     7
 48
0.036801
370
    35
100
AcDbLine
 10
36.29434411151857
 20
419.6388392021813
 30
0.0
 11
34.82229811151857
 21
419.6343842021816
 31
0.0
  0
ARC
  5
D38
330
1F
100
AcDbEntity
  8
0
 62
     7
370
    35
100
AcDbCircle
 10
36.49244811151857
 20
461.8895112021816
 30
0.0
 40
42.250146
100
AcDbArc
 50
269.7313660000002
 51
271.0874520000001
  0
LINE
  5
D39
330
1F
100
AcDbEntity
  8
0
 62
     7
 48
0.000664
370
    35
100
AcDbLine
 10
37.31704911151857
 20
419.6614832021817
 30
0.0
 11
37.29428311151858
 21
419.6478112021816
 31
0.0
  0
POLYLINE
  5
D3C
330
1F
100
AcDbEntity
  8
0
 62
     7
370
    35
100
AcDb2dPolyline
 66
     1
 10
0.0
 20
0.0
 30
0.0
  0
VERTEX
  5
D3D
330
D3C
100
AcDbEntity
  8
0
370
     0
100
AcDbVertex
100
AcDb2dVertex
 10
37.35638611151857
 20
20.78245520218168
 30
0.0
  0
VERTEX
  5
D3E
330
D3C
100
AcDbEntity
  8
0
370
     0
100
AcDbVertex
100
AcDb2dVertex
 10
37.34443811151857
 20
23.38140820218169
 30
0.0
  0
VERTEX
  5
D3F
330
D3C
100
AcDbEntity
  8
0
370
     0
100
AcDbVertex
100
AcDb2dVertex
 10
37.32202311151858
 20
24.81010420218168
 30
0.0
  0
VERTEX
  5
D40
330
D3C
100
AcDbEntity
  8
0
370
     0
100
AcDbVertex
100
AcDb2dVertex
 10
37.31704911151857
 20
24.9034112021817
 30
0.0
  0
SEQEND
  5
D41
330
D3C
100
AcDbEntity
  8
0
370
     0
  0
LINE
  5
D42
330
1F
100
AcDbEntity
  8
0
 62
     7
 48
0.000664
370
    35
100
AcDbLine
 10
37.31704911151857
 20
24.9034112021817
 30
0.0
 11
37.29428311151858
 21
24.91708320218169
 31
0.0
  0
LINE
  5
D43
330
1F
100
AcDbEntity
  8
0
 62
     7
370
    35
100
AcDbLine
 10
37.29428311151858
 20
24.91708320218169
 30
0.0
 11
37.29428311151858
 21
257.6478112021816
 31
0.0
  0
LINE
  5
D44
330
1F
100
AcDbEntity
  8
0
 62
     7
 48
0.000664
370
    35
100
AcDbLine
 10
37.31704911151857
 20
257.6614832021817
 30
0.0
 11
37.29428311151858
 21
257.6478112021816
 31
0.0
  0
POLYLINE
  5
D45
330
1F
100
AcDbEntity
  8
0
 62
     7
370
    35
100
AcDb2dPolyline
 66
     1
 10
0.0
 20
0.0
 30
0.0
  0
VERTEX
  5
D46
330
D45
100
AcDbEntity
  8
0
370
     0
100
AcDbVertex
100
AcDb2dVertex
 10
37.31704911151857
 20
267.9034272021817
 30
0.0
  0
VERTEX
  5
D47
330
D45
100
AcDbEntity
  8
0
370
     0
100
AcDbVertex
100
AcDb2dVertex
 10
37.32400711151857
 20
267.7545312021818
 30
0.0
  0
VERTEX
  5
D48
330
D45
100
AcDbEntity
  8
0
370
     0
100
AcDbVertex
100
AcDb2dVertex
 10
37.3368551115186
 20
267.0948632021817
 30
0.0
  0
VERTEX
  5
D49
330
D45
100
AcDbEntity
  8
0
370
     0
100
AcDbVertex
100
AcDb2dVertex
 10
37.35344111151858
 20
264.8532562021817
 30
0.0
  0
VERTEX
  5
D4A
330
D45
100
AcDbEntity
  8
0
370
     0
100
AcDbVertex
100
AcDb2dVertex
 10
37.35663011151857
 20
261.9374542021817
 30
0.0
  0
VERTEX
  5
D4B
330
D45
100
AcDbEntity
  8
0
370
     0
100
AcDbVertex
100
AcDb2dVertex
 10
37.34536911151858
 20
259.2967982021816
 30
0.0
  0
VERTEX
  5
D4C
330
D45
100
AcDbEntity
  8
0
370
     0
100
AcDbVertex
100
AcDb2dVertex
 10
37.32335111151858
 20
257.7909392021817
 30
0.0
  0
VERTEX
  5
D4D
330
D45
100
AcDbEntity
  8
0
370
     0
100
AcDbVertex
100
AcDb2dVertex
 10
37.31704911151857
 20
257.6614832021817
 30
0.0
  0
SEQEND
  5
D4E
330
D45
100
AcDbEntity
  8
0
370
     0
  0
LINE
  5
D4F
330
1F
100
AcDbEntity
  8
0
 62
     7
 48
0.000664
370
    35
100
AcDbLine
 10
37.31704911151857
 20
267.9034272021817
 30
0.0
 11
37.29428311151858
 21
267.9170682021817
 31
0.0
  0
LINE
  5
D50
330
1F
100
AcDbEntity
  8
0
 62
     7
370
    35
100
AcDbLine
 10
37.29428311151858
 20
267.9170682021817
 30
0.0
 11
37.29428311151858
 21
419.6478112021816
 31
0.0
  0
LINE
  5
D51
330
1F
100
AcDbEntity
  8
0
 62
     7
 48
0.0043
370
    35
100
AcDbLine
 10
39.57515111151858
 20
423.9118492021813
 30
0.0
 11
39.57525811151859
 21
424.0838462021817
 31
0.0
  0
LINE
  5
D52
330
1F
100
AcDbEntity
  8
0
 62
     7
 48
0.017465
370
    35
100
AcDbLine
 10
39.57589911151857
 20
424.7824552021817
 30
0.0
 11
39.57525811151859
 21
424.0838462021817
 31
0.0
  0
ARC
  5
D53
330
1F
100
AcDbEntity
  8
0
 62
     7
370
    35
100
AcDbCircle
 10
48.70849811151856
 20
424.7717742021817
 30
0.0
 40
9.132603999999997
100
AcDbArc
 50
158.7826639999998
 51
179.933069
  0
LINE
  5
D56
330
1F
100
AcDbEntity
  8
0
 62
     7
 48
0.001437
370
    35
100
AcDbLine
 10
34.69351411151857
 20
14.59213220218169
 30
0.0
 11
34.74035811151859
 21
14.62542720218168
 31
0.0
  0
ARC
  5
D57
330
1F
100
AcDbEntity
  8
0
 62
     7
370
    35
100
AcDbCircle
 10
35.21769911151859
 20
-4.518920797818323
 30
0.0
 40
19.150881
100
AcDbArc
 50
89.72978700000021
 51
91.42828399999984
  0
LINE
  5
D58
330
1F
100
AcDbEntity
  8
0
 62
     7
 48
0.012484
370
    35
100
AcDbLine
 10
35.30801611151856
 20
14.63246120218169
 30
0.0
 11
35.80737511151858
 21
14.63439920218168
 31
0.0
  0
LINE
  5
D59
330
1F
100
AcDbEntity
  8
0
 62
     7
 48
0.049251
370
    35
100
AcDbLine
 10
35.80737511151858
 20
14.63439920218168
 30
0.0
 11
37.77740611151859
 21
14.63987720218169
 31
0.0
  0
ARC
  5
D5A
330
1F
100
AcDbEntity
  8
0
 62
     7
370
    35
100
AcDbCircle
 10
37.9667071115186
 20
73.02041620218169
 30
0.0
 40
58.38
100
AcDbArc
 50
269.8141959999998
 51
270.9245249999998
  0
LINE
  5
D5B
330
1F
100
AcDbEntity
  8
0
 62
     7
 48
0.021027
370
    35
100
AcDbLine
 10
39.57492211151857
 20
423.0707852021817
 30
0.0
 11
39.57515111151858
 21
423.9118492021813
 31
0.0
  0
ARC
  5
D5C
330
1F
100
AcDbEntity
  8
0
 62
   253
370
    35
100
AcDbCircle
 10
244.0596631115186
 20
276.9547572021817
 30
0.0
 40
2.004049999999998
100
AcDbArc
 50
269.9202210000002
 51
305.2925279999997
  0
LINE
  5
D5D
330
1F
100
AcDbEntity
  8
0
 62
   253
370
    35
100
AcDbLine
 10
43.47694611151857
 20
274.9505762021816
 30
0.0
 11
244.0568861115186
 21
274.9505762021816
 31
0.0
  0
ARC
  5
D5E
330
1F
100
AcDbEntity
  8
0
 62
   253
370
    35
100
AcDbCircle
 10
43.47415311151857
 20
276.9547572021817
 30
0.0
 40
2.004049999999998
100
AcDbArc
 50
234.707488
 51
270.0797809999996
  0
LINE
  5
D63
330
1F
100
AcDbEntity
  8
0
 62
     7
370
    35
100
AcDbLine
 10
33.76690811151858
 20
267.9727632021817
 30
0.0
 11
33.76690811151858
 21
419.5921472021816
 31
0.0
  0
ARC
  5
D64
330
1F
100
AcDbEntity
  8
0
 62
     7
370
    35
100
AcDbCircle
 10
36.49244811151857
 20
225.6754602021817
 30
0.0
 40
42.250071
100
AcDbArc
 50
88.91254100000031
 51
90.26863399999971
  0
LINE
  5
D65
330
1F
100
AcDbEntity
  8
0
 62
     7
 48
0.036801
370
    35
100
AcDbLine
 10
36.29434411151857
 20
267.9260712021817
 30
0.0
 11
34.82229811151857
 21
267.9305262021817
 31
0.0
  0
ARC
  5
D66
330
1F
100
AcDbEntity
  8
0
 62
     7
370
    35
100
AcDbCircle
 10
34.27467511151858
 20
284.8686062021817
 30
0.0
 40
16.935699
100
AcDbArc
 50
268.4696049999999
 51
270.2763129999998
  0
LINE
  5
D67
330
1F
100
AcDbEntity
  8
0
 62
     7
 48
0.011649
370
    35
100
AcDbLine
 10
34.82229811151857
 20
267.9305262021817
 30
0.0
 11
34.35635511151858
 21
267.9324492021817
 31
0.0
  0
LINE
  5
D68
330
1F
100
AcDbEntity
  8
0
 62
     7
 48
0.001617
370
    35
100
AcDbLine
 10
33.76690811151858
 20
267.9727632021817
 30
0.0
 11
33.82238911151856
 21
267.9394982021817
 31
0.0
  0
ARC
  5
D69
330
1F
100
AcDbEntity
  8
0
 62
     7
370
    35
100
AcDbCircle
 10
36.49244811151857
 20
-17.32455479781831
 30
0.0
 40
42.25009199999997
100
AcDbArc
 50
88.91254100000031
 51
90.26863399999971
  0
LINE
  5
D6A
330
1F
100
AcDbEntity
  8
0
 62
     7
 48
0.036801
370
    35
100
AcDbLine
 10
36.29434411151857
 20
24.9260552021817
 30
0.0
 11
34.82229811151857
 21
24.93051120218169
 31
0.0
  0
LINE
  5
D6B
330
1F
100
AcDbEntity
  8
0
 62
     7
 48
0.011649
370
    35
100
AcDbLine
 10
34.82229811151857
 20
24.93051120218169
 30
0.0
 11
34.35635511151858
 21
24.93244920218169
 31
0.0
  0
ARC
  5
D6C
330
1F
100
AcDbEntity
  8
0
 62
     7
370
    35
100
AcDbCircle
 10
34.27467511151858
 20
41.86860620218168
 30
0.0
 40
16.935699
100
AcDbArc
 50
268.4696049999999
 51
270.2763129999998
  0
LINE
  5
D6D
330
1F
100
AcDbEntity
  8
0
 62
     7
 48
0.001618
370
    35
100
AcDbLine
 10
33.76690811151858
 20
24.97277820218168
 30
0.0
 11
33.82238911151856
 21
24.93948320218168
 31
0.0
  0
ARC
  5
D6E
330
1F
100
AcDbEntity
  8
0
 62
     7
370
    35
100
AcDbCircle
 10
36.49244811151857
 20
299.8895112021817
 30
0.0
 40
42.250146
100
AcDbArc
 50
269.7313660000002
 51
271.0874520000001
  0
LINE
  5
D6F
330
1F
100
AcDbEntity
  8
0
 62
     7
 48
0.001617
370
    35
100
AcDbLine
 10
33.76690811151858
 20
257.5921472021816
 30
0.0
 11
33.82238911151856
 21
257.6254112021817
 31
0.0
  0
ARC
  5
D70
330
1F
100
AcDbEntity
  8
0
 62
     7
370
    35
100
AcDbCircle
 10
34.27467511151858
 20
240.6962122021817
 30
0.0
 40
16.93578299999999
100
AcDbArc
 50
89.72369400000021
 51
91.53038800000036
  0
LINE
  5
D71
330
1F
100
AcDbEntity
  8
0
 62
     7
 48
0.011649
370
    35
100
AcDbLine
 10
34.35635511151858
 20
257.6324612021817
 30
0.0
 11
34.82229811151857
 21
257.6343842021817
 31
0.0
  0
LINE
  5
D72
330
1F
100
AcDbEntity
  8
0
 62
     7
 48
0.036801
370
    35
100
AcDbLine
 10
36.29434411151857
 20
257.6388392021816
 30
0.0
 11
34.82229811151857
 21
257.6343842021817
 31
0.0
  0
LINE
  5
D7B
330
1F
100
AcDbEntity
  8
0
 62
     7
370
    35
100
AcDbLine
 10
33.76690811151858
 20
24.97277820218168
 30
0.0
 11
33.76690811151858
 21
257.5921472021816
 31
0.0
  0
ARC
  5
D83
330
1F
100
AcDbEntity
  8
0
 62
     7
370
    35
100
AcDbCircle
 10
238.7226581115185
 20
19.79124420218169
 30
0.0
 40
8.129723
100
AcDbArc
 50
169.293875
 51
180.0619039999998
  0
LINE
  5
D84
330
1F
100
AcDbEntity
  8
0
 62
     7
 48
0.002239
370
    35
100
AcDbLine
 10
230.7515581115186
 20
21.38941920218169
 30
0.0
 11
230.7344381115186
 21
21.30151320218169
 31
0.0
  0
ARC
  5
D85
330
1F
100
AcDbEntity
  8
0
 62
     7
370
    35
100
AcDbCircle
 10
238.7669081115186
 20
19.78245520218168
 30
0.0
 40
8.174841999999998
100
AcDbArc
 50
90.00000300000015
 51
168.663298
  0
ARC
  5
D86
330
1F
100
AcDbEntity
  8
0
 62
     7
370
    35
100
AcDbCircle
 10
246.4417441115186
 20
27.45729020218168
 30
0.0
 40
0.5
100
AcDbArc
 50
0.0
 51
90.00000300000015
  0
LINE
  5
D87
330
1F
100
AcDbEntity
  8
0
 62
     7
 48
0.191871
370
    35
100
AcDbLine
 10
238.7669081115186
 20
27.95729020218168
 30
0.0
 11
246.4417441115186
 21
27.95729020218168
 31
0.0
  0
ARC
  5
D88
330
1F
100
AcDbEntity
  8
0
 62
     7
370
    35
100
AcDbCircle
 10
48.81115911151857
 20
19.79124420218169
 30
0.0
 40
8.129723
100
AcDbArc
 50
359.9381
 51
10.70612599999998
  0
ARC
  5
D8B
330
1F
100
AcDbEntity
  8
0
 62
     7
370
    35
100
AcDbCircle
 10
48.76690811151857
 20
19.78245520218168
 30
0.0
 40
8.174841999999998
100
AcDbArc
 50
11.33669699999982
 51
90.00000300000015
  0
LINE
  5
D8C
330
1F
100
AcDbEntity
  8
0
 62
     7
 48
0.002239
370
    35
100
AcDbLine
 10
56.79937911151859
 20
21.30151320218169
 30
0.0
 11
56.78225911151859
 21
21.38941920218169
 31
0.0
  0
LINE
  5
D8D
330
1F
100
AcDbEntity
  8
0
 62
     7
 48
0.191871
370
    35
100
AcDbLine
 10
48.76690811151857
 20
27.95729020218168
 30
0.0
 11
41.09207311151856
 21
27.95729020218168
 31
0.0
  0
ARC
  5
D8E
330
1F
100
AcDbEntity
  8
0
 62
     7
370
    35
100
AcDbCircle
 10
41.09207311151856
 20
27.45729020218168
 30
0.0
 40
0.5
100
AcDbArc
 50
90.00000300000015
 51
180.0000050000001
  0
LINE
  5
D90
330
1F
100
AcDbEntity
  8
0
 62
     7
 48
0.038903
370
    35
100
AcDbLine
 10
40.59207311151856
 20
21.38941920218169
 30
0.0
 11
40.59288211151858
 21
19.83328220218168
 31
0.0
  0
LINE
  5
D91
330
1F
100
AcDbEntity
  8
0
 62
     7
 48
0.151697
370
    35
100
AcDbLine
 10
40.59207311151856
 20
27.45729020218168
 30
0.0
 11
40.59207311151856
 21
21.38941920218169
 31
0.0
  0
LWPOLYLINE
  5
D94
330
1F
100
AcDbEntity
  8
0
 62
     7
370
    35
100
AcDbPolyline
 90
       20
 70
     0
 43
0.0
 10
48.76690811151857
 20
11.64595020218169
 10
48.08860911151859
 20
11.67399520218168
 10
47.41876411151856
 20
11.75732420218169
 10
46.76433011151857
 20
11.89379820218168
 10
46.13069311151857
 20
12.08053520218168
 10
45.53248811151857
 20
12.30981420218168
 10
44.96039011151856
 20
12.58183220218169
 10
44.41606311151853
 20
12.89419520218167
 10
43.90069711151857
 20
13.24490320218167
 10
43.32773011151857
 20
13.70910620218168
 10
42.79916511151856
 20
14.22302220218168
 10
42.31781211151854
 20
14.78443920218168
 10
41.88693411151857
 20
15.39097520218169
 10
41.51040811151857
 20
16.03984020218168
 10
41.23805411151858
 20
16.61781320218169
 10
41.01010311151859
 20
17.22079420218168
 10
40.8292561115186
 20
17.84558020218168
 10
40.69806111151857
 20
18.48826520218168
 10
40.61978311151857
 20
19.13127120218168
 10
40.59288211151858
 20
19.83328220218168
  0
ARC
  5
DAA
330
1F
100
AcDbEntity
  8
0
 62
     7
370
    35
100
AcDbCircle
 10
-984.6907328884816
 20
20.33383120218168
 30
0.0
 40
1041.631415
100
AcDbArc
 50
359.5474969999998
 51
359.9696710000002
  0
LINE
  5
DAB
330
1F
100
AcDbEntity
  8
0
 62
     7
 48
0.192178
370
    35
100
AcDbLine
 10
56.45404211151856
 20
11.64595020218169
 30
0.0
 11
48.76690811151857
 21
11.64595020218169
 31
0.0
  0
ARC
  5
DAC
330
1F
100
AcDbEntity
  8
0
 62
     7
370
    35
100
AcDbCircle
 10
56.44195711151858
 20
12.11161720218167
 30
0.0
 40
0.465804
100
AcDbArc
 50
271.4849350000003
 51
359.4888189999999
  0
LINE
  5
DAE
330
1F
100
AcDbEntity
  8
0
 62
     7
 48
0.151697
370
    35
100
AcDbLine
 10
246.9417441115186
 20
27.45729020218168
 30
0.0
 11
246.9417441115186
 21
21.38941920218169
 31
0.0
  0
LINE
  5
DAF
330
1F
100
AcDbEntity
  8
0
 62
     7
 48
0.038903
370
    35
100
AcDbLine
 10
246.9417441115186
 20
21.38941920218169
 30
0.0
 11
246.9409201115186
 21
19.83328220218168
 31
0.0
  0
ARC
  5
DB1
330
1F
100
AcDbEntity
  8
0
 62
     7
370
    35
100
AcDbCircle
 10
1272.224550111518
 20
20.33383120218168
 30
0.0
 40
1041.631415
100
AcDbArc
 50
180.030335
 51
180.452509
  0
POLYLINE
  5
DB3
330
1F
100
AcDbEntity
  8
0
 62
     7
370
    35
100
AcDb2dPolyline
 66
     1
 10
0.0
 20
0.0
 30
0.0
  0
VERTEX
  5
DB4
330
DB3
100
AcDbEntity
  8
0
370
     0
100
AcDbVertex
100
AcDb2dVertex
 10
238.7669081115186
 20
11.64595020218169
 30
0.0
  0
VERTEX
  5
DB5
330
DB3
100
AcDbEntity
  8
0
370
     0
100
AcDbVertex
100
AcDb2dVertex
 10
239.4451921115186
 20
11.67399520218168
 30
0.0
  0
VERTEX
  5
DB6
330
DB3
100
AcDbEntity
  8
0
370
     0
100
AcDbVertex
100
AcDb2dVertex
 10
240.1150531115185
 20
11.75732420218169
 30
0.0
  0
VERTEX
  5
DB7
330
DB3
100
AcDbEntity
  8
0
370
     0
100
AcDbVertex
100
AcDb2dVertex
 10
240.7694721115186
 20
11.89379820218168
 30
0.0
  0
VERTEX
  5
DB8
330
DB3
100
AcDbEntity
  8
0
370
     0
100
AcDbVertex
100
AcDb2dVertex
 10
241.4031391115186
 20
12.08053520218168
 30
0.0
  0
VERTEX
  5
DB9
330
DB3
100
AcDbEntity
  8
0
370
     0
100
AcDbVertex
100
AcDb2dVertex
 10
242.0013441115186
 20
12.30981420218168
 30
0.0
  0
VERTEX
  5
DBA
330
DB3
100
AcDbEntity
  8
0
370
     0
100
AcDbVertex
100
AcDb2dVertex
 10
242.5734271115186
 20
12.58183220218169
 30
0.0
  0
VERTEX
  5
DBB
330
DB3
100
AcDbEntity
  8
0
370
     0
100
AcDbVertex
100
AcDb2dVertex
 10
243.1177381115186
 20
12.89419520218167
 30
0.0
  0
VERTEX
  5
DBC
330
DB3
100
AcDbEntity
  8
0
370
     0
100
AcDbVertex
100
AcDb2dVertex
 10
243.6331191115186
 20
13.24490320218167
 30
0.0
  0
VERTEX
  5
DBD
330
DB3
100
AcDbEntity
  8
0
370
     0
100
AcDbVertex
100
AcDb2dVertex
 10
244.2060871115185
 20
13.70910620218168
 30
0.0
  0
VERTEX
  5
DBE
330
DB3
100
AcDbEntity
  8
0
370
     0
100
AcDbVertex
100
AcDb2dVertex
 10
244.7346511115186
 20
14.22302220218168
 30
0.0
  0
VERTEX
  5
DBF
330
DB3
100
AcDbEntity
  8
0
370
     0
100
AcDbVertex
100
AcDb2dVertex
 10
245.2160051115185
 20
14.78443920218168
 30
0.0
  0
VERTEX
  5
DC0
330
DB3
100
AcDbEntity
  8
0
370
     0
100
AcDbVertex
100
AcDb2dVertex
 10
245.6468831115186
 20
15.39097520218169
 30
0.0
  0
VERTEX
  5
DC1
330
DB3
100
AcDbEntity
  8
0
370
     0
100
AcDbVertex
100
AcDb2dVertex
 10
246.0234091115186
 20
16.03984020218168
 30
0.0
  0
VERTEX
  5
DC2
330
DB3
100
AcDbEntity
  8
0
370
     0
100
AcDbVertex
100
AcDb2dVertex
 10
246.2957781115186
 20
16.61781320218169
 30
0.0
  0
VERTEX
  5
DC3
330
DB3
100
AcDbEntity
  8
0
370
     0
100
AcDbVertex
100
AcDb2dVertex
 10
246.5237141115185
 20
17.22079420218168
 30
0.0
  0
VERTEX
  5
DC4
330
DB3
100
AcDbEntity
  8
0
370
     0
100
AcDbVertex
100
AcDb2dVertex
 10
246.7045611115186
 20
17.84558020218168
 30
0.0
  0
VERTEX
  5
DC5
330
DB3
100
AcDbEntity
  8
0
370
     0
100
AcDbVertex
100
AcDb2dVertex
 10
246.8357561115186
 20
18.48826520218168
 30
0.0
  0
VERTEX
  5
DC6
330
DB3
100
AcDbEntity
  8
0
370
     0
100
AcDbVertex
100
AcDb2dVertex
 10
246.9140341115186
 20
19.13127120218168
 30
0.0
  0
VERTEX
  5
DC7
330
DB3
100
AcDbEntity
  8
0
370
     0
100
AcDbVertex
100
AcDb2dVertex
 10
246.9409201115186
 20
19.83328220218168
 30
0.0
  0
SEQEND
  5
DC8
330
DB3
100
AcDbEntity
  8
0
370
     0
  0
ARC
  5
DC9
330
1F
100
AcDbEntity
  8
0
 62
     7
370
    35
100
AcDbCircle
 10
231.0918601115186
 20
12.11161720218167
 30
0.0
 40
0.465804
100
AcDbArc
 50
180.51118
 51
268.5150599999998
  0
LINE
  5
DCA
330
1F
100
AcDbEntity
  8
0
 62
     7
 48
0.192178
370
    35
100
AcDbLine
 10
238.7669081115186
 20
11.64595020218169
 30
0.0
 11
231.0797751115186
 21
11.64595020218169
 31
0.0
  0
LINE
  5
DCB
330
1F
100
AcDbEntity
  8
0
 62
     7
 48
0.028065
370
    13
100
AcDbLine
 10
248.0643631115186
 20
21.38941920218169
 30
0.0
 11
246.9417441115186
 21
21.38941920218169
 31
0.0
  0
LINE
  5
DCC
330
1F
100
AcDbEntity
  8
0
 62
     7
370
    13
100
AcDbLine
 10
230.7515581115186
 20
21.38941920218169
 30
0.0
 11
56.7979049324841
 21
21.30908266375912
 31
0.0
  0
LINE
  5
DDE
330
1F
100
AcDbEntity
  8
0
 62
     7
370
    13
100
AcDbLine
 10
40.59211876754825
 20
21.30159838999359
 30
0.0
 11
37.35400636275493
 21
21.30010294142513
 31
0.0
  0
LINE
  5
E63
330
1F
100
AcDbEntity
  8
0
100
AcDbLine
 10
49.06483689239781
 20
4.782455202181678
 30
0.0
 11
238.4689793306394
 21
4.782455202181678
 31
0.0
  0
LINE
  5
EB6
330
1F
100
AcDbEntity
  8
0
100
AcDbLine
 10
53.85658954790209
 20
367.2824552021816
 30
0.0000000000000044
 11
233.8565895479021
 21
367.2824552021816
 31
0.0000000000000044
  0
LINE
  5
EB7
330
1F
100
AcDbEntity
  8
0
100
AcDbLine
 10
233.8565895479021
 20
367.2824552021816
 30
0.0000000000000044
 11
233.8565895479021
 21
322.2824552021816
 31
0.0000000000000072
  0
LINE
  5
EB8
330
1F
100
AcDbEntity
  8
0
100
AcDbLine
 10
233.8565895479021
 20
322.2824552021816
 30
0.0000000000000072
 11
53.85658954790209
 21
322.2824552021816
 31
0.0000000000000072
  0
LINE
  5
EB9
330
1F
100
AcDbEntity
  8
0
100
AcDbLine
 10
53.85658954790209
 20
322.2824552021816
 30
0.0000000000000072
 11
53.85658954790209
 21
367.2824552021816
 31
0.0000000000000044
  0
DIMENSION
  5
19B4
330
1F
100
AcDbEntity
  8
QUOTE
 62
     7
100
AcDbDimension
  2
*D5
 10
10.65413836274566
 20
4.781873893184733
 30
0.0
 11
10.65413836274567
 21
214.1226930272612
 31
0.0
 70
   160
 71
     5
 42
435.0005813089965
  3
Standard
100
AcDbAlignedDimension
 13
51.23820568205051
 23
439.7824552021813
 33
0.0
 14
48.76747811151862
 24
4.781873893184721
 34
0.0
 50
90.0
100
AcDbRotatedDimension
1001
ACAD
1000
DSTYLE
1002
{
1070
    45
1040
1.0
1070
   178
1070
     7
1070
   177
1070
     7
1070
   176
1070
     7
1070
    78
1070
     8
1070
   285
1070
     8
1070
   148
1040
0.0
1070
   170
1070
     0
1070
    74
1070
     1
1070
    77
1070
     0
1070
   280
1070
     0
1070
   140
1040
10.0
1070
    41
1040
15.0
1002
}
  0
DIMENSION
  5
19B5
330
1F
100
AcDbEntity
  8
QUOTE
 62
     7
100
AcDbDimension
  2
*D6
 10
33.76690811151863
 20
-14.1772367049363
 30
0.0
 11
147.7383897284092
 21
-14.1772367049363
 31
0.0
 70
   160
 71
     5
 42
220.0
  3
Standard
100
AcDbAlignedDimension
 13
253.7669081115186
 23
19.78245520218168
 33
0.0
 14
33.76690811151863
 24
19.84495389318472
 34
0.0
100
AcDbRotatedDimension
1001
ACAD
1000
DSTYLE
1002
{
1070
   280
1070
     0
1070
    78
1070
     8
1070
    45
1040
1.0
1070
    74
1070
     0
1070
   140
1040
10.0
1070
   178
1070
     7
1070
   177
1070
     7
1070
   176
1070
     7
1070
    41
1040
15.0
1002
}
  0
TEXT
  5
1A29
330
1F
100
AcDbEntity
  8
0
 62
     7
100
AcDbText
 10
61.06629514614546
 20
427.1303342559227
 30
0.0
 40
5.0
  1
GW68003N
 72
     1
 11
80.23296181281212
 21
427.1303342559227
 31
0.0
100
AcDbText
  0
ENDSEC
  0
SECTION
  2
OBJECTS
  0
DICTIONARY
  5
C
330
0
100
AcDbDictionary
281
     1
  3
ACAD_COLOR
350
73
  3
ACAD_GROUP
350
D
  3
ACAD_LAYOUT
350
1A
  3
ACAD_MATERIAL
350
72
  3
ACAD_MLEADERSTYLE
350
D7
  3
ACAD_MLINESTYLE
350
17
  3
ACAD_PLOTSETTINGS
350
19
  3
ACAD_PLOTSTYLENAME
350
E
  3
ACAD_SCALELIST
350
B6
  3
ACAD_TABLESTYLE
350
86
  3
ACAD_VISUALSTYLE
350
99
  3
ACDB_RECOMPOSE_DATA
350
FF
  3
AcDbVariableDictionary
350
66
  3
AEC_PROPERTY_SET_DEFS
350
78E
  3
DWGPROPS
350
1A3E
  0
DICTIONARY
  5
10C7
330
2
100
AcDbDictionary
280
     1
281
     1
  3
ACAD_LAYERFILTERS
360
1A39
  3
ACAD_LAYERSTATES
360
19AD
  3
ACLYDICTIONARY
360
1A38
  0
DICTIONARY
  5
E6
330
10
100
AcDbDictionary
280
     1
281
     1
  3
ADSK_XREC_LAYER_RECONCILED
360
102B
  0
DICTIONARY
  5
102C
330
DE8
100
AcDbDictionary
280
     1
281
     1
  3
ADSK_XREC_LAYER_RECONCILED
360
102D
  0
DICTIONARY
  5
102E
330
ED3
100
AcDbDictionary
280
     1
281
     1
  3
ADSK_XREC_LAYER_RECONCILED
360
102F
  0
DICTIONARY
  5
10DF
330
10DE
100
AcDbDictionary
280
     1
281
     1
  0
DICTIONARY
  5
10E1
330
10E0
100
AcDbDictionary
280
     1
281
     1
  0
DICTIONARY
  5
DDF
330
1F
100
AcDbDictionary
280
     1
281
     1
  3
ACAD_SORTENTS
360
DE0
  0
DICTIONARY
  5
73
102
{ACAD_REACTORS
330
C
102
}
330
C
100
AcDbDictionary
281
     1
  0
DICTIONARY
  5
D
102
{ACAD_REACTORS
330
C
102
}
330
C
100
AcDbDictionary
281
     1
  0
DICTIONARY
  5
1A
102
{ACAD_REACTORS
330
C
102
}
330
C
100
AcDbDictionary
281
     1
  3
Layout1
350
59
  3
Layout2
350
5E
  3
Model
350
22
  0
DICTIONARY
  5
72
102
{ACAD_REACTORS
330
C
102
}
330
C
100
AcDbDictionary
281
     1
  3
ByBlock
350
97
  3
ByLayer
350
96
  3
Global
350
98
  0
DICTIONARY
  5
D7
102
{ACAD_REACTORS
330
C
102
}
330
C
100
AcDbDictionary
281
     1
  3
Annotativa
350
E5
  3
Standard
350
D8
  0
DICTIONARY
  5
17
102
{ACAD_REACTORS
330
C
102
}
330
C
100
AcDbDictionary
281
     1
  3
Standard
350
18
  0
DICTIONARY
  5
19
102
{ACAD_REACTORS
330
C
102
}
330
C
100
AcDbDictionary
281
     1
  0
ACDBDICTIONARYWDFLT
  5
E
102
{ACAD_REACTORS
330
C
102
}
330
C
100
AcDbDictionary
281
     1
  3
Normal
350
F
100
AcDbDictionaryWithDefault
340
F
  0
DICTIONARY
  5
B6
102
{ACAD_REACTORS
330
C
102
}
330
C
100
AcDbDictionary
281
     1
  3
A0
350
B7
  3
A1
350
124
  3
A2
350
125
  3
A3
350
126
  3
A4
350
127
  3
A5
350
128
  3
A6
350
129
  3
A7
350
12A
  3
A8
350
12B
  3
A9
350
12C
  3
B0
350
12D
  3
B1
350
12E
  3
B2
350
12F
  3
B3
350
130
  3
B4
350
131
  3
B5
350
132
  3
B6
350
133
  3
B7
350
134
  3
B8
350
135
  3
B9
350
136
  3
C0
350
137
  3
C1
350
138
  3
C2
350
139
  3
C3
350
13A
  3
C4
350
13B
  3
C5
350
13C
  3
C6
350
13D
  3
C7
350
13E
  3
C8
350
13F
  3
C9
350
140
  3
D0
350
141
  3
D1
350
142
  3
D2
350
143
  0
DICTIONARY
  5
86
102
{ACAD_REACTORS
330
C
102
}
330
C
100
AcDbDictionary
281
     1
  3
Standard
350
87
  0
DICTIONARY
  5
99
102
{ACAD_REACTORS
330
C
102
}
330
C
100
AcDbDictionary
281
     1
  3
2dWireframe
350
9F
  3
3D Hidden
350
A1
  3
3dWireframe
350
A0
  3
Basic
350
9E
  3
Brighten
350
A5
  3
ColorChange
350
A9
  3
Conceptual
350
A2
  3
Dim
350
A4
  3
Facepattern
350
A8
  3
Flat
350
9A
  3
FlatWithEdges
350
9B
  3
Gouraud
350
9C
  3
GouraudWithEdges
350
9D
  3
Linepattern
350
A7
  3
Realistic
350
A3
  3
Thicken
350
A6
  0
XRECORD
  5
FF
102
{ACAD_REACTORS
330
C
102
}
330
C
100
AcDbXrecord
280
     1
 90
        1
330
87
  0
DICTIONARY
  5
66
102
{ACAD_REACTORS
330
C
102
}
330
C
100
AcDbDictionary
281
     1
  3
CANNOSCALE
350
F0
  3
CMLEADERSTYLE
350
EF
  3
CTABLESTYLE
350
89
  3
DIMASSOC
350
67
  3
HIDETEXT
350
6B
  3
INDEXCTL
350
1033
  3
LIGHTINGUNITS
350
1031
  3
MSLTSCALE
350
1030
  3
SORTENTS
350
1032
  0
DICTIONARY
  5
78E
102
{ACAD_REACTORS
330
C
102
}
330
C
100
AcDbDictionary
281
     1
  0
XRECORD
  5
1A3E
102
{ACAD_REACTORS
330
C
102
}
330
C
100
AcDbXrecord
280
     1
  1
DWGPROPS COOKIE
  2

  3

  4

  6

  7

  8
fontanaNZ
  9

300
=
301
=
302
=
303
=
304
=
305
=
306
=
307
=
308
=
309
=
 40
0.0370491666666667
 41
2455286.428724028
 42
2455510.726860567
  1

 90
        0
  0
DICTIONARY
  5
1A39
102
{ACAD_REACTORS
330
10C7
102
}
330
10C7
100
AcDbDictionary
281
     1
  0
DICTIONARY
  5
19AD
102
{ACAD_REACTORS
330
10C7
102
}
330
10C7
100
AcDbDictionary
281
     1
  0
DICTIONARY
  5
1A38
102
{ACAD_REACTORS
330
10C7
102
}
330
10C7
100
AcDbDictionary
281
     1
1001
ACAD
1000
<All
  0
XRECORD
  5
102B
102
{ACAD_REACTORS
330
E6
102
}
330
E6
100
AcDbXrecord
280
     1
290
     1
  0
XRECORD
  5
102D
102
{ACAD_REACTORS
330
102C
102
}
330
102C
100
AcDbXrecord
280
     1
290
     1
  0
XRECORD
  5
102F
102
{ACAD_REACTORS
330
102E
102
}
330
102E
100
AcDbXrecord
280
     1
290
     1
  0
SORTENTSTABLE
  5
DE0
102
{ACAD_REACTORS
330
DDF
102
}
330
DDF
100
AcDbSortentsTable
330
1F
331
BEC
  5
BEC
331
CA1
  5
CA1
331
B76
  5
B76
331
D1F
  5
D1F
331
BF4
  5
BF4
331
CA9
  5
CA9
331
D27
  5
D27
331
BFC
  5
BFC
331
CF0
  5
CF0
331
D2F
  5
D2F
331
C04
  5
C04
331
D52
  5
D52
331
D91
  5
D91
331
B39
  5
B39
331
D5A
  5
D5A
331
AFA
  5
AFA
331
B41
  5
B41
331
DB1
  5
DB1
331
B02
  5
B02
331
D6A
  5
D6A
331
B0A
  5
B0A
331
B49
  5
B49
331
CB9
  5
CB9
331
C43
  5
C43
331
B57
  5
B57
331
C0C
  5
C0C
331
CC1
  5
CC1
331
C4B
  5
C4B
331
B5F
  5
B5F
331
BD5
  5
BD5
331
BDD
  5
BDD
331
C92
  5
C92
331
B67
  5
B67
331
BA6
  5
BA6
331
D08
  5
D08
331
C5B
  5
C5B
331
BE5
  5
BE5
331
C9A
  5
C9A
331
B6F
  5
B6F
331
D33
  5
D33
331
D72
  5
D72
331
ADB
  5
ADB
331
DC9
  5
DC9
331
D43
  5
D43
331
AE3
  5
AE3
331
B22
  5
B22
331
B2A
  5
B2A
331
AEB
  5
AEB
331
B32
  5
B32
331
AF3
  5
AF3
331
BED
  5
BED
331
CA2
  5
CA2
331
B77
  5
B77
331
CD9
  5
CD9
331
D20
  5
D20
331
BBE
  5
BBE
331
BF5
  5
BF5
331
CAA
  5
CAA
331
BFD
  5
BFD
331
D28
  5
D28
331
CF1
  5
CF1
331
C7B
  5
C7B
331
D53
  5
D53
331
AFB
  5
AFB
331
D5B
  5
D5B
331
DAA
  5
DAA
331
B3A
  5
B3A
331
D63
  5
D63
331
B03
  5
B03
331
B42
  5
B42
331
B4A
  5
B4A
331
D6B
  5
D6B
331
B0B
  5
B0B
331
B50
  5
B50
331
CBA
  5
CBA
331
B58
  5
B58
331
C0D
  5
C0D
331
C44
  5
C44
331
C4C
  5
C4C
331
BD6
  5
BD6
331
C8B
  5
C8B
331
CC2
  5
CC2
331
D09
  5
D09
331
C54
  5
C54
331
BA7
  5
BA7
331
BDE
  5
BDE
331
C93
  5
C93
331
B68
  5
B68
331
BE6
  5
BE6
331
C9B
  5
C9B
331
D34
  5
D34
331
D7B
  5
D7B
331
D3C
  5
D3C
331
ADC
  5
ADC
331
AE4
  5
AE4
331
B23
  5
B23
331
D44
  5
D44
331
D83
  5
D83
331
DCA
  5
DCA
331
AEC
  5
AEC
331
D8B
  5
D8B
331
B2B
  5
B2B
331
AF4
  5
AF4
331
B33
  5
B33
331
B70
  5
B70
331
BEE
  5
BEE
331
CA3
  5
CA3
331
CDA
  5
CDA
331
B78
  5
B78
331
BB7
  5
BB7
331
D21
  5
D21
331
BF6
  5
BF6
331
CAB
  5
CAB
331
B80
  5
B80
331
BBF
  5
BBF
331
D29
  5
D29
331
BFE
  5
BFE
331
CF2
  5
CF2
331
C06
  5
C06
331
B3B
  5
B3B
331
DAB
  5
DAB
331
D5C
  5
D5C
331
AFC
  5
AFC
331
B43
  5
B43
331
DB3
  5
DB3
331
D64
  5
D64
331
B04
  5
B04
331
D6C
  5
D6C
331
B4B
  5
B4B
331
B14
  5
B14
331
B90
  5
B90
331
B51
  5
B51
331
CBB
  5
CBB
331
C0E
  5
C0E
331
C45
  5
C45
331
B59
  5
B59
331
CC3
  5
CC3
331
C4D
  5
C4D
331
BD7
  5
BD7
331
C8C
  5
C8C
331
BDF
  5
BDF
331
C94
  5
C94
331
B69
  5
B69
331
BA8
  5
BA8
331
D0A
  5
D0A
331
BE7
  5
BE7
331
D35
  5
D35
331
ADD
  5
ADD
331
DCB
  5
DCB
331
AE5
  5
AE5
331
D45
  5
D45
331
D84
  5
D84
331
B24
  5
B24
331
B2C
  5
B2C
331
D8C
  5
D8C
331
AED
  5
AED
331
AF5
  5
AF5
331
B71
  5
B71
331
CDB
  5
CDB
331
D1A
  5
D1A
331
C65
  5
C65
331
CA4
  5
CA4
331
BB8
  5
BB8
331
BEF
  5
BEF
331
B79
  5
B79
331
C2E
  5
C2E
331
B81
  5
B81
331
BC0
  5
BC0
331
BF7
  5
BF7
331
CAC
  5
CAC
331
CB4
  5
CB4
331
BFF
  5
BFF
331
C3E
  5
C3E
331
D2A
  5
D2A
331
C7D
  5
C7D
331
D94
  5
D94
331
AFD
  5
AFD
331
D5D
  5
D5D
331
DAC
  5
DAC
331
D65
  5
D65
331
B05
  5
B05
331
B44
  5
B44
331
B4C
  5
B4C
331
D6D
  5
D6D
331
B15
  5
B15
331
B52
  5
B52
331
CBC
  5
CBC
331
B5A
  5
B5A
331
C0F
  5
C0F
331
C46
  5
C46
331
C4E
  5
C4E
331
BD8
  5
BD8
331
C8D
  5
C8D
331
CC4
  5
CC4
331
BE0
  5
BE0
331
C95
  5
C95
331
B6A
  5
B6A
331
D36
  5
D36
331
B1D
  5
B1D
331
ADE
  5
ADE
331
AE6
  5
AE6
331
B25
  5
B25
331
D85
  5
D85
331
DCC
  5
DCC
331
AEE
  5
AEE
331
D8D
  5
D8D
331
B2D
  5
B2D
331
AF6
  5
AF6
331
B72
  5
B72
331
BE8
  5
BE8
331
CA5
  5
CA5
331
BF0
  5
BF0
331
B7A
  5
B7A
331
C2F
  5
C2F
331
C66
  5
C66
331
D1B
  5
D1B
331
C6E
  5
C6E
331
CAD
  5
CAD
331
BC1
  5
BC1
331
BF8
  5
BF8
331
B82
  5
B82
331
C37
  5
C37
331
CEC
  5
CEC
331
D2B
  5
D2B
331
CB5
  5
CB5
331
C3F
  5
C3F
331
C7E
  5
C7E
331
D56
  5
D56
331
D5E
  5
D5E
331
AFE
  5
AFE
331
D66
  5
D66
331
B06
  5
B06
331
B45
  5
B45
331
D6E
  5
D6E
331
B4D
  5
B4D
331
B53
  5
B53
331
C08
  5
C08
331
CBD
  5
CBD
331
B5B
  5
B5B
331
C10
  5
C10
331
C47
  5
C47
331
C8E
  5
C8E
331
CC5
  5
CC5
331
C4F
  5
C4F
331
D04
  5
D04
331
BA2
  5
BA2
331
BD9
  5
BD9
331
C96
  5
C96
331
BE1
  5
BE1
331
B6B
  5
B6B
331
C20
  5
C20
331
CCD
  5
CCD
331
C9E
  5
C9E
331
D37
  5
D37
331
ADF
  5
ADF
331
B1E
  5
B1E
331
AE7
  5
AE7
331
D86
  5
D86
331
B26
  5
B26
331
B2E
  5
B2E
331
D8E
  5
D8E
331
D4F
  5
D4F
331
AEF
  5
AEF
331
AF7
  5
AF7
331
BE9
  5
BE9
331
B73
  5
B73
331
D1C
  5
D1C
331
C30
  5
C30
331
C67
  5
C67
331
BF1
  5
BF1
331
CA6
  5
CA6
331
C38
  5
C38
331
B83
  5
B83
331
BF9
  5
BF9
331
C01
  5
C01
331
CB6
  5
CB6
331
CED
  5
CED
331
D2C
  5
D2C
331
C7F
  5
C7F
331
D57
  5
D57
331
DAE
  5
DAE
331
D67
  5
D67
331
B07
  5
B07
331
B4E
  5
B4E
331
D6F
  5
D6F
331
B54
  5
B54
331
C09
  5
C09
331
C40
  5
C40
331
CBE
  5
CBE
331
B5C
  5
B5C
331
C11
  5
C11
331
C48
  5
C48
331
D05
  5
D05
331
C50
  5
C50
331
BA3
  5
BA3
331
BDA
  5
BDA
331
C8F
  5
C8F
331
B64
  5
B64
331
CC6
  5
CC6
331
B6C
  5
B6C
331
BE2
  5
BE2
331
C97
  5
C97
331
C9F
  5
C9F
331
D38
  5
D38
331
AD8
  5
AD8
331
B1F
  5
B1F
331
AE0
  5
AE0
331
AE8
  5
AE8
331
D87
  5
D87
331
B27
  5
B27
331
AF0
  5
AF0
331
B74
  5
B74
331
BEA
  5
BEA
331
CA7
  5
CA7
331
BF2
  5
BF2
331
C31
  5
C31
331
C68
  5
C68
331
D1D
  5
D1D
331
BFA
  5
BFA
331
C39
  5
C39
331
CEE
  5
CEE
331
D2D
  5
D2D
331
C02
  5
C02
331
CB7
  5
CB7
331
D50
  5
D50
331
DDE
  5
DDE
331
AF8
  5
AF8
331
D58
  5
D58
331
DAF
  5
DAF
331
B08
  5
B08
331
D68
  5
D68
331
B47
  5
B47
331
B4F
  5
B4F
331
C41
  5
C41
331
B55
  5
B55
331
C0A
  5
C0A
331
CBF
  5
CBF
331
C12
  5
C12
331
C49
  5
C49
331
B5D
  5
B5D
331
BD3
  5
BD3
331
C90
  5
C90
331
CC7
  5
CC7
331
BDB
  5
BDB
331
B65
  5
B65
331
BA4
  5
BA4
331
C51
  5
C51
331
D06
  5
D06
331
BE3
  5
BE3
331
C98
  5
C98
331
B6D
  5
B6D
331
D70
  5
D70
331
D31
  5
D31
331
AD9
  5
AD9
331
D39
  5
D39
331
AE1
  5
AE1
331
B20
  5
B20
331
B28
  5
B28
331
D88
  5
D88
331
AE9
  5
AE9
331
AF1
  5
AF1
331
BEB
  5
BEB
331
CA0
  5
CA0
331
B75
  5
B75
331
D1E
  5
D1E
331
C32
  5
C32
331
BF3
  5
BF3
331
CA8
  5
CA8
331
CB0
  5
CB0
331
D26
  5
D26
331
BFB
  5
BFB
331
CEF
  5
CEF
331
D2E
  5
D2E
331
D90
  5
D90
331
D51
  5
D51
331
D59
  5
D59
331
AF9
  5
AF9
331
B38
  5
B38
331
B01
  5
B01
331
B40
  5
B40
331
B09
  5
B09
331
D69
  5
D69
331
B48
  5
B48
331
CB8
  5
CB8
331
B56
  5
B56
331
C0B
  5
C0B
331
C42
  5
C42
331
C4A
  5
C4A
331
BD4
  5
BD4
331
B5E
  5
B5E
331
CC0
  5
CC0
331
D07
  5
D07
331
BA5
  5
BA5
331
BDC
  5
BDC
331
C91
  5
C91
331
B66
  5
B66
331
C5A
  5
C5A
331
B6E
  5
B6E
331
BE4
  5
BE4
331
C99
  5
C99
331
D17
  5
D17
331
D71
  5
D71
331
ADA
  5
ADA
331
B21
  5
B21
331
D42
  5
D42
331
AE2
  5
AE2
331
AEA
  5
AEA
331
B29
  5
B29
331
AF2
  5
AF2
331
B31
  5
B31
  0
LAYOUT
  5
59
102
{ACAD_XDICTIONARY
360
1A41
102
}
102
{ACAD_REACTORS
330
1A
102
}
330
1A
100
AcDbPlotSettings
  1

  2
None
  4

  6

 40
0.0
 41
0.0
 42
0.0
 43
0.0
 44
0.0
 45
0.0
 46
0.0
 47
0.0
 48
0.0
 49
0.0
140
0.0
141
0.0
142
1.0
143
1.0
 70
   688
 72
     0
 73
     0
 74
     5
  7

 75
    16
147
1.0
148
0.0
149
0.0
100
AcDbLayout
  1
Layout1
 70
     1
 71
     1
 10
0.0
 20
0.0
 11
12.0
 21
9.0
 12
0.0
 22
0.0
 32
0.0
 14
0.0
 24
0.0
 34
0.0
 15
0.0
 25
0.0
 35
0.0
146
0.0
 13
0.0
 23
0.0
 33
0.0
 16
1.0
 26
0.0
 36
0.0
 17
0.0
 27
1.0
 37
0.0
 76
     0
330
58
  0
LAYOUT
  5
5E
102
{ACAD_XDICTIONARY
360
1A43
102
}
102
{ACAD_REACTORS
330
1A
102
}
330
1A
100
AcDbPlotSettings
  1

  2
None
  4

  6

 40
0.0
 41
0.0
 42
0.0
 43
0.0
 44
0.0
 45
0.0
 46
0.0
 47
0.0
 48
0.0
 49
0.0
140
0.0
141
0.0
142
1.0
143
1.0
 70
   688
 72
     0
 73
     0
 74
     5
  7

 75
    16
147
1.0
148
0.0
149
0.0
100
AcDbLayout
  1
Layout2
 70
     1
 71
     2
 10
0.0
 20
0.0
 11
12.0
 21
9.0
 12
0.0
 22
0.0
 32
0.0
 14
0.0
 24
0.0
 34
0.0
 15
0.0
 25
0.0
 35
0.0
146
0.0
 13
0.0
 23
0.0
 33
0.0
 16
1.0
 26
0.0
 36
0.0
 17
0.0
 27
1.0
 37
0.0
 76
     0
330
5D
  0
LAYOUT
  5
22
102
{ACAD_XDICTIONARY
360
1A3F
102
}
102
{ACAD_REACTORS
330
1A
102
}
330
1A
100
AcDbPlotSettings
  1

  2
none_device
  4
ANSI_A_(8.50_x_11.00_Inches)
  6

 40
6.349999904632567
 41
19.04999923706055
 42
6.350006103515625
 43
19.04998779296875
 44
215.8999938964844
 45
279.3999938964844
 46
0.0
 47
0.0
 48
0.0
 49
0.0
140
0.0
141
0.0
142
1.0
143
2.584895464708373
 70
 11952
 72
     0
 73
     1
 74
     0
  7

 75
     0
147
0.3868628397755418
148
0.0
149
0.0
100
AcDbLayout
  1
Model
 70
     1
 71
     0
 10
0.0
 20
0.0
 11
12.0
 21
9.0
 12
0.0
 22
0.0
 32
0.0
 14
0.0
 24
0.0
 34
0.0
 15
0.0
 25
0.0
 35
0.0
146
0.0
 13
0.0
 23
0.0
 33
0.0
 16
1.0
 26
0.0
 36
0.0
 17
0.0
 27
1.0
 37
0.0
 76
     0
330
1F
331
94
  0
MATERIAL
  5
97
102
{ACAD_XDICTIONARY
360
10BC
102
}
102
{ACAD_REACTORS
330
72
102
}
330
72
100
AcDbMaterial
  1
ByBlock
  0
MATERIAL
  5
96
102
{ACAD_XDICTIONARY
360
10BA
102
}
102
{ACAD_REACTORS
330
72
102
}
330
72
100
AcDbMaterial
  1
ByLayer
  0
MATERIAL
  5
98
102
{ACAD_XDICTIONARY
360
110
102
}
102
{ACAD_REACTORS
330
72
102
}
330
72
100
AcDbMaterial
  1
Global
 43
0.0208000000566244
 43
0.0
 43
0.0
 43
0.0
 43
0.0
 43
0.0208000000566244
 43
0.0
 43
0.0
 43
0.0
 43
0.0
 43
1.0
 43
0.0
 43
0.0
 43
0.0
 43
0.0
 43
1.0
 49
0.0208000000566244
 49
0.0
 49
0.0
 49
0.0
 49
0.0
 49
0.0208000000566244
 49
0.0
 49
0.0
 49
0.0
 49
0.0
 49
1.0
 49
0.0
 49
0.0
 49
0.0
 49
0.0
 49
1.0
142
0.0208000000566244
142
0.0
142
0.0
142
0.0
142
0.0
142
0.0208000000566244
142
0.0
142
0.0
142
0.0
142
0.0
142
1.0
142
0.0
142
0.0
142
0.0
142
0.0
142
1.0
144
0.0208000000566244
144
0.0
144
0.0
144
0.0
144
0.0
144
0.0208000000566244
144
0.0
144
0.0
144
0.0
144
0.0
144
1.0
144
0.0
144
0.0
144
0.0
144
0.0
144
1.0
1001
ACAD
1070
    -1
1070
     3
1070
     0
1000

1071
        0
1070
     0
  0
MLEADERSTYLE
  5
E5
102
{ACAD_REACTORS
330
D7
102
}
330
D7
100
AcDbMLeaderStyle
170
     2
171
     1
172
     0
 90
        2
 40
0.0
 41
0.0
173
     1
 91
-1056964608
340
14
 92
       -2
290
     1
 42
0.09
291
     1
 43
0.36
  3
Standard
 44
0.18
300

342
11
174
     1
178
     1
175
     1
176
     0
 93
-1056964608
 45
0.18
292
     0
297
     0
 46
0.18
 94
-1056964608
 47
1.0
 49
1.0
140
1.0
293
     1
141
0.0
294
     1
177
     0
142
1.0
295
     0
296
     1
143
0.125
1001
ACAD_MLEADERVER
1070
     2
  0
MLEADERSTYLE
  5
D8
102
{ACAD_REACTORS
330
D7
102
}
330
D7
100
AcDbMLeaderStyle
170
     2
171
     1
172
     0
 90
        2
 40
0.0
 41
0.0
173
     1
 91
-1056964608
340
14
 92
       -2
290
     1
 42
0.09
291
     1
 43
0.36
  3
Standard
 44
0.18
300

342
11
174
     1
178
     1
175
     1
176
     0
 93
-1056964608
 45
0.18
292
     0
297
     0
 46
0.18
 94
-1056964608
 47
1.0
 49
1.0
140
1.0
293
     1
141
0.0
294
     1
177
     0
142
1.0
295
     0
296
     0
143
0.125
1001
ACAD_MLEADERVER
1070
     2
  0
MLINESTYLE
  5
18
102
{ACAD_REACTORS
330
17
102
}
330
17
100
AcDbMlineStyle
  2
STANDARD
 70
     0
  3

 62
   256
 51
90.0
 52
90.0
 71
     2
 49
0.5
 62
   256
  6
BYLAYER
 49
-0.5
 62
   256
  6
BYLAYER
  0
ACDBPLACEHOLDER
  5
F
102
{ACAD_REACTORS
330
E
102
}
330
E
  0
SCALE
  5
B7
102
{ACAD_REACTORS
330
B6
102
}
330
B6
100
AcDbScale
 70
     0
300
1:1
140
1.0
141
1.0
290
     1
  0
SCALE
  5
124
102
{ACAD_REACTORS
330
B6
102
}
330
B6
100
AcDbScale
 70
     0
300
1:2
140
1.0
141
2.0
290
     0
  0
SCALE
  5
125
102
{ACAD_REACTORS
330
B6
102
}
330
B6
100
AcDbScale
 70
     0
300
1:4
140
1.0
141
4.0
290
     0
  0
SCALE
  5
126
102
{ACAD_REACTORS
330
B6
102
}
330
B6
100
AcDbScale
 70
     0
300
1:5
140
1.0
141
5.0
290
     0
  0
SCALE
  5
127
102
{ACAD_REACTORS
330
B6
102
}
330
B6
100
AcDbScale
 70
     0
300
1:8
140
1.0
141
8.0
290
     0
  0
SCALE
  5
128
102
{ACAD_REACTORS
330
B6
102
}
330
B6
100
AcDbScale
 70
     0
300
1:10
140
1.0
141
10.0
290
     0
  0
SCALE
  5
129
102
{ACAD_REACTORS
330
B6
102
}
330
B6
100
AcDbScale
 70
     0
300
1:16
140
1.0
141
16.0
290
     0
  0
SCALE
  5
12A
102
{ACAD_REACTORS
330
B6
102
}
330
B6
100
AcDbScale
 70
     0
300
1:20
140
1.0
141
20.0
290
     0
  0
SCALE
  5
12B
102
{ACAD_REACTORS
330
B6
102
}
330
B6
100
AcDbScale
 70
     0
300
1:30
140
1.0
141
30.0
290
     0
  0
SCALE
  5
12C
102
{ACAD_REACTORS
330
B6
102
}
330
B6
100
AcDbScale
 70
     0
300
1:40
140
1.0
141
40.0
290
     0
  0
SCALE
  5
12D
102
{ACAD_REACTORS
330
B6
102
}
330
B6
100
AcDbScale
 70
     0
300
1:50
140
1.0
141
50.0
290
     0
  0
SCALE
  5
12E
102
{ACAD_REACTORS
330
B6
102
}
330
B6
100
AcDbScale
 70
     0
300
1:100
140
1.0
141
100.0
290
     0
  0
SCALE
  5
12F
102
{ACAD_REACTORS
330
B6
102
}
330
B6
100
AcDbScale
 70
     0
300
2:1
140
2.0
141
1.0
290
     0
  0
SCALE
  5
130
102
{ACAD_REACTORS
330
B6
102
}
330
B6
100
AcDbScale
 70
     0
300
4:1
140
4.0
141
1.0
290
     0
  0
SCALE
  5
131
102
{ACAD_REACTORS
330
B6
102
}
330
B6
100
AcDbScale
 70
     0
300
8:1
140
8.0
141
1.0
290
     0
  0
SCALE
  5
132
102
{ACAD_REACTORS
330
B6
102
}
330
B6
100
AcDbScale
 70
     0
300
10:1
140
10.0
141
1.0
290
     0
  0
SCALE
  5
133
102
{ACAD_REACTORS
330
B6
102
}
330
B6
100
AcDbScale
 70
     0
300
100:1
140
100.0
141
1.0
290
     0
  0
SCALE
  5
134
102
{ACAD_REACTORS
330
B6
102
}
330
B6
100
AcDbScale
 70
     0
300
1/128" = 1'-0"
140
0.0078125
141
12.0
290
     0
  0
SCALE
  5
135
102
{ACAD_REACTORS
330
B6
102
}
330
B6
100
AcDbScale
 70
     0
300
1/64" = 1'-0"
140
0.015625
141
12.0
290
     0
  0
SCALE
  5
136
102
{ACAD_REACTORS
330
B6
102
}
330
B6
100
AcDbScale
 70
     0
300
1/32" = 1'-0"
140
0.03125
141
12.0
290
     0
  0
SCALE
  5
137
102
{ACAD_REACTORS
330
B6
102
}
330
B6
100
AcDbScale
 70
     0
300
1/16" = 1'-0"
140
0.0625
141
12.0
290
     0
  0
SCALE
  5
138
102
{ACAD_REACTORS
330
B6
102
}
330
B6
100
AcDbScale
 70
     0
300
3/32" = 1'-0"
140
0.09375
141
12.0
290
     0
  0
SCALE
  5
139
102
{ACAD_REACTORS
330
B6
102
}
330
B6
100
AcDbScale
 70
     0
300
1/8" = 1'-0"
140
0.125
141
12.0
290
     0
  0
SCALE
  5
13A
102
{ACAD_REACTORS
330
B6
102
}
330
B6
100
AcDbScale
 70
     0
300
3/16" = 1'-0"
140
0.1875
141
12.0
290
     0
  0
SCALE
  5
13B
102
{ACAD_REACTORS
330
B6
102
}
330
B6
100
AcDbScale
 70
     0
300
1/4" = 1'-0"
140
0.25
141
12.0
290
     0
  0
SCALE
  5
13C
102
{ACAD_REACTORS
330
B6
102
}
330
B6
100
AcDbScale
 70
     0
300
3/8" = 1'-0"
140
0.375
141
12.0
290
     0
  0
SCALE
  5
13D
102
{ACAD_REACTORS
330
B6
102
}
330
B6
100
AcDbScale
 70
     0
300
1/2" = 1'-0"
140
0.5
141
12.0
290
     0
  0
SCALE
  5
13E
102
{ACAD_REACTORS
330
B6
102
}
330
B6
100
AcDbScale
 70
     0
300
3/4" = 1'-0"
140
0.75
141
12.0
290
     0
  0
SCALE
  5
13F
102
{ACAD_REACTORS
330
B6
102
}
330
B6
100
AcDbScale
 70
     0
300
1" = 1'-0"
140
1.0
141
12.0
290
     0
  0
SCALE
  5
140
102
{ACAD_REACTORS
330
B6
102
}
330
B6
100
AcDbScale
 70
     0
300
1-1/2" = 1'-0"
140
1.5
141
12.0
290
     0
  0
SCALE
  5
141
102
{ACAD_REACTORS
330
B6
102
}
330
B6
100
AcDbScale
 70
     0
300
3" = 1'-0"
140
3.0
141
12.0
290
     0
  0
SCALE
  5
142
102
{ACAD_REACTORS
330
B6
102
}
330
B6
100
AcDbScale
 70
     0
300
6" = 1'-0"
140
6.0
141
12.0
290
     0
  0
SCALE
  5
143
102
{ACAD_REACTORS
330
B6
102
}
330
B6
100
AcDbScale
 70
     0
300
1'-0" = 1'-0"
140
12.0
141
12.0
290
     0
  0
TABLESTYLE
  5
87
102
{ACAD_XDICTIONARY
360
104
102
}
102
{ACAD_REACTORS
330
86
102
}
330
86
100
AcDbTableStyle
  3
Standard
 70
     0
 71
     0
 40
0.06
 41
0.06
280
     0
281
     0
  7
Standard
140
0.18
170
     2
 62
     0
 63
     7
283
     0
274
    -2
284
     1
 64
     0
275
    -2
285
     1
 65
     0
276
    -2
286
     1
 66
     0
277
    -2
287
     1
 67
     0
278
    -2
288
     1
 68
     0
279
    -2
289
     1
 69
     0
  7
Standard
140
0.25
170
     5
 62
     0
 63
     7
283
     0
274
    -2
284
     1
 64
     0
275
    -2
285
     1
 65
     0
276
    -2
286
     1
 66
     0
277
    -2
287
     1
 67
     0
278
    -2
288
     1
 68
     0
279
    -2
289
     1
 69
     0
  7
Standard
140
0.18
170
     5
 62
     0
 63
     7
283
     0
274
    -2
284
     1
 64
     0
275
    -2
285
     1
 65
     0
276
    -2
286
     1
 66
     0
277
    -2
287
     1
 67
     0
278
    -2
288
     1
 68
     0
279
    -2
289
     1
 69
     0
  0
VISUALSTYLE
  5
9F
102
{ACAD_REACTORS
330
99
102
}
330
99
100
AcDbVisualStyle
  2
2dWireframe
 70
     4
 71
     0
 72
     2
 73
     1
 90
        0
 40
-0.6
 41
-30.0
 62
     5
 63
     7
 74
     1
 91
        4
 64
     7
 65
   257
 75
     1
175
     1
 42
1.0
 92
        0
 66
   257
 43
1.0
 76
     1
 77
     6
 78
     2
 67
     7
 79
     5
170
     0
171
     0
290
     0
174
     0
 93
        1
 44
0.0
173
     0
291
     0
 45
0.0
1001
ACAD
1000
AcDbSavedByObjectVersion
1070
     0
1000
AcDbSavedByObjectVersion
1070
     0
1000
AcDbSavedByObjectVersion
1070
     0
1000
AcDbSavedByObjectVersion
1070
     0
1000
AcDbSavedByObjectVersion
1070
     0
1000
AcDbSavedByObjectVersion
1070
     0
1000
AcDbSavedByObjectVersion
1070
     0
  0
VISUALSTYLE
  5
A1
102
{ACAD_REACTORS
330
99
102
}
330
99
100
AcDbVisualStyle
  2
3D Hidden
 70
     6
 71
     1
 72
     2
 73
     2
 90
        0
 40
-0.6
 41
-30.0
 62
     5
 63
     7
 74
     2
 91
        2
 64
     7
 65
   257
 75
     2
175
     1
 42
40.0
 92
        0
 66
   257
 43
1.0
 76
     1
 77
     6
 78
     2
 67
     7
 79
     3
170
     0
171
     0
290
     0
174
     0
 93
        1
 44
0.0
173
     0
291
     0
 45
0.0
1001
ACAD
1000
AcDbSavedByObjectVersion
1070
     0
1000
AcDbSavedByObjectVersion
1070
     0
1000
AcDbSavedByObjectVersion
1070
     0
1000
AcDbSavedByObjectVersion
1070
     0
1000
AcDbSavedByObjectVersion
1070
     0
1000
AcDbSavedByObjectVersion
1070
     0
1000
AcDbSavedByObjectVersion
1070
     0
  0
VISUALSTYLE
  5
A0
102
{ACAD_REACTORS
330
99
102
}
330
99
100
AcDbVisualStyle
  2
3dWireframe
 70
     5
 71
     0
 72
     2
 73
     1
 90
        0
 40
-0.6
 41
-30.0
 62
     5
 63
     7
 74
     1
 91
        4
 64
     7
 65
   257
 75
     1
175
     1
 42
1.0
 92
        0
 66
   257
 43
1.0
 76
     1
 77
     6
 78
     2
 67
     7
 79
     5
170
     0
171
     0
290
     0
174
     0
 93
        1
 44
0.0
173
     0
291
     0
 45
0.0
1001
ACAD
1000
AcDbSavedByObjectVersion
1070
     0
1000
AcDbSavedByObjectVersion
1070
     0
1000
AcDbSavedByObjectVersion
1070
     0
1000
AcDbSavedByObjectVersion
1070
     0
1000
AcDbSavedByObjectVersion
1070
     0
1000
AcDbSavedByObjectVersion
1070
     0
1000
AcDbSavedByObjectVersion
1070
     0
  0
VISUALSTYLE
  5
9E
102
{ACAD_REACTORS
330
99
102
}
330
99
100
AcDbVisualStyle
  2
Basic
 70
     7
 71
     1
 72
     0
 73
     1
 90
        0
 40
-0.6
 41
-30.0
 62
     5
 63
     7
 74
     0
 91
        4
 64
     7
 65
   257
 75
     1
175
     1
 42
1.0
 92
        8
 66
     7
 43
1.0
 76
     1
 77
     6
 78
     2
 67
     7
 79
     5
170
     0
171
     0
290
     0
174
     0
 93
        1
 44
0.0
173
     0
291
     1
 45
0.0
1001
ACAD
1000
AcDbSavedByObjectVersion
1070
     0
1000
AcDbSavedByObjectVersion
1070
     0
1000
AcDbSavedByObjectVersion
1070
     0
1000
AcDbSavedByObjectVersion
1070
     0
1000
AcDbSavedByObjectVersion
1070
     0
1000
AcDbSavedByObjectVersion
1070
     0
1000
AcDbSavedByObjectVersion
1070
     0
  0
VISUALSTYLE
  5
A5
102
{ACAD_REACTORS
330
99
102
}
330
99
100
AcDbVisualStyle
  2
Brighten
 70
    12
 71
     2
 72
     2
 73
     1
 90
        0
 40
-0.6
 41
-30.0
 62
     5
 63
     7
 74
     1
 91
        4
 64
     7
 65
   257
 75
     1
175
     1
 42
1.0
 92
        8
 66
     7
 43
1.0
 76
     1
 77
     6
 78
     2
 67
     7
 79
     5
170
     0
171
     0
290
     0
174
     0
 93
        1
 44
50.0
173
     0
291
     1
 45
0.0
1001
ACAD
1000
AcDbSavedByObjectVersion
1070
     0
1000
AcDbSavedByObjectVersion
1070
     0
1000
AcDbSavedByObjectVersion
1070
     0
1000
AcDbSavedByObjectVersion
1070
     0
1000
AcDbSavedByObjectVersion
1070
     0
1000
AcDbSavedByObjectVersion
1070
     0
1000
AcDbSavedByObjectVersion
1070
     0
  0
VISUALSTYLE
  5
A9
102
{ACAD_REACTORS
330
99
102
}
330
99
100
AcDbVisualStyle
  2
ColorChange
 70
    16
 71
     2
 72
     2
 73
     3
 90
        0
 40
-0.6
 41
-30.0
 62
     5
 63
     8
 74
     1
 91
        4
 64
     7
 65
   257
 75
     1
175
     1
 42
1.0
 92
        8
 66
     8
 43
1.0
 76
     1
 77
     6
 78
     2
 67
     7
 79
     5
170
     0
171
     0
290
     0
174
     0
 93
        1
 44
0.0
173
     0
291
     1
 45
0.0
1001
ACAD
1000
AcDbSavedByObjectVersion
1070
     0
1000
AcDbSavedByObjectVersion
1070
     0
1000
AcDbSavedByObjectVersion
1070
     0
1000
AcDbSavedByObjectVersion
1070
     0
1000
AcDbSavedByObjectVersion
1070
     0
1000
AcDbSavedByObjectVersion
1070
     0
1000
AcDbSavedByObjectVersion
1070
     0
  0
VISUALSTYLE
  5
A2
102
{ACAD_REACTORS
330
99
102
}
330
99
100
AcDbVisualStyle
  2
Conceptual
 70
     9
 71
     3
 72
     2
 73
     1
 90
        0
 40
-0.6
 41
-30.0
 62
     5
 63
     7
 74
     2
 91
        2
 64
     7
 65
   257
 75
     1
175
     1
 42
40.0
 92
        8
 66
     7
 43
1.0
 76
     1
 77
     6
 78
     2
 67
     7
 79
     3
170
     0
171
     0
290
     0
174
     0
 93
        1
 44
0.0
173
     0
291
     0
 45
0.0
1001
ACAD
1000
AcDbSavedByObjectVersion
1070
     0
1000
AcDbSavedByObjectVersion
1070
     0
1000
AcDbSavedByObjectVersion
1070
     0
1000
AcDbSavedByObjectVersion
1070
     0
1000
AcDbSavedByObjectVersion
1070
     0
1000
AcDbSavedByObjectVersion
1070
     0
1000
AcDbSavedByObjectVersion
1070
     0
  0
VISUALSTYLE
  5
A4
102
{ACAD_REACTORS
330
99
102
}
330
99
100
AcDbVisualStyle
  2
Dim
 70
    11
 71
     2
 72
     2
 73
     1
 90
        0
 40
-0.6
 41
-30.0
 62
     5
 63
     7
 74
     1
 91
        4
 64
     7
 65
   257
 75
     1
175
     1
 42
1.0
 92
        8
 66
     7
 43
1.0
 76
     1
 77
     6
 78
     2
 67
     7
 79
     5
170
     0
171
     0
290
     0
174
     0
 93
        1
 44
-50.0
173
     0
291
     1
 45
0.0
1001
ACAD
1000
AcDbSavedByObjectVersion
1070
     0
1000
AcDbSavedByObjectVersion
1070
     0
1000
AcDbSavedByObjectVersion
1070
     0
1000
AcDbSavedByObjectVersion
1070
     0
1000
AcDbSavedByObjectVersion
1070
     0
1000
AcDbSavedByObjectVersion
1070
     0
1000
AcDbSavedByObjectVersion
1070
     0
  0
VISUALSTYLE
  5
A8
102
{ACAD_REACTORS
330
99
102
}
330
99
100
AcDbVisualStyle
  2
Facepattern
 70
    15
 71
     2
 72
     2
 73
     1
 90
        0
 40
-0.6
 41
-30.0
 62
     5
 63
     7
 74
     1
 91
        4
 64
     7
 65
   257
 75
     1
175
     1
 42
1.0
 92
        8
 66
     7
 43
1.0
 76
     1
 77
     6
 78
     2
 67
     7
 79
     5
170
     0
171
     0
290
     0
174
     0
 93
        1
 44
0.0
173
     0
291
     1
 45
0.0
1001
ACAD
1000
AcDbSavedByObjectVersion
1070
     0
1000
AcDbSavedByObjectVersion
1070
     0
1000
AcDbSavedByObjectVersion
1070
     0
1000
AcDbSavedByObjectVersion
1070
     0
1000
AcDbSavedByObjectVersion
1070
     0
1000
AcDbSavedByObjectVersion
1070
     0
1000
AcDbSavedByObjectVersion
1070
     0
  0
VISUALSTYLE
  5
9A
102
{ACAD_REACTORS
330
99
102
}
330
99
100
AcDbVisualStyle
  2
Flat
 70
     0
 71
     2
 72
     1
 73
     1
 90
        2
 40
-0.6
 41
30.0
 62
     5
 63
     7
 74
     0
 91
        4
 64
     7
 65
   257
 75
     1
175
     1
 42
1.0
 92
        8
 66
     7
 43
1.0
 76
     1
 77
     6
 78
     2
 67
     7
 79
     5
170
     0
171
     0
290
     0
174
     0
 93
        1
 44
0.0
173
     0
291
     1
 45
0.0
1001
ACAD
1000
AcDbSavedByObjectVersion
1070
     0
1000
AcDbSavedByObjectVersion
1070
     0
1000
AcDbSavedByObjectVersion
1070
     0
1000
AcDbSavedByObjectVersion
1070
     0
1000
AcDbSavedByObjectVersion
1070
     0
1000
AcDbSavedByObjectVersion
1070
     0
1000
AcDbSavedByObjectVersion
1070
     0
  0
VISUALSTYLE
  5
9B
102
{ACAD_REACTORS
330
99
102
}
330
99
100
AcDbVisualStyle
  2
FlatWithEdges
 70
     1
 71
     2
 72
     1
 73
     1
 90
        2
 40
-0.6
 41
30.0
 62
     5
 63
     7
 74
     1
 91
        4
 64
     7
 65
   257
 75
     1
175
     1
 42
1.0
 92
        0
 66
   257
 43
1.0
 76
     1
 77
     6
 78
     2
 67
     7
 79
     5
170
     0
171
     0
290
     0
174
     0
 93
        1
 44
0.0
173
     0
291
     1
 45
0.0
1001
ACAD
1000
AcDbSavedByObjectVersion
1070
     0
1000
AcDbSavedByObjectVersion
1070
     0
1000
AcDbSavedByObjectVersion
1070
     0
1000
AcDbSavedByObjectVersion
1070
     0
1000
AcDbSavedByObjectVersion
1070
     0
1000
AcDbSavedByObjectVersion
1070
     0
1000
AcDbSavedByObjectVersion
1070
     0
  0
VISUALSTYLE
  5
9C
102
{ACAD_REACTORS
330
99
102
}
330
99
100
AcDbVisualStyle
  2
Gouraud
 70
     2
 71
     2
 72
     2
 73
     1
 90
        2
 40
-0.6
 41
30.0
 62
     5
 63
     7
 74
     0
 91
        4
 64
     7
 65
   257
 75
     1
175
     1
 42
1.0
 92
        0
 66
     7
 43
1.0
 76
     1
 77
     6
 78
     2
 67
     7
 79
     5
170
     0
171
     0
290
     0
174
     0
 93
        1
 44
0.0
173
     0
291
     1
 45
0.0
1001
ACAD
1000
AcDbSavedByObjectVersion
1070
     0
1000
AcDbSavedByObjectVersion
1070
     0
1000
AcDbSavedByObjectVersion
1070
     0
1000
AcDbSavedByObjectVersion
1070
     0
1000
AcDbSavedByObjectVersion
1070
     0
1000
AcDbSavedByObjectVersion
1070
     0
1000
AcDbSavedByObjectVersion
1070
     0
  0
VISUALSTYLE
  5
9D
102
{ACAD_REACTORS
330
99
102
}
330
99
100
AcDbVisualStyle
  2
GouraudWithEdges
 70
     3
 71
     2
 72
     2
 73
     1
 90
        2
 40
-0.6
 41
30.0
 62
     5
 63
     7
 74
     1
 91
        4
 64
     7
 65
   257
 75
     1
175
     1
 42
1.0
 92
        0
 66
   257
 43
1.0
 76
     1
 77
     6
 78
     2
 67
     7
 79
     5
170
     0
171
     0
290
     0
174
     0
 93
        1
 44
0.0
173
     0
291
     1
 45
0.0
1001
ACAD
1000
AcDbSavedByObjectVersion
1070
     0
1000
AcDbSavedByObjectVersion
1070
     0
1000
AcDbSavedByObjectVersion
1070
     0
1000
AcDbSavedByObjectVersion
1070
     0
1000
AcDbSavedByObjectVersion
1070
     0
1000
AcDbSavedByObjectVersion
1070
     0
1000
AcDbSavedByObjectVersion
1070
     0
  0
VISUALSTYLE
  5
A7
102
{ACAD_REACTORS
330
99
102
}
330
99
100
AcDbVisualStyle
  2
Linepattern
 70
    14
 71
     2
 72
     2
 73
     1
 90
        0
 40
-0.6
 41
-30.0
 62
     5
 63
     7
 74
     1
 91
        4
 64
     7
 65
   257
 75
     7
175
     7
 42
1.0
 92
        8
 66
     7
 43
1.0
 76
     1
 77
     6
 78
     2
 67
     7
 79
     5
170
     0
171
     0
290
     0
174
     0
 93
        1
 44
0.0
173
     0
291
     1
 45
0.0
1001
ACAD
1000
AcDbSavedByObjectVersion
1070
     0
1000
AcDbSavedByObjectVersion
1070
     0
1000
AcDbSavedByObjectVersion
1070
     0
1000
AcDbSavedByObjectVersion
1070
     0
1000
AcDbSavedByObjectVersion
1070
     0
1000
AcDbSavedByObjectVersion
1070
     0
1000
AcDbSavedByObjectVersion
1070
     0
  0
VISUALSTYLE
  5
A3
102
{ACAD_REACTORS
330
99
102
}
330
99
100
AcDbVisualStyle
  2
Realistic
 70
     8
 71
     2
 72
     2
 73
     1
 90
        0
 40
-0.6
 41
-30.0
 62
     5
 63
     7
 74
     1
 91
        0
 64
     7
 65
   257
 75
     1
175
     1
 42
1.0
 92
        8
 66
     8
 43
1.0
 76
     1
 77
     6
 78
     2
 67
     7
 79
     5
170
     0
171
     0
290
     0
174
     0
 93
       13
 44
0.0
173
     0
291
     0
 45
0.0
1001
ACAD
1000
AcDbSavedByObjectVersion
1070
     0
1000
AcDbSavedByObjectVersion
1070
     0
1000
AcDbSavedByObjectVersion
1070
     0
1000
AcDbSavedByObjectVersion
1070
     0
1000
AcDbSavedByObjectVersion
1070
     0
1000
AcDbSavedByObjectVersion
1070
     0
1000
AcDbSavedByObjectVersion
1070
     0
  0
VISUALSTYLE
  5
A6
102
{ACAD_REACTORS
330
99
102
}
330
99
100
AcDbVisualStyle
  2
Thicken
 70
    13
 71
     2
 72
     2
 73
     1
 90
        0
 40
-0.6
 41
-30.0
 62
     5
 63
     7
 74
     1
 91
        4
 64
     7
 65
   257
 75
     1
175
     1
 42
1.0
 92
       12
 66
     7
 43
1.0
 76
     1
 77
     6
 78
     2
 67
     7
 79
     5
170
     0
171
     0
290
     0
174
     0
 93
        1
 44
0.0
173
     0
291
     1
 45
0.0
1001
ACAD
1000
AcDbSavedByObjectVersion
1070
     0
1000
AcDbSavedByObjectVersion
1070
     0
1000
AcDbSavedByObjectVersion
1070
     0
1000
AcDbSavedByObjectVersion
1070
     0
1000
AcDbSavedByObjectVersion
1070
     0
1000
AcDbSavedByObjectVersion
1070
     0
1000
AcDbSavedByObjectVersion
1070
     0
  0
DICTIONARYVAR
  5
F0
102
{ACAD_REACTORS
330
66
102
}
330
66
100
DictionaryVariables
280
     0
  1
1:1
  0
DICTIONARYVAR
  5
EF
102
{ACAD_REACTORS
330
66
102
}
330
66
100
DictionaryVariables
280
     0
  1
STANDARD
  0
DICTIONARYVAR
  5
89
102
{ACAD_REACTORS
330
66
102
}
330
66
100
DictionaryVariables
280
     0
  1
STANDARD
  0
DICTIONARYVAR
  5
67
102
{ACAD_REACTORS
330
66
102
}
330
66
100
DictionaryVariables
280
     0
  1
2
  0
DICTIONARYVAR
  5
6B
102
{ACAD_REACTORS
330
66
102
}
330
66
100
DictionaryVariables
280
     0
  1
1
  0
DICTIONARYVAR
  5
1033
102
{ACAD_REACTORS
330
66
102
}
330
66
100
DictionaryVariables
280
     0
  1
0
  0
DICTIONARYVAR
  5
1031
102
{ACAD_REACTORS
330
66
102
}
330
66
100
DictionaryVariables
280
     0
  1
2
  0
DICTIONARYVAR
  5
1030
102
{ACAD_REACTORS
330
66
102
}
330
66
100
DictionaryVariables
280
     0
  1
1
  0
DICTIONARYVAR
  5
1032
102
{ACAD_REACTORS
330
66
102
}
330
66
100
DictionaryVariables
280
     0
  1
127
  0
DICTIONARY
  5
1A41
330
59
100
AcDbDictionary
280
     1
281
     1
  3
ACAD_XREC_ROUNDTRIP
360
1A42
  0
DICTIONARY
  5
1A43
330
5E
100
AcDbDictionary
280
     1
281
     1
  3
ACAD_XREC_ROUNDTRIP
360
1A44
  0
DICTIONARY
  5
1A3F
330
22
100
AcDbDictionary
280
     1
281
     1
  3
ACAD_XREC_ROUNDTRIP
360
1A40
  0
DICTIONARY
  5
10BC
330
97
100
AcDbDictionary
280
     1
281
     1
  3
ACAD_XREC_ROUNDTRIP
360
10BD
  0
DICTIONARY
  5
10BA
330
96
100
AcDbDictionary
280
     1
281
     1
  3
ACAD_XREC_ROUNDTRIP
360
10BB
  0
DICTIONARY
  5
110
330
98
100
AcDbDictionary
280
     1
281
     1
  3
ACAD_XREC_ROUNDTRIP
360
10BE
  3
BUMPTILE
360
112
  3
DIFFUSETILE
360
111
  3
OPACITYTILE
360
113
  3
REFLECTIONTILE
360
114
  0
DICTIONARY
  5
104
330
87
100
AcDbDictionary
280
     1
281
     1
  3
ACAD_ROUNDTRIP_2008_TABLESTYLE_CELLSTYLEMAP
360
1A3D
  3
ACAD_XREC_ROUNDTRIP
360
1A45
  0
XRECORD
  5
1A42
102
{ACAD_REACTORS
330
1A41
102
}
330
1A41
100
AcDbXrecord
280
     1
102
SHADEPLOT
 70
     0
102
SHADEPLOTRESLEVEL
 70
     2
102
SHADEPLOTCUSTOMDPI
 70
   300
  0
XRECORD
  5
1A44
102
{ACAD_REACTORS
330
1A43
102
}
330
1A43
100
AcDbXrecord
280
     1
102
SHADEPLOT
 70
     0
102
SHADEPLOTRESLEVEL
 70
     2
102
SHADEPLOTCUSTOMDPI
 70
   300
  0
XRECORD
  5
1A40
102
{ACAD_REACTORS
330
1A3F
102
}
330
1A3F
100
AcDbXrecord
280
     1
102
SHADEPLOT
 70
     0
102
SHADEPLOTRESLEVEL
 70
     2
102
SHADEPLOTCUSTOMDPI
 70
   300
  0
XRECORD
  5
10BD
102
{ACAD_REACTORS
330
10BC
102
}
330
10BC
100
AcDbXrecord
280
     1
102
MATERIAL
148
0.0
149
0.0
149
0.0
 93
        0
 94
      127
282
     0
 72
     1
 77
     1
171
     1
175
     1
179
     1
273
     0
  0
XRECORD
  5
10BB
102
{ACAD_REACTORS
330
10BA
102
}
330
10BA
100
AcDbXrecord
280
     1
102
MATERIAL
148
0.0
149
0.0
149
0.0
 93
        0
 94
      127
282
     0
 72
     1
 77
     1
171
     1
175
     1
179
     1
273
     0
  0
XRECORD
  5
10BE
102
{ACAD_REACTORS
330
110
102
}
330
110
100
AcDbXrecord
280
     1
102
MATERIAL
148
0.0
149
0.0
149
0.0
 93
        0
 94
      127
282
     0
 72
     1
 77
     1
171
     1
175
     1
179
     1
273
     0
  0
XRECORD
  5
112
102
{ACAD_REACTORS
330
110
102
}
330
110
100
AcDbXrecord
280
     1
270
     1
271
     1
  0
XRECORD
  5
111
102
{ACAD_REACTORS
330
110
102
}
330
110
100
AcDbXrecord
280
     1
270
     1
271
     1
  0
XRECORD
  5
113
102
{ACAD_REACTORS
330
110
102
}
330
110
100
AcDbXrecord
280
     1
270
     1
271
     1
  0
XRECORD
  5
114
102
{ACAD_REACTORS
330
110
102
}
330
110
100
AcDbXrecord
280
     1
270
     1
271
     1
  0
CELLSTYLEMAP
  5
1A3D
102
{ACAD_REACTORS
330
104
102
}
330
104
100
AcDbCellStyleMap
 90
        3
300
CELLSTYLE
  1
TABLEFORMAT_BEGIN
 90
        5
170
     1
 91
        0
 92
    32768
 62
   257
 93
        1
300
CONTENTFORMAT
  1
CONTENTFORMAT_BEGIN
 90
        0
 91
        0
 92
      512
 93
        0
300

 40
0.0
140
1.0
 94
        5
 62
     0
340
11
144
0.25
309
CONTENTFORMAT_END
171
     1
301
MARGIN
  1
CELLMARGIN_BEGIN
 40
0.06
 40
0.06
 40
0.06
 40
0.06
 40
0.18
 40
0.18
309
CELLMARGIN_END
 94
        6
 95
        1
302
GRIDFORMAT
  1
GRIDFORMAT_BEGIN
 90
        0
 91
        1
 62
     0
 92
       -2
340
0
 93
        0
 40
0.045
309
GRIDFORMAT_END
 95
        2
302
GRIDFORMAT
  1
GRIDFORMAT_BEGIN
 90
        0
 91
        1
 62
     0
 92
       -2
340
0
 93
        0
 40
0.045
309
GRIDFORMAT_END
 95
        4
302
GRIDFORMAT
  1
GRIDFORMAT_BEGIN
 90
        0
 91
        1
 62
     0
 92
       -2
340
0
 93
        0
 40
0.045
309
GRIDFORMAT_END
 95
        8
302
GRIDFORMAT
  1
GRIDFORMAT_BEGIN
 90
        0
 91
        1
 62
     0
 92
       -2
340
0
 93
        0
 40
0.045
309
GRIDFORMAT_END
 95
       16
302
GRIDFORMAT
  1
GRIDFORMAT_BEGIN
 90
        0
 91
        1
 62
     0
 92
       -2
340
0
 93
        0
 40
0.045
309
GRIDFORMAT_END
 95
       32
302
GRIDFORMAT
  1
GRIDFORMAT_BEGIN
 90
        0
 91
        1
 62
     0
 92
       -2
340
0
 93
        0
 40
0.045
309
GRIDFORMAT_END
309
TABLEFORMAT_END
  1
CELLSTYLE_BEGIN
 90
        1
 91
        1
300
_TITLE
309
CELLSTYLE_END
300
CELLSTYLE
  1
TABLEFORMAT_BEGIN
 90
        5
170
     1
 91
        0
 92
        0
 62
   257
 93
        1
300
CONTENTFORMAT
  1
CONTENTFORMAT_BEGIN
 90
        0
 91
        0
 92
      512
 93
        0
300

 40
0.0
140
1.0
 94
        5
 62
     0
340
11
144
0.18
309
CONTENTFORMAT_END
171
     1
301
MARGIN
  1
CELLMARGIN_BEGIN
 40
0.06
 40
0.06
 40
0.06
 40
0.06
 40
0.18
 40
0.18
309
CELLMARGIN_END
 94
        6
 95
        1
302
GRIDFORMAT
  1
GRIDFORMAT_BEGIN
 90
        0
 91
        1
 62
     0
 92
       -2
340
0
 93
        0
 40
0.045
309
GRIDFORMAT_END
 95
        2
302
GRIDFORMAT
  1
GRIDFORMAT_BEGIN
 90
        0
 91
        1
 62
     0
 92
       -2
340
0
 93
        0
 40
0.045
309
GRIDFORMAT_END
 95
        4
302
GRIDFORMAT
  1
GRIDFORMAT_BEGIN
 90
        0
 91
        1
 62
     0
 92
       -2
340
0
 93
        0
 40
0.045
309
GRIDFORMAT_END
 95
        8
302
GRIDFORMAT
  1
GRIDFORMAT_BEGIN
 90
        0
 91
        1
 62
     0
 92
       -2
340
0
 93
        0
 40
0.045
309
GRIDFORMAT_END
 95
       16
302
GRIDFORMAT
  1
GRIDFORMAT_BEGIN
 90
        0
 91
        1
 62
     0
 92
       -2
340
0
 93
        0
 40
0.045
309
GRIDFORMAT_END
 95
       32
302
GRIDFORMAT
  1
GRIDFORMAT_BEGIN
 90
        0
 91
        1
 62
     0
 92
       -2
340
0
 93
        0
 40
0.045
309
GRIDFORMAT_END
309
TABLEFORMAT_END
  1
CELLSTYLE_BEGIN
 90
        2
 91
        1
300
_HEADER
309
CELLSTYLE_END
300
CELLSTYLE
  1
TABLEFORMAT_BEGIN
 90
        5
170
     1
 91
        0
 92
        0
 62
   257
 93
        1
300
CONTENTFORMAT
  1
CONTENTFORMAT_BEGIN
 90
        0
 91
        0
 92
      512
 93
        0
300

 40
0.0
140
1.0
 94
        2
 62
     0
340
11
144
0.18
309
CONTENTFORMAT_END
171
     1
301
MARGIN
  1
CELLMARGIN_BEGIN
 40
0.06
 40
0.06
 40
0.06
 40
0.06
 40
0.18
 40
0.18
309
CELLMARGIN_END
 94
        6
 95
        1
302
GRIDFORMAT
  1
GRIDFORMAT_BEGIN
 90
        0
 91
        1
 62
     0
 92
       -2
340
0
 93
        0
 40
0.045
309
GRIDFORMAT_END
 95
        2
302
GRIDFORMAT
  1
GRIDFORMAT_BEGIN
 90
        0
 91
        1
 62
     0
 92
       -2
340
0
 93
        0
 40
0.045
309
GRIDFORMAT_END
 95
        4
302
GRIDFORMAT
  1
GRIDFORMAT_BEGIN
 90
        0
 91
        1
 62
     0
 92
       -2
340
0
 93
        0
 40
0.045
309
GRIDFORMAT_END
 95
        8
302
GRIDFORMAT
  1
GRIDFORMAT_BEGIN
 90
        0
 91
        1
 62
     0
 92
       -2
340
0
 93
        0
 40
0.045
309
GRIDFORMAT_END
 95
       16
302
GRIDFORMAT
  1
GRIDFORMAT_BEGIN
 90
        0
 91
        1
 62
     0
 92
       -2
340
0
 93
        0
 40
0.045
309
GRIDFORMAT_END
 95
       32
302
GRIDFORMAT
  1
GRIDFORMAT_BEGIN
 90
        0
 91
        1
 62
     0
 92
       -2
340
0
 93
        0
 40
0.045
309
GRIDFORMAT_END
309
TABLEFORMAT_END
  1
CELLSTYLE_BEGIN
 90
        3
 91
        2
300
_DATA
309
CELLSTYLE_END
  0
XRECORD
  5
1A45
102
{ACAD_REACTORS
330
104
102
}
330
104
100
AcDbXrecord
280
     1
102
ACAD_ROUNDTRIP_PRE2007_TABLESTYLE
 90
      512
 91
        0
  1

 92
      512
 93
        0
  2

 94
      512
 95
        0
  3

  0
ENDSEC
  0
EOF
