  0
SECTION
  2
HEADER
  9
$ACADVER
  1
AC1015
  9
$ACADMAINTVER
 70
    20
  9
$DWGCODEPAGE
  3
ANSI_1252
  9
$INSBASE
 10
0.0
 20
0.0
 30
0.0
  9
$EXTMIN
 10
26.63424676744145
 20
8.588084920052153
 30
0.0
  9
$EXTMAX
 10
166.3895915574414
 20
462.1949503200522
 30
0.0
  9
$LIMMIN
 10
0.0
 20
0.0
  9
$LIMMAX
 10
12.0
 20
9.0
  9
$ORTHOMODE
 70
     0
  9
$REGENMODE
 70
     1
  9
$FILLMODE
 70
     1
  9
$QTEXTMODE
 70
     0
  9
$MIRRTEXT
 70
     0
  9
$LTSCALE
 40
1.0
  9
$ATTMODE
 70
     1
  9
$TEXTSIZE
 40
0.2
  9
$TRACEWID
 40
0.05
  9
$TEXTSTYLE
  7
Standard
  9
$CLAYER
  8
0
  9
$CELTYPE
  6
ByLayer
  9
$CECOLOR
 62
   256
  9
$CELTSCALE
 40
1.0
  9
$DISPSILH
 70
     0
  9
$DIMSCALE
 40
1.0
  9
$DIMASZ
 40
0.18
  9
$DIMEXO
 40
0.0625
  9
$DIMDLI
 40
0.38
  9
$DIMRND
 40
0.0
  9
$DIMDLE
 40
0.0
  9
$DIMEXE
 40
0.18
  9
$DIMTP
 40
0.0
  9
$DIMTM
 40
0.0
  9
$DIMTXT
 40
0.18
  9
$DIMCEN
 40
0.09
  9
$DIMTSZ
 40
0.0
  9
$DIMTOL
 70
     0
  9
$DIMLIM
 70
     0
  9
$DIMTIH
 70
     1
  9
$DIMTOH
 70
     1
  9
$DIMSE1
 70
     0
  9
$DIMSE2
 70
     0
  9
$DIMTAD
 70
     0
  9
$DIMZIN
 70
     0
  9
$DIMBLK
  1

  9
$DIMASO
 70
     1
  9
$DIMSHO
 70
     1
  9
$DIMPOST
  1

  9
$DIMAPOST
  1

  9
$DIMALT
 70
     0
  9
$DIMALTD
 70
     2
  9
$DIMALTF
 40
25.4
  9
$DIMLFAC
 40
1.0
  9
$DIMTOFL
 70
     0
  9
$DIMTVP
 40
0.0
  9
$DIMTIX
 70
     0
  9
$DIMSOXD
 70
     0
  9
$DIMSAH
 70
     0
  9
$DIMBLK1
  1

  9
$DIMBLK2
  1

  9
$DIMSTYLE
  2
Standard
  9
$DIMCLRD
 70
     0
  9
$DIMCLRE
 70
     0
  9
$DIMCLRT
 70
     0
  9
$DIMTFAC
 40
1.0
  9
$DIMGAP
 40
0.09
  9
$DIMJUST
 70
     0
  9
$DIMSD1
 70
     0
  9
$DIMSD2
 70
     0
  9
$DIMTOLJ
 70
     1
  9
$DIMTZIN
 70
     0
  9
$DIMALTZ
 70
     0
  9
$DIMALTTZ
 70
     0
  9
$DIMUPT
 70
     0
  9
$DIMDEC
 70
     4
  9
$DIMTDEC
 70
     4
  9
$DIMALTU
 70
     2
  9
$DIMALTTD
 70
     2
  9
$DIMTXSTY
  7
Standard
  9
$DIMAUNIT
 70
     0
  9
$DIMADEC
 70
     0
  9
$DIMALTRND
 40
0.0
  9
$DIMAZIN
 70
     0
  9
$DIMDSEP
 70
    46
  9
$DIMATFIT
 70
     3
  9
$DIMFRAC
 70
     0
  9
$DIMLDRBLK
  1

  9
$DIMLUNIT
 70
     2
  9
$DIMLWD
 70
    -2
  9
$DIMLWE
 70
    -2
  9
$DIMTMOVE
 70
     0
  9
$LUNITS
 70
     2
  9
$LUPREC
 70
     4
  9
$SKETCHINC
 40
0.1
  9
$FILLETRAD
 40
0.0
  9
$AUNITS
 70
     0
  9
$AUPREC
 70
     0
  9
$MENU
  1
.
  9
$ELEVATION
 40
0.0
  9
$PELEVATION
 40
0.0
  9
$THICKNESS
 40
0.0
  9
$LIMCHECK
 70
     0
  9
$CHAMFERA
 40
0.0
  9
$CHAMFERB
 40
0.0
  9
$CHAMFERC
 40
0.0
  9
$CHAMFERD
 40
0.0
  9
$SKPOLY
 70
     0
  9
$TDCREATE
 40
2455511.355428576
  9
$TDUCREATE
 40
2455511.313761910
  9
$TDUPDATE
 40
2455511.355604271
  9
$TDUUPDATE
 40
2455511.313937604
  9
$TDINDWG
 40
0.0001758681
  9
$TDUSRTIMER
 40
0.0001758681
  9
$USRTIMER
 70
     1
  9
$ANGBASE
 50
0.0
  9
$ANGDIR
 70
     0
  9
$PDMODE
 70
     0
  9
$PDSIZE
 40
0.0
  9
$PLINEWID
 40
0.0
  9
$SPLFRAME
 70
     0
  9
$SPLINETYPE
 70
     6
  9
$SPLINESEGS
 70
     8
  9
$HANDSEED
  5
324
  9
$SURFTAB1
 70
     6
  9
$SURFTAB2
 70
     6
  9
$SURFTYPE
 70
     6
  9
$SURFU
 70
     6
  9
$SURFV
 70
     6
  9
$UCSBASE
  2

  9
$UCSNAME
  2

  9
$UCSORG
 10
0.0
 20
0.0
 30
0.0
  9
$UCSXDIR
 10
1.0
 20
0.0
 30
0.0
  9
$UCSYDIR
 10
0.0
 20
1.0
 30
0.0
  9
$UCSORTHOREF
  2

  9
$UCSORTHOVIEW
 70
     0
  9
$UCSORGTOP
 10
0.0
 20
0.0
 30
0.0
  9
$UCSORGBOTTOM
 10
0.0
 20
0.0
 30
0.0
  9
$UCSORGLEFT
 10
0.0
 20
0.0
 30
0.0
  9
$UCSORGRIGHT
 10
0.0
 20
0.0
 30
0.0
  9
$UCSORGFRONT
 10
0.0
 20
0.0
 30
0.0
  9
$UCSORGBACK
 10
0.0
 20
0.0
 30
0.0
  9
$PUCSBASE
  2

  9
$PUCSNAME
  2

  9
$PUCSORG
 10
0.0
 20
0.0
 30
0.0
  9
$PUCSXDIR
 10
1.0
 20
0.0
 30
0.0
  9
$PUCSYDIR
 10
0.0
 20
1.0
 30
0.0
  9
$PUCSORTHOREF
  2

  9
$PUCSORTHOVIEW
 70
     0
  9
$PUCSORGTOP
 10
0.0
 20
0.0
 30
0.0
  9
$PUCSORGBOTTOM
 10
0.0
 20
0.0
 30
0.0
  9
$PUCSORGLEFT
 10
0.0
 20
0.0
 30
0.0
  9
$PUCSORGRIGHT
 10
0.0
 20
0.0
 30
0.0
  9
$PUCSORGFRONT
 10
0.0
 20
0.0
 30
0.0
  9
$PUCSORGBACK
 10
0.0
 20
0.0
 30
0.0
  9
$USERI1
 70
     0
  9
$USERI2
 70
     0
  9
$USERI3
 70
     0
  9
$USERI4
 70
     0
  9
$USERI5
 70
     0
  9
$USERR1
 40
0.0
  9
$USERR2
 40
0.0
  9
$USERR3
 40
0.0
  9
$USERR4
 40
0.0
  9
$USERR5
 40
0.0
  9
$WORLDVIEW
 70
     1
  9
$SHADEDGE
 70
     3
  9
$SHADEDIF
 70
    70
  9
$TILEMODE
 70
     1
  9
$MAXACTVP
 70
    64
  9
$PINSBASE
 10
0.0
 20
0.0
 30
0.0
  9
$PLIMCHECK
 70
     0
  9
$PEXTMIN
 10
0.0
 20
0.0
 30
0.0
  9
$PEXTMAX
 10
0.0
 20
0.0
 30
0.0
  9
$PLIMMIN
 10
0.0
 20
0.0
  9
$PLIMMAX
 10
12.0
 20
9.0
  9
$UNITMODE
 70
     0
  9
$VISRETAIN
 70
     1
  9
$PLINEGEN
 70
     0
  9
$PSLTSCALE
 70
     1
  9
$TREEDEPTH
 70
  3020
  9
$CMLSTYLE
  2
Standard
  9
$CMLJUST
 70
     0
  9
$CMLSCALE
 40
1.0
  9
$PROXYGRAPHICS
 70
     1
  9
$MEASUREMENT
 70
     0
  9
$CELWEIGHT
370
    -1
  9
$ENDCAPS
280
     0
  9
$JOINSTYLE
280
     0
  9
$LWDISPLAY
290
     0
  9
$INSUNITS
 70
     1
  9
$HYPERLINKBASE
  1

  9
$STYLESHEET
  1

  9
$XEDIT
290
     1
  9
$CEPSNTYPE
380
     0
  9
$PSTYLEMODE
290
     1
  9
$FINGERPRINTGUID
  2
{41542BC4-6599-4F1D-B15D-DBF7BA677BC8}
  9
$VERSIONGUID
  2
{1E11AF0C-2FFC-48E9-80AC-57CB29B56460}
  9
$EXTNAMES
290
     1
  9
$PSVPSCALE
 40
0.0
  9
$OLESTARTUP
290
     0
  0
ENDSEC
  0
SECTION
  2
CLASSES
  0
CLASS
  1
ACDBDICTIONARYWDFLT
  2
AcDbDictionaryWithDefault
  3
ObjectDBX Classes
 90
        0
280
     0
281
     0
  0
CLASS
  1
ACDBPLACEHOLDER
  2
AcDbPlaceHolder
  3
ObjectDBX Classes
 90
        0
280
     0
281
     0
  0
CLASS
  1
LAYOUT
  2
AcDbLayout
  3
ObjectDBX Classes
 90
        0
280
     0
281
     0
  0
CLASS
  1
DICTIONARYVAR
  2
AcDbDictionaryVar
  3
ObjectDBX Classes
 90
        0
280
     0
281
     0
  0
CLASS
  1
TABLESTYLE
  2
AcDbTableStyle
  3
ObjectDBX Classes
 90
     4095
280
     0
281
     0
  0
CLASS
  1
MATERIAL
  2
AcDbMaterial
  3
ObjectDBX Classes
 90
     1153
280
     0
281
     0
  0
CLASS
  1
VISUALSTYLE
  2
AcDbVisualStyle
  3
ObjectDBX Classes
 90
     4095
280
     0
281
     0
  0
CLASS
  1
SCALE
  2
AcDbScale
  3
ObjectDBX Classes
 90
     1153
280
     0
281
     0
  0
CLASS
  1
MLEADERSTYLE
  2
AcDbMLeaderStyle
  3
ACDB_MLEADERSTYLE_CLASS
 90
     4095
280
     0
281
     0
  0
CLASS
  1
CELLSTYLEMAP
  2
AcDbCellStyleMap
  3
ObjectDBX Classes
 90
     1152
280
     0
281
     0
  0
ENDSEC
  0
SECTION
  2
TABLES
  0
TABLE
  2
VPORT
  5
8
330
0
100
AcDbSymbolTable
 70
     1
  0
VPORT
  5
94
330
8
100
AcDbSymbolTableRecord
100
AcDbViewportTableRecord
  2
*Active
 70
     0
 10
0.0
 20
0.0
 11
1.0
 21
1.0
 12
96.51191916244144
 22
235.3915176200521
 13
0.0
 23
0.0
 14
0.5
 24
0.5
 15
0.5
 25
0.5
 16
0.0
 26
0.0
 36
1.0
 17
0.0
 27
0.0
 37
0.0
 40
457.350525912242
 41
1.148760330578512
 42
50.0
 43
0.0
 44
0.0
 50
0.0
 51
0.0
 71
     0
 72
  1000
 73
     1
 74
     3
 75
     0
 76
     0
 77
     0
 78
     0
281
     0
 65
     1
110
0.0
120
0.0
130
0.0
111
1.0
121
0.0
131
0.0
112
0.0
122
1.0
132
0.0
 79
     0
146
0.0
  0
ENDTAB
  0
TABLE
  2
LTYPE
  5
5
330
0
100
AcDbSymbolTable
 70
     1
  0
LTYPE
  5
14
330
5
100
AcDbSymbolTableRecord
100
AcDbLinetypeTableRecord
  2
ByBlock
 70
     0
  3

 72
    65
 73
     0
 40
0.0
  0
LTYPE
  5
15
330
5
100
AcDbSymbolTableRecord
100
AcDbLinetypeTableRecord
  2
ByLayer
 70
     0
  3

 72
    65
 73
     0
 40
0.0
  0
LTYPE
  5
16
330
5
100
AcDbSymbolTableRecord
100
AcDbLinetypeTableRecord
  2
Continuous
 70
     0
  3
Solid line
 72
    65
 73
     0
 40
0.0
  0
ENDTAB
  0
TABLE
  2
LAYER
  5
2
330
0
100
AcDbSymbolTable
 70
     4
  0
LAYER
  5
10
102
{ACAD_XDICTIONARY
360
E6
102
}
330
2
100
AcDbSymbolTableRecord
100
AcDbLayerTableRecord
  2
0
 70
     0
 62
     7
  6
Continuous
370
    -3
390
F
  0
LAYER
  5
174
102
{ACAD_XDICTIONARY
360
30E
102
}
330
2
100
AcDbSymbolTableRecord
100
AcDbLayerTableRecord
  2
Q
 70
     1
 62
     7
  6
Continuous
370
    -3
390
F
1001
AcAecLayerStandard
1000

1000

  0
LAYER
  5
175
102
{ACAD_XDICTIONARY
360
310
102
}
330
2
100
AcDbSymbolTableRecord
100
AcDbLayerTableRecord
  2
QUOTE
 70
     0
 62
     7
  6
Continuous
370
    -3
390
F
1001
AcAecLayerStandard
1000

1000

  0
LAYER
  5
2DB
330
2
100
AcDbSymbolTableRecord
100
AcDbLayerTableRecord
  2
Defpoints
 70
     0
 62
     7
  6
Continuous
290
     0
370
    -3
390
F
  0
ENDTAB
  0
TABLE
  2
STYLE
  5
3
330
0
100
AcDbSymbolTable
 70
     2
  0
STYLE
  5
11
330
3
100
AcDbSymbolTableRecord
100
AcDbTextStyleTableRecord
  2
Standard
 70
     0
 40
0.0
 41
1.0
 50
0.0
 71
     0
 42
0.2
  3
txt.shx
  4

  0
STYLE
  5
DC
330
3
100
AcDbSymbolTableRecord
100
AcDbTextStyleTableRecord
  2
Annotativa
 70
     0
 40
0.0
 41
1.0
 50
0.0
 71
     0
 42
0.2
  3
txt.shx
  4

1001
AcadAnnotative
1000
AnnotativeData
1002
{
1070
     1
1070
     1
1002
}
  0
ENDTAB
  0
TABLE
  2
VIEW
  5
6
330
0
100
AcDbSymbolTable
 70
     1
  0
ENDTAB
  0
TABLE
  2
UCS
  5
7
330
0
100
AcDbSymbolTable
 70
     0
  0
ENDTAB
  0
TABLE
  2
APPID
  5
9
330
0
100
AcDbSymbolTable
 70
    14
  0
APPID
  5
12
330
9
100
AcDbSymbolTableRecord
100
AcDbRegAppTableRecord
  2
ACAD
 70
     0
  0
APPID
  5
DD
330
9
100
AcDbSymbolTableRecord
100
AcDbRegAppTableRecord
  2
AcadAnnoPO
 70
     0
  0
APPID
  5
DE
330
9
100
AcDbSymbolTableRecord
100
AcDbRegAppTableRecord
  2
AcadAnnotative
 70
     0
  0
APPID
  5
DF
330
9
100
AcDbSymbolTableRecord
100
AcDbRegAppTableRecord
  2
ACAD_DSTYLE_DIMJAG
 70
     0
  0
APPID
  5
E0
330
9
100
AcDbSymbolTableRecord
100
AcDbRegAppTableRecord
  2
ACAD_DSTYLE_DIMTALN
 70
     0
  0
APPID
  5
107
330
9
100
AcDbSymbolTableRecord
100
AcDbRegAppTableRecord
  2
ACAD_MLEADERVER
 70
     0
  0
APPID
  5
176
330
9
100
AcDbSymbolTableRecord
100
AcDbRegAppTableRecord
  2
VDEXTRAPARAM
 70
     0
  0
APPID
  5
177
330
9
100
AcDbSymbolTableRecord
100
AcDbRegAppTableRecord
  2
VD_TEMPHATCH
 70
     0
  0
APPID
  5
178
330
9
100
AcDbSymbolTableRecord
100
AcDbRegAppTableRecord
  2
AcAecLayerStandard
 70
     0
  0
APPID
  5
179
330
9
100
AcDbSymbolTableRecord
100
AcDbRegAppTableRecord
  2
VD_EX_PRINTER_DWG_STYLE_SHEET
 70
     0
  0
APPID
  5
17A
330
9
100
AcDbSymbolTableRecord
100
AcDbRegAppTableRecord
  2
VD_EX_PRINTER_SIZEX
 70
     0
  0
APPID
  5
17B
330
9
100
AcDbSymbolTableRecord
100
AcDbRegAppTableRecord
  2
VD_EX_PRINTER_AVSIZEX
 70
     0
  0
APPID
  5
17C
330
9
100
AcDbSymbolTableRecord
100
AcDbRegAppTableRecord
  2
VD_EX_PRINTER_SIZEY
 70
     0
  0
APPID
  5
17D
330
9
100
AcDbSymbolTableRecord
100
AcDbRegAppTableRecord
  2
VD_EX_PRINTER_AVSIZEY
 70
     0
  0
ENDTAB
  0
TABLE
  2
DIMSTYLE
  5
A
330
0
100
AcDbSymbolTable
 70
     2
100
AcDbDimStyleTable
 71
     2
340
27
340
E1
  0
DIMSTYLE
105
27
102
{ACAD_REACTORS
330
2B8
330
2B9
102
}
330
A
100
AcDbSymbolTableRecord
100
AcDbDimStyleTableRecord
  2
Standard
 70
     0
340
11
  0
DIMSTYLE
105
E1
330
A
100
AcDbSymbolTableRecord
100
AcDbDimStyleTableRecord
  2
Annotativa
 70
     0
 40
0.0
340
11
1001
AcadAnnotative
1000
AnnotativeData
1002
{
1070
     1
1070
     1
1002
}
1001
ACAD_DSTYLE_DIMJAG
1070
   388
1040
1.5
1001
ACAD_DSTYLE_DIMTALN
1070
   392
1070
     0
  0
ENDTAB
  0
TABLE
  2
BLOCK_RECORD
  5
1
330
0
100
AcDbSymbolTable
 70
     7
  0
BLOCK_RECORD
  5
1F
330
1
100
AcDbSymbolTableRecord
100
AcDbBlockTableRecord
  2
*Model_Space
340
22
  0
BLOCK_RECORD
  5
58
330
1
100
AcDbSymbolTableRecord
100
AcDbBlockTableRecord
  2
*Paper_Space
340
59
  0
BLOCK_RECORD
  5
5D
330
1
100
AcDbSymbolTableRecord
100
AcDbBlockTableRecord
  2
*Paper_Space0
340
5E
  0
BLOCK_RECORD
  5
14C
330
1
100
AcDbSymbolTableRecord
100
AcDbBlockTableRecord
  2
VDDIM_DEFAULT
340
0
  0
BLOCK_RECORD
  5
150
330
1
100
AcDbSymbolTableRecord
100
AcDbBlockTableRecord
  2
IEC_309_oriz
340
0
102
{BLKREFS
331
228
331
229
331
22A
331
2D8
331
2D9
331
2DA
102
}
  0
BLOCK_RECORD
  5
168
330
1
100
AcDbSymbolTableRecord
100
AcDbBlockTableRecord
  2
*D3
340
0
  0
BLOCK_RECORD
  5
2DC
330
1
100
AcDbSymbolTableRecord
100
AcDbBlockTableRecord
  2
*D5
340
0
  0
BLOCK_RECORD
  5
2E9
330
1
100
AcDbSymbolTableRecord
100
AcDbBlockTableRecord
  2
*D6
340
0
  0
ENDTAB
  0
ENDSEC
  0
SECTION
  2
BLOCKS
  0
BLOCK
  5
20
330
1F
100
AcDbEntity
  8
0
100
AcDbBlockBegin
  2
*Model_Space
 70
     0
 10
0.0
 20
0.0
 30
0.0
  3
*Model_Space
  1

  0
ENDBLK
  5
21
330
1F
100
AcDbEntity
  8
0
100
AcDbBlockEnd
  0
BLOCK
  5
5A
330
58
100
AcDbEntity
 67
     1
  8
0
100
AcDbBlockBegin
  2
*Paper_Space
 70
     0
 10
0.0
 20
0.0
 30
0.0
  3
*Paper_Space
  1

  0
ENDBLK
  5
5B
330
58
100
AcDbEntity
 67
     1
  8
0
100
AcDbBlockEnd
  0
BLOCK
  5
5F
330
5D
100
AcDbEntity
 67
     1
  8
0
100
AcDbBlockBegin
  2
*Paper_Space0
 70
     0
 10
0.0
 20
0.0
 30
0.0
  3
*Paper_Space0
  1

  0
ENDBLK
  5
60
330
5D
100
AcDbEntity
 67
     1
  8
0
100
AcDbBlockEnd
  0
BLOCK
  5
14D
330
14C
100
AcDbEntity
  8
0
100
AcDbBlockBegin
  2
VDDIM_DEFAULT
 70
     0
 10
0.0
 20
0.0
 30
0.0
  3
VDDIM_DEFAULT
  1

  0
HATCH
  5
14E
330
14C
100
AcDbEntity
  8
0
  6
Continuous
 62
     0
370
    -2
100
AcDbHatch
 10
0.0
 20
0.0
 30
0.0
210
0.0
220
0.0
230
-1.0
  2
SOLID
 70
     1
 71
     0
 91
        1
 92
        2
 72
     0
 73
     1
 93
        3
 10
0.0
 20
0.0
 10
1.0
 20
-0.1665
 10
1.0
 20
0.1665
 97
        0
 75
     0
 76
     1
 98
        1
 10
0.0
 20
0.0
  0
ENDBLK
  5
14F
330
14C
100
AcDbEntity
  8
0
100
AcDbBlockEnd
  0
BLOCK
  5
151
330
150
100
AcDbEntity
  8
0
100
AcDbBlockBegin
  2
IEC_309_oriz
 70
     0
 10
0.0
 20
0.0
 30
0.0
  3
IEC_309_oriz
  1

  0
ARC
  5
152
330
150
100
AcDbEntity
  8
0
100
AcDbCircle
 10
129.96716842
 20
25.60041199
 30
0.0
 40
7.123136749999999
100
AcDbArc
 50
270.0
 51
0.0
  0
ARC
  5
153
330
150
100
AcDbEntity
  8
0
100
AcDbCircle
 10
129.98116437
 20
86.36609867
 30
0.0
 40
7.123136749999999
100
AcDbArc
 50
0.0
 51
90.0
  0
LINE
  5
154
330
150
100
AcDbEntity
  8
0
100
AcDbLine
 10
137.09030517
 20
25.60041199
 30
0.0
 11
137.10430111
 21
56.7311995
 31
0.0
  0
LINE
  5
155
330
150
100
AcDbEntity
  8
0
100
AcDbLine
 10
137.10430111
 20
86.36609867
 30
0.0
 11
137.10430111
 21
56.7311995
 31
0.0
  0
ARC
  5
156
330
150
100
AcDbEntity
  8
0
100
AcDbCircle
 10
59.33810126
 20
25.60041199
 30
0.0
 40
7.123136749999999
100
AcDbArc
 50
180.0
 51
270.0
  0
LINE
  5
157
330
150
100
AcDbEntity
  8
0
100
AcDbLine
 10
59.35209720999999
 20
93.48923541000001
 30
0.0
 11
129.98116437
 21
93.48923541000001
 31
0.0
  0
CIRCLE
  5
158
330
150
100
AcDbEntity
  8
0
100
AcDbCircle
 10
129.98116437
 20
86.36609867
 30
0.0
 40
2.58835439
  0
CIRCLE
  5
159
330
150
100
AcDbEntity
  8
0
100
AcDbCircle
 10
129.96716842
 20
25.60041199
 30
0.0
 40
2.58835439
  0
CIRCLE
  5
15A
330
150
100
AcDbEntity
  8
0
100
AcDbCircle
 10
59.35209720999999
 20
86.36609867
 30
0.0
 40
2.58835439
  0
ARC
  5
15B
330
150
100
AcDbEntity
  8
0
100
AcDbCircle
 10
59.35209720999999
 20
86.36609867
 30
0.0
 40
7.123136749999999
100
AcDbArc
 50
90.0
 51
180.0
  0
LINE
  5
15C
330
150
100
AcDbEntity
  8
0
100
AcDbLine
 10
52.22896046
 20
56.7311995
 30
0.0
 11
52.21496451
 21
25.60041199
 31
0.0
  0
CIRCLE
  5
15D
330
150
100
AcDbEntity
  8
0
100
AcDbCircle
 10
59.33810126
 20
25.60041199
 30
0.0
 40
2.58835439
  0
LINE
  5
15E
330
150
100
AcDbEntity
  8
0
100
AcDbLine
 10
52.22896046
 20
56.7311995
 30
0.0
 11
52.22896046
 21
86.36609867
 31
0.0
  0
LINE
  5
15F
330
150
100
AcDbEntity
  8
0
100
AcDbLine
 10
59.33810126
 20
18.47727524
 30
0.0
 11
129.96716842
 21
18.47727524
 31
0.0
  0
LINE
  5
160
330
150
100
AcDbEntity
  8
Q
 62
     1
100
AcDbLine
 10
137.09030517
 20
13.47505278
 30
0.0
 11
137.09030517
 21
98.49145787000001
 31
0.0
  0
LINE
  5
161
330
150
100
AcDbEntity
  8
Q
 62
     1
100
AcDbLine
 10
137.09030517
 20
98.49145787000001
 30
0.0
 11
41.83978567999999
 21
98.49145787000001
 31
0.0
  0
LINE
  5
162
330
150
100
AcDbEntity
  8
Q
 62
     1
100
AcDbLine
 10
92.68110413
 20
13.47505278
 30
0.0
 11
43.62664586
 21
13.47505278
 31
0.0
  0
LINE
  5
163
330
150
100
AcDbEntity
  8
Q
 62
     1
100
AcDbLine
 10
43.62664586
 20
13.47505278
 30
0.0
 11
137.09030517
 21
13.47505278
 31
0.0
  0
LINE
  5
164
330
150
100
AcDbEntity
  8
Q
 62
     1
100
AcDbLine
 10
41.83978567999999
 20
56.7311995
 30
0.0
 11
41.83978567999999
 21
98.49145787000001
 31
0.0
  0
LINE
  5
165
330
150
100
AcDbEntity
  8
Q
 62
     1
100
AcDbLine
 10
41.83978567999999
 20
56.7311995
 30
0.0
 11
41.83978567999999
 21
13.47505278
 31
0.0
  0
LINE
  5
166
330
150
100
AcDbEntity
  8
Q
 62
     1
100
AcDbLine
 10
41.83978567999999
 20
13.47505278
 30
0.0
 11
43.62664586
 21
13.47505278
 31
0.0
  0
ENDBLK
  5
167
330
150
100
AcDbEntity
  8
0
100
AcDbBlockEnd
  0
BLOCK
  5
169
330
168
100
AcDbEntity
  8
0
100
AcDbBlockBegin
  2
*D3
 70
     0
 10
0.0
 20
0.0
 30
0.0
  3
*D3
  1

  0
LINE
  5
16A
330
168
100
AcDbEntity
  8
QUOTE
 62
     7
100
AcDbLine
 10
124.6737696
 20
17.55080312
 30
0.0
 11
124.6737696
 21
-11.10869038
 31
0.0
  0
LINE
  5
16B
330
168
100
AcDbEntity
  8
QUOTE
 62
     7
100
AcDbLine
 10
19.67367843
 20
17.61567345
 30
0.0
 11
19.67367843
 21
-11.10869038
 31
0.0
  0
LINE
  5
16C
330
168
100
AcDbEntity
  8
QUOTE
 62
     7
100
AcDbLine
 10
109.6737696
 20
-10.92869038
 30
0.0
 11
83.09705734999999
 21
-10.92869038
 31
0.0
  0
LINE
  5
16D
330
168
100
AcDbEntity
  8
QUOTE
 62
     7
100
AcDbLine
 10
34.67367843
 20
-10.92869038
 30
0.0
 11
61.25039068
 21
-10.92869038
 31
0.0
  0
LWPOLYLINE
  5
16E
102
{ACAD_REACTORS
330
16F
102
}
330
168
100
AcDbEntity
  8
QUOTE
 62
     7
100
AcDbPolyline
 90
        3
 70
     1
 43
0.0
 10
109.6737696
 20
-8.42869038
 10
109.6737696
 20
-13.42869038
 10
124.6737696
 20
-10.92869038
  0
HATCH
  5
16F
330
168
100
AcDbEntity
  8
QUOTE
 62
     7
100
AcDbHatch
 10
0.0
 20
0.0
 30
0.0
210
0.0
220
0.0
230
1.0
  2
SOLID
 70
     1
 71
     1
 91
        1
 92
        2
 72
     0
 73
     1
 93
        3
 10
109.6737696
 20
-8.42869038
 10
109.6737696
 20
-13.42869038
 10
124.6737696
 20
-10.92869038
 97
        1
330
16E
 75
     0
 76
     1
 98
        1
 10
0.0
 20
0.0
1001
VD_TEMPHATCH
1000
VD_TEMPHATCH
  0
LWPOLYLINE
  5
170
102
{ACAD_REACTORS
330
171
102
}
330
168
100
AcDbEntity
  8
QUOTE
 62
     7
100
AcDbPolyline
 90
        3
 70
     1
 43
0.0
 10
34.67367843
 20
-8.42869038
 10
34.67367843
 20
-13.42869038
 10
19.67367843
 20
-10.92869038
  0
HATCH
  5
171
330
168
100
AcDbEntity
  8
QUOTE
 62
     7
100
AcDbHatch
 10
0.0
 20
0.0
 30
0.0
210
0.0
220
0.0
230
1.0
  2
SOLID
 70
     1
 71
     1
 91
        1
 92
        2
 72
     0
 73
     1
 93
        3
 10
34.67367843
 20
-8.42869038
 10
34.67367843
 20
-13.42869038
 10
19.67367843
 20
-10.92869038
 97
        1
330
170
 75
     0
 76
     1
 98
        1
 10
0.0
 20
0.0
1001
VD_TEMPHATCH
1000
VD_TEMPHATCH
  0
MTEXT
  5
172
330
168
100
AcDbEntity
  8
QUOTE
 62
     7
100
AcDbMText
 10
72.17372401999999
 20
-10.92869038
 30
0.0
 40
10.0
 41
21.48123324
 71
     5
 72
     1
  1
\A1;105
 73
     1
 44
1.0
1001
ACAD
1000
MTEXTBEGIN
1070
    73
1070
     1
1070
    44
1040
1.0
1070
    74
1070
     0
1000
MTEXTEND
  0
ENDBLK
  5
173
330
168
100
AcDbEntity
  8
0
100
AcDbBlockEnd
  0
BLOCK
  5
2DD
330
2DC
100
AcDbEntity
  8
0
100
AcDbBlockBegin
  2
*D5
 70
     1
 10
0.0
 20
0.0
 30
0.0
  3
*D5
  1

  0
LINE
  5
2F6
330
2DC
100
AcDbEntity
  8
QUOTE
 62
     0
370
    -2
100
AcDbLine
 10
73.79772743744145
 20
462.1949503200522
 30
0.0
 11
38.95424676744153
 21
462.1949503200522
 31
0.0
  0
LINE
  5
2F7
330
2DC
100
AcDbEntity
  8
QUOTE
 62
     0
370
    -2
100
AcDbLine
 10
71.32699986744144
 20
32.19495032005216
 30
0.0
 11
38.95424676744144
 21
32.19495032005216
 31
0.0
  0
LINE
  5
2F8
330
2DC
100
AcDbEntity
  8
QUOTE
 62
     0
370
    -2
100
AcDbLine
 10
39.13424676744153
 20
447.1949503200521
 30
0.0
 11
39.13424676744149
 21
246.6257694600522
 31
0.0
  0
LINE
  5
2F9
330
2DC
100
AcDbEntity
  8
QUOTE
 62
     0
370
    -2
100
AcDbLine
 10
39.13424676744144
 20
47.19495032005216
 30
0.0
 11
39.13424676744148
 21
236.4457694600522
 31
0.0
  0
SOLID
  5
2FA
330
2DC
100
AcDbEntity
  8
QUOTE
 62
     0
100
AcDbTrace
 10
36.63424676744153
 20
447.1949503200521
 30
0.0
 11
41.63424676744153
 21
447.1949503200521
 31
0.0
 12
39.13424676744153
 22
462.1949503200522
 32
0.0
 13
39.13424676744153
 23
462.1949503200522
 33
0.0
  0
SOLID
  5
2FB
330
2DC
100
AcDbEntity
  8
QUOTE
 62
     0
100
AcDbTrace
 10
36.63424676744144
 20
47.19495032005216
 30
0.0
 11
41.63424676744144
 21
47.19495032005216
 31
0.0
 12
39.13424676744144
 22
32.19495032005216
 32
0.0
 13
39.13424676744144
 23
32.19495032005216
 33
0.0
  0
MTEXT
  5
2FC
330
2DC
100
AcDbEntity
  8
QUOTE
 62
     0
100
AcDbMText
 10
39.13424676744145
 20
241.5357694600522
 30
0.0
 40
10.0
 41
0.0
 71
     5
 72
     1
  1
\A1;430
 73
     1
 44
1.0
1001
ACAD
1000
MTEXTBEGIN
1070
    73
1070
     1
1070
    44
1040
1.0
1070
    74
1070
     0
1000
MTEXTEND
  0
POINT
  5
2FD
330
2DC
100
AcDbEntity
  8
Defpoints
 62
     0
100
AcDbPoint
 10
73.86022743744145
 20
462.1949503200522
 30
0.0
  0
POINT
  5
2FE
330
2DC
100
AcDbEntity
  8
Defpoints
 62
     0
100
AcDbPoint
 10
71.38949986744144
 20
32.19495032005216
 30
0.0
  0
POINT
  5
2FF
330
2DC
100
AcDbEntity
  8
Defpoints
 62
     0
100
AcDbPoint
 10
39.13424676744144
 20
32.19495032005216
 30
0.0
  0
ENDBLK
  5
2DE
330
2DC
100
AcDbEntity
  8
0
100
AcDbBlockEnd
  0
BLOCK
  5
2EA
330
2E9
100
AcDbEntity
  8
0
100
AcDbBlockBegin
  2
*D6
 70
     1
 10
0.0
 20
0.0
 30
0.0
  3
*D6
  1

  0
LINE
  5
300
330
2E9
100
AcDbEntity
  8
QUOTE
 62
     0
370
    -2
100
AcDbLine
 10
166.3895915574414
 20
42.06757842005216
 30
0.0
 11
166.3895915574414
 21
13.40808492005216
 31
0.0
  0
LINE
  5
301
330
2E9
100
AcDbEntity
  8
QUOTE
 62
     0
370
    -2
100
AcDbLine
 10
61.38950038744145
 20
42.13244875005216
 30
0.0
 11
61.38950038744145
 21
13.40808492005216
 31
0.0
  0
LINE
  5
302
330
2E9
100
AcDbEntity
  8
QUOTE
 62
     0
370
    -2
100
AcDbLine
 10
151.3895915574414
 20
13.58808492005216
 30
0.0
 11
142.3128793107748
 21
13.58808492005216
 31
0.0
  0
LINE
  5
303
330
2E9
100
AcDbEntity
  8
QUOTE
 62
     0
370
    -2
100
AcDbLine
 10
76.38950038744145
 20
13.58808492005216
 30
0.0
 11
85.46621264410811
 21
13.58808492005216
 31
0.0
  0
SOLID
  5
304
330
2E9
100
AcDbEntity
  8
QUOTE
 62
     0
100
AcDbTrace
 10
151.3895915574414
 20
16.08808492005216
 30
0.0
 11
151.3895915574414
 21
11.08808492005216
 31
0.0
 12
166.3895915574414
 22
13.58808492005216
 32
0.0
 13
166.3895915574414
 23
13.58808492005216
 33
0.0
  0
SOLID
  5
305
330
2E9
100
AcDbEntity
  8
QUOTE
 62
     0
100
AcDbTrace
 10
76.38950038744145
 20
16.08808492005216
 30
0.0
 11
76.38950038744145
 21
11.08808492005216
 31
0.0
 12
61.38950038744145
 22
13.58808492005216
 32
0.0
 13
61.38950038744145
 23
13.58808492005216
 33
0.0
  0
MTEXT
  5
306
330
2E9
100
AcDbEntity
  8
QUOTE
 62
     0
100
AcDbMText
 10
113.8895459774414
 20
13.58808492005216
 30
0.0
 40
10.0
 41
0.0
 71
     5
 72
     1
  1
\A1;105.0001
 73
     1
 44
1.0
1001
ACAD
1000
MTEXTBEGIN
1070
    73
1070
     1
1070
    44
1040
1.0
1070
    74
1070
     0
1000
MTEXTEND
  0
POINT
  5
307
330
2E9
100
AcDbEntity
  8
Defpoints
 62
     0
100
AcDbPoint
 10
166.3895915574414
 20
42.13007842005215
 30
0.0
  0
POINT
  5
308
330
2E9
100
AcDbEntity
  8
Defpoints
 62
     0
100
AcDbPoint
 10
61.38950038744145
 20
42.19494875005216
 30
0.0
  0
POINT
  5
309
330
2E9
100
AcDbEntity
  8
Defpoints
 62
     0
100
AcDbPoint
 10
61.38950038744145
 20
13.58808492005216
 30
0.0
  0
ENDBLK
  5
2EB
330
2E9
100
AcDbEntity
  8
0
100
AcDbBlockEnd
  0
ENDSEC
  0
SECTION
  2
ENTITIES
  0
LINE
  5
22F
330
1F
100
AcDbEntity
  8
0
 62
   253
 48
0.250333
370
    35
100
AcDbLine
 10
108.8828473874414
 20
428.8720743200522
 30
0.0
 11
118.8961533874414
 21
428.8720743200522
 31
0.0
  0
LINE
  5
230
330
1F
100
AcDbEntity
  8
0
 62
   253
370
    35
100
AcDbLine
 10
163.9498033874414
 20
413.021610320052
 30
0.0
 11
163.9324083874414
 21
322.9100083200521
 31
0.0
  0
ARC
  5
231
330
1F
100
AcDbEntity
  8
0
 62
     7
370
    35
100
AcDbCircle
 10
163.2052353874414
 20
322.0853313200522
 30
0.0
 40
3.001954
100
AcDbArc
 50
274.547838
 51
281.9019030000001
  0
LINE
  5
232
330
1F
100
AcDbEntity
  8
0
 62
     7
 48
0.035165
370
    35
100
AcDbLine
 10
162.0411113874414
 20
318.9812973200521
 30
0.0
 11
163.4432723874414
 21
319.0928383200521
 31
0.0
  0
LINE
  5
233
330
1F
100
AcDbEntity
  8
0
 62
   253
 48
0.273236
370
    35
100
AcDbLine
 10
108.4247783874414
 20
333.6949503200522
 30
0.0
 11
119.3542223874414
 21
333.6949503200522
 31
0.0
  0
LINE
  5
234
330
1F
100
AcDbEntity
  8
0
 62
   253
370
    35
100
AcDbLine
 10
86.53699138744144
 20
332.3926133200522
 30
0.0
 11
141.2419783874414
 21
332.3926133200522
 31
0.0
  0
LINE
  5
235
330
1F
100
AcDbEntity
  8
0
 62
   253
370
    35
100
AcDbLine
 10
136.2392313874414
 20
321.9100383200522
 30
0.0
 11
64.79758138744145
 21
321.9100383200522
 31
0.0
  0
LINE
  5
236
330
1F
100
AcDbEntity
  8
0
 62
   253
370
    35
100
AcDbLine
 10
63.77039038744145
 20
427.8721053200521
 30
0.0
 11
63.77039038744145
 21
322.9372603200521
 31
0.0
  0
ARC
  5
237
330
1F
100
AcDbEntity
  8
0
 62
   253
370
    35
100
AcDbCircle
 10
64.79758138744145
 20
322.9372603200521
 30
0.0
 40
1.027203
100
AcDbArc
 50
180.0
 51
270.0
  0
LINE
  5
238
330
1F
100
AcDbEntity
  8
0
 62
     7
 48
0.035165
370
    35
100
AcDbLine
 10
65.73788938744144
 20
318.9812973200521
 30
0.0
 11
64.33572838744145
 21
319.0928383200521
 31
0.0
  0
ARC
  5
239
330
1F
100
AcDbEntity
  8
0
 62
     7
370
    35
100
AcDbCircle
 10
64.57373538744144
 20
322.0853313200522
 30
0.0
 40
3.001954
100
AcDbArc
 50
258.09812
 51
265.452184
  0
LINE
  5
23A
330
1F
100
AcDbEntity
  8
0
 62
   253
 48
0.063625
370
    35
100
AcDbLine
 10
161.3895003874414
 20
333.6949503200522
 30
0.0
 11
163.9344833874414
 21
333.6949503200522
 31
0.0
  0
LINE
  5
23B
330
1F
100
AcDbEntity
  8
0
 62
   253
 48
0.063618
370
    35
100
AcDbLine
 10
161.3895003874414
 20
332.3864183200521
 30
0.0
 11
163.9342393874414
 21
332.3864183200521
 31
0.0
  0
LINE
  5
23C
330
1F
100
AcDbEntity
  8
0
 62
   253
 48
0.065478
370
    35
100
AcDbLine
 10
66.38950038744145
 20
333.6949503200522
 30
0.0
 11
63.77039038744145
 21
333.6949503200522
 31
0.0
  0
LINE
  5
23D
330
1F
100
AcDbEntity
  8
0
 62
   253
 48
0.065478
370
    35
100
AcDbLine
 10
66.38950038744145
 20
332.3864183200521
 30
0.0
 11
63.77039038744145
 21
332.3864183200521
 31
0.0
  0
LINE
  5
23E
330
1F
100
AcDbEntity
  8
0
 62
     7
370
    35
100
AcDbLine
 10
162.0411113874414
 20
42.19495032005215
 30
0.0
 11
162.0411113874414
 21
317.9851113200522
 31
0.0
  0
LINE
  5
23F
330
1F
100
AcDbEntity
  8
0
 62
     7
370
    35
100
AcDbLine
 10
65.73788938744144
 20
42.16553132005215
 30
0.0
 11
65.73788938744144
 21
317.9851113200522
 31
0.0
  0
LINE
  5
240
330
1F
100
AcDbEntity
  8
0
 62
     7
 48
0.024905
370
    35
100
AcDbLine
 10
65.73788938744144
 20
317.9851113200522
 30
0.0
 11
65.73788938744144
 21
318.9812973200521
 31
0.0
  0
LINE
  5
241
330
1F
100
AcDbEntity
  8
0
 62
     7
 48
0.024905
370
    35
100
AcDbLine
 10
162.0411113874414
 20
317.9851113200522
 30
0.0
 11
162.0411113874414
 21
318.9812973200521
 31
0.0
  0
LINE
  5
242
330
1F
100
AcDbEntity
  8
0
 62
     7
 48
0.00835
370
    35
100
AcDbLine
 10
65.73251838744145
 20
41.83159332005216
 30
0.0
 11
65.73788938744144
 21
42.16553132005215
 31
0.0
  0
LINE
  5
243
330
1F
100
AcDbEntity
  8
0
 62
     7
 48
0.009085
370
    35
100
AcDbLine
 10
162.0464823874414
 20
41.83159332005216
 30
0.0
 11
162.0411113874414
 21
42.19495032005215
 31
0.0
  0
LINE
  5
244
330
1F
100
AcDbEntity
  8
0
 62
   253
370
    35
100
AcDbLine
 10
136.2392313874414
 20
321.9100383200522
 30
0.0
 11
162.9324083874414
 21
321.9100383200522
 31
0.0
  0
LINE
  5
245
330
1F
100
AcDbEntity
  8
0
 62
   253
370
    13
100
AcDbLine
 10
64.84656238744145
 20
321.9100383200522
 30
0.0
 11
91.53973838744144
 21
321.9100383200522
 31
0.0
  0
ARC
  5
246
330
1F
100
AcDbEntity
  8
0
 62
   253
370
    35
100
AcDbCircle
 10
162.9324083874414
 20
322.9100383200522
 30
0.0
 40
0.9999769999999999
100
AcDbArc
 50
270.0009260000001
 51
359.999108
  0
LINE
  5
247
330
1F
100
AcDbEntity
  8
0
 62
   253
 48
0.413295
370
    13
100
AcDbLine
 10
163.9324083874414
 20
339.4418073200522
 30
0.0
 11
163.9324083874414
 21
322.9100083200521
 31
0.0
  0
LINE
  5
248
330
1F
100
AcDbEntity
  8
0
 62
   253
 48
0.205375
370
    35
100
AcDbLine
 10
163.9498033874414
 20
421.0723613200522
 30
0.0
 11
163.9498033874414
 21
412.8573653200521
 31
0.0
  0
LINE
  5
249
330
1F
100
AcDbEntity
  8
0
 62
     7
370
    35
100
AcDbLine
 10
65.73788938744144
 20
318.9812973200521
 30
0.0
 11
162.0411113874414
 21
318.9812973200521
 31
0.0
  0
LINE
  5
24A
330
1F
100
AcDbEntity
  8
0
 62
   253
370
    35
100
AcDbLine
 10
108.8828473874414
 20
428.8720743200522
 30
0.0
 11
64.77035938744144
 21
428.8720743200522
 31
0.0
  0
LINE
  5
24B
330
1F
100
AcDbEntity
  8
0
 62
   253
370
    35
100
AcDbLine
 10
163.0086413874414
 20
428.8720743200522
 30
0.0
 11
118.8961533874414
 21
428.8720743200522
 31
0.0
  0
LINE
  5
24C
330
1F
100
AcDbEntity
  8
0
 62
     7
 48
0.034421
370
    35
100
AcDbLine
 10
164.5546613874414
 20
432.4122963200522
 30
0.0
 11
163.3622783874414
 21
433.1007123200521
 31
0.0
  0
ARC
  5
24D
330
1F
100
AcDbEntity
  8
0
 62
     7
370
    35
100
AcDbCircle
 10
163.8623393874414
 20
433.9669233200521
 30
0.0
 40
1.000180999999999
100
AcDbArc
 50
180.005036
 51
240.0018950000001
  0
LINE
  5
24E
330
1F
100
AcDbEntity
  8
0
 62
     7
 48
0.220779
370
    35
100
AcDbLine
 10
162.8621563874414
 20
442.7979783200521
 30
0.0
 11
162.8621563874414
 21
433.9668313200522
 31
0.0
  0
LINE
  5
24F
330
1F
100
AcDbEntity
  8
0
 62
     7
370
    35
100
AcDbLine
 10
156.3895003874414
 20
458.797367320052
 30
0.0
 11
71.38950038744145
 21
458.797367320052
 31
0.0
  0
LINE
  5
250
330
1F
100
AcDbEntity
  8
0
 62
     7
 48
0.220779
370
    35
100
AcDbLine
 10
64.91684438744144
 20
433.9668313200522
 30
0.0
 11
64.91684438744144
 21
442.7979783200521
 31
0.0
  0
ARC
  5
251
330
1F
100
AcDbEntity
  8
0
 62
     7
370
    35
100
AcDbCircle
 10
63.91666138744145
 20
433.9669233200521
 30
0.0
 40
1.000180999999999
100
AcDbArc
 50
299.998134
 51
359.99501
  0
LINE
  5
252
330
1F
100
AcDbEntity
  8
0
 62
     7
 48
0.034421
370
    35
100
AcDbLine
 10
64.41672238744145
 20
433.1007123200521
 30
0.0
 11
63.22433938744144
 21
432.4122963200522
 31
0.0
  0
LINE
  5
253
330
1F
100
AcDbEntity
  8
0
 62
     7
370
    13
100
AcDbLine
 10
166.2073103874414
 20
322.0871013200522
 30
0.0
 11
166.2073103874414
 21
429.7260173200522
 31
0.0
  0
ARC
  5
254
330
1F
100
AcDbEntity
  8
0
 62
     7
370
    13
100
AcDbCircle
 10
163.2073713874414
 20
429.7261093200521
 30
0.0
 40
2.99994
100
AcDbArc
 50
359.998043
 51
59.99978999999997
  0
LINE
  5
255
330
1F
100
AcDbEntity
  8
0
 62
     7
 48
0.004408
370
    35
100
AcDbLine
 10
164.7073713874414
 20
432.3241313200521
 30
0.0
 11
164.5546613874414
 21
432.4122963200522
 31
0.0
  0
LINE
  5
256
330
1F
100
AcDbEntity
  8
0
 62
     7
370
    13
100
AcDbLine
 10
61.57165938744145
 20
322.0871013200522
 30
0.0
 11
61.57165938744145
 21
429.7260173200522
 31
0.0
  0
ARC
  5
257
330
1F
100
AcDbEntity
  8
0
 62
     7
370
    35
100
AcDbCircle
 10
1564.823826387441
 20
443.2846413200521
 30
0.0
 40
1401.961548
100
AcDbArc
 50
179.6358469999999
 51
180.019898
  0
LINE
  5
258
330
1F
100
AcDbEntity
  8
0
 62
     7
370
    35
100
AcDbLine
 10
146.8895003874414
 20
447.6949503200521
 30
0.0
 11
122.8895003874414
 21
447.6949503200521
 31
0.0
  0
ARC
  5
259
330
1F
100
AcDbEntity
  8
0
 62
     7
370
    35
100
AcDbCircle
 10
-1336.847071612558
 20
443.2842453200521
 30
0.0
 40
1401.763672
100
AcDbArc
 50
359.980148
 51
0.3642199999999562
  0
LINE
  5
25A
330
1F
100
AcDbEntity
  8
0
 62
     7
 48
0.004408
370
    35
100
AcDbLine
 10
63.07162938744145
 20
432.3241313200521
 30
0.0
 11
63.22433938744144
 21
432.4122963200522
 31
0.0
  0
ARC
  5
25B
330
1F
100
AcDbEntity
  8
0
 62
     7
370
    13
100
AcDbCircle
 10
64.57159838744144
 20
429.7261093200521
 30
0.0
 40
2.99994
100
AcDbArc
 50
120.5355450000001
 51
180.001962
  0
LINE
  5
25C
330
1F
100
AcDbEntity
  8
0
 62
     7
 48
0.000701
370
    35
100
AcDbLine
 10
63.07162938744145
 20
432.3241313200521
 30
0.0
 11
63.04742838744145
 21
432.3100023200521
 31
0.0
  0
ARC
  5
25D
330
1F
100
AcDbEntity
  8
0
 62
     7
370
    35
100
AcDbCircle
 10
71.38950038744145
 20
42.19495032005215
 30
0.0
 40
4.363449
100
AcDbArc
 50
118.647885
 51
131.457072
  0
ARC
  5
25E
330
1F
100
AcDbEntity
  8
0
 62
     7
370
    35
100
AcDbCircle
 10
71.37241038744145
 20
42.20865332005216
 30
0.0
 40
4.341486999999999
100
AcDbArc
 50
131.4078539999999
 51
241.636606
  0
ARC
  5
25F
330
1F
100
AcDbEntity
  8
0
 62
     7
370
    35
100
AcDbCircle
 10
71.38950038744145
 20
42.23608832005216
 30
0.0
 40
4.374038999999999
100
AcDbArc
 50
241.610432
 51
298.3895970000001
  0
ARC
  5
260
330
1F
100
AcDbEntity
  8
0
 62
     7
370
    35
100
AcDbCircle
 10
71.40720038744145
 20
42.20842432005215
 30
0.0
 40
4.340888999999999
100
AcDbArc
 50
298.357638
 51
26.54427199999994
  0
ARC
  5
261
330
1F
100
AcDbEntity
  8
0
 62
     7
370
    35
100
AcDbCircle
 10
71.39770938744145
 20
42.20372432005215
 30
0.0
 40
4.351417999999999
100
AcDbArc
 50
26.54360800000003
 51
48.54753000000001
  0
LINE
  5
262
330
1F
100
AcDbEntity
  8
0
 62
     7
 48
0.000395
370
    35
100
AcDbLine
 10
74.27835538744145
 20
45.46515332005216
 30
0.0
 11
74.26651438744144
 21
45.47559032005216
 31
0.0
  0
ARC
  5
263
330
1F
100
AcDbEntity
  8
0
 62
     7
370
    35
100
AcDbCircle
 10
71.38950038744145
 20
42.19495032005215
 30
0.0
 40
4.363449
100
AcDbArc
 50
48.75039700000002
 51
118.647885
  0
LINE
  5
264
330
1F
100
AcDbEntity
  8
0
 62
     7
370
    35
100
AcDbLine
 10
156.3895003874414
 20
35.46553432005216
 30
0.0
 11
71.38950038744145
 21
35.46553432005216
 31
0.0
  0
LINE
  5
265
330
1F
100
AcDbEntity
  8
0
 62
     7
370
    35
100
AcDbLine
 10
166.3895003874414
 20
452.1949503200521
 30
0.0
 11
166.3895003874414
 21
42.19495032005215
 31
0.0
  0
LINE
  5
266
330
1F
100
AcDbEntity
  8
0
 62
     7
370
    35
100
AcDbLine
 10
156.3895003874414
 20
462.1949503200522
 30
0.0
 11
71.38950038744145
 21
462.1949503200522
 31
0.0
  0
LINE
  5
267
330
1F
100
AcDbEntity
  8
0
 62
     7
370
    35
100
AcDbLine
 10
61.38950038744145
 20
42.19495032005215
 30
0.0
 11
61.38950038744145
 21
452.1949503200521
 31
0.0
  0
ARC
  5
268
330
1F
100
AcDbEntity
  8
0
 62
     7
370
    35
100
AcDbCircle
 10
156.3895003874414
 20
42.19495032005215
 30
0.0
 40
10.0
100
AcDbArc
 50
270.0
 51
0.0
  0
ARC
  5
269
330
1F
100
AcDbEntity
  8
0
 62
     7
370
    35
100
AcDbCircle
 10
156.3895003874414
 20
452.1949503200521
 30
0.0
 40
10.0
100
AcDbArc
 50
0.0
 51
90.0
  0
ARC
  5
26A
330
1F
100
AcDbEntity
  8
0
 62
     7
370
    35
100
AcDbCircle
 10
71.38950038744145
 20
452.1949503200521
 30
0.0
 40
10.0
100
AcDbArc
 50
90.0
 51
180.0
  0
ARC
  5
26B
330
1F
100
AcDbEntity
  8
0
 62
     7
370
    35
100
AcDbCircle
 10
71.38950038744145
 20
42.19495032005215
 30
0.0
 40
10.0
100
AcDbArc
 50
180.0
 51
270.0
  0
LINE
  5
26C
330
1F
100
AcDbEntity
  8
0
 62
     7
370
    35
100
AcDbLine
 10
71.38950038744145
 20
32.19495032005216
 30
0.0
 11
156.3895003874414
 21
32.19495032005216
 31
0.0
  0
ARC
  5
26D
330
1F
100
AcDbEntity
  8
0
 62
     7
370
    35
100
AcDbCircle
 10
156.4065903874414
 20
42.20865332005216
 30
0.0
 40
4.341483
100
AcDbArc
 50
298.3633759999999
 51
48.59219600000004
  0
ARC
  5
26E
330
1F
100
AcDbEntity
  8
0
 62
     7
370
    35
100
AcDbCircle
 10
156.3895003874414
 20
42.19495032005215
 30
0.0
 40
4.363449
100
AcDbArc
 50
48.54292999999999
 51
131.4569899999999
  0
CIRCLE
  5
26F
330
1F
100
AcDbEntity
  8
0
 62
     7
370
    35
100
AcDbCircle
 10
156.3895003874414
 20
313.1949503200522
 30
0.0
 40
4.363449
  0
CIRCLE
  5
270
330
1F
100
AcDbEntity
  8
0
 62
     7
370
    35
100
AcDbCircle
 10
71.38950038744145
 20
313.1949503200522
 30
0.0
 40
4.363449
  0
ARC
  5
271
330
1F
100
AcDbEntity
  8
0
 62
     7
370
    35
100
AcDbCircle
 10
156.3812603874414
 20
42.20373932005216
 30
0.0
 40
4.351414
100
AcDbArc
 50
131.4524679999999
 51
153.456415
  0
ARC
  5
272
330
1F
100
AcDbEntity
  8
0
 62
     7
370
    35
100
AcDbCircle
 10
163.2052353874414
 20
322.0853313200522
 30
0.0
 40
3.001954
100
AcDbArc
 50
281.6830909999999
 51
0.0337969999999578
  0
ARC
  5
273
330
1F
100
AcDbEntity
  8
0
 62
     7
370
    35
100
AcDbCircle
 10
64.57373538744144
 20
322.0853313200522
 30
0.0
 40
3.001952
100
AcDbArc
 50
179.966086
 51
258.3168769999999
  0
LINE
  5
274
330
1F
100
AcDbEntity
  8
0
 62
     7
370
    35
100
AcDbLine
 10
166.2074323874414
 20
322.0871013200522
 30
0.0
 11
166.2074323874414
 21
429.7260173200522
 31
0.0
  0
ARC
  5
275
330
1F
100
AcDbEntity
  8
0
 62
     7
370
    35
100
AcDbCircle
 10
163.2073713874414
 20
429.7259873200521
 30
0.0
 40
3.000061
100
AcDbArc
 50
0.0002859999999616
 51
60.00020700000014
  0
LINE
  5
276
330
1F
100
AcDbEntity
  8
0
 62
     7
370
    35
100
AcDbLine
 10
61.57159838744145
 20
322.0871013200522
 30
0.0
 11
61.57159838744145
 21
429.7260173200522
 31
0.0
  0
ARC
  5
277
330
1F
100
AcDbEntity
  8
0
 62
     7
370
    35
100
AcDbCircle
 10
64.57165938744146
 20
429.7259873200521
 30
0.0
 40
3.000061999999999
100
AcDbArc
 50
120.534998
 51
179.9997179999999
  0
CIRCLE
  5
278
330
1F
100
AcDbEntity
  8
0
 62
     7
370
    35
100
AcDbCircle
 10
156.3895003874414
 20
313.1949503200522
 30
0.0
 40
1.393407999999999
  0
CIRCLE
  5
279
330
1F
100
AcDbEntity
  8
0
 62
     7
370
    35
100
AcDbCircle
 10
156.3895003874414
 20
42.19495032005215
 30
0.0
 40
1.393407999999999
  0
CIRCLE
  5
27A
330
1F
100
AcDbEntity
  8
0
 62
     7
370
    35
100
AcDbCircle
 10
71.38950038744145
 20
42.19495032005215
 30
0.0
 40
1.393407999999999
  0
CIRCLE
  5
27B
330
1F
100
AcDbEntity
  8
0
 62
     7
370
    35
100
AcDbCircle
 10
71.38950038744145
 20
313.1949503200522
 30
0.0
 40
1.393407999999999
  0
CIRCLE
  5
27C
330
1F
100
AcDbEntity
  8
0
 62
     7
370
    35
100
AcDbCircle
 10
156.3895003874414
 20
452.1949503200521
 30
0.0
 40
1.405629
  0
LINE
  5
27D
330
1F
100
AcDbEntity
  8
0
 62
     7
370
    35
100
AcDbLine
 10
156.3895003874414
 20
462.1949503200522
 30
0.0
 11
71.38950038744145
 21
462.1949503200522
 31
0.0
  0
ARC
  5
27E
330
1F
100
AcDbEntity
  8
0
 62
     7
370
    35
100
AcDbCircle
 10
156.3895003874414
 20
452.1949503200521
 30
0.0
 40
10.0
100
AcDbArc
 50
0.0
 51
90.0
  0
LINE
  5
27F
330
1F
100
AcDbEntity
  8
0
 62
     7
370
    35
100
AcDbLine
 10
61.38950038744145
 20
42.19495032005215
 30
0.0
 11
61.38950038744145
 21
452.1949503200521
 31
0.0
  0
ARC
  5
280
330
1F
100
AcDbEntity
  8
0
 62
     7
370
    35
100
AcDbCircle
 10
71.38950038744145
 20
452.1949503200521
 30
0.0
 40
10.0
100
AcDbArc
 50
90.0
 51
180.0
  0
CIRCLE
  5
281
330
1F
100
AcDbEntity
  8
0
 62
     7
370
    35
100
AcDbCircle
 10
71.38950038744145
 20
452.1949503200521
 30
0.0
 40
1.405629
  0
LINE
  5
282
330
1F
100
AcDbEntity
  8
0
 62
   253
 48
0.4875
370
    35
100
AcDbLine
 10
141.8895003874414
 20
333.6949503200522
 30
0.0
 11
161.3895003874414
 21
333.6949503200522
 31
0.0
  0
LINE
  5
283
330
1F
100
AcDbEntity
  8
0
 62
   253
 48
0.019812
370
    35
100
AcDbLine
 10
141.8895003874414
 20
333.6949503200522
 30
0.0
 11
141.0970203874414
 21
333.6949503200522
 31
0.0
  0
LINE
  5
284
330
1F
100
AcDbEntity
  8
0
 62
   253
 48
0.305188
370
    35
100
AcDbLine
 10
141.0970203874414
 20
333.6949503200522
 30
0.0
 11
128.8895003874414
 21
333.6949503200522
 31
0.0
  0
LINE
  5
285
330
1F
100
AcDbEntity
  8
0
 62
   253
 48
0.238382
370
    35
100
AcDbLine
 10
128.8895003874414
 20
333.6949503200522
 30
0.0
 11
119.3542223874414
 21
333.6949503200522
 31
0.0
  0
LINE
  5
286
330
1F
100
AcDbEntity
  8
0
 62
   253
 48
0.238382
370
    35
100
AcDbLine
 10
108.4247783874414
 20
333.6949503200522
 30
0.0
 11
98.88950038744145
 21
333.6949503200522
 31
0.0
  0
LINE
  5
287
330
1F
100
AcDbEntity
  8
0
 62
   253
 48
0.305188
370
    35
100
AcDbLine
 10
98.88950038744145
 20
333.6949503200522
 30
0.0
 11
86.68198038744145
 21
333.6949503200522
 31
0.0
  0
LINE
  5
288
330
1F
100
AcDbEntity
  8
0
 62
   253
 48
0.019813
370
    35
100
AcDbLine
 10
86.68201138744144
 20
333.6949503200522
 30
0.0
 11
85.88950038744144
 21
333.6949503200522
 31
0.0
  0
LINE
  5
289
330
1F
100
AcDbEntity
  8
0
 62
   253
 48
0.4875
370
    35
100
AcDbLine
 10
66.38950038744145
 20
333.6949503200522
 30
0.0
 11
85.88950038744144
 21
333.6949503200522
 31
0.0
  0
ARC
  5
28A
330
1F
100
AcDbEntity
  8
0
 62
   253
370
    35
100
AcDbCircle
 10
88.22549938744145
 20
337.8559923200521
 30
0.0
 40
1.835285999999999
100
AcDbArc
 50
131.5020009999999
 51
180.437633
  0
ARC
  5
28B
330
1F
100
AcDbEntity
  8
0
 62
   253
370
    35
100
AcDbCircle
 10
98.88345838744145
 20
325.6136513200522
 30
0.0
 40
18.067045
100
AcDbArc
 50
89.98080300000005
 51
131.088952
  0
LINE
  5
28C
330
1F
100
AcDbEntity
  8
0
 62
   253
370
    35
100
AcDbLine
 10
98.88950038744145
 20
343.6810953200521
 30
0.0
 11
128.8895003874414
 21
343.6810953200521
 31
0.0
  0
ARC
  5
28D
330
1F
100
AcDbEntity
  8
0
 62
   253
370
    35
100
AcDbCircle
 10
128.8955423874414
 20
325.6136513200522
 30
0.0
 40
18.067057
100
AcDbArc
 50
48.9110670000001
 51
90.01918899999987
  0
ARC
  5
28E
330
1F
100
AcDbEntity
  8
0
 62
   253
370
    35
100
AcDbCircle
 10
139.5535013874414
 20
337.8559923200521
 30
0.0
 40
1.835286999999999
100
AcDbArc
 50
359.562413
 51
48.49799400000008
  0
LINE
  5
28F
330
1F
100
AcDbEntity
  8
0
 62
   253
 48
0.091175
370
    35
100
AcDbLine
 10
86.38950038744145
 20
334.1949503200522
 30
0.0
 11
86.38950038744145
 21
337.8419533200522
 31
0.0
  0
LINE
  5
290
330
1F
100
AcDbEntity
  8
0
 62
   253
 48
0.091175
370
    35
100
AcDbLine
 10
141.3895003874414
 20
334.1949503200522
 30
0.0
 11
141.3895003874414
 21
337.8419533200522
 31
0.0
  0
ARC
  5
291
330
1F
100
AcDbEntity
  8
0
 62
   253
370
    35
100
AcDbCircle
 10
141.8895003874414
 20
334.1949503200522
 30
0.0
 40
0.5
100
AcDbArc
 50
180.0
 51
270.0
  0
ARC
  5
292
330
1F
100
AcDbEntity
  8
0
 62
   253
370
    35
100
AcDbCircle
 10
85.88950038744144
 20
334.1949503200522
 30
0.0
 40
0.5
100
AcDbArc
 50
270.0
 51
0.0
  0
LINE
  5
293
330
1F
100
AcDbEntity
  8
0
 62
   253
 48
0.001339
370
    35
100
AcDbLine
 10
141.0720563874414
 20
332.1310463200522
 30
0.0
 11
141.0194443874414
 21
332.1210983200522
 31
0.0
  0
LINE
  5
294
330
1F
100
AcDbEntity
  8
0
 62
   253
 48
0.003185
370
    35
100
AcDbLine
 10
141.0720563874414
 20
332.1310463200522
 30
0.0
 11
141.1994373874414
 21
332.1310463200522
 31
0.0
  0
LINE
  5
295
330
1F
100
AcDbEntity
  8
0
 62
   253
 48
0.034277
370
    35
100
AcDbLine
 10
141.1994373874414
 20
332.1310463200522
 30
0.0
 11
142.5705303874415
 21
332.1310463200522
 31
0.0
  0
ARC
  5
296
330
1F
100
AcDbEntity
  8
0
 62
   253
370
    35
100
AcDbCircle
 10
142.5165753874414
 20
331.4980813200522
 30
0.0
 40
0.6345380000000001
100
AcDbArc
 50
53.41975299999989
 51
85.12413500000008
  0
ARC
  5
297
330
1F
100
AcDbEntity
  8
0
 62
   253
370
    35
100
AcDbCircle
 10
85.26257738744144
 20
331.4977463200522
 30
0.0
 40
0.6348630000000001
100
AcDbArc
 50
94.88537699999985
 51
126.573159
  0
LINE
  5
298
330
1F
100
AcDbEntity
  8
0
 62
   253
 48
0.034277
370
    35
100
AcDbLine
 10
86.57953338744144
 20
332.1310463200522
 30
0.0
 11
85.20843938744144
 21
332.1310463200522
 31
0.0
  0
LINE
  5
299
330
1F
100
AcDbEntity
  8
0
 62
   253
 48
0.003186
370
    35
100
AcDbLine
 10
86.70697438744145
 20
332.1310463200522
 30
0.0
 11
86.57953338744144
 21
332.1310463200522
 31
0.0
  0
LINE
  5
29A
330
1F
100
AcDbEntity
  8
0
 62
   253
 48
0.001338
370
    35
100
AcDbLine
 10
86.70697438744145
 20
332.1310463200522
 30
0.0
 11
86.75955638744145
 21
332.1210983200522
 31
0.0
  0
LINE
  5
29B
330
1F
100
AcDbEntity
  8
0
 62
   253
370
    35
100
AcDbLine
 10
128.8895003874414
 20
329.1949503200521
 30
0.0
 11
98.88950038744145
 21
329.1949503200521
 31
0.0
  0
ARC
  5
29C
330
1F
100
AcDbEntity
  8
0
 62
   253
370
    35
100
AcDbCircle
 10
128.8711283874414
 20
348.1752973200522
 30
0.0
 40
22.859152
100
AcDbArc
 50
270.045978
 51
280.4481109999999
  0
LINE
  5
29D
330
1F
100
AcDbEntity
  8
0
 62
   253
370
    35
100
AcDbLine
 10
98.88950038744145
 20
325.3163803200522
 30
0.0
 11
128.8895003874414
 21
325.3163803200522
 31
0.0
  0
ARC
  5
29E
330
1F
100
AcDbEntity
  8
0
 62
   253
370
    35
100
AcDbCircle
 10
98.90799438744146
 20
348.1745043200522
 30
0.0
 40
22.858364
100
AcDbArc
 50
259.551174
 51
269.9536889999999
  0
LINE
  5
29F
330
1F
100
AcDbEntity
  8
0
 62
   253
 48
0.00058
370
    35
100
AcDbLine
 10
86.92651838744145
 20
332.0698593200522
 30
0.0
 11
86.94815538744144
 21
332.0614663200522
 31
0.0
  0
ARC
  5
2A0
330
1F
100
AcDbEntity
  8
0
 62
   253
370
    35
100
AcDbCircle
 10
86.50211038744144
 20
330.9866983200521
 30
0.0
 40
1.163277
100
AcDbArc
 50
68.60348599999993
 51
77.21468800000001
  0
LINE
  5
2A1
330
1F
100
AcDbEntity
  8
0
 62
   253
 48
0.000734
370
    35
100
AcDbLine
 10
86.94809438744144
 20
332.0613443200522
 30
0.0
 11
86.97540738744145
 21
332.0506023200521
 31
0.0
  0
LINE
  5
2A2
330
1F
100
AcDbEntity
  8
0
 62
   253
 48
0.002258
370
    35
100
AcDbLine
 10
87.46286438744144
 20
331.7505533200522
 30
0.0
 11
87.39163638744145
 21
331.8060953200521
 31
0.0
  0
ARC
  5
2A3
330
1F
100
AcDbEntity
  8
0
 62
   253
370
    35
100
AcDbCircle
 10
86.25635238744143
 20
330.3616073200521
 30
0.0
 40
1.836344
100
AcDbArc
 50
51.83522799999997
 51
66.93906399999997
  0
LINE
  5
2A4
330
1F
100
AcDbEntity
  8
0
 62
   253
 48
0.000595
370
    35
100
AcDbLine
 10
87.44427938744143
 20
331.7656903200522
 30
0.0
 11
87.46274238744145
 21
331.7506753200522
 31
0.0
  0
ARC
  5
2A5
330
1F
100
AcDbEntity
  8
0
 62
   253
370
    35
100
AcDbCircle
 10
141.5226793874414
 20
330.3615763200521
 30
0.0
 40
1.836392999999999
100
AcDbArc
 50
113.0612069999999
 51
128.164648
  0
LINE
  5
2A6
330
1F
100
AcDbEntity
  8
0
 62
   253
 48
0.002258
370
    35
100
AcDbLine
 10
140.3161363874414
 20
331.7505533200522
 30
0.0
 11
140.3873643874414
 21
331.8060953200521
 31
0.0
  0
LINE
  5
2A7
330
1F
100
AcDbEntity
  8
0
 62
   253
 48
0.000734
370
    35
100
AcDbLine
 10
140.8309063874414
 20
332.0613443200522
 30
0.0
 11
140.8035633874414
 21
332.0506023200521
 31
0.0
  0
ARC
  5
2A8
330
1F
100
AcDbEntity
  8
0
 62
   253
370
    35
100
AcDbCircle
 10
141.2770123874414
 20
330.9865763200521
 30
0.0
 40
1.163462999999999
100
AcDbArc
 50
102.78958
 51
111.399395
  0
LINE
  5
2A9
330
1F
100
AcDbEntity
  8
0
 62
   253
 48
0.000579
370
    35
100
AcDbLine
 10
140.8524523874414
 20
332.0698593200522
 30
0.0
 11
140.8308453874414
 21
332.0614663200522
 31
0.0
  0
ARC
  5
2AA
330
1F
100
AcDbEntity
  8
0
 62
   253
370
    35
100
AcDbCircle
 10
128.8615463874414
 20
357.3585253200522
 30
0.0
 40
28.164162
100
AcDbArc
 50
270.0569340000001
 51
282.7320709999999
  0
ARC
  5
2AB
330
1F
100
AcDbEntity
  8
0
 62
   253
370
    35
100
AcDbCircle
 10
98.91745438744145
 20
357.3585863200522
 30
0.0
 40
28.164249
100
AcDbArc
 50
257.2679850000001
 51
269.9430880000001
  0
ARC
  5
2AC
330
1F
100
AcDbEntity
  8
0
 62
   253
370
    35
100
AcDbCircle
 10
70.24252738744144
 20
20587.22827632005
 30
0.0
 40
20254.84375
100
AcDbArc
 50
269.9891239999999
 51
270.046115
  0
LINE
  5
2AD
330
1F
100
AcDbEntity
  8
0
 62
   253
 48
0.000595
370
    35
100
AcDbLine
 10
87.44427938744143
 20
331.7656903200522
 30
0.0
 11
87.46274238744145
 21
331.7506753200522
 31
0.0
  0
ARC
  5
2AE
330
1F
100
AcDbEntity
  8
0
 62
   253
370
    35
100
AcDbCircle
 10
157.5311023874414
 20
20580.87866632005
 30
0.0
 40
20248.492188
100
AcDbArc
 50
269.953907
 51
270.0109259999999
  0
LINE
  5
2AF
330
1F
100
AcDbEntity
  8
0
 62
     7
 48
0.070241
370
    13
100
AcDbLine
 10
162.0411113874414
 20
45.50191132005216
 30
0.0
 11
159.2314803874414
 21
45.50598532005216
 31
0.0
  0
LINE
  5
2B0
330
1F
100
AcDbEntity
  8
0
 62
     7
 48
0.074282
370
    13
100
AcDbLine
 10
68.70917238744144
 20
45.63728732005215
 30
0.0
 11
65.73788938744144
 21
45.64160632005216
 31
0.0
  0
LINE
  5
2B1
330
1F
100
AcDbEntity
  8
0
 62
     7
370
    13
100
AcDbLine
 10
153.5571643874414
 20
45.51422532005216
 30
0.0
 11
74.08087638744145
 21
45.62950532005216
 31
0.0
  0
LINE
  5
2B2
330
1F
100
AcDbEntity
  8
0
 62
     7
 48
0.361816
370
    13
100
AcDbLine
 10
162.8621563874414
 20
442.0468183200521
 30
0.0
 11
148.3895003874414
 21
442.0468183200521
 31
0.0
  0
LINE
  5
2B3
330
1F
100
AcDbEntity
  8
0
 62
     7
370
    13
100
AcDbLine
 10
64.91684438744144
 20
442.0468183200521
 30
0.0
 11
121.3895003874414
 21
442.0468183200521
 31
0.0
  0
LINE
  5
2B4
330
1F
100
AcDbEntity
  8
0
 62
     7
100
AcDbLine
 10
68.88950038744145
 20
402.721240800052
 30
0.0
 11
68.88950038744145
 21
357.6686598400522
 31
0.0
  0
LINE
  5
2B5
330
1F
100
AcDbEntity
  8
0
 62
     7
100
AcDbLine
 10
68.88950038744145
 20
357.6686598400522
 30
0.0
 11
158.8895003874414
 21
357.6686598400522
 31
0.0
  0
LINE
  5
2B6
330
1F
100
AcDbEntity
  8
0
 62
     7
100
AcDbLine
 10
158.8895003874414
 20
357.6686598400522
 30
0.0
 11
158.8895003874414
 21
402.721240800052
 31
0.0
  0
LINE
  5
2B7
330
1F
100
AcDbEntity
  8
0
 62
     7
100
AcDbLine
 10
158.8895003874414
 20
402.721240800052
 30
0.0
 11
68.88950038744145
 21
402.721240800052
 31
0.0
  0
DIMENSION
  5
2B8
330
1F
100
AcDbEntity
  8
QUOTE
 62
     7
100
AcDbDimension
  2
*D5
 10
39.13424676744144
 20
32.19495032005216
 30
0.0
 11
39.13424676744145
 21
241.5357694600522
 31
0.0
 70
   160
 71
     0
 42
430.0
  3
Standard
100
AcDbAlignedDimension
 13
73.86022743744145
 23
462.1949503200522
 33
0.0
 14
71.38949986744144
 24
32.19495032005216
 34
0.0
 50
90.0
100
AcDbRotatedDimension
1001
ACAD
1000
DSTYLE
1002
{
1070
    41
1040
15.0
1070
   140
1040
10.0
1070
    78
1070
     8
1070
   284
1070
     8
1002
}
  0
DIMENSION
  5
2B9
330
1F
100
AcDbEntity
  8
QUOTE
 62
     7
100
AcDbDimension
  2
*D6
 10
61.38950038744145
 20
13.58808492005216
 30
0.0
 11
113.8895459774414
 21
13.58808492005216
 31
0.0
 70
   160
 71
     0
 42
105.00009117
  3
Standard
100
AcDbAlignedDimension
 13
166.3895915574414
 23
42.13007842005215
 33
0.0
 14
61.38950038744145
 24
42.19494875005216
 34
0.0
100
AcDbRotatedDimension
1001
ACAD
1000
DSTYLE
1002
{
1070
    41
1040
15.0
1070
   140
1040
10.0
1070
    78
1070
     8
1070
   284
1070
     8
1002
}
  0
LINE
  5
2BA
330
1F
100
AcDbEntity
  8
0
 62
     7
370
    35
100
AcDbLine
 10
146.8895003874414
 20
447.6949503200521
 30
0.0
 11
122.8895003874414
 21
447.6949503200521
 31
0.0
  0
LINE
  5
2BB
330
1F
100
AcDbEntity
  8
0
 62
     7
 48
0.000549
370
    13
100
AcDbLine
 10
148.3675273874414
 20
446.1949503200521
 30
0.0
 11
148.3895003874414
 21
446.1949503200521
 31
0.0
  0
LINE
  5
2BC
330
1F
100
AcDbEntity
  8
0
 62
     7
370
    35
100
AcDbLine
 10
146.8895003874414
 20
447.6949503200521
 30
0.0
 11
122.8895003874414
 21
447.6949503200521
 31
0.0
  0
LINE
  5
2BD
330
1F
100
AcDbEntity
  8
0
 62
     7
 48
0.290076
370
    35
100
AcDbLine
 10
148.3895003874414
 20
446.1949503200521
 30
0.0
 11
148.3895003874414
 21
431.1949503200521
 31
0.0
  0
ARC
  5
2BE
330
1F
100
AcDbEntity
  8
0
 62
     7
370
    35
100
AcDbCircle
 10
146.8895003874414
 20
431.1949503200521
 30
0.0
 40
1.5
100
AcDbArc
 50
270.0
 51
0.0
  0
LINE
  5
2BF
330
1F
100
AcDbEntity
  8
0
 62
     7
370
    35
100
AcDbLine
 10
122.8895003874414
 20
429.6949503200521
 30
0.0
 11
146.8895003874414
 21
429.6949503200521
 31
0.0
  0
ARC
  5
2C0
330
1F
100
AcDbEntity
  8
0
 62
     7
370
    35
100
AcDbCircle
 10
122.8895003874414
 20
431.1949503200521
 30
0.0
 40
1.5
100
AcDbArc
 50
180.0
 51
270.0
  0
LINE
  5
2C1
330
1F
100
AcDbEntity
  8
0
 62
     7
 48
0.290076
370
    35
100
AcDbLine
 10
121.3895003874414
 20
446.1949500900522
 30
0.0
 11
121.3895003874414
 21
431.1949503200521
 31
0.0
  0
ARC
  5
2C2
330
1F
100
AcDbEntity
  8
0
 62
     7
370
    35
100
AcDbCircle
 10
122.8895003874414
 20
446.1949503200521
 30
0.0
 40
1.5
100
AcDbArc
 50
90.0
 51
180.0
  0
LINE
  5
2C3
330
1F
100
AcDbEntity
  8
0
 62
     7
370
    35
100
AcDbLine
 10
146.8895003874414
 20
447.6949503200521
 30
0.0
 11
122.8895003874414
 21
447.6949503200521
 31
0.0
  0
ARC
  5
2C4
330
1F
100
AcDbEntity
  8
0
 62
     7
370
    35
100
AcDbCircle
 10
146.8895003874414
 20
446.1949503200521
 30
0.0
 40
1.5
100
AcDbArc
 50
0.0
 51
90.0
  0
TEXT
  5
2C5
330
1F
100
AcDbEntity
  8
0
 62
     7
100
AcDbText
 10
78.04839189506051
 20
449.5079402600521
 30
0.0
 40
5.0
  1
GW68001N
 72
     1
 11
96.50077284744146
 21
449.5079402600521
 31
0.0
100
AcDbText
  0
LWPOLYLINE
  5
2C6
330
1F
100
AcDbEntity
  8
0
 62
   253
370
    35
100
AcDbPolyline
 90
        4
 70
     0
 43
0.0
 10
163.9498033874414
 20
421.0723613200522
 10
163.9670153874414
 20
425.8597453200521
 10
163.9860583874414
 20
427.3376203200521
 10
164.0086413874414
 20
427.8721053200521
  0
LWPOLYLINE
  5
2C7
330
1F
100
AcDbEntity
  8
0
 62
   253
370
    35
100
AcDbPolyline
 90
       12
 70
     0
 43
0.0
 10
164.0086413874414
 20
427.8721053200521
 10
163.9985093874414
 20
428.0137373200521
 10
163.9684793874414
 20
428.1525313200521
 10
163.9190413874414
 20
428.2857103200521
 10
163.8512923874414
 20
428.4104653200521
 10
163.7665143874414
 20
428.5244183200521
 10
163.6664783874414
 20
428.6251873200521
 10
163.5531353874414
 20
428.7108193200521
 10
163.4288073874414
 20
428.7794843200521
 10
163.2960553874414
 20
428.8298383200522
 10
163.1574443874414
 20
428.8609053200522
 10
163.0086413874414
 20
428.8720743200522
  0
LWPOLYLINE
  5
2C8
330
1F
100
AcDbEntity
  8
0
 62
   253
370
    35
100
AcDbPolyline
 90
       12
 70
     0
 43
0.0
 10
64.77035938744144
 20
428.8720743200522
 10
64.62869738744145
 20
428.8619733200521
 10
64.48990338744144
 20
428.8319133200522
 10
64.35675538744145
 20
428.7825053200521
 10
64.23196838744144
 20
428.7147263200521
 10
64.11801638744146
 20
428.6299483200521
 10
64.01724738744144
 20
428.5299113200522
 10
63.93164538744144
 20
428.4165693200521
 10
63.86298038744145
 20
428.292271320052
 10
63.81259638744144
 20
428.1594893200522
 10
63.78152938744145
 20
428.0209393200522
 10
63.77039038744145
 20
427.8721053200521
  0
LWPOLYLINE
  5
2C9
330
1F
100
AcDbEntity
  8
0
 62
     7
370
    35
100
AcDbPolyline
 90
       47
 70
     0
 43
0.0
 10
73.49802138744144
 20
456.0545693200521
 10
72.95709638744146
 20
456.3006023200521
 10
72.67450438744145
 20
456.3962143200521
 10
72.38617438744146
 20
456.472660320052
 10
72.09308338744145
 20
456.5296983200521
 10
71.79681838744144
 20
456.5669603200522
 10
71.49857038744144
 20
456.5842943200522
 10
71.19980338744145
 20
456.5815473200522
 10
70.90189038744146
 20
456.5588423200521
 10
70.60611438744145
 20
456.5161783200522
 10
70.31400038744145
 20
456.4538313200521
 10
70.02670738744145
 20
456.3720133200521
 10
69.74579338744145
 20
456.2711533200521
 10
69.47223338744144
 20
456.1516153200521
 10
69.20758538744144
 20
456.0141643200521
 10
68.95273238744144
 20
455.8591353200521
 10
68.70914138744145
 20
455.6875353200521
 10
68.47760438744145
 20
455.4998823200521
 10
68.25946538744145
 20
455.2972453200522
 10
68.05539438744145
 20
455.0803873200521
 10
67.86658138744144
 20
454.8504073200521
 10
67.69360838744145
 20
454.6081893200521
 10
67.53744938744145
 20
454.3550463200521
 10
67.39862538744145
 20
454.0918013200521
 10
67.27795838744144
 20
453.8199813200521
 10
67.17581638744144
 20
453.5405013200521
 10
67.09280838744145
 20
453.254948320052
 10
67.02920938744146
 20
452.9642373200521
 10
66.98535638744144
 20
452.6701093200521
 10
66.96139938744145
 20
452.3734783200522
 10
66.95752438744145
 20
452.0760543200522
 10
66.97366738744145
 20
451.7788743200521
 10
67.00983138744145
 20
451.4835253200522
 10
67.06580038744144
 20
451.1911363200521
 10
67.14133138744145
 20
450.9032943200521
 10
67.23608838744144
 20
450.6210983200522
 10
67.34961438744145
 20
450.3459513200521
 10
67.48141938744145
 20
450.0789843200522
 10
67.63089438744144
 20
449.8214763200521
 10
67.79739838744145
 20
449.5745583200521
 10
67.98016838744145
 20
449.3393593200521
 10
68.17837938744145
 20
449.1169473200521
 10
68.39108738744144
 20
448.9083293200521
 10
68.61743638744144
 20
448.7144213200521
 10
68.85629738744144
 20
448.5361673200522
 10
69.10663338744145
 20
448.3743333200521
 10
69.25558938744145
 20
448.2888833200521
  0
LWPOLYLINE
  5
2CA
330
1F
100
AcDbEntity
  8
0
 62
     7
370
    35
100
AcDbPolyline
 90
       47
 70
     0
 43
0.0
 10
73.49802138744144
 20
456.0545693200521
 10
73.99518238744144
 20
455.7427713200521
 10
74.23047338744145
 20
455.5601243200522
 10
74.45300738744144
 20
455.3620043200521
 10
74.66147338744145
 20
455.1495403200521
 10
74.85525938744145
 20
454.9234353200521
 10
75.03323838744146
 20
454.6850023200521
 10
75.19479838744145
 20
454.4349713200521
 10
75.33902438744144
 20
454.1748703200521
 10
75.46545838744146
 20
453.9054303200521
 10
75.57336838744145
 20
453.6283303200522
 10
75.66241938744145
 20
453.3443643200521
 10
75.73209038744145
 20
453.0552713200521
 10
75.78213938744145
 20
452.7619063200521
 10
75.81226038744145
 20
452.466038320052
 10
75.82242238744145
 20
452.1686143200521
 10
75.81250438744145
 20
451.8713423200521
 10
75.78256638744145
 20
451.5752603200521
 10
75.73279238744145
 20
451.2819863200522
 10
75.66333438744145
 20
450.9926193200522
 10
75.57458938744145
 20
450.7085923200521
 10
75.46689338744144
 20
450.4311263200521
 10
75.34073338744144
 20
450.1615033200521
 10
75.19669038744145
 20
449.9009133200521
 10
75.03543538744145
 20
449.6505783200522
 10
74.85767038744146
 20
449.4115643200522
 10
74.66418938744144
 20
449.1850323200521
 10
74.45587638744145
 20
448.9719583200521
 10
74.23367738744144
 20
448.7733803200521
 10
73.99857038744144
 20
448.5900923200521
 10
73.75171338744144
 20
448.4230393200521
 10
73.49408438744145
 20
448.2729233200521
 10
73.22696338744144
 20
448.1404463200521
 10
72.95151238744145
 20
448.0261883200521
 10
72.66901038744144
 20
447.9307293200521
 10
72.38074138744145
 20
447.8544053200521
 10
72.08795638744145
 20
447.7976113200521
 10
71.79202738744145
 20
447.7606243200522
 10
71.49423638744145
 20
447.7435953200521
 10
71.19598838744145
 20
447.7465563200521
 10
70.89862538744146
 20
447.7695663200521
 10
70.60345938744145
 20
447.8124733200521
 10
70.31186338744145
 20
447.875126320052
 10
70.02512038744145
 20
447.9571883200521
 10
69.74460338744144
 20
448.0583233200522
 10
69.47150138744145
 20
448.1780443200522
 10
69.25558938744145
 20
448.2888833200521
  0
LWPOLYLINE
  5
2CB
330
1F
100
AcDbEntity
  8
0
 62
     7
370
    35
100
AcDbPolyline
 90
       47
 70
     0
 43
0.0
 10
154.2809793874414
 20
456.0545693200521
 10
153.7774393874414
 20
455.738102320052
 10
153.5424543874414
 20
455.555058320052
 10
153.3202863874414
 20
455.3565413200522
 10
153.1121563874414
 20
455.143681320052
 10
152.9187973874414
 20
454.9172403200522
 10
152.7412463874414
 20
454.6784713200521
 10
152.5801743874414
 20
454.4281963200521
 10
152.4363753874414
 20
454.1677903200521
 10
152.3103983874414
 20
453.8981973200521
 10
152.2030383874414
 20
453.6208543200521
 10
152.1144763874414
 20
453.3367653200521
 10
152.0453233874414
 20
453.0475503200522
 10
151.9958233874414
 20
452.7540933200521
 10
151.9662213874414
 20
452.458164320052
 10
151.9565783874414
 20
452.1607103200522
 10
151.9670153874414
 20
451.8634683200521
 10
151.9974713874414
 20
451.5674483200521
 10
152.0478253874414
 20
451.2742353200521
 10
152.1177713874414
 20
450.9849893200521
 10
152.2070053874414
 20
450.7011453200521
 10
152.3152203874414
 20
450.4238633200522
 10
152.4418683874414
 20
450.154484320052
 10
152.5863383874414
 20
449.8941083200521
 10
152.7480823874414
 20
449.6440783200521
 10
152.9262433874414
 20
449.4054003200521
 10
153.1201523874415
 20
449.1792033200521
 10
153.3288313874414
 20
448.9664963200522
 10
153.5513653874414
 20
448.7683153200521
 10
153.7868393874414
 20
448.5854533200521
 10
154.0339703874414
 20
448.4188273200522
 10
154.2919053874414
 20
448.269169320052
 10
154.5592393874414
 20
448.1371813200521
 10
154.8348743874414
 20
448.0234423200521
 10
155.1175883874414
 20
447.9284403200521
 10
155.4059793874414
 20
447.8526653200522
 10
155.6988873874414
 20
447.7963913200522
 10
155.9948473874414
 20
447.7598923200521
 10
156.2926983874414
 20
447.7434123200521
 10
156.5909163874414
 20
447.7468913200522
 10
156.8882793874414
 20
447.7704513200522
 10
157.1833233874414
 20
447.8138773200521
 10
157.4748273874414
 20
447.8770183200521
 10
157.7613873874414
 20
447.9596293200521
 10
158.0417833874414
 20
448.0612533200521
 10
158.3146713874414
 20
448.1814623200521
 10
158.5234113874414
 20
448.2888833200521
  0
LWPOLYLINE
  5
2CC
330
1F
100
AcDbEntity
  8
0
 62
     7
370
    35
100
AcDbPolyline
 90
       48
 70
     0
 43
0.0
 10
154.2809793874414
 20
456.0545693200521
 10
154.5498393874414
 20
456.1877483200521
 10
154.8269393874414
 20
456.3024943200521
 10
155.1096543874414
 20
456.3977703200521
 10
155.3981063874414
 20
456.4738813200522
 10
155.6912583874414
 20
456.5305523200521
 10
155.9875833874414
 20
456.567448320052
 10
156.2858623874414
 20
456.5844163200521
 10
156.5846293874414
 20
456.5813333200521
 10
156.8825423874414
 20
456.5582323200522
 10
157.1781963874414
 20
456.5152633200522
 10
157.4702503874414
 20
456.4525193200521
 10
157.7574203874414
 20
456.3703353200521
 10
158.0382433874414
 20
456.2691393200521
 10
158.3116803874415
 20
456.1492963200521
 10
158.5761463874414
 20
456.011479320052
 10
158.8307843874414
 20
455.8561753200522
 10
159.0741313874414
 20
455.6842693200521
 10
159.3054553874414
 20
455.4963423200521
 10
159.5233503874414
 20
455.2934613200521
 10
159.7271463874414
 20
455.0762983200521
 10
159.9156843874414
 20
454.8461343200521
 10
160.0884143874414
 20
454.6037033200522
 10
160.2442363874414
 20
454.3503463200521
 10
160.3827253874414
 20
454.0869183200522
 10
160.5030863874414
 20
453.8149763200522
 10
160.6048323874414
 20
453.5353433200521
 10
160.6875353874414
 20
453.2496993200521
 10
160.7507673874414
 20
452.9589273200521
 10
160.7942853874414
 20
452.6647383200521
 10
160.8178453874414
 20
452.3681073200521
 10
160.8213853874414
 20
452.0706833200521
 10
160.8048443874414
 20
451.7734723200521
 10
160.7683453874414
 20
451.4782143200521
 10
160.7120103874414
 20
451.1858563200521
 10
160.6361433874414
 20
450.8981363200521
 10
160.5410503874414
 20
450.616032320052
 10
160.4271593874415
 20
450.3410073200521
 10
160.2950183874414
 20
450.0742233200521
 10
160.1452373874414
 20
449.8168993200521
 10
159.9784283874414
 20
449.5701943200521
 10
159.7953843874414
 20
449.3352093200521
 10
159.5968973874414
 20
449.1130413200521
 10
159.3838853874414
 20
448.9046673200521
 10
159.1573223874414
 20
448.7110643200521
 10
158.9182483874414
 20
448.5330853200521
 10
158.6676983874414
 20
448.3715253200521
 10
158.5234113874414
 20
448.2888833200521
  0
LWPOLYLINE
  5
2CD
330
1F
100
AcDbEntity
  8
0
 62
     7
370
    35
100
AcDbPolyline
 90
       30
 70
     0
 43
0.0
 10
156.3895003874414
 20
458.797367320052
 10
156.7524763874414
 20
458.7829633200522
 10
157.1147813874414
 20
458.7485703200521
 10
157.4745833874414
 20
458.6942183200521
 10
157.8319443874415
 20
458.6198773200521
 10
158.1838123874414
 20
458.5261273200521
 10
158.5316513874414
 20
458.4124803200522
 10
158.8711893874414
 20
458.2803383200521
 10
159.2050523874414
 20
458.1285753200521
 10
159.5280503874414
 20
457.9595383200521
 10
159.8436633874414
 20
457.7712753200521
 10
160.1460313874414
 20
457.5673263200521
 10
160.4393663874414
 20
457.3447613200521
 10
160.7172593874414
 20
457.1083723200521
 10
160.9845323874414
 20
456.8540083200521
 10
161.2344713874414
 20
456.5880173200521
 10
161.4722033874414
 20
456.3048143200521
 10
161.6910143874414
 20
456.0124553200521
 10
161.8958483874414
 20
455.7041063200521
 10
162.0806013874414
 20
455.3891033200521
 10
162.2497913874414
 20
455.0596353200521
 10
162.3980453874414
 20
454.726078320052
 10
162.5292713874414
 20
454.379765320052
 10
162.6392563874414
 20
454.0318643200521
 10
162.7308703874414
 20
453.6731913200521
 10
162.8011213874414
 20
453.3153123200521
 10
162.8519633874414
 20
452.9487963200521
 10
162.8816883874414
 20
452.5853923200521
 10
162.8911483874414
 20
452.2156413200522
 10
162.8910263874414
 20
452.1949503200521
  0
LWPOLYLINE
  5
2CE
330
1F
100
AcDbEntity
  8
0
 62
     7
370
    35
100
AcDbPolyline
 90
       30
 70
     0
 43
0.0
 10
71.38950038744145
 20
458.797367320052
 10
71.02618838744145
 20
458.7829633200522
 10
70.66376138744145
 20
458.7485093200521
 10
70.30399038744144
 20
458.6941573200521
 10
69.94675138744145
 20
458.6198163200521
 10
69.59482238744145
 20
458.5260363200521
 10
69.24698338744144
 20
458.4123583200521
 10
68.90741438744145
 20
458.2801863200521
 10
68.57352138744144
 20
458.1283613200521
 10
68.25055338744144
 20
457.9592943200522
 10
67.93494138744145
 20
457.7710003200521
 10
67.63260338744145
 20
457.5670513200521
 10
67.33926838744145
 20
457.3444563200521
 10
67.06137538744144
 20
457.1080363200521
 10
66.79419438744145
 20
456.8537333200521
 10
66.54431638744146
 20
456.5877733200522
 10
66.30676738744146
 20
456.3048143200521
 10
66.08801738744145
 20
456.0125163200522
 10
65.88324438744145
 20
455.7043503200522
 10
65.69855238744145
 20
455.3894693200521
 10
65.52939338744145
 20
455.0600323200521
 10
65.38107738744145
 20
454.726444320052
 10
65.24976038744146
 20
454.3799783200521
 10
65.13977538744144
 20
454.0319863200521
 10
65.04813038744145
 20
453.6730693200521
 10
64.97781838744145
 20
453.3150673200522
 10
64.92700638744145
 20
452.9483683200521
 10
64.89728238744145
 20
452.5849953200521
 10
64.88788338744145
 20
452.2153363200522
 10
64.88797438744144
 20
452.1949503200521
  0
LWPOLYLINE
  5
2CF
330
1F
100
AcDbEntity
  8
0
 62
     7
370
    35
100
AcDbPolyline
 90
       28
 70
     0
 43
0.0
 10
156.3895003874414
 20
35.46553432005216
 10
156.7107283874414
 20
35.47945032005216
 10
157.0309793874414
 20
35.51340132005216
 10
157.3494003874414
 20
35.56735632005216
 10
157.6655013874414
 20
35.64136132005216
 10
157.9773303874414
 20
35.73505032005216
 10
158.2853133874414
 20
35.84869832005216
 10
158.5868883874414
 20
35.98149532005216
 10
158.8831523874414
 20
36.13412932005216
 10
159.1706893874414
 20
36.30504232005216
 10
159.4512073874414
 20
36.49550332005216
 10
159.7208603874414
 20
36.70309832005216
 10
159.9818463874414
 20
36.92979832005216
 10
160.2297713874414
 20
37.17210832005216
 10
160.4672593874414
 20
37.43288132005216
 10
160.6896103874414
 20
37.70729532005216
 10
160.8996933874414
 20
37.99922632005216
 10
161.0928083874414
 20
38.30252532005216
 10
161.2718243874414
 20
38.62192232005217
 10
161.4322863874414
 20
38.95009332005216
 10
161.5768173874414
 20
39.29259132005216
 10
161.7017563874414
 20
39.64108732005216
 10
161.8091783874414
 20
40.00177432005216
 10
161.8962143874414
 20
40.36549832005216
 10
161.9643293874414
 20
40.73877432005216
 10
162.0117533874414
 20
41.11206532005216
 10
162.0392803874414
 20
41.49194732005216
 10
162.0464823874414
 20
41.83159332005216
  0
LWPOLYLINE
  5
2D0
330
1F
100
AcDbEntity
  8
0
 62
     7
370
    35
100
AcDbPolyline
 90
       28
 70
     0
 43
0.0
 10
71.38950038744145
 20
35.46553432005216
 10
71.06836438744145
 20
35.47943532005216
 10
70.74817338744145
 20
35.51338632005216
 10
70.42975338744145
 20
35.56732632005216
 10
70.11365238744144
 20
35.64131632005216
 10
69.80182338744144
 20
35.73498932005216
 10
69.49380938744145
 20
35.84863732005216
 10
69.19223438744144
 20
35.98143432005216
 10
68.89603138744146
 20
36.13403732005216
 10
68.60849438744145
 20
36.30495132005216
 10
68.32794638744144
 20
36.49541132005216
 10
68.05826238744145
 20
36.70299232005216
 10
67.79727638744145
 20
36.92967632005216
 10
67.54935138744144
 20
37.17197132005216
 10
67.31186338744144
 20
37.43274332005216
 10
67.08948238744145
 20
37.70715732005216
 10
66.87939938744145
 20
37.99907332005216
 10
66.68625338744146
 20
38.30235732005216
 10
66.50729838744145
 20
38.62175432005216
 10
66.34677538744146
 20
38.94992532005216
 10
66.20221438744144
 20
39.29242332005216
 10
66.07727538744144
 20
39.64090432005216
 10
65.96988338744146
 20
40.00159132005215
 10
65.88284738744144
 20
40.36529932005215
 10
65.81470138744144
 20
40.73859032005215
 10
65.76724738744144
 20
41.11188132005216
 10
65.73968938744144
 20
41.49176432005215
 10
65.73251838744145
 20
41.83159332005216
  0
LWPOLYLINE
  5
2D1
330
1F
100
AcDbEntity
  8
0
 62
     7
370
    35
100
AcDbPolyline
 90
       38
 70
     0
 43
0.0
 10
158.4691513874414
 20
38.38814232005216
 10
158.2043803874414
 20
38.25630632005216
 10
157.9313093874414
 20
38.14273532005216
 10
157.6510973874414
 20
38.04788632005216
 10
157.3652083874414
 20
37.97223332005216
 10
157.0745593874415
 20
37.91603532005216
 10
156.7808573874414
 20
37.87961232005216
 10
156.4852033874414
 20
37.86313332005216
 10
156.1891223874414
 20
37.86667332005216
 10
155.8938953874414
 20
37.89023232005217
 10
155.6009263874415
 20
37.93370532005216
 10
155.3116803874415
 20
37.99689132005216
 10
155.0273173874414
 20
38.07950232005216
 10
154.7494243874414
 20
38.18112632005216
 10
154.4789783874414
 20
38.30136532005216
 10
154.2175033874414
 20
38.43953332005217
 10
153.9659773874414
 20
38.59515832005217
 10
153.7258043874414
 20
38.76730732005216
 10
153.4977763874414
 20
38.95541832005216
 10
153.2832993874414
 20
39.15836032005216
 10
153.0829813874414
 20
39.37547732005216
 10
152.8980453874414
 20
39.60547332005216
 10
152.7291613874414
 20
39.84755332005216
 10
152.5771833874414
 20
40.10039232005215
 10
152.4427233874414
 20
40.36302632005216
 10
152.3263903874414
 20
40.63406832005216
 10
152.2287943874414
 20
40.91246432005216
 10
152.1503643874414
 20
41.19673632005215
 10
152.0913433874414
 20
41.48576832005216
 10
152.0521593874414
 20
41.77805032005216
 10
152.0329333874414
 20
42.07242232005215
 10
152.0337263874414
 20
42.36732932005216
 10
152.0546003874414
 20
42.66162532005216
 10
152.0953723874414
 20
42.95375532005215
 10
152.1559183874414
 20
43.24252732005215
 10
152.2359363874414
 20
43.52647832005216
 10
152.3349963874414
 20
43.80438632005215
 10
152.4885603874414
 20
44.14828932005216
  0
LWPOLYLINE
  5
2D2
330
1F
100
AcDbEntity
  8
0
 62
   253
370
    13
100
AcDbPolyline
 90
       10
 70
     0
 43
0.0
 10
135.0863383874414
 20
329.8819933200522
 10
134.2994123874414
 20
329.7200363200521
 10
133.5069933874414
 20
329.5782823200521
 10
132.7397813874414
 20
329.4618573200521
 10
131.9640243874414
 20
329.3652693200521
 10
131.2094463874414
 20
329.2919353200522
 10
130.4482773874414
 20
329.2386823200522
 10
129.7014513874414
 20
329.2067913200522
 10
128.9525493874414
 20
329.1950113200521
 10
128.8895003874414
 20
329.1949503200521
  0
LWPOLYLINE
  5
2D3
330
1F
100
AcDbEntity
  8
0
 62
   253
370
    13
100
AcDbPolyline
 90
        7
 70
     0
 43
0.0
 10
98.88950038744145
 20
329.1949503200521
 10
98.14267438744145
 20
329.2049603200521
 10
97.39767938744146
 20
329.2350203200522
 10
95.91940738744145
 20
329.3539163200521
 10
94.43469738744145
 20
329.5518843200522
 10
92.92477838744146
 20
329.8320663200521
 10
92.69260138744144
 20
329.8820233200522
  0
LWPOLYLINE
  5
2D4
330
1F
100
AcDbEntity
  8
0
 62
   253
370
    35
100
AcDbPolyline
 90
       20
 70
     0
 43
0.0
 10
133.0165753874414
 20
325.6949503200522
 10
134.1903423874414
 20
326.0075113200521
 10
135.3432963874414
 20
326.3969163200521
 10
136.4689683874414
 20
326.8612713200522
 10
137.0198103874414
 20
327.1209453200522
 10
137.5622913874414
 20
327.3988383200522
 10
138.0953723874414
 20
327.6944013200522
 10
138.6186873874414
 20
328.0076033200521
 10
139.1280863874414
 20
328.3358193200521
 10
139.6248523874414
 20
328.6796923200522
 10
140.1061753874414
 20
329.0372353200521
 10
140.5721173874414
 20
329.4083293200522
 10
141.0159043874414
 20
329.7873883200522
 10
141.4395493874414
 20
330.1761513200522
 10
141.8219343874414
 20
330.5543253200522
 10
142.1681873874414
 20
330.9262133200522
 10
142.4346053874414
 20
331.2407573200521
 10
142.6331523874414
 20
331.5037273200521
 10
142.8353623874414
 20
331.8403973200521
 10
142.8943833874414
 20
332.0071453200521
  0
LWPOLYLINE
  5
2D5
330
1F
100
AcDbEntity
  8
0
 62
   253
370
    35
100
AcDbPolyline
 90
       20
 70
     0
 43
0.0
 10
94.76242538744145
 20
325.6949503200522
 10
93.58868838744145
 20
326.0075113200521
 10
92.43576538744145
 20
326.3969163200521
 10
91.30997138744145
 20
326.8613023200521
 10
90.75919038744144
 20
327.1209453200522
 10
90.21680138744144
 20
327.3987773200522
 10
89.68375038744145
 20
327.6943403200521
 10
89.16055738744146
 20
328.0074503200522
 10
88.65112738744144
 20
328.3356673200521
 10
88.15436238744146
 20
328.6795693200521
 10
87.67310038744145
 20
329.0369913200521
 10
87.20734138744145
 20
329.4079323200522
 10
86.76346238744145
 20
329.7870833200521
 10
86.33972638744145
 20
330.1759073200522
 10
85.95724938744146
 20
330.5541733200522
 10
85.61102738744144
 20
330.9259683200521
 10
85.34433438744144
 20
331.2408493200521
 10
85.14566538744146
 20
331.5040323200522
 10
84.94336438744145
 20
331.8409463200521
 10
84.88461738744145
 20
332.0071453200521
  0
LWPOLYLINE
  5
2D6
330
1F
100
AcDbEntity
  8
0
 62
   253
370
    35
100
AcDbPolyline
 90
        9
 70
     0
 43
0.0
 10
135.0688823874414
 20
329.8861123200521
 10
136.5580793874414
 20
330.2605633200522
 10
137.2960553874414
 20
330.4769943200522
 10
138.0277453874414
 20
330.7138103200522
 10
138.6811873874414
 20
330.9476663200521
 10
139.3248033874414
 20
331.2073103200522
 10
139.7460673874414
 20
331.4033853200522
 10
140.1506693874414
 20
331.6315963200521
 10
140.3162583874414
 20
331.7506753200522
  0
LWPOLYLINE
  5
2D7
330
1F
100
AcDbEntity
  8
0
 62
   253
370
    35
100
AcDbPolyline
 90
        7
 70
     0
 43
0.0
 10
87.46274238744145
 20
331.7506753200522
 10
87.73740038744145
 20
331.5639383200522
 10
88.21704538744146
 20
331.3141823200522
 10
88.96497038744143
 20
330.9984173200521
 10
90.05041938744145
 20
330.6141093200522
 10
91.43390338744145
 20
330.2019693200522
 10
92.71014838744145
 20
329.8861123200521
  0
INSERT
  5
2D8
330
1F
100
AcDbEntity
  8
0
 62
    56
100
AcDbBlockReference
  2
IEC_309_oriz
 10
19.80539179744145
 20
214.2117199700522
 30
0.0
 41
0.9998528799999988
  0
INSERT
  5
2D9
330
1F
100
AcDbEntity
  8
0
 62
    56
100
AcDbBlockReference
  2
IEC_309_oriz
 10
19.80539179744145
 20
121.2117199700521
 30
0.0
 41
0.9998528799999988
  0
INSERT
  5
2DA
330
1F
100
AcDbEntity
  8
0
 62
    56
100
AcDbBlockReference
  2
IEC_309_oriz
 10
19.80539179744145
 20
28.21171997005216
 30
0.0
 41
0.9998528799999988
  0
ENDSEC
  0
SECTION
  2
OBJECTS
  0
DICTIONARY
  5
C
330
0
100
AcDbDictionary
281
     1
  3
ACAD_COLOR
350
73
  3
ACAD_GROUP
350
D
  3
ACAD_LAYOUT
350
1A
  3
ACAD_MATERIAL
350
72
  3
ACAD_MLEADERSTYLE
350
D7
  3
ACAD_MLINESTYLE
350
17
  3
ACAD_PLOTSETTINGS
350
19
  3
ACAD_PLOTSTYLENAME
350
E
  3
ACAD_SCALELIST
350
B6
  3
ACAD_TABLESTYLE
350
86
  3
ACAD_VISUALSTYLE
350
99
  3
ACDB_RECOMPOSE_DATA
350
FF
  3
AcDbVariableDictionary
350
66
  3
DWGPROPS
350
317
  0
DICTIONARY
  5
E6
330
10
100
AcDbDictionary
280
     1
281
     1
  3
ADSK_XREC_LAYER_RECONCILED
360
30D
  0
DICTIONARY
  5
30E
330
174
100
AcDbDictionary
280
     1
281
     1
  3
ADSK_XREC_LAYER_RECONCILED
360
30F
  0
DICTIONARY
  5
310
330
175
100
AcDbDictionary
280
     1
281
     1
  3
ADSK_XREC_LAYER_RECONCILED
360
311
  0
DICTIONARY
  5
73
102
{ACAD_REACTORS
330
C
102
}
330
C
100
AcDbDictionary
281
     1
  0
DICTIONARY
  5
D
102
{ACAD_REACTORS
330
C
102
}
330
C
100
AcDbDictionary
281
     1
  0
DICTIONARY
  5
1A
102
{ACAD_REACTORS
330
C
102
}
330
C
100
AcDbDictionary
281
     1
  3
Layout1
350
59
  3
Layout2
350
5E
  3
Model
350
22
  0
DICTIONARY
  5
72
102
{ACAD_REACTORS
330
C
102
}
330
C
100
AcDbDictionary
281
     1
  3
ByBlock
350
97
  3
ByLayer
350
96
  3
Global
350
98
  0
DICTIONARY
  5
D7
102
{ACAD_REACTORS
330
C
102
}
330
C
100
AcDbDictionary
281
     1
  3
Annotativa
350
E5
  3
Standard
350
D8
  0
DICTIONARY
  5
17
102
{ACAD_REACTORS
330
C
102
}
330
C
100
AcDbDictionary
281
     1
  3
Standard
350
18
  0
DICTIONARY
  5
19
102
{ACAD_REACTORS
330
C
102
}
330
C
100
AcDbDictionary
281
     1
  0
ACDBDICTIONARYWDFLT
  5
E
102
{ACAD_REACTORS
330
C
102
}
330
C
100
AcDbDictionary
281
     1
  3
Normal
350
F
100
AcDbDictionaryWithDefault
340
F
  0
DICTIONARY
  5
B6
102
{ACAD_REACTORS
330
C
102
}
330
C
100
AcDbDictionary
281
     1
  3
A0
350
B7
  3
A1
350
124
  3
A2
350
125
  3
A3
350
126
  3
A4
350
127
  3
A5
350
128
  3
A6
350
129
  3
A7
350
12A
  3
A8
350
12B
  3
A9
350
12C
  3
B0
350
12D
  3
B1
350
12E
  3
B2
350
12F
  3
B3
350
130
  3
B4
350
131
  3
B5
350
132
  3
B6
350
133
  3
B7
350
134
  3
B8
350
135
  3
B9
350
136
  3
C0
350
137
  3
C1
350
138
  3
C2
350
139
  3
C3
350
13A
  3
C4
350
13B
  3
C5
350
13C
  3
C6
350
13D
  3
C7
350
13E
  3
C8
350
13F
  3
C9
350
140
  3
D0
350
141
  3
D1
350
142
  3
D2
350
143
  0
DICTIONARY
  5
86
102
{ACAD_REACTORS
330
C
102
}
330
C
100
AcDbDictionary
281
     1
  3
Standard
350
87
  0
DICTIONARY
  5
99
102
{ACAD_REACTORS
330
C
102
}
330
C
100
AcDbDictionary
281
     1
  3
2dWireframe
350
9F
  3
3D Hidden
350
A1
  3
3dWireframe
350
A0
  3
Basic
350
9E
  3
Brighten
350
A5
  3
ColorChange
350
A9
  3
Conceptual
350
A2
  3
Dim
350
A4
  3
Facepattern
350
A8
  3
Flat
350
9A
  3
FlatWithEdges
350
9B
  3
Gouraud
350
9C
  3
GouraudWithEdges
350
9D
  3
Linepattern
350
A7
  3
Realistic
350
A3
  3
Thicken
350
A6
  0
XRECORD
  5
FF
102
{ACAD_REACTORS
330
C
102
}
330
C
100
AcDbXrecord
280
     1
 90
        1
330
87
  0
DICTIONARY
  5
66
102
{ACAD_REACTORS
330
C
102
}
330
C
100
AcDbDictionary
281
     1
  3
CANNOSCALE
350
F0
  3
CMLEADERSTYLE
350
EF
  3
CTABLESTYLE
350
89
  3
DIMASSOC
350
67
  3
HIDETEXT
350
6B
  3
INDEXCTL
350
315
  3
LIGHTINGUNITS
350
313
  3
MSLTSCALE
350
312
  3
SORTENTS
350
314
  0
XRECORD
  5
317
102
{ACAD_REACTORS
330
C
102
}
330
C
100
AcDbXrecord
280
     1
  1
DWGPROPS COOKIE
  2

  3

  4

  6

  7

  8
fontanaNZ
  9

300
=
301
=
302
=
303
=
304
=
305
=
306
=
307
=
308
=
309
=
 40
0.0001758680555556
 41
2455511.355428576
 42
2455511.355604271
  1

 90
        0
  0
XRECORD
  5
30D
102
{ACAD_REACTORS
330
E6
102
}
330
E6
100
AcDbXrecord
280
     1
290
     1
  0
XRECORD
  5
30F
102
{ACAD_REACTORS
330
30E
102
}
330
30E
100
AcDbXrecord
280
     1
290
     1
  0
XRECORD
  5
311
102
{ACAD_REACTORS
330
310
102
}
330
310
100
AcDbXrecord
280
     1
290
     1
  0
LAYOUT
  5
59
102
{ACAD_XDICTIONARY
360
31A
102
}
102
{ACAD_REACTORS
330
1A
102
}
330
1A
100
AcDbPlotSettings
  1

  2
None
  4

  6

 40
0.0
 41
0.0
 42
0.0
 43
0.0
 44
0.0
 45
0.0
 46
0.0
 47
0.0
 48
0.0
 49
0.0
140
0.0
141
0.0
142
1.0
143
1.0
 70
   688
 72
     0
 73
     0
 74
     5
  7

 75
    16
147
1.0
148
0.0
149
0.0
100
AcDbLayout
  1
Layout1
 70
     1
 71
     1
 10
0.0
 20
0.0
 11
12.0
 21
9.0
 12
0.0
 22
0.0
 32
0.0
 14
0.0
 24
0.0
 34
0.0
 15
0.0
 25
0.0
 35
0.0
146
0.0
 13
0.0
 23
0.0
 33
0.0
 16
1.0
 26
0.0
 36
0.0
 17
0.0
 27
1.0
 37
0.0
 76
     0
330
58
  0
LAYOUT
  5
5E
102
{ACAD_XDICTIONARY
360
31C
102
}
102
{ACAD_REACTORS
330
1A
102
}
330
1A
100
AcDbPlotSettings
  1

  2
None
  4

  6

 40
0.0
 41
0.0
 42
0.0
 43
0.0
 44
0.0
 45
0.0
 46
0.0
 47
0.0
 48
0.0
 49
0.0
140
0.0
141
0.0
142
1.0
143
1.0
 70
   688
 72
     0
 73
     0
 74
     5
  7

 75
    16
147
1.0
148
0.0
149
0.0
100
AcDbLayout
  1
Layout2
 70
     1
 71
     2
 10
0.0
 20
0.0
 11
12.0
 21
9.0
 12
0.0
 22
0.0
 32
0.0
 14
0.0
 24
0.0
 34
0.0
 15
0.0
 25
0.0
 35
0.0
146
0.0
 13
0.0
 23
0.0
 33
0.0
 16
1.0
 26
0.0
 36
0.0
 17
0.0
 27
1.0
 37
0.0
 76
     0
330
5D
  0
LAYOUT
  5
22
102
{ACAD_XDICTIONARY
360
318
102
}
102
{ACAD_REACTORS
330
1A
102
}
330
1A
100
AcDbPlotSettings
  1

  2
none_device
  4
ANSI_A_(8.50_x_11.00_Inches)
  6

 40
6.349999904632568
 41
19.04999923706055
 42
6.350006103515625
 43
19.04998779296875
 44
215.8999938964844
 45
279.3999938964844
 46
0.0
 47
0.0
 48
0.0
 49
0.0
140
0.0
141
0.0
142
1.0
143
2.584895464708373
 70
 11952
 72
     0
 73
     1
 74
     0
  7

 75
     0
147
0.3868628397755418
148
0.0
149
0.0
100
AcDbLayout
  1
Model
 70
     1
 71
     0
 10
0.0
 20
0.0
 11
12.0
 21
9.0
 12
0.0
 22
0.0
 32
0.0
 14
0.0
 24
0.0
 34
0.0
 15
0.0
 25
0.0
 35
0.0
146
0.0
 13
0.0
 23
0.0
 33
0.0
 16
1.0
 26
0.0
 36
0.0
 17
0.0
 27
1.0
 37
0.0
 76
     0
330
1F
331
94
  0
MATERIAL
  5
97
102
{ACAD_XDICTIONARY
360
321
102
}
102
{ACAD_REACTORS
330
72
102
}
330
72
100
AcDbMaterial
  1
ByBlock
  0
MATERIAL
  5
96
102
{ACAD_XDICTIONARY
360
31F
102
}
102
{ACAD_REACTORS
330
72
102
}
330
72
100
AcDbMaterial
  1
ByLayer
  0
MATERIAL
  5
98
102
{ACAD_XDICTIONARY
360
110
102
}
102
{ACAD_REACTORS
330
72
102
}
330
72
100
AcDbMaterial
  1
Global
 43
0.0208000000566244
 43
0.0
 43
0.0
 43
0.0
 43
0.0
 43
0.0208000000566244
 43
0.0
 43
0.0
 43
0.0
 43
0.0
 43
1.0
 43
0.0
 43
0.0
 43
0.0
 43
0.0
 43
1.0
 49
0.0208000000566244
 49
0.0
 49
0.0
 49
0.0
 49
0.0
 49
0.0208000000566244
 49
0.0
 49
0.0
 49
0.0
 49
0.0
 49
1.0
 49
0.0
 49
0.0
 49
0.0
 49
0.0
 49
1.0
142
0.0208000000566244
142
0.0
142
0.0
142
0.0
142
0.0
142
0.0208000000566244
142
0.0
142
0.0
142
0.0
142
0.0
142
1.0
142
0.0
142
0.0
142
0.0
142
0.0
142
1.0
144
0.0208000000566244
144
0.0
144
0.0
144
0.0
144
0.0
144
0.0208000000566244
144
0.0
144
0.0
144
0.0
144
0.0
144
1.0
144
0.0
144
0.0
144
0.0
144
0.0
144
1.0
1001
ACAD
1070
    -1
1070
     3
1070
     0
1000

1071
        0
1070
     0
  0
MLEADERSTYLE
  5
E5
102
{ACAD_REACTORS
330
D7
102
}
330
D7
100
AcDbMLeaderStyle
170
     2
171
     1
172
     0
 90
        2
 40
0.0
 41
0.0
173
     1
 91
-1056964608
340
14
 92
       -2
290
     1
 42
0.09
291
     1
 43
0.36
  3
Standard
 44
0.18
300

342
11
174
     1
178
     1
175
     1
176
     0
 93
-1056964608
 45
0.18
292
     0
297
     0
 46
0.18
 94
-1056964608
 47
1.0
 49
1.0
140
1.0
293
     1
141
0.0
294
     1
177
     0
142
1.0
295
     0
296
     1
143
0.125
1001
ACAD_MLEADERVER
1070
     2
  0
MLEADERSTYLE
  5
D8
102
{ACAD_REACTORS
330
D7
102
}
330
D7
100
AcDbMLeaderStyle
170
     2
171
     1
172
     0
 90
        2
 40
0.0
 41
0.0
173
     1
 91
-1056964608
340
14
 92
       -2
290
     1
 42
0.09
291
     1
 43
0.36
  3
Standard
 44
0.18
300

342
11
174
     1
178
     1
175
     1
176
     0
 93
-1056964608
 45
0.18
292
     0
297
     0
 46
0.18
 94
-1056964608
 47
1.0
 49
1.0
140
1.0
293
     1
141
0.0
294
     1
177
     0
142
1.0
295
     0
296
     0
143
0.125
1001
ACAD_MLEADERVER
1070
     2
  0
MLINESTYLE
  5
18
102
{ACAD_REACTORS
330
17
102
}
330
17
100
AcDbMlineStyle
  2
STANDARD
 70
     0
  3

 62
   256
 51
90.0
 52
90.0
 71
     2
 49
0.5
 62
   256
  6
BYLAYER
 49
-0.5
 62
   256
  6
BYLAYER
  0
ACDBPLACEHOLDER
  5
F
102
{ACAD_REACTORS
330
E
102
}
330
E
  0
SCALE
  5
B7
102
{ACAD_REACTORS
330
B6
102
}
330
B6
100
AcDbScale
 70
     0
300
1:1
140
1.0
141
1.0
290
     1
  0
SCALE
  5
124
102
{ACAD_REACTORS
330
B6
102
}
330
B6
100
AcDbScale
 70
     0
300
1:2
140
1.0
141
2.0
290
     0
  0
SCALE
  5
125
102
{ACAD_REACTORS
330
B6
102
}
330
B6
100
AcDbScale
 70
     0
300
1:4
140
1.0
141
4.0
290
     0
  0
SCALE
  5
126
102
{ACAD_REACTORS
330
B6
102
}
330
B6
100
AcDbScale
 70
     0
300
1:5
140
1.0
141
5.0
290
     0
  0
SCALE
  5
127
102
{ACAD_REACTORS
330
B6
102
}
330
B6
100
AcDbScale
 70
     0
300
1:8
140
1.0
141
8.0
290
     0
  0
SCALE
  5
128
102
{ACAD_REACTORS
330
B6
102
}
330
B6
100
AcDbScale
 70
     0
300
1:10
140
1.0
141
10.0
290
     0
  0
SCALE
  5
129
102
{ACAD_REACTORS
330
B6
102
}
330
B6
100
AcDbScale
 70
     0
300
1:16
140
1.0
141
16.0
290
     0
  0
SCALE
  5
12A
102
{ACAD_REACTORS
330
B6
102
}
330
B6
100
AcDbScale
 70
     0
300
1:20
140
1.0
141
20.0
290
     0
  0
SCALE
  5
12B
102
{ACAD_REACTORS
330
B6
102
}
330
B6
100
AcDbScale
 70
     0
300
1:30
140
1.0
141
30.0
290
     0
  0
SCALE
  5
12C
102
{ACAD_REACTORS
330
B6
102
}
330
B6
100
AcDbScale
 70
     0
300
1:40
140
1.0
141
40.0
290
     0
  0
SCALE
  5
12D
102
{ACAD_REACTORS
330
B6
102
}
330
B6
100
AcDbScale
 70
     0
300
1:50
140
1.0
141
50.0
290
     0
  0
SCALE
  5
12E
102
{ACAD_REACTORS
330
B6
102
}
330
B6
100
AcDbScale
 70
     0
300
1:100
140
1.0
141
100.0
290
     0
  0
SCALE
  5
12F
102
{ACAD_REACTORS
330
B6
102
}
330
B6
100
AcDbScale
 70
     0
300
2:1
140
2.0
141
1.0
290
     0
  0
SCALE
  5
130
102
{ACAD_REACTORS
330
B6
102
}
330
B6
100
AcDbScale
 70
     0
300
4:1
140
4.0
141
1.0
290
     0
  0
SCALE
  5
131
102
{ACAD_REACTORS
330
B6
102
}
330
B6
100
AcDbScale
 70
     0
300
8:1
140
8.0
141
1.0
290
     0
  0
SCALE
  5
132
102
{ACAD_REACTORS
330
B6
102
}
330
B6
100
AcDbScale
 70
     0
300
10:1
140
10.0
141
1.0
290
     0
  0
SCALE
  5
133
102
{ACAD_REACTORS
330
B6
102
}
330
B6
100
AcDbScale
 70
     0
300
100:1
140
100.0
141
1.0
290
     0
  0
SCALE
  5
134
102
{ACAD_REACTORS
330
B6
102
}
330
B6
100
AcDbScale
 70
     0
300
1/128" = 1'-0"
140
0.0078125
141
12.0
290
     0
  0
SCALE
  5
135
102
{ACAD_REACTORS
330
B6
102
}
330
B6
100
AcDbScale
 70
     0
300
1/64" = 1'-0"
140
0.015625
141
12.0
290
     0
  0
SCALE
  5
136
102
{ACAD_REACTORS
330
B6
102
}
330
B6
100
AcDbScale
 70
     0
300
1/32" = 1'-0"
140
0.03125
141
12.0
290
     0
  0
SCALE
  5
137
102
{ACAD_REACTORS
330
B6
102
}
330
B6
100
AcDbScale
 70
     0
300
1/16" = 1'-0"
140
0.0625
141
12.0
290
     0
  0
SCALE
  5
138
102
{ACAD_REACTORS
330
B6
102
}
330
B6
100
AcDbScale
 70
     0
300
3/32" = 1'-0"
140
0.09375
141
12.0
290
     0
  0
SCALE
  5
139
102
{ACAD_REACTORS
330
B6
102
}
330
B6
100
AcDbScale
 70
     0
300
1/8" = 1'-0"
140
0.125
141
12.0
290
     0
  0
SCALE
  5
13A
102
{ACAD_REACTORS
330
B6
102
}
330
B6
100
AcDbScale
 70
     0
300
3/16" = 1'-0"
140
0.1875
141
12.0
290
     0
  0
SCALE
  5
13B
102
{ACAD_REACTORS
330
B6
102
}
330
B6
100
AcDbScale
 70
     0
300
1/4" = 1'-0"
140
0.25
141
12.0
290
     0
  0
SCALE
  5
13C
102
{ACAD_REACTORS
330
B6
102
}
330
B6
100
AcDbScale
 70
     0
300
3/8" = 1'-0"
140
0.375
141
12.0
290
     0
  0
SCALE
  5
13D
102
{ACAD_REACTORS
330
B6
102
}
330
B6
100
AcDbScale
 70
     0
300
1/2" = 1'-0"
140
0.5
141
12.0
290
     0
  0
SCALE
  5
13E
102
{ACAD_REACTORS
330
B6
102
}
330
B6
100
AcDbScale
 70
     0
300
3/4" = 1'-0"
140
0.75
141
12.0
290
     0
  0
SCALE
  5
13F
102
{ACAD_REACTORS
330
B6
102
}
330
B6
100
AcDbScale
 70
     0
300
1" = 1'-0"
140
1.0
141
12.0
290
     0
  0
SCALE
  5
140
102
{ACAD_REACTORS
330
B6
102
}
330
B6
100
AcDbScale
 70
     0
300
1-1/2" = 1'-0"
140
1.5
141
12.0
290
     0
  0
SCALE
  5
141
102
{ACAD_REACTORS
330
B6
102
}
330
B6
100
AcDbScale
 70
     0
300
3" = 1'-0"
140
3.0
141
12.0
290
     0
  0
SCALE
  5
142
102
{ACAD_REACTORS
330
B6
102
}
330
B6
100
AcDbScale
 70
     0
300
6" = 1'-0"
140
6.0
141
12.0
290
     0
  0
SCALE
  5
143
102
{ACAD_REACTORS
330
B6
102
}
330
B6
100
AcDbScale
 70
     0
300
1'-0" = 1'-0"
140
12.0
141
12.0
290
     0
  0
TABLESTYLE
  5
87
102
{ACAD_XDICTIONARY
360
104
102
}
102
{ACAD_REACTORS
330
86
102
}
330
86
100
AcDbTableStyle
  3
Standard
 70
     0
 71
     0
 40
0.06
 41
0.06
280
     0
281
     0
  7
Standard
140
0.18
170
     2
 62
     0
 63
     7
283
     0
274
    -2
284
     1
 64
     0
275
    -2
285
     1
 65
     0
276
    -2
286
     1
 66
     0
277
    -2
287
     1
 67
     0
278
    -2
288
     1
 68
     0
279
    -2
289
     1
 69
     0
  7
Standard
140
0.25
170
     5
 62
     0
 63
     7
283
     0
274
    -2
284
     1
 64
     0
275
    -2
285
     1
 65
     0
276
    -2
286
     1
 66
     0
277
    -2
287
     1
 67
     0
278
    -2
288
     1
 68
     0
279
    -2
289
     1
 69
     0
  7
Standard
140
0.18
170
     5
 62
     0
 63
     7
283
     0
274
    -2
284
     1
 64
     0
275
    -2
285
     1
 65
     0
276
    -2
286
     1
 66
     0
277
    -2
287
     1
 67
     0
278
    -2
288
     1
 68
     0
279
    -2
289
     1
 69
     0
  0
VISUALSTYLE
  5
9F
102
{ACAD_REACTORS
330
99
102
}
330
99
100
AcDbVisualStyle
  2
2dWireframe
 70
     4
 71
     0
 72
     2
 73
     1
 90
        0
 40
-0.6
 41
-30.0
 62
     5
 63
     7
 74
     1
 91
        4
 64
     7
 65
   257
 75
     1
175
     1
 42
1.0
 92
        0
 66
   257
 43
1.0
 76
     1
 77
     6
 78
     2
 67
     7
 79
     5
170
     0
171
     0
290
     0
174
     0
 93
        1
 44
0.0
173
     0
291
     0
 45
0.0
1001
ACAD
1000
AcDbSavedByObjectVersion
1070
     0
  0
VISUALSTYLE
  5
A1
102
{ACAD_REACTORS
330
99
102
}
330
99
100
AcDbVisualStyle
  2
3D Hidden
 70
     6
 71
     1
 72
     2
 73
     2
 90
        0
 40
-0.6
 41
-30.0
 62
     5
 63
     7
 74
     2
 91
        2
 64
     7
 65
   257
 75
     2
175
     1
 42
40.0
 92
        0
 66
   257
 43
1.0
 76
     1
 77
     6
 78
     2
 67
     7
 79
     3
170
     0
171
     0
290
     0
174
     0
 93
        1
 44
0.0
173
     0
291
     0
 45
0.0
1001
ACAD
1000
AcDbSavedByObjectVersion
1070
     0
  0
VISUALSTYLE
  5
A0
102
{ACAD_REACTORS
330
99
102
}
330
99
100
AcDbVisualStyle
  2
3dWireframe
 70
     5
 71
     0
 72
     2
 73
     1
 90
        0
 40
-0.6
 41
-30.0
 62
     5
 63
     7
 74
     1
 91
        4
 64
     7
 65
   257
 75
     1
175
     1
 42
1.0
 92
        0
 66
   257
 43
1.0
 76
     1
 77
     6
 78
     2
 67
     7
 79
     5
170
     0
171
     0
290
     0
174
     0
 93
        1
 44
0.0
173
     0
291
     0
 45
0.0
1001
ACAD
1000
AcDbSavedByObjectVersion
1070
     0
  0
VISUALSTYLE
  5
9E
102
{ACAD_REACTORS
330
99
102
}
330
99
100
AcDbVisualStyle
  2
Basic
 70
     7
 71
     1
 72
     0
 73
     1
 90
        0
 40
-0.6
 41
-30.0
 62
     5
 63
     7
 74
     0
 91
        4
 64
     7
 65
   257
 75
     1
175
     1
 42
1.0
 92
        8
 66
     7
 43
1.0
 76
     1
 77
     6
 78
     2
 67
     7
 79
     5
170
     0
171
     0
290
     0
174
     0
 93
        1
 44
0.0
173
     0
291
     1
 45
0.0
1001
ACAD
1000
AcDbSavedByObjectVersion
1070
     0
  0
VISUALSTYLE
  5
A5
102
{ACAD_REACTORS
330
99
102
}
330
99
100
AcDbVisualStyle
  2
Brighten
 70
    12
 71
     2
 72
     2
 73
     1
 90
        0
 40
-0.6
 41
-30.0
 62
     5
 63
     7
 74
     1
 91
        4
 64
     7
 65
   257
 75
     1
175
     1
 42
1.0
 92
        8
 66
     7
 43
1.0
 76
     1
 77
     6
 78
     2
 67
     7
 79
     5
170
     0
171
     0
290
     0
174
     0
 93
        1
 44
50.0
173
     0
291
     1
 45
0.0
1001
ACAD
1000
AcDbSavedByObjectVersion
1070
     0
  0
VISUALSTYLE
  5
A9
102
{ACAD_REACTORS
330
99
102
}
330
99
100
AcDbVisualStyle
  2
ColorChange
 70
    16
 71
     2
 72
     2
 73
     3
 90
        0
 40
-0.6
 41
-30.0
 62
     5
 63
     8
 74
     1
 91
        4
 64
     7
 65
   257
 75
     1
175
     1
 42
1.0
 92
        8
 66
     8
 43
1.0
 76
     1
 77
     6
 78
     2
 67
     7
 79
     5
170
     0
171
     0
290
     0
174
     0
 93
        1
 44
0.0
173
     0
291
     1
 45
0.0
1001
ACAD
1000
AcDbSavedByObjectVersion
1070
     0
  0
VISUALSTYLE
  5
A2
102
{ACAD_REACTORS
330
99
102
}
330
99
100
AcDbVisualStyle
  2
Conceptual
 70
     9
 71
     3
 72
     2
 73
     1
 90
        0
 40
-0.6
 41
-30.0
 62
     5
 63
     7
 74
     2
 91
        2
 64
     7
 65
   257
 75
     1
175
     1
 42
40.0
 92
        8
 66
     7
 43
1.0
 76
     1
 77
     6
 78
     2
 67
     7
 79
     3
170
     0
171
     0
290
     0
174
     0
 93
        1
 44
0.0
173
     0
291
     0
 45
0.0
1001
ACAD
1000
AcDbSavedByObjectVersion
1070
     0
  0
VISUALSTYLE
  5
A4
102
{ACAD_REACTORS
330
99
102
}
330
99
100
AcDbVisualStyle
  2
Dim
 70
    11
 71
     2
 72
     2
 73
     1
 90
        0
 40
-0.6
 41
-30.0
 62
     5
 63
     7
 74
     1
 91
        4
 64
     7
 65
   257
 75
     1
175
     1
 42
1.0
 92
        8
 66
     7
 43
1.0
 76
     1
 77
     6
 78
     2
 67
     7
 79
     5
170
     0
171
     0
290
     0
174
     0
 93
        1
 44
-50.0
173
     0
291
     1
 45
0.0
1001
ACAD
1000
AcDbSavedByObjectVersion
1070
     0
  0
VISUALSTYLE
  5
A8
102
{ACAD_REACTORS
330
99
102
}
330
99
100
AcDbVisualStyle
  2
Facepattern
 70
    15
 71
     2
 72
     2
 73
     1
 90
        0
 40
-0.6
 41
-30.0
 62
     5
 63
     7
 74
     1
 91
        4
 64
     7
 65
   257
 75
     1
175
     1
 42
1.0
 92
        8
 66
     7
 43
1.0
 76
     1
 77
     6
 78
     2
 67
     7
 79
     5
170
     0
171
     0
290
     0
174
     0
 93
        1
 44
0.0
173
     0
291
     1
 45
0.0
1001
ACAD
1000
AcDbSavedByObjectVersion
1070
     0
  0
VISUALSTYLE
  5
9A
102
{ACAD_REACTORS
330
99
102
}
330
99
100
AcDbVisualStyle
  2
Flat
 70
     0
 71
     2
 72
     1
 73
     1
 90
        2
 40
-0.6
 41
30.0
 62
     5
 63
     7
 74
     0
 91
        4
 64
     7
 65
   257
 75
     1
175
     1
 42
1.0
 92
        8
 66
     7
 43
1.0
 76
     1
 77
     6
 78
     2
 67
     7
 79
     5
170
     0
171
     0
290
     0
174
     0
 93
        1
 44
0.0
173
     0
291
     1
 45
0.0
1001
ACAD
1000
AcDbSavedByObjectVersion
1070
     0
  0
VISUALSTYLE
  5
9B
102
{ACAD_REACTORS
330
99
102
}
330
99
100
AcDbVisualStyle
  2
FlatWithEdges
 70
     1
 71
     2
 72
     1
 73
     1
 90
        2
 40
-0.6
 41
30.0
 62
     5
 63
     7
 74
     1
 91
        4
 64
     7
 65
   257
 75
     1
175
     1
 42
1.0
 92
        0
 66
   257
 43
1.0
 76
     1
 77
     6
 78
     2
 67
     7
 79
     5
170
     0
171
     0
290
     0
174
     0
 93
        1
 44
0.0
173
     0
291
     1
 45
0.0
1001
ACAD
1000
AcDbSavedByObjectVersion
1070
     0
  0
VISUALSTYLE
  5
9C
102
{ACAD_REACTORS
330
99
102
}
330
99
100
AcDbVisualStyle
  2
Gouraud
 70
     2
 71
     2
 72
     2
 73
     1
 90
        2
 40
-0.6
 41
30.0
 62
     5
 63
     7
 74
     0
 91
        4
 64
     7
 65
   257
 75
     1
175
     1
 42
1.0
 92
        0
 66
     7
 43
1.0
 76
     1
 77
     6
 78
     2
 67
     7
 79
     5
170
     0
171
     0
290
     0
174
     0
 93
        1
 44
0.0
173
     0
291
     1
 45
0.0
1001
ACAD
1000
AcDbSavedByObjectVersion
1070
     0
  0
VISUALSTYLE
  5
9D
102
{ACAD_REACTORS
330
99
102
}
330
99
100
AcDbVisualStyle
  2
GouraudWithEdges
 70
     3
 71
     2
 72
     2
 73
     1
 90
        2
 40
-0.6
 41
30.0
 62
     5
 63
     7
 74
     1
 91
        4
 64
     7
 65
   257
 75
     1
175
     1
 42
1.0
 92
        0
 66
   257
 43
1.0
 76
     1
 77
     6
 78
     2
 67
     7
 79
     5
170
     0
171
     0
290
     0
174
     0
 93
        1
 44
0.0
173
     0
291
     1
 45
0.0
1001
ACAD
1000
AcDbSavedByObjectVersion
1070
     0
  0
VISUALSTYLE
  5
A7
102
{ACAD_REACTORS
330
99
102
}
330
99
100
AcDbVisualStyle
  2
Linepattern
 70
    14
 71
     2
 72
     2
 73
     1
 90
        0
 40
-0.6
 41
-30.0
 62
     5
 63
     7
 74
     1
 91
        4
 64
     7
 65
   257
 75
     7
175
     7
 42
1.0
 92
        8
 66
     7
 43
1.0
 76
     1
 77
     6
 78
     2
 67
     7
 79
     5
170
     0
171
     0
290
     0
174
     0
 93
        1
 44
0.0
173
     0
291
     1
 45
0.0
1001
ACAD
1000
AcDbSavedByObjectVersion
1070
     0
  0
VISUALSTYLE
  5
A3
102
{ACAD_REACTORS
330
99
102
}
330
99
100
AcDbVisualStyle
  2
Realistic
 70
     8
 71
     2
 72
     2
 73
     1
 90
        0
 40
-0.6
 41
-30.0
 62
     5
 63
     7
 74
     1
 91
        0
 64
     7
 65
   257
 75
     1
175
     1
 42
1.0
 92
        8
 66
     8
 43
1.0
 76
     1
 77
     6
 78
     2
 67
     7
 79
     5
170
     0
171
     0
290
     0
174
     0
 93
       13
 44
0.0
173
     0
291
     0
 45
0.0
1001
ACAD
1000
AcDbSavedByObjectVersion
1070
     0
  0
VISUALSTYLE
  5
A6
102
{ACAD_REACTORS
330
99
102
}
330
99
100
AcDbVisualStyle
  2
Thicken
 70
    13
 71
     2
 72
     2
 73
     1
 90
        0
 40
-0.6
 41
-30.0
 62
     5
 63
     7
 74
     1
 91
        4
 64
     7
 65
   257
 75
     1
175
     1
 42
1.0
 92
       12
 66
     7
 43
1.0
 76
     1
 77
     6
 78
     2
 67
     7
 79
     5
170
     0
171
     0
290
     0
174
     0
 93
        1
 44
0.0
173
     0
291
     1
 45
0.0
1001
ACAD
1000
AcDbSavedByObjectVersion
1070
     0
  0
DICTIONARYVAR
  5
F0
102
{ACAD_REACTORS
330
66
102
}
330
66
100
DictionaryVariables
280
     0
  1
1:1
  0
DICTIONARYVAR
  5
EF
102
{ACAD_REACTORS
330
66
102
}
330
66
100
DictionaryVariables
280
     0
  1
STANDARD
  0
DICTIONARYVAR
  5
89
102
{ACAD_REACTORS
330
66
102
}
330
66
100
DictionaryVariables
280
     0
  1
STANDARD
  0
DICTIONARYVAR
  5
67
102
{ACAD_REACTORS
330
66
102
}
330
66
100
DictionaryVariables
280
     0
  1
2
  0
DICTIONARYVAR
  5
6B
102
{ACAD_REACTORS
330
66
102
}
330
66
100
DictionaryVariables
280
     0
  1
1
  0
DICTIONARYVAR
  5
315
102
{ACAD_REACTORS
330
66
102
}
330
66
100
DictionaryVariables
280
     0
  1
0
  0
DICTIONARYVAR
  5
313
102
{ACAD_REACTORS
330
66
102
}
330
66
100
DictionaryVariables
280
     0
  1
2
  0
DICTIONARYVAR
  5
312
102
{ACAD_REACTORS
330
66
102
}
330
66
100
DictionaryVariables
280
     0
  1
1
  0
DICTIONARYVAR
  5
314
102
{ACAD_REACTORS
330
66
102
}
330
66
100
DictionaryVariables
280
     0
  1
127
  0
DICTIONARY
  5
31A
330
59
100
AcDbDictionary
280
     1
281
     1
  3
ACAD_XREC_ROUNDTRIP
360
31B
  0
DICTIONARY
  5
31C
330
5E
100
AcDbDictionary
280
     1
281
     1
  3
ACAD_XREC_ROUNDTRIP
360
31D
  0
DICTIONARY
  5
318
330
22
100
AcDbDictionary
280
     1
281
     1
  3
ACAD_XREC_ROUNDTRIP
360
319
  0
DICTIONARY
  5
321
330
97
100
AcDbDictionary
280
     1
281
     1
  3
ACAD_XREC_ROUNDTRIP
360
322
  0
DICTIONARY
  5
31F
330
96
100
AcDbDictionary
280
     1
281
     1
  3
ACAD_XREC_ROUNDTRIP
360
320
  0
DICTIONARY
  5
110
330
98
100
AcDbDictionary
280
     1
281
     1
  3
ACAD_XREC_ROUNDTRIP
360
323
  3
BUMPTILE
360
112
  3
DIFFUSETILE
360
111
  3
OPACITYTILE
360
113
  3
REFLECTIONTILE
360
114
  0
DICTIONARY
  5
104
330
87
100
AcDbDictionary
280
     1
281
     1
  3
ACAD_ROUNDTRIP_2008_TABLESTYLE_CELLSTYLEMAP
360
316
  3
ACAD_XREC_ROUNDTRIP
360
31E
  0
XRECORD
  5
31B
102
{ACAD_REACTORS
330
31A
102
}
330
31A
100
AcDbXrecord
280
     1
102
SHADEPLOT
 70
     0
102
SHADEPLOTRESLEVEL
 70
     2
102
SHADEPLOTCUSTOMDPI
 70
   300
  0
XRECORD
  5
31D
102
{ACAD_REACTORS
330
31C
102
}
330
31C
100
AcDbXrecord
280
     1
102
SHADEPLOT
 70
     0
102
SHADEPLOTRESLEVEL
 70
     2
102
SHADEPLOTCUSTOMDPI
 70
   300
  0
XRECORD
  5
319
102
{ACAD_REACTORS
330
318
102
}
330
318
100
AcDbXrecord
280
     1
102
SHADEPLOT
 70
     0
102
SHADEPLOTRESLEVEL
 70
     2
102
SHADEPLOTCUSTOMDPI
 70
   300
  0
XRECORD
  5
322
102
{ACAD_REACTORS
330
321
102
}
330
321
100
AcDbXrecord
280
     1
102
MATERIAL
148
0.0
149
0.0
149
0.0
 93
        0
 94
       63
282
     0
 72
     1
 77
     1
171
     1
175
     1
179
     1
273
     0
  0
XRECORD
  5
320
102
{ACAD_REACTORS
330
31F
102
}
330
31F
100
AcDbXrecord
280
     1
102
MATERIAL
148
0.0
149
0.0
149
0.0
 93
        0
 94
       63
282
     0
 72
     1
 77
     1
171
     1
175
     1
179
     1
273
     0
  0
XRECORD
  5
323
102
{ACAD_REACTORS
330
110
102
}
330
110
100
AcDbXrecord
280
     1
102
MATERIAL
148
0.0
149
0.0
149
0.0
 93
        0
 94
       63
282
     0
 72
     1
 77
     1
171
     1
175
     1
179
     1
273
     0
  0
XRECORD
  5
112
102
{ACAD_REACTORS
330
110
102
}
330
110
100
AcDbXrecord
280
     1
270
     1
271
     1
  0
XRECORD
  5
111
102
{ACAD_REACTORS
330
110
102
}
330
110
100
AcDbXrecord
280
     1
270
     1
271
     1
  0
XRECORD
  5
113
102
{ACAD_REACTORS
330
110
102
}
330
110
100
AcDbXrecord
280
     1
270
     1
271
     1
  0
XRECORD
  5
114
102
{ACAD_REACTORS
330
110
102
}
330
110
100
AcDbXrecord
280
     1
270
     1
271
     1
  0
CELLSTYLEMAP
  5
316
102
{ACAD_REACTORS
330
104
102
}
330
104
100
AcDbCellStyleMap
 90
        3
300
CELLSTYLE
  1
TABLEFORMAT_BEGIN
 90
        5
170
     1
 91
        0
 92
    32768
 62
   257
 93
        1
300
CONTENTFORMAT
  1
CONTENTFORMAT_BEGIN
 90
        0
 91
        0
 92
      512
 93
        0
300

 40
0.0
140
1.0
 94
        5
 62
     0
340
11
144
0.25
309
CONTENTFORMAT_END
171
     1
301
MARGIN
  1
CELLMARGIN_BEGIN
 40
0.06
 40
0.06
 40
0.06
 40
0.06
 40
0.18
 40
0.18
309
CELLMARGIN_END
 94
        6
 95
        1
302
GRIDFORMAT
  1
GRIDFORMAT_BEGIN
 90
        0
 91
        1
 62
     0
 92
       -2
340
0
 93
        0
 40
0.045
309
GRIDFORMAT_END
 95
        2
302
GRIDFORMAT
  1
GRIDFORMAT_BEGIN
 90
        0
 91
        1
 62
     0
 92
       -2
340
0
 93
        0
 40
0.045
309
GRIDFORMAT_END
 95
        4
302
GRIDFORMAT
  1
GRIDFORMAT_BEGIN
 90
        0
 91
        1
 62
     0
 92
       -2
340
0
 93
        0
 40
0.045
309
GRIDFORMAT_END
 95
        8
302
GRIDFORMAT
  1
GRIDFORMAT_BEGIN
 90
        0
 91
        1
 62
     0
 92
       -2
340
0
 93
        0
 40
0.045
309
GRIDFORMAT_END
 95
       16
302
GRIDFORMAT
  1
GRIDFORMAT_BEGIN
 90
        0
 91
        1
 62
     0
 92
       -2
340
0
 93
        0
 40
0.045
309
GRIDFORMAT_END
 95
       32
302
GRIDFORMAT
  1
GRIDFORMAT_BEGIN
 90
        0
 91
        1
 62
     0
 92
       -2
340
0
 93
        0
 40
0.045
309
GRIDFORMAT_END
309
TABLEFORMAT_END
  1
CELLSTYLE_BEGIN
 90
        1
 91
        1
300
_TITLE
309
CELLSTYLE_END
300
CELLSTYLE
  1
TABLEFORMAT_BEGIN
 90
        5
170
     1
 91
        0
 92
        0
 62
   257
 93
        1
300
CONTENTFORMAT
  1
CONTENTFORMAT_BEGIN
 90
        0
 91
        0
 92
      512
 93
        0
300

 40
0.0
140
1.0
 94
        5
 62
     0
340
11
144
0.18
309
CONTENTFORMAT_END
171
     1
301
MARGIN
  1
CELLMARGIN_BEGIN
 40
0.06
 40
0.06
 40
0.06
 40
0.06
 40
0.18
 40
0.18
309
CELLMARGIN_END
 94
        6
 95
        1
302
GRIDFORMAT
  1
GRIDFORMAT_BEGIN
 90
        0
 91
        1
 62
     0
 92
       -2
340
0
 93
        0
 40
0.045
309
GRIDFORMAT_END
 95
        2
302
GRIDFORMAT
  1
GRIDFORMAT_BEGIN
 90
        0
 91
        1
 62
     0
 92
       -2
340
0
 93
        0
 40
0.045
309
GRIDFORMAT_END
 95
        4
302
GRIDFORMAT
  1
GRIDFORMAT_BEGIN
 90
        0
 91
        1
 62
     0
 92
       -2
340
0
 93
        0
 40
0.045
309
GRIDFORMAT_END
 95
        8
302
GRIDFORMAT
  1
GRIDFORMAT_BEGIN
 90
        0
 91
        1
 62
     0
 92
       -2
340
0
 93
        0
 40
0.045
309
GRIDFORMAT_END
 95
       16
302
GRIDFORMAT
  1
GRIDFORMAT_BEGIN
 90
        0
 91
        1
 62
     0
 92
       -2
340
0
 93
        0
 40
0.045
309
GRIDFORMAT_END
 95
       32
302
GRIDFORMAT
  1
GRIDFORMAT_BEGIN
 90
        0
 91
        1
 62
     0
 92
       -2
340
0
 93
        0
 40
0.045
309
GRIDFORMAT_END
309
TABLEFORMAT_END
  1
CELLSTYLE_BEGIN
 90
        2
 91
        1
300
_HEADER
309
CELLSTYLE_END
300
CELLSTYLE
  1
TABLEFORMAT_BEGIN
 90
        5
170
     1
 91
        0
 92
        0
 62
   257
 93
        1
300
CONTENTFORMAT
  1
CONTENTFORMAT_BEGIN
 90
        0
 91
        0
 92
      512
 93
        0
300

 40
0.0
140
1.0
 94
        2
 62
     0
340
11
144
0.18
309
CONTENTFORMAT_END
171
     1
301
MARGIN
  1
CELLMARGIN_BEGIN
 40
0.06
 40
0.06
 40
0.06
 40
0.06
 40
0.18
 40
0.18
309
CELLMARGIN_END
 94
        6
 95
        1
302
GRIDFORMAT
  1
GRIDFORMAT_BEGIN
 90
        0
 91
        1
 62
     0
 92
       -2
340
0
 93
        0
 40
0.045
309
GRIDFORMAT_END
 95
        2
302
GRIDFORMAT
  1
GRIDFORMAT_BEGIN
 90
        0
 91
        1
 62
     0
 92
       -2
340
0
 93
        0
 40
0.045
309
GRIDFORMAT_END
 95
        4
302
GRIDFORMAT
  1
GRIDFORMAT_BEGIN
 90
        0
 91
        1
 62
     0
 92
       -2
340
0
 93
        0
 40
0.045
309
GRIDFORMAT_END
 95
        8
302
GRIDFORMAT
  1
GRIDFORMAT_BEGIN
 90
        0
 91
        1
 62
     0
 92
       -2
340
0
 93
        0
 40
0.045
309
GRIDFORMAT_END
 95
       16
302
GRIDFORMAT
  1
GRIDFORMAT_BEGIN
 90
        0
 91
        1
 62
     0
 92
       -2
340
0
 93
        0
 40
0.045
309
GRIDFORMAT_END
 95
       32
302
GRIDFORMAT
  1
GRIDFORMAT_BEGIN
 90
        0
 91
        1
 62
     0
 92
       -2
340
0
 93
        0
 40
0.045
309
GRIDFORMAT_END
309
TABLEFORMAT_END
  1
CELLSTYLE_BEGIN
 90
        3
 91
        2
300
_DATA
309
CELLSTYLE_END
  0
XRECORD
  5
31E
102
{ACAD_REACTORS
330
104
102
}
330
104
100
AcDbXrecord
280
     1
102
ACAD_ROUNDTRIP_PRE2007_TABLESTYLE
 90
      512
 91
        0
  1

 92
      512
 93
        0
  2

 94
      512
 95
        0
  3

  0
ENDSEC
  0
EOF
