  0
SECTION
  2
HEADER
  9
$ACADVER
  1
AC1015
  9
$ACADMAINTVER
 70
    20
  9
$DWGCODEPAGE
  3
ANSI_1252
  9
$INSBASE
 10
0.0
 20
0.0
 30
0.0
  9
$EXTMIN
 10
-2.673415216296736
 20
7.778923122891011
 30
-0.0000000000000357
  9
$EXTMAX
 10
644.5586798857167
 20
686.1826298041655
 30
0.0000000000000238
  9
$LIMMIN
 10
0.0
 20
0.0
  9
$LIMMAX
 10
420.0
 20
297.0
  9
$ORTHOMODE
 70
     0
  9
$REGENMODE
 70
     1
  9
$FILLMODE
 70
     1
  9
$QTEXTMODE
 70
     0
  9
$MIRRTEXT
 70
     0
  9
$LTSCALE
 40
1.0
  9
$ATTMODE
 70
     1
  9
$TEXTSIZE
 40
2.5
  9
$TRACEWID
 40
1.0
  9
$TEXTSTYLE
  7
Standard
  9
$CLAYER
  8
0
  9
$CELTYPE
  6
ByLayer
  9
$CECOLOR
 62
   256
  9
$CELTSCALE
 40
1.0
  9
$DISPSILH
 70
     0
  9
$DIMSCALE
 40
1.0
  9
$DIMASZ
 40
2.5
  9
$DIMEXO
 40
0.625
  9
$DIMDLI
 40
3.75
  9
$DIMRND
 40
0.0
  9
$DIMDLE
 40
0.0
  9
$DIMEXE
 40
1.25
  9
$DIMTP
 40
0.0
  9
$DIMTM
 40
0.0
  9
$DIMTXT
 40
2.5
  9
$DIMCEN
 40
2.5
  9
$DIMTSZ
 40
0.0
  9
$DIMTOL
 70
     0
  9
$DIMLIM
 70
     0
  9
$DIMTIH
 70
     0
  9
$DIMTOH
 70
     0
  9
$DIMSE1
 70
     0
  9
$DIMSE2
 70
     0
  9
$DIMTAD
 70
     1
  9
$DIMZIN
 70
     8
  9
$DIMBLK
  1

  9
$DIMASO
 70
     1
  9
$DIMSHO
 70
     1
  9
$DIMPOST
  1

  9
$DIMAPOST
  1

  9
$DIMALT
 70
     0
  9
$DIMALTD
 70
     3
  9
$DIMALTF
 40
0.03937007874016
  9
$DIMLFAC
 40
1.0
  9
$DIMTOFL
 70
     1
  9
$DIMTVP
 40
0.0
  9
$DIMTIX
 70
     0
  9
$DIMSOXD
 70
     0
  9
$DIMSAH
 70
     0
  9
$DIMBLK1
  1

  9
$DIMBLK2
  1

  9
$DIMSTYLE
  2
ISO-25
  9
$DIMCLRD
 70
     0
  9
$DIMCLRE
 70
     0
  9
$DIMCLRT
 70
     0
  9
$DIMTFAC
 40
1.0
  9
$DIMGAP
 40
0.625
  9
$DIMJUST
 70
     0
  9
$DIMSD1
 70
     0
  9
$DIMSD2
 70
     0
  9
$DIMTOLJ
 70
     0
  9
$DIMTZIN
 70
     8
  9
$DIMALTZ
 70
     0
  9
$DIMALTTZ
 70
     0
  9
$DIMUPT
 70
     0
  9
$DIMDEC
 70
     2
  9
$DIMTDEC
 70
     2
  9
$DIMALTU
 70
     2
  9
$DIMALTTD
 70
     3
  9
$DIMTXSTY
  7
Standard
  9
$DIMAUNIT
 70
     0
  9
$DIMADEC
 70
     0
  9
$DIMALTRND
 40
0.0
  9
$DIMAZIN
 70
     0
  9
$DIMDSEP
 70
    44
  9
$DIMATFIT
 70
     3
  9
$DIMFRAC
 70
     0
  9
$DIMLDRBLK
  1

  9
$DIMLUNIT
 70
     2
  9
$DIMLWD
 70
    -2
  9
$DIMLWE
 70
    -2
  9
$DIMTMOVE
 70
     0
  9
$LUNITS
 70
     2
  9
$LUPREC
 70
     4
  9
$SKETCHINC
 40
1.0
  9
$FILLETRAD
 40
0.0
  9
$AUNITS
 70
     0
  9
$AUPREC
 70
     0
  9
$MENU
  1
.
  9
$ELEVATION
 40
0.0
  9
$PELEVATION
 40
0.0
  9
$THICKNESS
 40
0.0
  9
$LIMCHECK
 70
     0
  9
$CHAMFERA
 40
0.0
  9
$CHAMFERB
 40
0.0
  9
$CHAMFERC
 40
0.0
  9
$CHAMFERD
 40
0.0
  9
$SKPOLY
 70
     0
  9
$TDCREATE
 40
2457183.742086771
  9
$TDUCREATE
 40
2457183.658753438
  9
$TDUPDATE
 40
2457184.639394618
  9
$TDUUPDATE
 40
2457184.556061285
  9
$TDINDWG
 40
0.0312552083
  9
$TDUSRTIMER
 40
0.0312546875
  9
$USRTIMER
 70
     1
  9
$ANGBASE
 50
0.0
  9
$ANGDIR
 70
     0
  9
$PDMODE
 70
     0
  9
$PDSIZE
 40
0.0
  9
$PLINEWID
 40
0.0
  9
$SPLFRAME
 70
     0
  9
$SPLINETYPE
 70
     6
  9
$SPLINESEGS
 70
     8
  9
$HANDSEED
  5
165F
  9
$SURFTAB1
 70
     6
  9
$SURFTAB2
 70
     6
  9
$SURFTYPE
 70
     6
  9
$SURFU
 70
     6
  9
$SURFV
 70
     6
  9
$UCSBASE
  2

  9
$UCSNAME
  2

  9
$UCSORG
 10
0.0
 20
0.0
 30
0.0
  9
$UCSXDIR
 10
1.0
 20
0.0
 30
0.0
  9
$UCSYDIR
 10
0.0
 20
1.0
 30
0.0
  9
$UCSORTHOREF
  2

  9
$UCSORTHOVIEW
 70
     0
  9
$UCSORGTOP
 10
0.0
 20
0.0
 30
0.0
  9
$UCSORGBOTTOM
 10
0.0
 20
0.0
 30
0.0
  9
$UCSORGLEFT
 10
0.0
 20
0.0
 30
0.0
  9
$UCSORGRIGHT
 10
0.0
 20
0.0
 30
0.0
  9
$UCSORGFRONT
 10
0.0
 20
0.0
 30
0.0
  9
$UCSORGBACK
 10
0.0
 20
0.0
 30
0.0
  9
$PUCSBASE
  2

  9
$PUCSNAME
  2

  9
$PUCSORG
 10
0.0
 20
0.0
 30
0.0
  9
$PUCSXDIR
 10
1.0
 20
0.0
 30
0.0
  9
$PUCSYDIR
 10
0.0
 20
1.0
 30
0.0
  9
$PUCSORTHOREF
  2

  9
$PUCSORTHOVIEW
 70
     0
  9
$PUCSORGTOP
 10
0.0
 20
0.0
 30
0.0
  9
$PUCSORGBOTTOM
 10
0.0
 20
0.0
 30
0.0
  9
$PUCSORGLEFT
 10
0.0
 20
0.0
 30
0.0
  9
$PUCSORGRIGHT
 10
0.0
 20
0.0
 30
0.0
  9
$PUCSORGFRONT
 10
0.0
 20
0.0
 30
0.0
  9
$PUCSORGBACK
 10
0.0
 20
0.0
 30
0.0
  9
$USERI1
 70
     0
  9
$USERI2
 70
     0
  9
$USERI3
 70
     0
  9
$USERI4
 70
     0
  9
$USERI5
 70
     0
  9
$USERR1
 40
0.0
  9
$USERR2
 40
0.0
  9
$USERR3
 40
0.0
  9
$USERR4
 40
0.0
  9
$USERR5
 40
0.0
  9
$WORLDVIEW
 70
     1
  9
$SHADEDGE
 70
     3
  9
$SHADEDIF
 70
    70
  9
$TILEMODE
 70
     1
  9
$MAXACTVP
 70
    64
  9
$PINSBASE
 10
0.0
 20
0.0
 30
0.0
  9
$PLIMCHECK
 70
     0
  9
$PEXTMIN
 10
0.0
 20
0.0
 30
0.0
  9
$PEXTMAX
 10
0.0
 20
0.0
 30
0.0
  9
$PLIMMIN
 10
0.0
 20
0.0
  9
$PLIMMAX
 10
12.0
 20
9.0
  9
$UNITMODE
 70
     0
  9
$VISRETAIN
 70
     1
  9
$PLINEGEN
 70
     0
  9
$PSLTSCALE
 70
     1
  9
$TREEDEPTH
 70
  3020
  9
$CMLSTYLE
  2
Standard
  9
$CMLJUST
 70
     0
  9
$CMLSCALE
 40
20.0
  9
$PROXYGRAPHICS
 70
     1
  9
$MEASUREMENT
 70
     1
  9
$CELWEIGHT
370
    -1
  9
$ENDCAPS
280
     0
  9
$JOINSTYLE
280
     0
  9
$LWDISPLAY
290
     0
  9
$INSUNITS
 70
     4
  9
$HYPERLINKBASE
  1

  9
$STYLESHEET
  1

  9
$XEDIT
290
     1
  9
$CEPSNTYPE
380
     0
  9
$PSTYLEMODE
290
     1
  9
$FINGERPRINTGUID
  2
{FF0FC2E8-99AF-44FB-A519-85ABE13FAEC9}
  9
$VERSIONGUID
  2
{98B6F4EF-23C0-4ED7-BA69-9F5987CF66C6}
  9
$EXTNAMES
290
     1
  9
$PSVPSCALE
 40
0.0
  9
$OLESTARTUP
290
     0
  0
ENDSEC
  0
SECTION
  2
CLASSES
  0
CLASS
  1
ACDBDICTIONARYWDFLT
  2
AcDbDictionaryWithDefault
  3
ObjectDBX Classes
 90
        0
280
     0
281
     0
  0
CLASS
  1
ACDBPLACEHOLDER
  2
AcDbPlaceHolder
  3
ObjectDBX Classes
 90
        0
280
     0
281
     0
  0
CLASS
  1
LAYOUT
  2
AcDbLayout
  3
ObjectDBX Classes
 90
        0
280
     0
281
     0
  0
CLASS
  1
DICTIONARYVAR
  2
AcDbDictionaryVar
  3
ObjectDBX Classes
 90
        0
280
     0
281
     0
  0
CLASS
  1
TABLESTYLE
  2
AcDbTableStyle
  3
ObjectDBX Classes
 90
     4095
280
     0
281
     0
  0
CLASS
  1
MATERIAL
  2
AcDbMaterial
  3
ObjectDBX Classes
 90
     1153
280
     0
281
     0
  0
CLASS
  1
VISUALSTYLE
  2
AcDbVisualStyle
  3
ObjectDBX Classes
 90
     4095
280
     0
281
     0
  0
CLASS
  1
SCALE
  2
AcDbScale
  3
ObjectDBX Classes
 90
     1153
280
     0
281
     0
  0
CLASS
  1
MLEADERSTYLE
  2
AcDbMLeaderStyle
  3
ACDB_MLEADERSTYLE_CLASS
 90
     4095
280
     0
281
     0
  0
CLASS
  1
CELLSTYLEMAP
  2
AcDbCellStyleMap
  3
ObjectDBX Classes
 90
     1152
280
     0
281
     0
  0
CLASS
  1
EXACXREFPANELOBJECT
  2
ExAcXREFPanelObject
  3
EXAC_ESW
 90
    33793
280
     0
281
     0
  0
CLASS
  1
NPOCOLLECTION
  2
AcDbImpNonPersistentObjectsCollection
  3
ObjectDBX Classes
 90
    33921
280
     0
281
     0
  0
CLASS
  1
LAYER_INDEX
  2
AcDbLayerIndex
  3
ObjectDBX Classes
 90
    32768
280
     0
281
     0
  0
CLASS
  1
SPATIAL_INDEX
  2
AcDbSpatialIndex
  3
ObjectDBX Classes
 90
    32768
280
     0
281
     0
  0
CLASS
  1
IDBUFFER
  2
AcDbIdBuffer
  3
ObjectDBX Classes
 90
    32768
280
     0
281
     0
  0
CLASS
  1
ACDBSECTIONVIEWSTYLE
  2
AcDbSectionViewStyle
  3
ObjectDBX Classes
 90
     1025
280
     0
281
     0
  0
CLASS
  1
ACDBDETAILVIEWSTYLE
  2
AcDbDetailViewStyle
  3
ObjectDBX Classes
 90
     1025
280
     0
281
     0
  0
CLASS
  1
SORTENTSTABLE
  2
AcDbSortentsTable
  3
ObjectDBX Classes
 90
        0
280
     0
281
     0
  0
CLASS
  1
DIMASSOC
  2
AcDbDimAssoc
  3
"AcDbDimAssoc|Product Desc:     AcDim ARX App For Dimension|Company:          Autodesk, Inc.|WEB Address:      www.autodesk.com"
 90
    32768
280
     0
281
     0
  0
ENDSEC
  0
SECTION
  2
TABLES
  0
TABLE
  2
VPORT
  5
8
330
0
100
AcDbSymbolTable
 70
     1
  0
VPORT
  5
EA
330
8
100
AcDbSymbolTableRecord
100
AcDbViewportTableRecord
  2
*Active
 70
     0
 10
0.0
 20
0.0
 11
1.0
 21
1.0
 12
725.6892189239547
 22
381.7116176296399
 13
0.0
 23
0.0
 14
10.0
 24
10.0
 15
10.0
 25
10.0
 16
0.0
 26
0.0
 36
1.0
 17
0.0
 27
0.0
 37
0.0
 40
882.0371325144495
 41
2.138297872340425
 42
50.0
 43
0.0
 44
0.0
 50
0.0
 51
0.0
 71
     0
 72
  1000
 73
     1
 74
     3
 75
     0
 76
     1
 77
     0
 78
     0
281
     0
 65
     1
110
0.0
120
0.0
130
0.0
111
1.0
121
0.0
131
0.0
112
0.0
122
1.0
132
0.0
 79
     0
146
0.0
1001
ACAD_NAV_VCDISPLAY
1070
     3
  0
ENDTAB
  0
TABLE
  2
LTYPE
  5
5
330
0
100
AcDbSymbolTable
 70
     1
  0
LTYPE
  5
14
330
5
100
AcDbSymbolTableRecord
100
AcDbLinetypeTableRecord
  2
ByBlock
 70
     0
  3

 72
    65
 73
     0
 40
0.0
  0
LTYPE
  5
15
330
5
100
AcDbSymbolTableRecord
100
AcDbLinetypeTableRecord
  2
ByLayer
 70
     0
  3

 72
    65
 73
     0
 40
0.0
  0
LTYPE
  5
16
330
5
100
AcDbSymbolTableRecord
100
AcDbLinetypeTableRecord
  2
Continuous
 70
     0
  3
Solid line
 72
    65
 73
     0
 40
0.0
  0
ENDTAB
  0
TABLE
  2
LAYER
  5
2
102
{ACAD_XDICTIONARY
360
1FF
102
}
330
0
100
AcDbSymbolTable
 70
     3
  0
LAYER
  5
10
102
{ACAD_XDICTIONARY
360
13C
102
}
330
2
100
AcDbSymbolTableRecord
100
AcDbLayerTableRecord
  2
0
 70
     0
 62
     7
  6
Continuous
370
    -3
390
F
  0
LAYER
  5
2C2
330
2
100
AcDbSymbolTableRecord
100
AcDbLayerTableRecord
  2
Defpoints
 70
     0
 62
     7
  6
Continuous
290
     0
370
    -3
390
F
  0
LAYER
  5
37E
330
2
100
AcDbSymbolTableRecord
100
AcDbLayerTableRecord
  2
Q
 70
     1
 62
     7
  6
Continuous
370
    -3
390
F
1001
AcAecLayerStandard
1000

1000

  0
ENDTAB
  0
TABLE
  2
STYLE
  5
3
330
0
100
AcDbSymbolTable
 70
     3
  0
STYLE
  5
11
330
3
100
AcDbSymbolTableRecord
100
AcDbTextStyleTableRecord
  2
Standard
 70
     0
 40
0.0
 41
1.0
 50
0.0
 71
     0
 42
2.5
  3
arial.ttf
  4

1001
ACAD
1000
Arial
1071
       34
  0
STYLE
  5
132
330
3
100
AcDbSymbolTableRecord
100
AcDbTextStyleTableRecord
  2
Annotativa
 70
     0
 40
0.0
 41
1.0
 50
0.0
 71
     0
 42
2.5
  3
arial.ttf
  4

1001
AcadAnnotative
1000
AnnotativeData
1002
{
1070
     1
1070
     1
1002
}
1001
ACAD
1000
Arial
1071
       34
  0
STYLE
  5
1221
330
3
100
AcDbSymbolTableRecord
100
AcDbTextStyleTableRecord
  2
H
 70
     0
 40
1.75
 41
1.0
 50
0.0
 71
     0
 42
0.2
  3
swiss.ttf
  4

1001
ACAD
1000
Swis721 BT
1071
        0
  0
ENDTAB
  0
TABLE
  2
VIEW
  5
6
330
0
100
AcDbSymbolTable
 70
     0
  0
ENDTAB
  0
TABLE
  2
UCS
  5
7
330
0
100
AcDbSymbolTable
 70
     0
  0
ENDTAB
  0
TABLE
  2
APPID
  5
9
330
0
100
AcDbSymbolTable
 70
    16
  0
APPID
  5
12
330
9
100
AcDbSymbolTableRecord
100
AcDbRegAppTableRecord
  2
ACAD
 70
     0
  0
APPID
  5
9E
330
9
100
AcDbSymbolTableRecord
100
AcDbRegAppTableRecord
  2
ACAD_PSEXT
 70
     0
  0
APPID
  5
133
330
9
100
AcDbSymbolTableRecord
100
AcDbRegAppTableRecord
  2
AcadAnnoPO
 70
     0
  0
APPID
  5
134
330
9
100
AcDbSymbolTableRecord
100
AcDbRegAppTableRecord
  2
AcadAnnotative
 70
     0
  0
APPID
  5
135
330
9
100
AcDbSymbolTableRecord
100
AcDbRegAppTableRecord
  2
ACAD_DSTYLE_DIMJAG
 70
     0
  0
APPID
  5
136
330
9
100
AcDbSymbolTableRecord
100
AcDbRegAppTableRecord
  2
ACAD_DSTYLE_DIMTALN
 70
     0
  0
APPID
  5
165
330
9
100
AcDbSymbolTableRecord
100
AcDbRegAppTableRecord
  2
ACAD_MLEADERVER
 70
     0
  0
APPID
  5
217
330
9
100
AcDbSymbolTableRecord
100
AcDbRegAppTableRecord
  2
ACAD_NAV_VCDISPLAY
 70
     0
  0
APPID
  5
37F
330
9
100
AcDbSymbolTableRecord
100
AcDbRegAppTableRecord
  2
VDEXTRAPARAM
 70
     0
  0
APPID
  5
380
330
9
100
AcDbSymbolTableRecord
100
AcDbRegAppTableRecord
  2
AcAecLayerStandard
 70
     0
  0
APPID
  5
381
330
9
100
AcDbSymbolTableRecord
100
AcDbRegAppTableRecord
  2
VD_EX_PRINTER_DWG_STYLE_SHEET
 70
     0
  0
APPID
  5
382
330
9
100
AcDbSymbolTableRecord
100
AcDbRegAppTableRecord
  2
VD_EX_PRINTER_SIZEX
 70
     0
  0
APPID
  5
383
330
9
100
AcDbSymbolTableRecord
100
AcDbRegAppTableRecord
  2
VD_EX_PRINTER_AVSIZEX
 70
     0
  0
APPID
  5
384
330
9
100
AcDbSymbolTableRecord
100
AcDbRegAppTableRecord
  2
VD_EX_PRINTER_SIZEY
 70
     0
  0
APPID
  5
385
330
9
100
AcDbSymbolTableRecord
100
AcDbRegAppTableRecord
  2
VD_EX_PRINTER_AVSIZEY
 70
     0
  0
APPID
  5
5DE
330
9
100
AcDbSymbolTableRecord
100
AcDbRegAppTableRecord
  2
ACAD_EXEMPT_FROM_CAD_STANDARDS
 70
     0
  0
ENDTAB
  0
TABLE
  2
DIMSTYLE
  5
A
330
0
100
AcDbSymbolTable
 70
     4
100
AcDbDimStyleTable
 71
     2
340
27
340
137
  0
DIMSTYLE
105
1B0
102
{ACAD_REACTORS
330
4FC
330
4FD
330
4FE
330
4FF
330
9A0
330
9A1
330
9A2
330
9A3
102
}
330
A
100
AcDbSymbolTableRecord
100
AcDbDimStyleTableRecord
  2
Standard
 70
     0
340
11
  0
DIMSTYLE
105
137
330
A
100
AcDbSymbolTableRecord
100
AcDbDimStyleTableRecord
  2
Annotativa
 70
     0
 40
0.0
 41
2.5
 42
0.625
 43
3.75
 44
1.25
 73
     0
 74
     0
 77
     1
 78
     8
140
2.5
141
2.5
143
0.03937007874016
147
0.625
171
     3
172
     1
271
     2
272
     2
274
     3
278
    44
283
     0
284
     8
340
11
1001
AcadAnnotative
1000
AnnotativeData
1002
{
1070
     1
1070
     1
1002
}
1001
ACAD_DSTYLE_DIMJAG
1070
   388
1040
1.5
1001
ACAD_DSTYLE_DIMTALN
1070
   392
1070
     0
  0
DIMSTYLE
105
27
330
A
100
AcDbSymbolTableRecord
100
AcDbDimStyleTableRecord
  2
ISO-25
 70
     0
 41
2.5
 42
0.625
 43
3.75
 44
1.25
 73
     0
 74
     0
 77
     1
 78
     8
140
2.5
141
2.5
143
0.03937007874016
147
0.625
171
     3
172
     1
271
     2
272
     2
274
     3
278
    44
283
     0
284
     8
340
11
  0
DIMSTYLE
105
1222
330
A
100
AcDbSymbolTableRecord
100
AcDbDimStyleTableRecord
  2
GEWISS
 70
     0
 41
1.7
 42
0.3
 44
1.0
 47
1.0
 48
1.0
 73
     0
 77
     1
 78
     1
140
1.75
147
0.5
176
     1
177
     1
271
     2
340
1221
  0
ENDTAB
  0
TABLE
  2
BLOCK_RECORD
  5
1
330
0
100
AcDbSymbolTable
 70
    23
  0
BLOCK_RECORD
  5
1F
102
{ACAD_XDICTIONARY
360
1CE
102
}
330
1
100
AcDbSymbolTableRecord
100
AcDbBlockTableRecord
  2
*Model_Space
340
22
  0
BLOCK_RECORD
  5
D2
330
1
100
AcDbSymbolTableRecord
100
AcDbBlockTableRecord
  2
*Paper_Space
340
D3
  0
BLOCK_RECORD
  5
D6
330
1
100
AcDbSymbolTableRecord
100
AcDbBlockTableRecord
  2
*Paper_Space0
340
D7
  0
BLOCK_RECORD
  5
2C3
330
1
100
AcDbSymbolTableRecord
100
AcDbBlockTableRecord
  2
*D1
340
0
  0
BLOCK_RECORD
  5
2E8
330
1
100
AcDbSymbolTableRecord
100
AcDbBlockTableRecord
  2
VDDIM_DEFAULT
340
0
  0
BLOCK_RECORD
  5
2EC
330
1
100
AcDbSymbolTableRecord
100
AcDbBlockTableRecord
  2
GW66706
340
0
  0
BLOCK_RECORD
  5
4BE
330
1
100
AcDbSymbolTableRecord
100
AcDbBlockTableRecord
  2
*D4
340
0
  0
BLOCK_RECORD
  5
4CB
330
1
100
AcDbSymbolTableRecord
100
AcDbBlockTableRecord
  2
*D5
340
0
  0
BLOCK_RECORD
  5
4D8
330
1
100
AcDbSymbolTableRecord
100
AcDbBlockTableRecord
  2
*D6
340
0
  0
BLOCK_RECORD
  5
4E5
330
1
100
AcDbSymbolTableRecord
100
AcDbBlockTableRecord
  2
*D7
340
0
  0
BLOCK_RECORD
  5
500
330
1
100
AcDbSymbolTableRecord
100
AcDbBlockTableRecord
  2
*D8
340
0
  0
BLOCK_RECORD
  5
50D
330
1
100
AcDbSymbolTableRecord
100
AcDbBlockTableRecord
  2
*D9
340
0
  0
BLOCK_RECORD
  5
51A
330
1
100
AcDbSymbolTableRecord
100
AcDbBlockTableRecord
  2
*D10
340
0
  0
BLOCK_RECORD
  5
527
330
1
100
AcDbSymbolTableRecord
100
AcDbBlockTableRecord
  2
*D11
340
0
  0
BLOCK_RECORD
  5
882
330
1
100
AcDbSymbolTableRecord
100
AcDbBlockTableRecord
  2
*D12
340
0
  0
BLOCK_RECORD
  5
88E
330
1
100
AcDbSymbolTableRecord
100
AcDbBlockTableRecord
  2
*D13
340
0
  0
BLOCK_RECORD
  5
89B
330
1
100
AcDbSymbolTableRecord
100
AcDbBlockTableRecord
  2
*D14
340
0
  0
BLOCK_RECORD
  5
8A8
330
1
100
AcDbSymbolTableRecord
100
AcDbBlockTableRecord
  2
*D15
340
0
  0
BLOCK_RECORD
  5
8B5
330
1
100
AcDbSymbolTableRecord
100
AcDbBlockTableRecord
  2
*D16
340
0
  0
BLOCK_RECORD
  5
8C2
330
1
100
AcDbSymbolTableRecord
100
AcDbBlockTableRecord
  2
*D17
340
0
  0
BLOCK_RECORD
  5
8CF
330
1
100
AcDbSymbolTableRecord
100
AcDbBlockTableRecord
  2
*D18
340
0
  0
BLOCK_RECORD
  5
8DC
330
1
100
AcDbSymbolTableRecord
100
AcDbBlockTableRecord
  2
*D19
340
0
  0
BLOCK_RECORD
  5
8E9
330
1
100
AcDbSymbolTableRecord
100
AcDbBlockTableRecord
  2
*D20
340
0
  0
BLOCK_RECORD
  5
8F6
102
{ACAD_XDICTIONARY
360
9A7
102
}
330
1
100
AcDbSymbolTableRecord
100
AcDbBlockTableRecord
  2
GW66696
340
0
1001
ACAD
1000
DesignCenter Data
1002
{
1070
     1
1070
     4
1002
}
  0
ENDTAB
  0
ENDSEC
  0
SECTION
  2
BLOCKS
  0
BLOCK
  5
20
330
1F
100
AcDbEntity
  8
0
100
AcDbBlockBegin
  2
*Model_Space
 70
     0
 10
0.0
 20
0.0
 30
0.0
  3
*Model_Space
  1

  0
ENDBLK
  5
21
330
1F
100
AcDbEntity
  8
0
100
AcDbBlockEnd
  0
BLOCK
  5
D4
330
D2
100
AcDbEntity
 67
     1
  8
0
100
AcDbBlockBegin
  2
*Paper_Space
 70
     0
 10
0.0
 20
0.0
 30
0.0
  3
*Paper_Space
  1

  0
ENDBLK
  5
D5
330
D2
100
AcDbEntity
 67
     1
  8
0
100
AcDbBlockEnd
  0
BLOCK
  5
D8
330
D6
100
AcDbEntity
 67
     1
  8
0
100
AcDbBlockBegin
  2
*Paper_Space0
 70
     0
 10
0.0
 20
0.0
 30
0.0
  3
*Paper_Space0
  1

  0
ENDBLK
  5
D9
330
D6
100
AcDbEntity
 67
     1
  8
0
100
AcDbBlockEnd
  0
BLOCK
  5
2C4
330
2C3
100
AcDbEntity
  8
0
100
AcDbBlockBegin
  2
*D1
 70
     1
 10
0.0
 20
0.0
 30
0.0
  3
*D1
  1

  0
LINE
  5
2DE
330
2C3
100
AcDbEntity
  8
0
 62
     0
370
    -2
100
AcDbLine
 10
85.03657122900344
 20
609.8152993040422
 30
0.0
 11
-139.4063265168066
 21
609.8152993040422
 31
0.0
  0
LINE
  5
2DF
330
2C3
100
AcDbEntity
  8
0
 62
     0
370
    -2
100
AcDbLine
 10
85.03657122900344
 20
54.61839062140761
 30
0.0
 11
-139.4063265168067
 21
54.61839062140768
 31
0.0
  0
LINE
  5
2E0
330
2C3
100
AcDbEntity
  8
0
 62
     0
370
    -2
100
AcDbLine
 10
-138.1563265168066
 20
607.3152993040422
 30
0.0
 11
-138.1563265168068
 21
57.11839062140768
 31
0.0
  0
SOLID
  5
2E1
330
2C3
100
AcDbEntity
  8
0
 62
     0
100
AcDbTrace
 10
-138.5729931834733
 20
607.3152993040422
 30
0.0
 11
-137.73965985014
 21
607.3152993040422
 31
0.0
 12
-138.1563265168066
 22
609.8152993040422
 32
0.0
 13
-138.1563265168066
 23
609.8152993040422
 33
0.0
  0
SOLID
  5
2E2
330
2C3
100
AcDbEntity
  8
0
 62
     0
100
AcDbTrace
 10
-138.5729931834734
 20
57.11839062140768
 30
0.0
 11
-137.7396598501401
 21
57.11839062140768
 31
0.0
 12
-138.1563265168068
 22
54.61839062140768
 32
0.0
 13
-138.1563265168068
 23
54.61839062140768
 33
0.0
  0
MTEXT
  5
2E3
330
2C3
100
AcDbEntity
  8
0
 62
     0
100
AcDbMText
 10
-140.2837139656471
 20
332.216844962725
 30
0.0
 40
2.5
 41
0.0
 71
     5
 72
     1
  1
555,2
 11
0.0000000000000001
 21
1.0
 31
0.0
 73
     1
 44
1.0
1001
ACAD
1000
MTEXTBEGIN
1070
    73
1070
     1
1070
    44
1040
1.0
1070
    74
1070
     0
1000
MTEXTEND
  0
POINT
  5
2E4
330
2C3
100
AcDbEntity
  8
Defpoints
 62
     0
100
AcDbPoint
 10
85.66157122900344
 20
609.8152993040422
 30
0.0
  0
POINT
  5
2E5
330
2C3
100
AcDbEntity
  8
Defpoints
 62
     0
100
AcDbPoint
 10
85.66157122900344
 20
54.61839062140761
 30
0.0
  0
POINT
  5
2E6
330
2C3
100
AcDbEntity
  8
Defpoints
 62
     0
100
AcDbPoint
 10
-138.1563265168068
 20
54.61839062140768
 30
0.0
  0
ENDBLK
  5
2C5
330
2C3
100
AcDbEntity
  8
0
100
AcDbBlockEnd
  0
BLOCK
  5
2E9
330
2E8
100
AcDbEntity
  8
0
100
AcDbBlockBegin
  2
VDDIM_DEFAULT
 70
     0
 10
0.0
 20
0.0
 30
0.0
  3
VDDIM_DEFAULT
  1

  0
HATCH
  5
2EA
330
2E8
100
AcDbEntity
  8
0
  6
Continuous
 62
     0
370
    -2
100
AcDbHatch
 10
0.0
 20
0.0
 30
0.0
210
0.0
220
0.0
230
-1.0
  2
SOLID
 70
     1
 71
     0
 91
        1
 92
        2
 72
     0
 73
     1
 93
        3
 10
0.0
 20
0.0
 10
1.0
 20
-0.1665
 10
1.0
 20
0.1665
 97
        0
 75
     0
 76
     1
 98
        1
 10
0.0
 20
0.0
  0
ENDBLK
  5
2EB
330
2E8
100
AcDbEntity
  8
0
100
AcDbBlockEnd
  0
BLOCK
  5
2ED
330
2EC
100
AcDbEntity
  8
0
100
AcDbBlockBegin
  2
GW66706
 70
     0
 10
0.0
 20
0.0
 30
0.0
  3
GW66706
  1

  0
LWPOLYLINE
  5
2EE
330
2EC
100
AcDbEntity
  8
0
 62
     7
370
     9
100
AcDbPolyline
 90
        2
 70
     0
 43
0.0
 10
324.96858809
 20
801.4430053899996
 10
211.0857683
 20
801.4430053899996
  0
LWPOLYLINE
  5
2EF
330
2EC
100
AcDbEntity
  8
0
 62
     7
370
     9
100
AcDbPolyline
 90
        2
 70
     0
 43
0.0
 10
196.13390938
 20
787.27808642
 10
196.13390938
 20
638.54643723
  0
LWPOLYLINE
  5
2F0
330
2EC
100
AcDbEntity
  8
0
 62
     7
370
     9
100
AcDbPolyline
 90
        2
 70
     0
 43
0.0
 10
328.11634786
 20
771.53928756
 10
328.11634786
 20
797.50830568
  0
LWPOLYLINE
  5
2F1
330
2EC
100
AcDbEntity
  8
0
 62
     7
370
     9
100
AcDbPolyline
 90
        4
 70
     0
 43
0.0
 10
211.0857683
 20
801.4430053899996
 10
208.72494847
 20
800.6560654500001
 10
207.93800852
 20
799.08218556
 10
207.15106858
 20
797.50830568
  0
LWPOLYLINE
  5
2F2
330
2EC
100
AcDbEntity
  8
0
 62
     7
370
     9
100
AcDbPolyline
 90
        4
 70
     0
 43
0.0
 10
328.11634786
 20
797.50830568
 10
328.11634786
 20
799.08218556
 10
326.54246798
 20
800.6560654500001
 10
324.96858809
 20
801.4430053899996
  0
LWPOLYLINE
  5
2F3
330
2EC
100
AcDbEntity
  8
0
 62
     7
370
     9
100
AcDbPolyline
 90
        4
 70
     0
 43
0.0
 10
202.42942892
 20
771.53928756
 10
200.85554904
 20
770.75234762
 10
200.0686091
 20
769.17846774
 10
199.28166915
 20
767.60458785
  0
LWPOLYLINE
  5
2F4
330
2EC
100
AcDbEntity
  8
0
 62
     7
370
     9
100
AcDbPolyline
 90
        4
 70
     0
 43
0.0
 10
339.13350706
 20
787.27808642
 10
339.13350706
 20
789.6389062499999
 10
337.55962717
 20
790.42584619
 10
335.98574729
 20
791.2127861300001
  0
LWPOLYLINE
  5
2F5
330
2EC
100
AcDbEntity
  8
0
 62
     7
370
     9
100
AcDbPolyline
 90
        4
 70
     0
 43
0.0
 10
200.0686091
 20
791.2127861300001
 10
197.70778927
 20
790.42584619
 10
196.92084933
 20
789.6389062499999
 10
196.13390938
 20
787.27808642
  0
LWPOLYLINE
  5
2F6
330
2EC
100
AcDbEntity
  8
0
 62
     7
370
     9
100
AcDbPolyline
 90
        4
 70
     0
 43
0.0
 10
335.98574729
 20
767.60458785
 10
335.98574729
 20
769.17846774
 10
334.4118674
 20
770.75234762
 10
332.83798752
 20
771.53928756
  0
LWPOLYLINE
  5
2F7
330
2EC
100
AcDbEntity
  8
0
 62
     7
370
     9
100
AcDbPolyline
 90
        2
 70
     0
 43
0.0
 10
211.0857683
 20
476.4368090099998
 10
324.96858809
 20
476.4368090099998
  0
LWPOLYLINE
  5
2F8
330
2EC
100
AcDbEntity
  8
0
 62
     7
370
     9
100
AcDbPolyline
 90
        3
 70
     0
 43
0.0
 10
202.42942892
 20
506.34052684
 10
207.15106858
 20
506.34052684
 10
207.15106858
 20
479.5845687799999
  0
LWPOLYLINE
  5
2F9
330
2EC
100
AcDbEntity
  8
0
 62
     7
370
     9
100
AcDbPolyline
 90
        2
 70
     0
 43
0.0
 10
199.28166915
 20
509.4882866099998
 10
199.28166915
 20
632.25091769
  0
LWPOLYLINE
  5
2FA
330
2EC
100
AcDbEntity
  8
0
 62
     7
370
     9
100
AcDbPolyline
 90
        2
 70
     0
 43
0.0
 10
200.0686091
 20
485.8800883299998
 10
207.15106858
 20
485.8800883299998
  0
LWPOLYLINE
  5
2FB
330
2EC
100
AcDbEntity
  8
0
 62
     7
370
     9
100
AcDbPolyline
 90
        2
 70
     0
 43
0.0
 10
196.13390938
 20
489.8147880399998
 10
196.13390938
 20
638.54643723
  0
LWPOLYLINE
  5
2FC
330
2EC
100
AcDbEntity
  8
0
 62
     7
370
     9
100
AcDbPolyline
 90
        2
 70
     0
 43
0.0
 10
328.11634786
 20
479.5845687799999
 10
328.11634786
 20
506.34052684
  0
LWPOLYLINE
  5
2FD
330
2EC
100
AcDbEntity
  8
0
 62
     7
370
     9
100
AcDbPolyline
 90
        2
 70
     0
 43
0.0
 10
328.11634786
 20
485.8800883299998
 10
335.98574729
 20
485.8800883299998
  0
LWPOLYLINE
  5
2FE
330
2EC
100
AcDbEntity
  8
0
 62
     7
370
     9
100
AcDbPolyline
 90
        2
 70
     0
 43
0.0
 10
332.83798752
 20
506.34052684
 10
328.11634786
 20
506.34052684
  0
LWPOLYLINE
  5
2FF
330
2EC
100
AcDbEntity
  8
0
 62
     7
370
     9
100
AcDbPolyline
 90
        2
 70
     0
 43
0.0
 10
335.98574729
 20
632.25091769
 10
335.98574729
 20
509.4882866099998
  0
LWPOLYLINE
  5
300
330
2EC
100
AcDbEntity
  8
0
 62
     7
370
     9
100
AcDbPolyline
 90
        2
 70
     0
 43
0.0
 10
339.13350706
 20
489.8147880399998
 10
339.13350706
 20
638.54643723
  0
LWPOLYLINE
  5
301
330
2EC
100
AcDbEntity
  8
0
 62
     7
370
     9
100
AcDbPolyline
 90
        4
 70
     0
 43
0.0
 10
207.15106858
 20
479.5845687799999
 10
207.93800852
 20
478.0106888999998
 10
208.72494847
 20
476.4368090099998
 10
211.0857683
 20
476.4368090099998
  0
LWPOLYLINE
  5
302
330
2EC
100
AcDbEntity
  8
0
 62
     7
370
     9
100
AcDbPolyline
 90
        4
 70
     0
 43
0.0
 10
324.96858809
 20
476.4368090099998
 10
326.54246798
 20
476.4368090099998
 10
328.11634786
 20
478.0106888999998
 10
328.11634786
 20
479.5845687799999
  0
LWPOLYLINE
  5
303
330
2EC
100
AcDbEntity
  8
0
 62
     7
370
     9
100
AcDbPolyline
 90
        4
 70
     0
 43
0.0
 10
199.28166915
 20
509.4882866099998
 10
200.0686091
 20
507.9144067199998
 10
200.85554904
 20
506.34052684
 10
202.42942892
 20
506.34052684
  0
LWPOLYLINE
  5
304
330
2EC
100
AcDbEntity
  8
0
 62
     7
370
     9
100
AcDbPolyline
 90
        4
 70
     0
 43
0.0
 10
332.83798752
 20
506.34052684
 10
334.4118674
 20
506.34052684
 10
335.98574729
 20
507.9144067199998
 10
335.98574729
 20
509.4882866099998
  0
LWPOLYLINE
  5
305
330
2EC
100
AcDbEntity
  8
0
 62
     7
370
     9
100
AcDbPolyline
 90
        4
 70
     0
 43
0.0
 10
196.13390938
 20
489.8147880399998
 10
196.92084933
 20
487.4539682099999
 10
197.70778927
 20
486.66702827
 10
200.0686091
 20
485.8800883299998
  0
LWPOLYLINE
  5
306
330
2EC
100
AcDbEntity
  8
0
 62
     7
370
     9
100
AcDbPolyline
 90
        4
 70
     0
 43
0.0
 10
335.98574729
 20
485.8800883299998
 10
337.55962717
 20
486.66702827
 10
339.13350706
 20
487.4539682099999
 10
339.13350706
 20
489.8147880399998
  0
LWPOLYLINE
  5
307
330
2EC
100
AcDbEntity
  8
0
 62
     7
370
     9
100
AcDbPolyline
 90
        2
 70
     0
 43
0.0
 10
335.98574729
 20
767.60458785
 10
335.98574729
 20
644.84195677
  0
LWPOLYLINE
  5
308
330
2EC
100
AcDbEntity
  8
0
 62
     7
370
     9
100
AcDbPolyline
 90
        2
 70
     0
 43
0.0
 10
332.83798752
 20
771.53928756
 10
328.11634786
 20
771.53928756
  0
LWPOLYLINE
  5
309
330
2EC
100
AcDbEntity
  8
0
 62
     7
370
     9
100
AcDbPolyline
 90
        2
 70
     0
 43
0.0
 10
328.11634786
 20
791.2127861300001
 10
335.98574729
 20
791.2127861300001
  0
LWPOLYLINE
  5
30A
330
2EC
100
AcDbEntity
  8
0
 62
     7
370
     9
100
AcDbPolyline
 90
        2
 70
     0
 43
0.0
 10
200.0686091
 20
791.2127861300001
 10
207.15106858
 20
791.2127861300001
  0
LWPOLYLINE
  5
30B
330
2EC
100
AcDbEntity
  8
0
 62
     7
370
     9
100
AcDbPolyline
 90
        2
 70
     0
 43
0.0
 10
199.28166915
 20
767.60458785
 10
199.28166915
 20
644.84195677
  0
LWPOLYLINE
  5
30C
330
2EC
100
AcDbEntity
  8
0
 62
     7
370
     9
100
AcDbPolyline
 90
        3
 70
     0
 43
0.0
 10
207.15106858
 20
797.50830568
 10
207.15106858
 20
771.53928756
 10
202.42942892
 20
771.53928756
  0
LWPOLYLINE
  5
30D
330
2EC
100
AcDbEntity
  8
0
 62
     7
370
     9
100
AcDbPolyline
 90
        2
 70
     0
 43
0.0
 10
339.13350706
 20
638.54643723
 10
339.13350706
 20
787.27808642
  0
LINE
  5
30E
330
2EC
100
AcDbEntity
  8
0
 62
     7
100
AcDbLine
 10
201.74299196
 20
785.5090847
 30
0.0
 11
203.05252218
 21
786.8186149299997
 31
0.0
  0
LINE
  5
30F
330
2EC
100
AcDbEntity
  8
0
 62
     7
100
AcDbLine
 10
202.36382309
 20
784.8882535699997
 30
0.0
 11
201.74299196
 21
784.8882535699997
 31
0.0
  0
LINE
  5
310
330
2EC
100
AcDbEntity
  8
0
 62
     7
100
AcDbLine
 10
201.74299196
 20
784.26741214
 30
0.0
 11
203.05252218
 21
782.9578922199997
 31
0.0
  0
CIRCLE
  5
311
330
2EC
100
AcDbEntity
  8
0
 62
     7
100
AcDbCircle
 10
201.74299196
 20
784.8882535699997
 30
0.0
 40
3.292483069999998
  0
LINE
  5
312
330
2EC
100
AcDbEntity
  8
0
 62
     7
100
AcDbLine
 10
199.81263061
 20
786.19777349
 30
0.0
 11
200.43346173
 21
786.8186149299997
 31
0.0
  0
LINE
  5
313
330
2EC
100
AcDbEntity
  8
0
 62
     7
100
AcDbLine
 10
200.43346173
 20
786.8186149299997
 30
0.0
 11
201.74299196
 21
785.5090847
 31
0.0
  0
LINE
  5
314
330
2EC
100
AcDbEntity
  8
0
 62
     7
100
AcDbLine
 10
201.74299196
 20
784.26741214
 30
0.0
 11
201.74299196
 21
784.8882535699997
 31
0.0
  0
LINE
  5
315
330
2EC
100
AcDbEntity
  8
0
 62
     7
100
AcDbLine
 10
201.74299196
 20
785.5090847
 30
0.0
 11
201.74299196
 21
784.8882535699997
 31
0.0
  0
LINE
  5
316
330
2EC
100
AcDbEntity
  8
0
 62
     7
100
AcDbLine
 10
201.12215052
 20
784.8882535699997
 30
0.0
 11
201.74299196
 21
784.8882535699997
 31
0.0
  0
LINE
  5
317
330
2EC
100
AcDbEntity
  8
0
 62
     7
100
AcDbLine
 10
199.81263061
 20
786.19777349
 30
0.0
 11
201.12215052
 21
784.8882535699997
 31
0.0
  0
LINE
  5
318
330
2EC
100
AcDbEntity
  8
0
 62
     7
100
AcDbLine
 10
199.81263061
 20
783.57872335
 30
0.0
 11
200.43346173
 21
782.9578922199997
 31
0.0
  0
LINE
  5
319
330
2EC
100
AcDbEntity
  8
0
 62
     7
100
AcDbLine
 10
200.43346173
 20
782.9578922199997
 30
0.0
 11
201.74299196
 21
784.26741214
 31
0.0
  0
LINE
  5
31A
330
2EC
100
AcDbEntity
  8
0
 62
     7
100
AcDbLine
 10
199.81263061
 20
783.57872335
 30
0.0
 11
201.12215052
 21
784.8882535699997
 31
0.0
  0
LINE
  5
31B
330
2EC
100
AcDbEntity
  8
0
 62
     7
100
AcDbLine
 10
202.36382309
 20
784.8882535699997
 30
0.0
 11
203.67335331
 21
786.19777349
 31
0.0
  0
LINE
  5
31C
330
2EC
100
AcDbEntity
  8
0
 62
     7
100
AcDbLine
 10
203.05252218
 20
786.8186149299997
 30
0.0
 11
203.67335331
 21
786.19777349
 31
0.0
  0
LINE
  5
31D
330
2EC
100
AcDbEntity
  8
0
 62
     7
100
AcDbLine
 10
203.05252218
 20
782.9578922199997
 30
0.0
 11
203.67335331
 21
783.57872335
 31
0.0
  0
LINE
  5
31E
330
2EC
100
AcDbEntity
  8
0
 62
     7
100
AcDbLine
 10
202.36382309
 20
784.8882535699997
 30
0.0
 11
203.67335331
 21
783.57872335
 31
0.0
  0
LINE
  5
31F
330
2EC
100
AcDbEntity
  8
0
 62
     7
100
AcDbLine
 10
333.64395044
 20
785.5090847
 30
0.0
 11
332.33442022
 21
786.8186149299997
 31
0.0
  0
LINE
  5
320
330
2EC
100
AcDbEntity
  8
0
 62
     7
100
AcDbLine
 10
333.02311932
 20
784.8882535699997
 30
0.0
 11
333.64395044
 21
784.8882535699997
 31
0.0
  0
LINE
  5
321
330
2EC
100
AcDbEntity
  8
0
 62
     7
100
AcDbLine
 10
333.64395044
 20
784.26741214
 30
0.0
 11
332.33442022
 21
782.9578922199997
 31
0.0
  0
CIRCLE
  5
322
330
2EC
100
AcDbEntity
  8
0
 62
     7
100
AcDbCircle
 10
333.64395044
 20
784.8882535699997
 30
0.0
 40
3.292483069999998
  0
LINE
  5
323
330
2EC
100
AcDbEntity
  8
0
 62
     7
100
AcDbLine
 10
335.5743118
 20
786.19777349
 30
0.0
 11
334.95348067
 21
786.8186149299997
 31
0.0
  0
LINE
  5
324
330
2EC
100
AcDbEntity
  8
0
 62
     7
100
AcDbLine
 10
334.95348067
 20
786.8186149299997
 30
0.0
 11
333.64395044
 21
785.5090847
 31
0.0
  0
LINE
  5
325
330
2EC
100
AcDbEntity
  8
0
 62
     7
100
AcDbLine
 10
333.64395044
 20
784.26741214
 30
0.0
 11
333.64395044
 21
784.8882535699997
 31
0.0
  0
LINE
  5
326
330
2EC
100
AcDbEntity
  8
0
 62
     7
100
AcDbLine
 10
333.64395044
 20
785.5090847
 30
0.0
 11
333.64395044
 21
784.8882535699997
 31
0.0
  0
LINE
  5
327
330
2EC
100
AcDbEntity
  8
0
 62
     7
100
AcDbLine
 10
334.26479188
 20
784.8882535699997
 30
0.0
 11
333.64395044
 21
784.8882535699997
 31
0.0
  0
LINE
  5
328
330
2EC
100
AcDbEntity
  8
0
 62
     7
100
AcDbLine
 10
335.5743118
 20
786.19777349
 30
0.0
 11
334.26479188
 21
784.8882535699997
 31
0.0
  0
LINE
  5
329
330
2EC
100
AcDbEntity
  8
0
 62
     7
100
AcDbLine
 10
335.5743118
 20
783.57872335
 30
0.0
 11
334.95348067
 21
782.9578922199997
 31
0.0
  0
LINE
  5
32A
330
2EC
100
AcDbEntity
  8
0
 62
     7
100
AcDbLine
 10
334.95348067
 20
782.9578922199997
 30
0.0
 11
333.64395044
 21
784.26741214
 31
0.0
  0
LINE
  5
32B
330
2EC
100
AcDbEntity
  8
0
 62
     7
100
AcDbLine
 10
335.5743118
 20
783.57872335
 30
0.0
 11
334.26479188
 21
784.8882535699997
 31
0.0
  0
LINE
  5
32C
330
2EC
100
AcDbEntity
  8
0
 62
     7
100
AcDbLine
 10
333.02311932
 20
784.8882535699997
 30
0.0
 11
331.71358909
 21
786.19777349
 31
0.0
  0
LINE
  5
32D
330
2EC
100
AcDbEntity
  8
0
 62
     7
100
AcDbLine
 10
332.33442022
 20
786.8186149299997
 30
0.0
 11
331.71358909
 21
786.19777349
 31
0.0
  0
LINE
  5
32E
330
2EC
100
AcDbEntity
  8
0
 62
     7
100
AcDbLine
 10
332.33442022
 20
782.9578922199997
 30
0.0
 11
331.71358909
 21
783.57872335
 31
0.0
  0
LINE
  5
32F
330
2EC
100
AcDbEntity
  8
0
 62
     7
100
AcDbLine
 10
333.02311932
 20
784.8882535699997
 30
0.0
 11
331.71358909
 21
783.57872335
 31
0.0
  0
LINE
  5
330
330
2EC
100
AcDbEntity
  8
0
 62
     7
100
AcDbLine
 10
201.74299196
 20
493.2300078099998
 30
0.0
 11
203.05252218
 21
494.5395380399999
 31
0.0
  0
LINE
  5
331
330
2EC
100
AcDbEntity
  8
0
 62
     7
100
AcDbLine
 10
202.36382309
 20
492.6091766799998
 30
0.0
 11
201.74299196
 21
492.6091766799998
 31
0.0
  0
LINE
  5
332
330
2EC
100
AcDbEntity
  8
0
 62
     7
100
AcDbLine
 10
201.74299196
 20
491.98833525
 30
0.0
 11
203.05252218
 21
490.6788153299998
 31
0.0
  0
CIRCLE
  5
333
330
2EC
100
AcDbEntity
  8
0
 62
     7
100
AcDbCircle
 10
201.74299196
 20
492.6091766799998
 30
0.0
 40
3.292483069999998
  0
LINE
  5
334
330
2EC
100
AcDbEntity
  8
0
 62
     7
100
AcDbLine
 10
199.81263061
 20
493.9186966
 30
0.0
 11
200.43346173
 21
494.5395380399999
 31
0.0
  0
LINE
  5
335
330
2EC
100
AcDbEntity
  8
0
 62
     7
100
AcDbLine
 10
200.43346173
 20
494.5395380399999
 30
0.0
 11
201.74299196
 21
493.2300078099998
 31
0.0
  0
LINE
  5
336
330
2EC
100
AcDbEntity
  8
0
 62
     7
100
AcDbLine
 10
201.74299196
 20
491.98833525
 30
0.0
 11
201.74299196
 21
492.6091766799998
 31
0.0
  0
LINE
  5
337
330
2EC
100
AcDbEntity
  8
0
 62
     7
100
AcDbLine
 10
201.74299196
 20
493.2300078099998
 30
0.0
 11
201.74299196
 21
492.6091766799998
 31
0.0
  0
LINE
  5
338
330
2EC
100
AcDbEntity
  8
0
 62
     7
100
AcDbLine
 10
201.12215052
 20
492.6091766799998
 30
0.0
 11
201.74299196
 21
492.6091766799998
 31
0.0
  0
LINE
  5
339
330
2EC
100
AcDbEntity
  8
0
 62
     7
100
AcDbLine
 10
199.81263061
 20
493.9186966
 30
0.0
 11
201.12215052
 21
492.6091766799998
 31
0.0
  0
LINE
  5
33A
330
2EC
100
AcDbEntity
  8
0
 62
     7
100
AcDbLine
 10
199.81263061
 20
491.2996464599998
 30
0.0
 11
200.43346173
 21
490.6788153299998
 31
0.0
  0
LINE
  5
33B
330
2EC
100
AcDbEntity
  8
0
 62
     7
100
AcDbLine
 10
200.43346173
 20
490.6788153299998
 30
0.0
 11
201.74299196
 21
491.98833525
 31
0.0
  0
LINE
  5
33C
330
2EC
100
AcDbEntity
  8
0
 62
     7
100
AcDbLine
 10
199.81263061
 20
491.2996464599998
 30
0.0
 11
201.12215052
 21
492.6091766799998
 31
0.0
  0
LINE
  5
33D
330
2EC
100
AcDbEntity
  8
0
 62
     7
100
AcDbLine
 10
202.36382309
 20
492.6091766799998
 30
0.0
 11
203.67335331
 21
493.9186966
 31
0.0
  0
LINE
  5
33E
330
2EC
100
AcDbEntity
  8
0
 62
     7
100
AcDbLine
 10
203.05252218
 20
494.5395380399999
 30
0.0
 11
203.67335331
 21
493.9186966
 31
0.0
  0
LINE
  5
33F
330
2EC
100
AcDbEntity
  8
0
 62
     7
100
AcDbLine
 10
203.05252218
 20
490.6788153299998
 30
0.0
 11
203.67335331
 21
491.2996464599998
 31
0.0
  0
LINE
  5
340
330
2EC
100
AcDbEntity
  8
0
 62
     7
100
AcDbLine
 10
202.36382309
 20
492.6091766799998
 30
0.0
 11
203.67335331
 21
491.2996464599998
 31
0.0
  0
LINE
  5
341
330
2EC
100
AcDbEntity
  8
0
 62
     7
100
AcDbLine
 10
333.64395044
 20
493.2300078099998
 30
0.0
 11
332.33442022
 21
494.5395380399999
 31
0.0
  0
LINE
  5
342
330
2EC
100
AcDbEntity
  8
0
 62
     7
100
AcDbLine
 10
333.02311932
 20
492.6091766799998
 30
0.0
 11
333.64395044
 21
492.6091766799998
 31
0.0
  0
LINE
  5
343
330
2EC
100
AcDbEntity
  8
0
 62
     7
100
AcDbLine
 10
333.64395044
 20
491.98833525
 30
0.0
 11
332.33442022
 21
490.6788153299998
 31
0.0
  0
CIRCLE
  5
344
330
2EC
100
AcDbEntity
  8
0
 62
     7
100
AcDbCircle
 10
333.64395044
 20
492.6091766799998
 30
0.0
 40
3.292483069999998
  0
LINE
  5
345
330
2EC
100
AcDbEntity
  8
0
 62
     7
100
AcDbLine
 10
335.5743118
 20
493.9186966
 30
0.0
 11
334.95348067
 21
494.5395380399999
 31
0.0
  0
LINE
  5
346
330
2EC
100
AcDbEntity
  8
0
 62
     7
100
AcDbLine
 10
334.95348067
 20
494.5395380399999
 30
0.0
 11
333.64395044
 21
493.2300078099998
 31
0.0
  0
LINE
  5
347
330
2EC
100
AcDbEntity
  8
0
 62
     7
100
AcDbLine
 10
333.64395044
 20
491.98833525
 30
0.0
 11
333.64395044
 21
492.6091766799998
 31
0.0
  0
LINE
  5
348
330
2EC
100
AcDbEntity
  8
0
 62
     7
100
AcDbLine
 10
333.64395044
 20
493.2300078099998
 30
0.0
 11
333.64395044
 21
492.6091766799998
 31
0.0
  0
LINE
  5
349
330
2EC
100
AcDbEntity
  8
0
 62
     7
100
AcDbLine
 10
334.26479188
 20
492.6091766799998
 30
0.0
 11
333.64395044
 21
492.6091766799998
 31
0.0
  0
LINE
  5
34A
330
2EC
100
AcDbEntity
  8
0
 62
     7
100
AcDbLine
 10
335.5743118
 20
493.9186966
 30
0.0
 11
334.26479188
 21
492.6091766799998
 31
0.0
  0
LINE
  5
34B
330
2EC
100
AcDbEntity
  8
0
 62
     7
100
AcDbLine
 10
335.5743118
 20
491.2996464599998
 30
0.0
 11
334.95348067
 21
490.6788153299998
 31
0.0
  0
LINE
  5
34C
330
2EC
100
AcDbEntity
  8
0
 62
     7
100
AcDbLine
 10
334.95348067
 20
490.6788153299998
 30
0.0
 11
333.64395044
 21
491.98833525
 31
0.0
  0
LINE
  5
34D
330
2EC
100
AcDbEntity
  8
0
 62
     7
100
AcDbLine
 10
335.5743118
 20
491.2996464599998
 30
0.0
 11
334.26479188
 21
492.6091766799998
 31
0.0
  0
LINE
  5
34E
330
2EC
100
AcDbEntity
  8
0
 62
     7
100
AcDbLine
 10
333.02311932
 20
492.6091766799998
 30
0.0
 11
331.71358909
 21
493.9186966
 31
0.0
  0
LINE
  5
34F
330
2EC
100
AcDbEntity
  8
0
 62
     7
100
AcDbLine
 10
332.33442022
 20
494.5395380399999
 30
0.0
 11
331.71358909
 21
493.9186966
 31
0.0
  0
LINE
  5
350
330
2EC
100
AcDbEntity
  8
0
 62
     7
100
AcDbLine
 10
332.33442022
 20
490.6788153299998
 30
0.0
 11
331.71358909
 21
491.2996464599998
 31
0.0
  0
LINE
  5
351
330
2EC
100
AcDbEntity
  8
0
 62
     7
100
AcDbLine
 10
333.02311932
 20
492.6091766799998
 30
0.0
 11
331.71358909
 21
491.2996464599998
 31
0.0
  0
LINE
  5
352
330
2EC
100
AcDbEntity
  8
0
 62
     7
100
AcDbLine
 10
201.74299196
 20
639.2880740199997
 30
0.0
 11
203.05252218
 21
640.59760425
 31
0.0
  0
LINE
  5
353
330
2EC
100
AcDbEntity
  8
0
 62
     7
100
AcDbLine
 10
202.36382309
 20
638.6672428899998
 30
0.0
 11
201.74299196
 21
638.6672428899998
 31
0.0
  0
LINE
  5
354
330
2EC
100
AcDbEntity
  8
0
 62
     7
100
AcDbLine
 10
201.74299196
 20
638.04640146
 30
0.0
 11
203.05252218
 21
636.7368815399998
 31
0.0
  0
CIRCLE
  5
355
330
2EC
100
AcDbEntity
  8
0
 62
     7
100
AcDbCircle
 10
201.74299196
 20
638.6672428899998
 30
0.0
 40
3.292483069999998
  0
LINE
  5
356
330
2EC
100
AcDbEntity
  8
0
 62
     7
100
AcDbLine
 10
199.81263061
 20
639.97676281
 30
0.0
 11
200.43346173
 21
640.59760425
 31
0.0
  0
LINE
  5
357
330
2EC
100
AcDbEntity
  8
0
 62
     7
100
AcDbLine
 10
200.43346173
 20
640.59760425
 30
0.0
 11
201.74299196
 21
639.2880740199997
 31
0.0
  0
LINE
  5
358
330
2EC
100
AcDbEntity
  8
0
 62
     7
100
AcDbLine
 10
201.74299196
 20
638.04640146
 30
0.0
 11
201.74299196
 21
638.6672428899998
 31
0.0
  0
LINE
  5
359
330
2EC
100
AcDbEntity
  8
0
 62
     7
100
AcDbLine
 10
201.74299196
 20
639.2880740199997
 30
0.0
 11
201.74299196
 21
638.6672428899998
 31
0.0
  0
LINE
  5
35A
330
2EC
100
AcDbEntity
  8
0
 62
     7
100
AcDbLine
 10
201.12215052
 20
638.6672428899998
 30
0.0
 11
201.74299196
 21
638.6672428899998
 31
0.0
  0
LINE
  5
35B
330
2EC
100
AcDbEntity
  8
0
 62
     7
100
AcDbLine
 10
199.81263061
 20
639.97676281
 30
0.0
 11
201.12215052
 21
638.6672428899998
 31
0.0
  0
LINE
  5
35C
330
2EC
100
AcDbEntity
  8
0
 62
     7
100
AcDbLine
 10
199.81263061
 20
637.3577126699997
 30
0.0
 11
200.43346173
 21
636.7368815399998
 31
0.0
  0
LINE
  5
35D
330
2EC
100
AcDbEntity
  8
0
 62
     7
100
AcDbLine
 10
200.43346173
 20
636.7368815399998
 30
0.0
 11
201.74299196
 21
638.04640146
 31
0.0
  0
LINE
  5
35E
330
2EC
100
AcDbEntity
  8
0
 62
     7
100
AcDbLine
 10
199.81263061
 20
637.3577126699997
 30
0.0
 11
201.12215052
 21
638.6672428899998
 31
0.0
  0
LINE
  5
35F
330
2EC
100
AcDbEntity
  8
0
 62
     7
100
AcDbLine
 10
202.36382309
 20
638.6672428899998
 30
0.0
 11
203.67335331
 21
639.97676281
 31
0.0
  0
LINE
  5
360
330
2EC
100
AcDbEntity
  8
0
 62
     7
100
AcDbLine
 10
203.05252218
 20
640.59760425
 30
0.0
 11
203.67335331
 21
639.97676281
 31
0.0
  0
LINE
  5
361
330
2EC
100
AcDbEntity
  8
0
 62
     7
100
AcDbLine
 10
203.05252218
 20
636.7368815399998
 30
0.0
 11
203.67335331
 21
637.3577126699997
 31
0.0
  0
LINE
  5
362
330
2EC
100
AcDbEntity
  8
0
 62
     7
100
AcDbLine
 10
202.36382309
 20
638.6672428899998
 30
0.0
 11
203.67335331
 21
637.3577126699997
 31
0.0
  0
ARC
  5
363
330
2EC
100
AcDbEntity
  8
0
 62
     7
100
AcDbCircle
 10
201.33358464
 20
638.54643723
 30
0.0
 40
6.62147442
100
AcDbArc
 50
251.94751883
 51
108.05248117
  0
LINE
  5
364
330
2EC
100
AcDbEntity
  8
0
 62
     7
100
AcDbLine
 10
333.52442448
 20
639.2880740199997
 30
0.0
 11
332.21489426
 21
640.59760425
 31
0.0
  0
LINE
  5
365
330
2EC
100
AcDbEntity
  8
0
 62
     7
100
AcDbLine
 10
332.90359336
 20
638.6672428899998
 30
0.0
 11
333.52442448
 21
638.6672428899998
 31
0.0
  0
LINE
  5
366
330
2EC
100
AcDbEntity
  8
0
 62
     7
100
AcDbLine
 10
333.52442448
 20
638.04640146
 30
0.0
 11
332.21489426
 21
636.7368815399998
 31
0.0
  0
CIRCLE
  5
367
330
2EC
100
AcDbEntity
  8
0
 62
     7
100
AcDbCircle
 10
333.52442448
 20
638.6672428899998
 30
0.0
 40
3.292483069999998
  0
LINE
  5
368
330
2EC
100
AcDbEntity
  8
0
 62
     7
100
AcDbLine
 10
335.45478584
 20
639.97676281
 30
0.0
 11
334.83395471
 21
640.59760425
 31
0.0
  0
LINE
  5
369
330
2EC
100
AcDbEntity
  8
0
 62
     7
100
AcDbLine
 10
334.83395471
 20
640.59760425
 30
0.0
 11
333.52442448
 21
639.2880740199997
 31
0.0
  0
LINE
  5
36A
330
2EC
100
AcDbEntity
  8
0
 62
     7
100
AcDbLine
 10
333.52442448
 20
638.04640146
 30
0.0
 11
333.52442448
 21
638.6672428899998
 31
0.0
  0
LINE
  5
36B
330
2EC
100
AcDbEntity
  8
0
 62
     7
100
AcDbLine
 10
333.52442448
 20
639.2880740199997
 30
0.0
 11
333.52442448
 21
638.6672428899998
 31
0.0
  0
LINE
  5
36C
330
2EC
100
AcDbEntity
  8
0
 62
     7
100
AcDbLine
 10
334.14526592
 20
638.6672428899998
 30
0.0
 11
333.52442448
 21
638.6672428899998
 31
0.0
  0
LINE
  5
36D
330
2EC
100
AcDbEntity
  8
0
 62
     7
100
AcDbLine
 10
335.45478584
 20
639.97676281
 30
0.0
 11
334.14526592
 21
638.6672428899998
 31
0.0
  0
LINE
  5
36E
330
2EC
100
AcDbEntity
  8
0
 62
     7
100
AcDbLine
 10
335.45478584
 20
637.3577126699997
 30
0.0
 11
334.83395471
 21
636.7368815399998
 31
0.0
  0
LINE
  5
36F
330
2EC
100
AcDbEntity
  8
0
 62
     7
100
AcDbLine
 10
334.83395471
 20
636.7368815399998
 30
0.0
 11
333.52442448
 21
638.04640146
 31
0.0
  0
LINE
  5
370
330
2EC
100
AcDbEntity
  8
0
 62
     7
100
AcDbLine
 10
335.45478584
 20
637.3577126699997
 30
0.0
 11
334.14526592
 21
638.6672428899998
 31
0.0
  0
LINE
  5
371
330
2EC
100
AcDbEntity
  8
0
 62
     7
100
AcDbLine
 10
332.90359336
 20
638.6672428899998
 30
0.0
 11
331.59406313
 21
639.97676281
 31
0.0
  0
LINE
  5
372
330
2EC
100
AcDbEntity
  8
0
 62
     7
100
AcDbLine
 10
332.21489426
 20
640.59760425
 30
0.0
 11
331.59406313
 21
639.97676281
 31
0.0
  0
LINE
  5
373
330
2EC
100
AcDbEntity
  8
0
 62
     7
100
AcDbLine
 10
332.21489426
 20
636.7368815399998
 30
0.0
 11
331.59406313
 21
637.3577126699997
 31
0.0
  0
LINE
  5
374
330
2EC
100
AcDbEntity
  8
0
 62
     7
100
AcDbLine
 10
332.90359336
 20
638.6672428899998
 30
0.0
 11
331.59406313
 21
637.3577126699997
 31
0.0
  0
ARC
  5
375
330
2EC
100
AcDbEntity
  8
0
 62
     7
100
AcDbCircle
 10
333.9338318
 20
638.54643723
 30
0.0
 40
6.62147442
100
AcDbArc
 50
71.94751883000002
 51
288.05248117
  0
LINE
  5
376
330
2EC
100
AcDbEntity
  8
Q
 62
     3
100
AcDbLine
 10
339.13350706
 20
801.4430053899996
 30
0.0
 11
196.13390938
 21
801.4430053899996
 31
0.0
  0
LINE
  5
377
330
2EC
100
AcDbEntity
  8
Q
 62
     3
100
AcDbLine
 10
196.13390938
 20
801.4430053899996
 30
0.0
 11
196.13390938
 21
476.4430053899998
 31
0.0
  0
LINE
  5
378
330
2EC
100
AcDbEntity
  8
Q
 62
     3
100
AcDbLine
 10
196.13390938
 20
476.4430053899998
 30
0.0
 11
339.13350706
 21
476.4430053899998
 31
0.0
  0
LINE
  5
379
330
2EC
100
AcDbEntity
  8
Q
 62
     3
100
AcDbLine
 10
339.13350706
 20
476.4430053899998
 30
0.0
 11
339.13350706
 21
801.4430053899996
 31
0.0
  0
LINE
  5
37A
330
2EC
100
AcDbEntity
  8
Q
 62
     3
100
AcDbLine
 10
339.13350706
 20
476.4430053899998
 30
0.0
 11
339.13350706
 21
455.02434129
 31
0.0
  0
LINE
  5
37B
330
2EC
100
AcDbEntity
  8
Q
 62
     3
100
AcDbLine
 10
339.13350706
 20
455.02434129
 30
0.0
 11
196.13390938
 21
455.02434129
 31
0.0
  0
LINE
  5
37C
330
2EC
100
AcDbEntity
  8
Q
 62
     3
100
AcDbLine
 10
196.13390938
 20
455.02434129
 30
0.0
 11
196.13390938
 21
476.4430053899998
 31
0.0
  0
ENDBLK
  5
37D
330
2EC
100
AcDbEntity
  8
0
100
AcDbBlockEnd
  0
BLOCK
  5
4BF
330
4BE
100
AcDbEntity
  8
0
100
AcDbBlockBegin
  2
*D4
 70
     1
 10
0.0
 20
0.0
 30
0.0
  3
*D4
  1

  0
LINE
  5
4C0
330
4BE
100
AcDbEntity
  8
0
 62
     0
370
    -2
100
AcDbLine
 10
589.9879839047587
 20
69.97604050653712
 30
0.0
 11
648.9886682629237
 21
69.9760405065371
 31
0.0
  0
LINE
  5
4C1
330
4BE
100
AcDbEntity
  8
0
 62
     0
370
    -2
100
AcDbLine
 10
590.3053609373147
 20
429.9744905080395
 30
0.0
 11
648.9886682629243
 21
429.9744905080395
 31
0.0
  0
LINE
  5
4C2
330
4BE
100
AcDbEntity
  8
0
 62
     0
370
    -2
100
AcDbLine
 10
648.8086682629241
 20
75.97604050653711
 30
0.0
 11
648.8086682629241
 21
237.3793279446672
 31
0.0
  0
LINE
  5
4C3
330
4BE
100
AcDbEntity
  8
0
 62
     0
370
    -2
100
AcDbLine
 10
648.8086682629242
 20
423.9744905080394
 30
0.0
 11
648.8086682629241
 21
244.5593279446672
 31
0.0
  0
SOLID
  5
4C4
330
4BE
100
AcDbEntity
  8
0
 62
     0
100
AcDbTrace
 10
647.8086682629241
 20
75.97604050653711
 30
0.0
 11
649.8086682629241
 21
75.97604050653711
 31
0.0
 12
648.8086682629241
 22
69.9760405065371
 32
0.0
 13
648.8086682629241
 23
69.9760405065371
 33
0.0
  0
SOLID
  5
4C5
330
4BE
100
AcDbEntity
  8
0
 62
     0
100
AcDbTrace
 10
647.8086682629242
 20
423.9744905080394
 30
0.0
 11
649.8086682629242
 21
423.9744905080394
 31
0.0
 12
648.8086682629242
 22
429.9744905080395
 32
0.0
 13
648.8086682629242
 23
429.9744905080395
 33
0.0
  0
MTEXT
  5
4C6
330
4BE
100
AcDbEntity
  8
0
 62
     0
100
AcDbMText
 10
648.8086682629241
 20
240.9693279446673
 30
0.0
 40
7.0
 41
0.0
 71
     5
 72
     1
  1
\A1;360.0
 73
     1
 44
1.0
1001
ACAD
1000
MTEXTBEGIN
1070
    73
1070
     1
1070
    44
1040
1.0
1070
    74
1070
     0
1000
MTEXTEND
  0
POINT
  5
4C7
330
4BE
100
AcDbEntity
  8
Defpoints
 62
     0
100
AcDbPoint
 10
589.9254839047586
 20
69.97604050653712
 30
-0.0000000000000119
  0
POINT
  5
4C8
330
4BE
100
AcDbEntity
  8
Defpoints
 62
     0
100
AcDbPoint
 10
590.2428609373147
 20
429.9744905080395
 30
0.0
  0
POINT
  5
4C9
330
4BE
100
AcDbEntity
  8
Defpoints
 62
     0
100
AcDbPoint
 10
648.8086682629242
 20
429.9744905080395
 30
0.0
  0
ENDBLK
  5
4CA
330
4BE
100
AcDbEntity
  8
0
100
AcDbBlockEnd
  0
BLOCK
  5
4CC
330
4CB
100
AcDbEntity
  8
0
100
AcDbBlockBegin
  2
*D5
 70
     1
 10
0.0
 20
0.0
 30
0.0
  3
*D5
  1

  0
LINE
  5
4CD
330
4CB
100
AcDbEntity
  8
0
 62
     0
370
    -2
100
AcDbLine
 10
383.4276576511695
 20
82.96680830966996
 30
0.0000000000000119
 11
383.4276576511695
 21
43.43946906525814
 31
0.0000000000000119
  0
LINE
  5
4CE
330
4CB
100
AcDbEntity
  8
0
 62
     0
370
    -2
100
AcDbLine
 10
603.4276576525257
 20
83.10430830776404
 30
0.0000000000000119
 11
603.4276576525257
 21
43.43946906525814
 31
0.0000000000000119
  0
LINE
  5
4CF
330
4CB
100
AcDbEntity
  8
0
 62
     0
370
    -2
100
AcDbLine
 10
389.4276576511695
 20
43.61946906525814
 30
0.0000000000000119
 11
479.2957128513265
 21
43.61946906525814
 31
0.0000000000000119
  0
LINE
  5
4D0
330
4CB
100
AcDbEntity
  8
0
 62
     0
370
    -2
100
AcDbLine
 10
597.4276576525256
 20
43.61946906525814
 30
0.0000000000000119
 11
505.1423795179931
 21
43.61946906525814
 31
0.0000000000000119
  0
SOLID
  5
4D1
330
4CB
100
AcDbEntity
  8
0
 62
     0
100
AcDbTrace
 10
389.4276576511695
 20
44.61946906525812
 30
0.0000000000000119
 11
389.4276576511695
 21
42.61946906525813
 31
0.0000000000000119
 12
383.4276576511695
 22
43.61946906525814
 32
0.0000000000000119
 13
383.4276576511695
 23
43.61946906525814
 33
0.0000000000000119
  0
SOLID
  5
4D2
330
4CB
100
AcDbEntity
  8
0
 62
     0
100
AcDbTrace
 10
597.4276576525256
 20
44.61946906525812
 30
0.0000000000000119
 11
597.4276576525256
 21
42.61946906525813
 31
0.0000000000000119
 12
603.4276576525257
 22
43.61946906525814
 32
0.0000000000000119
 13
603.4276576525257
 23
43.61946906525814
 33
0.0000000000000119
  0
MTEXT
  5
4D3
330
4CB
100
AcDbEntity
  8
0
 62
     0
100
AcDbMText
 10
492.2190461846596
 20
43.61946906525814
 30
0.0000000000000119
 40
7.0
 41
0.0
 71
     5
 72
     1
  1
\A1;220.0
 73
     1
 44
1.0
1001
ACAD
1000
MTEXTBEGIN
1070
    73
1070
     1
1070
    44
1040
1.0
1070
    74
1070
     0
1000
MTEXTEND
  0
POINT
  5
4D4
330
4CB
100
AcDbEntity
  8
Defpoints
 62
     0
100
AcDbPoint
 10
383.4276576511695
 20
83.02930830966998
 30
0.0000000000000119
  0
POINT
  5
4D5
330
4CB
100
AcDbEntity
  8
Defpoints
 62
     0
100
AcDbPoint
 10
603.4276576525257
 20
83.16680830776403
 30
0.0
  0
POINT
  5
4D6
330
4CB
100
AcDbEntity
  8
Defpoints
 62
     0
100
AcDbPoint
 10
603.4276576525257
 20
43.61946906525814
 30
0.0000000000000119
  0
ENDBLK
  5
4D7
330
4CB
100
AcDbEntity
  8
0
100
AcDbBlockEnd
  0
BLOCK
  5
4D9
330
4D8
100
AcDbEntity
  8
0
100
AcDbBlockBegin
  2
*D6
 70
     1
 10
0.0
 20
0.0
 30
0.0
  3
*D6
  1

  0
LINE
  5
4DA
330
4D8
100
AcDbEntity
  8
0
 62
     0
370
    -2
100
AcDbLine
 10
238.669163311889
 20
69.79825936817511
 30
0.0000000000000119
 11
238.669163311889
 21
43.43946884846006
 31
0.0000000000000119
  0
LINE
  5
4DB
330
4D8
100
AcDbEntity
  8
0
 62
     0
370
    -2
100
AcDbLine
 10
324.169163311889
 20
77.62347877963613
 30
0.0000000000000119
 11
324.169163311889
 21
43.43946884846006
 31
0.0000000000000119
  0
LINE
  5
4DC
330
4D8
100
AcDbEntity
  8
0
 62
     0
370
    -2
100
AcDbLine
 10
244.669163311889
 20
43.61946884846005
 30
0.0000000000000119
 11
276.8308580864551
 21
43.61946884846005
 31
0.0000000000000119
  0
LINE
  5
4DD
330
4D8
100
AcDbEntity
  8
0
 62
     0
370
    -2
100
AcDbLine
 10
318.169163311889
 20
43.61946884846005
 30
0.0000000000000119
 11
298.0108580864552
 21
43.61946884846005
 31
0.0000000000000119
  0
SOLID
  5
4DE
330
4D8
100
AcDbEntity
  8
0
 62
     0
100
AcDbTrace
 10
244.669163311889
 20
44.61946884846006
 30
0.0000000000000119
 11
244.669163311889
 21
42.61946884846007
 31
0.0000000000000119
 12
238.669163311889
 22
43.61946884846005
 32
0.0000000000000119
 13
238.669163311889
 23
43.61946884846005
 33
0.0000000000000119
  0
SOLID
  5
4DF
330
4D8
100
AcDbEntity
  8
0
 62
     0
100
AcDbTrace
 10
318.169163311889
 20
44.61946884846006
 30
0.0000000000000119
 11
318.169163311889
 21
42.61946884846007
 31
0.0000000000000119
 12
324.169163311889
 22
43.61946884846005
 32
0.0000000000000119
 13
324.169163311889
 23
43.61946884846005
 33
0.0000000000000119
  0
MTEXT
  5
4E0
330
4D8
100
AcDbEntity
  8
0
 62
     0
100
AcDbMText
 10
287.4208580864551
 20
43.61946884846005
 30
0.0000000000000119
 40
7.0
 41
0.0
 71
     5
 72
     1
  1
\A1;85.5
 73
     1
 44
1.0
1001
ACAD
1000
MTEXTBEGIN
1070
    73
1070
     1
1070
    44
1040
1.0
1070
    74
1070
     0
1000
MTEXTEND
  0
POINT
  5
4E1
330
4D8
100
AcDbEntity
  8
Defpoints
 62
     0
100
AcDbPoint
 10
238.669163311889
 20
69.86075936817511
 30
0.0
  0
POINT
  5
4E2
330
4D8
100
AcDbEntity
  8
Defpoints
 62
     0
100
AcDbPoint
 10
324.169163311889
 20
77.68597877963613
 30
0.0
  0
POINT
  5
4E3
330
4D8
100
AcDbEntity
  8
Defpoints
 62
     0
100
AcDbPoint
 10
324.169163311889
 20
43.61946884846005
 30
0.0000000000000119
  0
ENDBLK
  5
4E4
330
4D8
100
AcDbEntity
  8
0
100
AcDbBlockEnd
  0
BLOCK
  5
4E6
330
4E5
100
AcDbEntity
  8
0
100
AcDbBlockBegin
  2
*D7
 70
     1
 10
0.0
 20
0.0
 30
0.0
  3
*D7
  1

  0
LINE
  5
4E7
330
4E5
100
AcDbEntity
  8
0
 62
     0
370
    -2
100
AcDbLine
 10
214.1691633118892
 20
428.2353740456916
 30
-0.0000000000000119
 11
214.1691633118892
 21
445.4053838025272
 31
-0.0000000000000119
  0
LINE
  5
4E8
330
4E5
100
AcDbEntity
  8
0
 62
     0
370
    -2
100
AcDbLine
 10
324.1691633118892
 20
422.193040540271
 30
-0.0000000000000119
 11
324.1691633118892
 21
445.4053838025272
 31
-0.0000000000000119
  0
LINE
  5
4E9
330
4E5
100
AcDbEntity
  8
0
 62
     0
370
    -2
100
AcDbLine
 10
220.1691633118892
 20
445.2253838025272
 30
-0.0000000000000119
 11
259.0337096782016
 21
445.2253838025272
 31
-0.0000000000000119
  0
LINE
  5
4EA
330
4E5
100
AcDbEntity
  8
0
 62
     0
370
    -2
100
AcDbLine
 10
318.1691633118892
 20
445.2253838025272
 30
-0.0000000000000119
 11
280.2137096782015
 21
445.2253838025272
 31
-0.0000000000000119
  0
SOLID
  5
4EB
330
4E5
100
AcDbEntity
  8
0
 62
     0
100
AcDbTrace
 10
220.1691633118892
 20
446.2253838025271
 30
-0.0000000000000119
 11
220.1691633118892
 21
444.2253838025272
 31
-0.0000000000000119
 12
214.1691633118892
 22
445.2253838025272
 32
-0.0000000000000119
 13
214.1691633118892
 23
445.2253838025272
 33
-0.0000000000000119
  0
SOLID
  5
4EC
330
4E5
100
AcDbEntity
  8
0
 62
     0
100
AcDbTrace
 10
318.1691633118892
 20
446.2253838025271
 30
-0.0000000000000119
 11
318.1691633118892
 21
444.2253838025272
 31
-0.0000000000000119
 12
324.1691633118892
 22
445.2253838025272
 32
-0.0000000000000119
 13
324.1691633118892
 23
445.2253838025272
 33
-0.0000000000000119
  0
MTEXT
  5
4ED
330
4E5
100
AcDbEntity
  8
0
 62
     0
100
AcDbMText
 10
269.6237096782015
 20
445.2253838025272
 30
-0.0000000000000119
 40
7.0
 41
0.0
 71
     5
 72
     1
  1
\A1;110.0
 73
     1
 44
1.0
1001
ACAD
1000
MTEXTBEGIN
1070
    73
1070
     1
1070
    44
1040
1.0
1070
    74
1070
     0
1000
MTEXTEND
  0
POINT
  5
4EE
330
4E5
100
AcDbEntity
  8
Defpoints
 62
     0
100
AcDbPoint
 10
214.1691633118892
 20
428.1728740456917
 30
0.0
  0
POINT
  5
4EF
330
4E5
100
AcDbEntity
  8
Defpoints
 62
     0
100
AcDbPoint
 10
324.1691633118892
 20
422.1305405402707
 30
0.0
  0
POINT
  5
4F0
330
4E5
100
AcDbEntity
  8
Defpoints
 62
     0
100
AcDbPoint
 10
324.1691633118892
 20
445.2253838025272
 30
-0.0000000000000119
  0
ENDBLK
  5
4F1
330
4E5
100
AcDbEntity
  8
0
100
AcDbBlockEnd
  0
BLOCK
  5
501
330
500
100
AcDbEntity
  8
0
100
AcDbBlockBegin
  2
*D8
 70
     1
 10
0.0
 20
0.0
 30
0.0
  3
*D8
  1

  0
LINE
  5
1567
330
500
100
AcDbEntity
  8
0
 62
     0
370
    -2
100
AcDbLine
 10
88.8337121639415
 20
26.4845081219394
 30
0.0
 11
9.33212366501292
 21
26.48450812193942
 31
0.0
  0
LINE
  5
1568
330
500
100
AcDbEntity
  8
0
 62
     0
370
    -2
100
AcDbLine
 10
89.37501494578095
 20
646.4741008467179
 30
0.0
 11
9.33212366501306
 21
646.4741008467179
 31
0.0
  0
LINE
  5
1569
330
500
100
AcDbEntity
  8
0
 62
     0
370
    -2
100
AcDbLine
 10
9.512123665012932
 20
32.48450812193943
 30
0.0
 11
9.512123665013012
 21
390.3380501135792
 31
0.0
  0
LINE
  5
156A
330
500
100
AcDbEntity
  8
0
 62
     0
370
    -2
100
AcDbLine
 10
9.512123665013069
 20
640.4741008467177
 30
0.0
 11
9.512123665013014
 21
397.6660719416829
 31
0.0
  0
SOLID
  5
156B
330
500
100
AcDbEntity
  8
0
 62
     0
100
AcDbTrace
 10
8.512123665012932
 20
32.48450812193943
 30
0.0
 11
10.51212366501293
 21
32.48450812193943
 31
0.0
 12
9.512123665012929
 22
26.48450812193942
 32
0.0
 13
9.512123665012929
 23
26.48450812193942
 33
0.0
  0
SOLID
  5
156C
330
500
100
AcDbEntity
  8
0
 62
     0
100
AcDbTrace
 10
8.512123665013067
 20
640.4741008467177
 30
0.0
 11
10.51212366501307
 21
640.4741008467177
 31
0.0
 12
9.512123665013069
 22
646.4741008467179
 32
0.0
 13
9.512123665013069
 23
646.4741008467179
 33
0.0
  0
MTEXT
  5
156D
330
500
100
AcDbEntity
  8
0
 62
     0
100
AcDbMText
 10
9.51212366501295
 20
394.002061027631
 30
0.0
 40
7.0
 41
0.0
 71
     5
 72
     1
  1
\A1;620.0
 73
     1
 44
1.0
1001
ACAD
1000
MTEXTBEGIN
1070
    73
1070
     1
1070
    44
1040
1.0
1070
    74
1070
     0
1000
MTEXTEND
  0
POINT
  5
156E
330
500
100
AcDbEntity
  8
Defpoints
 62
     0
100
AcDbPoint
 10
88.89621216394152
 20
26.4845081219394
 30
0.0
  0
POINT
  5
156F
330
500
100
AcDbEntity
  8
Defpoints
 62
     0
100
AcDbPoint
 10
89.43751494578094
 20
646.4741008467179
 30
0.0
  0
POINT
  5
1570
330
500
100
AcDbEntity
  8
Defpoints
 62
     0
100
AcDbPoint
 10
9.512123665013069
 20
646.4741008467179
 30
0.0
  0
ENDBLK
  5
502
330
500
100
AcDbEntity
  8
0
100
AcDbBlockEnd
  0
BLOCK
  5
50E
330
50D
100
AcDbEntity
  8
0
100
AcDbBlockBegin
  2
*D9
 70
     1
 10
0.0
 20
0.0
 30
0.0
  3
*D9
  1

  0
LINE
  5
1571
330
50D
100
AcDbEntity
  8
0
 62
     0
370
    -2
100
AcDbLine
 10
267.2505413247812
 20
633.7400411568689
 30
-0.0000000000000119
 11
267.2505413247812
 21
679.6999067641579
 31
-0.0000000000000119
  0
LINE
  5
1572
330
50D
100
AcDbEntity
  8
0
 62
     0
370
    -2
100
AcDbLine
 10
422.2505413247811
 20
621.5661763069498
 30
-0.0000000000000119
 11
422.2505413247811
 21
679.6999067641579
 31
-0.0000000000000119
  0
LINE
  5
1573
330
50D
100
AcDbEntity
  8
0
 62
     0
370
    -2
100
AcDbLine
 10
273.2505413247813
 20
679.5199067641576
 30
-0.0000000000000119
 11
338.0500977124909
 21
679.5199067641576
 31
-0.0000000000000119
  0
LINE
  5
1574
330
50D
100
AcDbEntity
  8
0
 62
     0
370
    -2
100
AcDbLine
 10
416.2505413247812
 20
679.5199067641576
 30
-0.0000000000000119
 11
361.1687061708811
 21
679.5199067641576
 31
-0.0000000000000119
  0
SOLID
  5
1575
330
50D
100
AcDbEntity
  8
0
 62
     0
100
AcDbTrace
 10
273.2505413247813
 20
680.5199067641579
 30
-0.0000000000000119
 11
273.2505413247813
 21
678.5199067641577
 31
-0.0000000000000119
 12
267.2505413247812
 22
679.5199067641576
 32
-0.0000000000000119
 13
267.2505413247812
 23
679.5199067641576
 33
-0.0000000000000119
  0
SOLID
  5
1576
330
50D
100
AcDbEntity
  8
0
 62
     0
100
AcDbTrace
 10
416.2505413247812
 20
680.5199067641579
 30
-0.0000000000000119
 11
416.2505413247812
 21
678.5199067641577
 31
-0.0000000000000119
 12
422.2505413247811
 22
679.5199067641576
 32
-0.0000000000000119
 13
422.2505413247811
 23
679.5199067641576
 33
-0.0000000000000119
  0
MTEXT
  5
1577
330
50D
100
AcDbEntity
  8
0
 62
     0
100
AcDbMText
 10
349.609401941686
 20
679.5199067641576
 30
-0.0000000000000119
 40
7.0
 41
0.0
 71
     5
 72
     1
  1
\A1;155.0
 73
     1
 44
1.0
1001
ACAD
1000
MTEXTBEGIN
1070
    73
1070
     1
1070
    44
1040
1.0
1070
    74
1070
     0
1000
MTEXTEND
  0
POINT
  5
1578
330
50D
100
AcDbEntity
  8
Defpoints
 62
     0
100
AcDbPoint
 10
267.2505413247812
 20
633.6775411568688
 30
-0.0000000000000119
  0
POINT
  5
1579
330
50D
100
AcDbEntity
  8
Defpoints
 62
     0
100
AcDbPoint
 10
422.2505413247811
 20
621.5036763069498
 30
0.0
  0
POINT
  5
157A
330
50D
100
AcDbEntity
  8
Defpoints
 62
     0
100
AcDbPoint
 10
422.2505413247811
 20
679.5199067641576
 30
-0.0000000000000119
  0
ENDBLK
  5
50F
330
50D
100
AcDbEntity
  8
0
100
AcDbBlockEnd
  0
BLOCK
  5
51B
330
51A
100
AcDbEntity
  8
0
100
AcDbBlockBegin
  2
*D10
 70
     1
 10
0.0
 20
0.0
 30
0.0
  3
*D10
  1

  0
LINE
  5
157B
330
51A
100
AcDbEntity
  8
0
 62
     0
370
    -2
100
AcDbLine
 10
267.2505413247812
 20
39.33601966402434
 30
-0.0000000000000119
 11
267.2505413247812
 21
13.11154249533303
 31
-0.0000000000000119
  0
LINE
  5
157C
330
51A
100
AcDbEntity
  8
0
 62
     0
370
    -2
100
AcDbLine
 10
352.2505413247812
 20
28.37984451432374
 30
-0.0000000000000119
 11
352.2505413247812
 21
13.11154249533303
 31
-0.0000000000000119
  0
LINE
  5
157D
330
51A
100
AcDbEntity
  8
0
 62
     0
370
    -2
100
AcDbLine
 10
273.2505413247813
 20
13.29154249533303
 30
-0.0000000000000119
 11
302.3407093626487
 21
13.29154249533303
 31
-0.0000000000000119
  0
LINE
  5
157E
330
51A
100
AcDbEntity
  8
0
 62
     0
370
    -2
100
AcDbLine
 10
346.2505413247812
 20
13.29154249533303
 30
-0.0000000000000119
 11
320.6891950379556
 21
13.29154249533303
 31
-0.0000000000000119
  0
SOLID
  5
157F
330
51A
100
AcDbEntity
  8
0
 62
     0
100
AcDbTrace
 10
273.2505413247813
 20
14.29154249533303
 30
-0.0000000000000119
 11
273.2505413247813
 21
12.29154249533303
 31
-0.0000000000000119
 12
267.2505413247812
 22
13.29154249533303
 32
-0.0000000000000119
 13
267.2505413247812
 23
13.29154249533303
 33
-0.0000000000000119
  0
SOLID
  5
1580
330
51A
100
AcDbEntity
  8
0
 62
     0
100
AcDbTrace
 10
346.2505413247812
 20
14.29154249533303
 30
-0.0000000000000119
 11
346.2505413247812
 21
12.29154249533303
 31
-0.0000000000000119
 12
352.2505413247812
 22
13.29154249533303
 32
-0.0000000000000119
 13
352.2505413247812
 23
13.29154249533303
 33
-0.0000000000000119
  0
MTEXT
  5
1581
330
51A
100
AcDbEntity
  8
0
 62
     0
100
AcDbMText
 10
311.5149522003022
 20
13.29154249533303
 30
-0.0000000000000119
 40
7.0
 41
0.0
 71
     5
 72
     1
  1
\A1;85.0
 73
     1
 44
1.0
1001
ACAD
1000
MTEXTBEGIN
1070
    73
1070
     1
1070
    44
1040
1.0
1070
    74
1070
     0
1000
MTEXTEND
  0
POINT
  5
1582
330
51A
100
AcDbEntity
  8
Defpoints
 62
     0
100
AcDbPoint
 10
267.2505413247812
 20
39.39851966402434
 30
-0.0000000000000238
  0
POINT
  5
1583
330
51A
100
AcDbEntity
  8
Defpoints
 62
     0
100
AcDbPoint
 10
352.2505413247812
 20
28.44234451432374
 30
0.0
  0
POINT
  5
1584
330
51A
100
AcDbEntity
  8
Defpoints
 62
     0
100
AcDbPoint
 10
352.2505413247812
 20
13.29154249533303
 30
-0.0000000000000119
  0
ENDBLK
  5
51C
330
51A
100
AcDbEntity
  8
0
100
AcDbBlockEnd
  0
BLOCK
  5
528
330
527
100
AcDbEntity
  8
0
100
AcDbBlockBegin
  2
*D11
 70
     1
 10
0.0
 20
0.0
 30
0.0
  3
*D11
  1

  0
LINE
  5
1585
330
527
100
AcDbEntity
  8
0
 62
     0
370
    -2
100
AcDbLine
 10
76.09940612242329
 20
633.3449286582057
 30
0.0000000000000119
 11
76.09940612242329
 21
680.9502832830193
 31
0.0000000000000119
  0
LINE
  5
1586
330
527
100
AcDbEntity
  8
0
 62
     0
370
    -2
100
AcDbLine
 10
224.0994061237794
 20
633.1475652064908
 30
0.0000000000000119
 11
224.0994061237794
 21
680.9502832830193
 31
0.0000000000000119
  0
LINE
  5
1587
330
527
100
AcDbEntity
  8
0
 62
     0
370
    -2
100
AcDbLine
 10
82.09940612242329
 20
680.7702832830194
 30
0.0000000000000119
 11
138.5401018939062
 21
680.7702832830194
 31
0.0000000000000119
  0
LINE
  5
1588
330
527
100
AcDbEntity
  8
0
 62
     0
370
    -2
100
AcDbLine
 10
218.0994061237794
 20
680.7702832830194
 30
0.0000000000000119
 11
161.6587103522964
 21
680.7702832830194
 31
0.0000000000000119
  0
SOLID
  5
1589
330
527
100
AcDbEntity
  8
0
 62
     0
100
AcDbTrace
 10
82.09940612242329
 20
681.7702832830192
 30
0.0000000000000119
 11
82.09940612242329
 21
679.7702832830192
 31
0.0000000000000119
 12
76.09940612242329
 22
680.7702832830194
 32
0.0000000000000119
 13
76.09940612242329
 23
680.7702832830194
 33
0.0000000000000119
  0
SOLID
  5
158A
330
527
100
AcDbEntity
  8
0
 62
     0
100
AcDbTrace
 10
218.0994061237794
 20
681.7702832830192
 30
0.0000000000000119
 11
218.0994061237794
 21
679.7702832830192
 31
0.0000000000000119
 12
224.0994061237794
 22
680.7702832830194
 32
0.0000000000000119
 13
224.0994061237794
 23
680.7702832830194
 33
0.0000000000000119
  0
MTEXT
  5
158B
330
527
100
AcDbEntity
  8
0
 62
     0
100
AcDbMText
 10
150.0994061231013
 20
680.7702832830194
 30
0.0000000000000119
 40
7.0
 41
0.0
 71
     5
 72
     1
  1
\A1;148.0
 73
     1
 44
1.0
1001
ACAD
1000
MTEXTBEGIN
1070
    73
1070
     1
1070
    44
1040
1.0
1070
    74
1070
     0
1000
MTEXTEND
  0
POINT
  5
158C
330
527
100
AcDbEntity
  8
Defpoints
 62
     0
100
AcDbPoint
 10
76.09940612242329
 20
633.2824286582057
 30
0.0
  0
POINT
  5
158D
330
527
100
AcDbEntity
  8
Defpoints
 62
     0
100
AcDbPoint
 10
224.0994061237794
 20
633.085065206491
 30
0.0
  0
POINT
  5
158E
330
527
100
AcDbEntity
  8
Defpoints
 62
     0
100
AcDbPoint
 10
224.0994061237794
 20
680.7702832830194
 30
0.0000000000000119
  0
ENDBLK
  5
529
330
527
100
AcDbEntity
  8
0
100
AcDbBlockEnd
  0
BLOCK
  5
883
330
882
100
AcDbEntity
  8
0
100
AcDbBlockBegin
  2
*D12
 70
     1
 10
0.0
 20
0.0
 30
0.0
  3
*D12
  1

  0
LINE
  5
884
330
882
100
AcDbEntity
  8
0
 62
     0
370
    -2
100
AcDbLine
 10
85.03657122900344
 20
609.8152993040422
 30
0.0
 11
-139.4063265168066
 21
609.8152993040422
 31
0.0
  0
LINE
  5
885
330
882
100
AcDbEntity
  8
0
 62
     0
370
    -2
100
AcDbLine
 10
85.03657122900344
 20
54.61839062140761
 30
0.0
 11
-139.4063265168067
 21
54.61839062140768
 31
0.0
  0
LINE
  5
886
330
882
100
AcDbEntity
  8
0
 62
     0
370
    -2
100
AcDbLine
 10
-138.1563265168066
 20
607.3152993040422
 30
0.0
 11
-138.1563265168068
 21
57.11839062140768
 31
0.0
  0
SOLID
  5
887
330
882
100
AcDbEntity
  8
0
 62
     0
100
AcDbTrace
 10
-138.5729931834733
 20
607.3152993040422
 30
0.0
 11
-137.73965985014
 21
607.3152993040422
 31
0.0
 12
-138.1563265168066
 22
609.8152993040422
 32
0.0
 13
-138.1563265168066
 23
609.8152993040422
 33
0.0
  0
SOLID
  5
888
330
882
100
AcDbEntity
  8
0
 62
     0
100
AcDbTrace
 10
-138.5729931834734
 20
57.11839062140768
 30
0.0
 11
-137.7396598501401
 21
57.11839062140768
 31
0.0
 12
-138.1563265168068
 22
54.61839062140768
 32
0.0
 13
-138.1563265168068
 23
54.61839062140768
 33
0.0
  0
MTEXT
  5
889
330
882
100
AcDbEntity
  8
0
 62
     0
100
AcDbMText
 10
-140.2837139656471
 20
332.216844962725
 30
0.0
 40
2.5
 41
0.0
 71
     5
 72
     1
  1
555,2
 11
0.0000000000000001
 21
1.0
 31
0.0
 73
     1
 44
1.0
1001
ACAD
1000
MTEXTBEGIN
1070
    73
1070
     1
1070
    44
1040
1.0
1070
    74
1070
     0
1000
MTEXTEND
  0
POINT
  5
88A
330
882
100
AcDbEntity
  8
Defpoints
 62
     0
100
AcDbPoint
 10
85.66157122900344
 20
609.8152993040422
 30
0.0
  0
POINT
  5
88B
330
882
100
AcDbEntity
  8
Defpoints
 62
     0
100
AcDbPoint
 10
85.66157122900344
 20
54.61839062140761
 30
0.0
  0
POINT
  5
88C
330
882
100
AcDbEntity
  8
Defpoints
 62
     0
100
AcDbPoint
 10
-138.1563265168068
 20
54.61839062140768
 30
0.0
  0
ENDBLK
  5
88D
330
882
100
AcDbEntity
  8
0
100
AcDbBlockEnd
  0
BLOCK
  5
88F
330
88E
100
AcDbEntity
  8
0
100
AcDbBlockBegin
  2
*D13
 70
     1
 10
0.0
 20
0.0
 30
0.0
  3
*D13
  1

  0
LINE
  5
890
330
88E
100
AcDbEntity
  8
0
 62
     0
370
    -2
100
AcDbLine
 10
589.9879839047587
 20
69.97604050653712
 30
0.0
 11
648.9886682629237
 21
69.9760405065371
 31
0.0
  0
LINE
  5
891
330
88E
100
AcDbEntity
  8
0
 62
     0
370
    -2
100
AcDbLine
 10
590.3053609373147
 20
429.9744905080395
 30
0.0
 11
648.9886682629243
 21
429.9744905080395
 31
0.0
  0
LINE
  5
892
330
88E
100
AcDbEntity
  8
0
 62
     0
370
    -2
100
AcDbLine
 10
648.8086682629241
 20
75.97604050653711
 30
0.0
 11
648.8086682629241
 21
237.3793279446672
 31
0.0
  0
LINE
  5
893
330
88E
100
AcDbEntity
  8
0
 62
     0
370
    -2
100
AcDbLine
 10
648.8086682629242
 20
423.9744905080394
 30
0.0
 11
648.8086682629241
 21
244.5593279446672
 31
0.0
  0
SOLID
  5
894
330
88E
100
AcDbEntity
  8
0
 62
     0
100
AcDbTrace
 10
647.8086682629241
 20
75.97604050653711
 30
0.0
 11
649.8086682629241
 21
75.97604050653711
 31
0.0
 12
648.8086682629241
 22
69.9760405065371
 32
0.0
 13
648.8086682629241
 23
69.9760405065371
 33
0.0
  0
SOLID
  5
895
330
88E
100
AcDbEntity
  8
0
 62
     0
100
AcDbTrace
 10
647.8086682629242
 20
423.9744905080394
 30
0.0
 11
649.8086682629242
 21
423.9744905080394
 31
0.0
 12
648.8086682629242
 22
429.9744905080395
 32
0.0
 13
648.8086682629242
 23
429.9744905080395
 33
0.0
  0
MTEXT
  5
896
330
88E
100
AcDbEntity
  8
0
 62
     0
100
AcDbMText
 10
648.8086682629241
 20
240.9693279446673
 30
0.0
 40
7.0
 41
0.0
 71
     5
 72
     1
  1
\A1;360.0
 73
     1
 44
1.0
1001
ACAD
1000
MTEXTBEGIN
1070
    73
1070
     1
1070
    44
1040
1.0
1070
    74
1070
     0
1000
MTEXTEND
  0
POINT
  5
897
330
88E
100
AcDbEntity
  8
Defpoints
 62
     0
100
AcDbPoint
 10
589.9254839047586
 20
69.97604050653712
 30
-0.0000000000000119
  0
POINT
  5
898
330
88E
100
AcDbEntity
  8
Defpoints
 62
     0
100
AcDbPoint
 10
590.2428609373147
 20
429.9744905080395
 30
0.0
  0
POINT
  5
899
330
88E
100
AcDbEntity
  8
Defpoints
 62
     0
100
AcDbPoint
 10
648.8086682629242
 20
429.9744905080395
 30
0.0
  0
ENDBLK
  5
89A
330
88E
100
AcDbEntity
  8
0
100
AcDbBlockEnd
  0
BLOCK
  5
89C
330
89B
100
AcDbEntity
  8
0
100
AcDbBlockBegin
  2
*D14
 70
     1
 10
0.0
 20
0.0
 30
0.0
  3
*D14
  1

  0
LINE
  5
89D
330
89B
100
AcDbEntity
  8
0
 62
     0
370
    -2
100
AcDbLine
 10
383.4276576511695
 20
82.96680830966996
 30
0.0000000000000119
 11
383.4276576511695
 21
43.43946906525814
 31
0.0000000000000119
  0
LINE
  5
89E
330
89B
100
AcDbEntity
  8
0
 62
     0
370
    -2
100
AcDbLine
 10
603.4276576525257
 20
83.10430830776404
 30
0.0000000000000119
 11
603.4276576525257
 21
43.43946906525814
 31
0.0000000000000119
  0
LINE
  5
89F
330
89B
100
AcDbEntity
  8
0
 62
     0
370
    -2
100
AcDbLine
 10
389.4276576511695
 20
43.61946906525814
 30
0.0000000000000119
 11
479.2957128513265
 21
43.61946906525814
 31
0.0000000000000119
  0
LINE
  5
8A0
330
89B
100
AcDbEntity
  8
0
 62
     0
370
    -2
100
AcDbLine
 10
597.4276576525256
 20
43.61946906525814
 30
0.0000000000000119
 11
505.1423795179931
 21
43.61946906525814
 31
0.0000000000000119
  0
SOLID
  5
8A1
330
89B
100
AcDbEntity
  8
0
 62
     0
100
AcDbTrace
 10
389.4276576511695
 20
44.61946906525812
 30
0.0000000000000119
 11
389.4276576511695
 21
42.61946906525813
 31
0.0000000000000119
 12
383.4276576511695
 22
43.61946906525814
 32
0.0000000000000119
 13
383.4276576511695
 23
43.61946906525814
 33
0.0000000000000119
  0
SOLID
  5
8A2
330
89B
100
AcDbEntity
  8
0
 62
     0
100
AcDbTrace
 10
597.4276576525256
 20
44.61946906525812
 30
0.0000000000000119
 11
597.4276576525256
 21
42.61946906525813
 31
0.0000000000000119
 12
603.4276576525257
 22
43.61946906525814
 32
0.0000000000000119
 13
603.4276576525257
 23
43.61946906525814
 33
0.0000000000000119
  0
MTEXT
  5
8A3
330
89B
100
AcDbEntity
  8
0
 62
     0
100
AcDbMText
 10
492.2190461846596
 20
43.61946906525814
 30
0.0000000000000119
 40
7.0
 41
0.0
 71
     5
 72
     1
  1
\A1;220.0
 73
     1
 44
1.0
1001
ACAD
1000
MTEXTBEGIN
1070
    73
1070
     1
1070
    44
1040
1.0
1070
    74
1070
     0
1000
MTEXTEND
  0
POINT
  5
8A4
330
89B
100
AcDbEntity
  8
Defpoints
 62
     0
100
AcDbPoint
 10
383.4276576511695
 20
83.02930830966998
 30
0.0000000000000119
  0
POINT
  5
8A5
330
89B
100
AcDbEntity
  8
Defpoints
 62
     0
100
AcDbPoint
 10
603.4276576525257
 20
83.16680830776403
 30
0.0
  0
POINT
  5
8A6
330
89B
100
AcDbEntity
  8
Defpoints
 62
     0
100
AcDbPoint
 10
603.4276576525257
 20
43.61946906525814
 30
0.0000000000000119
  0
ENDBLK
  5
8A7
330
89B
100
AcDbEntity
  8
0
100
AcDbBlockEnd
  0
BLOCK
  5
8A9
330
8A8
100
AcDbEntity
  8
0
100
AcDbBlockBegin
  2
*D15
 70
     1
 10
0.0
 20
0.0
 30
0.0
  3
*D15
  1

  0
LINE
  5
8AA
330
8A8
100
AcDbEntity
  8
0
 62
     0
370
    -2
100
AcDbLine
 10
238.669163311889
 20
69.79825936817511
 30
0.0000000000000119
 11
238.669163311889
 21
43.43946884846006
 31
0.0000000000000119
  0
LINE
  5
8AB
330
8A8
100
AcDbEntity
  8
0
 62
     0
370
    -2
100
AcDbLine
 10
324.169163311889
 20
77.62347877963613
 30
0.0000000000000119
 11
324.169163311889
 21
43.43946884846006
 31
0.0000000000000119
  0
LINE
  5
8AC
330
8A8
100
AcDbEntity
  8
0
 62
     0
370
    -2
100
AcDbLine
 10
244.669163311889
 20
43.61946884846005
 30
0.0000000000000119
 11
276.8308580864551
 21
43.61946884846005
 31
0.0000000000000119
  0
LINE
  5
8AD
330
8A8
100
AcDbEntity
  8
0
 62
     0
370
    -2
100
AcDbLine
 10
318.169163311889
 20
43.61946884846005
 30
0.0000000000000119
 11
298.0108580864552
 21
43.61946884846005
 31
0.0000000000000119
  0
SOLID
  5
8AE
330
8A8
100
AcDbEntity
  8
0
 62
     0
100
AcDbTrace
 10
244.669163311889
 20
44.61946884846006
 30
0.0000000000000119
 11
244.669163311889
 21
42.61946884846007
 31
0.0000000000000119
 12
238.669163311889
 22
43.61946884846005
 32
0.0000000000000119
 13
238.669163311889
 23
43.61946884846005
 33
0.0000000000000119
  0
SOLID
  5
8AF
330
8A8
100
AcDbEntity
  8
0
 62
     0
100
AcDbTrace
 10
318.169163311889
 20
44.61946884846006
 30
0.0000000000000119
 11
318.169163311889
 21
42.61946884846007
 31
0.0000000000000119
 12
324.169163311889
 22
43.61946884846005
 32
0.0000000000000119
 13
324.169163311889
 23
43.61946884846005
 33
0.0000000000000119
  0
MTEXT
  5
8B0
330
8A8
100
AcDbEntity
  8
0
 62
     0
100
AcDbMText
 10
287.4208580864551
 20
43.61946884846005
 30
0.0000000000000119
 40
7.0
 41
0.0
 71
     5
 72
     1
  1
\A1;85.5
 73
     1
 44
1.0
1001
ACAD
1000
MTEXTBEGIN
1070
    73
1070
     1
1070
    44
1040
1.0
1070
    74
1070
     0
1000
MTEXTEND
  0
POINT
  5
8B1
330
8A8
100
AcDbEntity
  8
Defpoints
 62
     0
100
AcDbPoint
 10
238.669163311889
 20
69.86075936817511
 30
0.0
  0
POINT
  5
8B2
330
8A8
100
AcDbEntity
  8
Defpoints
 62
     0
100
AcDbPoint
 10
324.169163311889
 20
77.68597877963613
 30
0.0
  0
POINT
  5
8B3
330
8A8
100
AcDbEntity
  8
Defpoints
 62
     0
100
AcDbPoint
 10
324.169163311889
 20
43.61946884846005
 30
0.0000000000000119
  0
ENDBLK
  5
8B4
330
8A8
100
AcDbEntity
  8
0
100
AcDbBlockEnd
  0
BLOCK
  5
8B6
330
8B5
100
AcDbEntity
  8
0
100
AcDbBlockBegin
  2
*D16
 70
     1
 10
0.0
 20
0.0
 30
0.0
  3
*D16
  1

  0
LINE
  5
8B7
330
8B5
100
AcDbEntity
  8
0
 62
     0
370
    -2
100
AcDbLine
 10
214.1691633118892
 20
428.2353740456916
 30
-0.0000000000000119
 11
214.1691633118892
 21
445.4053838025272
 31
-0.0000000000000119
  0
LINE
  5
8B8
330
8B5
100
AcDbEntity
  8
0
 62
     0
370
    -2
100
AcDbLine
 10
324.1691633118892
 20
422.193040540271
 30
-0.0000000000000119
 11
324.1691633118892
 21
445.4053838025272
 31
-0.0000000000000119
  0
LINE
  5
8B9
330
8B5
100
AcDbEntity
  8
0
 62
     0
370
    -2
100
AcDbLine
 10
220.1691633118892
 20
445.2253838025272
 30
-0.0000000000000119
 11
259.0337096782016
 21
445.2253838025272
 31
-0.0000000000000119
  0
LINE
  5
8BA
330
8B5
100
AcDbEntity
  8
0
 62
     0
370
    -2
100
AcDbLine
 10
318.1691633118892
 20
445.2253838025272
 30
-0.0000000000000119
 11
280.2137096782015
 21
445.2253838025272
 31
-0.0000000000000119
  0
SOLID
  5
8BB
330
8B5
100
AcDbEntity
  8
0
 62
     0
100
AcDbTrace
 10
220.1691633118892
 20
446.2253838025271
 30
-0.0000000000000119
 11
220.1691633118892
 21
444.2253838025272
 31
-0.0000000000000119
 12
214.1691633118892
 22
445.2253838025272
 32
-0.0000000000000119
 13
214.1691633118892
 23
445.2253838025272
 33
-0.0000000000000119
  0
SOLID
  5
8BC
330
8B5
100
AcDbEntity
  8
0
 62
     0
100
AcDbTrace
 10
318.1691633118892
 20
446.2253838025271
 30
-0.0000000000000119
 11
318.1691633118892
 21
444.2253838025272
 31
-0.0000000000000119
 12
324.1691633118892
 22
445.2253838025272
 32
-0.0000000000000119
 13
324.1691633118892
 23
445.2253838025272
 33
-0.0000000000000119
  0
MTEXT
  5
8BD
330
8B5
100
AcDbEntity
  8
0
 62
     0
100
AcDbMText
 10
269.6237096782015
 20
445.2253838025272
 30
-0.0000000000000119
 40
7.0
 41
0.0
 71
     5
 72
     1
  1
\A1;110.0
 73
     1
 44
1.0
1001
ACAD
1000
MTEXTBEGIN
1070
    73
1070
     1
1070
    44
1040
1.0
1070
    74
1070
     0
1000
MTEXTEND
  0
POINT
  5
8BE
330
8B5
100
AcDbEntity
  8
Defpoints
 62
     0
100
AcDbPoint
 10
214.1691633118892
 20
428.1728740456917
 30
0.0
  0
POINT
  5
8BF
330
8B5
100
AcDbEntity
  8
Defpoints
 62
     0
100
AcDbPoint
 10
324.1691633118892
 20
422.1305405402707
 30
0.0
  0
POINT
  5
8C0
330
8B5
100
AcDbEntity
  8
Defpoints
 62
     0
100
AcDbPoint
 10
324.1691633118892
 20
445.2253838025272
 30
-0.0000000000000119
  0
ENDBLK
  5
8C1
330
8B5
100
AcDbEntity
  8
0
100
AcDbBlockEnd
  0
BLOCK
  5
8C3
330
8C2
100
AcDbEntity
  8
0
100
AcDbBlockBegin
  2
*D17
 70
     1
 10
0.0
 20
0.0
 30
0.0
  3
*D17
  1

  0
LINE
  5
8C4
330
8C2
100
AcDbEntity
  8
0
 62
     0
370
    -2
100
AcDbLine
 10
68.41701110891126
 20
10.27182647884498
 30
0.0
 11
9.686668926213556
 21
10.271826478845
 31
0.0
  0
LINE
  5
8C5
330
8C2
100
AcDbEntity
  8
0
 62
     0
370
    -2
100
AcDbLine
 10
68.35451110954284
 20
565.2709194141611
 30
0.0
 11
9.686668926213679
 21
565.2709194141611
 31
0.0
  0
LINE
  5
8C6
330
8C2
100
AcDbEntity
  8
0
 62
     0
370
    -2
100
AcDbLine
 10
9.866668926213559
 20
16.271826478845
 30
0.0
 11
9.866668926213632
 21
354.376752313913
 31
0.0
  0
LINE
  5
8C7
330
8C2
100
AcDbEntity
  8
0
 62
     0
370
    -2
100
AcDbLine
 10
9.866668926213678
 20
559.2709194141612
 30
0.0
 11
9.866668926213636
 21
361.7047741420167
 31
0.0
  0
SOLID
  5
8C8
330
8C2
100
AcDbEntity
  8
0
 62
     0
100
AcDbTrace
 10
8.866668926213556
 20
16.271826478845
 30
0.0
 11
10.86666892621356
 21
16.271826478845
 31
0.0
 12
9.866668926213556
 22
10.271826478845
 32
0.0
 13
9.866668926213556
 23
10.271826478845
 33
0.0
  0
SOLID
  5
8C9
330
8C2
100
AcDbEntity
  8
0
 62
     0
100
AcDbTrace
 10
8.866668926213678
 20
559.2709194141612
 30
0.0
 11
10.86666892621368
 21
559.2709194141612
 31
0.0
 12
9.866668926213682
 22
565.2709194141611
 32
0.0
 13
9.866668926213682
 23
565.2709194141611
 33
0.0
  0
MTEXT
  5
8CA
330
8C2
100
AcDbEntity
  8
0
 62
     0
100
AcDbMText
 10
9.866668926213575
 20
358.0407632279648
 30
0.0
 40
7.0
 41
0.0
 71
     5
 72
     1
  1
\A1;555.0
 73
     1
 44
1.0
1001
ACAD
1000
MTEXTBEGIN
1070
    73
1070
     1
1070
    44
1040
1.0
1070
    74
1070
     0
1000
MTEXTEND
  0
POINT
  5
8CB
330
8C2
100
AcDbEntity
  8
Defpoints
 62
     0
100
AcDbPoint
 10
68.47951110891125
 20
10.27182647884498
 30
0.0
  0
POINT
  5
8CC
330
8C2
100
AcDbEntity
  8
Defpoints
 62
     0
100
AcDbPoint
 10
68.41701110954284
 20
565.2709194141611
 30
0.0
  0
POINT
  5
8CD
330
8C2
100
AcDbEntity
  8
Defpoints
 62
     0
100
AcDbPoint
 10
9.866668926213682
 20
565.2709194141611
 30
0.0
  0
ENDBLK
  5
8CE
330
8C2
100
AcDbEntity
  8
0
100
AcDbBlockEnd
  0
BLOCK
  5
8D0
330
8CF
100
AcDbEntity
  8
0
100
AcDbBlockBegin
  2
*D18
 70
     1
 10
0.0
 20
0.0
 30
0.0
  3
*D18
  1

  0
LINE
  5
8D1
330
8CF
100
AcDbEntity
  8
0
 62
     0
370
    -2
100
AcDbLine
 10
251.0204239983799
 20
552.7351275692227
 30
-0.0000000000000119
 11
251.0204239983799
 21
598.6949931765117
 31
-0.0000000000000119
  0
LINE
  5
8D2
330
8CF
100
AcDbEntity
  8
0
 62
     0
370
    -2
100
AcDbLine
 10
406.0204239983798
 20
540.5612627193041
 30
-0.0000000000000119
 11
406.0204239983798
 21
598.6949931765117
 31
-0.0000000000000119
  0
LINE
  5
8D3
330
8CF
100
AcDbEntity
  8
0
 62
     0
370
    -2
100
AcDbLine
 10
257.0204239983799
 20
598.5149931765118
 30
-0.0000000000000119
 11
321.8199803860895
 21
598.5149931765118
 31
-0.0000000000000119
  0
LINE
  5
8D4
330
8CF
100
AcDbEntity
  8
0
 62
     0
370
    -2
100
AcDbLine
 10
400.0204239983799
 20
598.5149931765118
 30
-0.0000000000000119
 11
344.9385888444798
 21
598.5149931765118
 31
-0.0000000000000119
  0
SOLID
  5
8D5
330
8CF
100
AcDbEntity
  8
0
 62
     0
100
AcDbTrace
 10
257.0204239983799
 20
599.5149931765118
 30
-0.0000000000000119
 11
257.0204239983799
 21
597.5149931765117
 31
-0.0000000000000119
 12
251.0204239983799
 22
598.5149931765118
 32
-0.0000000000000119
 13
251.0204239983799
 23
598.5149931765118
 33
-0.0000000000000119
  0
SOLID
  5
8D6
330
8CF
100
AcDbEntity
  8
0
 62
     0
100
AcDbTrace
 10
400.0204239983799
 20
599.5149931765118
 30
-0.0000000000000119
 11
400.0204239983799
 21
597.5149931765117
 31
-0.0000000000000119
 12
406.0204239983798
 22
598.5149931765118
 32
-0.0000000000000119
 13
406.0204239983798
 23
598.5149931765118
 33
-0.0000000000000119
  0
MTEXT
  5
8D7
330
8CF
100
AcDbEntity
  8
0
 62
     0
100
AcDbMText
 10
333.3792846152846
 20
598.5149931765118
 30
-0.0000000000000119
 40
7.0
 41
0.0
 71
     5
 72
     1
  1
\A1;155.0
 73
     1
 44
1.0
1001
ACAD
1000
MTEXTBEGIN
1070
    73
1070
     1
1070
    44
1040
1.0
1070
    74
1070
     0
1000
MTEXTEND
  0
POINT
  5
8D8
330
8CF
100
AcDbEntity
  8
Defpoints
 62
     0
100
AcDbPoint
 10
251.0204239983799
 20
552.6726275692229
 30
-0.0000000000000119
  0
POINT
  5
8D9
330
8CF
100
AcDbEntity
  8
Defpoints
 62
     0
100
AcDbPoint
 10
406.0204239983798
 20
540.4987627193038
 30
0.0
  0
POINT
  5
8DA
330
8CF
100
AcDbEntity
  8
Defpoints
 62
     0
100
AcDbPoint
 10
406.0204239983798
 20
598.5149931765118
 30
-0.0000000000000119
  0
ENDBLK
  5
8DB
330
8CF
100
AcDbEntity
  8
0
100
AcDbBlockEnd
  0
BLOCK
  5
8DD
330
8DC
100
AcDbEntity
  8
0
100
AcDbBlockBegin
  2
*D19
 70
     1
 10
0.0
 20
0.0
 30
0.0
  3
*D19
  1

  0
LINE
  5
8DE
330
8DC
100
AcDbEntity
  8
0
 62
     0
370
    -2
100
AcDbLine
 10
251.0204239983799
 20
23.1337578087438
 30
-0.0000000000000119
 11
251.0204239983799
 21
-3.090719359947506
 31
-0.0000000000000119
  0
LINE
  5
8DF
330
8DC
100
AcDbEntity
  8
0
 62
     0
370
    -2
100
AcDbLine
 10
336.0204239983799
 20
12.1775826590432
 30
-0.0000000000000119
 11
336.0204239983799
 21
-3.090719359947506
 31
-0.0000000000000119
  0
LINE
  5
8E0
330
8DC
100
AcDbEntity
  8
0
 62
     0
370
    -2
100
AcDbLine
 10
257.0204239983799
 20
-2.910719359947506
 30
-0.0000000000000119
 11
286.1105920362474
 21
-2.910719359947506
 31
-0.0000000000000119
  0
LINE
  5
8E1
330
8DC
100
AcDbEntity
  8
0
 62
     0
370
    -2
100
AcDbLine
 10
330.0204239983798
 20
-2.910719359947506
 30
-0.0000000000000119
 11
304.4590777115542
 21
-2.910719359947506
 31
-0.0000000000000119
  0
SOLID
  5
8E2
330
8DC
100
AcDbEntity
  8
0
 62
     0
100
AcDbTrace
 10
257.0204239983799
 20
-1.910719359947504
 30
-0.0000000000000119
 11
257.0204239983799
 21
-3.910719359947506
 31
-0.0000000000000119
 12
251.0204239983799
 22
-2.910719359947506
 32
-0.0000000000000119
 13
251.0204239983799
 23
-2.910719359947506
 33
-0.0000000000000119
  0
SOLID
  5
8E3
330
8DC
100
AcDbEntity
  8
0
 62
     0
100
AcDbTrace
 10
330.0204239983798
 20
-1.910719359947504
 30
-0.0000000000000119
 11
330.0204239983798
 21
-3.910719359947506
 31
-0.0000000000000119
 12
336.0204239983799
 22
-2.910719359947506
 32
-0.0000000000000119
 13
336.0204239983799
 23
-2.910719359947506
 33
-0.0000000000000119
  0
MTEXT
  5
8E4
330
8DC
100
AcDbEntity
  8
0
 62
     0
100
AcDbMText
 10
295.2848348739008
 20
-2.910719359947506
 30
-0.0000000000000119
 40
7.0
 41
0.0
 71
     5
 72
     1
  1
\A1;85.0
 73
     1
 44
1.0
1001
ACAD
1000
MTEXTBEGIN
1070
    73
1070
     1
1070
    44
1040
1.0
1070
    74
1070
     0
1000
MTEXTEND
  0
POINT
  5
8E5
330
8DC
100
AcDbEntity
  8
Defpoints
 62
     0
100
AcDbPoint
 10
251.0204239983799
 20
23.1962578087438
 30
-0.0000000000000238
  0
POINT
  5
8E6
330
8DC
100
AcDbEntity
  8
Defpoints
 62
     0
100
AcDbPoint
 10
336.0204239983799
 20
12.2400826590432
 30
0.0
  0
POINT
  5
8E7
330
8DC
100
AcDbEntity
  8
Defpoints
 62
     0
100
AcDbPoint
 10
336.0204239983799
 20
-2.910719359947506
 30
-0.0000000000000119
  0
ENDBLK
  5
8E8
330
8DC
100
AcDbEntity
  8
0
100
AcDbBlockEnd
  0
BLOCK
  5
8EA
330
8E9
100
AcDbEntity
  8
0
100
AcDbBlockBegin
  2
*D20
 70
     1
 10
0.0
 20
0.0
 30
0.0
  3
*D20
  1

  0
LINE
  5
8EB
330
8E9
100
AcDbEntity
  8
0
 62
     0
370
    -2
100
AcDbLine
 10
54.97733781755504
 20
552.0801516207511
 30
0.0000000000000119
 11
54.97733781755504
 21
589.3227802624027
 31
0.0000000000000119
  0
LINE
  5
8EC
330
8E9
100
AcDbEntity
  8
0
 62
     0
370
    -2
100
AcDbLine
 10
202.9773378189112
 20
552.142651618845
 30
0.0000000000000119
 11
202.9773378189112
 21
589.3227802624027
 31
0.0000000000000119
  0
LINE
  5
8ED
330
8E9
100
AcDbEntity
  8
0
 62
     0
370
    -2
100
AcDbLine
 10
60.97733781755504
 20
589.1427802624027
 30
0.0000000000000119
 11
117.0601604952459
 21
589.1427802624027
 31
0.0000000000000119
  0
LINE
  5
8EE
330
8E9
100
AcDbEntity
  8
0
 62
     0
370
    -2
100
AcDbLine
 10
196.9773378189112
 20
589.1427802624027
 30
0.0000000000000119
 11
140.1787689536361
 21
589.1427802624027
 31
0.0000000000000119
  0
SOLID
  5
8EF
330
8E9
100
AcDbEntity
  8
0
 62
     0
100
AcDbTrace
 10
60.97733781755504
 20
590.142780262403
 30
0.0000000000000119
 11
60.97733781755504
 21
588.1427802624028
 31
0.0000000000000119
 12
54.97733781755504
 22
589.1427802624027
 32
0.0000000000000119
 13
54.97733781755504
 23
589.1427802624027
 33
0.0000000000000119
  0
SOLID
  5
8F0
330
8E9
100
AcDbEntity
  8
0
 62
     0
100
AcDbTrace
 10
196.9773378189112
 20
590.142780262403
 30
0.0000000000000119
 11
196.9773378189112
 21
588.1427802624028
 31
0.0000000000000119
 12
202.9773378189112
 22
589.1427802624027
 32
0.0000000000000119
 13
202.9773378189112
 23
589.1427802624027
 33
0.0000000000000119
  0
MTEXT
  5
8F1
330
8E9
100
AcDbEntity
  8
0
 62
     0
100
AcDbMText
 10
128.619464724441
 20
589.1427802624027
 30
0.0000000000000119
 40
7.0
 41
0.0
 71
     5
 72
     1
  1
\A1;148.0
 73
     1
 44
1.0
1001
ACAD
1000
MTEXTBEGIN
1070
    73
1070
     1
1070
    44
1040
1.0
1070
    74
1070
     0
1000
MTEXTEND
  0
POINT
  5
8F2
330
8E9
100
AcDbEntity
  8
Defpoints
 62
     0
100
AcDbPoint
 10
54.97733781755504
 20
552.017651620751
 30
0.0000000000000238
  0
POINT
  5
8F3
330
8E9
100
AcDbEntity
  8
Defpoints
 62
     0
100
AcDbPoint
 10
202.9773378189112
 20
552.0801516188448
 30
0.0
  0
POINT
  5
8F4
330
8E9
100
AcDbEntity
  8
Defpoints
 62
     0
100
AcDbPoint
 10
202.9773378189112
 20
589.1427802624027
 30
0.0000000000000119
  0
ENDBLK
  5
8F5
330
8E9
100
AcDbEntity
  8
0
100
AcDbBlockEnd
  0
BLOCK
  5
9A9
330
8F6
100
AcDbEntity
  8
0
100
AcDbBlockBegin
  2
GW66696
 70
     0
 10
0.0
 20
0.0
 30
0.0
  3
GW66696
  1

  0
LINE
  5
8F7
330
8F6
100
AcDbEntity
  8
0
 62
     7
100
AcDbLine
 10
333.8408581301165
 20
10.27182667101925
 30
0.0
 11
334.9264868726314
 21
10.48230571293541
 31
0.0
  0
LINE
  5
8F8
330
8F6
100
AcDbEntity
  8
0
 62
     7
100
AcDbLine
 10
334.9264868726314
 20
10.48230571293541
 30
0.0
 11
335.5828491480805
 21
11.14337607221686
 31
0.0
  0
LINE
  5
8F9
330
8F6
100
AcDbEntity
  8
0
 62
     7
100
AcDbLine
 10
335.5828491480805
 20
11.14337607221686
 30
0.0
 11
336.0204239983799
 21
12.2400826590432
 31
0.0
  0
LINE
  5
8FA
330
8F6
100
AcDbEntity
  8
0
 62
     7
100
AcDbLine
 10
252.9756635193381
 20
12.2400826590432
 30
0.0
 11
253.1972204055656
 21
11.14337607221686
 31
0.0
  0
LINE
  5
8FB
330
8F6
100
AcDbEntity
  8
0
 62
     7
100
AcDbLine
 10
253.1972204055656
 20
11.14337607221686
 30
0.0
 11
253.8452742977811
 21
10.48230571293541
 31
0.0
  0
LINE
  5
8FC
330
8F6
100
AcDbEntity
  8
0
 62
     7
100
AcDbLine
 10
253.8452742977811
 20
10.48230571293541
 30
0.0
 11
254.9392114235296
 21
10.27182667101925
 31
0.0
  0
LINE
  5
8FD
330
8F6
100
AcDbEntity
  8
0
 62
     7
100
AcDbLine
 10
253.8452742977811
 20
565.2610257728157
 30
0.0
 11
254.9392114235296
 21
565.4687353536537
 31
0.0
  0
LINE
  5
8FE
330
8F6
100
AcDbEntity
  8
0
 62
     7
100
AcDbLine
 10
254.9392114235296
 20
565.4687353536537
 30
0.0
 11
253.8452742977811
 21
565.2610257728157
 31
0.0
  0
LINE
  5
8FF
330
8F6
100
AcDbEntity
  8
0
 62
     7
100
AcDbLine
 10
253.8452742977811
 20
565.2610257728157
 30
0.0
 11
253.1972204055656
 21
564.5991245752107
 31
0.0
  0
LINE
  5
900
330
8F6
100
AcDbEntity
  8
0
 62
     7
100
AcDbLine
 10
253.1972204055656
 20
564.5991245752107
 30
0.0
 11
252.9756635193381
 21
563.5190347548516
 31
0.0
  0
LINE
  5
901
330
8F6
100
AcDbEntity
  8
0
 62
     7
100
AcDbLine
 10
251.8900347768231
 20
553.4797383476658
 30
0.0
 11
251.8900347768231
 21
553.4797383476658
 31
0.0
  0
LINE
  5
902
330
8F6
100
AcDbEntity
  8
0
 62
     7
100
AcDbLine
 10
251.8900347768231
 20
553.4797383476658
 30
0.0
 11
251.2281335792184
 21
553.2581814614384
 31
0.0
  0
LINE
  5
903
330
8F6
100
AcDbEntity
  8
0
 62
     7
100
AcDbLine
 10
251.2281335792184
 20
553.2581814614384
 30
0.0
 11
251.0204239983799
 21
552.6101275692227
 31
0.0
  0
LINE
  5
904
330
8F6
100
AcDbEntity
  8
0
 62
     7
100
AcDbLine
 10
251.0204239983799
 20
552.6101275692227
 30
0.0
 11
252.9756635193381
 21
552.6101275692227
 31
0.0
  0
LINE
  5
905
330
8F6
100
AcDbEntity
  8
0
 62
     7
100
AcDbLine
 10
252.9756635193381
 20
552.6101275692227
 30
0.0
 11
252.762415016344
 21
553.2581814614384
 31
0.0
  0
LINE
  5
906
330
8F6
100
AcDbEntity
  8
0
 62
     7
100
AcDbLine
 10
252.762415016344
 20
553.2581814614384
 30
0.0
 11
251.8900347768231
 21
553.4797383476658
 31
0.0
  0
LINE
  5
907
330
8F6
100
AcDbEntity
  8
0
 62
     7
100
AcDbLine
 10
251.8900347768231
 20
553.4797383476658
 30
0.0
 11
251.8900347768231
 21
553.4797383476658
 31
0.0
  0
LINE
  5
908
330
8F6
100
AcDbEntity
  8
0
 62
     7
100
AcDbLine
 10
251.8900347768231
 20
553.4797383476658
 30
0.0
 11
251.8900347768231
 21
553.4797383476658
 31
0.0
  0
LINE
  5
909
330
8F6
100
AcDbEntity
  8
0
 62
     7
100
AcDbLine
 10
251.8900347768231
 20
22.26193146143841
 30
0.0
 11
251.8900347768231
 21
22.26193146143841
 31
0.0
  0
LINE
  5
90A
330
8F6
100
AcDbEntity
  8
0
 62
     7
100
AcDbLine
 10
251.8900347768231
 20
22.26193146143841
 30
0.0
 11
251.2281335792184
 21
22.48736559317493
 31
0.0
  0
LINE
  5
90B
330
8F6
100
AcDbEntity
  8
0
 62
     7
100
AcDbLine
 10
251.2281335792184
 20
22.48736559317493
 30
0.0
 11
251.0204239983799
 21
23.1337578087438
 31
0.0
  0
LINE
  5
90C
330
8F6
100
AcDbEntity
  8
0
 62
     7
100
AcDbLine
 10
251.0204239983799
 20
23.1337578087438
 30
0.0
 11
251.2281335792184
 21
22.48736559317493
 31
0.0
  0
LINE
  5
90D
330
8F6
100
AcDbEntity
  8
0
 62
     7
100
AcDbLine
 10
251.2281335792184
 20
22.48736559317493
 30
0.0
 11
251.8900347768231
 21
22.26193146143841
 31
0.0
  0
LINE
  5
90E
330
8F6
100
AcDbEntity
  8
0
 62
     7
100
AcDbLine
 10
251.8900347768231
 20
22.26193146143841
 30
0.0
 11
252.762415016344
 21
22.48736559317493
 31
0.0
  0
LINE
  5
90F
330
8F6
100
AcDbEntity
  8
0
 62
     7
100
AcDbLine
 10
252.762415016344
 20
22.48736559317493
 30
0.0
 11
252.9756635193381
 21
23.1337578087438
 31
0.0
  0
LINE
  5
910
330
8F6
100
AcDbEntity
  8
0
 62
     7
100
AcDbLine
 10
252.9756635193381
 20
23.1337578087438
 30
0.0
 11
251.8900347768231
 21
22.26193146143841
 31
0.0
  0
LINE
  5
911
330
8F6
100
AcDbEntity
  8
0
 62
     7
100
AcDbLine
 10
336.0204239983799
 20
355.6875976291032
 30
0.0
 11
336.0204239983799
 21
12.2400826590432
 31
0.0
  0
LINE
  5
912
330
8F6
100
AcDbEntity
  8
0
 62
     7
100
AcDbLine
 10
336.0204239983799
 20
12.2400826590432
 30
0.0
 11
336.0204239983799
 21
355.6875976291032
 31
0.0
  0
LINE
  5
913
330
8F6
100
AcDbEntity
  8
0
 62
     7
100
AcDbLine
 10
348.9236425612542
 20
355.6875976291032
 30
0.0
 11
251.0204239983799
 21
355.6875976291032
 31
0.0
  0
LINE
  5
914
330
8F6
100
AcDbEntity
  8
0
 62
     7
100
AcDbLine
 10
251.0204239983799
 20
355.6875976291032
 30
0.0
 11
348.9236425612542
 21
355.6875976291032
 31
0.0
  0
LINE
  5
915
330
8F6
100
AcDbEntity
  8
0
 62
     7
100
AcDbLine
 10
406.0204239983798
 20
540.4987627193038
 30
0.0
 11
406.0204239983798
 21
389.2700826590432
 31
0.0
  0
LINE
  5
916
330
8F6
100
AcDbEntity
  8
0
 62
     7
100
AcDbLine
 10
252.9756635193381
 20
563.5190347548516
 30
0.0
 11
252.9756635193381
 21
12.2400826590432
 31
0.0
  0
LINE
  5
917
330
8F6
100
AcDbEntity
  8
0
 62
     7
100
AcDbLine
 10
252.9756635193381
 20
12.2400826590432
 30
0.0
 11
252.9756635193381
 21
563.5190347548516
 31
0.0
  0
LINE
  5
918
330
8F6
100
AcDbEntity
  8
0
 62
     7
100
AcDbLine
 10
251.0204239983799
 20
23.1337578087438
 30
0.0
 11
251.0204239983799
 21
552.6101275692227
 31
0.0
  0
LINE
  5
919
330
8F6
100
AcDbEntity
  8
0
 62
     7
100
AcDbLine
 10
251.0204239983799
 20
552.6101275692227
 30
0.0
 11
251.0204239983799
 21
23.1337578087438
 31
0.0
  0
LINE
  5
91A
330
8F6
100
AcDbEntity
  8
0
 62
     7
100
AcDbLine
 10
333.8408581301165
 20
10.27182667101925
 30
0.0
 11
254.9392114235296
 21
10.27182667101925
 31
0.0
  0
LINE
  5
91B
330
8F6
100
AcDbEntity
  8
0
 62
     7
100
AcDbLine
 10
254.9392114235296
 20
10.27182667101925
 30
0.0
 11
333.8408581301165
 21
10.27182667101925
 31
0.0
  0
LINE
  5
91C
330
8F6
100
AcDbEntity
  8
0
 62
     7
100
AcDbLine
 10
254.9392114235296
 20
565.4687353536537
 30
0.0
 11
348.9236425612542
 21
565.4687353536537
 31
0.0
  0
LINE
  5
91D
330
8F6
100
AcDbEntity
  8
0
 62
     7
100
AcDbLine
 10
348.9236425612542
 20
565.4687353536537
 30
0.0
 11
254.9392114235296
 21
565.4687353536537
 31
0.0
  0
LINE
  5
91E
330
8F6
100
AcDbEntity
  8
0
 62
     7
100
AcDbLine
 10
348.9236425612542
 20
355.6875976291032
 30
0.0
 11
348.9236425612542
 21
565.4687353536537
 31
0.0
  0
LINE
  5
91F
330
8F6
100
AcDbEntity
  8
0
 62
     7
100
AcDbLine
 10
340.8562024414938
 20
565.4687353536537
 30
0.0
 11
340.8562024414938
 21
355.6875976291032
 31
0.0
  0
LINE
  5
920
330
8F6
100
AcDbEntity
  8
0
 62
     7
100
AcDbLine
 10
349.7932533396973
 20
356.7870736770073
 30
0.0
 11
349.7932533396973
 21
564.5991245752107
 31
0.0
  0
LINE
  5
921
330
8F6
100
AcDbEntity
  8
0
 62
     7
100
AcDbLine
 10
406.0204239983798
 20
540.4987627193038
 30
0.0
 11
405.3612922618527
 21
545.6227772698216
 31
0.0
  0
LINE
  5
922
330
8F6
100
AcDbEntity
  8
0
 62
     7
100
AcDbLine
 10
405.3612922618527
 20
545.6227772698216
 30
0.0
 11
403.8270108247273
 21
552.1725527189236
 31
0.0
  0
LINE
  5
923
330
8F6
100
AcDbEntity
  8
0
 62
     7
100
AcDbLine
 10
403.8270108247273
 20
552.1725527189236
 30
0.0
 11
401.2098701061643
 21
558.5007712817978
 31
0.0
  0
LINE
  5
924
330
8F6
100
AcDbEntity
  8
0
 62
     7
100
AcDbLine
 10
401.2098701061643
 20
558.5007712817978
 30
0.0
 11
397.9529838786193
 21
564.5991245752107
 31
0.0
  0
LINE
  5
925
330
8F6
100
AcDbEntity
  8
0
 62
     7
100
AcDbLine
 10
401.2098701061643
 20
362.6749479285042
 30
0.0
 11
403.8270108247273
 21
369.0003970303006
 31
0.0
  0
LINE
  5
926
330
8F6
100
AcDbEntity
  8
0
 62
     7
100
AcDbLine
 10
403.8270108247273
 20
369.0003970303006
 30
0.0
 11
405.3612922618527
 21
375.7468042159295
 31
0.0
  0
LINE
  5
927
330
8F6
100
AcDbEntity
  8
0
 62
     7
100
AcDbLine
 10
405.3612922618527
 20
375.7468042159295
 30
0.0
 11
406.230903040296
 21
382.5236754734145
 31
0.0
  0
LINE
  5
928
330
8F6
100
AcDbEntity
  8
0
 62
     7
100
AcDbLine
 10
406.230903040296
 20
382.5236754734145
 30
0.0
 11
406.0204239983798
 21
389.2700826590432
 31
0.0
  0
LINE
  5
929
330
8F6
100
AcDbEntity
  8
0
 62
     7
100
AcDbLine
 10
401.2098701061643
 20
362.6749479285042
 30
0.0
 11
397.9529838786193
 21
356.7870736770073
 31
0.0
  0
LINE
  5
92A
330
8F6
100
AcDbEntity
  8
0
 62
     7
100
AcDbLine
 10
349.7932533396973
 20
564.5991245752107
 30
0.0
 11
348.9236425612542
 21
565.4687353536537
 31
0.0
  0
LINE
  5
92B
330
8F6
100
AcDbEntity
  8
0
 62
     7
100
AcDbLine
 10
348.9236425612542
 20
565.4687353536537
 30
0.0
 11
349.7932533396973
 21
564.5991245752107
 31
0.0
  0
LINE
  5
92C
330
8F6
100
AcDbEntity
  8
0
 62
     7
100
AcDbLine
 10
349.7932533396973
 20
564.5991245752107
 30
0.0
 11
397.9529838786193
 21
564.5991245752107
 31
0.0
  0
LINE
  5
92D
330
8F6
100
AcDbEntity
  8
0
 62
     7
100
AcDbLine
 10
349.7932533396973
 20
356.7870736770073
 30
0.0
 11
348.9236425612542
 21
355.6875976291032
 31
0.0
  0
LINE
  5
92E
330
8F6
100
AcDbEntity
  8
0
 62
     7
100
AcDbLine
 10
348.9236425612542
 20
355.6875976291032
 30
0.0
 11
349.7932533396973
 21
356.7870736770073
 31
0.0
  0
LINE
  5
92F
330
8F6
100
AcDbEntity
  8
0
 62
     7
100
AcDbLine
 10
349.7932533396973
 20
356.7870736770073
 30
0.0
 11
397.9529838786193
 21
356.7870736770073
 31
0.0
  0
LWPOLYLINE
  5
930
330
8F6
100
AcDbEntity
  8
0
 62
     7
370
     9
100
AcDbPolyline
 90
        2
 70
     0
 43
0.0
 10
189.4751645289112
 20
565.2709194088449
 10
68.31644626891125
 20
565.271824398845
  0
LWPOLYLINE
  5
931
330
8F6
100
AcDbEntity
  8
0
 62
     7
370
     9
100
AcDbPolyline
 90
        2
 70
     0
 43
0.0
 10
202.9773378189112
 20
23.46259427884499
 10
202.9773378189112
 20
552.0801516188448
  0
LWPOLYLINE
  5
932
330
8F6
100
AcDbEntity
  8
0
 62
     7
370
     9
100
AcDbPolyline
 90
        2
 70
     0
 43
0.0
 10
68.47951110891125
 20
10.27182647884498
 10
189.4751645289112
 20
10.27182648884498
  0
LWPOLYLINE
  5
933
330
8F6
100
AcDbEntity
  8
0
 62
     7
370
     9
100
AcDbPolyline
 90
        2
 70
     0
 43
0.0
 10
54.9773378189112
 20
552.0801516188448
 10
54.9773378189112
 20
23.46259427884499
  0
LWPOLYLINE
  5
934
330
8F6
100
AcDbEntity
  8
0
 62
     7
370
     9
100
AcDbPolyline
 90
        2
 70
     0
 43
0.0
 10
190.1663360789111
 20
357.7822316288449
 10
67.78833955891125
 20
357.7822316288449
  0
LWPOLYLINE
  5
935
330
8F6
100
AcDbEntity
  8
0
 62
     7
370
     9
100
AcDbPolyline
 90
        2
 70
     0
 43
0.0
 10
54.9773378189112
 20
366.311356368845
 10
54.9773378189112
 20
369.659772658845
  0
LWPOLYLINE
  5
936
330
8F6
100
AcDbEntity
  8
0
 62
     7
370
     9
100
AcDbPolyline
 90
        2
 70
     0
 43
0.0
 10
189.4751645289112
 20
355.270919408845
 10
68.47951110891125
 20
355.270919408845
  0
LWPOLYLINE
  5
937
330
8F6
100
AcDbEntity
  8
0
 62
     7
370
     9
100
AcDbPolyline
 90
        2
 70
     0
 43
0.0
 10
200.4660255989112
 20
368.3250745388449
 10
200.4660255989112
 20
552.2167642788449
  0
LWPOLYLINE
  5
938
330
8F6
100
AcDbEntity
  8
0
 62
     7
370
     9
100
AcDbPolyline
 90
        2
 70
     0
 43
0.0
 10
57.48865003891125
 20
552.2167642788449
 10
57.48865003891125
 20
368.3250745388449
  0
LWPOLYLINE
  5
939
330
8F6
100
AcDbEntity
  8
0
 62
     7
370
     9
100
AcDbPolyline
 90
        2
 70
     0
 43
0.0
 10
190.1663360789111
 20
562.7596071988449
 10
67.78833955891125
 20
562.7596071988449
  0
LWPOLYLINE
  5
93A
330
8F6
100
AcDbEntity
  8
0
 62
     7
370
     5
100
AcDbPolyline
 90
        2
 70
     0
 43
0.0
 10
92.56331066891123
 20
553.5514623988449
 10
92.56331066891123
 20
533.4609646588448
  0
LWPOLYLINE
  5
93B
330
8F6
100
AcDbEntity
  8
0
 62
     7
370
     5
100
AcDbPolyline
 90
        2
 70
     0
 43
0.0
 10
165.3913649689112
 20
533.4609646588448
 10
165.3913649689112
 20
553.5514623988449
  0
LWPOLYLINE
  5
93C
330
8F6
100
AcDbEntity
  8
0
 62
     7
370
     5
100
AcDbPolyline
 90
        2
 70
     0
 43
0.0
 10
94.23751881891123
 20
531.7867565188448
 10
162.8800527489112
 20
531.7867565188448
  0
LWPOLYLINE
  5
93D
330
8F6
100
AcDbEntity
  8
0
 62
     7
370
     5
100
AcDbPolyline
 90
        2
 70
     0
 43
0.0
 10
162.8800527489112
 20
556.0627746188449
 10
95.07462288891122
 20
556.0627746188449
  0
LWPOLYLINE
  5
93E
330
8F6
100
AcDbEntity
  8
0
 62
     7
370
     5
100
AcDbPolyline
 90
        4
 70
     0
 43
0.0
 10
165.3913649689112
 20
553.5514623988449
 10
165.3913649689112
 20
554.3885664688449
 10
164.5542608989112
 20
555.2256705388449
 10
162.8800527489112
 20
556.0627746188449
  0
LWPOLYLINE
  5
93F
330
8F6
100
AcDbEntity
  8
0
 62
     7
370
     5
100
AcDbPolyline
 90
        4
 70
     0
 43
0.0
 10
162.8800527489112
 20
531.7867565188448
 10
164.5542608989112
 20
531.7867565188448
 10
165.3913649689112
 20
532.6238605888448
 10
165.3913649689112
 20
533.4609646588448
  0
LWPOLYLINE
  5
940
330
8F6
100
AcDbEntity
  8
0
 62
     7
370
     5
100
AcDbPolyline
 90
        5
 70
     0
 43
0.0
 10
92.56331066891123
 20
532.6238605888448
 10
92.56331066891123
 20
533.4609646588448
 10
92.56331066891123
 20
532.6238605888448
 10
93.40041473891123
 20
531.7867565188448
 10
94.23751881891123
 20
531.7867565188448
  0
ARC
  5
941
330
8F6
100
AcDbEntity
  8
0
 62
     7
100
AcDbCircle
 10
68.32390425891123
 20
551.9243507088449
 30
0.0
 40
13.34747578
100
AcDbArc
 50
89.33202218000074
 51
179.33118909
  0
CIRCLE
  5
942
330
8F6
100
AcDbEntity
  8
0
 62
     7
100
AcDbCircle
 10
67.65686096891123
 20
552.426861998845
 30
0.0
 40
7.637817039999998
  0
LINE
  5
943
330
8F6
100
AcDbEntity
  8
0
 62
     7
100
AcDbLine
 10
63.17382664891123
 20
550.1759396688449
 30
0.0
 11
65.80855664891124
 21
552.516222688845
 31
0.0
  0
LINE
  5
944
330
8F6
100
AcDbEntity
  8
0
 62
     7
100
AcDbLine
 10
64.80218767891125
 20
548.4228458388448
 30
0.0
 11
67.59924654891126
 21
550.9184960188449
 31
0.0
  0
LINE
  5
945
330
8F6
100
AcDbEntity
  8
0
 62
     7
100
AcDbLine
 10
70.39630541891125
 20
556.5912628288449
 30
0.0
 11
71.97459344891123
 21
554.822359238845
 31
0.0
  0
LINE
  5
946
330
8F6
100
AcDbEntity
  8
0
 62
     7
100
AcDbLine
 10
63.17382664891123
 20
550.1759396688449
 30
0.0
 11
64.80218767891125
 21
548.4228458388448
 31
0.0
  0
ARC
  5
947
330
8F6
100
AcDbEntity
  8
0
 62
     7
100
AcDbCircle
 10
68.93657719891122
 20
551.3353582788449
 30
0.0
 40
11.48180791
100
AcDbArc
 50
95.73945562000067
 51
175.5973331100011
  0
LINE
  5
948
330
8F6
100
AcDbEntity
  8
0
 62
     7
100
AcDbLine
 10
72.02466644891126
 20
550.1759396688449
 30
0.0
 11
69.38993644891124
 21
552.516222688845
 31
0.0
  0
LINE
  5
949
330
8F6
100
AcDbEntity
  8
0
 62
     7
100
AcDbLine
 10
70.39630541891125
 20
548.4228458388448
 30
0.0
 11
67.59924654891126
 21
550.9184960188449
 31
0.0
  0
LINE
  5
94A
330
8F6
100
AcDbEntity
  8
0
 62
     7
100
AcDbLine
 10
64.80218767891125
 20
556.5912628288449
 30
0.0
 11
63.22389964891122
 21
554.822359238845
 31
0.0
  0
LINE
  5
94B
330
8F6
100
AcDbEntity
  8
0
 62
     7
100
AcDbLine
 10
72.02466644891126
 20
550.1759396688449
 30
0.0
 11
70.39630541891125
 21
548.4228458388448
 31
0.0
  0
LINE
  5
94C
330
8F6
100
AcDbEntity
  8
0
 62
     7
100
AcDbLine
 10
67.59924654891126
 20
554.1067921788449
 30
0.0
 11
70.39630541891125
 21
556.5912628288449
 31
0.0
  0
LINE
  5
94D
330
8F6
100
AcDbEntity
  8
0
 62
     7
100
AcDbLine
 10
67.59924654891126
 20
554.1067921788449
 30
0.0
 11
64.80218767891125
 21
556.5912628288449
 31
0.0
  0
LINE
  5
94E
330
8F6
100
AcDbEntity
  8
0
 62
     7
100
AcDbLine
 10
69.38993644891124
 20
552.516222688845
 30
0.0
 11
71.97459344891123
 21
554.822359238845
 31
0.0
  0
LINE
  5
94F
330
8F6
100
AcDbEntity
  8
0
 62
     7
100
AcDbLine
 10
65.80855664891124
 20
552.516222688845
 30
0.0
 11
63.22389964891122
 21
554.822359238845
 31
0.0
  0
ARC
  5
950
330
8F6
100
AcDbEntity
  8
0
 62
     7
100
AcDbCircle
 10
189.6307713789111
 20
551.9243507088449
 30
0.0
 40
13.34747578
100
AcDbArc
 50
0.6688109099999842
 51
90.66797782000087
  0
CIRCLE
  5
951
330
8F6
100
AcDbEntity
  8
0
 62
     7
100
AcDbCircle
 10
190.2978146689111
 20
552.426861998845
 30
0.0
 40
7.637817039999998
  0
LINE
  5
952
330
8F6
100
AcDbEntity
  8
0
 62
     7
100
AcDbLine
 10
194.7808489889111
 20
550.1759396688449
 30
0.0
 11
192.1461189889112
 21
552.516222688845
 31
0.0
  0
LINE
  5
953
330
8F6
100
AcDbEntity
  8
0
 62
     7
100
AcDbLine
 10
190.3554290889111
 20
554.1067921788449
 30
0.0
 11
187.5583702189111
 21
556.5912628288449
 31
0.0
  0
LINE
  5
954
330
8F6
100
AcDbEntity
  8
0
 62
     7
100
AcDbLine
 10
193.1524879589112
 20
548.4228458388448
 30
0.0
 11
190.3554290889111
 21
550.9184960188449
 31
0.0
  0
LINE
  5
955
330
8F6
100
AcDbEntity
  8
0
 62
     7
100
AcDbLine
 10
188.5647391889112
 20
552.516222688845
 30
0.0
 11
185.9800821889112
 21
554.822359238845
 31
0.0
  0
LINE
  5
956
330
8F6
100
AcDbEntity
  8
0
 62
     7
100
AcDbLine
 10
187.5583702189111
 20
556.5912628288449
 30
0.0
 11
185.9800821889112
 21
554.822359238845
 31
0.0
  0
LINE
  5
957
330
8F6
100
AcDbEntity
  8
0
 62
     7
100
AcDbLine
 10
194.7808489889111
 20
550.1759396688449
 30
0.0
 11
193.1524879589112
 21
548.4228458388448
 31
0.0
  0
ARC
  5
958
330
8F6
100
AcDbEntity
  8
0
 62
     7
100
AcDbCircle
 10
189.0180984389111
 20
551.3353582788449
 30
0.0
 40
11.48180791
100
AcDbArc
 50
4.402666889998866
 51
84.26054437999932
  0
LINE
  5
959
330
8F6
100
AcDbEntity
  8
0
 62
     7
100
AcDbLine
 10
185.9300091889111
 20
550.1759396688449
 30
0.0
 11
188.5647391889112
 21
552.516222688845
 31
0.0
  0
LINE
  5
95A
330
8F6
100
AcDbEntity
  8
0
 62
     7
100
AcDbLine
 10
190.3554290889111
 20
554.1067921788449
 30
0.0
 11
193.1524879589112
 21
556.5912628288449
 31
0.0
  0
LINE
  5
95B
330
8F6
100
AcDbEntity
  8
0
 62
     7
100
AcDbLine
 10
187.5583702189111
 20
548.4228458388448
 30
0.0
 11
190.3554290889111
 21
550.9184960188449
 31
0.0
  0
LINE
  5
95C
330
8F6
100
AcDbEntity
  8
0
 62
     7
100
AcDbLine
 10
192.1461189889112
 20
552.516222688845
 30
0.0
 11
194.7307759889111
 21
554.822359238845
 31
0.0
  0
LINE
  5
95D
330
8F6
100
AcDbEntity
  8
0
 62
     7
100
AcDbLine
 10
193.1524879589112
 20
556.5912628288449
 30
0.0
 11
194.7307759889111
 21
554.822359238845
 31
0.0
  0
LINE
  5
95E
330
8F6
100
AcDbEntity
  8
0
 62
     7
100
AcDbLine
 10
185.9300091889111
 20
550.1759396688449
 30
0.0
 11
187.5583702189111
 21
548.4228458388448
 31
0.0
  0
ARC
  5
95F
330
8F6
100
AcDbEntity
  8
0
 62
     7
100
AcDbCircle
 10
68.32390425891123
 20
368.617488118845
 30
0.0
 40
13.34747578
100
AcDbArc
 50
180.66881091
 51
270.6679778199992
  0
CIRCLE
  5
960
330
8F6
100
AcDbEntity
  8
0
 62
     7
100
AcDbCircle
 10
67.65686096891123
 20
368.114976828845
 30
0.0
 40
7.637817039999998
  0
LINE
  5
961
330
8F6
100
AcDbEntity
  8
0
 62
     7
100
AcDbLine
 10
63.17382664891123
 20
370.3658991488449
 30
0.0
 11
65.80855664891124
 21
368.025616138845
 31
0.0
  0
LINE
  5
962
330
8F6
100
AcDbEntity
  8
0
 62
     7
100
AcDbLine
 10
67.59924654891126
 20
366.435046648845
 30
0.0
 11
70.39630541891125
 21
363.950575998845
 31
0.0
  0
LINE
  5
963
330
8F6
100
AcDbEntity
  8
0
 62
     7
100
AcDbLine
 10
64.80218767891125
 20
372.118992988845
 30
0.0
 11
67.59924654891126
 21
369.623342808845
 31
0.0
  0
LINE
  5
964
330
8F6
100
AcDbEntity
  8
0
 62
     7
100
AcDbLine
 10
69.38993644891124
 20
368.025616138845
 30
0.0
 11
71.97459344891123
 21
365.719479578845
 31
0.0
  0
LINE
  5
965
330
8F6
100
AcDbEntity
  8
0
 62
     7
100
AcDbLine
 10
70.39630541891125
 20
363.950575998845
 30
0.0
 11
71.97459344891123
 21
365.719479578845
 31
0.0
  0
LINE
  5
966
330
8F6
100
AcDbEntity
  8
0
 62
     7
100
AcDbLine
 10
63.17382664891123
 20
370.3658991488449
 30
0.0
 11
64.80218767891125
 21
372.118992988845
 31
0.0
  0
ARC
  5
967
330
8F6
100
AcDbEntity
  8
0
 62
     7
100
AcDbCircle
 10
68.93657719891122
 20
369.206480538845
 30
0.0
 40
11.48180791
100
AcDbArc
 50
184.4026668899988
 51
264.2605443799993
  0
LINE
  5
968
330
8F6
100
AcDbEntity
  8
0
 62
     7
100
AcDbLine
 10
72.02466644891126
 20
370.3658991488449
 30
0.0
 11
69.38993644891124
 21
368.025616138845
 31
0.0
  0
LINE
  5
969
330
8F6
100
AcDbEntity
  8
0
 62
     7
100
AcDbLine
 10
67.59924654891126
 20
366.435046648845
 30
0.0
 11
64.80218767891125
 21
363.950575998845
 31
0.0
  0
LINE
  5
96A
330
8F6
100
AcDbEntity
  8
0
 62
     7
100
AcDbLine
 10
70.39630541891125
 20
372.118992988845
 30
0.0
 11
67.59924654891126
 21
369.623342808845
 31
0.0
  0
LINE
  5
96B
330
8F6
100
AcDbEntity
  8
0
 62
     7
100
AcDbLine
 10
65.80855664891124
 20
368.025616138845
 30
0.0
 11
63.22389964891122
 21
365.719479578845
 31
0.0
  0
LINE
  5
96C
330
8F6
100
AcDbEntity
  8
0
 62
     7
100
AcDbLine
 10
64.80218767891125
 20
363.950575998845
 30
0.0
 11
63.22389964891122
 21
365.719479578845
 31
0.0
  0
LINE
  5
96D
330
8F6
100
AcDbEntity
  8
0
 62
     7
100
AcDbLine
 10
72.02466644891126
 20
370.3658991488449
 30
0.0
 11
70.39630541891125
 21
372.118992988845
 31
0.0
  0
ARC
  5
96E
330
8F6
100
AcDbEntity
  8
0
 62
     7
100
AcDbCircle
 10
189.6307713789111
 20
368.617488118845
 30
0.0
 40
13.34747578
100
AcDbArc
 50
269.3320221799991
 51
359.33118909
  0
CIRCLE
  5
96F
330
8F6
100
AcDbEntity
  8
0
 62
     7
100
AcDbCircle
 10
190.2978146689111
 20
368.114976828845
 30
0.0
 40
7.637817039999998
  0
LINE
  5
970
330
8F6
100
AcDbEntity
  8
0
 62
     7
100
AcDbLine
 10
194.7808489889111
 20
370.3658991488449
 30
0.0
 11
192.1461189889112
 21
368.025616138845
 31
0.0
  0
LINE
  5
971
330
8F6
100
AcDbEntity
  8
0
 62
     7
100
AcDbLine
 10
190.3554290889111
 20
366.435046648845
 30
0.0
 11
187.5583702189111
 21
363.950575998845
 31
0.0
  0
LINE
  5
972
330
8F6
100
AcDbEntity
  8
0
 62
     7
100
AcDbLine
 10
193.1524879589112
 20
372.118992988845
 30
0.0
 11
190.3554290889111
 21
369.623342808845
 31
0.0
  0
LINE
  5
973
330
8F6
100
AcDbEntity
  8
0
 62
     7
100
AcDbLine
 10
188.5647391889112
 20
368.025616138845
 30
0.0
 11
185.9800821889112
 21
365.719479578845
 31
0.0
  0
LINE
  5
974
330
8F6
100
AcDbEntity
  8
0
 62
     7
100
AcDbLine
 10
187.5583702189111
 20
363.950575998845
 30
0.0
 11
185.9800821889112
 21
365.719479578845
 31
0.0
  0
LINE
  5
975
330
8F6
100
AcDbEntity
  8
0
 62
     7
100
AcDbLine
 10
194.7808489889111
 20
370.3658991488449
 30
0.0
 11
193.1524879589112
 21
372.118992988845
 31
0.0
  0
ARC
  5
976
330
8F6
100
AcDbEntity
  8
0
 62
     7
100
AcDbCircle
 10
189.0180984389111
 20
369.206480538845
 30
0.0
 40
11.48180791
100
AcDbArc
 50
275.7394556200007
 51
355.5973331100012
  0
LINE
  5
977
330
8F6
100
AcDbEntity
  8
0
 62
     7
100
AcDbLine
 10
185.9300091889111
 20
370.3658991488449
 30
0.0
 11
188.5647391889112
 21
368.025616138845
 31
0.0
  0
LINE
  5
978
330
8F6
100
AcDbEntity
  8
0
 62
     7
100
AcDbLine
 10
190.3554290889111
 20
366.435046648845
 30
0.0
 11
193.1524879589112
 21
363.950575998845
 31
0.0
  0
LINE
  5
979
330
8F6
100
AcDbEntity
  8
0
 62
     7
100
AcDbLine
 10
187.5583702189111
 20
372.118992988845
 30
0.0
 11
190.3554290889111
 21
369.623342808845
 31
0.0
  0
LINE
  5
97A
330
8F6
100
AcDbEntity
  8
0
 62
     7
100
AcDbLine
 10
192.1461189889112
 20
368.025616138845
 30
0.0
 11
194.7307759889111
 21
365.719479578845
 31
0.0
  0
LINE
  5
97B
330
8F6
100
AcDbEntity
  8
0
 62
     7
100
AcDbLine
 10
193.1524879589112
 20
363.950575998845
 30
0.0
 11
194.7307759889111
 21
365.719479578845
 31
0.0
  0
LINE
  5
97C
330
8F6
100
AcDbEntity
  8
0
 62
     7
100
AcDbLine
 10
185.9300091889111
 20
370.3658991488449
 30
0.0
 11
187.5583702189111
 21
372.118992988845
 31
0.0
  0
LWPOLYLINE
  5
97D
330
8F6
100
AcDbEntity
  8
0
 62
     7
370
     5
100
AcDbPolyline
 90
        4
 70
     0
 43
0.0
 10
92.56331066891123
 20
553.5514623988449
 10
92.56331066891123
 20
554.3885664688449
 10
93.40041473891123
 20
555.2256705388449
 10
95.07462288891122
 20
556.0627746188449
  0
ARC
  5
97E
330
8F6
100
AcDbEntity
  8
0
 62
     7
100
AcDbCircle
 10
68.32390425891123
 20
23.61839518884503
 30
0.0
 40
13.34747578
100
AcDbArc
 50
180.66881091
 51
270.6679778199992
  0
ARC
  5
97F
330
8F6
100
AcDbEntity
  8
0
 62
     7
100
AcDbCircle
 10
189.6307713789111
 20
23.61839518884503
 30
0.0
 40
13.34747578
100
AcDbArc
 50
269.3320221799991
 51
359.33118909
  0
LWPOLYLINE
  5
980
330
8F6
100
AcDbEntity
  8
0
 62
     7
370
     9
100
AcDbPolyline
 90
        2
 70
     0
 43
0.0
 10
186.4300797589113
 20
344.4110630788451
 10
72.54725996891129
 20
344.4110630788451
  0
LWPOLYLINE
  5
981
330
8F6
100
AcDbEntity
  8
0
 62
     7
370
     9
100
AcDbPolyline
 90
        2
 70
     0
 43
0.0
 10
57.59540104891128
 20
330.246144108845
 10
57.59540104891128
 20
181.5144949188449
  0
LWPOLYLINE
  5
982
330
8F6
100
AcDbEntity
  8
0
 62
     7
370
     9
100
AcDbPolyline
 90
        2
 70
     0
 43
0.0
 10
189.5778395289113
 20
334.1808438188451
 10
189.5778395289113
 20
340.4763633688451
  0
LWPOLYLINE
  5
983
330
8F6
100
AcDbEntity
  8
0
 62
     7
370
     9
100
AcDbPolyline
 90
        4
 70
     0
 43
0.0
 10
72.54725996891129
 20
344.4110630788451
 10
70.18644013891125
 20
343.624123138845
 10
69.39950018891129
 20
342.050243248845
 10
68.61256024891125
 20
340.4763633688451
  0
LWPOLYLINE
  5
984
330
8F6
100
AcDbEntity
  8
0
 62
     7
370
     9
100
AcDbPolyline
 90
        4
 70
     0
 43
0.0
 10
189.5778395289113
 20
340.4763633688451
 10
189.5778395289113
 20
342.050243248845
 10
188.0039596489113
 20
343.624123138845
 10
186.4300797589113
 20
344.4110630788451
  0
LWPOLYLINE
  5
985
330
8F6
100
AcDbEntity
  8
0
 62
     7
370
     9
100
AcDbPolyline
 90
        4
 70
     0
 43
0.0
 10
200.5949987289113
 20
330.246144108845
 10
200.5949987289113
 20
332.606963938845
 10
199.0211188389111
 20
333.3939038788451
 10
197.4472389589113
 20
334.1808438188451
  0
LWPOLYLINE
  5
986
330
8F6
100
AcDbEntity
  8
0
 62
     7
370
     9
100
AcDbPolyline
 90
        4
 70
     0
 43
0.0
 10
61.53010076891128
 20
334.1808438188451
 10
59.16928093891129
 20
333.3939038788451
 10
58.38234099891129
 20
332.606963938845
 10
57.59540104891128
 20
330.246144108845
  0
LWPOLYLINE
  5
987
330
8F6
100
AcDbEntity
  8
0
 62
     7
370
     9
100
AcDbPolyline
 90
        2
 70
     0
 43
0.0
 10
72.54725996891129
 20
19.40486669884501
 10
186.4300797589113
 20
19.40486669884501
  0
LWPOLYLINE
  5
988
330
8F6
100
AcDbEntity
  8
0
 62
     7
370
     9
100
AcDbPolyline
 90
        2
 70
     0
 43
0.0
 10
61.53010076891128
 20
28.848146018845
 10
68.61256024891125
 20
28.848146018845
  0
LWPOLYLINE
  5
989
330
8F6
100
AcDbEntity
  8
0
 62
     7
370
     9
100
AcDbPolyline
 90
        2
 70
     0
 43
0.0
 10
57.59540104891128
 20
32.78284572884502
 10
57.59540104891128
 20
181.5144949188449
  0
LWPOLYLINE
  5
98A
330
8F6
100
AcDbEntity
  8
0
 62
     7
370
     9
100
AcDbPolyline
 90
        2
 70
     0
 43
0.0
 10
189.5778395289113
 20
28.848146018845
 10
197.4472389589113
 20
28.848146018845
  0
LWPOLYLINE
  5
98B
330
8F6
100
AcDbEntity
  8
0
 62
     7
370
     9
100
AcDbPolyline
 90
        2
 70
     0
 43
0.0
 10
200.5949987289113
 20
32.78284572884502
 10
200.5949987289113
 20
181.5144949188449
  0
LWPOLYLINE
  5
98C
330
8F6
100
AcDbEntity
  8
0
 62
     7
370
     9
100
AcDbPolyline
 90
        4
 70
     0
 43
0.0
 10
68.61256024891125
 20
22.55262646884501
 10
69.39950018891129
 20
20.97874658884496
 10
70.18644013891125
 20
19.40486669884501
 10
72.54725996891129
 20
19.40486669884501
  0
LWPOLYLINE
  5
98D
330
8F6
100
AcDbEntity
  8
0
 62
     7
370
     9
100
AcDbPolyline
 90
        4
 70
     0
 43
0.0
 10
186.4300797589113
 20
19.40486669884501
 10
188.0039596489113
 20
19.40486669884501
 10
189.5778395289113
 20
20.97874658884496
 10
189.5778395289113
 20
22.55262646884501
  0
LWPOLYLINE
  5
98E
330
8F6
100
AcDbEntity
  8
0
 62
     7
370
     9
100
AcDbPolyline
 90
        4
 70
     0
 43
0.0
 10
57.59540104891128
 20
32.78284572884502
 10
58.38234099891129
 20
30.42202589884505
 10
59.16928093891129
 20
29.63508595884503
 10
61.53010076891128
 20
28.848146018845
  0
LWPOLYLINE
  5
98F
330
8F6
100
AcDbEntity
  8
0
 62
     7
370
     9
100
AcDbPolyline
 90
        4
 70
     0
 43
0.0
 10
197.4472389589113
 20
28.848146018845
 10
199.0211188389111
 20
29.63508595884503
 10
200.5949987289113
 20
30.42202589884505
 10
200.5949987289113
 20
32.78284572884502
  0
LWPOLYLINE
  5
990
330
8F6
100
AcDbEntity
  8
0
 62
     7
370
     9
100
AcDbPolyline
 90
        2
 70
     0
 43
0.0
 10
189.5778395289113
 20
334.1808438188451
 10
197.4472389589113
 20
334.1808438188451
  0
LWPOLYLINE
  5
991
330
8F6
100
AcDbEntity
  8
0
 62
     7
370
     9
100
AcDbPolyline
 90
        2
 70
     0
 43
0.0
 10
61.53010076891128
 20
334.1808438188451
 10
68.61256024891125
 20
334.1808438188451
  0
LWPOLYLINE
  5
992
330
8F6
100
AcDbEntity
  8
0
 62
     7
370
     9
100
AcDbPolyline
 90
        2
 70
     0
 43
0.0
 10
200.5949987289113
 20
181.5144949188449
 10
200.5949987289113
 20
330.246144108845
  0
CIRCLE
  5
993
330
8F6
100
AcDbEntity
  8
0
 62
     7
100
AcDbCircle
 10
63.20448362891127
 20
327.856311258845
 30
0.0
 40
3.292483069999998
  0
CIRCLE
  5
994
330
8F6
100
AcDbEntity
  8
0
 62
     7
100
AcDbCircle
 10
195.1054421089113
 20
327.856311258845
 30
0.0
 40
3.292483069999998
  0
CIRCLE
  5
995
330
8F6
100
AcDbEntity
  8
0
 62
     7
100
AcDbCircle
 10
63.20448362891127
 20
35.57723436884504
 30
0.0
 40
3.292483069999998
  0
CIRCLE
  5
996
330
8F6
100
AcDbEntity
  8
0
 62
     7
100
AcDbCircle
 10
195.1054421089113
 20
35.57723436884504
 30
0.0
 40
3.292483069999998
  0
CIRCLE
  5
997
330
8F6
100
AcDbEntity
  8
0
 62
     7
100
AcDbCircle
 10
63.20448362891127
 20
181.635300578845
 30
0.0
 40
3.292483069999998
  0
CIRCLE
  5
998
330
8F6
100
AcDbEntity
  8
0
 62
     7
100
AcDbCircle
 10
194.9859161489112
 20
181.635300578845
 30
0.0
 40
3.292483069999998
  0
LINE
  5
999
330
8F6
100
AcDbEntity
  8
Q
 62
     3
100
AcDbLine
 10
-15.67485703447721
 20
388.7576270292334
 30
0.0
 11
-158.6744547144772
 21
388.7576270292334
 31
0.0
  0
LINE
  5
99A
330
8F6
100
AcDbEntity
  8
Q
 62
     3
100
AcDbLine
 10
-158.6744547144772
 20
388.7576270292334
 30
0.0
 11
-158.6744547144772
 21
63.75762702923339
 31
0.0
  0
LINE
  5
99B
330
8F6
100
AcDbEntity
  8
Q
 62
     3
100
AcDbLine
 10
-158.6744547144772
 20
63.75762702923339
 30
0.0
 11
-15.67485703447721
 21
63.75762702923339
 31
0.0
  0
LINE
  5
99C
330
8F6
100
AcDbEntity
  8
Q
 62
     3
100
AcDbLine
 10
-15.67485703447721
 20
63.75762702923339
 30
0.0
 11
-15.67485703447721
 21
388.7576270292334
 31
0.0
  0
LINE
  5
99D
330
8F6
100
AcDbEntity
  8
Q
 62
     3
100
AcDbLine
 10
-15.67485703447721
 20
63.75762702923339
 30
0.0
 11
-15.67485703447721
 21
42.33896292923339
 31
0.0
  0
LINE
  5
99E
330
8F6
100
AcDbEntity
  8
Q
 62
     3
100
AcDbLine
 10
-15.67485703447721
 20
42.33896292923339
 30
0.0
 11
-158.6744547144772
 21
42.33896292923339
 31
0.0
  0
LINE
  5
99F
330
8F6
100
AcDbEntity
  8
Q
 62
     3
100
AcDbLine
 10
-158.6744547144772
 20
42.33896292923339
 30
0.0
 11
-158.6744547144772
 21
63.75762702923339
 31
0.0
  0
DIMENSION
  5
9A0
330
8F6
100
AcDbEntity
  8
0
 62
     1
100
AcDbDimension
  2
*D17
 10
9.866668926213682
 20
565.2709194141611
 30
0.0
 11
9.866668926213575
 21
358.0407632279648
 31
0.0
 70
   160
 71
     0
 42
554.9990929353161
  3
Standard
100
AcDbAlignedDimension
 13
68.47951110891125
 23
10.27182647884498
 33
0.0
 14
68.41701110954284
 24
565.2709194141611
 34
0.0
 50
90.0
100
AcDbRotatedDimension
1001
ACAD
1000
DSTYLE
1002
{
1070
    41
1040
6.0
1070
   140
1040
7.0
1070
   271
1070
     1
1002
}
  0
DIMENSION
  5
9A1
330
8F6
100
AcDbEntity
  8
0
 62
     1
100
AcDbDimension
  2
*D18
 10
406.0204239983798
 20
598.5149931765118
 30
-0.0000000000000119
 11
333.3792846152846
 21
598.5149931765118
 31
-0.0000000000000119
 70
   160
 71
     0
 42
154.9999999999999
  3
Standard
100
AcDbAlignedDimension
 13
251.0204239983799
 23
552.6726275692229
 33
-0.0000000000000119
 14
406.0204239983798
 24
540.4987627193038
 34
0.0
100
AcDbRotatedDimension
1001
ACAD
1000
DSTYLE
1002
{
1070
    41
1040
6.0
1070
   140
1040
7.0
1070
   271
1070
     1
1002
}
  0
DIMENSION
  5
9A2
330
8F6
100
AcDbEntity
  8
0
 62
     1
100
AcDbDimension
  2
*D19
 10
336.0204239983799
 20
-2.910719359947506
 30
-0.0000000000000119
 11
295.2848348739008
 21
-2.910719359947506
 31
-0.0000000000000119
 70
   160
 71
     0
 42
85.0
  3
Standard
100
AcDbAlignedDimension
 13
251.0204239983799
 23
23.1962578087438
 33
-0.0000000000000238
 14
336.0204239983799
 24
12.2400826590432
 34
0.0
100
AcDbRotatedDimension
1001
ACAD
1000
DSTYLE
1002
{
1070
    41
1040
6.0
1070
   140
1040
7.0
1070
   271
1070
     1
1002
}
  0
DIMENSION
  5
9A3
330
8F6
100
AcDbEntity
  8
0
 62
     1
100
AcDbDimension
  2
*D20
 10
202.9773378189112
 20
589.1427802624027
 30
0.0000000000000119
 11
128.619464724441
 21
589.1427802624027
 31
0.0000000000000119
 70
   160
 71
     0
 42
148.0000000013562
  3
Standard
100
AcDbAlignedDimension
 13
54.97733781755504
 23
552.017651620751
 33
0.0000000000000238
 14
202.9773378189112
 24
552.0801516188448
 34
0.0
100
AcDbRotatedDimension
1001
ACAD
1000
DSTYLE
1002
{
1070
    41
1040
6.0
1070
   140
1040
7.0
1070
   271
1070
     1
1002
}
  0
LINE
  5
9A4
330
8F6
100
AcDbEntity
  8
0
100
AcDbLine
 10
68.61256024891125
 20
334.1808438188451
 30
0.0
 11
68.61256024891125
 21
340.4763633688451
 31
0.0
  0
LINE
  5
9A5
330
8F6
100
AcDbEntity
  8
0
100
AcDbLine
 10
189.5778395289113
 20
22.55262646884501
 30
0.0
 11
189.5778395289113
 21
28.848146018845
 31
0.0
  0
LINE
  5
9A6
330
8F6
100
AcDbEntity
  8
0
100
AcDbLine
 10
68.61256024891125
 20
28.848146018845
 30
0.0
 11
68.61256024891125
 21
22.55262646884501
 31
0.0
  0
ENDBLK
  5
9AA
330
8F6
100
AcDbEntity
  8
0
100
AcDbBlockEnd
  0
ENDSEC
  0
SECTION
  2
ENTITIES
  0
LINE
  5
285
330
1F
100
AcDbEntity
  8
0
 62
     7
100
AcDbLine
 10
350.0709754565178
 20
26.47408852629979
 30
0.0
 11
351.1566041990326
 21
26.68456756821595
 31
0.0
  0
LINE
  5
286
330
1F
100
AcDbEntity
  8
0
 62
     7
100
AcDbLine
 10
351.1566041990326
 20
26.68456756821595
 30
0.0
 11
351.8129664744818
 21
27.3456379274974
 31
0.0
  0
LINE
  5
287
330
1F
100
AcDbEntity
  8
0
 62
     7
100
AcDbLine
 10
351.8129664744818
 20
27.3456379274974
 30
0.0
 11
352.2505413247812
 21
28.44234451432374
 31
0.0
  0
LINE
  5
288
330
1F
100
AcDbEntity
  8
0
 62
     7
100
AcDbLine
 10
269.2057808457395
 20
28.44234451432374
 30
0.0
 11
269.427337731967
 21
27.3456379274974
 31
0.0
  0
LINE
  5
289
330
1F
100
AcDbEntity
  8
0
 62
     7
100
AcDbLine
 10
269.427337731967
 20
27.3456379274974
 30
0.0
 11
270.0753916241824
 21
26.68456756821595
 31
0.0
  0
LINE
  5
28A
330
1F
100
AcDbEntity
  8
0
 62
     7
100
AcDbLine
 10
270.0753916241824
 20
26.68456756821595
 30
0.0
 11
271.169328749931
 21
26.47408852629979
 31
0.0
  0
LINE
  5
28B
330
1F
100
AcDbEntity
  8
0
 62
     7
100
AcDbLine
 10
270.0753916241824
 20
646.2659393604617
 30
0.0
 11
271.169328749931
 21
646.4736489412999
 31
0.0
  0
LINE
  5
28C
330
1F
100
AcDbEntity
  8
0
 62
     7
100
AcDbLine
 10
271.169328749931
 20
646.4736489412999
 30
0.0
 11
270.0753916241824
 21
646.2659393604617
 31
0.0
  0
LINE
  5
28D
330
1F
100
AcDbEntity
  8
0
 62
     7
100
AcDbLine
 10
270.0753916241824
 20
646.2659393604617
 30
0.0
 11
269.427337731967
 21
645.6040381628568
 31
0.0
  0
LINE
  5
28E
330
1F
100
AcDbEntity
  8
0
 62
     7
100
AcDbLine
 10
269.427337731967
 20
645.6040381628568
 30
0.0
 11
269.2057808457395
 21
644.5239483424977
 31
0.0
  0
LINE
  5
28F
330
1F
100
AcDbEntity
  8
0
 62
     7
100
AcDbLine
 10
268.1201521032244
 20
634.4846519353119
 30
0.0
 11
268.1201521032244
 21
634.4846519353119
 31
0.0
  0
LINE
  5
290
330
1F
100
AcDbEntity
  8
0
 62
     7
100
AcDbLine
 10
268.1201521032244
 20
634.4846519353119
 30
0.0
 11
267.4582509056197
 21
634.2630950490844
 31
0.0
  0
LINE
  5
291
330
1F
100
AcDbEntity
  8
0
 62
     7
100
AcDbLine
 10
267.4582509056197
 20
634.2630950490844
 30
0.0
 11
267.2505413247812
 21
633.6150411568687
 31
0.0
  0
LINE
  5
292
330
1F
100
AcDbEntity
  8
0
 62
     7
100
AcDbLine
 10
267.2505413247812
 20
633.6150411568687
 30
0.0
 11
269.2057808457395
 21
633.6150411568687
 31
0.0
  0
LINE
  5
293
330
1F
100
AcDbEntity
  8
0
 62
     7
100
AcDbLine
 10
269.2057808457395
 20
633.6150411568687
 30
0.0
 11
268.9925323427453
 21
634.2630950490844
 31
0.0
  0
LINE
  5
294
330
1F
100
AcDbEntity
  8
0
 62
     7
100
AcDbLine
 10
268.9925323427453
 20
634.2630950490844
 30
0.0
 11
268.1201521032244
 21
634.4846519353119
 31
0.0
  0
LINE
  5
295
330
1F
100
AcDbEntity
  8
0
 62
     7
100
AcDbLine
 10
268.1201521032244
 20
634.4846519353119
 30
0.0
 11
268.1201521032244
 21
634.4846519353119
 31
0.0
  0
LINE
  5
296
330
1F
100
AcDbEntity
  8
0
 62
     7
100
AcDbLine
 10
268.1201521032244
 20
634.4846519353119
 30
0.0
 11
268.1201521032244
 21
634.4846519353119
 31
0.0
  0
LINE
  5
297
330
1F
100
AcDbEntity
  8
0
 62
     7
100
AcDbLine
 10
268.1201521032244
 20
38.46419331671896
 30
0.0
 11
268.1201521032244
 21
38.46419331671896
 31
0.0
  0
LINE
  5
298
330
1F
100
AcDbEntity
  8
0
 62
     7
100
AcDbLine
 10
268.1201521032244
 20
38.46419331671896
 30
0.0
 11
267.4582509056197
 21
38.68962744845547
 31
0.0
  0
LINE
  5
299
330
1F
100
AcDbEntity
  8
0
 62
     7
100
AcDbLine
 10
267.4582509056197
 20
38.68962744845547
 30
0.0
 11
267.2505413247812
 21
39.33601966402434
 31
0.0
  0
LINE
  5
29A
330
1F
100
AcDbEntity
  8
0
 62
     7
100
AcDbLine
 10
267.2505413247812
 20
39.33601966402434
 30
0.0
 11
267.4582509056197
 21
38.68962744845547
 31
0.0
  0
LINE
  5
29B
330
1F
100
AcDbEntity
  8
0
 62
     7
100
AcDbLine
 10
267.4582509056197
 20
38.68962744845547
 30
0.0
 11
268.1201521032244
 21
38.46419331671896
 31
0.0
  0
LINE
  5
29C
330
1F
100
AcDbEntity
  8
0
 62
     7
100
AcDbLine
 10
268.1201521032244
 20
38.46419331671896
 30
0.0
 11
268.9925323427453
 21
38.68962744845547
 31
0.0
  0
LINE
  5
29D
330
1F
100
AcDbEntity
  8
0
 62
     7
100
AcDbLine
 10
268.9925323427453
 20
38.68962744845547
 30
0.0
 11
269.2057808457395
 21
39.33601966402434
 31
0.0
  0
LINE
  5
29F
330
1F
100
AcDbEntity
  8
0
 62
     7
100
AcDbLine
 10
352.2505413247812
 20
436.6925112167492
 30
0.0
 11
352.2505413247812
 21
28.44234451432381
 31
0.0
  0
LINE
  5
2A0
330
1F
100
AcDbEntity
  8
0
 62
     7
100
AcDbLine
 10
352.2505413247812
 20
28.44234451432381
 30
0.0
 11
352.2505413247812
 21
436.6925112167492
 31
0.0
  0
LINE
  5
2A1
330
1F
100
AcDbEntity
  8
0
 62
     7
100
AcDbLine
 10
365.1537598876557
 20
436.6925112167492
 30
0.0
 11
267.2505413247812
 21
436.6925112167492
 31
0.0
  0
LINE
  5
2A2
330
1F
100
AcDbEntity
  8
0
 62
     7
100
AcDbLine
 10
267.2505413247812
 20
436.6925112167492
 30
0.0
 11
365.1537598876557
 21
436.6925112167492
 31
0.0
  0
LINE
  5
2A4
330
1F
100
AcDbEntity
  8
0
 62
     7
100
AcDbLine
 10
422.2505413247811
 20
621.5036763069498
 30
0.0
 11
422.2505413247811
 21
470.2749962466892
 31
0.0
  0
LINE
  5
2A5
330
1F
100
AcDbEntity
  8
0
 62
     7
100
AcDbLine
 10
269.2057808457395
 20
644.5239483424977
 30
0.0
 11
269.2057808457395
 21
28.44234451432374
 31
0.0
  0
LINE
  5
2A6
330
1F
100
AcDbEntity
  8
0
 62
     7
100
AcDbLine
 10
269.2057808457395
 20
28.44234451432374
 30
0.0
 11
269.2057808457395
 21
644.5239483424977
 31
0.0
  0
LINE
  5
2A7
330
1F
100
AcDbEntity
  8
0
 62
     7
100
AcDbLine
 10
267.2505413247812
 20
39.33601966402439
 30
0.0
 11
267.2505413247812
 21
633.6150411568687
 31
0.0
  0
LINE
  5
2A8
330
1F
100
AcDbEntity
  8
0
 62
     7
100
AcDbLine
 10
267.2505413247812
 20
633.6150411568687
 30
0.0
 11
267.2505413247812
 21
39.33601966402439
 31
0.0
  0
LINE
  5
2A9
330
1F
100
AcDbEntity
  8
0
 62
     7
100
AcDbLine
 10
350.0709754565178
 20
26.47408852629979
 30
0.0
 11
271.169328749931
 21
26.47408852629979
 31
0.0
  0
LINE
  5
2AA
330
1F
100
AcDbEntity
  8
0
 62
     7
100
AcDbLine
 10
271.169328749931
 20
26.47408852629979
 30
0.0
 11
350.0709754565178
 21
26.47408852629979
 31
0.0
  0
LINE
  5
2AB
330
1F
100
AcDbEntity
  8
0
 62
     7
100
AcDbLine
 10
271.169328749931
 20
646.4736489412999
 30
0.0
 11
365.1537598876557
 21
646.4736489412999
 31
0.0
  0
LINE
  5
2AC
330
1F
100
AcDbEntity
  8
0
 62
     7
100
AcDbLine
 10
365.1537598876557
 20
646.4736489412999
 30
0.0
 11
271.169328749931
 21
646.4736489412999
 31
0.0
  0
LINE
  5
2AD
330
1F
100
AcDbEntity
  8
0
 62
     7
100
AcDbLine
 10
365.1537598876557
 20
436.6925112167492
 30
0.0
 11
365.1537598876557
 21
646.4736489412999
 31
0.0
  0
LINE
  5
2AE
330
1F
100
AcDbEntity
  8
0
 62
     7
100
AcDbLine
 10
357.0863197678951
 20
646.4736489412999
 30
0.0
 11
357.0863197678951
 21
436.6925112167492
 31
0.0
  0
LINE
  5
2AF
330
1F
100
AcDbEntity
  8
0
 62
     7
100
AcDbLine
 10
366.0233706660987
 20
437.7919872646534
 30
0.0
 11
366.0233706660987
 21
645.6040381628568
 31
0.0
  0
LINE
  5
2B1
330
1F
100
AcDbEntity
  8
0
 62
     7
100
AcDbLine
 10
422.2505413247811
 20
621.5036763069498
 30
0.0
 11
421.5914095882539
 21
626.6276908574678
 31
0.0
  0
LINE
  5
2B2
330
1F
100
AcDbEntity
  8
0
 62
     7
100
AcDbLine
 10
421.5914095882539
 20
626.6276908574678
 30
0.0
 11
420.0571281511286
 21
633.1774663065697
 31
0.0
  0
LINE
  5
2B3
330
1F
100
AcDbEntity
  8
0
 62
     7
100
AcDbLine
 10
420.0571281511286
 20
633.1774663065697
 30
0.0
 11
417.4399874325656
 21
639.5056848694439
 31
0.0
  0
LINE
  5
2B4
330
1F
100
AcDbEntity
  8
0
 62
     7
100
AcDbLine
 10
417.4399874325656
 20
639.5056848694439
 30
0.0
 11
414.1831012050205
 21
645.6040381628568
 31
0.0
  0
LINE
  5
2B5
330
1F
100
AcDbEntity
  8
0
 62
     7
100
AcDbLine
 10
417.4399874325656
 20
443.6798615161503
 30
0.0
 11
420.0571281511286
 21
450.0053106179467
 31
0.0
  0
LINE
  5
2B6
330
1F
100
AcDbEntity
  8
0
 62
     7
100
AcDbLine
 10
420.0571281511286
 20
450.0053106179467
 30
0.0
 11
421.5914095882539
 21
456.7517178035756
 31
0.0
  0
LINE
  5
2B7
330
1F
100
AcDbEntity
  8
0
 62
     7
100
AcDbLine
 10
421.5914095882539
 20
456.7517178035756
 30
0.0
 11
422.4610203666974
 21
463.5285890610606
 31
0.0
  0
LINE
  5
2B8
330
1F
100
AcDbEntity
  8
0
 62
     7
100
AcDbLine
 10
422.4610203666974
 20
463.5285890610606
 30
0.0
 11
422.2505413247811
 21
470.2749962466892
 31
0.0
  0
LINE
  5
2B9
330
1F
100
AcDbEntity
  8
0
 62
     7
100
AcDbLine
 10
417.4399874325656
 20
443.6798615161503
 30
0.0
 11
414.1831012050205
 21
437.7919872646534
 31
0.0
  0
LINE
  5
2BA
330
1F
100
AcDbEntity
  8
0
 62
     7
100
AcDbLine
 10
366.0233706660987
 20
645.6040381628568
 30
0.0
 11
365.1537598876557
 21
646.4736489412999
 31
0.0
  0
LINE
  5
2BB
330
1F
100
AcDbEntity
  8
0
 62
     7
100
AcDbLine
 10
365.1537598876557
 20
646.4736489412999
 30
0.0
 11
366.0233706660987
 21
645.6040381628568
 31
0.0
  0
LINE
  5
2BC
330
1F
100
AcDbEntity
  8
0
 62
     7
100
AcDbLine
 10
366.0233706660987
 20
645.6040381628568
 30
0.0
 11
414.1831012050205
 21
645.6040381628568
 31
0.0
  0
LINE
  5
2BD
330
1F
100
AcDbEntity
  8
0
 62
     7
100
AcDbLine
 10
366.0233706660987
 20
437.7919872646534
 30
0.0
 11
365.1537598876557
 21
436.6925112167492
 31
0.0
  0
LINE
  5
2BE
330
1F
100
AcDbEntity
  8
0
 62
     7
100
AcDbLine
 10
365.1537598876557
 20
436.6925112167492
 30
0.0
 11
366.0233706660987
 21
437.7919872646534
 31
0.0
  0
LINE
  5
2BF
330
1F
100
AcDbEntity
  8
0
 62
     7
100
AcDbLine
 10
366.0233706660987
 20
437.7919872646534
 30
0.0
 11
414.1831012050205
 21
437.7919872646534
 31
0.0
  0
LINE
  5
4B6
330
1F
100
AcDbEntity
  8
Q
 62
     3
100
AcDbLine
 10
-15.67485703447721
 20
388.7576270292334
 30
0.0
 11
-158.6744547144772
 21
388.7576270292334
 31
0.0
  0
LINE
  5
4B7
330
1F
100
AcDbEntity
  8
Q
 62
     3
100
AcDbLine
 10
-158.6744547144772
 20
388.7576270292334
 30
0.0
 11
-158.6744547144772
 21
63.75762702923339
 31
0.0
  0
LINE
  5
4B8
330
1F
100
AcDbEntity
  8
Q
 62
     3
100
AcDbLine
 10
-158.6744547144772
 20
63.75762702923339
 30
0.0
 11
-15.67485703447721
 21
63.75762702923339
 31
0.0
  0
LINE
  5
4B9
330
1F
100
AcDbEntity
  8
Q
 62
     3
100
AcDbLine
 10
-15.67485703447721
 20
63.75762702923339
 30
0.0
 11
-15.67485703447721
 21
388.7576270292334
 31
0.0
  0
LINE
  5
4BA
330
1F
100
AcDbEntity
  8
Q
 62
     3
100
AcDbLine
 10
-15.67485703447721
 20
63.75762702923339
 30
0.0
 11
-15.67485703447721
 21
42.33896292923339
 31
0.0
  0
LINE
  5
4BB
330
1F
100
AcDbEntity
  8
Q
 62
     3
100
AcDbLine
 10
-15.67485703447721
 20
42.33896292923339
 30
0.0
 11
-158.6744547144772
 21
42.33896292923339
 31
0.0
  0
LINE
  5
4BC
330
1F
100
AcDbEntity
  8
Q
 62
     3
100
AcDbLine
 10
-158.6744547144772
 20
42.33896292923339
 30
0.0
 11
-158.6744547144772
 21
63.75762702923339
 31
0.0
  0
DIMENSION
  5
4FC
330
1F
100
AcDbEntity
  8
0
 62
     1
100
AcDbDimension
  2
*D8
 10
9.512123665013069
 20
646.4741008467179
 30
0.0
 11
9.51212366501295
 21
394.002061027631
 31
0.0
 70
   160
 71
     0
 42
619.9895927247784
  3
Standard
100
AcDbAlignedDimension
 13
88.89621216394152
 23
26.4845081219394
 33
0.0
 14
89.43751494578094
 24
646.4741008467179
 34
0.0
 50
90.0
100
AcDbRotatedDimension
1001
ACAD
1000
DSTYLE
1002
{
1070
    41
1040
6.0
1070
   140
1040
7.0
1070
   271
1070
     1
1002
}
  0
DIMENSION
  5
4FD
330
1F
100
AcDbEntity
  8
0
 62
     1
100
AcDbDimension
  2
*D9
 10
422.2505413247811
 20
679.5199067641576
 30
-0.0000000000000119
 11
349.609401941686
 21
679.5199067641576
 31
-0.0000000000000119
 70
   160
 71
     0
 42
154.9999999999999
  3
Standard
100
AcDbAlignedDimension
 13
267.2505413247812
 23
633.6775411568688
 33
-0.0000000000000119
 14
422.2505413247811
 24
621.5036763069498
 34
0.0
100
AcDbRotatedDimension
1001
ACAD
1000
DSTYLE
1002
{
1070
    41
1040
6.0
1070
   140
1040
7.0
1070
   271
1070
     1
1002
}
  0
DIMENSION
  5
4FE
330
1F
100
AcDbEntity
  8
0
 62
     1
100
AcDbDimension
  2
*D10
 10
352.2505413247812
 20
13.29154249533303
 30
-0.0000000000000119
 11
311.5149522003022
 21
13.29154249533303
 31
-0.0000000000000119
 70
   160
 71
     0
 42
84.99999999999992
  3
Standard
100
AcDbAlignedDimension
 13
267.2505413247812
 23
39.39851966402434
 33
-0.0000000000000238
 14
352.2505413247812
 24
28.44234451432374
 34
0.0
100
AcDbRotatedDimension
1001
ACAD
1000
DSTYLE
1002
{
1070
    41
1040
6.0
1070
   140
1040
7.0
1070
   271
1070
     1
1002
}
  0
DIMENSION
  5
4FF
330
1F
100
AcDbEntity
  8
0
 62
     1
100
AcDbDimension
  2
*D11
 10
224.0994061237794
 20
680.7702832830194
 30
0.0000000000000119
 11
150.0994061231013
 21
680.7702832830194
 31
0.0000000000000119
 70
   160
 71
     0
 42
148.0000000013561
  3
Standard
100
AcDbAlignedDimension
 13
76.09940612242329
 23
633.2824286582057
 33
0.0
 14
224.0994061237794
 24
633.085065206491
 34
0.0
100
AcDbRotatedDimension
1001
ACAD
1000
DSTYLE
1002
{
1070
    41
1040
6.0
1070
   140
1040
7.0
1070
   271
1070
     1
1002
}
  0
LINE
  5
1363
330
1F
100
AcDbEntity
  8
0
 62
     7
370
     9
100
AcDbLine
 10
210.5972328337795
 20
646.4731964462997
 30
0.0
 11
89.43851457377943
 21
646.4741014362997
 31
0.0
  0
LINE
  5
1364
330
1F
100
AcDbEntity
  8
0
 62
     7
370
     9
100
AcDbLine
 10
224.0994061237794
 20
39.6648563262998
 30
0.0
 11
224.0994061237794
 21
633.2824286562997
 31
0.0
  0
LINE
  5
1365
330
1F
100
AcDbEntity
  8
0
 62
     7
370
     9
100
AcDbLine
 10
89.60157941377941
 20
26.47408852629979
 30
0.0
 11
210.5972328337795
 21
26.47408852629979
 31
0.0
  0
LINE
  5
1366
330
1F
100
AcDbEntity
  8
0
 62
     7
370
     9
100
AcDbLine
 10
76.09940612377944
 20
633.2824286562997
 30
0.0
 11
76.09940612377944
 21
39.6648563262998
 31
0.0
  0
LINE
  5
1367
330
1F
100
AcDbEntity
  8
0
 62
     7
370
     9
100
AcDbLine
 10
211.2884043837794
 20
438.9845086662996
 30
0.0
 11
88.91040786377947
 21
438.9845086662996
 31
0.0
  0
LINE
  5
1368
330
1F
100
AcDbEntity
  8
0
 62
     7
370
     9
100
AcDbLine
 10
76.09940612377944
 20
447.5136334062998
 30
0.0
 11
76.09940612377944
 21
450.8620496962998
 31
0.0
  0
LINE
  5
1369
330
1F
100
AcDbEntity
  8
0
 62
     7
370
     9
100
AcDbLine
 10
210.5972328337795
 20
436.4731964462998
 30
0.0
 11
89.60157941377941
 21
436.4731964462998
 31
0.0
  0
LINE
  5
136A
330
1F
100
AcDbEntity
  8
0
 62
     7
370
     9
100
AcDbLine
 10
221.5880939037794
 20
449.5273515762996
 30
0.0
 11
221.5880939037794
 21
633.4190413162997
 31
0.0
  0
LINE
  5
136B
330
1F
100
AcDbEntity
  8
0
 62
     7
370
     9
100
AcDbLine
 10
78.61071834377947
 20
633.4190413162997
 30
0.0
 11
78.61071834377947
 21
449.5273515762996
 31
0.0
  0
LINE
  5
136C
330
1F
100
AcDbEntity
  8
0
 62
     7
370
     9
100
AcDbLine
 10
211.2884043837794
 20
643.9618842362997
 30
0.0
 11
88.91040786377947
 21
643.9618842362997
 31
0.0
  0
LINE
  5
136D
330
1F
100
AcDbEntity
  8
0
 62
     7
370
     5
100
AcDbLine
 10
113.6853789737795
 20
634.7537394362997
 30
0.0
 11
113.6853789737795
 21
614.6632416962997
 31
0.0
  0
LINE
  5
136E
330
1F
100
AcDbEntity
  8
0
 62
     7
370
     5
100
AcDbLine
 10
186.5134332737794
 20
614.6632416962997
 30
0.0
 11
186.5134332737794
 21
634.7537394362997
 31
0.0
  0
LINE
  5
136F
330
1F
100
AcDbEntity
  8
0
 62
     7
370
     5
100
AcDbLine
 10
115.3595871237794
 20
612.9890335562997
 30
0.0
 11
184.0021210537794
 21
612.9890335562997
 31
0.0
  0
LINE
  5
1370
330
1F
100
AcDbEntity
  8
0
 62
     7
370
     5
100
AcDbLine
 10
184.0021210537794
 20
637.2650516562997
 30
0.0
 11
116.1966911937794
 21
637.2650516562997
 31
0.0
  0
LINE
  5
1371
330
1F
100
AcDbEntity
  8
0
 62
     7
370
     5
100
AcDbLine
 10
186.5134332737794
 20
634.7537394362997
 30
0.0
 11
186.5134332737794
 21
635.5908435062997
 31
0.0
  0
LINE
  5
1372
330
1F
100
AcDbEntity
  8
0
 62
     7
370
     5
100
AcDbLine
 10
186.5134332737794
 20
635.5908435062997
 30
0.0
 11
185.6763292037794
 21
636.4279475762997
 31
0.0
  0
LINE
  5
1373
330
1F
100
AcDbEntity
  8
0
 62
     7
370
     5
100
AcDbLine
 10
185.6763292037794
 20
636.4279475762997
 30
0.0
 11
184.0021210537794
 21
637.2650516562997
 31
0.0
  0
LINE
  5
1374
330
1F
100
AcDbEntity
  8
0
 62
     7
370
     5
100
AcDbLine
 10
184.0021210537794
 20
612.9890335562997
 30
0.0
 11
185.6763292037794
 21
612.9890335562997
 31
0.0
  0
LINE
  5
1375
330
1F
100
AcDbEntity
  8
0
 62
     7
370
     5
100
AcDbLine
 10
185.6763292037794
 20
612.9890335562997
 30
0.0
 11
186.5134332737794
 21
613.8261376262997
 31
0.0
  0
LINE
  5
1376
330
1F
100
AcDbEntity
  8
0
 62
     7
370
     5
100
AcDbLine
 10
186.5134332737794
 20
613.8261376262997
 30
0.0
 11
186.5134332737794
 21
614.6632416962997
 31
0.0
  0
LINE
  5
1377
330
1F
100
AcDbEntity
  8
0
 62
     7
370
     5
100
AcDbLine
 10
113.6853789737795
 20
613.8261376262997
 30
0.0
 11
113.6853789737795
 21
614.6632416962997
 31
0.0
  0
LINE
  5
1378
330
1F
100
AcDbEntity
  8
0
 62
     7
370
     5
100
AcDbLine
 10
113.6853789737795
 20
614.6632416962997
 30
0.0
 11
113.6853789737795
 21
613.8261376262997
 31
0.0
  0
LINE
  5
1379
330
1F
100
AcDbEntity
  8
0
 62
     7
370
     5
100
AcDbLine
 10
113.6853789737795
 20
613.8261376262997
 30
0.0
 11
114.5224830437794
 21
612.9890335562997
 31
0.0
  0
LINE
  5
137A
330
1F
100
AcDbEntity
  8
0
 62
     7
370
     5
100
AcDbLine
 10
114.5224830437794
 20
612.9890335562997
 30
0.0
 11
115.3595871237794
 21
612.9890335562997
 31
0.0
  0
ARC
  5
137B
330
1F
100
AcDbEntity
  8
0
 62
     7
100
AcDbCircle
 10
89.44597256377949
 20
633.1266277462997
 30
0.0
 40
13.34747578
100
AcDbArc
 50
89.33202218000074
 51
179.33118909
  0
CIRCLE
  5
137C
330
1F
100
AcDbEntity
  8
0
 62
     7
100
AcDbCircle
 10
88.77892927377946
 20
633.6291390362998
 30
0.0
 40
7.637817039999998
  0
LINE
  5
137D
330
1F
100
AcDbEntity
  8
0
 62
     7
100
AcDbLine
 10
84.29589495377944
 20
631.3782167062997
 30
0.0
 11
86.93062495377942
 21
633.7184997262998
 31
0.0
  0
LINE
  5
137E
330
1F
100
AcDbEntity
  8
0
 62
     7
100
AcDbLine
 10
85.92425598377941
 20
629.6251228762997
 30
0.0
 11
88.72131485377941
 21
632.1207730562997
 31
0.0
  0
LINE
  5
137F
330
1F
100
AcDbEntity
  8
0
 62
     7
100
AcDbLine
 10
91.5183737237794
 20
637.7935398662997
 30
0.0
 11
93.09666175377945
 21
636.0246362762997
 31
0.0
  0
LINE
  5
1380
330
1F
100
AcDbEntity
  8
0
 62
     7
100
AcDbLine
 10
84.29589495377944
 20
631.3782167062997
 30
0.0
 11
85.92425598377941
 21
629.6251228762997
 31
0.0
  0
ARC
  5
1381
330
1F
100
AcDbEntity
  8
0
 62
     7
100
AcDbCircle
 10
90.05864550377941
 20
632.5376353162997
 30
0.0
 40
11.48180791
100
AcDbArc
 50
95.73945561999741
 51
175.5973331100011
  0
LINE
  5
1382
330
1F
100
AcDbEntity
  8
0
 62
     7
100
AcDbLine
 10
93.14673475377949
 20
631.3782167062997
 30
0.0
 11
90.5120047537795
 21
633.7184997262998
 31
0.0
  0
LINE
  5
1383
330
1F
100
AcDbEntity
  8
0
 62
     7
100
AcDbLine
 10
91.5183737237794
 20
629.6251228762997
 30
0.0
 11
88.72131485377941
 21
632.1207730562997
 31
0.0
  0
LINE
  5
1384
330
1F
100
AcDbEntity
  8
0
 62
     7
100
AcDbLine
 10
85.92425598377941
 20
637.7935398662997
 30
0.0
 11
84.34596795377945
 21
636.0246362762997
 31
0.0
  0
LINE
  5
1385
330
1F
100
AcDbEntity
  8
0
 62
     7
100
AcDbLine
 10
93.14673475377949
 20
631.3782167062997
 30
0.0
 11
91.5183737237794
 21
629.6251228762997
 31
0.0
  0
LINE
  5
1386
330
1F
100
AcDbEntity
  8
0
 62
     7
100
AcDbLine
 10
88.72131485377941
 20
635.3090692162997
 30
0.0
 11
91.5183737237794
 21
637.7935398662997
 31
0.0
  0
LINE
  5
1387
330
1F
100
AcDbEntity
  8
0
 62
     7
100
AcDbLine
 10
88.72131485377941
 20
635.3090692162997
 30
0.0
 11
85.92425598377941
 21
637.7935398662997
 31
0.0
  0
LINE
  5
1388
330
1F
100
AcDbEntity
  8
0
 62
     7
100
AcDbLine
 10
90.5120047537795
 20
633.7184997262998
 30
0.0
 11
93.09666175377945
 21
636.0246362762997
 31
0.0
  0
LINE
  5
1389
330
1F
100
AcDbEntity
  8
0
 62
     7
100
AcDbLine
 10
86.93062495377942
 20
633.7184997262998
 30
0.0
 11
84.34596795377945
 21
636.0246362762997
 31
0.0
  0
ARC
  5
138A
330
1F
100
AcDbEntity
  8
0
 62
     7
100
AcDbCircle
 10
210.7528396837795
 20
633.1266277462997
 30
0.0
 40
13.34747578
100
AcDbArc
 50
0.6688109099999842
 51
90.66797781999929
  0
CIRCLE
  5
138B
330
1F
100
AcDbEntity
  8
0
 62
     7
100
AcDbCircle
 10
211.4198829737794
 20
633.6291390362998
 30
0.0
 40
7.637817039999998
  0
LINE
  5
138C
330
1F
100
AcDbEntity
  8
0
 62
     7
100
AcDbLine
 10
215.9029172937794
 20
631.3782167062997
 30
0.0
 11
213.2681872937794
 21
633.7184997262998
 31
0.0
  0
LINE
  5
138D
330
1F
100
AcDbEntity
  8
0
 62
     7
100
AcDbLine
 10
211.4774973937795
 20
635.3090692162997
 30
0.0
 11
208.6804385237794
 21
637.7935398662997
 31
0.0
  0
LINE
  5
138E
330
1F
100
AcDbEntity
  8
0
 62
     7
100
AcDbLine
 10
214.2745562637795
 20
629.6251228762997
 30
0.0
 11
211.4774973937795
 21
632.1207730562997
 31
0.0
  0
LINE
  5
138F
330
1F
100
AcDbEntity
  8
0
 62
     7
100
AcDbLine
 10
209.6868074937794
 20
633.7184997262998
 30
0.0
 11
207.1021504937795
 21
636.0246362762997
 31
0.0
  0
LINE
  5
1390
330
1F
100
AcDbEntity
  8
0
 62
     7
100
AcDbLine
 10
208.6804385237794
 20
637.7935398662997
 30
0.0
 11
207.1021504937795
 21
636.0246362762997
 31
0.0
  0
LINE
  5
1391
330
1F
100
AcDbEntity
  8
0
 62
     7
100
AcDbLine
 10
215.9029172937794
 20
631.3782167062997
 30
0.0
 11
214.2745562637795
 21
629.6251228762997
 31
0.0
  0
ARC
  5
1392
330
1F
100
AcDbEntity
  8
0
 62
     7
100
AcDbCircle
 10
210.1401667437794
 20
632.5376353162997
 30
0.0
 40
11.48180791
100
AcDbArc
 50
4.402666889998866
 51
84.2605443800026
  0
LINE
  5
1393
330
1F
100
AcDbEntity
  8
0
 62
     7
100
AcDbLine
 10
207.0520774937794
 20
631.3782167062997
 30
0.0
 11
209.6868074937794
 21
633.7184997262998
 31
0.0
  0
LINE
  5
1394
330
1F
100
AcDbEntity
  8
0
 62
     7
100
AcDbLine
 10
211.4774973937795
 20
635.3090692162997
 30
0.0
 11
214.2745562637795
 21
637.7935398662997
 31
0.0
  0
LINE
  5
1395
330
1F
100
AcDbEntity
  8
0
 62
     7
100
AcDbLine
 10
208.6804385237794
 20
629.6251228762997
 30
0.0
 11
211.4774973937795
 21
632.1207730562997
 31
0.0
  0
LINE
  5
1396
330
1F
100
AcDbEntity
  8
0
 62
     7
100
AcDbLine
 10
213.2681872937794
 20
633.7184997262998
 30
0.0
 11
215.8528442937794
 21
636.0246362762997
 31
0.0
  0
LINE
  5
1397
330
1F
100
AcDbEntity
  8
0
 62
     7
100
AcDbLine
 10
214.2745562637795
 20
637.7935398662997
 30
0.0
 11
215.8528442937794
 21
636.0246362762997
 31
0.0
  0
LINE
  5
1398
330
1F
100
AcDbEntity
  8
0
 62
     7
100
AcDbLine
 10
207.0520774937794
 20
631.3782167062997
 30
0.0
 11
208.6804385237794
 21
629.6251228762997
 31
0.0
  0
ARC
  5
1399
330
1F
100
AcDbEntity
  8
0
 62
     7
100
AcDbCircle
 10
89.44597256377949
 20
449.8197651562998
 30
0.0
 40
13.34747578
100
AcDbArc
 50
180.66881091
 51
270.6679778199992
  0
CIRCLE
  5
139A
330
1F
100
AcDbEntity
  8
0
 62
     7
100
AcDbCircle
 10
88.77892927377946
 20
449.3172538662998
 30
0.0
 40
7.637817039999998
  0
LINE
  5
139B
330
1F
100
AcDbEntity
  8
0
 62
     7
100
AcDbLine
 10
84.29589495377944
 20
451.5681761862998
 30
0.0
 11
86.93062495377942
 21
449.2278931762998
 31
0.0
  0
LINE
  5
139C
330
1F
100
AcDbEntity
  8
0
 62
     7
100
AcDbLine
 10
88.72131485377941
 20
447.6373236862998
 30
0.0
 11
91.5183737237794
 21
445.1528530362998
 31
0.0
  0
LINE
  5
139D
330
1F
100
AcDbEntity
  8
0
 62
     7
100
AcDbLine
 10
85.92425598377941
 20
453.3212700262998
 30
0.0
 11
88.72131485377941
 21
450.8256198462998
 31
0.0
  0
LINE
  5
139E
330
1F
100
AcDbEntity
  8
0
 62
     7
100
AcDbLine
 10
90.5120047537795
 20
449.2278931762998
 30
0.0
 11
93.09666175377945
 21
446.9217566162998
 31
0.0
  0
LINE
  5
139F
330
1F
100
AcDbEntity
  8
0
 62
     7
100
AcDbLine
 10
91.5183737237794
 20
445.1528530362998
 30
0.0
 11
93.09666175377945
 21
446.9217566162998
 31
0.0
  0
LINE
  5
13A0
330
1F
100
AcDbEntity
  8
0
 62
     7
100
AcDbLine
 10
84.29589495377944
 20
451.5681761862998
 30
0.0
 11
85.92425598377941
 21
453.3212700262998
 31
0.0
  0
ARC
  5
13A1
330
1F
100
AcDbEntity
  8
0
 62
     7
100
AcDbCircle
 10
90.05864550377941
 20
450.4087575762998
 30
0.0
 40
11.48180791
100
AcDbArc
 50
184.4026668899988
 51
264.2605443800026
  0
LINE
  5
13A2
330
1F
100
AcDbEntity
  8
0
 62
     7
100
AcDbLine
 10
93.14673475377949
 20
451.5681761862998
 30
0.0
 11
90.5120047537795
 21
449.2278931762998
 31
0.0
  0
LINE
  5
13A3
330
1F
100
AcDbEntity
  8
0
 62
     7
100
AcDbLine
 10
88.72131485377941
 20
447.6373236862998
 30
0.0
 11
85.92425598377941
 21
445.1528530362998
 31
0.0
  0
LINE
  5
13A4
330
1F
100
AcDbEntity
  8
0
 62
     7
100
AcDbLine
 10
91.5183737237794
 20
453.3212700262998
 30
0.0
 11
88.72131485377941
 21
450.8256198462998
 31
0.0
  0
LINE
  5
13A5
330
1F
100
AcDbEntity
  8
0
 62
     7
100
AcDbLine
 10
86.93062495377942
 20
449.2278931762998
 30
0.0
 11
84.34596795377945
 21
446.9217566162998
 31
0.0
  0
LINE
  5
13A6
330
1F
100
AcDbEntity
  8
0
 62
     7
100
AcDbLine
 10
85.92425598377941
 20
445.1528530362998
 30
0.0
 11
84.34596795377945
 21
446.9217566162998
 31
0.0
  0
LINE
  5
13A7
330
1F
100
AcDbEntity
  8
0
 62
     7
100
AcDbLine
 10
93.14673475377949
 20
451.5681761862998
 30
0.0
 11
91.5183737237794
 21
453.3212700262998
 31
0.0
  0
ARC
  5
13A8
330
1F
100
AcDbEntity
  8
0
 62
     7
100
AcDbCircle
 10
210.7528396837795
 20
449.8197651562998
 30
0.0
 40
13.34747578
100
AcDbArc
 50
269.3320221800008
 51
359.33118909
  0
CIRCLE
  5
13A9
330
1F
100
AcDbEntity
  8
0
 62
     7
100
AcDbCircle
 10
211.4198829737794
 20
449.3172538662998
 30
0.0
 40
7.637817039999998
  0
LINE
  5
13AA
330
1F
100
AcDbEntity
  8
0
 62
     7
100
AcDbLine
 10
215.9029172937794
 20
451.5681761862998
 30
0.0
 11
213.2681872937794
 21
449.2278931762998
 31
0.0
  0
LINE
  5
13AB
330
1F
100
AcDbEntity
  8
0
 62
     7
100
AcDbLine
 10
211.4774973937795
 20
447.6373236862998
 30
0.0
 11
208.6804385237794
 21
445.1528530362998
 31
0.0
  0
LINE
  5
13AC
330
1F
100
AcDbEntity
  8
0
 62
     7
100
AcDbLine
 10
214.2745562637795
 20
453.3212700262998
 30
0.0
 11
211.4774973937795
 21
450.8256198462998
 31
0.0
  0
LINE
  5
13AD
330
1F
100
AcDbEntity
  8
0
 62
     7
100
AcDbLine
 10
209.6868074937794
 20
449.2278931762998
 30
0.0
 11
207.1021504937795
 21
446.9217566162998
 31
0.0
  0
LINE
  5
13AE
330
1F
100
AcDbEntity
  8
0
 62
     7
100
AcDbLine
 10
208.6804385237794
 20
445.1528530362998
 30
0.0
 11
207.1021504937795
 21
446.9217566162998
 31
0.0
  0
LINE
  5
13AF
330
1F
100
AcDbEntity
  8
0
 62
     7
100
AcDbLine
 10
215.9029172937794
 20
451.5681761862998
 30
0.0
 11
214.2745562637795
 21
453.3212700262998
 31
0.0
  0
ARC
  5
13B0
330
1F
100
AcDbEntity
  8
0
 62
     7
100
AcDbCircle
 10
210.1401667437794
 20
450.4087575762998
 30
0.0
 40
11.48180791
100
AcDbArc
 50
275.7394556199974
 51
355.5973331100012
  0
LINE
  5
13B1
330
1F
100
AcDbEntity
  8
0
 62
     7
100
AcDbLine
 10
207.0520774937794
 20
451.5681761862998
 30
0.0
 11
209.6868074937794
 21
449.2278931762998
 31
0.0
  0
LINE
  5
13B2
330
1F
100
AcDbEntity
  8
0
 62
     7
100
AcDbLine
 10
211.4774973937795
 20
447.6373236862998
 30
0.0
 11
214.2745562637795
 21
445.1528530362998
 31
0.0
  0
LINE
  5
13B3
330
1F
100
AcDbEntity
  8
0
 62
     7
100
AcDbLine
 10
208.6804385237794
 20
453.3212700262998
 30
0.0
 11
211.4774973937795
 21
450.8256198462998
 31
0.0
  0
LINE
  5
13B4
330
1F
100
AcDbEntity
  8
0
 62
     7
100
AcDbLine
 10
213.2681872937794
 20
449.2278931762998
 30
0.0
 11
215.8528442937794
 21
446.9217566162998
 31
0.0
  0
LINE
  5
13B5
330
1F
100
AcDbEntity
  8
0
 62
     7
100
AcDbLine
 10
214.2745562637795
 20
445.1528530362998
 30
0.0
 11
215.8528442937794
 21
446.9217566162998
 31
0.0
  0
LINE
  5
13B6
330
1F
100
AcDbEntity
  8
0
 62
     7
100
AcDbLine
 10
207.0520774937794
 20
451.5681761862998
 30
0.0
 11
208.6804385237794
 21
453.3212700262998
 31
0.0
  0
LINE
  5
13B7
330
1F
100
AcDbEntity
  8
0
 62
     7
370
     5
100
AcDbLine
 10
113.6853789737795
 20
634.7537394362997
 30
0.0
 11
113.6853789737795
 21
635.5908435062997
 31
0.0
  0
LINE
  5
13B8
330
1F
100
AcDbEntity
  8
0
 62
     7
370
     5
100
AcDbLine
 10
113.6853789737795
 20
635.5908435062997
 30
0.0
 11
114.5224830437794
 21
636.4279475762997
 31
0.0
  0
LINE
  5
13B9
330
1F
100
AcDbEntity
  8
0
 62
     7
370
     5
100
AcDbLine
 10
114.5224830437794
 20
636.4279475762997
 30
0.0
 11
116.1966911937794
 21
637.2650516562997
 31
0.0
  0
ARC
  5
13BA
330
1F
100
AcDbEntity
  8
0
 62
     7
100
AcDbCircle
 10
89.44597256377949
 20
39.82065723629985
 30
0.0
 40
13.34747578
100
AcDbArc
 50
180.66881091
 51
270.6679778199992
  0
ARC
  5
13BB
330
1F
100
AcDbEntity
  8
0
 62
     7
100
AcDbCircle
 10
210.7528396837795
 20
39.82065723629985
 30
0.0
 40
13.34747578
100
AcDbArc
 50
269.3320221800008
 51
359.33118909
  0
LWPOLYLINE
  5
1513
330
1F
100
AcDbEntity
  8
0
 62
     7
370
     9
100
AcDbPolyline
 90
        2
 70
     0
 43
0.0
 10
207.1582819603146
 20
425.6133581822996
 10
93.27546217031459
 20
425.6133581822996
  0
LWPOLYLINE
  5
1514
330
1F
100
AcDbEntity
  8
0
 62
     7
370
     9
100
AcDbPolyline
 90
        2
 70
     0
 43
0.0
 10
78.3236032503146
 20
411.4484392122996
 10
78.3236032503146
 20
262.7167900222996
  0
LWPOLYLINE
  5
1515
330
1F
100
AcDbEntity
  8
0
 62
     7
370
     9
100
AcDbPolyline
 90
        2
 70
     0
 43
0.0
 10
210.3060417303146
 20
415.3831389222998
 10
210.3060417303146
 20
421.6786584722997
  0
LWPOLYLINE
  5
1516
330
1F
100
AcDbEntity
  8
0
 62
     7
370
     9
100
AcDbPolyline
 90
        4
 70
     0
 43
0.0
 10
93.27546217031459
 20
425.6133581822996
 10
90.91464234031455
 20
424.8264182422996
 10
90.12770239031459
 20
423.2525383522996
 10
89.34076245031453
 20
421.6786584722997
  0
LWPOLYLINE
  5
1517
330
1F
100
AcDbEntity
  8
0
 62
     7
370
     9
100
AcDbPolyline
 90
        4
 70
     0
 43
0.0
 10
210.3060417303146
 20
421.6786584722997
 10
210.3060417303146
 20
423.2525383522996
 10
208.7321618503146
 20
424.8264182422996
 10
207.1582819603146
 20
425.6133581822996
  0
LWPOLYLINE
  5
1518
330
1F
100
AcDbEntity
  8
0
 62
     7
370
     9
100
AcDbPolyline
 90
        4
 70
     0
 43
0.0
 10
221.3232009303147
 20
411.4484392122996
 10
221.3232009303147
 20
413.8092590422996
 10
219.7493210403144
 20
414.5961989822998
 10
218.1754411603147
 20
415.3831389222998
  0
LWPOLYLINE
  5
1519
330
1F
100
AcDbEntity
  8
0
 62
     7
370
     9
100
AcDbPolyline
 90
        4
 70
     0
 43
0.0
 10
82.25830297031455
 20
415.3831389222998
 10
79.89748314031459
 20
414.5961989822998
 10
79.11054320031457
 20
413.8092590422996
 10
78.3236032503146
 20
411.4484392122996
  0
LWPOLYLINE
  5
151A
330
1F
100
AcDbEntity
  8
0
 62
     7
370
     9
100
AcDbPolyline
 90
        2
 70
     0
 43
0.0
 10
93.27546217031459
 20
40.72334969629985
 10
207.1582819603146
 20
40.72334969629985
  0
LWPOLYLINE
  5
151B
330
1F
100
AcDbEntity
  8
0
 62
     7
370
     9
100
AcDbPolyline
 90
        2
 70
     0
 43
0.0
 10
82.25830297031455
 20
50.16662901629985
 10
89.34076245031453
 20
50.16662901629985
  0
LWPOLYLINE
  5
151C
330
1F
100
AcDbEntity
  8
0
 62
     7
370
     9
100
AcDbPolyline
 90
        2
 70
     0
 43
0.0
 10
78.3236032503146
 20
54.10132872629985
 10
78.3236032503146
 20
262.7167900222996
  0
LWPOLYLINE
  5
151D
330
1F
100
AcDbEntity
  8
0
 62
     7
370
     9
100
AcDbPolyline
 90
        2
 70
     0
 43
0.0
 10
210.3060417303146
 20
50.16662901629985
 10
218.1754411603147
 20
50.16662901629985
  0
LWPOLYLINE
  5
151E
330
1F
100
AcDbEntity
  8
0
 62
     7
370
     9
100
AcDbPolyline
 90
        2
 70
     0
 43
0.0
 10
221.3232009303147
 20
54.10132872629985
 10
221.3232009303147
 20
262.7167900222996
  0
LWPOLYLINE
  5
151F
330
1F
100
AcDbEntity
  8
0
 62
     7
370
     9
100
AcDbPolyline
 90
        4
 70
     0
 43
0.0
 10
89.34076245031453
 20
43.87110946629984
 10
90.12770239031459
 20
42.29722958629981
 10
90.91464234031455
 20
40.72334969629985
 10
93.27546217031459
 20
40.72334969629985
  0
LWPOLYLINE
  5
1520
330
1F
100
AcDbEntity
  8
0
 62
     7
370
     9
100
AcDbPolyline
 90
        4
 70
     0
 43
0.0
 10
207.1582819603146
 20
40.72334969629985
 10
208.7321618503146
 20
40.72334969629985
 10
210.3060417303146
 20
42.29722958629981
 10
210.3060417303146
 20
43.87110946629984
  0
LWPOLYLINE
  5
1521
330
1F
100
AcDbEntity
  8
0
 62
     7
370
     9
100
AcDbPolyline
 90
        4
 70
     0
 43
0.0
 10
78.3236032503146
 20
54.10132872629985
 10
79.11054320031457
 20
51.74050889629989
 10
79.89748314031459
 20
50.95356895629986
 10
82.25830297031455
 20
50.16662901629985
  0
LWPOLYLINE
  5
1522
330
1F
100
AcDbEntity
  8
0
 62
     7
370
     9
100
AcDbPolyline
 90
        4
 70
     0
 43
0.0
 10
218.1754411603147
 20
50.16662901629985
 10
219.7493210403144
 20
50.95356895629986
 10
221.3232009303147
 20
51.74050889629989
 10
221.3232009303147
 20
54.10132872629985
  0
LWPOLYLINE
  5
1523
330
1F
100
AcDbEntity
  8
0
 62
     7
370
     9
100
AcDbPolyline
 90
        2
 70
     0
 43
0.0
 10
210.3060417303146
 20
415.3831389222998
 10
218.1754411603147
 20
415.3831389222998
  0
LWPOLYLINE
  5
1524
330
1F
100
AcDbEntity
  8
0
 62
     7
370
     9
100
AcDbPolyline
 90
        2
 70
     0
 43
0.0
 10
82.25830297031455
 20
415.3831389222998
 10
89.34076245031453
 20
415.3831389222998
  0
LWPOLYLINE
  5
1525
330
1F
100
AcDbEntity
  8
0
 62
     7
370
     9
100
AcDbPolyline
 90
        2
 70
     0
 43
0.0
 10
221.3232009303147
 20
262.7167900222996
 10
221.3232009303147
 20
411.4484392122996
  0
CIRCLE
  5
1526
330
1F
100
AcDbEntity
  8
0
 62
     7
100
AcDbCircle
 10
83.93268583031455
 20
409.0586063622996
 30
0.0
 40
3.292483069999998
  0
CIRCLE
  5
1527
330
1F
100
AcDbEntity
  8
0
 62
     7
100
AcDbCircle
 10
215.8336443103146
 20
409.0586063622996
 30
0.0
 40
3.292483069999998
  0
CIRCLE
  5
1528
330
1F
100
AcDbEntity
  8
0
 62
     7
100
AcDbCircle
 10
83.93268583031455
 20
56.89571736629988
 30
0.0
 40
3.292483069999998
  0
CIRCLE
  5
1529
330
1F
100
AcDbEntity
  8
0
 62
     7
100
AcDbCircle
 10
215.8336443103146
 20
56.89571736629988
 30
0.0
 40
3.292483069999998
  0
CIRCLE
  5
152A
330
1F
100
AcDbEntity
  8
0
 62
     7
100
AcDbCircle
 10
83.93268583031455
 20
262.8375956822996
 30
0.0
 40
3.292483069999998
  0
CIRCLE
  5
152B
330
1F
100
AcDbEntity
  8
0
 62
     7
100
AcDbCircle
 10
215.7141183503145
 20
262.8375956822996
 30
0.0
 40
3.292483069999998
  0
LINE
  5
152C
330
1F
100
AcDbEntity
  8
0
100
AcDbLine
 10
89.34076245031453
 20
415.3831389222998
 30
0.0
 11
89.34076245031453
 21
421.6786584722997
 31
0.0
  0
LINE
  5
152D
330
1F
100
AcDbEntity
  8
0
100
AcDbLine
 10
210.3060417303146
 20
43.87110946629984
 30
0.0
 11
210.3060417303146
 21
50.16662901629985
 31
0.0
  0
LINE
  5
152E
330
1F
100
AcDbEntity
  8
0
100
AcDbLine
 10
89.34076245031453
 20
50.16662901629985
 30
0.0
 11
89.34076245031453
 21
43.87110946629984
 31
0.0
  0
LINE
  5
154E
330
1F
100
AcDbEntity
  8
0
 62
     7
370
     9
100
AcDbLine
 10
210.5972328337795
 20
436.4731964462998
 30
0.0
 11
89.60157941377945
 21
436.4731964462998
 31
0.0
  0
LWPOLYLINE
  5
15FC
330
1F
100
AcDbEntity
  8
0
 62
     7
370
     5
100
AcDbPolyline
 90
        4
 70
     0
 43
0.0
 10
216.4896424937794
 20
462.9476512962997
 10
217.3267465737795
 20
462.9476512962997
 10
218.1638506437795
 20
463.7847553662997
 10
218.1638506437795
 20
464.6218594362998
  0
LWPOLYLINE
  5
15FD
330
1F
100
AcDbEntity
  8
0
 62
     7
370
     5
100
AcDbPolyline
 90
        4
 70
     0
 43
0.0
 10
82.21302265377943
 20
464.6218594362998
 10
82.21302265377943
 20
463.7847553662997
 10
83.05012672377944
 20
462.9476512962997
 10
83.88723080377946
 20
462.9476512962997
  0
LWPOLYLINE
  5
15FE
330
1F
100
AcDbEntity
  8
0
 62
     7
370
     5
100
AcDbPolyline
 90
        4
 70
     0
 43
0.0
 10
218.1638506437795
 20
598.5585110262998
 10
218.1638506437795
 20
599.3956150962998
 10
217.3267465737795
 20
600.2327191662998
 10
216.4896424937794
 20
600.2327191662998
  0
LWPOLYLINE
  5
15FF
330
1F
100
AcDbEntity
  8
0
 62
     7
370
     5
100
AcDbPolyline
 90
        4
 70
     0
 43
0.0
 10
83.88723080377946
 20
600.2327191662998
 10
83.05012672377944
 20
600.2327191662998
 10
82.21302265377943
 20
599.3956150962998
 10
82.21302265377943
 20
598.5585110262998
  0
LWPOLYLINE
  5
1600
330
1F
100
AcDbEntity
  8
0
 62
     7
370
     5
100
AcDbPolyline
 90
        2
 70
     0
 43
0.0
 10
218.1638506437795
 20
464.6218594362998
 10
218.1638506437795
 20
598.5585110262998
  0
LWPOLYLINE
  5
1601
330
1F
100
AcDbEntity
  8
0
 62
     7
370
     5
100
AcDbPolyline
 90
        2
 70
     0
 43
0.0
 10
216.4896424937794
 20
462.9476512962997
 10
83.88723080377946
 20
462.9476512962997
  0
LWPOLYLINE
  5
1602
330
1F
100
AcDbEntity
  8
0
 62
     7
370
     5
100
AcDbPolyline
 90
        2
 70
     0
 43
0.0
 10
83.88723080377946
 20
600.2327191662998
 10
216.4896424937794
 20
600.2327191662998
  0
LWPOLYLINE
  5
1603
330
1F
100
AcDbEntity
  8
0
 62
     7
370
     5
100
AcDbPolyline
 90
        2
 70
     0
 43
0.0
 10
82.21302265377943
 20
464.6218594362998
 10
82.21302265377943
 20
598.5585110262998
  0
LWPOLYLINE
  5
1604
330
1F
100
AcDbEntity
  8
0
 62
     7
370
     5
100
AcDbPolyline
 90
        2
 70
     0
 43
0.0
 10
115.3595871237794
 20
612.9890335562997
 10
184.0021210537794
 20
612.9890335562997
  0
LINE
  5
1605
330
1F
100
AcDbEntity
  8
0
 62
     7
100
AcDbLine
 10
96.55162762377949
 20
569.2833876562998
 30
0.0
 11
204.5513036337794
 21
569.2800224662999
 31
0.0
  0
LINE
  5
1606
330
1F
100
AcDbEntity
  8
0
 62
   253
100
AcDbLine
 10
89.84939498377945
 20
471.1622699962997
 30
0.0
 11
89.84939498377945
 21
592.6073452962998
 31
0.0
  0
LINE
  5
1607
330
1F
100
AcDbEntity
  8
0
 62
   253
100
AcDbLine
 10
89.84939498377945
 20
592.6073452962998
 30
0.0
 11
89.84939498377945
 21
592.6073452962998
 31
0.0
  0
LINE
  5
1608
330
1F
100
AcDbEntity
  8
0
 62
   253
100
AcDbLine
 10
89.84939498377945
 20
592.6073452962998
 30
0.0
 11
210.5274783137795
 21
592.6073452962998
 31
0.0
  0
LINE
  5
1609
330
1F
100
AcDbEntity
  8
0
 62
   253
100
AcDbLine
 10
181.9292478537794
 20
592.6073452962998
 30
0.0
 11
181.9292478537794
 21
592.6073452962998
 31
0.0
  0
LINE
  5
160A
330
1F
100
AcDbEntity
  8
0
 62
     0
100
AcDbLine
 10
96.55162679377941
 20
524.2240758262998
 30
0.0
 11
204.5513032137794
 21
524.2207104562997
 31
0.0
  0
LINE
  5
160B
330
1F
100
AcDbEntity
  8
0
 62
     0
100
AcDbLine
 10
204.5509796337794
 20
569.2766572862998
 30
0.0
 11
204.5509796337794
 21
524.2173450862998
 31
0.0
  0
LINE
  5
160C
330
1F
100
AcDbEntity
  8
0
 62
     0
100
AcDbLine
 10
96.55162762377949
 20
569.2833876562998
 30
0.0
 11
96.55033164377949
 21
524.2240758562997
 31
0.0
  0
LINE
  5
160D
330
1F
100
AcDbEntity
  8
0
 62
   253
100
AcDbLine
 10
210.5274783137795
 20
471.1622699962997
 30
0.0
 11
89.84939498377945
 21
471.1622699962997
 31
0.0
  0
LINE
  5
160E
330
1F
100
AcDbEntity
  8
0
 62
   253
100
AcDbLine
 10
210.5274783137795
 20
592.6073452962998
 30
0.0
 11
210.5274783137795
 21
471.1622699962997
 31
0.0
  0
LINE
  5
160F
330
1F
100
AcDbEntity
  8
0
 62
   253
100
AcDbLine
 10
210.5274783137795
 20
494.6141698362998
 30
0.0
 11
89.84939498377945
 21
494.6141698362998
 31
0.0
  0
LINE
  5
1610
330
1F
100
AcDbEntity
  8
0
 62
   252
100
AcDbLine
 10
113.9694548737794
 20
489.0741262462998
 30
0.0
 11
186.4074093537795
 21
489.0741262462998
 31
0.0
  0
LINE
  5
1611
330
1F
100
AcDbEntity
  8
0
 62
   252
100
AcDbLine
 10
103.3999833737795
 20
477.0388751262998
 30
0.0
 11
196.9768899337795
 21
477.0388751262998
 31
0.0
  0
LINE
  5
1612
330
1F
100
AcDbEntity
  8
0
 62
   252
100
AcDbLine
 10
103.3999833737795
 20
477.0388751262998
 30
0.0
 11
103.3999833737795
 21
479.2270976562997
 31
0.0
  0
ARC
  5
1613
330
1F
100
AcDbEntity
  8
0
 62
   252
100
AcDbCircle
 10
113.9694548737794
 20
484.6976721262998
 30
0.0
 40
4.376454129999999
100
AcDbArc
 50
90.0
 51
180.0
  0
LINE
  5
1614
330
1F
100
AcDbEntity
  8
0
 62
   252
100
AcDbLine
 10
109.5930007437794
 20
479.2270976562997
 30
0.0
 11
109.5930007437794
 21
484.6976721262998
 31
0.0
  0
LINE
  5
1615
330
1F
100
AcDbEntity
  8
0
 62
   252
100
AcDbLine
 10
103.3999833737795
 20
479.2270976562997
 30
0.0
 11
109.5930007437794
 21
479.2270976562997
 31
0.0
  0
LINE
  5
1616
330
1F
100
AcDbEntity
  8
0
 62
   252
100
AcDbLine
 10
196.9768899337795
 20
477.0388751262998
 30
0.0
 11
196.9768899337795
 21
479.2270976562997
 31
0.0
  0
LINE
  5
1617
330
1F
100
AcDbEntity
  8
0
 62
   252
100
AcDbLine
 10
190.7838634837794
 20
479.2270976562997
 30
0.0
 11
196.9768899337795
 21
479.2270976562997
 31
0.0
  0
ARC
  5
1618
330
1F
100
AcDbEntity
  8
0
 62
   252
100
AcDbCircle
 10
186.4074093537795
 20
484.6976721262998
 30
0.0
 40
4.376454129999999
100
AcDbArc
 50
0.0
 51
90.0
  0
LINE
  5
1619
330
1F
100
AcDbEntity
  8
0
 62
   252
100
AcDbLine
 10
190.7838634837794
 20
479.2270976562997
 30
0.0
 11
190.7838634837794
 21
484.6976721262998
 31
0.0
  0
ENDSEC
  0
SECTION
  2
OBJECTS
  0
DICTIONARY
  5
C
330
0
100
AcDbDictionary
281
     1
  3
ACAD_CIP_PREVIOUS_PRODUCT_INFO
350
216
  3
ACAD_COLOR
350
6B
  3
ACAD_DETAILVIEWSTYLE
350
21B
  3
ACAD_GROUP
350
D
  3
ACAD_LAYOUT
350
1A
  3
ACAD_MATERIAL
350
6A
  3
ACAD_MLEADERSTYLE
350
12D
  3
ACAD_MLINESTYLE
350
17
  3
ACAD_PLOTSETTINGS
350
19
  3
ACAD_PLOTSTYLENAME
350
E
  3
ACAD_SCALELIST
350
10C
  3
ACAD_SECTIONVIEWSTYLE
350
219
  3
ACAD_TABLESTYLE
350
7E
  3
ACAD_VISUALSTYLE
350
EF
  3
ACDB_RECOMPOSE_DATA
350
161E
  3
AcDbVariableDictionary
350
5E
  3
DWGPROPS
350
161F
  0
DICTIONARY
  5
1FF
330
2
100
AcDbDictionary
280
     1
281
     1
  3
ACAD_LAYERSTATES
360
200
  0
DICTIONARY
  5
13C
330
10
100
AcDbDictionary
280
     1
281
     1
  0
DICTIONARY
  5
1CE
330
1F
100
AcDbDictionary
280
     1
281
     1
  3
ACAD_SORTENTS
360
4BD
  0
DICTIONARY
  5
9A7
330
8F6
100
AcDbDictionary
280
     1
281
     1
  3
ACAD_SORTENTS
360
9A8
  0
XRECORD
  5
216
102
{ACAD_REACTORS
330
C
102
}
330
C
100
AcDbXrecord
280
     1
300
ACDLT
300
2014
300
ACDLT_F_S
  0
DICTIONARY
  5
6B
102
{ACAD_REACTORS
330
C
102
}
330
C
100
AcDbDictionary
281
     1
  0
DICTIONARY
  5
21B
102
{ACAD_REACTORS
330
C
102
}
330
C
100
AcDbDictionary
281
     1
  3
Imperial24
350
243
  3
Metric50
350
21C
  0
DICTIONARY
  5
D
102
{ACAD_REACTORS
330
C
102
}
330
C
100
AcDbDictionary
281
     1
  0
DICTIONARY
  5
1A
102
{ACAD_REACTORS
330
C
102
}
330
C
100
AcDbDictionary
281
     1
  3
Layout1
350
D3
  3
Layout2
350
D7
  3
Model
350
22
  0
DICTIONARY
  5
6A
102
{ACAD_REACTORS
330
C
102
}
330
C
100
AcDbDictionary
281
     1
  3
ByBlock
350
ED
  3
ByLayer
350
EC
  3
Global
350
EE
  0
DICTIONARY
  5
12D
102
{ACAD_REACTORS
330
C
102
}
330
C
100
AcDbDictionary
281
     1
  3
Annotativa
350
13B
  3
Standard
350
12E
  0
DICTIONARY
  5
17
102
{ACAD_REACTORS
330
C
102
}
330
C
100
AcDbDictionary
281
     1
  3
Standard
350
18
  0
DICTIONARY
  5
19
102
{ACAD_REACTORS
330
C
102
}
330
C
100
AcDbDictionary
281
     1
  0
ACDBDICTIONARYWDFLT
  5
E
102
{ACAD_REACTORS
330
C
102
}
330
C
100
AcDbDictionary
281
     1
  3
Normal
350
F
100
AcDbDictionaryWithDefault
340
F
  0
DICTIONARY
  5
10C
102
{ACAD_REACTORS
330
C
102
}
330
C
100
AcDbDictionary
281
     1
  3
A0
350
10D
  3
A1
350
1BE
  3
A2
350
1BF
  3
A3
350
1C0
  3
A4
350
1C1
  3
A5
350
1C2
  3
A6
350
1C3
  3
A7
350
1C4
  3
A8
350
1C5
  3
A9
350
1C6
  3
B0
350
1C7
  3
B1
350
1C8
  3
B2
350
1C9
  3
B3
350
1CA
  3
B4
350
1CB
  3
B5
350
1CC
  3
B6
350
1CD
  0
DICTIONARY
  5
219
102
{ACAD_REACTORS
330
C
102
}
330
C
100
AcDbDictionary
281
     1
  3
Imperial24
350
242
  3
Metric50
350
21A
  0
DICTIONARY
  5
7E
102
{ACAD_REACTORS
330
C
102
}
330
C
100
AcDbDictionary
281
     1
  3
Standard
350
7F
  0
DICTIONARY
  5
EF
102
{ACAD_REACTORS
330
C
102
}
330
C
100
AcDbDictionary
281
     1
  3
2dWireframe
350
F5
  3
Basic
350
F4
  3
Brighten
350
FB
  3
ColorChange
350
FF
  3
Conceptual
350
F8
  3
Dim
350
FA
  3
EdgeColorOff
350
1E6
  3
Facepattern
350
FE
  3
Flat
350
F0
  3
FlatWithEdges
350
F1
  3
Gouraud
350
F2
  3
GouraudWithEdges
350
F3
  3
Hidden
350
F7
  3
JitterOff
350
1E4
  3
Linepattern
350
FD
  3
OverhangOff
350
1E5
  3
Realistic
350
F9
  3
Shaded
350
1F3
  3
Shaded with edges
350
1F2
  3
Shades of Gray
350
1EF
  3
Sketchy
350
1F0
  3
Thicken
350
FC
  3
Wireframe
350
F6
  3
X-Ray
350
1F1
  0
XRECORD
  5
161E
102
{ACAD_REACTORS
330
C
102
}
330
C
100
AcDbXrecord
280
     1
 90
        1
330
7F
  0
DICTIONARY
  5
5E
102
{ACAD_REACTORS
330
C
102
}
330
C
100
AcDbDictionary
281
     1
  3
CANNOSCALE
350
146
  3
CMLEADERSTYLE
350
145
  3
CTABLESTYLE
350
84
  3
CVIEWDETAILSTYLE
350
227
  3
CVIEWSECTIONSTYLE
350
228
  3
DIMASSOC
350
5F
  3
HIDETEXT
350
63
  3
INDEXCTL
350
644
  3
LAYEREVAL
350
1AE
  3
LAYERNOTIFY
350
1AF
  3
LIGHTINGUNITS
350
642
  3
MSLTSCALE
350
641
  3
PSOLHEIGHT
350
161B
  3
PSOLWIDTH
350
161A
  3
SORTENTS
350
643
  3
XCLIPFRAME
350
161C
  0
XRECORD
  5
161F
102
{ACAD_REACTORS
330
C
102
}
330
C
100
AcDbXrecord
280
     1
  1
DWGPROPS COOKIE
  2

  3

  4

  6

  7

  8
FontanaNZ
  9

300
=
301
=
302
=
303
=
304
=
305
=
306
=
307
=
308
=
309
=
 40
0.0312526736111111
 41
2457183.742086771
 42
2457184.639394618
  1

 90
        0
  0
DICTIONARY
  5
200
102
{ACAD_REACTORS
330
1FF
102
}
330
1FF
100
AcDbDictionary
281
     1
  0
SORTENTSTABLE
  5
4BD
102
{ACAD_REACTORS
330
1CE
102
}
330
1CE
100
AcDbSortentsTable
330
1F
331
4B9
  5
4B9
331
2AE
  5
2AE
331
2BD
  5
2BD
331
29F
  5
29F
331
28C
  5
28C
331
29B
  5
29B
331
2AA
  5
2AA
331
2B9
  5
2B9
331
288
  5
288
331
297
  5
297
331
2A6
  5
2A6
331
2B5
  5
2B5
331
293
  5
293
331
2A2
  5
2A2
331
2B1
  5
2B1
331
4BC
  5
4BC
331
4B8
  5
4B8
331
2AD
  5
2AD
331
2BC
  5
2BC
331
28F
  5
28F
331
28B
  5
28B
331
29A
  5
29A
331
2A9
  5
2A9
331
2B8
  5
2B8
331
4B7
  5
4B7
331
287
  5
287
331
296
  5
296
331
2A5
  5
2A5
331
2B4
  5
2B4
331
292
  5
292
331
2A1
  5
2A1
331
4BB
  5
4BB
331
2BF
  5
2BF
331
29D
  5
29D
331
2AC
  5
2AC
331
2BB
  5
2BB
331
28E
  5
28E
331
28A
  5
28A
331
299
  5
299
331
2A8
  5
2A8
331
2B7
  5
2B7
331
4B6
  5
4B6
331
286
  5
286
331
295
  5
295
331
2A4
  5
2A4
331
2B3
  5
2B3
331
291
  5
291
331
2A0
  5
2A0
331
4BA
  5
4BA
331
2BE
  5
2BE
331
2AF
  5
2AF
331
29C
  5
29C
331
2AB
  5
2AB
331
2BA
  5
2BA
331
28D
  5
28D
331
289
  5
289
331
298
  5
298
331
2A7
  5
2A7
331
2B6
  5
2B6
331
285
  5
285
331
294
  5
294
331
2B2
  5
2B2
331
290
  5
290
  0
SORTENTSTABLE
  5
9A8
102
{ACAD_REACTORS
330
9A7
102
}
330
9A7
100
AcDbSortentsTable
330
8F6
  0
ACDBDETAILVIEWSTYLE
  5
243
102
{ACAD_XDICTIONARY
360
165D
102
}
102
{ACAD_REACTORS
330
21B
102
}
330
21B
100
AcDbModelDocViewStyle
 70
     0
  3
Imperial24
290
     0
100
AcDbDetailViewStyle
 70
     0
 71
     0
 90
        3
 71
     1
340
11
 40
0.24
340
0
 40
0.24
300

 40
0.36
280
     3
 71
     2
340
16
 90
       25
 71
     3
340
11
 40
0.24
 90
        1
 40
0.75
 90
        1
300
%<\AcVar ViewType \f "%tc1">% %<\AcVar ViewDetailId>%\PSCALA %<\AcVar ViewScale \f "%sn">%
 71
     4
340
16
 90
       25
340
16
 90
       25
280
     0
  0
ACDBDETAILVIEWSTYLE
  5
21C
102
{ACAD_XDICTIONARY
360
1659
102
}
102
{ACAD_REACTORS
330
21B
102
}
330
21B
100
AcDbModelDocViewStyle
 70
     0
  3
Metric50
290
     0
100
AcDbDetailViewStyle
 70
     0
 71
     0
 90
        3
 71
     1
340
11
 40
5.0
340
0
 40
5.0
300

 40
0.0
280
     1
 71
     2
340
16
 90
       25
 71
     3
340
11
 40
5.0
 90
        0
 40
15.0
 90
        1
300
%<\AcVar ViewDetailId>% (%<\AcVar ViewScale \f "%sn">%)
 71
     4
340
16
 90
       25
340
16
 90
       25
280
     0
  0
LAYOUT
  5
D3
102
{ACAD_XDICTIONARY
360
1623
102
}
102
{ACAD_REACTORS
330
1A
102
}
330
1A
100
AcDbPlotSettings
  1

  2
C:\Documents and Settings\basas\Application Data\Autodesk\AutoCAD 2005\R16.1\enu\plotters\Default Windows System Printer.pc3
  4

  6

 40
0.0
 41
0.0
 42
0.0
 43
0.0
 44
0.0
 45
0.0
 46
0.0
 47
0.0
 48
0.0
 49
0.0
140
0.0
141
0.0
142
1.0
143
1.0
 70
   688
 72
     0
 73
     0
 74
     5
  7

 75
    16
147
1.0
148
0.0
149
0.0
100
AcDbLayout
  1
Layout1
 70
     1
 71
     1
 10
0.0
 20
0.0
 11
12.0
 21
9.0
 12
0.0
 22
0.0
 32
0.0
 14
0.0
 24
0.0
 34
0.0
 15
0.0
 25
0.0
 35
0.0
146
0.0
 13
0.0
 23
0.0
 33
0.0
 16
1.0
 26
0.0
 36
0.0
 17
0.0
 27
1.0
 37
0.0
 76
     0
330
D2
  0
LAYOUT
  5
D7
102
{ACAD_XDICTIONARY
360
1625
102
}
102
{ACAD_REACTORS
330
1A
102
}
330
1A
100
AcDbPlotSettings
  1

  2
C:\Documents and Settings\basas\Application Data\Autodesk\AutoCAD 2005\R16.1\enu\plotters\Default Windows System Printer.pc3
  4

  6

 40
0.0
 41
0.0
 42
0.0
 43
0.0
 44
0.0
 45
0.0
 46
0.0
 47
0.0
 48
0.0
 49
0.0
140
0.0
141
0.0
142
1.0
143
1.0
 70
   688
 72
     0
 73
     0
 74
     5
  7

 75
    16
147
1.0
148
0.0
149
0.0
100
AcDbLayout
  1
Layout2
 70
     1
 71
     2
 10
0.0
 20
0.0
 11
12.0
 21
9.0
 12
0.0
 22
0.0
 32
0.0
 14
0.0
 24
0.0
 34
0.0
 15
0.0
 25
0.0
 35
0.0
146
0.0
 13
0.0
 23
0.0
 33
0.0
 16
1.0
 26
0.0
 36
0.0
 17
0.0
 27
1.0
 37
0.0
 76
     0
330
D6
  0
LAYOUT
  5
22
102
{ACAD_XDICTIONARY
360
1620
102
}
102
{ACAD_REACTORS
330
1A
102
}
330
1A
100
AcDbPlotSettings
  1

  2
none_device
  4
ISO_A4_(210.00_x_297.00_MM)
  6

 40
7.5
 41
20.0
 42
7.5
 43
20.0
 44
210.0
 45
297.0
 46
11.54999923706054
 47
-13.65000009536743
 48
0.0
 49
0.0
140
0.0
141
0.0
142
1.0
143
8.704084754739808
 70
 11952
 72
     1
 73
     0
 74
     0
  7

 75
     0
147
0.1148885871608098
148
0.0
149
0.0
100
AcDbLayout
  1
Model
 70
     1
 71
     0
 10
0.0
 20
0.0
 11
12.0
 21
9.0
 12
0.0
 22
0.0
 32
0.0
 14
0.0
 24
0.0
 34
0.0
 15
0.0
 25
0.0
 35
0.0
146
0.0
 13
0.0
 23
0.0
 33
0.0
 16
1.0
 26
0.0
 36
0.0
 17
0.0
 27
1.0
 37
0.0
 76
     0
330
1F
331
EA
1001
ACAD_PSEXT
1000
None
1000
None
1000
Not applicable
1000
The layout will not be plotted unless a new plotter configuration name is selected.
1070
     0
  0
MATERIAL
  5
ED
102
{ACAD_XDICTIONARY
360
1F9
102
}
102
{ACAD_REACTORS
330
6A
102
}
330
6A
100
AcDbMaterial
  1
ByBlock
  0
MATERIAL
  5
EC
102
{ACAD_XDICTIONARY
360
1F7
102
}
102
{ACAD_REACTORS
330
6A
102
}
330
6A
100
AcDbMaterial
  1
ByLayer
  0
MATERIAL
  5
EE
102
{ACAD_XDICTIONARY
360
173
102
}
102
{ACAD_REACTORS
330
6A
102
}
330
6A
100
AcDbMaterial
  1
Global
 43
0.0007999999797903
 43
0.0
 43
0.0
 43
0.0
 43
0.0
 43
0.0007999999797903
 43
0.0
 43
0.0
 43
0.0
 43
0.0
 43
1.0
 43
0.0
 43
0.0
 43
0.0
 43
0.0
 43
1.0
 49
0.0007999999797903
 49
0.0
 49
0.0
 49
0.0
 49
0.0
 49
0.0007999999797903
 49
0.0
 49
0.0
 49
0.0
 49
0.0
 49
1.0
 49
0.0
 49
0.0
 49
0.0
 49
0.0
 49
1.0
142
0.0007999999797903
142
0.0
142
0.0
142
0.0
142
0.0
142
0.0007999999797903
142
0.0
142
0.0
142
0.0
142
0.0
142
1.0
142
0.0
142
0.0
142
0.0
142
0.0
142
1.0
144
0.0007999999797903
144
0.0
144
0.0
144
0.0
144
0.0
144
0.0007999999797903
144
0.0
144
0.0
144
0.0
144
0.0
144
1.0
144
0.0
144
0.0
144
0.0
144
0.0
144
1.0
1001
ACAD
1070
    -1
1070
     3
1070
     0
1000

1071
        0
1070
     0
  0
MLEADERSTYLE
  5
13B
102
{ACAD_REACTORS
330
12D
102
}
330
12D
100
AcDbMLeaderStyle
170
     2
171
     1
172
     0
 90
        2
 40
0.0
 41
0.0
173
     1
 91
-1056964608
340
14
 92
       -2
290
     1
 42
2.0
291
     1
 43
8.0
  3
Standard
 44
4.0
300

342
11
174
     1
178
     1
175
     1
176
     0
 93
-1056964608
 45
4.0
292
     0
297
     0
 46
4.0
 94
-1056964608
 47
1.0
 49
1.0
140
1.0
293
     1
141
0.0
294
     1
177
     0
142
1.0
295
     0
296
     1
143
3.75
1001
ACAD_MLEADERVER
1070
     2
  0
MLEADERSTYLE
  5
12E
102
{ACAD_REACTORS
330
12D
102
}
330
12D
100
AcDbMLeaderStyle
170
     2
171
     1
172
     0
 90
        2
 40
0.0
 41
0.0
173
     1
 91
-1056964608
340
14
 92
       -2
290
     1
 42
2.0
291
     1
 43
8.0
  3
Standard
 44
4.0
300

342
11
174
     1
178
     1
175
     1
176
     0
 93
-1056964608
 45
4.0
292
     0
297
     0
 46
4.0
 94
-1056964608
 47
1.0
 49
1.0
140
1.0
293
     1
141
0.0
294
     1
177
     0
142
1.0
295
     0
296
     0
143
3.75
1001
ACAD_MLEADERVER
1070
     2
  0
MLINESTYLE
  5
18
102
{ACAD_REACTORS
330
17
102
}
330
17
100
AcDbMlineStyle
  2
STANDARD
 70
     0
  3

 62
   256
 51
90.0
 52
90.0
 71
     2
 49
0.5
 62
   256
  6
BYLAYER
 49
-0.5
 62
   256
  6
BYLAYER
  0
ACDBPLACEHOLDER
  5
F
102
{ACAD_REACTORS
330
E
102
}
330
E
  0
SCALE
  5
10D
102
{ACAD_REACTORS
330
10C
102
}
330
10C
100
AcDbScale
 70
     0
300
1:1
140
1.0
141
1.0
290
     1
  0
SCALE
  5
1BE
102
{ACAD_REACTORS
330
10C
102
}
330
10C
100
AcDbScale
 70
     0
300
1:2
140
1.0
141
2.0
290
     0
  0
SCALE
  5
1BF
102
{ACAD_REACTORS
330
10C
102
}
330
10C
100
AcDbScale
 70
     0
300
1:4
140
1.0
141
4.0
290
     0
  0
SCALE
  5
1C0
102
{ACAD_REACTORS
330
10C
102
}
330
10C
100
AcDbScale
 70
     0
300
1:5
140
1.0
141
5.0
290
     0
  0
SCALE
  5
1C1
102
{ACAD_REACTORS
330
10C
102
}
330
10C
100
AcDbScale
 70
     0
300
1:8
140
1.0
141
8.0
290
     0
  0
SCALE
  5
1C2
102
{ACAD_REACTORS
330
10C
102
}
330
10C
100
AcDbScale
 70
     0
300
1:10
140
1.0
141
10.0
290
     0
  0
SCALE
  5
1C3
102
{ACAD_REACTORS
330
10C
102
}
330
10C
100
AcDbScale
 70
     0
300
1:16
140
1.0
141
16.0
290
     0
  0
SCALE
  5
1C4
102
{ACAD_REACTORS
330
10C
102
}
330
10C
100
AcDbScale
 70
     0
300
1:20
140
1.0
141
20.0
290
     0
  0
SCALE
  5
1C5
102
{ACAD_REACTORS
330
10C
102
}
330
10C
100
AcDbScale
 70
     0
300
1:30
140
1.0
141
30.0
290
     0
  0
SCALE
  5
1C6
102
{ACAD_REACTORS
330
10C
102
}
330
10C
100
AcDbScale
 70
     0
300
1:40
140
1.0
141
40.0
290
     0
  0
SCALE
  5
1C7
102
{ACAD_REACTORS
330
10C
102
}
330
10C
100
AcDbScale
 70
     0
300
1:50
140
1.0
141
50.0
290
     0
  0
SCALE
  5
1C8
102
{ACAD_REACTORS
330
10C
102
}
330
10C
100
AcDbScale
 70
     0
300
1:100
140
1.0
141
100.0
290
     0
  0
SCALE
  5
1C9
102
{ACAD_REACTORS
330
10C
102
}
330
10C
100
AcDbScale
 70
     0
300
2:1
140
2.0
141
1.0
290
     0
  0
SCALE
  5
1CA
102
{ACAD_REACTORS
330
10C
102
}
330
10C
100
AcDbScale
 70
     0
300
4:1
140
4.0
141
1.0
290
     0
  0
SCALE
  5
1CB
102
{ACAD_REACTORS
330
10C
102
}
330
10C
100
AcDbScale
 70
     0
300
8:1
140
8.0
141
1.0
290
     0
  0
SCALE
  5
1CC
102
{ACAD_REACTORS
330
10C
102
}
330
10C
100
AcDbScale
 70
     0
300
10:1
140
10.0
141
1.0
290
     0
  0
SCALE
  5
1CD
102
{ACAD_REACTORS
330
10C
102
}
330
10C
100
AcDbScale
 70
     0
300
100:1
140
100.0
141
1.0
290
     0
  0
ACDBSECTIONVIEWSTYLE
  5
242
102
{ACAD_XDICTIONARY
360
165B
102
}
102
{ACAD_REACTORS
330
219
102
}
330
219
100
AcDbModelDocViewStyle
 70
     0
  3
Imperial24
290
     0
100
AcDbSectionViewStyle
 70
     0
 71
     0
 90
       78
 71
     1
340
11
 40
0.24
340
0
340
0
 40
0.24
300
I, O, Q, S, X, Z
 40
0.48
 90
        3
 40
0.18
 90
        1
 71
     2
340
16
 90
       25
340
16
 90
       50
 40
0.24
 40
0.0
 40
0.24
 71
     3
340
11
 40
0.24
 90
        1
 40
0.75
 90
        1
300
%<\AcVar ViewType \f "%tc1">% %<\AcVar ViewSectionStartId>%-%<\AcVar ViewSectionEndId>%\PSCALA %<\AcVar ViewScale \f "%sn">%
 71
     4
300
ANSI31
 40
1.0
 90
        0
290
     0
290
     0
 90
        6
 40
0.0
 40
1.570796326794896
 40
0.2617993877991494
 40
1.308996938995747
 40
-0.2617993877991494
 40
1.832595714594044
  0
ACDBSECTIONVIEWSTYLE
  5
21A
102
{ACAD_XDICTIONARY
360
1657
102
}
102
{ACAD_REACTORS
330
219
102
}
330
219
100
AcDbModelDocViewStyle
 70
     0
  3
Metric50
290
     0
100
AcDbSectionViewStyle
 70
     0
 71
     0
 90
      102
 71
     1
340
11
 40
5.0
340
0
340
0
 40
5.0
300
I, O, Q, S, X, Z
 40
10.0
 90
        0
 40
2.5
 90
        0
 71
     2
340
16
 90
       25
340
16
 90
       50
 40
5.0
 40
2.5
 40
5.0
 71
     3
340
11
 40
5.0
 90
        0
 40
15.0
 90
        1
300
%<\AcVar ViewSectionStartId>%-%<\AcVar ViewSectionEndId>% (%<\AcVar ViewScale \f "%sn">%)
 71
     4
300
ANSI31
 40
1.0
 90
        0
290
     0
290
     0
 90
        6
 40
0.0
 40
1.570796326794896
 40
0.2617993877991494
 40
1.308996938995747
 40
-0.2617993877991494
 40
1.832595714594044
  0
TABLESTYLE
  5
7F
102
{ACAD_XDICTIONARY
360
162
102
}
102
{ACAD_REACTORS
330
7E
102
}
330
7E
100
AcDbTableStyle
  3
Standard
 70
     0
 71
     0
 40
1.5
 41
1.5
280
     0
281
     0
  7
Standard
140
4.5
170
     2
 62
     0
 63
     7
283
     0
274
    -2
284
     1
 64
     0
275
    -2
285
     1
 65
     0
276
    -2
286
     1
 66
     0
277
    -2
287
     1
 67
     0
278
    -2
288
     1
 68
     0
279
    -2
289
     1
 69
     0
  7
Standard
140
6.0
170
     5
 62
     0
 63
     7
283
     0
274
    -2
284
     1
 64
     0
275
    -2
285
     1
 65
     0
276
    -2
286
     1
 66
     0
277
    -2
287
     1
 67
     0
278
    -2
288
     1
 68
     0
279
    -2
289
     1
 69
     0
  7
Standard
140
4.5
170
     5
 62
     0
 63
     7
283
     0
274
    -2
284
     1
 64
     0
275
    -2
285
     1
 65
     0
276
    -2
286
     1
 66
     0
277
    -2
287
     1
 67
     0
278
    -2
288
     1
 68
     0
279
    -2
289
     1
 69
     0
  0
VISUALSTYLE
  5
F5
102
{ACAD_XDICTIONARY
360
1631
102
}
102
{ACAD_REACTORS
330
EF
102
}
330
EF
100
AcDbVisualStyle
  2

 70
     4
 71
     0
 72
     2
 73
     1
 90
        0
 40
-0.6
 41
-30.0
 62
     5
 63
     7
 74
     1
 91
        4
 64
     7
 65
   257
 75
     1
175
     1
 42
1.0
 92
        0
 66
   257
 43
1.0
 76
     1
 77
     6
 78
     2
 67
     7
 79
     5
170
     0
171
     0
290
     0
174
     0
 93
        1
 44
0.0
173
     0
291
     0
 45
0.0
1001
ACAD
1000
AcDbSavedByObjectVersion
1070
     0
  0
VISUALSTYLE
  5
F4
102
{ACAD_XDICTIONARY
360
162F
102
}
102
{ACAD_REACTORS
330
EF
102
}
330
EF
100
AcDbVisualStyle
  2

 70
     7
 71
     1
 72
     0
 73
     1
 90
        0
 40
-0.6
 41
-30.0
 62
     5
 63
     7
 74
     0
 91
        4
 64
     7
 65
   257
 75
     1
175
     1
 42
1.0
 92
        8
 66
     7
 43
1.0
 76
     1
 77
     6
 78
     2
 67
     7
 79
     5
170
     0
171
     0
290
     0
174
     0
 93
        1
 44
0.0
173
     0
291
     1
 45
0.0
1001
ACAD
1000
AcDbSavedByObjectVersion
1070
     0
  0
VISUALSTYLE
  5
FB
102
{ACAD_XDICTIONARY
360
163D
102
}
102
{ACAD_REACTORS
330
EF
102
}
330
EF
100
AcDbVisualStyle
  2

 70
    12
 71
     2
 72
     2
 73
     1
 90
        0
 40
-0.6
 41
-30.0
 62
     5
 63
     7
 74
     1
 91
        4
 64
     7
 65
   257
 75
     1
175
     1
 42
1.0
 92
        8
 66
     7
 43
1.0
 76
     1
 77
     6
 78
     2
 67
     7
 79
     5
170
     0
171
     0
290
     0
174
     0
 93
        1
 44
50.0
173
     0
291
     1
 45
0.0
1001
ACAD
1000
AcDbSavedByObjectVersion
1070
     0
  0
VISUALSTYLE
  5
FF
102
{ACAD_XDICTIONARY
360
1645
102
}
102
{ACAD_REACTORS
330
EF
102
}
330
EF
100
AcDbVisualStyle
  2

 70
    16
 71
     2
 72
     2
 73
     3
 90
        0
 40
-0.6
 41
-30.0
 62
     5
 63
     8
 74
     1
 91
        4
 64
     7
 65
   257
 75
     1
175
     1
 42
1.0
 92
        8
 66
     8
 43
1.0
 76
     1
 77
     6
 78
     2
 67
     7
 79
     5
170
     0
171
     0
290
     0
174
     0
 93
        1
 44
0.0
173
     0
291
     1
 45
0.0
1001
ACAD
1000
AcDbSavedByObjectVersion
1070
     0
  0
VISUALSTYLE
  5
F8
102
{ACAD_XDICTIONARY
360
1637
102
}
102
{ACAD_REACTORS
330
EF
102
}
330
EF
100
AcDbVisualStyle
  2

 70
     9
 71
     3
 72
     2
 73
     1
 90
        0
 40
-0.6
 41
-30.0
 62
     5
 63
     7
 74
     2
 91
        2
 64
     7
 65
   257
 75
     1
175
     1
 42
40.0
 92
        8
 66
     7
 43
1.0
 76
     1
 77
     6
 78
     2
 67
     7
 79
     3
170
     0
171
     0
290
     0
174
     0
 93
        1
 44
0.0
173
     0
291
     0
 45
0.0
1001
ACAD
1000
AcDbSavedByObjectVersion
1070
     0
  0
VISUALSTYLE
  5
FA
102
{ACAD_XDICTIONARY
360
163B
102
}
102
{ACAD_REACTORS
330
EF
102
}
330
EF
100
AcDbVisualStyle
  2

 70
    11
 71
     2
 72
     2
 73
     1
 90
        0
 40
-0.6
 41
-30.0
 62
     5
 63
     7
 74
     1
 91
        4
 64
     7
 65
   257
 75
     1
175
     1
 42
1.0
 92
        8
 66
     7
 43
1.0
 76
     1
 77
     6
 78
     2
 67
     7
 79
     5
170
     0
171
     0
290
     0
174
     0
 93
        1
 44
-50.0
173
     0
291
     1
 45
0.0
1001
ACAD
1000
AcDbSavedByObjectVersion
1070
     0
  0
VISUALSTYLE
  5
1E6
102
{ACAD_XDICTIONARY
360
164B
102
}
102
{ACAD_REACTORS
330
EF
102
}
330
EF
100
AcDbVisualStyle
  2

 70
    22
 71
     2
 72
     2
 73
     0
 90
        0
 40
-0.6
 41
-30.0
 62
     5
 63
     7
 74
     1
 91
        4
 64
     7
 65
   257
 75
     1
175
     1
 42
1.0
 92
        8
 66
     7
 43
1.0
 76
     1
 77
     6
 78
     2
 67
     7
 79
     5
170
     0
171
     0
290
     0
174
     0
 93
        1
 44
0.0
173
     0
291
     1
 45
0.0
1001
ACAD
1000
AcDbSavedByObjectVersion
1070
     0
  0
VISUALSTYLE
  5
FE
102
{ACAD_XDICTIONARY
360
1643
102
}
102
{ACAD_REACTORS
330
EF
102
}
330
EF
100
AcDbVisualStyle
  2

 70
    15
 71
     2
 72
     2
 73
     1
 90
        0
 40
-0.6
 41
-30.0
 62
     5
 63
     7
 74
     1
 91
        4
 64
     7
 65
   257
 75
     1
175
     1
 42
1.0
 92
        8
 66
     7
 43
1.0
 76
     1
 77
     6
 78
     2
 67
     7
 79
     5
170
     0
171
     0
290
     0
174
     0
 93
        1
 44
0.0
173
     0
291
     1
 45
0.0
1001
ACAD
1000
AcDbSavedByObjectVersion
1070
     0
  0
VISUALSTYLE
  5
F0
102
{ACAD_XDICTIONARY
360
1627
102
}
102
{ACAD_REACTORS
330
EF
102
}
330
EF
100
AcDbVisualStyle
  2

 70
     0
 71
     2
 72
     1
 73
     1
 90
        2
 40
-0.6
 41
30.0
 62
     5
 63
     7
 74
     0
 91
        0
 64
     7
 65
   257
 75
     1
175
     1
 42
1.0
 92
        8
 66
     7
 43
1.0
 76
     1
 77
     6
 78
     2
 67
     7
 79
     5
170
     0
171
     0
290
     0
174
     0
 93
       13
 44
0.0
173
     0
291
     1
 45
0.0
1001
ACAD
1000
AcDbSavedByObjectVersion
1070
     0
  0
VISUALSTYLE
  5
F1
102
{ACAD_XDICTIONARY
360
1629
102
}
102
{ACAD_REACTORS
330
EF
102
}
330
EF
100
AcDbVisualStyle
  2

 70
     1
 71
     2
 72
     1
 73
     1
 90
        2
 40
-0.6
 41
30.0
 62
     5
 63
     7
 74
     1
 91
        0
 64
     7
 65
   257
 75
     1
175
     1
 42
1.0
 92
        0
 66
   257
 43
1.0
 76
     1
 77
     6
 78
     2
 67
     7
 79
     5
170
     0
171
     0
290
     0
174
     0
 93
       13
 44
0.0
173
     0
291
     1
 45
0.0
1001
ACAD
1000
AcDbSavedByObjectVersion
1070
     0
  0
VISUALSTYLE
  5
F2
102
{ACAD_XDICTIONARY
360
162B
102
}
102
{ACAD_REACTORS
330
EF
102
}
330
EF
100
AcDbVisualStyle
  2

 70
     2
 71
     2
 72
     2
 73
     1
 90
        2
 40
-0.6
 41
30.0
 62
     5
 63
     7
 74
     0
 91
        0
 64
     7
 65
   257
 75
     1
175
     1
 42
1.0
 92
        0
 66
     7
 43
1.0
 76
     1
 77
     6
 78
     2
 67
     7
 79
     5
170
     0
171
     0
290
     0
174
     0
 93
       13
 44
0.0
173
     0
291
     1
 45
0.0
1001
ACAD
1000
AcDbSavedByObjectVersion
1070
     0
  0
VISUALSTYLE
  5
F3
102
{ACAD_XDICTIONARY
360
162D
102
}
102
{ACAD_REACTORS
330
EF
102
}
330
EF
100
AcDbVisualStyle
  2

 70
     3
 71
     2
 72
     2
 73
     1
 90
        2
 40
-0.6
 41
30.0
 62
     5
 63
     7
 74
     1
 91
        0
 64
     7
 65
   257
 75
     1
175
     1
 42
1.0
 92
        0
 66
   257
 43
1.0
 76
     1
 77
     6
 78
     2
 67
     7
 79
     5
170
     0
171
     0
290
     0
174
     0
 93
       13
 44
0.0
173
     0
291
     1
 45
0.0
1001
ACAD
1000
AcDbSavedByObjectVersion
1070
     0
  0
VISUALSTYLE
  5
F7
102
{ACAD_XDICTIONARY
360
1635
102
}
102
{ACAD_REACTORS
330
EF
102
}
330
EF
100
AcDbVisualStyle
  2

 70
     6
 71
     1
 72
     2
 73
     2
 90
        0
 40
-0.6
 41
-30.0
 62
     5
 63
     7
 74
     2
 91
        2
 64
     7
 65
   257
 75
     2
175
     1
 42
40.0
 92
        0
 66
   257
 43
1.0
 76
     1
 77
     6
 78
     2
 67
     7
 79
     3
170
     0
171
     0
290
     0
174
     0
 93
        1
 44
0.0
173
     0
291
     0
 45
0.0
1001
ACAD
1000
AcDbSavedByObjectVersion
1070
     0
  0
VISUALSTYLE
  5
1E4
102
{ACAD_XDICTIONARY
360
1647
102
}
102
{ACAD_REACTORS
330
EF
102
}
330
EF
100
AcDbVisualStyle
  2

 70
    20
 71
     2
 72
     2
 73
     0
 90
        0
 40
-0.6
 41
-30.0
 62
     5
 63
     7
 74
     1
 91
        4
 64
     7
 65
   257
 75
     1
175
     1
 42
1.0
 92
       10
 66
     7
 43
1.0
 76
     1
 77
     6
 78
     2
 67
     7
 79
     5
170
     0
171
     0
290
     0
174
     0
 93
        1
 44
0.0
173
     0
291
     1
 45
0.0
1001
ACAD
1000
AcDbSavedByObjectVersion
1070
     0
  0
VISUALSTYLE
  5
FD
102
{ACAD_XDICTIONARY
360
1641
102
}
102
{ACAD_REACTORS
330
EF
102
}
330
EF
100
AcDbVisualStyle
  2

 70
    14
 71
     2
 72
     2
 73
     1
 90
        0
 40
-0.6
 41
-30.0
 62
     5
 63
     7
 74
     1
 91
        4
 64
     7
 65
   257
 75
     7
175
     7
 42
1.0
 92
        8
 66
     7
 43
1.0
 76
     1
 77
     6
 78
     2
 67
     7
 79
     5
170
     0
171
     0
290
     0
174
     0
 93
        1
 44
0.0
173
     0
291
     1
 45
0.0
1001
ACAD
1000
AcDbSavedByObjectVersion
1070
     0
  0
VISUALSTYLE
  5
1E5
102
{ACAD_XDICTIONARY
360
1649
102
}
102
{ACAD_REACTORS
330
EF
102
}
330
EF
100
AcDbVisualStyle
  2

 70
    21
 71
     2
 72
     2
 73
     0
 90
        0
 40
-0.6
 41
-30.0
 62
     5
 63
     7
 74
     1
 91
        4
 64
     7
 65
   257
 75
     1
175
     1
 42
1.0
 92
        9
 66
     7
 43
1.0
 76
     1
 77
     6
 78
     2
 67
     7
 79
     5
170
     0
171
     0
290
     0
174
     0
 93
        1
 44
0.0
173
     0
291
     1
 45
0.0
1001
ACAD
1000
AcDbSavedByObjectVersion
1070
     0
  0
VISUALSTYLE
  5
F9
102
{ACAD_XDICTIONARY
360
1639
102
}
102
{ACAD_REACTORS
330
EF
102
}
330
EF
100
AcDbVisualStyle
  2

 70
     8
 71
     2
 72
     3
 73
     0
 90
        2
 40
-0.6
 41
30.0
 62
     5
 63
     7
 74
     0
 91
        0
 64
     7
 65
   257
 75
     1
175
     1
 42
1.0
 92
        8
 66
   257
 43
1.0
 76
     1
 77
     6
 78
     2
 67
     7
 79
     3
170
     0
171
     0
290
     0
174
     0
 93
       13
 44
0.0
173
     0
291
     0
 45
0.0
1001
ACAD
1000
AcDbSavedByObjectVersion
1070
     0
  0
VISUALSTYLE
  5
1F3
102
{ACAD_XDICTIONARY
360
1655
102
}
102
{ACAD_REACTORS
330
EF
102
}
330
EF
100
AcDbVisualStyle
  2

 70
    27
 71
     2
 72
     2
 73
     1
 90
        2
 40
-0.6
 41
30.0
 62
     5
 63
     7
 74
     0
 91
        4
 64
     7
 65
   257
 75
     1
175
     1
 42
1.0
 92
        8
 66
   257
 43
1.0
 76
     1
 77
     6
 78
     2
 67
     8
 79
     3
170
     0
171
     0
290
     0
174
     0
 93
        5
 44
0.0
173
     0
291
     0
 45
0.0
1001
ACAD
1000
AcDbSavedByObjectVersion
1070
     0
  0
VISUALSTYLE
  5
1F2
102
{ACAD_XDICTIONARY
360
1653
102
}
102
{ACAD_REACTORS
330
EF
102
}
330
EF
100
AcDbVisualStyle
  2

 70
    26
 71
     2
 72
     2
 73
     1
 90
        2
 40
-0.6
 41
30.0
 62
     5
 63
     7
 74
     1
 91
       10
 64
     7
 65
   257
 75
     2
175
     1
 42
1.0
 92
        8
 66
   257
 43
1.0
 76
     1
 77
     6
 78
     2
 67
     7
 79
     3
170
     0
171
     0
290
     0
174
     0
 93
        5
 44
0.0
173
     0
291
     0
 45
0.0
1001
ACAD
1000
AcDbSavedByObjectVersion
1070
     0
  0
VISUALSTYLE
  5
1EF
102
{ACAD_XDICTIONARY
360
164D
102
}
102
{ACAD_REACTORS
330
EF
102
}
330
EF
100
AcDbVisualStyle
  2

 70
    23
 71
     2
 72
     2
 73
     3
 90
        0
 40
-0.6
 41
-30.0
 62
     5
 63
     7
 74
     2
 91
        2
 64
     7
 65
     7
 75
     1
175
     1
 42
40.0
 92
        8
 66
     7
 43
1.0
 76
     1
 77
     6
 78
     2
 67
     7
 79
     3
170
     0
171
     0
290
     0
174
     0
 93
        1
 44
0.0
173
     0
291
     0
 45
0.0
1001
ACAD
1000
AcDbSavedByObjectVersion
1070
     0
  0
VISUALSTYLE
  5
1F0
102
{ACAD_XDICTIONARY
360
164F
102
}
102
{ACAD_REACTORS
330
EF
102
}
330
EF
100
AcDbVisualStyle
  2

 70
    24
 71
     1
 72
     2
 73
     2
 90
        0
 40
-0.6
 41
-30.0
 62
     5
 63
     7
 74
     2
 91
        2
 64
     7
 65
     7
 75
     1
175
     1
 42
40.0
 92
       11
 66
     7
 43
1.0
 76
     1
 77
     6
 78
     2
 67
     7
 79
     6
170
     0
171
     0
290
     0
174
     0
 93
        1
 44
0.0
173
     0
291
     0
 45
0.0
1001
ACAD
1000
AcDbSavedByObjectVersion
1070
     0
  0
VISUALSTYLE
  5
FC
102
{ACAD_XDICTIONARY
360
163F
102
}
102
{ACAD_REACTORS
330
EF
102
}
330
EF
100
AcDbVisualStyle
  2

 70
    13
 71
     2
 72
     2
 73
     1
 90
        0
 40
-0.6
 41
-30.0
 62
     5
 63
     7
 74
     1
 91
        4
 64
     7
 65
   257
 75
     1
175
     1
 42
1.0
 92
       12
 66
     7
 43
1.0
 76
     1
 77
     6
 78
     2
 67
     7
 79
     5
170
     0
171
     0
290
     0
174
     0
 93
        1
 44
0.0
173
     0
291
     1
 45
0.0
1001
ACAD
1000
AcDbSavedByObjectVersion
1070
     0
  0
VISUALSTYLE
  5
F6
102
{ACAD_XDICTIONARY
360
1633
102
}
102
{ACAD_REACTORS
330
EF
102
}
330
EF
100
AcDbVisualStyle
  2

 70
     5
 71
     0
 72
     2
 73
     0
 90
        0
 40
-0.6
 41
-30.0
 62
     5
 63
     7
 74
     1
 91
        4
 64
     7
 65
   257
 75
     1
175
     1
 42
1.0
 92
        0
 66
   257
 43
1.0
 76
     1
 77
     6
 78
     2
 67
     7
 79
     3
170
     0
171
     0
290
     0
174
     0
 93
        1
 44
0.0
173
     0
291
     0
 45
0.0
1001
ACAD
1000
AcDbSavedByObjectVersion
1070
     0
  0
VISUALSTYLE
  5
1F1
102
{ACAD_XDICTIONARY
360
1651
102
}
102
{ACAD_REACTORS
330
EF
102
}
330
EF
100
AcDbVisualStyle
  2

 70
    25
 71
     2
 72
     2
 73
     1
 90
        1
 40
0.5
 41
-30.0
 62
     5
 63
     7
 74
     1
 91
        0
 64
     7
 65
   257
 75
     1
175
     1
 42
1.0
 92
        8
 66
     7
 43
1.0
 76
     1
 77
     6
 78
     2
 67
     7
 79
     3
170
     0
171
     0
290
     0
174
     0
 93
       13
 44
0.0
173
     0
291
     0
 45
0.0
1001
ACAD
1000
AcDbSavedByObjectVersion
1070
     0
  0
DICTIONARYVAR
  5
146
102
{ACAD_REACTORS
330
5E
102
}
330
5E
100
DictionaryVariables
280
     0
  1
1:1
  0
DICTIONARYVAR
  5
145
102
{ACAD_REACTORS
330
5E
102
}
330
5E
100
DictionaryVariables
280
     0
  1
STANDARD
  0
DICTIONARYVAR
  5
84
102
{ACAD_REACTORS
330
5E
102
}
330
5E
100
DictionaryVariables
280
     0
  1
STANDARD
  0
DICTIONARYVAR
  5
227
102
{ACAD_REACTORS
330
5E
102
}
330
5E
100
DictionaryVariables
280
     0
  1
Metric50
  0
DICTIONARYVAR
  5
228
102
{ACAD_REACTORS
330
5E
102
}
330
5E
100
DictionaryVariables
280
     0
  1
Metric50
  0
DICTIONARYVAR
  5
5F
102
{ACAD_REACTORS
330
5E
102
}
330
5E
100
DictionaryVariables
280
     0
  1
2
  0
DICTIONARYVAR
  5
63
102
{ACAD_REACTORS
330
5E
102
}
330
5E
100
DictionaryVariables
280
     0
  1
1
  0
DICTIONARYVAR
  5
644
102
{ACAD_REACTORS
330
5E
102
}
330
5E
100
DictionaryVariables
280
     0
  1
0
  0
DICTIONARYVAR
  5
1AE
102
{ACAD_REACTORS
330
5E
102
}
330
5E
100
DictionaryVariables
280
     0
  1
0
  0
DICTIONARYVAR
  5
1AF
102
{ACAD_REACTORS
330
5E
102
}
330
5E
100
DictionaryVariables
280
     0
  1
0
  0
DICTIONARYVAR
  5
642
102
{ACAD_REACTORS
330
5E
102
}
330
5E
100
DictionaryVariables
280
     0
  1
2
  0
DICTIONARYVAR
  5
641
102
{ACAD_REACTORS
330
5E
102
}
330
5E
100
DictionaryVariables
280
     0
  1
1
  0
DICTIONARYVAR
  5
161B
102
{ACAD_REACTORS
330
5E
102
}
330
5E
100
DictionaryVariables
280
     0
  1
80.000000
  0
DICTIONARYVAR
  5
161A
102
{ACAD_REACTORS
330
5E
102
}
330
5E
100
DictionaryVariables
280
     0
  1
5.000000
  0
DICTIONARYVAR
  5
643
102
{ACAD_REACTORS
330
5E
102
}
330
5E
100
DictionaryVariables
280
     0
  1
127
  0
DICTIONARYVAR
  5
161C
102
{ACAD_REACTORS
330
5E
102
}
330
5E
100
DictionaryVariables
280
     0
  1
2
  0
DICTIONARY
  5
165D
330
243
100
AcDbDictionary
280
     1
281
     1
  3
ACAD_XREC_ROUNDTRIP
360
165E
  0
DICTIONARY
  5
1659
330
21C
100
AcDbDictionary
280
     1
281
     1
  3
ACAD_XREC_ROUNDTRIP
360
165A
  0
DICTIONARY
  5
1623
330
D3
100
AcDbDictionary
280
     1
281
     1
  3
ACAD_XREC_ROUNDTRIP
360
1624
  0
DICTIONARY
  5
1625
330
D7
100
AcDbDictionary
280
     1
281
     1
  3
ACAD_XREC_ROUNDTRIP
360
1626
  0
DICTIONARY
  5
1620
330
22
100
AcDbDictionary
280
     1
281
     1
  3
ACAD_XREC_ROUNDTRIP
360
1621
  0
DICTIONARY
  5
1F9
330
ED
100
AcDbDictionary
280
     1
281
     1
  3
ACAD_XREC_ROUNDTRIP
360
7F2
  3
FBXASSET
360
1FA
  0
DICTIONARY
  5
1F7
330
EC
100
AcDbDictionary
280
     1
281
     1
  3
ACAD_XREC_ROUNDTRIP
360
7F1
  3
FBXASSET
360
1F8
  0
DICTIONARY
  5
173
330
EE
100
AcDbDictionary
280
     1
281
     1
  3
ACAD_XREC_ROUNDTRIP
360
7F3
  3
BUMPTILE
360
175
  3
DIFFUSETILE
360
174
  3
FBXASSET
360
1FB
  3
OPACITYTILE
360
176
  3
REFLECTIONTILE
360
177
  0
DICTIONARY
  5
165B
330
242
100
AcDbDictionary
280
     1
281
     1
  3
ACAD_XREC_ROUNDTRIP
360
165C
  0
DICTIONARY
  5
1657
330
21A
100
AcDbDictionary
280
     1
281
     1
  3
ACAD_XREC_ROUNDTRIP
360
1658
  0
DICTIONARY
  5
162
330
7F
100
AcDbDictionary
280
     1
281
     1
  3
ACAD_ROUNDTRIP_2008_TABLESTYLE_CELLSTYLEMAP
360
161D
  3
ACAD_XREC_ROUNDTRIP
360
1622
  0
DICTIONARY
  5
1631
330
F5
100
AcDbDictionary
280
     1
281
     1
  3
ACAD_XREC_ROUNDTRIP
360
1632
  0
DICTIONARY
  5
162F
330
F4
100
AcDbDictionary
280
     1
281
     1
  3
ACAD_XREC_ROUNDTRIP
360
1630
  0
DICTIONARY
  5
163D
330
FB
100
AcDbDictionary
280
     1
281
     1
  3
ACAD_XREC_ROUNDTRIP
360
163E
  0
DICTIONARY
  5
1645
330
FF
100
AcDbDictionary
280
     1
281
     1
  3
ACAD_XREC_ROUNDTRIP
360
1646
  0
DICTIONARY
  5
1637
330
F8
100
AcDbDictionary
280
     1
281
     1
  3
ACAD_XREC_ROUNDTRIP
360
1638
  0
DICTIONARY
  5
163B
330
FA
100
AcDbDictionary
280
     1
281
     1
  3
ACAD_XREC_ROUNDTRIP
360
163C
  0
DICTIONARY
  5
164B
330
1E6
100
AcDbDictionary
280
     1
281
     1
  3
ACAD_XREC_ROUNDTRIP
360
164C
  0
DICTIONARY
  5
1643
330
FE
100
AcDbDictionary
280
     1
281
     1
  3
ACAD_XREC_ROUNDTRIP
360
1644
  0
DICTIONARY
  5
1627
330
F0
100
AcDbDictionary
280
     1
281
     1
  3
ACAD_XREC_ROUNDTRIP
360
1628
  0
DICTIONARY
  5
1629
330
F1
100
AcDbDictionary
280
     1
281
     1
  3
ACAD_XREC_ROUNDTRIP
360
162A
  0
DICTIONARY
  5
162B
330
F2
100
AcDbDictionary
280
     1
281
     1
  3
ACAD_XREC_ROUNDTRIP
360
162C
  0
DICTIONARY
  5
162D
330
F3
100
AcDbDictionary
280
     1
281
     1
  3
ACAD_XREC_ROUNDTRIP
360
162E
  0
DICTIONARY
  5
1635
330
F7
100
AcDbDictionary
280
     1
281
     1
  3
ACAD_XREC_ROUNDTRIP
360
1636
  0
DICTIONARY
  5
1647
330
1E4
100
AcDbDictionary
280
     1
281
     1
  3
ACAD_XREC_ROUNDTRIP
360
1648
  0
DICTIONARY
  5
1641
330
FD
100
AcDbDictionary
280
     1
281
     1
  3
ACAD_XREC_ROUNDTRIP
360
1642
  0
DICTIONARY
  5
1649
330
1E5
100
AcDbDictionary
280
     1
281
     1
  3
ACAD_XREC_ROUNDTRIP
360
164A
  0
DICTIONARY
  5
1639
330
F9
100
AcDbDictionary
280
     1
281
     1
  3
ACAD_XREC_ROUNDTRIP
360
163A
  0
DICTIONARY
  5
1655
330
1F3
100
AcDbDictionary
280
     1
281
     1
  3
ACAD_XREC_ROUNDTRIP
360
1656
  0
DICTIONARY
  5
1653
330
1F2
100
AcDbDictionary
280
     1
281
     1
  3
ACAD_XREC_ROUNDTRIP
360
1654
  0
DICTIONARY
  5
164D
330
1EF
100
AcDbDictionary
280
     1
281
     1
  3
ACAD_XREC_ROUNDTRIP
360
164E
  0
DICTIONARY
  5
164F
330
1F0
100
AcDbDictionary
280
     1
281
     1
  3
ACAD_XREC_ROUNDTRIP
360
1650
  0
DICTIONARY
  5
163F
330
FC
100
AcDbDictionary
280
     1
281
     1
  3
ACAD_XREC_ROUNDTRIP
360
1640
  0
DICTIONARY
  5
1633
330
F6
100
AcDbDictionary
280
     1
281
     1
  3
ACAD_XREC_ROUNDTRIP
360
1634
  0
DICTIONARY
  5
1651
330
1F1
100
AcDbDictionary
280
     1
281
     1
  3
ACAD_XREC_ROUNDTRIP
360
1652
  0
XRECORD
  5
165E
102
{ACAD_REACTORS
330
165D
102
}
330
165D
100
AcDbXrecord
280
     1
102
DISPLAYNAME
  1
Imperial24
102
FLAGS
 90
        0
  0
XRECORD
  5
165A
102
{ACAD_REACTORS
330
1659
102
}
330
1659
100
AcDbXrecord
280
     1
102
DISPLAYNAME
  1
Metric50
102
FLAGS
 90
        0
  0
XRECORD
  5
1624
102
{ACAD_REACTORS
330
1623
102
}
330
1623
100
AcDbXrecord
280
     1
102
SHADEPLOT
 70
     0
102
SHADEPLOTRESLEVEL
 70
     2
102
SHADEPLOTCUSTOMDPI
 70
   300
  0
XRECORD
  5
1626
102
{ACAD_REACTORS
330
1625
102
}
330
1625
100
AcDbXrecord
280
     1
102
SHADEPLOT
 70
     0
102
SHADEPLOTRESLEVEL
 70
     2
102
SHADEPLOTCUSTOMDPI
 70
   300
  0
XRECORD
  5
1621
102
{ACAD_REACTORS
330
1620
102
}
330
1620
100
AcDbXrecord
280
     1
102
SHADEPLOT
 70
     0
102
SHADEPLOTRESLEVEL
 70
     2
102
SHADEPLOTCUSTOMDPI
 70
   300
  0
XRECORD
  5
7F2
102
{ACAD_REACTORS
330
1F9
102
}
330
1F9
100
AcDbXrecord
280
     1
102
MATERIAL
148
0.0
149
0.0
149
0.0
 93
        0
 94
      127
282
     0
 72
     1
 77
     1
171
     1
175
     1
179
     1
273
     0
  0
XRECORD
  5
1FA
102
{ACAD_REACTORS
330
1F9
102
}
330
1F9
100
AcDbXrecord
280
     1
 70
     1
 90
429727718
  1
D62C5603-E3A1-4AEA-B7FB-FE5D8D0755AF
310
504B03040A0000080000CC70623B3DEE336E79000000790000001B0000006175746F6465736B2D64657369676E2D7061636B6167652E786D6C3C3F786D6C2076657273696F6E3D22312E302220656E636F64696E673D227574662D3822203F3E3C666F726D6174733E3C666F726D61743E687474703A2F2F736368656D612E
310
6175746F6465736B2E636F6D2F64657369676E2D7061636B6167652F323030393C2F666F726D61743E3C2F666F726D6174733E504B0304140006080800CC70623BD486FD9CA0000000F4000000130000005B436F6E74656E745F54797065735D2E786D6C7D8EC10E82300C865F65E91D8A1E8C310C0EEA1BF002731658846E
310
D98AC1B77784ABF1D8FE5FBFBF75BBCE937A534CCEB38643598122B6FEE978D0B0485F9C41B54DDD7D022595594E1A469170414C76A4D9A4D207E29CF43ECE46F218070CC6BECC4078ACAA135ACF422C856C0E68EA1BF5669944DDD7BCDE7B1F8E415D77AECB980613C2E4AC91FC167A2B244592486606FC29C8FD7F045B9A
310
EF7053A7E60B504B0304140006080800CC70623B853B8169EB0000007C01000008000000636F72652E786D6C8D90416EC3201045AF62CDB6C206821CC7C244919D9CA01740401C94182C03558F5F9C3852BBEB6A467FFE9B197D7EFC9E1EC5975982F5AE035262288C535E5B377690E21535501C055FBC8FBF6C503839990E
310
5619041F179FE64D52DE45E362569DD7661365082642A11EB9E920A89B99642953CC8E702F67A9EE7234257977194EC9EAE275C4EABCCF5EAD5940D4AC6F0E35A568B8F43562CD7046CD199FD07E60174276A7BE677B5EADB0E0D14EEFFB6A31321A0D82627C4084204C3F096B71DD52F6819B16635EADF63F509AF53FA164
310
5DDCD1EDDD17164090FCC8732078B56691CB33A85CD7DCC40F504B0304140006080800CC70623B55019EA25F0000007C00000007000000636E782E786D6C4DCB3B0E80201045D1AD90E915ED2CF8AC45050C11660C8261F98AB1B07AC9C97D42D718D865D3E909258CFD00CCE24AC6E326A164D74DC0B4128928FF32603847
310
2BA13128B1252AC747C6BAB984FC68F0B87FE8960A5C09FE86CFB69FBA01504B0304140006080800CC70623BDBABAAF470010000D40300000C0000006662782F636F72652E786D6CC553D16E823014FD95A6AF4B694182CC941A83FA05FB810A9511A125A5257EFE2E82712ECEB8A7F100CD39F7F69E734AF9FADC366850B6
310
AF8DCE7018308C942E4C59EB2AC3DE1D498AD15A706B8CFB56869196ADCAF00863C12B6B7C374385D14E6907A836A59A41D9F7CA615434B0C8705F7CAA5606D23BA8E84F41278B93AC54100640439DE0BDB320004D43C63716C7C399D30917DCFBBA9CD9BA8469F5B156168B24CED3F7248AC8769F27244EB73B92EED8862C
310
B7F13E0C179B3C8F979C8ECD82BBBABDAA2BAC924E9558448CBD9330242CFA08E3154B5651FCC6D215639C8EE5774DBE2B5F6CF2B5768B68963BB5F5588420E442FC700B1139D4CB01F450C1E918227C2E09DF070D8140C84E1E9AAB8F1340832A9CB13130A5F1376A908D57309505ECF2A0DF179C4E9D30F5B239B87E3823
310
7A79C6F31DE1A8A5AEC08474B03C7837EAE4938639B44E5932B833D2C6B6B279CDC613877FA26EE21F4A2A4C63EC7F29A2F301D1F9F7A0E37D145F504B0304140006080800CC70623B9C113CC27E0000009D0000000B0000006662782F636E782E786D6C4DCCDF0A83201C86E15B91DFB94BFB330DD428C8FB886521330DA7
310
6397BF1A1DECE883878F57749FCDA1B7892F1BBC047A23808C7F84D9FA55424E0BE6803A256208E9EF06C84F9B91703228B1C690F78B66B34CD9A5439DF5CF0BFBF65E35BCA1B8D6A5C6F540381E886698B5741C695F9503EBA150A2F8958E3DC3EA0B504B0304140006080800CC70623B7DF2F77C2A010000120200003100
310
00006662782F41393633353835312D344632462D344230382D423046372D3739314545314133324237412F636F72652E786D6C8D51DB8EC22014FC15C2939B0D2DB4B45643319AE817EC0F6041255A68B86CFCFC856D4D76DF7CE190393373060EDB3DC707F856CE6B6B7A480A0C81328395DA5C7B18C3057510EC3873D686
310
3F34088C18550F330C39BB3A1BA7051AAC09CA84841A2BD5020AEF55806078A44B0FFD7053A328440C89E1EFC52486BBB8AA8214A99D789CF9E05200300FC927E4FB4D5B375D43103D5527440FB843077C5AA3F5861C8F645F5787F59E95B390B318B55CE45AA638FAA2957BD7248B390B7A7CC51F9C124149C82B8C378810
310
84AB2F42B7B8DD56F413775B8C5999E9FF4471926F8AA236A1AE96B8B3CC434E5839373893369E1FAF30EA395917409EB7F26AF8801C171837A4A6AC9C89E9F9C9B1A58BA30FD6A5EF5DDDCF894B9AD9B6A59C957943A9FCAE2FD5BC4DFE03504B0304140006080800CC70623BAD7543B64E01000033030000300000006662
310
782F41393633353835312D344632462D344230382D423046372D3739314545314133324237412F636E782E786D6CD593CD6EC32010845F0571AD6CE3D48AD20813A9873E410FBD12D82434182C7EAAE6EDBB2424CD25871E7B41D6EC30B3FA84F9E67BB2E40B4234DE8DB46F1925E094D7C6ED479AD3AE5951B2113C789FEE
310
6C943839C1488B4C05DF079FE72A69D8C96C13AAD6B8631503449F83828872B949AC57D26200B826A308D316B4064D6E46FCDA41C05550DC9E483A00797BFD207EFB092A45DE9514C1BBD22178396BD39D891265658C238DEA00936C654E5E433CB65A26D9F6EDB5EBC14EBF49A45CB856E66048291F6939A9A81BB5C89177
310
38143CA680F4AA299D66A042CEB3354A2684DC9D8D178FE0D9B8B41CAAD720F880EE7EF93C0C18769E099ECC04D5A102C8049A8A05632F4DDF376CF1DE0F6BB65C2F8627B65A33C6BB62177CEBBDAD973006829F89F22E814B54F4BC2BE347F8AA8F681390B50FA73F804400B5F542E796F19FF974E7F78DB802FE05E20750
310
4B0304140006080800CC70623BE75B7789680500003C100000340000006662782F41393633353835312D344632462D344230382D423046372D3739314545314133324237412F6F626A656374732E786D6CAD575B8F9B3818FD2B887D06C22499CB8AA1CA655245D5B455A356FB305264C061D8018C6C3393D95FBFC7600890
310
A4CD5EF210B0B1BFEBF98E3F7B1FF6596ABC522E1296DF9BAE3D320D9A872C4AF2F8DE2CE5CEBA358D0FBEC719939D65A691938CDE9B6ADAF4BD98B3B2D05311DD91329583D9D5FC0F438434A7A611A644887B5384CF34233629258BA878B12322891DEFF6B66BD70BFB62634E8AE781D082709A4B588AF91C528CDA28B73F
310
1C998EEF39EABBEFA97FBD6A7C7E9553F9D3D79FE442923C3C523610337627CB87ABE99D359D4CC6D6E4FACAB5E6ABF9D2726FC6A3C5F56271377BB88362213924694B38DD99FE47C48627A1E7D49F5A8BB5E1A74C0A599ED3B0F21F1E56366B89112D681E218F0915D0D6F17AD41FBA2A369DCF6335D62ABBD39779D5DDD1
310
11D4D8DE3CBB96B2E04FB8202E41051754A1AA8E8F76B4C6DFE810B580B1547F4B84911149794252234D024EF8BBE963A95AE27B3D310A9D5C215C7960FAEE415ED75694C6AFB17BCACA5D99A60A9AA65F217B0BFC53292ACB92BF283FAD0D3621576592CB5BED907C2FA8E9DF794E35E97BEA31BED21FEB401ABB94C44839
310
DCACBF0E1C5DA8DA5B2F4DFFD32AD86F543D9E565E7056502E157C00AD2671CD534549AB752FCA9CDA00677A313F04E51B22FF19E57B300579E3C97EB29F682D92935CEC18CF901B7B54FD8C51F362B56FC72FE0B3C1EAE335EDCCBF5AEC39ADB17DC238973F804BA5E6F6BFE7AF1FB32E523BE9F3BD571418E3631DCA4D48
310
5250CF639223210A9446CA30052EDF057BD35F8329C1ECD84552BF0DC8D18BE7BCE23BFE6BD960AB4A7DE79923A103BEBD80F911CBAA2C60DB19B01CF164A5583B772EE6D3FFA56666CBCDA74DC97724A48F9A58967497E489C4D979006FD7A05E227A1EBDD0F737C623387A9C844D3709995625106D157315F8B8392CD4E0
310
A0B9A720C4BE9829CEF37EA1E13111214D53925356365ADA634861B52519DD27A00AEB808EAF0628E6F435519D446F45CF2C9CF5214F0A15B2F6D06B79DA3EE3CBF7F56780D2F4E7EF73A0F5E5B02A38D07DC852C6B7C1FBB6664213E0C39E3EBA7FF4E1AD23EA2829407C85E586727488B751B2DB9502BC7B228A3FD68B6E
310
A65A22397E690AA8D158D7E404EC8CDA235CC3B7D1898680131CEC2CDF2638C65196279577750F15884AEE19F94199155B92B13297978469D4F8D358DF0AEF7631E28DC8F0D9F437D5D39A83B2231A1D52D543813A824EF8D44BCFF2FA6A31BD1E8DAD87F1CCB526B3879935BF59CDADD5C37479BB1CDD4CA7B3556B516589
310
EF352754B706114D9C885EC9131DE6EFEB43D99AFE2391C2F958179413D7CFEF6B1B6DB1E7600F00DE6E5C67454A339A4BA2E0FBA85ED26F045D454F463DBFCE484C2F90F2E5E3666003662ED8F755951A7D1BECD5B30B550B2785C8E7320B7292A4838DDA71BBC863ED7613CAF659337A3354231D4FF4A182A54904C2898C
310
98B28C4AD0CE056CCF332A80986E571EE9DBC305BB5FEB7E509220A58D25CF042D712A806AC0AD0C657FDEF80D2D9CEAA2EE4D1C76F60BFE74219A06527D6F82DF6412526107381E55E353090704D085B52408A8913C4ED159D79BDA71BB4BC506F4831350EB6F975CD22D69BF7AC49B91A2C0A9DDA3D5CA36AD20FC478E37
310
E61844E2352865EBCB61A275A65283CAAA9DD27703B4102F5AF51EF5F573B75CBB5AD38BC845F7A49F82A0966A49C2E3EA5EA0ECD326CD965F1DB402C6FA8B51A4658C5C5E2EC9E214602E55810345408596591009A82E7E7FFACA19EEA299B14A0081A705CB3296EBC14CDF658DCD336EA6D1136881AAEB87B81AB9EE53D5
310
F5EB8BC8362082DA24122F98680A4E7930C01A0079749CEA14382A0783E5EBA5A10F8C098456A03D6A4AEB6BB881E2513747552A5DB22C7EDAF83BD5528081A365F7FF06504B0304140006080000CC70623B000000000000000000000000350000006662782F41393633353835312D344632462D344230382D423046372D37
310
39314545314133324237412F76657274696365732E62696E504B0304140006080800CC70623BF270F1330600000004000000360000006662782F41393633353835312D344632462D344230382D423046372D3739314545314133324237412F747269616E676C65732E62696E636660600000504B0304140006080000CC7062
310
3B000000000000000000000000370000006662782F41393633353835312D344632462D344230382D423046372D3739314545314133324237412F617474726962757465732E62696E504B0304140006080800CC70623B08DA0BD19000000041010000360000006662782F41393633353835312D344632462D344230382D4230
310
46372D3739314545314133324237412F6469726563746F72792E786D6C858F410AC3201045AF22B36F53E9A60B35CBEEBAE80D244E44489C6234F4F835464A48035D0DF398FF9F8AF63D0E6CC63039F212F8F9020C7D47C6792B21C5FE7403D62A1188E2E60C98D7234A5830286103A55745067B9D86B8A3CF9C7F90C11DE6
310
07FB144396D7B6A82D282E9A152AD114D5EF2CB866EEE831B8EEA07A7BB5A8D7D61A2BAAEB7FD5F70921FF497D00504B0304140006080800CC70623BEDD1DC58FD000000A00100003B0000006662782F41393633353835312D344632462D344230382D423046372D3739314545314133324237412F7265736F75726365732F
310
636F72652E786D6C8D504B6E833010BD0A9A6D65B00922041947112427E8052C33A156828DFCA97AFC9A40A576D7CDCCE87D344F8F9FBFE667F689CE6B6B3A6039850C8DB2A336530731DC4903D95970676DF82583CCC8193B5861107C72362E3BA4AC096842428D1D7107A5F7182053CF7474E0D507CE32973124857FE48B
310
540F3961CEF244279DE03EB81420DB9EAC1384436FA353E879B1B182C7A8C75DA3C7F453DF353A1075D537A7BA6464B8F535A99AE14A9A2BBD90E350DD183B5CFABE3AF262350B1EF4FC9351399401471025A527C218A1E53BAB5A5AB765F5469B96525EACF23FA6B88CFF34456DC2A1DCE36E360F82A5202F42F062ED2BAD
310
579969AFDD8A6F504B010214000A0000080000CC70623B3DEE336E79000000790000001B00000000000000000000000000000000006175746F6465736B2D64657369676E2D7061636B6167652E786D6C504B01021400140006080800CC70623BD486FD9CA0000000F40000001300000000000000000000000000B20000005B
310
436F6E74656E745F54797065735D2E786D6C504B01021400140006080800CC70623B853B8169EB0000007C010000080000000000000000000000000083010000636F72652E786D6C504B01021400140006080800CC70623B55019EA25F0000007C000000070000000000000000000000000094020000636E782E786D6C504B
310
01021400140006080800CC70623BDBABAAF470010000D40300000C00000000000000000000000000180300006662782F636F72652E786D6C504B01021400140006080800CC70623B9C113CC27E0000009D0000000B00000000000000000000000000B20400006662782F636E782E786D6C504B01021400140006080800CC70
310
623B7DF2F77C2A010000120200003100000000000000000000000000590500006662782F41393633353835312D344632462D344230382D423046372D3739314545314133324237412F636F72652E786D6C504B01021400140006080800CC70623BAD7543B64E010000330300003000000000000000000000000000D2060000
310
6662782F41393633353835312D344632462D344230382D423046372D3739314545314133324237412F636E782E786D6C504B01021400140006080800CC70623BE75B7789680500003C10000034000000000000000000000000006E0800006662782F41393633353835312D344632462D344230382D423046372D3739314545
310
314133324237412F6F626A656374732E786D6C504B01021400140006080000CC70623B0000000000000000000000003500000000000000000000000000280E00006662782F41393633353835312D344632462D344230382D423046372D3739314545314133324237412F76657274696365732E62696E504B01021400140006
310
080800CC70623BF270F133060000000400000036000000000000000000000000007B0E00006662782F41393633353835312D344632462D344230382D423046372D3739314545314133324237412F747269616E676C65732E62696E504B01021400140006080000CC70623B0000000000000000000000003700000000000000
310
000000000000D50E00006662782F41393633353835312D344632462D344230382D423046372D3739314545314133324237412F617474726962757465732E62696E504B01021400140006080800CC70623B08DA0BD1900000004101000036000000000000000000000000002A0F00006662782F41393633353835312D344632
310
462D344230382D423046372D3739314545314133324237412F6469726563746F72792E786D6C504B01021400140006080800CC70623BEDD1DC58FD000000A00100003B000000000000000000000000000E1000006662782F41393633353835312D344632462D344230382D423046372D3739314545314133324237412F7265
310
736F75726365732F636F72652E786D6C504B0506000000000E000E0080040000641100000000
  0
XRECORD
  5
7F1
102
{ACAD_REACTORS
330
1F7
102
}
330
1F7
100
AcDbXrecord
280
     1
102
MATERIAL
148
0.0
149
0.0
149
0.0
 93
        0
 94
      127
282
     0
 72
     1
 77
     1
171
     1
175
     1
179
     1
273
     0
  0
XRECORD
  5
1F8
102
{ACAD_REACTORS
330
1F7
102
}
330
1F7
100
AcDbXrecord
280
     1
 70
     1
 90
429727718
  1
30362254-06B7-45E0-A893-8CFA70E3D6BC
310
504B03040A0000080000CC70623B3DEE336E79000000790000001B0000006175746F6465736B2D64657369676E2D7061636B6167652E786D6C3C3F786D6C2076657273696F6E3D22312E302220656E636F64696E673D227574662D3822203F3E3C666F726D6174733E3C666F726D61743E687474703A2F2F736368656D612E
310
6175746F6465736B2E636F6D2F64657369676E2D7061636B6167652F323030393C2F666F726D61743E3C2F666F726D6174733E504B0304140006080800CC70623BD486FD9CA0000000F4000000130000005B436F6E74656E745F54797065735D2E786D6C7D8EC10E82300C865F65E91D8A1E8C310C0EEA1BF002731658846E
310
D98AC1B77784ABF1D8FE5FBFBF75BBCE937A534CCEB38643598122B6FEE978D0B0485F9C41B54DDD7D022595594E1A469170414C76A4D9A4D207E29CF43ECE46F218070CC6BECC4078ACAA135ACF422C856C0E68EA1BF5669944DDD7BCDE7B1F8E415D77AECB980613C2E4AC91FC167A2B244592486606FC29C8FD7F045B9A
310
EF7053A7E60B504B0304140006080800CC70623B1EC5D7A3EB0000007C01000008000000636F72652E786D6C8D90416EC3201045AF82665B6103C6756C6122AB4D4ED00B204C5C94182C03558F5F9C3852BBEB6A467FFE9B197D71FC9E6FE8CBACC17AD7032D0820E3B41FAD9B7A48F1820F808E52ACDEC75F36404ECDA687
310
4D0629A6D5A76597B477D1B89855E747B38B2A041301E95B6E7A08FAD3CCAA50296647B8168BD2573599823EBB0CA76447F43862C7BCCF5EAC59410E4DDD9C7973C2755553CCCFA4C603E3040F1565ED3B1FDE4E432BCA0D9622DAF9795FAF464533826484B498524CD807E51D79ED187F21878E10516EF63F505AC67F42C9
310
BA58B1FDDD071640D2FCC87D2045B96591CB3DA85CB7DCE40F504B0304140006080800CC70623B55019EA25F0000007C00000007000000636E782E786D6C4DCB3B0E80201045D1AD90E915ED2CF8AC45050C11660C8261F98AB1B07AC9C97D42D718D865D3E909258CFD00CCE24AC6E326A164D74DC0B4128928FF32603847
310
2BA13128B1252AC747C6BAB984FC68F0B87FE8960A5C09FE86CFB69FBA01504B0304140006080800CC70623B8C9102E971010000D40300000C0000006662782F636F72652E786D6CC5535B6E833010BC8AE5DF0A6C08340F1947A84D4ED00B38C6A128602363A31CBFCB234A53A551FA553EC09AD9F5CE8C31DB9E9B1AF5CA
310
7695D1198E428A91D2D214952E33ECDD315861B4E5CC1AE3BE9561A445A3323CC098B3D21ADFCE9034DA29ED00D5A6503328BA4E398C640D8B0C77F253352214DE4145770A5B214FA2546114020D759C75CE8200340D19DE981F0F6746269C33EFAB6266AB02A655C74A59CCF365BADC27CB5D902ED22848F6340DF238A141
310
BE88E2F57B92BFEDF23523433367AE6A2EEAA455C2A902F398D2751045018D3FA264435F3771F242571B4A1919CA6F9A7C5B3CD9E42BED16F12C776AEB308F40C848FC700B1139D4891EF410CEC810227CC6846F8386402064270EF5C5C709A05E49676C024C61FC95EA45ED154CA5211D1FF4FB8291A913A68E9B83EBBB33
310
E2A7673CDE118E5AE8124C0807CB8377834E366998436B950D7A7746DAD846D4CFD978E0F04FD455FC5D49D2D4C6FE9722321F10997F0F32DC47FE05504B0304140006080800CC70623BFFEA85907E0000009D0000000B0000006662782F636E782E786D6C4DCCD10A83201886E15B91FFDC95D95A811AB6F23E625948A6C3
310
E9D8E5AF46073BFAE0E1E365ED67B3E8ADC3CB78C7815C7240DA3DFC64DCC221C519D7805AC182F7F1EF06C88D9BE6703008B6049F9E274D7A1E938DBB5AE3D6131B2589BA0D3D965551E0B2EA732C9B9A624AAEB41E3A557677029960D9AFB4EF11165F504B0304140006080800CC70623B4FEEA4082C0100001202000031
310
0000006662782F39464131463745442D413632322D343644302D413938332D3331353338454246344243312F636F72652E786D6C8D515B6EC32010BC0AE2AB55850DD871ED0813254D72825EC00192A2C460F1A872FC42ED48ED5F7E00CDCECCCEB26C731F6FE05B39AFADE921293004CA082BB5B9F43086336A21D870E6AC
310
0D7F68109861543DCC30E4ECE26C9C164858139409093556AA051CBC570102714B8F1E7AF1A5C6A11862480C7F2DA6415C878B2A4891CA89C7990F2E050073937C42DE1DB7E4F87ED8A36D4329AA9B3D46DBAEAD504556557BD81DEBDD0761E52CE42C462D17B996298E3E6BE59E35C962CE821E1FF18553435012728A7187
310
0841987E927A8D9B35ADDF70BBC6989599FE4F1427F9A4286A132ABAC49D651EF234CD5CE04CDA78BA3DC2A8FB645D00B9DF8B57E215725C60BCA2A463E54C4CE327C7A65E1C7DB02E7DEFCBF594B864C5CA6CDBD49C957943E9FA5D5FBAF336F90F504B0304140006080800CC70623BAD7543B64E01000033030000300000
310
006662782F39464131463745442D413632322D343644302D413938332D3331353338454246344243312F636E782E786D6CD593CD6EC32010845F0571AD6CE3D48AD20813A9873E410FBD12D82434182C7EAAE6EDBB2424CD25871E7B41D6EC30B3FA84F9E67BB2E40B4234DE8DB46F1925E094D7C6ED479AD3AE5951B2113C
310
789FEE6C943839C1488B4C05DF079FE72A69D8C96C13AAD6B8631503449F83828872B949AC57D26200B826A308D316B4064D6E46FCDA41C05550DC9E483A00797BFD207EFB092A45DE9514C1BBD22178396BD39D891265658C238DEA00936C654E5E433CB65A26D9F6EDB5EBC14EBF49A45CB856E66048291F6939A9A81BB5
310
C8917738143CA680F4AA299D66A042CEB3354A2684DC9D8D178FE0D9B8B41CAAD720F880EE7EF93C0C18769E099ECC04D5A102C8049A8A05632F4DDF376CF1DE0F6BB65C2F8627B65A33C6BB62177CEBBDAD973006829F89F22E814B54F4BC2BE347F8AA8F681390B50FA73F804400B5F542E796F19FF974E7F78DB802FE05
310
E207504B0304140006080800CC70623B16AB87BA640500003C100000340000006662782F39464131463745442D413632322D343644302D413938332D3331353338454246344243312F6F626A656374732E786D6CAD575B6FA33818FD2B887DE6924B3BED8A326A92B68A663B534DD4D13E548A0C38942D60649B369D5FBFC7
310
600890A493BDE42160637FD7F31D7FF63E6FB3D478A55C242CBF3247B66B1A340F5994E4F19559CA8D75611A9F7D8F33263BCB4C232719BD32D5B4E97B316765A1A722BA21652A07B3B7B33F0D11D29C9A46981221AE4C113ED38CD8A4942CA2E2C58E882476BCD9DA23BB5ED8171B73523C0F841684D35CC252CCE79062D4
310
468DFA43D7747CCF51DF7D4FFDEB5593E3AB9CCA9FBEFE241792E4E19EB28198C968BAB8199F5D5A67D3E9C49A9E8F47D6EC76B6B0469F26EEFC7C3EBFBCBEB98462213924694B38DD98FE1D62C393D073EA4FADC5DAF04326852CCF6958F90F0F2B9BB5C48816348F90C7840A68EB78EDF68723159BCEE7891A6B95DDE9D3
310
BCEAEEE8086A6C6F9E5D4B59F0175C10A7A0820BAA5055C7473B5AE3CFDD452D602CD5DF12616444529E90D448938013FE6EFA58AA96F85E4F8C42275708571E98FE6827AF6B2B4AE3D7D83D64E5A64C53054DD3AF90BD06FEA9149565C94FCA0F6B834DC85599E4F2423B24DF0B6AFA979E534DFA9E7A4CC6FA631D486393
310
921829879BF5D781A373557BCB85E97FB90DB62B558F8795179C15944B051F40AB495CF35451D26A4727654E6D8033BD98EF82F21D91FF8AF2DD9982BCF1643BDD4EB516C9492E368C67C88DED563FC36D5EACF66DFF057C3658BDBFA69DF9578B3DA735B64F18C7F20770A9D45CFCF7FCF563D6456A277DBEF78A02637CA2
310
43B90A490AEAB94F72244481D24819A6C0E59B606BFA4B3025981DBB48EAB701D97BF19C577CC77F2D1B6C55A9EF3C732474C0B727303F625995056C3B02963D9EAC146BE78EC5FCEC7FA999EBC5EACBAAE41B12D27B4D2C0BBA49F244E2ECDC81B76B502F113D8F5EE8FB1BE3111CDD4FC2AA9B844CAB1288B68AB90A7CDC
310
1C166AB0D3DC5310625FCC14E779BFD0709F8890A629C9292B1B2DED31A4B0DA928CEE135085754027E3018A397D4D5427D15BD1330B677DC8934285AC3DF45A9EB68FF8F2B8FC0A509AFEECFD0FF2DE25CC6047F7214B195F07EFEB9A094D800F7BFAE8FED187B78EA8A3A400F115961BCAD1215E47C966530AF0EE8128FE
310
58CEBB996A8964FFA529A046635D9353B0336A8F700DDF46271A024E70B0B37C9DE01847591E54DED53D54202AB947E4076556AC49C6CA5C9E1226B7F1A7B1BE15DEED62C41B91E1B3E9AFAAA735036547343A925075041DF0A9979E893B391F8FCFA6967B3EFB644DCF6E5CEBFAE272625DCC6FAF3FB93793C5F90CE1EF57
310
407342756B10D1C489E8953CD1617E5CEECAD6F4EF8914CE5D5D504E5C3F1F9736DA62CFC11E00BCDDB8CC8A9466349744C1F75EBDA4DF09BA8A9E8C7A7E9991989E20E5DBDD6A6003664ED8F7A04A8DBE0DF6EAD9B9AA858342E47399053949D2C146EDB85DE4B176BB0965FBAC19BD19AA918E27FA50C1D22402E144464C
310
59462568E704B6E71915404CB72B8FF4EDE184DDAF753F284990D2C6926782963815403548A70C657FDEF80D2D9CEAA2AE4C1C76F60BFE74219A06527D6582DF6412526107381E55E353090704D085B52408D0933C4ED159D79BDA71BB4BC506F4831350EB6F979CD22D69BF7AC49B91A2C0A9DDA3D5CA36AD20FC478E37E6
310
1844E2352865EBCB6EA275A652E3836BE04EFB400BF1A2556F515F1FBB35B2AB35BD889C744FFA1004B5544B121E57F70215746DD2F5E2C1412B602CBF19455AC6C8E5E9922C4E01E65215385004546899059180EAFCF7A707CE7017CD8CDB0410789AB32C63B91E5CEBBBACB17AC6CD347A022D5075FD106377347AAABA7E
310
7D11590744509B44E205134DC1290F06580320F78E537D3D73540E06CB970B431F185308AD40BBD794D6D77003C5A36E8EAA54BA64597CD8F83BD552A080A365F7FF06504B0304140006080000CC70623B000000000000000000000000350000006662782F39464131463745442D413632322D343644302D413938332D3331
310
353338454246344243312F76657274696365732E62696E504B0304140006080800CC70623BF270F1330600000004000000360000006662782F39464131463745442D413632322D343644302D413938332D3331353338454246344243312F747269616E676C65732E62696E636660600000504B0304140006080000CC70623B
310
000000000000000000000000370000006662782F39464131463745442D413632322D343644302D413938332D3331353338454246344243312F617474726962757465732E62696E504B0304140006080800CC70623B08DA0BD19000000041010000360000006662782F39464131463745442D413632322D343644302D413938
310
332D3331353338454246344243312F6469726563746F72792E786D6C858F410AC3201045AF22B36F53E9A60B35CBEEBAE80D244E44489C6234F4F835464A48035D0DF398FF9F8AF63D0E6CC63039F212F8F9020C7D47C6792B21C5FE7403D62A1188E2E60C98D7234A5830286103A55745067B9D86B8A3CF9C7F90C11DE607
310
FB144396D7B6A82D282E9A152AD114D5EF2CB866EEE831B8EEA07A7BB5A8D7D61A2BAAEB7FD5F70921FF497D00504B0304140006080800CC70623B0D6EF93BFE000000A00100003B0000006662782F39464131463745442D413632322D343644302D413938332D3331353338454246344243312F7265736F75726365732F63
310
6F72652E786D6C8D50596E833010BD0A9ADFCA60B334011947A8694ED00B586642AC041B79A97AFC9A40A5F6AF3F33A3B7689E1E3F7DCD8FEC139DD7D6F4C0720A191A65476DA61E62B892236427C19DB5E1970C322367EC618541F0C9D9B8EC90B226A009093576C41D94DE63804C3DD2D18357379C652E63480A7FCF17A9
310
EE72C29CE5894E3AC17D702940B63D59270887DE46A7D0F36263058F518FBB468FE9A7BE6A7420864373B8D4873369AA8691FA421B3294352543C5CAF65C0F6FEF43CB8BD52C78D0F34F46E550061C419494B6843142CB0F5677F4B52BEB177AEC28E5C52AFF638ACBF84F53D42654E51E77B379102C05791282176B5F693D
310
CB4C7BED567C03504B010214000A0000080000CC70623B3DEE336E79000000790000001B00000000000000000000000000000000006175746F6465736B2D64657369676E2D7061636B6167652E786D6C504B01021400140006080800CC70623BD486FD9CA0000000F40000001300000000000000000000000000B20000005B
310
436F6E74656E745F54797065735D2E786D6C504B01021400140006080800CC70623B1EC5D7A3EB0000007C010000080000000000000000000000000083010000636F72652E786D6C504B01021400140006080800CC70623B55019EA25F0000007C000000070000000000000000000000000094020000636E782E786D6C504B
310
01021400140006080800CC70623B8C9102E971010000D40300000C00000000000000000000000000180300006662782F636F72652E786D6C504B01021400140006080800CC70623BFFEA85907E0000009D0000000B00000000000000000000000000B30400006662782F636E782E786D6C504B01021400140006080800CC70
310
623B4FEEA4082C0100001202000031000000000000000000000000005A0500006662782F39464131463745442D413632322D343644302D413938332D3331353338454246344243312F636F72652E786D6C504B01021400140006080800CC70623BAD7543B64E010000330300003000000000000000000000000000D5060000
310
6662782F39464131463745442D413632322D343644302D413938332D3331353338454246344243312F636E782E786D6C504B01021400140006080800CC70623B16AB87BA640500003C1000003400000000000000000000000000710800006662782F39464131463745442D413632322D343644302D413938332D3331353338
310
454246344243312F6F626A656374732E786D6C504B01021400140006080000CC70623B0000000000000000000000003500000000000000000000000000270E00006662782F39464131463745442D413632322D343644302D413938332D3331353338454246344243312F76657274696365732E62696E504B01021400140006
310
080800CC70623BF270F133060000000400000036000000000000000000000000007A0E00006662782F39464131463745442D413632322D343644302D413938332D3331353338454246344243312F747269616E676C65732E62696E504B01021400140006080000CC70623B0000000000000000000000003700000000000000
310
000000000000D40E00006662782F39464131463745442D413632322D343644302D413938332D3331353338454246344243312F617474726962757465732E62696E504B01021400140006080800CC70623B08DA0BD190000000410100003600000000000000000000000000290F00006662782F39464131463745442D413632
310
322D343644302D413938332D3331353338454246344243312F6469726563746F72792E786D6C504B01021400140006080800CC70623B0D6EF93BFE000000A00100003B000000000000000000000000000D1000006662782F39464131463745442D413632322D343644302D413938332D3331353338454246344243312F7265
310
736F75726365732F636F72652E786D6C504B0506000000000E000E0080040000641100000000
  0
XRECORD
  5
7F3
102
{ACAD_REACTORS
330
173
102
}
330
173
100
AcDbXrecord
280
     1
102
MATERIAL
148
0.0
149
0.0
149
0.0
 93
        0
 94
      127
282
     0
 72
     1
 77
     1
171
     1
175
     1
179
     1
273
     0
  0
XRECORD
  5
175
102
{ACAD_REACTORS
330
173
102
}
330
173
100
AcDbXrecord
280
     1
270
     1
271
     1
  0
XRECORD
  5
174
102
{ACAD_REACTORS
330
173
102
}
330
173
100
AcDbXrecord
280
     1
270
     1
271
     1
  0
XRECORD
  5
1FB
102
{ACAD_REACTORS
330
173
102
}
330
173
100
AcDbXrecord
280
     1
 70
     0
 90
1673772943
  1
ECE7A1D2-D628-4531-984C-D00F80459256
310
504B03040A0000080000CC70623B3DEE336E79000000790000001B0000006175746F6465736B2D64657369676E2D7061636B6167652E786D6C3C3F786D6C2076657273696F6E3D22312E302220656E636F64696E673D227574662D3822203F3E3C666F726D6174733E3C666F726D61743E687474703A2F2F736368656D612E
310
6175746F6465736B2E636F6D2F64657369676E2D7061636B6167652F323030393C2F666F726D61743E3C2F666F726D6174733E504B0304140006080800CC70623BD486FD9CA0000000F4000000130000005B436F6E74656E745F54797065735D2E786D6C7D8EC10E82300C865F65E91D8A1E8C310C0EEA1BF002731658846E
310
D98AC1B77784ABF1D8FE5FBFBF75BBCE937A534CCEB38643598122B6FEE978D0B0485F9C41B54DDD7D022595594E1A469170414C76A4D9A4D207E29CF43ECE46F218070CC6BECC4078ACAA135ACF422C856C0E68EA1BF5669944DDD7BCDE7B1F8E415D77AECB980613C2E4AC91FC167A2B244592486606FC29C8FD7F045B9A
310
EF7053A7E60B504B0304140006080800CC70623BD9DDAED0EC0000007C01000008000000636F72652E786D6C8D90416EC3201045AF82665B61836D9CD8C2444DD39CA01740405C94182C03558F5F9C3852BBEB6A467FFE9B197D7EF89E6EE8CB2CC17A37002D0820E394D7D68D03A478C17B4007C117EFE32F1B20272733C0
310
2A83E0E3E2D3BC49CABB685CCCAAF3DA6CA20CC14440EA969B0182FA34932C648AD911AEC52CD5558EA6A0CF2EC329598D1E47ACCEFBECC59A050463A7EA5833865FEBDD0E37353BE3EE8DBDE3F6786A48D375FBF6CC78B9C282473B3DEFABC5C86834888A900E538A49F5419B9EB47DD5BC907D4F082F57FB1F28CDFA9F50
310
B22ED6D5F6EE030B20687EE43E10BC5CB3C8E51E54AE6B6EE207504B0304140006080800CC70623B55019EA25F0000007C00000007000000636E782E786D6C4DCB3B0E80201045D1AD90E915ED2CF8AC45050C11660C8261F98AB1B07AC9C97D42D718D865D3E909258CFD00CCE24AC6E326A164D74DC0B4128928FF326038
310
472BA13128B1252AC747C6BAB984FC68F0B87FE8960A5C09FE86CFB69FBA01504B0304140006080800CC70623BA24EB22D72010000D40300000C0000006662782F636F72652E786D6CC5535B6E833010BC8AE5DF0A6C5E49888CA3A6694ED00B38E05014B091B1518EDFE511A5A9D228FD2A1F60CDEC7A67C6986DCE4D8D7A
310
69BA4AAB0C073EC548AA5C17952A33ECECD15B61B4E1CC686DBF9561A44423333CC098B3D268D7CE50AE9595CA02AA74216750749DB418E5352C32DCE59FB211BE70162ABA93DF8AFC244AE9073ED050C759670D0840D390E18DF9F1706664C23973AE2A66B62A605A75ACA4C13C4976E1364A12EF355A2EBD384AF65EFA96
310
BC7B8BED2EA6719AAE16FB8491A199335B351775B991C2CA02F390D2D40B028F861F41BCA68B7518BFD0D59A524686F29B26D7164F36B94AD9289CE54E6D1DE6010819891F6E21228B3AD1831EC219194284CF98F06DD01008846CC5A1BEF83801D4CBDC6A1303536877A57A513B0953A94FC707FDBE6064EA84A9E3E6E0FA
310
EE8CF0E9198F7784A316AA0413C2C2F2E0ECA0934D1AE6D05A69BCDE9E91D2A611F573361E38FC1375157F5752AE6B6DFE4B11990F88CCBF0719EE23FF02504B0304140006080800CC70623B408A7D3B7C0000009D0000000B0000006662782F636E782E786D6C4DCCD10A83201886E15B91FFDC552A92A0064DBC8F581632
310
D3703A76F9ABD1C18E3E78F878E5F0D9027ABBFCF2292AE86E2D20171F69F6715550CB827B40839639A5F2770314A7CD293819B45C73AAFB45B35BA61ACAA1C1C7E7855C58C15BC331339661262CC762340413D68D77DA5B42298546CBE6573AF60CEB2F504B0304140006080800CC70623B449FB9BD290100001202000031
310
0000006662782F36394639363044362D344446342D343946362D394244322D3234314243333846323333332F636F72652E786D6C8D515B6EC32010BC0AE22B55850D98B871848994463E412FE002495162B07854397EA176A4F62F3F2C9A9D991D587EB84F37F0AD7D30CEF6905418026DA553C65E7A98E219ED203808EE9D
310
8B7F6810D871D23D2C3014FCE25D9A57483A1BB58D19B54EE9151C43D0110279CB971E06F9A5A7B11A53CC8C70ADE6515EC78BAE4895DB992778883E0700CB907242D17643D7E2538BD869608875438BBAE38922CAC8F1BDD90DB4691A5E2F42C153326A951B95E398B3D1FE599322163C9AE9115F7A3D46ADA0A018778810
310
84E907617BDCEE297BC5BB3DC6BC2EF47FA234AB2745C9D8D8D035EE220B50105E2F0DC1954B9FB747187D9F9D8FA0CCDB042D5FA0C015C65B42DF78BD10F3F3B363CB56C7109DCFDFBBB97E662ED92EB62D13BC2E1BCAE5777DB9966D8A1F504B0304140006080800CC70623BAD7543B64E01000033030000300000006662
310
782F36394639363044362D344446342D343946362D394244322D3234314243333846323333332F636E782E786D6CD593CD6EC32010845F0571AD6CE3D48AD20813A9873E410FBD12D82434182C7EAAE6EDBB2424CD25871E7B41D6EC30B3FA84F9E67BB2E40B4234DE8DB46F1925E094D7C6ED479AD3AE5951B2113C789FEE
310
6C943839C1488B4C05DF079FE72A69D8C96C13AAD6B8631503449F83828872B949AC57D26200B826A308D316B4064D6E46FCDA41C05550DC9E483A00797BFD207EFB092A45DE9514C1BBD22178396BD39D891265658C238DEA00936C654E5E433CB65A26D9F6EDB5EBC14EBF49A45CB856E66048291F6939A9A81BB5C89177
310
38143CA680F4AA299D66A042CEB3354A2684DC9D8D178FE0D9B8B41CAAD720F880EE7EF93C0C18769E099ECC04D5A102C8049A8A05632F4DDF376CF1DE0F6BB65C2F8627B65A33C6BB62177CEBBDAD973006829F89F22E814B54F4BC2BE347F8AA8F681390B50FA73F804400B5F542E796F19FF974E7F78DB802FE05E20750
310
4B0304140006080800CC70623B8D05915C650500003B100000340000006662782F36394639363044362D344446342D343946362D394244322D3234314243333846323333332F6F626A656374732E786D6CAD575B6FA33814FE2B887D06429276DA1565D4266D158D3A339A6846FB502932E050B66023DB74D2FDF5FB190C01
310
9276B2973C046C8ECFF53B17071F77456EBD502133CEAE6CDF9DD81665314F32965ED995DA3A17B6F5310C04E7AA47665B8C14F4CAD6DB7618A48257A5D94AE89654B91AEDDEDDFC61C998326A5B714EA4BCB265FC440BE2924AF184CA6737218AB8E976E7FA6E4338649B0A523E8D98964450A6A029F619B8588D52FE7039
310
B1BD30F0F4F730D0FF866AF6369557DB33949F31A9088B0F848DD8CCFCF9F2767A76E99CCDE733677E3EF59D9BBB9BA5E37F984D16E78BC5E5F5ED25044B25C0C96822E8D60EEFE11B91C581D77CEA34368A1F5329E68CD1B8B61F16D63A1B8E092D294B10C78C4A48EB593D192E7DED9BDEE7995E1B91FDEDD3ACEA9FE831
310
6A756F9F7D4D79F4274C90A7A04248AA51D5F8C718DAE06FB2F75AC4796EBE65D22A88A22223B995679120E2D50E41AA49C260C046A35368846B0BECD0DFF3EBEB8AD4F835768F69B9ADF25C43D30E6B646F807FAA64AD59F61715C7A54127C4AACA98BA3006A9D792DAE165E0D59B61A01FB3A9F9D838D2DAE62445C86166
310
F37564E842E7DE6A69879FEEA2DD5AE7E371E1A5E025154AC307D06A03D73EB5978C58FFA4C8E9033066E0F3BD53BEC1F39F91BE7B55103791EDE6BBB991A2046172CB4581D8B893FA674DDA17A77B3B7C413D1B511FD2743BFF8A38F03A658705E3ADF8015C3A3417FF3D7E439FF591DA0B5F18BC20C1B8981957AE6392A3
310
F43C640C01D1A0B4728E2DD4F26DB4B3C3152A252A3B4E913CEC1C72F012782FF88EFF8637AA552DBEF76408E8A8DE9E50F9E1CB3A2DA0DB1B6039A893B56063DC5B3E3FFB5F72E67AB9FEB4AEC496C4F4C1149625DD662C53E89D7BF0F6151A046260D1337DFDC94502430F83B0EE07A130A224BCAD7DAE1D9FB6CD422FF6
310
920702629C4BB9AE79C12F243C6432A6794E18E5552BA56B431AAB5D91317302B2B071E86C3A42B1A02F999E24061403B5D0EB639195DA655DD3EBEAB4FB862DDF579F014AD0E73C22F99E28DA57FB98E75C6CA2D74D53086D600F4786E0FE3144B771A8A7B900F03594DB8A633CBC49B2EDB69228BB479CF863B5E807AAAB
310
23872F6DFEB4129B949CA33823F58830E86D65621E10047D9DB34D862E8EAC3C2ABC2F7B2C40D67CDFE01F5545B92105AF983AC54D93D69E56FB8E797F88913F898A9FEC705D3F9D1B54EC8426FB500D40A03BD0119B06E1B95DDC7EB8F6975367793EBD70E66733DFB9BC982F9CE564727731999F5D4ECFCE3B8D6A4DC2A0
310
6D50FD148437D110834A64C6CDDF57FBACB5C307A2A477DFE4939736CFEF2B175371E0E10CF0DD1D5C15654E0BCA14D1E87DD02FF93782A162C0A3D95F1524A52770F972BF1EE9809D13CE7DD599467F8ECE9ADD85CE85A34CD45355448C64F9E8A031DC2D596ACC6E5DD93D9B82DE2EF5CAF81363A8E47996A0DE24564A79
310
4115AACE09C55E14540231FDA13C319787134EBF34E3A022514E5B4D9E0826E25C02D5805B15ABE1BEF51B26383D445DD9E875EE33FE4C22DA16427D65A3BCA92CA6D28DD01DF5DC53330704308475351050232CCD31583787BA75774AFB06E5070DD0C8EF484E19968C5D83BA5B90B244D31E54D55A372320FE4786B7EA58
310
44E135AA5467CB7EA333A61683CC6A8C3257034C10CF46F40EF9F5BE59BE5BD30C3C72D235E95D10345C1D45445A5F0BB47E46A5EBE5570F9380B5FA629579952296A773720405982B9DE04011506178964401AA8BDF1FBF0A8EAB6861DD6580C0E38217056766716DAEB2D6FA0917D3E4116581EADB879C4E7CFFB11EFACD
310
3D641311495D92C8676CB409A72D18610D803CE8A626049E8EC1887CB5B44CC39883690DDA8399B4B9855B481E7D71D4A9D22F96E5BB73BF5793020C02137BF837504B0304140006080000CC70623B000000000000000000000000350000006662782F36394639363044362D344446342D343946362D394244322D32343142
310
43333846323333332F76657274696365732E62696E504B0304140006080800CC70623BF270F1330600000004000000360000006662782F36394639363044362D344446342D343946362D394244322D3234314243333846323333332F747269616E676C65732E62696E636660600000504B0304140006080000CC70623B0000
310
00000000000000000000370000006662782F36394639363044362D344446342D343946362D394244322D3234314243333846323333332F617474726962757465732E62696E504B0304140006080800CC70623B08DA0BD19000000041010000360000006662782F36394639363044362D344446342D343946362D394244322D
310
3234314243333846323333332F6469726563746F72792E786D6C858F410AC3201045AF22B36F53E9A60B35CBEEBAE80D244E44489C6234F4F835464A48035D0DF398FF9F8AF63D0E6CC63039F212F8F9020C7D47C6792B21C5FE7403D62A1188E2E60C98D7234A5830286103A55745067B9D86B8A3CF9C7F90C11DE607FB14
310
4396D7B6A82D282E9A152AD114D5EF2CB866EEE831B8EEA07A7BB5A8D7D61A2BAAEB7FD5F70921FF497D00504B0304140006080800CC70623BCA768048FE000000A00100003B0000006662782F36394639363044362D344446342D343946362D394244322D3234314243333846323333332F7265736F75726365732F636F72
310
652E786D6C8D50596E833010BD0A9ADFCA60D600328E9AA639412F609909B1126CE4A5EAF16B0295DABFFECC8CDEA2797AECF8353F924FB44E193D409E5248504B332A3D0D10FC95B4901C39B3C6F85F3248B49871801506CE266BC2B243D2688FDA47549B11775038871E12F988C7004EDE7016A9083E2ADC3D5D84BC8B09
310
D33C8D74D471E6BC8D0192EDC93A815B742658898E651BCB59086ADC356A8C3FD555A1055ED7E7E254D615792D0F075295F585746FF53B694EE78A565DD736979A65AB9933AFE69F8CD2A2F038022F28ED489E135A7CE4554F9BBEA85E68DB53CAB255FEC71496F19FA6A0B42F8B3DEE6673C0F318E4497096AD7DC5F52C33
310
EEB55BFE0D504B010214000A0000080000CC70623B3DEE336E79000000790000001B00000000000000000000000000000000006175746F6465736B2D64657369676E2D7061636B6167652E786D6C504B01021400140006080800CC70623BD486FD9CA0000000F40000001300000000000000000000000000B20000005B436F
310
6E74656E745F54797065735D2E786D6C504B01021400140006080800CC70623BD9DDAED0EC0000007C010000080000000000000000000000000083010000636F72652E786D6C504B01021400140006080800CC70623B55019EA25F0000007C000000070000000000000000000000000095020000636E782E786D6C504B0102
310
1400140006080800CC70623BA24EB22D72010000D40300000C00000000000000000000000000190300006662782F636F72652E786D6C504B01021400140006080800CC70623B408A7D3B7C0000009D0000000B00000000000000000000000000B50400006662782F636E782E786D6C504B01021400140006080800CC70623B
310
449FB9BD290100001202000031000000000000000000000000005A0500006662782F36394639363044362D344446342D343946362D394244322D3234314243333846323333332F636F72652E786D6C504B01021400140006080800CC70623BAD7543B64E010000330300003000000000000000000000000000D20600006662
310
782F36394639363044362D344446342D343946362D394244322D3234314243333846323333332F636E782E786D6C504B01021400140006080800CC70623B8D05915C650500003B10000034000000000000000000000000006E0800006662782F36394639363044362D344446342D343946362D394244322D32343142433338
310
46323333332F6F626A656374732E786D6C504B01021400140006080000CC70623B0000000000000000000000003500000000000000000000000000250E00006662782F36394639363044362D344446342D343946362D394244322D3234314243333846323333332F76657274696365732E62696E504B010214001400060808
310
00CC70623BF270F13306000000040000003600000000000000000000000000780E00006662782F36394639363044362D344446342D343946362D394244322D3234314243333846323333332F747269616E676C65732E62696E504B01021400140006080000CC70623B00000000000000000000000037000000000000000000
310
00000000D20E00006662782F36394639363044362D344446342D343946362D394244322D3234314243333846323333332F617474726962757465732E62696E504B01021400140006080800CC70623B08DA0BD190000000410100003600000000000000000000000000270F00006662782F36394639363044362D344446342D
310
343946362D394244322D3234314243333846323333332F6469726563746F72792E786D6C504B01021400140006080800CC70623BCA768048FE000000A00100003B000000000000000000000000000B1000006662782F36394639363044362D344446342D343946362D394244322D3234314243333846323333332F7265736F
310
75726365732F636F72652E786D6C504B0506000000000E000E0080040000621100000000
  0
XRECORD
  5
176
102
{ACAD_REACTORS
330
173
102
}
330
173
100
AcDbXrecord
280
     1
270
     1
271
     1
  0
XRECORD
  5
177
102
{ACAD_REACTORS
330
173
102
}
330
173
100
AcDbXrecord
280
     1
270
     1
271
     1
  0
XRECORD
  5
165C
102
{ACAD_REACTORS
330
165B
102
}
330
165B
100
AcDbXrecord
280
     1
102
DISPLAYNAME
  1
Imperial24
102
FLAGS
 90
        0
  0
XRECORD
  5
1658
102
{ACAD_REACTORS
330
1657
102
}
330
1657
100
AcDbXrecord
280
     1
102
DISPLAYNAME
  1
Metric50
102
FLAGS
 90
        0
  0
CELLSTYLEMAP
  5
161D
102
{ACAD_REACTORS
330
162
102
}
330
162
100
AcDbCellStyleMap
 90
        3
300
CELLSTYLE
  1
TABLEFORMAT_BEGIN
 90
        5
170
     1
 91
        0
 92
    32768
 62
   257
 93
        1
300
CONTENTFORMAT
  1
CONTENTFORMAT_BEGIN
 90
        0
 91
        0
 92
      512
 93
        0
300

 40
0.0
140
1.0
 94
        5
 62
     0
340
11
144
6.0
309
CONTENTFORMAT_END
171
     1
301
MARGIN
  1
CELLMARGIN_BEGIN
 40
1.5
 40
1.5
 40
1.5
 40
1.5
 40
0.18
 40
0.18
309
CELLMARGIN_END
 94
        6
 95
        1
302
GRIDFORMAT
  1
GRIDFORMAT_BEGIN
 90
        0
 91
        1
 62
     0
 92
       -2
340
14
 93
        0
 40
1.125
309
GRIDFORMAT_END
 95
        2
302
GRIDFORMAT
  1
GRIDFORMAT_BEGIN
 90
        0
 91
        1
 62
     0
 92
       -2
340
14
 93
        0
 40
1.125
309
GRIDFORMAT_END
 95
        4
302
GRIDFORMAT
  1
GRIDFORMAT_BEGIN
 90
        0
 91
        1
 62
     0
 92
       -2
340
14
 93
        0
 40
1.125
309
GRIDFORMAT_END
 95
        8
302
GRIDFORMAT
  1
GRIDFORMAT_BEGIN
 90
        0
 91
        1
 62
     0
 92
       -2
340
14
 93
        0
 40
1.125
309
GRIDFORMAT_END
 95
       16
302
GRIDFORMAT
  1
GRIDFORMAT_BEGIN
 90
        0
 91
        1
 62
     0
 92
       -2
340
14
 93
        0
 40
1.125
309
GRIDFORMAT_END
 95
       32
302
GRIDFORMAT
  1
GRIDFORMAT_BEGIN
 90
        0
 91
        1
 62
     0
 92
       -2
340
14
 93
        0
 40
1.125
309
GRIDFORMAT_END
309
TABLEFORMAT_END
  1
CELLSTYLE_BEGIN
 90
        1
 91
        1
300
_TITLE
309
CELLSTYLE_END
300
CELLSTYLE
  1
TABLEFORMAT_BEGIN
 90
        5
170
     1
 91
        0
 92
        0
 62
   257
 93
        1
300
CONTENTFORMAT
  1
CONTENTFORMAT_BEGIN
 90
        0
 91
        0
 92
      512
 93
        0
300

 40
0.0
140
1.0
 94
        5
 62
     0
340
11
144
4.5
309
CONTENTFORMAT_END
171
     1
301
MARGIN
  1
CELLMARGIN_BEGIN
 40
1.5
 40
1.5
 40
1.5
 40
1.5
 40
0.18
 40
0.18
309
CELLMARGIN_END
 94
        6
 95
        1
302
GRIDFORMAT
  1
GRIDFORMAT_BEGIN
 90
        0
 91
        1
 62
     0
 92
       -2
340
14
 93
        0
 40
1.125
309
GRIDFORMAT_END
 95
        2
302
GRIDFORMAT
  1
GRIDFORMAT_BEGIN
 90
        0
 91
        1
 62
     0
 92
       -2
340
14
 93
        0
 40
1.125
309
GRIDFORMAT_END
 95
        4
302
GRIDFORMAT
  1
GRIDFORMAT_BEGIN
 90
        0
 91
        1
 62
     0
 92
       -2
340
14
 93
        0
 40
1.125
309
GRIDFORMAT_END
 95
        8
302
GRIDFORMAT
  1
GRIDFORMAT_BEGIN
 90
        0
 91
        1
 62
     0
 92
       -2
340
14
 93
        0
 40
1.125
309
GRIDFORMAT_END
 95
       16
302
GRIDFORMAT
  1
GRIDFORMAT_BEGIN
 90
        0
 91
        1
 62
     0
 92
       -2
340
14
 93
        0
 40
1.125
309
GRIDFORMAT_END
 95
       32
302
GRIDFORMAT
  1
GRIDFORMAT_BEGIN
 90
        0
 91
        1
 62
     0
 92
       -2
340
14
 93
        0
 40
1.125
309
GRIDFORMAT_END
309
TABLEFORMAT_END
  1
CELLSTYLE_BEGIN
 90
        2
 91
        1
300
_HEADER
309
CELLSTYLE_END
300
CELLSTYLE
  1
TABLEFORMAT_BEGIN
 90
        5
170
     1
 91
        0
 92
        0
 62
   257
 93
        1
300
CONTENTFORMAT
  1
CONTENTFORMAT_BEGIN
 90
        0
 91
        0
 92
      512
 93
        0
300

 40
0.0
140
1.0
 94
        2
 62
     0
340
11
144
4.5
309
CONTENTFORMAT_END
171
     1
301
MARGIN
  1
CELLMARGIN_BEGIN
 40
1.5
 40
1.5
 40
1.5
 40
1.5
 40
0.18
 40
0.18
309
CELLMARGIN_END
 94
        6
 95
        1
302
GRIDFORMAT
  1
GRIDFORMAT_BEGIN
 90
        0
 91
        1
 62
     0
 92
       -2
340
14
 93
        0
 40
1.125
309
GRIDFORMAT_END
 95
        2
302
GRIDFORMAT
  1
GRIDFORMAT_BEGIN
 90
        0
 91
        1
 62
     0
 92
       -2
340
14
 93
        0
 40
1.125
309
GRIDFORMAT_END
 95
        4
302
GRIDFORMAT
  1
GRIDFORMAT_BEGIN
 90
        0
 91
        1
 62
     0
 92
       -2
340
14
 93
        0
 40
1.125
309
GRIDFORMAT_END
 95
        8
302
GRIDFORMAT
  1
GRIDFORMAT_BEGIN
 90
        0
 91
        1
 62
     0
 92
       -2
340
14
 93
        0
 40
1.125
309
GRIDFORMAT_END
 95
       16
302
GRIDFORMAT
  1
GRIDFORMAT_BEGIN
 90
        0
 91
        1
 62
     0
 92
       -2
340
14
 93
        0
 40
1.125
309
GRIDFORMAT_END
 95
       32
302
GRIDFORMAT
  1
GRIDFORMAT_BEGIN
 90
        0
 91
        1
 62
     0
 92
       -2
340
14
 93
        0
 40
1.125
309
GRIDFORMAT_END
309
TABLEFORMAT_END
  1
CELLSTYLE_BEGIN
 90
        3
 91
        2
300
_DATA
309
CELLSTYLE_END
  0
XRECORD
  5
1622
102
{ACAD_REACTORS
330
162
102
}
330
162
100
AcDbXrecord
280
     1
102
ACAD_ROUNDTRIP_PRE2007_TABLESTYLE
 90
      512
 91
        0
  1

 92
      512
 93
        0
  2

 94
      512
 95
        0
  3

  0
XRECORD
  5
1632
102
{ACAD_REACTORS
330
1631
102
}
330
1631
100
AcDbXrecord
280
     1
102
RTVSPost2010Prop28
280
     1
102
RTVSPost2010PropOp28
 70
     1
102
RTVSPost2010Prop29
280
     1
102
RTVSPost2010PropOp29
 70
     1
102
RTVSPost2010Prop30
280
     0
102
RTVSPost2010PropOp30
 70
     1
102
RTVSPost2010Prop31
280
     0
102
RTVSPost2010PropOp31
 70
     1
102
RTVSPost2010Prop32
280
     0
102
RTVSPost2010PropOp32
 70
     1
102
RTVSPost2010Prop33
280
     0
102
RTVSPost2010PropOp33
 70
     1
102
RTVSPost2010Prop34
280
     0
102
RTVSPost2010PropOp34
 70
     1
102
RTVSPost2010Prop35
280
     0
102
RTVSPost2010PropOp35
 70
     1
102
RTVSPost2010Prop36
280
     0
102
RTVSPost2010PropOp36
 70
     1
102
RTVSPost2010Prop37
 90
       50
102
RTVSPost2010PropOp37
 70
     1
102
RTVSPost2010Prop38
140
0.0
102
RTVSPost2010PropOp38
 70
     1
102
RTVSPost2010Prop39
140
1.0
102
RTVSPost2010PropOp39
 70
     1
102
RTVSPost2010Prop40
 90
        0
102
RTVSPost2010PropOp40
 70
     1
102
RTVSPost2010Prop41ColorIndex
 90
       18
102
RTVSPost2010Prop41ColorRGB
 90
        0
102
RTVSPost2010PropOp41
 70
     1
102
RTVSPost2010Prop42
 90
       50
102
RTVSPost2010PropOp42
 70
     1
102
RTVSPost2010Prop43
 90
        3
102
RTVSPost2010PropOp43
 70
     1
102
RTVSPost2010Prop44ColorIndex
 90
        5
102
RTVSPost2010Prop44ColorRGB
 90
      255
102
RTVSPost2010PropOp44
 70
     1
102
RTVSPost2010Prop45
280
     0
102
RTVSPost2010PropOp45
 70
     1
102
RTVSPost2010Prop46
 90
       50
102
RTVSPost2010PropOp46
 70
     1
102
RTVSPost2010Prop47
 90
       50
102
RTVSPost2010PropOp47
 70
     1
102
RTVSPost2010Prop48
 90
       50
102
RTVSPost2010PropOp48
 70
     1
102
RTVSPost2010Prop49
280
     0
102
RTVSPost2010PropOp49
 70
     1
102
RTVSPost2010Prop50
 90
       50
102
RTVSPost2010PropOp50
 70
     1
102
RTVSPost2010Prop51ColorIndex
 90
      256
102
RTVSPost2010Prop51ColorRGB
 90
-16777216
102
RTVSPost2010PropOp51
 70
     0
102
RTVSPost2010Prop52
140
1.0
102
RTVSPost2010PropOp52
 70
     0
102
RTVSPost2010Prop53
 90
        2
102
RTVSPost2010PropOp53
 70
     1
102
RTVSPost2010Prop54
  1
strokes_ogs.tif
102
RTVSPost2010PropOp54
 70
     1
102
RTVSPost2010Prop55
280
     0
102
RTVSPost2010PropOp55
 70
     1
102
RTVSPost2010Prop56
140
1.0
102
RTVSPost2010PropOp56
 70
     1
102
RTVSPost2010Prop57
140
1.0
102
RTVSPost2010PropOp57
 70
     1
102
RTVSPropertyOp0
 70
     1
102
RTVSPropertyOp1
 70
     1
102
RTVSPropertyOp2
 70
     1
102
RTVSPropertyOp3
 70
     1
102
RTVSPropertyOp4
 70
     1
102
RTVSPropertyOp5
 70
     1
102
RTVSPropertyOp6
 70
     1
102
RTVSPropertyOp7
 70
     1
102
RTVSPropertyOp8
 70
     1
102
RTVSPropertyOp9
 70
     1
102
RTVSPropertyOp10
 70
     1
102
RTVSPropertyOp11
 70
     1
102
RTVSPropertyOp12
 70
     1
102
RTVSPropertyOp13
 70
     1
102
RTVSPropertyOp14
 70
     1
102
RTVSPropertyOp15
 70
     1
102
RTVSPropertyOp16
 70
     1
102
RTVSPropertyOp17
 70
     1
102
RTVSPropertyOp18
 70
     1
102
RTVSPropertyOp19
 70
     1
102
RTVSPropertyOp20
 70
     1
102
RTVSPropertyOp21
 70
     1
102
RTVSPropertyOp22
 70
     1
102
RTVSPropertyOp23
 70
     1
102
RTVSPropertyOp24
 70
     1
102
RTVSPropertyOp25
 70
     1
102
RTVSPropertyOp26
 70
     1
102
RTVSPropertyOp27
 70
     1
102
RTVSPropertyOp28
 70
     1
102
RTVSPropertyOp29
 70
     1
102
RTVSPropertyOp30
 70
     1
102
RTVSPropertyOp31
 70
     1
102
RTVSPropertyOp32
 70
     1
102
RTVSPropertyOp33
 70
     1
102
RTVSPropertyOp34
 70
     1
102
RTVSPropertyOp35
 70
     1
102
RTVSPropertyOp36
 70
     1
102
RTVSPropertyOp37
 70
     1
102
RTVSPropertyOp38
 70
     1
102
RTVSPropertyOp39
 70
     1
102
RTVSPropertyOp40
 70
     1
102
RTVSPropertyOp41
 70
     1
102
RTVSPropertyOp42
 70
     1
102
RTVSPropertyOp43
 70
     1
102
RTVSPropertyOp44
 70
     1
102
RTVSPropertyOp45
 70
     1
102
RTVSPropertyOp46
 70
     1
102
RTVSPropertyOp47
 70
     1
102
RTVSPropertyOp48
 70
     1
102
RTVSPropertyOp49
 70
     1
102
RTVSPropertyOp50
 70
     1
102
RTVSPropertyOp51
 70
     0
102
RTVSPropertyOp52
 70
     0
102
RTVSPropertyOp53
 70
     1
102
RTVSPropertyOp54
 70
     1
102
RTVSPropertyOp55
 70
     1
102
RTVSPropertyOp56
 70
     1
102
RTVSPropertyOp57
 70
     1
102
RTVSPropertyOp58
 70
     1
102
RTVSPropertyOp59
 70
     1
102
RTVSPropertyOp60
 70
     1
102
RTVSPropertyOp61
 70
     1
102
RTVSPropertyOp62
 70
     1
  0
XRECORD
  5
1630
102
{ACAD_REACTORS
330
162F
102
}
330
162F
100
AcDbXrecord
280
     1
102
RTVSPost2010Prop28
280
     0
102
RTVSPost2010PropOp28
 70
     1
102
RTVSPost2010Prop29
280
     1
102
RTVSPost2010PropOp29
 70
     1
102
RTVSPost2010Prop30
280
     1
102
RTVSPost2010PropOp30
 70
     1
102
RTVSPost2010Prop31
280
     0
102
RTVSPost2010PropOp31
 70
     1
102
RTVSPost2010Prop32
280
     0
102
RTVSPost2010PropOp32
 70
     1
102
RTVSPost2010Prop33
280
     0
102
RTVSPost2010PropOp33
 70
     1
102
RTVSPost2010Prop34
280
     0
102
RTVSPost2010PropOp34
 70
     1
102
RTVSPost2010Prop35
280
     0
102
RTVSPost2010PropOp35
 70
     1
102
RTVSPost2010Prop36
280
     0
102
RTVSPost2010PropOp36
 70
     1
102
RTVSPost2010Prop37
 90
       50
102
RTVSPost2010PropOp37
 70
     1
102
RTVSPost2010Prop38
140
0.0
102
RTVSPost2010PropOp38
 70
     1
102
RTVSPost2010Prop39
140
1.0
102
RTVSPost2010PropOp39
 70
     1
102
RTVSPost2010Prop40
 90
        0
102
RTVSPost2010PropOp40
 70
     1
102
RTVSPost2010Prop41ColorIndex
 90
       18
102
RTVSPost2010Prop41ColorRGB
 90
        0
102
RTVSPost2010PropOp41
 70
     1
102
RTVSPost2010Prop42
 90
       50
102
RTVSPost2010PropOp42
 70
     1
102
RTVSPost2010Prop43
 90
        3
102
RTVSPost2010PropOp43
 70
     1
102
RTVSPost2010Prop44ColorIndex
 90
        5
102
RTVSPost2010Prop44ColorRGB
 90
      255
102
RTVSPost2010PropOp44
 70
     1
102
RTVSPost2010Prop45
280
     0
102
RTVSPost2010PropOp45
 70
     1
102
RTVSPost2010Prop46
 90
       50
102
RTVSPost2010PropOp46
 70
     1
102
RTVSPost2010Prop47
 90
       50
102
RTVSPost2010PropOp47
 70
     1
102
RTVSPost2010Prop48
 90
       50
102
RTVSPost2010PropOp48
 70
     1
102
RTVSPost2010Prop49
280
     0
102
RTVSPost2010PropOp49
 70
     1
102
RTVSPost2010Prop50
 90
       50
102
RTVSPost2010PropOp50
 70
     1
102
RTVSPost2010Prop51ColorIndex
 90
      256
102
RTVSPost2010Prop51ColorRGB
 90
-16777216
102
RTVSPost2010PropOp51
 70
     0
102
RTVSPost2010Prop52
140
1.0
102
RTVSPost2010PropOp52
 70
     0
102
RTVSPost2010Prop53
 90
        2
102
RTVSPost2010PropOp53
 70
     1
102
RTVSPost2010Prop54
  1
strokes_ogs.tif
102
RTVSPost2010PropOp54
 70
     1
102
RTVSPost2010Prop55
280
     0
102
RTVSPost2010PropOp55
 70
     1
102
RTVSPost2010Prop56
140
1.0
102
RTVSPost2010PropOp56
 70
     1
102
RTVSPost2010Prop57
140
1.0
102
RTVSPost2010PropOp57
 70
     1
102
RTVSPropertyOp0
 70
     1
102
RTVSPropertyOp1
 70
     1
102
RTVSPropertyOp2
 70
     1
102
RTVSPropertyOp3
 70
     1
102
RTVSPropertyOp4
 70
     1
102
RTVSPropertyOp5
 70
     1
102
RTVSPropertyOp6
 70
     1
102
RTVSPropertyOp7
 70
     1
102
RTVSPropertyOp8
 70
     1
102
RTVSPropertyOp9
 70
     1
102
RTVSPropertyOp10
 70
     1
102
RTVSPropertyOp11
 70
     1
102
RTVSPropertyOp12
 70
     1
102
RTVSPropertyOp13
 70
     1
102
RTVSPropertyOp14
 70
     1
102
RTVSPropertyOp15
 70
     1
102
RTVSPropertyOp16
 70
     1
102
RTVSPropertyOp17
 70
     1
102
RTVSPropertyOp18
 70
     1
102
RTVSPropertyOp19
 70
     1
102
RTVSPropertyOp20
 70
     1
102
RTVSPropertyOp21
 70
     1
102
RTVSPropertyOp22
 70
     1
102
RTVSPropertyOp23
 70
     1
102
RTVSPropertyOp24
 70
     1
102
RTVSPropertyOp25
 70
     1
102
RTVSPropertyOp26
 70
     1
102
RTVSPropertyOp27
 70
     1
102
RTVSPropertyOp28
 70
     1
102
RTVSPropertyOp29
 70
     1
102
RTVSPropertyOp30
 70
     1
102
RTVSPropertyOp31
 70
     1
102
RTVSPropertyOp32
 70
     1
102
RTVSPropertyOp33
 70
     1
102
RTVSPropertyOp34
 70
     1
102
RTVSPropertyOp35
 70
     1
102
RTVSPropertyOp36
 70
     1
102
RTVSPropertyOp37
 70
     1
102
RTVSPropertyOp38
 70
     1
102
RTVSPropertyOp39
 70
     1
102
RTVSPropertyOp40
 70
     1
102
RTVSPropertyOp41
 70
     1
102
RTVSPropertyOp42
 70
     1
102
RTVSPropertyOp43
 70
     1
102
RTVSPropertyOp44
 70
     1
102
RTVSPropertyOp45
 70
     1
102
RTVSPropertyOp46
 70
     1
102
RTVSPropertyOp47
 70
     1
102
RTVSPropertyOp48
 70
     1
102
RTVSPropertyOp49
 70
     1
102
RTVSPropertyOp50
 70
     1
102
RTVSPropertyOp51
 70
     0
102
RTVSPropertyOp52
 70
     0
102
RTVSPropertyOp53
 70
     1
102
RTVSPropertyOp54
 70
     1
102
RTVSPropertyOp55
 70
     1
102
RTVSPropertyOp56
 70
     1
102
RTVSPropertyOp57
 70
     1
102
RTVSPropertyOp58
 70
     1
102
RTVSPropertyOp59
 70
     1
102
RTVSPropertyOp60
 70
     1
102
RTVSPropertyOp61
 70
     1
102
RTVSPropertyOp62
 70
     1
  0
XRECORD
  5
163E
102
{ACAD_REACTORS
330
163D
102
}
330
163D
100
AcDbXrecord
280
     1
102
RTVSPost2010Prop28
280
     0
102
RTVSPost2010PropOp28
 70
     1
102
RTVSPost2010Prop29
280
     1
102
RTVSPost2010PropOp29
 70
     1
102
RTVSPost2010Prop30
280
     1
102
RTVSPost2010PropOp30
 70
     1
102
RTVSPost2010Prop31
280
     0
102
RTVSPost2010PropOp31
 70
     1
102
RTVSPost2010Prop32
280
     0
102
RTVSPost2010PropOp32
 70
     1
102
RTVSPost2010Prop33
280
     0
102
RTVSPost2010PropOp33
 70
     1
102
RTVSPost2010Prop34
280
     0
102
RTVSPost2010PropOp34
 70
     1
102
RTVSPost2010Prop35
280
     0
102
RTVSPost2010PropOp35
 70
     1
102
RTVSPost2010Prop36
280
     0
102
RTVSPost2010PropOp36
 70
     1
102
RTVSPost2010Prop37
 90
       50
102
RTVSPost2010PropOp37
 70
     1
102
RTVSPost2010Prop38
140
0.0
102
RTVSPost2010PropOp38
 70
     1
102
RTVSPost2010Prop39
140
1.0
102
RTVSPost2010PropOp39
 70
     1
102
RTVSPost2010Prop40
 90
        0
102
RTVSPost2010PropOp40
 70
     1
102
RTVSPost2010Prop41ColorIndex
 90
       18
102
RTVSPost2010Prop41ColorRGB
 90
        0
102
RTVSPost2010PropOp41
 70
     1
102
RTVSPost2010Prop42
 90
       50
102
RTVSPost2010PropOp42
 70
     1
102
RTVSPost2010Prop43
 90
        3
102
RTVSPost2010PropOp43
 70
     1
102
RTVSPost2010Prop44ColorIndex
 90
        5
102
RTVSPost2010Prop44ColorRGB
 90
      255
102
RTVSPost2010PropOp44
 70
     1
102
RTVSPost2010Prop45
280
     0
102
RTVSPost2010PropOp45
 70
     1
102
RTVSPost2010Prop46
 90
       50
102
RTVSPost2010PropOp46
 70
     1
102
RTVSPost2010Prop47
 90
       50
102
RTVSPost2010PropOp47
 70
     1
102
RTVSPost2010Prop48
 90
       50
102
RTVSPost2010PropOp48
 70
     1
102
RTVSPost2010Prop49
280
     0
102
RTVSPost2010PropOp49
 70
     1
102
RTVSPost2010Prop50
 90
       50
102
RTVSPost2010PropOp50
 70
     1
102
RTVSPost2010Prop51ColorIndex
 90
      256
102
RTVSPost2010Prop51ColorRGB
 90
-16777216
102
RTVSPost2010PropOp51
 70
     0
102
RTVSPost2010Prop52
140
1.0
102
RTVSPost2010PropOp52
 70
     0
102
RTVSPost2010Prop53
 90
        2
102
RTVSPost2010PropOp53
 70
     1
102
RTVSPost2010Prop54
  1
strokes_ogs.tif
102
RTVSPost2010PropOp54
 70
     1
102
RTVSPost2010Prop55
280
     0
102
RTVSPost2010PropOp55
 70
     1
102
RTVSPost2010Prop56
140
1.0
102
RTVSPost2010PropOp56
 70
     1
102
RTVSPost2010Prop57
140
1.0
102
RTVSPost2010PropOp57
 70
     1
102
RTVSPropertyOp0
 70
     1
102
RTVSPropertyOp1
 70
     1
102
RTVSPropertyOp2
 70
     1
102
RTVSPropertyOp3
 70
     1
102
RTVSPropertyOp4
 70
     1
102
RTVSPropertyOp5
 70
     1
102
RTVSPropertyOp6
 70
     1
102
RTVSPropertyOp7
 70
     1
102
RTVSPropertyOp8
 70
     1
102
RTVSPropertyOp9
 70
     1
102
RTVSPropertyOp10
 70
     1
102
RTVSPropertyOp11
 70
     1
102
RTVSPropertyOp12
 70
     1
102
RTVSPropertyOp13
 70
     1
102
RTVSPropertyOp14
 70
     1
102
RTVSPropertyOp15
 70
     1
102
RTVSPropertyOp16
 70
     1
102
RTVSPropertyOp17
 70
     1
102
RTVSPropertyOp18
 70
     1
102
RTVSPropertyOp19
 70
     1
102
RTVSPropertyOp20
 70
     1
102
RTVSPropertyOp21
 70
     1
102
RTVSPropertyOp22
 70
     1
102
RTVSPropertyOp23
 70
     1
102
RTVSPropertyOp24
 70
     1
102
RTVSPropertyOp25
 70
     1
102
RTVSPropertyOp26
 70
     1
102
RTVSPropertyOp27
 70
     1
102
RTVSPropertyOp28
 70
     1
102
RTVSPropertyOp29
 70
     1
102
RTVSPropertyOp30
 70
     1
102
RTVSPropertyOp31
 70
     1
102
RTVSPropertyOp32
 70
     1
102
RTVSPropertyOp33
 70
     1
102
RTVSPropertyOp34
 70
     1
102
RTVSPropertyOp35
 70
     1
102
RTVSPropertyOp36
 70
     1
102
RTVSPropertyOp37
 70
     1
102
RTVSPropertyOp38
 70
     1
102
RTVSPropertyOp39
 70
     1
102
RTVSPropertyOp40
 70
     1
102
RTVSPropertyOp41
 70
     1
102
RTVSPropertyOp42
 70
     1
102
RTVSPropertyOp43
 70
     1
102
RTVSPropertyOp44
 70
     1
102
RTVSPropertyOp45
 70
     1
102
RTVSPropertyOp46
 70
     1
102
RTVSPropertyOp47
 70
     1
102
RTVSPropertyOp48
 70
     1
102
RTVSPropertyOp49
 70
     1
102
RTVSPropertyOp50
 70
     1
102
RTVSPropertyOp51
 70
     0
102
RTVSPropertyOp52
 70
     0
102
RTVSPropertyOp53
 70
     1
102
RTVSPropertyOp54
 70
     1
102
RTVSPropertyOp55
 70
     1
102
RTVSPropertyOp56
 70
     1
102
RTVSPropertyOp57
 70
     1
102
RTVSPropertyOp58
 70
     1
102
RTVSPropertyOp59
 70
     1
102
RTVSPropertyOp60
 70
     1
102
RTVSPropertyOp61
 70
     1
102
RTVSPropertyOp62
 70
     1
  0
XRECORD
  5
1646
102
{ACAD_REACTORS
330
1645
102
}
330
1645
100
AcDbXrecord
280
     1
102
RTVSPost2010Prop28
280
     0
102
RTVSPost2010PropOp28
 70
     1
102
RTVSPost2010Prop29
280
     1
102
RTVSPost2010PropOp29
 70
     1
102
RTVSPost2010Prop30
280
     1
102
RTVSPost2010PropOp30
 70
     1
102
RTVSPost2010Prop31
280
     0
102
RTVSPost2010PropOp31
 70
     1
102
RTVSPost2010Prop32
280
     0
102
RTVSPost2010PropOp32
 70
     1
102
RTVSPost2010Prop33
280
     0
102
RTVSPost2010PropOp33
 70
     1
102
RTVSPost2010Prop34
280
     0
102
RTVSPost2010PropOp34
 70
     1
102
RTVSPost2010Prop35
280
     0
102
RTVSPost2010PropOp35
 70
     1
102
RTVSPost2010Prop36
280
     0
102
RTVSPost2010PropOp36
 70
     1
102
RTVSPost2010Prop37
 90
       50
102
RTVSPost2010PropOp37
 70
     1
102
RTVSPost2010Prop38
140
0.0
102
RTVSPost2010PropOp38
 70
     1
102
RTVSPost2010Prop39
140
1.0
102
RTVSPost2010PropOp39
 70
     1
102
RTVSPost2010Prop40
 90
        0
102
RTVSPost2010PropOp40
 70
     1
102
RTVSPost2010Prop41ColorIndex
 90
       18
102
RTVSPost2010Prop41ColorRGB
 90
        0
102
RTVSPost2010PropOp41
 70
     1
102
RTVSPost2010Prop42
 90
       50
102
RTVSPost2010PropOp42
 70
     1
102
RTVSPost2010Prop43
 90
        3
102
RTVSPost2010PropOp43
 70
     1
102
RTVSPost2010Prop44ColorIndex
 90
        5
102
RTVSPost2010Prop44ColorRGB
 90
      255
102
RTVSPost2010PropOp44
 70
     1
102
RTVSPost2010Prop45
280
     0
102
RTVSPost2010PropOp45
 70
     1
102
RTVSPost2010Prop46
 90
       50
102
RTVSPost2010PropOp46
 70
     1
102
RTVSPost2010Prop47
 90
       50
102
RTVSPost2010PropOp47
 70
     1
102
RTVSPost2010Prop48
 90
       50
102
RTVSPost2010PropOp48
 70
     1
102
RTVSPost2010Prop49
280
     0
102
RTVSPost2010PropOp49
 70
     1
102
RTVSPost2010Prop50
 90
       50
102
RTVSPost2010PropOp50
 70
     1
102
RTVSPost2010Prop51ColorIndex
 90
      256
102
RTVSPost2010Prop51ColorRGB
 90
-16777216
102
RTVSPost2010PropOp51
 70
     0
102
RTVSPost2010Prop52
140
1.0
102
RTVSPost2010PropOp52
 70
     0
102
RTVSPost2010Prop53
 90
        2
102
RTVSPost2010PropOp53
 70
     1
102
RTVSPost2010Prop54
  1
strokes_ogs.tif
102
RTVSPost2010PropOp54
 70
     1
102
RTVSPost2010Prop55
280
     0
102
RTVSPost2010PropOp55
 70
     1
102
RTVSPost2010Prop56
140
1.0
102
RTVSPost2010PropOp56
 70
     1
102
RTVSPost2010Prop57
140
1.0
102
RTVSPost2010PropOp57
 70
     1
102
RTVSPropertyOp0
 70
     1
102
RTVSPropertyOp1
 70
     1
102
RTVSPropertyOp2
 70
     1
102
RTVSPropertyOp3
 70
     1
102
RTVSPropertyOp4
 70
     1
102
RTVSPropertyOp5
 70
     1
102
RTVSPropertyOp6
 70
     1
102
RTVSPropertyOp7
 70
     1
102
RTVSPropertyOp8
 70
     1
102
RTVSPropertyOp9
 70
     1
102
RTVSPropertyOp10
 70
     1
102
RTVSPropertyOp11
 70
     1
102
RTVSPropertyOp12
 70
     1
102
RTVSPropertyOp13
 70
     1
102
RTVSPropertyOp14
 70
     1
102
RTVSPropertyOp15
 70
     1
102
RTVSPropertyOp16
 70
     1
102
RTVSPropertyOp17
 70
     1
102
RTVSPropertyOp18
 70
     1
102
RTVSPropertyOp19
 70
     1
102
RTVSPropertyOp20
 70
     1
102
RTVSPropertyOp21
 70
     1
102
RTVSPropertyOp22
 70
     1
102
RTVSPropertyOp23
 70
     1
102
RTVSPropertyOp24
 70
     1
102
RTVSPropertyOp25
 70
     1
102
RTVSPropertyOp26
 70
     1
102
RTVSPropertyOp27
 70
     1
102
RTVSPropertyOp28
 70
     1
102
RTVSPropertyOp29
 70
     1
102
RTVSPropertyOp30
 70
     1
102
RTVSPropertyOp31
 70
     1
102
RTVSPropertyOp32
 70
     1
102
RTVSPropertyOp33
 70
     1
102
RTVSPropertyOp34
 70
     1
102
RTVSPropertyOp35
 70
     1
102
RTVSPropertyOp36
 70
     1
102
RTVSPropertyOp37
 70
     1
102
RTVSPropertyOp38
 70
     1
102
RTVSPropertyOp39
 70
     1
102
RTVSPropertyOp40
 70
     1
102
RTVSPropertyOp41
 70
     1
102
RTVSPropertyOp42
 70
     1
102
RTVSPropertyOp43
 70
     1
102
RTVSPropertyOp44
 70
     1
102
RTVSPropertyOp45
 70
     1
102
RTVSPropertyOp46
 70
     1
102
RTVSPropertyOp47
 70
     1
102
RTVSPropertyOp48
 70
     1
102
RTVSPropertyOp49
 70
     1
102
RTVSPropertyOp50
 70
     1
102
RTVSPropertyOp51
 70
     0
102
RTVSPropertyOp52
 70
     0
102
RTVSPropertyOp53
 70
     1
102
RTVSPropertyOp54
 70
     1
102
RTVSPropertyOp55
 70
     1
102
RTVSPropertyOp56
 70
     1
102
RTVSPropertyOp57
 70
     1
102
RTVSPropertyOp58
 70
     1
102
RTVSPropertyOp59
 70
     1
102
RTVSPropertyOp60
 70
     1
102
RTVSPropertyOp61
 70
     1
102
RTVSPropertyOp62
 70
     1
  0
XRECORD
  5
1638
102
{ACAD_REACTORS
330
1637
102
}
330
1637
100
AcDbXrecord
280
     1
102
RTVSPost2010Prop28
280
     0
102
RTVSPost2010PropOp28
 70
     1
102
RTVSPost2010Prop29
280
     1
102
RTVSPost2010PropOp29
 70
     1
102
RTVSPost2010Prop30
280
     1
102
RTVSPost2010PropOp30
 70
     1
102
RTVSPost2010Prop31
280
     0
102
RTVSPost2010PropOp31
 70
     1
102
RTVSPost2010Prop32
280
     0
102
RTVSPost2010PropOp32
 70
     1
102
RTVSPost2010Prop33
280
     0
102
RTVSPost2010PropOp33
 70
     1
102
RTVSPost2010Prop34
280
     0
102
RTVSPost2010PropOp34
 70
     1
102
RTVSPost2010Prop35
280
     0
102
RTVSPost2010PropOp35
 70
     1
102
RTVSPost2010Prop36
280
     0
102
RTVSPost2010PropOp36
 70
     1
102
RTVSPost2010Prop37
 90
       50
102
RTVSPost2010PropOp37
 70
     1
102
RTVSPost2010Prop38
140
0.0
102
RTVSPost2010PropOp38
 70
     1
102
RTVSPost2010Prop39
140
1.0
102
RTVSPost2010PropOp39
 70
     1
102
RTVSPost2010Prop40
 90
        0
102
RTVSPost2010PropOp40
 70
     1
102
RTVSPost2010Prop41ColorIndex
 90
       18
102
RTVSPost2010Prop41ColorRGB
 90
        0
102
RTVSPost2010PropOp41
 70
     1
102
RTVSPost2010Prop42
 90
       50
102
RTVSPost2010PropOp42
 70
     1
102
RTVSPost2010Prop43
 90
        3
102
RTVSPost2010PropOp43
 70
     1
102
RTVSPost2010Prop44ColorIndex
 90
        5
102
RTVSPost2010Prop44ColorRGB
 90
      255
102
RTVSPost2010PropOp44
 70
     1
102
RTVSPost2010Prop45
280
     0
102
RTVSPost2010PropOp45
 70
     1
102
RTVSPost2010Prop46
 90
       50
102
RTVSPost2010PropOp46
 70
     1
102
RTVSPost2010Prop47
 90
       50
102
RTVSPost2010PropOp47
 70
     1
102
RTVSPost2010Prop48
 90
       50
102
RTVSPost2010PropOp48
 70
     1
102
RTVSPost2010Prop49
280
     0
102
RTVSPost2010PropOp49
 70
     1
102
RTVSPost2010Prop50
 90
       50
102
RTVSPost2010PropOp50
 70
     1
102
RTVSPost2010Prop51ColorIndex
 90
      256
102
RTVSPost2010Prop51ColorRGB
 90
-16777216
102
RTVSPost2010PropOp51
 70
     0
102
RTVSPost2010Prop52
140
1.0
102
RTVSPost2010PropOp52
 70
     0
102
RTVSPost2010Prop53
 90
        2
102
RTVSPost2010PropOp53
 70
     1
102
RTVSPost2010Prop54
  1
strokes_ogs.tif
102
RTVSPost2010PropOp54
 70
     1
102
RTVSPost2010Prop55
280
     0
102
RTVSPost2010PropOp55
 70
     1
102
RTVSPost2010Prop56
140
1.0
102
RTVSPost2010PropOp56
 70
     1
102
RTVSPost2010Prop57
140
1.0
102
RTVSPost2010PropOp57
 70
     1
102
RTVSPropertyOp0
 70
     1
102
RTVSPropertyOp1
 70
     1
102
RTVSPropertyOp2
 70
     1
102
RTVSPropertyOp3
 70
     1
102
RTVSPropertyOp4
 70
     1
102
RTVSPropertyOp5
 70
     1
102
RTVSPropertyOp6
 70
     1
102
RTVSPropertyOp7
 70
     1
102
RTVSPropertyOp8
 70
     1
102
RTVSPropertyOp9
 70
     1
102
RTVSPropertyOp10
 70
     1
102
RTVSPropertyOp11
 70
     1
102
RTVSPropertyOp12
 70
     1
102
RTVSPropertyOp13
 70
     1
102
RTVSPropertyOp14
 70
     1
102
RTVSPropertyOp15
 70
     1
102
RTVSPropertyOp16
 70
     1
102
RTVSPropertyOp17
 70
     1
102
RTVSPropertyOp18
 70
     1
102
RTVSPropertyOp19
 70
     1
102
RTVSPropertyOp20
 70
     1
102
RTVSPropertyOp21
 70
     1
102
RTVSPropertyOp22
 70
     1
102
RTVSPropertyOp23
 70
     1
102
RTVSPropertyOp24
 70
     1
102
RTVSPropertyOp25
 70
     1
102
RTVSPropertyOp26
 70
     1
102
RTVSPropertyOp27
 70
     1
102
RTVSPropertyOp28
 70
     1
102
RTVSPropertyOp29
 70
     1
102
RTVSPropertyOp30
 70
     1
102
RTVSPropertyOp31
 70
     1
102
RTVSPropertyOp32
 70
     1
102
RTVSPropertyOp33
 70
     1
102
RTVSPropertyOp34
 70
     1
102
RTVSPropertyOp35
 70
     1
102
RTVSPropertyOp36
 70
     1
102
RTVSPropertyOp37
 70
     1
102
RTVSPropertyOp38
 70
     1
102
RTVSPropertyOp39
 70
     1
102
RTVSPropertyOp40
 70
     1
102
RTVSPropertyOp41
 70
     1
102
RTVSPropertyOp42
 70
     1
102
RTVSPropertyOp43
 70
     1
102
RTVSPropertyOp44
 70
     1
102
RTVSPropertyOp45
 70
     1
102
RTVSPropertyOp46
 70
     1
102
RTVSPropertyOp47
 70
     1
102
RTVSPropertyOp48
 70
     1
102
RTVSPropertyOp49
 70
     1
102
RTVSPropertyOp50
 70
     1
102
RTVSPropertyOp51
 70
     0
102
RTVSPropertyOp52
 70
     0
102
RTVSPropertyOp53
 70
     1
102
RTVSPropertyOp54
 70
     1
102
RTVSPropertyOp55
 70
     1
102
RTVSPropertyOp56
 70
     1
102
RTVSPropertyOp57
 70
     1
102
RTVSPropertyOp58
 70
     1
102
RTVSPropertyOp59
 70
     1
102
RTVSPropertyOp60
 70
     1
102
RTVSPropertyOp61
 70
     1
102
RTVSPropertyOp62
 70
     1
  0
XRECORD
  5
163C
102
{ACAD_REACTORS
330
163B
102
}
330
163B
100
AcDbXrecord
280
     1
102
RTVSPost2010Prop28
280
     0
102
RTVSPost2010PropOp28
 70
     1
102
RTVSPost2010Prop29
280
     1
102
RTVSPost2010PropOp29
 70
     1
102
RTVSPost2010Prop30
280
     1
102
RTVSPost2010PropOp30
 70
     1
102
RTVSPost2010Prop31
280
     0
102
RTVSPost2010PropOp31
 70
     1
102
RTVSPost2010Prop32
280
     0
102
RTVSPost2010PropOp32
 70
     1
102
RTVSPost2010Prop33
280
     0
102
RTVSPost2010PropOp33
 70
     1
102
RTVSPost2010Prop34
280
     0
102
RTVSPost2010PropOp34
 70
     1
102
RTVSPost2010Prop35
280
     0
102
RTVSPost2010PropOp35
 70
     1
102
RTVSPost2010Prop36
280
     0
102
RTVSPost2010PropOp36
 70
     1
102
RTVSPost2010Prop37
 90
       50
102
RTVSPost2010PropOp37
 70
     1
102
RTVSPost2010Prop38
140
0.0
102
RTVSPost2010PropOp38
 70
     1
102
RTVSPost2010Prop39
140
1.0
102
RTVSPost2010PropOp39
 70
     1
102
RTVSPost2010Prop40
 90
        0
102
RTVSPost2010PropOp40
 70
     1
102
RTVSPost2010Prop41ColorIndex
 90
       18
102
RTVSPost2010Prop41ColorRGB
 90
        0
102
RTVSPost2010PropOp41
 70
     1
102
RTVSPost2010Prop42
 90
       50
102
RTVSPost2010PropOp42
 70
     1
102
RTVSPost2010Prop43
 90
        3
102
RTVSPost2010PropOp43
 70
     1
102
RTVSPost2010Prop44ColorIndex
 90
        5
102
RTVSPost2010Prop44ColorRGB
 90
      255
102
RTVSPost2010PropOp44
 70
     1
102
RTVSPost2010Prop45
280
     0
102
RTVSPost2010PropOp45
 70
     1
102
RTVSPost2010Prop46
 90
       50
102
RTVSPost2010PropOp46
 70
     1
102
RTVSPost2010Prop47
 90
       50
102
RTVSPost2010PropOp47
 70
     1
102
RTVSPost2010Prop48
 90
       50
102
RTVSPost2010PropOp48
 70
     1
102
RTVSPost2010Prop49
280
     0
102
RTVSPost2010PropOp49
 70
     1
102
RTVSPost2010Prop50
 90
       50
102
RTVSPost2010PropOp50
 70
     1
102
RTVSPost2010Prop51ColorIndex
 90
      256
102
RTVSPost2010Prop51ColorRGB
 90
-16777216
102
RTVSPost2010PropOp51
 70
     0
102
RTVSPost2010Prop52
140
1.0
102
RTVSPost2010PropOp52
 70
     0
102
RTVSPost2010Prop53
 90
        2
102
RTVSPost2010PropOp53
 70
     1
102
RTVSPost2010Prop54
  1
strokes_ogs.tif
102
RTVSPost2010PropOp54
 70
     1
102
RTVSPost2010Prop55
280
     0
102
RTVSPost2010PropOp55
 70
     1
102
RTVSPost2010Prop56
140
1.0
102
RTVSPost2010PropOp56
 70
     1
102
RTVSPost2010Prop57
140
1.0
102
RTVSPost2010PropOp57
 70
     1
102
RTVSPropertyOp0
 70
     1
102
RTVSPropertyOp1
 70
     1
102
RTVSPropertyOp2
 70
     1
102
RTVSPropertyOp3
 70
     1
102
RTVSPropertyOp4
 70
     1
102
RTVSPropertyOp5
 70
     1
102
RTVSPropertyOp6
 70
     1
102
RTVSPropertyOp7
 70
     1
102
RTVSPropertyOp8
 70
     1
102
RTVSPropertyOp9
 70
     1
102
RTVSPropertyOp10
 70
     1
102
RTVSPropertyOp11
 70
     1
102
RTVSPropertyOp12
 70
     1
102
RTVSPropertyOp13
 70
     1
102
RTVSPropertyOp14
 70
     1
102
RTVSPropertyOp15
 70
     1
102
RTVSPropertyOp16
 70
     1
102
RTVSPropertyOp17
 70
     1
102
RTVSPropertyOp18
 70
     1
102
RTVSPropertyOp19
 70
     1
102
RTVSPropertyOp20
 70
     1
102
RTVSPropertyOp21
 70
     1
102
RTVSPropertyOp22
 70
     1
102
RTVSPropertyOp23
 70
     1
102
RTVSPropertyOp24
 70
     1
102
RTVSPropertyOp25
 70
     1
102
RTVSPropertyOp26
 70
     1
102
RTVSPropertyOp27
 70
     1
102
RTVSPropertyOp28
 70
     1
102
RTVSPropertyOp29
 70
     1
102
RTVSPropertyOp30
 70
     1
102
RTVSPropertyOp31
 70
     1
102
RTVSPropertyOp32
 70
     1
102
RTVSPropertyOp33
 70
     1
102
RTVSPropertyOp34
 70
     1
102
RTVSPropertyOp35
 70
     1
102
RTVSPropertyOp36
 70
     1
102
RTVSPropertyOp37
 70
     1
102
RTVSPropertyOp38
 70
     1
102
RTVSPropertyOp39
 70
     1
102
RTVSPropertyOp40
 70
     1
102
RTVSPropertyOp41
 70
     1
102
RTVSPropertyOp42
 70
     1
102
RTVSPropertyOp43
 70
     1
102
RTVSPropertyOp44
 70
     1
102
RTVSPropertyOp45
 70
     1
102
RTVSPropertyOp46
 70
     1
102
RTVSPropertyOp47
 70
     1
102
RTVSPropertyOp48
 70
     1
102
RTVSPropertyOp49
 70
     1
102
RTVSPropertyOp50
 70
     1
102
RTVSPropertyOp51
 70
     0
102
RTVSPropertyOp52
 70
     0
102
RTVSPropertyOp53
 70
     1
102
RTVSPropertyOp54
 70
     1
102
RTVSPropertyOp55
 70
     1
102
RTVSPropertyOp56
 70
     1
102
RTVSPropertyOp57
 70
     1
102
RTVSPropertyOp58
 70
     1
102
RTVSPropertyOp59
 70
     1
102
RTVSPropertyOp60
 70
     1
102
RTVSPropertyOp61
 70
     1
102
RTVSPropertyOp62
 70
     1
  0
XRECORD
  5
164C
102
{ACAD_REACTORS
330
164B
102
}
330
164B
100
AcDbXrecord
280
     1
102
RTVSPost2010Prop28
280
     0
102
RTVSPost2010PropOp28
 70
     1
102
RTVSPost2010Prop29
280
     1
102
RTVSPost2010PropOp29
 70
     1
102
RTVSPost2010Prop30
280
     1
102
RTVSPost2010PropOp30
 70
     1
102
RTVSPost2010Prop31
280
     0
102
RTVSPost2010PropOp31
 70
     1
102
RTVSPost2010Prop32
280
     0
102
RTVSPost2010PropOp32
 70
     1
102
RTVSPost2010Prop33
280
     0
102
RTVSPost2010PropOp33
 70
     1
102
RTVSPost2010Prop34
280
     0
102
RTVSPost2010PropOp34
 70
     1
102
RTVSPost2010Prop35
280
     0
102
RTVSPost2010PropOp35
 70
     1
102
RTVSPost2010Prop36
280
     0
102
RTVSPost2010PropOp36
 70
     1
102
RTVSPost2010Prop37
 90
       50
102
RTVSPost2010PropOp37
 70
     1
102
RTVSPost2010Prop38
140
0.0
102
RTVSPost2010PropOp38
 70
     1
102
RTVSPost2010Prop39
140
1.0
102
RTVSPost2010PropOp39
 70
     1
102
RTVSPost2010Prop40
 90
        0
102
RTVSPost2010PropOp40
 70
     1
102
RTVSPost2010Prop41ColorIndex
 90
       18
102
RTVSPost2010Prop41ColorRGB
 90
        0
102
RTVSPost2010PropOp41
 70
     1
102
RTVSPost2010Prop42
 90
       50
102
RTVSPost2010PropOp42
 70
     1
102
RTVSPost2010Prop43
 90
        3
102
RTVSPost2010PropOp43
 70
     1
102
RTVSPost2010Prop44ColorIndex
 90
        5
102
RTVSPost2010Prop44ColorRGB
 90
      255
102
RTVSPost2010PropOp44
 70
     1
102
RTVSPost2010Prop45
280
     0
102
RTVSPost2010PropOp45
 70
     1
102
RTVSPost2010Prop46
 90
       50
102
RTVSPost2010PropOp46
 70
     1
102
RTVSPost2010Prop47
 90
       50
102
RTVSPost2010PropOp47
 70
     1
102
RTVSPost2010Prop48
 90
       50
102
RTVSPost2010PropOp48
 70
     1
102
RTVSPost2010Prop49
280
     0
102
RTVSPost2010PropOp49
 70
     1
102
RTVSPost2010Prop50
 90
       50
102
RTVSPost2010PropOp50
 70
     1
102
RTVSPost2010Prop51ColorIndex
 90
      256
102
RTVSPost2010Prop51ColorRGB
 90
-16777216
102
RTVSPost2010PropOp51
 70
     0
102
RTVSPost2010Prop52
140
1.0
102
RTVSPost2010PropOp52
 70
     0
102
RTVSPost2010Prop53
 90
        2
102
RTVSPost2010PropOp53
 70
     1
102
RTVSPost2010Prop54
  1
strokes_ogs.tif
102
RTVSPost2010PropOp54
 70
     1
102
RTVSPost2010Prop55
280
     0
102
RTVSPost2010PropOp55
 70
     1
102
RTVSPost2010Prop56
140
1.0
102
RTVSPost2010PropOp56
 70
     1
102
RTVSPost2010Prop57
140
1.0
102
RTVSPost2010PropOp57
 70
     1
102
RTVSPropertyOp0
 70
     0
102
RTVSPropertyOp1
 70
     0
102
RTVSPropertyOp2
 70
     0
102
RTVSPropertyOp3
 70
     0
102
RTVSPropertyOp4
 70
     0
102
RTVSPropertyOp5
 70
     0
102
RTVSPropertyOp6
 70
     0
102
RTVSPropertyOp7
 70
     0
102
RTVSPropertyOp8
 70
     0
102
RTVSPropertyOp9
 70
     0
102
RTVSPropertyOp10
 70
     0
102
RTVSPropertyOp11
 70
     0
102
RTVSPropertyOp12
 70
     0
102
RTVSPropertyOp13
 70
     0
102
RTVSPropertyOp14
 70
     2
102
RTVSPropertyOp15
 70
     0
102
RTVSPropertyOp16
 70
     0
102
RTVSPropertyOp17
 70
     0
102
RTVSPropertyOp18
 70
     0
102
RTVSPropertyOp19
 70
     0
102
RTVSPropertyOp20
 70
     0
102
RTVSPropertyOp21
 70
     0
102
RTVSPropertyOp22
 70
     0
102
RTVSPropertyOp23
 70
     0
102
RTVSPropertyOp24
 70
     0
102
RTVSPropertyOp25
 70
     0
102
RTVSPropertyOp26
 70
     0
102
RTVSPropertyOp27
 70
     0
102
RTVSPropertyOp28
 70
     1
102
RTVSPropertyOp29
 70
     1
102
RTVSPropertyOp30
 70
     1
102
RTVSPropertyOp31
 70
     1
102
RTVSPropertyOp32
 70
     1
102
RTVSPropertyOp33
 70
     1
102
RTVSPropertyOp34
 70
     1
102
RTVSPropertyOp35
 70
     1
102
RTVSPropertyOp36
 70
     1
102
RTVSPropertyOp37
 70
     1
102
RTVSPropertyOp38
 70
     1
102
RTVSPropertyOp39
 70
     1
102
RTVSPropertyOp40
 70
     1
102
RTVSPropertyOp41
 70
     1
102
RTVSPropertyOp42
 70
     1
102
RTVSPropertyOp43
 70
     1
102
RTVSPropertyOp44
 70
     1
102
RTVSPropertyOp45
 70
     1
102
RTVSPropertyOp46
 70
     1
102
RTVSPropertyOp47
 70
     1
102
RTVSPropertyOp48
 70
     1
102
RTVSPropertyOp49
 70
     1
102
RTVSPropertyOp50
 70
     1
102
RTVSPropertyOp51
 70
     0
102
RTVSPropertyOp52
 70
     0
102
RTVSPropertyOp53
 70
     1
102
RTVSPropertyOp54
 70
     1
102
RTVSPropertyOp55
 70
     1
102
RTVSPropertyOp56
 70
     1
102
RTVSPropertyOp57
 70
     1
102
RTVSPropertyOp58
 70
     1
102
RTVSPropertyOp59
 70
     1
102
RTVSPropertyOp60
 70
     1
102
RTVSPropertyOp61
 70
     1
102
RTVSPropertyOp62
 70
     1
  0
XRECORD
  5
1644
102
{ACAD_REACTORS
330
1643
102
}
330
1643
100
AcDbXrecord
280
     1
102
RTVSPost2010Prop28
280
     0
102
RTVSPost2010PropOp28
 70
     1
102
RTVSPost2010Prop29
280
     1
102
RTVSPost2010PropOp29
 70
     1
102
RTVSPost2010Prop30
280
     1
102
RTVSPost2010PropOp30
 70
     1
102
RTVSPost2010Prop31
280
     0
102
RTVSPost2010PropOp31
 70
     1
102
RTVSPost2010Prop32
280
     0
102
RTVSPost2010PropOp32
 70
     1
102
RTVSPost2010Prop33
280
     0
102
RTVSPost2010PropOp33
 70
     1
102
RTVSPost2010Prop34
280
     0
102
RTVSPost2010PropOp34
 70
     1
102
RTVSPost2010Prop35
280
     0
102
RTVSPost2010PropOp35
 70
     1
102
RTVSPost2010Prop36
280
     0
102
RTVSPost2010PropOp36
 70
     1
102
RTVSPost2010Prop37
 90
       50
102
RTVSPost2010PropOp37
 70
     1
102
RTVSPost2010Prop38
140
0.0
102
RTVSPost2010PropOp38
 70
     1
102
RTVSPost2010Prop39
140
1.0
102
RTVSPost2010PropOp39
 70
     1
102
RTVSPost2010Prop40
 90
        0
102
RTVSPost2010PropOp40
 70
     1
102
RTVSPost2010Prop41ColorIndex
 90
       18
102
RTVSPost2010Prop41ColorRGB
 90
        0
102
RTVSPost2010PropOp41
 70
     1
102
RTVSPost2010Prop42
 90
       50
102
RTVSPost2010PropOp42
 70
     1
102
RTVSPost2010Prop43
 90
        3
102
RTVSPost2010PropOp43
 70
     1
102
RTVSPost2010Prop44ColorIndex
 90
        5
102
RTVSPost2010Prop44ColorRGB
 90
      255
102
RTVSPost2010PropOp44
 70
     1
102
RTVSPost2010Prop45
280
     0
102
RTVSPost2010PropOp45
 70
     1
102
RTVSPost2010Prop46
 90
       50
102
RTVSPost2010PropOp46
 70
     1
102
RTVSPost2010Prop47
 90
       50
102
RTVSPost2010PropOp47
 70
     1
102
RTVSPost2010Prop48
 90
       50
102
RTVSPost2010PropOp48
 70
     1
102
RTVSPost2010Prop49
280
     0
102
RTVSPost2010PropOp49
 70
     1
102
RTVSPost2010Prop50
 90
       50
102
RTVSPost2010PropOp50
 70
     1
102
RTVSPost2010Prop51ColorIndex
 90
      256
102
RTVSPost2010Prop51ColorRGB
 90
-16777216
102
RTVSPost2010PropOp51
 70
     0
102
RTVSPost2010Prop52
140
1.0
102
RTVSPost2010PropOp52
 70
     0
102
RTVSPost2010Prop53
 90
        2
102
RTVSPost2010PropOp53
 70
     1
102
RTVSPost2010Prop54
  1
strokes_ogs.tif
102
RTVSPost2010PropOp54
 70
     1
102
RTVSPost2010Prop55
280
     0
102
RTVSPost2010PropOp55
 70
     1
102
RTVSPost2010Prop56
140
1.0
102
RTVSPost2010PropOp56
 70
     1
102
RTVSPost2010Prop57
140
1.0
102
RTVSPost2010PropOp57
 70
     1
102
RTVSPropertyOp0
 70
     1
102
RTVSPropertyOp1
 70
     1
102
RTVSPropertyOp2
 70
     1
102
RTVSPropertyOp3
 70
     1
102
RTVSPropertyOp4
 70
     1
102
RTVSPropertyOp5
 70
     1
102
RTVSPropertyOp6
 70
     1
102
RTVSPropertyOp7
 70
     1
102
RTVSPropertyOp8
 70
     1
102
RTVSPropertyOp9
 70
     1
102
RTVSPropertyOp10
 70
     1
102
RTVSPropertyOp11
 70
     1
102
RTVSPropertyOp12
 70
     1
102
RTVSPropertyOp13
 70
     1
102
RTVSPropertyOp14
 70
     1
102
RTVSPropertyOp15
 70
     1
102
RTVSPropertyOp16
 70
     1
102
RTVSPropertyOp17
 70
     1
102
RTVSPropertyOp18
 70
     1
102
RTVSPropertyOp19
 70
     1
102
RTVSPropertyOp20
 70
     1
102
RTVSPropertyOp21
 70
     1
102
RTVSPropertyOp22
 70
     1
102
RTVSPropertyOp23
 70
     1
102
RTVSPropertyOp24
 70
     1
102
RTVSPropertyOp25
 70
     1
102
RTVSPropertyOp26
 70
     1
102
RTVSPropertyOp27
 70
     1
102
RTVSPropertyOp28
 70
     1
102
RTVSPropertyOp29
 70
     1
102
RTVSPropertyOp30
 70
     1
102
RTVSPropertyOp31
 70
     1
102
RTVSPropertyOp32
 70
     1
102
RTVSPropertyOp33
 70
     1
102
RTVSPropertyOp34
 70
     1
102
RTVSPropertyOp35
 70
     1
102
RTVSPropertyOp36
 70
     1
102
RTVSPropertyOp37
 70
     1
102
RTVSPropertyOp38
 70
     1
102
RTVSPropertyOp39
 70
     1
102
RTVSPropertyOp40
 70
     1
102
RTVSPropertyOp41
 70
     1
102
RTVSPropertyOp42
 70
     1
102
RTVSPropertyOp43
 70
     1
102
RTVSPropertyOp44
 70
     1
102
RTVSPropertyOp45
 70
     1
102
RTVSPropertyOp46
 70
     1
102
RTVSPropertyOp47
 70
     1
102
RTVSPropertyOp48
 70
     1
102
RTVSPropertyOp49
 70
     1
102
RTVSPropertyOp50
 70
     1
102
RTVSPropertyOp51
 70
     0
102
RTVSPropertyOp52
 70
     0
102
RTVSPropertyOp53
 70
     1
102
RTVSPropertyOp54
 70
     1
102
RTVSPropertyOp55
 70
     1
102
RTVSPropertyOp56
 70
     1
102
RTVSPropertyOp57
 70
     1
102
RTVSPropertyOp58
 70
     1
102
RTVSPropertyOp59
 70
     1
102
RTVSPropertyOp60
 70
     1
102
RTVSPropertyOp61
 70
     1
102
RTVSPropertyOp62
 70
     1
  0
XRECORD
  5
1628
102
{ACAD_REACTORS
330
1627
102
}
330
1627
100
AcDbXrecord
280
     1
102
RTVSPost2010Prop28
280
     0
102
RTVSPost2010PropOp28
 70
     1
102
RTVSPost2010Prop29
280
     1
102
RTVSPost2010PropOp29
 70
     1
102
RTVSPost2010Prop30
280
     1
102
RTVSPost2010PropOp30
 70
     1
102
RTVSPost2010Prop31
280
     0
102
RTVSPost2010PropOp31
 70
     1
102
RTVSPost2010Prop32
280
     0
102
RTVSPost2010PropOp32
 70
     1
102
RTVSPost2010Prop33
280
     0
102
RTVSPost2010PropOp33
 70
     1
102
RTVSPost2010Prop34
280
     0
102
RTVSPost2010PropOp34
 70
     1
102
RTVSPost2010Prop35
280
     0
102
RTVSPost2010PropOp35
 70
     1
102
RTVSPost2010Prop36
280
     0
102
RTVSPost2010PropOp36
 70
     1
102
RTVSPost2010Prop37
 90
       50
102
RTVSPost2010PropOp37
 70
     1
102
RTVSPost2010Prop38
140
0.0
102
RTVSPost2010PropOp38
 70
     1
102
RTVSPost2010Prop39
140
1.0
102
RTVSPost2010PropOp39
 70
     1
102
RTVSPost2010Prop40
 90
        0
102
RTVSPost2010PropOp40
 70
     1
102
RTVSPost2010Prop41ColorIndex
 90
       18
102
RTVSPost2010Prop41ColorRGB
 90
        0
102
RTVSPost2010PropOp41
 70
     1
102
RTVSPost2010Prop42
 90
       50
102
RTVSPost2010PropOp42
 70
     1
102
RTVSPost2010Prop43
 90
        3
102
RTVSPost2010PropOp43
 70
     1
102
RTVSPost2010Prop44ColorIndex
 90
        5
102
RTVSPost2010Prop44ColorRGB
 90
      255
102
RTVSPost2010PropOp44
 70
     1
102
RTVSPost2010Prop45
280
     0
102
RTVSPost2010PropOp45
 70
     1
102
RTVSPost2010Prop46
 90
       50
102
RTVSPost2010PropOp46
 70
     1
102
RTVSPost2010Prop47
 90
       50
102
RTVSPost2010PropOp47
 70
     1
102
RTVSPost2010Prop48
 90
       50
102
RTVSPost2010PropOp48
 70
     1
102
RTVSPost2010Prop49
280
     0
102
RTVSPost2010PropOp49
 70
     1
102
RTVSPost2010Prop50
 90
       50
102
RTVSPost2010PropOp50
 70
     1
102
RTVSPost2010Prop51ColorIndex
 90
      256
102
RTVSPost2010Prop51ColorRGB
 90
-16777216
102
RTVSPost2010PropOp51
 70
     0
102
RTVSPost2010Prop52
140
1.0
102
RTVSPost2010PropOp52
 70
     0
102
RTVSPost2010Prop53
 90
        2
102
RTVSPost2010PropOp53
 70
     1
102
RTVSPost2010Prop54
  1
strokes_ogs.tif
102
RTVSPost2010PropOp54
 70
     1
102
RTVSPost2010Prop55
280
     0
102
RTVSPost2010PropOp55
 70
     1
102
RTVSPost2010Prop56
140
1.0
102
RTVSPost2010PropOp56
 70
     1
102
RTVSPost2010Prop57
140
1.0
102
RTVSPost2010PropOp57
 70
     1
102
RTVSPropertyOp0
 70
     1
102
RTVSPropertyOp1
 70
     1
102
RTVSPropertyOp2
 70
     1
102
RTVSPropertyOp3
 70
     1
102
RTVSPropertyOp4
 70
     1
102
RTVSPropertyOp5
 70
     1
102
RTVSPropertyOp6
 70
     1
102
RTVSPropertyOp7
 70
     1
102
RTVSPropertyOp8
 70
     1
102
RTVSPropertyOp9
 70
     1
102
RTVSPropertyOp10
 70
     1
102
RTVSPropertyOp11
 70
     1
102
RTVSPropertyOp12
 70
     1
102
RTVSPropertyOp13
 70
     1
102
RTVSPropertyOp14
 70
     1
102
RTVSPropertyOp15
 70
     1
102
RTVSPropertyOp16
 70
     1
102
RTVSPropertyOp17
 70
     1
102
RTVSPropertyOp18
 70
     1
102
RTVSPropertyOp19
 70
     1
102
RTVSPropertyOp20
 70
     1
102
RTVSPropertyOp21
 70
     1
102
RTVSPropertyOp22
 70
     1
102
RTVSPropertyOp23
 70
     1
102
RTVSPropertyOp24
 70
     1
102
RTVSPropertyOp25
 70
     1
102
RTVSPropertyOp26
 70
     1
102
RTVSPropertyOp27
 70
     1
102
RTVSPropertyOp28
 70
     1
102
RTVSPropertyOp29
 70
     1
102
RTVSPropertyOp30
 70
     1
102
RTVSPropertyOp31
 70
     1
102
RTVSPropertyOp32
 70
     1
102
RTVSPropertyOp33
 70
     1
102
RTVSPropertyOp34
 70
     1
102
RTVSPropertyOp35
 70
     1
102
RTVSPropertyOp36
 70
     1
102
RTVSPropertyOp37
 70
     1
102
RTVSPropertyOp38
 70
     1
102
RTVSPropertyOp39
 70
     1
102
RTVSPropertyOp40
 70
     1
102
RTVSPropertyOp41
 70
     1
102
RTVSPropertyOp42
 70
     1
102
RTVSPropertyOp43
 70
     1
102
RTVSPropertyOp44
 70
     1
102
RTVSPropertyOp45
 70
     1
102
RTVSPropertyOp46
 70
     1
102
RTVSPropertyOp47
 70
     1
102
RTVSPropertyOp48
 70
     1
102
RTVSPropertyOp49
 70
     1
102
RTVSPropertyOp50
 70
     1
102
RTVSPropertyOp51
 70
     0
102
RTVSPropertyOp52
 70
     0
102
RTVSPropertyOp53
 70
     1
102
RTVSPropertyOp54
 70
     1
102
RTVSPropertyOp55
 70
     1
102
RTVSPropertyOp56
 70
     1
102
RTVSPropertyOp57
 70
     1
102
RTVSPropertyOp58
 70
     1
102
RTVSPropertyOp59
 70
     1
102
RTVSPropertyOp60
 70
     1
102
RTVSPropertyOp61
 70
     1
102
RTVSPropertyOp62
 70
     1
  0
XRECORD
  5
162A
102
{ACAD_REACTORS
330
1629
102
}
330
1629
100
AcDbXrecord
280
     1
102
RTVSPost2010Prop28
280
     0
102
RTVSPost2010PropOp28
 70
     1
102
RTVSPost2010Prop29
280
     1
102
RTVSPost2010PropOp29
 70
     1
102
RTVSPost2010Prop30
280
     1
102
RTVSPost2010PropOp30
 70
     1
102
RTVSPost2010Prop31
280
     0
102
RTVSPost2010PropOp31
 70
     1
102
RTVSPost2010Prop32
280
     0
102
RTVSPost2010PropOp32
 70
     1
102
RTVSPost2010Prop33
280
     0
102
RTVSPost2010PropOp33
 70
     1
102
RTVSPost2010Prop34
280
     0
102
RTVSPost2010PropOp34
 70
     1
102
RTVSPost2010Prop35
280
     0
102
RTVSPost2010PropOp35
 70
     1
102
RTVSPost2010Prop36
280
     0
102
RTVSPost2010PropOp36
 70
     1
102
RTVSPost2010Prop37
 90
       50
102
RTVSPost2010PropOp37
 70
     1
102
RTVSPost2010Prop38
140
0.0
102
RTVSPost2010PropOp38
 70
     1
102
RTVSPost2010Prop39
140
1.0
102
RTVSPost2010PropOp39
 70
     1
102
RTVSPost2010Prop40
 90
        0
102
RTVSPost2010PropOp40
 70
     1
102
RTVSPost2010Prop41ColorIndex
 90
       18
102
RTVSPost2010Prop41ColorRGB
 90
        0
102
RTVSPost2010PropOp41
 70
     1
102
RTVSPost2010Prop42
 90
       50
102
RTVSPost2010PropOp42
 70
     1
102
RTVSPost2010Prop43
 90
        3
102
RTVSPost2010PropOp43
 70
     1
102
RTVSPost2010Prop44ColorIndex
 90
        5
102
RTVSPost2010Prop44ColorRGB
 90
      255
102
RTVSPost2010PropOp44
 70
     1
102
RTVSPost2010Prop45
280
     0
102
RTVSPost2010PropOp45
 70
     1
102
RTVSPost2010Prop46
 90
       50
102
RTVSPost2010PropOp46
 70
     1
102
RTVSPost2010Prop47
 90
       50
102
RTVSPost2010PropOp47
 70
     1
102
RTVSPost2010Prop48
 90
       50
102
RTVSPost2010PropOp48
 70
     1
102
RTVSPost2010Prop49
280
     0
102
RTVSPost2010PropOp49
 70
     1
102
RTVSPost2010Prop50
 90
       50
102
RTVSPost2010PropOp50
 70
     1
102
RTVSPost2010Prop51ColorIndex
 90
      256
102
RTVSPost2010Prop51ColorRGB
 90
-16777216
102
RTVSPost2010PropOp51
 70
     0
102
RTVSPost2010Prop52
140
1.0
102
RTVSPost2010PropOp52
 70
     0
102
RTVSPost2010Prop53
 90
        2
102
RTVSPost2010PropOp53
 70
     1
102
RTVSPost2010Prop54
  1
strokes_ogs.tif
102
RTVSPost2010PropOp54
 70
     1
102
RTVSPost2010Prop55
280
     0
102
RTVSPost2010PropOp55
 70
     1
102
RTVSPost2010Prop56
140
1.0
102
RTVSPost2010PropOp56
 70
     1
102
RTVSPost2010Prop57
140
1.0
102
RTVSPost2010PropOp57
 70
     1
102
RTVSPropertyOp0
 70
     1
102
RTVSPropertyOp1
 70
     1
102
RTVSPropertyOp2
 70
     1
102
RTVSPropertyOp3
 70
     1
102
RTVSPropertyOp4
 70
     1
102
RTVSPropertyOp5
 70
     1
102
RTVSPropertyOp6
 70
     1
102
RTVSPropertyOp7
 70
     1
102
RTVSPropertyOp8
 70
     1
102
RTVSPropertyOp9
 70
     1
102
RTVSPropertyOp10
 70
     1
102
RTVSPropertyOp11
 70
     1
102
RTVSPropertyOp12
 70
     1
102
RTVSPropertyOp13
 70
     1
102
RTVSPropertyOp14
 70
     1
102
RTVSPropertyOp15
 70
     1
102
RTVSPropertyOp16
 70
     1
102
RTVSPropertyOp17
 70
     1
102
RTVSPropertyOp18
 70
     1
102
RTVSPropertyOp19
 70
     1
102
RTVSPropertyOp20
 70
     1
102
RTVSPropertyOp21
 70
     1
102
RTVSPropertyOp22
 70
     1
102
RTVSPropertyOp23
 70
     1
102
RTVSPropertyOp24
 70
     1
102
RTVSPropertyOp25
 70
     1
102
RTVSPropertyOp26
 70
     1
102
RTVSPropertyOp27
 70
     1
102
RTVSPropertyOp28
 70
     1
102
RTVSPropertyOp29
 70
     1
102
RTVSPropertyOp30
 70
     1
102
RTVSPropertyOp31
 70
     1
102
RTVSPropertyOp32
 70
     1
102
RTVSPropertyOp33
 70
     1
102
RTVSPropertyOp34
 70
     1
102
RTVSPropertyOp35
 70
     1
102
RTVSPropertyOp36
 70
     1
102
RTVSPropertyOp37
 70
     1
102
RTVSPropertyOp38
 70
     1
102
RTVSPropertyOp39
 70
     1
102
RTVSPropertyOp40
 70
     1
102
RTVSPropertyOp41
 70
     1
102
RTVSPropertyOp42
 70
     1
102
RTVSPropertyOp43
 70
     1
102
RTVSPropertyOp44
 70
     1
102
RTVSPropertyOp45
 70
     1
102
RTVSPropertyOp46
 70
     1
102
RTVSPropertyOp47
 70
     1
102
RTVSPropertyOp48
 70
     1
102
RTVSPropertyOp49
 70
     1
102
RTVSPropertyOp50
 70
     1
102
RTVSPropertyOp51
 70
     0
102
RTVSPropertyOp52
 70
     0
102
RTVSPropertyOp53
 70
     1
102
RTVSPropertyOp54
 70
     1
102
RTVSPropertyOp55
 70
     1
102
RTVSPropertyOp56
 70
     1
102
RTVSPropertyOp57
 70
     1
102
RTVSPropertyOp58
 70
     1
102
RTVSPropertyOp59
 70
     1
102
RTVSPropertyOp60
 70
     1
102
RTVSPropertyOp61
 70
     1
102
RTVSPropertyOp62
 70
     1
  0
XRECORD
  5
162C
102
{ACAD_REACTORS
330
162B
102
}
330
162B
100
AcDbXrecord
280
     1
102
RTVSPost2010Prop28
280
     0
102
RTVSPost2010PropOp28
 70
     1
102
RTVSPost2010Prop29
280
     1
102
RTVSPost2010PropOp29
 70
     1
102
RTVSPost2010Prop30
280
     1
102
RTVSPost2010PropOp30
 70
     1
102
RTVSPost2010Prop31
280
     0
102
RTVSPost2010PropOp31
 70
     1
102
RTVSPost2010Prop32
280
     0
102
RTVSPost2010PropOp32
 70
     1
102
RTVSPost2010Prop33
280
     0
102
RTVSPost2010PropOp33
 70
     1
102
RTVSPost2010Prop34
280
     0
102
RTVSPost2010PropOp34
 70
     1
102
RTVSPost2010Prop35
280
     0
102
RTVSPost2010PropOp35
 70
     1
102
RTVSPost2010Prop36
280
     0
102
RTVSPost2010PropOp36
 70
     1
102
RTVSPost2010Prop37
 90
       50
102
RTVSPost2010PropOp37
 70
     1
102
RTVSPost2010Prop38
140
0.0
102
RTVSPost2010PropOp38
 70
     1
102
RTVSPost2010Prop39
140
1.0
102
RTVSPost2010PropOp39
 70
     1
102
RTVSPost2010Prop40
 90
        0
102
RTVSPost2010PropOp40
 70
     1
102
RTVSPost2010Prop41ColorIndex
 90
       18
102
RTVSPost2010Prop41ColorRGB
 90
        0
102
RTVSPost2010PropOp41
 70
     1
102
RTVSPost2010Prop42
 90
       50
102
RTVSPost2010PropOp42
 70
     1
102
RTVSPost2010Prop43
 90
        3
102
RTVSPost2010PropOp43
 70
     1
102
RTVSPost2010Prop44ColorIndex
 90
        5
102
RTVSPost2010Prop44ColorRGB
 90
      255
102
RTVSPost2010PropOp44
 70
     1
102
RTVSPost2010Prop45
280
     0
102
RTVSPost2010PropOp45
 70
     1
102
RTVSPost2010Prop46
 90
       50
102
RTVSPost2010PropOp46
 70
     1
102
RTVSPost2010Prop47
 90
       50
102
RTVSPost2010PropOp47
 70
     1
102
RTVSPost2010Prop48
 90
       50
102
RTVSPost2010PropOp48
 70
     1
102
RTVSPost2010Prop49
280
     0
102
RTVSPost2010PropOp49
 70
     1
102
RTVSPost2010Prop50
 90
       50
102
RTVSPost2010PropOp50
 70
     1
102
RTVSPost2010Prop51ColorIndex
 90
      256
102
RTVSPost2010Prop51ColorRGB
 90
-16777216
102
RTVSPost2010PropOp51
 70
     0
102
RTVSPost2010Prop52
140
1.0
102
RTVSPost2010PropOp52
 70
     0
102
RTVSPost2010Prop53
 90
        2
102
RTVSPost2010PropOp53
 70
     1
102
RTVSPost2010Prop54
  1
strokes_ogs.tif
102
RTVSPost2010PropOp54
 70
     1
102
RTVSPost2010Prop55
280
     0
102
RTVSPost2010PropOp55
 70
     1
102
RTVSPost2010Prop56
140
1.0
102
RTVSPost2010PropOp56
 70
     1
102
RTVSPost2010Prop57
140
1.0
102
RTVSPost2010PropOp57
 70
     1
102
RTVSPropertyOp0
 70
     1
102
RTVSPropertyOp1
 70
     1
102
RTVSPropertyOp2
 70
     1
102
RTVSPropertyOp3
 70
     1
102
RTVSPropertyOp4
 70
     1
102
RTVSPropertyOp5
 70
     1
102
RTVSPropertyOp6
 70
     1
102
RTVSPropertyOp7
 70
     1
102
RTVSPropertyOp8
 70
     1
102
RTVSPropertyOp9
 70
     1
102
RTVSPropertyOp10
 70
     1
102
RTVSPropertyOp11
 70
     1
102
RTVSPropertyOp12
 70
     1
102
RTVSPropertyOp13
 70
     1
102
RTVSPropertyOp14
 70
     1
102
RTVSPropertyOp15
 70
     1
102
RTVSPropertyOp16
 70
     1
102
RTVSPropertyOp17
 70
     1
102
RTVSPropertyOp18
 70
     1
102
RTVSPropertyOp19
 70
     1
102
RTVSPropertyOp20
 70
     1
102
RTVSPropertyOp21
 70
     1
102
RTVSPropertyOp22
 70
     1
102
RTVSPropertyOp23
 70
     1
102
RTVSPropertyOp24
 70
     1
102
RTVSPropertyOp25
 70
     1
102
RTVSPropertyOp26
 70
     1
102
RTVSPropertyOp27
 70
     1
102
RTVSPropertyOp28
 70
     1
102
RTVSPropertyOp29
 70
     1
102
RTVSPropertyOp30
 70
     1
102
RTVSPropertyOp31
 70
     1
102
RTVSPropertyOp32
 70
     1
102
RTVSPropertyOp33
 70
     1
102
RTVSPropertyOp34
 70
     1
102
RTVSPropertyOp35
 70
     1
102
RTVSPropertyOp36
 70
     1
102
RTVSPropertyOp37
 70
     1
102
RTVSPropertyOp38
 70
     1
102
RTVSPropertyOp39
 70
     1
102
RTVSPropertyOp40
 70
     1
102
RTVSPropertyOp41
 70
     1
102
RTVSPropertyOp42
 70
     1
102
RTVSPropertyOp43
 70
     1
102
RTVSPropertyOp44
 70
     1
102
RTVSPropertyOp45
 70
     1
102
RTVSPropertyOp46
 70
     1
102
RTVSPropertyOp47
 70
     1
102
RTVSPropertyOp48
 70
     1
102
RTVSPropertyOp49
 70
     1
102
RTVSPropertyOp50
 70
     1
102
RTVSPropertyOp51
 70
     0
102
RTVSPropertyOp52
 70
     0
102
RTVSPropertyOp53
 70
     1
102
RTVSPropertyOp54
 70
     1
102
RTVSPropertyOp55
 70
     1
102
RTVSPropertyOp56
 70
     1
102
RTVSPropertyOp57
 70
     1
102
RTVSPropertyOp58
 70
     1
102
RTVSPropertyOp59
 70
     1
102
RTVSPropertyOp60
 70
     1
102
RTVSPropertyOp61
 70
     1
102
RTVSPropertyOp62
 70
     1
  0
XRECORD
  5
162E
102
{ACAD_REACTORS
330
162D
102
}
330
162D
100
AcDbXrecord
280
     1
102
RTVSPost2010Prop28
280
     0
102
RTVSPost2010PropOp28
 70
     1
102
RTVSPost2010Prop29
280
     1
102
RTVSPost2010PropOp29
 70
     1
102
RTVSPost2010Prop30
280
     1
102
RTVSPost2010PropOp30
 70
     1
102
RTVSPost2010Prop31
280
     0
102
RTVSPost2010PropOp31
 70
     1
102
RTVSPost2010Prop32
280
     0
102
RTVSPost2010PropOp32
 70
     1
102
RTVSPost2010Prop33
280
     0
102
RTVSPost2010PropOp33
 70
     1
102
RTVSPost2010Prop34
280
     0
102
RTVSPost2010PropOp34
 70
     1
102
RTVSPost2010Prop35
280
     0
102
RTVSPost2010PropOp35
 70
     1
102
RTVSPost2010Prop36
280
     0
102
RTVSPost2010PropOp36
 70
     1
102
RTVSPost2010Prop37
 90
       50
102
RTVSPost2010PropOp37
 70
     1
102
RTVSPost2010Prop38
140
0.0
102
RTVSPost2010PropOp38
 70
     1
102
RTVSPost2010Prop39
140
1.0
102
RTVSPost2010PropOp39
 70
     1
102
RTVSPost2010Prop40
 90
        0
102
RTVSPost2010PropOp40
 70
     1
102
RTVSPost2010Prop41ColorIndex
 90
       18
102
RTVSPost2010Prop41ColorRGB
 90
        0
102
RTVSPost2010PropOp41
 70
     1
102
RTVSPost2010Prop42
 90
       50
102
RTVSPost2010PropOp42
 70
     1
102
RTVSPost2010Prop43
 90
        3
102
RTVSPost2010PropOp43
 70
     1
102
RTVSPost2010Prop44ColorIndex
 90
        5
102
RTVSPost2010Prop44ColorRGB
 90
      255
102
RTVSPost2010PropOp44
 70
     1
102
RTVSPost2010Prop45
280
     0
102
RTVSPost2010PropOp45
 70
     1
102
RTVSPost2010Prop46
 90
       50
102
RTVSPost2010PropOp46
 70
     1
102
RTVSPost2010Prop47
 90
       50
102
RTVSPost2010PropOp47
 70
     1
102
RTVSPost2010Prop48
 90
       50
102
RTVSPost2010PropOp48
 70
     1
102
RTVSPost2010Prop49
280
     0
102
RTVSPost2010PropOp49
 70
     1
102
RTVSPost2010Prop50
 90
       50
102
RTVSPost2010PropOp50
 70
     1
102
RTVSPost2010Prop51ColorIndex
 90
      256
102
RTVSPost2010Prop51ColorRGB
 90
-16777216
102
RTVSPost2010PropOp51
 70
     0
102
RTVSPost2010Prop52
140
1.0
102
RTVSPost2010PropOp52
 70
     0
102
RTVSPost2010Prop53
 90
        2
102
RTVSPost2010PropOp53
 70
     1
102
RTVSPost2010Prop54
  1
strokes_ogs.tif
102
RTVSPost2010PropOp54
 70
     1
102
RTVSPost2010Prop55
280
     0
102
RTVSPost2010PropOp55
 70
     1
102
RTVSPost2010Prop56
140
1.0
102
RTVSPost2010PropOp56
 70
     1
102
RTVSPost2010Prop57
140
1.0
102
RTVSPost2010PropOp57
 70
     1
102
RTVSPropertyOp0
 70
     1
102
RTVSPropertyOp1
 70
     1
102
RTVSPropertyOp2
 70
     1
102
RTVSPropertyOp3
 70
     1
102
RTVSPropertyOp4
 70
     1
102
RTVSPropertyOp5
 70
     1
102
RTVSPropertyOp6
 70
     1
102
RTVSPropertyOp7
 70
     1
102
RTVSPropertyOp8
 70
     1
102
RTVSPropertyOp9
 70
     1
102
RTVSPropertyOp10
 70
     1
102
RTVSPropertyOp11
 70
     1
102
RTVSPropertyOp12
 70
     1
102
RTVSPropertyOp13
 70
     1
102
RTVSPropertyOp14
 70
     1
102
RTVSPropertyOp15
 70
     1
102
RTVSPropertyOp16
 70
     1
102
RTVSPropertyOp17
 70
     1
102
RTVSPropertyOp18
 70
     1
102
RTVSPropertyOp19
 70
     1
102
RTVSPropertyOp20
 70
     1
102
RTVSPropertyOp21
 70
     1
102
RTVSPropertyOp22
 70
     1
102
RTVSPropertyOp23
 70
     1
102
RTVSPropertyOp24
 70
     1
102
RTVSPropertyOp25
 70
     1
102
RTVSPropertyOp26
 70
     1
102
RTVSPropertyOp27
 70
     1
102
RTVSPropertyOp28
 70
     1
102
RTVSPropertyOp29
 70
     1
102
RTVSPropertyOp30
 70
     1
102
RTVSPropertyOp31
 70
     1
102
RTVSPropertyOp32
 70
     1
102
RTVSPropertyOp33
 70
     1
102
RTVSPropertyOp34
 70
     1
102
RTVSPropertyOp35
 70
     1
102
RTVSPropertyOp36
 70
     1
102
RTVSPropertyOp37
 70
     1
102
RTVSPropertyOp38
 70
     1
102
RTVSPropertyOp39
 70
     1
102
RTVSPropertyOp40
 70
     1
102
RTVSPropertyOp41
 70
     1
102
RTVSPropertyOp42
 70
     1
102
RTVSPropertyOp43
 70
     1
102
RTVSPropertyOp44
 70
     1
102
RTVSPropertyOp45
 70
     1
102
RTVSPropertyOp46
 70
     1
102
RTVSPropertyOp47
 70
     1
102
RTVSPropertyOp48
 70
     1
102
RTVSPropertyOp49
 70
     1
102
RTVSPropertyOp50
 70
     1
102
RTVSPropertyOp51
 70
     0
102
RTVSPropertyOp52
 70
     0
102
RTVSPropertyOp53
 70
     1
102
RTVSPropertyOp54
 70
     1
102
RTVSPropertyOp55
 70
     1
102
RTVSPropertyOp56
 70
     1
102
RTVSPropertyOp57
 70
     1
102
RTVSPropertyOp58
 70
     1
102
RTVSPropertyOp59
 70
     1
102
RTVSPropertyOp60
 70
     1
102
RTVSPropertyOp61
 70
     1
102
RTVSPropertyOp62
 70
     1
  0
XRECORD
  5
1636
102
{ACAD_REACTORS
330
1635
102
}
330
1635
100
AcDbXrecord
280
     1
102
RTVSPost2010Prop28
280
     0
102
RTVSPost2010PropOp28
 70
     1
102
RTVSPost2010Prop29
280
     1
102
RTVSPost2010PropOp29
 70
     1
102
RTVSPost2010Prop30
280
     1
102
RTVSPost2010PropOp30
 70
     1
102
RTVSPost2010Prop31
280
     0
102
RTVSPost2010PropOp31
 70
     1
102
RTVSPost2010Prop32
280
     0
102
RTVSPost2010PropOp32
 70
     1
102
RTVSPost2010Prop33
280
     0
102
RTVSPost2010PropOp33
 70
     1
102
RTVSPost2010Prop34
280
     0
102
RTVSPost2010PropOp34
 70
     1
102
RTVSPost2010Prop35
280
     0
102
RTVSPost2010PropOp35
 70
     1
102
RTVSPost2010Prop36
280
     0
102
RTVSPost2010PropOp36
 70
     1
102
RTVSPost2010Prop37
 90
       50
102
RTVSPost2010PropOp37
 70
     1
102
RTVSPost2010Prop38
140
0.0
102
RTVSPost2010PropOp38
 70
     1
102
RTVSPost2010Prop39
140
1.0
102
RTVSPost2010PropOp39
 70
     1
102
RTVSPost2010Prop40
 90
        0
102
RTVSPost2010PropOp40
 70
     1
102
RTVSPost2010Prop41ColorIndex
 90
       18
102
RTVSPost2010Prop41ColorRGB
 90
        0
102
RTVSPost2010PropOp41
 70
     1
102
RTVSPost2010Prop42
 90
       50
102
RTVSPost2010PropOp42
 70
     1
102
RTVSPost2010Prop43
 90
        3
102
RTVSPost2010PropOp43
 70
     1
102
RTVSPost2010Prop44ColorIndex
 90
        5
102
RTVSPost2010Prop44ColorRGB
 90
      255
102
RTVSPost2010PropOp44
 70
     1
102
RTVSPost2010Prop45
280
     0
102
RTVSPost2010PropOp45
 70
     1
102
RTVSPost2010Prop46
 90
       50
102
RTVSPost2010PropOp46
 70
     1
102
RTVSPost2010Prop47
 90
       50
102
RTVSPost2010PropOp47
 70
     1
102
RTVSPost2010Prop48
 90
       50
102
RTVSPost2010PropOp48
 70
     1
102
RTVSPost2010Prop49
280
     0
102
RTVSPost2010PropOp49
 70
     1
102
RTVSPost2010Prop50
 90
       50
102
RTVSPost2010PropOp50
 70
     1
102
RTVSPost2010Prop51ColorIndex
 90
      256
102
RTVSPost2010Prop51ColorRGB
 90
-16777216
102
RTVSPost2010PropOp51
 70
     0
102
RTVSPost2010Prop52
140
1.0
102
RTVSPost2010PropOp52
 70
     0
102
RTVSPost2010Prop53
 90
        2
102
RTVSPost2010PropOp53
 70
     1
102
RTVSPost2010Prop54
  1
strokes_ogs.tif
102
RTVSPost2010PropOp54
 70
     1
102
RTVSPost2010Prop55
280
     0
102
RTVSPost2010PropOp55
 70
     1
102
RTVSPost2010Prop56
140
1.0
102
RTVSPost2010PropOp56
 70
     1
102
RTVSPost2010Prop57
140
1.0
102
RTVSPost2010PropOp57
 70
     1
102
RTVSPropertyOp0
 70
     1
102
RTVSPropertyOp1
 70
     1
102
RTVSPropertyOp2
 70
     1
102
RTVSPropertyOp3
 70
     1
102
RTVSPropertyOp4
 70
     1
102
RTVSPropertyOp5
 70
     1
102
RTVSPropertyOp6
 70
     1
102
RTVSPropertyOp7
 70
     1
102
RTVSPropertyOp8
 70
     1
102
RTVSPropertyOp9
 70
     1
102
RTVSPropertyOp10
 70
     1
102
RTVSPropertyOp11
 70
     1
102
RTVSPropertyOp12
 70
     1
102
RTVSPropertyOp13
 70
     1
102
RTVSPropertyOp14
 70
     1
102
RTVSPropertyOp15
 70
     1
102
RTVSPropertyOp16
 70
     1
102
RTVSPropertyOp17
 70
     1
102
RTVSPropertyOp18
 70
     1
102
RTVSPropertyOp19
 70
     1
102
RTVSPropertyOp20
 70
     1
102
RTVSPropertyOp21
 70
     1
102
RTVSPropertyOp22
 70
     1
102
RTVSPropertyOp23
 70
     1
102
RTVSPropertyOp24
 70
     1
102
RTVSPropertyOp25
 70
     1
102
RTVSPropertyOp26
 70
     1
102
RTVSPropertyOp27
 70
     1
102
RTVSPropertyOp28
 70
     1
102
RTVSPropertyOp29
 70
     1
102
RTVSPropertyOp30
 70
     1
102
RTVSPropertyOp31
 70
     1
102
RTVSPropertyOp32
 70
     1
102
RTVSPropertyOp33
 70
     1
102
RTVSPropertyOp34
 70
     1
102
RTVSPropertyOp35
 70
     1
102
RTVSPropertyOp36
 70
     1
102
RTVSPropertyOp37
 70
     1
102
RTVSPropertyOp38
 70
     1
102
RTVSPropertyOp39
 70
     1
102
RTVSPropertyOp40
 70
     1
102
RTVSPropertyOp41
 70
     1
102
RTVSPropertyOp42
 70
     1
102
RTVSPropertyOp43
 70
     1
102
RTVSPropertyOp44
 70
     1
102
RTVSPropertyOp45
 70
     1
102
RTVSPropertyOp46
 70
     1
102
RTVSPropertyOp47
 70
     1
102
RTVSPropertyOp48
 70
     1
102
RTVSPropertyOp49
 70
     1
102
RTVSPropertyOp50
 70
     1
102
RTVSPropertyOp51
 70
     0
102
RTVSPropertyOp52
 70
     0
102
RTVSPropertyOp53
 70
     1
102
RTVSPropertyOp54
 70
     1
102
RTVSPropertyOp55
 70
     1
102
RTVSPropertyOp56
 70
     1
102
RTVSPropertyOp57
 70
     1
102
RTVSPropertyOp58
 70
     1
102
RTVSPropertyOp59
 70
     1
102
RTVSPropertyOp60
 70
     1
102
RTVSPropertyOp61
 70
     1
102
RTVSPropertyOp62
 70
     1
  0
XRECORD
  5
1648
102
{ACAD_REACTORS
330
1647
102
}
330
1647
100
AcDbXrecord
280
     1
102
RTVSPost2010Prop28
280
     0
102
RTVSPost2010PropOp28
 70
     1
102
RTVSPost2010Prop29
280
     1
102
RTVSPost2010PropOp29
 70
     1
102
RTVSPost2010Prop30
280
     1
102
RTVSPost2010PropOp30
 70
     1
102
RTVSPost2010Prop31
280
     0
102
RTVSPost2010PropOp31
 70
     1
102
RTVSPost2010Prop32
280
     0
102
RTVSPost2010PropOp32
 70
     1
102
RTVSPost2010Prop33
280
     0
102
RTVSPost2010PropOp33
 70
     1
102
RTVSPost2010Prop34
280
     0
102
RTVSPost2010PropOp34
 70
     1
102
RTVSPost2010Prop35
280
     0
102
RTVSPost2010PropOp35
 70
     1
102
RTVSPost2010Prop36
280
     0
102
RTVSPost2010PropOp36
 70
     1
102
RTVSPost2010Prop37
 90
       50
102
RTVSPost2010PropOp37
 70
     1
102
RTVSPost2010Prop38
140
0.0
102
RTVSPost2010PropOp38
 70
     1
102
RTVSPost2010Prop39
140
1.0
102
RTVSPost2010PropOp39
 70
     1
102
RTVSPost2010Prop40
 90
        0
102
RTVSPost2010PropOp40
 70
     1
102
RTVSPost2010Prop41ColorIndex
 90
       18
102
RTVSPost2010Prop41ColorRGB
 90
        0
102
RTVSPost2010PropOp41
 70
     1
102
RTVSPost2010Prop42
 90
       50
102
RTVSPost2010PropOp42
 70
     1
102
RTVSPost2010Prop43
 90
        3
102
RTVSPost2010PropOp43
 70
     1
102
RTVSPost2010Prop44ColorIndex
 90
        5
102
RTVSPost2010Prop44ColorRGB
 90
      255
102
RTVSPost2010PropOp44
 70
     1
102
RTVSPost2010Prop45
280
     0
102
RTVSPost2010PropOp45
 70
     1
102
RTVSPost2010Prop46
 90
       50
102
RTVSPost2010PropOp46
 70
     1
102
RTVSPost2010Prop47
 90
       50
102
RTVSPost2010PropOp47
 70
     1
102
RTVSPost2010Prop48
 90
       50
102
RTVSPost2010PropOp48
 70
     1
102
RTVSPost2010Prop49
280
     0
102
RTVSPost2010PropOp49
 70
     1
102
RTVSPost2010Prop50
 90
       50
102
RTVSPost2010PropOp50
 70
     1
102
RTVSPost2010Prop51ColorIndex
 90
      256
102
RTVSPost2010Prop51ColorRGB
 90
-16777216
102
RTVSPost2010PropOp51
 70
     0
102
RTVSPost2010Prop52
140
1.0
102
RTVSPost2010PropOp52
 70
     0
102
RTVSPost2010Prop53
 90
        2
102
RTVSPost2010PropOp53
 70
     1
102
RTVSPost2010Prop54
  1
strokes_ogs.tif
102
RTVSPost2010PropOp54
 70
     1
102
RTVSPost2010Prop55
280
     0
102
RTVSPost2010PropOp55
 70
     1
102
RTVSPost2010Prop56
140
1.0
102
RTVSPost2010PropOp56
 70
     1
102
RTVSPost2010Prop57
140
1.0
102
RTVSPost2010PropOp57
 70
     1
102
RTVSPropertyOp0
 70
     0
102
RTVSPropertyOp1
 70
     0
102
RTVSPropertyOp2
 70
     0
102
RTVSPropertyOp3
 70
     0
102
RTVSPropertyOp4
 70
     0
102
RTVSPropertyOp5
 70
     0
102
RTVSPropertyOp6
 70
     0
102
RTVSPropertyOp7
 70
     0
102
RTVSPropertyOp8
 70
     0
102
RTVSPropertyOp9
 70
     0
102
RTVSPropertyOp10
 70
     0
102
RTVSPropertyOp11
 70
     0
102
RTVSPropertyOp12
 70
     0
102
RTVSPropertyOp13
 70
     0
102
RTVSPropertyOp14
 70
     2
102
RTVSPropertyOp15
 70
     0
102
RTVSPropertyOp16
 70
     0
102
RTVSPropertyOp17
 70
     0
102
RTVSPropertyOp18
 70
     0
102
RTVSPropertyOp19
 70
     0
102
RTVSPropertyOp20
 70
     0
102
RTVSPropertyOp21
 70
     0
102
RTVSPropertyOp22
 70
     0
102
RTVSPropertyOp23
 70
     0
102
RTVSPropertyOp24
 70
     0
102
RTVSPropertyOp25
 70
     0
102
RTVSPropertyOp26
 70
     0
102
RTVSPropertyOp27
 70
     0
102
RTVSPropertyOp28
 70
     1
102
RTVSPropertyOp29
 70
     1
102
RTVSPropertyOp30
 70
     1
102
RTVSPropertyOp31
 70
     1
102
RTVSPropertyOp32
 70
     1
102
RTVSPropertyOp33
 70
     1
102
RTVSPropertyOp34
 70
     1
102
RTVSPropertyOp35
 70
     1
102
RTVSPropertyOp36
 70
     1
102
RTVSPropertyOp37
 70
     1
102
RTVSPropertyOp38
 70
     1
102
RTVSPropertyOp39
 70
     1
102
RTVSPropertyOp40
 70
     1
102
RTVSPropertyOp41
 70
     1
102
RTVSPropertyOp42
 70
     1
102
RTVSPropertyOp43
 70
     1
102
RTVSPropertyOp44
 70
     1
102
RTVSPropertyOp45
 70
     1
102
RTVSPropertyOp46
 70
     1
102
RTVSPropertyOp47
 70
     1
102
RTVSPropertyOp48
 70
     1
102
RTVSPropertyOp49
 70
     1
102
RTVSPropertyOp50
 70
     1
102
RTVSPropertyOp51
 70
     0
102
RTVSPropertyOp52
 70
     0
102
RTVSPropertyOp53
 70
     1
102
RTVSPropertyOp54
 70
     1
102
RTVSPropertyOp55
 70
     1
102
RTVSPropertyOp56
 70
     1
102
RTVSPropertyOp57
 70
     1
102
RTVSPropertyOp58
 70
     1
102
RTVSPropertyOp59
 70
     1
102
RTVSPropertyOp60
 70
     1
102
RTVSPropertyOp61
 70
     1
102
RTVSPropertyOp62
 70
     1
  0
XRECORD
  5
1642
102
{ACAD_REACTORS
330
1641
102
}
330
1641
100
AcDbXrecord
280
     1
102
RTVSPost2010Prop28
280
     0
102
RTVSPost2010PropOp28
 70
     1
102
RTVSPost2010Prop29
280
     1
102
RTVSPost2010PropOp29
 70
     1
102
RTVSPost2010Prop30
280
     1
102
RTVSPost2010PropOp30
 70
     1
102
RTVSPost2010Prop31
280
     0
102
RTVSPost2010PropOp31
 70
     1
102
RTVSPost2010Prop32
280
     0
102
RTVSPost2010PropOp32
 70
     1
102
RTVSPost2010Prop33
280
     0
102
RTVSPost2010PropOp33
 70
     1
102
RTVSPost2010Prop34
280
     0
102
RTVSPost2010PropOp34
 70
     1
102
RTVSPost2010Prop35
280
     0
102
RTVSPost2010PropOp35
 70
     1
102
RTVSPost2010Prop36
280
     0
102
RTVSPost2010PropOp36
 70
     1
102
RTVSPost2010Prop37
 90
       50
102
RTVSPost2010PropOp37
 70
     1
102
RTVSPost2010Prop38
140
0.0
102
RTVSPost2010PropOp38
 70
     1
102
RTVSPost2010Prop39
140
1.0
102
RTVSPost2010PropOp39
 70
     1
102
RTVSPost2010Prop40
 90
        0
102
RTVSPost2010PropOp40
 70
     1
102
RTVSPost2010Prop41ColorIndex
 90
       18
102
RTVSPost2010Prop41ColorRGB
 90
        0
102
RTVSPost2010PropOp41
 70
     1
102
RTVSPost2010Prop42
 90
       50
102
RTVSPost2010PropOp42
 70
     1
102
RTVSPost2010Prop43
 90
        3
102
RTVSPost2010PropOp43
 70
     1
102
RTVSPost2010Prop44ColorIndex
 90
        5
102
RTVSPost2010Prop44ColorRGB
 90
      255
102
RTVSPost2010PropOp44
 70
     1
102
RTVSPost2010Prop45
280
     0
102
RTVSPost2010PropOp45
 70
     1
102
RTVSPost2010Prop46
 90
       50
102
RTVSPost2010PropOp46
 70
     1
102
RTVSPost2010Prop47
 90
       50
102
RTVSPost2010PropOp47
 70
     1
102
RTVSPost2010Prop48
 90
       50
102
RTVSPost2010PropOp48
 70
     1
102
RTVSPost2010Prop49
280
     0
102
RTVSPost2010PropOp49
 70
     1
102
RTVSPost2010Prop50
 90
       50
102
RTVSPost2010PropOp50
 70
     1
102
RTVSPost2010Prop51ColorIndex
 90
      256
102
RTVSPost2010Prop51ColorRGB
 90
-16777216
102
RTVSPost2010PropOp51
 70
     0
102
RTVSPost2010Prop52
140
1.0
102
RTVSPost2010PropOp52
 70
     0
102
RTVSPost2010Prop53
 90
        2
102
RTVSPost2010PropOp53
 70
     1
102
RTVSPost2010Prop54
  1
strokes_ogs.tif
102
RTVSPost2010PropOp54
 70
     1
102
RTVSPost2010Prop55
280
     0
102
RTVSPost2010PropOp55
 70
     1
102
RTVSPost2010Prop56
140
1.0
102
RTVSPost2010PropOp56
 70
     1
102
RTVSPost2010Prop57
140
1.0
102
RTVSPost2010PropOp57
 70
     1
102
RTVSPropertyOp0
 70
     1
102
RTVSPropertyOp1
 70
     1
102
RTVSPropertyOp2
 70
     1
102
RTVSPropertyOp3
 70
     1
102
RTVSPropertyOp4
 70
     1
102
RTVSPropertyOp5
 70
     1
102
RTVSPropertyOp6
 70
     1
102
RTVSPropertyOp7
 70
     1
102
RTVSPropertyOp8
 70
     1
102
RTVSPropertyOp9
 70
     1
102
RTVSPropertyOp10
 70
     1
102
RTVSPropertyOp11
 70
     1
102
RTVSPropertyOp12
 70
     1
102
RTVSPropertyOp13
 70
     1
102
RTVSPropertyOp14
 70
     1
102
RTVSPropertyOp15
 70
     1
102
RTVSPropertyOp16
 70
     1
102
RTVSPropertyOp17
 70
     1
102
RTVSPropertyOp18
 70
     1
102
RTVSPropertyOp19
 70
     1
102
RTVSPropertyOp20
 70
     1
102
RTVSPropertyOp21
 70
     1
102
RTVSPropertyOp22
 70
     1
102
RTVSPropertyOp23
 70
     1
102
RTVSPropertyOp24
 70
     1
102
RTVSPropertyOp25
 70
     1
102
RTVSPropertyOp26
 70
     1
102
RTVSPropertyOp27
 70
     1
102
RTVSPropertyOp28
 70
     1
102
RTVSPropertyOp29
 70
     1
102
RTVSPropertyOp30
 70
     1
102
RTVSPropertyOp31
 70
     1
102
RTVSPropertyOp32
 70
     1
102
RTVSPropertyOp33
 70
     1
102
RTVSPropertyOp34
 70
     1
102
RTVSPropertyOp35
 70
     1
102
RTVSPropertyOp36
 70
     1
102
RTVSPropertyOp37
 70
     1
102
RTVSPropertyOp38
 70
     1
102
RTVSPropertyOp39
 70
     1
102
RTVSPropertyOp40
 70
     1
102
RTVSPropertyOp41
 70
     1
102
RTVSPropertyOp42
 70
     1
102
RTVSPropertyOp43
 70
     1
102
RTVSPropertyOp44
 70
     1
102
RTVSPropertyOp45
 70
     1
102
RTVSPropertyOp46
 70
     1
102
RTVSPropertyOp47
 70
     1
102
RTVSPropertyOp48
 70
     1
102
RTVSPropertyOp49
 70
     1
102
RTVSPropertyOp50
 70
     1
102
RTVSPropertyOp51
 70
     0
102
RTVSPropertyOp52
 70
     0
102
RTVSPropertyOp53
 70
     1
102
RTVSPropertyOp54
 70
     1
102
RTVSPropertyOp55
 70
     1
102
RTVSPropertyOp56
 70
     1
102
RTVSPropertyOp57
 70
     1
102
RTVSPropertyOp58
 70
     1
102
RTVSPropertyOp59
 70
     1
102
RTVSPropertyOp60
 70
     1
102
RTVSPropertyOp61
 70
     1
102
RTVSPropertyOp62
 70
     1
  0
XRECORD
  5
164A
102
{ACAD_REACTORS
330
1649
102
}
330
1649
100
AcDbXrecord
280
     1
102
RTVSPost2010Prop28
280
     0
102
RTVSPost2010PropOp28
 70
     1
102
RTVSPost2010Prop29
280
     1
102
RTVSPost2010PropOp29
 70
     1
102
RTVSPost2010Prop30
280
     1
102
RTVSPost2010PropOp30
 70
     1
102
RTVSPost2010Prop31
280
     0
102
RTVSPost2010PropOp31
 70
     1
102
RTVSPost2010Prop32
280
     0
102
RTVSPost2010PropOp32
 70
     1
102
RTVSPost2010Prop33
280
     0
102
RTVSPost2010PropOp33
 70
     1
102
RTVSPost2010Prop34
280
     0
102
RTVSPost2010PropOp34
 70
     1
102
RTVSPost2010Prop35
280
     0
102
RTVSPost2010PropOp35
 70
     1
102
RTVSPost2010Prop36
280
     0
102
RTVSPost2010PropOp36
 70
     1
102
RTVSPost2010Prop37
 90
       50
102
RTVSPost2010PropOp37
 70
     1
102
RTVSPost2010Prop38
140
0.0
102
RTVSPost2010PropOp38
 70
     1
102
RTVSPost2010Prop39
140
1.0
102
RTVSPost2010PropOp39
 70
     1
102
RTVSPost2010Prop40
 90
        0
102
RTVSPost2010PropOp40
 70
     1
102
RTVSPost2010Prop41ColorIndex
 90
       18
102
RTVSPost2010Prop41ColorRGB
 90
        0
102
RTVSPost2010PropOp41
 70
     1
102
RTVSPost2010Prop42
 90
       50
102
RTVSPost2010PropOp42
 70
     1
102
RTVSPost2010Prop43
 90
        3
102
RTVSPost2010PropOp43
 70
     1
102
RTVSPost2010Prop44ColorIndex
 90
        5
102
RTVSPost2010Prop44ColorRGB
 90
      255
102
RTVSPost2010PropOp44
 70
     1
102
RTVSPost2010Prop45
280
     0
102
RTVSPost2010PropOp45
 70
     1
102
RTVSPost2010Prop46
 90
       50
102
RTVSPost2010PropOp46
 70
     1
102
RTVSPost2010Prop47
 90
       50
102
RTVSPost2010PropOp47
 70
     1
102
RTVSPost2010Prop48
 90
       50
102
RTVSPost2010PropOp48
 70
     1
102
RTVSPost2010Prop49
280
     0
102
RTVSPost2010PropOp49
 70
     1
102
RTVSPost2010Prop50
 90
       50
102
RTVSPost2010PropOp50
 70
     1
102
RTVSPost2010Prop51ColorIndex
 90
      256
102
RTVSPost2010Prop51ColorRGB
 90
-16777216
102
RTVSPost2010PropOp51
 70
     0
102
RTVSPost2010Prop52
140
1.0
102
RTVSPost2010PropOp52
 70
     0
102
RTVSPost2010Prop53
 90
        2
102
RTVSPost2010PropOp53
 70
     1
102
RTVSPost2010Prop54
  1
strokes_ogs.tif
102
RTVSPost2010PropOp54
 70
     1
102
RTVSPost2010Prop55
280
     0
102
RTVSPost2010PropOp55
 70
     1
102
RTVSPost2010Prop56
140
1.0
102
RTVSPost2010PropOp56
 70
     1
102
RTVSPost2010Prop57
140
1.0
102
RTVSPost2010PropOp57
 70
     1
102
RTVSPropertyOp0
 70
     0
102
RTVSPropertyOp1
 70
     0
102
RTVSPropertyOp2
 70
     0
102
RTVSPropertyOp3
 70
     0
102
RTVSPropertyOp4
 70
     0
102
RTVSPropertyOp5
 70
     0
102
RTVSPropertyOp6
 70
     0
102
RTVSPropertyOp7
 70
     0
102
RTVSPropertyOp8
 70
     0
102
RTVSPropertyOp9
 70
     0
102
RTVSPropertyOp10
 70
     0
102
RTVSPropertyOp11
 70
     0
102
RTVSPropertyOp12
 70
     0
102
RTVSPropertyOp13
 70
     0
102
RTVSPropertyOp14
 70
     2
102
RTVSPropertyOp15
 70
     0
102
RTVSPropertyOp16
 70
     0
102
RTVSPropertyOp17
 70
     0
102
RTVSPropertyOp18
 70
     0
102
RTVSPropertyOp19
 70
     0
102
RTVSPropertyOp20
 70
     0
102
RTVSPropertyOp21
 70
     0
102
RTVSPropertyOp22
 70
     0
102
RTVSPropertyOp23
 70
     0
102
RTVSPropertyOp24
 70
     0
102
RTVSPropertyOp25
 70
     0
102
RTVSPropertyOp26
 70
     0
102
RTVSPropertyOp27
 70
     0
102
RTVSPropertyOp28
 70
     1
102
RTVSPropertyOp29
 70
     1
102
RTVSPropertyOp30
 70
     1
102
RTVSPropertyOp31
 70
     1
102
RTVSPropertyOp32
 70
     1
102
RTVSPropertyOp33
 70
     1
102
RTVSPropertyOp34
 70
     1
102
RTVSPropertyOp35
 70
     1
102
RTVSPropertyOp36
 70
     1
102
RTVSPropertyOp37
 70
     1
102
RTVSPropertyOp38
 70
     1
102
RTVSPropertyOp39
 70
     1
102
RTVSPropertyOp40
 70
     1
102
RTVSPropertyOp41
 70
     1
102
RTVSPropertyOp42
 70
     1
102
RTVSPropertyOp43
 70
     1
102
RTVSPropertyOp44
 70
     1
102
RTVSPropertyOp45
 70
     1
102
RTVSPropertyOp46
 70
     1
102
RTVSPropertyOp47
 70
     1
102
RTVSPropertyOp48
 70
     1
102
RTVSPropertyOp49
 70
     1
102
RTVSPropertyOp50
 70
     1
102
RTVSPropertyOp51
 70
     0
102
RTVSPropertyOp52
 70
     0
102
RTVSPropertyOp53
 70
     1
102
RTVSPropertyOp54
 70
     1
102
RTVSPropertyOp55
 70
     1
102
RTVSPropertyOp56
 70
     1
102
RTVSPropertyOp57
 70
     1
102
RTVSPropertyOp58
 70
     1
102
RTVSPropertyOp59
 70
     1
102
RTVSPropertyOp60
 70
     1
102
RTVSPropertyOp61
 70
     1
102
RTVSPropertyOp62
 70
     1
  0
XRECORD
  5
163A
102
{ACAD_REACTORS
330
1639
102
}
330
1639
100
AcDbXrecord
280
     1
102
RTVSPost2010Prop28
280
     0
102
RTVSPost2010PropOp28
 70
     1
102
RTVSPost2010Prop29
280
     1
102
RTVSPost2010PropOp29
 70
     1
102
RTVSPost2010Prop30
280
     1
102
RTVSPost2010PropOp30
 70
     1
102
RTVSPost2010Prop31
280
     0
102
RTVSPost2010PropOp31
 70
     1
102
RTVSPost2010Prop32
280
     0
102
RTVSPost2010PropOp32
 70
     1
102
RTVSPost2010Prop33
280
     0
102
RTVSPost2010PropOp33
 70
     1
102
RTVSPost2010Prop34
280
     0
102
RTVSPost2010PropOp34
 70
     1
102
RTVSPost2010Prop35
280
     0
102
RTVSPost2010PropOp35
 70
     1
102
RTVSPost2010Prop36
280
     0
102
RTVSPost2010PropOp36
 70
     1
102
RTVSPost2010Prop37
 90
       50
102
RTVSPost2010PropOp37
 70
     1
102
RTVSPost2010Prop38
140
0.0
102
RTVSPost2010PropOp38
 70
     1
102
RTVSPost2010Prop39
140
1.0
102
RTVSPost2010PropOp39
 70
     1
102
RTVSPost2010Prop40
 90
        0
102
RTVSPost2010PropOp40
 70
     1
102
RTVSPost2010Prop41ColorIndex
 90
       18
102
RTVSPost2010Prop41ColorRGB
 90
        0
102
RTVSPost2010PropOp41
 70
     1
102
RTVSPost2010Prop42
 90
       50
102
RTVSPost2010PropOp42
 70
     1
102
RTVSPost2010Prop43
 90
        3
102
RTVSPost2010PropOp43
 70
     1
102
RTVSPost2010Prop44ColorIndex
 90
        5
102
RTVSPost2010Prop44ColorRGB
 90
      255
102
RTVSPost2010PropOp44
 70
     1
102
RTVSPost2010Prop45
280
     0
102
RTVSPost2010PropOp45
 70
     1
102
RTVSPost2010Prop46
 90
       50
102
RTVSPost2010PropOp46
 70
     1
102
RTVSPost2010Prop47
 90
       50
102
RTVSPost2010PropOp47
 70
     1
102
RTVSPost2010Prop48
 90
       50
102
RTVSPost2010PropOp48
 70
     1
102
RTVSPost2010Prop49
280
     0
102
RTVSPost2010PropOp49
 70
     1
102
RTVSPost2010Prop50
 90
       50
102
RTVSPost2010PropOp50
 70
     1
102
RTVSPost2010Prop51ColorIndex
 90
      256
102
RTVSPost2010Prop51ColorRGB
 90
-16777216
102
RTVSPost2010PropOp51
 70
     0
102
RTVSPost2010Prop52
140
1.0
102
RTVSPost2010PropOp52
 70
     0
102
RTVSPost2010Prop53
 90
        2
102
RTVSPost2010PropOp53
 70
     1
102
RTVSPost2010Prop54
  1
strokes_ogs.tif
102
RTVSPost2010PropOp54
 70
     1
102
RTVSPost2010Prop55
280
     0
102
RTVSPost2010PropOp55
 70
     1
102
RTVSPost2010Prop56
140
1.0
102
RTVSPost2010PropOp56
 70
     1
102
RTVSPost2010Prop57
140
1.0
102
RTVSPost2010PropOp57
 70
     1
102
RTVSPropertyOp0
 70
     1
102
RTVSPropertyOp1
 70
     1
102
RTVSPropertyOp2
 70
     1
102
RTVSPropertyOp3
 70
     1
102
RTVSPropertyOp4
 70
     1
102
RTVSPropertyOp5
 70
     1
102
RTVSPropertyOp6
 70
     1
102
RTVSPropertyOp7
 70
     1
102
RTVSPropertyOp8
 70
     1
102
RTVSPropertyOp9
 70
     1
102
RTVSPropertyOp10
 70
     1
102
RTVSPropertyOp11
 70
     1
102
RTVSPropertyOp12
 70
     1
102
RTVSPropertyOp13
 70
     1
102
RTVSPropertyOp14
 70
     1
102
RTVSPropertyOp15
 70
     1
102
RTVSPropertyOp16
 70
     1
102
RTVSPropertyOp17
 70
     1
102
RTVSPropertyOp18
 70
     1
102
RTVSPropertyOp19
 70
     1
102
RTVSPropertyOp20
 70
     1
102
RTVSPropertyOp21
 70
     1
102
RTVSPropertyOp22
 70
     1
102
RTVSPropertyOp23
 70
     1
102
RTVSPropertyOp24
 70
     1
102
RTVSPropertyOp25
 70
     1
102
RTVSPropertyOp26
 70
     1
102
RTVSPropertyOp27
 70
     1
102
RTVSPropertyOp28
 70
     1
102
RTVSPropertyOp29
 70
     1
102
RTVSPropertyOp30
 70
     1
102
RTVSPropertyOp31
 70
     1
102
RTVSPropertyOp32
 70
     1
102
RTVSPropertyOp33
 70
     1
102
RTVSPropertyOp34
 70
     1
102
RTVSPropertyOp35
 70
     1
102
RTVSPropertyOp36
 70
     1
102
RTVSPropertyOp37
 70
     1
102
RTVSPropertyOp38
 70
     1
102
RTVSPropertyOp39
 70
     1
102
RTVSPropertyOp40
 70
     1
102
RTVSPropertyOp41
 70
     1
102
RTVSPropertyOp42
 70
     1
102
RTVSPropertyOp43
 70
     1
102
RTVSPropertyOp44
 70
     1
102
RTVSPropertyOp45
 70
     1
102
RTVSPropertyOp46
 70
     1
102
RTVSPropertyOp47
 70
     1
102
RTVSPropertyOp48
 70
     1
102
RTVSPropertyOp49
 70
     1
102
RTVSPropertyOp50
 70
     1
102
RTVSPropertyOp51
 70
     0
102
RTVSPropertyOp52
 70
     0
102
RTVSPropertyOp53
 70
     1
102
RTVSPropertyOp54
 70
     1
102
RTVSPropertyOp55
 70
     1
102
RTVSPropertyOp56
 70
     1
102
RTVSPropertyOp57
 70
     1
102
RTVSPropertyOp58
 70
     1
102
RTVSPropertyOp59
 70
     1
102
RTVSPropertyOp60
 70
     1
102
RTVSPropertyOp61
 70
     1
102
RTVSPropertyOp62
 70
     1
  0
XRECORD
  5
1656
102
{ACAD_REACTORS
330
1655
102
}
330
1655
100
AcDbXrecord
280
     1
102
RTVSPost2010Prop28
280
     0
102
RTVSPost2010PropOp28
 70
     1
102
RTVSPost2010Prop29
280
     1
102
RTVSPost2010PropOp29
 70
     1
102
RTVSPost2010Prop30
280
     1
102
RTVSPost2010PropOp30
 70
     1
102
RTVSPost2010Prop31
280
     0
102
RTVSPost2010PropOp31
 70
     1
102
RTVSPost2010Prop32
280
     0
102
RTVSPost2010PropOp32
 70
     1
102
RTVSPost2010Prop33
280
     0
102
RTVSPost2010PropOp33
 70
     1
102
RTVSPost2010Prop34
280
     0
102
RTVSPost2010PropOp34
 70
     1
102
RTVSPost2010Prop35
280
     0
102
RTVSPost2010PropOp35
 70
     1
102
RTVSPost2010Prop36
280
     0
102
RTVSPost2010PropOp36
 70
     1
102
RTVSPost2010Prop37
 90
       50
102
RTVSPost2010PropOp37
 70
     1
102
RTVSPost2010Prop38
140
0.0
102
RTVSPost2010PropOp38
 70
     1
102
RTVSPost2010Prop39
140
1.0
102
RTVSPost2010PropOp39
 70
     1
102
RTVSPost2010Prop40
 90
        0
102
RTVSPost2010PropOp40
 70
     1
102
RTVSPost2010Prop41ColorIndex
 90
       18
102
RTVSPost2010Prop41ColorRGB
 90
        0
102
RTVSPost2010PropOp41
 70
     1
102
RTVSPost2010Prop42
 90
       50
102
RTVSPost2010PropOp42
 70
     1
102
RTVSPost2010Prop43
 90
        3
102
RTVSPost2010PropOp43
 70
     1
102
RTVSPost2010Prop44ColorIndex
 90
        5
102
RTVSPost2010Prop44ColorRGB
 90
      255
102
RTVSPost2010PropOp44
 70
     1
102
RTVSPost2010Prop45
280
     0
102
RTVSPost2010PropOp45
 70
     1
102
RTVSPost2010Prop46
 90
       50
102
RTVSPost2010PropOp46
 70
     1
102
RTVSPost2010Prop47
 90
       50
102
RTVSPost2010PropOp47
 70
     1
102
RTVSPost2010Prop48
 90
       50
102
RTVSPost2010PropOp48
 70
     1
102
RTVSPost2010Prop49
280
     0
102
RTVSPost2010PropOp49
 70
     1
102
RTVSPost2010Prop50
 90
       50
102
RTVSPost2010PropOp50
 70
     1
102
RTVSPost2010Prop51ColorIndex
 90
      256
102
RTVSPost2010Prop51ColorRGB
 90
-16777216
102
RTVSPost2010PropOp51
 70
     0
102
RTVSPost2010Prop52
140
1.0
102
RTVSPost2010PropOp52
 70
     0
102
RTVSPost2010Prop53
 90
        2
102
RTVSPost2010PropOp53
 70
     1
102
RTVSPost2010Prop54
  1
strokes_ogs.tif
102
RTVSPost2010PropOp54
 70
     1
102
RTVSPost2010Prop55
280
     0
102
RTVSPost2010PropOp55
 70
     1
102
RTVSPost2010Prop56
140
1.0
102
RTVSPost2010PropOp56
 70
     1
102
RTVSPost2010Prop57
140
1.0
102
RTVSPost2010PropOp57
 70
     1
102
RTVSPropertyOp0
 70
     1
102
RTVSPropertyOp1
 70
     1
102
RTVSPropertyOp2
 70
     1
102
RTVSPropertyOp3
 70
     1
102
RTVSPropertyOp4
 70
     1
102
RTVSPropertyOp5
 70
     1
102
RTVSPropertyOp6
 70
     1
102
RTVSPropertyOp7
 70
     1
102
RTVSPropertyOp8
 70
     1
102
RTVSPropertyOp9
 70
     1
102
RTVSPropertyOp10
 70
     1
102
RTVSPropertyOp11
 70
     1
102
RTVSPropertyOp12
 70
     1
102
RTVSPropertyOp13
 70
     1
102
RTVSPropertyOp14
 70
     1
102
RTVSPropertyOp15
 70
     1
102
RTVSPropertyOp16
 70
     1
102
RTVSPropertyOp17
 70
     1
102
RTVSPropertyOp18
 70
     1
102
RTVSPropertyOp19
 70
     1
102
RTVSPropertyOp20
 70
     1
102
RTVSPropertyOp21
 70
     1
102
RTVSPropertyOp22
 70
     1
102
RTVSPropertyOp23
 70
     1
102
RTVSPropertyOp24
 70
     1
102
RTVSPropertyOp25
 70
     1
102
RTVSPropertyOp26
 70
     1
102
RTVSPropertyOp27
 70
     1
102
RTVSPropertyOp28
 70
     1
102
RTVSPropertyOp29
 70
     1
102
RTVSPropertyOp30
 70
     1
102
RTVSPropertyOp31
 70
     1
102
RTVSPropertyOp32
 70
     1
102
RTVSPropertyOp33
 70
     1
102
RTVSPropertyOp34
 70
     1
102
RTVSPropertyOp35
 70
     1
102
RTVSPropertyOp36
 70
     1
102
RTVSPropertyOp37
 70
     1
102
RTVSPropertyOp38
 70
     1
102
RTVSPropertyOp39
 70
     1
102
RTVSPropertyOp40
 70
     1
102
RTVSPropertyOp41
 70
     1
102
RTVSPropertyOp42
 70
     1
102
RTVSPropertyOp43
 70
     1
102
RTVSPropertyOp44
 70
     1
102
RTVSPropertyOp45
 70
     1
102
RTVSPropertyOp46
 70
     1
102
RTVSPropertyOp47
 70
     1
102
RTVSPropertyOp48
 70
     1
102
RTVSPropertyOp49
 70
     1
102
RTVSPropertyOp50
 70
     1
102
RTVSPropertyOp51
 70
     0
102
RTVSPropertyOp52
 70
     0
102
RTVSPropertyOp53
 70
     1
102
RTVSPropertyOp54
 70
     1
102
RTVSPropertyOp55
 70
     1
102
RTVSPropertyOp56
 70
     1
102
RTVSPropertyOp57
 70
     1
102
RTVSPropertyOp58
 70
     1
102
RTVSPropertyOp59
 70
     1
102
RTVSPropertyOp60
 70
     1
102
RTVSPropertyOp61
 70
     1
102
RTVSPropertyOp62
 70
     1
  0
XRECORD
  5
1654
102
{ACAD_REACTORS
330
1653
102
}
330
1653
100
AcDbXrecord
280
     1
102
RTVSPost2010Prop28
280
     0
102
RTVSPost2010PropOp28
 70
     1
102
RTVSPost2010Prop29
280
     1
102
RTVSPost2010PropOp29
 70
     1
102
RTVSPost2010Prop30
280
     1
102
RTVSPost2010PropOp30
 70
     1
102
RTVSPost2010Prop31
280
     0
102
RTVSPost2010PropOp31
 70
     1
102
RTVSPost2010Prop32
280
     0
102
RTVSPost2010PropOp32
 70
     1
102
RTVSPost2010Prop33
280
     0
102
RTVSPost2010PropOp33
 70
     1
102
RTVSPost2010Prop34
280
     0
102
RTVSPost2010PropOp34
 70
     1
102
RTVSPost2010Prop35
280
     0
102
RTVSPost2010PropOp35
 70
     1
102
RTVSPost2010Prop36
280
     0
102
RTVSPost2010PropOp36
 70
     1
102
RTVSPost2010Prop37
 90
       50
102
RTVSPost2010PropOp37
 70
     1
102
RTVSPost2010Prop38
140
0.0
102
RTVSPost2010PropOp38
 70
     1
102
RTVSPost2010Prop39
140
1.0
102
RTVSPost2010PropOp39
 70
     1
102
RTVSPost2010Prop40
 90
        0
102
RTVSPost2010PropOp40
 70
     1
102
RTVSPost2010Prop41ColorIndex
 90
       18
102
RTVSPost2010Prop41ColorRGB
 90
        0
102
RTVSPost2010PropOp41
 70
     1
102
RTVSPost2010Prop42
 90
       50
102
RTVSPost2010PropOp42
 70
     1
102
RTVSPost2010Prop43
 90
        3
102
RTVSPost2010PropOp43
 70
     1
102
RTVSPost2010Prop44ColorIndex
 90
        5
102
RTVSPost2010Prop44ColorRGB
 90
      255
102
RTVSPost2010PropOp44
 70
     1
102
RTVSPost2010Prop45
280
     0
102
RTVSPost2010PropOp45
 70
     1
102
RTVSPost2010Prop46
 90
       50
102
RTVSPost2010PropOp46
 70
     1
102
RTVSPost2010Prop47
 90
       50
102
RTVSPost2010PropOp47
 70
     1
102
RTVSPost2010Prop48
 90
       50
102
RTVSPost2010PropOp48
 70
     1
102
RTVSPost2010Prop49
280
     0
102
RTVSPost2010PropOp49
 70
     1
102
RTVSPost2010Prop50
 90
       50
102
RTVSPost2010PropOp50
 70
     1
102
RTVSPost2010Prop51ColorIndex
 90
      256
102
RTVSPost2010Prop51ColorRGB
 90
-16777216
102
RTVSPost2010PropOp51
 70
     0
102
RTVSPost2010Prop52
140
1.0
102
RTVSPost2010PropOp52
 70
     0
102
RTVSPost2010Prop53
 90
        2
102
RTVSPost2010PropOp53
 70
     1
102
RTVSPost2010Prop54
  1
strokes_ogs.tif
102
RTVSPost2010PropOp54
 70
     1
102
RTVSPost2010Prop55
280
     0
102
RTVSPost2010PropOp55
 70
     1
102
RTVSPost2010Prop56
140
1.0
102
RTVSPost2010PropOp56
 70
     1
102
RTVSPost2010Prop57
140
1.0
102
RTVSPost2010PropOp57
 70
     1
102
RTVSPropertyOp0
 70
     1
102
RTVSPropertyOp1
 70
     1
102
RTVSPropertyOp2
 70
     1
102
RTVSPropertyOp3
 70
     1
102
RTVSPropertyOp4
 70
     1
102
RTVSPropertyOp5
 70
     1
102
RTVSPropertyOp6
 70
     1
102
RTVSPropertyOp7
 70
     1
102
RTVSPropertyOp8
 70
     1
102
RTVSPropertyOp9
 70
     1
102
RTVSPropertyOp10
 70
     1
102
RTVSPropertyOp11
 70
     1
102
RTVSPropertyOp12
 70
     1
102
RTVSPropertyOp13
 70
     1
102
RTVSPropertyOp14
 70
     1
102
RTVSPropertyOp15
 70
     1
102
RTVSPropertyOp16
 70
     1
102
RTVSPropertyOp17
 70
     1
102
RTVSPropertyOp18
 70
     1
102
RTVSPropertyOp19
 70
     1
102
RTVSPropertyOp20
 70
     1
102
RTVSPropertyOp21
 70
     1
102
RTVSPropertyOp22
 70
     1
102
RTVSPropertyOp23
 70
     1
102
RTVSPropertyOp24
 70
     1
102
RTVSPropertyOp25
 70
     1
102
RTVSPropertyOp26
 70
     1
102
RTVSPropertyOp27
 70
     1
102
RTVSPropertyOp28
 70
     1
102
RTVSPropertyOp29
 70
     1
102
RTVSPropertyOp30
 70
     1
102
RTVSPropertyOp31
 70
     1
102
RTVSPropertyOp32
 70
     1
102
RTVSPropertyOp33
 70
     1
102
RTVSPropertyOp34
 70
     1
102
RTVSPropertyOp35
 70
     1
102
RTVSPropertyOp36
 70
     1
102
RTVSPropertyOp37
 70
     1
102
RTVSPropertyOp38
 70
     1
102
RTVSPropertyOp39
 70
     1
102
RTVSPropertyOp40
 70
     1
102
RTVSPropertyOp41
 70
     1
102
RTVSPropertyOp42
 70
     1
102
RTVSPropertyOp43
 70
     1
102
RTVSPropertyOp44
 70
     1
102
RTVSPropertyOp45
 70
     1
102
RTVSPropertyOp46
 70
     1
102
RTVSPropertyOp47
 70
     1
102
RTVSPropertyOp48
 70
     1
102
RTVSPropertyOp49
 70
     1
102
RTVSPropertyOp50
 70
     1
102
RTVSPropertyOp51
 70
     0
102
RTVSPropertyOp52
 70
     0
102
RTVSPropertyOp53
 70
     1
102
RTVSPropertyOp54
 70
     1
102
RTVSPropertyOp55
 70
     1
102
RTVSPropertyOp56
 70
     1
102
RTVSPropertyOp57
 70
     1
102
RTVSPropertyOp58
 70
     1
102
RTVSPropertyOp59
 70
     1
102
RTVSPropertyOp60
 70
     1
102
RTVSPropertyOp61
 70
     1
102
RTVSPropertyOp62
 70
     1
  0
XRECORD
  5
164E
102
{ACAD_REACTORS
330
164D
102
}
330
164D
100
AcDbXrecord
280
     1
102
RTVSPost2010Prop28
280
     0
102
RTVSPost2010PropOp28
 70
     1
102
RTVSPost2010Prop29
280
     1
102
RTVSPost2010PropOp29
 70
     1
102
RTVSPost2010Prop30
280
     1
102
RTVSPost2010PropOp30
 70
     1
102
RTVSPost2010Prop31
280
     0
102
RTVSPost2010PropOp31
 70
     1
102
RTVSPost2010Prop32
280
     0
102
RTVSPost2010PropOp32
 70
     1
102
RTVSPost2010Prop33
280
     0
102
RTVSPost2010PropOp33
 70
     1
102
RTVSPost2010Prop34
280
     0
102
RTVSPost2010PropOp34
 70
     1
102
RTVSPost2010Prop35
280
     0
102
RTVSPost2010PropOp35
 70
     1
102
RTVSPost2010Prop36
280
     0
102
RTVSPost2010PropOp36
 70
     1
102
RTVSPost2010Prop37
 90
       50
102
RTVSPost2010PropOp37
 70
     1
102
RTVSPost2010Prop38
140
0.0
102
RTVSPost2010PropOp38
 70
     1
102
RTVSPost2010Prop39
140
1.0
102
RTVSPost2010PropOp39
 70
     1
102
RTVSPost2010Prop40
 90
        0
102
RTVSPost2010PropOp40
 70
     1
102
RTVSPost2010Prop41ColorIndex
 90
       18
102
RTVSPost2010Prop41ColorRGB
 90
        0
102
RTVSPost2010PropOp41
 70
     1
102
RTVSPost2010Prop42
 90
       50
102
RTVSPost2010PropOp42
 70
     1
102
RTVSPost2010Prop43
 90
        3
102
RTVSPost2010PropOp43
 70
     1
102
RTVSPost2010Prop44ColorIndex
 90
        5
102
RTVSPost2010Prop44ColorRGB
 90
      255
102
RTVSPost2010PropOp44
 70
     1
102
RTVSPost2010Prop45
280
     0
102
RTVSPost2010PropOp45
 70
     1
102
RTVSPost2010Prop46
 90
       50
102
RTVSPost2010PropOp46
 70
     1
102
RTVSPost2010Prop47
 90
       50
102
RTVSPost2010PropOp47
 70
     1
102
RTVSPost2010Prop48
 90
       50
102
RTVSPost2010PropOp48
 70
     1
102
RTVSPost2010Prop49
280
     0
102
RTVSPost2010PropOp49
 70
     1
102
RTVSPost2010Prop50
 90
       50
102
RTVSPost2010PropOp50
 70
     1
102
RTVSPost2010Prop51ColorIndex
 90
      256
102
RTVSPost2010Prop51ColorRGB
 90
-16777216
102
RTVSPost2010PropOp51
 70
     0
102
RTVSPost2010Prop52
140
1.0
102
RTVSPost2010PropOp52
 70
     0
102
RTVSPost2010Prop53
 90
        2
102
RTVSPost2010PropOp53
 70
     1
102
RTVSPost2010Prop54
  1
strokes_ogs.tif
102
RTVSPost2010PropOp54
 70
     1
102
RTVSPost2010Prop55
280
     0
102
RTVSPost2010PropOp55
 70
     1
102
RTVSPost2010Prop56
140
1.0
102
RTVSPost2010PropOp56
 70
     1
102
RTVSPost2010Prop57
140
1.0
102
RTVSPost2010PropOp57
 70
     1
102
RTVSPropertyOp0
 70
     1
102
RTVSPropertyOp1
 70
     1
102
RTVSPropertyOp2
 70
     1
102
RTVSPropertyOp3
 70
     1
102
RTVSPropertyOp4
 70
     1
102
RTVSPropertyOp5
 70
     1
102
RTVSPropertyOp6
 70
     1
102
RTVSPropertyOp7
 70
     1
102
RTVSPropertyOp8
 70
     1
102
RTVSPropertyOp9
 70
     1
102
RTVSPropertyOp10
 70
     1
102
RTVSPropertyOp11
 70
     1
102
RTVSPropertyOp12
 70
     1
102
RTVSPropertyOp13
 70
     1
102
RTVSPropertyOp14
 70
     1
102
RTVSPropertyOp15
 70
     1
102
RTVSPropertyOp16
 70
     1
102
RTVSPropertyOp17
 70
     1
102
RTVSPropertyOp18
 70
     1
102
RTVSPropertyOp19
 70
     1
102
RTVSPropertyOp20
 70
     1
102
RTVSPropertyOp21
 70
     1
102
RTVSPropertyOp22
 70
     1
102
RTVSPropertyOp23
 70
     1
102
RTVSPropertyOp24
 70
     1
102
RTVSPropertyOp25
 70
     1
102
RTVSPropertyOp26
 70
     1
102
RTVSPropertyOp27
 70
     1
102
RTVSPropertyOp28
 70
     1
102
RTVSPropertyOp29
 70
     1
102
RTVSPropertyOp30
 70
     1
102
RTVSPropertyOp31
 70
     1
102
RTVSPropertyOp32
 70
     1
102
RTVSPropertyOp33
 70
     1
102
RTVSPropertyOp34
 70
     1
102
RTVSPropertyOp35
 70
     1
102
RTVSPropertyOp36
 70
     1
102
RTVSPropertyOp37
 70
     1
102
RTVSPropertyOp38
 70
     1
102
RTVSPropertyOp39
 70
     1
102
RTVSPropertyOp40
 70
     1
102
RTVSPropertyOp41
 70
     1
102
RTVSPropertyOp42
 70
     1
102
RTVSPropertyOp43
 70
     1
102
RTVSPropertyOp44
 70
     1
102
RTVSPropertyOp45
 70
     1
102
RTVSPropertyOp46
 70
     1
102
RTVSPropertyOp47
 70
     1
102
RTVSPropertyOp48
 70
     1
102
RTVSPropertyOp49
 70
     1
102
RTVSPropertyOp50
 70
     1
102
RTVSPropertyOp51
 70
     0
102
RTVSPropertyOp52
 70
     0
102
RTVSPropertyOp53
 70
     1
102
RTVSPropertyOp54
 70
     1
102
RTVSPropertyOp55
 70
     1
102
RTVSPropertyOp56
 70
     1
102
RTVSPropertyOp57
 70
     1
102
RTVSPropertyOp58
 70
     1
102
RTVSPropertyOp59
 70
     1
102
RTVSPropertyOp60
 70
     1
102
RTVSPropertyOp61
 70
     1
102
RTVSPropertyOp62
 70
     1
  0
XRECORD
  5
1650
102
{ACAD_REACTORS
330
164F
102
}
330
164F
100
AcDbXrecord
280
     1
102
RTVSPost2010Prop28
280
     0
102
RTVSPost2010PropOp28
 70
     1
102
RTVSPost2010Prop29
280
     1
102
RTVSPost2010PropOp29
 70
     1
102
RTVSPost2010Prop30
280
     1
102
RTVSPost2010PropOp30
 70
     1
102
RTVSPost2010Prop31
280
     0
102
RTVSPost2010PropOp31
 70
     1
102
RTVSPost2010Prop32
280
     0
102
RTVSPost2010PropOp32
 70
     1
102
RTVSPost2010Prop33
280
     0
102
RTVSPost2010PropOp33
 70
     1
102
RTVSPost2010Prop34
280
     0
102
RTVSPost2010PropOp34
 70
     1
102
RTVSPost2010Prop35
280
     0
102
RTVSPost2010PropOp35
 70
     1
102
RTVSPost2010Prop36
280
     0
102
RTVSPost2010PropOp36
 70
     1
102
RTVSPost2010Prop37
 90
       50
102
RTVSPost2010PropOp37
 70
     1
102
RTVSPost2010Prop38
140
0.0
102
RTVSPost2010PropOp38
 70
     1
102
RTVSPost2010Prop39
140
1.0
102
RTVSPost2010PropOp39
 70
     1
102
RTVSPost2010Prop40
 90
        0
102
RTVSPost2010PropOp40
 70
     1
102
RTVSPost2010Prop41ColorIndex
 90
       18
102
RTVSPost2010Prop41ColorRGB
 90
        0
102
RTVSPost2010PropOp41
 70
     1
102
RTVSPost2010Prop42
 90
       50
102
RTVSPost2010PropOp42
 70
     1
102
RTVSPost2010Prop43
 90
        3
102
RTVSPost2010PropOp43
 70
     1
102
RTVSPost2010Prop44ColorIndex
 90
        5
102
RTVSPost2010Prop44ColorRGB
 90
      255
102
RTVSPost2010PropOp44
 70
     1
102
RTVSPost2010Prop45
280
     0
102
RTVSPost2010PropOp45
 70
     1
102
RTVSPost2010Prop46
 90
       50
102
RTVSPost2010PropOp46
 70
     1
102
RTVSPost2010Prop47
 90
       50
102
RTVSPost2010PropOp47
 70
     1
102
RTVSPost2010Prop48
 90
       50
102
RTVSPost2010PropOp48
 70
     1
102
RTVSPost2010Prop49
280
     0
102
RTVSPost2010PropOp49
 70
     1
102
RTVSPost2010Prop50
 90
       50
102
RTVSPost2010PropOp50
 70
     1
102
RTVSPost2010Prop51ColorIndex
 90
      256
102
RTVSPost2010Prop51ColorRGB
 90
-16777216
102
RTVSPost2010PropOp51
 70
     0
102
RTVSPost2010Prop52
140
1.0
102
RTVSPost2010PropOp52
 70
     0
102
RTVSPost2010Prop53
 90
        2
102
RTVSPost2010PropOp53
 70
     1
102
RTVSPost2010Prop54
  1
strokes_ogs.tif
102
RTVSPost2010PropOp54
 70
     1
102
RTVSPost2010Prop55
280
     0
102
RTVSPost2010PropOp55
 70
     1
102
RTVSPost2010Prop56
140
1.0
102
RTVSPost2010PropOp56
 70
     1
102
RTVSPost2010Prop57
140
1.0
102
RTVSPost2010PropOp57
 70
     1
102
RTVSPropertyOp0
 70
     1
102
RTVSPropertyOp1
 70
     1
102
RTVSPropertyOp2
 70
     1
102
RTVSPropertyOp3
 70
     1
102
RTVSPropertyOp4
 70
     1
102
RTVSPropertyOp5
 70
     1
102
RTVSPropertyOp6
 70
     1
102
RTVSPropertyOp7
 70
     1
102
RTVSPropertyOp8
 70
     1
102
RTVSPropertyOp9
 70
     1
102
RTVSPropertyOp10
 70
     1
102
RTVSPropertyOp11
 70
     1
102
RTVSPropertyOp12
 70
     1
102
RTVSPropertyOp13
 70
     1
102
RTVSPropertyOp14
 70
     1
102
RTVSPropertyOp15
 70
     1
102
RTVSPropertyOp16
 70
     1
102
RTVSPropertyOp17
 70
     1
102
RTVSPropertyOp18
 70
     1
102
RTVSPropertyOp19
 70
     1
102
RTVSPropertyOp20
 70
     1
102
RTVSPropertyOp21
 70
     1
102
RTVSPropertyOp22
 70
     1
102
RTVSPropertyOp23
 70
     1
102
RTVSPropertyOp24
 70
     1
102
RTVSPropertyOp25
 70
     1
102
RTVSPropertyOp26
 70
     1
102
RTVSPropertyOp27
 70
     1
102
RTVSPropertyOp28
 70
     1
102
RTVSPropertyOp29
 70
     1
102
RTVSPropertyOp30
 70
     1
102
RTVSPropertyOp31
 70
     1
102
RTVSPropertyOp32
 70
     1
102
RTVSPropertyOp33
 70
     1
102
RTVSPropertyOp34
 70
     1
102
RTVSPropertyOp35
 70
     1
102
RTVSPropertyOp36
 70
     1
102
RTVSPropertyOp37
 70
     1
102
RTVSPropertyOp38
 70
     1
102
RTVSPropertyOp39
 70
     1
102
RTVSPropertyOp40
 70
     1
102
RTVSPropertyOp41
 70
     1
102
RTVSPropertyOp42
 70
     1
102
RTVSPropertyOp43
 70
     1
102
RTVSPropertyOp44
 70
     1
102
RTVSPropertyOp45
 70
     1
102
RTVSPropertyOp46
 70
     1
102
RTVSPropertyOp47
 70
     1
102
RTVSPropertyOp48
 70
     1
102
RTVSPropertyOp49
 70
     1
102
RTVSPropertyOp50
 70
     1
102
RTVSPropertyOp51
 70
     0
102
RTVSPropertyOp52
 70
     0
102
RTVSPropertyOp53
 70
     1
102
RTVSPropertyOp54
 70
     1
102
RTVSPropertyOp55
 70
     1
102
RTVSPropertyOp56
 70
     1
102
RTVSPropertyOp57
 70
     1
102
RTVSPropertyOp58
 70
     1
102
RTVSPropertyOp59
 70
     1
102
RTVSPropertyOp60
 70
     1
102
RTVSPropertyOp61
 70
     1
102
RTVSPropertyOp62
 70
     1
  0
XRECORD
  5
1640
102
{ACAD_REACTORS
330
163F
102
}
330
163F
100
AcDbXrecord
280
     1
102
RTVSPost2010Prop28
280
     0
102
RTVSPost2010PropOp28
 70
     1
102
RTVSPost2010Prop29
280
     1
102
RTVSPost2010PropOp29
 70
     1
102
RTVSPost2010Prop30
280
     1
102
RTVSPost2010PropOp30
 70
     1
102
RTVSPost2010Prop31
280
     0
102
RTVSPost2010PropOp31
 70
     1
102
RTVSPost2010Prop32
280
     0
102
RTVSPost2010PropOp32
 70
     1
102
RTVSPost2010Prop33
280
     0
102
RTVSPost2010PropOp33
 70
     1
102
RTVSPost2010Prop34
280
     0
102
RTVSPost2010PropOp34
 70
     1
102
RTVSPost2010Prop35
280
     0
102
RTVSPost2010PropOp35
 70
     1
102
RTVSPost2010Prop36
280
     0
102
RTVSPost2010PropOp36
 70
     1
102
RTVSPost2010Prop37
 90
       50
102
RTVSPost2010PropOp37
 70
     1
102
RTVSPost2010Prop38
140
0.0
102
RTVSPost2010PropOp38
 70
     1
102
RTVSPost2010Prop39
140
1.0
102
RTVSPost2010PropOp39
 70
     1
102
RTVSPost2010Prop40
 90
        0
102
RTVSPost2010PropOp40
 70
     1
102
RTVSPost2010Prop41ColorIndex
 90
       18
102
RTVSPost2010Prop41ColorRGB
 90
        0
102
RTVSPost2010PropOp41
 70
     1
102
RTVSPost2010Prop42
 90
       50
102
RTVSPost2010PropOp42
 70
     1
102
RTVSPost2010Prop43
 90
        3
102
RTVSPost2010PropOp43
 70
     1
102
RTVSPost2010Prop44ColorIndex
 90
        5
102
RTVSPost2010Prop44ColorRGB
 90
      255
102
RTVSPost2010PropOp44
 70
     1
102
RTVSPost2010Prop45
280
     0
102
RTVSPost2010PropOp45
 70
     1
102
RTVSPost2010Prop46
 90
       50
102
RTVSPost2010PropOp46
 70
     1
102
RTVSPost2010Prop47
 90
       50
102
RTVSPost2010PropOp47
 70
     1
102
RTVSPost2010Prop48
 90
       50
102
RTVSPost2010PropOp48
 70
     1
102
RTVSPost2010Prop49
280
     0
102
RTVSPost2010PropOp49
 70
     1
102
RTVSPost2010Prop50
 90
       50
102
RTVSPost2010PropOp50
 70
     1
102
RTVSPost2010Prop51ColorIndex
 90
      256
102
RTVSPost2010Prop51ColorRGB
 90
-16777216
102
RTVSPost2010PropOp51
 70
     0
102
RTVSPost2010Prop52
140
1.0
102
RTVSPost2010PropOp52
 70
     0
102
RTVSPost2010Prop53
 90
        2
102
RTVSPost2010PropOp53
 70
     1
102
RTVSPost2010Prop54
  1
strokes_ogs.tif
102
RTVSPost2010PropOp54
 70
     1
102
RTVSPost2010Prop55
280
     0
102
RTVSPost2010PropOp55
 70
     1
102
RTVSPost2010Prop56
140
1.0
102
RTVSPost2010PropOp56
 70
     1
102
RTVSPost2010Prop57
140
1.0
102
RTVSPost2010PropOp57
 70
     1
102
RTVSPropertyOp0
 70
     1
102
RTVSPropertyOp1
 70
     1
102
RTVSPropertyOp2
 70
     1
102
RTVSPropertyOp3
 70
     1
102
RTVSPropertyOp4
 70
     1
102
RTVSPropertyOp5
 70
     1
102
RTVSPropertyOp6
 70
     1
102
RTVSPropertyOp7
 70
     1
102
RTVSPropertyOp8
 70
     1
102
RTVSPropertyOp9
 70
     1
102
RTVSPropertyOp10
 70
     1
102
RTVSPropertyOp11
 70
     1
102
RTVSPropertyOp12
 70
     1
102
RTVSPropertyOp13
 70
     1
102
RTVSPropertyOp14
 70
     1
102
RTVSPropertyOp15
 70
     1
102
RTVSPropertyOp16
 70
     1
102
RTVSPropertyOp17
 70
     1
102
RTVSPropertyOp18
 70
     1
102
RTVSPropertyOp19
 70
     1
102
RTVSPropertyOp20
 70
     1
102
RTVSPropertyOp21
 70
     1
102
RTVSPropertyOp22
 70
     1
102
RTVSPropertyOp23
 70
     1
102
RTVSPropertyOp24
 70
     1
102
RTVSPropertyOp25
 70
     1
102
RTVSPropertyOp26
 70
     1
102
RTVSPropertyOp27
 70
     1
102
RTVSPropertyOp28
 70
     1
102
RTVSPropertyOp29
 70
     1
102
RTVSPropertyOp30
 70
     1
102
RTVSPropertyOp31
 70
     1
102
RTVSPropertyOp32
 70
     1
102
RTVSPropertyOp33
 70
     1
102
RTVSPropertyOp34
 70
     1
102
RTVSPropertyOp35
 70
     1
102
RTVSPropertyOp36
 70
     1
102
RTVSPropertyOp37
 70
     1
102
RTVSPropertyOp38
 70
     1
102
RTVSPropertyOp39
 70
     1
102
RTVSPropertyOp40
 70
     1
102
RTVSPropertyOp41
 70
     1
102
RTVSPropertyOp42
 70
     1
102
RTVSPropertyOp43
 70
     1
102
RTVSPropertyOp44
 70
     1
102
RTVSPropertyOp45
 70
     1
102
RTVSPropertyOp46
 70
     1
102
RTVSPropertyOp47
 70
     1
102
RTVSPropertyOp48
 70
     1
102
RTVSPropertyOp49
 70
     1
102
RTVSPropertyOp50
 70
     1
102
RTVSPropertyOp51
 70
     0
102
RTVSPropertyOp52
 70
     0
102
RTVSPropertyOp53
 70
     1
102
RTVSPropertyOp54
 70
     1
102
RTVSPropertyOp55
 70
     1
102
RTVSPropertyOp56
 70
     1
102
RTVSPropertyOp57
 70
     1
102
RTVSPropertyOp58
 70
     1
102
RTVSPropertyOp59
 70
     1
102
RTVSPropertyOp60
 70
     1
102
RTVSPropertyOp61
 70
     1
102
RTVSPropertyOp62
 70
     1
  0
XRECORD
  5
1634
102
{ACAD_REACTORS
330
1633
102
}
330
1633
100
AcDbXrecord
280
     1
102
RTVSPost2010Prop28
280
     0
102
RTVSPost2010PropOp28
 70
     1
102
RTVSPost2010Prop29
280
     1
102
RTVSPost2010PropOp29
 70
     1
102
RTVSPost2010Prop30
280
     1
102
RTVSPost2010PropOp30
 70
     1
102
RTVSPost2010Prop31
280
     0
102
RTVSPost2010PropOp31
 70
     1
102
RTVSPost2010Prop32
280
     0
102
RTVSPost2010PropOp32
 70
     1
102
RTVSPost2010Prop33
280
     0
102
RTVSPost2010PropOp33
 70
     1
102
RTVSPost2010Prop34
280
     0
102
RTVSPost2010PropOp34
 70
     1
102
RTVSPost2010Prop35
280
     0
102
RTVSPost2010PropOp35
 70
     1
102
RTVSPost2010Prop36
280
     0
102
RTVSPost2010PropOp36
 70
     1
102
RTVSPost2010Prop37
 90
       50
102
RTVSPost2010PropOp37
 70
     1
102
RTVSPost2010Prop38
140
0.0
102
RTVSPost2010PropOp38
 70
     1
102
RTVSPost2010Prop39
140
1.0
102
RTVSPost2010PropOp39
 70
     1
102
RTVSPost2010Prop40
 90
        0
102
RTVSPost2010PropOp40
 70
     1
102
RTVSPost2010Prop41ColorIndex
 90
       18
102
RTVSPost2010Prop41ColorRGB
 90
        0
102
RTVSPost2010PropOp41
 70
     1
102
RTVSPost2010Prop42
 90
       50
102
RTVSPost2010PropOp42
 70
     1
102
RTVSPost2010Prop43
 90
        3
102
RTVSPost2010PropOp43
 70
     1
102
RTVSPost2010Prop44ColorIndex
 90
        5
102
RTVSPost2010Prop44ColorRGB
 90
      255
102
RTVSPost2010PropOp44
 70
     1
102
RTVSPost2010Prop45
280
     0
102
RTVSPost2010PropOp45
 70
     1
102
RTVSPost2010Prop46
 90
       50
102
RTVSPost2010PropOp46
 70
     1
102
RTVSPost2010Prop47
 90
       50
102
RTVSPost2010PropOp47
 70
     1
102
RTVSPost2010Prop48
 90
       50
102
RTVSPost2010PropOp48
 70
     1
102
RTVSPost2010Prop49
280
     0
102
RTVSPost2010PropOp49
 70
     1
102
RTVSPost2010Prop50
 90
       50
102
RTVSPost2010PropOp50
 70
     1
102
RTVSPost2010Prop51ColorIndex
 90
      256
102
RTVSPost2010Prop51ColorRGB
 90
-16777216
102
RTVSPost2010PropOp51
 70
     0
102
RTVSPost2010Prop52
140
1.0
102
RTVSPost2010PropOp52
 70
     0
102
RTVSPost2010Prop53
 90
        2
102
RTVSPost2010PropOp53
 70
     1
102
RTVSPost2010Prop54
  1
strokes_ogs.tif
102
RTVSPost2010PropOp54
 70
     1
102
RTVSPost2010Prop55
280
     0
102
RTVSPost2010PropOp55
 70
     1
102
RTVSPost2010Prop56
140
1.0
102
RTVSPost2010PropOp56
 70
     1
102
RTVSPost2010Prop57
140
1.0
102
RTVSPost2010PropOp57
 70
     1
102
RTVSPropertyOp0
 70
     1
102
RTVSPropertyOp1
 70
     1
102
RTVSPropertyOp2
 70
     1
102
RTVSPropertyOp3
 70
     1
102
RTVSPropertyOp4
 70
     1
102
RTVSPropertyOp5
 70
     1
102
RTVSPropertyOp6
 70
     1
102
RTVSPropertyOp7
 70
     1
102
RTVSPropertyOp8
 70
     1
102
RTVSPropertyOp9
 70
     1
102
RTVSPropertyOp10
 70
     1
102
RTVSPropertyOp11
 70
     1
102
RTVSPropertyOp12
 70
     1
102
RTVSPropertyOp13
 70
     1
102
RTVSPropertyOp14
 70
     1
102
RTVSPropertyOp15
 70
     1
102
RTVSPropertyOp16
 70
     1
102
RTVSPropertyOp17
 70
     1
102
RTVSPropertyOp18
 70
     1
102
RTVSPropertyOp19
 70
     1
102
RTVSPropertyOp20
 70
     1
102
RTVSPropertyOp21
 70
     1
102
RTVSPropertyOp22
 70
     1
102
RTVSPropertyOp23
 70
     1
102
RTVSPropertyOp24
 70
     1
102
RTVSPropertyOp25
 70
     1
102
RTVSPropertyOp26
 70
     1
102
RTVSPropertyOp27
 70
     1
102
RTVSPropertyOp28
 70
     1
102
RTVSPropertyOp29
 70
     1
102
RTVSPropertyOp30
 70
     1
102
RTVSPropertyOp31
 70
     1
102
RTVSPropertyOp32
 70
     1
102
RTVSPropertyOp33
 70
     1
102
RTVSPropertyOp34
 70
     1
102
RTVSPropertyOp35
 70
     1
102
RTVSPropertyOp36
 70
     1
102
RTVSPropertyOp37
 70
     1
102
RTVSPropertyOp38
 70
     1
102
RTVSPropertyOp39
 70
     1
102
RTVSPropertyOp40
 70
     1
102
RTVSPropertyOp41
 70
     1
102
RTVSPropertyOp42
 70
     1
102
RTVSPropertyOp43
 70
     1
102
RTVSPropertyOp44
 70
     1
102
RTVSPropertyOp45
 70
     1
102
RTVSPropertyOp46
 70
     1
102
RTVSPropertyOp47
 70
     1
102
RTVSPropertyOp48
 70
     1
102
RTVSPropertyOp49
 70
     1
102
RTVSPropertyOp50
 70
     1
102
RTVSPropertyOp51
 70
     0
102
RTVSPropertyOp52
 70
     0
102
RTVSPropertyOp53
 70
     1
102
RTVSPropertyOp54
 70
     1
102
RTVSPropertyOp55
 70
     1
102
RTVSPropertyOp56
 70
     1
102
RTVSPropertyOp57
 70
     1
102
RTVSPropertyOp58
 70
     1
102
RTVSPropertyOp59
 70
     1
102
RTVSPropertyOp60
 70
     1
102
RTVSPropertyOp61
 70
     1
102
RTVSPropertyOp62
 70
     1
  0
XRECORD
  5
1652
102
{ACAD_REACTORS
330
1651
102
}
330
1651
100
AcDbXrecord
280
     1
102
RTVSPost2010Prop28
280
     0
102
RTVSPost2010PropOp28
 70
     1
102
RTVSPost2010Prop29
280
     1
102
RTVSPost2010PropOp29
 70
     1
102
RTVSPost2010Prop30
280
     1
102
RTVSPost2010PropOp30
 70
     1
102
RTVSPost2010Prop31
280
     0
102
RTVSPost2010PropOp31
 70
     1
102
RTVSPost2010Prop32
280
     0
102
RTVSPost2010PropOp32
 70
     1
102
RTVSPost2010Prop33
280
     0
102
RTVSPost2010PropOp33
 70
     1
102
RTVSPost2010Prop34
280
     0
102
RTVSPost2010PropOp34
 70
     1
102
RTVSPost2010Prop35
280
     0
102
RTVSPost2010PropOp35
 70
     1
102
RTVSPost2010Prop36
280
     0
102
RTVSPost2010PropOp36
 70
     1
102
RTVSPost2010Prop37
 90
       50
102
RTVSPost2010PropOp37
 70
     1
102
RTVSPost2010Prop38
140
0.0
102
RTVSPost2010PropOp38
 70
     1
102
RTVSPost2010Prop39
140
1.0
102
RTVSPost2010PropOp39
 70
     1
102
RTVSPost2010Prop40
 90
        0
102
RTVSPost2010PropOp40
 70
     1
102
RTVSPost2010Prop41ColorIndex
 90
       18
102
RTVSPost2010Prop41ColorRGB
 90
        0
102
RTVSPost2010PropOp41
 70
     1
102
RTVSPost2010Prop42
 90
       50
102
RTVSPost2010PropOp42
 70
     1
102
RTVSPost2010Prop43
 90
        3
102
RTVSPost2010PropOp43
 70
     1
102
RTVSPost2010Prop44ColorIndex
 90
        5
102
RTVSPost2010Prop44ColorRGB
 90
      255
102
RTVSPost2010PropOp44
 70
     1
102
RTVSPost2010Prop45
280
     0
102
RTVSPost2010PropOp45
 70
     1
102
RTVSPost2010Prop46
 90
       50
102
RTVSPost2010PropOp46
 70
     1
102
RTVSPost2010Prop47
 90
       50
102
RTVSPost2010PropOp47
 70
     1
102
RTVSPost2010Prop48
 90
       50
102
RTVSPost2010PropOp48
 70
     1
102
RTVSPost2010Prop49
280
     0
102
RTVSPost2010PropOp49
 70
     1
102
RTVSPost2010Prop50
 90
       50
102
RTVSPost2010PropOp50
 70
     1
102
RTVSPost2010Prop51ColorIndex
 90
      256
102
RTVSPost2010Prop51ColorRGB
 90
-16777216
102
RTVSPost2010PropOp51
 70
     0
102
RTVSPost2010Prop52
140
1.0
102
RTVSPost2010PropOp52
 70
     0
102
RTVSPost2010Prop53
 90
        2
102
RTVSPost2010PropOp53
 70
     1
102
RTVSPost2010Prop54
  1
strokes_ogs.tif
102
RTVSPost2010PropOp54
 70
     1
102
RTVSPost2010Prop55
280
     0
102
RTVSPost2010PropOp55
 70
     1
102
RTVSPost2010Prop56
140
1.0
102
RTVSPost2010PropOp56
 70
     1
102
RTVSPost2010Prop57
140
1.0
102
RTVSPost2010PropOp57
 70
     1
102
RTVSPropertyOp0
 70
     1
102
RTVSPropertyOp1
 70
     1
102
RTVSPropertyOp2
 70
     1
102
RTVSPropertyOp3
 70
     1
102
RTVSPropertyOp4
 70
     1
102
RTVSPropertyOp5
 70
     1
102
RTVSPropertyOp6
 70
     1
102
RTVSPropertyOp7
 70
     1
102
RTVSPropertyOp8
 70
     1
102
RTVSPropertyOp9
 70
     1
102
RTVSPropertyOp10
 70
     1
102
RTVSPropertyOp11
 70
     1
102
RTVSPropertyOp12
 70
     1
102
RTVSPropertyOp13
 70
     1
102
RTVSPropertyOp14
 70
     1
102
RTVSPropertyOp15
 70
     1
102
RTVSPropertyOp16
 70
     1
102
RTVSPropertyOp17
 70
     1
102
RTVSPropertyOp18
 70
     1
102
RTVSPropertyOp19
 70
     1
102
RTVSPropertyOp20
 70
     1
102
RTVSPropertyOp21
 70
     1
102
RTVSPropertyOp22
 70
     1
102
RTVSPropertyOp23
 70
     1
102
RTVSPropertyOp24
 70
     1
102
RTVSPropertyOp25
 70
     1
102
RTVSPropertyOp26
 70
     1
102
RTVSPropertyOp27
 70
     1
102
RTVSPropertyOp28
 70
     1
102
RTVSPropertyOp29
 70
     1
102
RTVSPropertyOp30
 70
     1
102
RTVSPropertyOp31
 70
     1
102
RTVSPropertyOp32
 70
     1
102
RTVSPropertyOp33
 70
     1
102
RTVSPropertyOp34
 70
     1
102
RTVSPropertyOp35
 70
     1
102
RTVSPropertyOp36
 70
     1
102
RTVSPropertyOp37
 70
     1
102
RTVSPropertyOp38
 70
     1
102
RTVSPropertyOp39
 70
     1
102
RTVSPropertyOp40
 70
     1
102
RTVSPropertyOp41
 70
     1
102
RTVSPropertyOp42
 70
     1
102
RTVSPropertyOp43
 70
     1
102
RTVSPropertyOp44
 70
     1
102
RTVSPropertyOp45
 70
     1
102
RTVSPropertyOp46
 70
     1
102
RTVSPropertyOp47
 70
     1
102
RTVSPropertyOp48
 70
     1
102
RTVSPropertyOp49
 70
     1
102
RTVSPropertyOp50
 70
     1
102
RTVSPropertyOp51
 70
     0
102
RTVSPropertyOp52
 70
     0
102
RTVSPropertyOp53
 70
     1
102
RTVSPropertyOp54
 70
     1
102
RTVSPropertyOp55
 70
     1
102
RTVSPropertyOp56
 70
     1
102
RTVSPropertyOp57
 70
     1
102
RTVSPropertyOp58
 70
     1
102
RTVSPropertyOp59
 70
     1
102
RTVSPropertyOp60
 70
     1
102
RTVSPropertyOp61
 70
     1
102
RTVSPropertyOp62
 70
     1
  0
ENDSEC
  0
EOF
