  0
SECTION
  2
HEADER
  9
$ACADVER
  1
AC1015
  9
$ACADMAINTVER
 70
    20
  9
$DWGCODEPAGE
  3
ANSI_1252
  9
$INSBASE
 10
0.0
 20
0.0
 30
0.0
  9
$EXTMIN
 10
-247.3893064570366
 20
-31.87003252834765
 30
-0.0015258207003583
  9
$EXTMAX
 10
739.8795785754486
 20
260.0555434590851
 30
0.0000000349246037
  9
$LIMMIN
 10
0.0
 20
0.0
  9
$LIMMAX
 10
12.0
 20
9.0
  9
$ORTHOMODE
 70
     1
  9
$REGENMODE
 70
     1
  9
$FILLMODE
 70
     0
  9
$QTEXTMODE
 70
     0
  9
$MIRRTEXT
 70
     0
  9
$LTSCALE
 40
1.0
  9
$ATTMODE
 70
     1
  9
$TEXTSIZE
 40
0.2
  9
$TRACEWID
 40
0.05
  9
$TEXTSTYLE
  7
Standard
  9
$CLAYER
  8
0
  9
$CELTYPE
  6
Continuous
  9
$CECOLOR
 62
   256
  9
$CELTSCALE
 40
1.0
  9
$DISPSILH
 70
     0
  9
$DIMSCALE
 40
1.0
  9
$DIMASZ
 40
0.18
  9
$DIMEXO
 40
0.0625
  9
$DIMDLI
 40
0.38
  9
$DIMRND
 40
0.0
  9
$DIMDLE
 40
0.0
  9
$DIMEXE
 40
0.18
  9
$DIMTP
 40
0.0
  9
$DIMTM
 40
0.0
  9
$DIMTXT
 40
0.18
  9
$DIMCEN
 40
0.09
  9
$DIMTSZ
 40
0.0
  9
$DIMTOL
 70
     0
  9
$DIMLIM
 70
     0
  9
$DIMTIH
 70
     1
  9
$DIMTOH
 70
     1
  9
$DIMSE1
 70
     0
  9
$DIMSE2
 70
     0
  9
$DIMTAD
 70
     0
  9
$DIMZIN
 70
     0
  9
$DIMBLK
  1

  9
$DIMASO
 70
     1
  9
$DIMSHO
 70
     1
  9
$DIMPOST
  1

  9
$DIMAPOST
  1

  9
$DIMALT
 70
     0
  9
$DIMALTD
 70
     2
  9
$DIMALTF
 40
25.4
  9
$DIMLFAC
 40
1.0
  9
$DIMTOFL
 70
     0
  9
$DIMTVP
 40
0.0
  9
$DIMTIX
 70
     0
  9
$DIMSOXD
 70
     0
  9
$DIMSAH
 70
     0
  9
$DIMBLK1
  1

  9
$DIMBLK2
  1

  9
$DIMSTYLE
  2
Standard
  9
$DIMCLRD
 70
     0
  9
$DIMCLRE
 70
     0
  9
$DIMCLRT
 70
     0
  9
$DIMTFAC
 40
1.0
  9
$DIMGAP
 40
0.09
  9
$DIMJUST
 70
     0
  9
$DIMSD1
 70
     0
  9
$DIMSD2
 70
     0
  9
$DIMTOLJ
 70
     1
  9
$DIMTZIN
 70
     0
  9
$DIMALTZ
 70
     0
  9
$DIMALTTZ
 70
     0
  9
$DIMUPT
 70
     0
  9
$DIMDEC
 70
     4
  9
$DIMTDEC
 70
     4
  9
$DIMALTU
 70
     2
  9
$DIMALTTD
 70
     2
  9
$DIMTXSTY
  7
Standard
  9
$DIMAUNIT
 70
     0
  9
$DIMADEC
 70
     0
  9
$DIMALTRND
 40
0.0
  9
$DIMAZIN
 70
     0
  9
$DIMDSEP
 70
    46
  9
$DIMATFIT
 70
     3
  9
$DIMFRAC
 70
     0
  9
$DIMLDRBLK
  1

  9
$DIMLUNIT
 70
     2
  9
$DIMLWD
 70
    -2
  9
$DIMLWE
 70
    -2
  9
$DIMTMOVE
 70
     0
  9
$LUNITS
 70
     2
  9
$LUPREC
 70
     4
  9
$SKETCHINC
 40
0.1
  9
$FILLETRAD
 40
0.0
  9
$AUNITS
 70
     0
  9
$AUPREC
 70
     0
  9
$MENU
  1
.
  9
$ELEVATION
 40
0.0
  9
$PELEVATION
 40
0.0
  9
$THICKNESS
 40
0.0
  9
$LIMCHECK
 70
     0
  9
$CHAMFERA
 40
0.0
  9
$CHAMFERB
 40
0.0
  9
$CHAMFERC
 40
0.0
  9
$CHAMFERD
 40
0.0
  9
$SKPOLY
 70
     0
  9
$TDCREATE
 40
2457183.686192605
  9
$TDUCREATE
 40
2457183.602859271
  9
$TDUPDATE
 40
2457183.695648658
  9
$TDUUPDATE
 40
2457183.612315324
  9
$TDINDWG
 40
0.0094623843
  9
$TDUSRTIMER
 40
0.0094623843
  9
$USRTIMER
 70
     1
  9
$ANGBASE
 50
0.0
  9
$ANGDIR
 70
     0
  9
$PDMODE
 70
     0
  9
$PDSIZE
 40
0.0
  9
$PLINEWID
 40
0.0
  9
$SPLFRAME
 70
     1
  9
$SPLINETYPE
 70
     6
  9
$SPLINESEGS
 70
     8
  9
$HANDSEED
  5
23E0
  9
$SURFTAB1
 70
     6
  9
$SURFTAB2
 70
     6
  9
$SURFTYPE
 70
     6
  9
$SURFU
 70
     6
  9
$SURFV
 70
     6
  9
$UCSBASE
  2

  9
$UCSNAME
  2

  9
$UCSORG
 10
0.0
 20
0.0
 30
0.0
  9
$UCSXDIR
 10
1.0
 20
0.0
 30
0.0
  9
$UCSYDIR
 10
0.0
 20
1.0
 30
0.0
  9
$UCSORTHOREF
  2

  9
$UCSORTHOVIEW
 70
     0
  9
$UCSORGTOP
 10
0.0
 20
0.0
 30
0.0
  9
$UCSORGBOTTOM
 10
0.0
 20
0.0
 30
0.0
  9
$UCSORGLEFT
 10
0.0
 20
0.0
 30
0.0
  9
$UCSORGRIGHT
 10
0.0
 20
0.0
 30
0.0
  9
$UCSORGFRONT
 10
0.0
 20
0.0
 30
0.0
  9
$UCSORGBACK
 10
0.0
 20
0.0
 30
0.0
  9
$PUCSBASE
  2

  9
$PUCSNAME
  2

  9
$PUCSORG
 10
0.0
 20
0.0
 30
0.0
  9
$PUCSXDIR
 10
1.0
 20
0.0
 30
0.0
  9
$PUCSYDIR
 10
0.0
 20
1.0
 30
0.0
  9
$PUCSORTHOREF
  2

  9
$PUCSORTHOVIEW
 70
     0
  9
$PUCSORGTOP
 10
0.0
 20
0.0
 30
0.0
  9
$PUCSORGBOTTOM
 10
0.0
 20
0.0
 30
0.0
  9
$PUCSORGLEFT
 10
0.0
 20
0.0
 30
0.0
  9
$PUCSORGRIGHT
 10
0.0
 20
0.0
 30
0.0
  9
$PUCSORGFRONT
 10
0.0
 20
0.0
 30
0.0
  9
$PUCSORGBACK
 10
0.0
 20
0.0
 30
0.0
  9
$USERI1
 70
     0
  9
$USERI2
 70
     0
  9
$USERI3
 70
     0
  9
$USERI4
 70
     0
  9
$USERI5
 70
     0
  9
$USERR1
 40
0.0
  9
$USERR2
 40
0.0
  9
$USERR3
 40
0.0
  9
$USERR4
 40
0.0
  9
$USERR5
 40
0.0
  9
$WORLDVIEW
 70
     1
  9
$SHADEDGE
 70
     3
  9
$SHADEDIF
 70
    70
  9
$TILEMODE
 70
     1
  9
$MAXACTVP
 70
    64
  9
$PINSBASE
 10
0.0
 20
0.0
 30
0.0
  9
$PLIMCHECK
 70
     0
  9
$PEXTMIN
 10
1.000000000000000E+20
 20
1.000000000000000E+20
 30
1.000000000000000E+20
  9
$PEXTMAX
 10
-1.000000000000000E+20
 20
-1.000000000000000E+20
 30
-1.000000000000000E+20
  9
$PLIMMIN
 10
0.0
 20
0.0
  9
$PLIMMAX
 10
12.0
 20
9.0
  9
$UNITMODE
 70
     0
  9
$VISRETAIN
 70
     1
  9
$PLINEGEN
 70
     0
  9
$PSLTSCALE
 70
     1
  9
$TREEDEPTH
 70
  3020
  9
$CMLSTYLE
  2
Standard
  9
$CMLJUST
 70
     0
  9
$CMLSCALE
 40
1.0
  9
$PROXYGRAPHICS
 70
     1
  9
$MEASUREMENT
 70
     0
  9
$CELWEIGHT
370
    -1
  9
$ENDCAPS
280
     0
  9
$JOINSTYLE
280
     0
  9
$LWDISPLAY
290
     0
  9
$INSUNITS
 70
     0
  9
$HYPERLINKBASE
  1

  9
$STYLESHEET
  1

  9
$XEDIT
290
     1
  9
$CEPSNTYPE
380
     0
  9
$PSTYLEMODE
290
     1
  9
$FINGERPRINTGUID
  2
{C022EA46-5366-4023-A43A-7D029ED7B2E0}
  9
$VERSIONGUID
  2
{749B1179-B030-45FC-9580-8FA54B711A5B}
  9
$EXTNAMES
290
     1
  9
$PSVPSCALE
 40
0.0
  9
$OLESTARTUP
290
     0
  0
ENDSEC
  0
SECTION
  2
CLASSES
  0
CLASS
  1
ACDBDICTIONARYWDFLT
  2
AcDbDictionaryWithDefault
  3
ObjectDBX Classes
 90
        0
280
     0
281
     0
  0
CLASS
  1
MATERIAL
  2
AcDbMaterial
  3
ObjectDBX Classes
 90
     1153
280
     0
281
     0
  0
CLASS
  1
VISUALSTYLE
  2
AcDbVisualStyle
  3
ObjectDBX Classes
 90
     4095
280
     0
281
     0
  0
CLASS
  1
SCALE
  2
AcDbScale
  3
ObjectDBX Classes
 90
     1153
280
     0
281
     0
  0
CLASS
  1
TABLESTYLE
  2
AcDbTableStyle
  3
ObjectDBX Classes
 90
     4095
280
     0
281
     0
  0
CLASS
  1
MLEADERSTYLE
  2
AcDbMLeaderStyle
  3
ACDB_MLEADERSTYLE_CLASS
 90
     4095
280
     0
281
     0
  0
CLASS
  1
ACDBSECTIONVIEWSTYLE
  2
AcDbSectionViewStyle
  3
ObjectDBX Classes
 90
     1025
280
     0
281
     0
  0
CLASS
  1
ACDBDETAILVIEWSTYLE
  2
AcDbDetailViewStyle
  3
ObjectDBX Classes
 90
     1025
280
     0
281
     0
  0
CLASS
  1
SORTENTSTABLE
  2
AcDbSortentsTable
  3
ObjectDBX Classes
 90
        0
280
     0
281
     0
  0
CLASS
  1
DICTIONARYVAR
  2
AcDbDictionaryVar
  3
ObjectDBX Classes
 90
        0
280
     0
281
     0
  0
CLASS
  1
CELLSTYLEMAP
  2
AcDbCellStyleMap
  3
ObjectDBX Classes
 90
     1152
280
     0
281
     0
  0
CLASS
  1
ACDBPLACEHOLDER
  2
AcDbPlaceHolder
  3
ObjectDBX Classes
 90
        0
280
     0
281
     0
  0
CLASS
  1
LAYOUT
  2
AcDbLayout
  3
ObjectDBX Classes
 90
        0
280
     0
281
     0
  0
ENDSEC
  0
SECTION
  2
TABLES
  0
TABLE
  2
VPORT
  5
8
330
0
100
AcDbSymbolTable
 70
     1
  0
VPORT
  5
74
330
8
100
AcDbSymbolTableRecord
100
AcDbViewportTableRecord
  2
*Active
 70
     0
 10
0.0
 20
0.0
 11
1.0
 21
1.0
 12
510.7894738963428
 22
131.2056038944651
 13
0.0
 23
0.0
 14
1.0
 24
1.0
 15
0.0
 25
0.0
 16
0.0
 26
0.0
 36
1.0
 17
0.0
 27
0.0
 37
0.0
 40
579.1601712872069
 41
2.138297872340425
 42
50.0
 43
0.0
 44
0.0
 50
0.0
 51
0.0
 71
     0
 72
   100
 73
     1
 74
     1
 75
     0
 76
     0
 77
     0
 78
     0
281
     0
 65
     1
110
0.0
120
0.0
130
0.0
111
1.0
121
0.0
131
0.0
112
0.0
122
1.0
132
0.0
 79
     0
146
0.0
1001
ACAD_NAV_VCDISPLAY
1070
     3
  0
ENDTAB
  0
TABLE
  2
LTYPE
  5
5
330
0
100
AcDbSymbolTable
 70
     2
  0
LTYPE
  5
5A
330
5
100
AcDbSymbolTableRecord
100
AcDbLinetypeTableRecord
  2
ByBlock
 70
     0
  3

 72
    65
 73
     0
 40
0.0
  0
LTYPE
  5
5B
330
5
100
AcDbSymbolTableRecord
100
AcDbLinetypeTableRecord
  2
ByLayer
 70
     0
  3

 72
    65
 73
     0
 40
0.0
  0
LTYPE
  5
5C
330
5
100
AcDbSymbolTableRecord
100
AcDbLinetypeTableRecord
  2
Continuous
 70
     0
  3
Solid line
 72
    65
 73
     0
 40
0.0
  0
ENDTAB
  0
TABLE
  2
LAYER
  5
2
102
{ACAD_XDICTIONARY
360
215B
102
}
330
0
100
AcDbSymbolTable
 70
     2
  0
LAYER
  5
54
102
{ACAD_XDICTIONARY
360
238F
102
}
330
2
100
AcDbSymbolTableRecord
100
AcDbLayerTableRecord
  2
0
 70
     0
 62
     7
  6
Continuous
370
    -3
390
F
  0
LAYER
  5
21B2
330
2
100
AcDbSymbolTableRecord
100
AcDbLayerTableRecord
  2
Defpoints
 70
     0
 62
     7
  6
Continuous
290
     0
370
    -3
390
F
  0
ENDTAB
  0
TABLE
  2
STYLE
  5
3
330
0
100
AcDbSymbolTable
 70
     2
  0
STYLE
  5
55
330
3
100
AcDbSymbolTableRecord
100
AcDbTextStyleTableRecord
  2
Standard
 70
     0
 40
0.0
 41
1.0
 50
0.0
 71
     0
 42
0.2
  3
txt
  4

  0
STYLE
  5
59
330
3
100
AcDbSymbolTableRecord
100
AcDbTextStyleTableRecord
  2
Annotative
 70
     0
 40
0.0
 41
1.0
 50
0.0
 71
     0
 42
0.2
  3
txt
  4

1001
AcadAnnotative
1000
AnnotativeData
1002
{
1070
     1
1070
     1
1002
}
  0
ENDTAB
  0
TABLE
  2
VIEW
  5
6
330
0
100
AcDbSymbolTable
 70
     0
  0
ENDTAB
  0
TABLE
  2
UCS
  5
7
330
0
100
AcDbSymbolTable
 70
     0
  0
ENDTAB
  0
TABLE
  2
APPID
  5
9
330
0
100
AcDbSymbolTable
 70
     8
  0
APPID
  5
56
330
9
100
AcDbSymbolTableRecord
100
AcDbRegAppTableRecord
  2
ACAD
 70
     0
  0
APPID
  5
5D
330
9
100
AcDbSymbolTableRecord
100
AcDbRegAppTableRecord
  2
AcadAnnotative
 70
     0
  0
APPID
  5
2157
330
9
100
AcDbSymbolTableRecord
100
AcDbRegAppTableRecord
  2
ACAD_PSEXT
 70
     0
  0
APPID
  5
2158
330
9
100
AcDbSymbolTableRecord
100
AcDbRegAppTableRecord
  2
ACAD_DSTYLE_DIMJAG
 70
     0
  0
APPID
  5
2159
330
9
100
AcDbSymbolTableRecord
100
AcDbRegAppTableRecord
  2
ACAD_DSTYLE_DIMTALN
 70
     0
  0
APPID
  5
215A
330
9
100
AcDbSymbolTableRecord
100
AcDbRegAppTableRecord
  2
ACAD_NAV_VCDISPLAY
 70
     0
  0
APPID
  5
2293
330
9
100
AcDbSymbolTableRecord
100
AcDbRegAppTableRecord
  2
ACAD_EXEMPT_FROM_CAD_STANDARDS
 70
     0
  0
APPID
  5
23D3
330
9
100
AcDbSymbolTableRecord
100
AcDbRegAppTableRecord
  2
ACAD_MLEADERVER
 70
     0
  0
ENDTAB
  0
TABLE
  2
DIMSTYLE
  5
A
330
0
100
AcDbSymbolTable
 70
     5
100
AcDbDimStyleTable
 71
     1
340
57
  0
DIMSTYLE
105
57
102
{ACAD_REACTORS
330
21FA
330
21FB
330
21FC
330
2330
102
}
330
A
100
AcDbSymbolTableRecord
100
AcDbDimStyleTableRecord
  2
Standard
 70
     0
340
55
  0
DIMSTYLE
105
58
330
A
100
AcDbSymbolTableRecord
100
AcDbDimStyleTableRecord
  2
Annotative
 70
     0
340
55
1001
AcadAnnotative
1000
AnnotativeData
1002
{
1070
     1
1070
     1
1002
}
  0
DIMSTYLE
105
2155
330
A
100
AcDbSymbolTableRecord
100
AcDbDimStyleTableRecord
  2
Annotativa
 70
     0
 40
0.0
 41
2.5
 42
0.625
 43
3.75
 44
1.25
 73
     0
 74
     0
 77
     1
 78
     8
140
2.5
141
2.5
143
0.03937007874016
147
0.625
171
     3
172
     1
271
     2
272
     2
274
     3
278
    44
283
     0
284
     8
340
55
1001
AcadAnnotative
1000
AnnotativeData
1002
{
1070
     1
1070
     1
1002
}
1001
ACAD_DSTYLE_DIMJAG
1070
   388
1040
1.5
1001
ACAD_DSTYLE_DIMTALN
1070
   392
1070
     0
  0
DIMSTYLE
105
2156
330
A
100
AcDbSymbolTableRecord
100
AcDbDimStyleTableRecord
  2
ISO-25
 70
     0
 41
2.5
 42
0.625
 43
3.75
 44
1.25
 73
     0
 74
     0
 77
     1
 78
     8
140
2.5
141
2.5
143
0.03937007874016
147
0.625
171
     3
172
     1
271
     2
272
     2
274
     3
278
    44
283
     0
284
     8
340
55
  0
ENDTAB
  0
TABLE
  2
BLOCK_RECORD
  5
1
330
0
100
AcDbSymbolTable
 70
    11
  0
BLOCK_RECORD
  5
6F
102
{ACAD_XDICTIONARY
360
15B4
102
}
330
1
100
AcDbSymbolTableRecord
100
AcDbBlockTableRecord
  2
*Model_Space
340
72
  0
BLOCK_RECORD
  5
6B
330
1
100
AcDbSymbolTableRecord
100
AcDbBlockTableRecord
  2
*Paper_Space
340
6E
  0
BLOCK_RECORD
  5
21B3
330
1
100
AcDbSymbolTableRecord
100
AcDbBlockTableRecord
  2
*D1
340
0
  0
BLOCK_RECORD
  5
21CA
330
1
100
AcDbSymbolTableRecord
100
AcDbBlockTableRecord
  2
*D2
340
0
  0
BLOCK_RECORD
  5
21D7
330
1
100
AcDbSymbolTableRecord
100
AcDbBlockTableRecord
  2
*D3
340
0
  0
BLOCK_RECORD
  5
21E4
330
1
100
AcDbSymbolTableRecord
100
AcDbBlockTableRecord
  2
*D4
340
0
  0
BLOCK_RECORD
  5
21FD
330
1
100
AcDbSymbolTableRecord
100
AcDbBlockTableRecord
  2
*D6
340
0
  0
BLOCK_RECORD
  5
220A
330
1
100
AcDbSymbolTableRecord
100
AcDbBlockTableRecord
  2
*D7
340
0
  0
BLOCK_RECORD
  5
2217
330
1
100
AcDbSymbolTableRecord
100
AcDbBlockTableRecord
  2
*D8
340
0
  0
BLOCK_RECORD
  5
2331
330
1
100
AcDbSymbolTableRecord
100
AcDbBlockTableRecord
  2
*D10
340
0
  0
ENDTAB
  0
ENDSEC
  0
SECTION
  2
BLOCKS
  0
BLOCK
  5
70
330
6F
100
AcDbEntity
  8
0
100
AcDbBlockBegin
  2
*Model_Space
 70
     0
 10
0.0
 20
0.0
 30
0.0
  3
*Model_Space
  1

  0
ENDBLK
  5
71
330
6F
100
AcDbEntity
  8
0
100
AcDbBlockEnd
  0
BLOCK
  5
6C
330
6B
100
AcDbEntity
 67
     1
  8
0
100
AcDbBlockBegin
  2
*Paper_Space
 70
     0
 10
0.0
 20
0.0
 30
0.0
  3
*Paper_Space
  1

  0
ENDBLK
  5
6D
330
6B
100
AcDbEntity
 67
     1
  8
0
100
AcDbBlockEnd
  0
BLOCK
  5
21B4
330
21B3
100
AcDbEntity
  8
0
100
AcDbBlockBegin
  2
*D1
 70
     1
 10
0.0
 20
0.0
 30
0.0
  3
*D1
  1

  0
LINE
  5
21C0
330
21B3
100
AcDbEntity
  8
0
  6
Continuous
 62
     0
370
    -2
100
AcDbLine
 10
170.8990825049152
 20
259.9826324574366
 30
0.0
 11
41.09288066698456
 21
259.9826324574366
 31
0.0
  0
LINE
  5
21C1
330
21B3
100
AcDbEntity
  8
0
  6
Continuous
 62
     0
370
    -2
100
AcDbLine
 10
170.8990825049152
 20
10.97730671606416
 30
0.0
 11
41.09288066698451
 21
10.97730671606419
 31
0.0
  0
LINE
  5
21C2
330
21B3
100
AcDbEntity
  8
0
  6
Continuous
 62
     0
370
    -2
100
AcDbLine
 10
41.27288066698458
 20
259.8026324574366
 30
0.0
 11
41.27288066698455
 21
135.6599695867504
 31
0.0
  0
LINE
  5
21C3
330
21B3
100
AcDbEntity
  8
0
  6
Continuous
 62
     0
370
    -2
100
AcDbLine
 10
41.27288066698453
 20
11.15730671606419
 30
0.0
 11
41.27288066698455
 21
135.2999695867504
 31
0.0
  0
SOLID
  5
21C4
330
21B3
100
AcDbEntity
  8
0
  6
Continuous
 62
     0
100
AcDbTrace
 10
41.24288066698458
 20
259.8026324574366
 30
0.0
 11
41.30288066698458
 21
259.8026324574366
 31
0.0
 12
41.27288066698458
 22
259.9826324574366
 32
0.0
 13
41.27288066698458
 23
259.9826324574366
 33
0.0
  0
SOLID
  5
21C5
330
21B3
100
AcDbEntity
  8
0
  6
Continuous
 62
     0
100
AcDbTrace
 10
41.24288066698452
 20
11.15730671606419
 30
0.0
 11
41.30288066698453
 21
11.15730671606419
 31
0.0
 12
41.27288066698453
 22
10.97730671606419
 32
0.0
 13
41.27288066698453
 23
10.97730671606419
 33
0.0
  0
MTEXT
  5
21C6
330
21B3
100
AcDbEntity
  8
0
  6
Continuous
 62
     0
100
AcDbMText
 10
41.27288066698453
 20
135.4799695867504
 30
0.0
 40
0.18
 41
0.0
 71
     5
 72
     1
  1
\A1;249.0053
 73
     1
 44
1.0
1001
ACAD
1000
MTEXTBEGIN
1070
    73
1070
     1
1070
    44
1040
1.0
1070
    74
1070
     0
1000
MTEXTEND
  0
POINT
  5
21C7
330
21B3
100
AcDbEntity
  8
Defpoints
  6
Continuous
 62
     0
100
AcDbPoint
 10
170.9615825049152
 20
259.9826324574366
 30
0.0
  0
POINT
  5
21C8
330
21B3
100
AcDbEntity
  8
Defpoints
  6
Continuous
 62
     0
100
AcDbPoint
 10
170.9615825049152
 20
10.97730671606416
 30
0.0
  0
POINT
  5
21C9
330
21B3
100
AcDbEntity
  8
Defpoints
  6
Continuous
 62
     0
100
AcDbPoint
 10
41.27288066698453
 20
10.97730671606419
 30
0.0
  0
ENDBLK
  5
21B5
330
21B3
100
AcDbEntity
  8
0
100
AcDbBlockEnd
  0
BLOCK
  5
21CB
330
21CA
100
AcDbEntity
  8
0
100
AcDbBlockBegin
  2
*D2
 70
     1
 10
0.0
 20
0.0
 30
0.0
  3
*D2
  1

  0
LINE
  5
21CC
330
21CA
100
AcDbEntity
  8
0
 62
     0
370
    -2
100
AcDbLine
 10
0.000000034046586
 20
7.123137393306522
 30
0.0
 11
0.0000000340465835
 21
-32.91139393033854
 31
0.0
  0
LINE
  5
21CD
330
21CA
100
AcDbEntity
  8
0
 62
     0
370
    -2
100
AcDbLine
 10
103.0162247240466
 20
7.060637393306521
 30
0.0
 11
103.0162247240466
 21
-32.91139393033854
 31
0.0
  0
LINE
  5
21CE
330
21CA
100
AcDbEntity
  8
0
 62
     0
370
    -2
100
AcDbLine
 10
6.000000034046581
 20
-32.73139393033853
 30
0.0
 11
39.28818347376701
 21
-32.73139393033853
 31
0.0
  0
LINE
  5
21CF
330
21CA
100
AcDbEntity
  8
0
 62
     0
370
    -2
100
AcDbLine
 10
97.01622472404659
 20
-32.73139393033853
 30
0.0
 11
62.40679193215719
 21
-32.73139393033853
 31
0.0
  0
SOLID
  5
21D0
330
21CA
100
AcDbEntity
  8
0
 62
     0
100
AcDbTrace
 10
6.000000034046581
 20
-31.73139393033853
 30
0.0
 11
6.000000034046581
 21
-33.73139393033854
 31
0.0
 12
0.0000000340465836
 22
-32.73139393033853
 32
0.0
 13
0.0000000340465836
 23
-32.73139393033853
 33
0.0
  0
SOLID
  5
21D1
330
21CA
100
AcDbEntity
  8
0
 62
     0
100
AcDbTrace
 10
97.01622472404659
 20
-31.73139393033853
 30
0.0
 11
97.01622472404659
 21
-33.73139393033854
 31
0.0
 12
103.0162247240466
 22
-32.73139393033853
 32
0.0
 13
103.0162247240466
 23
-32.73139393033853
 33
0.0
  0
MTEXT
  5
21D2
330
21CA
100
AcDbEntity
  8
0
 62
     0
100
AcDbMText
 10
50.84748770296211
 20
-32.73139393033853
 30
0.0
 40
7.0
 41
0.0
 71
     5
 72
     1
  1
\A1;103.0
 73
     1
 44
1.0
1001
ACAD
1000
MTEXTBEGIN
1070
    73
1070
     1
1070
    44
1040
1.0
1070
    74
1070
     0
1000
MTEXTEND
  0
POINT
  5
21D3
330
21CA
100
AcDbEntity
  8
Defpoints
 62
     0
100
AcDbPoint
 10
0.000000034046586
 20
7.185637393306522
 30
0.0
  0
POINT
  5
21D4
330
21CA
100
AcDbEntity
  8
Defpoints
 62
     0
100
AcDbPoint
 10
103.0162247240466
 20
7.123137393306521
 30
0.0
  0
POINT
  5
21D5
330
21CA
100
AcDbEntity
  8
Defpoints
 62
     0
100
AcDbPoint
 10
103.0162247240466
 20
-32.73139393033853
 30
0.0
  0
ENDBLK
  5
21D6
330
21CA
100
AcDbEntity
  8
0
100
AcDbBlockEnd
  0
BLOCK
  5
21D8
330
21D7
100
AcDbEntity
  8
0
100
AcDbBlockBegin
  2
*D3
 70
     1
 10
0.0
 20
0.0
 30
0.0
  3
*D3
  1

  0
LINE
  5
21D9
330
21D7
100
AcDbEntity
  8
0
 62
     0
370
    -2
100
AcDbLine
 10
185.9992555075953
 20
0.0000009969947152
 30
0.0
 11
303.3232471913704
 21
0.000000996994682
 31
0.0
  0
LINE
  5
21DA
330
21D7
100
AcDbEntity
  8
0
 62
     0
370
    -2
100
AcDbLine
 10
185.9992555075953
 20
220.0000009969947
 30
0.0
 11
303.3232471913704
 21
220.0000009969947
 31
0.0
  0
LINE
  5
21DB
330
21D7
100
AcDbEntity
  8
0
 62
     0
370
    -2
100
AcDbLine
 10
303.1432471913704
 20
6.000000996994681
 30
0.0
 11
303.1432471913704
 21
110.8252340644099
 31
0.0
  0
LINE
  5
21DC
330
21D7
100
AcDbEntity
  8
0
 62
     0
370
    -2
100
AcDbLine
 10
303.1432471913705
 20
214.0000009969947
 30
0.0
 11
303.1432471913704
 21
118.1532558925136
 31
0.0
  0
SOLID
  5
21DD
330
21D7
100
AcDbEntity
  8
0
 62
     0
100
AcDbTrace
 10
302.1432471913704
 20
6.000000996994681
 30
0.0
 11
304.1432471913704
 21
6.000000996994681
 31
0.0
 12
303.1432471913704
 22
0.000000996994682
 32
0.0
 13
303.1432471913704
 23
0.000000996994682
 33
0.0
  0
SOLID
  5
21DE
330
21D7
100
AcDbEntity
  8
0
 62
     0
100
AcDbTrace
 10
302.1432471913704
 20
214.0000009969947
 30
0.0
 11
304.1432471913704
 21
214.0000009969947
 31
0.0
 12
303.1432471913705
 22
220.0000009969947
 32
0.0
 13
303.1432471913705
 23
220.0000009969947
 33
0.0
  0
MTEXT
  5
21DF
330
21D7
100
AcDbEntity
  8
0
 62
     0
100
AcDbMText
 10
303.1432471913704
 20
114.4892449784618
 30
0.0
 40
7.0
 41
0.0
 71
     5
 72
     1
  1
\A1;220.0
 73
     1
 44
1.0
1001
ACAD
1000
MTEXTBEGIN
1070
    73
1070
     1
1070
    44
1040
1.0
1070
    74
1070
     0
1000
MTEXTEND
  0
POINT
  5
21E0
330
21D7
100
AcDbEntity
  8
Defpoints
 62
     0
100
AcDbPoint
 10
185.9367555075953
 20
0.0000009969947152
 30
0.0
  0
POINT
  5
21E1
330
21D7
100
AcDbEntity
  8
Defpoints
 62
     0
100
AcDbPoint
 10
185.9367555075953
 20
220.0000009969947
 30
0.0
  0
POINT
  5
21E2
330
21D7
100
AcDbEntity
  8
Defpoints
 62
     0
100
AcDbPoint
 10
303.1432471913705
 20
220.0000009969947
 30
0.0
  0
ENDBLK
  5
21E3
330
21D7
100
AcDbEntity
  8
0
100
AcDbBlockEnd
  0
BLOCK
  5
21E5
330
21E4
100
AcDbEntity
  8
0
100
AcDbBlockBegin
  2
*D4
 70
     1
 10
0.0
 20
0.0
 30
0.0
  3
*D4
  1

  0
LINE
  5
21E6
330
21E4
100
AcDbEntity
  8
0
 62
     0
370
    -2
100
AcDbLine
 10
159.9367555075952
 20
9.477895935434901
 30
0.0
 11
159.9367555075952
 21
-30.04944330897691
 31
0.0
  0
LINE
  5
21E7
330
21E4
100
AcDbEntity
  8
0
 62
     0
370
    -2
100
AcDbLine
 10
260.9367555075953
 20
10.51467172870184
 30
0.0
 11
260.9367555075953
 21
-30.04944330897691
 31
0.0
  0
LINE
  5
21E8
330
21E4
100
AcDbEntity
  8
0
 62
     0
370
    -2
100
AcDbLine
 10
165.9367555075952
 20
-29.86944330897691
 30
0.0
 11
197.1291460529662
 21
-29.86944330897691
 31
0.0
  0
LINE
  5
21E9
330
21E4
100
AcDbEntity
  8
0
 62
     0
370
    -2
100
AcDbLine
 10
254.9367555075953
 20
-29.86944330897691
 30
0.0
 11
220.2477545113564
 21
-29.86944330897691
 31
0.0
  0
SOLID
  5
21EA
330
21E4
100
AcDbEntity
  8
0
 62
     0
100
AcDbTrace
 10
165.9367555075952
 20
-28.86944330897691
 30
0.0
 11
165.9367555075952
 21
-30.86944330897691
 31
0.0
 12
159.9367555075952
 22
-29.86944330897691
 32
0.0
 13
159.9367555075952
 23
-29.86944330897691
 33
0.0
  0
SOLID
  5
21EB
330
21E4
100
AcDbEntity
  8
0
 62
     0
100
AcDbTrace
 10
254.9367555075953
 20
-28.86944330897691
 30
0.0
 11
254.9367555075953
 21
-30.86944330897691
 31
0.0
 12
260.9367555075953
 22
-29.86944330897691
 32
0.0
 13
260.9367555075953
 23
-29.86944330897691
 33
0.0
  0
MTEXT
  5
21EC
330
21E4
100
AcDbEntity
  8
0
 62
     0
100
AcDbMText
 10
208.6884502821614
 20
-29.86944330897691
 30
0.0
 40
7.0
 41
0.0
 71
     5
 72
     1
  1
\A1;101.0
 73
     1
 44
1.0
1001
ACAD
1000
MTEXTBEGIN
1070
    73
1070
     1
1070
    44
1040
1.0
1070
    74
1070
     0
1000
MTEXTEND
  0
POINT
  5
21ED
330
21E4
100
AcDbEntity
  8
Defpoints
 62
     0
100
AcDbPoint
 10
159.9367555075952
 20
9.540395935434901
 30
0.0
  0
POINT
  5
21EE
330
21E4
100
AcDbEntity
  8
Defpoints
 62
     0
100
AcDbPoint
 10
260.9367555075953
 20
10.57717172870184
 30
0.0
  0
POINT
  5
21EF
330
21E4
100
AcDbEntity
  8
Defpoints
 62
     0
100
AcDbPoint
 10
260.9367555075953
 20
-29.86944330897691
 30
0.0
  0
ENDBLK
  5
21F0
330
21E4
100
AcDbEntity
  8
0
100
AcDbBlockEnd
  0
BLOCK
  5
21FE
330
21FD
100
AcDbEntity
  8
0
100
AcDbBlockBegin
  2
*D6
 70
     1
 10
0.0
 20
0.0
 30
0.0
  3
*D6
  1

  0
LINE
  5
22AE
330
21FD
100
AcDbEntity
  8
0
 62
     0
370
    -2
100
AcDbLine
 10
104.9617984133492
 20
31.15639683688041
 30
0.0
 11
104.9617984133492
 21
-8.878134486764658
 31
0.0
  0
LINE
  5
22AF
330
21FD
100
AcDbEntity
  8
0
 62
     0
370
    -2
100
AcDbLine
 10
236.9617984133492
 20
31.0938968368804
 30
0.0
 11
236.9617984133492
 21
-8.878134486764654
 31
0.0
  0
LINE
  5
22B0
330
21FD
100
AcDbEntity
  8
0
 62
     0
370
    -2
100
AcDbLine
 10
110.9617984133492
 20
-8.698134486764658
 30
0.0
 11
149.682009650101
 21
-8.698134486764658
 31
0.0
  0
LINE
  5
22B1
330
21FD
100
AcDbEntity
  8
0
 62
     0
370
    -2
100
AcDbLine
 10
230.9617984133492
 20
-8.698134486764658
 30
0.0
 11
174.362009650101
 21
-8.698134486764658
 31
0.0
  0
SOLID
  5
22B2
330
21FD
100
AcDbEntity
  8
0
 62
     0
100
AcDbTrace
 10
110.9617984133492
 20
-7.698134486764658
 30
0.0
 11
110.9617984133492
 21
-9.698134486764658
 31
0.0
 12
104.9617984133492
 22
-8.698134486764658
 32
0.0
 13
104.9617984133492
 23
-8.698134486764658
 33
0.0
  0
SOLID
  5
22B3
330
21FD
100
AcDbEntity
  8
0
 62
     0
100
AcDbTrace
 10
230.9617984133492
 20
-7.698134486764658
 30
0.0
 11
230.9617984133492
 21
-9.698134486764658
 31
0.0
 12
236.9617984133492
 22
-8.698134486764658
 32
0.0
 13
236.9617984133492
 23
-8.698134486764658
 33
0.0
  0
MTEXT
  5
22B4
330
21FD
100
AcDbEntity
  8
0
 62
     0
100
AcDbMText
 10
162.022009650101
 20
-8.698134486764658
 30
0.0
 40
7.0
 41
0.0
 71
     5
 72
     1
  1
\A1;132.0
 73
     1
 44
1.0
1001
ACAD
1000
MTEXTBEGIN
1070
    73
1070
     1
1070
    44
1040
1.0
1070
    74
1070
     0
1000
MTEXTEND
  0
POINT
  5
22B5
330
21FD
100
AcDbEntity
  8
Defpoints
 62
     0
100
AcDbPoint
 10
104.9617984133492
 20
31.21889683688041
 30
0.0
  0
POINT
  5
22B6
330
21FD
100
AcDbEntity
  8
Defpoints
 62
     0
100
AcDbPoint
 10
236.9617984133492
 20
31.15639683688039
 30
0.0
  0
POINT
  5
22B7
330
21FD
100
AcDbEntity
  8
Defpoints
 62
     0
100
AcDbPoint
 10
236.9617984133492
 20
-8.698134486764658
 30
0.0
  0
ENDBLK
  5
21FF
330
21FD
100
AcDbEntity
  8
0
100
AcDbBlockEnd
  0
BLOCK
  5
220B
330
220A
100
AcDbEntity
  8
0
100
AcDbBlockBegin
  2
*D7
 70
     1
 10
0.0
 20
0.0
 30
0.0
  3
*D7
  1

  0
LINE
  5
2385
330
220A
100
AcDbEntity
  8
0
 62
     0
370
    -2
100
AcDbLine
 10
125.0782445952095
 20
10.97730671606416
 30
0.0
 11
66.87521357707126
 21
10.97730671606418
 31
0.0
  0
LINE
  5
2386
330
220A
100
AcDbEntity
  8
0
 62
     0
370
    -2
100
AcDbLine
 10
128.2487879792201
 20
259.9826324574366
 30
0.0
 11
66.87521357707132
 21
259.9826324574366
 31
0.0
  0
LINE
  5
2387
330
220A
100
AcDbEntity
  8
0
 62
     0
370
    -2
100
AcDbLine
 10
67.05521357707126
 20
16.97730671606417
 30
0.0
 11
67.05521357707128
 21
149.8916533359525
 31
0.0
  0
LINE
  5
2388
330
220A
100
AcDbEntity
  8
0
 62
     0
370
    -2
100
AcDbLine
 10
67.05521357707131
 20
253.9826324574366
 30
0.0
 11
67.05521357707128
 21
157.0716533359525
 31
0.0
  0
SOLID
  5
2389
330
220A
100
AcDbEntity
  8
0
 62
     0
100
AcDbTrace
 10
66.05521357707125
 20
16.97730671606417
 30
0.0
 11
68.05521357707125
 21
16.97730671606417
 31
0.0
 12
67.05521357707126
 22
10.97730671606418
 32
0.0
 13
67.05521357707126
 23
10.97730671606418
 33
0.0
  0
SOLID
  5
238A
330
220A
100
AcDbEntity
  8
0
 62
     0
100
AcDbTrace
 10
66.05521357707131
 20
253.9826324574366
 30
0.0
 11
68.05521357707132
 21
253.9826324574366
 31
0.0
 12
67.05521357707131
 22
259.9826324574366
 32
0.0
 13
67.05521357707131
 23
259.9826324574366
 33
0.0
  0
MTEXT
  5
238B
330
220A
100
AcDbEntity
  8
0
 62
     0
100
AcDbMText
 10
67.05521357707127
 20
153.4816533359525
 30
0.0
 40
7.0
 41
0.0
 71
     5
 72
     1
  1
\A1;249.0
 73
     1
 44
1.0
1001
ACAD
1000
MTEXTBEGIN
1070
    73
1070
     1
1070
    44
1040
1.0
1070
    74
1070
     0
1000
MTEXTEND
  0
POINT
  5
238C
330
220A
100
AcDbEntity
  8
Defpoints
 62
     0
100
AcDbPoint
 10
125.1407445952095
 20
10.97730671606416
 30
0.0
  0
POINT
  5
238D
330
220A
100
AcDbEntity
  8
Defpoints
 62
     0
100
AcDbPoint
 10
128.3112879792201
 20
259.9826324574366
 30
0.0
  0
POINT
  5
238E
330
220A
100
AcDbEntity
  8
Defpoints
 62
     0
100
AcDbPoint
 10
67.05521357707131
 20
259.9826324574366
 30
0.0
  0
ENDBLK
  5
220C
330
220A
100
AcDbEntity
  8
0
100
AcDbBlockEnd
  0
BLOCK
  5
2218
330
2217
100
AcDbEntity
  8
0
100
AcDbBlockBegin
  2
*D8
 70
     1
 10
0.0
 20
0.0
 30
0.0
  3
*D8
  1

  0
LINE
  5
2371
330
2217
100
AcDbEntity
  8
0
 62
     0
370
    -2
100
AcDbLine
 10
344.1878976784537
 20
10.97730671606416
 30
0.0
 11
344.1878976784537
 21
-0.9502017841115666
 31
0.0
  0
LINE
  5
2372
330
2217
100
AcDbEntity
  8
0
 62
     0
370
    -2
100
AcDbLine
 10
376.1878976784537
 20
27.00962896012452
 30
0.0
 11
376.1878976784537
 21
-0.9502017841115666
 31
0.0
  0
LINE
  5
2373
330
2217
100
AcDbEntity
  8
0
 62
     0
370
    -2
100
AcDbLine
 10
338.1878976784537
 20
-0.770201784111567
 30
0.0
 11
332.1878976784537
 21
-0.770201784111567
 31
0.0
  0
LINE
  5
2374
330
2217
100
AcDbEntity
  8
0
 62
     0
370
    -2
100
AcDbLine
 10
382.1878976784537
 20
-0.770201784111567
 30
0.0
 11
388.1878976784537
 21
-0.770201784111567
 31
0.0
  0
SOLID
  5
2375
330
2217
100
AcDbEntity
  8
0
 62
     0
100
AcDbTrace
 10
338.1878976784537
 20
0.2297982158884331
 30
0.0
 11
338.1878976784537
 21
-1.770201784111566
 31
0.0
 12
344.1878976784537
 22
-0.770201784111567
 32
0.0
 13
344.1878976784537
 23
-0.770201784111567
 33
0.0
  0
SOLID
  5
2376
330
2217
100
AcDbEntity
  8
0
 62
     0
100
AcDbTrace
 10
382.1878976784537
 20
0.2297982158884331
 30
0.0
 11
382.1878976784537
 21
-1.770201784111566
 31
0.0
 12
376.1878976784537
 22
-0.770201784111567
 32
0.0
 13
376.1878976784537
 23
-0.770201784111567
 33
0.0
  0
MTEXT
  5
2377
330
2217
100
AcDbEntity
  8
0
 62
     0
100
AcDbMText
 10
360.1878976784537
 20
-0.770201784111567
 30
0.0
 40
7.0
 41
0.0
 71
     5
 72
     1
  1
\A1;32.0
 73
     1
 44
1.0
1001
ACAD
1000
MTEXTBEGIN
1070
    73
1070
     1
1070
    44
1040
1.0
1070
    74
1070
     0
1000
MTEXTEND
  0
POINT
  5
2378
330
2217
100
AcDbEntity
  8
Defpoints
 62
     0
100
AcDbPoint
 10
344.1878976784537
 20
11.03980671606416
 30
0.0
  0
POINT
  5
2379
330
2217
100
AcDbEntity
  8
Defpoints
 62
     0
100
AcDbPoint
 10
376.1878976784537
 20
27.07212896012452
 30
0.0
  0
POINT
  5
237A
330
2217
100
AcDbEntity
  8
Defpoints
 62
     0
100
AcDbPoint
 10
376.1878976784537
 20
-0.770201784111567
 30
0.0
  0
ENDBLK
  5
2219
330
2217
100
AcDbEntity
  8
0
100
AcDbBlockEnd
  0
BLOCK
  5
2332
330
2331
100
AcDbEntity
  8
0
100
AcDbBlockBegin
  2
*D10
 70
     1
 10
0.0
 20
0.0
 30
0.0
  3
*D10
  1

  0
LINE
  5
237B
330
2331
100
AcDbEntity
  8
0
 62
     0
370
    -2
100
AcDbLine
 10
271.6878976784536
 20
26.27571471652662
 30
0.0
 11
271.6878976784536
 21
-23.94947763727003
 31
0.0
  0
LINE
  5
237C
330
2331
100
AcDbEntity
  8
0
 62
     0
370
    -2
100
AcDbLine
 10
344.1878976784537
 20
10.91480671606416
 30
0.0
 11
344.1878976784537
 21
-23.94947763727003
 31
0.0
  0
LINE
  5
237D
330
2331
100
AcDbEntity
  8
0
 62
     0
370
    -2
100
AcDbLine
 10
277.6878976784536
 20
-23.76947763727003
 30
0.0
 11
303.0113294726927
 21
-23.76947763727003
 31
0.0
  0
LINE
  5
237E
330
2331
100
AcDbEntity
  8
0
 62
     0
370
    -2
100
AcDbLine
 10
338.1878976784537
 20
-23.76947763727003
 30
0.0
 11
324.1913294726927
 21
-23.76947763727003
 31
0.0
  0
SOLID
  5
237F
330
2331
100
AcDbEntity
  8
0
 62
     0
100
AcDbTrace
 10
277.6878976784536
 20
-22.76947763727003
 30
0.0
 11
277.6878976784536
 21
-24.76947763727003
 31
0.0
 12
271.6878976784536
 22
-23.76947763727003
 32
0.0
 13
271.6878976784536
 23
-23.76947763727003
 33
0.0
  0
SOLID
  5
2380
330
2331
100
AcDbEntity
  8
0
 62
     0
100
AcDbTrace
 10
338.1878976784537
 20
-22.76947763727003
 30
0.0
 11
338.1878976784537
 21
-24.76947763727003
 31
0.0
 12
344.1878976784537
 22
-23.76947763727003
 32
0.0
 13
344.1878976784537
 23
-23.76947763727003
 33
0.0
  0
MTEXT
  5
2381
330
2331
100
AcDbEntity
  8
0
 62
     0
100
AcDbMText
 10
313.6013294726927
 20
-23.76947763727003
 30
0.0
 40
7.0
 41
0.0
 71
     5
 72
     1
  1
\A1;72.5
 73
     1
 44
1.0
1001
ACAD
1000
MTEXTBEGIN
1070
    73
1070
     1
1070
    44
1040
1.0
1070
    74
1070
     0
1000
MTEXTEND
  0
POINT
  5
2382
330
2331
100
AcDbEntity
  8
Defpoints
 62
     0
100
AcDbPoint
 10
271.6878976784536
 20
26.33821471652662
 30
0.0
  0
POINT
  5
2383
330
2331
100
AcDbEntity
  8
Defpoints
 62
     0
100
AcDbPoint
 10
344.1878976784537
 20
10.97730671606416
 30
0.0
  0
POINT
  5
2384
330
2331
100
AcDbEntity
  8
Defpoints
 62
     0
100
AcDbPoint
 10
344.1878976784537
 20
-23.76947763727003
 30
0.0
  0
ENDBLK
  5
2333
330
2331
100
AcDbEntity
  8
0
100
AcDbBlockEnd
  0
ENDSEC
  0
SECTION
  2
ENTITIES
  0
LINE
  5
1A57
330
6F
100
AcDbEntity
  8
0
 62
     0
100
AcDbLine
 10
299.9013724457811
 20
58.69148730453748
 30
0.0
 11
300.9247784230053
 21
58.80865361472881
 31
0.0
  0
LINE
  5
1A58
330
6F
100
AcDbEntity
  8
0
 62
     0
100
AcDbLine
 10
300.9247784230053
 20
58.80865361472881
 30
0.0
 11
301.7150032914948
 21
59.37087917690004
 31
0.0
  0
LINE
  5
1A59
330
6F
100
AcDbEntity
  8
0
 62
     0
100
AcDbLine
 10
301.7150032914948
 20
59.37087917690004
 30
0.0
 11
302.1741685611636
 21
60.16743735945394
 31
0.0
  0
LINE
  5
1A5A
330
6F
100
AcDbEntity
  8
0
 62
     0
100
AcDbLine
 10
302.1741685611636
 20
60.16743735945394
 30
0.0
 11
302.4001527220978
 21
61.07324520961869
 31
0.0
  0
LINE
  5
1A5B
330
6F
100
AcDbEntity
  8
0
 62
     0
100
AcDbLine
 10
302.4001527220978
 20
83.743486842083
 30
0.0
 11
302.1741685611636
 21
84.64929469224774
 31
0.0
  0
LINE
  5
1A5C
330
6F
100
AcDbEntity
  8
0
 62
     0
100
AcDbLine
 10
302.1741685611636
 20
84.64929469224774
 30
0.0
 11
301.7150032914948
 21
85.43793623222114
 31
0.0
  0
LINE
  5
1A5D
330
6F
100
AcDbEntity
  8
0
 62
     0
100
AcDbLine
 10
301.7150032914948
 20
85.43793623222114
 30
0.0
 11
300.9247784230053
 21
86.00807843697287
 31
0.0
  0
LINE
  5
1A5E
330
6F
100
AcDbEntity
  8
0
 62
     0
100
AcDbLine
 10
300.9247784230053
 20
86.00807843697287
 30
0.0
 11
299.9013724457811
 21
86.12524474716421
 31
0.0
  0
LINE
  5
1A5F
330
6F
100
AcDbEntity
  8
0
 62
     0
100
AcDbLine
 10
299.9013724457811
 20
56.20033579288939
 30
0.0
 11
301.494776688801
 21
56.42689570964759
 31
0.0
  0
LINE
  5
1A60
330
6F
100
AcDbEntity
  8
0
 62
     0
100
AcDbLine
 10
301.494776688801
 20
56.42689570964759
 30
0.0
 11
302.8535604335261
 21
57.10614364305415
 31
0.0
  0
LINE
  5
1A61
330
6F
100
AcDbEntity
  8
0
 62
     0
100
AcDbLine
 10
302.8535604335261
 20
57.10614364305415
 30
0.0
 11
303.8697694629498
 21
58.23851140997709
 31
0.0
  0
LINE
  5
1A62
330
6F
100
AcDbEntity
  8
0
 62
     0
100
AcDbLine
 10
303.8697694629498
 20
58.23851140997709
 30
0.0
 11
304.5491613353124
 21
59.59729515470221
 31
0.0
  0
LINE
  5
1A63
330
6F
100
AcDbEntity
  8
0
 62
     0
100
AcDbLine
 10
304.5491613353124
 20
59.59729515470221
 30
0.0
 11
304.7751454962465
 21
61.07324520961869
 31
0.0
  0
LINE
  5
1A64
330
6F
100
AcDbEntity
  8
0
 62
     0
100
AcDbLine
 10
304.7751454962465
 20
83.743486842083
 30
0.0
 11
304.5491613353124
 21
85.21152025441896
 31
0.0
  0
LINE
  5
1A65
330
6F
100
AcDbEntity
  8
0
 62
     0
100
AcDbLine
 10
304.5491613353124
 20
85.21152025441896
 30
0.0
 11
303.8697694629498
 21
86.57030399914408
 31
0.0
  0
LINE
  5
1A66
330
6F
100
AcDbEntity
  8
0
 62
     0
100
AcDbLine
 10
303.8697694629498
 20
86.57030399914408
 30
0.0
 11
302.8535604335261
 21
87.59327815950019
 31
0.0
  0
LINE
  5
1A67
330
6F
100
AcDbEntity
  8
0
 62
     0
100
AcDbLine
 10
302.8535604335261
 20
87.59327815950019
 30
0.0
 11
301.494776688801
 21
88.38998028101007
 31
0.0
  0
LINE
  5
1A68
330
6F
100
AcDbEntity
  8
0
 62
     0
100
AcDbLine
 10
301.494776688801
 20
88.38998028101007
 30
0.0
 11
299.9013724457811
 21
88.61639625881227
 31
0.0
  0
LINE
  5
1A69
330
6F
100
AcDbEntity
  8
0
 62
     0
100
AcDbLine
 10
274.8574334897721
 20
58.69148730453748
 30
0.0
 11
299.9013724457811
 21
58.69148730453748
 31
0.0
  0
LINE
  5
1A6A
330
6F
100
AcDbEntity
  8
0
 62
     0
100
AcDbLine
 10
299.9013724457811
 20
56.20033579288939
 30
0.0
 11
274.8574334897721
 21
56.20033579288939
 31
0.0
  0
LINE
  5
1A6B
330
6F
100
AcDbEntity
  8
0
 62
     0
100
AcDbLine
 10
302.4001527220978
 20
61.07324520961869
 30
0.0
 11
302.4001527220978
 21
70.03056644205987
 31
0.0
  0
LINE
  5
1A6C
330
6F
100
AcDbEntity
  8
0
 62
     0
100
AcDbLine
 10
302.4001527220978
 20
70.03056644205987
 30
0.0
 11
304.7751454962465
 21
70.03056644205987
 31
0.0
  0
LINE
  5
1A6D
330
6F
100
AcDbEntity
  8
0
 62
     0
100
AcDbLine
 10
304.7751454962465
 20
70.03056644205987
 30
0.0
 11
304.7751454962465
 21
61.07324520961869
 31
0.0
  0
LINE
  5
1A6E
330
6F
100
AcDbEntity
  8
0
 62
     0
100
AcDbLine
 10
274.8574334897721
 20
58.69148730453748
 30
0.0
 11
274.8574334897721
 21
56.20033579288939
 31
0.0
  0
LINE
  5
1A6F
330
6F
100
AcDbEntity
  8
0
 62
     0
100
AcDbLine
 10
274.8574334897721
 20
86.12524474716421
 30
0.0
 11
274.8574334897721
 21
88.61639625881227
 31
0.0
  0
LINE
  5
1A70
330
6F
100
AcDbEntity
  8
0
 62
     0
100
AcDbLine
 10
304.7751454962465
 20
74.78630954859784
 30
0.0
 11
302.4001527220978
 21
74.78630954859784
 31
0.0
  0
LINE
  5
1A71
330
6F
100
AcDbEntity
  8
0
 62
     0
100
AcDbLine
 10
304.7751454962465
 20
74.78630954859784
 30
0.0
 11
304.7751454962465
 21
83.743486842083
 31
0.0
  0
LINE
  5
1A72
330
6F
100
AcDbEntity
  8
0
 62
     0
100
AcDbLine
 10
302.4001527220978
 20
83.743486842083
 30
0.0
 11
302.4001527220978
 21
74.78630954859784
 31
0.0
  0
LINE
  5
1A73
330
6F
100
AcDbEntity
  8
0
 62
     0
100
AcDbLine
 10
274.8574334897721
 20
88.61639625881227
 30
0.0
 11
299.9013724457811
 21
88.61639625881227
 31
0.0
  0
LINE
  5
1A74
330
6F
100
AcDbEntity
  8
0
 62
     0
100
AcDbLine
 10
299.9013724457811
 20
86.12524474716421
 30
0.0
 11
274.8574334897721
 21
86.12524474716421
 31
0.0
  0
LINE
  5
1A75
330
6F
100
AcDbEntity
  8
0
 62
     0
100
AcDbLine
 10
274.8574334897721
 20
212.2668685404471
 30
0.0
 11
299.9013724457811
 21
212.2668685404471
 31
0.0
  0
LINE
  5
1A76
330
6F
100
AcDbEntity
  8
0
 62
     0
100
AcDbLine
 10
299.9013724457811
 20
214.7570124794031
 30
0.0
 11
274.8574334897721
 21
214.7570124794031
 31
0.0
  0
LINE
  5
1A77
330
6F
100
AcDbEntity
  8
0
 62
     0
100
AcDbLine
 10
302.4001527220978
 20
209.8846788184979
 30
0.0
 11
302.4001527220978
 21
200.9345545338571
 31
0.0
  0
LINE
  5
1A78
330
6F
100
AcDbEntity
  8
0
 62
     0
100
AcDbLine
 10
302.4001527220978
 20
200.9345545338571
 30
0.0
 11
304.7751454962465
 21
200.9345545338571
 31
0.0
  0
LINE
  5
1A79
330
6F
100
AcDbEntity
  8
0
 62
     0
100
AcDbLine
 10
304.7751454962465
 20
200.9345545338571
 30
0.0
 11
304.7751454962465
 21
209.8846788184979
 31
0.0
  0
LINE
  5
1A7A
330
6F
100
AcDbEntity
  8
0
 62
     0
100
AcDbLine
 10
274.8574334897721
 20
212.2668685404471
 30
0.0
 11
274.8574334897721
 21
214.7570124794031
 31
0.0
  0
LINE
  5
1A7B
330
6F
100
AcDbEntity
  8
0
 62
     0
100
AcDbLine
 10
274.8574334897721
 20
184.8407398624888
 30
0.0
 11
274.8574334897721
 21
182.3419595861723
 31
0.0
  0
LINE
  5
1A7C
330
6F
100
AcDbEntity
  8
0
 62
     0
100
AcDbLine
 10
304.7751454962465
 20
196.0636602625119
 30
0.0
 11
302.4001527220978
 21
196.0636602625119
 31
0.0
  0
LINE
  5
1A7D
330
6F
100
AcDbEntity
  8
0
 62
     0
100
AcDbLine
 10
304.7751454962465
 20
196.0636602625119
 30
0.0
 11
304.7751454962465
 21
187.2157326366376
 31
0.0
  0
LINE
  5
1A7E
330
6F
100
AcDbEntity
  8
0
 62
     0
100
AcDbLine
 10
302.4001527220978
 20
187.2157326366376
 30
0.0
 11
302.4001527220978
 21
196.0636602625119
 31
0.0
  0
LINE
  5
1A7F
330
6F
100
AcDbEntity
  8
0
 62
     0
100
AcDbLine
 10
274.8574334897721
 20
182.3419595861723
 30
0.0
 11
299.9013724457811
 21
182.3419595861723
 31
0.0
  0
LINE
  5
1A80
330
6F
100
AcDbEntity
  8
0
 62
     0
100
AcDbLine
 10
299.9013724457811
 20
184.8407398624888
 30
0.0
 11
274.8574334897721
 21
184.8407398624888
 31
0.0
  0
LINE
  5
1A81
330
6F
100
AcDbEntity
  8
0
 62
     0
100
AcDbLine
 10
304.7751454962465
 20
209.8846788184979
 30
0.0
 11
304.5491613353124
 21
211.3600531175903
 31
0.0
  0
LINE
  5
1A82
330
6F
100
AcDbEntity
  8
0
 62
     0
100
AcDbLine
 10
304.5491613353124
 20
211.3600531175903
 30
0.0
 11
303.8697694629498
 21
212.7202762518755
 31
0.0
  0
LINE
  5
1A83
330
6F
100
AcDbEntity
  8
0
 62
     0
100
AcDbLine
 10
303.8697694629498
 20
212.7202762518755
 30
0.0
 11
302.8535604335261
 21
213.7436822290996
 31
0.0
  0
LINE
  5
1A84
330
6F
100
AcDbEntity
  8
0
 62
     0
100
AcDbLine
 10
302.8535604335261
 20
213.7436822290996
 30
0.0
 11
301.494776688801
 21
214.4216347119021
 31
0.0
  0
LINE
  5
1A85
330
6F
100
AcDbEntity
  8
0
 62
     0
100
AcDbLine
 10
301.494776688801
 20
214.4216347119021
 30
0.0
 11
299.9013724457811
 21
214.7570124794031
 31
0.0
  0
LINE
  5
1A86
330
6F
100
AcDbEntity
  8
0
 62
     0
100
AcDbLine
 10
299.9013724457811
 20
182.3419595861723
 30
0.0
 11
301.494776688801
 21
182.5679437471064
 31
0.0
  0
LINE
  5
1A87
330
6F
100
AcDbEntity
  8
0
 62
     0
100
AcDbLine
 10
301.494776688801
 20
182.5679437471064
 30
0.0
 11
302.8535604335261
 21
183.2487750090291
 31
0.0
  0
LINE
  5
1A88
330
6F
100
AcDbEntity
  8
0
 62
     0
100
AcDbLine
 10
302.8535604335261
 20
183.2487750090291
 30
0.0
 11
303.8697694629498
 21
184.3801352032599
 31
0.0
  0
LINE
  5
1A89
330
6F
100
AcDbEntity
  8
0
 62
     0
100
AcDbLine
 10
303.8697694629498
 20
184.3801352032599
 30
0.0
 11
304.5491613353124
 21
185.7475552853456
 31
0.0
  0
LINE
  5
1A8A
330
6F
100
AcDbEntity
  8
0
 62
     0
100
AcDbLine
 10
304.5491613353124
 20
185.7475552853456
 30
0.0
 11
304.7751454962465
 21
187.2157326366376
 31
0.0
  0
LINE
  5
1A8B
330
6F
100
AcDbEntity
  8
0
 62
     0
100
AcDbLine
 10
302.4001527220978
 20
209.8846788184979
 30
0.0
 11
302.1741685611636
 21
210.7914942413546
 31
0.0
  0
LINE
  5
1A8C
330
6F
100
AcDbEntity
  8
0
 62
     0
100
AcDbLine
 10
302.1741685611636
 20
210.7914942413546
 30
0.0
 11
301.7150032914948
 21
211.5860372785244
 31
0.0
  0
LINE
  5
1A8D
330
6F
100
AcDbEntity
  8
0
 62
     0
100
AcDbLine
 10
301.7150032914948
 20
211.5860372785244
 30
0.0
 11
300.9247784230053
 21
212.1502779860798
 31
0.0
  0
LINE
  5
1A8E
330
6F
100
AcDbEntity
  8
0
 62
     0
100
AcDbLine
 10
300.9247784230053
 20
212.1502779860798
 30
0.0
 11
299.9013724457811
 21
212.2668685404471
 31
0.0
  0
LINE
  5
1A8F
330
6F
100
AcDbEntity
  8
0
 62
     0
100
AcDbLine
 10
300.9247784230053
 20
184.9501334690556
 30
0.0
 11
299.9013724457811
 21
184.8407398624888
 31
0.0
  0
LINE
  5
1A90
330
6F
100
AcDbEntity
  8
0
 62
     0
100
AcDbLine
 10
299.9013724457811
 20
184.8407398624888
 30
0.0
 11
300.9247784230053
 21
184.9501334690556
 31
0.0
  0
LINE
  5
1A91
330
6F
100
AcDbEntity
  8
0
 62
     0
100
AcDbLine
 10
300.9247784230053
 20
184.9501334690556
 30
0.0
 11
301.7150032914948
 21
185.5201317348514
 31
0.0
  0
LINE
  5
1A92
330
6F
100
AcDbEntity
  8
0
 62
     0
100
AcDbLine
 10
301.7150032914948
 20
185.5201317348514
 30
0.0
 11
302.1741685611636
 21
186.3089172137808
 31
0.0
  0
LINE
  5
1A93
330
6F
100
AcDbEntity
  8
0
 62
     0
100
AcDbLine
 10
302.1741685611636
 20
186.3089172137808
 30
0.0
 11
302.4001527220978
 21
187.2157326366376
 31
0.0
  0
LINE
  5
1A9C
330
6F
100
AcDbEntity
  8
0
 62
     0
100
AcDbLine
 10
299.9013724457811
 20
121.7115607191857
 30
0.0
 11
300.9247784230053
 21
121.9381206359439
 31
0.0
  0
LINE
  5
1A9D
330
6F
100
AcDbEntity
  8
0
 62
     0
100
AcDbLine
 10
300.9247784230053
 20
121.9381206359439
 30
0.0
 11
301.7150032914948
 21
122.3910965305043
 31
0.0
  0
LINE
  5
1A9E
330
6F
100
AcDbEntity
  8
0
 62
     0
100
AcDbLine
 10
301.7150032914948
 20
122.3910965305043
 30
0.0
 11
302.1741685611636
 21
123.1797380704777
 31
0.0
  0
LINE
  5
1A9F
330
6F
100
AcDbEntity
  8
0
 62
     0
100
AcDbLine
 10
302.1741685611636
 20
123.1797380704777
 30
0.0
 11
302.4001527220978
 21
124.2027122308338
 31
0.0
  0
LINE
  5
1AA0
330
6F
100
AcDbEntity
  8
0
 62
     0
100
AcDbLine
 10
302.4001527220978
 20
146.7559314920627
 30
0.0
 11
302.1741685611636
 21
147.6613075253595
 31
0.0
  0
LINE
  5
1AA1
330
6F
100
AcDbEntity
  8
0
 62
     0
100
AcDbLine
 10
302.1741685611636
 20
147.6613075253595
 30
0.0
 11
301.7150032914948
 21
148.4587293416494
 31
0.0
  0
LINE
  5
1AA2
330
6F
100
AcDbEntity
  8
0
 62
     0
100
AcDbLine
 10
301.7150032914948
 20
148.4587293416494
 30
0.0
 11
300.9247784230053
 21
149.0200912700846
 31
0.0
  0
LINE
  5
1AA3
330
6F
100
AcDbEntity
  8
0
 62
     0
100
AcDbLine
 10
300.9247784230053
 20
149.0200912700846
 30
0.0
 11
299.9013724457811
 21
149.2547117683793
 31
0.0
  0
LINE
  5
1AA4
330
6F
100
AcDbEntity
  8
0
 62
     0
100
AcDbLine
 10
299.9013724457811
 20
119.3298028141045
 30
0.0
 11
301.494776688801
 21
119.5563627308627
 31
0.0
  0
LINE
  5
1AA5
330
6F
100
AcDbEntity
  8
0
 62
     0
100
AcDbLine
 10
301.494776688801
 20
119.5563627308627
 30
0.0
 11
302.8535604335261
 21
120.2357546032253
 31
0.0
  0
LINE
  5
1AA6
330
6F
100
AcDbEntity
  8
0
 62
     0
100
AcDbLine
 10
302.8535604335261
 20
120.2357546032253
 30
0.0
 11
303.8697694629498
 21
121.2587287635813
 31
0.0
  0
LINE
  5
1AA7
330
6F
100
AcDbEntity
  8
0
 62
     0
100
AcDbLine
 10
303.8697694629498
 20
121.2587287635813
 30
0.0
 11
304.5491613353124
 21
122.6176564472625
 31
0.0
  0
LINE
  5
1AA8
330
6F
100
AcDbEntity
  8
0
 62
     0
100
AcDbLine
 10
304.5491613353124
 20
122.6176564472625
 30
0.0
 11
304.7751454962465
 21
124.2027122308338
 31
0.0
  0
LINE
  5
1AA9
330
6F
100
AcDbEntity
  8
0
 62
     0
100
AcDbLine
 10
304.7751454962465
 20
146.7559314920627
 30
0.0
 11
304.5491613353124
 21
148.340699397722
 31
0.0
  0
LINE
  5
1AAA
330
6F
100
AcDbEntity
  8
0
 62
     0
100
AcDbLine
 10
304.5491613353124
 20
148.340699397722
 30
0.0
 11
303.8697694629498
 21
149.5900895358803
 31
0.0
  0
LINE
  5
1AAB
330
6F
100
AcDbEntity
  8
0
 62
     0
100
AcDbLine
 10
303.8697694629498
 20
149.5900895358803
 30
0.0
 11
302.8535604335261
 21
150.7228891196713
 31
0.0
  0
LINE
  5
1AAC
330
6F
100
AcDbEntity
  8
0
 62
     0
100
AcDbLine
 10
302.8535604335261
 20
150.7228891196713
 30
0.0
 11
301.494776688801
 21
151.4022809920338
 31
0.0
  0
LINE
  5
1AAD
330
6F
100
AcDbEntity
  8
0
 62
     0
100
AcDbLine
 10
301.494776688801
 20
151.4022809920338
 30
0.0
 11
299.9013724457811
 21
151.628265152968
 31
0.0
  0
LINE
  5
1AAE
330
6F
100
AcDbEntity
  8
0
 62
     0
100
AcDbLine
 10
274.8574334897721
 20
121.7115607191857
 30
0.0
 11
299.9013724457811
 21
121.7115607191857
 31
0.0
  0
LINE
  5
1AAF
330
6F
100
AcDbEntity
  8
0
 62
     0
100
AcDbLine
 10
299.9013724457811
 20
119.3298028141045
 30
0.0
 11
274.8574334897721
 21
119.3298028141045
 31
0.0
  0
LINE
  5
1AB0
330
6F
100
AcDbEntity
  8
0
 62
     0
100
AcDbLine
 10
302.4001527220978
 20
124.2027122308338
 30
0.0
 11
302.4001527220978
 21
133.0427232141276
 31
0.0
  0
LINE
  5
1AB1
330
6F
100
AcDbEntity
  8
0
 62
     0
100
AcDbLine
 10
302.4001527220978
 20
133.0427232141276
 30
0.0
 11
304.7751454962465
 21
133.0427232141276
 31
0.0
  0
LINE
  5
1AB2
330
6F
100
AcDbEntity
  8
0
 62
     0
100
AcDbLine
 10
304.7751454962465
 20
133.0427232141276
 30
0.0
 11
304.7751454962465
 21
124.2027122308338
 31
0.0
  0
LINE
  5
1AB3
330
6F
100
AcDbEntity
  8
0
 62
     0
100
AcDbLine
 10
274.8574334897721
 20
121.7115607191857
 30
0.0
 11
274.8574334897721
 21
119.3298028141045
 31
0.0
  0
LINE
  5
1AB4
330
6F
100
AcDbEntity
  8
0
 62
     0
100
AcDbLine
 10
274.8574334897721
 20
149.2547117683793
 30
0.0
 11
274.8574334897721
 21
151.628265152968
 31
0.0
  0
LINE
  5
1AB6
330
6F
100
AcDbEntity
  8
0
 62
     0
100
AcDbLine
 10
304.7751454962465
 20
137.9152008139889
 30
0.0
 11
304.7751454962465
 21
146.7559314920627
 31
0.0
  0
LINE
  5
1AB7
330
6F
100
AcDbEntity
  8
0
 62
     0
100
AcDbLine
 10
302.4001527220978
 20
146.7559314920627
 30
0.0
 11
302.4001527220978
 21
137.9152008139889
 31
0.0
  0
LINE
  5
1AB8
330
6F
100
AcDbEntity
  8
0
 62
     0
100
AcDbLine
 10
274.8574334897721
 20
151.628265152968
 30
0.0
 11
299.9013724457811
 21
151.628265152968
 31
0.0
  0
LINE
  5
1AB9
330
6F
100
AcDbEntity
  8
0
 62
     0
100
AcDbLine
 10
299.9013724457811
 20
149.2547117683793
 30
0.0
 11
274.8574334897721
 21
149.2547117683793
 31
0.0
  0
LINE
  5
1ABA
330
6F
100
AcDbEntity
  8
0
 62
     0
100
AcDbLine
 10
357.4489936955644
 20
19.817461638314
 30
0.0
 11
357.4489936955644
 21
23.90172951506988
 31
0.0
  0
LINE
  5
1ABB
330
6F
100
AcDbEntity
  8
0
 62
     0
100
AcDbLine
 10
347.3588728793324
 20
135.4250568750329
 30
0.0
 11
347.3588728793324
 21
10.97730671606416
 31
0.0
  0
LINE
  5
1ABC
330
6F
100
AcDbEntity
  8
0
 62
     0
100
AcDbLine
 10
347.3588728793324
 20
10.97730671606416
 30
0.0
 11
344.1878976784537
 21
10.97730671606416
 31
0.0
  0
LINE
  5
1ABD
330
6F
100
AcDbEntity
  8
0
 62
     0
100
AcDbLine
 10
344.1878976784537
 20
10.97730671606416
 30
0.0
 11
344.1878976784537
 21
135.4250568750329
 31
0.0
  0
LINE
  5
1ABE
330
6F
100
AcDbEntity
  8
0
 62
     0
100
AcDbLine
 10
347.3588728793324
 20
10.97730671606416
 30
0.0
 11
357.4489936955644
 21
19.817461638314
 31
0.0
  0
LINE
  5
1ABF
330
6F
100
AcDbEntity
  8
0
 62
     0
100
AcDbLine
 10
332.8570230614238
 20
135.4250568750329
 30
0.0
 11
332.8570230614238
 21
16.19394235974298
 31
0.0
  0
LINE
  5
1AC0
330
6F
100
AcDbEntity
  8
0
 62
     0
100
AcDbLine
 10
332.8570230614238
 20
16.19394235974298
 30
0.0
 11
328.7734748794479
 21
16.19394235974298
 31
0.0
  0
LINE
  5
1AC1
330
6F
100
AcDbEntity
  8
0
 62
     0
100
AcDbLine
 10
328.7734748794479
 20
16.19394235974298
 30
0.0
 11
328.7734748794479
 21
135.4250568750329
 31
0.0
  0
LINE
  5
1AC2
330
6F
100
AcDbEntity
  8
0
 62
     0
100
AcDbLine
 10
332.8570230614238
 20
19.48150811498895
 30
0.0
 11
344.1878976784537
 21
21.40280529979733
 31
0.0
  0
LINE
  5
1AC3
330
6F
100
AcDbEntity
  8
0
 62
     0
100
AcDbLine
 10
271.6878976784536
 20
26.2757147165266
 30
0.0
 11
271.6878976784536
 21
135.4250568750329
 31
0.0
  0
LINE
  5
1AC4
330
6F
100
AcDbEntity
  8
0
 62
     0
100
AcDbLine
 10
271.6878976784536
 20
26.2757147165266
 30
0.0
 11
271.9138818393877
 21
25.14334694960365
 31
0.0
  0
LINE
  5
1AC5
330
6F
100
AcDbEntity
  8
0
 62
     0
100
AcDbLine
 10
271.9138818393877
 20
25.14334694960365
 30
0.0
 11
272.476683157383
 21
24.12800155391604
 31
0.0
  0
LINE
  5
1AC6
330
6F
100
AcDbEntity
  8
0
 62
     0
100
AcDbLine
 10
272.476683157383
 20
24.12800155391604
 30
0.0
 11
273.498649745047
 21
23.33158731031815
 31
0.0
  0
LINE
  5
1AC7
330
6F
100
AcDbEntity
  8
0
 62
     0
100
AcDbLine
 10
273.498649745047
 20
23.33158731031815
 30
0.0
 11
274.7422823249649
 21
23.10502739355995
 31
0.0
  0
LINE
  5
1AC8
330
6F
100
AcDbEntity
  8
0
 62
     0
100
AcDbLine
 10
274.7422823249649
 20
23.10502739355995
 30
0.0
 11
328.7734748794479
 21
19.48150811498895
 31
0.0
  0
LINE
  5
1AC9
330
6F
100
AcDbEntity
  8
0
 62
     0
100
AcDbLine
 10
274.7422823249649
 20
247.8528966345566
 30
0.0
 11
273.498649745047
 21
247.508882529695
 31
0.0
  0
LINE
  5
1ACA
330
6F
100
AcDbEntity
  8
0
 62
     0
100
AcDbLine
 10
273.498649745047
 20
247.508882529695
 30
0.0
 11
272.476683157383
 21
246.8294906573325
 31
0.0
  0
LINE
  5
1ACB
330
6F
100
AcDbEntity
  8
0
 62
     0
100
AcDbLine
 10
272.476683157383
 20
246.8294906573325
 30
0.0
 11
271.9138818393877
 21
245.816160407029
 31
0.0
  0
LINE
  5
1ACC
330
6F
100
AcDbEntity
  8
0
 62
     0
100
AcDbLine
 10
271.9138818393877
 20
245.816160407029
 30
0.0
 11
271.6878976784536
 21
244.683360823238
 31
0.0
  0
LINE
  5
1ACD
330
6F
100
AcDbEntity
  8
0
 62
     0
100
AcDbLine
 10
274.7422823249649
 20
247.8528966345566
 30
0.0
 11
328.7734748794479
 21
251.4859158842242
 31
0.0
  0
LINE
  5
1ACE
330
6F
100
AcDbEntity
  8
0
 62
     0
100
AcDbLine
 10
271.6878976784536
 20
244.683360823238
 30
0.0
 11
271.6878976784536
 21
135.4250568750329
 31
0.0
  0
LINE
  5
1ACF
330
6F
100
AcDbEntity
  8
0
 62
     0
100
AcDbLine
 10
332.8570230614238
 20
251.4859158842242
 30
0.0
 11
344.1878976784537
 21
249.5571338737034
 31
0.0
  0
LINE
  5
1AD0
330
6F
100
AcDbEntity
  8
0
 62
     0
100
AcDbLine
 10
328.7734748794479
 20
135.4250568750329
 30
0.0
 11
328.7734748794479
 21
254.6540123059827
 31
0.0
  0
LINE
  5
1AD1
330
6F
100
AcDbEntity
  8
0
 62
     0
100
AcDbLine
 10
328.7734748794479
 20
254.6540123059827
 30
0.0
 11
332.8570230614238
 21
254.6540123059827
 31
0.0
  0
LINE
  5
1AD2
330
6F
100
AcDbEntity
  8
0
 62
     0
100
AcDbLine
 10
332.8570230614238
 20
254.6540123059827
 30
0.0
 11
332.8570230614238
 21
135.4250568750329
 31
0.0
  0
LINE
  5
1AD3
330
6F
100
AcDbEntity
  8
0
 62
     0
100
AcDbLine
 10
357.4489936955644
 20
251.1419017793627
 30
0.0
 11
347.3588728793324
 21
259.9826324574366
 31
0.0
  0
LINE
  5
1AD4
330
6F
100
AcDbEntity
  8
0
 62
     0
100
AcDbLine
 10
357.4489936955644
 20
251.1419017793627
 30
0.0
 11
357.4489936955644
 21
247.0655505451873
 31
0.0
  0
LINE
  5
1AD5
330
6F
100
AcDbEntity
  8
0
 62
     0
100
AcDbLine
 10
344.1878976784537
 20
135.4250568750329
 30
0.0
 11
344.1878976784537
 21
259.9826324574366
 31
0.0
  0
LINE
  5
1AD6
330
6F
100
AcDbEntity
  8
0
 62
     0
100
AcDbLine
 10
344.1878976784537
 20
259.9826324574366
 30
0.0
 11
347.3588728793324
 21
259.9826324574366
 31
0.0
  0
LINE
  5
1AD7
330
6F
100
AcDbEntity
  8
0
 62
     0
100
AcDbLine
 10
347.3588728793324
 20
259.9826324574366
 30
0.0
 11
347.3588728793324
 21
135.4250568750329
 31
0.0
  0
LINE
  5
1AFA
330
6F
100
AcDbEntity
  8
0
 62
     0
100
AcDbLine
 10
236.9617984133492
 20
236.3161658167883
 30
0.0
 11
236.7343748628549
 21
239.3763080215401
 31
0.0
  0
LINE
  5
1AFB
330
6F
100
AcDbEntity
  8
0
 62
     0
100
AcDbLine
 10
236.7343748628549
 20
239.3763080215401
 30
0.0
 11
236.0564223800525
 21
242.439329005412
 31
0.0
  0
LINE
  5
1AFC
330
6F
100
AcDbEntity
  8
0
 62
     0
100
AcDbLine
 10
236.0564223800525
 20
242.439329005412
 30
0.0
 11
235.1496069571957
 21
245.2662901014291
 31
0.0
  0
LINE
  5
1AFD
330
6F
100
AcDbEntity
  8
0
 62
     0
100
AcDbLine
 10
235.1496069571957
 20
245.2662901014291
 30
0.0
 11
233.7922626020306
 21
248.1018875348067
 31
0.0
  0
LINE
  5
1AFE
330
6F
100
AcDbEntity
  8
0
 62
     0
100
AcDbLine
 10
233.7922626020306
 20
248.1018875348067
 30
0.0
 11
232.0880253628839
 21
250.6006678111233
 31
0.0
  0
LINE
  5
1AFF
330
6F
100
AcDbEntity
  8
0
 62
     0
100
AcDbLine
 10
232.0880253628839
 20
250.6006678111233
 30
0.0
 11
230.0512891353562
 21
252.9727818061519
 31
0.0
  0
LINE
  5
1B00
330
6F
100
AcDbEntity
  8
0
 62
     0
100
AcDbLine
 10
230.0512891353562
 20
252.9727818061519
 30
0.0
 11
227.7856899677743
 21
254.9030032062328
 31
0.0
  0
LINE
  5
1B01
330
6F
100
AcDbEntity
  8
0
 62
     0
100
AcDbLine
 10
227.7856899677743
 20
254.9030032062328
 30
0.0
 11
225.1775160848909
 21
256.6058010558196
 31
0.0
  0
LINE
  5
1B02
330
6F
100
AcDbEntity
  8
0
 62
     0
100
AcDbLine
 10
225.1775160848909
 20
256.6058010558196
 30
0.0
 11
222.4599485954406
 21
257.9631454109846
 31
0.0
  0
LINE
  5
1B03
330
6F
100
AcDbEntity
  8
0
 62
     0
100
AcDbLine
 10
222.4599485954406
 20
257.9631454109846
 30
0.0
 11
219.5077606076957
 21
258.9793544404082
 31
0.0
  0
LINE
  5
1B04
330
6F
100
AcDbEntity
  8
0
 62
     0
100
AcDbLine
 10
219.5077606076957
 20
258.9793544404082
 30
0.0
 11
216.5642089573113
 21
259.5479133166438
 31
0.0
  0
LINE
  5
1B05
330
6F
100
AcDbEntity
  8
0
 62
     0
100
AcDbLine
 10
216.5642089573113
 20
259.5479133166438
 30
0.0
 11
213.4987074164373
 21
259.9826324574366
 31
0.0
  0
LINE
  5
1B06
330
6F
100
AcDbEntity
  8
0
 62
     0
100
AcDbLine
 10
216.6736025638781
 20
10.97730671606416
 30
0.0
 11
219.6257905516231
 21
11.20386663282235
 31
0.0
  0
LINE
  5
1B07
330
6F
100
AcDbEntity
  8
0
 62
     0
100
AcDbLine
 10
219.6257905516231
 20
11.20386663282235
 30
0.0
 11
222.3433580410734
 21
11.77400883757407
 31
0.0
  0
LINE
  5
1B08
330
6F
100
AcDbEntity
  8
0
 62
     0
100
AcDbLine
 10
222.3433580410734
 20
11.77400883757407
 30
0.0
 11
225.066683088764
 21
12.78921029430567
 31
0.0
  0
LINE
  5
1B09
330
6F
100
AcDbEntity
  8
0
 62
     0
100
AcDbLine
 10
225.066683088764
 20
12.78921029430567
 30
0.0
 11
227.667660023847
 21
14.15576674265529
 31
0.0
  0
LINE
  5
1B0A
330
6F
100
AcDbEntity
  8
0
 62
     0
100
AcDbLine
 10
227.667660023847
 20
14.15576674265529
 30
0.0
 11
229.9418955287894
 21
15.85036007174946
 31
0.0
  0
LINE
  5
1B0B
330
6F
100
AcDbEntity
  8
0
 62
     0
100
AcDbLine
 10
229.9418955287894
 20
15.85036007174946
 30
0.0
 11
231.978631756317
 21
17.88839174988114
 31
0.0
  0
LINE
  5
1B0C
330
6F
100
AcDbEntity
  8
0
 62
     0
100
AcDbLine
 10
231.978631756317
 20
17.88839174988114
 30
0.0
 11
233.6742326581032
 21
20.27043753287438
 31
0.0
  0
LINE
  5
1B0D
330
6F
100
AcDbEntity
  8
0
 62
     0
100
AcDbLine
 10
233.6742326581032
 20
20.27043753287438
 30
0.0
 11
235.0416527401889
 21
22.76130116661044
 31
0.0
  0
LINE
  5
1B0E
330
6F
100
AcDbEntity
  8
0
 62
     0
100
AcDbLine
 10
235.0416527401889
 20
22.76130116661044
 30
0.0
 11
236.0564223800525
 21
25.48678529864119
 31
0.0
  0
LINE
  5
1B0F
330
6F
100
AcDbEntity
  8
0
 62
     0
100
AcDbLine
 10
236.0564223800525
 20
25.48678529864119
 30
0.0
 11
236.734374862855
 21
28.3216630372388
 31
0.0
  0
LINE
  5
1B10
330
6F
100
AcDbEntity
  8
0
 62
     0
100
AcDbLine
 10
236.734374862855
 20
28.3216630372388
 30
0.0
 11
236.9617984133492
 21
31.15639683688039
 31
0.0
  0
LINE
  5
1B11
330
6F
100
AcDbEntity
  8
0
 62
     0
100
AcDbLine
 10
104.9617984133492
 20
31.1563968368804
 30
0.0
 11
105.0789647235406
 21
28.3216630372388
 31
0.0
  0
LINE
  5
1B12
330
6F
100
AcDbEntity
  8
0
 62
     0
100
AcDbLine
 10
105.0789647235406
 20
28.3216630372388
 30
0.0
 11
105.7583565959031
 21
25.48678529864119
 31
0.0
  0
LINE
  5
1B13
330
6F
100
AcDbEntity
  8
0
 62
     0
100
AcDbLine
 10
105.7583565959031
 20
25.48678529864119
 30
0.0
 11
106.7813307562592
 21
22.76130116661045
 31
0.0
  0
LINE
  5
1B14
330
6F
100
AcDbEntity
  8
0
 62
     0
100
AcDbLine
 10
106.7813307562592
 20
22.76130116661045
 30
0.0
 11
108.1401145009843
 21
20.27043753287438
 31
0.0
  0
LINE
  5
1B15
330
6F
100
AcDbEntity
  8
0
 62
     0
100
AcDbLine
 10
108.1401145009843
 20
20.27043753287438
 30
0.0
 11
109.8347078300785
 21
17.88839174988114
 31
0.0
  0
LINE
  5
1B16
330
6F
100
AcDbEntity
  8
0
 62
     0
100
AcDbLine
 10
109.8347078300785
 20
17.88839174988114
 30
0.0
 11
111.8806561507907
 21
15.85036007174946
 31
0.0
  0
LINE
  5
1B17
330
6F
100
AcDbEntity
  8
0
 62
     0
100
AcDbLine
 10
111.8806561507907
 20
15.85036007174946
 30
0.0
 11
114.1453916846366
 21
14.1557667426553
 31
0.0
  0
LINE
  5
1B18
330
6F
100
AcDbEntity
  8
0
 62
     0
100
AcDbLine
 10
114.1453916846366
 20
14.1557667426553
 30
0.0
 11
116.75356556752
 21
12.78921029430568
 31
0.0
  0
LINE
  5
1B19
330
6F
100
AcDbEntity
  8
0
 62
     0
100
AcDbLine
 10
116.75356556752
 20
12.78921029430568
 30
0.0
 11
119.4712769959263
 21
11.77400883757407
 31
0.0
  0
LINE
  5
1B1A
330
6F
100
AcDbEntity
  8
0
 62
     0
100
AcDbLine
 10
119.4712769959263
 20
11.77400883757407
 30
0.0
 11
122.3061547345239
 21
11.20386663282235
 31
0.0
  0
LINE
  5
1B1B
330
6F
100
AcDbEntity
  8
0
 62
     0
100
AcDbLine
 10
122.3061547345239
 20
11.20386663282235
 30
0.0
 11
125.1407445952095
 21
10.97730671606416
 31
0.0
  0
LINE
  5
1B1C
330
6F
100
AcDbEntity
  8
0
 62
     0
100
AcDbLine
 10
125.2499942628203
 20
259.7537695173822
 30
0.0
 11
122.3061547345239
 21
259.1852106411466
 31
0.0
  0
LINE
  5
1B1D
330
6F
100
AcDbEntity
  8
0
 62
     0
100
AcDbLine
 10
122.3061547345239
 20
259.1852106411466
 30
0.0
 11
119.3618833893594
 21
258.1690016117229
 31
0.0
  0
LINE
  5
1B1E
330
6F
100
AcDbEntity
  8
0
 62
     0
100
AcDbLine
 10
119.3618833893594
 20
258.1690016117229
 30
0.0
 11
116.6365431962846
 21
256.8116572565579
 31
0.0
  0
LINE
  5
1B1F
330
6F
100
AcDbEntity
  8
0
 62
     0
100
AcDbLine
 10
116.6365431962846
 20
256.8116572565579
 30
0.0
 11
114.0282253744453
 21
255.1088594069712
 31
0.0
  0
LINE
  5
1B20
330
6F
100
AcDbEntity
  8
0
 62
     0
100
AcDbLine
 10
114.0282253744453
 20
255.1088594069712
 30
0.0
 11
111.7634898405994
 21
253.1786380068902
 31
0.0
  0
LINE
  5
1B21
330
6F
100
AcDbEntity
  8
0
 62
     0
100
AcDbLine
 10
111.7634898405994
 20
253.1786380068902
 30
0.0
 11
109.7254581624677
 21
250.8065240118617
 31
0.0
  0
LINE
  5
1B22
330
6F
100
AcDbEntity
  8
0
 62
     0
100
AcDbLine
 10
109.7254581624677
 20
250.8065240118617
 30
0.0
 11
108.022948190793
 21
248.3077437355451
 31
0.0
  0
LINE
  5
1B23
330
6F
100
AcDbEntity
  8
0
 62
     0
100
AcDbLine
 10
108.022948190793
 20
248.3077437355451
 30
0.0
 11
106.6641644460679
 21
245.4721463021674
 31
0.0
  0
LINE
  5
1B24
330
6F
100
AcDbEntity
  8
0
 62
     0
100
AcDbLine
 10
106.6641644460679
 20
245.4721463021674
 30
0.0
 11
105.7583565959031
 21
242.6451852061504
 31
0.0
  0
LINE
  5
1B25
330
6F
100
AcDbEntity
  8
0
 62
     0
100
AcDbLine
 10
105.7583565959031
 20
242.6451852061504
 30
0.0
 11
105.0789647235406
 21
239.5821642222784
 31
0.0
  0
LINE
  5
1B26
330
6F
100
AcDbEntity
  8
0
 62
     0
100
AcDbLine
 10
105.0789647235406
 20
239.5821642222784
 30
0.0
 11
104.9617984133492
 21
236.5220220175267
 31
0.0
  0
LINE
  5
1B27
330
6F
100
AcDbEntity
  8
0
 62
     0
100
AcDbLine
 10
125.2499942628203
 20
259.7537695173822
 30
0.0
 11
128.3112879792201
 21
259.9826324574366
 31
0.0
  0
LINE
  5
1B2B
330
6F
100
AcDbEntity
  8
0
 62
     0
100
AcDbLine
 10
104.9617984133492
 20
31.1563968368804
 30
0.0
 11
104.9617984133492
 21
236.5220220175267
 31
0.0
  0
LINE
  5
1B2C
330
6F
100
AcDbEntity
  8
0
 62
     0
100
AcDbLine
 10
216.6736025638781
 20
10.97730671606416
 30
0.0
 11
125.1407445952095
 21
10.97730671606416
 31
0.0
  0
LINE
  5
1B2D
330
6F
100
AcDbEntity
  8
0
 62
     0
100
AcDbLine
 10
236.9617984133492
 20
236.3161658167883
 30
0.0
 11
236.9617984133492
 21
30.95054063614203
 31
0.0
  0
LINE
  5
1B2E
330
6F
100
AcDbEntity
  8
0
 62
     0
100
AcDbLine
 10
128.3112879792201
 20
259.9826324574366
 30
0.0
 11
213.4987074164373
 21
259.9826324574366
 31
0.0
  0
LINE
  5
1B43
330
6F
100
AcDbEntity
  8
0
 62
     0
100
AcDbLine
 10
357.4489936955644
 20
23.90172951506988
 30
0.0
 11
357.4489936955644
 21
135.4250568750329
 31
0.0
  0
LINE
  5
1B49
330
6F
100
AcDbEntity
  8
0
 62
     0
100
AcDbLine
 10
357.4489936955644
 20
135.5344504815997
 30
0.0
 11
357.4489936955644
 21
247.0655505451873
 31
0.0
  0
LINE
  5
1B4A
330
6F
100
AcDbEntity
  8
0
 62
     0
100
AcDbLine
 10
356.3176335013336
 20
142.4521567073931
 30
0.0
 11
356.3176335013336
 21
135.5344504815997
 31
0.0
  0
LINE
  5
1B4B
330
6F
100
AcDbEntity
  8
0
 62
     0
100
AcDbLine
 10
356.3176335013336
 20
153.1050788416206
 30
0.0
 11
356.3176335013336
 21
146.0765396197002
 31
0.0
  0
LINE
  5
1B4C
330
6F
100
AcDbEntity
  8
0
 62
     0
100
AcDbLine
 10
356.3176335013336
 20
163.7565615862879
 30
0.0
 11
356.3176335013336
 21
156.6186287578007
 31
0.0
  0
LINE
  5
1B4D
330
6F
100
AcDbEntity
  8
0
 62
     0
100
AcDbLine
 10
356.3176335013336
 20
174.2986507243884
 30
0.0
 11
356.3176335013336
 21
167.270111502468
 31
0.0
  0
LINE
  5
1B4E
330
6F
100
AcDbEntity
  8
0
 62
     0
100
AcDbLine
 10
356.3176335013336
 20
184.9501334690557
 30
0.0
 11
356.3176335013336
 21
177.9215942471353
 31
0.0
  0
LINE
  5
1B4F
330
6F
100
AcDbEntity
  8
0
 62
     0
100
AcDbLine
 10
356.3176335013336
 20
195.601616213723
 30
0.0
 11
356.3176335013336
 21
188.4651227747959
 31
0.0
  0
LINE
  5
1B50
330
6F
100
AcDbEntity
  8
0
 62
     0
100
AcDbLine
 10
356.3176335013336
 20
206.2602959061908
 30
0.0
 11
356.3176335013336
 21
199.1166055194632
 31
0.0
  0
LINE
  5
1B51
330
6F
100
AcDbEntity
  8
0
 62
     0
100
AcDbLine
 10
356.3176335013336
 20
216.8038244338513
 30
0.0
 11
356.3176335013336
 21
209.775285211931
 31
0.0
  0
LINE
  5
1B52
330
6F
100
AcDbEntity
  8
0
 62
     0
100
AcDbLine
 10
356.3176335013336
 20
227.4553071785187
 30
0.0
 11
356.3176335013336
 21
220.4267679565984
 31
0.0
  0
LINE
  5
1B53
330
6F
100
AcDbEntity
  8
0
 62
     0
100
AcDbLine
 10
356.3176335013336
 20
238.106789923186
 30
0.0
 11
356.3176335013336
 21
230.9702964842589
 31
0.0
  0
LINE
  5
1B54
330
6F
100
AcDbEntity
  8
0
 62
     0
100
AcDbLine
 10
356.3176335013336
 20
241.6217792289262
 30
0.0
 11
356.3176335013336
 21
248.6503184508466
 31
0.0
  0
LINE
  5
1C31
330
6F
100
AcDbEntity
  8
0
 62
     0
100
AcDbLine
 10
348.9522771223521
 20
22.30861314996207
 30
0.0
 11
355.8642257899052
 21
22.30861314996207
 31
0.0
  0
LINE
  5
1C32
330
6F
100
AcDbEntity
  8
0
 62
     0
100
AcDbLine
 10
348.9522771223521
 20
128.3963737141565
 30
0.0
 11
348.9522771223521
 21
135.4250568750329
 31
0.0
  0
LINE
  5
1C33
330
6F
100
AcDbEntity
  8
0
 62
     0
100
AcDbLine
 10
348.9522771223521
 20
117.853996698144
 30
0.0
 11
348.9522771223521
 21
124.8822480421524
 31
0.0
  0
LINE
  5
1C34
330
6F
100
AcDbEntity
  8
0
 62
     0
100
AcDbLine
 10
348.9522771223521
 20
107.2020821366087
 30
0.0
 11
348.9522771223521
 21
114.230621358529
 31
0.0
  0
LINE
  5
1C35
330
6F
100
AcDbEntity
  8
0
 62
     0
100
AcDbLine
 10
348.9522771223521
 20
96.55045545298538
 30
0.0
 11
348.9522771223521
 21
103.6881004035606
 31
0.0
  0
LINE
  5
1C36
330
6F
100
AcDbEntity
  8
0
 62
     0
100
AcDbLine
 10
348.9522771223521
 20
86.00807843697289
 30
0.0
 11
348.9522771223521
 21
93.03632978098121
 31
0.0
  0
LINE
  5
1C37
330
6F
100
AcDbEntity
  8
0
 62
     0
100
AcDbLine
 10
348.9522771223521
 20
75.35630781439355
 30
0.0
 11
348.9522771223521
 21
82.38470309735786
 31
0.0
  0
LINE
  5
1C38
330
6F
100
AcDbEntity
  8
0
 62
     0
100
AcDbLine
 10
348.9522771223521
 20
64.70453719181421
 30
0.0
 11
348.9522771223521
 21
71.84218214238939
 31
0.0
  0
LINE
  5
1C39
330
6F
100
AcDbEntity
  8
0
 62
     0
100
AcDbLine
 10
348.9522771223521
 20
54.04513780456639
 30
0.0
 11
348.9522771223521
 21
61.18263881618556
 31
0.0
  0
LINE
  5
1C3A
330
6F
100
AcDbEntity
  8
0
 62
     0
100
AcDbLine
 10
348.9522771223521
 20
43.50261684959789
 30
0.0
 11
348.9522771223521
 21
50.53101213256223
 31
0.0
  0
LINE
  5
1C3B
330
6F
100
AcDbEntity
  8
0
 62
     0
100
AcDbLine
 10
348.9522771223521
 20
32.85084622701856
 30
0.0
 11
348.9522771223521
 21
39.87909757102688
 31
0.0
  0
LINE
  5
1C3C
330
6F
100
AcDbEntity
  8
0
 62
     0
100
AcDbLine
 10
348.9522771223521
 20
29.33672055501439
 30
0.0
 11
348.9522771223521
 21
22.30861314996207
 31
0.0
  0
LINE
  5
1C3D
330
6F
100
AcDbEntity
  8
0
 62
     0
100
AcDbLine
 10
356.3176335013336
 20
128.3963737141565
 30
0.0
 11
356.3176335013336
 21
135.4250568750329
 31
0.0
  0
LINE
  5
1C3E
330
6F
100
AcDbEntity
  8
0
 62
     0
100
AcDbLine
 10
356.3176335013336
 20
117.853996698144
 30
0.0
 11
356.3176335013336
 21
124.8822480421524
 31
0.0
  0
LINE
  5
1C3F
330
6F
100
AcDbEntity
  8
0
 62
     0
100
AcDbLine
 10
356.3176335013336
 20
107.2020821366087
 30
0.0
 11
356.3176335013336
 21
114.230621358529
 31
0.0
  0
LINE
  5
1C40
330
6F
100
AcDbEntity
  8
0
 62
     0
100
AcDbLine
 10
356.3176335013336
 20
96.55045545298538
 30
0.0
 11
356.3176335013336
 21
103.6881004035606
 31
0.0
  0
LINE
  5
1C41
330
6F
100
AcDbEntity
  8
0
 62
     0
100
AcDbLine
 10
356.3176335013336
 20
86.00807843697289
 30
0.0
 11
356.3176335013336
 21
93.03632978098121
 31
0.0
  0
LINE
  5
1C42
330
6F
100
AcDbEntity
  8
0
 62
     0
100
AcDbLine
 10
356.3176335013336
 20
75.35630781439355
 30
0.0
 11
356.3176335013336
 21
82.38470309735786
 31
0.0
  0
LINE
  5
1C43
330
6F
100
AcDbEntity
  8
0
 62
     0
100
AcDbLine
 10
356.3176335013336
 20
64.70453719181421
 30
0.0
 11
356.3176335013336
 21
71.84218214238939
 31
0.0
  0
LINE
  5
1C44
330
6F
100
AcDbEntity
  8
0
 62
     0
100
AcDbLine
 10
356.3176335013336
 20
54.04513780456639
 30
0.0
 11
356.3176335013336
 21
61.18263881618556
 31
0.0
  0
LINE
  5
1C45
330
6F
100
AcDbEntity
  8
0
 62
     0
100
AcDbLine
 10
356.3176335013336
 20
43.50261684959789
 30
0.0
 11
356.3176335013336
 21
50.53101213256223
 31
0.0
  0
LINE
  5
1C46
330
6F
100
AcDbEntity
  8
0
 62
     0
100
AcDbLine
 10
356.3176335013336
 20
32.85084622701856
 30
0.0
 11
356.3176335013336
 21
39.87909757102688
 31
0.0
  0
LINE
  5
1C47
330
6F
100
AcDbEntity
  8
0
 62
     0
100
AcDbLine
 10
356.3176335013336
 20
22.30861314996207
 30
0.0
 11
356.3176335013336
 21
29.33672055501439
 31
0.0
  0
LINE
  5
1C48
330
6F
100
AcDbEntity
  8
0
 62
     0
100
AcDbLine
 10
357.4489936955644
 20
23.90172951506988
 30
0.0
 11
357.4489936955644
 21
23.90172951506988
 31
0.0
  0
LINE
  5
1C49
330
6F
100
AcDbEntity
  8
0
 62
     0
100
AcDbLine
 10
357.4489936955644
 20
23.90172951506988
 30
0.0
 11
357.4489936955644
 21
23.90172951506988
 31
0.0
  0
LINE
  5
1C4A
330
6F
100
AcDbEntity
  8
0
 62
     0
100
AcDbLine
 10
374.4865392184271
 20
135.4250568750329
 30
0.0
 11
374.4865392184271
 21
25.48678529864119
 31
0.0
  0
LINE
  5
1C4B
330
6F
100
AcDbEntity
  8
0
 62
     0
100
AcDbLine
 10
376.1878976784537
 20
27.07212896012452
 30
0.0
 11
376.1878976784537
 21
135.4250568750329
 31
0.0
  0
LINE
  5
1C4C
330
6F
100
AcDbEntity
  8
0
 62
     0
100
AcDbLine
 10
374.4865392184271
 20
25.48678529864119
 30
0.0
 11
359.1517915451511
 21
25.48678529864119
 31
0.0
  0
LINE
  5
1C4D
330
6F
100
AcDbEntity
  8
0
 62
     0
100
AcDbLine
 10
374.4865392184271
 20
25.48678529864119
 30
0.0
 11
375.2738853077965
 21
25.71334521539939
 31
0.0
  0
LINE
  5
1C4E
330
6F
100
AcDbEntity
  8
0
 62
     0
100
AcDbLine
 10
375.2738853077965
 20
25.71334521539939
 30
0.0
 11
375.953277180159
 21
26.27571471652662
 31
0.0
  0
LINE
  5
1C4F
330
6F
100
AcDbEntity
  8
0
 62
     0
100
AcDbLine
 10
375.953277180159
 20
26.27571471652662
 30
0.0
 11
376.1878976784537
 21
27.07212896012452
 31
0.0
  0
LINE
  5
1C50
330
6F
100
AcDbEntity
  8
0
 62
     0
100
AcDbLine
 10
358.6983838337227
 20
25.48678529864119
 30
0.0
 11
358.6983838337227
 21
135.4250568750329
 31
0.0
  0
LINE
  5
1C51
330
6F
100
AcDbEntity
  8
0
 62
     0
100
AcDbLine
 10
358.2464155118544
 20
25.26036932083901
 30
0.0
 11
359.1517915451511
 21
25.48678529864119
 31
0.0
  0
LINE
  5
1C52
330
6F
100
AcDbEntity
  8
0
 62
     0
100
AcDbLine
 10
359.1517915451511
 20
25.48678529864119
 30
0.0
 11
358.2464155118544
 21
25.26036932083901
 31
0.0
  0
LINE
  5
1C53
330
6F
100
AcDbEntity
  8
0
 62
     0
100
AcDbLine
 10
358.2464155118544
 20
25.26036932083901
 30
0.0
 11
357.6749778564986
 21
24.6903710550433
 31
0.0
  0
LINE
  5
1C54
330
6F
100
AcDbEntity
  8
0
 62
     0
100
AcDbLine
 10
357.6749778564986
 20
24.6903710550433
 30
0.0
 11
357.4489936955644
 21
23.90172951506988
 31
0.0
  0
LINE
  5
1C55
330
6F
100
AcDbEntity
  8
0
 62
     0
100
AcDbLine
 10
355.8642257899052
 20
22.30861314996207
 30
0.0
 11
356.6530112688346
 21
22.53502912776426
 31
0.0
  0
LINE
  5
1C56
330
6F
100
AcDbEntity
  8
0
 62
     0
100
AcDbLine
 10
356.6530112688346
 20
22.53502912776426
 30
0.0
 11
357.2230095346303
 21
23.10502739355997
 31
0.0
  0
LINE
  5
1C57
330
6F
100
AcDbEntity
  8
0
 62
     0
100
AcDbLine
 10
357.2230095346303
 20
23.10502739355997
 30
0.0
 11
357.4489936955644
 21
23.90172951506988
 31
0.0
  0
LINE
  5
1C58
330
6F
100
AcDbEntity
  8
0
 62
     0
100
AcDbLine
 10
357.4489936955644
 20
247.0655505451873
 30
0.0
 11
357.2230095346303
 21
247.8528966345566
 31
0.0
  0
LINE
  5
1C59
330
6F
100
AcDbEntity
  8
0
 62
     0
100
AcDbLine
 10
357.2230095346303
 20
247.8528966345566
 30
0.0
 11
356.6530112688346
 21
248.4228949003523
 31
0.0
  0
LINE
  5
1C5A
330
6F
100
AcDbEntity
  8
0
 62
     0
100
AcDbLine
 10
356.6530112688346
 20
248.4228949003523
 30
0.0
 11
355.8642257899052
 21
248.6503184508466
 31
0.0
  0
LINE
  5
1C5B
330
6F
100
AcDbEntity
  8
0
 62
     0
100
AcDbLine
 10
357.6749778564986
 20
246.2681287288973
 30
0.0
 11
357.4489936955644
 21
247.0655505451873
 31
0.0
  0
LINE
  5
1C5C
330
6F
100
AcDbEntity
  8
0
 62
     0
100
AcDbLine
 10
357.4489936955644
 20
247.0655505451873
 30
0.0
 11
357.6749778564986
 21
246.2681287288973
 31
0.0
  0
LINE
  5
1C5D
330
6F
100
AcDbEntity
  8
0
 62
     0
100
AcDbLine
 10
357.6749778564986
 20
246.2681287288973
 30
0.0
 11
358.2464155118544
 21
245.6981304631016
 31
0.0
  0
LINE
  5
1C5E
330
6F
100
AcDbEntity
  8
0
 62
     0
100
AcDbLine
 10
358.2464155118544
 20
245.6981304631016
 30
0.0
 11
359.1517915451511
 21
245.4721463021674
 31
0.0
  0
LINE
  5
1C5F
330
6F
100
AcDbEntity
  8
0
 62
     0
100
AcDbLine
 10
358.6983838337227
 20
245.4721463021674
 30
0.0
 11
358.6983838337227
 21
135.4250568750329
 31
0.0
  0
LINE
  5
1C60
330
6F
100
AcDbEntity
  8
0
 62
     0
100
AcDbLine
 10
376.1878976784537
 20
243.7765454003812
 30
0.0
 11
375.953277180159
 21
244.683360823238
 31
0.0
  0
LINE
  5
1C61
330
6F
100
AcDbEntity
  8
0
 62
     0
100
AcDbLine
 10
375.953277180159
 20
244.683360823238
 30
0.0
 11
375.2738853077965
 21
245.2447227516732
 31
0.0
  0
LINE
  5
1C62
330
6F
100
AcDbEntity
  8
0
 62
     0
100
AcDbLine
 10
375.2738853077965
 20
245.2447227516732
 30
0.0
 11
374.4865392184271
 21
245.4721463021674
 31
0.0
  0
LINE
  5
1C6D
330
6F
100
AcDbEntity
  8
0
 62
     0
100
AcDbLine
 10
374.4865392184271
 20
245.4721463021674
 30
0.0
 11
359.1517915451511
 21
245.4721463021674
 31
0.0
  0
LINE
  5
1C6E
330
6F
100
AcDbEntity
  8
0
 62
     0
100
AcDbLine
 10
376.1878976784537
 20
135.4250568750329
 30
0.0
 11
376.1878976784537
 21
243.7765454003812
 31
0.0
  0
LINE
  5
1C6F
330
6F
100
AcDbEntity
  8
0
 62
     0
100
AcDbLine
 10
374.4865392184271
 20
245.4721463021674
 30
0.0
 11
374.4865392184271
 21
135.4250568750329
 31
0.0
  0
LINE
  5
1C70
330
6F
100
AcDbEntity
  8
0
 62
     0
100
AcDbLine
 10
357.4489936955644
 20
247.0655505451873
 30
0.0
 11
357.4489936955644
 21
247.0655505451873
 31
0.0
  0
LINE
  5
1C71
330
6F
100
AcDbEntity
  8
0
 62
     0
100
AcDbLine
 10
357.4489936955644
 20
247.0655505451873
 30
0.0
 11
357.4489936955644
 21
247.0655505451873
 31
0.0
  0
LINE
  5
1C72
330
6F
100
AcDbEntity
  8
0
 62
     0
100
AcDbLine
 10
348.9522771223521
 20
142.4521567073931
 30
0.0
 11
348.9522771223521
 21
135.4250568750329
 31
0.0
  0
LINE
  5
1C73
330
6F
100
AcDbEntity
  8
0
 62
     0
100
AcDbLine
 10
348.9522771223521
 20
153.1050788416206
 30
0.0
 11
348.9522771223521
 21
146.0765396197002
 31
0.0
  0
LINE
  5
1C74
330
6F
100
AcDbEntity
  8
0
 62
     0
100
AcDbLine
 10
348.9522771223521
 20
163.7565615862879
 30
0.0
 11
348.9522771223521
 21
156.6186287578007
 31
0.0
  0
LINE
  5
1C75
330
6F
100
AcDbEntity
  8
0
 62
     0
100
AcDbLine
 10
348.9522771223521
 20
174.4080443309552
 30
0.0
 11
348.9522771223521
 21
167.270111502468
 31
0.0
  0
LINE
  5
1C76
330
6F
100
AcDbEntity
  8
0
 62
     0
100
AcDbLine
 10
348.9522771223521
 20
184.9501334690557
 30
0.0
 11
348.9522771223521
 21
177.9215942471353
 31
0.0
  0
LINE
  5
1C77
330
6F
100
AcDbEntity
  8
0
 62
     0
100
AcDbLine
 10
348.9522771223521
 20
195.601616213723
 30
0.0
 11
348.9522771223521
 21
188.5817133291632
 31
0.0
  0
LINE
  5
1C78
330
6F
100
AcDbEntity
  8
0
 62
     0
100
AcDbLine
 10
348.9522771223521
 20
206.2602959061908
 30
0.0
 11
348.9522771223521
 21
199.1166055194632
 31
0.0
  0
LINE
  5
1C79
330
6F
100
AcDbEntity
  8
0
 62
     0
100
AcDbLine
 10
348.9522771223521
 20
216.9146574299783
 30
0.0
 11
348.9522771223521
 21
209.775285211931
 31
0.0
  0
LINE
  5
1C7A
330
6F
100
AcDbEntity
  8
0
 62
     0
100
AcDbLine
 10
348.9522771223521
 20
227.4553071785187
 30
0.0
 11
348.9522771223521
 21
220.4267679565984
 31
0.0
  0
LINE
  5
1C7B
330
6F
100
AcDbEntity
  8
0
 62
     0
100
AcDbLine
 10
348.9522771223521
 20
238.106789923186
 30
0.0
 11
348.9522771223521
 21
230.9702964842589
 31
0.0
  0
LINE
  5
1C7C
330
6F
100
AcDbEntity
  8
0
 62
     0
100
AcDbLine
 10
348.9522771223521
 20
248.6503184508466
 30
0.0
 11
348.9522771223521
 21
241.6217792289262
 31
0.0
  0
LINE
  5
1C7D
330
6F
100
AcDbEntity
  8
0
 62
     0
100
AcDbLine
 10
348.9522771223521
 20
248.6503184508466
 30
0.0
 11
355.8642257899052
 21
248.6503184508466
 31
0.0
  0
LINE
  5
1DDF
330
6F
100
AcDbEntity
  8
0
 62
     0
100
AcDbLine
 10
210.5701286636528
 20
25.48678529864119
 30
0.0
 11
131.3534681630457
 21
25.48678529864119
 31
0.0
  0
LINE
  5
218B
330
6F
100
AcDbEntity
  8
0
 62
     7
100
AcDbLine
 10
215.3467740083493
 20
25.48678529864119
 30
0.0
 11
126.5768228183492
 21
25.48678529864119
 31
0.0
  0
ARC
  5
218C
330
6F
100
AcDbEntity
  8
0
 62
     7
100
AcDbCircle
 10
126.5768228183492
 20
32.6099220386412
 30
0.0
 40
7.123136749999998
100
AcDbArc
 50
180.0
 51
270.0
  0
CIRCLE
  5
218D
330
6F
100
AcDbEntity
  8
0
 62
     7
100
AcDbCircle
 10
126.5768228183492
 20
32.6099220386412
 30
0.0
 40
2.58835439
  0
ARC
  5
218E
330
6F
100
AcDbEntity
  8
0
 62
     7
100
AcDbCircle
 10
215.3467740083493
 20
32.6099220386412
 30
0.0
 40
7.123136749999998
100
AcDbArc
 50
270.0
 51
0.0
  0
CIRCLE
  5
218F
330
6F
100
AcDbEntity
  8
0
 62
     7
100
AcDbCircle
 10
215.3467740083493
 20
32.6099220386412
 30
0.0
 40
2.58835439
  0
LINE
  5
2190
330
6F
100
AcDbEntity
  8
0
 62
     7
100
AcDbLine
 10
119.4536860783492
 20
32.6099220386412
 30
0.0
 11
119.4536860783492
 21
238.3654962986412
 31
0.0
  0
LINE
  5
2191
330
6F
100
AcDbEntity
  8
0
 62
     7
100
AcDbLine
 10
222.4699107583493
 20
32.6099220386412
 30
0.0
 11
222.4699107583493
 21
238.3654962986412
 31
0.0
  0
LINE
  5
2192
330
6F
100
AcDbEntity
  8
0
 62
     7
100
AcDbLine
 10
126.5768228183492
 20
245.4886330386412
 30
0.0
 11
215.3467740083493
 21
245.4886330386412
 31
0.0
  0
ARC
  5
2193
330
6F
100
AcDbEntity
  8
0
 62
     7
100
AcDbCircle
 10
126.5768228183492
 20
238.3654962986412
 30
0.0
 40
7.123136749999998
100
AcDbArc
 50
90.0
 51
180.0
  0
CIRCLE
  5
2194
330
6F
100
AcDbEntity
  8
0
 62
     7
100
AcDbCircle
 10
126.5768228183492
 20
238.3654962986412
 30
0.0
 40
2.58835439
  0
CIRCLE
  5
2195
330
6F
100
AcDbEntity
  8
0
 62
     7
100
AcDbCircle
 10
215.3467740083493
 20
238.3654962986412
 30
0.0
 40
2.58835439
  0
ARC
  5
2196
330
6F
100
AcDbEntity
  8
0
 62
     7
100
AcDbCircle
 10
215.3467740083493
 20
238.3654962986412
 30
0.0
 40
7.123136749999998
100
AcDbArc
 50
0.0
 51
90.0
  0
ARC
  5
2197
330
6F
100
AcDbEntity
  8
0
 62
     7
100
AcDbCircle
 10
140.6950121983492
 20
42.26687495864118
 30
0.0
 40
7.123136749999998
100
AcDbArc
 50
180.0
 51
270.0
  0
ARC
  5
2198
330
6F
100
AcDbEntity
  8
0
 62
     7
100
AcDbCircle
 10
201.4606988683492
 20
42.25287900864119
 30
0.0
 40
7.123136749999998
100
AcDbArc
 50
270.0
 51
0.0
  0
LINE
  5
2199
330
6F
100
AcDbEntity
  8
0
 62
     7
100
AcDbLine
 10
140.6950121983492
 20
35.1437382086412
 30
0.0
 11
171.8257997083492
 21
35.1297422586412
 31
0.0
  0
LINE
  5
219A
330
6F
100
AcDbEntity
  8
0
 62
     7
100
AcDbLine
 10
201.4606988683492
 20
35.1297422586412
 30
0.0
 11
171.8257997083492
 21
35.1297422586412
 31
0.0
  0
ARC
  5
219B
330
6F
100
AcDbEntity
  8
0
 62
     7
100
AcDbCircle
 10
140.6950121983492
 20
112.8959421186412
 30
0.0
 40
7.123136749999998
100
AcDbArc
 50
90.0
 51
180.0
  0
LINE
  5
219C
330
6F
100
AcDbEntity
  8
0
 62
     7
100
AcDbLine
 10
208.5838356183493
 20
112.8819461686412
 30
0.0
 11
208.5838356183493
 21
42.25287900864119
 31
0.0
  0
CIRCLE
  5
219D
330
6F
100
AcDbEntity
  8
0
 62
     7
100
AcDbCircle
 10
201.4606988683492
 20
42.25287900864119
 30
0.0
 40
2.58835439
  0
CIRCLE
  5
219E
330
6F
100
AcDbEntity
  8
0
 62
     7
100
AcDbCircle
 10
140.6950121983492
 20
42.26687495864118
 30
0.0
 40
2.58835439
  0
CIRCLE
  5
219F
330
6F
100
AcDbEntity
  8
0
 62
     7
100
AcDbCircle
 10
201.4606988683492
 20
112.8819461686412
 30
0.0
 40
2.58835439
  0
ARC
  5
21A0
330
6F
100
AcDbEntity
  8
0
 62
     7
100
AcDbCircle
 10
201.4606988683492
 20
112.8819461686412
 30
0.0
 40
7.123136749999998
100
AcDbArc
 50
0.0
 51
90.0
  0
LINE
  5
21A1
330
6F
100
AcDbEntity
  8
0
 62
     7
100
AcDbLine
 10
171.8257997083492
 20
120.0050829186412
 30
0.0
 11
140.6950121983492
 21
120.0190788586412
 31
0.0
  0
CIRCLE
  5
21A2
330
6F
100
AcDbEntity
  8
0
 62
     7
100
AcDbCircle
 10
140.6950121983492
 20
112.8959421186412
 30
0.0
 40
2.58835439
  0
LINE
  5
21A3
330
6F
100
AcDbEntity
  8
0
 62
     7
100
AcDbLine
 10
171.8257997083492
 20
120.0050829186412
 30
0.0
 11
201.4606988683492
 21
120.0050829186412
 31
0.0
  0
LINE
  5
21A4
330
6F
100
AcDbEntity
  8
0
 62
     7
100
AcDbLine
 10
133.5718754483492
 20
112.8959421186412
 30
0.0
 11
133.5718754483492
 21
42.26687495864118
 31
0.0
  0
LINE
  5
21A5
330
6F
100
AcDbEntity
  8
0
 62
     7
370
    -3
100
AcDbLine
 10
210.9679660715875
 20
224.9163174287292
 30
0.0
 11
210.9679660715875
 21
147.8158344925544
 31
0.0
  0
ELLIPSE
  5
21A6
330
6F
100
AcDbEntity
  8
0
 62
     7
370
    -3
100
AcDbEllipse
 10
202.0253427404111
 20
147.8158344925544
 30
0.0
 11
8.942623331176378
 21
0.0000000000218488
 31
0.0
210
0.0
220
0.0
230
1.0
 40
0.9995442837440043
 41
-1.560757559459009
 42
-0.0000000000024443
  0
LINE
  5
21A7
330
6F
100
AcDbEntity
  8
0
 62
     7
370
    -3
100
AcDbLine
 10
130.955630430275
 20
224.9787993255248
 30
0.0
 11
130.955630430275
 21
147.8783158395117
 31
0.0
  0
ELLIPSE
  5
21A8
330
6F
100
AcDbEntity
  8
0
 62
     7
370
    -3
100
AcDbEllipse
 10
139.8982537614514
 20
147.8783158395117
 30
0.0
 11
8.942623331176372
 21
0.0000000000143152
 31
0.0
210
0.0
220
0.0
230
1.0
 40
0.9995442837440032
 41
3.141592653588191
 42
4.702350213044762
  0
ELLIPSE
  5
21A9
330
6F
100
AcDbEntity
  8
0
 62
     7
370
    -3
100
AcDbEllipse
 10
201.9960193660704
 20
220.5105672179683
 30
0.0
 11
2.336380511924544
 21
0.0000000000233956
 31
0.0
210
0.0
220
0.0
230
1.0
 40
0.9995442837440059
 41
-0.0000000000100182
 42
6.283185307169567
  0
ELLIPSE
  5
21AA
330
6F
100
AcDbEntity
  8
0
 62
     7
370
    -3
100
AcDbEllipse
 10
139.927422320744
 20
220.5105672179683
 30
0.0
 11
-2.316014806879362
 21
0.0000000000545116
 31
0.0
210
0.0
220
0.0
230
1.0
 40
0.9995442837440188
 41
3.141592653613339
 42
9.424777960792924
  0
ELLIPSE
  5
21AB
330
6F
100
AcDbEntity
  8
0
 62
     7
370
    -3
100
AcDbEllipse
 10
139.9275765757015
 20
153.4619681405729
 30
0.0
 11
2.311853133546343
 21
0.000000000014644
 31
0.0
210
0.0
220
0.0
230
1.0
 40
0.9995442837440007
 41
-0.0000000000063372
 42
6.283185307173248
  0
ELLIPSE
  5
21AC
330
6F
100
AcDbEntity
  8
0
 62
     7
370
    -3
100
AcDbEllipse
 10
201.9960193660704
 20
153.3992610300028
 30
0.0
 11
-2.319531495857916
 21
0.0000000000038011
 31
0.0
210
0.0
220
0.0
230
1.0
 40
0.9995442837440011
 41
3.141592653591431
 42
9.424777960771017
  0
ELLIPSE
  5
21AD
330
6F
100
AcDbEntity
  8
0
 62
     7
370
    -3
100
AcDbEllipse
 10
139.8982537614514
 20
224.9787993255248
 30
0.0
 11
8.942623331176372
 21
0.0000000000223293
 31
0.0
210
0.0
220
0.0
230
1.0
 40
0.9995442837440043
 41
1.570796326792399
 42
3.141592653587294
  0
ELLIPSE
  5
21AE
330
6F
100
AcDbEntity
  8
0
 62
     7
370
    -3
100
AcDbEllipse
 10
201.9173347653885
 20
224.8715994483394
 30
0.0
 11
9.050741874088286
 21
0.0000000000367795
 31
0.0
210
0.0
220
0.0
230
1.0
 40
0.9995442837440041
 41
0.0049430810117939
 42
1.558862439062788
  0
LINE
  5
21AF
330
6F
100
AcDbEntity
  8
0
 62
     7
370
    -3
100
AcDbLine
 10
139.8084823569931
 20
138.9402182047163
 30
0.0
 11
202.1151141448695
 21
138.8777368577591
 31
0.0
  0
LINE
  5
21B0
330
6F
100
AcDbEntity
  8
0
 62
     7
370
    -3
100
AcDbLine
 10
139.8982537614514
 20
233.917347367875
 30
0.0
 11
202.0253427404111
 21
233.9175725616553
 31
0.0
  0
DIMENSION
  5
21FA
330
6F
100
AcDbEntity
  8
0
 62
     1
100
AcDbDimension
  2
*D6
 10
236.9617984133492
 20
-8.698134486764658
 30
0.0
 11
162.022009650101
 21
-8.698134486764658
 31
0.0
 70
   160
 71
     0
 42
131.9999999999999
  3
Standard
100
AcDbAlignedDimension
 13
104.9617984133492
 23
31.21889683688041
 33
0.0
 14
236.9617984133492
 24
31.15639683688039
 34
0.0
100
AcDbRotatedDimension
1001
ACAD
1000
DSTYLE
1002
{
1070
    41
1040
6.0
1070
   140
1040
7.0
1070
   271
1070
     1
1002
}
  0
DIMENSION
  5
21FB
330
6F
100
AcDbEntity
  8
0
 62
     1
100
AcDbDimension
  2
*D7
 10
67.05521357707131
 20
259.9826324574366
 30
0.0
 11
67.05521357707127
 21
153.4816533359525
 31
0.0
 70
   160
 71
     0
 42
249.0053257413725
  3
Standard
100
AcDbAlignedDimension
 13
125.1407445952095
 23
10.97730671606416
 33
0.0
 14
128.3112879792201
 24
259.9826324574366
 34
0.0
 50
90.0
100
AcDbRotatedDimension
1001
ACAD
1000
DSTYLE
1002
{
1070
    41
1040
6.0
1070
   140
1040
7.0
1070
   271
1070
     1
1002
}
  0
DIMENSION
  5
21FC
330
6F
100
AcDbEntity
  8
0
 62
     1
100
AcDbDimension
  2
*D8
 10
376.1878976784537
 20
-0.770201784111567
 30
0.0
 11
360.1878976784537
 21
-0.770201784111567
 31
0.0
 70
   160
 71
     0
 42
32.0
  3
Standard
100
AcDbAlignedDimension
 13
344.1878976784537
 23
11.03980671606416
 33
0.0
 14
376.1878976784537
 24
27.07212896012452
 34
0.0
100
AcDbRotatedDimension
1001
ACAD
1000
DSTYLE
1002
{
1070
    41
1040
6.0
1070
   140
1040
7.0
1070
   271
1070
     1
1002
}
  0
DIMENSION
  5
2330
330
6F
100
AcDbEntity
  8
0
 62
     1
100
AcDbDimension
  2
*D10
 10
344.1878976784537
 20
-23.76947763727003
 30
0.0
 11
313.6013294726927
 21
-23.76947763727003
 31
0.0
 70
   160
 71
     0
 42
72.50000000000006
  3
Standard
100
AcDbAlignedDimension
 13
271.6878976784536
 23
26.33821471652662
 33
0.0
 14
344.1878976784537
 24
10.97730671606416
 34
0.0
100
AcDbRotatedDimension
1001
ACAD
1000
DSTYLE
1002
{
1070
    41
1040
6.0
1070
   140
1040
7.0
1070
   271
1070
     1
1002
}
  0
ENDSEC
  0
SECTION
  2
OBJECTS
  0
DICTIONARY
  5
C
330
0
100
AcDbDictionary
281
     1
  3
ACAD_CIP_PREVIOUS_PRODUCT_INFO
350
1538
  3
ACAD_COLOR
350
62
  3
ACAD_DETAILVIEWSTYLE
350
69
  3
ACAD_GROUP
350
D
  3
ACAD_LAYOUT
350
61
  3
ACAD_MATERIAL
350
10
  3
ACAD_MLEADERSTYLE
350
65
  3
ACAD_MLINESTYLE
350
5E
  3
ACAD_PLOTSETTINGS
350
60
  3
ACAD_PLOTSTYLENAME
350
E
  3
ACAD_SCALELIST
350
42
  3
ACAD_SECTIONVIEWSTYLE
350
67
  3
ACAD_TABLESTYLE
350
63
  3
ACAD_VISUALSTYLE
350
29
  3
ACDB_RECOMPOSE_DATA
350
239D
  3
AcDbVariableDictionary
350
2391
  3
DWGPROPS
350
239E
  0
DICTIONARY
  5
215B
330
2
100
AcDbDictionary
280
     1
281
     1
  3
ACAD_LAYERSTATES
360
215C
  0
DICTIONARY
  5
238F
330
54
100
AcDbDictionary
280
     1
281
     1
  3
ADSK_XREC_LAYER_RECONCILED
360
2390
  0
DICTIONARY
  5
15B4
330
6F
100
AcDbDictionary
280
     1
281
     1
  3
ACAD_SORTENTS
360
15B5
  0
XRECORD
  5
1538
102
{ACAD_REACTORS
330
C
102
}
330
C
100
AcDbXrecord
280
     1
300
ACDLT
300
2014
300
ACDLT_F_S
  0
DICTIONARY
  5
62
102
{ACAD_REACTORS
330
C
102
}
330
C
100
AcDbDictionary
281
     1
  0
DICTIONARY
  5
69
102
{ACAD_REACTORS
330
C
102
}
330
C
100
AcDbDictionary
281
     1
  3
Imperial24
350
6A
  3
Metric50
350
215E
  0
DICTIONARY
  5
D
102
{ACAD_REACTORS
330
C
102
}
330
C
100
AcDbDictionary
281
     1
  0
DICTIONARY
  5
61
102
{ACAD_REACTORS
330
C
102
}
330
C
100
AcDbDictionary
281
     1
  3
Layout1
350
6E
  3
Model
350
72
  0
DICTIONARY
  5
10
102
{ACAD_REACTORS
330
C
102
}
330
C
100
AcDbDictionary
281
     1
  3
ByBlock
350
19
  3
ByLayer
350
11
  3
Global
350
21
  0
DICTIONARY
  5
65
102
{ACAD_REACTORS
330
C
102
}
330
C
100
AcDbDictionary
281
     1
  3
Standard
350
66
  0
DICTIONARY
  5
5E
102
{ACAD_REACTORS
330
C
102
}
330
C
100
AcDbDictionary
281
     1
  3
Standard
350
5F
  0
DICTIONARY
  5
60
102
{ACAD_REACTORS
330
C
102
}
330
C
100
AcDbDictionary
281
     1
  0
ACDBDICTIONARYWDFLT
  5
E
102
{ACAD_REACTORS
330
C
102
}
330
C
100
AcDbDictionary
281
     1
  3
Normal
350
F
100
AcDbDictionaryWithDefault
340
F
  0
DICTIONARY
  5
42
102
{ACAD_REACTORS
330
C
102
}
330
C
100
AcDbDictionary
281
     1
  3
A0
350
43
  3
A1
350
44
  3
A2
350
45
  3
A3
350
46
  3
A4
350
47
  3
A5
350
48
  3
A6
350
49
  3
A7
350
4A
  3
A8
350
4B
  3
A9
350
4C
  3
B0
350
4D
  3
B1
350
4E
  3
B2
350
4F
  3
B3
350
50
  3
B4
350
51
  3
B5
350
52
  3
B6
350
53
  0
DICTIONARY
  5
67
102
{ACAD_REACTORS
330
C
102
}
330
C
100
AcDbDictionary
281
     1
  3
Imperial24
350
68
  3
Metric50
350
215D
  0
DICTIONARY
  5
63
102
{ACAD_REACTORS
330
C
102
}
330
C
100
AcDbDictionary
281
     1
  3
Standard
350
64
  0
DICTIONARY
  5
29
102
{ACAD_REACTORS
330
C
102
}
330
C
100
AcDbDictionary
281
     1
  3
2dWireframe
350
2F
  3
Basic
350
2E
  3
Brighten
350
35
  3
ColorChange
350
39
  3
Conceptual
350
32
  3
Dim
350
34
  3
EdgeColorOff
350
41
  3
Facepattern
350
38
  3
Flat
350
2A
  3
FlatWithEdges
350
2B
  3
Gouraud
350
2C
  3
GouraudWithEdges
350
2D
  3
Hidden
350
31
  3
JitterOff
350
3F
  3
Linepattern
350
37
  3
OverhangOff
350
40
  3
Realistic
350
33
  3
Shaded
350
3E
  3
Shaded with edges
350
3D
  3
Shades of Gray
350
3A
  3
Sketchy
350
3B
  3
Thicken
350
36
  3
Wireframe
350
30
  3
X-Ray
350
3C
  0
XRECORD
  5
239D
102
{ACAD_REACTORS
330
C
102
}
330
C
100
AcDbXrecord
280
     1
 90
        1
330
64
  0
DICTIONARY
  5
2391
102
{ACAD_REACTORS
330
C
102
}
330
C
100
AcDbDictionary
281
     1
  3
CANNOSCALE
350
2396
  3
CMLEADERSTYLE
350
2393
  3
CTABLESTYLE
350
2392
  3
CVIEWDETAILSTYLE
350
2394
  3
CVIEWSECTIONSTYLE
350
2395
  3
DIMASSOC
350
2399
  3
INDEXCTL
350
2398
  3
SORTENTS
350
2397
  3
XCLIPFRAME
350
239A
  0
XRECORD
  5
239E
102
{ACAD_REACTORS
330
C
102
}
330
C
100
AcDbXrecord
280
     1
  1
DWGPROPS COOKIE
  2

  3

  4

  6

  7

  8
FontanaNZ
  9

300
=
301
=
302
=
303
=
304
=
305
=
306
=
307
=
308
=
309
=
 40
0.0094560532407407
 41
2457183.686192605
 42
2457183.695648658
  1

 90
        0
  0
DICTIONARY
  5
215C
102
{ACAD_REACTORS
330
215B
102
}
330
215B
100
AcDbDictionary
281
     1
  0
XRECORD
  5
2390
102
{ACAD_REACTORS
330
238F
102
}
330
238F
100
AcDbXrecord
280
     1
290
     1
  0
SORTENTSTABLE
  5
15B5
102
{ACAD_REACTORS
330
15B4
102
}
330
15B4
100
AcDbSortentsTable
330
6F
331
1C60
  5
1A2D
331
1B50
  5
1B3F
331
1A60
  5
1C2D
331
1C71
  5
1A1F
331
1A71
  5
1C1E
331
1A82
  5
1C0B
331
1A93
  5
1C00
331
1AA4
  5
1BE7
331
1ABF
  5
1BD0
331
1AD0
  5
1BBE
331
1B03
  5
1B93
331
1B14
  5
1B77
331
1B25
  5
1B72
331
1C3E
  5
1A51
331
1C4F
  5
1A42
331
1C50
  5
1A3F
331
1C61
  5
1A2E
331
1B51
  5
1B3E
331
1A61
  5
1C2E
331
1C72
  5
1A1D
331
1A72
  5
1C1D
331
1A83
  5
1C0C
331
1AA5
  5
1BE8
331
1AB6
  5
1BD9
331
1AC0
  5
1BCE
331
1AD1
  5
1BBF
331
1B04
  5
1B94
331
1B15
  5
1B78
331
1B26
  5
1B73
331
1C3F
  5
1A50
331
1C40
  5
1A4F
331
1C51
  5
1A3B
331
1C62
  5
1A2F
331
1B52
  5
1B3D
331
1A62
  5
1C2F
331
1C73
  5
1A1C
331
1A73
  5
1C1C
331
1A84
  5
1C0D
331
1AA6
  5
1BE9
331
1AB7
  5
1BD8
331
1AC1
  5
1BCF
331
1AD2
  5
1BBD
331
1B05
  5
1B95
331
1B16
  5
1B79
331
1B27
  5
1B68
331
1C41
  5
1A4E
331
1C52
  5
1A3C
331
1B53
  5
1B3C
331
1A63
  5
1C30
331
1C74
  5
1A1B
331
1A74
  5
1C1B
331
1A85
  5
1C0E
331
1AA7
  5
1BEA
331
1AC2
  5
1BCD
331
1AD3
  5
1BBC
331
1B06
  5
1B7F
331
1B17
  5
1B7A
331
1B18
  5
1B7B
331
1C31
  5
1A5E
331
1C42
  5
1A4D
331
1C53
  5
1A3D
331
1B43
  5
1B4C
331
1B54
  5
1B3B
331
1A64
  5
1C27
331
1C75
  5
1A1A
331
1A75
  5
1C1A
331
1A86
  5
1C05
331
1AA8
  5
1BEB
331
1AC3
  5
1BCC
331
1AD4
  5
1BBB
331
1B07
  5
1B80
331
1B08
  5
1B81
331
1B19
  5
1B7C
331
1C32
  5
1A5D
331
1C43
  5
1A4C
331
1C54
  5
1A3E
331
1A65
  5
1C28
331
1C76
  5
1A19
331
1A76
  5
1C19
331
1DDF
  5
18B0
331
1A87
  5
1C06
331
1AA9
  5
1BE2
331
1AC4
  5
1BC7
331
1AD5
  5
1BBA
331
1B09
  5
1B82
331
1B1A
  5
1B7D
331
1C33
  5
1A5C
331
1B2B
  5
1B64
331
1C44
  5
1A4B
331
1C55
  5
1A38
331
1A66
  5
1C29
331
1C77
  5
1A18
331
1A77
  5
1C18
331
1A88
  5
1C07
331
1AAA
  5
1BE3
331
1AC5
  5
1BC8
331
1AD6
  5
1BB8
331
1B0A
  5
1B83
331
1B1B
  5
1B7E
331
1C34
  5
1A5B
331
1B2C
  5
1B63
331
1C45
  5
1A4A
331
1C56
  5
1A39
331
1A67
  5
1C2A
331
1C78
  5
1A17
331
1A78
  5
1C16
331
1A89
  5
1C08
331
1AAB
  5
1BE4
331
1AC6
  5
1BC9
331
1AD7
  5
1BB9
331
1AFA
  5
1B8A
331
1B0B
  5
1B84
331
1B1C
  5
1B69
331
1C35
  5
1A5A
331
1B2D
  5
1B62
331
1C46
  5
1A49
331
1C57
  5
1A3A
331
1A57
  5
1C35
331
1A68
  5
1C2B
331
1C79
  5
1A16
331
1A79
  5
1C17
331
1A8A
  5
1C09
331
1AAC
  5
1BE5
331
1AC7
  5
1BCA
331
1AC8
  5
1BCB
331
1AFB
  5
1B8B
331
1B0C
  5
1B85
331
1B1D
  5
1B6A
331
1C36
  5
1A59
331
1B2E
  5
1B61
331
1C47
  5
1A48
331
1C58
  5
1A35
331
1A58
  5
1C36
331
1A69
  5
1C26
331
1C7A
  5
1A15
331
1A7A
  5
1C15
331
1A8B
  5
1C01
331
1A9C
  5
1BF0
331
1AAD
  5
1BE6
331
1AB8
  5
1BD7
331
1AC9
  5
1BC3
331
1AFC
  5
1B8C
331
1B0D
  5
1B86
331
1B1E
  5
1B6B
331
1C37
  5
1A58
331
1C48
  5
1A46
331
1C59
  5
1A36
331
1B49
  5
1B47
331
1A59
  5
1C37
331
1A6A
  5
1C25
331
1C7B
  5
1A14
331
1A7B
  5
1C14
331
1A8C
  5
1C02
331
1A9D
  5
1BF1
331
1AAE
  5
1BE1
331
1AB9
  5
1BD6
331
1ACA
  5
1BC4
331
1AFD
  5
1B8D
331
1B0E
  5
1B87
331
1B1F
  5
1B6C
331
1C38
  5
1A57
331
1C49
  5
1A47
331
1C5A
  5
1A37
331
1B4A
  5
1B45
331
1A5A
  5
1C38
331
1A6B
  5
1C24
331
1C7C
  5
1A13
331
1A7C
  5
1C13
331
1A8D
  5
1C03
331
1A9E
  5
1BF2
331
1AAF
  5
1BE0
331
1AB0
  5
1BDF
331
1ABA
  5
1BD5
331
1ACB
  5
1BC5
331
1AFE
  5
1B8E
331
1B0F
  5
1B88
331
1B20
  5
1B6D
331
1C39
  5
1A56
331
1C4A
  5
1A45
331
1C5B
  5
1A31
331
1B4B
  5
1B44
331
1A5B
  5
1C31
331
1A6C
  5
1C22
331
1C7D
  5
1A12
331
1A7D
  5
1C12
331
1A8E
  5
1C04
331
1A9F
  5
1BF3
331
1AA0
  5
1BEC
331
1AB1
  5
1BDD
331
1ABB
  5
1BD3
331
1ACC
  5
1BC6
331
1AFF
  5
1B8F
331
1B10
  5
1B89
331
1B21
  5
1B6E
331
1C3A
  5
1A55
331
1C4B
  5
1A44
331
1C5C
  5
1A32
331
1B4C
  5
1B43
331
1A5C
  5
1C32
331
1C6D
  5
1A22
331
1A6D
  5
1C23
331
1A7E
  5
1C11
331
1A8F
  5
1BFC
331
1A90
  5
1BFD
331
1AA1
  5
1BED
331
1AB2
  5
1BDE
331
1ABC
  5
1BD4
331
1ACD
  5
1BC2
331
1B00
  5
1B90
331
1B11
  5
1B74
331
1B22
  5
1B6F
331
1C3B
  5
1A54
331
1C4C
  5
1A43
331
1C5D
  5
1A33
331
1A5D
  5
1C33
331
1B4D
  5
1B42
331
1C6E
  5
1A21
331
1A6E
  5
1C21
331
1A7F
  5
1C10
331
1A80
  5
1C0F
331
1A91
  5
1BFE
331
1AA2
  5
1BEE
331
1AB3
  5
1BDC
331
1ABD
  5
1BD2
331
1ACE
  5
1BC1
331
1B01
  5
1B91
331
1B12
  5
1B75
331
1B23
  5
1B70
331
1C3C
  5
1A53
331
1C4D
  5
1A40
331
1C5E
  5
1A34
331
1B4E
  5
1B41
331
1A5E
  5
1C34
331
1C6F
  5
1A20
331
1A6F
  5
1C20
331
1C70
  5
1A1E
331
1A70
  5
1C1F
331
1A81
  5
1C0A
331
1A92
  5
1BFF
331
1AA3
  5
1BEF
331
1AB4
  5
1BDB
331
1ABE
  5
1BD1
331
1ACF
  5
1BC0
331
1B02
  5
1B92
331
1B13
  5
1B76
331
1B24
  5
1B71
331
1C3D
  5
1A52
331
1C4E
  5
1A41
331
1C5F
  5
1A30
331
1B4F
  5
1B40
331
1A5F
  5
1C2C
  0
ACDBDETAILVIEWSTYLE
  5
6A
102
{ACAD_XDICTIONARY
360
23D6
102
}
102
{ACAD_REACTORS
330
69
102
}
330
69
100
AcDbModelDocViewStyle
 70
     0
  3
Imperial24
290
     0
100
AcDbDetailViewStyle
 70
     0
 71
     0
 90
        3
 71
     1
340
55
 40
0.24
340
0
 40
0.24
300

 40
0.36
280
     3
 71
     2
340
5C
 90
       25
 71
     3
340
55
 40
0.24
 90
        1
 40
0.75
 90
        1
300
%<\AcVar ViewType \f "%tc1">% %<\AcVar ViewDetailId>%\PSCALA %<\AcVar ViewScale \f "%sn">%
 71
     4
340
5C
 90
       25
340
5C
 90
       25
280
     0
  0
ACDBDETAILVIEWSTYLE
  5
215E
102
{ACAD_XDICTIONARY
360
23DE
102
}
102
{ACAD_REACTORS
330
69
102
}
330
69
100
AcDbModelDocViewStyle
 70
     0
  3
Metric50
290
     0
100
AcDbDetailViewStyle
 70
     0
 71
     0
 90
        3
 71
     1
340
55
 40
5.0
340
0
 40
5.0
300

 40
0.0
280
     1
 71
     2
340
5C
 90
       25
 71
     3
340
55
 40
5.0
 90
        0
 40
15.0
 90
        1
300
%<\AcVar ViewDetailId>% (%<\AcVar ViewScale \f "%sn">%)
 71
     4
340
5C
 90
       25
340
5C
 90
       25
280
     0
  0
LAYOUT
  5
6E
102
{ACAD_XDICTIONARY
360
23D8
102
}
102
{ACAD_REACTORS
330
61
102
}
330
61
100
AcDbPlotSettings
  1

  2
\\prn100c.italy.gewiss.local\W564C
  4

  6

 40
0.0
 41
0.0
 42
0.0
 43
0.0
 44
0.0
 45
0.0
 46
0.0
 47
0.0
 48
0.0
 49
0.0
140
0.0
141
0.0
142
1.0
143
1.0
 70
   688
 72
     0
 73
     0
 74
     5
  7

 75
    16
147
1.0
148
0.0
149
0.0
100
AcDbLayout
  1
Layout1
 70
     1
 71
     1
 10
0.0
 20
0.0
 11
12.0
 21
9.0
 12
0.0
 22
0.0
 32
0.0
 14
1.000000000000000E+20
 24
1.000000000000000E+20
 34
1.000000000000000E+20
 15
-1.000000000000000E+20
 25
-1.000000000000000E+20
 35
-1.000000000000000E+20
146
0.0
 13
0.0
 23
0.0
 33
0.0
 16
1.0
 26
0.0
 36
0.0
 17
0.0
 27
1.0
 37
0.0
 76
     0
330
6B
  0
LAYOUT
  5
72
102
{ACAD_XDICTIONARY
360
23DA
102
}
102
{ACAD_REACTORS
330
61
102
}
330
61
100
AcDbPlotSettings
  1

  2
\\prn100c.italy.gewiss.local\W564C
  4

  6

 40
0.0
 41
0.0
 42
0.0
 43
0.0
 44
0.0
 45
0.0
 46
0.0
 47
0.0
 48
0.0
 49
0.0
140
0.0
141
0.0
142
1.0
143
1.0
 70
  1712
 72
     0
 73
     0
 74
     0
  7

 75
     0
147
1.0
148
0.0
149
0.0
100
AcDbLayout
  1
Model
 70
     1
 71
     0
 10
0.0
 20
0.0
 11
12.0
 21
9.0
 12
0.0
 22
0.0
 32
0.0
 14
0.0
 24
0.0
 34
0.0
 15
0.0
 25
0.0
 35
0.0
146
0.0
 13
0.0
 23
0.0
 33
0.0
 16
1.0
 26
0.0
 36
0.0
 17
0.0
 27
1.0
 37
0.0
 76
     0
330
6F
331
74
  0
MATERIAL
  5
19
102
{ACAD_XDICTIONARY
360
1A
102
}
102
{ACAD_REACTORS
330
10
102
}
330
10
100
AcDbMaterial
  1
ByBlock
 72
     0
 43
0.0208333333333333
 43
0.0
 43
0.0
 43
0.0
 43
0.0
 43
0.0208333333333333
 43
0.0
 43
0.0
 43
0.0
 43
0.0
 43
1.0
 43
0.0
 43
0.0
 43
0.0
 43
0.0
 43
1.0
 77
     0
 47
0.0208333333333333
 47
0.0
 47
0.0
 47
0.0
 47
0.0
 47
0.0208333333333333
 47
0.0
 47
0.0
 47
0.0
 47
0.0
 47
1.0
 47
0.0
 47
0.0
 47
0.0
 47
0.0
 47
1.0
171
     0
 49
0.0208333333333333
 49
0.0
 49
0.0
 49
0.0
 49
0.0
 49
0.0208333333333333
 49
0.0
 49
0.0
 49
0.0
 49
0.0
 49
1.0
 49
0.0
 49
0.0
 49
0.0
 49
0.0
 49
1.0
175
     0
142
0.0208333333333333
142
0.0
142
0.0
142
0.0
142
0.0
142
0.0208333333333333
142
0.0
142
0.0
142
0.0
142
0.0
142
1.0
142
0.0
142
0.0
142
0.0
142
0.0
142
1.0
179
     0
144
0.0208333333333333
144
0.0
144
0.0
144
0.0
144
0.0
144
0.0208333333333333
144
0.0
144
0.0
144
0.0
144
0.0
144
1.0
144
0.0
144
0.0
144
0.0
144
0.0
144
1.0
147
0.0208333333333333
147
0.0
147
0.0
147
0.0
147
0.0
147
0.0208333333333333
147
0.0
147
0.0
147
0.0
147
0.0
147
1.0
147
0.0
147
0.0
147
0.0
147
0.0
147
1.0
  0
MATERIAL
  5
11
102
{ACAD_XDICTIONARY
360
12
102
}
102
{ACAD_REACTORS
330
10
102
}
330
10
100
AcDbMaterial
  1
ByLayer
 72
     0
 43
0.0208333333333333
 43
0.0
 43
0.0
 43
0.0
 43
0.0
 43
0.0208333333333333
 43
0.0
 43
0.0
 43
0.0
 43
0.0
 43
1.0
 43
0.0
 43
0.0
 43
0.0
 43
0.0
 43
1.0
 77
     0
 47
0.0208333333333333
 47
0.0
 47
0.0
 47
0.0
 47
0.0
 47
0.0208333333333333
 47
0.0
 47
0.0
 47
0.0
 47
0.0
 47
1.0
 47
0.0
 47
0.0
 47
0.0
 47
0.0
 47
1.0
171
     0
 49
0.0208333333333333
 49
0.0
 49
0.0
 49
0.0
 49
0.0
 49
0.0208333333333333
 49
0.0
 49
0.0
 49
0.0
 49
0.0
 49
1.0
 49
0.0
 49
0.0
 49
0.0
 49
0.0
 49
1.0
175
     0
142
0.0208333333333333
142
0.0
142
0.0
142
0.0
142
0.0
142
0.0208333333333333
142
0.0
142
0.0
142
0.0
142
0.0
142
1.0
142
0.0
142
0.0
142
0.0
142
0.0
142
1.0
179
     0
144
0.0208333333333333
144
0.0
144
0.0
144
0.0
144
0.0
144
0.0208333333333333
144
0.0
144
0.0
144
0.0
144
0.0
144
1.0
144
0.0
144
0.0
144
0.0
144
0.0
144
1.0
147
0.0208333333333333
147
0.0
147
0.0
147
0.0
147
0.0
147
0.0208333333333333
147
0.0
147
0.0
147
0.0
147
0.0
147
1.0
147
0.0
147
0.0
147
0.0
147
0.0
147
1.0
  0
MATERIAL
  5
21
102
{ACAD_XDICTIONARY
360
22
102
}
102
{ACAD_REACTORS
330
10
102
}
330
10
100
AcDbMaterial
  1
Global
 72
     0
 43
0.0208333333333333
 43
0.0
 43
0.0
 43
0.0
 43
0.0
 43
0.0208333333333333
 43
0.0
 43
0.0
 43
0.0
 43
0.0
 43
1.0
 43
0.0
 43
0.0
 43
0.0
 43
0.0
 43
1.0
 77
     0
 47
0.0208333333333333
 47
0.0
 47
0.0
 47
0.0
 47
0.0
 47
0.0208333333333333
 47
0.0
 47
0.0
 47
0.0
 47
0.0
 47
1.0
 47
0.0
 47
0.0
 47
0.0
 47
0.0
 47
1.0
171
     0
 49
0.0208333333333333
 49
0.0
 49
0.0
 49
0.0
 49
0.0
 49
0.0208333333333333
 49
0.0
 49
0.0
 49
0.0
 49
0.0
 49
1.0
 49
0.0
 49
0.0
 49
0.0
 49
0.0
 49
1.0
175
     0
142
0.0208333333333333
142
0.0
142
0.0
142
0.0
142
0.0
142
0.0208333333333333
142
0.0
142
0.0
142
0.0
142
0.0
142
1.0
142
0.0
142
0.0
142
0.0
142
0.0
142
1.0
179
     0
144
0.0208333333333333
144
0.0
144
0.0
144
0.0
144
0.0
144
0.0208333333333333
144
0.0
144
0.0
144
0.0
144
0.0
144
1.0
144
0.0
144
0.0
144
0.0
144
0.0
144
1.0
147
0.0208333333333333
147
0.0
147
0.0
147
0.0
147
0.0
147
0.0208333333333333
147
0.0
147
0.0
147
0.0
147
0.0
147
1.0
147
0.0
147
0.0
147
0.0
147
0.0
147
1.0
  0
MLEADERSTYLE
  5
66
102
{ACAD_REACTORS
330
65
102
}
330
65
100
AcDbMLeaderStyle
170
     2
171
     1
172
     0
 90
        2
 40
0.0
 41
0.0
173
     1
 91
-1056964608
340
5A
 92
       -2
290
     1
 42
0.09
291
     1
 43
0.36
  3
Standard
 44
0.18
300

342
55
174
     1
178
     6
175
     1
176
     0
 93
-1056964608
 45
0.18
292
     0
297
     0
 46
0.18
 94
-1056964608
 47
1.0
 49
1.0
140
1.0
293
     1
141
0.0
294
     1
177
     0
142
1.0
295
     0
296
     0
143
0.125
1001
ACAD_MLEADERVER
1070
     2
  0
MLINESTYLE
  5
5F
102
{ACAD_REACTORS
330
5E
102
}
330
5E
100
AcDbMlineStyle
  2
STANDARD
 70
     0
  3

 62
   256
 51
90.0
 52
90.0
 71
     2
 49
0.5
 62
   256
  6
BYLAYER
 49
-0.5
 62
   256
  6
BYLAYER
  0
ACDBPLACEHOLDER
  5
F
102
{ACAD_REACTORS
330
E
102
}
330
E
  0
SCALE
  5
43
102
{ACAD_REACTORS
330
42
102
}
330
42
100
AcDbScale
 70
     0
300
1:1
140
1.0
141
1.0
290
     1
  0
SCALE
  5
44
102
{ACAD_REACTORS
330
42
102
}
330
42
100
AcDbScale
 70
     0
300
1/128" = 1'-0"
140
0.0078125
141
12.0
290
     0
  0
SCALE
  5
45
102
{ACAD_REACTORS
330
42
102
}
330
42
100
AcDbScale
 70
     0
300
1/64" = 1'-0"
140
0.015625
141
12.0
290
     0
  0
SCALE
  5
46
102
{ACAD_REACTORS
330
42
102
}
330
42
100
AcDbScale
 70
     0
300
1/32" = 1'-0"
140
0.03125
141
12.0
290
     0
  0
SCALE
  5
47
102
{ACAD_REACTORS
330
42
102
}
330
42
100
AcDbScale
 70
     0
300
1/16" = 1'-0"
140
0.0625
141
12.0
290
     0
  0
SCALE
  5
48
102
{ACAD_REACTORS
330
42
102
}
330
42
100
AcDbScale
 70
     0
300
3/32" = 1'-0"
140
0.09375
141
12.0
290
     0
  0
SCALE
  5
49
102
{ACAD_REACTORS
330
42
102
}
330
42
100
AcDbScale
 70
     0
300
1/8" = 1'-0"
140
0.125
141
12.0
290
     0
  0
SCALE
  5
4A
102
{ACAD_REACTORS
330
42
102
}
330
42
100
AcDbScale
 70
     0
300
3/16" = 1'-0"
140
0.1875
141
12.0
290
     0
  0
SCALE
  5
4B
102
{ACAD_REACTORS
330
42
102
}
330
42
100
AcDbScale
 70
     0
300
1/4" = 1'-0"
140
0.25
141
12.0
290
     0
  0
SCALE
  5
4C
102
{ACAD_REACTORS
330
42
102
}
330
42
100
AcDbScale
 70
     0
300
3/8" = 1'-0"
140
0.375
141
12.0
290
     0
  0
SCALE
  5
4D
102
{ACAD_REACTORS
330
42
102
}
330
42
100
AcDbScale
 70
     0
300
1/2" = 1'-0"
140
0.5
141
12.0
290
     0
  0
SCALE
  5
4E
102
{ACAD_REACTORS
330
42
102
}
330
42
100
AcDbScale
 70
     0
300
3/4" = 1'-0"
140
0.75
141
12.0
290
     0
  0
SCALE
  5
4F
102
{ACAD_REACTORS
330
42
102
}
330
42
100
AcDbScale
 70
     0
300
1" = 1'-0"
140
1.0
141
12.0
290
     0
  0
SCALE
  5
50
102
{ACAD_REACTORS
330
42
102
}
330
42
100
AcDbScale
 70
     0
300
1-1/2" = 1'-0"
140
1.5
141
12.0
290
     0
  0
SCALE
  5
51
102
{ACAD_REACTORS
330
42
102
}
330
42
100
AcDbScale
 70
     0
300
3" = 1'-0"
140
3.0
141
12.0
290
     0
  0
SCALE
  5
52
102
{ACAD_REACTORS
330
42
102
}
330
42
100
AcDbScale
 70
     0
300
6" = 1'-0"
140
6.0
141
12.0
290
     0
  0
SCALE
  5
53
102
{ACAD_REACTORS
330
42
102
}
330
42
100
AcDbScale
 70
     0
300
1'-0" = 1'-0"
140
12.0
141
12.0
290
     0
  0
ACDBSECTIONVIEWSTYLE
  5
68
102
{ACAD_XDICTIONARY
360
23D4
102
}
102
{ACAD_REACTORS
330
67
102
}
330
67
100
AcDbModelDocViewStyle
 70
     0
  3
Imperial24
290
     0
100
AcDbSectionViewStyle
 70
     0
 71
     0
 90
       78
 71
     1
340
55
 40
0.24
340
0
340
0
 40
0.24
300
I, O, Q, S, X, Z
 40
0.48
 90
        3
 40
0.18
 90
        1
 71
     2
340
5C
 90
       25
340
5C
 90
       50
 40
0.24
 40
0.0
 40
0.24
 71
     3
340
55
 40
0.24
 90
        1
 40
0.75
 90
        1
300
%<\AcVar ViewType \f "%tc1">% %<\AcVar ViewSectionStartId>%-%<\AcVar ViewSectionEndId>%\PSCALA %<\AcVar ViewScale \f "%sn">%
 71
     4
300
ANSI31
 40
1.0
 90
        0
290
     0
290
     0
 90
        6
 40
0.0
 40
1.570796326794896
 40
0.2617993877991494
 40
1.308996938995747
 40
-0.2617993877991494
 40
1.832595714594046
  0
ACDBSECTIONVIEWSTYLE
  5
215D
102
{ACAD_XDICTIONARY
360
23DC
102
}
102
{ACAD_REACTORS
330
67
102
}
330
67
100
AcDbModelDocViewStyle
 70
     0
  3
Metric50
290
     0
100
AcDbSectionViewStyle
 70
     0
 71
     0
 90
      102
 71
     1
340
55
 40
5.0
340
0
340
0
 40
5.0
300
I, O, Q, S, X, Z
 40
10.0
 90
        0
 40
2.5
 90
        0
 71
     2
340
5C
 90
       25
340
5C
 90
       50
 40
5.0
 40
2.5
 40
5.0
 71
     3
340
55
 40
5.0
 90
        0
 40
15.0
 90
        1
300
%<\AcVar ViewSectionStartId>%-%<\AcVar ViewSectionEndId>% (%<\AcVar ViewScale \f "%sn">%)
 71
     4
300
ANSI31
 40
1.0
 90
        0
290
     0
290
     0
 90
        6
 40
0.0
 40
1.570796326794896
 40
0.2617993877991494
 40
1.308996938995747
 40
-0.2617993877991494
 40
1.832595714594046
  0
TABLESTYLE
  5
64
102
{ACAD_XDICTIONARY
360
239B
102
}
102
{ACAD_REACTORS
330
63
102
}
330
63
100
AcDbTableStyle
  3
Standard
 70
     0
 71
     0
 40
0.06
 41
0.06
280
     0
281
     0
  7
Standard
140
0.18
170
     2
 62
     0
 63
     7
283
     0
274
    -2
284
     1
 64
     0
275
    -2
285
     1
 65
     0
276
    -2
286
     1
 66
     0
277
    -2
287
     1
 67
     0
278
    -2
288
     1
 68
     0
279
    -2
289
     1
 69
     0
  7
Standard
140
0.25
170
     5
 62
     0
 63
     7
283
     0
274
    -2
284
     1
 64
     0
275
    -2
285
     1
 65
     0
276
    -2
286
     1
 66
     0
277
    -2
287
     1
 67
     0
278
    -2
288
     1
 68
     0
279
    -2
289
     1
 69
     0
  7
Standard
140
0.18
170
     5
 62
     0
 63
     7
283
     0
274
    -2
284
     1
 64
     0
275
    -2
285
     1
 65
     0
276
    -2
286
     1
 66
     0
277
    -2
287
     1
 67
     0
278
    -2
288
     1
 68
     0
279
    -2
289
     1
 69
     0
  0
VISUALSTYLE
  5
2F
102
{ACAD_XDICTIONARY
360
23AC
102
}
102
{ACAD_REACTORS
330
29
102
}
330
29
100
AcDbVisualStyle
  2
2dWireframe
 70
     4
 71
     0
 72
     2
 73
     0
 90
        0
 40
-0.6
 41
-30.0
 62
     5
 63
     7
 74
     1
 91
        4
 64
     7
 65
   257
 75
     1
175
     1
 42
1.0
 92
        0
 66
   257
 43
1.0
 76
     1
 77
     6
 78
     2
 67
     7
 79
     5
170
     0
171
     0
290
     0
174
     0
 93
        1
 44
0.0
173
     0
291
     0
 45
0.0
1001
ACAD
1000
AcDbSavedByObjectVersion
1070
     0
  0
VISUALSTYLE
  5
2E
102
{ACAD_XDICTIONARY
360
23AA
102
}
102
{ACAD_REACTORS
330
29
102
}
330
29
100
AcDbVisualStyle
  2
Basic
 70
     7
 71
     1
 72
     0
 73
     1
 90
        0
 40
-0.6
 41
-30.0
 62
     5
 63
     7
 74
     0
 91
        4
 64
     7
 65
   257
 75
     1
175
     1
 42
1.0
 92
        8
 66
     7
 43
1.0
 76
     1
 77
     6
 78
     2
 67
     7
 79
     5
170
     0
171
     0
290
     0
174
     0
 93
        1
 44
0.0
173
     0
291
     1
 45
0.0
1001
ACAD
1000
AcDbSavedByObjectVersion
1070
     0
  0
VISUALSTYLE
  5
35
102
{ACAD_XDICTIONARY
360
23B8
102
}
102
{ACAD_REACTORS
330
29
102
}
330
29
100
AcDbVisualStyle
  2
Brighten
 70
    12
 71
     2
 72
     2
 73
     0
 90
        0
 40
-0.6
 41
-30.0
 62
     5
 63
     7
 74
     1
 91
        4
 64
     7
 65
   257
 75
     1
175
     1
 42
1.0
 92
        8
 66
     7
 43
1.0
 76
     1
 77
     6
 78
     2
 67
     7
 79
     5
170
     0
171
     0
290
     0
174
     0
 93
        1
 44
50.0
173
     0
291
     1
 45
0.0
1001
ACAD
1000
AcDbSavedByObjectVersion
1070
     0
  0
VISUALSTYLE
  5
39
102
{ACAD_XDICTIONARY
360
23C0
102
}
102
{ACAD_REACTORS
330
29
102
}
330
29
100
AcDbVisualStyle
  2
ColorChange
 70
    16
 71
     2
 72
     2
 73
     3
 90
        0
 40
-0.6
 41
-30.0
 62
     5
 63
     8
 74
     1
 91
        4
 64
     7
 65
   257
 75
     1
175
     1
 42
1.0
 92
        8
 66
     8
 43
1.0
 76
     1
 77
     6
 78
     2
 67
     7
 79
     5
170
     0
171
     0
290
     0
174
     0
 93
        1
 44
0.0
173
     0
291
     1
 45
0.0
1001
ACAD
1000
AcDbSavedByObjectVersion
1070
     0
  0
VISUALSTYLE
  5
32
102
{ACAD_XDICTIONARY
360
23B2
102
}
102
{ACAD_REACTORS
330
29
102
}
330
29
100
AcDbVisualStyle
  2
Conceptual
 70
     9
 71
     3
 72
     2
 73
     0
 90
        0
 40
-0.6
 41
-30.0
 62
     5
 63
     7
 74
     2
 91
        2
 64
     7
 65
   257
 75
     1
175
     1
 42
179.0
 92
        8
 66
     7
 43
1.0
 76
     1
 77
     6
 78
     2
 67
     7
 79
     3
170
     0
171
     0
290
     0
174
     0
 93
        1
 44
0.0
173
     0
291
     0
 45
0.0
1001
ACAD
1000
AcDbSavedByObjectVersion
1070
     0
  0
VISUALSTYLE
  5
34
102
{ACAD_XDICTIONARY
360
23B6
102
}
102
{ACAD_REACTORS
330
29
102
}
330
29
100
AcDbVisualStyle
  2
Dim
 70
    11
 71
     2
 72
     2
 73
     0
 90
        0
 40
-0.6
 41
-30.0
 62
     5
 63
     7
 74
     1
 91
        4
 64
     7
 65
   257
 75
     1
175
     1
 42
1.0
 92
        8
 66
     7
 43
1.0
 76
     1
 77
     6
 78
     2
 67
     7
 79
     5
170
     0
171
     0
290
     0
174
     0
 93
        1
 44
-50.0
173
     0
291
     1
 45
0.0
1001
ACAD
1000
AcDbSavedByObjectVersion
1070
     0
  0
VISUALSTYLE
  5
41
102
{ACAD_XDICTIONARY
360
23D0
102
}
102
{ACAD_REACTORS
330
29
102
}
330
29
100
AcDbVisualStyle
  2
EdgeColorOff
 70
    22
 71
     2
 72
     2
 73
     0
 90
        0
 40
-0.6
 41
-30.0
 62
     5
 63
     7
 74
     1
 91
        4
 64
     7
 65
   257
 75
     1
175
     1
 42
1.0
 92
        8
 66
     7
 43
1.0
 76
     1
 77
     6
 78
     2
 67
     7
 79
     5
170
     0
171
     0
290
     0
174
     0
 93
        1
 44
0.0
173
     0
291
     1
 45
0.0
1001
ACAD
1000
AcDbSavedByObjectVersion
1070
     0
  0
VISUALSTYLE
  5
38
102
{ACAD_XDICTIONARY
360
23BE
102
}
102
{ACAD_REACTORS
330
29
102
}
330
29
100
AcDbVisualStyle
  2
Facepattern
 70
    15
 71
     2
 72
     2
 73
     0
 90
        0
 40
-0.6
 41
-30.0
 62
     5
 63
     7
 74
     1
 91
        4
 64
     7
 65
   257
 75
     1
175
     1
 42
1.0
 92
        8
 66
     7
 43
1.0
 76
     1
 77
     6
 78
     2
 67
     7
 79
     5
170
     0
171
     0
290
     0
174
     0
 93
        1
 44
0.0
173
     0
291
     1
 45
0.0
1001
ACAD
1000
AcDbSavedByObjectVersion
1070
     0
  0
VISUALSTYLE
  5
2A
102
{ACAD_XDICTIONARY
360
23A2
102
}
102
{ACAD_REACTORS
330
29
102
}
330
29
100
AcDbVisualStyle
  2
Flat
 70
     0
 71
     2
 72
     1
 73
     1
 90
        2
 40
-0.6
 41
30.0
 62
     5
 63
     7
 74
     0
 91
        0
 64
     7
 65
   257
 75
     1
175
     1
 42
1.0
 92
        8
 66
     7
 43
1.0
 76
     1
 77
     6
 78
     2
 67
     7
 79
     5
170
     0
171
     0
290
     0
174
     0
 93
       13
 44
0.0
173
     0
291
     1
 45
0.0
1001
ACAD
1000
AcDbSavedByObjectVersion
1070
     0
  0
VISUALSTYLE
  5
2B
102
{ACAD_XDICTIONARY
360
23A4
102
}
102
{ACAD_REACTORS
330
29
102
}
330
29
100
AcDbVisualStyle
  2
FlatWithEdges
 70
     1
 71
     2
 72
     1
 73
     1
 90
        2
 40
-0.6
 41
30.0
 62
     5
 63
     7
 74
     1
 91
        0
 64
     7
 65
   257
 75
     1
175
     1
 42
1.0
 92
        0
 66
   257
 43
1.0
 76
     1
 77
     6
 78
     2
 67
     7
 79
     5
170
     0
171
     0
290
     0
174
     0
 93
       13
 44
0.0
173
     0
291
     1
 45
0.0
1001
ACAD
1000
AcDbSavedByObjectVersion
1070
     0
  0
VISUALSTYLE
  5
2C
102
{ACAD_XDICTIONARY
360
23A6
102
}
102
{ACAD_REACTORS
330
29
102
}
330
29
100
AcDbVisualStyle
  2
Gouraud
 70
     2
 71
     2
 72
     2
 73
     1
 90
        2
 40
-0.6
 41
30.0
 62
     5
 63
     7
 74
     0
 91
        0
 64
     7
 65
   257
 75
     1
175
     1
 42
1.0
 92
        0
 66
     7
 43
1.0
 76
     1
 77
     6
 78
     2
 67
     7
 79
     5
170
     0
171
     0
290
     0
174
     0
 93
       13
 44
0.0
173
     0
291
     1
 45
0.0
1001
ACAD
1000
AcDbSavedByObjectVersion
1070
     0
  0
VISUALSTYLE
  5
2D
102
{ACAD_XDICTIONARY
360
23A8
102
}
102
{ACAD_REACTORS
330
29
102
}
330
29
100
AcDbVisualStyle
  2
GouraudWithEdges
 70
     3
 71
     2
 72
     2
 73
     1
 90
        2
 40
-0.6
 41
30.0
 62
     5
 63
     7
 74
     1
 91
        0
 64
     7
 65
   257
 75
     1
175
     1
 42
1.0
 92
        0
 66
   257
 43
1.0
 76
     1
 77
     6
 78
     2
 67
     7
 79
     5
170
     0
171
     0
290
     0
174
     0
 93
       13
 44
0.0
173
     0
291
     1
 45
0.0
1001
ACAD
1000
AcDbSavedByObjectVersion
1070
     0
  0
VISUALSTYLE
  5
31
102
{ACAD_XDICTIONARY
360
23B0
102
}
102
{ACAD_REACTORS
330
29
102
}
330
29
100
AcDbVisualStyle
  2
Hidden
 70
     6
 71
     1
 72
     2
 73
     2
 90
        0
 40
-0.6
 41
-30.0
 62
     5
 63
     7
 74
     2
 91
        2
 64
     7
 65
   257
 75
     2
175
     1
 42
40.0
 92
        0
 66
   257
 43
1.0
 76
     1
 77
     6
 78
     2
 67
     7
 79
     3
170
     0
171
     0
290
     0
174
     0
 93
        1
 44
0.0
173
     0
291
     0
 45
0.0
1001
ACAD
1000
AcDbSavedByObjectVersion
1070
     0
  0
VISUALSTYLE
  5
3F
102
{ACAD_XDICTIONARY
360
23CC
102
}
102
{ACAD_REACTORS
330
29
102
}
330
29
100
AcDbVisualStyle
  2
JitterOff
 70
    20
 71
     2
 72
     2
 73
     0
 90
        0
 40
-0.6
 41
-30.0
 62
     5
 63
     7
 74
     1
 91
        4
 64
     7
 65
   257
 75
     1
175
     1
 42
1.0
 92
       10
 66
     7
 43
1.0
 76
     1
 77
     6
 78
     2
 67
     7
 79
     5
170
     0
171
     0
290
     0
174
     0
 93
        1
 44
0.0
173
     0
291
     1
 45
0.0
1001
ACAD
1000
AcDbSavedByObjectVersion
1070
     0
  0
VISUALSTYLE
  5
37
102
{ACAD_XDICTIONARY
360
23BC
102
}
102
{ACAD_REACTORS
330
29
102
}
330
29
100
AcDbVisualStyle
  2
Linepattern
 70
    14
 71
     2
 72
     2
 73
     0
 90
        0
 40
-0.6
 41
-30.0
 62
     5
 63
     7
 74
     1
 91
        4
 64
     7
 65
   257
 75
     7
175
     7
 42
1.0
 92
        8
 66
     7
 43
1.0
 76
     1
 77
     6
 78
     2
 67
     7
 79
     5
170
     0
171
     0
290
     0
174
     0
 93
        1
 44
0.0
173
     0
291
     1
 45
0.0
1001
ACAD
1000
AcDbSavedByObjectVersion
1070
     0
  0
VISUALSTYLE
  5
40
102
{ACAD_XDICTIONARY
360
23CE
102
}
102
{ACAD_REACTORS
330
29
102
}
330
29
100
AcDbVisualStyle
  2
OverhangOff
 70
    21
 71
     2
 72
     2
 73
     0
 90
        0
 40
-0.6
 41
-30.0
 62
     5
 63
     7
 74
     1
 91
        4
 64
     7
 65
   257
 75
     1
175
     1
 42
1.0
 92
        9
 66
     7
 43
1.0
 76
     1
 77
     6
 78
     2
 67
     7
 79
     5
170
     0
171
     0
290
     0
174
     0
 93
        1
 44
0.0
173
     0
291
     1
 45
0.0
1001
ACAD
1000
AcDbSavedByObjectVersion
1070
     0
  0
VISUALSTYLE
  5
33
102
{ACAD_XDICTIONARY
360
23B4
102
}
102
{ACAD_REACTORS
330
29
102
}
330
29
100
AcDbVisualStyle
  2
Realistic
 70
     8
 71
     2
 72
     3
 73
     0
 90
        2
 40
-0.6
 41
30.0
 62
     5
 63
     7
 74
     0
 91
        0
 64
     7
 65
   257
 75
     1
175
     1
 42
1.0
 92
        8
 66
   257
 43
1.0
 76
     1
 77
     6
 78
     2
 67
     7
 79
     3
170
     0
171
     0
290
     0
174
     0
 93
       13
 44
0.0
173
     0
291
     0
 45
0.0
1001
ACAD
1000
AcDbSavedByObjectVersion
1070
     0
  0
VISUALSTYLE
  5
3E
102
{ACAD_XDICTIONARY
360
23CA
102
}
102
{ACAD_REACTORS
330
29
102
}
330
29
100
AcDbVisualStyle
  2
Shaded
 70
    27
 71
     2
 72
     2
 73
     1
 90
        2
 40
-0.6
 41
30.0
 62
     5
 63
     7
 74
     0
 91
        4
 64
     7
 65
   257
 75
     1
175
     1
 42
1.0
 92
        8
 66
   257
 43
1.0
 76
     1
 77
     6
 78
     2
 67
     8
 79
     3
170
     0
171
     0
290
     0
174
     0
 93
        5
 44
0.0
173
     0
291
     0
 45
0.0
1001
ACAD
1000
AcDbSavedByObjectVersion
1070
     0
  0
VISUALSTYLE
  5
3D
102
{ACAD_XDICTIONARY
360
23C8
102
}
102
{ACAD_REACTORS
330
29
102
}
330
29
100
AcDbVisualStyle
  2
Shaded with edges
 70
    26
 71
     2
 72
     2
 73
     1
 90
        2
 40
-0.6
 41
30.0
 62
     5
 63
     7
 74
     1
 91
       10
 64
     7
 65
   257
 75
     2
175
     1
 42
1.0
 92
        8
 66
   257
 43
1.0
 76
     1
 77
     6
 78
     2
 67
     7
 79
     3
170
     0
171
     0
290
     0
174
     0
 93
        5
 44
0.0
173
     0
291
     0
 45
0.0
1001
ACAD
1000
AcDbSavedByObjectVersion
1070
     0
  0
VISUALSTYLE
  5
3A
102
{ACAD_XDICTIONARY
360
23C2
102
}
102
{ACAD_REACTORS
330
29
102
}
330
29
100
AcDbVisualStyle
  2
Shades of Gray
 70
    23
 71
     2
 72
     2
 73
     3
 90
        0
 40
-0.6
 41
-30.0
 62
     5
 63
     7
 74
     2
 91
        2
 64
     7
 65
     7
 75
     1
175
     1
 42
40.0
 92
        8
 66
     7
 43
1.0
 76
     1
 77
     6
 78
     2
 67
     7
 79
     3
170
     0
171
     0
290
     0
174
     0
 93
        1
 44
0.0
173
     0
291
     0
 45
0.0
1001
ACAD
1000
AcDbSavedByObjectVersion
1070
     0
  0
VISUALSTYLE
  5
3B
102
{ACAD_XDICTIONARY
360
23C4
102
}
102
{ACAD_REACTORS
330
29
102
}
330
29
100
AcDbVisualStyle
  2
Sketchy
 70
    24
 71
     1
 72
     2
 73
     2
 90
        0
 40
-0.6
 41
-30.0
 62
     5
 63
     7
 74
     2
 91
        2
 64
     7
 65
     7
 75
     1
175
     1
 42
40.0
 92
       11
 66
     7
 43
1.0
 76
     1
 77
     6
 78
     2
 67
     7
 79
     6
170
     0
171
     0
290
     0
174
     0
 93
        1
 44
0.0
173
     0
291
     0
 45
0.0
1001
ACAD
1000
AcDbSavedByObjectVersion
1070
     0
  0
VISUALSTYLE
  5
36
102
{ACAD_XDICTIONARY
360
23BA
102
}
102
{ACAD_REACTORS
330
29
102
}
330
29
100
AcDbVisualStyle
  2
Thicken
 70
    13
 71
     2
 72
     2
 73
     0
 90
        0
 40
-0.6
 41
-30.0
 62
     5
 63
     7
 74
     1
 91
        4
 64
     7
 65
   257
 75
     1
175
     1
 42
1.0
 92
       12
 66
     7
 43
1.0
 76
     1
 77
     6
 78
     2
 67
     7
 79
     5
170
     0
171
     0
290
     0
174
     0
 93
        1
 44
0.0
173
     0
291
     1
 45
0.0
1001
ACAD
1000
AcDbSavedByObjectVersion
1070
     0
  0
VISUALSTYLE
  5
30
102
{ACAD_XDICTIONARY
360
23AE
102
}
102
{ACAD_REACTORS
330
29
102
}
330
29
100
AcDbVisualStyle
  2
Wireframe
 70
     5
 71
     0
 72
     2
 73
     0
 90
        0
 40
-0.6
 41
-30.0
 62
     5
 63
     7
 74
     1
 91
        4
 64
     7
 65
   257
 75
     1
175
     1
 42
1.0
 92
        0
 66
   257
 43
1.0
 76
     1
 77
     6
 78
     2
 67
     7
 79
     3
170
     0
171
     0
290
     0
174
     0
 93
        1
 44
0.0
173
     0
291
     0
 45
0.0
1001
ACAD
1000
AcDbSavedByObjectVersion
1070
     0
  0
VISUALSTYLE
  5
3C
102
{ACAD_XDICTIONARY
360
23C6
102
}
102
{ACAD_REACTORS
330
29
102
}
330
29
100
AcDbVisualStyle
  2
X-Ray
 70
    25
 71
     2
 72
     2
 73
     1
 90
        1
 40
0.5
 41
-30.0
 62
     5
 63
     7
 74
     1
 91
        0
 64
     7
 65
   257
 75
     1
175
     1
 42
1.0
 92
        8
 66
     7
 43
1.0
 76
     1
 77
     6
 78
     2
 67
     7
 79
     3
170
     0
171
     0
290
     0
174
     0
 93
       13
 44
0.0
173
     0
291
     0
 45
0.0
1001
ACAD
1000
AcDbSavedByObjectVersion
1070
     0
  0
DICTIONARYVAR
  5
2396
102
{ACAD_REACTORS
330
2391
102
}
330
2391
100
DictionaryVariables
280
     0
  1
1:1
  0
DICTIONARYVAR
  5
2393
102
{ACAD_REACTORS
330
2391
102
}
330
2391
100
DictionaryVariables
280
     0
  1
STANDARD
  0
DICTIONARYVAR
  5
2392
102
{ACAD_REACTORS
330
2391
102
}
330
2391
100
DictionaryVariables
280
     0
  1
STANDARD
  0
DICTIONARYVAR
  5
2394
102
{ACAD_REACTORS
330
2391
102
}
330
2391
100
DictionaryVariables
280
     0
  1
Imperial24
  0
DICTIONARYVAR
  5
2395
102
{ACAD_REACTORS
330
2391
102
}
330
2391
100
DictionaryVariables
280
     0
  1
Imperial24
  0
DICTIONARYVAR
  5
2399
102
{ACAD_REACTORS
330
2391
102
}
330
2391
100
DictionaryVariables
280
     0
  1
1
  0
DICTIONARYVAR
  5
2398
102
{ACAD_REACTORS
330
2391
102
}
330
2391
100
DictionaryVariables
280
     0
  1
0
  0
DICTIONARYVAR
  5
2397
102
{ACAD_REACTORS
330
2391
102
}
330
2391
100
DictionaryVariables
280
     0
  1
127
  0
DICTIONARYVAR
  5
239A
102
{ACAD_REACTORS
330
2391
102
}
330
2391
100
DictionaryVariables
280
     0
  1
2
  0
DICTIONARY
  5
23D6
330
6A
100
AcDbDictionary
280
     1
281
     1
  3
ACAD_XREC_ROUNDTRIP
360
23D7
  0
DICTIONARY
  5
23DE
330
215E
100
AcDbDictionary
280
     1
281
     1
  3
ACAD_XREC_ROUNDTRIP
360
23DF
  0
DICTIONARY
  5
23D8
330
6E
100
AcDbDictionary
280
     1
281
     1
  3
ACAD_XREC_ROUNDTRIP
360
23D9
  0
DICTIONARY
  5
23DA
330
72
100
AcDbDictionary
280
     1
281
     1
  3
ACAD_XREC_ROUNDTRIP
360
23DB
  0
DICTIONARY
  5
1A
330
19
100
AcDbDictionary
280
     1
281
     1
  3
ACAD_XREC_ROUNDTRIP
360
23A0
  3
BUMPTILE
360
1C
  3
DIFFUSETILE
360
1B
  3
OPACITYTILE
360
1F
  3
REFLECTIONTILE
360
1E
  3
REFRACTIONTILE
360
20
  3
SPECULARTILE
360
1D
  0
DICTIONARY
  5
12
330
11
100
AcDbDictionary
280
     1
281
     1
  3
ACAD_XREC_ROUNDTRIP
360
239F
  3
BUMPTILE
360
14
  3
DIFFUSETILE
360
13
  3
OPACITYTILE
360
17
  3
REFLECTIONTILE
360
16
  3
REFRACTIONTILE
360
18
  3
SPECULARTILE
360
15
  0
DICTIONARY
  5
22
330
21
100
AcDbDictionary
280
     1
281
     1
  3
ACAD_XREC_ROUNDTRIP
360
23A1
  3
BUMPTILE
360
24
  3
DIFFUSETILE
360
23
  3
OPACITYTILE
360
27
  3
REFLECTIONTILE
360
26
  3
REFRACTIONTILE
360
28
  3
SPECULARTILE
360
25
  0
DICTIONARY
  5
23D4
330
68
100
AcDbDictionary
280
     1
281
     1
  3
ACAD_XREC_ROUNDTRIP
360
23D5
  0
DICTIONARY
  5
23DC
330
215D
100
AcDbDictionary
280
     1
281
     1
  3
ACAD_XREC_ROUNDTRIP
360
23DD
  0
DICTIONARY
  5
239B
330
64
100
AcDbDictionary
280
     1
281
     1
  3
ACAD_ROUNDTRIP_2008_TABLESTYLE_CELLSTYLEMAP
360
239C
  3
ACAD_XREC_ROUNDTRIP
360
23D2
  0
DICTIONARY
  5
23AC
330
2F
100
AcDbDictionary
280
     1
281
     1
  3
ACAD_XREC_ROUNDTRIP
360
23AD
  0
DICTIONARY
  5
23AA
330
2E
100
AcDbDictionary
280
     1
281
     1
  3
ACAD_XREC_ROUNDTRIP
360
23AB
  0
DICTIONARY
  5
23B8
330
35
100
AcDbDictionary
280
     1
281
     1
  3
ACAD_XREC_ROUNDTRIP
360
23B9
  0
DICTIONARY
  5
23C0
330
39
100
AcDbDictionary
280
     1
281
     1
  3
ACAD_XREC_ROUNDTRIP
360
23C1
  0
DICTIONARY
  5
23B2
330
32
100
AcDbDictionary
280
     1
281
     1
  3
ACAD_XREC_ROUNDTRIP
360
23B3
  0
DICTIONARY
  5
23B6
330
34
100
AcDbDictionary
280
     1
281
     1
  3
ACAD_XREC_ROUNDTRIP
360
23B7
  0
DICTIONARY
  5
23D0
330
41
100
AcDbDictionary
280
     1
281
     1
  3
ACAD_XREC_ROUNDTRIP
360
23D1
  0
DICTIONARY
  5
23BE
330
38
100
AcDbDictionary
280
     1
281
     1
  3
ACAD_XREC_ROUNDTRIP
360
23BF
  0
DICTIONARY
  5
23A2
330
2A
100
AcDbDictionary
280
     1
281
     1
  3
ACAD_XREC_ROUNDTRIP
360
23A3
  0
DICTIONARY
  5
23A4
330
2B
100
AcDbDictionary
280
     1
281
     1
  3
ACAD_XREC_ROUNDTRIP
360
23A5
  0
DICTIONARY
  5
23A6
330
2C
100
AcDbDictionary
280
     1
281
     1
  3
ACAD_XREC_ROUNDTRIP
360
23A7
  0
DICTIONARY
  5
23A8
330
2D
100
AcDbDictionary
280
     1
281
     1
  3
ACAD_XREC_ROUNDTRIP
360
23A9
  0
DICTIONARY
  5
23B0
330
31
100
AcDbDictionary
280
     1
281
     1
  3
ACAD_XREC_ROUNDTRIP
360
23B1
  0
DICTIONARY
  5
23CC
330
3F
100
AcDbDictionary
280
     1
281
     1
  3
ACAD_XREC_ROUNDTRIP
360
23CD
  0
DICTIONARY
  5
23BC
330
37
100
AcDbDictionary
280
     1
281
     1
  3
ACAD_XREC_ROUNDTRIP
360
23BD
  0
DICTIONARY
  5
23CE
330
40
100
AcDbDictionary
280
     1
281
     1
  3
ACAD_XREC_ROUNDTRIP
360
23CF
  0
DICTIONARY
  5
23B4
330
33
100
AcDbDictionary
280
     1
281
     1
  3
ACAD_XREC_ROUNDTRIP
360
23B5
  0
DICTIONARY
  5
23CA
330
3E
100
AcDbDictionary
280
     1
281
     1
  3
ACAD_XREC_ROUNDTRIP
360
23CB
  0
DICTIONARY
  5
23C8
330
3D
100
AcDbDictionary
280
     1
281
     1
  3
ACAD_XREC_ROUNDTRIP
360
23C9
  0
DICTIONARY
  5
23C2
330
3A
100
AcDbDictionary
280
     1
281
     1
  3
ACAD_XREC_ROUNDTRIP
360
23C3
  0
DICTIONARY
  5
23C4
330
3B
100
AcDbDictionary
280
     1
281
     1
  3
ACAD_XREC_ROUNDTRIP
360
23C5
  0
DICTIONARY
  5
23BA
330
36
100
AcDbDictionary
280
     1
281
     1
  3
ACAD_XREC_ROUNDTRIP
360
23BB
  0
DICTIONARY
  5
23AE
330
30
100
AcDbDictionary
280
     1
281
     1
  3
ACAD_XREC_ROUNDTRIP
360
23AF
  0
DICTIONARY
  5
23C6
330
3C
100
AcDbDictionary
280
     1
281
     1
  3
ACAD_XREC_ROUNDTRIP
360
23C7
  0
XRECORD
  5
23D7
102
{ACAD_REACTORS
330
23D6
102
}
330
23D6
100
AcDbXrecord
280
     1
102
DISPLAYNAME
  1
Imperial24
102
FLAGS
 90
        0
  0
XRECORD
  5
23DF
102
{ACAD_REACTORS
330
23DE
102
}
330
23DE
100
AcDbXrecord
280
     1
102
DISPLAYNAME
  1
Metric50
102
FLAGS
 90
        0
  0
XRECORD
  5
23D9
102
{ACAD_REACTORS
330
23D8
102
}
330
23D8
100
AcDbXrecord
280
     1
102
SHADEPLOT
 70
     0
102
SHADEPLOTRESLEVEL
 70
     2
102
SHADEPLOTCUSTOMDPI
 70
   300
  0
XRECORD
  5
23DB
102
{ACAD_REACTORS
330
23DA
102
}
330
23DA
100
AcDbXrecord
280
     1
102
SHADEPLOT
 70
     0
102
SHADEPLOTRESLEVEL
 70
     2
102
SHADEPLOTCUSTOMDPI
 70
   300
  0
XRECORD
  5
23A0
102
{ACAD_REACTORS
330
1A
102
}
330
1A
100
AcDbXrecord
280
     1
102
MATERIAL
148
0.0
149
0.0
149
0.0
 93
        0
 94
      127
282
     0
 72
     0
 77
     0
171
     0
175
     0
179
     0
273
     0
  0
XRECORD
  5
1C
102
{ACAD_REACTORS
330
1A
102
}
330
1A
100
AcDbXrecord
280
     1
270
     1
271
     1
  0
XRECORD
  5
1B
102
{ACAD_REACTORS
330
1A
102
}
330
1A
100
AcDbXrecord
280
     1
270
     1
271
     1
  0
XRECORD
  5
1F
102
{ACAD_REACTORS
330
1A
102
}
330
1A
100
AcDbXrecord
280
     1
270
     1
271
     1
  0
XRECORD
  5
1E
102
{ACAD_REACTORS
330
1A
102
}
330
1A
100
AcDbXrecord
280
     1
270
     1
271
     1
  0
XRECORD
  5
20
102
{ACAD_REACTORS
330
1A
102
}
330
1A
100
AcDbXrecord
280
     1
270
     1
271
     1
  0
XRECORD
  5
1D
102
{ACAD_REACTORS
330
1A
102
}
330
1A
100
AcDbXrecord
280
     1
270
     1
271
     1
  0
XRECORD
  5
239F
102
{ACAD_REACTORS
330
12
102
}
330
12
100
AcDbXrecord
280
     1
102
MATERIAL
148
0.0
149
0.0
149
0.0
 93
        0
 94
      127
282
     0
 72
     0
 77
     0
171
     0
175
     0
179
     0
273
     0
  0
XRECORD
  5
14
102
{ACAD_REACTORS
330
12
102
}
330
12
100
AcDbXrecord
280
     1
270
     1
271
     1
  0
XRECORD
  5
13
102
{ACAD_REACTORS
330
12
102
}
330
12
100
AcDbXrecord
280
     1
270
     1
271
     1
  0
XRECORD
  5
17
102
{ACAD_REACTORS
330
12
102
}
330
12
100
AcDbXrecord
280
     1
270
     1
271
     1
  0
XRECORD
  5
16
102
{ACAD_REACTORS
330
12
102
}
330
12
100
AcDbXrecord
280
     1
270
     1
271
     1
  0
XRECORD
  5
18
102
{ACAD_REACTORS
330
12
102
}
330
12
100
AcDbXrecord
280
     1
270
     1
271
     1
  0
XRECORD
  5
15
102
{ACAD_REACTORS
330
12
102
}
330
12
100
AcDbXrecord
280
     1
270
     1
271
     1
  0
XRECORD
  5
23A1
102
{ACAD_REACTORS
330
22
102
}
330
22
100
AcDbXrecord
280
     1
102
MATERIAL
148
0.0
149
0.0
149
0.0
 93
        0
 94
      127
282
     0
 72
     0
 77
     0
171
     0
175
     0
179
     0
273
     0
  0
XRECORD
  5
24
102
{ACAD_REACTORS
330
22
102
}
330
22
100
AcDbXrecord
280
     1
270
     1
271
     1
  0
XRECORD
  5
23
102
{ACAD_REACTORS
330
22
102
}
330
22
100
AcDbXrecord
280
     1
270
     1
271
     1
  0
XRECORD
  5
27
102
{ACAD_REACTORS
330
22
102
}
330
22
100
AcDbXrecord
280
     1
270
     1
271
     1
  0
XRECORD
  5
26
102
{ACAD_REACTORS
330
22
102
}
330
22
100
AcDbXrecord
280
     1
270
     1
271
     1
  0
XRECORD
  5
28
102
{ACAD_REACTORS
330
22
102
}
330
22
100
AcDbXrecord
280
     1
270
     1
271
     1
  0
XRECORD
  5
25
102
{ACAD_REACTORS
330
22
102
}
330
22
100
AcDbXrecord
280
     1
270
     1
271
     1
  0
XRECORD
  5
23D5
102
{ACAD_REACTORS
330
23D4
102
}
330
23D4
100
AcDbXrecord
280
     1
102
DISPLAYNAME
  1
Imperial24
102
FLAGS
 90
        0
  0
XRECORD
  5
23DD
102
{ACAD_REACTORS
330
23DC
102
}
330
23DC
100
AcDbXrecord
280
     1
102
DISPLAYNAME
  1
Metric50
102
FLAGS
 90
        0
  0
CELLSTYLEMAP
  5
239C
102
{ACAD_REACTORS
330
239B
102
}
330
239B
100
AcDbCellStyleMap
 90
        3
300
CELLSTYLE
  1
TABLEFORMAT_BEGIN
 90
        5
170
     1
 91
        0
 92
    32768
 62
   257
 93
        1
300
CONTENTFORMAT
  1
CONTENTFORMAT_BEGIN
 90
        0
 91
        0
 92
      512
 93
        0
300

 40
0.0
140
1.0
 94
        5
 62
     0
340
55
144
0.25
309
CONTENTFORMAT_END
171
     0
 94
        0
309
TABLEFORMAT_END
  1
CELLSTYLE_BEGIN
 90
        1
 91
        1
300
_TITLE
309
CELLSTYLE_END
300
CELLSTYLE
  1
TABLEFORMAT_BEGIN
 90
        5
170
     1
 91
        0
 92
        0
 62
   257
 93
        1
300
CONTENTFORMAT
  1
CONTENTFORMAT_BEGIN
 90
        0
 91
        0
 92
      512
 93
        0
300

 40
0.0
140
1.0
 94
        5
 62
     0
340
55
144
0.18
309
CONTENTFORMAT_END
171
     0
 94
        0
309
TABLEFORMAT_END
  1
CELLSTYLE_BEGIN
 90
        2
 91
        1
300
_HEADER
309
CELLSTYLE_END
300
CELLSTYLE
  1
TABLEFORMAT_BEGIN
 90
        5
170
     1
 91
        0
 92
        0
 62
   257
 93
        1
300
CONTENTFORMAT
  1
CONTENTFORMAT_BEGIN
 90
        0
 91
        0
 92
      512
 93
        0
300

 40
0.0
140
1.0
 94
        2
 62
     0
340
55
144
0.18
309
CONTENTFORMAT_END
171
     0
 94
        0
309
TABLEFORMAT_END
  1
CELLSTYLE_BEGIN
 90
        3
 91
        2
300
_DATA
309
CELLSTYLE_END
  0
XRECORD
  5
23D2
102
{ACAD_REACTORS
330
239B
102
}
330
239B
100
AcDbXrecord
280
     1
102
ACAD_ROUNDTRIP_PRE2007_TABLESTYLE
 90
      512
 91
        0
  1

 92
      512
 93
        0
  2

 94
      512
 95
        0
  3

  0
XRECORD
  5
23AD
102
{ACAD_REACTORS
330
23AC
102
}
330
23AC
100
AcDbXrecord
280
     1
102
RTVSPost2010Prop28
280
     1
102
RTVSPost2010PropOp28
 70
     1
102
RTVSPost2010Prop29
280
     1
102
RTVSPost2010PropOp29
 70
     1
102
RTVSPost2010Prop30
280
     0
102
RTVSPost2010PropOp30
 70
     1
102
RTVSPost2010Prop31
280
     0
102
RTVSPost2010PropOp31
 70
     1
102
RTVSPost2010Prop32
280
     0
102
RTVSPost2010PropOp32
 70
     1
102
RTVSPost2010Prop33
280
     0
102
RTVSPost2010PropOp33
 70
     1
102
RTVSPost2010Prop34
280
     0
102
RTVSPost2010PropOp34
 70
     1
102
RTVSPost2010Prop35
280
     0
102
RTVSPost2010PropOp35
 70
     1
102
RTVSPost2010Prop36
280
     0
102
RTVSPost2010PropOp36
 70
     1
102
RTVSPost2010Prop37
 90
       50
102
RTVSPost2010PropOp37
 70
     1
102
RTVSPost2010Prop38
140
0.0
102
RTVSPost2010PropOp38
 70
     1
102
RTVSPost2010Prop39
140
1.0
102
RTVSPost2010PropOp39
 70
     1
102
RTVSPost2010Prop40
 90
        0
102
RTVSPost2010PropOp40
 70
     1
102
RTVSPost2010Prop41ColorIndex
 90
       18
102
RTVSPost2010Prop41ColorRGB
 90
        0
102
RTVSPost2010PropOp41
 70
     1
102
RTVSPost2010Prop42
 90
       50
102
RTVSPost2010PropOp42
 70
     1
102
RTVSPost2010Prop43
 90
        3
102
RTVSPost2010PropOp43
 70
     1
102
RTVSPost2010Prop44ColorIndex
 90
        5
102
RTVSPost2010Prop44ColorRGB
 90
      255
102
RTVSPost2010PropOp44
 70
     1
102
RTVSPost2010Prop45
280
     0
102
RTVSPost2010PropOp45
 70
     1
102
RTVSPost2010Prop46
 90
       50
102
RTVSPost2010PropOp46
 70
     1
102
RTVSPost2010Prop47
 90
       50
102
RTVSPost2010PropOp47
 70
     1
102
RTVSPost2010Prop48
 90
       50
102
RTVSPost2010PropOp48
 70
     1
102
RTVSPost2010Prop49
280
     0
102
RTVSPost2010PropOp49
 70
     1
102
RTVSPost2010Prop50
 90
       50
102
RTVSPost2010PropOp50
 70
     1
102
RTVSPost2010Prop51ColorIndex
 90
      256
102
RTVSPost2010Prop51ColorRGB
 90
-16777216
102
RTVSPost2010PropOp51
 70
     0
102
RTVSPost2010Prop52
140
1.0
102
RTVSPost2010PropOp52
 70
     0
102
RTVSPost2010Prop53
 90
        2
102
RTVSPost2010PropOp53
 70
     1
102
RTVSPost2010Prop54
  1
strokes_ogs.tif
102
RTVSPost2010PropOp54
 70
     1
102
RTVSPost2010Prop55
280
     0
102
RTVSPost2010PropOp55
 70
     1
102
RTVSPost2010Prop56
140
1.0
102
RTVSPost2010PropOp56
 70
     1
102
RTVSPost2010Prop57
140
1.0
102
RTVSPost2010PropOp57
 70
     1
102
RTVSPropertyOp0
 70
     1
102
RTVSPropertyOp1
 70
     1
102
RTVSPropertyOp2
 70
     1
102
RTVSPropertyOp3
 70
     1
102
RTVSPropertyOp4
 70
     1
102
RTVSPropertyOp5
 70
     1
102
RTVSPropertyOp6
 70
     1
102
RTVSPropertyOp7
 70
     1
102
RTVSPropertyOp8
 70
     1
102
RTVSPropertyOp9
 70
     1
102
RTVSPropertyOp10
 70
     1
102
RTVSPropertyOp11
 70
     1
102
RTVSPropertyOp12
 70
     1
102
RTVSPropertyOp13
 70
     1
102
RTVSPropertyOp14
 70
     1
102
RTVSPropertyOp15
 70
     1
102
RTVSPropertyOp16
 70
     1
102
RTVSPropertyOp17
 70
     1
102
RTVSPropertyOp18
 70
     1
102
RTVSPropertyOp19
 70
     1
102
RTVSPropertyOp20
 70
     1
102
RTVSPropertyOp21
 70
     1
102
RTVSPropertyOp22
 70
     1
102
RTVSPropertyOp23
 70
     1
102
RTVSPropertyOp24
 70
     1
102
RTVSPropertyOp25
 70
     1
102
RTVSPropertyOp26
 70
     1
102
RTVSPropertyOp27
 70
     1
102
RTVSPropertyOp28
 70
     1
102
RTVSPropertyOp29
 70
     1
102
RTVSPropertyOp30
 70
     1
102
RTVSPropertyOp31
 70
     1
102
RTVSPropertyOp32
 70
     1
102
RTVSPropertyOp33
 70
     1
102
RTVSPropertyOp34
 70
     1
102
RTVSPropertyOp35
 70
     1
102
RTVSPropertyOp36
 70
     1
102
RTVSPropertyOp37
 70
     1
102
RTVSPropertyOp38
 70
     1
102
RTVSPropertyOp39
 70
     1
102
RTVSPropertyOp40
 70
     1
102
RTVSPropertyOp41
 70
     1
102
RTVSPropertyOp42
 70
     1
102
RTVSPropertyOp43
 70
     1
102
RTVSPropertyOp44
 70
     1
102
RTVSPropertyOp45
 70
     1
102
RTVSPropertyOp46
 70
     1
102
RTVSPropertyOp47
 70
     1
102
RTVSPropertyOp48
 70
     1
102
RTVSPropertyOp49
 70
     1
102
RTVSPropertyOp50
 70
     1
102
RTVSPropertyOp51
 70
     0
102
RTVSPropertyOp52
 70
     0
102
RTVSPropertyOp53
 70
     1
102
RTVSPropertyOp54
 70
     1
102
RTVSPropertyOp55
 70
     1
102
RTVSPropertyOp56
 70
     1
102
RTVSPropertyOp57
 70
     1
102
RTVSPropertyOp58
 70
     1
102
RTVSPropertyOp59
 70
     1
102
RTVSPropertyOp60
 70
     1
102
RTVSPropertyOp61
 70
     1
102
RTVSPropertyOp62
 70
     1
  0
XRECORD
  5
23AB
102
{ACAD_REACTORS
330
23AA
102
}
330
23AA
100
AcDbXrecord
280
     1
102
RTVSPost2010Prop28
280
     0
102
RTVSPost2010PropOp28
 70
     1
102
RTVSPost2010Prop29
280
     1
102
RTVSPost2010PropOp29
 70
     1
102
RTVSPost2010Prop30
280
     1
102
RTVSPost2010PropOp30
 70
     1
102
RTVSPost2010Prop31
280
     0
102
RTVSPost2010PropOp31
 70
     1
102
RTVSPost2010Prop32
280
     0
102
RTVSPost2010PropOp32
 70
     1
102
RTVSPost2010Prop33
280
     0
102
RTVSPost2010PropOp33
 70
     1
102
RTVSPost2010Prop34
280
     0
102
RTVSPost2010PropOp34
 70
     1
102
RTVSPost2010Prop35
280
     0
102
RTVSPost2010PropOp35
 70
     1
102
RTVSPost2010Prop36
280
     0
102
RTVSPost2010PropOp36
 70
     1
102
RTVSPost2010Prop37
 90
       50
102
RTVSPost2010PropOp37
 70
     1
102
RTVSPost2010Prop38
140
0.0
102
RTVSPost2010PropOp38
 70
     1
102
RTVSPost2010Prop39
140
1.0
102
RTVSPost2010PropOp39
 70
     1
102
RTVSPost2010Prop40
 90
        0
102
RTVSPost2010PropOp40
 70
     1
102
RTVSPost2010Prop41ColorIndex
 90
       18
102
RTVSPost2010Prop41ColorRGB
 90
        0
102
RTVSPost2010PropOp41
 70
     1
102
RTVSPost2010Prop42
 90
       50
102
RTVSPost2010PropOp42
 70
     1
102
RTVSPost2010Prop43
 90
        3
102
RTVSPost2010PropOp43
 70
     1
102
RTVSPost2010Prop44ColorIndex
 90
        5
102
RTVSPost2010Prop44ColorRGB
 90
      255
102
RTVSPost2010PropOp44
 70
     1
102
RTVSPost2010Prop45
280
     0
102
RTVSPost2010PropOp45
 70
     1
102
RTVSPost2010Prop46
 90
       50
102
RTVSPost2010PropOp46
 70
     1
102
RTVSPost2010Prop47
 90
       50
102
RTVSPost2010PropOp47
 70
     1
102
RTVSPost2010Prop48
 90
       50
102
RTVSPost2010PropOp48
 70
     1
102
RTVSPost2010Prop49
280
     0
102
RTVSPost2010PropOp49
 70
     1
102
RTVSPost2010Prop50
 90
       50
102
RTVSPost2010PropOp50
 70
     1
102
RTVSPost2010Prop51ColorIndex
 90
      256
102
RTVSPost2010Prop51ColorRGB
 90
-16777216
102
RTVSPost2010PropOp51
 70
     0
102
RTVSPost2010Prop52
140
1.0
102
RTVSPost2010PropOp52
 70
     0
102
RTVSPost2010Prop53
 90
        2
102
RTVSPost2010PropOp53
 70
     1
102
RTVSPost2010Prop54
  1
strokes_ogs.tif
102
RTVSPost2010PropOp54
 70
     1
102
RTVSPost2010Prop55
280
     0
102
RTVSPost2010PropOp55
 70
     1
102
RTVSPost2010Prop56
140
1.0
102
RTVSPost2010PropOp56
 70
     1
102
RTVSPost2010Prop57
140
1.0
102
RTVSPost2010PropOp57
 70
     1
102
RTVSPropertyOp0
 70
     1
102
RTVSPropertyOp1
 70
     1
102
RTVSPropertyOp2
 70
     1
102
RTVSPropertyOp3
 70
     1
102
RTVSPropertyOp4
 70
     1
102
RTVSPropertyOp5
 70
     1
102
RTVSPropertyOp6
 70
     1
102
RTVSPropertyOp7
 70
     1
102
RTVSPropertyOp8
 70
     1
102
RTVSPropertyOp9
 70
     1
102
RTVSPropertyOp10
 70
     1
102
RTVSPropertyOp11
 70
     1
102
RTVSPropertyOp12
 70
     1
102
RTVSPropertyOp13
 70
     1
102
RTVSPropertyOp14
 70
     1
102
RTVSPropertyOp15
 70
     1
102
RTVSPropertyOp16
 70
     1
102
RTVSPropertyOp17
 70
     1
102
RTVSPropertyOp18
 70
     1
102
RTVSPropertyOp19
 70
     1
102
RTVSPropertyOp20
 70
     1
102
RTVSPropertyOp21
 70
     1
102
RTVSPropertyOp22
 70
     1
102
RTVSPropertyOp23
 70
     1
102
RTVSPropertyOp24
 70
     1
102
RTVSPropertyOp25
 70
     1
102
RTVSPropertyOp26
 70
     1
102
RTVSPropertyOp27
 70
     1
102
RTVSPropertyOp28
 70
     1
102
RTVSPropertyOp29
 70
     1
102
RTVSPropertyOp30
 70
     1
102
RTVSPropertyOp31
 70
     1
102
RTVSPropertyOp32
 70
     1
102
RTVSPropertyOp33
 70
     1
102
RTVSPropertyOp34
 70
     1
102
RTVSPropertyOp35
 70
     1
102
RTVSPropertyOp36
 70
     1
102
RTVSPropertyOp37
 70
     1
102
RTVSPropertyOp38
 70
     1
102
RTVSPropertyOp39
 70
     1
102
RTVSPropertyOp40
 70
     1
102
RTVSPropertyOp41
 70
     1
102
RTVSPropertyOp42
 70
     1
102
RTVSPropertyOp43
 70
     1
102
RTVSPropertyOp44
 70
     1
102
RTVSPropertyOp45
 70
     1
102
RTVSPropertyOp46
 70
     1
102
RTVSPropertyOp47
 70
     1
102
RTVSPropertyOp48
 70
     1
102
RTVSPropertyOp49
 70
     1
102
RTVSPropertyOp50
 70
     1
102
RTVSPropertyOp51
 70
     0
102
RTVSPropertyOp52
 70
     0
102
RTVSPropertyOp53
 70
     1
102
RTVSPropertyOp54
 70
     1
102
RTVSPropertyOp55
 70
     1
102
RTVSPropertyOp56
 70
     1
102
RTVSPropertyOp57
 70
     1
102
RTVSPropertyOp58
 70
     1
102
RTVSPropertyOp59
 70
     1
102
RTVSPropertyOp60
 70
     1
102
RTVSPropertyOp61
 70
     1
102
RTVSPropertyOp62
 70
     1
  0
XRECORD
  5
23B9
102
{ACAD_REACTORS
330
23B8
102
}
330
23B8
100
AcDbXrecord
280
     1
102
RTVSPost2010Prop28
280
     0
102
RTVSPost2010PropOp28
 70
     1
102
RTVSPost2010Prop29
280
     1
102
RTVSPost2010PropOp29
 70
     1
102
RTVSPost2010Prop30
280
     1
102
RTVSPost2010PropOp30
 70
     1
102
RTVSPost2010Prop31
280
     0
102
RTVSPost2010PropOp31
 70
     1
102
RTVSPost2010Prop32
280
     0
102
RTVSPost2010PropOp32
 70
     1
102
RTVSPost2010Prop33
280
     0
102
RTVSPost2010PropOp33
 70
     1
102
RTVSPost2010Prop34
280
     0
102
RTVSPost2010PropOp34
 70
     1
102
RTVSPost2010Prop35
280
     0
102
RTVSPost2010PropOp35
 70
     1
102
RTVSPost2010Prop36
280
     0
102
RTVSPost2010PropOp36
 70
     1
102
RTVSPost2010Prop37
 90
       50
102
RTVSPost2010PropOp37
 70
     1
102
RTVSPost2010Prop38
140
0.0
102
RTVSPost2010PropOp38
 70
     1
102
RTVSPost2010Prop39
140
1.0
102
RTVSPost2010PropOp39
 70
     1
102
RTVSPost2010Prop40
 90
        0
102
RTVSPost2010PropOp40
 70
     1
102
RTVSPost2010Prop41ColorIndex
 90
       18
102
RTVSPost2010Prop41ColorRGB
 90
        0
102
RTVSPost2010PropOp41
 70
     1
102
RTVSPost2010Prop42
 90
       50
102
RTVSPost2010PropOp42
 70
     1
102
RTVSPost2010Prop43
 90
        3
102
RTVSPost2010PropOp43
 70
     1
102
RTVSPost2010Prop44ColorIndex
 90
        5
102
RTVSPost2010Prop44ColorRGB
 90
      255
102
RTVSPost2010PropOp44
 70
     1
102
RTVSPost2010Prop45
280
     0
102
RTVSPost2010PropOp45
 70
     1
102
RTVSPost2010Prop46
 90
       50
102
RTVSPost2010PropOp46
 70
     1
102
RTVSPost2010Prop47
 90
       50
102
RTVSPost2010PropOp47
 70
     1
102
RTVSPost2010Prop48
 90
       50
102
RTVSPost2010PropOp48
 70
     1
102
RTVSPost2010Prop49
280
     0
102
RTVSPost2010PropOp49
 70
     1
102
RTVSPost2010Prop50
 90
       50
102
RTVSPost2010PropOp50
 70
     1
102
RTVSPost2010Prop51ColorIndex
 90
      256
102
RTVSPost2010Prop51ColorRGB
 90
-16777216
102
RTVSPost2010PropOp51
 70
     0
102
RTVSPost2010Prop52
140
1.0
102
RTVSPost2010PropOp52
 70
     0
102
RTVSPost2010Prop53
 90
        2
102
RTVSPost2010PropOp53
 70
     1
102
RTVSPost2010Prop54
  1
strokes_ogs.tif
102
RTVSPost2010PropOp54
 70
     1
102
RTVSPost2010Prop55
280
     0
102
RTVSPost2010PropOp55
 70
     1
102
RTVSPost2010Prop56
140
1.0
102
RTVSPost2010PropOp56
 70
     1
102
RTVSPost2010Prop57
140
1.0
102
RTVSPost2010PropOp57
 70
     1
102
RTVSPropertyOp0
 70
     1
102
RTVSPropertyOp1
 70
     1
102
RTVSPropertyOp2
 70
     1
102
RTVSPropertyOp3
 70
     1
102
RTVSPropertyOp4
 70
     1
102
RTVSPropertyOp5
 70
     1
102
RTVSPropertyOp6
 70
     1
102
RTVSPropertyOp7
 70
     1
102
RTVSPropertyOp8
 70
     1
102
RTVSPropertyOp9
 70
     1
102
RTVSPropertyOp10
 70
     1
102
RTVSPropertyOp11
 70
     1
102
RTVSPropertyOp12
 70
     1
102
RTVSPropertyOp13
 70
     1
102
RTVSPropertyOp14
 70
     1
102
RTVSPropertyOp15
 70
     1
102
RTVSPropertyOp16
 70
     1
102
RTVSPropertyOp17
 70
     1
102
RTVSPropertyOp18
 70
     1
102
RTVSPropertyOp19
 70
     1
102
RTVSPropertyOp20
 70
     1
102
RTVSPropertyOp21
 70
     1
102
RTVSPropertyOp22
 70
     1
102
RTVSPropertyOp23
 70
     1
102
RTVSPropertyOp24
 70
     1
102
RTVSPropertyOp25
 70
     1
102
RTVSPropertyOp26
 70
     1
102
RTVSPropertyOp27
 70
     1
102
RTVSPropertyOp28
 70
     1
102
RTVSPropertyOp29
 70
     1
102
RTVSPropertyOp30
 70
     1
102
RTVSPropertyOp31
 70
     1
102
RTVSPropertyOp32
 70
     1
102
RTVSPropertyOp33
 70
     1
102
RTVSPropertyOp34
 70
     1
102
RTVSPropertyOp35
 70
     1
102
RTVSPropertyOp36
 70
     1
102
RTVSPropertyOp37
 70
     1
102
RTVSPropertyOp38
 70
     1
102
RTVSPropertyOp39
 70
     1
102
RTVSPropertyOp40
 70
     1
102
RTVSPropertyOp41
 70
     1
102
RTVSPropertyOp42
 70
     1
102
RTVSPropertyOp43
 70
     1
102
RTVSPropertyOp44
 70
     1
102
RTVSPropertyOp45
 70
     1
102
RTVSPropertyOp46
 70
     1
102
RTVSPropertyOp47
 70
     1
102
RTVSPropertyOp48
 70
     1
102
RTVSPropertyOp49
 70
     1
102
RTVSPropertyOp50
 70
     1
102
RTVSPropertyOp51
 70
     0
102
RTVSPropertyOp52
 70
     0
102
RTVSPropertyOp53
 70
     1
102
RTVSPropertyOp54
 70
     1
102
RTVSPropertyOp55
 70
     1
102
RTVSPropertyOp56
 70
     1
102
RTVSPropertyOp57
 70
     1
102
RTVSPropertyOp58
 70
     1
102
RTVSPropertyOp59
 70
     1
102
RTVSPropertyOp60
 70
     1
102
RTVSPropertyOp61
 70
     1
102
RTVSPropertyOp62
 70
     1
  0
XRECORD
  5
23C1
102
{ACAD_REACTORS
330
23C0
102
}
330
23C0
100
AcDbXrecord
280
     1
102
RTVSPost2010Prop28
280
     0
102
RTVSPost2010PropOp28
 70
     1
102
RTVSPost2010Prop29
280
     1
102
RTVSPost2010PropOp29
 70
     1
102
RTVSPost2010Prop30
280
     1
102
RTVSPost2010PropOp30
 70
     1
102
RTVSPost2010Prop31
280
     0
102
RTVSPost2010PropOp31
 70
     1
102
RTVSPost2010Prop32
280
     0
102
RTVSPost2010PropOp32
 70
     1
102
RTVSPost2010Prop33
280
     0
102
RTVSPost2010PropOp33
 70
     1
102
RTVSPost2010Prop34
280
     0
102
RTVSPost2010PropOp34
 70
     1
102
RTVSPost2010Prop35
280
     0
102
RTVSPost2010PropOp35
 70
     1
102
RTVSPost2010Prop36
280
     0
102
RTVSPost2010PropOp36
 70
     1
102
RTVSPost2010Prop37
 90
       50
102
RTVSPost2010PropOp37
 70
     1
102
RTVSPost2010Prop38
140
0.0
102
RTVSPost2010PropOp38
 70
     1
102
RTVSPost2010Prop39
140
1.0
102
RTVSPost2010PropOp39
 70
     1
102
RTVSPost2010Prop40
 90
        0
102
RTVSPost2010PropOp40
 70
     1
102
RTVSPost2010Prop41ColorIndex
 90
       18
102
RTVSPost2010Prop41ColorRGB
 90
        0
102
RTVSPost2010PropOp41
 70
     1
102
RTVSPost2010Prop42
 90
       50
102
RTVSPost2010PropOp42
 70
     1
102
RTVSPost2010Prop43
 90
        3
102
RTVSPost2010PropOp43
 70
     1
102
RTVSPost2010Prop44ColorIndex
 90
        5
102
RTVSPost2010Prop44ColorRGB
 90
      255
102
RTVSPost2010PropOp44
 70
     1
102
RTVSPost2010Prop45
280
     0
102
RTVSPost2010PropOp45
 70
     1
102
RTVSPost2010Prop46
 90
       50
102
RTVSPost2010PropOp46
 70
     1
102
RTVSPost2010Prop47
 90
       50
102
RTVSPost2010PropOp47
 70
     1
102
RTVSPost2010Prop48
 90
       50
102
RTVSPost2010PropOp48
 70
     1
102
RTVSPost2010Prop49
280
     0
102
RTVSPost2010PropOp49
 70
     1
102
RTVSPost2010Prop50
 90
       50
102
RTVSPost2010PropOp50
 70
     1
102
RTVSPost2010Prop51ColorIndex
 90
      256
102
RTVSPost2010Prop51ColorRGB
 90
-16777216
102
RTVSPost2010PropOp51
 70
     0
102
RTVSPost2010Prop52
140
1.0
102
RTVSPost2010PropOp52
 70
     0
102
RTVSPost2010Prop53
 90
        2
102
RTVSPost2010PropOp53
 70
     1
102
RTVSPost2010Prop54
  1
strokes_ogs.tif
102
RTVSPost2010PropOp54
 70
     1
102
RTVSPost2010Prop55
280
     0
102
RTVSPost2010PropOp55
 70
     1
102
RTVSPost2010Prop56
140
1.0
102
RTVSPost2010PropOp56
 70
     1
102
RTVSPost2010Prop57
140
1.0
102
RTVSPost2010PropOp57
 70
     1
102
RTVSPropertyOp0
 70
     1
102
RTVSPropertyOp1
 70
     1
102
RTVSPropertyOp2
 70
     1
102
RTVSPropertyOp3
 70
     1
102
RTVSPropertyOp4
 70
     1
102
RTVSPropertyOp5
 70
     1
102
RTVSPropertyOp6
 70
     1
102
RTVSPropertyOp7
 70
     1
102
RTVSPropertyOp8
 70
     1
102
RTVSPropertyOp9
 70
     1
102
RTVSPropertyOp10
 70
     1
102
RTVSPropertyOp11
 70
     1
102
RTVSPropertyOp12
 70
     1
102
RTVSPropertyOp13
 70
     1
102
RTVSPropertyOp14
 70
     1
102
RTVSPropertyOp15
 70
     1
102
RTVSPropertyOp16
 70
     1
102
RTVSPropertyOp17
 70
     1
102
RTVSPropertyOp18
 70
     1
102
RTVSPropertyOp19
 70
     1
102
RTVSPropertyOp20
 70
     1
102
RTVSPropertyOp21
 70
     1
102
RTVSPropertyOp22
 70
     1
102
RTVSPropertyOp23
 70
     1
102
RTVSPropertyOp24
 70
     1
102
RTVSPropertyOp25
 70
     1
102
RTVSPropertyOp26
 70
     1
102
RTVSPropertyOp27
 70
     1
102
RTVSPropertyOp28
 70
     1
102
RTVSPropertyOp29
 70
     1
102
RTVSPropertyOp30
 70
     1
102
RTVSPropertyOp31
 70
     1
102
RTVSPropertyOp32
 70
     1
102
RTVSPropertyOp33
 70
     1
102
RTVSPropertyOp34
 70
     1
102
RTVSPropertyOp35
 70
     1
102
RTVSPropertyOp36
 70
     1
102
RTVSPropertyOp37
 70
     1
102
RTVSPropertyOp38
 70
     1
102
RTVSPropertyOp39
 70
     1
102
RTVSPropertyOp40
 70
     1
102
RTVSPropertyOp41
 70
     1
102
RTVSPropertyOp42
 70
     1
102
RTVSPropertyOp43
 70
     1
102
RTVSPropertyOp44
 70
     1
102
RTVSPropertyOp45
 70
     1
102
RTVSPropertyOp46
 70
     1
102
RTVSPropertyOp47
 70
     1
102
RTVSPropertyOp48
 70
     1
102
RTVSPropertyOp49
 70
     1
102
RTVSPropertyOp50
 70
     1
102
RTVSPropertyOp51
 70
     0
102
RTVSPropertyOp52
 70
     0
102
RTVSPropertyOp53
 70
     1
102
RTVSPropertyOp54
 70
     1
102
RTVSPropertyOp55
 70
     1
102
RTVSPropertyOp56
 70
     1
102
RTVSPropertyOp57
 70
     1
102
RTVSPropertyOp58
 70
     1
102
RTVSPropertyOp59
 70
     1
102
RTVSPropertyOp60
 70
     1
102
RTVSPropertyOp61
 70
     1
102
RTVSPropertyOp62
 70
     1
  0
XRECORD
  5
23B3
102
{ACAD_REACTORS
330
23B2
102
}
330
23B2
100
AcDbXrecord
280
     1
102
RTVSPost2010Prop28
280
     0
102
RTVSPost2010PropOp28
 70
     1
102
RTVSPost2010Prop29
280
     1
102
RTVSPost2010PropOp29
 70
     1
102
RTVSPost2010Prop30
280
     1
102
RTVSPost2010PropOp30
 70
     1
102
RTVSPost2010Prop31
280
     0
102
RTVSPost2010PropOp31
 70
     1
102
RTVSPost2010Prop32
280
     0
102
RTVSPost2010PropOp32
 70
     1
102
RTVSPost2010Prop33
280
     0
102
RTVSPost2010PropOp33
 70
     1
102
RTVSPost2010Prop34
280
     0
102
RTVSPost2010PropOp34
 70
     1
102
RTVSPost2010Prop35
280
     0
102
RTVSPost2010PropOp35
 70
     1
102
RTVSPost2010Prop36
280
     0
102
RTVSPost2010PropOp36
 70
     1
102
RTVSPost2010Prop37
 90
       50
102
RTVSPost2010PropOp37
 70
     1
102
RTVSPost2010Prop38
140
0.0
102
RTVSPost2010PropOp38
 70
     1
102
RTVSPost2010Prop39
140
1.0
102
RTVSPost2010PropOp39
 70
     1
102
RTVSPost2010Prop40
 90
        0
102
RTVSPost2010PropOp40
 70
     1
102
RTVSPost2010Prop41ColorIndex
 90
       18
102
RTVSPost2010Prop41ColorRGB
 90
        0
102
RTVSPost2010PropOp41
 70
     1
102
RTVSPost2010Prop42
 90
       50
102
RTVSPost2010PropOp42
 70
     1
102
RTVSPost2010Prop43
 90
        3
102
RTVSPost2010PropOp43
 70
     1
102
RTVSPost2010Prop44ColorIndex
 90
        5
102
RTVSPost2010Prop44ColorRGB
 90
      255
102
RTVSPost2010PropOp44
 70
     1
102
RTVSPost2010Prop45
280
     0
102
RTVSPost2010PropOp45
 70
     1
102
RTVSPost2010Prop46
 90
       50
102
RTVSPost2010PropOp46
 70
     1
102
RTVSPost2010Prop47
 90
       50
102
RTVSPost2010PropOp47
 70
     1
102
RTVSPost2010Prop48
 90
       50
102
RTVSPost2010PropOp48
 70
     1
102
RTVSPost2010Prop49
280
     0
102
RTVSPost2010PropOp49
 70
     1
102
RTVSPost2010Prop50
 90
       50
102
RTVSPost2010PropOp50
 70
     1
102
RTVSPost2010Prop51ColorIndex
 90
      256
102
RTVSPost2010Prop51ColorRGB
 90
-16777216
102
RTVSPost2010PropOp51
 70
     0
102
RTVSPost2010Prop52
140
1.0
102
RTVSPost2010PropOp52
 70
     0
102
RTVSPost2010Prop53
 90
        2
102
RTVSPost2010PropOp53
 70
     1
102
RTVSPost2010Prop54
  1
strokes_ogs.tif
102
RTVSPost2010PropOp54
 70
     1
102
RTVSPost2010Prop55
280
     0
102
RTVSPost2010PropOp55
 70
     1
102
RTVSPost2010Prop56
140
1.0
102
RTVSPost2010PropOp56
 70
     1
102
RTVSPost2010Prop57
140
1.0
102
RTVSPost2010PropOp57
 70
     1
102
RTVSPropertyOp0
 70
     1
102
RTVSPropertyOp1
 70
     1
102
RTVSPropertyOp2
 70
     1
102
RTVSPropertyOp3
 70
     1
102
RTVSPropertyOp4
 70
     1
102
RTVSPropertyOp5
 70
     1
102
RTVSPropertyOp6
 70
     1
102
RTVSPropertyOp7
 70
     1
102
RTVSPropertyOp8
 70
     1
102
RTVSPropertyOp9
 70
     1
102
RTVSPropertyOp10
 70
     1
102
RTVSPropertyOp11
 70
     1
102
RTVSPropertyOp12
 70
     1
102
RTVSPropertyOp13
 70
     1
102
RTVSPropertyOp14
 70
     1
102
RTVSPropertyOp15
 70
     1
102
RTVSPropertyOp16
 70
     1
102
RTVSPropertyOp17
 70
     1
102
RTVSPropertyOp18
 70
     1
102
RTVSPropertyOp19
 70
     1
102
RTVSPropertyOp20
 70
     1
102
RTVSPropertyOp21
 70
     1
102
RTVSPropertyOp22
 70
     1
102
RTVSPropertyOp23
 70
     1
102
RTVSPropertyOp24
 70
     1
102
RTVSPropertyOp25
 70
     1
102
RTVSPropertyOp26
 70
     1
102
RTVSPropertyOp27
 70
     1
102
RTVSPropertyOp28
 70
     1
102
RTVSPropertyOp29
 70
     1
102
RTVSPropertyOp30
 70
     1
102
RTVSPropertyOp31
 70
     1
102
RTVSPropertyOp32
 70
     1
102
RTVSPropertyOp33
 70
     1
102
RTVSPropertyOp34
 70
     1
102
RTVSPropertyOp35
 70
     1
102
RTVSPropertyOp36
 70
     1
102
RTVSPropertyOp37
 70
     1
102
RTVSPropertyOp38
 70
     1
102
RTVSPropertyOp39
 70
     1
102
RTVSPropertyOp40
 70
     1
102
RTVSPropertyOp41
 70
     1
102
RTVSPropertyOp42
 70
     1
102
RTVSPropertyOp43
 70
     1
102
RTVSPropertyOp44
 70
     1
102
RTVSPropertyOp45
 70
     1
102
RTVSPropertyOp46
 70
     1
102
RTVSPropertyOp47
 70
     1
102
RTVSPropertyOp48
 70
     1
102
RTVSPropertyOp49
 70
     1
102
RTVSPropertyOp50
 70
     1
102
RTVSPropertyOp51
 70
     0
102
RTVSPropertyOp52
 70
     0
102
RTVSPropertyOp53
 70
     1
102
RTVSPropertyOp54
 70
     1
102
RTVSPropertyOp55
 70
     1
102
RTVSPropertyOp56
 70
     1
102
RTVSPropertyOp57
 70
     1
102
RTVSPropertyOp58
 70
     1
102
RTVSPropertyOp59
 70
     1
102
RTVSPropertyOp60
 70
     1
102
RTVSPropertyOp61
 70
     1
102
RTVSPropertyOp62
 70
     1
  0
XRECORD
  5
23B7
102
{ACAD_REACTORS
330
23B6
102
}
330
23B6
100
AcDbXrecord
280
     1
102
RTVSPost2010Prop28
280
     0
102
RTVSPost2010PropOp28
 70
     1
102
RTVSPost2010Prop29
280
     1
102
RTVSPost2010PropOp29
 70
     1
102
RTVSPost2010Prop30
280
     1
102
RTVSPost2010PropOp30
 70
     1
102
RTVSPost2010Prop31
280
     0
102
RTVSPost2010PropOp31
 70
     1
102
RTVSPost2010Prop32
280
     0
102
RTVSPost2010PropOp32
 70
     1
102
RTVSPost2010Prop33
280
     0
102
RTVSPost2010PropOp33
 70
     1
102
RTVSPost2010Prop34
280
     0
102
RTVSPost2010PropOp34
 70
     1
102
RTVSPost2010Prop35
280
     0
102
RTVSPost2010PropOp35
 70
     1
102
RTVSPost2010Prop36
280
     0
102
RTVSPost2010PropOp36
 70
     1
102
RTVSPost2010Prop37
 90
       50
102
RTVSPost2010PropOp37
 70
     1
102
RTVSPost2010Prop38
140
0.0
102
RTVSPost2010PropOp38
 70
     1
102
RTVSPost2010Prop39
140
1.0
102
RTVSPost2010PropOp39
 70
     1
102
RTVSPost2010Prop40
 90
        0
102
RTVSPost2010PropOp40
 70
     1
102
RTVSPost2010Prop41ColorIndex
 90
       18
102
RTVSPost2010Prop41ColorRGB
 90
        0
102
RTVSPost2010PropOp41
 70
     1
102
RTVSPost2010Prop42
 90
       50
102
RTVSPost2010PropOp42
 70
     1
102
RTVSPost2010Prop43
 90
        3
102
RTVSPost2010PropOp43
 70
     1
102
RTVSPost2010Prop44ColorIndex
 90
        5
102
RTVSPost2010Prop44ColorRGB
 90
      255
102
RTVSPost2010PropOp44
 70
     1
102
RTVSPost2010Prop45
280
     0
102
RTVSPost2010PropOp45
 70
     1
102
RTVSPost2010Prop46
 90
       50
102
RTVSPost2010PropOp46
 70
     1
102
RTVSPost2010Prop47
 90
       50
102
RTVSPost2010PropOp47
 70
     1
102
RTVSPost2010Prop48
 90
       50
102
RTVSPost2010PropOp48
 70
     1
102
RTVSPost2010Prop49
280
     0
102
RTVSPost2010PropOp49
 70
     1
102
RTVSPost2010Prop50
 90
       50
102
RTVSPost2010PropOp50
 70
     1
102
RTVSPost2010Prop51ColorIndex
 90
      256
102
RTVSPost2010Prop51ColorRGB
 90
-16777216
102
RTVSPost2010PropOp51
 70
     0
102
RTVSPost2010Prop52
140
1.0
102
RTVSPost2010PropOp52
 70
     0
102
RTVSPost2010Prop53
 90
        2
102
RTVSPost2010PropOp53
 70
     1
102
RTVSPost2010Prop54
  1
strokes_ogs.tif
102
RTVSPost2010PropOp54
 70
     1
102
RTVSPost2010Prop55
280
     0
102
RTVSPost2010PropOp55
 70
     1
102
RTVSPost2010Prop56
140
1.0
102
RTVSPost2010PropOp56
 70
     1
102
RTVSPost2010Prop57
140
1.0
102
RTVSPost2010PropOp57
 70
     1
102
RTVSPropertyOp0
 70
     1
102
RTVSPropertyOp1
 70
     1
102
RTVSPropertyOp2
 70
     1
102
RTVSPropertyOp3
 70
     1
102
RTVSPropertyOp4
 70
     1
102
RTVSPropertyOp5
 70
     1
102
RTVSPropertyOp6
 70
     1
102
RTVSPropertyOp7
 70
     1
102
RTVSPropertyOp8
 70
     1
102
RTVSPropertyOp9
 70
     1
102
RTVSPropertyOp10
 70
     1
102
RTVSPropertyOp11
 70
     1
102
RTVSPropertyOp12
 70
     1
102
RTVSPropertyOp13
 70
     1
102
RTVSPropertyOp14
 70
     1
102
RTVSPropertyOp15
 70
     1
102
RTVSPropertyOp16
 70
     1
102
RTVSPropertyOp17
 70
     1
102
RTVSPropertyOp18
 70
     1
102
RTVSPropertyOp19
 70
     1
102
RTVSPropertyOp20
 70
     1
102
RTVSPropertyOp21
 70
     1
102
RTVSPropertyOp22
 70
     1
102
RTVSPropertyOp23
 70
     1
102
RTVSPropertyOp24
 70
     1
102
RTVSPropertyOp25
 70
     1
102
RTVSPropertyOp26
 70
     1
102
RTVSPropertyOp27
 70
     1
102
RTVSPropertyOp28
 70
     1
102
RTVSPropertyOp29
 70
     1
102
RTVSPropertyOp30
 70
     1
102
RTVSPropertyOp31
 70
     1
102
RTVSPropertyOp32
 70
     1
102
RTVSPropertyOp33
 70
     1
102
RTVSPropertyOp34
 70
     1
102
RTVSPropertyOp35
 70
     1
102
RTVSPropertyOp36
 70
     1
102
RTVSPropertyOp37
 70
     1
102
RTVSPropertyOp38
 70
     1
102
RTVSPropertyOp39
 70
     1
102
RTVSPropertyOp40
 70
     1
102
RTVSPropertyOp41
 70
     1
102
RTVSPropertyOp42
 70
     1
102
RTVSPropertyOp43
 70
     1
102
RTVSPropertyOp44
 70
     1
102
RTVSPropertyOp45
 70
     1
102
RTVSPropertyOp46
 70
     1
102
RTVSPropertyOp47
 70
     1
102
RTVSPropertyOp48
 70
     1
102
RTVSPropertyOp49
 70
     1
102
RTVSPropertyOp50
 70
     1
102
RTVSPropertyOp51
 70
     0
102
RTVSPropertyOp52
 70
     0
102
RTVSPropertyOp53
 70
     1
102
RTVSPropertyOp54
 70
     1
102
RTVSPropertyOp55
 70
     1
102
RTVSPropertyOp56
 70
     1
102
RTVSPropertyOp57
 70
     1
102
RTVSPropertyOp58
 70
     1
102
RTVSPropertyOp59
 70
     1
102
RTVSPropertyOp60
 70
     1
102
RTVSPropertyOp61
 70
     1
102
RTVSPropertyOp62
 70
     1
  0
XRECORD
  5
23D1
102
{ACAD_REACTORS
330
23D0
102
}
330
23D0
100
AcDbXrecord
280
     1
102
RTVSPost2010Prop28
280
     0
102
RTVSPost2010PropOp28
 70
     1
102
RTVSPost2010Prop29
280
     1
102
RTVSPost2010PropOp29
 70
     1
102
RTVSPost2010Prop30
280
     1
102
RTVSPost2010PropOp30
 70
     1
102
RTVSPost2010Prop31
280
     0
102
RTVSPost2010PropOp31
 70
     1
102
RTVSPost2010Prop32
280
     0
102
RTVSPost2010PropOp32
 70
     1
102
RTVSPost2010Prop33
280
     0
102
RTVSPost2010PropOp33
 70
     1
102
RTVSPost2010Prop34
280
     0
102
RTVSPost2010PropOp34
 70
     1
102
RTVSPost2010Prop35
280
     0
102
RTVSPost2010PropOp35
 70
     1
102
RTVSPost2010Prop36
280
     0
102
RTVSPost2010PropOp36
 70
     1
102
RTVSPost2010Prop37
 90
       50
102
RTVSPost2010PropOp37
 70
     0
102
RTVSPost2010Prop38
140
0.0
102
RTVSPost2010PropOp38
 70
     0
102
RTVSPost2010Prop39
140
1.0
102
RTVSPost2010PropOp39
 70
     0
102
RTVSPost2010Prop40
 90
        0
102
RTVSPost2010PropOp40
 70
     0
102
RTVSPost2010Prop41ColorIndex
 90
       18
102
RTVSPost2010Prop41ColorRGB
 90
        0
102
RTVSPost2010PropOp41
 70
     0
102
RTVSPost2010Prop42
 90
       50
102
RTVSPost2010PropOp42
 70
     0
102
RTVSPost2010Prop43
 90
        3
102
RTVSPost2010PropOp43
 70
     0
102
RTVSPost2010Prop44ColorIndex
 90
        5
102
RTVSPost2010Prop44ColorRGB
 90
      255
102
RTVSPost2010PropOp44
 70
     0
102
RTVSPost2010Prop45
280
     0
102
RTVSPost2010PropOp45
 70
     1
102
RTVSPost2010Prop46
 90
       50
102
RTVSPost2010PropOp46
 70
     0
102
RTVSPost2010Prop47
 90
       50
102
RTVSPost2010PropOp47
 70
     0
102
RTVSPost2010Prop48
 90
       50
102
RTVSPost2010PropOp48
 70
     0
102
RTVSPost2010Prop49
280
     0
102
RTVSPost2010PropOp49
 70
     1
102
RTVSPost2010Prop50
 90
       50
102
RTVSPost2010PropOp50
 70
     0
102
RTVSPost2010Prop51ColorIndex
 90
      256
102
RTVSPost2010Prop51ColorRGB
 90
-16777216
102
RTVSPost2010PropOp51
 70
     0
102
RTVSPost2010Prop52
140
1.0
102
RTVSPost2010PropOp52
 70
     0
102
RTVSPost2010Prop53
 90
        2
102
RTVSPost2010PropOp53
 70
     0
102
RTVSPost2010Prop54
  1
strokes_ogs.tif
102
RTVSPost2010PropOp54
 70
     0
102
RTVSPost2010Prop55
280
     0
102
RTVSPost2010PropOp55
 70
     1
102
RTVSPost2010Prop56
140
1.0
102
RTVSPost2010PropOp56
 70
     0
102
RTVSPost2010Prop57
140
1.0
102
RTVSPost2010PropOp57
 70
     0
102
RTVSPropertyOp0
 70
     0
102
RTVSPropertyOp1
 70
     0
102
RTVSPropertyOp2
 70
     0
102
RTVSPropertyOp3
 70
     0
102
RTVSPropertyOp4
 70
     0
102
RTVSPropertyOp5
 70
     0
102
RTVSPropertyOp6
 70
     0
102
RTVSPropertyOp7
 70
     0
102
RTVSPropertyOp8
 70
     0
102
RTVSPropertyOp9
 70
     0
102
RTVSPropertyOp10
 70
     0
102
RTVSPropertyOp11
 70
     0
102
RTVSPropertyOp12
 70
     0
102
RTVSPropertyOp13
 70
     0
102
RTVSPropertyOp14
 70
     2
102
RTVSPropertyOp15
 70
     0
102
RTVSPropertyOp16
 70
     0
102
RTVSPropertyOp17
 70
     0
102
RTVSPropertyOp18
 70
     0
102
RTVSPropertyOp19
 70
     0
102
RTVSPropertyOp20
 70
     0
102
RTVSPropertyOp21
 70
     0
102
RTVSPropertyOp22
 70
     0
102
RTVSPropertyOp23
 70
     0
102
RTVSPropertyOp24
 70
     0
102
RTVSPropertyOp25
 70
     0
102
RTVSPropertyOp26
 70
     0
102
RTVSPropertyOp27
 70
     0
102
RTVSPropertyOp28
 70
     1
102
RTVSPropertyOp29
 70
     1
102
RTVSPropertyOp30
 70
     1
102
RTVSPropertyOp31
 70
     1
102
RTVSPropertyOp32
 70
     1
102
RTVSPropertyOp33
 70
     1
102
RTVSPropertyOp34
 70
     1
102
RTVSPropertyOp35
 70
     1
102
RTVSPropertyOp36
 70
     1
102
RTVSPropertyOp37
 70
     0
102
RTVSPropertyOp38
 70
     0
102
RTVSPropertyOp39
 70
     0
102
RTVSPropertyOp40
 70
     0
102
RTVSPropertyOp41
 70
     0
102
RTVSPropertyOp42
 70
     0
102
RTVSPropertyOp43
 70
     0
102
RTVSPropertyOp44
 70
     0
102
RTVSPropertyOp45
 70
     1
102
RTVSPropertyOp46
 70
     0
102
RTVSPropertyOp47
 70
     0
102
RTVSPropertyOp48
 70
     0
102
RTVSPropertyOp49
 70
     1
102
RTVSPropertyOp50
 70
     0
102
RTVSPropertyOp51
 70
     0
102
RTVSPropertyOp52
 70
     0
102
RTVSPropertyOp53
 70
     0
102
RTVSPropertyOp54
 70
     0
102
RTVSPropertyOp55
 70
     1
102
RTVSPropertyOp56
 70
     0
102
RTVSPropertyOp57
 70
     0
102
RTVSPropertyOp58
 70
     0
102
RTVSPropertyOp59
 70
     0
102
RTVSPropertyOp60
 70
     0
102
RTVSPropertyOp61
 70
     0
102
RTVSPropertyOp62
 70
     0
  0
XRECORD
  5
23BF
102
{ACAD_REACTORS
330
23BE
102
}
330
23BE
100
AcDbXrecord
280
     1
102
RTVSPost2010Prop28
280
     0
102
RTVSPost2010PropOp28
 70
     1
102
RTVSPost2010Prop29
280
     1
102
RTVSPost2010PropOp29
 70
     1
102
RTVSPost2010Prop30
280
     1
102
RTVSPost2010PropOp30
 70
     1
102
RTVSPost2010Prop31
280
     0
102
RTVSPost2010PropOp31
 70
     1
102
RTVSPost2010Prop32
280
     0
102
RTVSPost2010PropOp32
 70
     1
102
RTVSPost2010Prop33
280
     0
102
RTVSPost2010PropOp33
 70
     1
102
RTVSPost2010Prop34
280
     0
102
RTVSPost2010PropOp34
 70
     1
102
RTVSPost2010Prop35
280
     0
102
RTVSPost2010PropOp35
 70
     1
102
RTVSPost2010Prop36
280
     0
102
RTVSPost2010PropOp36
 70
     1
102
RTVSPost2010Prop37
 90
       50
102
RTVSPost2010PropOp37
 70
     1
102
RTVSPost2010Prop38
140
0.0
102
RTVSPost2010PropOp38
 70
     1
102
RTVSPost2010Prop39
140
1.0
102
RTVSPost2010PropOp39
 70
     1
102
RTVSPost2010Prop40
 90
        0
102
RTVSPost2010PropOp40
 70
     1
102
RTVSPost2010Prop41ColorIndex
 90
       18
102
RTVSPost2010Prop41ColorRGB
 90
        0
102
RTVSPost2010PropOp41
 70
     1
102
RTVSPost2010Prop42
 90
       50
102
RTVSPost2010PropOp42
 70
     1
102
RTVSPost2010Prop43
 90
        3
102
RTVSPost2010PropOp43
 70
     1
102
RTVSPost2010Prop44ColorIndex
 90
        5
102
RTVSPost2010Prop44ColorRGB
 90
      255
102
RTVSPost2010PropOp44
 70
     1
102
RTVSPost2010Prop45
280
     0
102
RTVSPost2010PropOp45
 70
     1
102
RTVSPost2010Prop46
 90
       50
102
RTVSPost2010PropOp46
 70
     1
102
RTVSPost2010Prop47
 90
       50
102
RTVSPost2010PropOp47
 70
     1
102
RTVSPost2010Prop48
 90
       50
102
RTVSPost2010PropOp48
 70
     1
102
RTVSPost2010Prop49
280
     0
102
RTVSPost2010PropOp49
 70
     1
102
RTVSPost2010Prop50
 90
       50
102
RTVSPost2010PropOp50
 70
     1
102
RTVSPost2010Prop51ColorIndex
 90
      256
102
RTVSPost2010Prop51ColorRGB
 90
-16777216
102
RTVSPost2010PropOp51
 70
     0
102
RTVSPost2010Prop52
140
1.0
102
RTVSPost2010PropOp52
 70
     0
102
RTVSPost2010Prop53
 90
        2
102
RTVSPost2010PropOp53
 70
     1
102
RTVSPost2010Prop54
  1
strokes_ogs.tif
102
RTVSPost2010PropOp54
 70
     1
102
RTVSPost2010Prop55
280
     0
102
RTVSPost2010PropOp55
 70
     1
102
RTVSPost2010Prop56
140
1.0
102
RTVSPost2010PropOp56
 70
     1
102
RTVSPost2010Prop57
140
1.0
102
RTVSPost2010PropOp57
 70
     1
102
RTVSPropertyOp0
 70
     1
102
RTVSPropertyOp1
 70
     1
102
RTVSPropertyOp2
 70
     1
102
RTVSPropertyOp3
 70
     1
102
RTVSPropertyOp4
 70
     1
102
RTVSPropertyOp5
 70
     1
102
RTVSPropertyOp6
 70
     1
102
RTVSPropertyOp7
 70
     1
102
RTVSPropertyOp8
 70
     1
102
RTVSPropertyOp9
 70
     1
102
RTVSPropertyOp10
 70
     1
102
RTVSPropertyOp11
 70
     1
102
RTVSPropertyOp12
 70
     1
102
RTVSPropertyOp13
 70
     1
102
RTVSPropertyOp14
 70
     1
102
RTVSPropertyOp15
 70
     1
102
RTVSPropertyOp16
 70
     1
102
RTVSPropertyOp17
 70
     1
102
RTVSPropertyOp18
 70
     1
102
RTVSPropertyOp19
 70
     1
102
RTVSPropertyOp20
 70
     1
102
RTVSPropertyOp21
 70
     1
102
RTVSPropertyOp22
 70
     1
102
RTVSPropertyOp23
 70
     1
102
RTVSPropertyOp24
 70
     1
102
RTVSPropertyOp25
 70
     1
102
RTVSPropertyOp26
 70
     1
102
RTVSPropertyOp27
 70
     1
102
RTVSPropertyOp28
 70
     1
102
RTVSPropertyOp29
 70
     1
102
RTVSPropertyOp30
 70
     1
102
RTVSPropertyOp31
 70
     1
102
RTVSPropertyOp32
 70
     1
102
RTVSPropertyOp33
 70
     1
102
RTVSPropertyOp34
 70
     1
102
RTVSPropertyOp35
 70
     1
102
RTVSPropertyOp36
 70
     1
102
RTVSPropertyOp37
 70
     1
102
RTVSPropertyOp38
 70
     1
102
RTVSPropertyOp39
 70
     1
102
RTVSPropertyOp40
 70
     1
102
RTVSPropertyOp41
 70
     1
102
RTVSPropertyOp42
 70
     1
102
RTVSPropertyOp43
 70
     1
102
RTVSPropertyOp44
 70
     1
102
RTVSPropertyOp45
 70
     1
102
RTVSPropertyOp46
 70
     1
102
RTVSPropertyOp47
 70
     1
102
RTVSPropertyOp48
 70
     1
102
RTVSPropertyOp49
 70
     1
102
RTVSPropertyOp50
 70
     1
102
RTVSPropertyOp51
 70
     0
102
RTVSPropertyOp52
 70
     0
102
RTVSPropertyOp53
 70
     1
102
RTVSPropertyOp54
 70
     1
102
RTVSPropertyOp55
 70
     1
102
RTVSPropertyOp56
 70
     1
102
RTVSPropertyOp57
 70
     1
102
RTVSPropertyOp58
 70
     1
102
RTVSPropertyOp59
 70
     1
102
RTVSPropertyOp60
 70
     1
102
RTVSPropertyOp61
 70
     1
102
RTVSPropertyOp62
 70
     1
  0
XRECORD
  5
23A3
102
{ACAD_REACTORS
330
23A2
102
}
330
23A2
100
AcDbXrecord
280
     1
102
RTVSPost2010Prop28
280
     0
102
RTVSPost2010PropOp28
 70
     1
102
RTVSPost2010Prop29
280
     1
102
RTVSPost2010PropOp29
 70
     1
102
RTVSPost2010Prop30
280
     1
102
RTVSPost2010PropOp30
 70
     1
102
RTVSPost2010Prop31
280
     0
102
RTVSPost2010PropOp31
 70
     1
102
RTVSPost2010Prop32
280
     0
102
RTVSPost2010PropOp32
 70
     1
102
RTVSPost2010Prop33
280
     0
102
RTVSPost2010PropOp33
 70
     1
102
RTVSPost2010Prop34
280
     0
102
RTVSPost2010PropOp34
 70
     1
102
RTVSPost2010Prop35
280
     0
102
RTVSPost2010PropOp35
 70
     1
102
RTVSPost2010Prop36
280
     0
102
RTVSPost2010PropOp36
 70
     1
102
RTVSPost2010Prop37
 90
       50
102
RTVSPost2010PropOp37
 70
     1
102
RTVSPost2010Prop38
140
0.0
102
RTVSPost2010PropOp38
 70
     1
102
RTVSPost2010Prop39
140
1.0
102
RTVSPost2010PropOp39
 70
     1
102
RTVSPost2010Prop40
 90
        0
102
RTVSPost2010PropOp40
 70
     1
102
RTVSPost2010Prop41ColorIndex
 90
       18
102
RTVSPost2010Prop41ColorRGB
 90
        0
102
RTVSPost2010PropOp41
 70
     1
102
RTVSPost2010Prop42
 90
       50
102
RTVSPost2010PropOp42
 70
     1
102
RTVSPost2010Prop43
 90
        3
102
RTVSPost2010PropOp43
 70
     1
102
RTVSPost2010Prop44ColorIndex
 90
        5
102
RTVSPost2010Prop44ColorRGB
 90
      255
102
RTVSPost2010PropOp44
 70
     1
102
RTVSPost2010Prop45
280
     0
102
RTVSPost2010PropOp45
 70
     1
102
RTVSPost2010Prop46
 90
       50
102
RTVSPost2010PropOp46
 70
     1
102
RTVSPost2010Prop47
 90
       50
102
RTVSPost2010PropOp47
 70
     1
102
RTVSPost2010Prop48
 90
       50
102
RTVSPost2010PropOp48
 70
     1
102
RTVSPost2010Prop49
280
     0
102
RTVSPost2010PropOp49
 70
     1
102
RTVSPost2010Prop50
 90
       50
102
RTVSPost2010PropOp50
 70
     1
102
RTVSPost2010Prop51ColorIndex
 90
      256
102
RTVSPost2010Prop51ColorRGB
 90
-16777216
102
RTVSPost2010PropOp51
 70
     0
102
RTVSPost2010Prop52
140
1.0
102
RTVSPost2010PropOp52
 70
     0
102
RTVSPost2010Prop53
 90
        2
102
RTVSPost2010PropOp53
 70
     1
102
RTVSPost2010Prop54
  1
strokes_ogs.tif
102
RTVSPost2010PropOp54
 70
     1
102
RTVSPost2010Prop55
280
     0
102
RTVSPost2010PropOp55
 70
     1
102
RTVSPost2010Prop56
140
1.0
102
RTVSPost2010PropOp56
 70
     1
102
RTVSPost2010Prop57
140
1.0
102
RTVSPost2010PropOp57
 70
     1
102
RTVSPropertyOp0
 70
     1
102
RTVSPropertyOp1
 70
     1
102
RTVSPropertyOp2
 70
     1
102
RTVSPropertyOp3
 70
     1
102
RTVSPropertyOp4
 70
     1
102
RTVSPropertyOp5
 70
     1
102
RTVSPropertyOp6
 70
     1
102
RTVSPropertyOp7
 70
     1
102
RTVSPropertyOp8
 70
     1
102
RTVSPropertyOp9
 70
     1
102
RTVSPropertyOp10
 70
     1
102
RTVSPropertyOp11
 70
     1
102
RTVSPropertyOp12
 70
     1
102
RTVSPropertyOp13
 70
     1
102
RTVSPropertyOp14
 70
     1
102
RTVSPropertyOp15
 70
     1
102
RTVSPropertyOp16
 70
     1
102
RTVSPropertyOp17
 70
     1
102
RTVSPropertyOp18
 70
     1
102
RTVSPropertyOp19
 70
     1
102
RTVSPropertyOp20
 70
     1
102
RTVSPropertyOp21
 70
     1
102
RTVSPropertyOp22
 70
     1
102
RTVSPropertyOp23
 70
     1
102
RTVSPropertyOp24
 70
     1
102
RTVSPropertyOp25
 70
     1
102
RTVSPropertyOp26
 70
     1
102
RTVSPropertyOp27
 70
     1
102
RTVSPropertyOp28
 70
     1
102
RTVSPropertyOp29
 70
     1
102
RTVSPropertyOp30
 70
     1
102
RTVSPropertyOp31
 70
     1
102
RTVSPropertyOp32
 70
     1
102
RTVSPropertyOp33
 70
     1
102
RTVSPropertyOp34
 70
     1
102
RTVSPropertyOp35
 70
     1
102
RTVSPropertyOp36
 70
     1
102
RTVSPropertyOp37
 70
     1
102
RTVSPropertyOp38
 70
     1
102
RTVSPropertyOp39
 70
     1
102
RTVSPropertyOp40
 70
     1
102
RTVSPropertyOp41
 70
     1
102
RTVSPropertyOp42
 70
     1
102
RTVSPropertyOp43
 70
     1
102
RTVSPropertyOp44
 70
     1
102
RTVSPropertyOp45
 70
     1
102
RTVSPropertyOp46
 70
     1
102
RTVSPropertyOp47
 70
     1
102
RTVSPropertyOp48
 70
     1
102
RTVSPropertyOp49
 70
     1
102
RTVSPropertyOp50
 70
     1
102
RTVSPropertyOp51
 70
     0
102
RTVSPropertyOp52
 70
     0
102
RTVSPropertyOp53
 70
     1
102
RTVSPropertyOp54
 70
     1
102
RTVSPropertyOp55
 70
     1
102
RTVSPropertyOp56
 70
     1
102
RTVSPropertyOp57
 70
     1
102
RTVSPropertyOp58
 70
     1
102
RTVSPropertyOp59
 70
     1
102
RTVSPropertyOp60
 70
     1
102
RTVSPropertyOp61
 70
     1
102
RTVSPropertyOp62
 70
     1
  0
XRECORD
  5
23A5
102
{ACAD_REACTORS
330
23A4
102
}
330
23A4
100
AcDbXrecord
280
     1
102
RTVSPost2010Prop28
280
     0
102
RTVSPost2010PropOp28
 70
     1
102
RTVSPost2010Prop29
280
     1
102
RTVSPost2010PropOp29
 70
     1
102
RTVSPost2010Prop30
280
     1
102
RTVSPost2010PropOp30
 70
     1
102
RTVSPost2010Prop31
280
     0
102
RTVSPost2010PropOp31
 70
     1
102
RTVSPost2010Prop32
280
     0
102
RTVSPost2010PropOp32
 70
     1
102
RTVSPost2010Prop33
280
     0
102
RTVSPost2010PropOp33
 70
     1
102
RTVSPost2010Prop34
280
     0
102
RTVSPost2010PropOp34
 70
     1
102
RTVSPost2010Prop35
280
     0
102
RTVSPost2010PropOp35
 70
     1
102
RTVSPost2010Prop36
280
     0
102
RTVSPost2010PropOp36
 70
     1
102
RTVSPost2010Prop37
 90
       50
102
RTVSPost2010PropOp37
 70
     1
102
RTVSPost2010Prop38
140
0.0
102
RTVSPost2010PropOp38
 70
     1
102
RTVSPost2010Prop39
140
1.0
102
RTVSPost2010PropOp39
 70
     1
102
RTVSPost2010Prop40
 90
        0
102
RTVSPost2010PropOp40
 70
     1
102
RTVSPost2010Prop41ColorIndex
 90
       18
102
RTVSPost2010Prop41ColorRGB
 90
        0
102
RTVSPost2010PropOp41
 70
     1
102
RTVSPost2010Prop42
 90
       50
102
RTVSPost2010PropOp42
 70
     1
102
RTVSPost2010Prop43
 90
        3
102
RTVSPost2010PropOp43
 70
     1
102
RTVSPost2010Prop44ColorIndex
 90
        5
102
RTVSPost2010Prop44ColorRGB
 90
      255
102
RTVSPost2010PropOp44
 70
     1
102
RTVSPost2010Prop45
280
     0
102
RTVSPost2010PropOp45
 70
     1
102
RTVSPost2010Prop46
 90
       50
102
RTVSPost2010PropOp46
 70
     1
102
RTVSPost2010Prop47
 90
       50
102
RTVSPost2010PropOp47
 70
     1
102
RTVSPost2010Prop48
 90
       50
102
RTVSPost2010PropOp48
 70
     1
102
RTVSPost2010Prop49
280
     0
102
RTVSPost2010PropOp49
 70
     1
102
RTVSPost2010Prop50
 90
       50
102
RTVSPost2010PropOp50
 70
     1
102
RTVSPost2010Prop51ColorIndex
 90
      256
102
RTVSPost2010Prop51ColorRGB
 90
-16777216
102
RTVSPost2010PropOp51
 70
     0
102
RTVSPost2010Prop52
140
1.0
102
RTVSPost2010PropOp52
 70
     0
102
RTVSPost2010Prop53
 90
        2
102
RTVSPost2010PropOp53
 70
     1
102
RTVSPost2010Prop54
  1
strokes_ogs.tif
102
RTVSPost2010PropOp54
 70
     1
102
RTVSPost2010Prop55
280
     0
102
RTVSPost2010PropOp55
 70
     1
102
RTVSPost2010Prop56
140
1.0
102
RTVSPost2010PropOp56
 70
     1
102
RTVSPost2010Prop57
140
1.0
102
RTVSPost2010PropOp57
 70
     1
102
RTVSPropertyOp0
 70
     1
102
RTVSPropertyOp1
 70
     1
102
RTVSPropertyOp2
 70
     1
102
RTVSPropertyOp3
 70
     1
102
RTVSPropertyOp4
 70
     1
102
RTVSPropertyOp5
 70
     1
102
RTVSPropertyOp6
 70
     1
102
RTVSPropertyOp7
 70
     1
102
RTVSPropertyOp8
 70
     1
102
RTVSPropertyOp9
 70
     1
102
RTVSPropertyOp10
 70
     1
102
RTVSPropertyOp11
 70
     1
102
RTVSPropertyOp12
 70
     1
102
RTVSPropertyOp13
 70
     1
102
RTVSPropertyOp14
 70
     1
102
RTVSPropertyOp15
 70
     1
102
RTVSPropertyOp16
 70
     1
102
RTVSPropertyOp17
 70
     1
102
RTVSPropertyOp18
 70
     1
102
RTVSPropertyOp19
 70
     1
102
RTVSPropertyOp20
 70
     1
102
RTVSPropertyOp21
 70
     1
102
RTVSPropertyOp22
 70
     1
102
RTVSPropertyOp23
 70
     1
102
RTVSPropertyOp24
 70
     1
102
RTVSPropertyOp25
 70
     1
102
RTVSPropertyOp26
 70
     1
102
RTVSPropertyOp27
 70
     1
102
RTVSPropertyOp28
 70
     1
102
RTVSPropertyOp29
 70
     1
102
RTVSPropertyOp30
 70
     1
102
RTVSPropertyOp31
 70
     1
102
RTVSPropertyOp32
 70
     1
102
RTVSPropertyOp33
 70
     1
102
RTVSPropertyOp34
 70
     1
102
RTVSPropertyOp35
 70
     1
102
RTVSPropertyOp36
 70
     1
102
RTVSPropertyOp37
 70
     1
102
RTVSPropertyOp38
 70
     1
102
RTVSPropertyOp39
 70
     1
102
RTVSPropertyOp40
 70
     1
102
RTVSPropertyOp41
 70
     1
102
RTVSPropertyOp42
 70
     1
102
RTVSPropertyOp43
 70
     1
102
RTVSPropertyOp44
 70
     1
102
RTVSPropertyOp45
 70
     1
102
RTVSPropertyOp46
 70
     1
102
RTVSPropertyOp47
 70
     1
102
RTVSPropertyOp48
 70
     1
102
RTVSPropertyOp49
 70
     1
102
RTVSPropertyOp50
 70
     1
102
RTVSPropertyOp51
 70
     0
102
RTVSPropertyOp52
 70
     0
102
RTVSPropertyOp53
 70
     1
102
RTVSPropertyOp54
 70
     1
102
RTVSPropertyOp55
 70
     1
102
RTVSPropertyOp56
 70
     1
102
RTVSPropertyOp57
 70
     1
102
RTVSPropertyOp58
 70
     1
102
RTVSPropertyOp59
 70
     1
102
RTVSPropertyOp60
 70
     1
102
RTVSPropertyOp61
 70
     1
102
RTVSPropertyOp62
 70
     1
  0
XRECORD
  5
23A7
102
{ACAD_REACTORS
330
23A6
102
}
330
23A6
100
AcDbXrecord
280
     1
102
RTVSPost2010Prop28
280
     0
102
RTVSPost2010PropOp28
 70
     1
102
RTVSPost2010Prop29
280
     1
102
RTVSPost2010PropOp29
 70
     1
102
RTVSPost2010Prop30
280
     1
102
RTVSPost2010PropOp30
 70
     1
102
RTVSPost2010Prop31
280
     0
102
RTVSPost2010PropOp31
 70
     1
102
RTVSPost2010Prop32
280
     0
102
RTVSPost2010PropOp32
 70
     1
102
RTVSPost2010Prop33
280
     0
102
RTVSPost2010PropOp33
 70
     1
102
RTVSPost2010Prop34
280
     0
102
RTVSPost2010PropOp34
 70
     1
102
RTVSPost2010Prop35
280
     0
102
RTVSPost2010PropOp35
 70
     1
102
RTVSPost2010Prop36
280
     0
102
RTVSPost2010PropOp36
 70
     1
102
RTVSPost2010Prop37
 90
       50
102
RTVSPost2010PropOp37
 70
     1
102
RTVSPost2010Prop38
140
0.0
102
RTVSPost2010PropOp38
 70
     1
102
RTVSPost2010Prop39
140
1.0
102
RTVSPost2010PropOp39
 70
     1
102
RTVSPost2010Prop40
 90
        0
102
RTVSPost2010PropOp40
 70
     1
102
RTVSPost2010Prop41ColorIndex
 90
       18
102
RTVSPost2010Prop41ColorRGB
 90
        0
102
RTVSPost2010PropOp41
 70
     1
102
RTVSPost2010Prop42
 90
       50
102
RTVSPost2010PropOp42
 70
     1
102
RTVSPost2010Prop43
 90
        3
102
RTVSPost2010PropOp43
 70
     1
102
RTVSPost2010Prop44ColorIndex
 90
        5
102
RTVSPost2010Prop44ColorRGB
 90
      255
102
RTVSPost2010PropOp44
 70
     1
102
RTVSPost2010Prop45
280
     0
102
RTVSPost2010PropOp45
 70
     1
102
RTVSPost2010Prop46
 90
       50
102
RTVSPost2010PropOp46
 70
     1
102
RTVSPost2010Prop47
 90
       50
102
RTVSPost2010PropOp47
 70
     1
102
RTVSPost2010Prop48
 90
       50
102
RTVSPost2010PropOp48
 70
     1
102
RTVSPost2010Prop49
280
     0
102
RTVSPost2010PropOp49
 70
     1
102
RTVSPost2010Prop50
 90
       50
102
RTVSPost2010PropOp50
 70
     1
102
RTVSPost2010Prop51ColorIndex
 90
      256
102
RTVSPost2010Prop51ColorRGB
 90
-16777216
102
RTVSPost2010PropOp51
 70
     0
102
RTVSPost2010Prop52
140
1.0
102
RTVSPost2010PropOp52
 70
     0
102
RTVSPost2010Prop53
 90
        2
102
RTVSPost2010PropOp53
 70
     1
102
RTVSPost2010Prop54
  1
strokes_ogs.tif
102
RTVSPost2010PropOp54
 70
     1
102
RTVSPost2010Prop55
280
     0
102
RTVSPost2010PropOp55
 70
     1
102
RTVSPost2010Prop56
140
1.0
102
RTVSPost2010PropOp56
 70
     1
102
RTVSPost2010Prop57
140
1.0
102
RTVSPost2010PropOp57
 70
     1
102
RTVSPropertyOp0
 70
     1
102
RTVSPropertyOp1
 70
     1
102
RTVSPropertyOp2
 70
     1
102
RTVSPropertyOp3
 70
     1
102
RTVSPropertyOp4
 70
     1
102
RTVSPropertyOp5
 70
     1
102
RTVSPropertyOp6
 70
     1
102
RTVSPropertyOp7
 70
     1
102
RTVSPropertyOp8
 70
     1
102
RTVSPropertyOp9
 70
     1
102
RTVSPropertyOp10
 70
     1
102
RTVSPropertyOp11
 70
     1
102
RTVSPropertyOp12
 70
     1
102
RTVSPropertyOp13
 70
     1
102
RTVSPropertyOp14
 70
     1
102
RTVSPropertyOp15
 70
     1
102
RTVSPropertyOp16
 70
     1
102
RTVSPropertyOp17
 70
     1
102
RTVSPropertyOp18
 70
     1
102
RTVSPropertyOp19
 70
     1
102
RTVSPropertyOp20
 70
     1
102
RTVSPropertyOp21
 70
     1
102
RTVSPropertyOp22
 70
     1
102
RTVSPropertyOp23
 70
     1
102
RTVSPropertyOp24
 70
     1
102
RTVSPropertyOp25
 70
     1
102
RTVSPropertyOp26
 70
     1
102
RTVSPropertyOp27
 70
     1
102
RTVSPropertyOp28
 70
     1
102
RTVSPropertyOp29
 70
     1
102
RTVSPropertyOp30
 70
     1
102
RTVSPropertyOp31
 70
     1
102
RTVSPropertyOp32
 70
     1
102
RTVSPropertyOp33
 70
     1
102
RTVSPropertyOp34
 70
     1
102
RTVSPropertyOp35
 70
     1
102
RTVSPropertyOp36
 70
     1
102
RTVSPropertyOp37
 70
     1
102
RTVSPropertyOp38
 70
     1
102
RTVSPropertyOp39
 70
     1
102
RTVSPropertyOp40
 70
     1
102
RTVSPropertyOp41
 70
     1
102
RTVSPropertyOp42
 70
     1
102
RTVSPropertyOp43
 70
     1
102
RTVSPropertyOp44
 70
     1
102
RTVSPropertyOp45
 70
     1
102
RTVSPropertyOp46
 70
     1
102
RTVSPropertyOp47
 70
     1
102
RTVSPropertyOp48
 70
     1
102
RTVSPropertyOp49
 70
     1
102
RTVSPropertyOp50
 70
     1
102
RTVSPropertyOp51
 70
     0
102
RTVSPropertyOp52
 70
     0
102
RTVSPropertyOp53
 70
     1
102
RTVSPropertyOp54
 70
     1
102
RTVSPropertyOp55
 70
     1
102
RTVSPropertyOp56
 70
     1
102
RTVSPropertyOp57
 70
     1
102
RTVSPropertyOp58
 70
     1
102
RTVSPropertyOp59
 70
     1
102
RTVSPropertyOp60
 70
     1
102
RTVSPropertyOp61
 70
     1
102
RTVSPropertyOp62
 70
     1
  0
XRECORD
  5
23A9
102
{ACAD_REACTORS
330
23A8
102
}
330
23A8
100
AcDbXrecord
280
     1
102
RTVSPost2010Prop28
280
     0
102
RTVSPost2010PropOp28
 70
     1
102
RTVSPost2010Prop29
280
     1
102
RTVSPost2010PropOp29
 70
     1
102
RTVSPost2010Prop30
280
     1
102
RTVSPost2010PropOp30
 70
     1
102
RTVSPost2010Prop31
280
     0
102
RTVSPost2010PropOp31
 70
     1
102
RTVSPost2010Prop32
280
     0
102
RTVSPost2010PropOp32
 70
     1
102
RTVSPost2010Prop33
280
     0
102
RTVSPost2010PropOp33
 70
     1
102
RTVSPost2010Prop34
280
     0
102
RTVSPost2010PropOp34
 70
     1
102
RTVSPost2010Prop35
280
     0
102
RTVSPost2010PropOp35
 70
     1
102
RTVSPost2010Prop36
280
     0
102
RTVSPost2010PropOp36
 70
     1
102
RTVSPost2010Prop37
 90
       50
102
RTVSPost2010PropOp37
 70
     1
102
RTVSPost2010Prop38
140
0.0
102
RTVSPost2010PropOp38
 70
     1
102
RTVSPost2010Prop39
140
1.0
102
RTVSPost2010PropOp39
 70
     1
102
RTVSPost2010Prop40
 90
        0
102
RTVSPost2010PropOp40
 70
     1
102
RTVSPost2010Prop41ColorIndex
 90
       18
102
RTVSPost2010Prop41ColorRGB
 90
        0
102
RTVSPost2010PropOp41
 70
     1
102
RTVSPost2010Prop42
 90
       50
102
RTVSPost2010PropOp42
 70
     1
102
RTVSPost2010Prop43
 90
        3
102
RTVSPost2010PropOp43
 70
     1
102
RTVSPost2010Prop44ColorIndex
 90
        5
102
RTVSPost2010Prop44ColorRGB
 90
      255
102
RTVSPost2010PropOp44
 70
     1
102
RTVSPost2010Prop45
280
     0
102
RTVSPost2010PropOp45
 70
     1
102
RTVSPost2010Prop46
 90
       50
102
RTVSPost2010PropOp46
 70
     1
102
RTVSPost2010Prop47
 90
       50
102
RTVSPost2010PropOp47
 70
     1
102
RTVSPost2010Prop48
 90
       50
102
RTVSPost2010PropOp48
 70
     1
102
RTVSPost2010Prop49
280
     0
102
RTVSPost2010PropOp49
 70
     1
102
RTVSPost2010Prop50
 90
       50
102
RTVSPost2010PropOp50
 70
     1
102
RTVSPost2010Prop51ColorIndex
 90
      256
102
RTVSPost2010Prop51ColorRGB
 90
-16777216
102
RTVSPost2010PropOp51
 70
     0
102
RTVSPost2010Prop52
140
1.0
102
RTVSPost2010PropOp52
 70
     0
102
RTVSPost2010Prop53
 90
        2
102
RTVSPost2010PropOp53
 70
     1
102
RTVSPost2010Prop54
  1
strokes_ogs.tif
102
RTVSPost2010PropOp54
 70
     1
102
RTVSPost2010Prop55
280
     0
102
RTVSPost2010PropOp55
 70
     1
102
RTVSPost2010Prop56
140
1.0
102
RTVSPost2010PropOp56
 70
     1
102
RTVSPost2010Prop57
140
1.0
102
RTVSPost2010PropOp57
 70
     1
102
RTVSPropertyOp0
 70
     1
102
RTVSPropertyOp1
 70
     1
102
RTVSPropertyOp2
 70
     1
102
RTVSPropertyOp3
 70
     1
102
RTVSPropertyOp4
 70
     1
102
RTVSPropertyOp5
 70
     1
102
RTVSPropertyOp6
 70
     1
102
RTVSPropertyOp7
 70
     1
102
RTVSPropertyOp8
 70
     1
102
RTVSPropertyOp9
 70
     1
102
RTVSPropertyOp10
 70
     1
102
RTVSPropertyOp11
 70
     1
102
RTVSPropertyOp12
 70
     1
102
RTVSPropertyOp13
 70
     1
102
RTVSPropertyOp14
 70
     1
102
RTVSPropertyOp15
 70
     1
102
RTVSPropertyOp16
 70
     1
102
RTVSPropertyOp17
 70
     1
102
RTVSPropertyOp18
 70
     1
102
RTVSPropertyOp19
 70
     1
102
RTVSPropertyOp20
 70
     1
102
RTVSPropertyOp21
 70
     1
102
RTVSPropertyOp22
 70
     1
102
RTVSPropertyOp23
 70
     1
102
RTVSPropertyOp24
 70
     1
102
RTVSPropertyOp25
 70
     1
102
RTVSPropertyOp26
 70
     1
102
RTVSPropertyOp27
 70
     1
102
RTVSPropertyOp28
 70
     1
102
RTVSPropertyOp29
 70
     1
102
RTVSPropertyOp30
 70
     1
102
RTVSPropertyOp31
 70
     1
102
RTVSPropertyOp32
 70
     1
102
RTVSPropertyOp33
 70
     1
102
RTVSPropertyOp34
 70
     1
102
RTVSPropertyOp35
 70
     1
102
RTVSPropertyOp36
 70
     1
102
RTVSPropertyOp37
 70
     1
102
RTVSPropertyOp38
 70
     1
102
RTVSPropertyOp39
 70
     1
102
RTVSPropertyOp40
 70
     1
102
RTVSPropertyOp41
 70
     1
102
RTVSPropertyOp42
 70
     1
102
RTVSPropertyOp43
 70
     1
102
RTVSPropertyOp44
 70
     1
102
RTVSPropertyOp45
 70
     1
102
RTVSPropertyOp46
 70
     1
102
RTVSPropertyOp47
 70
     1
102
RTVSPropertyOp48
 70
     1
102
RTVSPropertyOp49
 70
     1
102
RTVSPropertyOp50
 70
     1
102
RTVSPropertyOp51
 70
     0
102
RTVSPropertyOp52
 70
     0
102
RTVSPropertyOp53
 70
     1
102
RTVSPropertyOp54
 70
     1
102
RTVSPropertyOp55
 70
     1
102
RTVSPropertyOp56
 70
     1
102
RTVSPropertyOp57
 70
     1
102
RTVSPropertyOp58
 70
     1
102
RTVSPropertyOp59
 70
     1
102
RTVSPropertyOp60
 70
     1
102
RTVSPropertyOp61
 70
     1
102
RTVSPropertyOp62
 70
     1
  0
XRECORD
  5
23B1
102
{ACAD_REACTORS
330
23B0
102
}
330
23B0
100
AcDbXrecord
280
     1
102
RTVSPost2010Prop28
280
     0
102
RTVSPost2010PropOp28
 70
     1
102
RTVSPost2010Prop29
280
     1
102
RTVSPost2010PropOp29
 70
     1
102
RTVSPost2010Prop30
280
     1
102
RTVSPost2010PropOp30
 70
     1
102
RTVSPost2010Prop31
280
     0
102
RTVSPost2010PropOp31
 70
     1
102
RTVSPost2010Prop32
280
     0
102
RTVSPost2010PropOp32
 70
     1
102
RTVSPost2010Prop33
280
     0
102
RTVSPost2010PropOp33
 70
     1
102
RTVSPost2010Prop34
280
     0
102
RTVSPost2010PropOp34
 70
     1
102
RTVSPost2010Prop35
280
     0
102
RTVSPost2010PropOp35
 70
     1
102
RTVSPost2010Prop36
280
     0
102
RTVSPost2010PropOp36
 70
     1
102
RTVSPost2010Prop37
 90
       50
102
RTVSPost2010PropOp37
 70
     1
102
RTVSPost2010Prop38
140
0.0
102
RTVSPost2010PropOp38
 70
     1
102
RTVSPost2010Prop39
140
1.0
102
RTVSPost2010PropOp39
 70
     1
102
RTVSPost2010Prop40
 90
        0
102
RTVSPost2010PropOp40
 70
     1
102
RTVSPost2010Prop41ColorIndex
 90
       18
102
RTVSPost2010Prop41ColorRGB
 90
        0
102
RTVSPost2010PropOp41
 70
     1
102
RTVSPost2010Prop42
 90
       50
102
RTVSPost2010PropOp42
 70
     1
102
RTVSPost2010Prop43
 90
        3
102
RTVSPost2010PropOp43
 70
     1
102
RTVSPost2010Prop44ColorIndex
 90
        5
102
RTVSPost2010Prop44ColorRGB
 90
      255
102
RTVSPost2010PropOp44
 70
     1
102
RTVSPost2010Prop45
280
     0
102
RTVSPost2010PropOp45
 70
     1
102
RTVSPost2010Prop46
 90
       50
102
RTVSPost2010PropOp46
 70
     1
102
RTVSPost2010Prop47
 90
       50
102
RTVSPost2010PropOp47
 70
     1
102
RTVSPost2010Prop48
 90
       50
102
RTVSPost2010PropOp48
 70
     1
102
RTVSPost2010Prop49
280
     0
102
RTVSPost2010PropOp49
 70
     1
102
RTVSPost2010Prop50
 90
       50
102
RTVSPost2010PropOp50
 70
     1
102
RTVSPost2010Prop51ColorIndex
 90
      256
102
RTVSPost2010Prop51ColorRGB
 90
-16777216
102
RTVSPost2010PropOp51
 70
     0
102
RTVSPost2010Prop52
140
1.0
102
RTVSPost2010PropOp52
 70
     0
102
RTVSPost2010Prop53
 90
        2
102
RTVSPost2010PropOp53
 70
     1
102
RTVSPost2010Prop54
  1
strokes_ogs.tif
102
RTVSPost2010PropOp54
 70
     1
102
RTVSPost2010Prop55
280
     0
102
RTVSPost2010PropOp55
 70
     1
102
RTVSPost2010Prop56
140
1.0
102
RTVSPost2010PropOp56
 70
     1
102
RTVSPost2010Prop57
140
1.0
102
RTVSPost2010PropOp57
 70
     1
102
RTVSPropertyOp0
 70
     1
102
RTVSPropertyOp1
 70
     1
102
RTVSPropertyOp2
 70
     1
102
RTVSPropertyOp3
 70
     1
102
RTVSPropertyOp4
 70
     1
102
RTVSPropertyOp5
 70
     1
102
RTVSPropertyOp6
 70
     1
102
RTVSPropertyOp7
 70
     1
102
RTVSPropertyOp8
 70
     1
102
RTVSPropertyOp9
 70
     1
102
RTVSPropertyOp10
 70
     1
102
RTVSPropertyOp11
 70
     1
102
RTVSPropertyOp12
 70
     1
102
RTVSPropertyOp13
 70
     1
102
RTVSPropertyOp14
 70
     1
102
RTVSPropertyOp15
 70
     1
102
RTVSPropertyOp16
 70
     1
102
RTVSPropertyOp17
 70
     1
102
RTVSPropertyOp18
 70
     1
102
RTVSPropertyOp19
 70
     1
102
RTVSPropertyOp20
 70
     1
102
RTVSPropertyOp21
 70
     1
102
RTVSPropertyOp22
 70
     1
102
RTVSPropertyOp23
 70
     1
102
RTVSPropertyOp24
 70
     1
102
RTVSPropertyOp25
 70
     1
102
RTVSPropertyOp26
 70
     1
102
RTVSPropertyOp27
 70
     1
102
RTVSPropertyOp28
 70
     1
102
RTVSPropertyOp29
 70
     1
102
RTVSPropertyOp30
 70
     1
102
RTVSPropertyOp31
 70
     1
102
RTVSPropertyOp32
 70
     1
102
RTVSPropertyOp33
 70
     1
102
RTVSPropertyOp34
 70
     1
102
RTVSPropertyOp35
 70
     1
102
RTVSPropertyOp36
 70
     1
102
RTVSPropertyOp37
 70
     1
102
RTVSPropertyOp38
 70
     1
102
RTVSPropertyOp39
 70
     1
102
RTVSPropertyOp40
 70
     1
102
RTVSPropertyOp41
 70
     1
102
RTVSPropertyOp42
 70
     1
102
RTVSPropertyOp43
 70
     1
102
RTVSPropertyOp44
 70
     1
102
RTVSPropertyOp45
 70
     1
102
RTVSPropertyOp46
 70
     1
102
RTVSPropertyOp47
 70
     1
102
RTVSPropertyOp48
 70
     1
102
RTVSPropertyOp49
 70
     1
102
RTVSPropertyOp50
 70
     1
102
RTVSPropertyOp51
 70
     0
102
RTVSPropertyOp52
 70
     0
102
RTVSPropertyOp53
 70
     1
102
RTVSPropertyOp54
 70
     1
102
RTVSPropertyOp55
 70
     1
102
RTVSPropertyOp56
 70
     1
102
RTVSPropertyOp57
 70
     1
102
RTVSPropertyOp58
 70
     1
102
RTVSPropertyOp59
 70
     1
102
RTVSPropertyOp60
 70
     1
102
RTVSPropertyOp61
 70
     1
102
RTVSPropertyOp62
 70
     1
  0
XRECORD
  5
23CD
102
{ACAD_REACTORS
330
23CC
102
}
330
23CC
100
AcDbXrecord
280
     1
102
RTVSPost2010Prop28
280
     0
102
RTVSPost2010PropOp28
 70
     1
102
RTVSPost2010Prop29
280
     1
102
RTVSPost2010PropOp29
 70
     1
102
RTVSPost2010Prop30
280
     1
102
RTVSPost2010PropOp30
 70
     1
102
RTVSPost2010Prop31
280
     0
102
RTVSPost2010PropOp31
 70
     1
102
RTVSPost2010Prop32
280
     0
102
RTVSPost2010PropOp32
 70
     1
102
RTVSPost2010Prop33
280
     0
102
RTVSPost2010PropOp33
 70
     1
102
RTVSPost2010Prop34
280
     0
102
RTVSPost2010PropOp34
 70
     1
102
RTVSPost2010Prop35
280
     0
102
RTVSPost2010PropOp35
 70
     1
102
RTVSPost2010Prop36
280
     0
102
RTVSPost2010PropOp36
 70
     1
102
RTVSPost2010Prop37
 90
       50
102
RTVSPost2010PropOp37
 70
     0
102
RTVSPost2010Prop38
140
0.0
102
RTVSPost2010PropOp38
 70
     0
102
RTVSPost2010Prop39
140
1.0
102
RTVSPost2010PropOp39
 70
     0
102
RTVSPost2010Prop40
 90
        0
102
RTVSPost2010PropOp40
 70
     0
102
RTVSPost2010Prop41ColorIndex
 90
       18
102
RTVSPost2010Prop41ColorRGB
 90
        0
102
RTVSPost2010PropOp41
 70
     0
102
RTVSPost2010Prop42
 90
       50
102
RTVSPost2010PropOp42
 70
     0
102
RTVSPost2010Prop43
 90
        3
102
RTVSPost2010PropOp43
 70
     0
102
RTVSPost2010Prop44ColorIndex
 90
        5
102
RTVSPost2010Prop44ColorRGB
 90
      255
102
RTVSPost2010PropOp44
 70
     0
102
RTVSPost2010Prop45
280
     0
102
RTVSPost2010PropOp45
 70
     1
102
RTVSPost2010Prop46
 90
       50
102
RTVSPost2010PropOp46
 70
     0
102
RTVSPost2010Prop47
 90
       50
102
RTVSPost2010PropOp47
 70
     0
102
RTVSPost2010Prop48
 90
       50
102
RTVSPost2010PropOp48
 70
     0
102
RTVSPost2010Prop49
280
     0
102
RTVSPost2010PropOp49
 70
     1
102
RTVSPost2010Prop50
 90
       50
102
RTVSPost2010PropOp50
 70
     0
102
RTVSPost2010Prop51ColorIndex
 90
      256
102
RTVSPost2010Prop51ColorRGB
 90
-16777216
102
RTVSPost2010PropOp51
 70
     0
102
RTVSPost2010Prop52
140
1.0
102
RTVSPost2010PropOp52
 70
     0
102
RTVSPost2010Prop53
 90
        2
102
RTVSPost2010PropOp53
 70
     0
102
RTVSPost2010Prop54
  1
strokes_ogs.tif
102
RTVSPost2010PropOp54
 70
     0
102
RTVSPost2010Prop55
280
     0
102
RTVSPost2010PropOp55
 70
     1
102
RTVSPost2010Prop56
140
1.0
102
RTVSPost2010PropOp56
 70
     0
102
RTVSPost2010Prop57
140
1.0
102
RTVSPost2010PropOp57
 70
     0
102
RTVSPropertyOp0
 70
     0
102
RTVSPropertyOp1
 70
     0
102
RTVSPropertyOp2
 70
     0
102
RTVSPropertyOp3
 70
     0
102
RTVSPropertyOp4
 70
     0
102
RTVSPropertyOp5
 70
     0
102
RTVSPropertyOp6
 70
     0
102
RTVSPropertyOp7
 70
     0
102
RTVSPropertyOp8
 70
     0
102
RTVSPropertyOp9
 70
     0
102
RTVSPropertyOp10
 70
     0
102
RTVSPropertyOp11
 70
     0
102
RTVSPropertyOp12
 70
     0
102
RTVSPropertyOp13
 70
     0
102
RTVSPropertyOp14
 70
     2
102
RTVSPropertyOp15
 70
     0
102
RTVSPropertyOp16
 70
     0
102
RTVSPropertyOp17
 70
     0
102
RTVSPropertyOp18
 70
     0
102
RTVSPropertyOp19
 70
     0
102
RTVSPropertyOp20
 70
     0
102
RTVSPropertyOp21
 70
     0
102
RTVSPropertyOp22
 70
     0
102
RTVSPropertyOp23
 70
     0
102
RTVSPropertyOp24
 70
     0
102
RTVSPropertyOp25
 70
     0
102
RTVSPropertyOp26
 70
     0
102
RTVSPropertyOp27
 70
     0
102
RTVSPropertyOp28
 70
     1
102
RTVSPropertyOp29
 70
     1
102
RTVSPropertyOp30
 70
     1
102
RTVSPropertyOp31
 70
     1
102
RTVSPropertyOp32
 70
     1
102
RTVSPropertyOp33
 70
     1
102
RTVSPropertyOp34
 70
     1
102
RTVSPropertyOp35
 70
     1
102
RTVSPropertyOp36
 70
     1
102
RTVSPropertyOp37
 70
     0
102
RTVSPropertyOp38
 70
     0
102
RTVSPropertyOp39
 70
     0
102
RTVSPropertyOp40
 70
     0
102
RTVSPropertyOp41
 70
     0
102
RTVSPropertyOp42
 70
     0
102
RTVSPropertyOp43
 70
     0
102
RTVSPropertyOp44
 70
     0
102
RTVSPropertyOp45
 70
     1
102
RTVSPropertyOp46
 70
     0
102
RTVSPropertyOp47
 70
     0
102
RTVSPropertyOp48
 70
     0
102
RTVSPropertyOp49
 70
     1
102
RTVSPropertyOp50
 70
     0
102
RTVSPropertyOp51
 70
     0
102
RTVSPropertyOp52
 70
     0
102
RTVSPropertyOp53
 70
     0
102
RTVSPropertyOp54
 70
     0
102
RTVSPropertyOp55
 70
     1
102
RTVSPropertyOp56
 70
     0
102
RTVSPropertyOp57
 70
     0
102
RTVSPropertyOp58
 70
     0
102
RTVSPropertyOp59
 70
     0
102
RTVSPropertyOp60
 70
     0
102
RTVSPropertyOp61
 70
     0
102
RTVSPropertyOp62
 70
     0
  0
XRECORD
  5
23BD
102
{ACAD_REACTORS
330
23BC
102
}
330
23BC
100
AcDbXrecord
280
     1
102
RTVSPost2010Prop28
280
     0
102
RTVSPost2010PropOp28
 70
     1
102
RTVSPost2010Prop29
280
     1
102
RTVSPost2010PropOp29
 70
     1
102
RTVSPost2010Prop30
280
     1
102
RTVSPost2010PropOp30
 70
     1
102
RTVSPost2010Prop31
280
     0
102
RTVSPost2010PropOp31
 70
     1
102
RTVSPost2010Prop32
280
     0
102
RTVSPost2010PropOp32
 70
     1
102
RTVSPost2010Prop33
280
     0
102
RTVSPost2010PropOp33
 70
     1
102
RTVSPost2010Prop34
280
     0
102
RTVSPost2010PropOp34
 70
     1
102
RTVSPost2010Prop35
280
     0
102
RTVSPost2010PropOp35
 70
     1
102
RTVSPost2010Prop36
280
     0
102
RTVSPost2010PropOp36
 70
     1
102
RTVSPost2010Prop37
 90
       50
102
RTVSPost2010PropOp37
 70
     1
102
RTVSPost2010Prop38
140
0.0
102
RTVSPost2010PropOp38
 70
     1
102
RTVSPost2010Prop39
140
1.0
102
RTVSPost2010PropOp39
 70
     1
102
RTVSPost2010Prop40
 90
        0
102
RTVSPost2010PropOp40
 70
     1
102
RTVSPost2010Prop41ColorIndex
 90
       18
102
RTVSPost2010Prop41ColorRGB
 90
        0
102
RTVSPost2010PropOp41
 70
     1
102
RTVSPost2010Prop42
 90
       50
102
RTVSPost2010PropOp42
 70
     1
102
RTVSPost2010Prop43
 90
        3
102
RTVSPost2010PropOp43
 70
     1
102
RTVSPost2010Prop44ColorIndex
 90
        5
102
RTVSPost2010Prop44ColorRGB
 90
      255
102
RTVSPost2010PropOp44
 70
     1
102
RTVSPost2010Prop45
280
     0
102
RTVSPost2010PropOp45
 70
     1
102
RTVSPost2010Prop46
 90
       50
102
RTVSPost2010PropOp46
 70
     1
102
RTVSPost2010Prop47
 90
       50
102
RTVSPost2010PropOp47
 70
     1
102
RTVSPost2010Prop48
 90
       50
102
RTVSPost2010PropOp48
 70
     1
102
RTVSPost2010Prop49
280
     0
102
RTVSPost2010PropOp49
 70
     1
102
RTVSPost2010Prop50
 90
       50
102
RTVSPost2010PropOp50
 70
     1
102
RTVSPost2010Prop51ColorIndex
 90
      256
102
RTVSPost2010Prop51ColorRGB
 90
-16777216
102
RTVSPost2010PropOp51
 70
     0
102
RTVSPost2010Prop52
140
1.0
102
RTVSPost2010PropOp52
 70
     0
102
RTVSPost2010Prop53
 90
        2
102
RTVSPost2010PropOp53
 70
     1
102
RTVSPost2010Prop54
  1
strokes_ogs.tif
102
RTVSPost2010PropOp54
 70
     1
102
RTVSPost2010Prop55
280
     0
102
RTVSPost2010PropOp55
 70
     1
102
RTVSPost2010Prop56
140
1.0
102
RTVSPost2010PropOp56
 70
     1
102
RTVSPost2010Prop57
140
1.0
102
RTVSPost2010PropOp57
 70
     1
102
RTVSPropertyOp0
 70
     1
102
RTVSPropertyOp1
 70
     1
102
RTVSPropertyOp2
 70
     1
102
RTVSPropertyOp3
 70
     1
102
RTVSPropertyOp4
 70
     1
102
RTVSPropertyOp5
 70
     1
102
RTVSPropertyOp6
 70
     1
102
RTVSPropertyOp7
 70
     1
102
RTVSPropertyOp8
 70
     1
102
RTVSPropertyOp9
 70
     1
102
RTVSPropertyOp10
 70
     1
102
RTVSPropertyOp11
 70
     1
102
RTVSPropertyOp12
 70
     1
102
RTVSPropertyOp13
 70
     1
102
RTVSPropertyOp14
 70
     1
102
RTVSPropertyOp15
 70
     1
102
RTVSPropertyOp16
 70
     1
102
RTVSPropertyOp17
 70
     1
102
RTVSPropertyOp18
 70
     1
102
RTVSPropertyOp19
 70
     1
102
RTVSPropertyOp20
 70
     1
102
RTVSPropertyOp21
 70
     1
102
RTVSPropertyOp22
 70
     1
102
RTVSPropertyOp23
 70
     1
102
RTVSPropertyOp24
 70
     1
102
RTVSPropertyOp25
 70
     1
102
RTVSPropertyOp26
 70
     1
102
RTVSPropertyOp27
 70
     1
102
RTVSPropertyOp28
 70
     1
102
RTVSPropertyOp29
 70
     1
102
RTVSPropertyOp30
 70
     1
102
RTVSPropertyOp31
 70
     1
102
RTVSPropertyOp32
 70
     1
102
RTVSPropertyOp33
 70
     1
102
RTVSPropertyOp34
 70
     1
102
RTVSPropertyOp35
 70
     1
102
RTVSPropertyOp36
 70
     1
102
RTVSPropertyOp37
 70
     1
102
RTVSPropertyOp38
 70
     1
102
RTVSPropertyOp39
 70
     1
102
RTVSPropertyOp40
 70
     1
102
RTVSPropertyOp41
 70
     1
102
RTVSPropertyOp42
 70
     1
102
RTVSPropertyOp43
 70
     1
102
RTVSPropertyOp44
 70
     1
102
RTVSPropertyOp45
 70
     1
102
RTVSPropertyOp46
 70
     1
102
RTVSPropertyOp47
 70
     1
102
RTVSPropertyOp48
 70
     1
102
RTVSPropertyOp49
 70
     1
102
RTVSPropertyOp50
 70
     1
102
RTVSPropertyOp51
 70
     0
102
RTVSPropertyOp52
 70
     0
102
RTVSPropertyOp53
 70
     1
102
RTVSPropertyOp54
 70
     1
102
RTVSPropertyOp55
 70
     1
102
RTVSPropertyOp56
 70
     1
102
RTVSPropertyOp57
 70
     1
102
RTVSPropertyOp58
 70
     1
102
RTVSPropertyOp59
 70
     1
102
RTVSPropertyOp60
 70
     1
102
RTVSPropertyOp61
 70
     1
102
RTVSPropertyOp62
 70
     1
  0
XRECORD
  5
23CF
102
{ACAD_REACTORS
330
23CE
102
}
330
23CE
100
AcDbXrecord
280
     1
102
RTVSPost2010Prop28
280
     0
102
RTVSPost2010PropOp28
 70
     1
102
RTVSPost2010Prop29
280
     1
102
RTVSPost2010PropOp29
 70
     1
102
RTVSPost2010Prop30
280
     1
102
RTVSPost2010PropOp30
 70
     1
102
RTVSPost2010Prop31
280
     0
102
RTVSPost2010PropOp31
 70
     1
102
RTVSPost2010Prop32
280
     0
102
RTVSPost2010PropOp32
 70
     1
102
RTVSPost2010Prop33
280
     0
102
RTVSPost2010PropOp33
 70
     1
102
RTVSPost2010Prop34
280
     0
102
RTVSPost2010PropOp34
 70
     1
102
RTVSPost2010Prop35
280
     0
102
RTVSPost2010PropOp35
 70
     1
102
RTVSPost2010Prop36
280
     0
102
RTVSPost2010PropOp36
 70
     1
102
RTVSPost2010Prop37
 90
       50
102
RTVSPost2010PropOp37
 70
     0
102
RTVSPost2010Prop38
140
0.0
102
RTVSPost2010PropOp38
 70
     0
102
RTVSPost2010Prop39
140
1.0
102
RTVSPost2010PropOp39
 70
     0
102
RTVSPost2010Prop40
 90
        0
102
RTVSPost2010PropOp40
 70
     0
102
RTVSPost2010Prop41ColorIndex
 90
       18
102
RTVSPost2010Prop41ColorRGB
 90
        0
102
RTVSPost2010PropOp41
 70
     0
102
RTVSPost2010Prop42
 90
       50
102
RTVSPost2010PropOp42
 70
     0
102
RTVSPost2010Prop43
 90
        3
102
RTVSPost2010PropOp43
 70
     0
102
RTVSPost2010Prop44ColorIndex
 90
        5
102
RTVSPost2010Prop44ColorRGB
 90
      255
102
RTVSPost2010PropOp44
 70
     0
102
RTVSPost2010Prop45
280
     0
102
RTVSPost2010PropOp45
 70
     1
102
RTVSPost2010Prop46
 90
       50
102
RTVSPost2010PropOp46
 70
     0
102
RTVSPost2010Prop47
 90
       50
102
RTVSPost2010PropOp47
 70
     0
102
RTVSPost2010Prop48
 90
       50
102
RTVSPost2010PropOp48
 70
     0
102
RTVSPost2010Prop49
280
     0
102
RTVSPost2010PropOp49
 70
     1
102
RTVSPost2010Prop50
 90
       50
102
RTVSPost2010PropOp50
 70
     0
102
RTVSPost2010Prop51ColorIndex
 90
      256
102
RTVSPost2010Prop51ColorRGB
 90
-16777216
102
RTVSPost2010PropOp51
 70
     0
102
RTVSPost2010Prop52
140
1.0
102
RTVSPost2010PropOp52
 70
     0
102
RTVSPost2010Prop53
 90
        2
102
RTVSPost2010PropOp53
 70
     0
102
RTVSPost2010Prop54
  1
strokes_ogs.tif
102
RTVSPost2010PropOp54
 70
     0
102
RTVSPost2010Prop55
280
     0
102
RTVSPost2010PropOp55
 70
     1
102
RTVSPost2010Prop56
140
1.0
102
RTVSPost2010PropOp56
 70
     0
102
RTVSPost2010Prop57
140
1.0
102
RTVSPost2010PropOp57
 70
     0
102
RTVSPropertyOp0
 70
     0
102
RTVSPropertyOp1
 70
     0
102
RTVSPropertyOp2
 70
     0
102
RTVSPropertyOp3
 70
     0
102
RTVSPropertyOp4
 70
     0
102
RTVSPropertyOp5
 70
     0
102
RTVSPropertyOp6
 70
     0
102
RTVSPropertyOp7
 70
     0
102
RTVSPropertyOp8
 70
     0
102
RTVSPropertyOp9
 70
     0
102
RTVSPropertyOp10
 70
     0
102
RTVSPropertyOp11
 70
     0
102
RTVSPropertyOp12
 70
     0
102
RTVSPropertyOp13
 70
     0
102
RTVSPropertyOp14
 70
     2
102
RTVSPropertyOp15
 70
     0
102
RTVSPropertyOp16
 70
     0
102
RTVSPropertyOp17
 70
     0
102
RTVSPropertyOp18
 70
     0
102
RTVSPropertyOp19
 70
     0
102
RTVSPropertyOp20
 70
     0
102
RTVSPropertyOp21
 70
     0
102
RTVSPropertyOp22
 70
     0
102
RTVSPropertyOp23
 70
     0
102
RTVSPropertyOp24
 70
     0
102
RTVSPropertyOp25
 70
     0
102
RTVSPropertyOp26
 70
     0
102
RTVSPropertyOp27
 70
     0
102
RTVSPropertyOp28
 70
     1
102
RTVSPropertyOp29
 70
     1
102
RTVSPropertyOp30
 70
     1
102
RTVSPropertyOp31
 70
     1
102
RTVSPropertyOp32
 70
     1
102
RTVSPropertyOp33
 70
     1
102
RTVSPropertyOp34
 70
     1
102
RTVSPropertyOp35
 70
     1
102
RTVSPropertyOp36
 70
     1
102
RTVSPropertyOp37
 70
     0
102
RTVSPropertyOp38
 70
     0
102
RTVSPropertyOp39
 70
     0
102
RTVSPropertyOp40
 70
     0
102
RTVSPropertyOp41
 70
     0
102
RTVSPropertyOp42
 70
     0
102
RTVSPropertyOp43
 70
     0
102
RTVSPropertyOp44
 70
     0
102
RTVSPropertyOp45
 70
     1
102
RTVSPropertyOp46
 70
     0
102
RTVSPropertyOp47
 70
     0
102
RTVSPropertyOp48
 70
     0
102
RTVSPropertyOp49
 70
     1
102
RTVSPropertyOp50
 70
     0
102
RTVSPropertyOp51
 70
     0
102
RTVSPropertyOp52
 70
     0
102
RTVSPropertyOp53
 70
     0
102
RTVSPropertyOp54
 70
     0
102
RTVSPropertyOp55
 70
     1
102
RTVSPropertyOp56
 70
     0
102
RTVSPropertyOp57
 70
     0
102
RTVSPropertyOp58
 70
     0
102
RTVSPropertyOp59
 70
     0
102
RTVSPropertyOp60
 70
     0
102
RTVSPropertyOp61
 70
     0
102
RTVSPropertyOp62
 70
     0
  0
XRECORD
  5
23B5
102
{ACAD_REACTORS
330
23B4
102
}
330
23B4
100
AcDbXrecord
280
     1
102
RTVSPost2010Prop28
280
     0
102
RTVSPost2010PropOp28
 70
     1
102
RTVSPost2010Prop29
280
     1
102
RTVSPost2010PropOp29
 70
     1
102
RTVSPost2010Prop30
280
     1
102
RTVSPost2010PropOp30
 70
     1
102
RTVSPost2010Prop31
280
     0
102
RTVSPost2010PropOp31
 70
     1
102
RTVSPost2010Prop32
280
     0
102
RTVSPost2010PropOp32
 70
     1
102
RTVSPost2010Prop33
280
     0
102
RTVSPost2010PropOp33
 70
     1
102
RTVSPost2010Prop34
280
     0
102
RTVSPost2010PropOp34
 70
     1
102
RTVSPost2010Prop35
280
     0
102
RTVSPost2010PropOp35
 70
     1
102
RTVSPost2010Prop36
280
     0
102
RTVSPost2010PropOp36
 70
     1
102
RTVSPost2010Prop37
 90
       50
102
RTVSPost2010PropOp37
 70
     1
102
RTVSPost2010Prop38
140
0.0
102
RTVSPost2010PropOp38
 70
     1
102
RTVSPost2010Prop39
140
1.0
102
RTVSPost2010PropOp39
 70
     1
102
RTVSPost2010Prop40
 90
        0
102
RTVSPost2010PropOp40
 70
     1
102
RTVSPost2010Prop41ColorIndex
 90
       18
102
RTVSPost2010Prop41ColorRGB
 90
        0
102
RTVSPost2010PropOp41
 70
     1
102
RTVSPost2010Prop42
 90
       50
102
RTVSPost2010PropOp42
 70
     1
102
RTVSPost2010Prop43
 90
        3
102
RTVSPost2010PropOp43
 70
     1
102
RTVSPost2010Prop44ColorIndex
 90
        5
102
RTVSPost2010Prop44ColorRGB
 90
      255
102
RTVSPost2010PropOp44
 70
     1
102
RTVSPost2010Prop45
280
     0
102
RTVSPost2010PropOp45
 70
     1
102
RTVSPost2010Prop46
 90
       50
102
RTVSPost2010PropOp46
 70
     1
102
RTVSPost2010Prop47
 90
       50
102
RTVSPost2010PropOp47
 70
     1
102
RTVSPost2010Prop48
 90
       50
102
RTVSPost2010PropOp48
 70
     1
102
RTVSPost2010Prop49
280
     0
102
RTVSPost2010PropOp49
 70
     1
102
RTVSPost2010Prop50
 90
       50
102
RTVSPost2010PropOp50
 70
     1
102
RTVSPost2010Prop51ColorIndex
 90
      256
102
RTVSPost2010Prop51ColorRGB
 90
-16777216
102
RTVSPost2010PropOp51
 70
     0
102
RTVSPost2010Prop52
140
1.0
102
RTVSPost2010PropOp52
 70
     0
102
RTVSPost2010Prop53
 90
        2
102
RTVSPost2010PropOp53
 70
     1
102
RTVSPost2010Prop54
  1
strokes_ogs.tif
102
RTVSPost2010PropOp54
 70
     1
102
RTVSPost2010Prop55
280
     0
102
RTVSPost2010PropOp55
 70
     1
102
RTVSPost2010Prop56
140
1.0
102
RTVSPost2010PropOp56
 70
     1
102
RTVSPost2010Prop57
140
1.0
102
RTVSPost2010PropOp57
 70
     1
102
RTVSPropertyOp0
 70
     1
102
RTVSPropertyOp1
 70
     1
102
RTVSPropertyOp2
 70
     1
102
RTVSPropertyOp3
 70
     1
102
RTVSPropertyOp4
 70
     1
102
RTVSPropertyOp5
 70
     1
102
RTVSPropertyOp6
 70
     1
102
RTVSPropertyOp7
 70
     1
102
RTVSPropertyOp8
 70
     1
102
RTVSPropertyOp9
 70
     1
102
RTVSPropertyOp10
 70
     1
102
RTVSPropertyOp11
 70
     1
102
RTVSPropertyOp12
 70
     1
102
RTVSPropertyOp13
 70
     1
102
RTVSPropertyOp14
 70
     1
102
RTVSPropertyOp15
 70
     1
102
RTVSPropertyOp16
 70
     1
102
RTVSPropertyOp17
 70
     1
102
RTVSPropertyOp18
 70
     1
102
RTVSPropertyOp19
 70
     1
102
RTVSPropertyOp20
 70
     1
102
RTVSPropertyOp21
 70
     1
102
RTVSPropertyOp22
 70
     1
102
RTVSPropertyOp23
 70
     1
102
RTVSPropertyOp24
 70
     1
102
RTVSPropertyOp25
 70
     1
102
RTVSPropertyOp26
 70
     1
102
RTVSPropertyOp27
 70
     1
102
RTVSPropertyOp28
 70
     1
102
RTVSPropertyOp29
 70
     1
102
RTVSPropertyOp30
 70
     1
102
RTVSPropertyOp31
 70
     1
102
RTVSPropertyOp32
 70
     1
102
RTVSPropertyOp33
 70
     1
102
RTVSPropertyOp34
 70
     1
102
RTVSPropertyOp35
 70
     1
102
RTVSPropertyOp36
 70
     1
102
RTVSPropertyOp37
 70
     1
102
RTVSPropertyOp38
 70
     1
102
RTVSPropertyOp39
 70
     1
102
RTVSPropertyOp40
 70
     1
102
RTVSPropertyOp41
 70
     1
102
RTVSPropertyOp42
 70
     1
102
RTVSPropertyOp43
 70
     1
102
RTVSPropertyOp44
 70
     1
102
RTVSPropertyOp45
 70
     1
102
RTVSPropertyOp46
 70
     1
102
RTVSPropertyOp47
 70
     1
102
RTVSPropertyOp48
 70
     1
102
RTVSPropertyOp49
 70
     1
102
RTVSPropertyOp50
 70
     1
102
RTVSPropertyOp51
 70
     0
102
RTVSPropertyOp52
 70
     0
102
RTVSPropertyOp53
 70
     1
102
RTVSPropertyOp54
 70
     1
102
RTVSPropertyOp55
 70
     1
102
RTVSPropertyOp56
 70
     1
102
RTVSPropertyOp57
 70
     1
102
RTVSPropertyOp58
 70
     1
102
RTVSPropertyOp59
 70
     1
102
RTVSPropertyOp60
 70
     1
102
RTVSPropertyOp61
 70
     1
102
RTVSPropertyOp62
 70
     1
  0
XRECORD
  5
23CB
102
{ACAD_REACTORS
330
23CA
102
}
330
23CA
100
AcDbXrecord
280
     1
102
RTVSPost2010Prop28
280
     0
102
RTVSPost2010PropOp28
 70
     1
102
RTVSPost2010Prop29
280
     1
102
RTVSPost2010PropOp29
 70
     1
102
RTVSPost2010Prop30
280
     1
102
RTVSPost2010PropOp30
 70
     1
102
RTVSPost2010Prop31
280
     0
102
RTVSPost2010PropOp31
 70
     1
102
RTVSPost2010Prop32
280
     0
102
RTVSPost2010PropOp32
 70
     1
102
RTVSPost2010Prop33
280
     0
102
RTVSPost2010PropOp33
 70
     1
102
RTVSPost2010Prop34
280
     0
102
RTVSPost2010PropOp34
 70
     1
102
RTVSPost2010Prop35
280
     0
102
RTVSPost2010PropOp35
 70
     1
102
RTVSPost2010Prop36
280
     0
102
RTVSPost2010PropOp36
 70
     1
102
RTVSPost2010Prop37
 90
       50
102
RTVSPost2010PropOp37
 70
     1
102
RTVSPost2010Prop38
140
0.0
102
RTVSPost2010PropOp38
 70
     1
102
RTVSPost2010Prop39
140
1.0
102
RTVSPost2010PropOp39
 70
     1
102
RTVSPost2010Prop40
 90
        0
102
RTVSPost2010PropOp40
 70
     1
102
RTVSPost2010Prop41ColorIndex
 90
       18
102
RTVSPost2010Prop41ColorRGB
 90
        0
102
RTVSPost2010PropOp41
 70
     1
102
RTVSPost2010Prop42
 90
       50
102
RTVSPost2010PropOp42
 70
     1
102
RTVSPost2010Prop43
 90
        3
102
RTVSPost2010PropOp43
 70
     1
102
RTVSPost2010Prop44ColorIndex
 90
        5
102
RTVSPost2010Prop44ColorRGB
 90
      255
102
RTVSPost2010PropOp44
 70
     1
102
RTVSPost2010Prop45
280
     0
102
RTVSPost2010PropOp45
 70
     1
102
RTVSPost2010Prop46
 90
       50
102
RTVSPost2010PropOp46
 70
     1
102
RTVSPost2010Prop47
 90
       50
102
RTVSPost2010PropOp47
 70
     1
102
RTVSPost2010Prop48
 90
       50
102
RTVSPost2010PropOp48
 70
     1
102
RTVSPost2010Prop49
280
     0
102
RTVSPost2010PropOp49
 70
     1
102
RTVSPost2010Prop50
 90
       50
102
RTVSPost2010PropOp50
 70
     1
102
RTVSPost2010Prop51ColorIndex
 90
      256
102
RTVSPost2010Prop51ColorRGB
 90
-16777216
102
RTVSPost2010PropOp51
 70
     0
102
RTVSPost2010Prop52
140
1.0
102
RTVSPost2010PropOp52
 70
     0
102
RTVSPost2010Prop53
 90
        2
102
RTVSPost2010PropOp53
 70
     1
102
RTVSPost2010Prop54
  1
strokes_ogs.tif
102
RTVSPost2010PropOp54
 70
     1
102
RTVSPost2010Prop55
280
     0
102
RTVSPost2010PropOp55
 70
     1
102
RTVSPost2010Prop56
140
1.0
102
RTVSPost2010PropOp56
 70
     1
102
RTVSPost2010Prop57
140
1.0
102
RTVSPost2010PropOp57
 70
     1
102
RTVSPropertyOp0
 70
     1
102
RTVSPropertyOp1
 70
     1
102
RTVSPropertyOp2
 70
     1
102
RTVSPropertyOp3
 70
     1
102
RTVSPropertyOp4
 70
     1
102
RTVSPropertyOp5
 70
     1
102
RTVSPropertyOp6
 70
     1
102
RTVSPropertyOp7
 70
     1
102
RTVSPropertyOp8
 70
     1
102
RTVSPropertyOp9
 70
     1
102
RTVSPropertyOp10
 70
     1
102
RTVSPropertyOp11
 70
     1
102
RTVSPropertyOp12
 70
     1
102
RTVSPropertyOp13
 70
     1
102
RTVSPropertyOp14
 70
     1
102
RTVSPropertyOp15
 70
     1
102
RTVSPropertyOp16
 70
     1
102
RTVSPropertyOp17
 70
     1
102
RTVSPropertyOp18
 70
     1
102
RTVSPropertyOp19
 70
     1
102
RTVSPropertyOp20
 70
     1
102
RTVSPropertyOp21
 70
     1
102
RTVSPropertyOp22
 70
     1
102
RTVSPropertyOp23
 70
     1
102
RTVSPropertyOp24
 70
     1
102
RTVSPropertyOp25
 70
     1
102
RTVSPropertyOp26
 70
     1
102
RTVSPropertyOp27
 70
     1
102
RTVSPropertyOp28
 70
     1
102
RTVSPropertyOp29
 70
     1
102
RTVSPropertyOp30
 70
     1
102
RTVSPropertyOp31
 70
     1
102
RTVSPropertyOp32
 70
     1
102
RTVSPropertyOp33
 70
     1
102
RTVSPropertyOp34
 70
     1
102
RTVSPropertyOp35
 70
     1
102
RTVSPropertyOp36
 70
     1
102
RTVSPropertyOp37
 70
     1
102
RTVSPropertyOp38
 70
     1
102
RTVSPropertyOp39
 70
     1
102
RTVSPropertyOp40
 70
     1
102
RTVSPropertyOp41
 70
     1
102
RTVSPropertyOp42
 70
     1
102
RTVSPropertyOp43
 70
     1
102
RTVSPropertyOp44
 70
     1
102
RTVSPropertyOp45
 70
     1
102
RTVSPropertyOp46
 70
     1
102
RTVSPropertyOp47
 70
     1
102
RTVSPropertyOp48
 70
     1
102
RTVSPropertyOp49
 70
     1
102
RTVSPropertyOp50
 70
     1
102
RTVSPropertyOp51
 70
     0
102
RTVSPropertyOp52
 70
     0
102
RTVSPropertyOp53
 70
     1
102
RTVSPropertyOp54
 70
     1
102
RTVSPropertyOp55
 70
     1
102
RTVSPropertyOp56
 70
     1
102
RTVSPropertyOp57
 70
     1
102
RTVSPropertyOp58
 70
     1
102
RTVSPropertyOp59
 70
     1
102
RTVSPropertyOp60
 70
     1
102
RTVSPropertyOp61
 70
     1
102
RTVSPropertyOp62
 70
     1
  0
XRECORD
  5
23C9
102
{ACAD_REACTORS
330
23C8
102
}
330
23C8
100
AcDbXrecord
280
     1
102
RTVSPost2010Prop28
280
     0
102
RTVSPost2010PropOp28
 70
     1
102
RTVSPost2010Prop29
280
     1
102
RTVSPost2010PropOp29
 70
     1
102
RTVSPost2010Prop30
280
     1
102
RTVSPost2010PropOp30
 70
     1
102
RTVSPost2010Prop31
280
     0
102
RTVSPost2010PropOp31
 70
     1
102
RTVSPost2010Prop32
280
     0
102
RTVSPost2010PropOp32
 70
     1
102
RTVSPost2010Prop33
280
     0
102
RTVSPost2010PropOp33
 70
     1
102
RTVSPost2010Prop34
280
     0
102
RTVSPost2010PropOp34
 70
     1
102
RTVSPost2010Prop35
280
     0
102
RTVSPost2010PropOp35
 70
     1
102
RTVSPost2010Prop36
280
     0
102
RTVSPost2010PropOp36
 70
     1
102
RTVSPost2010Prop37
 90
       50
102
RTVSPost2010PropOp37
 70
     1
102
RTVSPost2010Prop38
140
0.0
102
RTVSPost2010PropOp38
 70
     1
102
RTVSPost2010Prop39
140
1.0
102
RTVSPost2010PropOp39
 70
     1
102
RTVSPost2010Prop40
 90
        0
102
RTVSPost2010PropOp40
 70
     1
102
RTVSPost2010Prop41ColorIndex
 90
       18
102
RTVSPost2010Prop41ColorRGB
 90
        0
102
RTVSPost2010PropOp41
 70
     1
102
RTVSPost2010Prop42
 90
       50
102
RTVSPost2010PropOp42
 70
     1
102
RTVSPost2010Prop43
 90
        3
102
RTVSPost2010PropOp43
 70
     1
102
RTVSPost2010Prop44ColorIndex
 90
        5
102
RTVSPost2010Prop44ColorRGB
 90
      255
102
RTVSPost2010PropOp44
 70
     1
102
RTVSPost2010Prop45
280
     0
102
RTVSPost2010PropOp45
 70
     1
102
RTVSPost2010Prop46
 90
       50
102
RTVSPost2010PropOp46
 70
     1
102
RTVSPost2010Prop47
 90
       50
102
RTVSPost2010PropOp47
 70
     1
102
RTVSPost2010Prop48
 90
       50
102
RTVSPost2010PropOp48
 70
     1
102
RTVSPost2010Prop49
280
     0
102
RTVSPost2010PropOp49
 70
     1
102
RTVSPost2010Prop50
 90
       50
102
RTVSPost2010PropOp50
 70
     1
102
RTVSPost2010Prop51ColorIndex
 90
      256
102
RTVSPost2010Prop51ColorRGB
 90
-16777216
102
RTVSPost2010PropOp51
 70
     0
102
RTVSPost2010Prop52
140
1.0
102
RTVSPost2010PropOp52
 70
     0
102
RTVSPost2010Prop53
 90
        2
102
RTVSPost2010PropOp53
 70
     1
102
RTVSPost2010Prop54
  1
strokes_ogs.tif
102
RTVSPost2010PropOp54
 70
     1
102
RTVSPost2010Prop55
280
     0
102
RTVSPost2010PropOp55
 70
     1
102
RTVSPost2010Prop56
140
1.0
102
RTVSPost2010PropOp56
 70
     1
102
RTVSPost2010Prop57
140
1.0
102
RTVSPost2010PropOp57
 70
     1
102
RTVSPropertyOp0
 70
     1
102
RTVSPropertyOp1
 70
     1
102
RTVSPropertyOp2
 70
     1
102
RTVSPropertyOp3
 70
     1
102
RTVSPropertyOp4
 70
     1
102
RTVSPropertyOp5
 70
     1
102
RTVSPropertyOp6
 70
     1
102
RTVSPropertyOp7
 70
     1
102
RTVSPropertyOp8
 70
     1
102
RTVSPropertyOp9
 70
     1
102
RTVSPropertyOp10
 70
     1
102
RTVSPropertyOp11
 70
     1
102
RTVSPropertyOp12
 70
     1
102
RTVSPropertyOp13
 70
     1
102
RTVSPropertyOp14
 70
     1
102
RTVSPropertyOp15
 70
     1
102
RTVSPropertyOp16
 70
     1
102
RTVSPropertyOp17
 70
     1
102
RTVSPropertyOp18
 70
     1
102
RTVSPropertyOp19
 70
     1
102
RTVSPropertyOp20
 70
     1
102
RTVSPropertyOp21
 70
     1
102
RTVSPropertyOp22
 70
     1
102
RTVSPropertyOp23
 70
     1
102
RTVSPropertyOp24
 70
     1
102
RTVSPropertyOp25
 70
     1
102
RTVSPropertyOp26
 70
     1
102
RTVSPropertyOp27
 70
     1
102
RTVSPropertyOp28
 70
     1
102
RTVSPropertyOp29
 70
     1
102
RTVSPropertyOp30
 70
     1
102
RTVSPropertyOp31
 70
     1
102
RTVSPropertyOp32
 70
     1
102
RTVSPropertyOp33
 70
     1
102
RTVSPropertyOp34
 70
     1
102
RTVSPropertyOp35
 70
     1
102
RTVSPropertyOp36
 70
     1
102
RTVSPropertyOp37
 70
     1
102
RTVSPropertyOp38
 70
     1
102
RTVSPropertyOp39
 70
     1
102
RTVSPropertyOp40
 70
     1
102
RTVSPropertyOp41
 70
     1
102
RTVSPropertyOp42
 70
     1
102
RTVSPropertyOp43
 70
     1
102
RTVSPropertyOp44
 70
     1
102
RTVSPropertyOp45
 70
     1
102
RTVSPropertyOp46
 70
     1
102
RTVSPropertyOp47
 70
     1
102
RTVSPropertyOp48
 70
     1
102
RTVSPropertyOp49
 70
     1
102
RTVSPropertyOp50
 70
     1
102
RTVSPropertyOp51
 70
     0
102
RTVSPropertyOp52
 70
     0
102
RTVSPropertyOp53
 70
     1
102
RTVSPropertyOp54
 70
     1
102
RTVSPropertyOp55
 70
     1
102
RTVSPropertyOp56
 70
     1
102
RTVSPropertyOp57
 70
     1
102
RTVSPropertyOp58
 70
     1
102
RTVSPropertyOp59
 70
     1
102
RTVSPropertyOp60
 70
     1
102
RTVSPropertyOp61
 70
     1
102
RTVSPropertyOp62
 70
     1
  0
XRECORD
  5
23C3
102
{ACAD_REACTORS
330
23C2
102
}
330
23C2
100
AcDbXrecord
280
     1
102
RTVSPost2010Prop28
280
     0
102
RTVSPost2010PropOp28
 70
     1
102
RTVSPost2010Prop29
280
     1
102
RTVSPost2010PropOp29
 70
     1
102
RTVSPost2010Prop30
280
     1
102
RTVSPost2010PropOp30
 70
     1
102
RTVSPost2010Prop31
280
     0
102
RTVSPost2010PropOp31
 70
     1
102
RTVSPost2010Prop32
280
     0
102
RTVSPost2010PropOp32
 70
     1
102
RTVSPost2010Prop33
280
     0
102
RTVSPost2010PropOp33
 70
     1
102
RTVSPost2010Prop34
280
     0
102
RTVSPost2010PropOp34
 70
     1
102
RTVSPost2010Prop35
280
     0
102
RTVSPost2010PropOp35
 70
     1
102
RTVSPost2010Prop36
280
     0
102
RTVSPost2010PropOp36
 70
     1
102
RTVSPost2010Prop37
 90
       50
102
RTVSPost2010PropOp37
 70
     1
102
RTVSPost2010Prop38
140
0.0
102
RTVSPost2010PropOp38
 70
     1
102
RTVSPost2010Prop39
140
1.0
102
RTVSPost2010PropOp39
 70
     1
102
RTVSPost2010Prop40
 90
        0
102
RTVSPost2010PropOp40
 70
     1
102
RTVSPost2010Prop41ColorIndex
 90
       18
102
RTVSPost2010Prop41ColorRGB
 90
        0
102
RTVSPost2010PropOp41
 70
     1
102
RTVSPost2010Prop42
 90
       50
102
RTVSPost2010PropOp42
 70
     1
102
RTVSPost2010Prop43
 90
        3
102
RTVSPost2010PropOp43
 70
     1
102
RTVSPost2010Prop44ColorIndex
 90
        5
102
RTVSPost2010Prop44ColorRGB
 90
      255
102
RTVSPost2010PropOp44
 70
     1
102
RTVSPost2010Prop45
280
     0
102
RTVSPost2010PropOp45
 70
     1
102
RTVSPost2010Prop46
 90
       50
102
RTVSPost2010PropOp46
 70
     1
102
RTVSPost2010Prop47
 90
       50
102
RTVSPost2010PropOp47
 70
     1
102
RTVSPost2010Prop48
 90
       50
102
RTVSPost2010PropOp48
 70
     1
102
RTVSPost2010Prop49
280
     0
102
RTVSPost2010PropOp49
 70
     1
102
RTVSPost2010Prop50
 90
       50
102
RTVSPost2010PropOp50
 70
     1
102
RTVSPost2010Prop51ColorIndex
 90
      256
102
RTVSPost2010Prop51ColorRGB
 90
-16777216
102
RTVSPost2010PropOp51
 70
     0
102
RTVSPost2010Prop52
140
1.0
102
RTVSPost2010PropOp52
 70
     0
102
RTVSPost2010Prop53
 90
        2
102
RTVSPost2010PropOp53
 70
     1
102
RTVSPost2010Prop54
  1
strokes_ogs.tif
102
RTVSPost2010PropOp54
 70
     1
102
RTVSPost2010Prop55
280
     0
102
RTVSPost2010PropOp55
 70
     1
102
RTVSPost2010Prop56
140
1.0
102
RTVSPost2010PropOp56
 70
     1
102
RTVSPost2010Prop57
140
1.0
102
RTVSPost2010PropOp57
 70
     1
102
RTVSPropertyOp0
 70
     1
102
RTVSPropertyOp1
 70
     1
102
RTVSPropertyOp2
 70
     1
102
RTVSPropertyOp3
 70
     1
102
RTVSPropertyOp4
 70
     1
102
RTVSPropertyOp5
 70
     1
102
RTVSPropertyOp6
 70
     1
102
RTVSPropertyOp7
 70
     1
102
RTVSPropertyOp8
 70
     1
102
RTVSPropertyOp9
 70
     1
102
RTVSPropertyOp10
 70
     1
102
RTVSPropertyOp11
 70
     1
102
RTVSPropertyOp12
 70
     1
102
RTVSPropertyOp13
 70
     1
102
RTVSPropertyOp14
 70
     1
102
RTVSPropertyOp15
 70
     1
102
RTVSPropertyOp16
 70
     1
102
RTVSPropertyOp17
 70
     1
102
RTVSPropertyOp18
 70
     1
102
RTVSPropertyOp19
 70
     1
102
RTVSPropertyOp20
 70
     1
102
RTVSPropertyOp21
 70
     1
102
RTVSPropertyOp22
 70
     1
102
RTVSPropertyOp23
 70
     1
102
RTVSPropertyOp24
 70
     1
102
RTVSPropertyOp25
 70
     1
102
RTVSPropertyOp26
 70
     1
102
RTVSPropertyOp27
 70
     1
102
RTVSPropertyOp28
 70
     1
102
RTVSPropertyOp29
 70
     1
102
RTVSPropertyOp30
 70
     1
102
RTVSPropertyOp31
 70
     1
102
RTVSPropertyOp32
 70
     1
102
RTVSPropertyOp33
 70
     1
102
RTVSPropertyOp34
 70
     1
102
RTVSPropertyOp35
 70
     1
102
RTVSPropertyOp36
 70
     1
102
RTVSPropertyOp37
 70
     1
102
RTVSPropertyOp38
 70
     1
102
RTVSPropertyOp39
 70
     1
102
RTVSPropertyOp40
 70
     1
102
RTVSPropertyOp41
 70
     1
102
RTVSPropertyOp42
 70
     1
102
RTVSPropertyOp43
 70
     1
102
RTVSPropertyOp44
 70
     1
102
RTVSPropertyOp45
 70
     1
102
RTVSPropertyOp46
 70
     1
102
RTVSPropertyOp47
 70
     1
102
RTVSPropertyOp48
 70
     1
102
RTVSPropertyOp49
 70
     1
102
RTVSPropertyOp50
 70
     1
102
RTVSPropertyOp51
 70
     0
102
RTVSPropertyOp52
 70
     0
102
RTVSPropertyOp53
 70
     1
102
RTVSPropertyOp54
 70
     1
102
RTVSPropertyOp55
 70
     1
102
RTVSPropertyOp56
 70
     1
102
RTVSPropertyOp57
 70
     1
102
RTVSPropertyOp58
 70
     1
102
RTVSPropertyOp59
 70
     1
102
RTVSPropertyOp60
 70
     1
102
RTVSPropertyOp61
 70
     1
102
RTVSPropertyOp62
 70
     1
  0
XRECORD
  5
23C5
102
{ACAD_REACTORS
330
23C4
102
}
330
23C4
100
AcDbXrecord
280
     1
102
RTVSPost2010Prop28
280
     0
102
RTVSPost2010PropOp28
 70
     1
102
RTVSPost2010Prop29
280
     1
102
RTVSPost2010PropOp29
 70
     1
102
RTVSPost2010Prop30
280
     1
102
RTVSPost2010PropOp30
 70
     1
102
RTVSPost2010Prop31
280
     0
102
RTVSPost2010PropOp31
 70
     1
102
RTVSPost2010Prop32
280
     0
102
RTVSPost2010PropOp32
 70
     1
102
RTVSPost2010Prop33
280
     0
102
RTVSPost2010PropOp33
 70
     1
102
RTVSPost2010Prop34
280
     0
102
RTVSPost2010PropOp34
 70
     1
102
RTVSPost2010Prop35
280
     0
102
RTVSPost2010PropOp35
 70
     1
102
RTVSPost2010Prop36
280
     0
102
RTVSPost2010PropOp36
 70
     1
102
RTVSPost2010Prop37
 90
       50
102
RTVSPost2010PropOp37
 70
     1
102
RTVSPost2010Prop38
140
0.0
102
RTVSPost2010PropOp38
 70
     1
102
RTVSPost2010Prop39
140
1.0
102
RTVSPost2010PropOp39
 70
     1
102
RTVSPost2010Prop40
 90
        0
102
RTVSPost2010PropOp40
 70
     1
102
RTVSPost2010Prop41ColorIndex
 90
       18
102
RTVSPost2010Prop41ColorRGB
 90
        0
102
RTVSPost2010PropOp41
 70
     1
102
RTVSPost2010Prop42
 90
       50
102
RTVSPost2010PropOp42
 70
     1
102
RTVSPost2010Prop43
 90
        3
102
RTVSPost2010PropOp43
 70
     1
102
RTVSPost2010Prop44ColorIndex
 90
        5
102
RTVSPost2010Prop44ColorRGB
 90
      255
102
RTVSPost2010PropOp44
 70
     1
102
RTVSPost2010Prop45
280
     0
102
RTVSPost2010PropOp45
 70
     1
102
RTVSPost2010Prop46
 90
       50
102
RTVSPost2010PropOp46
 70
     1
102
RTVSPost2010Prop47
 90
       50
102
RTVSPost2010PropOp47
 70
     1
102
RTVSPost2010Prop48
 90
       50
102
RTVSPost2010PropOp48
 70
     1
102
RTVSPost2010Prop49
280
     0
102
RTVSPost2010PropOp49
 70
     1
102
RTVSPost2010Prop50
 90
       50
102
RTVSPost2010PropOp50
 70
     1
102
RTVSPost2010Prop51ColorIndex
 90
      256
102
RTVSPost2010Prop51ColorRGB
 90
-16777216
102
RTVSPost2010PropOp51
 70
     0
102
RTVSPost2010Prop52
140
1.0
102
RTVSPost2010PropOp52
 70
     0
102
RTVSPost2010Prop53
 90
        2
102
RTVSPost2010PropOp53
 70
     1
102
RTVSPost2010Prop54
  1
strokes_ogs.tif
102
RTVSPost2010PropOp54
 70
     1
102
RTVSPost2010Prop55
280
     0
102
RTVSPost2010PropOp55
 70
     1
102
RTVSPost2010Prop56
140
1.0
102
RTVSPost2010PropOp56
 70
     1
102
RTVSPost2010Prop57
140
1.0
102
RTVSPost2010PropOp57
 70
     1
102
RTVSPropertyOp0
 70
     1
102
RTVSPropertyOp1
 70
     1
102
RTVSPropertyOp2
 70
     1
102
RTVSPropertyOp3
 70
     1
102
RTVSPropertyOp4
 70
     1
102
RTVSPropertyOp5
 70
     1
102
RTVSPropertyOp6
 70
     1
102
RTVSPropertyOp7
 70
     1
102
RTVSPropertyOp8
 70
     1
102
RTVSPropertyOp9
 70
     1
102
RTVSPropertyOp10
 70
     1
102
RTVSPropertyOp11
 70
     1
102
RTVSPropertyOp12
 70
     1
102
RTVSPropertyOp13
 70
     1
102
RTVSPropertyOp14
 70
     1
102
RTVSPropertyOp15
 70
     1
102
RTVSPropertyOp16
 70
     1
102
RTVSPropertyOp17
 70
     1
102
RTVSPropertyOp18
 70
     1
102
RTVSPropertyOp19
 70
     1
102
RTVSPropertyOp20
 70
     1
102
RTVSPropertyOp21
 70
     1
102
RTVSPropertyOp22
 70
     1
102
RTVSPropertyOp23
 70
     1
102
RTVSPropertyOp24
 70
     1
102
RTVSPropertyOp25
 70
     1
102
RTVSPropertyOp26
 70
     1
102
RTVSPropertyOp27
 70
     1
102
RTVSPropertyOp28
 70
     1
102
RTVSPropertyOp29
 70
     1
102
RTVSPropertyOp30
 70
     1
102
RTVSPropertyOp31
 70
     1
102
RTVSPropertyOp32
 70
     1
102
RTVSPropertyOp33
 70
     1
102
RTVSPropertyOp34
 70
     1
102
RTVSPropertyOp35
 70
     1
102
RTVSPropertyOp36
 70
     1
102
RTVSPropertyOp37
 70
     1
102
RTVSPropertyOp38
 70
     1
102
RTVSPropertyOp39
 70
     1
102
RTVSPropertyOp40
 70
     1
102
RTVSPropertyOp41
 70
     1
102
RTVSPropertyOp42
 70
     1
102
RTVSPropertyOp43
 70
     1
102
RTVSPropertyOp44
 70
     1
102
RTVSPropertyOp45
 70
     1
102
RTVSPropertyOp46
 70
     1
102
RTVSPropertyOp47
 70
     1
102
RTVSPropertyOp48
 70
     1
102
RTVSPropertyOp49
 70
     1
102
RTVSPropertyOp50
 70
     1
102
RTVSPropertyOp51
 70
     0
102
RTVSPropertyOp52
 70
     0
102
RTVSPropertyOp53
 70
     1
102
RTVSPropertyOp54
 70
     1
102
RTVSPropertyOp55
 70
     1
102
RTVSPropertyOp56
 70
     1
102
RTVSPropertyOp57
 70
     1
102
RTVSPropertyOp58
 70
     1
102
RTVSPropertyOp59
 70
     1
102
RTVSPropertyOp60
 70
     1
102
RTVSPropertyOp61
 70
     1
102
RTVSPropertyOp62
 70
     1
  0
XRECORD
  5
23BB
102
{ACAD_REACTORS
330
23BA
102
}
330
23BA
100
AcDbXrecord
280
     1
102
RTVSPost2010Prop28
280
     0
102
RTVSPost2010PropOp28
 70
     1
102
RTVSPost2010Prop29
280
     1
102
RTVSPost2010PropOp29
 70
     1
102
RTVSPost2010Prop30
280
     1
102
RTVSPost2010PropOp30
 70
     1
102
RTVSPost2010Prop31
280
     0
102
RTVSPost2010PropOp31
 70
     1
102
RTVSPost2010Prop32
280
     0
102
RTVSPost2010PropOp32
 70
     1
102
RTVSPost2010Prop33
280
     0
102
RTVSPost2010PropOp33
 70
     1
102
RTVSPost2010Prop34
280
     0
102
RTVSPost2010PropOp34
 70
     1
102
RTVSPost2010Prop35
280
     0
102
RTVSPost2010PropOp35
 70
     1
102
RTVSPost2010Prop36
280
     0
102
RTVSPost2010PropOp36
 70
     1
102
RTVSPost2010Prop37
 90
       50
102
RTVSPost2010PropOp37
 70
     1
102
RTVSPost2010Prop38
140
0.0
102
RTVSPost2010PropOp38
 70
     1
102
RTVSPost2010Prop39
140
1.0
102
RTVSPost2010PropOp39
 70
     1
102
RTVSPost2010Prop40
 90
        0
102
RTVSPost2010PropOp40
 70
     1
102
RTVSPost2010Prop41ColorIndex
 90
       18
102
RTVSPost2010Prop41ColorRGB
 90
        0
102
RTVSPost2010PropOp41
 70
     1
102
RTVSPost2010Prop42
 90
       50
102
RTVSPost2010PropOp42
 70
     1
102
RTVSPost2010Prop43
 90
        3
102
RTVSPost2010PropOp43
 70
     1
102
RTVSPost2010Prop44ColorIndex
 90
        5
102
RTVSPost2010Prop44ColorRGB
 90
      255
102
RTVSPost2010PropOp44
 70
     1
102
RTVSPost2010Prop45
280
     0
102
RTVSPost2010PropOp45
 70
     1
102
RTVSPost2010Prop46
 90
       50
102
RTVSPost2010PropOp46
 70
     1
102
RTVSPost2010Prop47
 90
       50
102
RTVSPost2010PropOp47
 70
     1
102
RTVSPost2010Prop48
 90
       50
102
RTVSPost2010PropOp48
 70
     1
102
RTVSPost2010Prop49
280
     0
102
RTVSPost2010PropOp49
 70
     1
102
RTVSPost2010Prop50
 90
       50
102
RTVSPost2010PropOp50
 70
     1
102
RTVSPost2010Prop51ColorIndex
 90
      256
102
RTVSPost2010Prop51ColorRGB
 90
-16777216
102
RTVSPost2010PropOp51
 70
     0
102
RTVSPost2010Prop52
140
1.0
102
RTVSPost2010PropOp52
 70
     0
102
RTVSPost2010Prop53
 90
        2
102
RTVSPost2010PropOp53
 70
     1
102
RTVSPost2010Prop54
  1
strokes_ogs.tif
102
RTVSPost2010PropOp54
 70
     1
102
RTVSPost2010Prop55
280
     0
102
RTVSPost2010PropOp55
 70
     1
102
RTVSPost2010Prop56
140
1.0
102
RTVSPost2010PropOp56
 70
     1
102
RTVSPost2010Prop57
140
1.0
102
RTVSPost2010PropOp57
 70
     1
102
RTVSPropertyOp0
 70
     1
102
RTVSPropertyOp1
 70
     1
102
RTVSPropertyOp2
 70
     1
102
RTVSPropertyOp3
 70
     1
102
RTVSPropertyOp4
 70
     1
102
RTVSPropertyOp5
 70
     1
102
RTVSPropertyOp6
 70
     1
102
RTVSPropertyOp7
 70
     1
102
RTVSPropertyOp8
 70
     1
102
RTVSPropertyOp9
 70
     1
102
RTVSPropertyOp10
 70
     1
102
RTVSPropertyOp11
 70
     1
102
RTVSPropertyOp12
 70
     1
102
RTVSPropertyOp13
 70
     1
102
RTVSPropertyOp14
 70
     1
102
RTVSPropertyOp15
 70
     1
102
RTVSPropertyOp16
 70
     1
102
RTVSPropertyOp17
 70
     1
102
RTVSPropertyOp18
 70
     1
102
RTVSPropertyOp19
 70
     1
102
RTVSPropertyOp20
 70
     1
102
RTVSPropertyOp21
 70
     1
102
RTVSPropertyOp22
 70
     1
102
RTVSPropertyOp23
 70
     1
102
RTVSPropertyOp24
 70
     1
102
RTVSPropertyOp25
 70
     1
102
RTVSPropertyOp26
 70
     1
102
RTVSPropertyOp27
 70
     1
102
RTVSPropertyOp28
 70
     1
102
RTVSPropertyOp29
 70
     1
102
RTVSPropertyOp30
 70
     1
102
RTVSPropertyOp31
 70
     1
102
RTVSPropertyOp32
 70
     1
102
RTVSPropertyOp33
 70
     1
102
RTVSPropertyOp34
 70
     1
102
RTVSPropertyOp35
 70
     1
102
RTVSPropertyOp36
 70
     1
102
RTVSPropertyOp37
 70
     1
102
RTVSPropertyOp38
 70
     1
102
RTVSPropertyOp39
 70
     1
102
RTVSPropertyOp40
 70
     1
102
RTVSPropertyOp41
 70
     1
102
RTVSPropertyOp42
 70
     1
102
RTVSPropertyOp43
 70
     1
102
RTVSPropertyOp44
 70
     1
102
RTVSPropertyOp45
 70
     1
102
RTVSPropertyOp46
 70
     1
102
RTVSPropertyOp47
 70
     1
102
RTVSPropertyOp48
 70
     1
102
RTVSPropertyOp49
 70
     1
102
RTVSPropertyOp50
 70
     1
102
RTVSPropertyOp51
 70
     0
102
RTVSPropertyOp52
 70
     0
102
RTVSPropertyOp53
 70
     1
102
RTVSPropertyOp54
 70
     1
102
RTVSPropertyOp55
 70
     1
102
RTVSPropertyOp56
 70
     1
102
RTVSPropertyOp57
 70
     1
102
RTVSPropertyOp58
 70
     1
102
RTVSPropertyOp59
 70
     1
102
RTVSPropertyOp60
 70
     1
102
RTVSPropertyOp61
 70
     1
102
RTVSPropertyOp62
 70
     1
  0
XRECORD
  5
23AF
102
{ACAD_REACTORS
330
23AE
102
}
330
23AE
100
AcDbXrecord
280
     1
102
RTVSPost2010Prop28
280
     0
102
RTVSPost2010PropOp28
 70
     1
102
RTVSPost2010Prop29
280
     1
102
RTVSPost2010PropOp29
 70
     1
102
RTVSPost2010Prop30
280
     1
102
RTVSPost2010PropOp30
 70
     1
102
RTVSPost2010Prop31
280
     0
102
RTVSPost2010PropOp31
 70
     1
102
RTVSPost2010Prop32
280
     0
102
RTVSPost2010PropOp32
 70
     1
102
RTVSPost2010Prop33
280
     0
102
RTVSPost2010PropOp33
 70
     1
102
RTVSPost2010Prop34
280
     0
102
RTVSPost2010PropOp34
 70
     1
102
RTVSPost2010Prop35
280
     0
102
RTVSPost2010PropOp35
 70
     1
102
RTVSPost2010Prop36
280
     0
102
RTVSPost2010PropOp36
 70
     1
102
RTVSPost2010Prop37
 90
       50
102
RTVSPost2010PropOp37
 70
     1
102
RTVSPost2010Prop38
140
0.0
102
RTVSPost2010PropOp38
 70
     1
102
RTVSPost2010Prop39
140
1.0
102
RTVSPost2010PropOp39
 70
     1
102
RTVSPost2010Prop40
 90
        0
102
RTVSPost2010PropOp40
 70
     1
102
RTVSPost2010Prop41ColorIndex
 90
       18
102
RTVSPost2010Prop41ColorRGB
 90
        0
102
RTVSPost2010PropOp41
 70
     1
102
RTVSPost2010Prop42
 90
       50
102
RTVSPost2010PropOp42
 70
     1
102
RTVSPost2010Prop43
 90
        3
102
RTVSPost2010PropOp43
 70
     1
102
RTVSPost2010Prop44ColorIndex
 90
        5
102
RTVSPost2010Prop44ColorRGB
 90
      255
102
RTVSPost2010PropOp44
 70
     1
102
RTVSPost2010Prop45
280
     0
102
RTVSPost2010PropOp45
 70
     1
102
RTVSPost2010Prop46
 90
       50
102
RTVSPost2010PropOp46
 70
     1
102
RTVSPost2010Prop47
 90
       50
102
RTVSPost2010PropOp47
 70
     1
102
RTVSPost2010Prop48
 90
       50
102
RTVSPost2010PropOp48
 70
     1
102
RTVSPost2010Prop49
280
     0
102
RTVSPost2010PropOp49
 70
     1
102
RTVSPost2010Prop50
 90
       50
102
RTVSPost2010PropOp50
 70
     1
102
RTVSPost2010Prop51ColorIndex
 90
      256
102
RTVSPost2010Prop51ColorRGB
 90
-16777216
102
RTVSPost2010PropOp51
 70
     0
102
RTVSPost2010Prop52
140
1.0
102
RTVSPost2010PropOp52
 70
     0
102
RTVSPost2010Prop53
 90
        2
102
RTVSPost2010PropOp53
 70
     1
102
RTVSPost2010Prop54
  1
strokes_ogs.tif
102
RTVSPost2010PropOp54
 70
     1
102
RTVSPost2010Prop55
280
     0
102
RTVSPost2010PropOp55
 70
     1
102
RTVSPost2010Prop56
140
1.0
102
RTVSPost2010PropOp56
 70
     1
102
RTVSPost2010Prop57
140
1.0
102
RTVSPost2010PropOp57
 70
     1
102
RTVSPropertyOp0
 70
     1
102
RTVSPropertyOp1
 70
     1
102
RTVSPropertyOp2
 70
     1
102
RTVSPropertyOp3
 70
     1
102
RTVSPropertyOp4
 70
     1
102
RTVSPropertyOp5
 70
     1
102
RTVSPropertyOp6
 70
     1
102
RTVSPropertyOp7
 70
     1
102
RTVSPropertyOp8
 70
     1
102
RTVSPropertyOp9
 70
     1
102
RTVSPropertyOp10
 70
     1
102
RTVSPropertyOp11
 70
     1
102
RTVSPropertyOp12
 70
     1
102
RTVSPropertyOp13
 70
     1
102
RTVSPropertyOp14
 70
     1
102
RTVSPropertyOp15
 70
     1
102
RTVSPropertyOp16
 70
     1
102
RTVSPropertyOp17
 70
     1
102
RTVSPropertyOp18
 70
     1
102
RTVSPropertyOp19
 70
     1
102
RTVSPropertyOp20
 70
     1
102
RTVSPropertyOp21
 70
     1
102
RTVSPropertyOp22
 70
     1
102
RTVSPropertyOp23
 70
     1
102
RTVSPropertyOp24
 70
     1
102
RTVSPropertyOp25
 70
     1
102
RTVSPropertyOp26
 70
     1
102
RTVSPropertyOp27
 70
     1
102
RTVSPropertyOp28
 70
     1
102
RTVSPropertyOp29
 70
     1
102
RTVSPropertyOp30
 70
     1
102
RTVSPropertyOp31
 70
     1
102
RTVSPropertyOp32
 70
     1
102
RTVSPropertyOp33
 70
     1
102
RTVSPropertyOp34
 70
     1
102
RTVSPropertyOp35
 70
     1
102
RTVSPropertyOp36
 70
     1
102
RTVSPropertyOp37
 70
     1
102
RTVSPropertyOp38
 70
     1
102
RTVSPropertyOp39
 70
     1
102
RTVSPropertyOp40
 70
     1
102
RTVSPropertyOp41
 70
     1
102
RTVSPropertyOp42
 70
     1
102
RTVSPropertyOp43
 70
     1
102
RTVSPropertyOp44
 70
     1
102
RTVSPropertyOp45
 70
     1
102
RTVSPropertyOp46
 70
     1
102
RTVSPropertyOp47
 70
     1
102
RTVSPropertyOp48
 70
     1
102
RTVSPropertyOp49
 70
     1
102
RTVSPropertyOp50
 70
     1
102
RTVSPropertyOp51
 70
     0
102
RTVSPropertyOp52
 70
     0
102
RTVSPropertyOp53
 70
     1
102
RTVSPropertyOp54
 70
     1
102
RTVSPropertyOp55
 70
     1
102
RTVSPropertyOp56
 70
     1
102
RTVSPropertyOp57
 70
     1
102
RTVSPropertyOp58
 70
     1
102
RTVSPropertyOp59
 70
     1
102
RTVSPropertyOp60
 70
     1
102
RTVSPropertyOp61
 70
     1
102
RTVSPropertyOp62
 70
     1
  0
XRECORD
  5
23C7
102
{ACAD_REACTORS
330
23C6
102
}
330
23C6
100
AcDbXrecord
280
     1
102
RTVSPost2010Prop28
280
     0
102
RTVSPost2010PropOp28
 70
     1
102
RTVSPost2010Prop29
280
     1
102
RTVSPost2010PropOp29
 70
     1
102
RTVSPost2010Prop30
280
     1
102
RTVSPost2010PropOp30
 70
     1
102
RTVSPost2010Prop31
280
     0
102
RTVSPost2010PropOp31
 70
     1
102
RTVSPost2010Prop32
280
     0
102
RTVSPost2010PropOp32
 70
     1
102
RTVSPost2010Prop33
280
     0
102
RTVSPost2010PropOp33
 70
     1
102
RTVSPost2010Prop34
280
     0
102
RTVSPost2010PropOp34
 70
     1
102
RTVSPost2010Prop35
280
     0
102
RTVSPost2010PropOp35
 70
     1
102
RTVSPost2010Prop36
280
     0
102
RTVSPost2010PropOp36
 70
     1
102
RTVSPost2010Prop37
 90
       50
102
RTVSPost2010PropOp37
 70
     1
102
RTVSPost2010Prop38
140
0.0
102
RTVSPost2010PropOp38
 70
     1
102
RTVSPost2010Prop39
140
1.0
102
RTVSPost2010PropOp39
 70
     1
102
RTVSPost2010Prop40
 90
        0
102
RTVSPost2010PropOp40
 70
     1
102
RTVSPost2010Prop41ColorIndex
 90
       18
102
RTVSPost2010Prop41ColorRGB
 90
        0
102
RTVSPost2010PropOp41
 70
     1
102
RTVSPost2010Prop42
 90
       50
102
RTVSPost2010PropOp42
 70
     1
102
RTVSPost2010Prop43
 90
        3
102
RTVSPost2010PropOp43
 70
     1
102
RTVSPost2010Prop44ColorIndex
 90
        5
102
RTVSPost2010Prop44ColorRGB
 90
      255
102
RTVSPost2010PropOp44
 70
     1
102
RTVSPost2010Prop45
280
     0
102
RTVSPost2010PropOp45
 70
     1
102
RTVSPost2010Prop46
 90
       50
102
RTVSPost2010PropOp46
 70
     1
102
RTVSPost2010Prop47
 90
       50
102
RTVSPost2010PropOp47
 70
     1
102
RTVSPost2010Prop48
 90
       50
102
RTVSPost2010PropOp48
 70
     1
102
RTVSPost2010Prop49
280
     0
102
RTVSPost2010PropOp49
 70
     1
102
RTVSPost2010Prop50
 90
       50
102
RTVSPost2010PropOp50
 70
     1
102
RTVSPost2010Prop51ColorIndex
 90
      256
102
RTVSPost2010Prop51ColorRGB
 90
-16777216
102
RTVSPost2010PropOp51
 70
     0
102
RTVSPost2010Prop52
140
1.0
102
RTVSPost2010PropOp52
 70
     0
102
RTVSPost2010Prop53
 90
        2
102
RTVSPost2010PropOp53
 70
     1
102
RTVSPost2010Prop54
  1
strokes_ogs.tif
102
RTVSPost2010PropOp54
 70
     1
102
RTVSPost2010Prop55
280
     0
102
RTVSPost2010PropOp55
 70
     1
102
RTVSPost2010Prop56
140
1.0
102
RTVSPost2010PropOp56
 70
     1
102
RTVSPost2010Prop57
140
1.0
102
RTVSPost2010PropOp57
 70
     1
102
RTVSPropertyOp0
 70
     1
102
RTVSPropertyOp1
 70
     1
102
RTVSPropertyOp2
 70
     1
102
RTVSPropertyOp3
 70
     1
102
RTVSPropertyOp4
 70
     1
102
RTVSPropertyOp5
 70
     1
102
RTVSPropertyOp6
 70
     1
102
RTVSPropertyOp7
 70
     1
102
RTVSPropertyOp8
 70
     1
102
RTVSPropertyOp9
 70
     1
102
RTVSPropertyOp10
 70
     1
102
RTVSPropertyOp11
 70
     1
102
RTVSPropertyOp12
 70
     1
102
RTVSPropertyOp13
 70
     1
102
RTVSPropertyOp14
 70
     1
102
RTVSPropertyOp15
 70
     1
102
RTVSPropertyOp16
 70
     1
102
RTVSPropertyOp17
 70
     1
102
RTVSPropertyOp18
 70
     1
102
RTVSPropertyOp19
 70
     1
102
RTVSPropertyOp20
 70
     1
102
RTVSPropertyOp21
 70
     1
102
RTVSPropertyOp22
 70
     1
102
RTVSPropertyOp23
 70
     1
102
RTVSPropertyOp24
 70
     1
102
RTVSPropertyOp25
 70
     1
102
RTVSPropertyOp26
 70
     1
102
RTVSPropertyOp27
 70
     1
102
RTVSPropertyOp28
 70
     1
102
RTVSPropertyOp29
 70
     1
102
RTVSPropertyOp30
 70
     1
102
RTVSPropertyOp31
 70
     1
102
RTVSPropertyOp32
 70
     1
102
RTVSPropertyOp33
 70
     1
102
RTVSPropertyOp34
 70
     1
102
RTVSPropertyOp35
 70
     1
102
RTVSPropertyOp36
 70
     1
102
RTVSPropertyOp37
 70
     1
102
RTVSPropertyOp38
 70
     1
102
RTVSPropertyOp39
 70
     1
102
RTVSPropertyOp40
 70
     1
102
RTVSPropertyOp41
 70
     1
102
RTVSPropertyOp42
 70
     1
102
RTVSPropertyOp43
 70
     1
102
RTVSPropertyOp44
 70
     1
102
RTVSPropertyOp45
 70
     1
102
RTVSPropertyOp46
 70
     1
102
RTVSPropertyOp47
 70
     1
102
RTVSPropertyOp48
 70
     1
102
RTVSPropertyOp49
 70
     1
102
RTVSPropertyOp50
 70
     1
102
RTVSPropertyOp51
 70
     0
102
RTVSPropertyOp52
 70
     0
102
RTVSPropertyOp53
 70
     1
102
RTVSPropertyOp54
 70
     1
102
RTVSPropertyOp55
 70
     1
102
RTVSPropertyOp56
 70
     1
102
RTVSPropertyOp57
 70
     1
102
RTVSPropertyOp58
 70
     1
102
RTVSPropertyOp59
 70
     1
102
RTVSPropertyOp60
 70
     1
102
RTVSPropertyOp61
 70
     1
102
RTVSPropertyOp62
 70
     1
  0
ENDSEC
  0
EOF
