  0
SECTION
  2
HEADER
  9
$ACADVER
  1
AC1018
  9
$ACADMAINTVER
 70
     0
  9
$DWGCODEPAGE
  3
ANSI_1252
  9
$LASTSAVEDBY
  1
belottimc
  9
$INSBASE
 10
0.0
 20
0.0
 30
0.0
  9
$EXTMIN
 10
280.1611422682354
 20
118.326777532231
 30
0.0
  9
$EXTMAX
 10
655.0240784917339
 20
514.6334518001768
 30
0.0
  9
$LIMMIN
 10
0.0
 20
0.0
  9
$LIMMAX
 10
420.0
 20
297.0
  9
$ORTHOMODE
 70
     0
  9
$REGENMODE
 70
     1
  9
$FILLMODE
 70
     1
  9
$QTEXTMODE
 70
     0
  9
$MIRRTEXT
 70
     1
  9
$LTSCALE
 40
1.0
  9
$ATTMODE
 70
     1
  9
$TEXTSIZE
 40
2.5
  9
$TRACEWID
 40
1.0
  9
$TEXTSTYLE
  7
Standard
  9
$CLAYER
  8
0
  9
$CELTYPE
  6
ByLayer
  9
$CECOLOR
 62
   256
  9
$CELTSCALE
 40
1.0
  9
$DISPSILH
 70
     0
  9
$DIMSCALE
 40
1.0
  9
$DIMASZ
 40
2.5
  9
$DIMEXO
 40
0.625
  9
$DIMDLI
 40
3.75
  9
$DIMRND
 40
0.0
  9
$DIMDLE
 40
0.0
  9
$DIMEXE
 40
1.25
  9
$DIMTP
 40
0.0
  9
$DIMTM
 40
0.0
  9
$DIMTXT
 40
2.5
  9
$DIMCEN
 40
2.5
  9
$DIMTSZ
 40
0.0
  9
$DIMTOL
 70
     0
  9
$DIMLIM
 70
     0
  9
$DIMTIH
 70
     0
  9
$DIMTOH
 70
     0
  9
$DIMSE1
 70
     0
  9
$DIMSE2
 70
     0
  9
$DIMTAD
 70
     1
  9
$DIMZIN
 70
     8
  9
$DIMBLK
  1

  9
$DIMASO
 70
     1
  9
$DIMSHO
 70
     1
  9
$DIMPOST
  1

  9
$DIMAPOST
  1

  9
$DIMALT
 70
     0
  9
$DIMALTD
 70
     3
  9
$DIMALTF
 40
0.03937007874016
  9
$DIMLFAC
 40
1.0
  9
$DIMTOFL
 70
     1
  9
$DIMTVP
 40
0.0
  9
$DIMTIX
 70
     0
  9
$DIMSOXD
 70
     0
  9
$DIMSAH
 70
     0
  9
$DIMBLK1
  1

  9
$DIMBLK2
  1

  9
$DIMSTYLE
  2
Standard
  9
$DIMCLRD
 70
     0
  9
$DIMCLRE
 70
     0
  9
$DIMCLRT
 70
     0
  9
$DIMTFAC
 40
1.0
  9
$DIMGAP
 40
0.625
  9
$DIMJUST
 70
     0
  9
$DIMSD1
 70
     0
  9
$DIMSD2
 70
     0
  9
$DIMTOLJ
 70
     0
  9
$DIMTZIN
 70
     8
  9
$DIMALTZ
 70
     0
  9
$DIMALTTZ
 70
     0
  9
$DIMUPT
 70
     0
  9
$DIMDEC
 70
     2
  9
$DIMTDEC
 70
     2
  9
$DIMALTU
 70
     2
  9
$DIMALTTD
 70
     3
  9
$DIMTXSTY
  7
Standard
  9
$DIMAUNIT
 70
     0
  9
$DIMADEC
 70
     0
  9
$DIMALTRND
 40
0.0
  9
$DIMAZIN
 70
     0
  9
$DIMDSEP
 70
    44
  9
$DIMATFIT
 70
     0
  9
$DIMFRAC
 70
     0
  9
$DIMLDRBLK
  1

  9
$DIMLUNIT
 70
     2
  9
$DIMLWD
 70
    -2
  9
$DIMLWE
 70
    -2
  9
$DIMTMOVE
 70
     0
  9
$LUNITS
 70
     2
  9
$LUPREC
 70
     4
  9
$SKETCHINC
 40
1.0
  9
$FILLETRAD
 40
2.5
  9
$AUNITS
 70
     0
  9
$AUPREC
 70
     0
  9
$MENU
  1
.
  9
$ELEVATION
 40
0.0
  9
$PELEVATION
 40
0.0
  9
$THICKNESS
 40
0.0
  9
$LIMCHECK
 70
     0
  9
$CHAMFERA
 40
2.5
  9
$CHAMFERB
 40
2.5
  9
$CHAMFERC
 40
0.0
  9
$CHAMFERD
 40
0.0
  9
$SKPOLY
 70
     0
  9
$TDCREATE
 40
2447893.08333331
  9
$TDUCREATE
 40
2447892.999999977
  9
$TDUPDATE
 40
2447893.083333333
  9
$TDUUPDATE
 40
2447893.0
  9
$TDINDWG
 40
0.1200693981
  9
$TDUSRTIMER
 40
0.1200693981
  9
$USRTIMER
 70
     1
  9
$ANGBASE
 50
0.0
  9
$ANGDIR
 70
     0
  9
$PDMODE
 70
     0
  9
$PDSIZE
 40
0.0
  9
$PLINEWID
 40
0.0
  9
$SPLFRAME
 70
     0
  9
$SPLINETYPE
 70
     6
  9
$SPLINESEGS
 70
     8
  9
$HANDSEED
  5
9B2
  9
$SURFTAB1
 70
     6
  9
$SURFTAB2
 70
     6
  9
$SURFTYPE
 70
     6
  9
$SURFU
 70
     6
  9
$SURFV
 70
     6
  9
$UCSBASE
  2

  9
$UCSNAME
  2

  9
$UCSORG
 10
0.0
 20
0.0
 30
0.0
  9
$UCSXDIR
 10
1.0
 20
0.0
 30
0.0
  9
$UCSYDIR
 10
0.0
 20
1.0
 30
0.0
  9
$UCSORTHOREF
  2

  9
$UCSORTHOVIEW
 70
     0
  9
$UCSORGTOP
 10
0.0
 20
0.0
 30
0.0
  9
$UCSORGBOTTOM
 10
0.0
 20
0.0
 30
0.0
  9
$UCSORGLEFT
 10
0.0
 20
0.0
 30
0.0
  9
$UCSORGRIGHT
 10
0.0
 20
0.0
 30
0.0
  9
$UCSORGFRONT
 10
0.0
 20
0.0
 30
0.0
  9
$UCSORGBACK
 10
0.0
 20
0.0
 30
0.0
  9
$PUCSBASE
  2

  9
$PUCSNAME
  2

  9
$PUCSORG
 10
0.0
 20
0.0
 30
0.0
  9
$PUCSXDIR
 10
1.0
 20
0.0
 30
0.0
  9
$PUCSYDIR
 10
0.0
 20
1.0
 30
0.0
  9
$PUCSORTHOREF
  2

  9
$PUCSORTHOVIEW
 70
     0
  9
$PUCSORGTOP
 10
0.0
 20
0.0
 30
0.0
  9
$PUCSORGBOTTOM
 10
0.0
 20
0.0
 30
0.0
  9
$PUCSORGLEFT
 10
0.0
 20
0.0
 30
0.0
  9
$PUCSORGRIGHT
 10
0.0
 20
0.0
 30
0.0
  9
$PUCSORGFRONT
 10
0.0
 20
0.0
 30
0.0
  9
$PUCSORGBACK
 10
0.0
 20
0.0
 30
0.0
  9
$USERI1
 70
     0
  9
$USERI2
 70
     0
  9
$USERI3
 70
     0
  9
$USERI4
 70
     0
  9
$USERI5
 70
     0
  9
$USERR1
 40
0.0
  9
$USERR2
 40
0.0
  9
$USERR3
 40
0.0
  9
$USERR4
 40
0.0
  9
$USERR5
 40
0.0
  9
$WORLDVIEW
 70
     1
  9
$SHADEDGE
 70
     3
  9
$SHADEDIF
 70
    70
  9
$TILEMODE
 70
     1
  9
$MAXACTVP
 70
    48
  9
$PINSBASE
 10
0.0
 20
0.0
 30
0.0
  9
$PLIMCHECK
 70
     0
  9
$PEXTMIN
 10
0.0
 20
0.0
 30
0.0
  9
$PEXTMAX
 10
572.2044677734375
 20
377.2002868652344
 30
2.0
  9
$PLIMMIN
 10
0.0
 20
0.0
  9
$PLIMMAX
 10
420.0
 20
297.0
  9
$UNITMODE
 70
     0
  9
$VISRETAIN
 70
     0
  9
$PLINEGEN
 70
     0
  9
$PSLTSCALE
 70
     1
  9
$TREEDEPTH
 70
  3020
  9
$CMLSTYLE
  2
Standard
  9
$CMLJUST
 70
     0
  9
$CMLSCALE
 40
20.0
  9
$PROXYGRAPHICS
 70
     1
  9
$MEASUREMENT
 70
     1
  9
$CELWEIGHT
370
    -1
  9
$ENDCAPS
280
     0
  9
$JOINSTYLE
280
     0
  9
$LWDISPLAY
290
     0
  9
$INSUNITS
 70
     0
  9
$HYPERLINKBASE
  1

  9
$STYLESHEET
  1

  9
$XEDIT
290
     1
  9
$CEPSNTYPE
380
     0
  9
$PSTYLEMODE
290
     0
  9
$FINGERPRINTGUID
  2

  9
$VERSIONGUID
  2

  9
$EXTNAMES
290
     1
  9
$PSVPSCALE
 40
0.0
  9
$OLESTARTUP
290
     0
  9
$SORTENTS
280
   127
  9
$INDEXCTL
280
     0
  9
$HIDETEXT
280
     1
  9
$XCLIPFRAME
290
     0
  9
$HALOGAP
280
     0
  9
$OBSCOLOR
 70
   257
  9
$OBSLTYPE
280
     0
  9
$INTERSECTIONDISPLAY
280
     0
  9
$INTERSECTIONCOLOR
 70
   257
  9
$DIMASSOC
280
     2
  9
$PROJECTNAME
  1

  0
ENDSEC
  0
SECTION
  2
CLASSES
  0
CLASS
  1
ACDBDICTIONARYWDFLT
  2
AcDbDictionaryWithDefault
  3
ObjectDBX Classes
 90
        0
 91
        4
280
     0
281
     0
  0
CLASS
  1
ACDBPLACEHOLDER
  2
AcDbPlaceHolder
  3
ObjectDBX Classes
 90
        0
 91
        1
280
     0
281
     0
  0
CLASS
  1
LAYOUT
  2
AcDbLayout
  3
ObjectDBX Classes
 90
        0
 91
        1
280
     0
281
     0
  0
CLASS
  1
DICTIONARYVAR
  2
AcDbDictionaryVar
  3
ObjectDBX Classes
 90
        0
 91
        4
280
     0
281
     0
  0
CLASS
  1
TABLESTYLE
  2
AcDbTableStyle
  3
ObjectDBX Classes
 90
     4095
 91
        6
280
     0
281
     0
  0
CLASS
  1
SCALE
  2
AcDbScale
  3
ObjectDBX Classes
 90
     1153
 91
       70
280
     0
281
     0
  0
CLASS
  1
WIPEOUTVARIABLES
  2
AcDbWipeoutVariables
  3
WipeOut|AutoCAD Express Tool|expresstools@autodesk.com
 90
        0
 91
        4
280
     0
281
     0
  0
ENDSEC
  0
SECTION
  2
TABLES
  0
TABLE
  2
VPORT
  5
8
330
0
100
AcDbSymbolTable
 70
     2
  0
VPORT
  5
97
330
8
100
AcDbSymbolTableRecord
100
AcDbViewportTableRecord
  2
*ACTIVE
 70
     0
 10
0.0
 20
0.0
 11
1.0
 21
1.0
 12
608.4917130032048
 22
342.0863730103996
 13
0.0
 23
0.0
 14
1.0
 24
1.0
 15
0.5
 25
0.5
 16
0.0
 26
0.0
 36
1.0
 17
0.0
 27
0.0
 37
0.0
 40
656.0550299423287
 41
0.688564
 42
50.0
 43
0.0
 44
0.0
 50
0.0
 51
0.0
 71
     0
 72
   100
 73
     1
 74
     1
 75
     0
 76
     0
 77
     0
 78
     0
281
     0
 65
     1
110
0.0
120
0.0
130
0.0
111
1.0
121
0.0
131
0.0
112
0.0
122
1.0
132
0.0
 79
     0
146
0.0
  0
ENDTAB
  0
TABLE
  2
LTYPE
  5
5
330
0
100
AcDbSymbolTable
 70
     1
  0
LTYPE
  5
14
330
5
100
AcDbSymbolTableRecord
100
AcDbLinetypeTableRecord
  2
ByBlock
 70
     0
  3

 72
    65
 73
     0
 40
0.0
  0
LTYPE
  5
15
330
5
100
AcDbSymbolTableRecord
100
AcDbLinetypeTableRecord
  2
ByLayer
 70
     0
  3

 72
    65
 73
     0
 40
0.0
  0
LTYPE
  5
16
330
5
100
AcDbSymbolTableRecord
100
AcDbLinetypeTableRecord
  2
Continuous
 70
     0
  3
Solid line
 72
    65
 73
     0
 40
0.0
  0
ENDTAB
  0
TABLE
  2
LAYER
  5
2
330
0
100
AcDbSymbolTable
 70
     2
  0
LAYER
  5
10
330
2
100
AcDbSymbolTableRecord
100
AcDbLayerTableRecord
  2
0
 70
     0
 62
     7
  6
Continuous
370
    -3
390
F
  0
LAYER
  5
6B5
330
2
100
AcDbSymbolTableRecord
100
AcDbLayerTableRecord
  2
DEFPOINTS
 70
     0
 62
     7
  6
Continuous
290
     0
370
    -3
390
F
  0
ENDTAB
  0
TABLE
  2
STYLE
  5
3
330
0
100
AcDbSymbolTable
 70
     1
  0
STYLE
  5
11
330
3
100
AcDbSymbolTableRecord
100
AcDbTextStyleTableRecord
  2
Standard
 70
     0
 40
0.0
 41
1.0
 50
0.0
 71
     0
 42
2.5
  3
txt
  4

  0
ENDTAB
  0
TABLE
  2
VIEW
  5
6
330
0
100
AcDbSymbolTable
 70
     0
  0
ENDTAB
  0
TABLE
  2
UCS
  5
7
330
0
100
AcDbSymbolTable
 70
     0
  0
ENDTAB
  0
TABLE
  2
APPID
  5
9
330
0
100
AcDbSymbolTable
 70
     1
  0
APPID
  5
12
330
9
100
AcDbSymbolTableRecord
100
AcDbRegAppTableRecord
  2
ACAD
 70
     0
  0
ENDTAB
  0
TABLE
  2
DIMSTYLE
  5
A
330
0
100
AcDbSymbolTable
 70
     1
100
AcDbDimStyleTable
  0
DIMSTYLE
105
27
102
{ACAD_REACTORS
330
908
330
92A
102
}
330
A
100
AcDbSymbolTableRecord
100
AcDbDimStyleTableRecord
  2
Standard
 70
     0
340
11
  0
ENDTAB
  0
TABLE
  2
BLOCK_RECORD
  5
1
330
0
100
AcDbSymbolTable
 70
    48
  0
BLOCK_RECORD
  5
1F
330
1
100
AcDbSymbolTableRecord
100
AcDbBlockTableRecord
  2
*Model_Space
340
22
  0
BLOCK_RECORD
  5
73
330
1
100
AcDbSymbolTableRecord
100
AcDbBlockTableRecord
  2
*Paper_Space
340
74
  0
BLOCK_RECORD
  5
6C1
330
1
100
AcDbSymbolTableRecord
100
AcDbBlockTableRecord
  2
*D0
340
0
  0
BLOCK_RECORD
  5
6CC
330
1
100
AcDbSymbolTableRecord
100
AcDbBlockTableRecord
  2
*D1
340
0
  0
BLOCK_RECORD
  5
6D7
330
1
100
AcDbSymbolTableRecord
100
AcDbBlockTableRecord
  2
*D2
340
0
  0
BLOCK_RECORD
  5
6E2
330
1
100
AcDbSymbolTableRecord
100
AcDbBlockTableRecord
  2
*D3
340
0
  0
BLOCK_RECORD
  5
6ED
330
1
100
AcDbSymbolTableRecord
100
AcDbBlockTableRecord
  2
*D4
340
0
  0
BLOCK_RECORD
  5
6F8
330
1
100
AcDbSymbolTableRecord
100
AcDbBlockTableRecord
  2
*D5
340
0
  0
BLOCK_RECORD
  5
704
330
1
100
AcDbSymbolTableRecord
100
AcDbBlockTableRecord
  2
*D6
340
0
  0
BLOCK_RECORD
  5
70F
330
1
100
AcDbSymbolTableRecord
100
AcDbBlockTableRecord
  2
*D7
340
0
  0
BLOCK_RECORD
  5
71A
330
1
100
AcDbSymbolTableRecord
100
AcDbBlockTableRecord
  2
*D8
340
0
  0
BLOCK_RECORD
  5
725
330
1
100
AcDbSymbolTableRecord
100
AcDbBlockTableRecord
  2
*D9
340
0
  0
BLOCK_RECORD
  5
730
330
1
100
AcDbSymbolTableRecord
100
AcDbBlockTableRecord
  2
*D10
340
0
  0
BLOCK_RECORD
  5
73B
330
1
100
AcDbSymbolTableRecord
100
AcDbBlockTableRecord
  2
*D11
340
0
  0
BLOCK_RECORD
  5
746
330
1
100
AcDbSymbolTableRecord
100
AcDbBlockTableRecord
  2
*D12
340
0
  0
BLOCK_RECORD
  5
751
330
1
100
AcDbSymbolTableRecord
100
AcDbBlockTableRecord
  2
*D13
340
0
  0
BLOCK_RECORD
  5
75C
330
1
100
AcDbSymbolTableRecord
100
AcDbBlockTableRecord
  2
*D14
340
0
  0
BLOCK_RECORD
  5
78C
330
1
100
AcDbSymbolTableRecord
100
AcDbBlockTableRecord
  2
*D15
340
0
  0
BLOCK_RECORD
  5
798
330
1
100
AcDbSymbolTableRecord
100
AcDbBlockTableRecord
  2
*D16
340
0
  0
BLOCK_RECORD
  5
7A3
330
1
100
AcDbSymbolTableRecord
100
AcDbBlockTableRecord
  2
*D17
340
0
  0
BLOCK_RECORD
  5
7AF
330
1
100
AcDbSymbolTableRecord
100
AcDbBlockTableRecord
  2
*D18
340
0
  0
BLOCK_RECORD
  5
7BA
330
1
100
AcDbSymbolTableRecord
100
AcDbBlockTableRecord
  2
*D19
340
0
  0
BLOCK_RECORD
  5
7C5
330
1
100
AcDbSymbolTableRecord
100
AcDbBlockTableRecord
  2
*D20
340
0
  0
BLOCK_RECORD
  5
7D0
330
1
100
AcDbSymbolTableRecord
100
AcDbBlockTableRecord
  2
*D21
340
0
  0
BLOCK_RECORD
  5
7DB
330
1
100
AcDbSymbolTableRecord
100
AcDbBlockTableRecord
  2
*D22
340
0
  0
BLOCK_RECORD
  5
7EB
330
1
100
AcDbSymbolTableRecord
100
AcDbBlockTableRecord
  2
*D23
340
0
  0
BLOCK_RECORD
  5
7F8
330
1
100
AcDbSymbolTableRecord
100
AcDbBlockTableRecord
  2
*D24
340
0
  0
BLOCK_RECORD
  5
805
330
1
100
AcDbSymbolTableRecord
100
AcDbBlockTableRecord
  2
*D25
340
0
  0
BLOCK_RECORD
  5
812
330
1
100
AcDbSymbolTableRecord
100
AcDbBlockTableRecord
  2
*D26
340
0
  0
BLOCK_RECORD
  5
81E
330
1
100
AcDbSymbolTableRecord
100
AcDbBlockTableRecord
  2
*D27
340
0
  0
BLOCK_RECORD
  5
82A
330
1
100
AcDbSymbolTableRecord
100
AcDbBlockTableRecord
  2
*D28
340
0
  0
BLOCK_RECORD
  5
836
330
1
100
AcDbSymbolTableRecord
100
AcDbBlockTableRecord
  2
*D29
340
0
  0
BLOCK_RECORD
  5
842
330
1
100
AcDbSymbolTableRecord
100
AcDbBlockTableRecord
  2
*D30
340
0
  0
BLOCK_RECORD
  5
84F
330
1
100
AcDbSymbolTableRecord
100
AcDbBlockTableRecord
  2
*D31
340
0
  0
BLOCK_RECORD
  5
85B
330
1
100
AcDbSymbolTableRecord
100
AcDbBlockTableRecord
  2
*D32
340
0
  0
BLOCK_RECORD
  5
8A3
330
1
100
AcDbSymbolTableRecord
100
AcDbBlockTableRecord
  2
*D33
340
0
  0
BLOCK_RECORD
  5
8AF
330
1
100
AcDbSymbolTableRecord
100
AcDbBlockTableRecord
  2
*D34
340
0
  0
BLOCK_RECORD
  5
8BA
330
1
100
AcDbSymbolTableRecord
100
AcDbBlockTableRecord
  2
*D35
340
0
  0
BLOCK_RECORD
  5
8C5
330
1
100
AcDbSymbolTableRecord
100
AcDbBlockTableRecord
  2
*D36
340
0
  0
BLOCK_RECORD
  5
8D0
330
1
100
AcDbSymbolTableRecord
100
AcDbBlockTableRecord
  2
*D37
340
0
  0
BLOCK_RECORD
  5
8DB
330
1
100
AcDbSymbolTableRecord
100
AcDbBlockTableRecord
  2
*D38
340
0
  0
BLOCK_RECORD
  5
8E7
330
1
100
AcDbSymbolTableRecord
100
AcDbBlockTableRecord
  2
*D39
340
0
  0
BLOCK_RECORD
  5
8F4
330
1
100
AcDbSymbolTableRecord
100
AcDbBlockTableRecord
  2
*D40
340
0
  0
BLOCK_RECORD
  5
901
330
1
100
AcDbSymbolTableRecord
100
AcDbBlockTableRecord
  2
*D41
340
0
  0
BLOCK_RECORD
  5
913
330
1
100
AcDbSymbolTableRecord
100
AcDbBlockTableRecord
  2
*D42
340
0
  0
BLOCK_RECORD
  5
91E
330
1
100
AcDbSymbolTableRecord
100
AcDbBlockTableRecord
  2
*D43
340
0
  0
BLOCK_RECORD
  5
929
330
1
100
AcDbSymbolTableRecord
100
AcDbBlockTableRecord
  2
*D44
340
0
  0
BLOCK_RECORD
  5
935
330
1
100
AcDbSymbolTableRecord
100
AcDbBlockTableRecord
  2
*D45
340
0
  0
BLOCK_RECORD
  5
940
330
1
100
AcDbSymbolTableRecord
100
AcDbBlockTableRecord
  2
*D46
340
0
  0
BLOCK_RECORD
  5
94B
330
1
100
AcDbSymbolTableRecord
100
AcDbBlockTableRecord
  2
*D47
340
0
  0
ENDTAB
  0
ENDSEC
  0
SECTION
  2
BLOCKS
  0
BLOCK
  5
20
330
1F
100
AcDbEntity
  8
0
100
AcDbBlockBegin
  2
*Model_Space
 70
     0
 10
0.0
 20
0.0
 30
0.0
  3
*Model_Space
  1

  0
ENDBLK
  5
21
330
1F
100
AcDbEntity
  8
0
100
AcDbBlockEnd
  0
BLOCK
  5
75
330
73
100
AcDbEntity
 67
     1
  8
0
100
AcDbBlockBegin
  2
*Paper_Space
 70
     0
 10
0.0
 20
0.0
 30
0.0
  3
*Paper_Space
  1

  0
ENDBLK
  5
76
330
73
100
AcDbEntity
 67
     1
  8
0
100
AcDbBlockEnd
  0
BLOCK
  5
950
330
6C1
100
AcDbEntity
  8
0
100
AcDbBlockBegin
  2
*D0
 70
     1
 10
0.0
 20
0.0
 30
0.0
  3
*D0
  1

  0
POINT
  5
6B8
330
6C1
100
AcDbEntity
  8
DEFPOINTS
  6
ByBlock
 62
     0
380
     1
100
AcDbPoint
 10
466.1093250360678
 20
377.2002563476562
 30
0.0
  0
POINT
  5
6B9
330
6C1
100
AcDbEntity
  8
DEFPOINTS
  6
ByBlock
 62
     0
380
     1
100
AcDbPoint
 10
463.9225839907697
 20
236.7391815185547
 30
0.0
  0
LINE
  5
6BA
330
6C1
100
AcDbEntity
  8
0
  6
ByBlock
 62
     0
370
    -2
380
     1
100
AcDbLine
 10
466.7343250360678
 20
377.2002563476562
 30
0.0
 11
569.5894689037517
 21
377.2002563476562
 31
0.0
  0
LINE
  5
6BB
330
6C1
100
AcDbEntity
  8
0
  6
ByBlock
 62
     0
370
    -2
380
     1
100
AcDbLine
 10
464.5475839907697
 20
236.7391815185547
 30
0.0
 11
569.5894689037517
 21
236.7391815185547
 31
0.0
  0
LINE
  5
6BC
330
6C1
100
AcDbEntity
  8
0
  6
ByBlock
 62
     0
370
    -2
380
     1
100
AcDbLine
 10
568.3394689037517
 20
374.7002563476562
 30
0.0
 11
568.3394689037517
 21
239.2391815185547
 31
0.0
  0
SOLID
  5
6BD
330
6C1
100
AcDbEntity
  8
0
  6
ByBlock
 62
     0
380
     1
100
AcDbTrace
 10
568.3394689037517
 20
377.2002563476562
 30
0.0
 11
567.9228022370851
 21
374.7002563476562
 31
0.0
 12
568.7561355704183
 22
374.7002563476562
 32
0.0
 13
568.7561355704183
 23
374.7002563476562
 33
0.0
  0
SOLID
  5
6BE
330
6C1
100
AcDbEntity
  8
0
  6
ByBlock
 62
     0
380
     1
100
AcDbTrace
 10
568.3394689037517
 20
236.7391815185547
 30
0.0
 11
567.9228022370851
 21
239.2391815185547
 31
0.0
 12
568.7561355704183
 22
239.2391815185547
 32
0.0
 13
568.7561355704183
 23
239.2391815185547
 33
0.0
  0
MTEXT
  5
6BF
330
6C1
100
AcDbEntity
  8
0
  6
ByBlock
 62
     0
370
    -2
380
     1
100
AcDbMText
 10
566.2561355704183
 20
306.9697189331055
 30
0.0
 40
2.5
 41
0.0
 71
     5
 72
     1
  1
\A1;140,46
 11
6.123031769111886E-17
 21
1.0
 31
0.0
 73
     1
 44
1.0
  0
ENDBLK
  5
951
330
6C1
100
AcDbEntity
  8
0
100
AcDbBlockEnd
  0
BLOCK
  5
952
330
6CC
100
AcDbEntity
  8
0
100
AcDbBlockBegin
  2
*D1
 70
     1
 10
0.0
 20
0.0
 30
0.0
  3
*D1
  1

  0
POINT
  5
6C3
330
6CC
100
AcDbEntity
  8
DEFPOINTS
  6
ByBlock
 62
     0
380
     1
100
AcDbPoint
 10
466.1093250360678
 20
377.2002563476562
 30
0.0
  0
POINT
  5
6C4
330
6CC
100
AcDbEntity
  8
DEFPOINTS
  6
ByBlock
 62
     0
380
     1
100
AcDbPoint
 10
463.9225839907697
 20
236.7391815185547
 30
0.0
  0
LINE
  5
6C5
330
6CC
100
AcDbEntity
  8
0
  6
ByBlock
 62
     0
370
    -2
380
     1
100
AcDbLine
 10
466.7343250360678
 20
377.2002563476562
 30
0.0
 11
569.5894689037517
 21
377.2002563476562
 31
0.0
  0
LINE
  5
6C6
330
6CC
100
AcDbEntity
  8
0
  6
ByBlock
 62
     0
370
    -2
380
     1
100
AcDbLine
 10
464.5475839907697
 20
236.7391815185547
 30
0.0
 11
569.5894689037517
 21
236.7391815185547
 31
0.0
  0
LINE
  5
6C7
330
6CC
100
AcDbEntity
  8
0
  6
ByBlock
 62
     0
370
    -2
380
     1
100
AcDbLine
 10
568.3394689037517
 20
367.2002563476562
 30
0.0
 11
568.3394689037517
 21
246.7391815185547
 31
0.0
  0
SOLID
  5
6C8
330
6CC
100
AcDbEntity
  8
0
  6
ByBlock
 62
     0
380
     1
100
AcDbTrace
 10
568.3394689037517
 20
377.2002563476562
 30
0.0
 11
566.6728022370851
 21
367.2002563476562
 31
0.0
 12
570.0061355704183
 22
367.2002563476562
 32
0.0
 13
570.0061355704183
 23
367.2002563476562
 33
0.0
  0
SOLID
  5
6C9
330
6CC
100
AcDbEntity
  8
0
  6
ByBlock
 62
     0
380
     1
100
AcDbTrace
 10
568.3394689037517
 20
236.7391815185547
 30
0.0
 11
566.6728022370851
 21
246.7391815185547
 31
0.0
 12
570.0061355704183
 22
246.7391815185547
 32
0.0
 13
570.0061355704183
 23
246.7391815185547
 33
0.0
  0
MTEXT
  5
6CA
330
6CC
100
AcDbEntity
  8
0
  6
ByBlock
 62
     0
370
    -2
380
     1
100
AcDbMText
 10
540.3394689037517
 20
306.9697189331055
 30
0.0
 40
36.0
 41
0.0
 71
     5
 72
     1
  1
\A1;140
 11
6.123031769111886E-17
 21
1.0
 31
0.0
 73
     1
 44
1.0
  0
ENDBLK
  5
953
330
6CC
100
AcDbEntity
  8
0
100
AcDbBlockEnd
  0
BLOCK
  5
954
330
6D7
100
AcDbEntity
  8
0
100
AcDbBlockBegin
  2
*D2
 70
     1
 10
0.0
 20
0.0
 30
0.0
  3
*D2
  1

  0
POINT
  5
6CE
330
6D7
100
AcDbEntity
  8
DEFPOINTS
  6
ByBlock
 62
     0
380
     1
100
AcDbPoint
 10
466.1093250360678
 20
377.2002563476562
 30
0.0
  0
POINT
  5
6CF
330
6D7
100
AcDbEntity
  8
DEFPOINTS
  6
ByBlock
 62
     0
380
     1
100
AcDbPoint
 10
463.9225839907697
 20
236.7391815185547
 30
0.0
  0
LINE
  5
6D0
330
6D7
100
AcDbEntity
  8
0
  6
ByBlock
 62
     0
370
    -2
380
     1
100
AcDbLine
 10
466.7343250360678
 20
377.2002563476562
 30
0.0
 11
569.5894689037517
 21
377.2002563476562
 31
0.0
  0
LINE
  5
6D1
330
6D7
100
AcDbEntity
  8
0
  6
ByBlock
 62
     0
370
    -2
380
     1
100
AcDbLine
 10
464.5475839907697
 20
236.7391815185547
 30
0.0
 11
569.5894689037517
 21
236.7391815185547
 31
0.0
  0
LINE
  5
6D2
330
6D7
100
AcDbEntity
  8
0
  6
ByBlock
 62
     0
370
    -2
380
     1
100
AcDbLine
 10
568.3394689037517
 20
367.2002563476562
 30
0.0
 11
568.3394689037517
 21
246.7391815185547
 31
0.0
  0
SOLID
  5
6D3
330
6D7
100
AcDbEntity
  8
0
  6
ByBlock
 62
     0
380
     1
100
AcDbTrace
 10
568.3394689037517
 20
377.2002563476562
 30
0.0
 11
566.6728022370851
 21
367.2002563476562
 31
0.0
 12
570.0061355704183
 22
367.2002563476562
 32
0.0
 13
570.0061355704183
 23
367.2002563476562
 33
0.0
  0
SOLID
  5
6D4
330
6D7
100
AcDbEntity
  8
0
  6
ByBlock
 62
     0
380
     1
100
AcDbTrace
 10
568.3394689037517
 20
236.7391815185547
 30
0.0
 11
566.6728022370851
 21
246.7391815185547
 31
0.0
 12
570.0061355704183
 22
246.7391815185547
 32
0.0
 13
570.0061355704183
 23
246.7391815185547
 33
0.0
  0
MTEXT
  5
6D5
330
6D7
100
AcDbEntity
  8
0
  6
ByBlock
 62
     0
370
    -2
380
     1
100
AcDbMText
 10
540.3394689037517
 20
306.9697189331055
 30
0.0
 40
36.0
 41
0.0
 71
     5
 72
     1
  1
\A1;140
 11
6.123031769111886E-17
 21
1.0
 31
0.0
 73
     1
 44
1.0
  0
ENDBLK
  5
955
330
6D7
100
AcDbEntity
  8
0
100
AcDbBlockEnd
  0
BLOCK
  5
956
330
6E2
100
AcDbEntity
  8
0
100
AcDbBlockBegin
  2
*D3
 70
     1
 10
0.0
 20
0.0
 30
0.0
  3
*D3
  1

  0
POINT
  5
6D9
330
6E2
100
AcDbEntity
  8
DEFPOINTS
  6
ByBlock
 62
     0
380
     1
100
AcDbPoint
 10
466.1093250360678
 20
377.2002563476562
 30
0.0
  0
POINT
  5
6DA
330
6E2
100
AcDbEntity
  8
DEFPOINTS
  6
ByBlock
 62
     0
380
     1
100
AcDbPoint
 10
463.9225839907697
 20
236.7391815185547
 30
0.0
  0
LINE
  5
6DB
330
6E2
100
AcDbEntity
  8
0
  6
ByBlock
 62
     0
370
    -2
380
     1
100
AcDbLine
 10
466.7343250360678
 20
377.2002563476562
 30
0.0
 11
591.4568793567322
 21
377.2002563476562
 31
0.0
  0
LINE
  5
6DC
330
6E2
100
AcDbEntity
  8
0
  6
ByBlock
 62
     0
370
    -2
380
     1
100
AcDbLine
 10
464.5475839907697
 20
236.7391815185547
 30
0.0
 11
591.4568793567322
 21
236.7391815185547
 31
0.0
  0
LINE
  5
6DD
330
6E2
100
AcDbEntity
  8
0
  6
ByBlock
 62
     0
370
    -2
380
     1
100
AcDbLine
 10
590.2068793567322
 20
367.2002563476562
 30
0.0
 11
590.2068793567322
 21
246.7391815185547
 31
0.0
  0
SOLID
  5
6DE
330
6E2
100
AcDbEntity
  8
0
  6
ByBlock
 62
     0
380
     1
100
AcDbTrace
 10
590.2068793567322
 20
377.2002563476562
 30
0.0
 11
588.5402126900656
 21
367.2002563476562
 31
0.0
 12
591.8735460233988
 22
367.2002563476562
 32
0.0
 13
591.8735460233988
 23
367.2002563476562
 33
0.0
  0
SOLID
  5
6DF
330
6E2
100
AcDbEntity
  8
0
  6
ByBlock
 62
     0
380
     1
100
AcDbTrace
 10
590.2068793567322
 20
236.7391815185547
 30
0.0
 11
588.5402126900656
 21
246.7391815185547
 31
0.0
 12
591.8735460233988
 22
246.7391815185547
 32
0.0
 13
591.8735460233988
 23
246.7391815185547
 33
0.0
  0
MTEXT
  5
6E0
330
6E2
100
AcDbEntity
  8
0
  6
ByBlock
 62
     0
370
    -2
380
     1
100
AcDbMText
 10
562.2068793567322
 20
306.9697189331055
 30
0.0
 40
36.0
 41
0.0
 71
     5
 72
     1
  1
\A1;140
 11
6.123031769111886E-17
 21
1.0
 31
0.0
 73
     1
 44
1.0
  0
ENDBLK
  5
957
330
6E2
100
AcDbEntity
  8
0
100
AcDbBlockEnd
  0
BLOCK
  5
958
330
6ED
100
AcDbEntity
  8
0
100
AcDbBlockBegin
  2
*D4
 70
     1
 10
0.0
 20
0.0
 30
0.0
  3
*D4
  1

  0
POINT
  5
6E4
330
6ED
100
AcDbEntity
  8
DEFPOINTS
  6
ByBlock
 62
     0
380
     1
100
AcDbPoint
 10
466.1093250360678
 20
377.2002563476562
 30
0.0
  0
POINT
  5
6E5
330
6ED
100
AcDbEntity
  8
DEFPOINTS
  6
ByBlock
 62
     0
380
     1
100
AcDbPoint
 10
463.9225839907697
 20
236.7391815185547
 30
0.0
  0
LINE
  5
6E6
330
6ED
100
AcDbEntity
  8
0
  6
ByBlock
 62
     0
370
    -2
380
     1
100
AcDbLine
 10
466.7343250360678
 20
377.2002563476562
 30
0.0
 11
601.843899321898
 21
377.2002563476562
 31
0.0
  0
LINE
  5
6E7
330
6ED
100
AcDbEntity
  8
0
  6
ByBlock
 62
     0
370
    -2
380
     1
100
AcDbLine
 10
464.5475839907697
 20
236.7391815185547
 30
0.0
 11
601.843899321898
 21
236.7391815185547
 31
0.0
  0
LINE
  5
6E8
330
6ED
100
AcDbEntity
  8
0
  6
ByBlock
 62
     0
370
    -2
380
     1
100
AcDbLine
 10
600.593899321898
 20
367.2002563476562
 30
0.0
 11
600.593899321898
 21
246.7391815185547
 31
0.0
  0
SOLID
  5
6E9
330
6ED
100
AcDbEntity
  8
0
  6
ByBlock
 62
     0
380
     1
100
AcDbTrace
 10
600.593899321898
 20
377.2002563476562
 30
0.0
 11
598.9272326552314
 21
367.2002563476562
 31
0.0
 12
602.2605659885646
 22
367.2002563476562
 32
0.0
 13
602.2605659885646
 23
367.2002563476562
 33
0.0
  0
SOLID
  5
6EA
330
6ED
100
AcDbEntity
  8
0
  6
ByBlock
 62
     0
380
     1
100
AcDbTrace
 10
600.593899321898
 20
236.7391815185547
 30
0.0
 11
598.9272326552314
 21
246.7391815185547
 31
0.0
 12
602.2605659885646
 22
246.7391815185547
 32
0.0
 13
602.2605659885646
 23
246.7391815185547
 33
0.0
  0
MTEXT
  5
6EB
330
6ED
100
AcDbEntity
  8
0
  6
ByBlock
 62
     0
370
    -2
380
     1
100
AcDbMText
 10
572.593899321898
 20
306.9697189331055
 30
0.0
 40
36.0
 41
0.0
 71
     5
 72
     1
  1
\A1;140
 11
6.123031769111886E-17
 21
1.0
 31
0.0
 73
     1
 44
1.0
  0
ENDBLK
  5
959
330
6ED
100
AcDbEntity
  8
0
100
AcDbBlockEnd
  0
BLOCK
  5
95A
330
6F8
100
AcDbEntity
  8
0
100
AcDbBlockBegin
  2
*D5
 70
     1
 10
0.0
 20
0.0
 30
0.0
  3
*D5
  1

  0
POINT
  5
6EF
330
6F8
100
AcDbEntity
  8
DEFPOINTS
  6
ByBlock
 62
     0
380
     1
100
AcDbPoint
 10
466.1093250360678
 20
377.2002563476562
 30
0.0
  0
POINT
  5
6F0
330
6F8
100
AcDbEntity
  8
DEFPOINTS
  6
ByBlock
 62
     0
380
     1
100
AcDbPoint
 10
463.9225839907697
 20
236.7391815185547
 30
0.0
  0
LINE
  5
6F1
330
6F8
100
AcDbEntity
  8
0
  6
ByBlock
 62
     0
370
    -2
380
     1
100
AcDbLine
 10
466.7343250360678
 20
377.2002563476562
 30
0.0
 11
601.843899321898
 21
377.2002563476562
 31
0.0
  0
LINE
  5
6F2
330
6F8
100
AcDbEntity
  8
0
  6
ByBlock
 62
     0
370
    -2
380
     1
100
AcDbLine
 10
464.5475839907697
 20
236.7391815185547
 30
0.0
 11
601.843899321898
 21
236.7391815185547
 31
0.0
  0
LINE
  5
6F3
330
6F8
100
AcDbEntity
  8
0
  6
ByBlock
 62
     0
370
    -2
380
     1
100
AcDbLine
 10
600.593899321898
 20
367.2002563476562
 30
0.0
 11
600.593899321898
 21
246.7391815185547
 31
0.0
  0
SOLID
  5
6F4
330
6F8
100
AcDbEntity
  8
0
  6
ByBlock
 62
     0
380
     1
100
AcDbTrace
 10
600.593899321898
 20
377.2002563476562
 30
0.0
 11
598.9272326552314
 21
367.2002563476562
 31
0.0
 12
602.2605659885646
 22
367.2002563476562
 32
0.0
 13
602.2605659885646
 23
367.2002563476562
 33
0.0
  0
SOLID
  5
6F5
330
6F8
100
AcDbEntity
  8
0
  6
ByBlock
 62
     0
380
     1
100
AcDbTrace
 10
600.593899321898
 20
236.7391815185547
 30
0.0
 11
598.9272326552314
 21
246.7391815185547
 31
0.0
 12
602.2605659885646
 22
246.7391815185547
 32
0.0
 13
602.2605659885646
 23
246.7391815185547
 33
0.0
  0
MTEXT
  5
6F6
330
6F8
100
AcDbEntity
  8
0
  6
ByBlock
 62
     0
370
    -2
380
     1
100
AcDbMText
 10
572.593899321898
 20
306.9697189331055
 30
0.0
 40
36.0
 41
0.0
 71
     5
 72
     1
  1
\A1;140
 11
6.123031769111886E-17
 21
1.0
 31
0.0
 73
     1
 44
1.0
  0
ENDBLK
  5
95B
330
6F8
100
AcDbEntity
  8
0
100
AcDbBlockEnd
  0
BLOCK
  5
95C
330
704
100
AcDbEntity
  8
0
100
AcDbBlockBegin
  2
*D6
 70
     1
 10
0.0
 20
0.0
 30
0.0
  3
*D6
  1

  0
POINT
  5
6FB
330
704
100
AcDbEntity
  8
DEFPOINTS
  6
ByBlock
 62
     0
380
     1
100
AcDbPoint
 10
297.0750732421875
 20
307.7272212454375
 30
0.0
  0
POINT
  5
6FC
330
704
100
AcDbEntity
  8
DEFPOINTS
  6
ByBlock
 62
     0
380
     1
100
AcDbPoint
 10
531.6690673828125
 20
307.7272212454375
 30
0.0
  0
LINE
  5
6FD
330
704
100
AcDbEntity
  8
0
  6
ByBlock
 62
     0
370
    -2
380
     1
100
AcDbLine
 10
297.0750732421875
 20
307.1022212454375
 30
0.0
 11
297.0750732421875
 21
182.9263521860976
 31
0.0
  0
LINE
  5
6FE
330
704
100
AcDbEntity
  8
0
  6
ByBlock
 62
     0
370
    -2
380
     1
100
AcDbLine
 10
531.6690673828125
 20
307.1022212454375
 30
0.0
 11
531.6690673828125
 21
182.9263521860976
 31
0.0
  0
LINE
  5
6FF
330
704
100
AcDbEntity
  8
0
  6
ByBlock
 62
     0
370
    -2
380
     1
100
AcDbLine
 10
299.5750732421875
 20
184.1763521860976
 30
0.0
 11
529.1690673828125
 21
184.1763521860976
 31
0.0
  0
SOLID
  5
700
330
704
100
AcDbEntity
  8
0
  6
ByBlock
 62
     0
380
     1
100
AcDbTrace
 10
297.0750732421875
 20
184.1763521860976
 30
0.0
 11
299.5750732421875
 21
183.7596855194309
 31
0.0
 12
299.5750732421875
 22
184.5930188527643
 32
0.0
 13
299.5750732421875
 23
184.5930188527643
 33
0.0
  0
SOLID
  5
701
330
704
100
AcDbEntity
  8
0
  6
ByBlock
 62
     0
380
     1
100
AcDbTrace
 10
531.6690673828125
 20
184.1763521860976
 30
0.0
 11
529.1690673828125
 21
183.7596855194309
 31
0.0
 12
529.1690673828125
 22
184.5930188527643
 32
0.0
 13
529.1690673828125
 23
184.5930188527643
 33
0.0
  0
MTEXT
  5
702
330
704
100
AcDbEntity
  8
0
  6
ByBlock
 62
     0
370
    -2
380
     1
100
AcDbMText
 10
414.3720703125
 20
186.2596855194309
 30
0.0
 40
2.5
 41
0.0
 71
     5
 72
     1
  1
\A1;234,59
 73
     1
 44
1.0
  0
ENDBLK
  5
95D
330
704
100
AcDbEntity
  8
0
100
AcDbBlockEnd
  0
BLOCK
  5
95E
330
70F
100
AcDbEntity
  8
0
100
AcDbBlockBegin
  2
*D7
 70
     1
 10
0.0
 20
0.0
 30
0.0
  3
*D7
  1

  0
POINT
  5
706
330
70F
100
AcDbEntity
  8
DEFPOINTS
  6
ByBlock
 62
     0
380
     1
100
AcDbPoint
 10
297.0750732421875
 20
307.7272212454375
 30
0.0
  0
POINT
  5
707
330
70F
100
AcDbEntity
  8
DEFPOINTS
  6
ByBlock
 62
     0
380
     1
100
AcDbPoint
 10
531.6690673828125
 20
307.7272212454375
 30
0.0
  0
LINE
  5
708
330
70F
100
AcDbEntity
  8
0
  6
ByBlock
 62
     0
370
    -2
380
     1
100
AcDbLine
 10
297.0750732421875
 20
307.1022212454375
 30
0.0
 11
297.0750732421875
 21
182.9263521860976
 31
0.0
  0
LINE
  5
709
330
70F
100
AcDbEntity
  8
0
  6
ByBlock
 62
     0
370
    -2
380
     1
100
AcDbLine
 10
531.6690673828125
 20
307.1022212454375
 30
0.0
 11
531.6690673828125
 21
182.9263521860976
 31
0.0
  0
LINE
  5
70A
330
70F
100
AcDbEntity
  8
0
  6
ByBlock
 62
     0
370
    -2
380
     1
100
AcDbLine
 10
307.0750732421875
 20
184.1763521860976
 30
0.0
 11
521.6690673828125
 21
184.1763521860976
 31
0.0
  0
SOLID
  5
70B
330
70F
100
AcDbEntity
  8
0
  6
ByBlock
 62
     0
380
     1
100
AcDbTrace
 10
297.0750732421875
 20
184.1763521860976
 30
0.0
 11
307.0750732421875
 21
182.5096855194309
 31
0.0
 12
307.0750732421875
 22
185.8430188527643
 32
0.0
 13
307.0750732421875
 23
185.8430188527643
 33
0.0
  0
SOLID
  5
70C
330
70F
100
AcDbEntity
  8
0
  6
ByBlock
 62
     0
380
     1
100
AcDbTrace
 10
531.6690673828125
 20
184.1763521860976
 30
0.0
 11
521.6690673828125
 21
182.5096855194309
 31
0.0
 12
521.6690673828125
 22
185.8430188527643
 32
0.0
 13
521.6690673828125
 23
185.8430188527643
 33
0.0
  0
MTEXT
  5
70D
330
70F
100
AcDbEntity
  8
0
  6
ByBlock
 62
     0
370
    -2
380
     1
100
AcDbMText
 10
414.3720703125
 20
212.1763521860976
 30
0.0
 40
36.0
 41
0.0
 71
     5
 72
     1
  1
\A1;235
 73
     1
 44
1.0
  0
ENDBLK
  5
95F
330
70F
100
AcDbEntity
  8
0
100
AcDbBlockEnd
  0
BLOCK
  5
960
330
71A
100
AcDbEntity
  8
0
100
AcDbBlockBegin
  2
*D8
 70
     1
 10
0.0
 20
0.0
 30
0.0
  3
*D8
  1

  0
POINT
  5
711
330
71A
100
AcDbEntity
  8
DEFPOINTS
  6
ByBlock
 62
     0
380
     1
100
AcDbPoint
 10
297.0750732421875
 20
307.7272212454375
 30
0.0
  0
POINT
  5
712
330
71A
100
AcDbEntity
  8
DEFPOINTS
  6
ByBlock
 62
     0
380
     1
100
AcDbPoint
 10
531.6690673828125
 20
307.7272212454375
 30
0.0
  0
LINE
  5
713
330
71A
100
AcDbEntity
  8
0
  6
ByBlock
 62
     0
370
    -2
380
     1
100
AcDbLine
 10
297.0750732421875
 20
307.1022212454375
 30
0.0
 11
297.0750732421875
 21
182.9263521860976
 31
0.0
  0
LINE
  5
714
330
71A
100
AcDbEntity
  8
0
  6
ByBlock
 62
     0
370
    -2
380
     1
100
AcDbLine
 10
531.6690673828125
 20
307.1022212454375
 30
0.0
 11
531.6690673828125
 21
182.9263521860976
 31
0.0
  0
LINE
  5
715
330
71A
100
AcDbEntity
  8
0
  6
ByBlock
 62
     0
370
    -2
380
     1
100
AcDbLine
 10
307.0750732421875
 20
184.1763521860976
 30
0.0
 11
521.6690673828125
 21
184.1763521860976
 31
0.0
  0
SOLID
  5
716
330
71A
100
AcDbEntity
  8
0
  6
ByBlock
 62
     0
380
     1
100
AcDbTrace
 10
297.0750732421875
 20
184.1763521860976
 30
0.0
 11
307.0750732421875
 21
182.5096855194309
 31
0.0
 12
307.0750732421875
 22
185.8430188527643
 32
0.0
 13
307.0750732421875
 23
185.8430188527643
 33
0.0
  0
SOLID
  5
717
330
71A
100
AcDbEntity
  8
0
  6
ByBlock
 62
     0
380
     1
100
AcDbTrace
 10
531.6690673828125
 20
184.1763521860976
 30
0.0
 11
521.6690673828125
 21
182.5096855194309
 31
0.0
 12
521.6690673828125
 22
185.8430188527643
 32
0.0
 13
521.6690673828125
 23
185.8430188527643
 33
0.0
  0
MTEXT
  5
718
330
71A
100
AcDbEntity
  8
0
  6
ByBlock
 62
     0
370
    -2
380
     1
100
AcDbMText
 10
414.3720703125
 20
212.1763521860976
 30
0.0
 40
36.0
 41
0.0
 71
     5
 72
     1
  1
\A1;235
 73
     1
 44
1.0
  0
ENDBLK
  5
961
330
71A
100
AcDbEntity
  8
0
100
AcDbBlockEnd
  0
BLOCK
  5
962
330
725
100
AcDbEntity
  8
0
100
AcDbBlockBegin
  2
*D9
 70
     1
 10
0.0
 20
0.0
 30
0.0
  3
*D9
  1

  0
POINT
  5
71C
330
725
100
AcDbEntity
  8
DEFPOINTS
  6
ByBlock
 62
     0
380
     1
100
AcDbPoint
 10
297.0750732421875
 20
307.7272212454375
 30
0.0
  0
POINT
  5
71D
330
725
100
AcDbEntity
  8
DEFPOINTS
  6
ByBlock
 62
     0
380
     1
100
AcDbPoint
 10
531.6690673828125
 20
307.7272212454375
 30
0.0
  0
LINE
  5
71E
330
725
100
AcDbEntity
  8
0
  6
ByBlock
 62
     0
370
    -2
380
     1
100
AcDbLine
 10
297.0750732421875
 20
307.1022212454375
 30
0.0
 11
297.0750732421875
 21
162.8940679276205
 31
0.0
  0
LINE
  5
71F
330
725
100
AcDbEntity
  8
0
  6
ByBlock
 62
     0
370
    -2
380
     1
100
AcDbLine
 10
531.6690673828125
 20
307.1022212454375
 30
0.0
 11
531.6690673828125
 21
162.8940679276205
 31
0.0
  0
LINE
  5
720
330
725
100
AcDbEntity
  8
0
  6
ByBlock
 62
     0
370
    -2
380
     1
100
AcDbLine
 10
307.0750732421875
 20
164.1440679276205
 30
0.0
 11
521.6690673828125
 21
164.1440679276205
 31
0.0
  0
SOLID
  5
721
330
725
100
AcDbEntity
  8
0
  6
ByBlock
 62
     0
380
     1
100
AcDbTrace
 10
297.0750732421875
 20
164.1440679276205
 30
0.0
 11
307.0750732421875
 21
162.4774012609539
 31
0.0
 12
307.0750732421875
 22
165.8107345942872
 32
0.0
 13
307.0750732421875
 23
165.8107345942872
 33
0.0
  0
SOLID
  5
722
330
725
100
AcDbEntity
  8
0
  6
ByBlock
 62
     0
380
     1
100
AcDbTrace
 10
531.6690673828125
 20
164.1440679276205
 30
0.0
 11
521.6690673828125
 21
162.4774012609539
 31
0.0
 12
521.6690673828125
 22
165.8107345942872
 32
0.0
 13
521.6690673828125
 23
165.8107345942872
 33
0.0
  0
MTEXT
  5
723
330
725
100
AcDbEntity
  8
0
  6
ByBlock
 62
     0
370
    -2
380
     1
100
AcDbMText
 10
414.3720703125
 20
192.1440679276205
 30
0.0
 40
36.0
 41
0.0
 71
     5
 72
     1
  1
\A1;235
 73
     1
 44
1.0
  0
ENDBLK
  5
963
330
725
100
AcDbEntity
  8
0
100
AcDbBlockEnd
  0
BLOCK
  5
964
330
730
100
AcDbEntity
  8
0
100
AcDbBlockBegin
  2
*D10
 70
     1
 10
0.0
 20
0.0
 30
0.0
  3
*D10
  1

  0
POINT
  5
727
330
730
100
AcDbEntity
  8
DEFPOINTS
  6
ByBlock
 62
     0
380
     1
100
AcDbPoint
 10
297.0750732421875
 20
307.7272212454375
 30
0.0
  0
POINT
  5
728
330
730
100
AcDbEntity
  8
DEFPOINTS
  6
ByBlock
 62
     0
380
     1
100
AcDbPoint
 10
531.6690673828125
 20
307.7272212454375
 30
0.0
  0
LINE
  5
729
330
730
100
AcDbEntity
  8
0
  6
ByBlock
 62
     0
370
    -2
380
     1
100
AcDbLine
 10
297.0750732421875
 20
307.1022212454375
 30
0.0
 11
297.0750732421875
 21
190.8940679276205
 31
0.0
  0
LINE
  5
72A
330
730
100
AcDbEntity
  8
0
  6
ByBlock
 62
     0
370
    -2
380
     1
100
AcDbLine
 10
531.6690673828125
 20
307.1022212454375
 30
0.0
 11
531.6690673828125
 21
190.8940679276205
 31
0.0
  0
LINE
  5
72B
330
730
100
AcDbEntity
  8
0
  6
ByBlock
 62
     0
370
    -2
380
     1
100
AcDbLine
 10
307.0750732421875
 20
192.1440679276205
 30
0.0
 11
521.6690673828125
 21
192.1440679276205
 31
0.0
  0
SOLID
  5
72C
330
730
100
AcDbEntity
  8
0
  6
ByBlock
 62
     0
380
     1
100
AcDbTrace
 10
297.0750732421875
 20
192.1440679276205
 30
0.0
 11
307.0750732421875
 21
190.4774012609539
 31
0.0
 12
307.0750732421875
 22
193.8107345942872
 32
0.0
 13
307.0750732421875
 23
193.8107345942872
 33
0.0
  0
SOLID
  5
72D
330
730
100
AcDbEntity
  8
0
  6
ByBlock
 62
     0
380
     1
100
AcDbTrace
 10
531.6690673828125
 20
192.1440679276205
 30
0.0
 11
521.6690673828125
 21
190.4774012609539
 31
0.0
 12
521.6690673828125
 22
193.8107345942872
 32
0.0
 13
521.6690673828125
 23
193.8107345942872
 33
0.0
  0
MTEXT
  5
72E
330
730
100
AcDbEntity
  8
0
  6
ByBlock
 62
     0
370
    -2
380
     1
100
AcDbMText
 10
414.3720703125
 20
220.1440679276205
 30
0.0
 40
36.0
 41
0.0
 71
     5
 72
     1
  1
\A1;235
 73
     1
 44
1.0
  0
ENDBLK
  5
965
330
730
100
AcDbEntity
  8
0
100
AcDbBlockEnd
  0
BLOCK
  5
966
330
73B
100
AcDbEntity
  8
0
100
AcDbBlockBegin
  2
*D11
 70
     1
 10
0.0
 20
0.0
 30
0.0
  3
*D11
  1

  0
POINT
  5
732
330
73B
100
AcDbEntity
  8
DEFPOINTS
  6
ByBlock
 62
     0
380
     1
100
AcDbPoint
 10
297.0750732421875
 20
307.7272212454375
 30
0.0
  0
POINT
  5
733
330
73B
100
AcDbEntity
  8
DEFPOINTS
  6
ByBlock
 62
     0
380
     1
100
AcDbPoint
 10
531.6690673828125
 20
307.7272212454375
 30
0.0
  0
LINE
  5
734
330
73B
100
AcDbEntity
  8
0
  6
ByBlock
 62
     0
370
    -2
380
     1
100
AcDbLine
 10
297.0750732421875
 20
307.1022212454375
 30
0.0
 11
297.0750732421875
 21
93.63074872851331
 31
0.0
  0
LINE
  5
735
330
73B
100
AcDbEntity
  8
0
  6
ByBlock
 62
     0
370
    -2
380
     1
100
AcDbLine
 10
531.6690673828125
 20
307.1022212454375
 30
0.0
 11
531.6690673828125
 21
93.63074872851331
 31
0.0
  0
LINE
  5
736
330
73B
100
AcDbEntity
  8
0
  6
ByBlock
 62
     0
370
    -2
380
     1
100
AcDbLine
 10
307.0750732421875
 20
94.88074872851331
 30
0.0
 11
521.6690673828125
 21
94.88074872851331
 31
0.0
  0
SOLID
  5
737
330
73B
100
AcDbEntity
  8
0
  6
ByBlock
 62
     0
380
     1
100
AcDbTrace
 10
297.0750732421875
 20
94.88074872851331
 30
0.0
 11
307.0750732421875
 21
93.21408206184665
 31
0.0
 12
307.0750732421875
 22
96.54741539517997
 32
0.0
 13
307.0750732421875
 23
96.54741539517997
 33
0.0
  0
SOLID
  5
738
330
73B
100
AcDbEntity
  8
0
  6
ByBlock
 62
     0
380
     1
100
AcDbTrace
 10
531.6690673828125
 20
94.88074872851331
 30
0.0
 11
521.6690673828125
 21
93.21408206184665
 31
0.0
 12
521.6690673828125
 22
96.54741539517997
 32
0.0
 13
521.6690673828125
 23
96.54741539517997
 33
0.0
  0
MTEXT
  5
739
330
73B
100
AcDbEntity
  8
0
  6
ByBlock
 62
     0
370
    -2
380
     1
100
AcDbMText
 10
424.3959844522749
 20
122.8807487285133
 30
0.0
 40
36.0
 41
0.0
 71
     5
 72
     1
  1
\A1;235
 73
     1
 44
1.0
  0
ENDBLK
  5
967
330
73B
100
AcDbEntity
  8
0
100
AcDbBlockEnd
  0
BLOCK
  5
968
330
746
100
AcDbEntity
  8
0
100
AcDbBlockBegin
  2
*D12
 70
     1
 10
0.0
 20
0.0
 30
0.0
  3
*D12
  1

  0
POINT
  5
73D
330
746
100
AcDbEntity
  8
DEFPOINTS
  6
ByBlock
 62
     0
380
     1
100
AcDbPoint
 10
297.0750732421875
 20
307.7272212454375
 30
0.0
  0
POINT
  5
73E
330
746
100
AcDbEntity
  8
DEFPOINTS
  6
ByBlock
 62
     0
380
     1
100
AcDbPoint
 10
531.6690673828125
 20
307.7272212454375
 30
0.0
  0
LINE
  5
73F
330
746
100
AcDbEntity
  8
0
  6
ByBlock
 62
     0
370
    -2
380
     1
100
AcDbLine
 10
297.0750732421875
 20
307.1022212454375
 30
0.0
 11
297.0750732421875
 21
171.843822655595
 31
0.0
  0
LINE
  5
740
330
746
100
AcDbEntity
  8
0
  6
ByBlock
 62
     0
370
    -2
380
     1
100
AcDbLine
 10
531.6690673828125
 20
307.1022212454375
 30
0.0
 11
531.6690673828125
 21
171.843822655595
 31
0.0
  0
LINE
  5
741
330
746
100
AcDbEntity
  8
0
  6
ByBlock
 62
     0
370
    -2
380
     1
100
AcDbLine
 10
307.0750732421875
 20
173.093822655595
 30
0.0
 11
521.6690673828125
 21
173.093822655595
 31
0.0
  0
SOLID
  5
742
330
746
100
AcDbEntity
  8
0
  6
ByBlock
 62
     0
380
     1
100
AcDbTrace
 10
297.0750732421875
 20
173.093822655595
 30
0.0
 11
307.0750732421875
 21
171.4271559889284
 31
0.0
 12
307.0750732421875
 22
174.7604893222617
 32
0.0
 13
307.0750732421875
 23
174.7604893222617
 33
0.0
  0
SOLID
  5
743
330
746
100
AcDbEntity
  8
0
  6
ByBlock
 62
     0
380
     1
100
AcDbTrace
 10
531.6690673828125
 20
173.093822655595
 30
0.0
 11
521.6690673828125
 21
171.4271559889284
 31
0.0
 12
521.6690673828125
 22
174.7604893222617
 32
0.0
 13
521.6690673828125
 23
174.7604893222617
 33
0.0
  0
MTEXT
  5
744
330
746
100
AcDbEntity
  8
0
  6
ByBlock
 62
     0
370
    -2
380
     1
100
AcDbMText
 10
424.3959844522749
 20
201.093822655595
 30
0.0
 40
36.0
 41
0.0
 71
     5
 72
     1
  1
\A1;235
 73
     1
 44
1.0
  0
ENDBLK
  5
969
330
746
100
AcDbEntity
  8
0
100
AcDbBlockEnd
  0
BLOCK
  5
96A
330
751
100
AcDbEntity
  8
0
100
AcDbBlockBegin
  2
*D13
 70
     1
 10
0.0
 20
0.0
 30
0.0
  3
*D13
  1

  0
POINT
  5
748
330
751
100
AcDbEntity
  8
DEFPOINTS
  6
ByBlock
 62
     0
380
     1
100
AcDbPoint
 10
297.0750732421875
 20
307.7272212454375
 30
0.0
  0
POINT
  5
749
330
751
100
AcDbEntity
  8
DEFPOINTS
  6
ByBlock
 62
     0
380
     1
100
AcDbPoint
 10
531.6690673828125
 20
307.7272212454375
 30
0.0
  0
LINE
  5
74A
330
751
100
AcDbEntity
  8
0
  6
ByBlock
 62
     0
370
    -2
380
     1
100
AcDbLine
 10
297.0750732421875
 20
307.1022212454375
 30
0.0
 11
297.0750732421875
 21
171.843822655595
 31
0.0
  0
LINE
  5
74B
330
751
100
AcDbEntity
  8
0
  6
ByBlock
 62
     0
370
    -2
380
     1
100
AcDbLine
 10
531.6690673828125
 20
307.1022212454375
 30
0.0
 11
531.6690673828125
 21
171.843822655595
 31
0.0
  0
LINE
  5
74C
330
751
100
AcDbEntity
  8
0
  6
ByBlock
 62
     0
370
    -2
380
     1
100
AcDbLine
 10
307.0750732421875
 20
173.093822655595
 30
0.0
 11
521.6690673828125
 21
173.093822655595
 31
0.0
  0
SOLID
  5
74D
330
751
100
AcDbEntity
  8
0
  6
ByBlock
 62
     0
380
     1
100
AcDbTrace
 10
297.0750732421875
 20
173.093822655595
 30
0.0
 11
307.0750732421875
 21
171.4271559889284
 31
0.0
 12
307.0750732421875
 22
174.7604893222617
 32
0.0
 13
307.0750732421875
 23
174.7604893222617
 33
0.0
  0
SOLID
  5
74E
330
751
100
AcDbEntity
  8
0
  6
ByBlock
 62
     0
380
     1
100
AcDbTrace
 10
531.6690673828125
 20
173.093822655595
 30
0.0
 11
521.6690673828125
 21
171.4271559889284
 31
0.0
 12
521.6690673828125
 22
174.7604893222617
 32
0.0
 13
521.6690673828125
 23
174.7604893222617
 33
0.0
  0
MTEXT
  5
74F
330
751
100
AcDbEntity
  8
0
  6
ByBlock
 62
     0
370
    -2
380
     1
100
AcDbMText
 10
424.3959844522749
 20
201.093822655595
 30
0.0
 40
36.0
 41
0.0
 71
     5
 72
     1
  1
\A1;235
 73
     1
 44
1.0
  0
ENDBLK
  5
96B
330
751
100
AcDbEntity
  8
0
100
AcDbBlockEnd
  0
BLOCK
  5
96C
330
75C
100
AcDbEntity
  8
0
100
AcDbBlockBegin
  2
*D14
 70
     1
 10
0.0
 20
0.0
 30
0.0
  3
*D14
  1

  0
POINT
  5
753
330
75C
100
AcDbEntity
  8
DEFPOINTS
  6
ByBlock
 62
     0
380
     1
100
AcDbPoint
 10
297.0750732421875
 20
307.7272212454375
 30
0.0
  0
POINT
  5
754
330
75C
100
AcDbEntity
  8
DEFPOINTS
  6
ByBlock
 62
     0
380
     1
100
AcDbPoint
 10
531.6690673828125
 20
307.7272212454375
 30
0.0
  0
LINE
  5
755
330
75C
100
AcDbEntity
  8
0
  6
ByBlock
 62
     0
370
    -2
380
     1
100
AcDbLine
 10
297.0750732421875
 20
307.1022212454375
 30
0.0
 11
297.0750732421875
 21
171.843822655595
 31
0.0
  0
LINE
  5
756
330
75C
100
AcDbEntity
  8
0
  6
ByBlock
 62
     0
370
    -2
380
     1
100
AcDbLine
 10
531.6690673828125
 20
307.1022212454375
 30
0.0
 11
531.6690673828125
 21
171.843822655595
 31
0.0
  0
LINE
  5
757
330
75C
100
AcDbEntity
  8
0
  6
ByBlock
 62
     0
370
    -2
380
     1
100
AcDbLine
 10
307.0750732421875
 20
173.093822655595
 30
0.0
 11
521.6690673828125
 21
173.093822655595
 31
0.0
  0
SOLID
  5
758
330
75C
100
AcDbEntity
  8
0
  6
ByBlock
 62
     0
380
     1
100
AcDbTrace
 10
297.0750732421875
 20
173.093822655595
 30
0.0
 11
307.0750732421875
 21
171.4271559889284
 31
0.0
 12
307.0750732421875
 22
174.7604893222617
 32
0.0
 13
307.0750732421875
 23
174.7604893222617
 33
0.0
  0
SOLID
  5
759
330
75C
100
AcDbEntity
  8
0
  6
ByBlock
 62
     0
380
     1
100
AcDbTrace
 10
531.6690673828125
 20
173.093822655595
 30
0.0
 11
521.6690673828125
 21
171.4271559889284
 31
0.0
 12
521.6690673828125
 22
174.7604893222617
 32
0.0
 13
521.6690673828125
 23
174.7604893222617
 33
0.0
  0
MTEXT
  5
75A
330
75C
100
AcDbEntity
  8
0
  6
ByBlock
 62
     0
370
    -2
380
     1
100
AcDbMText
 10
420.4679032295655
 20
201.093822655595
 30
0.0
 40
36.0
 41
0.0
 71
     5
 72
     1
  1
\A1;235
 73
     1
 44
1.0
  0
ENDBLK
  5
96D
330
75C
100
AcDbEntity
  8
0
100
AcDbBlockEnd
  0
BLOCK
  5
96E
330
78C
100
AcDbEntity
  8
0
100
AcDbBlockBegin
  2
*D15
 70
     1
 10
0.0
 20
0.0
 30
0.0
  3
*D15
  1

  0
POINT
  5
783
330
78C
100
AcDbEntity
  8
DEFPOINTS
  6
ByBlock
 62
     0
380
     1
100
AcDbPoint
 10
428.5290957390775
 20
337.4037170410156
 30
0.0
  0
POINT
  5
784
330
78C
100
AcDbEntity
  8
DEFPOINTS
  6
ByBlock
 62
     0
380
     1
100
AcDbPoint
 10
427.9446705401506
 20
276.5357360839844
 30
0.0
  0
LINE
  5
785
330
78C
100
AcDbEntity
  8
0
  6
ByBlock
 62
     0
370
    -2
380
     1
100
AcDbLine
 10
429.1540957390775
 20
337.4037170410156
 30
0.0
 11
532.0535055512814
 21
337.4037170410156
 31
0.0
  0
LINE
  5
786
330
78C
100
AcDbEntity
  8
0
  6
ByBlock
 62
     0
370
    -2
380
     1
100
AcDbLine
 10
428.5696705401506
 20
276.5357360839844
 30
0.0
 11
532.0535055512814
 21
276.5357360839844
 31
0.0
  0
LINE
  5
787
330
78C
100
AcDbEntity
  8
0
  6
ByBlock
 62
     0
370
    -2
380
     1
100
AcDbLine
 10
530.8035055512814
 20
334.9037170410156
 30
0.0
 11
530.8035055512814
 21
279.0357360839844
 31
0.0
  0
SOLID
  5
788
330
78C
100
AcDbEntity
  8
0
  6
ByBlock
 62
     0
380
     1
100
AcDbTrace
 10
530.8035055512814
 20
337.4037170410156
 30
0.0
 11
530.3868388846148
 21
334.9037170410156
 31
0.0
 12
531.2201722179481
 22
334.9037170410156
 32
0.0
 13
531.2201722179481
 23
334.9037170410156
 33
0.0
  0
SOLID
  5
789
330
78C
100
AcDbEntity
  8
0
  6
ByBlock
 62
     0
380
     1
100
AcDbTrace
 10
530.8035055512814
 20
276.5357360839844
 30
0.0
 11
530.3868388846148
 21
279.0357360839844
 31
0.0
 12
531.2201722179481
 22
279.0357360839844
 32
0.0
 13
531.2201722179481
 23
279.0357360839844
 33
0.0
  0
MTEXT
  5
78A
330
78C
100
AcDbEntity
  8
0
  6
ByBlock
 62
     0
370
    -2
380
     1
100
AcDbMText
 10
528.7201722179481
 20
306.9697265625
 30
0.0
 40
2.5
 41
0.0
 71
     5
 72
     1
  1
\A1;60,87
 11
6.123031769111886E-17
 21
1.0
 31
0.0
 73
     1
 44
1.0
  0
ENDBLK
  5
96F
330
78C
100
AcDbEntity
  8
0
100
AcDbBlockEnd
  0
BLOCK
  5
970
330
798
100
AcDbEntity
  8
0
100
AcDbBlockBegin
  2
*D16
 70
     1
 10
0.0
 20
0.0
 30
0.0
  3
*D16
  1

  0
POINT
  5
78E
330
798
100
AcDbEntity
  8
DEFPOINTS
  6
ByBlock
 62
     0
380
     1
100
AcDbPoint
 10
428.5290957390775
 20
337.4037170410156
 30
0.0
  0
POINT
  5
78F
330
798
100
AcDbEntity
  8
DEFPOINTS
  6
ByBlock
 62
     0
380
     1
100
AcDbPoint
 10
427.9446705401506
 20
276.5357360839844
 30
0.0
  0
LINE
  5
790
330
798
100
AcDbEntity
  8
0
  6
ByBlock
 62
     0
370
    -2
380
     1
100
AcDbLine
 10
429.1540957390775
 20
337.4037170410156
 30
0.0
 11
532.0535055512814
 21
337.4037170410156
 31
0.0
  0
LINE
  5
791
330
798
100
AcDbEntity
  8
0
  6
ByBlock
 62
     0
370
    -2
380
     1
100
AcDbLine
 10
428.5696705401506
 20
276.5357360839844
 30
0.0
 11
532.0535055512814
 21
276.5357360839844
 31
0.0
  0
LINE
  5
792
330
798
100
AcDbEntity
  8
0
  6
ByBlock
 62
     0
370
    -2
380
     1
100
AcDbLine
 10
530.8035055512814
 20
327.4037170410156
 30
0.0
 11
530.8035055512814
 21
286.5357360839844
 31
0.0
  0
LINE
  5
793
330
798
100
AcDbEntity
  8
0
  6
ByBlock
 62
     0
370
    -2
380
     1
100
AcDbLine
 10
530.8035055512814
 20
276.5357360839844
 30
0.0
 11
530.8035055512814
 21
210.5357360839844
 31
0.0
  0
SOLID
  5
794
330
798
100
AcDbEntity
  8
0
  6
ByBlock
 62
     0
380
     1
100
AcDbTrace
 10
530.8035055512814
 20
337.4037170410156
 30
0.0
 11
529.1368388846148
 21
327.4037170410156
 31
0.0
 12
532.4701722179481
 22
327.4037170410156
 32
0.0
 13
532.4701722179481
 23
327.4037170410156
 33
0.0
  0
SOLID
  5
795
330
798
100
AcDbEntity
  8
0
  6
ByBlock
 62
     0
380
     1
100
AcDbTrace
 10
530.8035055512814
 20
276.5357360839844
 30
0.0
 11
529.1368388846148
 21
286.5357360839844
 31
0.0
 12
532.4701722179481
 22
286.5357360839844
 32
0.0
 13
532.4701722179481
 23
286.5357360839844
 33
0.0
  0
MTEXT
  5
796
330
798
100
AcDbEntity
  8
0
  6
ByBlock
 62
     0
370
    -2
380
     1
100
AcDbMText
 10
502.8035055512814
 20
238.5357360839844
 30
0.0
 40
36.0
 41
0.0
 71
     5
 72
     1
  1
\A1;61
 11
6.123031769111886E-17
 21
1.0
 31
0.0
 73
     1
 44
1.0
  0
ENDBLK
  5
971
330
798
100
AcDbEntity
  8
0
100
AcDbBlockEnd
  0
BLOCK
  5
972
330
7A3
100
AcDbEntity
  8
0
100
AcDbBlockBegin
  2
*D17
 70
     1
 10
0.0
 20
0.0
 30
0.0
  3
*D17
  1

  0
POINT
  5
79A
330
7A3
100
AcDbEntity
  8
DEFPOINTS
  6
ByBlock
 62
     0
380
     1
100
AcDbPoint
 10
428.5290957390775
 20
337.4037170410156
 30
0.0
  0
POINT
  5
79B
330
7A3
100
AcDbEntity
  8
DEFPOINTS
  6
ByBlock
 62
     0
380
     1
100
AcDbPoint
 10
427.9446705401506
 20
276.5357360839844
 30
0.0
  0
LINE
  5
79C
330
7A3
100
AcDbEntity
  8
0
  6
ByBlock
 62
     0
370
    -2
380
     1
100
AcDbLine
 10
429.1540957390775
 20
337.4037170410156
 30
0.0
 11
555.4305135083566
 21
337.4037170410156
 31
0.0
  0
LINE
  5
79D
330
7A3
100
AcDbEntity
  8
0
  6
ByBlock
 62
     0
370
    -2
380
     1
100
AcDbLine
 10
428.5696705401506
 20
276.5357360839844
 30
0.0
 11
555.4305135083566
 21
276.5357360839844
 31
0.0
  0
LINE
  5
79E
330
7A3
100
AcDbEntity
  8
0
  6
ByBlock
 62
     0
370
    -2
380
     1
100
AcDbLine
 10
554.1805135083566
 20
337.4037170410156
 30
0.0
 11
554.1805135083566
 21
276.5357360839844
 31
0.0
  0
SOLID
  5
79F
330
7A3
100
AcDbEntity
  8
0
  6
ByBlock
 62
     0
380
     1
100
AcDbTrace
 10
554.1805135083566
 20
337.4037170410156
 30
0.0
 11
552.51384684169
 21
327.4037170410156
 31
0.0
 12
555.8471801750233
 22
327.4037170410156
 32
0.0
 13
555.8471801750233
 23
327.4037170410156
 33
0.0
  0
SOLID
  5
7A0
330
7A3
100
AcDbEntity
  8
0
  6
ByBlock
 62
     0
380
     1
100
AcDbTrace
 10
554.1805135083566
 20
276.5357360839844
 30
0.0
 11
552.51384684169
 21
286.5357360839844
 31
0.0
 12
555.8471801750233
 22
286.5357360839844
 32
0.0
 13
555.8471801750233
 23
286.5357360839844
 33
0.0
  0
MTEXT
  5
7A1
330
7A3
100
AcDbEntity
  8
0
  6
ByBlock
 62
     0
370
    -2
380
     1
100
AcDbMText
 10
526.1805135083566
 20
306.9697265625
 30
0.0
 40
36.0
 41
0.0
 71
     5
 72
     1
  1
\A1;61
 11
6.123031769111886E-17
 21
1.0
 31
0.0
 73
     1
 44
1.0
  0
ENDBLK
  5
973
330
7A3
100
AcDbEntity
  8
0
100
AcDbBlockEnd
  0
BLOCK
  5
974
330
7AF
100
AcDbEntity
  8
0
100
AcDbBlockBegin
  2
*D18
 70
     1
 10
0.0
 20
0.0
 30
0.0
  3
*D18
  1

  0
POINT
  5
7A6
330
7AF
100
AcDbEntity
  8
DEFPOINTS
  6
ByBlock
 62
     0
380
     1
100
AcDbPoint
 10
336.8716125488281
 20
308.3519749531465
 30
0.0
  0
POINT
  5
7A7
330
7AF
100
AcDbEntity
  8
DEFPOINTS
  6
ByBlock
 62
     0
380
     1
100
AcDbPoint
 10
491.87255859375
 20
304.2609985606583
 30
0.0
  0
LINE
  5
7A8
330
7AF
100
AcDbEntity
  8
0
  6
ByBlock
 62
     0
370
    -2
380
     1
100
AcDbLine
 10
336.8716125488281
 20
307.7269749531465
 30
0.0
 11
336.8716125488281
 21
228.7889982969446
 31
0.0
  0
LINE
  5
7A9
330
7AF
100
AcDbEntity
  8
0
  6
ByBlock
 62
     0
370
    -2
380
     1
100
AcDbLine
 10
491.87255859375
 20
303.6359985606583
 30
0.0
 11
491.87255859375
 21
228.7889982969446
 31
0.0
  0
LINE
  5
7AA
330
7AF
100
AcDbEntity
  8
0
  6
ByBlock
 62
     0
370
    -2
380
     1
100
AcDbLine
 10
339.3716125488281
 20
230.0389982969446
 30
0.0
 11
489.37255859375
 21
230.0389982969446
 31
0.0
  0
SOLID
  5
7AB
330
7AF
100
AcDbEntity
  8
0
  6
ByBlock
 62
     0
380
     1
100
AcDbTrace
 10
336.8716125488281
 20
230.0389982969446
 30
0.0
 11
339.3716125488281
 21
229.6223316302779
 31
0.0
 12
339.3716125488281
 22
230.4556649636113
 32
0.0
 13
339.3716125488281
 23
230.4556649636113
 33
0.0
  0
SOLID
  5
7AC
330
7AF
100
AcDbEntity
  8
0
  6
ByBlock
 62
     0
380
     1
100
AcDbTrace
 10
491.87255859375
 20
230.0389982969446
 30
0.0
 11
489.37255859375
 21
229.6223316302779
 31
0.0
 12
489.37255859375
 22
230.4556649636113
 32
0.0
 13
489.37255859375
 23
230.4556649636113
 33
0.0
  0
MTEXT
  5
7AD
330
7AF
100
AcDbEntity
  8
0
  6
ByBlock
 62
     0
370
    -2
380
     1
100
AcDbMText
 10
414.3720855712891
 20
231.9139982969446
 30
0.0
 40
2.5
 41
0.0
 71
     5
 72
     1
  1
\A1;155
 73
     1
 44
1.0
  0
ENDBLK
  5
975
330
7AF
100
AcDbEntity
  8
0
100
AcDbBlockEnd
  0
BLOCK
  5
976
330
7BA
100
AcDbEntity
  8
0
100
AcDbBlockBegin
  2
*D19
 70
     1
 10
0.0
 20
0.0
 30
0.0
  3
*D19
  1

  0
POINT
  5
7B1
330
7BA
100
AcDbEntity
  8
DEFPOINTS
  6
ByBlock
 62
     0
380
     1
100
AcDbPoint
 10
336.8716125488281
 20
308.3519749531465
 30
0.0
  0
POINT
  5
7B2
330
7BA
100
AcDbEntity
  8
DEFPOINTS
  6
ByBlock
 62
     0
380
     1
100
AcDbPoint
 10
491.87255859375
 20
304.2609985606583
 30
0.0
  0
LINE
  5
7B3
330
7BA
100
AcDbEntity
  8
0
  6
ByBlock
 62
     0
370
    -2
380
     1
100
AcDbLine
 10
336.8716125488281
 20
307.7269749531465
 30
0.0
 11
336.8716125488281
 21
228.7889982969446
 31
0.0
  0
LINE
  5
7B4
330
7BA
100
AcDbEntity
  8
0
  6
ByBlock
 62
     0
370
    -2
380
     1
100
AcDbLine
 10
491.87255859375
 20
303.6359985606583
 30
0.0
 11
491.87255859375
 21
228.7889982969446
 31
0.0
  0
LINE
  5
7B5
330
7BA
100
AcDbEntity
  8
0
  6
ByBlock
 62
     0
370
    -2
380
     1
100
AcDbLine
 10
346.8716125488281
 20
230.0389982969446
 30
0.0
 11
481.87255859375
 21
230.0389982969446
 31
0.0
  0
SOLID
  5
7B6
330
7BA
100
AcDbEntity
  8
0
  6
ByBlock
 62
     0
380
     1
100
AcDbTrace
 10
336.8716125488281
 20
230.0389982969446
 30
0.0
 11
346.8716125488281
 21
228.3723316302779
 31
0.0
 12
346.8716125488281
 22
231.7056649636113
 32
0.0
 13
346.8716125488281
 23
231.7056649636113
 33
0.0
  0
SOLID
  5
7B7
330
7BA
100
AcDbEntity
  8
0
  6
ByBlock
 62
     0
380
     1
100
AcDbTrace
 10
491.87255859375
 20
230.0389982969446
 30
0.0
 11
481.87255859375
 21
228.3723316302779
 31
0.0
 12
481.87255859375
 22
231.7056649636113
 32
0.0
 13
481.87255859375
 23
231.7056649636113
 33
0.0
  0
MTEXT
  5
7B8
330
7BA
100
AcDbEntity
  8
0
  6
ByBlock
 62
     0
370
    -2
380
     1
100
AcDbMText
 10
414.3720855712891
 20
258.0389982969446
 30
0.0
 40
36.0
 41
0.0
 71
     5
 72
     1
  1
\A1;155
 73
     1
 44
1.0
  0
ENDBLK
  5
977
330
7BA
100
AcDbEntity
  8
0
100
AcDbBlockEnd
  0
BLOCK
  5
978
330
7C5
100
AcDbEntity
  8
0
100
AcDbBlockBegin
  2
*D20
 70
     1
 10
0.0
 20
0.0
 30
0.0
  3
*D20
  1

  0
POINT
  5
7BC
330
7C5
100
AcDbEntity
  8
DEFPOINTS
  6
ByBlock
 62
     0
380
     1
100
AcDbPoint
 10
336.8716125488281
 20
308.3519749531465
 30
0.0
  0
POINT
  5
7BD
330
7C5
100
AcDbEntity
  8
DEFPOINTS
  6
ByBlock
 62
     0
380
     1
100
AcDbPoint
 10
491.87255859375
 20
304.2609985606583
 30
0.0
  0
LINE
  5
7BE
330
7C5
100
AcDbEntity
  8
0
  6
ByBlock
 62
     0
370
    -2
380
     1
100
AcDbLine
 10
336.8716125488281
 20
307.7269749531465
 30
0.0
 11
336.8716125488281
 21
228.7889982969446
 31
0.0
  0
LINE
  5
7BF
330
7C5
100
AcDbEntity
  8
0
  6
ByBlock
 62
     0
370
    -2
380
     1
100
AcDbLine
 10
491.87255859375
 20
303.6359985606583
 30
0.0
 11
491.87255859375
 21
228.7889982969446
 31
0.0
  0
LINE
  5
7C0
330
7C5
100
AcDbEntity
  8
0
  6
ByBlock
 62
     0
370
    -2
380
     1
100
AcDbLine
 10
346.8716125488281
 20
230.0389982969446
 30
0.0
 11
481.87255859375
 21
230.0389982969446
 31
0.0
  0
SOLID
  5
7C1
330
7C5
100
AcDbEntity
  8
0
  6
ByBlock
 62
     0
380
     1
100
AcDbTrace
 10
336.8716125488281
 20
230.0389982969446
 30
0.0
 11
346.8716125488281
 21
228.3723316302779
 31
0.0
 12
346.8716125488281
 22
231.7056649636113
 32
0.0
 13
346.8716125488281
 23
231.7056649636113
 33
0.0
  0
SOLID
  5
7C2
330
7C5
100
AcDbEntity
  8
0
  6
ByBlock
 62
     0
380
     1
100
AcDbTrace
 10
491.87255859375
 20
230.0389982969446
 30
0.0
 11
481.87255859375
 21
228.3723316302779
 31
0.0
 12
481.87255859375
 22
231.7056649636113
 32
0.0
 13
481.87255859375
 23
231.7056649636113
 33
0.0
  0
MTEXT
  5
7C3
330
7C5
100
AcDbEntity
  8
0
  6
ByBlock
 62
     0
370
    -2
380
     1
100
AcDbMText
 10
414.3720855712891
 20
258.0389982969446
 30
0.0
 40
36.0
 41
0.0
 71
     5
 72
     1
  1
\A1;155
 73
     1
 44
1.0
  0
ENDBLK
  5
979
330
7C5
100
AcDbEntity
  8
0
100
AcDbBlockEnd
  0
BLOCK
  5
97A
330
7D0
100
AcDbEntity
  8
0
100
AcDbBlockBegin
  2
*D21
 70
     1
 10
0.0
 20
0.0
 30
0.0
  3
*D21
  1

  0
POINT
  5
7C7
330
7D0
100
AcDbEntity
  8
DEFPOINTS
  6
ByBlock
 62
     0
380
     1
100
AcDbPoint
 10
336.8716125488281
 20
308.3519749531465
 30
0.0
  0
POINT
  5
7C8
330
7D0
100
AcDbEntity
  8
DEFPOINTS
  6
ByBlock
 62
     0
380
     1
100
AcDbPoint
 10
491.87255859375
 20
304.2609985606583
 30
0.0
  0
LINE
  5
7C9
330
7D0
100
AcDbEntity
  8
0
  6
ByBlock
 62
     0
370
    -2
380
     1
100
AcDbLine
 10
336.8716125488281
 20
307.7269749531465
 30
0.0
 11
336.8716125488281
 21
218.8537699151877
 31
0.0
  0
LINE
  5
7CA
330
7D0
100
AcDbEntity
  8
0
  6
ByBlock
 62
     0
370
    -2
380
     1
100
AcDbLine
 10
491.87255859375
 20
303.6359985606583
 30
0.0
 11
491.87255859375
 21
218.8537699151877
 31
0.0
  0
LINE
  5
7CB
330
7D0
100
AcDbEntity
  8
0
  6
ByBlock
 62
     0
370
    -2
380
     1
100
AcDbLine
 10
346.8716125488281
 20
220.1037699151877
 30
0.0
 11
481.87255859375
 21
220.1037699151877
 31
0.0
  0
SOLID
  5
7CC
330
7D0
100
AcDbEntity
  8
0
  6
ByBlock
 62
     0
380
     1
100
AcDbTrace
 10
336.8716125488281
 20
220.1037699151877
 30
0.0
 11
346.8716125488281
 21
218.437103248521
 31
0.0
 12
346.8716125488281
 22
221.7704365818543
 32
0.0
 13
346.8716125488281
 23
221.7704365818543
 33
0.0
  0
SOLID
  5
7CD
330
7D0
100
AcDbEntity
  8
0
  6
ByBlock
 62
     0
380
     1
100
AcDbTrace
 10
491.87255859375
 20
220.1037699151877
 30
0.0
 11
481.87255859375
 21
218.437103248521
 31
0.0
 12
481.87255859375
 22
221.7704365818543
 32
0.0
 13
481.87255859375
 23
221.7704365818543
 33
0.0
  0
MTEXT
  5
7CE
330
7D0
100
AcDbEntity
  8
0
  6
ByBlock
 62
     0
370
    -2
380
     1
100
AcDbMText
 10
414.3720855712891
 20
248.1037699151877
 30
0.0
 40
36.0
 41
0.0
 71
     5
 72
     1
  1
\A1;155
 73
     1
 44
1.0
  0
ENDBLK
  5
97B
330
7D0
100
AcDbEntity
  8
0
100
AcDbBlockEnd
  0
BLOCK
  5
97C
330
7DB
100
AcDbEntity
  8
0
100
AcDbBlockBegin
  2
*D22
 70
     1
 10
0.0
 20
0.0
 30
0.0
  3
*D22
  1

  0
POINT
  5
7D2
330
7DB
100
AcDbEntity
  8
DEFPOINTS
  6
ByBlock
 62
     0
380
     1
100
AcDbPoint
 10
336.8716125488281
 20
308.3519749531465
 30
0.0
  0
POINT
  5
7D3
330
7DB
100
AcDbEntity
  8
DEFPOINTS
  6
ByBlock
 62
     0
380
     1
100
AcDbPoint
 10
491.87255859375
 20
304.2609985606583
 30
0.0
  0
LINE
  5
7D4
330
7DB
100
AcDbEntity
  8
0
  6
ByBlock
 62
     0
370
    -2
380
     1
100
AcDbLine
 10
336.8716125488281
 20
307.7269749531465
 30
0.0
 11
336.8716125488281
 21
218.8537699151877
 31
0.0
  0
LINE
  5
7D5
330
7DB
100
AcDbEntity
  8
0
  6
ByBlock
 62
     0
370
    -2
380
     1
100
AcDbLine
 10
491.87255859375
 20
303.6359985606583
 30
0.0
 11
491.87255859375
 21
218.8537699151877
 31
0.0
  0
LINE
  5
7D6
330
7DB
100
AcDbEntity
  8
0
  6
ByBlock
 62
     0
370
    -2
380
     1
100
AcDbLine
 10
346.8716125488281
 20
220.1037699151877
 30
0.0
 11
481.87255859375
 21
220.1037699151877
 31
0.0
  0
SOLID
  5
7D7
330
7DB
100
AcDbEntity
  8
0
  6
ByBlock
 62
     0
380
     1
100
AcDbTrace
 10
336.8716125488281
 20
220.1037699151877
 30
0.0
 11
346.8716125488281
 21
218.437103248521
 31
0.0
 12
346.8716125488281
 22
221.7704365818543
 32
0.0
 13
346.8716125488281
 23
221.7704365818543
 33
0.0
  0
SOLID
  5
7D8
330
7DB
100
AcDbEntity
  8
0
  6
ByBlock
 62
     0
380
     1
100
AcDbTrace
 10
491.87255859375
 20
220.1037699151877
 30
0.0
 11
481.87255859375
 21
218.437103248521
 31
0.0
 12
481.87255859375
 22
221.7704365818543
 32
0.0
 13
481.87255859375
 23
221.7704365818543
 33
0.0
  0
MTEXT
  5
7D9
330
7DB
100
AcDbEntity
  8
0
  6
ByBlock
 62
     0
370
    -2
380
     1
100
AcDbMText
 10
415.3907503020961
 20
248.1037699151877
 30
0.0
 40
36.0
 41
0.0
 71
     5
 72
     1
  1
\A1;155
 73
     1
 44
1.0
  0
ENDBLK
  5
97D
330
7DB
100
AcDbEntity
  8
0
100
AcDbBlockEnd
  0
BLOCK
  5
97E
330
7EB
100
AcDbEntity
  8
0
100
AcDbBlockBegin
  2
*D23
 70
     1
 10
0.0
 20
0.0
 30
0.0
  3
*D23
  1

  0
POINT
  5
7E2
330
7EB
100
AcDbEntity
  8
DEFPOINTS
  6
ByBlock
 62
     0
380
     1
100
AcDbPoint
 10
471.5483625463744
 20
344.9660017354273
 30
0.0
  0
POINT
  5
7E3
330
7EB
100
AcDbEntity
  8
DEFPOINTS
  6
ByBlock
 62
     0
380
     1
100
AcDbPoint
 10
473.2122917980567
 20
262.9660017354273
 30
0.0
  0
LINE
  5
7E4
330
7EB
100
AcDbEntity
  8
0
  6
ByBlock
 62
     0
370
    -2
380
     1
100
AcDbLine
 10
472.1733625463744
 20
344.9660017354273
 30
0.0
 11
605.4967203680382
 21
344.9660017354273
 31
0.0
  0
LINE
  5
7E5
330
7EB
100
AcDbEntity
  8
0
  6
ByBlock
 62
     0
370
    -2
380
     1
100
AcDbLine
 10
473.8372917980567
 20
262.9660017354273
 30
0.0
 11
605.4967203680382
 21
262.9660017354273
 31
0.0
  0
LINE
  5
7E6
330
7EB
100
AcDbEntity
  8
0
  6
ByBlock
 62
     0
370
    -2
380
     1
100
AcDbLine
 10
604.2467203680382
 20
342.4660017354273
 30
0.0
 11
604.2467203680382
 21
265.4660017354273
 31
0.0
  0
SOLID
  5
7E7
330
7EB
100
AcDbEntity
  8
0
  6
ByBlock
 62
     0
380
     1
100
AcDbTrace
 10
604.2467203680382
 20
344.9660017354273
 30
0.0
 11
603.8300537013715
 21
342.4660017354273
 31
0.0
 12
604.6633870347048
 22
342.4660017354273
 32
0.0
 13
604.6633870347048
 23
342.4660017354273
 33
0.0
  0
SOLID
  5
7E8
330
7EB
100
AcDbEntity
  8
0
  6
ByBlock
 62
     0
380
     1
100
AcDbTrace
 10
604.2467203680382
 20
262.9660017354273
 30
0.0
 11
603.8300537013715
 21
265.4660017354273
 31
0.0
 12
604.6633870347048
 22
265.4660017354273
 32
0.0
 13
604.6633870347048
 23
265.4660017354273
 33
0.0
  0
MTEXT
  5
7E9
330
7EB
100
AcDbEntity
  8
0
  6
ByBlock
 62
     0
370
    -2
380
     1
100
AcDbMText
 10
602.3717203680382
 20
303.9660017354273
 30
0.0
 40
2.5
 41
0.0
 71
     5
 72
     1
  1
\A1;82
 11
6.123031769111886E-17
 21
1.0
 31
0.0
 73
     1
 44
1.0
  0
ENDBLK
  5
97F
330
7EB
100
AcDbEntity
  8
0
100
AcDbBlockEnd
  0
BLOCK
  5
980
330
7F8
100
AcDbEntity
  8
0
100
AcDbBlockBegin
  2
*D24
 70
     1
 10
0.0
 20
0.0
 30
0.0
  3
*D24
  1

  0
POINT
  5
7ED
330
7F8
100
AcDbEntity
  8
DEFPOINTS
  6
ByBlock
 62
     0
380
     1
100
AcDbPoint
 10
471.5483625463744
 20
344.9660017354273
 30
0.0
  0
POINT
  5
7EE
330
7F8
100
AcDbEntity
  8
DEFPOINTS
  6
ByBlock
 62
     0
380
     1
100
AcDbPoint
 10
473.2122917980567
 20
262.9660017354273
 30
0.0
  0
LINE
  5
7EF
330
7F8
100
AcDbEntity
  8
0
  6
ByBlock
 62
     0
370
    -2
380
     1
100
AcDbLine
 10
472.1733625463744
 20
344.9660017354273
 30
0.0
 11
605.4967203680382
 21
344.9660017354273
 31
0.0
  0
LINE
  5
7F0
330
7F8
100
AcDbEntity
  8
0
  6
ByBlock
 62
     0
370
    -2
380
     1
100
AcDbLine
 10
473.8372917980567
 20
262.9660017354273
 30
0.0
 11
605.4967203680382
 21
262.9660017354273
 31
0.0
  0
LINE
  5
7F1
330
7F8
100
AcDbEntity
  8
0
  6
ByBlock
 62
     0
370
    -2
380
     1
100
AcDbLine
 10
604.2467203680382
 20
354.9660017354273
 30
0.0
 11
604.2467203680382
 21
364.9660017354273
 31
0.0
  0
LINE
  5
7F2
330
7F8
100
AcDbEntity
  8
0
  6
ByBlock
 62
     0
370
    -2
380
     1
100
AcDbLine
 10
604.2467203680382
 20
252.9660017354273
 30
0.0
 11
604.2467203680382
 21
242.9660017354273
 31
0.0
  0
SOLID
  5
7F3
330
7F8
100
AcDbEntity
  8
0
  6
ByBlock
 62
     0
380
     1
100
AcDbTrace
 10
604.2467203680382
 20
344.9660017354273
 30
0.0
 11
602.5800537013715
 21
354.9660017354273
 31
0.0
 12
605.9133870347048
 22
354.9660017354273
 32
0.0
 13
605.9133870347048
 23
354.9660017354273
 33
0.0
  0
SOLID
  5
7F4
330
7F8
100
AcDbEntity
  8
0
  6
ByBlock
 62
     0
380
     1
100
AcDbTrace
 10
604.2467203680382
 20
262.9660017354273
 30
0.0
 11
602.5800537013715
 21
252.9660017354273
 31
0.0
 12
605.9133870347048
 22
252.9660017354273
 32
0.0
 13
605.9133870347048
 23
252.9660017354273
 33
0.0
  0
LINE
  5
7F5
330
7F8
100
AcDbEntity
  8
0
  6
ByBlock
 62
     0
370
    -2
380
     1
100
AcDbLine
 10
604.2467203680382
 20
344.9660017354273
 30
0.0
 11
604.2467203680382
 21
262.9660017354273
 31
0.0
  0
MTEXT
  5
7F6
330
7F8
100
AcDbEntity
  8
0
  6
ByBlock
 62
     0
370
    -2
380
     1
100
AcDbMText
 10
576.2467203680382
 20
303.9660017354273
 30
0.0
 40
36.0
 41
0.0
 71
     5
 72
     1
  1
\A1;82
 11
6.123031769111886E-17
 21
1.0
 31
0.0
 73
     1
 44
1.0
  0
ENDBLK
  5
981
330
7F8
100
AcDbEntity
  8
0
100
AcDbBlockEnd
  0
BLOCK
  5
982
330
805
100
AcDbEntity
  8
0
100
AcDbBlockBegin
  2
*D25
 70
     1
 10
0.0
 20
0.0
 30
0.0
  3
*D25
  1

  0
POINT
  5
7FA
330
805
100
AcDbEntity
  8
DEFPOINTS
  6
ByBlock
 62
     0
380
     1
100
AcDbPoint
 10
471.5483625463744
 20
344.9660017354273
 30
0.0
  0
POINT
  5
7FB
330
805
100
AcDbEntity
  8
DEFPOINTS
  6
ByBlock
 62
     0
380
     1
100
AcDbPoint
 10
473.2122917980567
 20
262.9660017354273
 30
0.0
  0
LINE
  5
7FC
330
805
100
AcDbEntity
  8
0
  6
ByBlock
 62
     0
370
    -2
380
     1
100
AcDbLine
 10
472.1733625463744
 20
344.9660017354273
 30
0.0
 11
605.4967203680382
 21
344.9660017354273
 31
0.0
  0
LINE
  5
7FD
330
805
100
AcDbEntity
  8
0
  6
ByBlock
 62
     0
370
    -2
380
     1
100
AcDbLine
 10
473.8372917980567
 20
262.9660017354273
 30
0.0
 11
605.4967203680382
 21
262.9660017354273
 31
0.0
  0
LINE
  5
7FE
330
805
100
AcDbEntity
  8
0
  6
ByBlock
 62
     0
370
    -2
380
     1
100
AcDbLine
 10
604.2467203680382
 20
354.9660017354273
 30
0.0
 11
604.2467203680382
 21
364.9660017354273
 31
0.0
  0
LINE
  5
7FF
330
805
100
AcDbEntity
  8
0
  6
ByBlock
 62
     0
370
    -2
380
     1
100
AcDbLine
 10
604.2467203680382
 20
252.9660017354273
 30
0.0
 11
604.2467203680382
 21
242.9660017354273
 31
0.0
  0
SOLID
  5
800
330
805
100
AcDbEntity
  8
0
  6
ByBlock
 62
     0
380
     1
100
AcDbTrace
 10
604.2467203680382
 20
344.9660017354273
 30
0.0
 11
602.5800537013715
 21
354.9660017354273
 31
0.0
 12
605.9133870347048
 22
354.9660017354273
 32
0.0
 13
605.9133870347048
 23
354.9660017354273
 33
0.0
  0
SOLID
  5
801
330
805
100
AcDbEntity
  8
0
  6
ByBlock
 62
     0
380
     1
100
AcDbTrace
 10
604.2467203680382
 20
262.9660017354273
 30
0.0
 11
602.5800537013715
 21
252.9660017354273
 31
0.0
 12
605.9133870347048
 22
252.9660017354273
 32
0.0
 13
605.9133870347048
 23
252.9660017354273
 33
0.0
  0
LINE
  5
802
330
805
100
AcDbEntity
  8
0
  6
ByBlock
 62
     0
370
    -2
380
     1
100
AcDbLine
 10
604.2467203680382
 20
344.9660017354273
 30
0.0
 11
604.2467203680382
 21
262.9660017354273
 31
0.0
  0
MTEXT
  5
803
330
805
100
AcDbEntity
  8
0
  6
ByBlock
 62
     0
370
    -2
380
     1
100
AcDbMText
 10
576.2467203680382
 20
303.9660017354273
 30
0.0
 40
36.0
 41
0.0
 71
     5
 72
     1
  1
\A1;82
 11
6.123031769111886E-17
 21
1.0
 31
0.0
 73
     1
 44
1.0
  0
ENDBLK
  5
983
330
805
100
AcDbEntity
  8
0
100
AcDbBlockEnd
  0
BLOCK
  5
984
330
812
100
AcDbEntity
  8
0
100
AcDbBlockBegin
  2
*D26
 70
     1
 10
0.0
 20
0.0
 30
0.0
  3
*D26
  1

  0
POINT
  5
807
330
812
100
AcDbEntity
  8
DEFPOINTS
  6
ByBlock
 62
     0
380
     1
100
AcDbPoint
 10
471.5483625463744
 20
344.9660017354273
 30
0.0
  0
POINT
  5
808
330
812
100
AcDbEntity
  8
DEFPOINTS
  6
ByBlock
 62
     0
380
     1
100
AcDbPoint
 10
473.2122917980567
 20
262.9660017354273
 30
0.0
  0
LINE
  5
809
330
812
100
AcDbEntity
  8
0
  6
ByBlock
 62
     0
370
    -2
380
     1
100
AcDbLine
 10
472.1733625463744
 20
344.9660017354273
 30
0.0
 11
620.0561013202583
 21
344.9660017354273
 31
0.0
  0
LINE
  5
80A
330
812
100
AcDbEntity
  8
0
  6
ByBlock
 62
     0
370
    -2
380
     1
100
AcDbLine
 10
473.8372917980567
 20
262.9660017354273
 30
0.0
 11
620.0561013202583
 21
262.9660017354273
 31
0.0
  0
LINE
  5
80B
330
812
100
AcDbEntity
  8
0
  6
ByBlock
 62
     0
370
    -2
380
     1
100
AcDbLine
 10
618.8061013202583
 20
354.9660017354273
 30
0.0
 11
618.8061013202583
 21
364.9660017354273
 31
0.0
  0
LINE
  5
80C
330
812
100
AcDbEntity
  8
0
  6
ByBlock
 62
     0
370
    -2
380
     1
100
AcDbLine
 10
618.8061013202583
 20
252.9660017354273
 30
0.0
 11
618.8061013202583
 21
242.9660017354273
 31
0.0
  0
SOLID
  5
80D
330
812
100
AcDbEntity
  8
0
  6
ByBlock
 62
     0
380
     1
100
AcDbTrace
 10
618.8061013202583
 20
344.9660017354273
 30
0.0
 11
617.1394346535917
 21
354.9660017354273
 31
0.0
 12
620.472767986925
 22
354.9660017354273
 32
0.0
 13
620.472767986925
 23
354.9660017354273
 33
0.0
  0
SOLID
  5
80E
330
812
100
AcDbEntity
  8
0
  6
ByBlock
 62
     0
380
     1
100
AcDbTrace
 10
618.8061013202583
 20
262.9660017354273
 30
0.0
 11
617.1394346535917
 21
252.9660017354273
 31
0.0
 12
620.472767986925
 22
252.9660017354273
 32
0.0
 13
620.472767986925
 23
252.9660017354273
 33
0.0
  0
LINE
  5
80F
330
812
100
AcDbEntity
  8
0
  6
ByBlock
 62
     0
370
    -2
380
     1
100
AcDbLine
 10
618.8061013202583
 20
344.9660017354273
 30
0.0
 11
618.8061013202583
 21
262.9660017354273
 31
0.0
  0
MTEXT
  5
810
330
812
100
AcDbEntity
  8
0
  6
ByBlock
 62
     0
370
    -2
380
     1
100
AcDbMText
 10
590.8061013202583
 20
315.4660017354273
 30
0.0
 40
36.0
 41
0.0
 71
     5
 72
     1
  1
\A1;82
 11
6.123031769111886E-17
 21
1.0
 31
0.0
 73
     1
 44
1.0
  0
ENDBLK
  5
985
330
812
100
AcDbEntity
  8
0
100
AcDbBlockEnd
  0
BLOCK
  5
986
330
81E
100
AcDbEntity
  8
0
100
AcDbBlockBegin
  2
*D27
 70
     1
 10
0.0
 20
0.0
 30
0.0
  3
*D27
  1

  0
POINT
  5
814
330
81E
100
AcDbEntity
  8
DEFPOINTS
  6
ByBlock
 62
     0
380
     1
100
AcDbPoint
 10
471.5483625463744
 20
344.9660017354273
 30
0.0
  0
POINT
  5
815
330
81E
100
AcDbEntity
  8
DEFPOINTS
  6
ByBlock
 62
     0
380
     1
100
AcDbPoint
 10
473.2122917980567
 20
262.9660017354273
 30
0.0
  0
LINE
  5
816
330
81E
100
AcDbEntity
  8
0
  6
ByBlock
 62
     0
370
    -2
380
     1
100
AcDbLine
 10
472.1733625463744
 20
344.9660017354273
 30
0.0
 11
620.0561013202583
 21
344.9660017354273
 31
0.0
  0
LINE
  5
817
330
81E
100
AcDbEntity
  8
0
  6
ByBlock
 62
     0
370
    -2
380
     1
100
AcDbLine
 10
473.8372917980567
 20
262.9660017354273
 30
0.0
 11
620.0561013202583
 21
262.9660017354273
 31
0.0
  0
LINE
  5
818
330
81E
100
AcDbEntity
  8
0
  6
ByBlock
 62
     0
370
    -2
380
     1
100
AcDbLine
 10
618.8061013202583
 20
354.9660017354273
 30
0.0
 11
618.8061013202583
 21
364.9660017354273
 31
0.0
  0
LINE
  5
819
330
81E
100
AcDbEntity
  8
0
  6
ByBlock
 62
     0
370
    -2
380
     1
100
AcDbLine
 10
618.8061013202583
 20
252.9660017354273
 30
0.0
 11
618.8061013202583
 21
242.9660017354273
 31
0.0
  0
SOLID
  5
81A
330
81E
100
AcDbEntity
  8
0
  6
ByBlock
 62
     0
380
     1
100
AcDbTrace
 10
618.8061013202583
 20
344.9660017354273
 30
0.0
 11
617.1394346535917
 21
354.9660017354273
 31
0.0
 12
620.472767986925
 22
354.9660017354273
 32
0.0
 13
620.472767986925
 23
354.9660017354273
 33
0.0
  0
SOLID
  5
81B
330
81E
100
AcDbEntity
  8
0
  6
ByBlock
 62
     0
380
     1
100
AcDbTrace
 10
618.8061013202583
 20
262.9660017354273
 30
0.0
 11
617.1394346535917
 21
252.9660017354273
 31
0.0
 12
620.472767986925
 22
252.9660017354273
 32
0.0
 13
620.472767986925
 23
252.9660017354273
 33
0.0
  0
MTEXT
  5
81C
330
81E
100
AcDbEntity
  8
0
  6
ByBlock
 62
     0
370
    -2
380
     1
100
AcDbMText
 10
590.8061013202583
 20
292.4660017354273
 30
0.0
 40
36.0
 41
0.0
 71
     5
 72
     1
  1
\A1;82
 11
6.123031769111886E-17
 21
1.0
 31
0.0
 73
     1
 44
1.0
  0
ENDBLK
  5
987
330
81E
100
AcDbEntity
  8
0
100
AcDbBlockEnd
  0
BLOCK
  5
988
330
82A
100
AcDbEntity
  8
0
100
AcDbBlockBegin
  2
*D28
 70
     1
 10
0.0
 20
0.0
 30
0.0
  3
*D28
  1

  0
POINT
  5
820
330
82A
100
AcDbEntity
  8
DEFPOINTS
  6
ByBlock
 62
     0
380
     1
100
AcDbPoint
 10
471.5483625463744
 20
344.9660017354273
 30
0.0
  0
POINT
  5
821
330
82A
100
AcDbEntity
  8
DEFPOINTS
  6
ByBlock
 62
     0
380
     1
100
AcDbPoint
 10
473.2122917980567
 20
262.9660017354273
 30
0.0
  0
LINE
  5
822
330
82A
100
AcDbEntity
  8
0
  6
ByBlock
 62
     0
370
    -2
380
     1
100
AcDbLine
 10
472.1733625463744
 20
344.9660017354273
 30
0.0
 11
620.0561013202583
 21
344.9660017354273
 31
0.0
  0
LINE
  5
823
330
82A
100
AcDbEntity
  8
0
  6
ByBlock
 62
     0
370
    -2
380
     1
100
AcDbLine
 10
473.8372917980567
 20
262.9660017354273
 30
0.0
 11
620.0561013202583
 21
262.9660017354273
 31
0.0
  0
LINE
  5
824
330
82A
100
AcDbEntity
  8
0
  6
ByBlock
 62
     0
370
    -2
380
     1
100
AcDbLine
 10
618.8061013202583
 20
354.9660017354273
 30
0.0
 11
618.8061013202583
 21
364.9660017354273
 31
0.0
  0
LINE
  5
825
330
82A
100
AcDbEntity
  8
0
  6
ByBlock
 62
     0
370
    -2
380
     1
100
AcDbLine
 10
618.8061013202583
 20
252.9660017354273
 30
0.0
 11
618.8061013202583
 21
242.9660017354273
 31
0.0
  0
SOLID
  5
826
330
82A
100
AcDbEntity
  8
0
  6
ByBlock
 62
     0
380
     1
100
AcDbTrace
 10
618.8061013202583
 20
344.9660017354273
 30
0.0
 11
617.1394346535917
 21
354.9660017354273
 31
0.0
 12
620.472767986925
 22
354.9660017354273
 32
0.0
 13
620.472767986925
 23
354.9660017354273
 33
0.0
  0
SOLID
  5
827
330
82A
100
AcDbEntity
  8
0
  6
ByBlock
 62
     0
380
     1
100
AcDbTrace
 10
618.8061013202583
 20
262.9660017354273
 30
0.0
 11
617.1394346535917
 21
252.9660017354273
 31
0.0
 12
620.472767986925
 22
252.9660017354273
 32
0.0
 13
620.472767986925
 23
252.9660017354273
 33
0.0
  0
MTEXT
  5
828
330
82A
100
AcDbEntity
  8
0
  6
ByBlock
 62
     0
370
    -2
380
     1
100
AcDbMText
 10
590.8061013202583
 20
315.4660017354273
 30
0.0
 40
36.0
 41
0.0
 71
     5
 72
     1
  1
\A1;82
 11
6.123031769111886E-17
 21
1.0
 31
0.0
 73
     1
 44
1.0
  0
ENDBLK
  5
989
330
82A
100
AcDbEntity
  8
0
100
AcDbBlockEnd
  0
BLOCK
  5
98A
330
836
100
AcDbEntity
  8
0
100
AcDbBlockBegin
  2
*D29
 70
     1
 10
0.0
 20
0.0
 30
0.0
  3
*D29
  1

  0
POINT
  5
82C
330
836
100
AcDbEntity
  8
DEFPOINTS
  6
ByBlock
 62
     0
380
     1
100
AcDbPoint
 10
471.5483625463744
 20
344.9660017354273
 30
0.0
  0
POINT
  5
82D
330
836
100
AcDbEntity
  8
DEFPOINTS
  6
ByBlock
 62
     0
380
     1
100
AcDbPoint
 10
473.2122917980567
 20
262.9660017354273
 30
0.0
  0
LINE
  5
82E
330
836
100
AcDbEntity
  8
0
  6
ByBlock
 62
     0
370
    -2
380
     1
100
AcDbLine
 10
472.1733625463744
 20
344.9660017354273
 30
0.0
 11
620.0561013202583
 21
344.9660017354273
 31
0.0
  0
LINE
  5
82F
330
836
100
AcDbEntity
  8
0
  6
ByBlock
 62
     0
370
    -2
380
     1
100
AcDbLine
 10
473.8372917980567
 20
262.9660017354273
 30
0.0
 11
620.0561013202583
 21
262.9660017354273
 31
0.0
  0
LINE
  5
830
330
836
100
AcDbEntity
  8
0
  6
ByBlock
 62
     0
370
    -2
380
     1
100
AcDbLine
 10
618.8061013202583
 20
344.9660017354273
 30
0.0
 11
618.8061013202583
 21
262.9660017354273
 31
0.0
  0
SOLID
  5
831
330
836
100
AcDbEntity
  8
0
  6
ByBlock
 62
     0
380
     1
100
AcDbTrace
 10
618.8061013202583
 20
344.9660017354273
 30
0.0
 11
617.1394346535917
 21
334.9660017354273
 31
0.0
 12
620.472767986925
 22
334.9660017354273
 32
0.0
 13
620.472767986925
 23
334.9660017354273
 33
0.0
  0
SOLID
  5
832
330
836
100
AcDbEntity
  8
0
  6
ByBlock
 62
     0
380
     1
100
AcDbTrace
 10
618.8061013202583
 20
262.9660017354273
 30
0.0
 11
617.1394346535917
 21
272.9660017354273
 31
0.0
 12
620.472767986925
 22
272.9660017354273
 32
0.0
 13
620.472767986925
 23
272.9660017354273
 33
0.0
  0
LINE
  5
833
330
836
100
AcDbEntity
  8
0
  6
ByBlock
 62
     0
370
    -2
380
     1
100
AcDbLine
 10
471.5483625463744
 20
344.9660017354273
 30
0.0
 11
471.5483625463744
 21
344.9660017354273
 31
0.0
  0
MTEXT
  5
834
330
836
100
AcDbEntity
  8
0
  6
ByBlock
 62
     0
370
    -2
380
     1
100
AcDbMText
 10
590.8061013202583
 20
315.4660017354273
 30
0.0
 40
36.0
 41
0.0
 71
     5
 72
     1
  1
\A1;82
 11
6.123031769111886E-17
 21
1.0
 31
0.0
 73
     1
 44
1.0
  0
ENDBLK
  5
98B
330
836
100
AcDbEntity
  8
0
100
AcDbBlockEnd
  0
BLOCK
  5
98C
330
842
100
AcDbEntity
  8
0
100
AcDbBlockBegin
  2
*D30
 70
     1
 10
0.0
 20
0.0
 30
0.0
  3
*D30
  1

  0
POINT
  5
838
330
842
100
AcDbEntity
  8
DEFPOINTS
  6
ByBlock
 62
     0
380
     1
100
AcDbPoint
 10
471.5483625463744
 20
344.9660017354273
 30
0.0
  0
POINT
  5
839
330
842
100
AcDbEntity
  8
DEFPOINTS
  6
ByBlock
 62
     0
380
     1
100
AcDbPoint
 10
473.2122917980567
 20
262.9660017354273
 30
0.0
  0
LINE
  5
83A
330
842
100
AcDbEntity
  8
0
  6
ByBlock
 62
     0
370
    -2
380
     1
100
AcDbLine
 10
472.1733625463744
 20
344.9660017354273
 30
0.0
 11
620.0561013202583
 21
344.9660017354273
 31
0.0
  0
LINE
  5
83B
330
842
100
AcDbEntity
  8
0
  6
ByBlock
 62
     0
370
    -2
380
     1
100
AcDbLine
 10
473.8372917980567
 20
262.9660017354273
 30
0.0
 11
620.0561013202583
 21
262.9660017354273
 31
0.0
  0
LINE
  5
83C
330
842
100
AcDbEntity
  8
0
  6
ByBlock
 62
     0
370
    -2
380
     1
100
AcDbLine
 10
618.8061013202583
 20
344.9660017354273
 30
0.0
 11
618.8061013202583
 21
262.9660017354273
 31
0.0
  0
SOLID
  5
83D
330
842
100
AcDbEntity
  8
0
  6
ByBlock
 62
     0
380
     1
100
AcDbTrace
 10
618.8061013202583
 20
344.9660017354273
 30
0.0
 11
617.1394346535917
 21
334.9660017354273
 31
0.0
 12
620.472767986925
 22
334.9660017354273
 32
0.0
 13
620.472767986925
 23
334.9660017354273
 33
0.0
  0
SOLID
  5
83E
330
842
100
AcDbEntity
  8
0
  6
ByBlock
 62
     0
380
     1
100
AcDbTrace
 10
618.8061013202583
 20
262.9660017354273
 30
0.0
 11
617.1394346535917
 21
272.9660017354273
 31
0.0
 12
620.472767986925
 22
272.9660017354273
 32
0.0
 13
620.472767986925
 23
272.9660017354273
 33
0.0
  0
LINE
  5
83F
330
842
100
AcDbEntity
  8
0
  6
ByBlock
 62
     0
370
    -2
380
     1
100
AcDbLine
 10
471.5483625463744
 20
344.9660017354273
 30
0.0
 11
471.5483625463744
 21
344.9660017354273
 31
0.0
  0
MTEXT
  5
840
330
842
100
AcDbEntity
  8
0
  6
ByBlock
 62
     0
370
    -2
380
     1
100
AcDbMText
 10
590.8061013202583
 20
315.4660017354273
 30
0.0
 40
36.0
 41
0.0
 71
     5
 72
     1
  1
\A1;82
 11
6.123031769111886E-17
 21
1.0
 31
0.0
 73
     1
 44
1.0
  0
ENDBLK
  5
98D
330
842
100
AcDbEntity
  8
0
100
AcDbBlockEnd
  0
BLOCK
  5
98E
330
84F
100
AcDbEntity
  8
0
100
AcDbBlockBegin
  2
*D31
 70
     1
 10
0.0
 20
0.0
 30
0.0
  3
*D31
  1

  0
POINT
  5
844
330
84F
100
AcDbEntity
  8
DEFPOINTS
  6
ByBlock
 62
     0
380
     1
100
AcDbPoint
 10
471.5483625463744
 20
344.9660017354273
 30
0.0
  0
POINT
  5
845
330
84F
100
AcDbEntity
  8
DEFPOINTS
  6
ByBlock
 62
     0
380
     1
100
AcDbPoint
 10
473.2122917980567
 20
262.9660017354273
 30
0.0
  0
LINE
  5
846
330
84F
100
AcDbEntity
  8
0
  6
ByBlock
 62
     0
370
    -2
380
     1
100
AcDbLine
 10
472.1733625463744
 20
344.9660017354273
 30
0.0
 11
620.0561013202583
 21
344.9660017354273
 31
0.0
  0
LINE
  5
847
330
84F
100
AcDbEntity
  8
0
  6
ByBlock
 62
     0
370
    -2
380
     1
100
AcDbLine
 10
473.8372917980567
 20
262.9660017354273
 30
0.0
 11
620.0561013202583
 21
262.9660017354273
 31
0.0
  0
LINE
  5
848
330
84F
100
AcDbEntity
  8
0
  6
ByBlock
 62
     0
370
    -2
380
     1
100
AcDbLine
 10
618.8061013202583
 20
354.9660017354273
 30
0.0
 11
618.8061013202583
 21
364.9660017354273
 31
0.0
  0
LINE
  5
849
330
84F
100
AcDbEntity
  8
0
  6
ByBlock
 62
     0
370
    -2
380
     1
100
AcDbLine
 10
618.8061013202583
 20
252.9660017354273
 30
0.0
 11
618.8061013202583
 21
242.9660017354273
 31
0.0
  0
SOLID
  5
84A
330
84F
100
AcDbEntity
  8
0
  6
ByBlock
 62
     0
380
     1
100
AcDbTrace
 10
618.8061013202583
 20
344.9660017354273
 30
0.0
 11
617.1394346535917
 21
354.9660017354273
 31
0.0
 12
620.472767986925
 22
354.9660017354273
 32
0.0
 13
620.472767986925
 23
354.9660017354273
 33
0.0
  0
SOLID
  5
84B
330
84F
100
AcDbEntity
  8
0
  6
ByBlock
 62
     0
380
     1
100
AcDbTrace
 10
618.8061013202583
 20
262.9660017354273
 30
0.0
 11
617.1394346535917
 21
252.9660017354273
 31
0.0
 12
620.472767986925
 22
252.9660017354273
 32
0.0
 13
620.472767986925
 23
252.9660017354273
 33
0.0
  0
LINE
  5
84C
330
84F
100
AcDbEntity
  8
0
  6
ByBlock
 62
     0
370
    -2
380
     1
100
AcDbLine
 10
618.8061013202583
 20
344.9660017354273
 30
0.0
 11
618.8061013202583
 21
262.9660017354273
 31
0.0
  0
MTEXT
  5
84D
330
84F
100
AcDbEntity
  8
0
  6
ByBlock
 62
     0
370
    -2
380
     1
100
AcDbMText
 10
590.8061013202583
 20
292.4660017354273
 30
0.0
 40
36.0
 41
0.0
 71
     5
 72
     1
  1
\A1;82
 11
6.123031769111886E-17
 21
1.0
 31
0.0
 73
     1
 44
1.0
  0
ENDBLK
  5
98F
330
84F
100
AcDbEntity
  8
0
100
AcDbBlockEnd
  0
BLOCK
  5
990
330
85B
100
AcDbEntity
  8
0
100
AcDbBlockBegin
  2
*D32
 70
     1
 10
0.0
 20
0.0
 30
0.0
  3
*D32
  1

  0
POINT
  5
851
330
85B
100
AcDbEntity
  8
DEFPOINTS
  6
ByBlock
 62
     0
380
     1
100
AcDbPoint
 10
471.5483625463744
 20
344.9660017354273
 30
0.0
  0
POINT
  5
852
330
85B
100
AcDbEntity
  8
DEFPOINTS
  6
ByBlock
 62
     0
380
     1
100
AcDbPoint
 10
473.2122917980567
 20
262.9660017354273
 30
0.0
  0
LINE
  5
853
330
85B
100
AcDbEntity
  8
0
  6
ByBlock
 62
     0
370
    -2
380
     1
100
AcDbLine
 10
472.1733625463744
 20
344.9660017354273
 30
0.0
 11
620.0561013202583
 21
344.9660017354273
 31
0.0
  0
LINE
  5
854
330
85B
100
AcDbEntity
  8
0
  6
ByBlock
 62
     0
370
    -2
380
     1
100
AcDbLine
 10
473.8372917980567
 20
262.9660017354273
 30
0.0
 11
620.0561013202583
 21
262.9660017354273
 31
0.0
  0
LINE
  5
855
330
85B
100
AcDbEntity
  8
0
  6
ByBlock
 62
     0
370
    -2
380
     1
100
AcDbLine
 10
618.8061013202583
 20
344.9660017354273
 30
0.0
 11
618.8061013202583
 21
262.9660017354273
 31
0.0
  0
SOLID
  5
856
330
85B
100
AcDbEntity
  8
0
  6
ByBlock
 62
     0
380
     1
100
AcDbTrace
 10
618.8061013202583
 20
344.9660017354273
 30
0.0
 11
617.1394346535917
 21
334.9660017354273
 31
0.0
 12
620.472767986925
 22
334.9660017354273
 32
0.0
 13
620.472767986925
 23
334.9660017354273
 33
0.0
  0
SOLID
  5
857
330
85B
100
AcDbEntity
  8
0
  6
ByBlock
 62
     0
380
     1
100
AcDbTrace
 10
618.8061013202583
 20
262.9660017354273
 30
0.0
 11
617.1394346535917
 21
272.9660017354273
 31
0.0
 12
620.472767986925
 22
272.9660017354273
 32
0.0
 13
620.472767986925
 23
272.9660017354273
 33
0.0
  0
LINE
  5
858
330
85B
100
AcDbEntity
  8
0
  6
ByBlock
 62
     0
370
    -2
380
     1
100
AcDbLine
 10
471.5483625463744
 20
344.9660017354273
 30
0.0
 11
471.5483625463744
 21
344.9660017354273
 31
0.0
  0
MTEXT
  5
859
330
85B
100
AcDbEntity
  8
0
  6
ByBlock
 62
     0
370
    -2
380
     1
100
AcDbMText
 10
590.8061013202583
 20
292.4660017354273
 30
0.0
 40
36.0
 41
0.0
 71
     5
 72
     1
  1
\A1;82
 11
6.123031769111886E-17
 21
1.0
 31
0.0
 73
     1
 44
1.0
  0
ENDBLK
  5
991
330
85B
100
AcDbEntity
  8
0
100
AcDbBlockEnd
  0
BLOCK
  5
992
330
8A3
100
AcDbEntity
  8
0
100
AcDbBlockBegin
  2
*D33
 70
     1
 10
0.0
 20
0.0
 30
0.0
  3
*D33
  1

  0
POINT
  5
899
330
8A3
100
AcDbEntity
  8
DEFPOINTS
  6
ByBlock
 62
     0
380
     1
100
AcDbPoint
 10
471.5483625463744
 20
344.9660017354273
 30
0.0
  0
POINT
  5
89A
330
8A3
100
AcDbEntity
  8
DEFPOINTS
  6
ByBlock
 62
     0
380
     1
100
AcDbPoint
 10
473.2122917980567
 20
262.9660017354273
 30
0.0
  0
LINE
  5
89B
330
8A3
100
AcDbEntity
  8
0
  6
ByBlock
 62
     0
370
    -2
380
     1
100
AcDbLine
 10
472.1733625463744
 20
344.9660017354273
 30
0.0
 11
620.0561013202583
 21
344.9660017354273
 31
0.0
  0
LINE
  5
89C
330
8A3
100
AcDbEntity
  8
0
  6
ByBlock
 62
     0
370
    -2
380
     1
100
AcDbLine
 10
473.8372917980567
 20
262.9660017354273
 30
0.0
 11
620.0561013202583
 21
262.9660017354273
 31
0.0
  0
LINE
  5
89D
330
8A3
100
AcDbEntity
  8
0
  6
ByBlock
 62
     0
370
    -2
380
     1
100
AcDbLine
 10
618.8061013202583
 20
344.9660017354273
 30
0.0
 11
618.8061013202583
 21
262.9660017354273
 31
0.0
  0
SOLID
  5
89E
330
8A3
100
AcDbEntity
  8
0
  6
ByBlock
 62
     0
380
     1
100
AcDbTrace
 10
618.8061013202583
 20
344.9660017354273
 30
0.0
 11
617.1394346535917
 21
334.9660017354273
 31
0.0
 12
620.472767986925
 22
334.9660017354273
 32
0.0
 13
620.472767986925
 23
334.9660017354273
 33
0.0
  0
SOLID
  5
89F
330
8A3
100
AcDbEntity
  8
0
  6
ByBlock
 62
     0
380
     1
100
AcDbTrace
 10
618.8061013202583
 20
262.9660017354273
 30
0.0
 11
617.1394346535917
 21
272.9660017354273
 31
0.0
 12
620.472767986925
 22
272.9660017354273
 32
0.0
 13
620.472767986925
 23
272.9660017354273
 33
0.0
  0
LINE
  5
8A0
330
8A3
100
AcDbEntity
  8
0
  6
ByBlock
 62
     0
370
    -2
380
     1
100
AcDbLine
 10
471.5483625463744
 20
344.9660017354273
 30
0.0
 11
471.5483625463744
 21
344.9660017354273
 31
0.0
  0
MTEXT
  5
8A1
330
8A3
100
AcDbEntity
  8
0
  6
ByBlock
 62
     0
370
    -2
380
     1
100
AcDbMText
 10
590.8061013202583
 20
292.4660017354273
 30
0.0
 40
36.0
 41
0.0
 71
     5
 72
     1
  1
\A1;82
 11
6.123031769111886E-17
 21
1.0
 31
0.0
 73
     1
 44
1.0
  0
ENDBLK
  5
993
330
8A3
100
AcDbEntity
  8
0
100
AcDbBlockEnd
  0
BLOCK
  5
994
330
8AF
100
AcDbEntity
  8
0
100
AcDbBlockBegin
  2
*D34
 70
     1
 10
0.0
 20
0.0
 30
0.0
  3
*D34
  1

  0
POINT
  5
8A6
330
8AF
100
AcDbEntity
  8
DEFPOINTS
  6
ByBlock
 62
     0
380
     1
100
AcDbPoint
 10
379.6162713909269
 20
296.2445867690736
 30
0.0
  0
POINT
  5
8A7
330
8AF
100
AcDbEntity
  8
DEFPOINTS
  6
ByBlock
 62
     0
380
     1
100
AcDbPoint
 10
555.6162713909268
 20
297.9085160207559
 30
0.0
  0
LINE
  5
8A8
330
8AF
100
AcDbEntity
  8
0
  6
ByBlock
 62
     0
370
    -2
380
     1
100
AcDbLine
 10
379.6162713909269
 20
295.6195867690736
 30
0.0
 11
379.6162713909269
 21
215.5419650012436
 31
0.0
  0
LINE
  5
8A9
330
8AF
100
AcDbEntity
  8
0
  6
ByBlock
 62
     0
370
    -2
380
     1
100
AcDbLine
 10
555.6162713909268
 20
297.2835160207559
 30
0.0
 11
555.6162713909268
 21
215.5419650012436
 31
0.0
  0
LINE
  5
8AA
330
8AF
100
AcDbEntity
  8
0
  6
ByBlock
 62
     0
370
    -2
380
     1
100
AcDbLine
 10
382.1162713909269
 20
216.7919650012436
 30
0.0
 11
553.1162713909268
 21
216.7919650012436
 31
0.0
  0
SOLID
  5
8AB
330
8AF
100
AcDbEntity
  8
0
  6
ByBlock
 62
     0
380
     1
100
AcDbTrace
 10
379.6162713909269
 20
216.7919650012436
 30
0.0
 11
382.1162713909269
 21
216.3752983345769
 31
0.0
 12
382.1162713909269
 22
217.2086316679103
 32
0.0
 13
382.1162713909269
 23
217.2086316679103
 33
0.0
  0
SOLID
  5
8AC
330
8AF
100
AcDbEntity
  8
0
  6
ByBlock
 62
     0
380
     1
100
AcDbTrace
 10
555.6162713909268
 20
216.7919650012436
 30
0.0
 11
553.1162713909268
 21
216.3752983345769
 31
0.0
 12
553.1162713909268
 22
217.2086316679103
 32
0.0
 13
553.1162713909268
 23
217.2086316679103
 33
0.0
  0
MTEXT
  5
8AD
330
8AF
100
AcDbEntity
  8
0
  6
ByBlock
 62
     0
370
    -2
380
     1
100
AcDbMText
 10
467.6162713909268
 20
218.6669650012436
 30
0.0
 40
2.5
 41
0.0
 71
     5
 72
     1
  1
\A1;176
 73
     1
 44
1.0
  0
ENDBLK
  5
995
330
8AF
100
AcDbEntity
  8
0
100
AcDbBlockEnd
  0
BLOCK
  5
996
330
8BA
100
AcDbEntity
  8
0
100
AcDbBlockBegin
  2
*D35
 70
     1
 10
0.0
 20
0.0
 30
0.0
  3
*D35
  1

  0
POINT
  5
8B1
330
8BA
100
AcDbEntity
  8
DEFPOINTS
  6
ByBlock
 62
     0
380
     1
100
AcDbPoint
 10
379.6162713909269
 20
296.2445867690736
 30
0.0
  0
POINT
  5
8B2
330
8BA
100
AcDbEntity
  8
DEFPOINTS
  6
ByBlock
 62
     0
380
     1
100
AcDbPoint
 10
555.6162713909268
 20
297.9085160207559
 30
0.0
  0
LINE
  5
8B3
330
8BA
100
AcDbEntity
  8
0
  6
ByBlock
 62
     0
370
    -2
380
     1
100
AcDbLine
 10
379.6162713909269
 20
295.6195867690736
 30
0.0
 11
379.6162713909269
 21
215.5419650012436
 31
0.0
  0
LINE
  5
8B4
330
8BA
100
AcDbEntity
  8
0
  6
ByBlock
 62
     0
370
    -2
380
     1
100
AcDbLine
 10
555.6162713909268
 20
297.2835160207559
 30
0.0
 11
555.6162713909268
 21
215.5419650012436
 31
0.0
  0
LINE
  5
8B5
330
8BA
100
AcDbEntity
  8
0
  6
ByBlock
 62
     0
370
    -2
380
     1
100
AcDbLine
 10
389.6162713909269
 20
216.7919650012436
 30
0.0
 11
545.6162713909268
 21
216.7919650012436
 31
0.0
  0
SOLID
  5
8B6
330
8BA
100
AcDbEntity
  8
0
  6
ByBlock
 62
     0
380
     1
100
AcDbTrace
 10
379.6162713909269
 20
216.7919650012436
 30
0.0
 11
389.6162713909269
 21
215.1252983345769
 31
0.0
 12
389.6162713909269
 22
218.4586316679103
 32
0.0
 13
389.6162713909269
 23
218.4586316679103
 33
0.0
  0
SOLID
  5
8B7
330
8BA
100
AcDbEntity
  8
0
  6
ByBlock
 62
     0
380
     1
100
AcDbTrace
 10
555.6162713909268
 20
216.7919650012436
 30
0.0
 11
545.6162713909268
 21
215.1252983345769
 31
0.0
 12
545.6162713909268
 22
218.4586316679103
 32
0.0
 13
545.6162713909268
 23
218.4586316679103
 33
0.0
  0
MTEXT
  5
8B8
330
8BA
100
AcDbEntity
  8
0
  6
ByBlock
 62
     0
370
    -2
380
     1
100
AcDbMText
 10
467.6162713909268
 20
244.7919650012436
 30
0.0
 40
36.0
 41
0.0
 71
     5
 72
     1
  1
\A1;176
 73
     1
 44
1.0
  0
ENDBLK
  5
997
330
8BA
100
AcDbEntity
  8
0
100
AcDbBlockEnd
  0
BLOCK
  5
998
330
8C5
100
AcDbEntity
  8
0
100
AcDbBlockBegin
  2
*D36
 70
     1
 10
0.0
 20
0.0
 30
0.0
  3
*D36
  1

  0
POINT
  5
8BC
330
8C5
100
AcDbEntity
  8
DEFPOINTS
  6
ByBlock
 62
     0
380
     1
100
AcDbPoint
 10
379.6162713909269
 20
296.2445867690736
 30
0.0
  0
POINT
  5
8BD
330
8C5
100
AcDbEntity
  8
DEFPOINTS
  6
ByBlock
 62
     0
380
     1
100
AcDbPoint
 10
555.6162713909268
 20
297.9085160207559
 30
0.0
  0
LINE
  5
8BE
330
8C5
100
AcDbEntity
  8
0
  6
ByBlock
 62
     0
370
    -2
380
     1
100
AcDbLine
 10
379.6162713909269
 20
295.6195867690736
 30
0.0
 11
379.6162713909269
 21
215.5419650012436
 31
0.0
  0
LINE
  5
8BF
330
8C5
100
AcDbEntity
  8
0
  6
ByBlock
 62
     0
370
    -2
380
     1
100
AcDbLine
 10
555.6162713909268
 20
297.2835160207559
 30
0.0
 11
555.6162713909268
 21
215.5419650012436
 31
0.0
  0
LINE
  5
8C0
330
8C5
100
AcDbEntity
  8
0
  6
ByBlock
 62
     0
370
    -2
380
     1
100
AcDbLine
 10
389.6162713909269
 20
216.7919650012436
 30
0.0
 11
545.6162713909268
 21
216.7919650012436
 31
0.0
  0
SOLID
  5
8C1
330
8C5
100
AcDbEntity
  8
0
  6
ByBlock
 62
     0
380
     1
100
AcDbTrace
 10
379.6162713909269
 20
216.7919650012436
 30
0.0
 11
389.6162713909269
 21
215.1252983345769
 31
0.0
 12
389.6162713909269
 22
218.4586316679103
 32
0.0
 13
389.6162713909269
 23
218.4586316679103
 33
0.0
  0
SOLID
  5
8C2
330
8C5
100
AcDbEntity
  8
0
  6
ByBlock
 62
     0
380
     1
100
AcDbTrace
 10
555.6162713909268
 20
216.7919650012436
 30
0.0
 11
545.6162713909268
 21
215.1252983345769
 31
0.0
 12
545.6162713909268
 22
218.4586316679103
 32
0.0
 13
545.6162713909268
 23
218.4586316679103
 33
0.0
  0
MTEXT
  5
8C3
330
8C5
100
AcDbEntity
  8
0
  6
ByBlock
 62
     0
370
    -2
380
     1
100
AcDbMText
 10
467.6162713909268
 20
244.7919650012436
 30
0.0
 40
36.0
 41
0.0
 71
     5
 72
     1
  1
\A1;176
 73
     1
 44
1.0
  0
ENDBLK
  5
999
330
8C5
100
AcDbEntity
  8
0
100
AcDbBlockEnd
  0
BLOCK
  5
99A
330
8D0
100
AcDbEntity
  8
0
100
AcDbBlockBegin
  2
*D37
 70
     1
 10
0.0
 20
0.0
 30
0.0
  3
*D37
  1

  0
POINT
  5
8C7
330
8D0
100
AcDbEntity
  8
DEFPOINTS
  6
ByBlock
 62
     0
380
     1
100
AcDbPoint
 10
379.6162713909269
 20
296.2445867690736
 30
0.0
  0
POINT
  5
8C8
330
8D0
100
AcDbEntity
  8
DEFPOINTS
  6
ByBlock
 62
     0
380
     1
100
AcDbPoint
 10
555.6162713909268
 20
297.9085160207559
 30
0.0
  0
LINE
  5
8C9
330
8D0
100
AcDbEntity
  8
0
  6
ByBlock
 62
     0
370
    -2
380
     1
100
AcDbLine
 10
379.6162713909269
 20
295.6195867690736
 30
0.0
 11
379.6162713909269
 21
201.0621224205813
 31
0.0
  0
LINE
  5
8CA
330
8D0
100
AcDbEntity
  8
0
  6
ByBlock
 62
     0
370
    -2
380
     1
100
AcDbLine
 10
555.6162713909268
 20
297.2835160207559
 30
0.0
 11
555.6162713909268
 21
201.0621224205813
 31
0.0
  0
LINE
  5
8CB
330
8D0
100
AcDbEntity
  8
0
  6
ByBlock
 62
     0
370
    -2
380
     1
100
AcDbLine
 10
389.6162713909269
 20
202.3121224205813
 30
0.0
 11
545.6162713909268
 21
202.3121224205813
 31
0.0
  0
SOLID
  5
8CC
330
8D0
100
AcDbEntity
  8
0
  6
ByBlock
 62
     0
380
     1
100
AcDbTrace
 10
379.6162713909269
 20
202.3121224205813
 30
0.0
 11
389.6162713909269
 21
200.6454557539146
 31
0.0
 12
389.6162713909269
 22
203.978789087248
 32
0.0
 13
389.6162713909269
 23
203.978789087248
 33
0.0
  0
SOLID
  5
8CD
330
8D0
100
AcDbEntity
  8
0
  6
ByBlock
 62
     0
380
     1
100
AcDbTrace
 10
555.6162713909268
 20
202.3121224205813
 30
0.0
 11
545.6162713909268
 21
200.6454557539146
 31
0.0
 12
545.6162713909268
 22
203.978789087248
 32
0.0
 13
545.6162713909268
 23
203.978789087248
 33
0.0
  0
MTEXT
  5
8CE
330
8D0
100
AcDbEntity
  8
0
  6
ByBlock
 62
     0
370
    -2
380
     1
100
AcDbMText
 10
467.6162713909268
 20
230.3121224205813
 30
0.0
 40
36.0
 41
0.0
 71
     5
 72
     1
  1
\A1;176
 73
     1
 44
1.0
  0
ENDBLK
  5
99B
330
8D0
100
AcDbEntity
  8
0
100
AcDbBlockEnd
  0
BLOCK
  5
99C
330
8DB
100
AcDbEntity
  8
0
100
AcDbBlockBegin
  2
*D38
 70
     1
 10
0.0
 20
0.0
 30
0.0
  3
*D38
  1

  0
POINT
  5
8D2
330
8DB
100
AcDbEntity
  8
DEFPOINTS
  6
ByBlock
 62
     0
380
     1
100
AcDbPoint
 10
379.6162713909269
 20
296.2445867690736
 30
0.0
  0
POINT
  5
8D3
330
8DB
100
AcDbEntity
  8
DEFPOINTS
  6
ByBlock
 62
     0
380
     1
100
AcDbPoint
 10
555.6162713909268
 20
297.9085160207559
 30
0.0
  0
LINE
  5
8D4
330
8DB
100
AcDbEntity
  8
0
  6
ByBlock
 62
     0
370
    -2
380
     1
100
AcDbLine
 10
379.6162713909269
 20
295.6195867690736
 30
0.0
 11
379.6162713909269
 21
201.0621224205813
 31
0.0
  0
LINE
  5
8D5
330
8DB
100
AcDbEntity
  8
0
  6
ByBlock
 62
     0
370
    -2
380
     1
100
AcDbLine
 10
555.6162713909268
 20
297.2835160207559
 30
0.0
 11
555.6162713909268
 21
201.0621224205813
 31
0.0
  0
LINE
  5
8D6
330
8DB
100
AcDbEntity
  8
0
  6
ByBlock
 62
     0
370
    -2
380
     1
100
AcDbLine
 10
389.6162713909269
 20
202.3121224205813
 30
0.0
 11
545.6162713909268
 21
202.3121224205813
 31
0.0
  0
SOLID
  5
8D7
330
8DB
100
AcDbEntity
  8
0
  6
ByBlock
 62
     0
380
     1
100
AcDbTrace
 10
379.6162713909269
 20
202.3121224205813
 30
0.0
 11
389.6162713909269
 21
200.6454557539146
 31
0.0
 12
389.6162713909269
 22
203.978789087248
 32
0.0
 13
389.6162713909269
 23
203.978789087248
 33
0.0
  0
SOLID
  5
8D8
330
8DB
100
AcDbEntity
  8
0
  6
ByBlock
 62
     0
380
     1
100
AcDbTrace
 10
555.6162713909268
 20
202.3121224205813
 30
0.0
 11
545.6162713909268
 21
200.6454557539146
 31
0.0
 12
545.6162713909268
 22
203.978789087248
 32
0.0
 13
545.6162713909268
 23
203.978789087248
 33
0.0
  0
MTEXT
  5
8D9
330
8DB
100
AcDbEntity
  8
0
  6
ByBlock
 62
     0
370
    -2
380
     1
100
AcDbMText
 10
467.6162713909268
 20
230.3121224205813
 30
0.0
 40
36.0
 41
0.0
 71
     5
 72
     1
  1
\A1;176
 73
     1
 44
1.0
  0
ENDBLK
  5
99D
330
8DB
100
AcDbEntity
  8
0
100
AcDbBlockEnd
  0
BLOCK
  5
99E
330
8E7
100
AcDbEntity
  8
0
100
AcDbBlockBegin
  2
*D39
 70
     1
 10
0.0
 20
0.0
 30
0.0
  3
*D39
  1

  0
POINT
  5
8DE
330
8E7
100
AcDbEntity
  8
DEFPOINTS
  6
ByBlock
 62
     0
380
     1
100
AcDbPoint
 10
464.7983968397838
 20
344.9660017354273
 30
0.0
  0
POINT
  5
8DF
330
8E7
100
AcDbEntity
  8
DEFPOINTS
  6
ByBlock
 62
     0
380
     1
100
AcDbPoint
 10
469.0282253223068
 20
262.9660017354273
 30
0.0
  0
LINE
  5
8E0
330
8E7
100
AcDbEntity
  8
0
  6
ByBlock
 62
     0
370
    -2
380
     1
100
AcDbLine
 10
465.4233968397838
 20
344.9660017354273
 30
0.0
 11
625.0899477826451
 21
344.9660017354273
 31
0.0
  0
LINE
  5
8E1
330
8E7
100
AcDbEntity
  8
0
  6
ByBlock
 62
     0
370
    -2
380
     1
100
AcDbLine
 10
469.6532253223068
 20
262.9660017354273
 30
0.0
 11
625.0899477826451
 21
262.9660017354273
 31
0.0
  0
LINE
  5
8E2
330
8E7
100
AcDbEntity
  8
0
  6
ByBlock
 62
     0
370
    -2
380
     1
100
AcDbLine
 10
623.8399477826451
 20
342.4660017354273
 30
0.0
 11
623.8399477826451
 21
265.4660017354273
 31
0.0
  0
SOLID
  5
8E3
330
8E7
100
AcDbEntity
  8
0
  6
ByBlock
 62
     0
380
     1
100
AcDbTrace
 10
623.8399477826451
 20
344.9660017354273
 30
0.0
 11
623.4232811159785
 21
342.4660017354273
 31
0.0
 12
624.2566144493118
 22
342.4660017354273
 32
0.0
 13
624.2566144493118
 23
342.4660017354273
 33
0.0
  0
SOLID
  5
8E4
330
8E7
100
AcDbEntity
  8
0
  6
ByBlock
 62
     0
380
     1
100
AcDbTrace
 10
623.8399477826451
 20
262.9660017354273
 30
0.0
 11
623.4232811159785
 21
265.4660017354273
 31
0.0
 12
624.2566144493118
 22
265.4660017354273
 32
0.0
 13
624.2566144493118
 23
265.4660017354273
 33
0.0
  0
MTEXT
  5
8E5
330
8E7
100
AcDbEntity
  8
0
  6
ByBlock
 62
     0
370
    -2
380
     1
100
AcDbMText
 10
621.9649477826451
 20
303.9660017354273
 30
0.0
 40
2.5
 41
0.0
 71
     5
 72
     1
  1
\A1;82
 11
6.123031769111886E-17
 21
1.0
 31
0.0
 73
     1
 44
1.0
  0
ENDBLK
  5
99F
330
8E7
100
AcDbEntity
  8
0
100
AcDbBlockEnd
  0
BLOCK
  5
9A0
330
8F4
100
AcDbEntity
  8
0
100
AcDbBlockBegin
  2
*D40
 70
     1
 10
0.0
 20
0.0
 30
0.0
  3
*D40
  1

  0
POINT
  5
8E9
330
8F4
100
AcDbEntity
  8
DEFPOINTS
  6
ByBlock
 62
     0
380
     1
100
AcDbPoint
 10
464.7983968397838
 20
344.9660017354273
 30
0.0
  0
POINT
  5
8EA
330
8F4
100
AcDbEntity
  8
DEFPOINTS
  6
ByBlock
 62
     0
380
     1
100
AcDbPoint
 10
469.0282253223068
 20
262.9660017354273
 30
0.0
  0
LINE
  5
8EB
330
8F4
100
AcDbEntity
  8
0
  6
ByBlock
 62
     0
370
    -2
380
     1
100
AcDbLine
 10
465.4233968397838
 20
344.9660017354273
 30
0.0
 11
625.0899477826451
 21
344.9660017354273
 31
0.0
  0
LINE
  5
8EC
330
8F4
100
AcDbEntity
  8
0
  6
ByBlock
 62
     0
370
    -2
380
     1
100
AcDbLine
 10
469.6532253223068
 20
262.9660017354273
 30
0.0
 11
625.0899477826451
 21
262.9660017354273
 31
0.0
  0
LINE
  5
8ED
330
8F4
100
AcDbEntity
  8
0
  6
ByBlock
 62
     0
370
    -2
380
     1
100
AcDbLine
 10
623.8399477826451
 20
354.9660017354273
 30
0.0
 11
623.8399477826451
 21
364.9660017354273
 31
0.0
  0
LINE
  5
8EE
330
8F4
100
AcDbEntity
  8
0
  6
ByBlock
 62
     0
370
    -2
380
     1
100
AcDbLine
 10
623.8399477826451
 20
252.9660017354273
 30
0.0
 11
623.8399477826451
 21
242.9660017354273
 31
0.0
  0
SOLID
  5
8EF
330
8F4
100
AcDbEntity
  8
0
  6
ByBlock
 62
     0
380
     1
100
AcDbTrace
 10
623.8399477826451
 20
344.9660017354273
 30
0.0
 11
622.1732811159785
 21
354.9660017354273
 31
0.0
 12
625.5066144493118
 22
354.9660017354273
 32
0.0
 13
625.5066144493118
 23
354.9660017354273
 33
0.0
  0
SOLID
  5
8F0
330
8F4
100
AcDbEntity
  8
0
  6
ByBlock
 62
     0
380
     1
100
AcDbTrace
 10
623.8399477826451
 20
262.9660017354273
 30
0.0
 11
622.1732811159785
 21
252.9660017354273
 31
0.0
 12
625.5066144493118
 22
252.9660017354273
 32
0.0
 13
625.5066144493118
 23
252.9660017354273
 33
0.0
  0
LINE
  5
8F1
330
8F4
100
AcDbEntity
  8
0
  6
ByBlock
 62
     0
370
    -2
380
     1
100
AcDbLine
 10
623.8399477826451
 20
344.9660017354273
 30
0.0
 11
623.8399477826451
 21
262.9660017354273
 31
0.0
  0
MTEXT
  5
8F2
330
8F4
100
AcDbEntity
  8
0
  6
ByBlock
 62
     0
370
    -2
380
     1
100
AcDbMText
 10
595.8399477826451
 20
303.9660017354273
 30
0.0
 40
36.0
 41
0.0
 71
     5
 72
     1
  1
\A1;82
 11
6.123031769111886E-17
 21
1.0
 31
0.0
 73
     1
 44
1.0
  0
ENDBLK
  5
9A1
330
8F4
100
AcDbEntity
  8
0
100
AcDbBlockEnd
  0
BLOCK
  5
9A2
330
901
100
AcDbEntity
  8
0
100
AcDbBlockBegin
  2
*D41
 70
     1
 10
0.0
 20
0.0
 30
0.0
  3
*D41
  1

  0
POINT
  5
8F6
330
901
100
AcDbEntity
  8
DEFPOINTS
  6
ByBlock
 62
     0
380
     1
100
AcDbPoint
 10
464.7983968397838
 20
344.9660017354273
 30
0.0
  0
POINT
  5
8F7
330
901
100
AcDbEntity
  8
DEFPOINTS
  6
ByBlock
 62
     0
380
     1
100
AcDbPoint
 10
469.0282253223068
 20
262.9660017354273
 30
0.0
  0
LINE
  5
8F8
330
901
100
AcDbEntity
  8
0
  6
ByBlock
 62
     0
370
    -2
380
     1
100
AcDbLine
 10
465.4233968397838
 20
344.9660017354273
 30
0.0
 11
625.0899477826451
 21
344.9660017354273
 31
0.0
  0
LINE
  5
8F9
330
901
100
AcDbEntity
  8
0
  6
ByBlock
 62
     0
370
    -2
380
     1
100
AcDbLine
 10
469.6532253223068
 20
262.9660017354273
 30
0.0
 11
625.0899477826451
 21
262.9660017354273
 31
0.0
  0
LINE
  5
8FA
330
901
100
AcDbEntity
  8
0
  6
ByBlock
 62
     0
370
    -2
380
     1
100
AcDbLine
 10
623.8399477826451
 20
354.9660017354273
 30
0.0
 11
623.8399477826451
 21
364.9660017354273
 31
0.0
  0
LINE
  5
8FB
330
901
100
AcDbEntity
  8
0
  6
ByBlock
 62
     0
370
    -2
380
     1
100
AcDbLine
 10
623.8399477826451
 20
252.9660017354273
 30
0.0
 11
623.8399477826451
 21
242.9660017354273
 31
0.0
  0
SOLID
  5
8FC
330
901
100
AcDbEntity
  8
0
  6
ByBlock
 62
     0
380
     1
100
AcDbTrace
 10
623.8399477826451
 20
344.9660017354273
 30
0.0
 11
622.1732811159785
 21
354.9660017354273
 31
0.0
 12
625.5066144493118
 22
354.9660017354273
 32
0.0
 13
625.5066144493118
 23
354.9660017354273
 33
0.0
  0
SOLID
  5
8FD
330
901
100
AcDbEntity
  8
0
  6
ByBlock
 62
     0
380
     1
100
AcDbTrace
 10
623.8399477826451
 20
262.9660017354273
 30
0.0
 11
622.1732811159785
 21
252.9660017354273
 31
0.0
 12
625.5066144493118
 22
252.9660017354273
 32
0.0
 13
625.5066144493118
 23
252.9660017354273
 33
0.0
  0
LINE
  5
8FE
330
901
100
AcDbEntity
  8
0
  6
ByBlock
 62
     0
370
    -2
380
     1
100
AcDbLine
 10
623.8399477826451
 20
344.9660017354273
 30
0.0
 11
623.8399477826451
 21
262.9660017354273
 31
0.0
  0
MTEXT
  5
8FF
330
901
100
AcDbEntity
  8
0
  6
ByBlock
 62
     0
370
    -2
380
     1
100
AcDbMText
 10
595.8399477826451
 20
303.9660017354273
 30
0.0
 40
36.0
 41
0.0
 71
     5
 72
     1
  1
\A1;82
 11
6.123031769111886E-17
 21
1.0
 31
0.0
 73
     1
 44
1.0
  0
ENDBLK
  5
9A3
330
901
100
AcDbEntity
  8
0
100
AcDbBlockEnd
  0
BLOCK
  5
9A4
330
913
100
AcDbEntity
  8
0
100
AcDbBlockBegin
  2
*D42
 70
     1
 10
0.0
 20
0.0
 30
0.0
  3
*D42
  1

  0
POINT
  5
90A
330
913
100
AcDbEntity
  8
DEFPOINTS
  6
ByBlock
 62
     0
380
     1
100
AcDbPoint
 10
496.7507272581889
 20
514.6334518001768
 30
0.0
  0
POINT
  5
90B
330
913
100
AcDbEntity
  8
DEFPOINTS
  6
ByBlock
 62
     0
380
     1
100
AcDbPoint
 10
493.3646367810671
 20
338.6334518001768
 30
0.0
  0
LINE
  5
90C
330
913
100
AcDbEntity
  8
0
  6
ByBlock
 62
     0
370
    -2
380
     1
100
AcDbLine
 10
497.3757272581889
 20
514.6334518001768
 30
0.0
 11
654.6074118250673
 21
514.6334518001768
 31
0.0
  0
LINE
  5
90D
330
913
100
AcDbEntity
  8
0
  6
ByBlock
 62
     0
370
    -2
380
     1
100
AcDbLine
 10
493.9896367810671
 20
338.6334518001768
 30
0.0
 11
654.6074118250673
 21
338.6334518001768
 31
0.0
  0
LINE
  5
90E
330
913
100
AcDbEntity
  8
0
  6
ByBlock
 62
     0
370
    -2
380
     1
100
AcDbLine
 10
653.3574118250673
 20
512.1334518001768
 30
0.0
 11
653.3574118250673
 21
341.1334518001768
 31
0.0
  0
SOLID
  5
90F
330
913
100
AcDbEntity
  8
0
  6
ByBlock
 62
     0
380
     1
100
AcDbTrace
 10
653.3574118250673
 20
514.6334518001768
 30
0.0
 11
652.9407451584007
 21
512.1334518001768
 31
0.0
 12
653.7740784917339
 22
512.1334518001768
 32
0.0
 13
653.7740784917339
 23
512.1334518001768
 33
0.0
  0
SOLID
  5
910
330
913
100
AcDbEntity
  8
0
  6
ByBlock
 62
     0
380
     1
100
AcDbTrace
 10
653.3574118250673
 20
338.6334518001768
 30
0.0
 11
652.9407451584007
 21
341.1334518001768
 31
0.0
 12
653.7740784917339
 22
341.1334518001768
 32
0.0
 13
653.7740784917339
 23
341.1334518001768
 33
0.0
  0
MTEXT
  5
911
330
913
100
AcDbEntity
  8
0
  6
ByBlock
 62
     0
370
    -2
380
     1
100
AcDbMText
 10
651.4824118250673
 20
426.6334518001768
 30
0.0
 40
2.5
 41
0.0
 71
     5
 72
     1
  1
\A1;176
 11
6.123031769111886E-17
 21
1.0
 31
0.0
 73
     1
 44
1.0
  0
ENDBLK
  5
9A5
330
913
100
AcDbEntity
  8
0
100
AcDbBlockEnd
  0
BLOCK
  5
9A6
330
91E
100
AcDbEntity
  8
0
100
AcDbBlockBegin
  2
*D43
 70
     1
 10
0.0
 20
0.0
 30
0.0
  3
*D43
  1

  0
POINT
  5
915
330
91E
100
AcDbEntity
  8
DEFPOINTS
  6
ByBlock
 62
     0
380
     1
100
AcDbPoint
 10
496.7507272581889
 20
514.6334518001768
 30
0.0
  0
POINT
  5
916
330
91E
100
AcDbEntity
  8
DEFPOINTS
  6
ByBlock
 62
     0
380
     1
100
AcDbPoint
 10
493.3646367810671
 20
338.6334518001768
 30
0.0
  0
LINE
  5
917
330
91E
100
AcDbEntity
  8
0
  6
ByBlock
 62
     0
370
    -2
380
     1
100
AcDbLine
 10
497.3757272581889
 20
514.6334518001768
 30
0.0
 11
654.6074118250673
 21
514.6334518001768
 31
0.0
  0
LINE
  5
918
330
91E
100
AcDbEntity
  8
0
  6
ByBlock
 62
     0
370
    -2
380
     1
100
AcDbLine
 10
493.9896367810671
 20
338.6334518001768
 30
0.0
 11
654.6074118250673
 21
338.6334518001768
 31
0.0
  0
LINE
  5
919
330
91E
100
AcDbEntity
  8
0
  6
ByBlock
 62
     0
370
    -2
380
     1
100
AcDbLine
 10
653.3574118250673
 20
504.6334518001768
 30
0.0
 11
653.3574118250673
 21
348.6334518001768
 31
0.0
  0
SOLID
  5
91A
330
91E
100
AcDbEntity
  8
0
  6
ByBlock
 62
     0
380
     1
100
AcDbTrace
 10
653.3574118250673
 20
514.6334518001768
 30
0.0
 11
651.6907451584007
 21
504.6334518001768
 31
0.0
 12
655.0240784917339
 22
504.6334518001768
 32
0.0
 13
655.0240784917339
 23
504.6334518001768
 33
0.0
  0
SOLID
  5
91B
330
91E
100
AcDbEntity
  8
0
  6
ByBlock
 62
     0
380
     1
100
AcDbTrace
 10
653.3574118250673
 20
338.6334518001768
 30
0.0
 11
651.6907451584007
 21
348.6334518001768
 31
0.0
 12
655.0240784917339
 22
348.6334518001768
 32
0.0
 13
655.0240784917339
 23
348.6334518001768
 33
0.0
  0
MTEXT
  5
91C
330
91E
100
AcDbEntity
  8
0
  6
ByBlock
 62
     0
370
    -2
380
     1
100
AcDbMText
 10
625.3574118250673
 20
426.6334518001768
 30
0.0
 40
36.0
 41
0.0
 71
     5
 72
     1
  1
\A1;176
 11
6.123031769111886E-17
 21
1.0
 31
0.0
 73
     1
 44
1.0
  0
ENDBLK
  5
9A7
330
91E
100
AcDbEntity
  8
0
100
AcDbBlockEnd
  0
BLOCK
  5
9A8
330
929
100
AcDbEntity
  8
0
100
AcDbBlockBegin
  2
*D44
 70
     1
 10
0.0
 20
0.0
 30
0.0
  3
*D44
  1

  0
POINT
  5
920
330
929
100
AcDbEntity
  8
DEFPOINTS
  6
ByBlock
 62
     0
380
     1
100
AcDbPoint
 10
496.7507272581889
 20
514.6334518001768
 30
0.0
  0
POINT
  5
921
330
929
100
AcDbEntity
  8
DEFPOINTS
  6
ByBlock
 62
     0
380
     1
100
AcDbPoint
 10
493.3646367810671
 20
338.6334518001768
 30
0.0
  0
LINE
  5
922
330
929
100
AcDbEntity
  8
0
  6
ByBlock
 62
     0
370
    -2
380
     1
100
AcDbLine
 10
497.3757272581889
 20
514.6334518001768
 30
0.0
 11
654.6074118250673
 21
514.6334518001768
 31
0.0
  0
LINE
  5
923
330
929
100
AcDbEntity
  8
0
  6
ByBlock
 62
     0
370
    -2
380
     1
100
AcDbLine
 10
493.9896367810671
 20
338.6334518001768
 30
0.0
 11
654.6074118250673
 21
338.6334518001768
 31
0.0
  0
LINE
  5
924
330
929
100
AcDbEntity
  8
0
  6
ByBlock
 62
     0
370
    -2
380
     1
100
AcDbLine
 10
653.3574118250673
 20
504.6334518001768
 30
0.0
 11
653.3574118250673
 21
348.6334518001768
 31
0.0
  0
SOLID
  5
925
330
929
100
AcDbEntity
  8
0
  6
ByBlock
 62
     0
380
     1
100
AcDbTrace
 10
653.3574118250673
 20
514.6334518001768
 30
0.0
 11
651.6907451584007
 21
504.6334518001768
 31
0.0
 12
655.0240784917339
 22
504.6334518001768
 32
0.0
 13
655.0240784917339
 23
504.6334518001768
 33
0.0
  0
SOLID
  5
926
330
929
100
AcDbEntity
  8
0
  6
ByBlock
 62
     0
380
     1
100
AcDbTrace
 10
653.3574118250673
 20
338.6334518001768
 30
0.0
 11
651.6907451584007
 21
348.6334518001768
 31
0.0
 12
655.0240784917339
 22
348.6334518001768
 32
0.0
 13
655.0240784917339
 23
348.6334518001768
 33
0.0
  0
MTEXT
  5
927
330
929
100
AcDbEntity
  8
0
  6
ByBlock
 62
     0
370
    -2
380
     1
100
AcDbMText
 10
625.3574118250673
 20
426.6334518001768
 30
0.0
 40
36.0
 41
0.0
 71
     5
 72
     1
  1
\A1;176
 11
6.123031769111886E-17
 21
1.0
 31
0.0
 73
     1
 44
1.0
  0
ENDBLK
  5
9A9
330
929
100
AcDbEntity
  8
0
100
AcDbBlockEnd
  0
BLOCK
  5
9AA
330
935
100
AcDbEntity
  8
0
100
AcDbBlockBegin
  2
*D45
 70
     1
 10
0.0
 20
0.0
 30
0.0
  3
*D45
  1

  0
POINT
  5
92C
330
935
100
AcDbEntity
  8
DEFPOINTS
  6
ByBlock
 62
     0
380
     1
100
AcDbPoint
 10
408.2222828102834
 20
432.664293273405
 30
0.0
  0
POINT
  5
92D
330
935
100
AcDbEntity
  8
DEFPOINTS
  6
ByBlock
 62
     0
380
     1
100
AcDbPoint
 10
584.2222828102834
 20
439.4364742276484
 30
0.0
  0
LINE
  5
92E
330
935
100
AcDbEntity
  8
0
  6
ByBlock
 62
     0
370
    -2
380
     1
100
AcDbLine
 10
408.2222828102834
 20
432.039293273405
 30
0.0
 11
408.2222828102834
 21
270.5749956101244
 31
0.0
  0
LINE
  5
92F
330
935
100
AcDbEntity
  8
0
  6
ByBlock
 62
     0
370
    -2
380
     1
100
AcDbLine
 10
584.2222828102834
 20
438.8114742276484
 30
0.0
 11
584.2222828102834
 21
270.5749956101244
 31
0.0
  0
LINE
  5
930
330
935
100
AcDbEntity
  8
0
  6
ByBlock
 62
     0
370
    -2
380
     1
100
AcDbLine
 10
410.7222828102834
 20
271.8249956101244
 30
0.0
 11
581.7222828102834
 21
271.8249956101244
 31
0.0
  0
SOLID
  5
931
330
935
100
AcDbEntity
  8
0
  6
ByBlock
 62
     0
380
     1
100
AcDbTrace
 10
408.2222828102834
 20
271.8249956101244
 30
0.0
 11
410.7222828102834
 21
271.4083289434577
 31
0.0
 12
410.7222828102834
 22
272.2416622767911
 32
0.0
 13
410.7222828102834
 23
272.2416622767911
 33
0.0
  0
SOLID
  5
932
330
935
100
AcDbEntity
  8
0
  6
ByBlock
 62
     0
380
     1
100
AcDbTrace
 10
584.2222828102834
 20
271.8249956101244
 30
0.0
 11
581.7222828102834
 21
271.4083289434577
 31
0.0
 12
581.7222828102834
 22
272.2416622767911
 32
0.0
 13
581.7222828102834
 23
272.2416622767911
 33
0.0
  0
MTEXT
  5
933
330
935
100
AcDbEntity
  8
0
  6
ByBlock
 62
     0
370
    -2
380
     1
100
AcDbMText
 10
496.2222828102834
 20
273.6999956101244
 30
0.0
 40
2.5
 41
0.0
 71
     5
 72
     1
  1
\A1;176
 73
     1
 44
1.0
  0
ENDBLK
  5
9AB
330
935
100
AcDbEntity
  8
0
100
AcDbBlockEnd
  0
BLOCK
  5
9AC
330
940
100
AcDbEntity
  8
0
100
AcDbBlockBegin
  2
*D46
 70
     1
 10
0.0
 20
0.0
 30
0.0
  3
*D46
  1

  0
POINT
  5
937
330
940
100
AcDbEntity
  8
DEFPOINTS
  6
ByBlock
 62
     0
380
     1
100
AcDbPoint
 10
408.2222828102834
 20
432.664293273405
 30
0.0
  0
POINT
  5
938
330
940
100
AcDbEntity
  8
DEFPOINTS
  6
ByBlock
 62
     0
380
     1
100
AcDbPoint
 10
584.2222828102834
 20
439.4364742276484
 30
0.0
  0
LINE
  5
939
330
940
100
AcDbEntity
  8
0
  6
ByBlock
 62
     0
370
    -2
380
     1
100
AcDbLine
 10
408.2222828102834
 20
432.039293273405
 30
0.0
 11
408.2222828102834
 21
270.5749956101244
 31
0.0
  0
LINE
  5
93A
330
940
100
AcDbEntity
  8
0
  6
ByBlock
 62
     0
370
    -2
380
     1
100
AcDbLine
 10
584.2222828102834
 20
438.8114742276484
 30
0.0
 11
584.2222828102834
 21
270.5749956101244
 31
0.0
  0
LINE
  5
93B
330
940
100
AcDbEntity
  8
0
  6
ByBlock
 62
     0
370
    -2
380
     1
100
AcDbLine
 10
418.2222828102834
 20
271.8249956101244
 30
0.0
 11
574.2222828102834
 21
271.8249956101244
 31
0.0
  0
SOLID
  5
93C
330
940
100
AcDbEntity
  8
0
  6
ByBlock
 62
     0
380
     1
100
AcDbTrace
 10
408.2222828102834
 20
271.8249956101244
 30
0.0
 11
418.2222828102834
 21
270.1583289434577
 31
0.0
 12
418.2222828102834
 22
273.4916622767911
 32
0.0
 13
418.2222828102834
 23
273.4916622767911
 33
0.0
  0
SOLID
  5
93D
330
940
100
AcDbEntity
  8
0
  6
ByBlock
 62
     0
380
     1
100
AcDbTrace
 10
584.2222828102834
 20
271.8249956101244
 30
0.0
 11
574.2222828102834
 21
270.1583289434577
 31
0.0
 12
574.2222828102834
 22
273.4916622767911
 32
0.0
 13
574.2222828102834
 23
273.4916622767911
 33
0.0
  0
MTEXT
  5
93E
330
940
100
AcDbEntity
  8
0
  6
ByBlock
 62
     0
370
    -2
380
     1
100
AcDbMText
 10
496.2222828102834
 20
299.8249956101244
 30
0.0
 40
36.0
 41
0.0
 71
     5
 72
     1
  1
\A1;176
 73
     1
 44
1.0
  0
ENDBLK
  5
9AD
330
940
100
AcDbEntity
  8
0
100
AcDbBlockEnd
  0
BLOCK
  5
9AE
330
94B
100
AcDbEntity
  8
0
100
AcDbBlockBegin
  2
*D47
 70
     1
 10
0.0
 20
0.0
 30
0.0
  3
*D47
  1

  0
POINT
  5
942
330
94B
100
AcDbEntity
  8
DEFPOINTS
  6
ByBlock
 62
     0
380
     1
100
AcDbPoint
 10
408.2222828102834
 20
432.664293273405
 30
0.0
  0
POINT
  5
943
330
94B
100
AcDbEntity
  8
DEFPOINTS
  6
ByBlock
 62
     0
380
     1
100
AcDbPoint
 10
584.2222828102834
 20
439.4364742276484
 30
0.0
  0
LINE
  5
944
330
94B
100
AcDbEntity
  8
0
  6
ByBlock
 62
     0
370
    -2
380
     1
100
AcDbLine
 10
408.2222828102834
 20
432.039293273405
 30
0.0
 11
408.2222828102834
 21
270.5749956101244
 31
0.0
  0
LINE
  5
945
330
94B
100
AcDbEntity
  8
0
  6
ByBlock
 62
     0
370
    -2
380
     1
100
AcDbLine
 10
584.2222828102834
 20
438.8114742276484
 30
0.0
 11
584.2222828102834
 21
270.5749956101244
 31
0.0
  0
LINE
  5
946
330
94B
100
AcDbEntity
  8
0
  6
ByBlock
 62
     0
370
    -2
380
     1
100
AcDbLine
 10
418.2222828102834
 20
271.8249956101244
 30
0.0
 11
574.2222828102834
 21
271.8249956101244
 31
0.0
  0
SOLID
  5
947
330
94B
100
AcDbEntity
  8
0
  6
ByBlock
 62
     0
380
     1
100
AcDbTrace
 10
408.2222828102834
 20
271.8249956101244
 30
0.0
 11
418.2222828102834
 21
270.1583289434577
 31
0.0
 12
418.2222828102834
 22
273.4916622767911
 32
0.0
 13
418.2222828102834
 23
273.4916622767911
 33
0.0
  0
SOLID
  5
948
330
94B
100
AcDbEntity
  8
0
  6
ByBlock
 62
     0
380
     1
100
AcDbTrace
 10
584.2222828102834
 20
271.8249956101244
 30
0.0
 11
574.2222828102834
 21
270.1583289434577
 31
0.0
 12
574.2222828102834
 22
273.4916622767911
 32
0.0
 13
574.2222828102834
 23
273.4916622767911
 33
0.0
  0
MTEXT
  5
949
330
94B
100
AcDbEntity
  8
0
  6
ByBlock
 62
     0
370
    -2
380
     1
100
AcDbMText
 10
496.2222828102834
 20
299.8249956101244
 30
0.0
 40
36.0
 41
0.0
 71
     5
 72
     1
  1
\A1;176
 73
     1
 44
1.0
  0
ENDBLK
  5
9AF
330
94B
100
AcDbEntity
  8
0
100
AcDbBlockEnd
  0
ENDSEC
  0
SECTION
  2
ENTITIES
  0
LINE
  5
904
330
1F
100
AcDbEntity
  8
0
370
    60
100
AcDbLine
 10
408.2222828102834
 20
338.6334518001768
 30
0.0
 11
584.2222828102834
 21
338.6334518001768
 31
0.0
  0
LINE
  5
905
330
1F
100
AcDbEntity
  8
0
370
    60
100
AcDbLine
 10
584.2222828102834
 20
338.6334518001768
 30
0.0
 11
584.2222828102834
 21
514.6334518001768
 31
0.0
  0
LINE
  5
906
330
1F
100
AcDbEntity
  8
0
370
    60
100
AcDbLine
 10
584.2222828102834
 20
514.6334518001768
 30
0.0
 11
408.2222828102834
 21
514.6334518001768
 31
0.0
  0
LINE
  5
907
330
1F
100
AcDbEntity
  8
0
370
    60
100
AcDbLine
 10
408.2222828102834
 20
514.6334518001768
 30
0.0
 11
408.2222828102834
 21
338.6334518001768
 31
0.0
  0
DIMENSION
  5
908
330
1F
100
AcDbEntity
  8
0
370
    40
100
AcDbDimension
  2
*D44
 10
653.3574118250673
 20
338.6334518001768
 30
0.0
 11
625.3574118250673
 21
426.6334518001768
 31
0.0
 70
    32
 71
     5
 41
2.5
 42
175.9999999999999
  3
Standard
100
AcDbAlignedDimension
 13
496.7507272581889
 23
514.6334518001768
 33
0.0
 14
493.3646367810671
 24
338.6334518001768
 34
0.0
 50
90.0
100
AcDbRotatedDimension
1001
ACAD
1000
DSTYLE
1002
{
1070
    41
1040
10.0
1070
    42
1040
0.625
1070
    43
1040
3.75
1070
    44
1040
1.25
1070
    73
1070
     0
1070
    74
1070
     0
1070
    77
1070
     1
1070
    78
1070
     8
1070
   140
1040
36.0
1070
   141
1040
2.5
1070
   143
1040
0.03937007874016
1070
   147
1040
10.0
1070
   171
1070
     3
1070
   172
1070
     1
1070
   271
1070
     0
1070
   272
1070
     2
1070
   274
1070
     3
1070
   278
1070
    44
1070
   283
1070
     0
1070
   284
1070
     8
1070
   289
1070
     0
1002
}
  0
DIMENSION
  5
92A
330
1F
100
AcDbEntity
  8
0
370
    40
100
AcDbDimension
  2
*D47
 10
584.2222828102834
 20
271.8249956101244
 30
0.0
 11
496.2222828102834
 21
299.8249956101244
 31
0.0
 70
    32
 71
     5
 41
2.5
 42
176.0
  3
Standard
100
AcDbAlignedDimension
 13
408.2222828102834
 23
432.664293273405
 33
0.0
 14
584.2222828102834
 24
439.4364742276484
 34
0.0
100
AcDbRotatedDimension
1001
ACAD
1000
DSTYLE
1002
{
1070
    41
1040
10.0
1070
    42
1040
0.625
1070
    43
1040
3.75
1070
    44
1040
1.25
1070
    73
1070
     0
1070
    74
1070
     0
1070
    77
1070
     1
1070
    78
1070
     8
1070
   140
1040
36.0
1070
   141
1040
2.5
1070
   143
1040
0.03937007874016
1070
   147
1040
10.0
1070
   171
1070
     3
1070
   172
1070
     1
1070
   271
1070
     0
1070
   272
1070
     2
1070
   274
1070
     3
1070
   278
1070
    44
1070
   283
1070
     0
1070
   284
1070
     8
1070
   289
1070
     0
1002
}
  0
VIEWPORT
  5
689
330
73
100
AcDbEntity
 67
     1
  8
0
 62
     0
370
     0
390
F
100
AcDbViewport
 10
0.0
 20
0.0
 30
0.0
 40
1000.0
 41
1000.0
 68
     1
 69
     1
 12
0.0
 22
0.0
 13
0.0
 23
0.0
 14
1.0
 24
1.0
 15
1.0
 25
1.0
 16
0.0
 26
0.0
 36
1.0
 17
0.0
 27
0.0
 37
0.0
 42
50.0
 43
0.0
 44
0.0
 45
1000.0
 50
0.0
 51
0.0
 72
   100
 90
   557056
  1

281
     0
 71
     0
 74
     0
110
0.0
120
0.0
130
0.0
111
1.0
121
0.0
131
0.0
112
0.0
122
1.0
132
0.0
 79
     0
146
0.0
170
     0
  0
ENDSEC
  0
SECTION
  2
OBJECTS
  0
DICTIONARY
  5
C
330
0
100
AcDbDictionary
281
     1
  3
ACAD_COLOR
350
6C
  3
ACAD_GROUP
350
D
  3
ACAD_LAYOUT
350
1A
  3
ACAD_MATERIAL
350
6B
  3
ACAD_MLEADERSTYLE
350
6B2
  3
ACAD_MLINESTYLE
350
17
  3
ACAD_PLOTSETTINGS
350
19
  3
ACAD_PLOTSTYLENAME
350
E
  3
ACAD_SCALELIST
350
99
  3
ACAD_TABLESTYLE
350
92
  3
ACAD_WIPEOUT_VARS
350
94E
  3
AcDbVariableDictionary
350
59
  0
DICTIONARY
  5
6C
102
{ACAD_REACTORS
330
C
102
}
330
C
100
AcDbDictionary
281
     1
  0
DICTIONARY
  5
D
102
{ACAD_REACTORS
330
C
102
}
330
C
100
AcDbDictionary
281
     1
  0
DICTIONARY
  5
1A
102
{ACAD_REACTORS
330
C
102
}
330
C
100
AcDbDictionary
281
     1
  3
Layout1
350
74
  3
Model
350
22
  0
DICTIONARY
  5
6B
102
{ACAD_REACTORS
330
C
102
}
330
C
100
AcDbDictionary
281
     1
  0
DICTIONARY
  5
6B2
102
{ACAD_REACTORS
330
C
102
}
330
C
100
AcDbDictionary
281
     1
  0
DICTIONARY
  5
17
102
{ACAD_REACTORS
330
C
102
}
330
C
100
AcDbDictionary
281
     1
  3
Standard
350
18
  0
DICTIONARY
  5
19
102
{ACAD_REACTORS
330
C
102
}
330
C
100
AcDbDictionary
281
     1
  0
ACDBDICTIONARYWDFLT
  5
E
102
{ACAD_REACTORS
330
C
102
}
330
C
100
AcDbDictionary
281
     1
  3
Normal
350
F
100
AcDbDictionaryWithDefault
340
F
  0
DICTIONARY
  5
99
102
{ACAD_REACTORS
330
C
102
}
330
C
100
AcDbDictionary
281
     1
  3
A0
350
68D
  3
A1
350
68E
  3
A2
350
68F
  3
A3
350
690
  3
A4
350
691
  3
A5
350
692
  3
A6
350
693
  3
A7
350
694
  3
A8
350
695
  3
A9
350
696
  3
B0
350
697
  3
B1
350
698
  3
B2
350
699
  3
B3
350
69A
  3
B4
350
69B
  3
B5
350
69C
  3
B6
350
69D
  3
B7
350
69E
  3
B8
350
69F
  3
B9
350
6A0
  3
C0
350
6A1
  3
C1
350
6A2
  3
C2
350
6A3
  3
C3
350
6A4
  3
C4
350
6A5
  3
C5
350
6A6
  3
C6
350
6A7
  3
C7
350
6A8
  3
C8
350
6A9
  3
C9
350
6AA
  3
D0
350
6AB
  3
D1
350
6AC
  3
D2
350
6AD
  0
DICTIONARY
  5
92
102
{ACAD_REACTORS
330
C
102
}
330
C
100
AcDbDictionary
281
     1
  3
Standard
350
94D
  0
WIPEOUTVARIABLES
  5
94E
102
{ACAD_REACTORS
330
C
102
}
330
C
100
AcDbWipeoutVariables
 70
     1
  0
DICTIONARY
  5
59
102
{ACAD_REACTORS
330
C
102
}
330
C
100
AcDbDictionary
281
     1
  3
CANNOSCALE
350
6AF
  3
CTABLESTYLE
350
94F
  3
DIMASSOC
350
5A
  3
HIDETEXT
350
5E
  3
LIGHTINGUNITS
350
6B0
  0
LAYOUT
  5
74
102
{ACAD_REACTORS
330
1A
102
}
330
1A
100
AcDbPlotSettings
  1

  2
none_device
  4
none_user_media
  6

 40
0.0
 41
0.0
 42
0.0
 43
0.0
 44
0.0
 45
0.0
 46
0.0
 47
0.0
 48
0.0
 49
0.0
140
0.0
141
0.0
142
1.0
143
1.0
 70
   544
 72
     0
 73
     0
 74
     0
  7

 75
    16
 76
     0
 77
     2
 78
   300
147
1.0
148
0.0
149
0.0
100
AcDbLayout
  1
Layout1
 70
     1
 71
     0
 10
0.0
 20
0.0
 11
420.0
 21
297.0
 12
0.0
 22
0.0
 32
0.0
 14
0.0
 24
0.0
 34
0.0
 15
572.2044677734375
 25
377.2002868652344
 35
2.0
146
0.0
 13
0.0
 23
0.0
 33
0.0
 16
1.0
 26
0.0
 36
0.0
 17
0.0
 27
1.0
 37
0.0
 76
     0
330
73
331
689
  0
LAYOUT
  5
22
102
{ACAD_REACTORS
330
1A
102
}
330
1A
100
AcDbPlotSettings
  1

  2
none_device
  4
none_user_media
  6

 40
6.349999904632568
 41
6.349999904632568
 42
6.350006103515625
 43
6.350006103515625
 44
215.8999938964844
 45
279.3999938964844
 46
0.0
 47
0.0
 48
0.0
 49
0.0
140
0.0
141
0.0
142
1.0
143
1.0
 70
 11936
 72
     0
 73
     0
 74
     0
  7

 75
     0
 76
     0
 77
     2
 78
   300
147
0.4065207577354918
148
0.0
149
0.0
100
AcDbLayout
  1
Model
 70
     1
 71
     1
 10
0.0
 20
0.0
 11
420.0
 21
297.0
 12
0.0
 22
0.0
 32
0.0
 14
280.1611422682354
 24
118.326777532231
 34
0.0
 15
655.0240784917339
 25
514.6334518001768
 35
0.0
146
0.0
 13
0.0
 23
0.0
 33
0.0
 16
1.0
 26
0.0
 36
0.0
 17
0.0
 27
1.0
 37
0.0
 76
     0
330
1F
331
97
  0
MLINESTYLE
  5
18
102
{ACAD_REACTORS
330
17
102
}
330
17
100
AcDbMlineStyle
  2
Standard
 70
     0
  3

 62
     0
 51
90.0
 52
90.0
 71
     2
 49
0.5
 62
   256
  6
BYLAYER
 49
-0.5
 62
   256
  6
BYLAYER
  0
ACDBPLACEHOLDER
  5
F
102
{ACAD_REACTORS
330
E
102
}
330
E
  0
SCALE
  5
68D
102
{ACAD_REACTORS
330
99
102
}
330
99
100
AcDbScale
 70
     0
300
1:1
140
1.0
141
1.0
290
     1
  0
SCALE
  5
68E
102
{ACAD_REACTORS
330
99
102
}
330
99
100
AcDbScale
 70
     0
300
1:2
140
1.0
141
2.0
290
     0
  0
SCALE
  5
68F
102
{ACAD_REACTORS
330
99
102
}
330
99
100
AcDbScale
 70
     0
300
1:4
140
1.0
141
4.0
290
     0
  0
SCALE
  5
690
102
{ACAD_REACTORS
330
99
102
}
330
99
100
AcDbScale
 70
     0
300
1:5
140
1.0
141
5.0
290
     0
  0
SCALE
  5
691
102
{ACAD_REACTORS
330
99
102
}
330
99
100
AcDbScale
 70
     0
300
1:8
140
1.0
141
8.0
290
     0
  0
SCALE
  5
692
102
{ACAD_REACTORS
330
99
102
}
330
99
100
AcDbScale
 70
     0
300
1:10
140
1.0
141
10.0
290
     0
  0
SCALE
  5
693
102
{ACAD_REACTORS
330
99
102
}
330
99
100
AcDbScale
 70
     0
300
1:16
140
1.0
141
16.0
290
     0
  0
SCALE
  5
694
102
{ACAD_REACTORS
330
99
102
}
330
99
100
AcDbScale
 70
     0
300
1:20
140
1.0
141
20.0
290
     0
  0
SCALE
  5
695
102
{ACAD_REACTORS
330
99
102
}
330
99
100
AcDbScale
 70
     0
300
1:30
140
1.0
141
30.0
290
     0
  0
SCALE
  5
696
102
{ACAD_REACTORS
330
99
102
}
330
99
100
AcDbScale
 70
     0
300
1:40
140
1.0
141
40.0
290
     0
  0
SCALE
  5
697
102
{ACAD_REACTORS
330
99
102
}
330
99
100
AcDbScale
 70
     0
300
1:50
140
1.0
141
50.0
290
     0
  0
SCALE
  5
698
102
{ACAD_REACTORS
330
99
102
}
330
99
100
AcDbScale
 70
     0
300
1:100
140
1.0
141
100.0
290
     0
  0
SCALE
  5
699
102
{ACAD_REACTORS
330
99
102
}
330
99
100
AcDbScale
 70
     0
300
2:1
140
2.0
141
1.0
290
     0
  0
SCALE
  5
69A
102
{ACAD_REACTORS
330
99
102
}
330
99
100
AcDbScale
 70
     0
300
4:1
140
4.0
141
1.0
290
     0
  0
SCALE
  5
69B
102
{ACAD_REACTORS
330
99
102
}
330
99
100
AcDbScale
 70
     0
300
8:1
140
8.0
141
1.0
290
     0
  0
SCALE
  5
69C
102
{ACAD_REACTORS
330
99
102
}
330
99
100
AcDbScale
 70
     0
300
10:1
140
10.0
141
1.0
290
     0
  0
SCALE
  5
69D
102
{ACAD_REACTORS
330
99
102
}
330
99
100
AcDbScale
 70
     0
300
100:1
140
100.0
141
1.0
290
     0
  0
SCALE
  5
69E
102
{ACAD_REACTORS
330
99
102
}
330
99
100
AcDbScale
 70
     0
300
1/128" = 1'-0"
140
0.0078125
141
12.0
290
     0
  0
SCALE
  5
69F
102
{ACAD_REACTORS
330
99
102
}
330
99
100
AcDbScale
 70
     0
300
1/64" = 1'-0"
140
0.015625
141
12.0
290
     0
  0
SCALE
  5
6A0
102
{ACAD_REACTORS
330
99
102
}
330
99
100
AcDbScale
 70
     0
300
1/32" = 1'-0"
140
0.03125
141
12.0
290
     0
  0
SCALE
  5
6A1
102
{ACAD_REACTORS
330
99
102
}
330
99
100
AcDbScale
 70
     0
300
1/16" = 1'-0"
140
0.0625
141
12.0
290
     0
  0
SCALE
  5
6A2
102
{ACAD_REACTORS
330
99
102
}
330
99
100
AcDbScale
 70
     0
300
3/32" = 1'-0"
140
0.09375
141
12.0
290
     0
  0
SCALE
  5
6A3
102
{ACAD_REACTORS
330
99
102
}
330
99
100
AcDbScale
 70
     0
300
1/8" = 1'-0"
140
0.125
141
12.0
290
     0
  0
SCALE
  5
6A4
102
{ACAD_REACTORS
330
99
102
}
330
99
100
AcDbScale
 70
     0
300
3/16" = 1'-0"
140
0.1875
141
12.0
290
     0
  0
SCALE
  5
6A5
102
{ACAD_REACTORS
330
99
102
}
330
99
100
AcDbScale
 70
     0
300
1/4" = 1'-0"
140
0.25
141
12.0
290
     0
  0
SCALE
  5
6A6
102
{ACAD_REACTORS
330
99
102
}
330
99
100
AcDbScale
 70
     0
300
3/8" = 1'-0"
140
0.375
141
12.0
290
     0
  0
SCALE
  5
6A7
102
{ACAD_REACTORS
330
99
102
}
330
99
100
AcDbScale
 70
     0
300
1/2" = 1'-0"
140
0.5
141
12.0
290
     0
  0
SCALE
  5
6A8
102
{ACAD_REACTORS
330
99
102
}
330
99
100
AcDbScale
 70
     0
300
3/4" = 1'-0"
140
0.75
141
12.0
290
     0
  0
SCALE
  5
6A9
102
{ACAD_REACTORS
330
99
102
}
330
99
100
AcDbScale
 70
     0
300
1" = 1'-0"
140
1.0
141
12.0
290
     0
  0
SCALE
  5
6AA
102
{ACAD_REACTORS
330
99
102
}
330
99
100
AcDbScale
 70
     0
300
1-1/2" = 1'-0"
140
1.5
141
12.0
290
     0
  0
SCALE
  5
6AB
102
{ACAD_REACTORS
330
99
102
}
330
99
100
AcDbScale
 70
     0
300
3" = 1'-0"
140
3.0
141
12.0
290
     0
  0
SCALE
  5
6AC
102
{ACAD_REACTORS
330
99
102
}
330
99
100
AcDbScale
 70
     0
300
6" = 1'-0"
140
6.0
141
12.0
290
     0
  0
SCALE
  5
6AD
102
{ACAD_REACTORS
330
99
102
}
330
99
100
AcDbScale
 70
     0
300
1'-0" = 1'-0"
140
12.0
141
12.0
290
     0
  0
TABLESTYLE
  5
94D
102
{ACAD_REACTORS
330
92
102
}
102
{ACAD_XDICTIONARY
360
9B0
102
}
330
92
100
AcDbTableStyle
  3
Standard
 70
     0
 71
     0
 40
0.06
 41
0.06
280
     0
281
     0
  7
Standard
140
0.18
170
     2
 62
     0
 63
     7
283
     0
274
    -2
284
     1
 64
     0
275
    -2
285
     1
 65
     0
276
    -2
286
     1
 66
     0
277
    -2
287
     1
 67
     0
278
    -2
288
     1
 68
     0
279
    -2
289
     1
 69
     0
  7
Standard
140
0.25
170
     5
 62
     0
 63
     7
283
     0
274
    -2
284
     1
 64
     0
275
    -2
285
     1
 65
     0
276
    -2
286
     1
 66
     0
277
    -2
287
     1
 67
     0
278
    -2
288
     1
 68
     0
279
    -2
289
     1
 69
     0
  7
Standard
140
0.18
170
     5
 62
     0
 63
     7
283
     0
274
    -2
284
     1
 64
     0
275
    -2
285
     1
 65
     0
276
    -2
286
     1
 66
     0
277
    -2
287
     1
 67
     0
278
    -2
288
     1
 68
     0
279
    -2
289
     1
 69
     0
  0
DICTIONARYVAR
  5
6AF
102
{ACAD_REACTORS
330
59
102
}
330
59
100
DictionaryVariables
280
     0
  1

  0
DICTIONARYVAR
  5
94F
102
{ACAD_REACTORS
330
59
102
}
330
59
100
DictionaryVariables
280
     0
  1
Standard
  0
DICTIONARYVAR
  5
5A
102
{ACAD_REACTORS
330
59
102
}
330
59
100
DictionaryVariables
280
     0
  1
2
  0
DICTIONARYVAR
  5
5E
102
{ACAD_REACTORS
330
59
102
}
330
59
100
DictionaryVariables
280
     0
  1
1
  0
DICTIONARYVAR
  5
6B0
102
{ACAD_REACTORS
330
59
102
}
330
59
100
DictionaryVariables
280
     0
  1
0
  0
DICTIONARY
  5
9B0
330
94D
100
AcDbDictionary
280
     1
281
     1
  3
ACAD_XREC_ROUNDTRIP
360
9B1
  0
XRECORD
  5
9B1
102
{ACAD_REACTORS
330
9B0
102
}
330
9B0
100
AcDbXrecord
280
     1
102
ACAD_ROUNDTRIP_PRE2007_TABLESTYLE
 90
      512
 91
        0
  1

 92
      512
 93
        0
  2

 94
      512
 95
        0
  3

  0
ENDSEC
  0
EOF
