  0
SECTION
  2
HEADER
  9
$ACADVER
  1
AC1018
  9
$ACADMAINTVER
 70
     0
  9
$DWGCODEPAGE
  3
ANSI_1252
  9
$LASTSAVEDBY
  1
BelottiMc
  9
$INSBASE
 10
0.0
 20
0.0
 30
0.0
  9
$EXTMIN
 10
89.28741455078125
 20
54.97865181268998
 30
0.0
  9
$EXTMAX
 10
872.339599609375
 20
729.775146484375
 30
0.0
  9
$LIMMIN
 10
0.0
 20
0.0
  9
$LIMMAX
 10
420.0
 20
297.0
  9
$ORTHOMODE
 70
     0
  9
$REGENMODE
 70
     1
  9
$FILLMODE
 70
     1
  9
$QTEXTMODE
 70
     0
  9
$MIRRTEXT
 70
     1
  9
$LTSCALE
 40
1.0
  9
$ATTMODE
 70
     1
  9
$TEXTSIZE
 40
2.5
  9
$TRACEWID
 40
1.0
  9
$TEXTSTYLE
  7
Standard
  9
$CLAYER
  8
0
  9
$CELTYPE
  6
ByLayer
  9
$CECOLOR
 62
   256
  9
$CELTSCALE
 40
1.0
  9
$DISPSILH
 70
     0
  9
$DIMSCALE
 40
1.0
  9
$DIMASZ
 40
2.5
  9
$DIMEXO
 40
0.625
  9
$DIMDLI
 40
3.75
  9
$DIMRND
 40
0.0
  9
$DIMDLE
 40
0.0
  9
$DIMEXE
 40
1.25
  9
$DIMTP
 40
0.0
  9
$DIMTM
 40
0.0
  9
$DIMTXT
 40
2.5
  9
$DIMCEN
 40
2.5
  9
$DIMTSZ
 40
0.0
  9
$DIMTOL
 70
     0
  9
$DIMLIM
 70
     0
  9
$DIMTIH
 70
     0
  9
$DIMTOH
 70
     0
  9
$DIMSE1
 70
     0
  9
$DIMSE2
 70
     0
  9
$DIMTAD
 70
     1
  9
$DIMZIN
 70
     8
  9
$DIMBLK
  1

  9
$DIMASO
 70
     1
  9
$DIMSHO
 70
     1
  9
$DIMPOST
  1

  9
$DIMAPOST
  1

  9
$DIMALT
 70
     0
  9
$DIMALTD
 70
     3
  9
$DIMALTF
 40
0.03937007874016
  9
$DIMLFAC
 40
1.0
  9
$DIMTOFL
 70
     1
  9
$DIMTVP
 40
0.0
  9
$DIMTIX
 70
     0
  9
$DIMSOXD
 70
     0
  9
$DIMSAH
 70
     0
  9
$DIMBLK1
  1

  9
$DIMBLK2
  1

  9
$DIMSTYLE
  2
Standard
  9
$DIMCLRD
 70
     0
  9
$DIMCLRE
 70
     0
  9
$DIMCLRT
 70
     0
  9
$DIMTFAC
 40
1.0
  9
$DIMGAP
 40
0.625
  9
$DIMJUST
 70
     0
  9
$DIMSD1
 70
     0
  9
$DIMSD2
 70
     0
  9
$DIMTOLJ
 70
     0
  9
$DIMTZIN
 70
     8
  9
$DIMALTZ
 70
     0
  9
$DIMALTTZ
 70
     0
  9
$DIMUPT
 70
     0
  9
$DIMDEC
 70
     2
  9
$DIMTDEC
 70
     2
  9
$DIMALTU
 70
     2
  9
$DIMALTTD
 70
     3
  9
$DIMTXSTY
  7
Standard
  9
$DIMAUNIT
 70
     0
  9
$DIMADEC
 70
     0
  9
$DIMALTRND
 40
0.0
  9
$DIMAZIN
 70
     0
  9
$DIMDSEP
 70
    44
  9
$DIMATFIT
 70
     0
  9
$DIMFRAC
 70
     0
  9
$DIMLDRBLK
  1

  9
$DIMLUNIT
 70
     2
  9
$DIMLWD
 70
    -2
  9
$DIMLWE
 70
    -2
  9
$DIMTMOVE
 70
     0
  9
$LUNITS
 70
     2
  9
$LUPREC
 70
     4
  9
$SKETCHINC
 40
1.0
  9
$FILLETRAD
 40
2.5
  9
$AUNITS
 70
     0
  9
$AUPREC
 70
     0
  9
$MENU
  1
.
  9
$ELEVATION
 40
0.0
  9
$PELEVATION
 40
0.0
  9
$THICKNESS
 40
0.0
  9
$LIMCHECK
 70
     0
  9
$CHAMFERA
 40
2.5
  9
$CHAMFERB
 40
2.5
  9
$CHAMFERC
 40
0.0
  9
$CHAMFERD
 40
0.0
  9
$SKPOLY
 70
     0
  9
$TDCREATE
 40
2447893.041666644
  9
$TDUCREATE
 40
2447892.999999977
  9
$TDUPDATE
 40
2447893.041666667
  9
$TDUUPDATE
 40
2447893.0
  9
$TDINDWG
 40
0.0184722106
  9
$TDUSRTIMER
 40
0.0184722106
  9
$USRTIMER
 70
     1
  9
$ANGBASE
 50
0.0
  9
$ANGDIR
 70
     0
  9
$PDMODE
 70
     0
  9
$PDSIZE
 40
0.0
  9
$PLINEWID
 40
0.0
  9
$SPLFRAME
 70
     0
  9
$SPLINETYPE
 70
     6
  9
$SPLINESEGS
 70
     8
  9
$HANDSEED
  5
6FF
  9
$SURFTAB1
 70
     6
  9
$SURFTAB2
 70
     6
  9
$SURFTYPE
 70
     6
  9
$SURFU
 70
     6
  9
$SURFV
 70
     6
  9
$UCSBASE
  2

  9
$UCSNAME
  2

  9
$UCSORG
 10
0.0
 20
0.0
 30
0.0
  9
$UCSXDIR
 10
1.0
 20
0.0
 30
0.0
  9
$UCSYDIR
 10
0.0
 20
1.0
 30
0.0
  9
$UCSORTHOREF
  2

  9
$UCSORTHOVIEW
 70
     0
  9
$UCSORGTOP
 10
0.0
 20
0.0
 30
0.0
  9
$UCSORGBOTTOM
 10
0.0
 20
0.0
 30
0.0
  9
$UCSORGLEFT
 10
0.0
 20
0.0
 30
0.0
  9
$UCSORGRIGHT
 10
0.0
 20
0.0
 30
0.0
  9
$UCSORGFRONT
 10
0.0
 20
0.0
 30
0.0
  9
$UCSORGBACK
 10
0.0
 20
0.0
 30
0.0
  9
$PUCSBASE
  2

  9
$PUCSNAME
  2

  9
$PUCSORG
 10
0.0
 20
0.0
 30
0.0
  9
$PUCSXDIR
 10
1.0
 20
0.0
 30
0.0
  9
$PUCSYDIR
 10
0.0
 20
1.0
 30
0.0
  9
$PUCSORTHOREF
  2

  9
$PUCSORTHOVIEW
 70
     0
  9
$PUCSORGTOP
 10
0.0
 20
0.0
 30
0.0
  9
$PUCSORGBOTTOM
 10
0.0
 20
0.0
 30
0.0
  9
$PUCSORGLEFT
 10
0.0
 20
0.0
 30
0.0
  9
$PUCSORGRIGHT
 10
0.0
 20
0.0
 30
0.0
  9
$PUCSORGFRONT
 10
0.0
 20
0.0
 30
0.0
  9
$PUCSORGBACK
 10
0.0
 20
0.0
 30
0.0
  9
$USERI1
 70
     0
  9
$USERI2
 70
     0
  9
$USERI3
 70
     0
  9
$USERI4
 70
     0
  9
$USERI5
 70
     0
  9
$USERR1
 40
0.0
  9
$USERR2
 40
0.0
  9
$USERR3
 40
0.0
  9
$USERR4
 40
0.0
  9
$USERR5
 40
0.0
  9
$WORLDVIEW
 70
     1
  9
$SHADEDGE
 70
     3
  9
$SHADEDIF
 70
    70
  9
$TILEMODE
 70
     1
  9
$MAXACTVP
 70
    48
  9
$PINSBASE
 10
0.0
 20
0.0
 30
0.0
  9
$PLIMCHECK
 70
     0
  9
$PEXTMIN
 10
0.0
 20
0.0
 30
0.0
  9
$PEXTMAX
 10
872.339599609375
 20
729.775146484375
 30
2.0
  9
$PLIMMIN
 10
0.0
 20
0.0
  9
$PLIMMAX
 10
420.0
 20
297.0
  9
$UNITMODE
 70
     0
  9
$VISRETAIN
 70
     0
  9
$PLINEGEN
 70
     0
  9
$PSLTSCALE
 70
     1
  9
$TREEDEPTH
 70
  3020
  9
$CMLSTYLE
  2
Standard
  9
$CMLJUST
 70
     0
  9
$CMLSCALE
 40
20.0
  9
$PROXYGRAPHICS
 70
     1
  9
$MEASUREMENT
 70
     1
  9
$CELWEIGHT
370
    -1
  9
$ENDCAPS
280
     0
  9
$JOINSTYLE
280
     0
  9
$LWDISPLAY
290
     0
  9
$INSUNITS
 70
     0
  9
$HYPERLINKBASE
  1

  9
$STYLESHEET
  1

  9
$XEDIT
290
     1
  9
$CEPSNTYPE
380
     0
  9
$PSTYLEMODE
290
     0
  9
$FINGERPRINTGUID
  2

  9
$VERSIONGUID
  2

  9
$EXTNAMES
290
     1
  9
$PSVPSCALE
 40
0.0
  9
$OLESTARTUP
290
     0
  9
$SORTENTS
280
   127
  9
$INDEXCTL
280
     0
  9
$HIDETEXT
280
     1
  9
$XCLIPFRAME
290
     0
  9
$HALOGAP
280
     0
  9
$OBSCOLOR
 70
   257
  9
$OBSLTYPE
280
     0
  9
$INTERSECTIONDISPLAY
280
     0
  9
$INTERSECTIONCOLOR
 70
   257
  9
$DIMASSOC
280
     2
  9
$PROJECTNAME
  1

  0
ENDSEC
  0
SECTION
  2
CLASSES
  0
CLASS
  1
ACDBDICTIONARYWDFLT
  2
AcDbDictionaryWithDefault
  3
ObjectDBX Classes
 90
        0
 91
        4
280
     0
281
     0
  0
CLASS
  1
ACDBPLACEHOLDER
  2
AcDbPlaceHolder
  3
ObjectDBX Classes
 90
        0
 91
        1
280
     0
281
     0
  0
CLASS
  1
LAYOUT
  2
AcDbLayout
  3
ObjectDBX Classes
 90
        0
 91
        1
280
     0
281
     0
  0
CLASS
  1
DICTIONARYVAR
  2
AcDbDictionaryVar
  3
ObjectDBX Classes
 90
        0
 91
        4
280
     0
281
     0
  0
CLASS
  1
TABLESTYLE
  2
AcDbTableStyle
  3
ObjectDBX Classes
 90
     4095
 91
        5
280
     0
281
     0
  0
CLASS
  1
SCALE
  2
AcDbScale
  3
ObjectDBX Classes
 90
     1153
 91
       70
280
     0
281
     0
  0
CLASS
  1
WIPEOUTVARIABLES
  2
AcDbWipeoutVariables
  3
WipeOut|AutoCAD Express Tool|expresstools@autodesk.com
 90
        0
 91
        4
280
     0
281
     0
  0
ENDSEC
  0
SECTION
  2
TABLES
  0
TABLE
  2
VPORT
  5
8
330
0
100
AcDbSymbolTable
 70
     2
  0
VPORT
  5
97
330
8
100
AcDbSymbolTableRecord
100
AcDbViewportTableRecord
  2
*ACTIVE
 70
     0
 10
0.0
 20
0.0
 11
1.0
 21
1.0
 12
741.3905666439754
 22
234.7290967786708
 13
0.0
 23
0.0
 14
1.0
 24
1.0
 15
0.5
 25
0.5
 16
0.0
 26
0.0
 36
1.0
 17
0.0
 27
0.0
 37
0.0
 40
1623.717992116726
 41
0.688564
 42
50.0
 43
0.0
 44
0.0
 50
0.0
 51
0.0
 71
     0
 72
   100
 73
     1
 74
     1
 75
     0
 76
     0
 77
     0
 78
     0
281
     0
 65
     1
110
0.0
120
0.0
130
0.0
111
1.0
121
0.0
131
0.0
112
0.0
122
1.0
132
0.0
 79
     0
146
0.0
  0
ENDTAB
  0
TABLE
  2
LTYPE
  5
5
330
0
100
AcDbSymbolTable
 70
     2
  0
LTYPE
  5
14
330
5
100
AcDbSymbolTableRecord
100
AcDbLinetypeTableRecord
  2
ByBlock
 70
     0
  3

 72
    65
 73
     0
 40
0.0
  0
LTYPE
  5
15
330
5
100
AcDbSymbolTableRecord
100
AcDbLinetypeTableRecord
  2
ByLayer
 70
     0
  3

 72
    65
 73
     0
 40
0.0
  0
LTYPE
  5
16
330
5
100
AcDbSymbolTableRecord
100
AcDbLinetypeTableRecord
  2
Continuous
 70
     0
  3
Solid line
 72
    65
 73
     0
 40
0.0
  0
LTYPE
  5
6E3
330
5
100
AcDbSymbolTableRecord
100
AcDbLinetypeTableRecord
  2
DASHDOT
 70
     0
  3
 __ . __ . __ . __ . __ . __ . __ . 
 72
    65
 73
     4
 40
18.5
 49
12.0
 74
     0
 49
-3.0
 74
     0
 49
0.5
 74
     0
 49
-3.0
 74
     0
  0
ENDTAB
  0
TABLE
  2
LAYER
  5
2
330
0
100
AcDbSymbolTable
 70
     2
  0
LAYER
  5
10
330
2
100
AcDbSymbolTableRecord
100
AcDbLayerTableRecord
  2
0
 70
     0
 62
     7
  6
Continuous
370
    -3
390
F
  0
LAYER
  5
653
330
2
100
AcDbSymbolTableRecord
100
AcDbLayerTableRecord
  2
DEFPOINTS
 70
     0
 62
     7
  6
Continuous
290
     0
370
    -3
390
F
  0
ENDTAB
  0
TABLE
  2
STYLE
  5
3
330
0
100
AcDbSymbolTable
 70
     1
  0
STYLE
  5
11
330
3
100
AcDbSymbolTableRecord
100
AcDbTextStyleTableRecord
  2
Standard
 70
     0
 40
0.0
 41
1.0
 50
0.0
 71
     0
 42
2.5
  3
txt
  4

  0
ENDTAB
  0
TABLE
  2
VIEW
  5
6
330
0
100
AcDbSymbolTable
 70
     0
  0
ENDTAB
  0
TABLE
  2
UCS
  5
7
330
0
100
AcDbSymbolTable
 70
     0
  0
ENDTAB
  0
TABLE
  2
APPID
  5
9
330
0
100
AcDbSymbolTable
 70
     1
  0
APPID
  5
12
330
9
100
AcDbSymbolTableRecord
100
AcDbRegAppTableRecord
  2
ACAD
 70
     0
  0
ENDTAB
  0
TABLE
  2
DIMSTYLE
  5
A
330
0
100
AcDbSymbolTable
 70
     1
100
AcDbDimStyleTable
  0
DIMSTYLE
105
27
102
{ACAD_REACTORS
330
654
330
681
330
6B2
102
}
330
A
100
AcDbSymbolTableRecord
100
AcDbDimStyleTableRecord
  2
Standard
 70
     0
340
11
  0
ENDTAB
  0
TABLE
  2
BLOCK_RECORD
  5
1
330
0
100
AcDbSymbolTable
 70
    12
  0
BLOCK_RECORD
  5
1F
330
1
100
AcDbSymbolTableRecord
100
AcDbBlockTableRecord
  2
*Model_Space
340
22
  0
BLOCK_RECORD
  5
73
330
1
100
AcDbSymbolTableRecord
100
AcDbBlockTableRecord
  2
*Paper_Space
340
74
  0
BLOCK_RECORD
  5
65F
330
1
100
AcDbSymbolTableRecord
100
AcDbBlockTableRecord
  2
*D0
340
0
  0
BLOCK_RECORD
  5
66A
330
1
100
AcDbSymbolTableRecord
100
AcDbBlockTableRecord
  2
*D1
340
0
  0
BLOCK_RECORD
  5
675
330
1
100
AcDbSymbolTableRecord
100
AcDbBlockTableRecord
  2
*D2
340
0
  0
BLOCK_RECORD
  5
680
330
1
100
AcDbSymbolTableRecord
100
AcDbBlockTableRecord
  2
*D3
340
0
  0
BLOCK_RECORD
  5
68C
330
1
100
AcDbSymbolTableRecord
100
AcDbBlockTableRecord
  2
*D4
340
0
  0
BLOCK_RECORD
  5
697
330
1
100
AcDbSymbolTableRecord
100
AcDbBlockTableRecord
  2
*D5
340
0
  0
BLOCK_RECORD
  5
6A3
330
1
100
AcDbSymbolTableRecord
100
AcDbBlockTableRecord
  2
*D6
340
0
  0
BLOCK_RECORD
  5
6B1
330
1
100
AcDbSymbolTableRecord
100
AcDbBlockTableRecord
  2
*D7
340
0
  0
BLOCK_RECORD
  5
6BD
330
1
100
AcDbSymbolTableRecord
100
AcDbBlockTableRecord
  2
*D8
340
0
  0
BLOCK_RECORD
  5
6C9
330
1
100
AcDbSymbolTableRecord
100
AcDbBlockTableRecord
  2
*D9
340
0
  0
BLOCK_RECORD
  5
6D5
330
1
100
AcDbSymbolTableRecord
100
AcDbBlockTableRecord
  2
*D10
340
0
  0
BLOCK_RECORD
  5
6E1
330
1
100
AcDbSymbolTableRecord
100
AcDbBlockTableRecord
  2
*D11
340
0
  0
ENDTAB
  0
ENDSEC
  0
SECTION
  2
BLOCKS
  0
BLOCK
  5
20
330
1F
100
AcDbEntity
  8
0
100
AcDbBlockBegin
  2
*Model_Space
 70
     0
 10
0.0
 20
0.0
 30
0.0
  3
*Model_Space
  1

  0
ENDBLK
  5
21
330
1F
100
AcDbEntity
  8
0
100
AcDbBlockEnd
  0
BLOCK
  5
75
330
73
100
AcDbEntity
 67
     1
  8
0
100
AcDbBlockBegin
  2
*Paper_Space
 70
     0
 10
0.0
 20
0.0
 30
0.0
  3
*Paper_Space
  1

  0
ENDBLK
  5
76
330
73
100
AcDbEntity
 67
     1
  8
0
100
AcDbBlockEnd
  0
BLOCK
  5
6E5
330
65F
100
AcDbEntity
  8
0
100
AcDbBlockBegin
  2
*D0
 70
     1
 10
0.0
 20
0.0
 30
0.0
  3
*D0
  1

  0
POINT
  5
656
330
65F
100
AcDbEntity
  8
DEFPOINTS
  6
ByBlock
 62
     0
380
     1
100
AcDbPoint
 10
89.63739013671875
 20
560.054443359375
 30
0.0
  0
POINT
  5
657
330
65F
100
AcDbEntity
  8
DEFPOINTS
  6
ByBlock
 62
     0
380
     1
100
AcDbPoint
 10
805.78662109375
 20
560.054443359375
 30
0.0
  0
LINE
  5
658
330
65F
100
AcDbEntity
  8
0
  6
ByBlock
 62
     0
370
    -2
380
     1
100
AcDbLine
 10
89.63739013671875
 20
560.679443359375
 30
0.0
 11
89.63739013671875
 21
683.1472279145149
 31
0.0
  0
LINE
  5
659
330
65F
100
AcDbEntity
  8
0
  6
ByBlock
 62
     0
370
    -2
380
     1
100
AcDbLine
 10
805.78662109375
 20
560.679443359375
 30
0.0
 11
805.78662109375
 21
683.1472279145149
 31
0.0
  0
LINE
  5
65A
330
65F
100
AcDbEntity
  8
0
  6
ByBlock
 62
     0
370
    -2
380
     1
100
AcDbLine
 10
92.13739013671875
 20
681.8972279145149
 30
0.0
 11
803.28662109375
 21
681.8972279145149
 31
0.0
  0
SOLID
  5
65B
330
65F
100
AcDbEntity
  8
0
  6
ByBlock
 62
     0
380
     1
100
AcDbTrace
 10
89.63739013671875
 20
681.8972279145149
 30
0.0
 11
92.13739013671875
 21
681.4805612478483
 31
0.0
 12
92.13739013671875
 22
682.3138945811816
 32
0.0
 13
92.13739013671875
 23
682.3138945811816
 33
0.0
  0
SOLID
  5
65C
330
65F
100
AcDbEntity
  8
0
  6
ByBlock
 62
     0
380
     1
100
AcDbTrace
 10
805.78662109375
 20
681.8972279145149
 30
0.0
 11
803.28662109375
 21
681.4805612478483
 31
0.0
 12
803.28662109375
 22
682.3138945811816
 32
0.0
 13
803.28662109375
 23
682.3138945811816
 33
0.0
  0
MTEXT
  5
65D
330
65F
100
AcDbEntity
  8
0
  6
ByBlock
 62
     0
370
    -2
380
     1
100
AcDbMText
 10
447.7120056152344
 20
683.9805612478483
 30
0.0
 40
2.5
 41
0.0
 71
     5
 72
     1
  1
\A1;716,15
 73
     1
 44
1.0
  0
ENDBLK
  5
6E6
330
65F
100
AcDbEntity
  8
0
100
AcDbBlockEnd
  0
BLOCK
  5
6E7
330
66A
100
AcDbEntity
  8
0
100
AcDbBlockBegin
  2
*D1
 70
     1
 10
0.0
 20
0.0
 30
0.0
  3
*D1
  1

  0
POINT
  5
661
330
66A
100
AcDbEntity
  8
DEFPOINTS
  6
ByBlock
 62
     0
380
     1
100
AcDbPoint
 10
89.63739013671875
 20
560.054443359375
 30
0.0
  0
POINT
  5
662
330
66A
100
AcDbEntity
  8
DEFPOINTS
  6
ByBlock
 62
     0
380
     1
100
AcDbPoint
 10
805.78662109375
 20
560.054443359375
 30
0.0
  0
LINE
  5
663
330
66A
100
AcDbEntity
  8
0
  6
ByBlock
 62
     0
370
    -2
380
     1
100
AcDbLine
 10
89.63739013671875
 20
560.679443359375
 30
0.0
 11
89.63739013671875
 21
683.1472279145149
 31
0.0
  0
LINE
  5
664
330
66A
100
AcDbEntity
  8
0
  6
ByBlock
 62
     0
370
    -2
380
     1
100
AcDbLine
 10
805.78662109375
 20
560.679443359375
 30
0.0
 11
805.78662109375
 21
683.1472279145149
 31
0.0
  0
LINE
  5
665
330
66A
100
AcDbEntity
  8
0
  6
ByBlock
 62
     0
370
    -2
380
     1
100
AcDbLine
 10
99.63739013671875
 20
681.8972279145149
 30
0.0
 11
795.78662109375
 21
681.8972279145149
 31
0.0
  0
SOLID
  5
666
330
66A
100
AcDbEntity
  8
0
  6
ByBlock
 62
     0
380
     1
100
AcDbTrace
 10
89.63739013671875
 20
681.8972279145149
 30
0.0
 11
99.63739013671875
 21
680.2305612478483
 31
0.0
 12
99.63739013671875
 22
683.5638945811816
 32
0.0
 13
99.63739013671875
 23
683.5638945811816
 33
0.0
  0
SOLID
  5
667
330
66A
100
AcDbEntity
  8
0
  6
ByBlock
 62
     0
380
     1
100
AcDbTrace
 10
805.78662109375
 20
681.8972279145149
 30
0.0
 11
795.78662109375
 21
680.2305612478483
 31
0.0
 12
795.78662109375
 22
683.5638945811816
 32
0.0
 13
795.78662109375
 23
683.5638945811816
 33
0.0
  0
MTEXT
  5
668
330
66A
100
AcDbEntity
  8
0
  6
ByBlock
 62
     0
370
    -2
380
     1
100
AcDbMText
 10
447.7120056152344
 20
709.8972279145149
 30
0.0
 40
36.0
 41
0.0
 71
     5
 72
     1
  1
\A1;716
 73
     1
 44
1.0
  0
ENDBLK
  5
6E8
330
66A
100
AcDbEntity
  8
0
100
AcDbBlockEnd
  0
BLOCK
  5
6E9
330
675
100
AcDbEntity
  8
0
100
AcDbBlockBegin
  2
*D2
 70
     1
 10
0.0
 20
0.0
 30
0.0
  3
*D2
  1

  0
POINT
  5
66C
330
675
100
AcDbEntity
  8
DEFPOINTS
  6
ByBlock
 62
     0
380
     1
100
AcDbPoint
 10
89.63739013671875
 20
560.054443359375
 30
0.0
  0
POINT
  5
66D
330
675
100
AcDbEntity
  8
DEFPOINTS
  6
ByBlock
 62
     0
380
     1
100
AcDbPoint
 10
805.78662109375
 20
560.054443359375
 30
0.0
  0
LINE
  5
66E
330
675
100
AcDbEntity
  8
0
  6
ByBlock
 62
     0
370
    -2
380
     1
100
AcDbLine
 10
89.63739013671875
 20
560.679443359375
 30
0.0
 11
89.63739013671875
 21
683.1472279145149
 31
0.0
  0
LINE
  5
66F
330
675
100
AcDbEntity
  8
0
  6
ByBlock
 62
     0
370
    -2
380
     1
100
AcDbLine
 10
805.78662109375
 20
560.679443359375
 30
0.0
 11
805.78662109375
 21
683.1472279145149
 31
0.0
  0
LINE
  5
670
330
675
100
AcDbEntity
  8
0
  6
ByBlock
 62
     0
370
    -2
380
     1
100
AcDbLine
 10
99.63739013671875
 20
681.8972279145149
 30
0.0
 11
795.78662109375
 21
681.8972279145149
 31
0.0
  0
SOLID
  5
671
330
675
100
AcDbEntity
  8
0
  6
ByBlock
 62
     0
380
     1
100
AcDbTrace
 10
89.63739013671875
 20
681.8972279145149
 30
0.0
 11
99.63739013671875
 21
680.2305612478483
 31
0.0
 12
99.63739013671875
 22
683.5638945811816
 32
0.0
 13
99.63739013671875
 23
683.5638945811816
 33
0.0
  0
SOLID
  5
672
330
675
100
AcDbEntity
  8
0
  6
ByBlock
 62
     0
380
     1
100
AcDbTrace
 10
805.78662109375
 20
681.8972279145149
 30
0.0
 11
795.78662109375
 21
680.2305612478483
 31
0.0
 12
795.78662109375
 22
683.5638945811816
 32
0.0
 13
795.78662109375
 23
683.5638945811816
 33
0.0
  0
MTEXT
  5
673
330
675
100
AcDbEntity
  8
0
  6
ByBlock
 62
     0
370
    -2
380
     1
100
AcDbMText
 10
447.7120056152344
 20
709.8972279145149
 30
0.0
 40
36.0
 41
0.0
 71
     5
 72
     1
  1
\A1;716
 73
     1
 44
1.0
  0
ENDBLK
  5
6EA
330
675
100
AcDbEntity
  8
0
100
AcDbBlockEnd
  0
BLOCK
  5
6EB
330
680
100
AcDbEntity
  8
0
100
AcDbBlockBegin
  2
*D3
 70
     1
 10
0.0
 20
0.0
 30
0.0
  3
*D3
  1

  0
POINT
  5
677
330
680
100
AcDbEntity
  8
DEFPOINTS
  6
ByBlock
 62
     0
380
     1
100
AcDbPoint
 10
89.63739013671875
 20
560.054443359375
 30
0.0
  0
POINT
  5
678
330
680
100
AcDbEntity
  8
DEFPOINTS
  6
ByBlock
 62
     0
380
     1
100
AcDbPoint
 10
805.78662109375
 20
560.054443359375
 30
0.0
  0
LINE
  5
679
330
680
100
AcDbEntity
  8
0
  6
ByBlock
 62
     0
370
    -2
380
     1
100
AcDbLine
 10
89.63739013671875
 20
560.679443359375
 30
0.0
 11
89.63739013671875
 21
683.1472279145149
 31
0.0
  0
LINE
  5
67A
330
680
100
AcDbEntity
  8
0
  6
ByBlock
 62
     0
370
    -2
380
     1
100
AcDbLine
 10
805.78662109375
 20
560.679443359375
 30
0.0
 11
805.78662109375
 21
683.1472279145149
 31
0.0
  0
LINE
  5
67B
330
680
100
AcDbEntity
  8
0
  6
ByBlock
 62
     0
370
    -2
380
     1
100
AcDbLine
 10
99.63739013671875
 20
681.8972279145149
 30
0.0
 11
795.78662109375
 21
681.8972279145149
 31
0.0
  0
SOLID
  5
67C
330
680
100
AcDbEntity
  8
0
  6
ByBlock
 62
     0
380
     1
100
AcDbTrace
 10
89.63739013671875
 20
681.8972279145149
 30
0.0
 11
99.63739013671875
 21
680.2305612478483
 31
0.0
 12
99.63739013671875
 22
683.5638945811816
 32
0.0
 13
99.63739013671875
 23
683.5638945811816
 33
0.0
  0
SOLID
  5
67D
330
680
100
AcDbEntity
  8
0
  6
ByBlock
 62
     0
380
     1
100
AcDbTrace
 10
805.78662109375
 20
681.8972279145149
 30
0.0
 11
795.78662109375
 21
680.2305612478483
 31
0.0
 12
795.78662109375
 22
683.5638945811816
 32
0.0
 13
795.78662109375
 23
683.5638945811816
 33
0.0
  0
MTEXT
  5
67E
330
680
100
AcDbEntity
  8
0
  6
ByBlock
 62
     0
370
    -2
380
     1
100
AcDbMText
 10
447.7120056152344
 20
709.8972279145149
 30
0.0
 40
36.0
 41
0.0
 71
     5
 72
     1
  1
\A1;716
 73
     1
 44
1.0
  0
ENDBLK
  5
6EC
330
680
100
AcDbEntity
  8
0
100
AcDbBlockEnd
  0
BLOCK
  5
6ED
330
68C
100
AcDbEntity
  8
0
100
AcDbBlockBegin
  2
*D4
 70
     1
 10
0.0
 20
0.0
 30
0.0
  3
*D4
  1

  0
POINT
  5
683
330
68C
100
AcDbEntity
  8
DEFPOINTS
  6
ByBlock
 62
     0
380
     1
100
AcDbPoint
 10
804.03662109375
 20
649.304443359375
 30
0.0
  0
POINT
  5
684
330
68C
100
AcDbEntity
  8
DEFPOINTS
  6
ByBlock
 62
     0
380
     1
100
AcDbPoint
 10
447.7120056152344
 20
475.804443359375
 30
0.0
  0
LINE
  5
685
330
68C
100
AcDbEntity
  8
0
  6
ByBlock
 62
     0
370
    -2
380
     1
100
AcDbLine
 10
804.66162109375
 20
649.304443359375
 30
0.0
 11
869.7130120889392
 21
649.304443359375
 31
0.0
  0
LINE
  5
686
330
68C
100
AcDbEntity
  8
0
  6
ByBlock
 62
     0
370
    -2
380
     1
100
AcDbLine
 10
448.3370056152344
 20
475.804443359375
 30
0.0
 11
869.7130120889392
 21
475.804443359375
 31
0.0
  0
LINE
  5
687
330
68C
100
AcDbEntity
  8
0
  6
ByBlock
 62
     0
370
    -2
380
     1
100
AcDbLine
 10
868.4630120889392
 20
646.804443359375
 30
0.0
 11
868.4630120889392
 21
478.304443359375
 31
0.0
  0
SOLID
  5
688
330
68C
100
AcDbEntity
  8
0
  6
ByBlock
 62
     0
380
     1
100
AcDbTrace
 10
868.4630120889392
 20
649.304443359375
 30
0.0
 11
868.0463454222726
 21
646.804443359375
 31
0.0
 12
868.8796787556058
 22
646.804443359375
 32
0.0
 13
868.8796787556058
 23
646.804443359375
 33
0.0
  0
SOLID
  5
689
330
68C
100
AcDbEntity
  8
0
  6
ByBlock
 62
     0
380
     1
100
AcDbTrace
 10
868.4630120889392
 20
475.804443359375
 30
0.0
 11
868.0463454222726
 21
478.304443359375
 31
0.0
 12
868.8796787556058
 22
478.304443359375
 32
0.0
 13
868.8796787556058
 23
478.304443359375
 33
0.0
  0
MTEXT
  5
68A
330
68C
100
AcDbEntity
  8
0
  6
ByBlock
 62
     0
370
    -2
380
     1
100
AcDbMText
 10
866.3796787556059
 20
562.554443359375
 30
0.0
 40
2.5
 41
0.0
 71
     5
 72
     1
  1
\A1;173,5
 11
6.123031769111886E-17
 21
1.0
 31
0.0
 73
     1
 44
1.0
  0
ENDBLK
  5
6EE
330
68C
100
AcDbEntity
  8
0
100
AcDbBlockEnd
  0
BLOCK
  5
6EF
330
697
100
AcDbEntity
  8
0
100
AcDbBlockBegin
  2
*D5
 70
     1
 10
0.0
 20
0.0
 30
0.0
  3
*D5
  1

  0
POINT
  5
68E
330
697
100
AcDbEntity
  8
DEFPOINTS
  6
ByBlock
 62
     0
380
     1
100
AcDbPoint
 10
804.03662109375
 20
649.304443359375
 30
0.0
  0
POINT
  5
68F
330
697
100
AcDbEntity
  8
DEFPOINTS
  6
ByBlock
 62
     0
380
     1
100
AcDbPoint
 10
447.7120056152344
 20
475.804443359375
 30
0.0
  0
LINE
  5
690
330
697
100
AcDbEntity
  8
0
  6
ByBlock
 62
     0
370
    -2
380
     1
100
AcDbLine
 10
804.66162109375
 20
649.304443359375
 30
0.0
 11
869.7130120889392
 21
649.304443359375
 31
0.0
  0
LINE
  5
691
330
697
100
AcDbEntity
  8
0
  6
ByBlock
 62
     0
370
    -2
380
     1
100
AcDbLine
 10
448.3370056152344
 20
475.804443359375
 30
0.0
 11
869.7130120889392
 21
475.804443359375
 31
0.0
  0
LINE
  5
692
330
697
100
AcDbEntity
  8
0
  6
ByBlock
 62
     0
370
    -2
380
     1
100
AcDbLine
 10
868.4630120889392
 20
639.304443359375
 30
0.0
 11
868.4630120889392
 21
485.804443359375
 31
0.0
  0
SOLID
  5
693
330
697
100
AcDbEntity
  8
0
  6
ByBlock
 62
     0
380
     1
100
AcDbTrace
 10
868.4630120889392
 20
649.304443359375
 30
0.0
 11
866.7963454222726
 21
639.304443359375
 31
0.0
 12
870.1296787556058
 22
639.304443359375
 32
0.0
 13
870.1296787556058
 23
639.304443359375
 33
0.0
  0
SOLID
  5
694
330
697
100
AcDbEntity
  8
0
  6
ByBlock
 62
     0
380
     1
100
AcDbTrace
 10
868.4630120889392
 20
475.804443359375
 30
0.0
 11
866.7963454222726
 21
485.804443359375
 31
0.0
 12
870.1296787556058
 22
485.804443359375
 32
0.0
 13
870.1296787556058
 23
485.804443359375
 33
0.0
  0
MTEXT
  5
695
330
697
100
AcDbEntity
  8
0
  6
ByBlock
 62
     0
370
    -2
380
     1
100
AcDbMText
 10
840.4630120889392
 20
562.554443359375
 30
0.0
 40
36.0
 41
0.0
 71
     5
 72
     1
  1
\A1;174
 11
6.123031769111886E-17
 21
1.0
 31
0.0
 73
     1
 44
1.0
  0
ENDBLK
  5
6F0
330
697
100
AcDbEntity
  8
0
100
AcDbBlockEnd
  0
BLOCK
  5
6F1
330
6A3
100
AcDbEntity
  8
0
100
AcDbBlockBegin
  2
*D6
 70
     1
 10
0.0
 20
0.0
 30
0.0
  3
*D6
  1

  0
POINT
  5
69A
330
6A3
100
AcDbEntity
  8
DEFPOINTS
  6
ByBlock
 62
     0
380
     1
100
AcDbPoint
 10
804.03662109375
 20
649.304443359375
 30
0.0
  0
POINT
  5
69B
330
6A3
100
AcDbEntity
  8
DEFPOINTS
  6
ByBlock
 62
     0
380
     1
100
AcDbPoint
 10
447.7120056152344
 20
475.804443359375
 30
0.0
  0
LINE
  5
69C
330
6A3
100
AcDbEntity
  8
0
  6
ByBlock
 62
     0
370
    -2
380
     1
100
AcDbLine
 10
804.66162109375
 20
649.304443359375
 30
0.0
 11
869.7130120889392
 21
649.304443359375
 31
0.0
  0
LINE
  5
69D
330
6A3
100
AcDbEntity
  8
0
  6
ByBlock
 62
     0
370
    -2
380
     1
100
AcDbLine
 10
448.3370056152344
 20
475.804443359375
 30
0.0
 11
869.7130120889392
 21
475.804443359375
 31
0.0
  0
LINE
  5
69E
330
6A3
100
AcDbEntity
  8
0
  6
ByBlock
 62
     0
370
    -2
380
     1
100
AcDbLine
 10
868.4630120889392
 20
639.304443359375
 30
0.0
 11
868.4630120889392
 21
485.804443359375
 31
0.0
  0
SOLID
  5
69F
330
6A3
100
AcDbEntity
  8
0
  6
ByBlock
 62
     0
380
     1
100
AcDbTrace
 10
868.4630120889392
 20
649.304443359375
 30
0.0
 11
866.7963454222726
 21
639.304443359375
 31
0.0
 12
870.1296787556058
 22
639.304443359375
 32
0.0
 13
870.1296787556058
 23
639.304443359375
 33
0.0
  0
SOLID
  5
6A0
330
6A3
100
AcDbEntity
  8
0
  6
ByBlock
 62
     0
380
     1
100
AcDbTrace
 10
868.4630120889392
 20
475.804443359375
 30
0.0
 11
866.7963454222726
 21
485.804443359375
 31
0.0
 12
870.1296787556058
 22
485.804443359375
 32
0.0
 13
870.1296787556058
 23
485.804443359375
 33
0.0
  0
MTEXT
  5
6A1
330
6A3
100
AcDbEntity
  8
0
  6
ByBlock
 62
     0
370
    -2
380
     1
100
AcDbMText
 10
840.4630120889392
 20
562.554443359375
 30
0.0
 40
36.0
 41
0.0
 71
     5
 72
     1
  1
\A1;174
 11
6.123031769111886E-17
 21
1.0
 31
0.0
 73
     1
 44
1.0
  0
ENDBLK
  5
6F2
330
6A3
100
AcDbEntity
  8
0
100
AcDbBlockEnd
  0
BLOCK
  5
6F3
330
6B1
100
AcDbEntity
  8
0
100
AcDbBlockBegin
  2
*D7
 70
     1
 10
0.0
 20
0.0
 30
0.0
  3
*D7
  1

  0
POINT
  5
6A6
330
6B1
100
AcDbEntity
  8
DEFPOINTS
  6
ByBlock
 62
     0
380
     1
100
AcDbPoint
 10
447.7120056152344
 20
259.366943359375
 30
0.0
  0
POINT
  5
6A7
330
6B1
100
AcDbEntity
  8
DEFPOINTS
  6
ByBlock
 62
     0
380
     1
100
AcDbPoint
 10
447.7120056152344
 20
222.3669586181641
 30
0.0
  0
LINE
  5
6A8
330
6B1
100
AcDbEntity
  8
0
  6
ByBlock
 62
     0
370
    -2
380
     1
100
AcDbLine
 10
447.7120056152344
 20
259.991943359375
 30
0.0
 11
447.7120056152344
 21
310.0165475860325
 31
0.0
  0
LINE
  5
6A9
330
6B1
100
AcDbEntity
  8
0
  6
ByBlock
 62
     0
370
    -2
380
     1
100
AcDbLine
 10
447.7120056152344
 20
222.9919586181641
 30
0.0
 11
447.7120056152344
 21
310.0165475860325
 31
0.0
  0
LINE
  5
6AA
330
6B1
100
AcDbEntity
  8
0
  6
ByBlock
 62
     0
370
    -2
380
     1
100
AcDbLine
 10
445.2120056152344
 20
308.7665475860325
 30
0.0
 11
442.7120056152344
 21
308.7665475860325
 31
0.0
  0
LINE
  5
6AB
330
6B1
100
AcDbEntity
  8
0
  6
ByBlock
 62
     0
370
    -2
380
     1
100
AcDbLine
 10
450.2120056152344
 20
308.7665475860325
 30
0.0
 11
455.2120056152344
 21
308.7665475860325
 31
0.0
  0
SOLID
  5
6AC
330
6B1
100
AcDbEntity
  8
0
  6
ByBlock
 62
     0
380
     1
100
AcDbTrace
 10
447.7120056152344
 20
308.7665475860325
 30
0.0
 11
445.2120056152344
 21
308.3498809193658
 31
0.0
 12
445.2120056152344
 22
309.1832142526992
 32
0.0
 13
445.2120056152344
 23
309.1832142526992
 33
0.0
  0
SOLID
  5
6AD
330
6B1
100
AcDbEntity
  8
0
  6
ByBlock
 62
     0
380
     1
100
AcDbTrace
 10
447.7120056152344
 20
308.7665475860325
 30
0.0
 11
450.2120056152344
 21
308.3498809193658
 31
0.0
 12
450.2120056152344
 22
309.1832142526992
 32
0.0
 13
450.2120056152344
 23
309.1832142526992
 33
0.0
  0
LINE
  5
6AE
330
6B1
100
AcDbEntity
  8
0
  6
ByBlock
 62
     0
370
    -2
380
     1
100
AcDbLine
 10
447.7120056152344
 20
308.7665475860325
 30
0.0
 11
447.7120056152344
 21
308.7665475860325
 31
0.0
  0
MTEXT
  5
6AF
330
6B1
100
AcDbEntity
  8
0
  6
ByBlock
 62
     0
370
    -2
380
     1
100
AcDbMText
 10
453.9620056152344
 20
310.6415475860325
 30
0.0
 40
2.5
 41
0.0
 71
     5
 72
     1
  1
\A1;0
 73
     1
 44
1.0
  0
ENDBLK
  5
6F4
330
6B1
100
AcDbEntity
  8
0
100
AcDbBlockEnd
  0
BLOCK
  5
6F5
330
6BD
100
AcDbEntity
  8
0
100
AcDbBlockBegin
  2
*D8
 70
     1
 10
0.0
 20
0.0
 30
0.0
  3
*D8
  1

  0
POINT
  5
6B4
330
6BD
100
AcDbEntity
  8
DEFPOINTS
  6
ByBlock
 62
     0
380
     1
100
AcDbPoint
 10
447.7120056152344
 20
259.366943359375
 30
0.0
  0
POINT
  5
6B5
330
6BD
100
AcDbEntity
  8
DEFPOINTS
  6
ByBlock
 62
     0
380
     1
100
AcDbPoint
 10
447.7120056152344
 20
222.3669586181641
 30
0.0
  0
LINE
  5
6B6
330
6BD
100
AcDbEntity
  8
0
  6
ByBlock
 62
     0
370
    -2
380
     1
100
AcDbLine
 10
448.3370056152344
 20
259.366943359375
 30
0.0
 11
869.7130120889392
 21
259.366943359375
 31
0.0
  0
LINE
  5
6B7
330
6BD
100
AcDbEntity
  8
0
  6
ByBlock
 62
     0
370
    -2
380
     1
100
AcDbLine
 10
448.3370056152344
 20
222.3669586181641
 30
0.0
 11
869.7130120889392
 21
222.3669586181641
 31
0.0
  0
LINE
  5
6B8
330
6BD
100
AcDbEntity
  8
0
  6
ByBlock
 62
     0
370
    -2
380
     1
100
AcDbLine
 10
868.4630120889392
 20
256.866943359375
 30
0.0
 11
868.4630120889392
 21
224.8669586181641
 31
0.0
  0
SOLID
  5
6B9
330
6BD
100
AcDbEntity
  8
0
  6
ByBlock
 62
     0
380
     1
100
AcDbTrace
 10
868.4630120889392
 20
259.366943359375
 30
0.0
 11
868.0463454222725
 21
256.866943359375
 31
0.0
 12
868.8796787556059
 22
256.866943359375
 32
0.0
 13
868.8796787556059
 23
256.866943359375
 33
0.0
  0
SOLID
  5
6BA
330
6BD
100
AcDbEntity
  8
0
  6
ByBlock
 62
     0
380
     1
100
AcDbTrace
 10
868.4630120889392
 20
222.3669586181641
 30
0.0
 11
868.0463454222725
 21
224.8669586181641
 31
0.0
 12
868.8796787556059
 22
224.8669586181641
 32
0.0
 13
868.8796787556059
 23
224.8669586181641
 33
0.0
  0
MTEXT
  5
6BB
330
6BD
100
AcDbEntity
  8
0
  6
ByBlock
 62
     0
370
    -2
380
     1
100
AcDbMText
 10
866.5880120889392
 20
240.8669509887695
 30
0.0
 40
2.5
 41
0.0
 71
     5
 72
     1
  1
\A1;37
 11
6.123031769111886E-17
 21
1.0
 31
0.0
 73
     1
 44
1.0
  0
ENDBLK
  5
6F6
330
6BD
100
AcDbEntity
  8
0
100
AcDbBlockEnd
  0
BLOCK
  5
6F7
330
6C9
100
AcDbEntity
  8
0
100
AcDbBlockBegin
  2
*D9
 70
     1
 10
0.0
 20
0.0
 30
0.0
  3
*D9
  1

  0
POINT
  5
6BF
330
6C9
100
AcDbEntity
  8
DEFPOINTS
  6
ByBlock
 62
     0
380
     1
100
AcDbPoint
 10
447.7120056152344
 20
259.366943359375
 30
0.0
  0
POINT
  5
6C0
330
6C9
100
AcDbEntity
  8
DEFPOINTS
  6
ByBlock
 62
     0
380
     1
100
AcDbPoint
 10
447.7120056152344
 20
222.3669586181641
 30
0.0
  0
LINE
  5
6C1
330
6C9
100
AcDbEntity
  8
0
  6
ByBlock
 62
     0
370
    -2
380
     1
100
AcDbLine
 10
448.3370056152344
 20
259.366943359375
 30
0.0
 11
869.7130120889392
 21
259.366943359375
 31
0.0
  0
LINE
  5
6C2
330
6C9
100
AcDbEntity
  8
0
  6
ByBlock
 62
     0
370
    -2
380
     1
100
AcDbLine
 10
448.3370056152344
 20
222.3669586181641
 30
0.0
 11
869.7130120889392
 21
222.3669586181641
 31
0.0
  0
LINE
  5
6C3
330
6C9
100
AcDbEntity
  8
0
  6
ByBlock
 62
     0
370
    -2
380
     1
100
AcDbLine
 10
868.4630120889392
 20
249.366943359375
 30
0.0
 11
868.4630120889392
 21
232.3669586181641
 31
0.0
  0
LINE
  5
6C4
330
6C9
100
AcDbEntity
  8
0
  6
ByBlock
 62
     0
370
    -2
380
     1
100
AcDbLine
 10
868.4630120889392
 20
222.3669586181641
 30
0.0
 11
868.4630120889392
 21
156.3669586181641
 31
0.0
  0
SOLID
  5
6C5
330
6C9
100
AcDbEntity
  8
0
  6
ByBlock
 62
     0
380
     1
100
AcDbTrace
 10
868.4630120889392
 20
259.366943359375
 30
0.0
 11
866.7963454222725
 21
249.366943359375
 31
0.0
 12
870.1296787556059
 22
249.366943359375
 32
0.0
 13
870.1296787556059
 23
249.366943359375
 33
0.0
  0
SOLID
  5
6C6
330
6C9
100
AcDbEntity
  8
0
  6
ByBlock
 62
     0
380
     1
100
AcDbTrace
 10
868.4630120889392
 20
222.3669586181641
 30
0.0
 11
866.7963454222725
 21
232.3669586181641
 31
0.0
 12
870.1296787556059
 22
232.3669586181641
 32
0.0
 13
870.1296787556059
 23
232.3669586181641
 33
0.0
  0
MTEXT
  5
6C7
330
6C9
100
AcDbEntity
  8
0
  6
ByBlock
 62
     0
370
    -2
380
     1
100
AcDbMText
 10
840.4630120889392
 20
184.3669586181641
 30
0.0
 40
36.0
 41
0.0
 71
     5
 72
     1
  1
\A1;37
 11
6.123031769111886E-17
 21
1.0
 31
0.0
 73
     1
 44
1.0
  0
ENDBLK
  5
6F8
330
6C9
100
AcDbEntity
  8
0
100
AcDbBlockEnd
  0
BLOCK
  5
6F9
330
6D5
100
AcDbEntity
  8
0
100
AcDbBlockBegin
  2
*D10
 70
     1
 10
0.0
 20
0.0
 30
0.0
  3
*D10
  1

  0
POINT
  5
6CB
330
6D5
100
AcDbEntity
  8
DEFPOINTS
  6
ByBlock
 62
     0
380
     1
100
AcDbPoint
 10
447.7120056152344
 20
259.366943359375
 30
0.0
  0
POINT
  5
6CC
330
6D5
100
AcDbEntity
  8
DEFPOINTS
  6
ByBlock
 62
     0
380
     1
100
AcDbPoint
 10
447.7120056152344
 20
222.3669586181641
 30
0.0
  0
LINE
  5
6CD
330
6D5
100
AcDbEntity
  8
0
  6
ByBlock
 62
     0
370
    -2
380
     1
100
AcDbLine
 10
448.3370056152344
 20
259.366943359375
 30
0.0
 11
869.7130120889392
 21
259.366943359375
 31
0.0
  0
LINE
  5
6CE
330
6D5
100
AcDbEntity
  8
0
  6
ByBlock
 62
     0
370
    -2
380
     1
100
AcDbLine
 10
448.3370056152344
 20
222.3669586181641
 30
0.0
 11
869.7130120889392
 21
222.3669586181641
 31
0.0
  0
LINE
  5
6CF
330
6D5
100
AcDbEntity
  8
0
  6
ByBlock
 62
     0
370
    -2
380
     1
100
AcDbLine
 10
868.4630120889392
 20
249.366943359375
 30
0.0
 11
868.4630120889392
 21
232.3669586181641
 31
0.0
  0
LINE
  5
6D0
330
6D5
100
AcDbEntity
  8
0
  6
ByBlock
 62
     0
370
    -2
380
     1
100
AcDbLine
 10
868.4630120889392
 20
259.366943359375
 30
0.0
 11
868.4630120889392
 21
337.366943359375
 31
0.0
  0
SOLID
  5
6D1
330
6D5
100
AcDbEntity
  8
0
  6
ByBlock
 62
     0
380
     1
100
AcDbTrace
 10
868.4630120889392
 20
259.366943359375
 30
0.0
 11
866.7963454222725
 21
249.366943359375
 31
0.0
 12
870.1296787556059
 22
249.366943359375
 32
0.0
 13
870.1296787556059
 23
249.366943359375
 33
0.0
  0
SOLID
  5
6D2
330
6D5
100
AcDbEntity
  8
0
  6
ByBlock
 62
     0
380
     1
100
AcDbTrace
 10
868.4630120889392
 20
222.3669586181641
 30
0.0
 11
866.7963454222725
 21
232.3669586181641
 31
0.0
 12
870.1296787556059
 22
232.3669586181641
 32
0.0
 13
870.1296787556059
 23
232.3669586181641
 33
0.0
  0
MTEXT
  5
6D3
330
6D5
100
AcDbEntity
  8
0
  6
ByBlock
 62
     0
370
    -2
380
     1
100
AcDbMText
 10
840.4630120889392
 20
309.366943359375
 30
0.0
 40
36.0
 41
0.0
 71
     5
 72
     1
  1
\A1;37
 11
6.123031769111886E-17
 21
1.0
 31
0.0
 73
     1
 44
1.0
  0
ENDBLK
  5
6FA
330
6D5
100
AcDbEntity
  8
0
100
AcDbBlockEnd
  0
BLOCK
  5
6FB
330
6E1
100
AcDbEntity
  8
0
100
AcDbBlockBegin
  2
*D11
 70
     1
 10
0.0
 20
0.0
 30
0.0
  3
*D11
  1

  0
POINT
  5
6D7
330
6E1
100
AcDbEntity
  8
DEFPOINTS
  6
ByBlock
 62
     0
380
     1
100
AcDbPoint
 10
447.7120056152344
 20
259.366943359375
 30
0.0
  0
POINT
  5
6D8
330
6E1
100
AcDbEntity
  8
DEFPOINTS
  6
ByBlock
 62
     0
380
     1
100
AcDbPoint
 10
447.7120056152344
 20
222.3669586181641
 30
0.0
  0
LINE
  5
6D9
330
6E1
100
AcDbEntity
  8
0
  6
ByBlock
 62
     0
370
    -2
380
     1
100
AcDbLine
 10
448.3370056152344
 20
259.366943359375
 30
0.0
 11
869.7130120889392
 21
259.366943359375
 31
0.0
  0
LINE
  5
6DA
330
6E1
100
AcDbEntity
  8
0
  6
ByBlock
 62
     0
370
    -2
380
     1
100
AcDbLine
 10
448.3370056152344
 20
222.3669586181641
 30
0.0
 11
869.7130120889392
 21
222.3669586181641
 31
0.0
  0
LINE
  5
6DB
330
6E1
100
AcDbEntity
  8
0
  6
ByBlock
 62
     0
370
    -2
380
     1
100
AcDbLine
 10
868.4630120889392
 20
249.366943359375
 30
0.0
 11
868.4630120889392
 21
232.3669586181641
 31
0.0
  0
LINE
  5
6DC
330
6E1
100
AcDbEntity
  8
0
  6
ByBlock
 62
     0
370
    -2
380
     1
100
AcDbLine
 10
868.4630120889392
 20
259.366943359375
 30
0.0
 11
868.4630120889392
 21
337.366943359375
 31
0.0
  0
SOLID
  5
6DD
330
6E1
100
AcDbEntity
  8
0
  6
ByBlock
 62
     0
380
     1
100
AcDbTrace
 10
868.4630120889392
 20
259.366943359375
 30
0.0
 11
866.7963454222725
 21
249.366943359375
 31
0.0
 12
870.1296787556059
 22
249.366943359375
 32
0.0
 13
870.1296787556059
 23
249.366943359375
 33
0.0
  0
SOLID
  5
6DE
330
6E1
100
AcDbEntity
  8
0
  6
ByBlock
 62
     0
380
     1
100
AcDbTrace
 10
868.4630120889392
 20
222.3669586181641
 30
0.0
 11
866.7963454222725
 21
232.3669586181641
 31
0.0
 12
870.1296787556059
 22
232.3669586181641
 32
0.0
 13
870.1296787556059
 23
232.3669586181641
 33
0.0
  0
MTEXT
  5
6DF
330
6E1
100
AcDbEntity
  8
0
  6
ByBlock
 62
     0
370
    -2
380
     1
100
AcDbMText
 10
840.4630120889392
 20
309.366943359375
 30
0.0
 40
36.0
 41
0.0
 71
     5
 72
     1
  1
\A1;37
 11
6.123031769111886E-17
 21
1.0
 31
0.0
 73
     1
 44
1.0
  0
ENDBLK
  5
6FC
330
6E1
100
AcDbEntity
  8
0
100
AcDbBlockEnd
  0
ENDSEC
  0
SECTION
  2
ENTITIES
  0
LINE
  5
114
330
1F
100
AcDbEntity
  8
0
 62
     7
 48
0.4625
370
    60
390
F
100
AcDbLine
 10
93.13739013671875
 20
630.804443359375
 30
0.0
 11
93.13739013671875
 21
649.304443359375
 31
0.0
  0
LINE
  5
116
330
1F
100
AcDbEntity
  8
0
 62
     7
 48
0.4625
370
    60
390
F
100
AcDbLine
 10
89.63739013671875
 20
630.804443359375
 30
0.0
 11
89.63739013671875
 21
649.304443359375
 31
0.0
  0
LINE
  5
117
330
1F
100
AcDbEntity
  8
0
 62
     7
370
    60
390
F
100
AcDbLine
 10
93.13739013671875
 20
630.804443359375
 30
0.0
 11
93.13739013671875
 21
489.304443359375
 31
0.0
  0
LINE
  5
118
330
1F
100
AcDbEntity
  8
0
 62
     7
370
    60
390
F
100
AcDbLine
 10
89.63739013671875
 20
630.804443359375
 30
0.0
 11
89.63739013671875
 21
489.304443359375
 31
0.0
  0
LINE
  5
119
330
1F
100
AcDbEntity
  8
0
 62
     7
 48
0.4625
370
    60
390
F
100
AcDbLine
 10
805.78662109375
 20
630.804443359375
 30
0.0
 11
805.78662109375
 21
649.304443359375
 31
0.0
  0
LINE
  5
11B
330
1F
100
AcDbEntity
  8
0
 62
     7
 48
0.4625
370
    60
390
F
100
AcDbLine
 10
802.28662109375
 20
630.804443359375
 30
0.0
 11
802.28662109375
 21
649.304443359375
 31
0.0
  0
LINE
  5
11C
330
1F
100
AcDbEntity
  8
0
 62
     7
370
    60
390
F
100
AcDbLine
 10
802.28662109375
 20
630.804443359375
 30
0.0
 11
802.28662109375
 21
489.304443359375
 31
0.0
  0
LINE
  5
11D
330
1F
100
AcDbEntity
  8
0
 62
     7
370
    60
390
F
100
AcDbLine
 10
805.78662109375
 20
630.804443359375
 30
0.0
 11
805.78662109375
 21
489.304443359375
 31
0.0
  0
LINE
  5
11E
330
1F
100
AcDbEntity
  8
0
 62
     7
370
    60
390
F
100
AcDbLine
 10
103.1373901367188
 20
479.304443359375
 30
0.0
 11
792.28662109375
 21
479.304443359375
 31
0.0
  0
LINE
  5
11F
330
1F
100
AcDbEntity
  8
0
 62
     7
370
    60
390
F
100
AcDbLine
 10
103.1373901367188
 20
475.804443359375
 30
0.0
 11
792.28662109375
 21
475.804443359375
 31
0.0
  0
ARC
  5
120
330
1F
100
AcDbEntity
  8
0
 62
     7
370
    60
390
F
100
AcDbCircle
 10
103.1373901367188
 20
489.304443359375
 30
0.0
 40
10.0
100
AcDbArc
 50
180.0000050089563
 51
269.9999974955218
  0
ARC
  5
121
330
1F
100
AcDbEntity
  8
0
 62
     7
370
    60
390
F
100
AcDbCircle
 10
792.28662109375
 20
489.304443359375
 30
0.0
 40
10.0
100
AcDbArc
 50
269.9999974955218
 51
0.0
  0
ARC
  5
122
330
1F
100
AcDbEntity
  8
0
 62
     7
370
    60
390
F
100
AcDbCircle
 10
792.28662109375
 20
489.304443359375
 30
0.0
 40
13.5
100
AcDbArc
 50
269.9999974955218
 51
359.9999999999999
  0
ARC
  5
123
330
1F
100
AcDbEntity
  8
0
 62
     7
370
    60
390
F
100
AcDbCircle
 10
103.1373901367188
 20
489.304443359375
 30
0.0
 40
13.5
100
AcDbArc
 50
180.0000050089563
 51
269.9999974955218
  0
LINE
  5
124
330
1F
100
AcDbEntity
  8
0
 62
     7
 48
0.0875
370
    60
390
F
100
AcDbLine
 10
89.63739013671875
 20
649.304443359375
 30
0.0
 11
93.13739013671875
 21
649.304443359375
 31
0.0
  0
LINE
  5
125
330
1F
100
AcDbEntity
  8
0
 62
     7
 48
0.0875
370
    60
390
F
100
AcDbLine
 10
802.28662109375
 20
649.304443359375
 30
0.0
 11
805.78662109375
 21
649.304443359375
 31
0.0
  0
LINE
  5
60E
330
1F
100
AcDbEntity
  8
0
 62
     7
 48
0.0875
370
    60
390
F
100
AcDbLine
 10
93.13739013671875
 20
259.366943359375
 30
0.0
 11
89.63739013671875
 21
259.366943359375
 31
0.0
  0
LINE
  5
610
330
1F
100
AcDbEntity
  8
0
 62
     7
 48
0.0875
370
    60
390
F
100
AcDbLine
 10
93.13739013671875
 20
222.3669586181641
 30
0.0
 11
89.63739013671875
 21
222.3669586181641
 31
0.0
  0
LINE
  5
611
330
1F
100
AcDbEntity
  8
0
 62
     7
370
    60
390
F
100
AcDbLine
 10
89.63739013671875
 20
222.3669586181641
 30
0.0
 11
89.63739013671875
 21
259.366943359375
 31
0.0
  0
CIRCLE
  5
612
330
1F
100
AcDbEntity
  8
0
 62
     7
370
    60
390
F
100
AcDbCircle
 10
447.7120056152344
 20
240.8669586181641
 30
0.0
 40
7.0
  0
CIRCLE
  5
613
330
1F
100
AcDbEntity
  8
0
 62
     7
370
    60
390
F
100
AcDbCircle
 10
387.7120056152344
 20
240.8669586181641
 30
0.0
 40
5.25
  0
CIRCLE
  5
614
330
1F
100
AcDbEntity
  8
0
 62
     7
370
    60
390
F
100
AcDbCircle
 10
327.7120056152344
 20
240.8669586181641
 30
0.0
 40
5.25
  0
CIRCLE
  5
615
330
1F
100
AcDbEntity
  8
0
 62
     7
370
    60
390
F
100
AcDbCircle
 10
147.7120361328125
 20
240.8669586181641
 30
0.0
 40
5.25
  0
CIRCLE
  5
616
330
1F
100
AcDbEntity
  8
0
 62
     7
370
    60
390
F
100
AcDbCircle
 10
247.7120361328125
 20
240.8669586181641
 30
0.0
 40
5.25
  0
LINE
  5
617
330
1F
100
AcDbEntity
  8
0
 62
     7
370
    60
390
F
100
AcDbLine
 10
805.78662109375
 20
222.3669586181641
 30
0.0
 11
805.78662109375
 21
259.366943359375
 31
0.0
  0
LINE
  5
618
330
1F
100
AcDbEntity
  8
0
 62
     7
 48
0.0875
370
    60
390
F
100
AcDbLine
 10
805.78662109375
 20
222.3669586181641
 30
0.0
 11
802.28662109375
 21
222.3669586181641
 31
0.0
  0
LINE
  5
61A
330
1F
100
AcDbEntity
  8
0
 62
     7
 48
0.0875
370
    60
390
F
100
AcDbLine
 10
805.78662109375
 20
259.366943359375
 30
0.0
 11
802.28662109375
 21
259.366943359375
 31
0.0
  0
CIRCLE
  5
61B
330
1F
100
AcDbEntity
  8
0
 62
     7
370
    60
390
F
100
AcDbCircle
 10
507.7120056152344
 20
240.8669586181641
 30
0.0
 40
5.25
  0
CIRCLE
  5
61C
330
1F
100
AcDbEntity
  8
0
 62
     7
370
    60
390
F
100
AcDbCircle
 10
567.7120361328125
 20
240.8669586181641
 30
0.0
 40
5.25
  0
CIRCLE
  5
61D
330
1F
100
AcDbEntity
  8
0
 62
     7
370
    60
390
F
100
AcDbCircle
 10
747.7120361328125
 20
240.8669586181641
 30
0.0
 40
5.25
  0
CIRCLE
  5
61E
330
1F
100
AcDbEntity
  8
0
 62
     7
370
    60
390
F
100
AcDbCircle
 10
647.7120361328125
 20
240.8669586181641
 30
0.0
 40
5.25
  0
LINE
  5
61F
330
1F
100
AcDbEntity
  8
0
 62
     7
 48
0.25
370
    60
390
F
100
AcDbLine
 10
792.28662109375
 20
259.366943359375
 30
0.0
 11
802.28662109375
 21
259.366943359375
 31
0.0
  0
LINE
  5
620
330
1F
100
AcDbEntity
  8
0
 62
     7
370
    60
390
F
100
AcDbLine
 10
103.1373901367188
 20
259.366943359375
 30
0.0
 11
792.28662109375
 21
259.366943359375
 31
0.0
  0
LINE
  5
621
330
1F
100
AcDbEntity
  8
0
 62
     7
 48
0.25
370
    60
390
F
100
AcDbLine
 10
93.13739013671875
 20
259.366943359375
 30
0.0
 11
103.1373901367188
 21
259.366943359375
 31
0.0
  0
LINE
  5
622
330
1F
100
AcDbEntity
  8
0
 62
     7
370
    60
390
F
100
AcDbLine
 10
103.1373901367188
 20
259.366943359375
 30
0.0
 11
103.1373901367188
 21
222.3669586181641
 31
0.0
  0
LINE
  5
623
330
1F
100
AcDbEntity
  8
0
 62
     7
370
    60
390
F
100
AcDbLine
 10
103.1373901367188
 20
222.3669586181641
 30
0.0
 11
792.28662109375
 21
222.3669586181641
 31
0.0
  0
LINE
  5
624
330
1F
100
AcDbEntity
  8
0
 62
     7
370
    60
390
F
100
AcDbLine
 10
792.28662109375
 20
259.366943359375
 30
0.0
 11
792.28662109375
 21
222.3669586181641
 31
0.0
  0
LINE
  5
625
330
1F
100
AcDbEntity
  8
0
 62
     7
 48
0.25
370
    60
390
F
100
AcDbLine
 10
103.1373901367188
 20
222.3669586181641
 30
0.0
 11
93.13739013671875
 21
222.3669586181641
 31
0.0
  0
LINE
  5
626
330
1F
100
AcDbEntity
  8
0
 62
     7
 48
0.25
370
    60
390
F
100
AcDbLine
 10
802.28662109375
 20
222.3669586181641
 30
0.0
 11
792.28662109375
 21
222.3669586181641
 31
0.0
  0
DIMENSION
  5
654
330
1F
100
AcDbEntity
  8
0
370
    25
100
AcDbDimension
  2
*D3
 10
805.78662109375
 20
681.8972279145149
 30
0.0
 11
447.7120056152344
 21
709.8972279145149
 31
0.0
 70
   160
 71
     5
 41
2.5
 42
716.1492309570311
  3
Standard
100
AcDbAlignedDimension
 13
89.63739013671875
 23
560.054443359375
 33
0.0
 14
805.78662109375
 24
560.054443359375
 34
0.0
100
AcDbRotatedDimension
1001
ACAD
1000
DSTYLE
1002
{
1070
    41
1040
10.0
1070
    42
1040
0.625
1070
    43
1040
3.75
1070
    44
1040
1.25
1070
    73
1070
     0
1070
    74
1070
     0
1070
    77
1070
     1
1070
    78
1070
     8
1070
   140
1040
36.0
1070
   141
1040
2.5
1070
   143
1040
0.03937007874016
1070
   147
1040
10.0
1070
   171
1070
     3
1070
   172
1070
     1
1070
   271
1070
     0
1070
   272
1070
     2
1070
   274
1070
     3
1070
   278
1070
    44
1070
   283
1070
     0
1070
   284
1070
     8
1070
   289
1070
     0
1002
}
  0
DIMENSION
  5
681
330
1F
100
AcDbEntity
  8
0
370
    25
100
AcDbDimension
  2
*D6
 10
868.4630120889392
 20
475.8044433593749
 30
0.0
 11
840.4630120889392
 21
562.554443359375
 31
0.0
 70
    32
 71
     5
 41
2.5
 42
173.5000000000001
  3
Standard
100
AcDbAlignedDimension
 13
804.03662109375
 23
649.304443359375
 33
0.0
 14
447.7120056152344
 24
475.804443359375
 34
0.0
 50
90.0
100
AcDbRotatedDimension
1001
ACAD
1000
DSTYLE
1002
{
1070
    41
1040
10.0
1070
    42
1040
0.625
1070
    43
1040
3.75
1070
    44
1040
1.25
1070
    73
1070
     0
1070
    74
1070
     0
1070
    77
1070
     1
1070
    78
1070
     8
1070
   140
1040
36.0
1070
   141
1040
2.5
1070
   143
1040
0.03937007874016
1070
   147
1040
10.0
1070
   171
1070
     3
1070
   172
1070
     1
1070
   271
1070
     0
1070
   272
1070
     2
1070
   274
1070
     3
1070
   278
1070
    44
1070
   283
1070
     0
1070
   284
1070
     8
1070
   289
1070
     0
1002
}
  0
DIMENSION
  5
6B2
330
1F
100
AcDbEntity
  8
0
370
    25
100
AcDbDimension
  2
*D11
 10
868.4630120889392
 20
222.3669586181641
 30
0.0
 11
840.4630120889392
 21
309.366943359375
 31
0.0
 70
   160
 71
     5
 41
2.5
 42
36.99998474121094
  3
Standard
100
AcDbAlignedDimension
 13
447.7120056152344
 23
259.366943359375
 33
0.0
 14
447.7120056152344
 24
222.3669586181641
 34
0.0
 50
90.0
100
AcDbRotatedDimension
1001
ACAD
1000
DSTYLE
1002
{
1070
    41
1040
10.0
1070
    42
1040
0.625
1070
    43
1040
3.75
1070
    44
1040
1.25
1070
    73
1070
     0
1070
    74
1070
     0
1070
    77
1070
     1
1070
    78
1070
     8
1070
   140
1040
36.0
1070
   141
1040
2.5
1070
   143
1040
0.03937007874016
1070
   147
1040
10.0
1070
   171
1070
     3
1070
   172
1070
     1
1070
   271
1070
     0
1070
   272
1070
     2
1070
   274
1070
     3
1070
   278
1070
    44
1070
   283
1070
     0
1070
   284
1070
     8
1070
   289
1070
     0
1002
}
  0
VIEWPORT
  5
627
330
73
100
AcDbEntity
 67
     1
  8
0
 62
     0
370
     0
390
F
100
AcDbViewport
 10
0.0
 20
0.0
 30
0.0
 40
1000.0
 41
1000.0
 68
     1
 69
     1
 12
0.0
 22
0.0
 13
0.0
 23
0.0
 14
1.0
 24
1.0
 15
1.0
 25
1.0
 16
0.0
 26
0.0
 36
1.0
 17
0.0
 27
0.0
 37
0.0
 42
50.0
 43
0.0
 44
0.0
 45
1000.0
 50
0.0
 51
0.0
 72
   100
 90
   557056
  1

281
     0
 71
     0
 74
     0
110
0.0
120
0.0
130
0.0
111
1.0
121
0.0
131
0.0
112
0.0
122
1.0
132
0.0
 79
     0
146
0.0
170
     0
  0
ENDSEC
  0
SECTION
  2
OBJECTS
  0
DICTIONARY
  5
C
330
0
100
AcDbDictionary
281
     1
  3
ACAD_COLOR
350
6C
  3
ACAD_GROUP
350
D
  3
ACAD_LAYOUT
350
1A
  3
ACAD_MATERIAL
350
6B
  3
ACAD_MLEADERSTYLE
350
650
  3
ACAD_MLINESTYLE
350
17
  3
ACAD_PLOTSETTINGS
350
19
  3
ACAD_PLOTSTYLENAME
350
E
  3
ACAD_SCALELIST
350
99
  3
ACAD_TABLESTYLE
350
92
  3
ACAD_WIPEOUT_VARS
350
6E4
  3
AcDbVariableDictionary
350
59
  0
DICTIONARY
  5
6C
102
{ACAD_REACTORS
330
C
102
}
330
C
100
AcDbDictionary
281
     1
  0
DICTIONARY
  5
D
102
{ACAD_REACTORS
330
C
102
}
330
C
100
AcDbDictionary
281
     1
  0
DICTIONARY
  5
1A
102
{ACAD_REACTORS
330
C
102
}
330
C
100
AcDbDictionary
281
     1
  3
Layout1
350
74
  3
Model
350
22
  0
DICTIONARY
  5
6B
102
{ACAD_REACTORS
330
C
102
}
330
C
100
AcDbDictionary
281
     1
  0
DICTIONARY
  5
650
102
{ACAD_REACTORS
330
C
102
}
330
C
100
AcDbDictionary
281
     1
  0
DICTIONARY
  5
17
102
{ACAD_REACTORS
330
C
102
}
330
C
100
AcDbDictionary
281
     1
  3
Standard
350
18
  0
DICTIONARY
  5
19
102
{ACAD_REACTORS
330
C
102
}
330
C
100
AcDbDictionary
281
     1
  0
ACDBDICTIONARYWDFLT
  5
E
102
{ACAD_REACTORS
330
C
102
}
330
C
100
AcDbDictionary
281
     1
  3
Normal
350
F
100
AcDbDictionaryWithDefault
340
F
  0
DICTIONARY
  5
99
102
{ACAD_REACTORS
330
C
102
}
330
C
100
AcDbDictionary
281
     1
  3
A0
350
62B
  3
A1
350
62C
  3
A2
350
62D
  3
A3
350
62E
  3
A4
350
62F
  3
A5
350
630
  3
A6
350
631
  3
A7
350
632
  3
A8
350
633
  3
A9
350
634
  3
B0
350
635
  3
B1
350
636
  3
B2
350
637
  3
B3
350
638
  3
B4
350
639
  3
B5
350
63A
  3
B6
350
63B
  3
B7
350
63C
  3
B8
350
63D
  3
B9
350
63E
  3
C0
350
63F
  3
C1
350
640
  3
C2
350
641
  3
C3
350
642
  3
C4
350
643
  3
C5
350
644
  3
C6
350
645
  3
C7
350
646
  3
C8
350
647
  3
C9
350
648
  3
D0
350
649
  3
D1
350
64A
  3
D2
350
64B
  0
DICTIONARY
  5
92
102
{ACAD_REACTORS
330
C
102
}
330
C
100
AcDbDictionary
281
     1
  3
Standard
350
93
  0
WIPEOUTVARIABLES
  5
6E4
102
{ACAD_REACTORS
330
C
102
}
330
C
100
AcDbWipeoutVariables
 70
     1
  0
DICTIONARY
  5
59
102
{ACAD_REACTORS
330
C
102
}
330
C
100
AcDbDictionary
281
     1
  3
CANNOSCALE
350
64D
  3
CTABLESTYLE
350
98
  3
DIMASSOC
350
5A
  3
HIDETEXT
350
5E
  3
LIGHTINGUNITS
350
64E
  0
LAYOUT
  5
74
102
{ACAD_REACTORS
330
1A
102
}
330
1A
100
AcDbPlotSettings
  1

  2
none_device
  4
none_user_media
  6

 40
0.0
 41
0.0
 42
0.0
 43
0.0
 44
0.0
 45
0.0
 46
0.0
 47
0.0
 48
0.0
 49
0.0
140
0.0
141
0.0
142
1.0
143
1.0
 70
   544
 72
     0
 73
     0
 74
     0
  7

 75
    16
 76
     0
 77
     2
 78
   300
147
1.0
148
0.0
149
0.0
100
AcDbLayout
  1
Layout1
 70
     1
 71
     0
 10
0.0
 20
0.0
 11
420.0
 21
297.0
 12
0.0
 22
0.0
 32
0.0
 14
0.0
 24
0.0
 34
0.0
 15
872.339599609375
 25
729.775146484375
 35
2.0
146
0.0
 13
0.0
 23
0.0
 33
0.0
 16
1.0
 26
0.0
 36
0.0
 17
0.0
 27
1.0
 37
0.0
 76
     0
330
73
331
627
  0
LAYOUT
  5
22
102
{ACAD_REACTORS
330
1A
102
}
330
1A
100
AcDbPlotSettings
  1

  2
none_device
  4
none_user_media
  6

 40
6.349999904632568
 41
6.349999904632568
 42
6.350006103515625
 43
6.350006103515625
 44
215.8999938964844
 45
279.3999938964844
 46
0.0
 47
0.0
 48
0.0
 49
0.0
140
0.0
141
0.0
142
1.0
143
1.0
 70
 11936
 72
     0
 73
     0
 74
     0
  7

 75
     0
 76
     0
 77
     2
 78
   300
147
0.1642526529749531
148
0.0
149
0.0
100
AcDbLayout
  1
Model
 70
     1
 71
     1
 10
0.0
 20
0.0
 11
420.0
 21
297.0
 12
0.0
 22
0.0
 32
0.0
 14
89.28741455078125
 24
54.97865181268998
 34
0.0
 15
872.339599609375
 25
729.775146484375
 35
0.0
146
0.0
 13
0.0
 23
0.0
 33
0.0
 16
1.0
 26
0.0
 36
0.0
 17
0.0
 27
1.0
 37
0.0
 76
     0
330
1F
331
97
  0
MLINESTYLE
  5
18
102
{ACAD_REACTORS
330
17
102
}
330
17
100
AcDbMlineStyle
  2
Standard
 70
     0
  3

 62
     0
 51
90.0
 52
90.0
 71
     2
 49
0.5
 62
   256
  6
BYLAYER
 49
-0.5
 62
   256
  6
BYLAYER
  0
ACDBPLACEHOLDER
  5
F
102
{ACAD_REACTORS
330
E
102
}
330
E
  0
SCALE
  5
62B
102
{ACAD_REACTORS
330
99
102
}
330
99
100
AcDbScale
 70
     0
300
1:1
140
1.0
141
1.0
290
     1
  0
SCALE
  5
62C
102
{ACAD_REACTORS
330
99
102
}
330
99
100
AcDbScale
 70
     0
300
1:2
140
1.0
141
2.0
290
     0
  0
SCALE
  5
62D
102
{ACAD_REACTORS
330
99
102
}
330
99
100
AcDbScale
 70
     0
300
1:4
140
1.0
141
4.0
290
     0
  0
SCALE
  5
62E
102
{ACAD_REACTORS
330
99
102
}
330
99
100
AcDbScale
 70
     0
300
1:5
140
1.0
141
5.0
290
     0
  0
SCALE
  5
62F
102
{ACAD_REACTORS
330
99
102
}
330
99
100
AcDbScale
 70
     0
300
1:8
140
1.0
141
8.0
290
     0
  0
SCALE
  5
630
102
{ACAD_REACTORS
330
99
102
}
330
99
100
AcDbScale
 70
     0
300
1:10
140
1.0
141
10.0
290
     0
  0
SCALE
  5
631
102
{ACAD_REACTORS
330
99
102
}
330
99
100
AcDbScale
 70
     0
300
1:16
140
1.0
141
16.0
290
     0
  0
SCALE
  5
632
102
{ACAD_REACTORS
330
99
102
}
330
99
100
AcDbScale
 70
     0
300
1:20
140
1.0
141
20.0
290
     0
  0
SCALE
  5
633
102
{ACAD_REACTORS
330
99
102
}
330
99
100
AcDbScale
 70
     0
300
1:30
140
1.0
141
30.0
290
     0
  0
SCALE
  5
634
102
{ACAD_REACTORS
330
99
102
}
330
99
100
AcDbScale
 70
     0
300
1:40
140
1.0
141
40.0
290
     0
  0
SCALE
  5
635
102
{ACAD_REACTORS
330
99
102
}
330
99
100
AcDbScale
 70
     0
300
1:50
140
1.0
141
50.0
290
     0
  0
SCALE
  5
636
102
{ACAD_REACTORS
330
99
102
}
330
99
100
AcDbScale
 70
     0
300
1:100
140
1.0
141
100.0
290
     0
  0
SCALE
  5
637
102
{ACAD_REACTORS
330
99
102
}
330
99
100
AcDbScale
 70
     0
300
2:1
140
2.0
141
1.0
290
     0
  0
SCALE
  5
638
102
{ACAD_REACTORS
330
99
102
}
330
99
100
AcDbScale
 70
     0
300
4:1
140
4.0
141
1.0
290
     0
  0
SCALE
  5
639
102
{ACAD_REACTORS
330
99
102
}
330
99
100
AcDbScale
 70
     0
300
8:1
140
8.0
141
1.0
290
     0
  0
SCALE
  5
63A
102
{ACAD_REACTORS
330
99
102
}
330
99
100
AcDbScale
 70
     0
300
10:1
140
10.0
141
1.0
290
     0
  0
SCALE
  5
63B
102
{ACAD_REACTORS
330
99
102
}
330
99
100
AcDbScale
 70
     0
300
100:1
140
100.0
141
1.0
290
     0
  0
SCALE
  5
63C
102
{ACAD_REACTORS
330
99
102
}
330
99
100
AcDbScale
 70
     0
300
1/128" = 1'-0"
140
0.0078125
141
12.0
290
     0
  0
SCALE
  5
63D
102
{ACAD_REACTORS
330
99
102
}
330
99
100
AcDbScale
 70
     0
300
1/64" = 1'-0"
140
0.015625
141
12.0
290
     0
  0
SCALE
  5
63E
102
{ACAD_REACTORS
330
99
102
}
330
99
100
AcDbScale
 70
     0
300
1/32" = 1'-0"
140
0.03125
141
12.0
290
     0
  0
SCALE
  5
63F
102
{ACAD_REACTORS
330
99
102
}
330
99
100
AcDbScale
 70
     0
300
1/16" = 1'-0"
140
0.0625
141
12.0
290
     0
  0
SCALE
  5
640
102
{ACAD_REACTORS
330
99
102
}
330
99
100
AcDbScale
 70
     0
300
3/32" = 1'-0"
140
0.09375
141
12.0
290
     0
  0
SCALE
  5
641
102
{ACAD_REACTORS
330
99
102
}
330
99
100
AcDbScale
 70
     0
300
1/8" = 1'-0"
140
0.125
141
12.0
290
     0
  0
SCALE
  5
642
102
{ACAD_REACTORS
330
99
102
}
330
99
100
AcDbScale
 70
     0
300
3/16" = 1'-0"
140
0.1875
141
12.0
290
     0
  0
SCALE
  5
643
102
{ACAD_REACTORS
330
99
102
}
330
99
100
AcDbScale
 70
     0
300
1/4" = 1'-0"
140
0.25
141
12.0
290
     0
  0
SCALE
  5
644
102
{ACAD_REACTORS
330
99
102
}
330
99
100
AcDbScale
 70
     0
300
3/8" = 1'-0"
140
0.375
141
12.0
290
     0
  0
SCALE
  5
645
102
{ACAD_REACTORS
330
99
102
}
330
99
100
AcDbScale
 70
     0
300
1/2" = 1'-0"
140
0.5
141
12.0
290
     0
  0
SCALE
  5
646
102
{ACAD_REACTORS
330
99
102
}
330
99
100
AcDbScale
 70
     0
300
3/4" = 1'-0"
140
0.75
141
12.0
290
     0
  0
SCALE
  5
647
102
{ACAD_REACTORS
330
99
102
}
330
99
100
AcDbScale
 70
     0
300
1" = 1'-0"
140
1.0
141
12.0
290
     0
  0
SCALE
  5
648
102
{ACAD_REACTORS
330
99
102
}
330
99
100
AcDbScale
 70
     0
300
1-1/2" = 1'-0"
140
1.5
141
12.0
290
     0
  0
SCALE
  5
649
102
{ACAD_REACTORS
330
99
102
}
330
99
100
AcDbScale
 70
     0
300
3" = 1'-0"
140
3.0
141
12.0
290
     0
  0
SCALE
  5
64A
102
{ACAD_REACTORS
330
99
102
}
330
99
100
AcDbScale
 70
     0
300
6" = 1'-0"
140
6.0
141
12.0
290
     0
  0
SCALE
  5
64B
102
{ACAD_REACTORS
330
99
102
}
330
99
100
AcDbScale
 70
     0
300
1'-0" = 1'-0"
140
12.0
141
12.0
290
     0
  0
TABLESTYLE
  5
93
102
{ACAD_REACTORS
330
92
102
}
102
{ACAD_XDICTIONARY
360
6FD
102
}
330
92
100
AcDbTableStyle
  3
Standard
 70
     0
 71
     0
 40
0.06
 41
0.06
280
     0
281
     0
  7
Standard
140
0.18
170
     2
 62
     0
 63
     7
283
     0
274
    -2
284
     1
 64
     0
275
    -2
285
     1
 65
     0
276
    -2
286
     1
 66
     0
277
    -2
287
     1
 67
     0
278
    -2
288
     1
 68
     0
279
    -2
289
     1
 69
     0
  7
Standard
140
0.25
170
     5
 62
     0
 63
     7
283
     0
274
    -2
284
     1
 64
     0
275
    -2
285
     1
 65
     0
276
    -2
286
     1
 66
     0
277
    -2
287
     1
 67
     0
278
    -2
288
     1
 68
     0
279
    -2
289
     1
 69
     0
  7
Standard
140
0.18
170
     5
 62
     0
 63
     7
283
     0
274
    -2
284
     1
 64
     0
275
    -2
285
     1
 65
     0
276
    -2
286
     1
 66
     0
277
    -2
287
     1
 67
     0
278
    -2
288
     1
 68
     0
279
    -2
289
     1
 69
     0
  0
DICTIONARYVAR
  5
64D
102
{ACAD_REACTORS
330
59
102
}
330
59
100
DictionaryVariables
280
     0
  1

  0
DICTIONARYVAR
  5
98
102
{ACAD_REACTORS
330
59
102
}
330
59
100
DictionaryVariables
280
     0
  1
Standard
  0
DICTIONARYVAR
  5
5A
102
{ACAD_REACTORS
330
59
102
}
330
59
100
DictionaryVariables
280
     0
  1
2
  0
DICTIONARYVAR
  5
5E
102
{ACAD_REACTORS
330
59
102
}
330
59
100
DictionaryVariables
280
     0
  1
1
  0
DICTIONARYVAR
  5
64E
102
{ACAD_REACTORS
330
59
102
}
330
59
100
DictionaryVariables
280
     0
  1
0
  0
DICTIONARY
  5
6FD
330
93
100
AcDbDictionary
280
     1
281
     1
  3
ACAD_XREC_ROUNDTRIP
360
6FE
  0
XRECORD
  5
6FE
102
{ACAD_REACTORS
330
6FD
102
}
330
6FD
100
AcDbXrecord
280
     1
102
ACAD_ROUNDTRIP_PRE2007_TABLESTYLE
 90
      512
 91
        0
  1

 92
      512
 93
        0
  2

 94
      512
 95
        0
  3

  0
ENDSEC
  0
EOF
