  0
SECTION
  2
HEADER
  9
$ACADVER
  1
AC1018
  9
$ACADMAINTVER
 70
     0
  9
$DWGCODEPAGE
  3
ANSI_1252
  9
$LASTSAVEDBY
  1
BelottiMc
  9
$INSBASE
 10
0.0
 20
0.0
 30
0.0
  9
$EXTMIN
 10
176.2952270507812
 20
193.7137298583984
 30
0.0
  9
$EXTMAX
 10
989.5662036132109
 20
671.7553100585938
 30
0.0
  9
$LIMMIN
 10
0.0
 20
0.0
  9
$LIMMAX
 10
420.0
 20
297.0
  9
$ORTHOMODE
 70
     0
  9
$REGENMODE
 70
     1
  9
$FILLMODE
 70
     1
  9
$QTEXTMODE
 70
     0
  9
$MIRRTEXT
 70
     1
  9
$LTSCALE
 40
1.0
  9
$ATTMODE
 70
     1
  9
$TEXTSIZE
 40
2.5
  9
$TRACEWID
 40
1.0
  9
$TEXTSTYLE
  7
Standard
  9
$CLAYER
  8
0
  9
$CELTYPE
  6
ByLayer
  9
$CECOLOR
 62
   256
  9
$CELTSCALE
 40
1.0
  9
$DISPSILH
 70
     0
  9
$DIMSCALE
 40
1.0
  9
$DIMASZ
 40
2.5
  9
$DIMEXO
 40
0.625
  9
$DIMDLI
 40
3.75
  9
$DIMRND
 40
0.0
  9
$DIMDLE
 40
0.0
  9
$DIMEXE
 40
1.25
  9
$DIMTP
 40
0.0
  9
$DIMTM
 40
0.0
  9
$DIMTXT
 40
2.5
  9
$DIMCEN
 40
2.5
  9
$DIMTSZ
 40
0.0
  9
$DIMTOL
 70
     0
  9
$DIMLIM
 70
     0
  9
$DIMTIH
 70
     0
  9
$DIMTOH
 70
     0
  9
$DIMSE1
 70
     0
  9
$DIMSE2
 70
     0
  9
$DIMTAD
 70
     1
  9
$DIMZIN
 70
     8
  9
$DIMBLK
  1

  9
$DIMASO
 70
     1
  9
$DIMSHO
 70
     1
  9
$DIMPOST
  1

  9
$DIMAPOST
  1

  9
$DIMALT
 70
     0
  9
$DIMALTD
 70
     3
  9
$DIMALTF
 40
0.03937007874016
  9
$DIMLFAC
 40
1.0
  9
$DIMTOFL
 70
     1
  9
$DIMTVP
 40
0.0
  9
$DIMTIX
 70
     0
  9
$DIMSOXD
 70
     0
  9
$DIMSAH
 70
     0
  9
$DIMBLK1
  1

  9
$DIMBLK2
  1

  9
$DIMSTYLE
  2
Standard
  9
$DIMCLRD
 70
     0
  9
$DIMCLRE
 70
     0
  9
$DIMCLRT
 70
     0
  9
$DIMTFAC
 40
1.0
  9
$DIMGAP
 40
0.625
  9
$DIMJUST
 70
     0
  9
$DIMSD1
 70
     0
  9
$DIMSD2
 70
     0
  9
$DIMTOLJ
 70
     0
  9
$DIMTZIN
 70
     8
  9
$DIMALTZ
 70
     0
  9
$DIMALTTZ
 70
     0
  9
$DIMUPT
 70
     0
  9
$DIMDEC
 70
     2
  9
$DIMTDEC
 70
     2
  9
$DIMALTU
 70
     2
  9
$DIMALTTD
 70
     3
  9
$DIMTXSTY
  7
Standard
  9
$DIMAUNIT
 70
     0
  9
$DIMADEC
 70
     0
  9
$DIMALTRND
 40
0.0
  9
$DIMAZIN
 70
     0
  9
$DIMDSEP
 70
    44
  9
$DIMATFIT
 70
     0
  9
$DIMFRAC
 70
     0
  9
$DIMLDRBLK
  1

  9
$DIMLUNIT
 70
     2
  9
$DIMLWD
 70
    -2
  9
$DIMLWE
 70
    -2
  9
$DIMTMOVE
 70
     0
  9
$LUNITS
 70
     2
  9
$LUPREC
 70
     4
  9
$SKETCHINC
 40
1.0
  9
$FILLETRAD
 40
2.5
  9
$AUNITS
 70
     0
  9
$AUPREC
 70
     0
  9
$MENU
  1
.
  9
$ELEVATION
 40
0.0
  9
$PELEVATION
 40
0.0
  9
$THICKNESS
 40
0.0
  9
$LIMCHECK
 70
     0
  9
$CHAMFERA
 40
2.5
  9
$CHAMFERB
 40
2.5
  9
$CHAMFERC
 40
0.0
  9
$CHAMFERD
 40
0.0
  9
$SKPOLY
 70
     0
  9
$TDCREATE
 40
2447893.041666644
  9
$TDUCREATE
 40
2447892.999999977
  9
$TDUPDATE
 40
2447893.041666667
  9
$TDUUPDATE
 40
2447893.0
  9
$TDINDWG
 40
0.0038078588
  9
$TDUSRTIMER
 40
0.0038078588
  9
$USRTIMER
 70
     1
  9
$ANGBASE
 50
0.0
  9
$ANGDIR
 70
     0
  9
$PDMODE
 70
     0
  9
$PDSIZE
 40
0.0
  9
$PLINEWID
 40
0.0
  9
$SPLFRAME
 70
     0
  9
$SPLINETYPE
 70
     6
  9
$SPLINESEGS
 70
     8
  9
$HANDSEED
  5
68E
  9
$SURFTAB1
 70
     6
  9
$SURFTAB2
 70
     6
  9
$SURFTYPE
 70
     6
  9
$SURFU
 70
     6
  9
$SURFV
 70
     6
  9
$UCSBASE
  2

  9
$UCSNAME
  2

  9
$UCSORG
 10
0.0
 20
0.0
 30
0.0
  9
$UCSXDIR
 10
1.0
 20
0.0
 30
0.0
  9
$UCSYDIR
 10
0.0
 20
1.0
 30
0.0
  9
$UCSORTHOREF
  2

  9
$UCSORTHOVIEW
 70
     0
  9
$UCSORGTOP
 10
0.0
 20
0.0
 30
0.0
  9
$UCSORGBOTTOM
 10
0.0
 20
0.0
 30
0.0
  9
$UCSORGLEFT
 10
0.0
 20
0.0
 30
0.0
  9
$UCSORGRIGHT
 10
0.0
 20
0.0
 30
0.0
  9
$UCSORGFRONT
 10
0.0
 20
0.0
 30
0.0
  9
$UCSORGBACK
 10
0.0
 20
0.0
 30
0.0
  9
$PUCSBASE
  2

  9
$PUCSNAME
  2

  9
$PUCSORG
 10
0.0
 20
0.0
 30
0.0
  9
$PUCSXDIR
 10
1.0
 20
0.0
 30
0.0
  9
$PUCSYDIR
 10
0.0
 20
1.0
 30
0.0
  9
$PUCSORTHOREF
  2

  9
$PUCSORTHOVIEW
 70
     0
  9
$PUCSORGTOP
 10
0.0
 20
0.0
 30
0.0
  9
$PUCSORGBOTTOM
 10
0.0
 20
0.0
 30
0.0
  9
$PUCSORGLEFT
 10
0.0
 20
0.0
 30
0.0
  9
$PUCSORGRIGHT
 10
0.0
 20
0.0
 30
0.0
  9
$PUCSORGFRONT
 10
0.0
 20
0.0
 30
0.0
  9
$PUCSORGBACK
 10
0.0
 20
0.0
 30
0.0
  9
$USERI1
 70
     0
  9
$USERI2
 70
     0
  9
$USERI3
 70
     0
  9
$USERI4
 70
     0
  9
$USERI5
 70
     0
  9
$USERR1
 40
0.0
  9
$USERR2
 40
0.0
  9
$USERR3
 40
0.0
  9
$USERR4
 40
0.0
  9
$USERR5
 40
0.0
  9
$WORLDVIEW
 70
     1
  9
$SHADEDGE
 70
     3
  9
$SHADEDIF
 70
    70
  9
$TILEMODE
 70
     1
  9
$MAXACTVP
 70
    48
  9
$PINSBASE
 10
0.0
 20
0.0
 30
0.0
  9
$PLIMCHECK
 70
     0
  9
$PEXTMIN
 10
0.0
 20
0.0
 30
0.0
  9
$PEXTMAX
 10
950.2990112304688
 20
671.809326171875
 30
2.0
  9
$PLIMMIN
 10
0.0
 20
0.0
  9
$PLIMMAX
 10
420.0
 20
297.0
  9
$UNITMODE
 70
     0
  9
$VISRETAIN
 70
     0
  9
$PLINEGEN
 70
     0
  9
$PSLTSCALE
 70
     1
  9
$TREEDEPTH
 70
  3020
  9
$CMLSTYLE
  2
Standard
  9
$CMLJUST
 70
     0
  9
$CMLSCALE
 40
20.0
  9
$PROXYGRAPHICS
 70
     1
  9
$MEASUREMENT
 70
     1
  9
$CELWEIGHT
370
    25
  9
$ENDCAPS
280
     0
  9
$JOINSTYLE
280
     0
  9
$LWDISPLAY
290
     0
  9
$INSUNITS
 70
     0
  9
$HYPERLINKBASE
  1

  9
$STYLESHEET
  1

  9
$XEDIT
290
     1
  9
$CEPSNTYPE
380
     0
  9
$PSTYLEMODE
290
     0
  9
$FINGERPRINTGUID
  2

  9
$VERSIONGUID
  2

  9
$EXTNAMES
290
     1
  9
$PSVPSCALE
 40
0.0
  9
$OLESTARTUP
290
     0
  9
$SORTENTS
280
   127
  9
$INDEXCTL
280
     0
  9
$HIDETEXT
280
     1
  9
$XCLIPFRAME
290
     0
  9
$HALOGAP
280
     0
  9
$OBSCOLOR
 70
   257
  9
$OBSLTYPE
280
     0
  9
$INTERSECTIONDISPLAY
280
     0
  9
$INTERSECTIONCOLOR
 70
   257
  9
$DIMASSOC
280
     2
  9
$PROJECTNAME
  1

  0
ENDSEC
  0
SECTION
  2
CLASSES
  0
CLASS
  1
ACDBDICTIONARYWDFLT
  2
AcDbDictionaryWithDefault
  3
ObjectDBX Classes
 90
        0
 91
        4
280
     0
281
     0
  0
CLASS
  1
ACDBPLACEHOLDER
  2
AcDbPlaceHolder
  3
ObjectDBX Classes
 90
        0
 91
        1
280
     0
281
     0
  0
CLASS
  1
LAYOUT
  2
AcDbLayout
  3
ObjectDBX Classes
 90
        0
 91
        1
280
     0
281
     0
  0
CLASS
  1
DICTIONARYVAR
  2
AcDbDictionaryVar
  3
ObjectDBX Classes
 90
        0
 91
        4
280
     0
281
     0
  0
CLASS
  1
TABLESTYLE
  2
AcDbTableStyle
  3
ObjectDBX Classes
 90
     4095
 91
        5
280
     0
281
     0
  0
CLASS
  1
SCALE
  2
AcDbScale
  3
ObjectDBX Classes
 90
     1153
 91
       70
280
     0
281
     0
  0
CLASS
  1
WIPEOUTVARIABLES
  2
AcDbWipeoutVariables
  3
WipeOut|AutoCAD Express Tool|expresstools@autodesk.com
 90
        0
 91
        4
280
     0
281
     0
  0
ENDSEC
  0
SECTION
  2
TABLES
  0
TABLE
  2
VPORT
  5
8
330
0
100
AcDbSymbolTable
 70
     2
  0
VPORT
  5
97
330
8
100
AcDbSymbolTableRecord
100
AcDbViewportTableRecord
  2
*ACTIVE
 70
     0
 10
0.0
 20
0.0
 11
1.0
 21
1.0
 12
587.1633094861003
 22
431.0473674830604
 13
0.0
 23
0.0
 14
1.0
 24
1.0
 15
0.5
 25
0.5
 16
0.0
 26
0.0
 36
1.0
 17
0.0
 27
0.0
 37
0.0
 40
910.491877040173
 41
0.688564
 42
50.0
 43
0.0
 44
0.0
 50
0.0
 51
0.0
 71
     0
 72
   100
 73
     1
 74
     1
 75
     0
 76
     0
 77
     0
 78
     0
281
     0
 65
     1
110
0.0
120
0.0
130
0.0
111
1.0
121
0.0
131
0.0
112
0.0
122
1.0
132
0.0
 79
     0
146
0.0
  0
ENDTAB
  0
TABLE
  2
LTYPE
  5
5
330
0
100
AcDbSymbolTable
 70
     2
  0
LTYPE
  5
14
330
5
100
AcDbSymbolTableRecord
100
AcDbLinetypeTableRecord
  2
ByBlock
 70
     0
  3

 72
    65
 73
     0
 40
0.0
  0
LTYPE
  5
15
330
5
100
AcDbSymbolTableRecord
100
AcDbLinetypeTableRecord
  2
ByLayer
 70
     0
  3

 72
    65
 73
     0
 40
0.0
  0
LTYPE
  5
16
330
5
100
AcDbSymbolTableRecord
100
AcDbLinetypeTableRecord
  2
Continuous
 70
     0
  3
Solid line
 72
    65
 73
     0
 40
0.0
  0
LTYPE
  5
67C
330
5
100
AcDbSymbolTableRecord
100
AcDbLinetypeTableRecord
  2
DASHDOT
 70
     0
  3
 __ . __ . __ . __ . __ . __ . __ . 
 72
    65
 73
     4
 40
18.5
 49
12.0
 74
     0
 49
-3.0
 74
     0
 49
0.5
 74
     0
 49
-3.0
 74
     0
  0
ENDTAB
  0
TABLE
  2
LAYER
  5
2
330
0
100
AcDbSymbolTable
 70
     2
  0
LAYER
  5
10
330
2
100
AcDbSymbolTableRecord
100
AcDbLayerTableRecord
  2
0
 70
     0
 62
     7
  6
Continuous
370
    -3
390
F
  0
LAYER
  5
625
330
2
100
AcDbSymbolTableRecord
100
AcDbLayerTableRecord
  2
DEFPOINTS
 70
     0
 62
     7
  6
Continuous
290
     0
370
    -3
390
F
  0
ENDTAB
  0
TABLE
  2
STYLE
  5
3
330
0
100
AcDbSymbolTable
 70
     1
  0
STYLE
  5
11
330
3
100
AcDbSymbolTableRecord
100
AcDbTextStyleTableRecord
  2
Standard
 70
     0
 40
0.0
 41
1.0
 50
0.0
 71
     0
 42
2.5
  3
txt
  4

  0
ENDTAB
  0
TABLE
  2
VIEW
  5
6
330
0
100
AcDbSymbolTable
 70
     0
  0
ENDTAB
  0
TABLE
  2
UCS
  5
7
330
0
100
AcDbSymbolTable
 70
     0
  0
ENDTAB
  0
TABLE
  2
APPID
  5
9
330
0
100
AcDbSymbolTable
 70
     1
  0
APPID
  5
12
330
9
100
AcDbSymbolTableRecord
100
AcDbRegAppTableRecord
  2
ACAD
 70
     0
  0
ENDTAB
  0
TABLE
  2
DIMSTYLE
  5
A
330
0
100
AcDbSymbolTable
 70
     1
100
AcDbDimStyleTable
  0
DIMSTYLE
105
27
102
{ACAD_REACTORS
330
626
330
63D
330
657
102
}
330
A
100
AcDbSymbolTableRecord
100
AcDbDimStyleTableRecord
  2
Standard
 70
     0
340
11
  0
ENDTAB
  0
TABLE
  2
BLOCK_RECORD
  5
1
330
0
100
AcDbSymbolTable
 70
     7
  0
BLOCK_RECORD
  5
1F
330
1
100
AcDbSymbolTableRecord
100
AcDbBlockTableRecord
  2
*Model_Space
340
22
  0
BLOCK_RECORD
  5
73
330
1
100
AcDbSymbolTableRecord
100
AcDbBlockTableRecord
  2
*Paper_Space
340
74
  0
BLOCK_RECORD
  5
631
330
1
100
AcDbSymbolTableRecord
100
AcDbBlockTableRecord
  2
*D0
340
0
  0
BLOCK_RECORD
  5
63C
330
1
100
AcDbSymbolTableRecord
100
AcDbBlockTableRecord
  2
*D1
340
0
  0
BLOCK_RECORD
  5
648
330
1
100
AcDbSymbolTableRecord
100
AcDbBlockTableRecord
  2
*D2
340
0
  0
BLOCK_RECORD
  5
655
330
1
100
AcDbSymbolTableRecord
100
AcDbBlockTableRecord
  2
*D3
340
0
  0
BLOCK_RECORD
  5
662
330
1
100
AcDbSymbolTableRecord
100
AcDbBlockTableRecord
  2
*D4
340
0
  0
BLOCK_RECORD
  5
66E
330
1
100
AcDbSymbolTableRecord
100
AcDbBlockTableRecord
  2
*D5
340
0
  0
BLOCK_RECORD
  5
67A
330
1
100
AcDbSymbolTableRecord
100
AcDbBlockTableRecord
  2
*D6
340
0
  0
ENDTAB
  0
ENDSEC
  0
SECTION
  2
BLOCKS
  0
BLOCK
  5
20
330
1F
100
AcDbEntity
  8
0
100
AcDbBlockBegin
  2
*Model_Space
 70
     0
 10
0.0
 20
0.0
 30
0.0
  3
*Model_Space
  1

  0
ENDBLK
  5
21
330
1F
100
AcDbEntity
  8
0
100
AcDbBlockEnd
  0
BLOCK
  5
75
330
73
100
AcDbEntity
 67
     1
  8
0
100
AcDbBlockBegin
  2
*Paper_Space
 70
     0
 10
0.0
 20
0.0
 30
0.0
  3
*Paper_Space
  1

  0
ENDBLK
  5
76
330
73
100
AcDbEntity
 67
     1
  8
0
100
AcDbBlockEnd
  0
BLOCK
  5
67E
330
631
100
AcDbEntity
  8
0
100
AcDbBlockBegin
  2
*D0
 70
     1
 10
0.0
 20
0.0
 30
0.0
  3
*D0
  1

  0
POINT
  5
628
330
631
100
AcDbEntity
  8
DEFPOINTS
  6
ByBlock
 62
     0
380
     1
100
AcDbPoint
 10
176.6457672119141
 20
582.9699904437202
 30
0.0
  0
POINT
  5
629
330
631
100
AcDbEntity
  8
DEFPOINTS
  6
ByBlock
 62
     0
380
     1
100
AcDbPoint
 10
921.48974609375
 20
563.9419819369133
 30
0.0
  0
LINE
  5
62A
330
631
100
AcDbEntity
  8
0
  6
ByBlock
 62
     0
370
    -2
380
     1
100
AcDbLine
 10
176.6457672119141
 20
583.5949904437202
 30
0.0
 11
176.6457672119141
 21
660.0595635613806
 31
0.0
  0
LINE
  5
62B
330
631
100
AcDbEntity
  8
0
  6
ByBlock
 62
     0
370
    -2
380
     1
100
AcDbLine
 10
921.48974609375
 20
564.5669819369133
 30
0.0
 11
921.48974609375
 21
660.0595635613806
 31
0.0
  0
LINE
  5
62C
330
631
100
AcDbEntity
  8
0
  6
ByBlock
 62
     0
370
    -2
380
     1
100
AcDbLine
 10
179.1457672119141
 20
658.8095635613806
 30
0.0
 11
918.98974609375
 21
658.8095635613806
 31
0.0
  0
SOLID
  5
62D
330
631
100
AcDbEntity
  8
0
  6
ByBlock
 62
     0
380
     1
100
AcDbTrace
 10
176.6457672119141
 20
658.8095635613806
 30
0.0
 11
179.1457672119141
 21
658.392896894714
 31
0.0
 12
179.1457672119141
 22
659.2262302280473
 32
0.0
 13
179.1457672119141
 23
659.2262302280473
 33
0.0
  0
SOLID
  5
62E
330
631
100
AcDbEntity
  8
0
  6
ByBlock
 62
     0
380
     1
100
AcDbTrace
 10
921.48974609375
 20
658.8095635613806
 30
0.0
 11
918.98974609375
 21
658.392896894714
 31
0.0
 12
918.98974609375
 22
659.2262302280473
 32
0.0
 13
918.98974609375
 23
659.2262302280473
 33
0.0
  0
MTEXT
  5
62F
330
631
100
AcDbEntity
  8
0
  6
ByBlock
 62
     0
370
    -2
380
     1
100
AcDbMText
 10
549.067756652832
 20
660.8928968947139
 30
0.0
 40
2.5
 41
0.0
 71
     5
 72
     1
  1
\A1;744,84
 73
     1
 44
1.0
  0
ENDBLK
  5
67F
330
631
100
AcDbEntity
  8
0
100
AcDbBlockEnd
  0
BLOCK
  5
680
330
63C
100
AcDbEntity
  8
0
100
AcDbBlockBegin
  2
*D1
 70
     1
 10
0.0
 20
0.0
 30
0.0
  3
*D1
  1

  0
POINT
  5
633
330
63C
100
AcDbEntity
  8
DEFPOINTS
  6
ByBlock
 62
     0
380
     1
100
AcDbPoint
 10
176.6457672119141
 20
582.9699904437202
 30
0.0
  0
POINT
  5
634
330
63C
100
AcDbEntity
  8
DEFPOINTS
  6
ByBlock
 62
     0
380
     1
100
AcDbPoint
 10
921.48974609375
 20
563.9419819369133
 30
0.0
  0
LINE
  5
635
330
63C
100
AcDbEntity
  8
0
  6
ByBlock
 62
     0
370
    -2
380
     1
100
AcDbLine
 10
176.6457672119141
 20
583.5949904437202
 30
0.0
 11
176.6457672119141
 21
660.0595635613806
 31
0.0
  0
LINE
  5
636
330
63C
100
AcDbEntity
  8
0
  6
ByBlock
 62
     0
370
    -2
380
     1
100
AcDbLine
 10
921.48974609375
 20
564.5669819369133
 30
0.0
 11
921.48974609375
 21
660.0595635613806
 31
0.0
  0
LINE
  5
637
330
63C
100
AcDbEntity
  8
0
  6
ByBlock
 62
     0
370
    -2
380
     1
100
AcDbLine
 10
186.6457672119141
 20
658.8095635613806
 30
0.0
 11
911.48974609375
 21
658.8095635613806
 31
0.0
  0
SOLID
  5
638
330
63C
100
AcDbEntity
  8
0
  6
ByBlock
 62
     0
380
     1
100
AcDbTrace
 10
176.6457672119141
 20
658.8095635613806
 30
0.0
 11
186.6457672119141
 21
657.142896894714
 31
0.0
 12
186.6457672119141
 22
660.4762302280473
 32
0.0
 13
186.6457672119141
 23
660.4762302280473
 33
0.0
  0
SOLID
  5
639
330
63C
100
AcDbEntity
  8
0
  6
ByBlock
 62
     0
380
     1
100
AcDbTrace
 10
921.48974609375
 20
658.8095635613806
 30
0.0
 11
911.48974609375
 21
657.142896894714
 31
0.0
 12
911.48974609375
 22
660.4762302280473
 32
0.0
 13
911.48974609375
 23
660.4762302280473
 33
0.0
  0
MTEXT
  5
63A
330
63C
100
AcDbEntity
  8
0
  6
ByBlock
 62
     0
370
    -2
380
     1
100
AcDbMText
 10
549.067756652832
 20
686.8095635613806
 30
0.0
 40
36.0
 41
0.0
 71
     5
 72
     1
  1
\A1;745
 73
     1
 44
1.0
  0
ENDBLK
  5
681
330
63C
100
AcDbEntity
  8
0
100
AcDbBlockEnd
  0
BLOCK
  5
682
330
648
100
AcDbEntity
  8
0
100
AcDbBlockBegin
  2
*D2
 70
     1
 10
0.0
 20
0.0
 30
0.0
  3
*D2
  1

  0
POINT
  5
63F
330
648
100
AcDbEntity
  8
DEFPOINTS
  6
ByBlock
 62
     0
370
    25
380
     1
100
AcDbPoint
 10
919.9830701825803
 20
618.99951171875
 30
0.0
  0
POINT
  5
640
330
648
100
AcDbEntity
  8
DEFPOINTS
  6
ByBlock
 62
     0
370
    25
380
     1
100
AcDbPoint
 10
864.4291025116756
 20
513.8631591796875
 30
0.0
  0
LINE
  5
641
330
648
100
AcDbEntity
  8
0
  6
ByBlock
 62
     0
370
    -2
380
     1
100
AcDbLine
 10
920.6080701825803
 20
618.99951171875
 30
0.0
 11
989.2390575992509
 21
618.99951171875
 31
0.0
  0
LINE
  5
642
330
648
100
AcDbEntity
  8
0
  6
ByBlock
 62
     0
370
    -2
380
     1
100
AcDbLine
 10
865.0541025116756
 20
513.8631591796875
 30
0.0
 11
989.2390575992509
 21
513.8631591796875
 31
0.0
  0
LINE
  5
643
330
648
100
AcDbEntity
  8
0
  6
ByBlock
 62
     0
370
    -2
380
     1
100
AcDbLine
 10
987.9890575992509
 20
616.49951171875
 30
0.0
 11
987.9890575992509
 21
516.3631591796875
 31
0.0
  0
SOLID
  5
644
330
648
100
AcDbEntity
  8
0
  6
ByBlock
 62
     0
370
    25
380
     1
100
AcDbTrace
 10
987.9890575992509
 20
618.99951171875
 30
0.0
 11
987.5723909325843
 21
616.49951171875
 31
0.0
 12
988.4057242659176
 22
616.49951171875
 32
0.0
 13
988.4057242659176
 23
616.49951171875
 33
0.0
  0
SOLID
  5
645
330
648
100
AcDbEntity
  8
0
  6
ByBlock
 62
     0
370
    25
380
     1
100
AcDbTrace
 10
987.9890575992509
 20
513.8631591796875
 30
0.0
 11
987.5723909325843
 21
516.3631591796875
 31
0.0
 12
988.4057242659176
 22
516.3631591796875
 32
0.0
 13
988.4057242659176
 23
516.3631591796875
 33
0.0
  0
MTEXT
  5
646
330
648
100
AcDbEntity
  8
0
  6
ByBlock
 62
     0
370
    -2
380
     1
100
AcDbMText
 10
985.9057242659176
 20
566.4313354492188
 30
0.0
 40
2.5
 41
0.0
 71
     5
 72
     1
  1
\A1;105,14
 11
6.123031769111886E-17
 21
1.0
 31
0.0
 73
     1
 44
1.0
  0
ENDBLK
  5
683
330
648
100
AcDbEntity
  8
0
100
AcDbBlockEnd
  0
BLOCK
  5
684
330
655
100
AcDbEntity
  8
0
100
AcDbBlockBegin
  2
*D3
 70
     1
 10
0.0
 20
0.0
 30
0.0
  3
*D3
  1

  0
POINT
  5
64A
330
655
100
AcDbEntity
  8
DEFPOINTS
  6
ByBlock
 62
     0
370
    25
380
     1
100
AcDbPoint
 10
919.9830701825803
 20
618.99951171875
 30
0.0
  0
POINT
  5
64B
330
655
100
AcDbEntity
  8
DEFPOINTS
  6
ByBlock
 62
     0
370
    25
380
     1
100
AcDbPoint
 10
864.4291025116756
 20
513.8631591796875
 30
0.0
  0
LINE
  5
64C
330
655
100
AcDbEntity
  8
0
  6
ByBlock
 62
     0
370
    -2
380
     1
100
AcDbLine
 10
920.6080701825803
 20
618.99951171875
 30
0.0
 11
989.2390575992509
 21
618.99951171875
 31
0.0
  0
LINE
  5
64D
330
655
100
AcDbEntity
  8
0
  6
ByBlock
 62
     0
370
    -2
380
     1
100
AcDbLine
 10
865.0541025116756
 20
513.8631591796875
 30
0.0
 11
989.2390575992509
 21
513.8631591796875
 31
0.0
  0
LINE
  5
64E
330
655
100
AcDbEntity
  8
0
  6
ByBlock
 62
     0
370
    -2
380
     1
100
AcDbLine
 10
987.9890575992509
 20
628.99951171875
 30
0.0
 11
987.9890575992509
 21
638.99951171875
 31
0.0
  0
LINE
  5
64F
330
655
100
AcDbEntity
  8
0
  6
ByBlock
 62
     0
370
    -2
380
     1
100
AcDbLine
 10
987.9890575992509
 20
503.8631591796875
 30
0.0
 11
987.9890575992509
 21
493.8631591796875
 31
0.0
  0
SOLID
  5
650
330
655
100
AcDbEntity
  8
0
  6
ByBlock
 62
     0
370
    25
380
     1
100
AcDbTrace
 10
987.9890575992509
 20
618.99951171875
 30
0.0
 11
986.3223909325843
 21
628.99951171875
 31
0.0
 12
989.6557242659176
 22
628.99951171875
 32
0.0
 13
989.6557242659176
 23
628.99951171875
 33
0.0
  0
SOLID
  5
651
330
655
100
AcDbEntity
  8
0
  6
ByBlock
 62
     0
370
    25
380
     1
100
AcDbTrace
 10
987.9890575992509
 20
513.8631591796875
 30
0.0
 11
986.3223909325843
 21
503.8631591796875
 31
0.0
 12
989.6557242659176
 22
503.8631591796875
 32
0.0
 13
989.6557242659176
 23
503.8631591796875
 33
0.0
  0
LINE
  5
652
330
655
100
AcDbEntity
  8
0
  6
ByBlock
 62
     0
370
    -2
380
     1
100
AcDbLine
 10
987.9890575992509
 20
618.99951171875
 30
0.0
 11
987.9890575992509
 21
513.8631591796875
 31
0.0
  0
MTEXT
  5
653
330
655
100
AcDbEntity
  8
0
  6
ByBlock
 62
     0
370
    -2
380
     1
100
AcDbMText
 10
959.9890575992509
 20
566.4313354492188
 30
0.0
 40
36.0
 41
0.0
 71
     5
 72
     1
  1
\A1;105
 11
6.123031769111886E-17
 21
1.0
 31
0.0
 73
     1
 44
1.0
  0
ENDBLK
  5
685
330
655
100
AcDbEntity
  8
0
100
AcDbBlockEnd
  0
BLOCK
  5
686
330
662
100
AcDbEntity
  8
0
100
AcDbBlockBegin
  2
*D4
 70
     1
 10
0.0
 20
0.0
 30
0.0
  3
*D4
  1

  0
POINT
  5
659
330
662
100
AcDbEntity
  8
DEFPOINTS
  6
ByBlock
 62
     0
370
    25
380
     1
100
AcDbPoint
 10
795.110494545995
 20
333.8916625976562
 30
0.0
  0
POINT
  5
65A
330
662
100
AcDbEntity
  8
DEFPOINTS
  6
ByBlock
 62
     0
370
    25
380
     1
100
AcDbPoint
 10
794.1312266366456
 20
296.8916625976562
 30
0.0
  0
LINE
  5
65B
330
662
100
AcDbEntity
  8
0
  6
ByBlock
 62
     0
370
    -2
380
     1
100
AcDbLine
 10
795.735494545995
 20
333.8916625976562
 30
0.0
 11
989.2390575992509
 21
333.8916625976562
 31
0.0
  0
LINE
  5
65C
330
662
100
AcDbEntity
  8
0
  6
ByBlock
 62
     0
370
    -2
380
     1
100
AcDbLine
 10
794.7562266366456
 20
296.8916625976562
 30
0.0
 11
989.2390575992509
 21
296.8916625976562
 31
0.0
  0
LINE
  5
65D
330
662
100
AcDbEntity
  8
0
  6
ByBlock
 62
     0
370
    -2
380
     1
100
AcDbLine
 10
987.9890575992509
 20
331.3916625976562
 30
0.0
 11
987.9890575992509
 21
299.3916625976562
 31
0.0
  0
SOLID
  5
65E
330
662
100
AcDbEntity
  8
0
  6
ByBlock
 62
     0
370
    25
380
     1
100
AcDbTrace
 10
987.9890575992509
 20
333.8916625976562
 30
0.0
 11
987.5723909325843
 21
331.3916625976562
 31
0.0
 12
988.4057242659176
 22
331.3916625976562
 32
0.0
 13
988.4057242659176
 23
331.3916625976562
 33
0.0
  0
SOLID
  5
65F
330
662
100
AcDbEntity
  8
0
  6
ByBlock
 62
     0
370
    25
380
     1
100
AcDbTrace
 10
987.9890575992509
 20
296.8916625976562
 30
0.0
 11
987.5723909325843
 21
299.3916625976562
 31
0.0
 12
988.4057242659176
 22
299.3916625976562
 32
0.0
 13
988.4057242659176
 23
299.3916625976562
 33
0.0
  0
MTEXT
  5
660
330
662
100
AcDbEntity
  8
0
  6
ByBlock
 62
     0
370
    -2
380
     1
100
AcDbMText
 10
986.1140575992509
 20
315.3916625976562
 30
0.0
 40
2.5
 41
0.0
 71
     5
 72
     1
  1
\A1;37
 11
6.123031769111886E-17
 21
1.0
 31
0.0
 73
     1
 44
1.0
  0
ENDBLK
  5
687
330
662
100
AcDbEntity
  8
0
100
AcDbBlockEnd
  0
BLOCK
  5
688
330
66E
100
AcDbEntity
  8
0
100
AcDbBlockBegin
  2
*D5
 70
     1
 10
0.0
 20
0.0
 30
0.0
  3
*D5
  1

  0
POINT
  5
664
330
66E
100
AcDbEntity
  8
DEFPOINTS
  6
ByBlock
 62
     0
370
    25
380
     1
100
AcDbPoint
 10
795.110494545995
 20
333.8916625976562
 30
0.0
  0
POINT
  5
665
330
66E
100
AcDbEntity
  8
DEFPOINTS
  6
ByBlock
 62
     0
370
    25
380
     1
100
AcDbPoint
 10
794.1312266366456
 20
296.8916625976562
 30
0.0
  0
LINE
  5
666
330
66E
100
AcDbEntity
  8
0
  6
ByBlock
 62
     0
370
    -2
380
     1
100
AcDbLine
 10
795.735494545995
 20
333.8916625976562
 30
0.0
 11
989.2390575992509
 21
333.8916625976562
 31
0.0
  0
LINE
  5
667
330
66E
100
AcDbEntity
  8
0
  6
ByBlock
 62
     0
370
    -2
380
     1
100
AcDbLine
 10
794.7562266366456
 20
296.8916625976562
 30
0.0
 11
989.2390575992509
 21
296.8916625976562
 31
0.0
  0
LINE
  5
668
330
66E
100
AcDbEntity
  8
0
  6
ByBlock
 62
     0
370
    -2
380
     1
100
AcDbLine
 10
987.9890575992509
 20
323.8916625976562
 30
0.0
 11
987.9890575992509
 21
306.8916625976562
 31
0.0
  0
LINE
  5
669
330
66E
100
AcDbEntity
  8
0
  6
ByBlock
 62
     0
370
    -2
380
     1
100
AcDbLine
 10
987.9890575992509
 20
296.8916625976562
 30
0.0
 11
987.9890575992509
 21
230.8916625976562
 31
0.0
  0
SOLID
  5
66A
330
66E
100
AcDbEntity
  8
0
  6
ByBlock
 62
     0
370
    25
380
     1
100
AcDbTrace
 10
987.9890575992509
 20
333.8916625976562
 30
0.0
 11
986.3223909325843
 21
323.8916625976562
 31
0.0
 12
989.6557242659176
 22
323.8916625976562
 32
0.0
 13
989.6557242659176
 23
323.8916625976562
 33
0.0
  0
SOLID
  5
66B
330
66E
100
AcDbEntity
  8
0
  6
ByBlock
 62
     0
370
    25
380
     1
100
AcDbTrace
 10
987.9890575992509
 20
296.8916625976562
 30
0.0
 11
986.3223909325843
 21
306.8916625976562
 31
0.0
 12
989.6557242659176
 22
306.8916625976562
 32
0.0
 13
989.6557242659176
 23
306.8916625976562
 33
0.0
  0
MTEXT
  5
66C
330
66E
100
AcDbEntity
  8
0
  6
ByBlock
 62
     0
370
    -2
380
     1
100
AcDbMText
 10
959.9890575992509
 20
258.8916625976562
 30
0.0
 40
36.0
 41
0.0
 71
     5
 72
     1
  1
\A1;37
 11
6.123031769111886E-17
 21
1.0
 31
0.0
 73
     1
 44
1.0
  0
ENDBLK
  5
689
330
66E
100
AcDbEntity
  8
0
100
AcDbBlockEnd
  0
BLOCK
  5
68A
330
67A
100
AcDbEntity
  8
0
100
AcDbBlockBegin
  2
*D6
 70
     1
 10
0.0
 20
0.0
 30
0.0
  3
*D6
  1

  0
POINT
  5
670
330
67A
100
AcDbEntity
  8
DEFPOINTS
  6
ByBlock
 62
     0
370
    25
380
     1
100
AcDbPoint
 10
795.110494545995
 20
333.8916625976562
 30
0.0
  0
POINT
  5
671
330
67A
100
AcDbEntity
  8
DEFPOINTS
  6
ByBlock
 62
     0
370
    25
380
     1
100
AcDbPoint
 10
794.1312266366456
 20
296.8916625976562
 30
0.0
  0
LINE
  5
672
330
67A
100
AcDbEntity
  8
0
  6
ByBlock
 62
     0
370
    -2
380
     1
100
AcDbLine
 10
795.735494545995
 20
333.8916625976562
 30
0.0
 11
989.1495369465442
 21
333.8916625976562
 31
0.0
  0
LINE
  5
673
330
67A
100
AcDbEntity
  8
0
  6
ByBlock
 62
     0
370
    -2
380
     1
100
AcDbLine
 10
794.7562266366456
 20
296.8916625976562
 30
0.0
 11
989.1495369465442
 21
296.8916625976562
 31
0.0
  0
LINE
  5
674
330
67A
100
AcDbEntity
  8
0
  6
ByBlock
 62
     0
370
    -2
380
     1
100
AcDbLine
 10
987.8995369465442
 20
323.8916625976562
 30
0.0
 11
987.8995369465442
 21
306.8916625976562
 31
0.0
  0
LINE
  5
675
330
67A
100
AcDbEntity
  8
0
  6
ByBlock
 62
     0
370
    -2
380
     1
100
AcDbLine
 10
987.8995369465442
 20
333.8916625976562
 30
0.0
 11
987.8995369465442
 21
411.8916625976562
 31
0.0
  0
SOLID
  5
676
330
67A
100
AcDbEntity
  8
0
  6
ByBlock
 62
     0
370
    25
380
     1
100
AcDbTrace
 10
987.8995369465442
 20
333.8916625976562
 30
0.0
 11
986.2328702798776
 21
323.8916625976562
 31
0.0
 12
989.5662036132109
 22
323.8916625976562
 32
0.0
 13
989.5662036132109
 23
323.8916625976562
 33
0.0
  0
SOLID
  5
677
330
67A
100
AcDbEntity
  8
0
  6
ByBlock
 62
     0
370
    25
380
     1
100
AcDbTrace
 10
987.8995369465442
 20
296.8916625976562
 30
0.0
 11
986.2328702798776
 21
306.8916625976562
 31
0.0
 12
989.5662036132109
 22
306.8916625976562
 32
0.0
 13
989.5662036132109
 23
306.8916625976562
 33
0.0
  0
MTEXT
  5
678
330
67A
100
AcDbEntity
  8
0
  6
ByBlock
 62
     0
370
    -2
380
     1
100
AcDbMText
 10
959.8995369465442
 20
383.8916625976562
 30
0.0
 40
36.0
 41
0.0
 71
     5
 72
     1
  1
\A1;37
 11
6.123031769111886E-17
 21
1.0
 31
0.0
 73
     1
 44
1.0
  0
ENDBLK
  5
68B
330
67A
100
AcDbEntity
  8
0
100
AcDbBlockEnd
  0
ENDSEC
  0
SECTION
  2
ENTITIES
  0
LINE
  5
E1
330
1F
100
AcDbEntity
  8
0
 62
     7
370
    60
390
F
100
AcDbLine
 10
190.1457672119141
 20
517.3631591796875
 30
0.0
 11
907.98974609375
 21
517.3631591796875
 31
0.0
  0
ARC
  5
E2
330
1F
100
AcDbEntity
  8
0
 62
     7
370
    60
390
F
100
AcDbCircle
 10
190.1457672119141
 20
527.3631591796875
 30
0.0
 40
10.0
100
AcDbArc
 50
180.0000050089563
 51
269.9999974955218
  0
LINE
  5
E3
330
1F
100
AcDbEntity
  8
0
 62
     7
370
    60
390
F
100
AcDbLine
 10
180.1457672119141
 20
600.4995727539062
 30
0.0
 11
180.1457672119141
 21
527.3631591796875
 31
0.0
  0
LINE
  5
E5
330
1F
100
AcDbEntity
  8
0
 62
     7
370
    60
390
F
100
AcDbLine
 10
176.6457672119141
 20
527.3631591796875
 30
0.0
 11
176.6457672119141
 21
600.4995727539062
 31
0.0
  0
ARC
  5
E6
330
1F
100
AcDbEntity
  8
0
 62
     7
370
    60
390
F
100
AcDbCircle
 10
190.1457672119141
 20
527.3631591796875
 30
0.0
 40
13.5
100
AcDbArc
 50
180.0000050089563
 51
269.9999974955218
  0
LINE
  5
E7
330
1F
100
AcDbEntity
  8
0
 62
     7
370
    60
390
F
100
AcDbLine
 10
907.98974609375
 20
513.8631591796875
 30
0.0
 11
190.1457672119141
 21
513.8631591796875
 31
0.0
  0
ARC
  5
E8
330
1F
100
AcDbEntity
  8
0
 62
     7
370
    60
390
F
100
AcDbCircle
 10
907.98974609375
 20
527.3631591796875
 30
0.0
 40
13.5
100
AcDbArc
 50
269.9999974955218
 51
359.9999999999999
  0
LINE
  5
E9
330
1F
100
AcDbEntity
  8
0
 62
     7
370
    60
390
F
100
AcDbLine
 10
921.48974609375
 20
527.3631591796875
 30
0.0
 11
921.48974609375
 21
600.4995727539062
 31
0.0
  0
LINE
  5
EB
330
1F
100
AcDbEntity
  8
0
 62
     7
370
    60
390
F
100
AcDbLine
 10
917.98974609375
 20
600.4995727539062
 30
0.0
 11
917.98974609375
 21
527.3631591796875
 31
0.0
  0
ARC
  5
EC
330
1F
100
AcDbEntity
  8
0
 62
     7
370
    60
390
F
100
AcDbCircle
 10
907.98974609375
 20
527.3631591796875
 30
0.0
 40
10.0
100
AcDbArc
 50
269.9999974955218
 51
0.0
  0
LINE
  5
ED
330
1F
100
AcDbEntity
  8
0
 62
     7
 48
0.4624984741210937
370
    60
390
F
100
AcDbLine
 10
180.1457672119141
 20
618.99951171875
 30
0.0
 11
180.1457672119141
 21
600.4995727539062
 31
0.0
  0
LINE
  5
EE
330
1F
100
AcDbEntity
  8
0
 62
     7
 48
0.4624984741210937
370
    60
390
F
100
AcDbLine
 10
176.6457672119141
 20
618.99951171875
 30
0.0
 11
176.6457672119141
 21
600.4995727539062
 31
0.0
  0
LINE
  5
EF
330
1F
100
AcDbEntity
  8
0
 62
     7
 48
0.4624984741210937
370
    60
390
F
100
AcDbLine
 10
917.98974609375
 20
618.99951171875
 30
0.0
 11
917.98974609375
 21
600.4995727539062
 31
0.0
  0
LINE
  5
F0
330
1F
100
AcDbEntity
  8
0
 62
     7
 48
0.4624984741210937
370
    60
390
F
100
AcDbLine
 10
921.48974609375
 20
618.99951171875
 30
0.0
 11
921.48974609375
 21
600.4995727539062
 31
0.0
  0
LINE
  5
F1
330
1F
100
AcDbEntity
  8
0
 62
     7
 48
0.0875
370
    60
390
F
100
AcDbLine
 10
921.48974609375
 20
618.99951171875
 30
0.0
 11
917.98974609375
 21
618.99951171875
 31
0.0
  0
LINE
  5
F2
330
1F
100
AcDbEntity
  8
0
 62
     7
 48
0.0875
370
    60
390
F
100
AcDbLine
 10
180.1457672119141
 20
618.99951171875
 30
0.0
 11
176.6457672119141
 21
618.99951171875
 31
0.0
  0
CIRCLE
  5
5E0
330
1F
100
AcDbEntity
  8
0
 62
     7
370
    60
390
F
100
AcDbCircle
 10
849.0677490234375
 20
315.3916625976562
 30
0.0
 40
5.25
  0
LINE
  5
5E1
330
1F
100
AcDbEntity
  8
0
 62
     7
370
    60
390
F
100
AcDbLine
 10
190.1457672119141
 20
333.8916625976562
 30
0.0
 11
907.98974609375
 21
333.8916625976562
 31
0.0
  0
LINE
  5
5E3
330
1F
100
AcDbEntity
  8
0
 62
     7
370
    60
390
F
100
AcDbLine
 10
190.1457672119141
 20
296.8916625976562
 30
0.0
 11
907.98974609375
 21
296.8916625976562
 31
0.0
  0
CIRCLE
  5
5E5
330
1F
100
AcDbEntity
  8
0
 62
     7
370
    60
390
F
100
AcDbCircle
 10
749.0677490234375
 20
315.3916625976562
 30
0.0
 40
5.25
  0
CIRCLE
  5
5E6
330
1F
100
AcDbEntity
  8
0
 62
     7
370
    60
390
F
100
AcDbCircle
 10
669.0677490234375
 20
315.3916625976562
 30
0.0
 40
5.25
  0
CIRCLE
  5
5E7
330
1F
100
AcDbEntity
  8
0
 62
     7
370
    60
390
F
100
AcDbCircle
 10
609.0677490234375
 20
315.3916625976562
 30
0.0
 40
5.25
  0
CIRCLE
  5
5E8
330
1F
100
AcDbEntity
  8
0
 62
     7
370
    60
390
F
100
AcDbCircle
 10
249.0677642822266
 20
315.3916625976562
 30
0.0
 40
5.25
  0
CIRCLE
  5
5E9
330
1F
100
AcDbEntity
  8
0
 62
     7
370
    60
390
F
100
AcDbCircle
 10
349.0677490234375
 20
315.3916625976562
 30
0.0
 40
5.25
  0
CIRCLE
  5
5EA
330
1F
100
AcDbEntity
  8
0
 62
     7
370
    60
390
F
100
AcDbCircle
 10
429.0677490234375
 20
315.3916625976562
 30
0.0
 40
5.25
  0
CIRCLE
  5
5EB
330
1F
100
AcDbEntity
  8
0
 62
     7
370
    60
390
F
100
AcDbCircle
 10
489.0677490234375
 20
315.3916625976562
 30
0.0
 40
5.25
  0
CIRCLE
  5
5EC
330
1F
100
AcDbEntity
  8
0
 62
     7
370
    60
390
F
100
AcDbCircle
 10
549.0677490234375
 20
315.3916625976562
 30
0.0
 40
7.0
  0
LINE
  5
5ED
330
1F
100
AcDbEntity
  8
0
 62
     7
 48
0.25
370
    60
390
F
100
AcDbLine
 10
180.1457672119141
 20
296.8916625976562
 30
0.0
 11
190.1457672119141
 21
296.8916625976562
 31
0.0
  0
LINE
  5
5EE
330
1F
100
AcDbEntity
  8
0
 62
     7
 48
0.0875
370
    60
390
F
100
AcDbLine
 10
176.6457672119141
 20
296.8916625976562
 30
0.0
 11
180.1457672119141
 21
296.8916625976562
 31
0.0
  0
LINE
  5
5EF
330
1F
100
AcDbEntity
  8
0
 62
     7
 48
0.0875
370
    60
390
F
100
AcDbLine
 10
917.98974609375
 20
296.8916625976562
 30
0.0
 11
921.48974609375
 21
296.8916625976562
 31
0.0
  0
LINE
  5
5F0
330
1F
100
AcDbEntity
  8
0
 62
     7
 48
0.25
370
    60
390
F
100
AcDbLine
 10
917.98974609375
 20
296.8916625976562
 30
0.0
 11
907.98974609375
 21
296.8916625976562
 31
0.0
  0
LINE
  5
5F1
330
1F
100
AcDbEntity
  8
0
 62
     7
 48
0.25
370
    60
390
F
100
AcDbLine
 10
180.1457672119141
 20
333.8916625976562
 30
0.0
 11
190.1457672119141
 21
333.8916625976562
 31
0.0
  0
LINE
  5
5F2
330
1F
100
AcDbEntity
  8
0
 62
     7
370
    60
390
F
100
AcDbLine
 10
180.1457672119141
 20
333.8916625976562
 30
0.0
 11
180.1457672119141
 21
296.8916625976562
 31
0.0
  0
LINE
  5
5F3
330
1F
100
AcDbEntity
  8
0
 62
     7
370
    60
390
F
100
AcDbLine
 10
176.6457672119141
 20
333.8916625976562
 30
0.0
 11
176.6457672119141
 21
296.8916625976562
 31
0.0
  0
LINE
  5
5F4
330
1F
100
AcDbEntity
  8
0
 62
     7
370
    60
390
F
100
AcDbLine
 10
917.98974609375
 20
333.8916625976562
 30
0.0
 11
917.98974609375
 21
296.8916625976562
 31
0.0
  0
LINE
  5
5F5
330
1F
100
AcDbEntity
  8
0
 62
     7
370
    60
390
F
100
AcDbLine
 10
921.48974609375
 20
333.8916625976562
 30
0.0
 11
921.48974609375
 21
296.8916625976562
 31
0.0
  0
LINE
  5
5F6
330
1F
100
AcDbEntity
  8
0
 62
     7
 48
0.0875
370
    60
390
F
100
AcDbLine
 10
917.98974609375
 20
333.8916625976562
 30
0.0
 11
921.48974609375
 21
333.8916625976562
 31
0.0
  0
LINE
  5
5F7
330
1F
100
AcDbEntity
  8
0
 62
     7
 48
0.0875
370
    60
390
F
100
AcDbLine
 10
176.6457672119141
 20
333.8916625976562
 30
0.0
 11
180.1457672119141
 21
333.8916625976562
 31
0.0
  0
LINE
  5
5F8
330
1F
100
AcDbEntity
  8
0
 62
     7
 48
0.25
370
    60
390
F
100
AcDbLine
 10
917.98974609375
 20
333.8916625976562
 30
0.0
 11
907.98974609375
 21
333.8916625976562
 31
0.0
  0
DIMENSION
  5
626
330
1F
100
AcDbEntity
  8
0
100
AcDbDimension
  2
*D1
 10
921.48974609375
 20
658.8095635613806
 30
0.0
 11
549.067756652832
 21
686.8095635613806
 31
0.0
 70
    32
 71
     5
 41
2.5
 42
744.8439788818359
  3
Standard
100
AcDbAlignedDimension
 13
176.6457672119141
 23
582.9699904437202
 33
0.0
 14
921.48974609375
 24
563.9419819369133
 34
0.0
100
AcDbRotatedDimension
1001
ACAD
1000
DSTYLE
1002
{
1070
    41
1040
10.0
1070
    42
1040
0.625
1070
    43
1040
3.75
1070
    44
1040
1.25
1070
    73
1070
     0
1070
    74
1070
     0
1070
    77
1070
     1
1070
    78
1070
     8
1070
   140
1040
36.0
1070
   141
1040
2.5
1070
   143
1040
0.03937007874016
1070
   147
1040
10.0
1070
   171
1070
     3
1070
   172
1070
     1
1070
   271
1070
     0
1070
   272
1070
     2
1070
   274
1070
     3
1070
   278
1070
    44
1070
   283
1070
     0
1070
   284
1070
     8
1070
   289
1070
     0
1002
}
  0
DIMENSION
  5
63D
330
1F
100
AcDbEntity
  8
0
370
    25
100
AcDbDimension
  2
*D3
 10
987.9890575992509
 20
513.8631591796874
 30
0.0
 11
959.9890575992509
 21
566.4313354492188
 31
0.0
 70
    32
 71
     5
 41
2.5
 42
105.1363525390626
  3
Standard
100
AcDbAlignedDimension
 13
919.9830701825803
 23
618.99951171875
 33
0.0
 14
864.4291025116756
 24
513.8631591796875
 34
0.0
 50
90.0
100
AcDbRotatedDimension
1001
ACAD
1000
DSTYLE
1002
{
1070
    41
1040
10.0
1070
    42
1040
0.625
1070
    43
1040
3.75
1070
    44
1040
1.25
1070
    73
1070
     0
1070
    74
1070
     0
1070
    77
1070
     1
1070
    78
1070
     8
1070
   140
1040
36.0
1070
   141
1040
2.5
1070
   143
1040
0.03937007874016
1070
   147
1040
10.0
1070
   171
1070
     3
1070
   172
1070
     1
1070
   271
1070
     0
1070
   272
1070
     2
1070
   274
1070
     3
1070
   278
1070
    44
1070
   283
1070
     0
1070
   284
1070
     8
1070
   289
1070
     0
1002
}
  0
DIMENSION
  5
657
330
1F
100
AcDbEntity
  8
0
370
    25
100
AcDbDimension
  2
*D6
 10
987.8995369465442
 20
296.8916625976562
 30
0.0
 11
959.8995369465442
 21
383.8916625976562
 31
0.0
 70
   160
 71
     5
 41
2.5
 42
37.0
  3
Standard
100
AcDbAlignedDimension
 13
795.110494545995
 23
333.8916625976562
 33
0.0
 14
794.1312266366456
 24
296.8916625976562
 34
0.0
 50
90.0
100
AcDbRotatedDimension
1001
ACAD
1000
DSTYLE
1002
{
1070
    41
1040
10.0
1070
    42
1040
0.625
1070
    43
1040
3.75
1070
    44
1040
1.25
1070
    73
1070
     0
1070
    74
1070
     0
1070
    77
1070
     1
1070
    78
1070
     8
1070
   140
1040
36.0
1070
   141
1040
2.5
1070
   143
1040
0.03937007874016
1070
   147
1040
10.0
1070
   171
1070
     3
1070
   172
1070
     1
1070
   271
1070
     0
1070
   272
1070
     2
1070
   274
1070
     3
1070
   278
1070
    44
1070
   283
1070
     0
1070
   284
1070
     8
1070
   289
1070
     0
1002
}
  0
VIEWPORT
  5
5F9
330
73
100
AcDbEntity
 67
     1
  8
0
 62
     0
370
     0
390
F
100
AcDbViewport
 10
0.0
 20
0.0
 30
0.0
 40
1000.0
 41
1000.0
 68
     1
 69
     1
 12
0.0
 22
0.0
 13
0.0
 23
0.0
 14
1.0
 24
1.0
 15
1.0
 25
1.0
 16
0.0
 26
0.0
 36
1.0
 17
0.0
 27
0.0
 37
0.0
 42
50.0
 43
0.0
 44
0.0
 45
1000.0
 50
0.0
 51
0.0
 72
   100
 90
   557056
  1

281
     0
 71
     0
 74
     0
110
0.0
120
0.0
130
0.0
111
1.0
121
0.0
131
0.0
112
0.0
122
1.0
132
0.0
 79
     0
146
0.0
170
     0
  0
ENDSEC
  0
SECTION
  2
OBJECTS
  0
DICTIONARY
  5
C
330
0
100
AcDbDictionary
281
     1
  3
ACAD_COLOR
350
6C
  3
ACAD_GROUP
350
D
  3
ACAD_LAYOUT
350
1A
  3
ACAD_MATERIAL
350
6B
  3
ACAD_MLEADERSTYLE
350
622
  3
ACAD_MLINESTYLE
350
17
  3
ACAD_PLOTSETTINGS
350
19
  3
ACAD_PLOTSTYLENAME
350
E
  3
ACAD_SCALELIST
350
99
  3
ACAD_TABLESTYLE
350
92
  3
ACAD_WIPEOUT_VARS
350
67D
  3
AcDbVariableDictionary
350
59
  0
DICTIONARY
  5
6C
102
{ACAD_REACTORS
330
C
102
}
330
C
100
AcDbDictionary
281
     1
  0
DICTIONARY
  5
D
102
{ACAD_REACTORS
330
C
102
}
330
C
100
AcDbDictionary
281
     1
  0
DICTIONARY
  5
1A
102
{ACAD_REACTORS
330
C
102
}
330
C
100
AcDbDictionary
281
     1
  3
Layout1
350
74
  3
Model
350
22
  0
DICTIONARY
  5
6B
102
{ACAD_REACTORS
330
C
102
}
330
C
100
AcDbDictionary
281
     1
  0
DICTIONARY
  5
622
102
{ACAD_REACTORS
330
C
102
}
330
C
100
AcDbDictionary
281
     1
  0
DICTIONARY
  5
17
102
{ACAD_REACTORS
330
C
102
}
330
C
100
AcDbDictionary
281
     1
  3
Standard
350
18
  0
DICTIONARY
  5
19
102
{ACAD_REACTORS
330
C
102
}
330
C
100
AcDbDictionary
281
     1
  0
ACDBDICTIONARYWDFLT
  5
E
102
{ACAD_REACTORS
330
C
102
}
330
C
100
AcDbDictionary
281
     1
  3
Normal
350
F
100
AcDbDictionaryWithDefault
340
F
  0
DICTIONARY
  5
99
102
{ACAD_REACTORS
330
C
102
}
330
C
100
AcDbDictionary
281
     1
  3
A0
350
5FD
  3
A1
350
5FE
  3
A2
350
5FF
  3
A3
350
600
  3
A4
350
601
  3
A5
350
602
  3
A6
350
603
  3
A7
350
604
  3
A8
350
605
  3
A9
350
606
  3
B0
350
607
  3
B1
350
608
  3
B2
350
609
  3
B3
350
60A
  3
B4
350
60B
  3
B5
350
60C
  3
B6
350
60D
  3
B7
350
60E
  3
B8
350
60F
  3
B9
350
610
  3
C0
350
611
  3
C1
350
612
  3
C2
350
613
  3
C3
350
614
  3
C4
350
615
  3
C5
350
616
  3
C6
350
617
  3
C7
350
618
  3
C8
350
619
  3
C9
350
61A
  3
D0
350
61B
  3
D1
350
61C
  3
D2
350
61D
  0
DICTIONARY
  5
92
102
{ACAD_REACTORS
330
C
102
}
330
C
100
AcDbDictionary
281
     1
  3
Standard
350
93
  0
WIPEOUTVARIABLES
  5
67D
102
{ACAD_REACTORS
330
C
102
}
330
C
100
AcDbWipeoutVariables
 70
     1
  0
DICTIONARY
  5
59
102
{ACAD_REACTORS
330
C
102
}
330
C
100
AcDbDictionary
281
     1
  3
CANNOSCALE
350
61F
  3
CTABLESTYLE
350
98
  3
DIMASSOC
350
5A
  3
HIDETEXT
350
5E
  3
LIGHTINGUNITS
350
620
  0
LAYOUT
  5
74
102
{ACAD_REACTORS
330
1A
102
}
330
1A
100
AcDbPlotSettings
  1

  2
none_device
  4
none_user_media
  6

 40
0.0
 41
0.0
 42
0.0
 43
0.0
 44
0.0
 45
0.0
 46
0.0
 47
0.0
 48
0.0
 49
0.0
140
0.0
141
0.0
142
1.0
143
1.0
 70
   544
 72
     0
 73
     0
 74
     0
  7

 75
    16
 76
     0
 77
     2
 78
   300
147
1.0
148
0.0
149
0.0
100
AcDbLayout
  1
Layout1
 70
     1
 71
     0
 10
0.0
 20
0.0
 11
420.0
 21
297.0
 12
0.0
 22
0.0
 32
0.0
 14
0.0
 24
0.0
 34
0.0
 15
950.2990112304688
 25
671.809326171875
 35
2.0
146
0.0
 13
0.0
 23
0.0
 33
0.0
 16
1.0
 26
0.0
 36
0.0
 17
0.0
 27
1.0
 37
0.0
 76
     0
330
73
331
5F9
  0
LAYOUT
  5
22
102
{ACAD_REACTORS
330
1A
102
}
330
1A
100
AcDbPlotSettings
  1

  2
none_device
  4
none_user_media
  6

 40
6.349999904632568
 41
6.349999904632568
 42
6.350006103515625
 43
6.350006103515625
 44
215.8999938964844
 45
279.3999938964844
 46
0.0
 47
0.0
 48
0.0
 49
0.0
140
0.0
141
0.0
142
1.0
143
1.0
 70
 11936
 72
     0
 73
     0
 74
     0
  7

 75
     0
 76
     0
 77
     2
 78
   300
147
0.2929185801803356
148
0.0
149
0.0
100
AcDbLayout
  1
Model
 70
     1
 71
     1
 10
0.0
 20
0.0
 11
420.0
 21
297.0
 12
0.0
 22
0.0
 32
0.0
 14
176.2952270507812
 24
193.7137298583984
 34
0.0
 15
989.5662036132109
 25
671.7553100585938
 35
0.0
146
0.0
 13
0.0
 23
0.0
 33
0.0
 16
1.0
 26
0.0
 36
0.0
 17
0.0
 27
1.0
 37
0.0
 76
     0
330
1F
331
97
  0
MLINESTYLE
  5
18
102
{ACAD_REACTORS
330
17
102
}
330
17
100
AcDbMlineStyle
  2
Standard
 70
     0
  3

 62
     0
 51
90.0
 52
90.0
 71
     2
 49
0.5
 62
   256
  6
BYLAYER
 49
-0.5
 62
   256
  6
BYLAYER
  0
ACDBPLACEHOLDER
  5
F
102
{ACAD_REACTORS
330
E
102
}
330
E
  0
SCALE
  5
5FD
102
{ACAD_REACTORS
330
99
102
}
330
99
100
AcDbScale
 70
     0
300
1:1
140
1.0
141
1.0
290
     1
  0
SCALE
  5
5FE
102
{ACAD_REACTORS
330
99
102
}
330
99
100
AcDbScale
 70
     0
300
1:2
140
1.0
141
2.0
290
     0
  0
SCALE
  5
5FF
102
{ACAD_REACTORS
330
99
102
}
330
99
100
AcDbScale
 70
     0
300
1:4
140
1.0
141
4.0
290
     0
  0
SCALE
  5
600
102
{ACAD_REACTORS
330
99
102
}
330
99
100
AcDbScale
 70
     0
300
1:5
140
1.0
141
5.0
290
     0
  0
SCALE
  5
601
102
{ACAD_REACTORS
330
99
102
}
330
99
100
AcDbScale
 70
     0
300
1:8
140
1.0
141
8.0
290
     0
  0
SCALE
  5
602
102
{ACAD_REACTORS
330
99
102
}
330
99
100
AcDbScale
 70
     0
300
1:10
140
1.0
141
10.0
290
     0
  0
SCALE
  5
603
102
{ACAD_REACTORS
330
99
102
}
330
99
100
AcDbScale
 70
     0
300
1:16
140
1.0
141
16.0
290
     0
  0
SCALE
  5
604
102
{ACAD_REACTORS
330
99
102
}
330
99
100
AcDbScale
 70
     0
300
1:20
140
1.0
141
20.0
290
     0
  0
SCALE
  5
605
102
{ACAD_REACTORS
330
99
102
}
330
99
100
AcDbScale
 70
     0
300
1:30
140
1.0
141
30.0
290
     0
  0
SCALE
  5
606
102
{ACAD_REACTORS
330
99
102
}
330
99
100
AcDbScale
 70
     0
300
1:40
140
1.0
141
40.0
290
     0
  0
SCALE
  5
607
102
{ACAD_REACTORS
330
99
102
}
330
99
100
AcDbScale
 70
     0
300
1:50
140
1.0
141
50.0
290
     0
  0
SCALE
  5
608
102
{ACAD_REACTORS
330
99
102
}
330
99
100
AcDbScale
 70
     0
300
1:100
140
1.0
141
100.0
290
     0
  0
SCALE
  5
609
102
{ACAD_REACTORS
330
99
102
}
330
99
100
AcDbScale
 70
     0
300
2:1
140
2.0
141
1.0
290
     0
  0
SCALE
  5
60A
102
{ACAD_REACTORS
330
99
102
}
330
99
100
AcDbScale
 70
     0
300
4:1
140
4.0
141
1.0
290
     0
  0
SCALE
  5
60B
102
{ACAD_REACTORS
330
99
102
}
330
99
100
AcDbScale
 70
     0
300
8:1
140
8.0
141
1.0
290
     0
  0
SCALE
  5
60C
102
{ACAD_REACTORS
330
99
102
}
330
99
100
AcDbScale
 70
     0
300
10:1
140
10.0
141
1.0
290
     0
  0
SCALE
  5
60D
102
{ACAD_REACTORS
330
99
102
}
330
99
100
AcDbScale
 70
     0
300
100:1
140
100.0
141
1.0
290
     0
  0
SCALE
  5
60E
102
{ACAD_REACTORS
330
99
102
}
330
99
100
AcDbScale
 70
     0
300
1/128" = 1'-0"
140
0.0078125
141
12.0
290
     0
  0
SCALE
  5
60F
102
{ACAD_REACTORS
330
99
102
}
330
99
100
AcDbScale
 70
     0
300
1/64" = 1'-0"
140
0.015625
141
12.0
290
     0
  0
SCALE
  5
610
102
{ACAD_REACTORS
330
99
102
}
330
99
100
AcDbScale
 70
     0
300
1/32" = 1'-0"
140
0.03125
141
12.0
290
     0
  0
SCALE
  5
611
102
{ACAD_REACTORS
330
99
102
}
330
99
100
AcDbScale
 70
     0
300
1/16" = 1'-0"
140
0.0625
141
12.0
290
     0
  0
SCALE
  5
612
102
{ACAD_REACTORS
330
99
102
}
330
99
100
AcDbScale
 70
     0
300
3/32" = 1'-0"
140
0.09375
141
12.0
290
     0
  0
SCALE
  5
613
102
{ACAD_REACTORS
330
99
102
}
330
99
100
AcDbScale
 70
     0
300
1/8" = 1'-0"
140
0.125
141
12.0
290
     0
  0
SCALE
  5
614
102
{ACAD_REACTORS
330
99
102
}
330
99
100
AcDbScale
 70
     0
300
3/16" = 1'-0"
140
0.1875
141
12.0
290
     0
  0
SCALE
  5
615
102
{ACAD_REACTORS
330
99
102
}
330
99
100
AcDbScale
 70
     0
300
1/4" = 1'-0"
140
0.25
141
12.0
290
     0
  0
SCALE
  5
616
102
{ACAD_REACTORS
330
99
102
}
330
99
100
AcDbScale
 70
     0
300
3/8" = 1'-0"
140
0.375
141
12.0
290
     0
  0
SCALE
  5
617
102
{ACAD_REACTORS
330
99
102
}
330
99
100
AcDbScale
 70
     0
300
1/2" = 1'-0"
140
0.5
141
12.0
290
     0
  0
SCALE
  5
618
102
{ACAD_REACTORS
330
99
102
}
330
99
100
AcDbScale
 70
     0
300
3/4" = 1'-0"
140
0.75
141
12.0
290
     0
  0
SCALE
  5
619
102
{ACAD_REACTORS
330
99
102
}
330
99
100
AcDbScale
 70
     0
300
1" = 1'-0"
140
1.0
141
12.0
290
     0
  0
SCALE
  5
61A
102
{ACAD_REACTORS
330
99
102
}
330
99
100
AcDbScale
 70
     0
300
1-1/2" = 1'-0"
140
1.5
141
12.0
290
     0
  0
SCALE
  5
61B
102
{ACAD_REACTORS
330
99
102
}
330
99
100
AcDbScale
 70
     0
300
3" = 1'-0"
140
3.0
141
12.0
290
     0
  0
SCALE
  5
61C
102
{ACAD_REACTORS
330
99
102
}
330
99
100
AcDbScale
 70
     0
300
6" = 1'-0"
140
6.0
141
12.0
290
     0
  0
SCALE
  5
61D
102
{ACAD_REACTORS
330
99
102
}
330
99
100
AcDbScale
 70
     0
300
1'-0" = 1'-0"
140
12.0
141
12.0
290
     0
  0
TABLESTYLE
  5
93
102
{ACAD_REACTORS
330
92
102
}
102
{ACAD_XDICTIONARY
360
68C
102
}
330
92
100
AcDbTableStyle
  3
Standard
 70
     0
 71
     0
 40
0.06
 41
0.06
280
     0
281
     0
  7
Standard
140
0.18
170
     2
 62
     0
 63
     7
283
     0
274
    -2
284
     1
 64
     0
275
    -2
285
     1
 65
     0
276
    -2
286
     1
 66
     0
277
    -2
287
     1
 67
     0
278
    -2
288
     1
 68
     0
279
    -2
289
     1
 69
     0
  7
Standard
140
0.25
170
     5
 62
     0
 63
     7
283
     0
274
    -2
284
     1
 64
     0
275
    -2
285
     1
 65
     0
276
    -2
286
     1
 66
     0
277
    -2
287
     1
 67
     0
278
    -2
288
     1
 68
     0
279
    -2
289
     1
 69
     0
  7
Standard
140
0.18
170
     5
 62
     0
 63
     7
283
     0
274
    -2
284
     1
 64
     0
275
    -2
285
     1
 65
     0
276
    -2
286
     1
 66
     0
277
    -2
287
     1
 67
     0
278
    -2
288
     1
 68
     0
279
    -2
289
     1
 69
     0
  0
DICTIONARYVAR
  5
61F
102
{ACAD_REACTORS
330
59
102
}
330
59
100
DictionaryVariables
280
     0
  1

  0
DICTIONARYVAR
  5
98
102
{ACAD_REACTORS
330
59
102
}
330
59
100
DictionaryVariables
280
     0
  1
Standard
  0
DICTIONARYVAR
  5
5A
102
{ACAD_REACTORS
330
59
102
}
330
59
100
DictionaryVariables
280
     0
  1
2
  0
DICTIONARYVAR
  5
5E
102
{ACAD_REACTORS
330
59
102
}
330
59
100
DictionaryVariables
280
     0
  1
1
  0
DICTIONARYVAR
  5
620
102
{ACAD_REACTORS
330
59
102
}
330
59
100
DictionaryVariables
280
     0
  1
0
  0
DICTIONARY
  5
68C
330
93
100
AcDbDictionary
280
     1
281
     1
  3
ACAD_XREC_ROUNDTRIP
360
68D
  0
XRECORD
  5
68D
102
{ACAD_REACTORS
330
68C
102
}
330
68C
100
AcDbXrecord
280
     1
102
ACAD_ROUNDTRIP_PRE2007_TABLESTYLE
 90
      512
 91
        0
  1

 92
      512
 93
        0
  2

 94
      512
 95
        0
  3

  0
ENDSEC
  0
EOF
