  0
SECTION
  2
HEADER
  9
$ACADVER
  1
AC1018
  9
$ACADMAINTVER
 70
     0
  9
$DWGCODEPAGE
  3
ANSI_1252
  9
$LASTSAVEDBY
  1
BelottiMc
  9
$INSBASE
 10
0.0
 20
0.0
 30
0.0
  9
$EXTMIN
 10
117.8262329101562
 20
100.1588119763775
 30
0.0
  9
$EXTMAX
 10
816.7782146685299
 20
501.2026672363281
 30
0.0
  9
$LIMMIN
 10
0.0
 20
0.0
  9
$LIMMAX
 10
420.0
 20
297.0
  9
$ORTHOMODE
 70
     0
  9
$REGENMODE
 70
     1
  9
$FILLMODE
 70
     1
  9
$QTEXTMODE
 70
     0
  9
$MIRRTEXT
 70
     1
  9
$LTSCALE
 40
1.0
  9
$ATTMODE
 70
     1
  9
$TEXTSIZE
 40
2.5
  9
$TRACEWID
 40
1.0
  9
$TEXTSTYLE
  7
Standard
  9
$CLAYER
  8
0
  9
$CELTYPE
  6
ByLayer
  9
$CECOLOR
 62
   256
  9
$CELTSCALE
 40
1.0
  9
$DISPSILH
 70
     0
  9
$DIMSCALE
 40
1.0
  9
$DIMASZ
 40
2.5
  9
$DIMEXO
 40
0.625
  9
$DIMDLI
 40
3.75
  9
$DIMRND
 40
0.0
  9
$DIMDLE
 40
0.0
  9
$DIMEXE
 40
1.25
  9
$DIMTP
 40
0.0
  9
$DIMTM
 40
0.0
  9
$DIMTXT
 40
2.5
  9
$DIMCEN
 40
2.5
  9
$DIMTSZ
 40
0.0
  9
$DIMTOL
 70
     0
  9
$DIMLIM
 70
     0
  9
$DIMTIH
 70
     0
  9
$DIMTOH
 70
     0
  9
$DIMSE1
 70
     0
  9
$DIMSE2
 70
     0
  9
$DIMTAD
 70
     1
  9
$DIMZIN
 70
     8
  9
$DIMBLK
  1

  9
$DIMASO
 70
     1
  9
$DIMSHO
 70
     1
  9
$DIMPOST
  1

  9
$DIMAPOST
  1

  9
$DIMALT
 70
     0
  9
$DIMALTD
 70
     3
  9
$DIMALTF
 40
0.03937007874016
  9
$DIMLFAC
 40
1.0
  9
$DIMTOFL
 70
     1
  9
$DIMTVP
 40
0.0
  9
$DIMTIX
 70
     0
  9
$DIMSOXD
 70
     0
  9
$DIMSAH
 70
     0
  9
$DIMBLK1
  1

  9
$DIMBLK2
  1

  9
$DIMSTYLE
  2
Standard
  9
$DIMCLRD
 70
     0
  9
$DIMCLRE
 70
     0
  9
$DIMCLRT
 70
     0
  9
$DIMTFAC
 40
1.0
  9
$DIMGAP
 40
0.625
  9
$DIMJUST
 70
     0
  9
$DIMSD1
 70
     0
  9
$DIMSD2
 70
     0
  9
$DIMTOLJ
 70
     0
  9
$DIMTZIN
 70
     8
  9
$DIMALTZ
 70
     0
  9
$DIMALTTZ
 70
     0
  9
$DIMUPT
 70
     0
  9
$DIMDEC
 70
     2
  9
$DIMTDEC
 70
     2
  9
$DIMALTU
 70
     2
  9
$DIMALTTD
 70
     3
  9
$DIMTXSTY
  7
Standard
  9
$DIMAUNIT
 70
     0
  9
$DIMADEC
 70
     0
  9
$DIMALTRND
 40
0.0
  9
$DIMAZIN
 70
     0
  9
$DIMDSEP
 70
    44
  9
$DIMATFIT
 70
     0
  9
$DIMFRAC
 70
     0
  9
$DIMLDRBLK
  1

  9
$DIMLUNIT
 70
     2
  9
$DIMLWD
 70
    -2
  9
$DIMLWE
 70
    -2
  9
$DIMTMOVE
 70
     0
  9
$LUNITS
 70
     2
  9
$LUPREC
 70
     4
  9
$SKETCHINC
 40
1.0
  9
$FILLETRAD
 40
2.5
  9
$AUNITS
 70
     0
  9
$AUPREC
 70
     0
  9
$MENU
  1
.
  9
$ELEVATION
 40
0.0
  9
$PELEVATION
 40
0.0
  9
$THICKNESS
 40
0.0
  9
$LIMCHECK
 70
     0
  9
$CHAMFERA
 40
2.5
  9
$CHAMFERB
 40
2.5
  9
$CHAMFERC
 40
0.0
  9
$CHAMFERD
 40
0.0
  9
$SKPOLY
 70
     0
  9
$TDCREATE
 40
2447893.041666644
  9
$TDUCREATE
 40
2447892.999999977
  9
$TDUPDATE
 40
2456681.581146806
  9
$TDUUPDATE
 40
2456681.539480139
  9
$TDINDWG
 40
0.1145138773
  9
$TDUSRTIMER
 40
0.1145138773
  9
$USRTIMER
 70
     1
  9
$ANGBASE
 50
0.0
  9
$ANGDIR
 70
     0
  9
$PDMODE
 70
     0
  9
$PDSIZE
 40
0.0
  9
$PLINEWID
 40
0.0
  9
$SPLFRAME
 70
     0
  9
$SPLINETYPE
 70
     6
  9
$SPLINESEGS
 70
     8
  9
$HANDSEED
  5
6E4
  9
$SURFTAB1
 70
     6
  9
$SURFTAB2
 70
     6
  9
$SURFTYPE
 70
     6
  9
$SURFU
 70
     6
  9
$SURFV
 70
     6
  9
$UCSBASE
  2

  9
$UCSNAME
  2

  9
$UCSORG
 10
0.0
 20
0.0
 30
0.0
  9
$UCSXDIR
 10
1.0
 20
0.0
 30
0.0
  9
$UCSYDIR
 10
0.0
 20
1.0
 30
0.0
  9
$UCSORTHOREF
  2

  9
$UCSORTHOVIEW
 70
     0
  9
$UCSORGTOP
 10
0.0
 20
0.0
 30
0.0
  9
$UCSORGBOTTOM
 10
0.0
 20
0.0
 30
0.0
  9
$UCSORGLEFT
 10
0.0
 20
0.0
 30
0.0
  9
$UCSORGRIGHT
 10
0.0
 20
0.0
 30
0.0
  9
$UCSORGFRONT
 10
0.0
 20
0.0
 30
0.0
  9
$UCSORGBACK
 10
0.0
 20
0.0
 30
0.0
  9
$PUCSBASE
  2

  9
$PUCSNAME
  2

  9
$PUCSORG
 10
0.0
 20
0.0
 30
0.0
  9
$PUCSXDIR
 10
1.0
 20
0.0
 30
0.0
  9
$PUCSYDIR
 10
0.0
 20
1.0
 30
0.0
  9
$PUCSORTHOREF
  2

  9
$PUCSORTHOVIEW
 70
     0
  9
$PUCSORGTOP
 10
0.0
 20
0.0
 30
0.0
  9
$PUCSORGBOTTOM
 10
0.0
 20
0.0
 30
0.0
  9
$PUCSORGLEFT
 10
0.0
 20
0.0
 30
0.0
  9
$PUCSORGRIGHT
 10
0.0
 20
0.0
 30
0.0
  9
$PUCSORGFRONT
 10
0.0
 20
0.0
 30
0.0
  9
$PUCSORGBACK
 10
0.0
 20
0.0
 30
0.0
  9
$USERI1
 70
     0
  9
$USERI2
 70
     0
  9
$USERI3
 70
     0
  9
$USERI4
 70
     0
  9
$USERI5
 70
     0
  9
$USERR1
 40
0.0
  9
$USERR2
 40
0.0
  9
$USERR3
 40
0.0
  9
$USERR4
 40
0.0
  9
$USERR5
 40
0.0
  9
$WORLDVIEW
 70
     1
  9
$SHADEDGE
 70
     3
  9
$SHADEDIF
 70
    70
  9
$TILEMODE
 70
     1
  9
$MAXACTVP
 70
    48
  9
$PINSBASE
 10
0.0
 20
0.0
 30
0.0
  9
$PLIMCHECK
 70
     0
  9
$PEXTMIN
 10
0.0
 20
0.0
 30
0.0
  9
$PEXTMAX
 10
676.3173217773438
 20
521.8984375
 30
2.0
  9
$PLIMMIN
 10
0.0
 20
0.0
  9
$PLIMMAX
 10
420.0
 20
297.0
  9
$UNITMODE
 70
     0
  9
$VISRETAIN
 70
     0
  9
$PLINEGEN
 70
     0
  9
$PSLTSCALE
 70
     1
  9
$TREEDEPTH
 70
  3020
  9
$CMLSTYLE
  2
Standard
  9
$CMLJUST
 70
     0
  9
$CMLSCALE
 40
20.0
  9
$PROXYGRAPHICS
 70
     1
  9
$MEASUREMENT
 70
     1
  9
$CELWEIGHT
370
    -1
  9
$ENDCAPS
280
     0
  9
$JOINSTYLE
280
     0
  9
$LWDISPLAY
290
     0
  9
$INSUNITS
 70
     0
  9
$HYPERLINKBASE
  1

  9
$STYLESHEET
  1

  9
$XEDIT
290
     1
  9
$CEPSNTYPE
380
     0
  9
$PSTYLEMODE
290
     0
  9
$FINGERPRINTGUID
  2

  9
$VERSIONGUID
  2

  9
$EXTNAMES
290
     1
  9
$PSVPSCALE
 40
0.0
  9
$OLESTARTUP
290
     0
  9
$SORTENTS
280
   127
  9
$INDEXCTL
280
     0
  9
$HIDETEXT
280
     1
  9
$XCLIPFRAME
290
     0
  9
$HALOGAP
280
     0
  9
$OBSCOLOR
 70
   257
  9
$OBSLTYPE
280
     0
  9
$INTERSECTIONDISPLAY
280
     0
  9
$INTERSECTIONCOLOR
 70
   257
  9
$DIMASSOC
280
     2
  9
$PROJECTNAME
  1

  0
ENDSEC
  0
SECTION
  2
CLASSES
  0
CLASS
  1
ACDBDICTIONARYWDFLT
  2
AcDbDictionaryWithDefault
  3
ObjectDBX Classes
 90
        0
 91
        4
280
     0
281
     0
  0
CLASS
  1
ACDBPLACEHOLDER
  2
AcDbPlaceHolder
  3
ObjectDBX Classes
 90
        0
 91
        1
280
     0
281
     0
  0
CLASS
  1
LAYOUT
  2
AcDbLayout
  3
ObjectDBX Classes
 90
        0
 91
        1
280
     0
281
     0
  0
CLASS
  1
DICTIONARYVAR
  2
AcDbDictionaryVar
  3
ObjectDBX Classes
 90
        0
 91
        4
280
     0
281
     0
  0
CLASS
  1
TABLESTYLE
  2
AcDbTableStyle
  3
ObjectDBX Classes
 90
     4095
 91
        5
280
     0
281
     0
  0
CLASS
  1
SCALE
  2
AcDbScale
  3
ObjectDBX Classes
 90
     1153
 91
       70
280
     0
281
     0
  0
CLASS
  1
WIPEOUTVARIABLES
  2
AcDbWipeoutVariables
  3
WipeOut|AutoCAD Express Tool|expresstools@autodesk.com
 90
        0
 91
        4
280
     0
281
     0
  0
ENDSEC
  0
SECTION
  2
TABLES
  0
TABLE
  2
VPORT
  5
8
330
0
100
AcDbSymbolTable
 70
     2
  0
VPORT
  5
97
330
8
100
AcDbSymbolTableRecord
100
AcDbViewportTableRecord
  2
*ACTIVE
 70
     0
 10
0.0
 20
0.0
 11
1.0
 21
1.0
 12
486.2513574445138
 22
297.8244232408288
 13
0.0
 23
0.0
 14
1.0
 24
1.0
 15
0.5
 25
0.5
 16
0.0
 26
0.0
 36
1.0
 17
0.0
 27
0.0
 37
0.0
 40
891.0964340736599
 41
0.688564
 42
50.0
 43
0.0
 44
0.0
 50
0.0
 51
0.0
 71
     0
 72
   100
 73
     1
 74
     1
 75
     0
 76
     0
 77
     0
 78
     0
281
     0
 65
     1
110
0.0
120
0.0
130
0.0
111
1.0
121
0.0
131
0.0
112
0.0
122
1.0
132
0.0
 79
     0
146
0.0
  0
ENDTAB
  0
TABLE
  2
LTYPE
  5
5
330
0
100
AcDbSymbolTable
 70
     2
  0
LTYPE
  5
14
330
5
100
AcDbSymbolTableRecord
100
AcDbLinetypeTableRecord
  2
ByBlock
 70
     0
  3

 72
    65
 73
     0
 40
0.0
  0
LTYPE
  5
15
330
5
100
AcDbSymbolTableRecord
100
AcDbLinetypeTableRecord
  2
ByLayer
 70
     0
  3

 72
    65
 73
     0
 40
0.0
  0
LTYPE
  5
16
330
5
100
AcDbSymbolTableRecord
100
AcDbLinetypeTableRecord
  2
Continuous
 70
     0
  3
Solid line
 72
    65
 73
     0
 40
0.0
  0
LTYPE
  5
6AA
330
5
100
AcDbSymbolTableRecord
100
AcDbLinetypeTableRecord
  2
DASHDOT
 70
     0
  3
 __ . __ . __ . __ . __ . __ . __ . 
 72
    65
 73
     4
 40
18.5
 49
12.0
 74
     0
 49
-3.0
 74
     0
 49
0.5
 74
     0
 49
-3.0
 74
     0
  0
ENDTAB
  0
TABLE
  2
LAYER
  5
2
330
0
100
AcDbSymbolTable
 70
     2
  0
LAYER
  5
10
330
2
100
AcDbSymbolTableRecord
100
AcDbLayerTableRecord
  2
0
 70
     0
 62
     7
  6
Continuous
370
    -3
390
F
  0
LAYER
  5
568
330
2
100
AcDbSymbolTableRecord
100
AcDbLayerTableRecord
  2
DEFPOINTS
 70
     0
 62
     7
  6
Continuous
290
     0
370
    -3
390
F
  0
ENDTAB
  0
TABLE
  2
STYLE
  5
3
330
0
100
AcDbSymbolTable
 70
     1
  0
STYLE
  5
11
330
3
100
AcDbSymbolTableRecord
100
AcDbTextStyleTableRecord
  2
Standard
 70
     0
 40
0.0
 41
1.0
 50
0.0
 71
     0
 42
2.5
  3
txt
  4

  0
ENDTAB
  0
TABLE
  2
VIEW
  5
6
330
0
100
AcDbSymbolTable
 70
     0
  0
ENDTAB
  0
TABLE
  2
UCS
  5
7
330
0
100
AcDbSymbolTable
 70
     0
  0
ENDTAB
  0
TABLE
  2
APPID
  5
9
330
0
100
AcDbSymbolTable
 70
     1
  0
APPID
  5
12
330
9
100
AcDbSymbolTableRecord
100
AcDbRegAppTableRecord
  2
ACAD
 70
     0
  0
ENDTAB
  0
TABLE
  2
DIMSTYLE
  5
A
330
0
100
AcDbSymbolTable
 70
     1
100
AcDbDimStyleTable
  0
DIMSTYLE
105
27
102
{ACAD_REACTORS
330
5BD
330
5FD
330
663
102
}
330
A
100
AcDbSymbolTableRecord
100
AcDbDimStyleTableRecord
  2
Standard
 70
     0
340
11
  0
ENDTAB
  0
TABLE
  2
BLOCK_RECORD
  5
1
330
0
100
AcDbSymbolTable
 70
    27
  0
BLOCK_RECORD
  5
1F
330
1
100
AcDbSymbolTableRecord
100
AcDbBlockTableRecord
  2
*Model_Space
340
22
  0
BLOCK_RECORD
  5
73
330
1
100
AcDbSymbolTableRecord
100
AcDbBlockTableRecord
  2
*Paper_Space
340
74
  0
BLOCK_RECORD
  5
574
330
1
100
AcDbSymbolTableRecord
100
AcDbBlockTableRecord
  2
*D0
340
0
  0
BLOCK_RECORD
  5
57F
330
1
100
AcDbSymbolTableRecord
100
AcDbBlockTableRecord
  2
*D1
340
0
  0
BLOCK_RECORD
  5
58A
330
1
100
AcDbSymbolTableRecord
100
AcDbBlockTableRecord
  2
*D2
340
0
  0
BLOCK_RECORD
  5
595
330
1
100
AcDbSymbolTableRecord
100
AcDbBlockTableRecord
  2
*D3
340
0
  0
BLOCK_RECORD
  5
5A2
330
1
100
AcDbSymbolTableRecord
100
AcDbBlockTableRecord
  2
*D4
340
0
  0
BLOCK_RECORD
  5
5AF
330
1
100
AcDbSymbolTableRecord
100
AcDbBlockTableRecord
  2
*D5
340
0
  0
BLOCK_RECORD
  5
5BC
330
1
100
AcDbSymbolTableRecord
100
AcDbBlockTableRecord
  2
*D6
340
0
  0
BLOCK_RECORD
  5
5C8
330
1
100
AcDbSymbolTableRecord
100
AcDbBlockTableRecord
  2
*D7
340
0
  0
BLOCK_RECORD
  5
5D5
330
1
100
AcDbSymbolTableRecord
100
AcDbBlockTableRecord
  2
*D8
340
0
  0
BLOCK_RECORD
  5
5E2
330
1
100
AcDbSymbolTableRecord
100
AcDbBlockTableRecord
  2
*D9
340
0
  0
BLOCK_RECORD
  5
5EF
330
1
100
AcDbSymbolTableRecord
100
AcDbBlockTableRecord
  2
*D10
340
0
  0
BLOCK_RECORD
  5
5FC
330
1
100
AcDbSymbolTableRecord
100
AcDbBlockTableRecord
  2
*D11
340
0
  0
BLOCK_RECORD
  5
608
330
1
100
AcDbSymbolTableRecord
100
AcDbBlockTableRecord
  2
*D12
340
0
  0
BLOCK_RECORD
  5
613
330
1
100
AcDbSymbolTableRecord
100
AcDbBlockTableRecord
  2
*D13
340
0
  0
BLOCK_RECORD
  5
61E
330
1
100
AcDbSymbolTableRecord
100
AcDbBlockTableRecord
  2
*D14
340
0
  0
BLOCK_RECORD
  5
629
330
1
100
AcDbSymbolTableRecord
100
AcDbBlockTableRecord
  2
*D15
340
0
  0
BLOCK_RECORD
  5
634
330
1
100
AcDbSymbolTableRecord
100
AcDbBlockTableRecord
  2
*D16
340
0
  0
BLOCK_RECORD
  5
63F
330
1
100
AcDbSymbolTableRecord
100
AcDbBlockTableRecord
  2
*D17
340
0
  0
BLOCK_RECORD
  5
64B
330
1
100
AcDbSymbolTableRecord
100
AcDbBlockTableRecord
  2
*D18
340
0
  0
BLOCK_RECORD
  5
657
330
1
100
AcDbSymbolTableRecord
100
AcDbBlockTableRecord
  2
*D19
340
0
  0
BLOCK_RECORD
  5
662
330
1
100
AcDbSymbolTableRecord
100
AcDbBlockTableRecord
  2
*D20
340
0
  0
BLOCK_RECORD
  5
66E
330
1
100
AcDbSymbolTableRecord
100
AcDbBlockTableRecord
  2
*D21
340
0
  0
BLOCK_RECORD
  5
67A
330
1
100
AcDbSymbolTableRecord
100
AcDbBlockTableRecord
  2
*D22
340
0
  0
BLOCK_RECORD
  5
685
330
1
100
AcDbSymbolTableRecord
100
AcDbBlockTableRecord
  2
*D23
340
0
  0
BLOCK_RECORD
  5
690
330
1
100
AcDbSymbolTableRecord
100
AcDbBlockTableRecord
  2
*D24
340
0
  0
BLOCK_RECORD
  5
69C
330
1
100
AcDbSymbolTableRecord
100
AcDbBlockTableRecord
  2
*D25
340
0
  0
BLOCK_RECORD
  5
6A8
330
1
100
AcDbSymbolTableRecord
100
AcDbBlockTableRecord
  2
*D26
340
0
  0
ENDTAB
  0
ENDSEC
  0
SECTION
  2
BLOCKS
  0
BLOCK
  5
20
330
1F
100
AcDbEntity
  8
0
100
AcDbBlockBegin
  2
*Model_Space
 70
     0
 10
0.0
 20
0.0
 30
0.0
  3
*Model_Space
  1

  0
ENDBLK
  5
21
330
1F
100
AcDbEntity
  8
0
100
AcDbBlockEnd
  0
BLOCK
  5
75
330
73
100
AcDbEntity
 67
     1
  8
0
100
AcDbBlockBegin
  2
*Paper_Space
 70
     0
 10
0.0
 20
0.0
 30
0.0
  3
*Paper_Space
  1

  0
ENDBLK
  5
76
330
73
100
AcDbEntity
 67
     1
  8
0
100
AcDbBlockEnd
  0
BLOCK
  5
6AC
330
574
100
AcDbEntity
  8
0
100
AcDbBlockBegin
  2
*D0
 70
     1
 10
0.0
 20
0.0
 30
0.0
  3
*D0
  1

  0
POINT
  5
56B
330
574
100
AcDbEntity
  8
DEFPOINTS
  6
ByBlock
 62
     0
380
     1
100
AcDbPoint
 10
624.7707390206577
 20
481.2026672363281
 30
0.0
  0
POINT
  5
56C
330
574
100
AcDbEntity
  8
DEFPOINTS
  6
ByBlock
 62
     0
380
     1
100
AcDbPoint
 10
565.7901635589357
 20
376.0663146972656
 30
0.0
  0
LINE
  5
56D
330
574
100
AcDbEntity
  8
0
  6
ByBlock
 62
     0
370
    -2
380
     1
100
AcDbLine
 10
625.3957390206577
 20
481.2026672363281
 30
0.0
 11
660.3159831248021
 21
481.2026672363281
 31
0.0
  0
LINE
  5
56E
330
574
100
AcDbEntity
  8
0
  6
ByBlock
 62
     0
370
    -2
380
     1
100
AcDbLine
 10
566.4151635589357
 20
376.0663146972656
 30
0.0
 11
660.3159831248021
 21
376.0663146972656
 31
0.0
  0
LINE
  5
56F
330
574
100
AcDbEntity
  8
0
  6
ByBlock
 62
     0
370
    -2
380
     1
100
AcDbLine
 10
659.0659831248021
 20
478.7026672363281
 30
0.0
 11
659.0659831248021
 21
378.5663146972656
 31
0.0
  0
SOLID
  5
570
330
574
100
AcDbEntity
  8
0
  6
ByBlock
 62
     0
380
     1
100
AcDbTrace
 10
659.0659831248021
 20
481.2026672363281
 30
0.0
 11
658.6493164581354
 21
478.7026672363281
 31
0.0
 12
659.4826497914687
 22
478.7026672363281
 32
0.0
 13
659.4826497914687
 23
478.7026672363281
 33
0.0
  0
SOLID
  5
571
330
574
100
AcDbEntity
  8
0
  6
ByBlock
 62
     0
380
     1
100
AcDbTrace
 10
659.0659831248021
 20
376.0663146972656
 30
0.0
 11
658.6493164581354
 21
378.5663146972656
 31
0.0
 12
659.4826497914687
 22
378.5663146972656
 32
0.0
 13
659.4826497914687
 23
378.5663146972656
 33
0.0
  0
MTEXT
  5
572
330
574
100
AcDbEntity
  8
0
  6
ByBlock
 62
     0
370
    -2
380
     1
100
AcDbMText
 10
656.9826497914687
 20
428.6344909667969
 30
0.0
 40
2.5
 41
0.0
 71
     5
 72
     1
  1
\A1;105,14
 11
6.123031769111886E-17
 21
1.0
 31
0.0
 73
     1
 44
1.0
  0
ENDBLK
  5
6AD
330
574
100
AcDbEntity
  8
0
100
AcDbBlockEnd
  0
BLOCK
  5
6AE
330
57F
100
AcDbEntity
  8
0
100
AcDbBlockBegin
  2
*D1
 70
     1
 10
0.0
 20
0.0
 30
0.0
  3
*D1
  1

  0
POINT
  5
576
330
57F
100
AcDbEntity
  8
DEFPOINTS
  6
ByBlock
 62
     0
380
     1
100
AcDbPoint
 10
624.7707390206577
 20
481.2026672363281
 30
0.0
  0
POINT
  5
577
330
57F
100
AcDbEntity
  8
DEFPOINTS
  6
ByBlock
 62
     0
380
     1
100
AcDbPoint
 10
565.7901635589357
 20
376.0663146972656
 30
0.0
  0
LINE
  5
578
330
57F
100
AcDbEntity
  8
0
  6
ByBlock
 62
     0
370
    -2
380
     1
100
AcDbLine
 10
625.3957390206577
 20
481.2026672363281
 30
0.0
 11
697.3886577029854
 21
481.2026672363281
 31
0.0
  0
LINE
  5
579
330
57F
100
AcDbEntity
  8
0
  6
ByBlock
 62
     0
370
    -2
380
     1
100
AcDbLine
 10
566.4151635589357
 20
376.0663146972656
 30
0.0
 11
697.3886577029854
 21
376.0663146972656
 31
0.0
  0
LINE
  5
57A
330
57F
100
AcDbEntity
  8
0
  6
ByBlock
 62
     0
370
    -2
380
     1
100
AcDbLine
 10
696.1386577029854
 20
478.7026672363281
 30
0.0
 11
696.1386577029854
 21
378.5663146972656
 31
0.0
  0
SOLID
  5
57B
330
57F
100
AcDbEntity
  8
0
  6
ByBlock
 62
     0
380
     1
100
AcDbTrace
 10
696.1386577029854
 20
481.2026672363281
 30
0.0
 11
695.7219910363187
 21
478.7026672363281
 31
0.0
 12
696.555324369652
 22
478.7026672363281
 32
0.0
 13
696.555324369652
 23
478.7026672363281
 33
0.0
  0
SOLID
  5
57C
330
57F
100
AcDbEntity
  8
0
  6
ByBlock
 62
     0
380
     1
100
AcDbTrace
 10
696.1386577029854
 20
376.0663146972656
 30
0.0
 11
695.7219910363187
 21
378.5663146972656
 31
0.0
 12
696.555324369652
 22
378.5663146972656
 32
0.0
 13
696.555324369652
 23
378.5663146972656
 33
0.0
  0
MTEXT
  5
57D
330
57F
100
AcDbEntity
  8
0
  6
ByBlock
 62
     0
370
    -2
380
     1
100
AcDbMText
 10
694.055324369652
 20
428.6344909667969
 30
0.0
 40
2.5
 41
0.0
 71
     5
 72
     1
  1
\A1;105,14
 11
6.123031769111886E-17
 21
1.0
 31
0.0
 73
     1
 44
1.0
  0
ENDBLK
  5
6AF
330
57F
100
AcDbEntity
  8
0
100
AcDbBlockEnd
  0
BLOCK
  5
6B0
330
58A
100
AcDbEntity
  8
0
100
AcDbBlockBegin
  2
*D2
 70
     1
 10
0.0
 20
0.0
 30
0.0
  3
*D2
  1

  0
POINT
  5
581
330
58A
100
AcDbEntity
  8
DEFPOINTS
  6
ByBlock
 62
     0
380
     1
100
AcDbPoint
 10
624.7707390206577
 20
481.2026672363281
 30
0.0
  0
POINT
  5
582
330
58A
100
AcDbEntity
  8
DEFPOINTS
  6
ByBlock
 62
     0
380
     1
100
AcDbPoint
 10
565.7901635589357
 20
376.0663146972656
 30
0.0
  0
LINE
  5
583
330
58A
100
AcDbEntity
  8
0
  6
ByBlock
 62
     0
370
    -2
380
     1
100
AcDbLine
 10
625.3957390206577
 20
481.2026672363281
 30
0.0
 11
657.2035912867271
 21
481.2026672363281
 31
0.0
  0
LINE
  5
584
330
58A
100
AcDbEntity
  8
0
  6
ByBlock
 62
     0
370
    -2
380
     1
100
AcDbLine
 10
566.4151635589357
 20
376.0663146972656
 30
0.0
 11
657.2035912867271
 21
376.0663146972656
 31
0.0
  0
LINE
  5
585
330
58A
100
AcDbEntity
  8
0
  6
ByBlock
 62
     0
370
    -2
380
     1
100
AcDbLine
 10
655.9535912867271
 20
478.7026672363281
 30
0.0
 11
655.9535912867271
 21
378.5663146972656
 31
0.0
  0
SOLID
  5
586
330
58A
100
AcDbEntity
  8
0
  6
ByBlock
 62
     0
380
     1
100
AcDbTrace
 10
655.9535912867271
 20
481.2026672363281
 30
0.0
 11
655.5369246200605
 21
478.7026672363281
 31
0.0
 12
656.3702579533938
 22
478.7026672363281
 32
0.0
 13
656.3702579533938
 23
478.7026672363281
 33
0.0
  0
SOLID
  5
587
330
58A
100
AcDbEntity
  8
0
  6
ByBlock
 62
     0
380
     1
100
AcDbTrace
 10
655.9535912867271
 20
376.0663146972656
 30
0.0
 11
655.5369246200605
 21
378.5663146972656
 31
0.0
 12
656.3702579533938
 22
378.5663146972656
 32
0.0
 13
656.3702579533938
 23
378.5663146972656
 33
0.0
  0
MTEXT
  5
588
330
58A
100
AcDbEntity
  8
0
  6
ByBlock
 62
     0
370
    -2
380
     1
100
AcDbMText
 10
653.8702579533938
 20
423.2211750983003
 30
0.0
 40
2.5
 41
0.0
 71
     5
 72
     1
  1
\A1;105,14
 11
6.123031769111886E-17
 21
1.0
 31
0.0
 73
     1
 44
1.0
  0
ENDBLK
  5
6B1
330
58A
100
AcDbEntity
  8
0
100
AcDbBlockEnd
  0
BLOCK
  5
6B2
330
595
100
AcDbEntity
  8
0
100
AcDbBlockBegin
  2
*D3
 70
     1
 10
0.0
 20
0.0
 30
0.0
  3
*D3
  1

  0
POINT
  5
58C
330
595
100
AcDbEntity
  8
DEFPOINTS
  6
ByBlock
 62
     0
380
     1
100
AcDbPoint
 10
624.7707390206577
 20
481.2026672363281
 30
0.0
  0
POINT
  5
58D
330
595
100
AcDbEntity
  8
DEFPOINTS
  6
ByBlock
 62
     0
380
     1
100
AcDbPoint
 10
565.7901635589357
 20
376.0663146972656
 30
0.0
  0
LINE
  5
58E
330
595
100
AcDbEntity
  8
0
  6
ByBlock
 62
     0
370
    -2
380
     1
100
AcDbLine
 10
625.3957390206577
 20
481.2026672363281
 30
0.0
 11
657.2035912867271
 21
481.2026672363281
 31
0.0
  0
LINE
  5
58F
330
595
100
AcDbEntity
  8
0
  6
ByBlock
 62
     0
370
    -2
380
     1
100
AcDbLine
 10
566.4151635589357
 20
376.0663146972656
 30
0.0
 11
657.2035912867271
 21
376.0663146972656
 31
0.0
  0
LINE
  5
590
330
595
100
AcDbEntity
  8
0
  6
ByBlock
 62
     0
370
    -2
380
     1
100
AcDbLine
 10
655.9535912867271
 20
478.7026672363281
 30
0.0
 11
655.9535912867271
 21
378.5663146972656
 31
0.0
  0
SOLID
  5
591
330
595
100
AcDbEntity
  8
0
  6
ByBlock
 62
     0
380
     1
100
AcDbTrace
 10
655.9535912867271
 20
481.2026672363281
 30
0.0
 11
655.5369246200605
 21
478.7026672363281
 31
0.0
 12
656.3702579533938
 22
478.7026672363281
 32
0.0
 13
656.3702579533938
 23
478.7026672363281
 33
0.0
  0
SOLID
  5
592
330
595
100
AcDbEntity
  8
0
  6
ByBlock
 62
     0
380
     1
100
AcDbTrace
 10
655.9535912867271
 20
376.0663146972656
 30
0.0
 11
655.5369246200605
 21
378.5663146972656
 31
0.0
 12
656.3702579533938
 22
378.5663146972656
 32
0.0
 13
656.3702579533938
 23
378.5663146972656
 33
0.0
  0
MTEXT
  5
593
330
595
100
AcDbEntity
  8
0
  6
ByBlock
 62
     0
370
    -2
380
     1
100
AcDbMText
 10
653.8702579533938
 20
432.566539381151
 30
0.0
 40
2.5
 41
0.0
 71
     5
 72
     1
  1
\A1;105,14
 11
6.123031769111886E-17
 21
1.0
 31
0.0
 73
     1
 44
1.0
  0
ENDBLK
  5
6B3
330
595
100
AcDbEntity
  8
0
100
AcDbBlockEnd
  0
BLOCK
  5
6B4
330
5A2
100
AcDbEntity
  8
0
100
AcDbBlockBegin
  2
*D4
 70
     1
 10
0.0
 20
0.0
 30
0.0
  3
*D4
  1

  0
POINT
  5
597
330
5A2
100
AcDbEntity
  8
DEFPOINTS
  6
ByBlock
 62
     0
380
     1
100
AcDbPoint
 10
624.7707390206577
 20
481.2026672363281
 30
0.0
  0
POINT
  5
598
330
5A2
100
AcDbEntity
  8
DEFPOINTS
  6
ByBlock
 62
     0
380
     1
100
AcDbPoint
 10
565.7901635589357
 20
376.0663146972656
 30
0.0
  0
LINE
  5
599
330
5A2
100
AcDbEntity
  8
0
  6
ByBlock
 62
     0
370
    -2
380
     1
100
AcDbLine
 10
625.3957390206577
 20
481.2026672363281
 30
0.0
 11
657.2035912867271
 21
481.2026672363281
 31
0.0
  0
LINE
  5
59A
330
5A2
100
AcDbEntity
  8
0
  6
ByBlock
 62
     0
370
    -2
380
     1
100
AcDbLine
 10
566.4151635589357
 20
376.0663146972656
 30
0.0
 11
657.2035912867271
 21
376.0663146972656
 31
0.0
  0
LINE
  5
59B
330
5A2
100
AcDbEntity
  8
0
  6
ByBlock
 62
     0
370
    -2
380
     1
100
AcDbLine
 10
655.9535912867271
 20
491.2026672363281
 30
0.0
 11
655.9535912867271
 21
501.2026672363281
 31
0.0
  0
LINE
  5
59C
330
5A2
100
AcDbEntity
  8
0
  6
ByBlock
 62
     0
370
    -2
380
     1
100
AcDbLine
 10
655.9535912867271
 20
366.0663146972656
 30
0.0
 11
655.9535912867271
 21
356.0663146972656
 31
0.0
  0
SOLID
  5
59D
330
5A2
100
AcDbEntity
  8
0
  6
ByBlock
 62
     0
380
     1
100
AcDbTrace
 10
655.9535912867271
 20
481.2026672363281
 30
0.0
 11
654.2869246200605
 21
491.2026672363281
 31
0.0
 12
657.6202579533938
 22
491.2026672363281
 32
0.0
 13
657.6202579533938
 23
491.2026672363281
 33
0.0
  0
SOLID
  5
59E
330
5A2
100
AcDbEntity
  8
0
  6
ByBlock
 62
     0
380
     1
100
AcDbTrace
 10
655.9535912867271
 20
376.0663146972656
 30
0.0
 11
654.2869246200605
 21
366.0663146972656
 31
0.0
 12
657.6202579533938
 22
366.0663146972656
 32
0.0
 13
657.6202579533938
 23
366.0663146972656
 33
0.0
  0
LINE
  5
59F
330
5A2
100
AcDbEntity
  8
0
  6
ByBlock
 62
     0
370
    -2
380
     1
100
AcDbLine
 10
655.9535912867271
 20
481.2026672363281
 30
0.0
 11
655.9535912867271
 21
376.0663146972656
 31
0.0
  0
MTEXT
  5
5A0
330
5A2
100
AcDbEntity
  8
0
  6
ByBlock
 62
     0
370
    -2
380
     1
100
AcDbMText
 10
627.9535912867271
 20
419.7026672363281
 30
0.0
 40
36.0
 41
0.0
 71
     5
 72
     1
  1
\A1;105
 11
6.123031769111886E-17
 21
1.0
 31
0.0
 73
     1
 44
1.0
  0
ENDBLK
  5
6B5
330
5A2
100
AcDbEntity
  8
0
100
AcDbBlockEnd
  0
BLOCK
  5
6B6
330
5AF
100
AcDbEntity
  8
0
100
AcDbBlockBegin
  2
*D5
 70
     1
 10
0.0
 20
0.0
 30
0.0
  3
*D5
  1

  0
POINT
  5
5A4
330
5AF
100
AcDbEntity
  8
DEFPOINTS
  6
ByBlock
 62
     0
380
     1
100
AcDbPoint
 10
624.7707390206577
 20
481.2026672363281
 30
0.0
  0
POINT
  5
5A5
330
5AF
100
AcDbEntity
  8
DEFPOINTS
  6
ByBlock
 62
     0
380
     1
100
AcDbPoint
 10
565.7901635589357
 20
376.0663146972656
 30
0.0
  0
LINE
  5
5A6
330
5AF
100
AcDbEntity
  8
0
  6
ByBlock
 62
     0
370
    -2
380
     1
100
AcDbLine
 10
625.3957390206577
 20
481.2026672363281
 30
0.0
 11
762.2313179267652
 21
481.2026672363281
 31
0.0
  0
LINE
  5
5A7
330
5AF
100
AcDbEntity
  8
0
  6
ByBlock
 62
     0
370
    -2
380
     1
100
AcDbLine
 10
566.4151635589357
 20
376.0663146972656
 30
0.0
 11
762.2313179267652
 21
376.0663146972656
 31
0.0
  0
LINE
  5
5A8
330
5AF
100
AcDbEntity
  8
0
  6
ByBlock
 62
     0
370
    -2
380
     1
100
AcDbLine
 10
760.9813179267652
 20
491.2026672363281
 30
0.0
 11
760.9813179267652
 21
501.2026672363281
 31
0.0
  0
LINE
  5
5A9
330
5AF
100
AcDbEntity
  8
0
  6
ByBlock
 62
     0
370
    -2
380
     1
100
AcDbLine
 10
760.9813179267652
 20
366.0663146972656
 30
0.0
 11
760.9813179267652
 21
356.0663146972656
 31
0.0
  0
SOLID
  5
5AA
330
5AF
100
AcDbEntity
  8
0
  6
ByBlock
 62
     0
380
     1
100
AcDbTrace
 10
760.9813179267652
 20
481.2026672363281
 30
0.0
 11
759.3146512600986
 21
491.2026672363281
 31
0.0
 12
762.6479845934318
 22
491.2026672363281
 32
0.0
 13
762.6479845934318
 23
491.2026672363281
 33
0.0
  0
SOLID
  5
5AB
330
5AF
100
AcDbEntity
  8
0
  6
ByBlock
 62
     0
380
     1
100
AcDbTrace
 10
760.9813179267652
 20
376.0663146972656
 30
0.0
 11
759.3146512600986
 21
366.0663146972656
 31
0.0
 12
762.6479845934318
 22
366.0663146972656
 32
0.0
 13
762.6479845934318
 23
366.0663146972656
 33
0.0
  0
LINE
  5
5AC
330
5AF
100
AcDbEntity
  8
0
  6
ByBlock
 62
     0
370
    -2
380
     1
100
AcDbLine
 10
760.9813179267652
 20
481.2026672363281
 30
0.0
 11
760.9813179267652
 21
376.0663146972656
 31
0.0
  0
MTEXT
  5
5AD
330
5AF
100
AcDbEntity
  8
0
  6
ByBlock
 62
     0
370
    -2
380
     1
100
AcDbMText
 10
732.9813179267652
 20
419.7026672363281
 30
0.0
 40
36.0
 41
0.0
 71
     5
 72
     1
  1
\A1;105
 11
6.123031769111886E-17
 21
1.0
 31
0.0
 73
     1
 44
1.0
  0
ENDBLK
  5
6B7
330
5AF
100
AcDbEntity
  8
0
100
AcDbBlockEnd
  0
BLOCK
  5
6B8
330
5BC
100
AcDbEntity
  8
0
100
AcDbBlockBegin
  2
*D6
 70
     1
 10
0.0
 20
0.0
 30
0.0
  3
*D6
  1

  0
POINT
  5
5B1
330
5BC
100
AcDbEntity
  8
DEFPOINTS
  6
ByBlock
 62
     0
380
     1
100
AcDbPoint
 10
624.7707390206577
 20
481.2026672363281
 30
0.0
  0
POINT
  5
5B2
330
5BC
100
AcDbEntity
  8
DEFPOINTS
  6
ByBlock
 62
     0
380
     1
100
AcDbPoint
 10
565.7901635589357
 20
376.0663146972656
 30
0.0
  0
LINE
  5
5B3
330
5BC
100
AcDbEntity
  8
0
  6
ByBlock
 62
     0
370
    -2
380
     1
100
AcDbLine
 10
625.3957390206577
 20
481.2026672363281
 30
0.0
 11
779.6857610570895
 21
481.2026672363281
 31
0.0
  0
LINE
  5
5B4
330
5BC
100
AcDbEntity
  8
0
  6
ByBlock
 62
     0
370
    -2
380
     1
100
AcDbLine
 10
566.4151635589357
 20
376.0663146972656
 30
0.0
 11
779.6857610570895
 21
376.0663146972656
 31
0.0
  0
LINE
  5
5B5
330
5BC
100
AcDbEntity
  8
0
  6
ByBlock
 62
     0
370
    -2
380
     1
100
AcDbLine
 10
778.4357610570895
 20
491.2026672363281
 30
0.0
 11
778.4357610570895
 21
501.2026672363281
 31
0.0
  0
LINE
  5
5B6
330
5BC
100
AcDbEntity
  8
0
  6
ByBlock
 62
     0
370
    -2
380
     1
100
AcDbLine
 10
778.4357610570895
 20
366.0663146972656
 30
0.0
 11
778.4357610570895
 21
356.0663146972656
 31
0.0
  0
SOLID
  5
5B7
330
5BC
100
AcDbEntity
  8
0
  6
ByBlock
 62
     0
380
     1
100
AcDbTrace
 10
778.4357610570895
 20
481.2026672363281
 30
0.0
 11
776.7690943904229
 21
491.2026672363281
 31
0.0
 12
780.1024277237561
 22
491.2026672363281
 32
0.0
 13
780.1024277237561
 23
491.2026672363281
 33
0.0
  0
SOLID
  5
5B8
330
5BC
100
AcDbEntity
  8
0
  6
ByBlock
 62
     0
380
     1
100
AcDbTrace
 10
778.4357610570895
 20
376.0663146972656
 30
0.0
 11
776.7690943904229
 21
366.0663146972656
 31
0.0
 12
780.1024277237561
 22
366.0663146972656
 32
0.0
 13
780.1024277237561
 23
366.0663146972656
 33
0.0
  0
LINE
  5
5B9
330
5BC
100
AcDbEntity
  8
0
  6
ByBlock
 62
     0
370
    -2
380
     1
100
AcDbLine
 10
778.4357610570895
 20
481.2026672363281
 30
0.0
 11
778.4357610570895
 21
376.0663146972656
 31
0.0
  0
MTEXT
  5
5BA
330
5BC
100
AcDbEntity
  8
0
  6
ByBlock
 62
     0
370
    -2
380
     1
100
AcDbMText
 10
750.4357610570895
 20
437.5663146972656
 30
0.0
 40
36.0
 41
0.0
 71
     5
 72
     1
  1
\A1;105
 11
6.123031769111886E-17
 21
1.0
 31
0.0
 73
     1
 44
1.0
  0
ENDBLK
  5
6B9
330
5BC
100
AcDbEntity
  8
0
100
AcDbBlockEnd
  0
BLOCK
  5
6BA
330
5C8
100
AcDbEntity
  8
0
100
AcDbBlockBegin
  2
*D7
 70
     1
 10
0.0
 20
0.0
 30
0.0
  3
*D7
  1

  0
POINT
  5
5BF
330
5C8
100
AcDbEntity
  8
DEFPOINTS
  6
ByBlock
 62
     0
380
     1
100
AcDbPoint
 10
623.9000816349495
 20
481.2026672363281
 30
0.0
  0
POINT
  5
5C0
330
5C8
100
AcDbEntity
  8
DEFPOINTS
  6
ByBlock
 62
     0
380
     1
100
AcDbPoint
 10
575.3682153701453
 20
376.0663146972656
 30
0.0
  0
LINE
  5
5C1
330
5C8
100
AcDbEntity
  8
0
  6
ByBlock
 62
     0
370
    -2
380
     1
100
AcDbLine
 10
624.5250816349495
 20
481.2026672363281
 30
0.0
 11
747.7569016723498
 21
481.2026672363281
 31
0.0
  0
LINE
  5
5C2
330
5C8
100
AcDbEntity
  8
0
  6
ByBlock
 62
     0
370
    -2
380
     1
100
AcDbLine
 10
575.9932153701453
 20
376.0663146972656
 30
0.0
 11
747.7569016723498
 21
376.0663146972656
 31
0.0
  0
LINE
  5
5C3
330
5C8
100
AcDbEntity
  8
0
  6
ByBlock
 62
     0
370
    -2
380
     1
100
AcDbLine
 10
746.5069016723498
 20
478.7026672363281
 30
0.0
 11
746.5069016723498
 21
378.5663146972656
 31
0.0
  0
SOLID
  5
5C4
330
5C8
100
AcDbEntity
  8
0
  6
ByBlock
 62
     0
380
     1
100
AcDbTrace
 10
746.5069016723498
 20
481.2026672363281
 30
0.0
 11
746.0902350056832
 21
478.7026672363281
 31
0.0
 12
746.9235683390165
 22
478.7026672363281
 32
0.0
 13
746.9235683390165
 23
478.7026672363281
 33
0.0
  0
SOLID
  5
5C5
330
5C8
100
AcDbEntity
  8
0
  6
ByBlock
 62
     0
380
     1
100
AcDbTrace
 10
746.5069016723498
 20
376.0663146972656
 30
0.0
 11
746.0902350056832
 21
378.5663146972656
 31
0.0
 12
746.9235683390165
 22
378.5663146972656
 32
0.0
 13
746.9235683390165
 23
378.5663146972656
 33
0.0
  0
MTEXT
  5
5C6
330
5C8
100
AcDbEntity
  8
0
  6
ByBlock
 62
     0
370
    -2
380
     1
100
AcDbMText
 10
744.4235683390165
 20
428.6344909667969
 30
0.0
 40
2.5
 41
0.0
 71
     5
 72
     1
  1
\A1;105,14
 11
6.123031769111886E-17
 21
1.0
 31
0.0
 73
     1
 44
1.0
  0
ENDBLK
  5
6BB
330
5C8
100
AcDbEntity
  8
0
100
AcDbBlockEnd
  0
BLOCK
  5
6BC
330
5D5
100
AcDbEntity
  8
0
100
AcDbBlockBegin
  2
*D8
 70
     1
 10
0.0
 20
0.0
 30
0.0
  3
*D8
  1

  0
POINT
  5
5CA
330
5D5
100
AcDbEntity
  8
DEFPOINTS
  6
ByBlock
 62
     0
380
     1
100
AcDbPoint
 10
623.9000816349495
 20
481.2026672363281
 30
0.0
  0
POINT
  5
5CB
330
5D5
100
AcDbEntity
  8
DEFPOINTS
  6
ByBlock
 62
     0
380
     1
100
AcDbPoint
 10
575.3682153701453
 20
376.0663146972656
 30
0.0
  0
LINE
  5
5CC
330
5D5
100
AcDbEntity
  8
0
  6
ByBlock
 62
     0
370
    -2
380
     1
100
AcDbLine
 10
624.5250816349495
 20
481.2026672363281
 30
0.0
 11
747.7569016723498
 21
481.2026672363281
 31
0.0
  0
LINE
  5
5CD
330
5D5
100
AcDbEntity
  8
0
  6
ByBlock
 62
     0
370
    -2
380
     1
100
AcDbLine
 10
575.9932153701453
 20
376.0663146972656
 30
0.0
 11
747.7569016723498
 21
376.0663146972656
 31
0.0
  0
LINE
  5
5CE
330
5D5
100
AcDbEntity
  8
0
  6
ByBlock
 62
     0
370
    -2
380
     1
100
AcDbLine
 10
746.5069016723498
 20
491.2026672363281
 30
0.0
 11
746.5069016723498
 21
501.2026672363281
 31
0.0
  0
LINE
  5
5CF
330
5D5
100
AcDbEntity
  8
0
  6
ByBlock
 62
     0
370
    -2
380
     1
100
AcDbLine
 10
746.5069016723498
 20
366.0663146972656
 30
0.0
 11
746.5069016723498
 21
356.0663146972656
 31
0.0
  0
SOLID
  5
5D0
330
5D5
100
AcDbEntity
  8
0
  6
ByBlock
 62
     0
380
     1
100
AcDbTrace
 10
746.5069016723498
 20
481.2026672363281
 30
0.0
 11
744.8402350056832
 21
491.2026672363281
 31
0.0
 12
748.1735683390165
 22
491.2026672363281
 32
0.0
 13
748.1735683390165
 23
491.2026672363281
 33
0.0
  0
SOLID
  5
5D1
330
5D5
100
AcDbEntity
  8
0
  6
ByBlock
 62
     0
380
     1
100
AcDbTrace
 10
746.5069016723498
 20
376.0663146972656
 30
0.0
 11
744.8402350056832
 21
366.0663146972656
 31
0.0
 12
748.1735683390165
 22
366.0663146972656
 32
0.0
 13
748.1735683390165
 23
366.0663146972656
 33
0.0
  0
LINE
  5
5D2
330
5D5
100
AcDbEntity
  8
0
  6
ByBlock
 62
     0
370
    -2
380
     1
100
AcDbLine
 10
746.5069016723498
 20
481.2026672363281
 30
0.0
 11
746.5069016723498
 21
376.0663146972656
 31
0.0
  0
MTEXT
  5
5D3
330
5D5
100
AcDbEntity
  8
0
  6
ByBlock
 62
     0
370
    -2
380
     1
100
AcDbMText
 10
718.5069016723498
 20
428.6344909667969
 30
0.0
 40
36.0
 41
0.0
 71
     5
 72
     1
  1
\A1;105
 11
6.123031769111886E-17
 21
1.0
 31
0.0
 73
     1
 44
1.0
  0
ENDBLK
  5
6BD
330
5D5
100
AcDbEntity
  8
0
100
AcDbBlockEnd
  0
BLOCK
  5
6BE
330
5E2
100
AcDbEntity
  8
0
100
AcDbBlockBegin
  2
*D9
 70
     1
 10
0.0
 20
0.0
 30
0.0
  3
*D9
  1

  0
POINT
  5
5D7
330
5E2
100
AcDbEntity
  8
DEFPOINTS
  6
ByBlock
 62
     0
380
     1
100
AcDbPoint
 10
623.9000816349495
 20
481.2026672363281
 30
0.0
  0
POINT
  5
5D8
330
5E2
100
AcDbEntity
  8
DEFPOINTS
  6
ByBlock
 62
     0
380
     1
100
AcDbPoint
 10
575.3682153701453
 20
376.0663146972656
 30
0.0
  0
LINE
  5
5D9
330
5E2
100
AcDbEntity
  8
0
  6
ByBlock
 62
     0
370
    -2
380
     1
100
AcDbLine
 10
624.5250816349495
 20
481.2026672363281
 30
0.0
 11
693.2649816557275
 21
481.2026672363281
 31
0.0
  0
LINE
  5
5DA
330
5E2
100
AcDbEntity
  8
0
  6
ByBlock
 62
     0
370
    -2
380
     1
100
AcDbLine
 10
575.9932153701453
 20
376.0663146972656
 30
0.0
 11
693.2649816557275
 21
376.0663146972656
 31
0.0
  0
LINE
  5
5DB
330
5E2
100
AcDbEntity
  8
0
  6
ByBlock
 62
     0
370
    -2
380
     1
100
AcDbLine
 10
692.0149816557275
 20
491.2026672363281
 30
0.0
 11
692.0149816557275
 21
501.2026672363281
 31
0.0
  0
LINE
  5
5DC
330
5E2
100
AcDbEntity
  8
0
  6
ByBlock
 62
     0
370
    -2
380
     1
100
AcDbLine
 10
692.0149816557275
 20
366.0663146972656
 30
0.0
 11
692.0149816557275
 21
356.0663146972656
 31
0.0
  0
SOLID
  5
5DD
330
5E2
100
AcDbEntity
  8
0
  6
ByBlock
 62
     0
380
     1
100
AcDbTrace
 10
692.0149816557275
 20
481.2026672363281
 30
0.0
 11
690.3483149890609
 21
491.2026672363281
 31
0.0
 12
693.6816483223942
 22
491.2026672363281
 32
0.0
 13
693.6816483223942
 23
491.2026672363281
 33
0.0
  0
SOLID
  5
5DE
330
5E2
100
AcDbEntity
  8
0
  6
ByBlock
 62
     0
380
     1
100
AcDbTrace
 10
692.0149816557275
 20
376.0663146972656
 30
0.0
 11
690.3483149890609
 21
366.0663146972656
 31
0.0
 12
693.6816483223942
 22
366.0663146972656
 32
0.0
 13
693.6816483223942
 23
366.0663146972656
 33
0.0
  0
LINE
  5
5DF
330
5E2
100
AcDbEntity
  8
0
  6
ByBlock
 62
     0
370
    -2
380
     1
100
AcDbLine
 10
692.0149816557275
 20
481.2026672363281
 30
0.0
 11
692.0149816557275
 21
376.0663146972656
 31
0.0
  0
MTEXT
  5
5E0
330
5E2
100
AcDbEntity
  8
0
  6
ByBlock
 62
     0
370
    -2
380
     1
100
AcDbMText
 10
664.0149816557275
 20
428.6344909667969
 30
0.0
 40
36.0
 41
0.0
 71
     5
 72
     1
  1
\A1;105
 11
6.123031769111886E-17
 21
1.0
 31
0.0
 73
     1
 44
1.0
  0
ENDBLK
  5
6BF
330
5E2
100
AcDbEntity
  8
0
100
AcDbBlockEnd
  0
BLOCK
  5
6C0
330
5EF
100
AcDbEntity
  8
0
100
AcDbBlockBegin
  2
*D10
 70
     1
 10
0.0
 20
0.0
 30
0.0
  3
*D10
  1

  0
POINT
  5
5E4
330
5EF
100
AcDbEntity
  8
DEFPOINTS
  6
ByBlock
 62
     0
380
     1
100
AcDbPoint
 10
623.9000816349495
 20
481.2026672363281
 30
0.0
  0
POINT
  5
5E5
330
5EF
100
AcDbEntity
  8
DEFPOINTS
  6
ByBlock
 62
     0
380
     1
100
AcDbPoint
 10
575.3682153701453
 20
376.0663146972656
 30
0.0
  0
LINE
  5
5E6
330
5EF
100
AcDbEntity
  8
0
  6
ByBlock
 62
     0
370
    -2
380
     1
100
AcDbLine
 10
624.5250816349495
 20
481.2026672363281
 30
0.0
 11
693.2649816557275
 21
481.2026672363281
 31
0.0
  0
LINE
  5
5E7
330
5EF
100
AcDbEntity
  8
0
  6
ByBlock
 62
     0
370
    -2
380
     1
100
AcDbLine
 10
575.9932153701453
 20
376.0663146972656
 30
0.0
 11
693.2649816557275
 21
376.0663146972656
 31
0.0
  0
LINE
  5
5E8
330
5EF
100
AcDbEntity
  8
0
  6
ByBlock
 62
     0
370
    -2
380
     1
100
AcDbLine
 10
692.0149816557275
 20
491.2026672363281
 30
0.0
 11
692.0149816557275
 21
501.2026672363281
 31
0.0
  0
LINE
  5
5E9
330
5EF
100
AcDbEntity
  8
0
  6
ByBlock
 62
     0
370
    -2
380
     1
100
AcDbLine
 10
692.0149816557275
 20
366.0663146972656
 30
0.0
 11
692.0149816557275
 21
356.0663146972656
 31
0.0
  0
SOLID
  5
5EA
330
5EF
100
AcDbEntity
  8
0
  6
ByBlock
 62
     0
380
     1
100
AcDbTrace
 10
692.0149816557275
 20
481.2026672363281
 30
0.0
 11
690.3483149890609
 21
491.2026672363281
 31
0.0
 12
693.6816483223942
 22
491.2026672363281
 32
0.0
 13
693.6816483223942
 23
491.2026672363281
 33
0.0
  0
SOLID
  5
5EB
330
5EF
100
AcDbEntity
  8
0
  6
ByBlock
 62
     0
380
     1
100
AcDbTrace
 10
692.0149816557275
 20
376.0663146972656
 30
0.0
 11
690.3483149890609
 21
366.0663146972656
 31
0.0
 12
693.6816483223942
 22
366.0663146972656
 32
0.0
 13
693.6816483223942
 23
366.0663146972656
 33
0.0
  0
LINE
  5
5EC
330
5EF
100
AcDbEntity
  8
0
  6
ByBlock
 62
     0
370
    -2
380
     1
100
AcDbLine
 10
692.0149816557275
 20
481.2026672363281
 30
0.0
 11
692.0149816557275
 21
376.0663146972656
 31
0.0
  0
MTEXT
  5
5ED
330
5EF
100
AcDbEntity
  8
0
  6
ByBlock
 62
     0
370
    -2
380
     1
100
AcDbMText
 10
664.0149816557275
 20
428.6344909667969
 30
0.0
 40
36.0
 41
0.0
 71
     5
 72
     1
  1
\A1;105
 11
6.123031769111886E-17
 21
1.0
 31
0.0
 73
     1
 44
1.0
  0
ENDBLK
  5
6C1
330
5EF
100
AcDbEntity
  8
0
100
AcDbBlockEnd
  0
BLOCK
  5
6C2
330
5FC
100
AcDbEntity
  8
0
100
AcDbBlockBegin
  2
*D11
 70
     1
 10
0.0
 20
0.0
 30
0.0
  3
*D11
  1

  0
POINT
  5
5F1
330
5FC
100
AcDbEntity
  8
DEFPOINTS
  6
ByBlock
 62
     0
380
     1
100
AcDbPoint
 10
623.9000816349495
 20
481.2026672363281
 30
0.0
  0
POINT
  5
5F2
330
5FC
100
AcDbEntity
  8
DEFPOINTS
  6
ByBlock
 62
     0
380
     1
100
AcDbPoint
 10
575.3682153701453
 20
376.0663146972656
 30
0.0
  0
LINE
  5
5F3
330
5FC
100
AcDbEntity
  8
0
  6
ByBlock
 62
     0
370
    -2
380
     1
100
AcDbLine
 10
624.5250816349495
 20
481.2026672363281
 30
0.0
 11
693.2649816557275
 21
481.2026672363281
 31
0.0
  0
LINE
  5
5F4
330
5FC
100
AcDbEntity
  8
0
  6
ByBlock
 62
     0
370
    -2
380
     1
100
AcDbLine
 10
575.9932153701453
 20
376.0663146972656
 30
0.0
 11
693.2649816557275
 21
376.0663146972656
 31
0.0
  0
LINE
  5
5F5
330
5FC
100
AcDbEntity
  8
0
  6
ByBlock
 62
     0
370
    -2
380
     1
100
AcDbLine
 10
692.0149816557275
 20
491.2026672363281
 30
0.0
 11
692.0149816557275
 21
501.2026672363281
 31
0.0
  0
LINE
  5
5F6
330
5FC
100
AcDbEntity
  8
0
  6
ByBlock
 62
     0
370
    -2
380
     1
100
AcDbLine
 10
692.0149816557275
 20
366.0663146972656
 30
0.0
 11
692.0149816557275
 21
356.0663146972656
 31
0.0
  0
SOLID
  5
5F7
330
5FC
100
AcDbEntity
  8
0
  6
ByBlock
 62
     0
380
     1
100
AcDbTrace
 10
692.0149816557275
 20
481.2026672363281
 30
0.0
 11
690.3483149890609
 21
491.2026672363281
 31
0.0
 12
693.6816483223942
 22
491.2026672363281
 32
0.0
 13
693.6816483223942
 23
491.2026672363281
 33
0.0
  0
SOLID
  5
5F8
330
5FC
100
AcDbEntity
  8
0
  6
ByBlock
 62
     0
380
     1
100
AcDbTrace
 10
692.0149816557275
 20
376.0663146972656
 30
0.0
 11
690.3483149890609
 21
366.0663146972656
 31
0.0
 12
693.6816483223942
 22
366.0663146972656
 32
0.0
 13
693.6816483223942
 23
366.0663146972656
 33
0.0
  0
LINE
  5
5F9
330
5FC
100
AcDbEntity
  8
0
  6
ByBlock
 62
     0
370
    -2
380
     1
100
AcDbLine
 10
692.0149816557275
 20
481.2026672363281
 30
0.0
 11
692.0149816557275
 21
376.0663146972656
 31
0.0
  0
MTEXT
  5
5FA
330
5FC
100
AcDbEntity
  8
0
  6
ByBlock
 62
     0
370
    -2
380
     1
100
AcDbMText
 10
664.0149816557275
 20
428.6344909667969
 30
0.0
 40
36.0
 41
0.0
 71
     5
 72
     1
  1
\A1;105
 11
6.123031769111886E-17
 21
1.0
 31
0.0
 73
     1
 44
1.0
  0
ENDBLK
  5
6C3
330
5FC
100
AcDbEntity
  8
0
100
AcDbBlockEnd
  0
BLOCK
  5
6C4
330
608
100
AcDbEntity
  8
0
100
AcDbBlockBegin
  2
*D12
 70
     1
 10
0.0
 20
0.0
 30
0.0
  3
*D12
  1

  0
POINT
  5
5FF
330
608
100
AcDbEntity
  8
DEFPOINTS
  6
ByBlock
 62
     0
380
     1
100
AcDbPoint
 10
117.8262329101562
 20
439.6132478940101
 30
0.0
  0
POINT
  5
600
330
608
100
AcDbEntity
  8
DEFPOINTS
  6
ByBlock
 62
     0
380
     1
100
AcDbPoint
 10
625.8262329101562
 20
429.8301874171478
 30
0.0
  0
LINE
  5
601
330
608
100
AcDbEntity
  8
0
  6
ByBlock
 62
     0
370
    -2
380
     1
100
AcDbLine
 10
117.8262329101562
 20
438.9882478940101
 30
0.0
 11
117.8262329101562
 21
313.1892561152924
 31
0.0
  0
LINE
  5
602
330
608
100
AcDbEntity
  8
0
  6
ByBlock
 62
     0
370
    -2
380
     1
100
AcDbLine
 10
625.8262329101562
 20
429.2051874171478
 30
0.0
 11
625.8262329101562
 21
313.1892561152924
 31
0.0
  0
LINE
  5
603
330
608
100
AcDbEntity
  8
0
  6
ByBlock
 62
     0
370
    -2
380
     1
100
AcDbLine
 10
120.3262329101562
 20
314.4392561152924
 30
0.0
 11
623.3262329101562
 21
314.4392561152924
 31
0.0
  0
SOLID
  5
604
330
608
100
AcDbEntity
  8
0
  6
ByBlock
 62
     0
380
     1
100
AcDbTrace
 10
117.8262329101562
 20
314.4392561152924
 30
0.0
 11
120.3262329101562
 21
314.0225894486258
 31
0.0
 12
120.3262329101562
 22
314.8559227819591
 32
0.0
 13
120.3262329101562
 23
314.8559227819591
 33
0.0
  0
SOLID
  5
605
330
608
100
AcDbEntity
  8
0
  6
ByBlock
 62
     0
380
     1
100
AcDbTrace
 10
625.8262329101562
 20
314.4392561152924
 30
0.0
 11
623.3262329101562
 21
314.0225894486258
 31
0.0
 12
623.3262329101562
 22
314.8559227819591
 32
0.0
 13
623.3262329101562
 23
314.8559227819591
 33
0.0
  0
MTEXT
  5
606
330
608
100
AcDbEntity
  8
0
  6
ByBlock
 62
     0
370
    -2
380
     1
100
AcDbMText
 10
371.8262329101562
 20
316.3142561152924
 30
0.0
 40
2.5
 41
0.0
 71
     5
 72
     1
  1
\A1;508
 73
     1
 44
1.0
  0
ENDBLK
  5
6C5
330
608
100
AcDbEntity
  8
0
100
AcDbBlockEnd
  0
BLOCK
  5
6C6
330
613
100
AcDbEntity
  8
0
100
AcDbBlockBegin
  2
*D13
 70
     1
 10
0.0
 20
0.0
 30
0.0
  3
*D13
  1

  0
POINT
  5
60A
330
613
100
AcDbEntity
  8
DEFPOINTS
  6
ByBlock
 62
     0
380
     1
100
AcDbPoint
 10
117.8262329101562
 20
439.6132478940101
 30
0.0
  0
POINT
  5
60B
330
613
100
AcDbEntity
  8
DEFPOINTS
  6
ByBlock
 62
     0
380
     1
100
AcDbPoint
 10
625.8262329101562
 20
429.8301874171478
 30
0.0
  0
LINE
  5
60C
330
613
100
AcDbEntity
  8
0
  6
ByBlock
 62
     0
370
    -2
380
     1
100
AcDbLine
 10
117.8262329101562
 20
438.9882478940101
 30
0.0
 11
117.8262329101562
 21
313.1892561152924
 31
0.0
  0
LINE
  5
60D
330
613
100
AcDbEntity
  8
0
  6
ByBlock
 62
     0
370
    -2
380
     1
100
AcDbLine
 10
625.8262329101562
 20
429.2051874171478
 30
0.0
 11
625.8262329101562
 21
313.1892561152924
 31
0.0
  0
LINE
  5
60E
330
613
100
AcDbEntity
  8
0
  6
ByBlock
 62
     0
370
    -2
380
     1
100
AcDbLine
 10
127.8262329101562
 20
314.4392561152924
 30
0.0
 11
615.8262329101562
 21
314.4392561152924
 31
0.0
  0
SOLID
  5
60F
330
613
100
AcDbEntity
  8
0
  6
ByBlock
 62
     0
380
     1
100
AcDbTrace
 10
117.8262329101562
 20
314.4392561152924
 30
0.0
 11
127.8262329101562
 21
312.7725894486258
 31
0.0
 12
127.8262329101562
 22
316.1059227819591
 32
0.0
 13
127.8262329101562
 23
316.1059227819591
 33
0.0
  0
SOLID
  5
610
330
613
100
AcDbEntity
  8
0
  6
ByBlock
 62
     0
380
     1
100
AcDbTrace
 10
625.8262329101562
 20
314.4392561152924
 30
0.0
 11
615.8262329101562
 21
312.7725894486258
 31
0.0
 12
615.8262329101562
 22
316.1059227819591
 32
0.0
 13
615.8262329101562
 23
316.1059227819591
 33
0.0
  0
MTEXT
  5
611
330
613
100
AcDbEntity
  8
0
  6
ByBlock
 62
     0
370
    -2
380
     1
100
AcDbMText
 10
371.8262329101562
 20
342.4392561152924
 30
0.0
 40
36.0
 41
0.0
 71
     5
 72
     1
  1
\A1;508
 73
     1
 44
1.0
  0
ENDBLK
  5
6C7
330
613
100
AcDbEntity
  8
0
100
AcDbBlockEnd
  0
BLOCK
  5
6C8
330
61E
100
AcDbEntity
  8
0
100
AcDbBlockBegin
  2
*D14
 70
     1
 10
0.0
 20
0.0
 30
0.0
  3
*D14
  1

  0
POINT
  5
615
330
61E
100
AcDbEntity
  8
DEFPOINTS
  6
ByBlock
 62
     0
380
     1
100
AcDbPoint
 10
117.8262329101562
 20
439.6132478940101
 30
0.0
  0
POINT
  5
616
330
61E
100
AcDbEntity
  8
DEFPOINTS
  6
ByBlock
 62
     0
380
     1
100
AcDbPoint
 10
625.8262329101562
 20
429.8301874171478
 30
0.0
  0
LINE
  5
617
330
61E
100
AcDbEntity
  8
0
  6
ByBlock
 62
     0
370
    -2
380
     1
100
AcDbLine
 10
117.8262329101562
 20
438.9882478940101
 30
0.0
 11
117.8262329101562
 21
294.6413176562271
 31
0.0
  0
LINE
  5
618
330
61E
100
AcDbEntity
  8
0
  6
ByBlock
 62
     0
370
    -2
380
     1
100
AcDbLine
 10
625.8262329101562
 20
429.2051874171478
 30
0.0
 11
625.8262329101562
 21
294.6413176562271
 31
0.0
  0
LINE
  5
619
330
61E
100
AcDbEntity
  8
0
  6
ByBlock
 62
     0
370
    -2
380
     1
100
AcDbLine
 10
127.8262329101562
 20
295.8913176562271
 30
0.0
 11
615.8262329101562
 21
295.8913176562271
 31
0.0
  0
SOLID
  5
61A
330
61E
100
AcDbEntity
  8
0
  6
ByBlock
 62
     0
380
     1
100
AcDbTrace
 10
117.8262329101562
 20
295.8913176562271
 30
0.0
 11
127.8262329101562
 21
294.2246509895605
 31
0.0
 12
127.8262329101562
 22
297.5579843228937
 32
0.0
 13
127.8262329101562
 23
297.5579843228937
 33
0.0
  0
SOLID
  5
61B
330
61E
100
AcDbEntity
  8
0
  6
ByBlock
 62
     0
380
     1
100
AcDbTrace
 10
625.8262329101562
 20
295.8913176562271
 30
0.0
 11
615.8262329101562
 21
294.2246509895605
 31
0.0
 12
615.8262329101562
 22
297.5579843228937
 32
0.0
 13
615.8262329101562
 23
297.5579843228937
 33
0.0
  0
MTEXT
  5
61C
330
61E
100
AcDbEntity
  8
0
  6
ByBlock
 62
     0
370
    -2
380
     1
100
AcDbMText
 10
371.8262329101562
 20
323.8913176562271
 30
0.0
 40
36.0
 41
0.0
 71
     5
 72
     1
  1
\A1;508
 73
     1
 44
1.0
  0
ENDBLK
  5
6C9
330
61E
100
AcDbEntity
  8
0
100
AcDbBlockEnd
  0
BLOCK
  5
6CA
330
629
100
AcDbEntity
  8
0
100
AcDbBlockBegin
  2
*D15
 70
     1
 10
0.0
 20
0.0
 30
0.0
  3
*D15
  1

  0
POINT
  5
620
330
629
100
AcDbEntity
  8
DEFPOINTS
  6
ByBlock
 62
     0
380
     1
100
AcDbPoint
 10
117.8262329101562
 20
439.6132478940101
 30
0.0
  0
POINT
  5
621
330
629
100
AcDbEntity
  8
DEFPOINTS
  6
ByBlock
 62
     0
380
     1
100
AcDbPoint
 10
625.8262329101562
 20
429.8301874171478
 30
0.0
  0
LINE
  5
622
330
629
100
AcDbEntity
  8
0
  6
ByBlock
 62
     0
370
    -2
380
     1
100
AcDbLine
 10
117.8262329101562
 20
438.9882478940101
 30
0.0
 11
117.8262329101562
 21
235.9215659522722
 31
0.0
  0
LINE
  5
623
330
629
100
AcDbEntity
  8
0
  6
ByBlock
 62
     0
370
    -2
380
     1
100
AcDbLine
 10
625.8262329101562
 20
429.2051874171478
 30
0.0
 11
625.8262329101562
 21
235.9215659522722
 31
0.0
  0
LINE
  5
624
330
629
100
AcDbEntity
  8
0
  6
ByBlock
 62
     0
370
    -2
380
     1
100
AcDbLine
 10
127.8262329101562
 20
237.1715659522722
 30
0.0
 11
615.8262329101562
 21
237.1715659522722
 31
0.0
  0
SOLID
  5
625
330
629
100
AcDbEntity
  8
0
  6
ByBlock
 62
     0
380
     1
100
AcDbTrace
 10
117.8262329101562
 20
237.1715659522722
 30
0.0
 11
127.8262329101562
 21
235.5048992856055
 31
0.0
 12
127.8262329101562
 22
238.8382326189389
 32
0.0
 13
127.8262329101562
 23
238.8382326189389
 33
0.0
  0
SOLID
  5
626
330
629
100
AcDbEntity
  8
0
  6
ByBlock
 62
     0
380
     1
100
AcDbTrace
 10
625.8262329101562
 20
237.1715659522722
 30
0.0
 11
615.8262329101562
 21
235.5048992856055
 31
0.0
 12
615.8262329101562
 22
238.8382326189389
 32
0.0
 13
615.8262329101562
 23
238.8382326189389
 33
0.0
  0
MTEXT
  5
627
330
629
100
AcDbEntity
  8
0
  6
ByBlock
 62
     0
370
    -2
380
     1
100
AcDbMText
 10
371.8262329101562
 20
265.1715659522722
 30
0.0
 40
36.0
 41
0.0
 71
     5
 72
     1
  1
\A1;508
 73
     1
 44
1.0
  0
ENDBLK
  5
6CB
330
629
100
AcDbEntity
  8
0
100
AcDbBlockEnd
  0
BLOCK
  5
6CC
330
634
100
AcDbEntity
  8
0
100
AcDbBlockBegin
  2
*D16
 70
     1
 10
0.0
 20
0.0
 30
0.0
  3
*D16
  1

  0
POINT
  5
62B
330
634
100
AcDbEntity
  8
DEFPOINTS
  6
ByBlock
 62
     0
380
     1
100
AcDbPoint
 10
117.8262329101562
 20
439.6132478940101
 30
0.0
  0
POINT
  5
62C
330
634
100
AcDbEntity
  8
DEFPOINTS
  6
ByBlock
 62
     0
380
     1
100
AcDbPoint
 10
625.8262329101562
 20
429.8301874171478
 30
0.0
  0
LINE
  5
62D
330
634
100
AcDbEntity
  8
0
  6
ByBlock
 62
     0
370
    -2
380
     1
100
AcDbLine
 10
117.8262329101562
 20
438.9882478940101
 30
0.0
 11
117.8262329101562
 21
309.3212555822158
 31
0.0
  0
LINE
  5
62E
330
634
100
AcDbEntity
  8
0
  6
ByBlock
 62
     0
370
    -2
380
     1
100
AcDbLine
 10
625.8262329101562
 20
429.2051874171478
 30
0.0
 11
625.8262329101562
 21
309.3212555822158
 31
0.0
  0
LINE
  5
62F
330
634
100
AcDbEntity
  8
0
  6
ByBlock
 62
     0
370
    -2
380
     1
100
AcDbLine
 10
127.8262329101562
 20
310.5712555822158
 30
0.0
 11
615.8262329101562
 21
310.5712555822158
 31
0.0
  0
SOLID
  5
630
330
634
100
AcDbEntity
  8
0
  6
ByBlock
 62
     0
380
     1
100
AcDbTrace
 10
117.8262329101562
 20
310.5712555822158
 30
0.0
 11
127.8262329101562
 21
308.9045889155492
 31
0.0
 12
127.8262329101562
 22
312.2379222488825
 32
0.0
 13
127.8262329101562
 23
312.2379222488825
 33
0.0
  0
SOLID
  5
631
330
634
100
AcDbEntity
  8
0
  6
ByBlock
 62
     0
380
     1
100
AcDbTrace
 10
625.8262329101562
 20
310.5712555822158
 30
0.0
 11
615.8262329101562
 21
308.9045889155492
 31
0.0
 12
615.8262329101562
 22
312.2379222488825
 32
0.0
 13
615.8262329101562
 23
312.2379222488825
 33
0.0
  0
MTEXT
  5
632
330
634
100
AcDbEntity
  8
0
  6
ByBlock
 62
     0
370
    -2
380
     1
100
AcDbMText
 10
371.8262329101562
 20
338.5712555822158
 30
0.0
 40
36.0
 41
0.0
 71
     5
 72
     1
  1
\A1;508
 73
     1
 44
1.0
  0
ENDBLK
  5
6CD
330
634
100
AcDbEntity
  8
0
100
AcDbBlockEnd
  0
BLOCK
  5
6CE
330
63F
100
AcDbEntity
  8
0
100
AcDbBlockBegin
  2
*D17
 70
     1
 10
0.0
 20
0.0
 30
0.0
  3
*D17
  1

  0
POINT
  5
636
330
63F
100
AcDbEntity
  8
DEFPOINTS
  6
ByBlock
 62
     0
380
     1
100
AcDbPoint
 10
117.8262329101562
 20
439.6132478940101
 30
0.0
  0
POINT
  5
637
330
63F
100
AcDbEntity
  8
DEFPOINTS
  6
ByBlock
 62
     0
380
     1
100
AcDbPoint
 10
625.8262329101562
 20
429.8301874171478
 30
0.0
  0
LINE
  5
638
330
63F
100
AcDbEntity
  8
0
  6
ByBlock
 62
     0
370
    -2
380
     1
100
AcDbLine
 10
117.8262329101562
 20
438.9882478940101
 30
0.0
 11
117.8262329101562
 21
309.3212555822158
 31
0.0
  0
LINE
  5
639
330
63F
100
AcDbEntity
  8
0
  6
ByBlock
 62
     0
370
    -2
380
     1
100
AcDbLine
 10
625.8262329101562
 20
429.2051874171478
 30
0.0
 11
625.8262329101562
 21
309.3212555822158
 31
0.0
  0
LINE
  5
63A
330
63F
100
AcDbEntity
  8
0
  6
ByBlock
 62
     0
370
    -2
380
     1
100
AcDbLine
 10
127.8262329101562
 20
310.5712555822158
 30
0.0
 11
615.8262329101562
 21
310.5712555822158
 31
0.0
  0
SOLID
  5
63B
330
63F
100
AcDbEntity
  8
0
  6
ByBlock
 62
     0
380
     1
100
AcDbTrace
 10
117.8262329101562
 20
310.5712555822158
 30
0.0
 11
127.8262329101562
 21
308.9045889155492
 31
0.0
 12
127.8262329101562
 22
312.2379222488825
 32
0.0
 13
127.8262329101562
 23
312.2379222488825
 33
0.0
  0
SOLID
  5
63C
330
63F
100
AcDbEntity
  8
0
  6
ByBlock
 62
     0
380
     1
100
AcDbTrace
 10
625.8262329101562
 20
310.5712555822158
 30
0.0
 11
615.8262329101562
 21
308.9045889155492
 31
0.0
 12
615.8262329101562
 22
312.2379222488825
 32
0.0
 13
615.8262329101562
 23
312.2379222488825
 33
0.0
  0
MTEXT
  5
63D
330
63F
100
AcDbEntity
  8
0
  6
ByBlock
 62
     0
370
    -2
380
     1
100
AcDbMText
 10
371.8262329101562
 20
338.5712555822158
 30
0.0
 40
36.0
 41
0.0
 71
     5
 72
     1
  1
\A1;508
 73
     1
 44
1.0
  0
ENDBLK
  5
6CF
330
63F
100
AcDbEntity
  8
0
100
AcDbBlockEnd
  0
BLOCK
  5
6D0
330
64B
100
AcDbEntity
  8
0
100
AcDbBlockBegin
  2
*D18
 70
     1
 10
0.0
 20
0.0
 30
0.0
  3
*D18
  1

  0
POINT
  5
642
330
64B
100
AcDbEntity
  8
DEFPOINTS
  6
ByBlock
 62
     0
380
     1
100
AcDbPoint
 10
578.8394354400511
 20
196.0947723388672
 30
0.0
  0
POINT
  5
643
330
64B
100
AcDbEntity
  8
DEFPOINTS
  6
ByBlock
 62
     0
380
     1
100
AcDbPoint
 10
564.9750496210619
 20
159.0947723388672
 30
0.0
  0
LINE
  5
644
330
64B
100
AcDbEntity
  8
0
  6
ByBlock
 62
     0
370
    -2
380
     1
100
AcDbLine
 10
579.4644354400511
 20
196.0947723388672
 30
0.0
 11
798.6574001158832
 21
196.0947723388672
 31
0.0
  0
LINE
  5
645
330
64B
100
AcDbEntity
  8
0
  6
ByBlock
 62
     0
370
    -2
380
     1
100
AcDbLine
 10
565.6000496210619
 20
159.0947723388672
 30
0.0
 11
798.6574001158832
 21
159.0947723388672
 31
0.0
  0
LINE
  5
646
330
64B
100
AcDbEntity
  8
0
  6
ByBlock
 62
     0
370
    -2
380
     1
100
AcDbLine
 10
797.4074001158832
 20
193.5947723388672
 30
0.0
 11
797.4074001158832
 21
161.5947723388672
 31
0.0
  0
SOLID
  5
647
330
64B
100
AcDbEntity
  8
0
  6
ByBlock
 62
     0
380
     1
100
AcDbTrace
 10
797.4074001158832
 20
196.0947723388672
 30
0.0
 11
796.9907334492166
 21
193.5947723388672
 31
0.0
 12
797.8240667825498
 22
193.5947723388672
 32
0.0
 13
797.8240667825498
 23
193.5947723388672
 33
0.0
  0
SOLID
  5
648
330
64B
100
AcDbEntity
  8
0
  6
ByBlock
 62
     0
380
     1
100
AcDbTrace
 10
797.4074001158832
 20
159.0947723388672
 30
0.0
 11
796.9907334492166
 21
161.5947723388672
 31
0.0
 12
797.8240667825498
 22
161.5947723388672
 32
0.0
 13
797.8240667825498
 23
161.5947723388672
 33
0.0
  0
MTEXT
  5
649
330
64B
100
AcDbEntity
  8
0
  6
ByBlock
 62
     0
370
    -2
380
     1
100
AcDbMText
 10
795.5324001158832
 20
177.5947723388672
 30
0.0
 40
2.5
 41
0.0
 71
     5
 72
     1
  1
\A1;37
 11
6.123031769111886E-17
 21
1.0
 31
0.0
 73
     1
 44
1.0
  0
ENDBLK
  5
6D1
330
64B
100
AcDbEntity
  8
0
100
AcDbBlockEnd
  0
BLOCK
  5
6D2
330
657
100
AcDbEntity
  8
0
100
AcDbBlockBegin
  2
*D19
 70
     1
 10
0.0
 20
0.0
 30
0.0
  3
*D19
  1

  0
POINT
  5
64E
330
657
100
AcDbEntity
  8
DEFPOINTS
  6
ByBlock
 62
     0
380
     1
100
AcDbPoint
 10
578.8394354400511
 20
196.0947723388672
 30
0.0
  0
POINT
  5
64F
330
657
100
AcDbEntity
  8
DEFPOINTS
  6
ByBlock
 62
     0
380
     1
100
AcDbPoint
 10
564.9750496210619
 20
159.0947723388672
 30
0.0
  0
LINE
  5
650
330
657
100
AcDbEntity
  8
0
  6
ByBlock
 62
     0
370
    -2
380
     1
100
AcDbLine
 10
579.4644354400511
 20
196.0947723388672
 30
0.0
 11
693.2649816557275
 21
196.0947723388672
 31
0.0
  0
LINE
  5
651
330
657
100
AcDbEntity
  8
0
  6
ByBlock
 62
     0
370
    -2
380
     1
100
AcDbLine
 10
565.6000496210619
 20
159.0947723388672
 30
0.0
 11
693.2649816557275
 21
159.0947723388672
 31
0.0
  0
LINE
  5
652
330
657
100
AcDbEntity
  8
0
  6
ByBlock
 62
     0
370
    -2
380
     1
100
AcDbLine
 10
692.0149816557275
 20
193.5947723388672
 30
0.0
 11
692.0149816557275
 21
161.5947723388672
 31
0.0
  0
SOLID
  5
653
330
657
100
AcDbEntity
  8
0
  6
ByBlock
 62
     0
380
     1
100
AcDbTrace
 10
692.0149816557275
 20
196.0947723388672
 30
0.0
 11
691.5983149890609
 21
193.5947723388672
 31
0.0
 12
692.4316483223942
 22
193.5947723388672
 32
0.0
 13
692.4316483223942
 23
193.5947723388672
 33
0.0
  0
SOLID
  5
654
330
657
100
AcDbEntity
  8
0
  6
ByBlock
 62
     0
380
     1
100
AcDbTrace
 10
692.0149816557275
 20
159.0947723388672
 30
0.0
 11
691.5983149890609
 21
161.5947723388672
 31
0.0
 12
692.4316483223942
 22
161.5947723388672
 32
0.0
 13
692.4316483223942
 23
161.5947723388672
 33
0.0
  0
MTEXT
  5
655
330
657
100
AcDbEntity
  8
0
  6
ByBlock
 62
     0
370
    -2
380
     1
100
AcDbMText
 10
690.1399816557275
 20
170.2962931783237
 30
0.0
 40
2.5
 41
0.0
 71
     5
 72
     1
  1
\A1;37
 11
6.123031769111886E-17
 21
1.0
 31
0.0
 73
     1
 44
1.0
  0
ENDBLK
  5
6D3
330
657
100
AcDbEntity
  8
0
100
AcDbBlockEnd
  0
BLOCK
  5
6D4
330
662
100
AcDbEntity
  8
0
100
AcDbBlockBegin
  2
*D20
 70
     1
 10
0.0
 20
0.0
 30
0.0
  3
*D20
  1

  0
POINT
  5
659
330
662
100
AcDbEntity
  8
DEFPOINTS
  6
ByBlock
 62
     0
380
     1
100
AcDbPoint
 10
578.8394354400511
 20
196.0947723388672
 30
0.0
  0
POINT
  5
65A
330
662
100
AcDbEntity
  8
DEFPOINTS
  6
ByBlock
 62
     0
380
     1
100
AcDbPoint
 10
564.9750496210619
 20
159.0947723388672
 30
0.0
  0
LINE
  5
65B
330
662
100
AcDbEntity
  8
0
  6
ByBlock
 62
     0
370
    -2
380
     1
100
AcDbLine
 10
579.4644354400511
 20
196.0947723388672
 30
0.0
 11
805.2948640198879
 21
196.0947723388672
 31
0.0
  0
LINE
  5
65C
330
662
100
AcDbEntity
  8
0
  6
ByBlock
 62
     0
370
    -2
380
     1
100
AcDbLine
 10
565.6000496210619
 20
159.0947723388672
 30
0.0
 11
805.2948640198879
 21
159.0947723388672
 31
0.0
  0
LINE
  5
65D
330
662
100
AcDbEntity
  8
0
  6
ByBlock
 62
     0
370
    -2
380
     1
100
AcDbLine
 10
804.0448640198879
 20
193.5947723388672
 30
0.0
 11
804.0448640198879
 21
161.5947723388672
 31
0.0
  0
SOLID
  5
65E
330
662
100
AcDbEntity
  8
0
  6
ByBlock
 62
     0
380
     1
100
AcDbTrace
 10
804.0448640198879
 20
196.0947723388672
 30
0.0
 11
803.6281973532213
 21
193.5947723388672
 31
0.0
 12
804.4615306865545
 22
193.5947723388672
 32
0.0
 13
804.4615306865545
 23
193.5947723388672
 33
0.0
  0
SOLID
  5
65F
330
662
100
AcDbEntity
  8
0
  6
ByBlock
 62
     0
380
     1
100
AcDbTrace
 10
804.0448640198879
 20
159.0947723388672
 30
0.0
 11
803.6281973532213
 21
161.5947723388672
 31
0.0
 12
804.4615306865545
 22
161.5947723388672
 32
0.0
 13
804.4615306865545
 23
161.5947723388672
 33
0.0
  0
MTEXT
  5
660
330
662
100
AcDbEntity
  8
0
  6
ByBlock
 62
     0
370
    -2
380
     1
100
AcDbMText
 10
802.1698640198879
 20
170.2962931783237
 30
0.0
 40
2.5
 41
0.0
 71
     5
 72
     1
  1
\A1;37
 11
6.123031769111886E-17
 21
1.0
 31
0.0
 73
     1
 44
1.0
  0
ENDBLK
  5
6D5
330
662
100
AcDbEntity
  8
0
100
AcDbBlockEnd
  0
BLOCK
  5
6D6
330
66E
100
AcDbEntity
  8
0
100
AcDbBlockBegin
  2
*D21
 70
     1
 10
0.0
 20
0.0
 30
0.0
  3
*D21
  1

  0
POINT
  5
665
330
66E
100
AcDbEntity
  8
DEFPOINTS
  6
ByBlock
 62
     0
380
     1
100
AcDbPoint
 10
435.0465298435207
 20
196.0947723388672
 30
0.0
  0
POINT
  5
666
330
66E
100
AcDbEntity
  8
DEFPOINTS
  6
ByBlock
 62
     0
380
     1
100
AcDbPoint
 10
435.8120865534302
 20
159.0947723388672
 30
0.0
  0
LINE
  5
667
330
66E
100
AcDbEntity
  8
0
  6
ByBlock
 62
     0
370
    -2
380
     1
100
AcDbLine
 10
435.6715298435207
 20
196.0947723388672
 30
0.0
 11
816.7782146685299
 21
196.0947723388672
 31
0.0
  0
LINE
  5
668
330
66E
100
AcDbEntity
  8
0
  6
ByBlock
 62
     0
370
    -2
380
     1
100
AcDbLine
 10
436.4370865534302
 20
159.0947723388672
 30
0.0
 11
816.7782146685299
 21
159.0947723388672
 31
0.0
  0
LINE
  5
669
330
66E
100
AcDbEntity
  8
0
  6
ByBlock
 62
     0
370
    -2
380
     1
100
AcDbLine
 10
815.5282146685299
 20
193.5947723388672
 30
0.0
 11
815.5282146685299
 21
161.5947723388672
 31
0.0
  0
SOLID
  5
66A
330
66E
100
AcDbEntity
  8
0
  6
ByBlock
 62
     0
380
     1
100
AcDbTrace
 10
815.5282146685299
 20
196.0947723388672
 30
0.0
 11
815.1115480018632
 21
193.5947723388672
 31
0.0
 12
815.9448813351967
 22
193.5947723388672
 32
0.0
 13
815.9448813351967
 23
193.5947723388672
 33
0.0
  0
SOLID
  5
66B
330
66E
100
AcDbEntity
  8
0
  6
ByBlock
 62
     0
380
     1
100
AcDbTrace
 10
815.5282146685299
 20
159.0947723388672
 30
0.0
 11
815.1115480018632
 21
161.5947723388672
 31
0.0
 12
815.9448813351967
 22
161.5947723388672
 32
0.0
 13
815.9448813351967
 23
161.5947723388672
 33
0.0
  0
MTEXT
  5
66C
330
66E
100
AcDbEntity
  8
0
  6
ByBlock
 62
     0
370
    -2
380
     1
100
AcDbMText
 10
813.6532146685299
 20
177.5947723388672
 30
0.0
 40
2.5
 41
0.0
 71
     5
 72
     1
  1
\A1;37
 11
6.123031769111886E-17
 21
1.0
 31
0.0
 73
     1
 44
1.0
  0
ENDBLK
  5
6D7
330
66E
100
AcDbEntity
  8
0
100
AcDbBlockEnd
  0
BLOCK
  5
6D8
330
67A
100
AcDbEntity
  8
0
100
AcDbBlockBegin
  2
*D22
 70
     1
 10
0.0
 20
0.0
 30
0.0
  3
*D22
  1

  0
POINT
  5
671
330
67A
100
AcDbEntity
  8
DEFPOINTS
  6
ByBlock
 62
     0
380
     1
100
AcDbPoint
 10
435.0465298435207
 20
196.0947723388672
 30
0.0
  0
POINT
  5
672
330
67A
100
AcDbEntity
  8
DEFPOINTS
  6
ByBlock
 62
     0
380
     1
100
AcDbPoint
 10
435.8120865534302
 20
159.0947723388672
 30
0.0
  0
LINE
  5
673
330
67A
100
AcDbEntity
  8
0
  6
ByBlock
 62
     0
370
    -2
380
     1
100
AcDbLine
 10
435.6715298435207
 20
196.0947723388672
 30
0.0
 11
693.2649816557275
 21
196.0947723388672
 31
0.0
  0
LINE
  5
674
330
67A
100
AcDbEntity
  8
0
  6
ByBlock
 62
     0
370
    -2
380
     1
100
AcDbLine
 10
436.4370865534302
 20
159.0947723388672
 30
0.0
 11
693.2649816557275
 21
159.0947723388672
 31
0.0
  0
LINE
  5
675
330
67A
100
AcDbEntity
  8
0
  6
ByBlock
 62
     0
370
    -2
380
     1
100
AcDbLine
 10
692.0149816557275
 20
193.5947723388672
 30
0.0
 11
692.0149816557275
 21
161.5947723388672
 31
0.0
  0
SOLID
  5
676
330
67A
100
AcDbEntity
  8
0
  6
ByBlock
 62
     0
380
     1
100
AcDbTrace
 10
692.0149816557275
 20
196.0947723388672
 30
0.0
 11
691.5983149890608
 21
193.5947723388672
 31
0.0
 12
692.4316483223943
 22
193.5947723388672
 32
0.0
 13
692.4316483223943
 23
193.5947723388672
 33
0.0
  0
SOLID
  5
677
330
67A
100
AcDbEntity
  8
0
  6
ByBlock
 62
     0
380
     1
100
AcDbTrace
 10
692.0149816557275
 20
159.0947723388672
 30
0.0
 11
691.5983149890608
 21
161.5947723388672
 31
0.0
 12
692.4316483223943
 22
161.5947723388672
 32
0.0
 13
692.4316483223943
 23
161.5947723388672
 33
0.0
  0
MTEXT
  5
678
330
67A
100
AcDbEntity
  8
0
  6
ByBlock
 62
     0
370
    -2
380
     1
100
AcDbMText
 10
690.1399816557275
 20
175.1973920968565
 30
0.0
 40
2.5
 41
0.0
 71
     5
 72
     1
  1
\A1;37
 11
6.123031769111886E-17
 21
1.0
 31
0.0
 73
     1
 44
1.0
  0
ENDBLK
  5
6D9
330
67A
100
AcDbEntity
  8
0
100
AcDbBlockEnd
  0
BLOCK
  5
6DA
330
685
100
AcDbEntity
  8
0
100
AcDbBlockBegin
  2
*D23
 70
     1
 10
0.0
 20
0.0
 30
0.0
  3
*D23
  1

  0
POINT
  5
67C
330
685
100
AcDbEntity
  8
DEFPOINTS
  6
ByBlock
 62
     0
380
     1
100
AcDbPoint
 10
435.0465298435207
 20
196.0947723388672
 30
0.0
  0
POINT
  5
67D
330
685
100
AcDbEntity
  8
DEFPOINTS
  6
ByBlock
 62
     0
380
     1
100
AcDbPoint
 10
435.8120865534302
 20
159.0947723388672
 30
0.0
  0
LINE
  5
67E
330
685
100
AcDbEntity
  8
0
  6
ByBlock
 62
     0
370
    -2
380
     1
100
AcDbLine
 10
435.6715298435207
 20
196.0947723388672
 30
0.0
 11
693.2649816557275
 21
196.0947723388672
 31
0.0
  0
LINE
  5
67F
330
685
100
AcDbEntity
  8
0
  6
ByBlock
 62
     0
370
    -2
380
     1
100
AcDbLine
 10
436.4370865534302
 20
159.0947723388672
 30
0.0
 11
693.2649816557275
 21
159.0947723388672
 31
0.0
  0
LINE
  5
680
330
685
100
AcDbEntity
  8
0
  6
ByBlock
 62
     0
370
    -2
380
     1
100
AcDbLine
 10
692.0149816557275
 20
193.5947723388672
 30
0.0
 11
692.0149816557275
 21
161.5947723388672
 31
0.0
  0
SOLID
  5
681
330
685
100
AcDbEntity
  8
0
  6
ByBlock
 62
     0
380
     1
100
AcDbTrace
 10
692.0149816557275
 20
196.0947723388672
 30
0.0
 11
691.5983149890608
 21
193.5947723388672
 31
0.0
 12
692.4316483223943
 22
193.5947723388672
 32
0.0
 13
692.4316483223943
 23
193.5947723388672
 33
0.0
  0
SOLID
  5
682
330
685
100
AcDbEntity
  8
0
  6
ByBlock
 62
     0
380
     1
100
AcDbTrace
 10
692.0149816557275
 20
159.0947723388672
 30
0.0
 11
691.5983149890608
 21
161.5947723388672
 31
0.0
 12
692.4316483223943
 22
161.5947723388672
 32
0.0
 13
692.4316483223943
 23
161.5947723388672
 33
0.0
  0
MTEXT
  5
683
330
685
100
AcDbEntity
  8
0
  6
ByBlock
 62
     0
370
    -2
380
     1
100
AcDbMText
 10
690.1399816557275
 20
177.7755388879921
 30
0.0
 40
2.5
 41
0.0
 71
     5
 72
     1
  1
\A1;37
 11
6.123031769111886E-17
 21
1.0
 31
0.0
 73
     1
 44
1.0
  0
ENDBLK
  5
6DB
330
685
100
AcDbEntity
  8
0
100
AcDbBlockEnd
  0
BLOCK
  5
6DC
330
690
100
AcDbEntity
  8
0
100
AcDbBlockBegin
  2
*D24
 70
     1
 10
0.0
 20
0.0
 30
0.0
  3
*D24
  1

  0
POINT
  5
687
330
690
100
AcDbEntity
  8
DEFPOINTS
  6
ByBlock
 62
     0
380
     1
100
AcDbPoint
 10
435.0465298435207
 20
196.0947723388672
 30
0.0
  0
POINT
  5
688
330
690
100
AcDbEntity
  8
DEFPOINTS
  6
ByBlock
 62
     0
380
     1
100
AcDbPoint
 10
435.8120865534302
 20
159.0947723388672
 30
0.0
  0
LINE
  5
689
330
690
100
AcDbEntity
  8
0
  6
ByBlock
 62
     0
370
    -2
380
     1
100
AcDbLine
 10
435.6715298435207
 20
196.0947723388672
 30
0.0
 11
693.2649816557275
 21
196.0947723388672
 31
0.0
  0
LINE
  5
68A
330
690
100
AcDbEntity
  8
0
  6
ByBlock
 62
     0
370
    -2
380
     1
100
AcDbLine
 10
436.4370865534302
 20
159.0947723388672
 30
0.0
 11
693.2649816557275
 21
159.0947723388672
 31
0.0
  0
LINE
  5
68B
330
690
100
AcDbEntity
  8
0
  6
ByBlock
 62
     0
370
    -2
380
     1
100
AcDbLine
 10
692.0149816557275
 20
196.0947723388672
 30
0.0
 11
692.0149816557275
 21
159.0947723388672
 31
0.0
  0
SOLID
  5
68C
330
690
100
AcDbEntity
  8
0
  6
ByBlock
 62
     0
380
     1
100
AcDbTrace
 10
692.0149816557275
 20
196.0947723388672
 30
0.0
 11
690.3483149890609
 21
186.0947723388672
 31
0.0
 12
693.6816483223943
 22
186.0947723388672
 32
0.0
 13
693.6816483223943
 23
186.0947723388672
 33
0.0
  0
SOLID
  5
68D
330
690
100
AcDbEntity
  8
0
  6
ByBlock
 62
     0
380
     1
100
AcDbTrace
 10
692.0149816557275
 20
159.0947723388672
 30
0.0
 11
690.3483149890609
 21
169.0947723388672
 31
0.0
 12
693.6816483223943
 22
169.0947723388672
 32
0.0
 13
693.6816483223943
 23
169.0947723388672
 33
0.0
  0
MTEXT
  5
68E
330
690
100
AcDbEntity
  8
0
  6
ByBlock
 62
     0
370
    -2
380
     1
100
AcDbMText
 10
664.0149816557275
 20
177.5947723388672
 30
0.0
 40
36.0
 41
0.0
 71
     5
 72
     1
  1
\A1;37
 11
6.123031769111886E-17
 21
1.0
 31
0.0
 73
     1
 44
1.0
  0
ENDBLK
  5
6DD
330
690
100
AcDbEntity
  8
0
100
AcDbBlockEnd
  0
BLOCK
  5
6DE
330
69C
100
AcDbEntity
  8
0
100
AcDbBlockBegin
  2
*D25
 70
     1
 10
0.0
 20
0.0
 30
0.0
  3
*D25
  1

  0
POINT
  5
692
330
69C
100
AcDbEntity
  8
DEFPOINTS
  6
ByBlock
 62
     0
380
     1
100
AcDbPoint
 10
435.0465298435207
 20
196.0947723388672
 30
0.0
  0
POINT
  5
693
330
69C
100
AcDbEntity
  8
DEFPOINTS
  6
ByBlock
 62
     0
380
     1
100
AcDbPoint
 10
435.8120865534302
 20
159.0947723388672
 30
0.0
  0
LINE
  5
694
330
69C
100
AcDbEntity
  8
0
  6
ByBlock
 62
     0
370
    -2
380
     1
100
AcDbLine
 10
435.6715298435207
 20
196.0947723388672
 30
0.0
 11
693.351742223998
 21
196.0947723388672
 31
0.0
  0
LINE
  5
695
330
69C
100
AcDbEntity
  8
0
  6
ByBlock
 62
     0
370
    -2
380
     1
100
AcDbLine
 10
436.4370865534302
 20
159.0947723388672
 30
0.0
 11
693.351742223998
 21
159.0947723388672
 31
0.0
  0
LINE
  5
696
330
69C
100
AcDbEntity
  8
0
  6
ByBlock
 62
     0
370
    -2
380
     1
100
AcDbLine
 10
692.101742223998
 20
186.0947723388672
 30
0.0
 11
692.101742223998
 21
169.0947723388672
 31
0.0
  0
LINE
  5
697
330
69C
100
AcDbEntity
  8
0
  6
ByBlock
 62
     0
370
    -2
380
     1
100
AcDbLine
 10
692.101742223998
 20
196.0947723388672
 30
0.0
 11
692.101742223998
 21
274.0947723388672
 31
0.0
  0
SOLID
  5
698
330
69C
100
AcDbEntity
  8
0
  6
ByBlock
 62
     0
380
     1
100
AcDbTrace
 10
692.101742223998
 20
196.0947723388672
 30
0.0
 11
690.4350755573314
 21
186.0947723388672
 31
0.0
 12
693.7684088906647
 22
186.0947723388672
 32
0.0
 13
693.7684088906647
 23
186.0947723388672
 33
0.0
  0
SOLID
  5
699
330
69C
100
AcDbEntity
  8
0
  6
ByBlock
 62
     0
380
     1
100
AcDbTrace
 10
692.101742223998
 20
159.0947723388672
 30
0.0
 11
690.4350755573314
 21
169.0947723388672
 31
0.0
 12
693.7684088906647
 22
169.0947723388672
 32
0.0
 13
693.7684088906647
 23
169.0947723388672
 33
0.0
  0
MTEXT
  5
69A
330
69C
100
AcDbEntity
  8
0
  6
ByBlock
 62
     0
370
    -2
380
     1
100
AcDbMText
 10
664.101742223998
 20
246.0947723388672
 30
0.0
 40
36.0
 41
0.0
 71
     5
 72
     1
  1
\A1;37
 11
6.123031769111886E-17
 21
1.0
 31
0.0
 73
     1
 44
1.0
  0
ENDBLK
  5
6DF
330
69C
100
AcDbEntity
  8
0
100
AcDbBlockEnd
  0
BLOCK
  5
6E0
330
6A8
100
AcDbEntity
  8
0
100
AcDbBlockBegin
  2
*D26
 70
     1
 10
0.0
 20
0.0
 30
0.0
  3
*D26
  1

  0
POINT
  5
69E
330
6A8
100
AcDbEntity
  8
DEFPOINTS
  6
ByBlock
 62
     0
380
     1
100
AcDbPoint
 10
435.0465298435207
 20
196.0947723388672
 30
0.0
  0
POINT
  5
69F
330
6A8
100
AcDbEntity
  8
DEFPOINTS
  6
ByBlock
 62
     0
380
     1
100
AcDbPoint
 10
435.8120865534302
 20
159.0947723388672
 30
0.0
  0
LINE
  5
6A0
330
6A8
100
AcDbEntity
  8
0
  6
ByBlock
 62
     0
370
    -2
380
     1
100
AcDbLine
 10
435.6715298435207
 20
196.0947723388672
 30
0.0
 11
693.351742223998
 21
196.0947723388672
 31
0.0
  0
LINE
  5
6A1
330
6A8
100
AcDbEntity
  8
0
  6
ByBlock
 62
     0
370
    -2
380
     1
100
AcDbLine
 10
436.4370865534302
 20
159.0947723388672
 30
0.0
 11
693.351742223998
 21
159.0947723388672
 31
0.0
  0
LINE
  5
6A2
330
6A8
100
AcDbEntity
  8
0
  6
ByBlock
 62
     0
370
    -2
380
     1
100
AcDbLine
 10
692.101742223998
 20
186.0947723388672
 30
0.0
 11
692.101742223998
 21
169.0947723388672
 31
0.0
  0
LINE
  5
6A3
330
6A8
100
AcDbEntity
  8
0
  6
ByBlock
 62
     0
370
    -2
380
     1
100
AcDbLine
 10
692.101742223998
 20
196.0947723388672
 30
0.0
 11
692.101742223998
 21
274.0947723388672
 31
0.0
  0
SOLID
  5
6A4
330
6A8
100
AcDbEntity
  8
0
  6
ByBlock
 62
     0
380
     1
100
AcDbTrace
 10
692.101742223998
 20
196.0947723388672
 30
0.0
 11
690.4350755573314
 21
186.0947723388672
 31
0.0
 12
693.7684088906647
 22
186.0947723388672
 32
0.0
 13
693.7684088906647
 23
186.0947723388672
 33
0.0
  0
SOLID
  5
6A5
330
6A8
100
AcDbEntity
  8
0
  6
ByBlock
 62
     0
380
     1
100
AcDbTrace
 10
692.101742223998
 20
159.0947723388672
 30
0.0
 11
690.4350755573314
 21
169.0947723388672
 31
0.0
 12
693.7684088906647
 22
169.0947723388672
 32
0.0
 13
693.7684088906647
 23
169.0947723388672
 33
0.0
  0
MTEXT
  5
6A6
330
6A8
100
AcDbEntity
  8
0
  6
ByBlock
 62
     0
370
    -2
380
     1
100
AcDbMText
 10
664.101742223998
 20
246.0947723388672
 30
0.0
 40
36.0
 41
0.0
 71
     5
 72
     1
  1
\A1;37
 11
6.123031769111886E-17
 21
1.0
 31
0.0
 73
     1
 44
1.0
  0
ENDBLK
  5
6E1
330
6A8
100
AcDbEntity
  8
0
100
AcDbBlockEnd
  0
ENDSEC
  0
SECTION
  2
ENTITIES
  0
LINE
  5
12A
330
1F
100
AcDbEntity
  8
0
 62
     7
 48
0.4625
370
    60
390
F
100
AcDbLine
 10
117.8262329101562
 20
481.2026672363281
 30
0.0
 11
117.8262329101562
 21
462.7026672363281
 31
0.0
  0
LINE
  5
12B
330
1F
100
AcDbEntity
  8
0
 62
     7
370
    60
390
F
100
AcDbLine
 10
117.8262329101562
 20
389.5663146972656
 30
0.0
 11
117.8262329101562
 21
462.7026672363281
 31
0.0
  0
ARC
  5
12C
330
1F
100
AcDbEntity
  8
0
 62
     7
370
    60
390
F
100
AcDbCircle
 10
131.3262329101562
 20
389.5663146972656
 30
0.0
 40
13.5
100
AcDbArc
 50
180.0000050089563
 51
269.9999974955218
  0
LINE
  5
12D
330
1F
100
AcDbEntity
  8
0
 62
     7
370
    60
390
F
100
AcDbLine
 10
612.3262329101562
 20
376.0663146972656
 30
0.0
 11
131.3262329101562
 21
376.0663146972656
 31
0.0
  0
LINE
  5
12E
330
1F
100
AcDbEntity
  8
0
 62
     7
 48
0.4625
370
    60
390
F
100
AcDbLine
 10
622.3262329101562
 20
462.7026672363281
 30
0.0
 11
622.3262329101562
 21
481.2026672363281
 31
0.0
  0
LINE
  5
130
330
1F
100
AcDbEntity
  8
0
 62
     7
 48
0.4625
370
    60
390
F
100
AcDbLine
 10
625.8262329101562
 20
481.2026672363281
 30
0.0
 11
625.8262329101562
 21
462.7026672363281
 31
0.0
  0
LINE
  5
131
330
1F
100
AcDbEntity
  8
0
 62
     7
370
    60
390
F
100
AcDbLine
 10
625.8262329101562
 20
462.7026672363281
 30
0.0
 11
625.8262329101562
 21
389.5663146972656
 31
0.0
  0
ARC
  5
132
330
1F
100
AcDbEntity
  8
0
 62
     7
370
    60
390
F
100
AcDbCircle
 10
612.3262329101562
 20
389.5663146972656
 30
0.0
 40
13.5
100
AcDbArc
 50
269.9999974955218
 51
359.9999999999999
  0
ARC
  5
133
330
1F
100
AcDbEntity
  8
0
 62
     7
370
    60
390
F
100
AcDbCircle
 10
131.3262329101562
 20
389.5663146972656
 30
0.0
 40
10.0
100
AcDbArc
 50
180.0000050089563
 51
269.9999974955218
  0
LINE
  5
134
330
1F
100
AcDbEntity
  8
0
 62
     7
370
    60
390
F
100
AcDbLine
 10
131.3262329101562
 20
379.5663146972656
 30
0.0
 11
612.3262329101562
 21
379.5663146972656
 31
0.0
  0
ARC
  5
135
330
1F
100
AcDbEntity
  8
0
 62
     7
370
    60
390
F
100
AcDbCircle
 10
612.3262329101562
 20
389.5663146972656
 30
0.0
 40
10.0
100
AcDbArc
 50
269.9999974955218
 51
359.9999999999999
  0
LINE
  5
136
330
1F
100
AcDbEntity
  8
0
 62
     7
370
    60
390
F
100
AcDbLine
 10
622.3262329101562
 20
389.5663146972656
 30
0.0
 11
622.3262329101562
 21
462.7026672363281
 31
0.0
  0
LINE
  5
138
330
1F
100
AcDbEntity
  8
0
 62
     7
 48
0.4625
370
    60
390
F
100
AcDbLine
 10
121.3262329101562
 20
481.2026672363281
 30
0.0
 11
121.3262329101562
 21
462.7026672363281
 31
0.0
  0
LINE
  5
139
330
1F
100
AcDbEntity
  8
0
 62
     7
370
    60
390
F
100
AcDbLine
 10
121.3262329101562
 20
462.7026672363281
 30
0.0
 11
121.3262329101562
 21
389.5663146972656
 31
0.0
  0
LINE
  5
13A
330
1F
100
AcDbEntity
  8
0
 62
     7
 48
0.0875
370
    60
390
F
100
AcDbLine
 10
625.8262329101562
 20
481.2026672363281
 30
0.0
 11
622.3262329101562
 21
481.2026672363281
 31
0.0
  0
LINE
  5
13B
330
1F
100
AcDbEntity
  8
0
 62
     7
 48
0.0875
370
    60
390
F
100
AcDbLine
 10
121.3262329101562
 20
481.2026672363281
 30
0.0
 11
117.8262329101562
 21
481.2026672363281
 31
0.0
  0
LINE
  5
525
330
1F
100
AcDbEntity
  8
0
 62
     7
370
    60
390
F
100
AcDbLine
 10
117.8262329101562
 20
196.0947723388672
 30
0.0
 11
117.8262329101562
 21
159.0947723388672
 31
0.0
  0
LINE
  5
526
330
1F
100
AcDbEntity
  8
0
 62
     7
 48
0.0875
370
    60
390
F
100
AcDbLine
 10
622.3262329101562
 20
196.0947723388672
 30
0.0
 11
625.8262329101562
 21
196.0947723388672
 31
0.0
  0
LINE
  5
527
330
1F
100
AcDbEntity
  8
0
 62
     7
 48
0.25
370
    60
390
F
100
AcDbLine
 10
612.3262329101562
 20
196.0947723388672
 30
0.0
 11
622.3262329101562
 21
196.0947723388672
 31
0.0
  0
LINE
  5
528
330
1F
100
AcDbEntity
  8
0
 62
     7
370
    60
390
F
100
AcDbLine
 10
131.3262329101562
 20
196.0947723388672
 30
0.0
 11
612.3262329101562
 21
196.0947723388672
 31
0.0
  0
LINE
  5
529
330
1F
100
AcDbEntity
  8
0
 62
     7
 48
0.25
370
    60
390
F
100
AcDbLine
 10
121.3262329101562
 20
196.0947723388672
 30
0.0
 11
131.3262329101562
 21
196.0947723388672
 31
0.0
  0
LINE
  5
52A
330
1F
100
AcDbEntity
  8
0
 62
     7
 48
0.0875
370
    60
390
F
100
AcDbLine
 10
117.8262329101562
 20
196.0947723388672
 30
0.0
 11
121.3262329101562
 21
196.0947723388672
 31
0.0
  0
LINE
  5
52B
330
1F
100
AcDbEntity
  8
0
 62
     7
370
    60
390
F
100
AcDbLine
 10
622.3262329101562
 20
159.0947723388672
 30
0.0
 11
622.3262329101562
 21
196.0947723388672
 31
0.0
  0
LINE
  5
52C
330
1F
100
AcDbEntity
  8
0
 62
     7
 48
0.0875
370
    60
390
F
100
AcDbLine
 10
622.3262329101562
 20
159.0947723388672
 30
0.0
 11
625.8262329101562
 21
159.0947723388672
 31
0.0
  0
LINE
  5
52D
330
1F
100
AcDbEntity
  8
0
 62
     7
370
    60
390
F
100
AcDbLine
 10
625.8262329101562
 20
196.0947723388672
 30
0.0
 11
625.8262329101562
 21
159.0947723388672
 31
0.0
  0
CIRCLE
  5
52E
330
1F
100
AcDbEntity
  8
0
 62
     7
370
    60
390
F
100
AcDbCircle
 10
578.8262329101562
 20
177.5947723388672
 30
0.0
 40
5.25
  0
CIRCLE
  5
52F
330
1F
100
AcDbEntity
  8
0
 62
     7
370
    60
390
F
100
AcDbCircle
 10
490.8262329101562
 20
177.5947723388672
 30
0.0
 40
5.25
  0
CIRCLE
  5
530
330
1F
100
AcDbEntity
  8
0
 62
     7
370
    60
390
F
100
AcDbCircle
 10
430.8262329101562
 20
177.5947723388672
 30
0.0
 40
5.25
  0
CIRCLE
  5
531
330
1F
100
AcDbEntity
  8
0
 62
     7
370
    60
390
F
100
AcDbCircle
 10
162.8262329101562
 20
177.5947723388672
 30
0.0
 40
5.25
  0
CIRCLE
  5
532
330
1F
100
AcDbEntity
  8
0
 62
     7
370
    60
390
F
100
AcDbCircle
 10
250.8262329101562
 20
177.5947723388672
 30
0.0
 40
5.25
  0
CIRCLE
  5
533
330
1F
100
AcDbEntity
  8
0
 62
     7
370
    60
390
F
100
AcDbCircle
 10
310.8262329101562
 20
177.5947723388672
 30
0.0
 40
5.25
  0
CIRCLE
  5
534
330
1F
100
AcDbEntity
  8
0
 62
     7
370
    60
390
F
100
AcDbCircle
 10
370.8262329101562
 20
177.5947723388672
 30
0.0
 40
7.0
  0
LINE
  5
536
330
1F
100
AcDbEntity
  8
0
 62
     7
 48
0.25
370
    60
390
F
100
AcDbLine
 10
121.3262329101562
 20
159.0947723388672
 30
0.0
 11
131.3262329101562
 21
159.0947723388672
 31
0.0
  0
LINE
  5
538
330
1F
100
AcDbEntity
  8
0
 62
     7
370
    60
390
F
100
AcDbLine
 10
131.3262329101562
 20
159.0947723388672
 30
0.0
 11
612.3262329101562
 21
159.0947723388672
 31
0.0
  0
LINE
  5
539
330
1F
100
AcDbEntity
  8
0
 62
     7
 48
0.25
370
    60
390
F
100
AcDbLine
 10
612.3262329101562
 20
159.0947723388672
 30
0.0
 11
622.3262329101562
 21
159.0947723388672
 31
0.0
  0
LINE
  5
53A
330
1F
100
AcDbEntity
  8
0
 62
     7
 48
0.0875
370
    60
390
F
100
AcDbLine
 10
117.8262329101562
 20
159.0947723388672
 30
0.0
 11
121.3262329101562
 21
159.0947723388672
 31
0.0
  0
LINE
  5
53B
330
1F
100
AcDbEntity
  8
0
 62
     7
370
    60
390
F
100
AcDbLine
 10
121.3262329101562
 20
196.0947723388672
 30
0.0
 11
121.3262329101562
 21
159.0947723388672
 31
0.0
  0
DIMENSION
  5
5BD
330
1F
100
AcDbEntity
  8
0
370
    25
100
AcDbDimension
  2
*D11
 10
692.0149816557275
 20
376.0663146972656
 30
0.0
 11
664.0149816557275
 21
428.6344909667969
 31
0.0
 70
   160
 71
     5
 41
2.5
 42
105.1363525390625
  3
Standard
100
AcDbAlignedDimension
 13
623.9000816349495
 23
481.2026672363281
 33
0.0
 14
575.3682153701453
 24
376.0663146972656
 34
0.0
 50
90.0
100
AcDbRotatedDimension
1001
ACAD
1000
DSTYLE
1002
{
1070
    41
1040
10.0
1070
    42
1040
0.625
1070
    43
1040
3.75
1070
    44
1040
1.25
1070
    73
1070
     0
1070
    74
1070
     0
1070
    77
1070
     1
1070
    78
1070
     8
1070
   140
1040
36.0
1070
   141
1040
2.5
1070
   143
1040
0.03937007874016
1070
   147
1040
10.0
1070
   171
1070
     3
1070
   172
1070
     1
1070
   271
1070
     0
1070
   272
1070
     2
1070
   274
1070
     3
1070
   278
1070
    44
1070
   283
1070
     0
1070
   284
1070
     8
1070
   289
1070
     0
1002
}
  0
DIMENSION
  5
5FD
330
1F
100
AcDbEntity
  8
0
370
    25
100
AcDbDimension
  2
*D17
 10
625.8262329101562
 20
310.5712555822158
 30
0.0
 11
371.8262329101562
 21
338.5712555822158
 31
0.0
 70
   160
 71
     5
 41
2.5
 42
508.0
  3
Standard
100
AcDbAlignedDimension
 13
117.8262329101562
 23
439.6132478940101
 33
0.0
 14
625.8262329101562
 24
429.8301874171478
 34
0.0
100
AcDbRotatedDimension
1001
ACAD
1000
DSTYLE
1002
{
1070
    41
1040
10.0
1070
    42
1040
0.625
1070
    43
1040
3.75
1070
    44
1040
1.25
1070
    73
1070
     0
1070
    74
1070
     0
1070
    77
1070
     1
1070
    78
1070
     8
1070
   140
1040
36.0
1070
   141
1040
2.5
1070
   143
1040
0.03937007874016
1070
   147
1040
10.0
1070
   171
1070
     3
1070
   172
1070
     1
1070
   271
1070
     0
1070
   272
1070
     2
1070
   274
1070
     3
1070
   278
1070
    44
1070
   283
1070
     0
1070
   284
1070
     8
1070
   289
1070
     0
1002
}
  0
DIMENSION
  5
663
330
1F
100
AcDbEntity
  8
0
370
    25
100
AcDbDimension
  2
*D26
 10
692.101742223998
 20
159.0947723388672
 30
0.0
 11
664.101742223998
 21
246.0947723388672
 31
0.0
 70
   160
 71
     5
 41
2.5
 42
37.0
  3
Standard
100
AcDbAlignedDimension
 13
435.0465298435207
 23
196.0947723388672
 33
0.0
 14
435.8120865534302
 24
159.0947723388672
 34
0.0
 50
90.0
100
AcDbRotatedDimension
1001
ACAD
1000
DSTYLE
1002
{
1070
    41
1040
10.0
1070
    42
1040
0.625
1070
    43
1040
3.75
1070
    44
1040
1.25
1070
    73
1070
     0
1070
    74
1070
     0
1070
    77
1070
     1
1070
    78
1070
     8
1070
   140
1040
36.0
1070
   141
1040
2.5
1070
   143
1040
0.03937007874016
1070
   147
1040
10.0
1070
   171
1070
     3
1070
   172
1070
     1
1070
   271
1070
     0
1070
   272
1070
     2
1070
   274
1070
     3
1070
   278
1070
    44
1070
   283
1070
     0
1070
   284
1070
     8
1070
   289
1070
     0
1002
}
  0
VIEWPORT
  5
53C
330
73
100
AcDbEntity
 67
     1
  8
0
 62
     0
370
     0
390
F
100
AcDbViewport
 10
0.0
 20
0.0
 30
0.0
 40
1000.0
 41
1000.0
 68
     1
 69
     1
 12
0.0
 22
0.0
 13
0.0
 23
0.0
 14
1.0
 24
1.0
 15
1.0
 25
1.0
 16
0.0
 26
0.0
 36
1.0
 17
0.0
 27
0.0
 37
0.0
 42
50.0
 43
0.0
 44
0.0
 45
1000.0
 50
0.0
 51
0.0
 72
   100
 90
   557056
  1

281
     0
 71
     0
 74
     0
110
0.0
120
0.0
130
0.0
111
1.0
121
0.0
131
0.0
112
0.0
122
1.0
132
0.0
 79
     0
146
0.0
170
     0
  0
ENDSEC
  0
SECTION
  2
OBJECTS
  0
DICTIONARY
  5
C
330
0
100
AcDbDictionary
281
     1
  3
ACAD_COLOR
350
6C
  3
ACAD_GROUP
350
D
  3
ACAD_LAYOUT
350
1A
  3
ACAD_MATERIAL
350
6B
  3
ACAD_MLEADERSTYLE
350
565
  3
ACAD_MLINESTYLE
350
17
  3
ACAD_PLOTSETTINGS
350
19
  3
ACAD_PLOTSTYLENAME
350
E
  3
ACAD_SCALELIST
350
99
  3
ACAD_TABLESTYLE
350
92
  3
ACAD_WIPEOUT_VARS
350
6AB
  3
AcDbVariableDictionary
350
59
  0
DICTIONARY
  5
6C
102
{ACAD_REACTORS
330
C
102
}
330
C
100
AcDbDictionary
281
     1
  0
DICTIONARY
  5
D
102
{ACAD_REACTORS
330
C
102
}
330
C
100
AcDbDictionary
281
     1
  0
DICTIONARY
  5
1A
102
{ACAD_REACTORS
330
C
102
}
330
C
100
AcDbDictionary
281
     1
  3
Layout1
350
74
  3
Model
350
22
  0
DICTIONARY
  5
6B
102
{ACAD_REACTORS
330
C
102
}
330
C
100
AcDbDictionary
281
     1
  0
DICTIONARY
  5
565
102
{ACAD_REACTORS
330
C
102
}
330
C
100
AcDbDictionary
281
     1
  0
DICTIONARY
  5
17
102
{ACAD_REACTORS
330
C
102
}
330
C
100
AcDbDictionary
281
     1
  3
Standard
350
18
  0
DICTIONARY
  5
19
102
{ACAD_REACTORS
330
C
102
}
330
C
100
AcDbDictionary
281
     1
  0
ACDBDICTIONARYWDFLT
  5
E
102
{ACAD_REACTORS
330
C
102
}
330
C
100
AcDbDictionary
281
     1
  3
Normal
350
F
100
AcDbDictionaryWithDefault
340
F
  0
DICTIONARY
  5
99
102
{ACAD_REACTORS
330
C
102
}
330
C
100
AcDbDictionary
281
     1
  3
A0
350
540
  3
A1
350
541
  3
A2
350
542
  3
A3
350
543
  3
A4
350
544
  3
A5
350
545
  3
A6
350
546
  3
A7
350
547
  3
A8
350
548
  3
A9
350
549
  3
B0
350
54A
  3
B1
350
54B
  3
B2
350
54C
  3
B3
350
54D
  3
B4
350
54E
  3
B5
350
54F
  3
B6
350
550
  3
B7
350
551
  3
B8
350
552
  3
B9
350
553
  3
C0
350
554
  3
C1
350
555
  3
C2
350
556
  3
C3
350
557
  3
C4
350
558
  3
C5
350
559
  3
C6
350
55A
  3
C7
350
55B
  3
C8
350
55C
  3
C9
350
55D
  3
D0
350
55E
  3
D1
350
55F
  3
D2
350
560
  0
DICTIONARY
  5
92
102
{ACAD_REACTORS
330
C
102
}
330
C
100
AcDbDictionary
281
     1
  3
Standard
350
93
  0
WIPEOUTVARIABLES
  5
6AB
102
{ACAD_REACTORS
330
C
102
}
330
C
100
AcDbWipeoutVariables
 70
     1
  0
DICTIONARY
  5
59
102
{ACAD_REACTORS
330
C
102
}
330
C
100
AcDbDictionary
281
     1
  3
CANNOSCALE
350
562
  3
CTABLESTYLE
350
98
  3
DIMASSOC
350
5A
  3
HIDETEXT
350
5E
  3
LIGHTINGUNITS
350
563
  0
LAYOUT
  5
74
102
{ACAD_REACTORS
330
1A
102
}
330
1A
100
AcDbPlotSettings
  1

  2
none_device
  4
none_user_media
  6

 40
0.0
 41
0.0
 42
0.0
 43
0.0
 44
0.0
 45
0.0
 46
0.0
 47
0.0
 48
0.0
 49
0.0
140
0.0
141
0.0
142
1.0
143
1.0
 70
   544
 72
     0
 73
     0
 74
     0
  7

 75
    16
 76
     0
 77
     2
 78
   300
147
1.0
148
0.0
149
0.0
100
AcDbLayout
  1
Layout1
 70
     1
 71
     0
 10
0.0
 20
0.0
 11
420.0
 21
297.0
 12
0.0
 22
0.0
 32
0.0
 14
0.0
 24
0.0
 34
0.0
 15
676.3173217773438
 25
521.8984375
 35
2.0
146
0.0
 13
0.0
 23
0.0
 33
0.0
 16
1.0
 26
0.0
 36
0.0
 17
0.0
 27
1.0
 37
0.0
 76
     0
330
73
331
53C
  0
LAYOUT
  5
22
102
{ACAD_REACTORS
330
1A
102
}
330
1A
100
AcDbPlotSettings
  1

  2
none_device
  4
none_user_media
  6

 40
6.349999904632568
 41
6.349999904632568
 42
6.350006103515625
 43
6.350006103515625
 44
215.8999938964844
 45
279.3999938964844
 46
0.0
 47
0.0
 48
0.0
 49
0.0
140
0.0
141
0.0
142
1.0
143
1.0
 70
 11936
 72
     0
 73
     0
 74
     0
  7

 75
     0
 76
     0
 77
     2
 78
   300
147
0.2992941927386169
148
0.0
149
0.0
100
AcDbLayout
  1
Model
 70
     1
 71
     1
 10
0.0
 20
0.0
 11
420.0
 21
297.0
 12
0.0
 22
0.0
 32
0.0
 14
117.8262329101562
 24
100.1588119763775
 34
0.0
 15
816.7782146685299
 25
501.2026672363281
 35
0.0
146
0.0
 13
0.0
 23
0.0
 33
0.0
 16
1.0
 26
0.0
 36
0.0
 17
0.0
 27
1.0
 37
0.0
 76
     0
330
1F
331
97
  0
MLINESTYLE
  5
18
102
{ACAD_REACTORS
330
17
102
}
330
17
100
AcDbMlineStyle
  2
Standard
 70
     0
  3

 62
     0
 51
90.0
 52
90.0
 71
     2
 49
0.5
 62
   256
  6
BYLAYER
 49
-0.5
 62
   256
  6
BYLAYER
  0
ACDBPLACEHOLDER
  5
F
102
{ACAD_REACTORS
330
E
102
}
330
E
  0
SCALE
  5
540
102
{ACAD_REACTORS
330
99
102
}
330
99
100
AcDbScale
 70
     0
300
1:1
140
1.0
141
1.0
290
     1
  0
SCALE
  5
541
102
{ACAD_REACTORS
330
99
102
}
330
99
100
AcDbScale
 70
     0
300
1:2
140
1.0
141
2.0
290
     0
  0
SCALE
  5
542
102
{ACAD_REACTORS
330
99
102
}
330
99
100
AcDbScale
 70
     0
300
1:4
140
1.0
141
4.0
290
     0
  0
SCALE
  5
543
102
{ACAD_REACTORS
330
99
102
}
330
99
100
AcDbScale
 70
     0
300
1:5
140
1.0
141
5.0
290
     0
  0
SCALE
  5
544
102
{ACAD_REACTORS
330
99
102
}
330
99
100
AcDbScale
 70
     0
300
1:8
140
1.0
141
8.0
290
     0
  0
SCALE
  5
545
102
{ACAD_REACTORS
330
99
102
}
330
99
100
AcDbScale
 70
     0
300
1:10
140
1.0
141
10.0
290
     0
  0
SCALE
  5
546
102
{ACAD_REACTORS
330
99
102
}
330
99
100
AcDbScale
 70
     0
300
1:16
140
1.0
141
16.0
290
     0
  0
SCALE
  5
547
102
{ACAD_REACTORS
330
99
102
}
330
99
100
AcDbScale
 70
     0
300
1:20
140
1.0
141
20.0
290
     0
  0
SCALE
  5
548
102
{ACAD_REACTORS
330
99
102
}
330
99
100
AcDbScale
 70
     0
300
1:30
140
1.0
141
30.0
290
     0
  0
SCALE
  5
549
102
{ACAD_REACTORS
330
99
102
}
330
99
100
AcDbScale
 70
     0
300
1:40
140
1.0
141
40.0
290
     0
  0
SCALE
  5
54A
102
{ACAD_REACTORS
330
99
102
}
330
99
100
AcDbScale
 70
     0
300
1:50
140
1.0
141
50.0
290
     0
  0
SCALE
  5
54B
102
{ACAD_REACTORS
330
99
102
}
330
99
100
AcDbScale
 70
     0
300
1:100
140
1.0
141
100.0
290
     0
  0
SCALE
  5
54C
102
{ACAD_REACTORS
330
99
102
}
330
99
100
AcDbScale
 70
     0
300
2:1
140
2.0
141
1.0
290
     0
  0
SCALE
  5
54D
102
{ACAD_REACTORS
330
99
102
}
330
99
100
AcDbScale
 70
     0
300
4:1
140
4.0
141
1.0
290
     0
  0
SCALE
  5
54E
102
{ACAD_REACTORS
330
99
102
}
330
99
100
AcDbScale
 70
     0
300
8:1
140
8.0
141
1.0
290
     0
  0
SCALE
  5
54F
102
{ACAD_REACTORS
330
99
102
}
330
99
100
AcDbScale
 70
     0
300
10:1
140
10.0
141
1.0
290
     0
  0
SCALE
  5
550
102
{ACAD_REACTORS
330
99
102
}
330
99
100
AcDbScale
 70
     0
300
100:1
140
100.0
141
1.0
290
     0
  0
SCALE
  5
551
102
{ACAD_REACTORS
330
99
102
}
330
99
100
AcDbScale
 70
     0
300
1/128" = 1'-0"
140
0.0078125
141
12.0
290
     0
  0
SCALE
  5
552
102
{ACAD_REACTORS
330
99
102
}
330
99
100
AcDbScale
 70
     0
300
1/64" = 1'-0"
140
0.015625
141
12.0
290
     0
  0
SCALE
  5
553
102
{ACAD_REACTORS
330
99
102
}
330
99
100
AcDbScale
 70
     0
300
1/32" = 1'-0"
140
0.03125
141
12.0
290
     0
  0
SCALE
  5
554
102
{ACAD_REACTORS
330
99
102
}
330
99
100
AcDbScale
 70
     0
300
1/16" = 1'-0"
140
0.0625
141
12.0
290
     0
  0
SCALE
  5
555
102
{ACAD_REACTORS
330
99
102
}
330
99
100
AcDbScale
 70
     0
300
3/32" = 1'-0"
140
0.09375
141
12.0
290
     0
  0
SCALE
  5
556
102
{ACAD_REACTORS
330
99
102
}
330
99
100
AcDbScale
 70
     0
300
1/8" = 1'-0"
140
0.125
141
12.0
290
     0
  0
SCALE
  5
557
102
{ACAD_REACTORS
330
99
102
}
330
99
100
AcDbScale
 70
     0
300
3/16" = 1'-0"
140
0.1875
141
12.0
290
     0
  0
SCALE
  5
558
102
{ACAD_REACTORS
330
99
102
}
330
99
100
AcDbScale
 70
     0
300
1/4" = 1'-0"
140
0.25
141
12.0
290
     0
  0
SCALE
  5
559
102
{ACAD_REACTORS
330
99
102
}
330
99
100
AcDbScale
 70
     0
300
3/8" = 1'-0"
140
0.375
141
12.0
290
     0
  0
SCALE
  5
55A
102
{ACAD_REACTORS
330
99
102
}
330
99
100
AcDbScale
 70
     0
300
1/2" = 1'-0"
140
0.5
141
12.0
290
     0
  0
SCALE
  5
55B
102
{ACAD_REACTORS
330
99
102
}
330
99
100
AcDbScale
 70
     0
300
3/4" = 1'-0"
140
0.75
141
12.0
290
     0
  0
SCALE
  5
55C
102
{ACAD_REACTORS
330
99
102
}
330
99
100
AcDbScale
 70
     0
300
1" = 1'-0"
140
1.0
141
12.0
290
     0
  0
SCALE
  5
55D
102
{ACAD_REACTORS
330
99
102
}
330
99
100
AcDbScale
 70
     0
300
1-1/2" = 1'-0"
140
1.5
141
12.0
290
     0
  0
SCALE
  5
55E
102
{ACAD_REACTORS
330
99
102
}
330
99
100
AcDbScale
 70
     0
300
3" = 1'-0"
140
3.0
141
12.0
290
     0
  0
SCALE
  5
55F
102
{ACAD_REACTORS
330
99
102
}
330
99
100
AcDbScale
 70
     0
300
6" = 1'-0"
140
6.0
141
12.0
290
     0
  0
SCALE
  5
560
102
{ACAD_REACTORS
330
99
102
}
330
99
100
AcDbScale
 70
     0
300
1'-0" = 1'-0"
140
12.0
141
12.0
290
     0
  0
TABLESTYLE
  5
93
102
{ACAD_REACTORS
330
92
102
}
102
{ACAD_XDICTIONARY
360
6E2
102
}
330
92
100
AcDbTableStyle
  3
Standard
 70
     0
 71
     0
 40
0.06
 41
0.06
280
     0
281
     0
  7
Standard
140
0.18
170
     2
 62
     0
 63
     7
283
     0
274
    -2
284
     1
 64
     0
275
    -2
285
     1
 65
     0
276
    -2
286
     1
 66
     0
277
    -2
287
     1
 67
     0
278
    -2
288
     1
 68
     0
279
    -2
289
     1
 69
     0
  7
Standard
140
0.25
170
     5
 62
     0
 63
     7
283
     0
274
    -2
284
     1
 64
     0
275
    -2
285
     1
 65
     0
276
    -2
286
     1
 66
     0
277
    -2
287
     1
 67
     0
278
    -2
288
     1
 68
     0
279
    -2
289
     1
 69
     0
  7
Standard
140
0.18
170
     5
 62
     0
 63
     7
283
     0
274
    -2
284
     1
 64
     0
275
    -2
285
     1
 65
     0
276
    -2
286
     1
 66
     0
277
    -2
287
     1
 67
     0
278
    -2
288
     1
 68
     0
279
    -2
289
     1
 69
     0
  0
DICTIONARYVAR
  5
562
102
{ACAD_REACTORS
330
59
102
}
330
59
100
DictionaryVariables
280
     0
  1

  0
DICTIONARYVAR
  5
98
102
{ACAD_REACTORS
330
59
102
}
330
59
100
DictionaryVariables
280
     0
  1
Standard
  0
DICTIONARYVAR
  5
5A
102
{ACAD_REACTORS
330
59
102
}
330
59
100
DictionaryVariables
280
     0
  1
2
  0
DICTIONARYVAR
  5
5E
102
{ACAD_REACTORS
330
59
102
}
330
59
100
DictionaryVariables
280
     0
  1
1
  0
DICTIONARYVAR
  5
563
102
{ACAD_REACTORS
330
59
102
}
330
59
100
DictionaryVariables
280
     0
  1
0
  0
DICTIONARY
  5
6E2
330
93
100
AcDbDictionary
280
     1
281
     1
  3
ACAD_XREC_ROUNDTRIP
360
6E3
  0
XRECORD
  5
6E3
102
{ACAD_REACTORS
330
6E2
102
}
330
6E2
100
AcDbXrecord
280
     1
102
ACAD_ROUNDTRIP_PRE2007_TABLESTYLE
 90
      512
 91
        0
  1

 92
      512
 93
        0
  2

 94
      512
 95
        0
  3

  0
ENDSEC
  0
SECTION
  2
THUMBNAILIMAGE
 90
    17264
310
28000000B40000005A0000000100080000000000483F00000000000000000000000100000000000000000000000080000080000000808000800000008000800080800000C0C0C000C0DCC000F0CAA6000020400000206000002080000020A0000020C0000020E00000400000004020000040400000406000004080000040A0
310
000040C0000040E00000600000006020000060400000606000006080000060A0000060C0000060E00000800000008020000080400000806000008080000080A0000080C0000080E00000A0000000A0200000A0400000A0600000A0800000A0A00000A0C00000A0E00000C0000000C0200000C0400000C0600000C0800000C0
310
A00000C0C00000C0E00000E0000000E0200000E0400000E0600000E0800000E0A00000E0C00000E0E00040000000400020004000400040006000400080004000A0004000C0004000E00040200000402020004020400040206000402080004020A0004020C0004020E000404000004040200040404000404060004040800040
310
40A0004040C0004040E00040600000406020004060400040606000406080004060A0004060C0004060E00040800000408020004080400040806000408080004080A0004080C0004080E00040A0000040A0200040A0400040A0600040A0800040A0A00040A0C00040A0E00040C0000040C0200040C0400040C0600040C08000
310
40C0A00040C0C00040C0E00040E0000040E0200040E0400040E0600040E0800040E0A00040E0C00040E0E00080000000800020008000400080006000800080008000A0008000C0008000E00080200000802020008020400080206000802080008020A0008020C0008020E00080400000804020008040400080406000804080
310
008040A0008040C0008040E00080600000806020008060400080606000806080008060A0008060C0008060E00080800000808020008080400080806000808080008080A0008080C0008080E00080A0000080A0200080A0400080A0600080A0800080A0A00080A0C00080A0E00080C0000080C0200080C0400080C0600080C0
310
800080C0A00080C0C00080C0E00080E0000080E0200080E0400080E0600080E0800080E0A00080E0C00080E0E000C0000000C0002000C0004000C0006000C0008000C000A000C000C000C000E000C0200000C0202000C0204000C0206000C0208000C020A000C020C000C020E000C0400000C0402000C0404000C0406000C0
310
408000C040A000C040C000C040E000C0600000C0602000C0604000C0606000C0608000C060A000C060C000C060E000C0800000C0802000C0804000C0806000C0808000C080A000C080C000C080E000C0A00000C0A02000C0A04000C0A06000C0A08000C0A0A000C0A0C000C0A0E000C0C00000C0C02000C0C04000C0C06000
310
C0C08000C0C0A000F0FBFF00A4A0A000808080000000FF0000FF000000FFFF00FF000000FF00FF00FFFF0000FFFFFF0000000000000000000000000000000000000000000000000000000000000000000000000000000000000000000000000000000000000000000000000000000000000000000000000000000000000000
310
00000000000000000000000000000000000000000000000000000000000000000000000000000000000000000000000000000000000000000000000000000000000000000000000000000000000000000000000000000000000000000000000000000000000000000000000000000000000000000000000000000000000000
310
00000000000000000000000000000000000000000000000000000000000000000000000000000000000000000000000000000000000000000000000000000000000000000000000000000000000000000000000000000000000000000000000000000000000000000000000000000000000000000000000000000000000000
310
00000000000000000000000000000000000000000000000000000000000000000000000000000000000000000000000000000000000000000000000000000000000000000000000000000000000000000000000000000000000000000000000000000000000000000000000000000000000000000000000000000000000000
310
00000000000000000000000000000000000000000000000000000000000000000000000000000000000000000000000000000000000000000000000000000000000000000000000000000000000000000000000000000000000000000000000000000000000000000000000000000000000000000000000000000000000000
310
00000000000000000000000000000000000000000000000000000000000000000000000000000000000000000000000000000000000000000000000000000000000000000000000000000000000000000000000000000000000000000000000000000000000000000000000000000000000000000000000000000000000000
310
00000000000000000000000000000000000000000000000000000000000000000000000000000000000000000000000000000000000000000000000000000000000000000000000000000000000000000000000000000000000000000000000000000000000000000000000000000000000000000000000000000000000000
310
00000000000000000000000000000000000000000000000000000000000000000000000000000000000000000000000000000000000000000000000000000000000000000000000000000000000000000000000000000000000000000000000000000000000000000000000000000000000000000000000000000000000000
310
00000000000000000000000000000000000000000000000000000000000000000000000000000000000000000000000000000000000000000000000000000000000000000000000000000000000000000000000000000000000000000000000000000000000000000000000000000000000000000000000000000000000000
310
00000000000000000000000000000000000000000000000000000000000000000000000000000000000000000000000000000000000000000000000000000000000000000000000000000000000000000000000000000000000000000000000000000000000000000000000000000000000000000000000000000000000000
310
00000000000000000000000000000000000000000000000000000000000000000000000000000000000000000000000000000000000000000000000000000000000000000000000000000000000000000000000000000000000000000000000000000000000000000000000000000000000000000000000000000000000000
310
00000000000000000000000000000000000000000000000000000000000000000000000000000000000000000000000000000000000000000000000000000000000000000000000000000000000000000000000000000000000000000000000000000000000000000000000000000000000000000000000000000000000000
310
00000000000000000000000000000000000000000000000000000000000000000000000000000000000000000000000000000000000000000000000000000000000000000000000000000000000000000000000000000000000000000000000000000000000000000000000000000000000000000000000000000000000000
310
00000000000000000000000000000000000000000000000000000000000000000000000000000000000000000000000000000000000000000000000000000000000000000000000000000000000000000000000000000000000000000000000000000000000000000000000000000000000000000000000000000000000000
310
00000000000000000000000000000000000000000000000000000000000000000000000000000000000000000000000000000000000000000000000000000000000000000000000000000000000000000000000000000000000000000000000000000000000000000000000000000000000000000000000000000000000000
310
00000000000000000000000000000000000000000000000000000000000000000000000000000000000000000000000000000000000000000000000000000000000000000000000000000000000000000000000000000000000000000000000000000000000000000000000000000000000000000000000000000000000000
310
00000000000000000000000000000000000000000000000000000000000000000000000000000000000000000000000000000000000000000000000000000000000000000000000000000000000000000000000000000000000000000000000000000000000000000000000000000000000000000000000000000000000000
310
00000000000000000000000000000000000000000000000000000000000000000000000000000000000000000000000000000000000000000000000000000000000000000000000000000000000000000000000000000000000000000000000000000000000000000000000000000000000000000000000000000000000000
310
00000000000000000000000000000000000000000000000000000000000000000000000000000000000000000000000000000000000000000000000000000000000000000000000000000000000000000000000000000000000000000000000000000000000000000000000000000000000000000000000000000000000000
310
00000000000000000000000000000000000000000000000000000000000000000000000000000000000000000000000000000000000000000000000000000000000000000000000000000000000000000000000000000000000000000000000000000000000000000000000000000000000000000000000000000000000000
310
00000000000000000000000000000000000000000000000000000000000000000000000000000000000000000000000000000000000000000000000000000000000000000000000000000000000000000000000000000000000000000000000000000000000000000000000000000000000000000000000000000000000000
310
00000000000000000000000000000000000000000000000000000000000000000000000000000000000000000000000000000000000000000000000000000000000000000000000000000000000000000000000000000000000000000000000000000000000000000000000000000000000000000000000000000000000000
310
00000000000000000000000000000000000000000000000000000000000000000000000000000000000000000000000000000000000000000000000000000000000000000000000000000000000000000000000000000000000000000000000000000000000000000000000000000000000000000000000000000000000000
310
00000000000000000000000000000000000000000000000000000000000000000000000000000000000000000000000000000000000000000000000000000000000000000000000000000000000000000000000000000000000000000000000000000000000000000000000000000000000000000000000000000000000000
310
0000000000000000000000000000000000000000000000000000000000000000000000000000000000000000000000000000000000000000000000000000000000000000000000000000000000000000000000000000000000000000000000000000000000000000000000000000000000000000000000FFFFFFFFFFFFFFFF
310
FFFFFFFFFFFFFFFFFFFFFFFFFFFFFFFFFFFFFFFFFFFFFFFFFFFFFFFFFFFFFFFF0000000000000000000000000000000000000000000000000000000000000000000000000000000000000000000000000000000000000000000000000000000000000000000000000000000000000000000000000000000000000000000000
310
000000000000000000000000000000000000000000000000000000000000000000000000000000000000000000FF0000FFFF0000000000FFFF0000FFFF000000FFFF000000FF000000FFFF0000000000FFFF0000FF000000000000000000000000000000000000000000000000000000000000000000000000000000000000
310
0000000000000000000000000000000000000000000000000000000000000000000000000000000000000000000000000000000000000000000000000000000000000000000000000000000000000000000000000000000000000000000000000000FF0000FFFF0000000000FF000000FFFF000000FFFF000000FF000000FF
310
FF0000000000FFFF0000FF0000000000000000000000000000000000000000000000000000000000000000000000000000000000000000000000000000000000000000000000000000000000000000000000000000000000000000000000000000000000000000000000000000000000000000000000000000000000000000
310
000000000000000000000000000000000000000000000000FFFFFFFFFFFFFFFFFFFFFFFFFFFFFFFFFFFFFFFFFFFFFFFFFFFFFFFFFFFFFFFFFFFFFFFFFFFFFFFF000000000000000000000000000000000000000000000000000000000000000000000000000000000000000000000000000000000000000000000000000000
310
00000000000000000000000000000000000000000000000000000000000000000000000000000000000000000000000000000000000000000000000000000000000000000000000000000000000000000000000000000000000000000000000000000000000000000000000000000000000000000000000000000000000000
310
00000000000000000000000000000000000000000000000000000000000000000000000000000000000000000000000000000000000000000000000000000000000000000000000000000000000000000000000000000000000000000000000000000000000000000000000000000000000000000000000000000000000000
310
00000000000000000000000000000000000000000000000000000000000000000000000000000000000000000000000000000000000000000000000000000000000000000000000000000000000000000000000000000000000000000000000000000000000000000000000000000000000000000000000000000000000000
310
00000000000000000000000000000000000000000000000000000000000000000000000000000000000000000000000000000000000000000000000000000000000000000000000000000000000000000000000000000000000000000000000000000000000000000000000000000000000000000000000000000000000000
310
00000000000000000000000000000000000000000000000000000000000000000000000000000000000000000000000000000000000000000000000000000000000000000000000000000000000000000000000000000000000000000000000000000000000000000000000000000000000000000000000000000000000000
310
00000000000000000000000000000000000000000000000000000000000000000000000000000000000000000000000000000000000000000000000000000000000000000000000000000000000000000000000000000000000000000000000000000000000000000000000000000000000000000000000000000000000000
310
00000000000000000000000000000000000000000000000000000000000000000000000000000000000000000000000000000000000000000000000000000000000000000000000000000000000000000000000000000000000000000000000000000000000000000000000000000000000000000000000000000000000000
310
00000000000000000000000000000000000000000000000000000000000000000000000000000000000000000000000000000000000000000000000000000000000000000000000000000000000000000000000000000000000000000000000000000000000000000000000000000000000000000000000000000000000000
310
00000000000000000000000000000000000000000000000000000000000000000000000000000000000000000000000000000000000000000000000000000000000000000000000000000000000000000000000000000000000000000000000000000000000000000000000000000000000000000000000000000000000000
310
00000000000000000000000000000000000000000000000000000000000000000000000000000000000000000000000000000000000000000000000000000000000000000000000000000000000000000000000000000000000000000000000000000000000000000000000000000000000000000000000000000000000000
310
00000000000000000000000000000000000000000000000000000000000000000000000000000000000000000000000000000000000000000000000000000000000000000000000000000000000000000000000000000000000000000000000000000000000000000000000000000000000000000000000000000000000000
310
00000000000000000000000000000000000000000000000000000000000000000000000000000000000000000000000000000000000000000000000000000000000000000000000000000000000000000000000000000000000000000000000000000000000000000000000000000000000000000000000000000000000000
310
00000000000000000000000000000000000000000000000000000000000000000000000000000000000000000000000000000000000000000000000000000000000000000000000000000000000000000000000000000000000000000000000000000000000000000000000000000000000000000000000000000000000000
310
00000000000000000000000000000000000000000000000000000000000000000000000000000000000000000000000000000000000000000000000000000000000000000000000000000000000000000000000000000000000000000000000000000000000000000000000000000000000000000000000000000000000000
310
00000000000000000000000000000000000000000000000000000000000000000000000000000000000000000000000000000000000000000000000000000000000000000000000000000000000000000000000000000000000000000000000000000000000000000000000000000000000000000000000000000000000000
310
00000000000000000000000000000000000000000000000000000000000000000000000000000000000000000000000000000000000000000000000000000000000000000000000000000000000000000000000000000000000000000000000000000000000000000000000000000000000000000000000000000000000000
310
00000000000000000000000000000000000000000000000000000000000000000000000000000000000000000000000000000000000000000000000000000000000000000000000000000000000000000000000000000000000000000000000000000000000000000000000000000000000000000000000000000000000000
310
00000000000000000000000000000000000000000000000000000000000000000000000000000000000000000000000000000000000000000000000000000000000000000000000000000000000000000000000000000000000000000000000000000000000000000000000000000000000000000000000000000000000000
310
00000000000000000000000000000000000000000000000000000000000000000000000000000000000000000000000000000000000000000000000000000000000000000000000000000000000000000000000000000000000000000000000000000000000000000000000000000000000000000000000000000000000000
310
00000000FFFFFFFFFFFFFFFFFFFFFFFFFFFFFFFFFFFFFFFFFFFFFFFFFFFFFFFFFFFFFFFFFFFFFFFFFFFFFFFFFFFFFF0000000000000000000000000000000000000000000000000000000000000000000000000000000000000000000000000000000000000000000000000000000000000000000000000000000000000000
310
000000000000000000000000000000000000000000000000000000000000000000000000000000000000000000000000000000000000000000FF0000000000000000000000000000000000000000000000000000000000000000000000000000FF0000FF000000000000000000000000000000000000000000000000000000
310
0000000000000000000000000000000000000000000000000000000000000000000000000000000000000000000000000000000000000000000000000000000000000000000000000000000000000000000000000000000000000000000000000000000000000000000000000000FF00000000000000000000000000000000
310
00000000000000000000000000000000000000000000FF0000FF0000000000000000000000000000000000000000000000000000000000000000000000000000000000000000000000000000000000000000000000000000000000000000000000000000000000000000000000000000000000000000000000000000000000
310
000000000000000000000000000000000000000000000000000000000000000000000000FF0000000000000000000000000000000000000000000000000000000000000000000000000000FF00FFFF000000000000000000000000000000000000000000000000000000000000000000000000000000000000000000000000
310
0000000000000000000000000000000000000000000000000000000000000000000000000000000000000000000000000000000000000000000000000000000000000000000000000000000000000000000000000000000000FF00000000000000000000000000000000000000000000000000000000000000000000000000
310
00FF00FFFF0000000000000000000000000000000000000000000000000000000000000000000000000000000000000000000000000000000000000000000000000000000000000000000000000000000000000000000000000000000000000000000000000000000000000000000000000000000000000000000000000000
310
000000000000000000000000000000FF0000000000000000000000000000000000000000000000000000000000000000000000000000FF0000FF000000000000000000000000000000000000000000000000000000000000000000000000000000000000000000000000000000000000000000000000000000000000000000
310
0000000000000000000000000000000000000000000000000000000000000000000000000000000000000000000000000000000000000000000000000000000000000000FF0000000000000000000000000000000000000000000000000000000000000000000000000000FF0000FF00000000000000000000000000000000
310
00000000000000000000000000000000000000000000000000000000000000000000000000000000000000000000000000000000000000000000000000000000000000000000000000000000000000000000000000000000000000000000000000000000000000000000000000000000000000000000000000FF0000000000
310
000000000000000000000000000000000000000000000000000000000000000000FF0000FF000000000000000000000000000000000000000000000000000000000000000000000000000000000000000000000000000000000000000000000000000000000000000000000000000000000000000000000000000000000000
310
0000000000000000000000000000000000000000000000000000000000000000000000000000000000000000000000FF0000000000000000000000000000000000000000000000000000000000000000000000000000FFFFFFFF00000000000000000000000000000000000000000000000000000000000000000000000000
310
00000000000000000000000000000000000000000000000000000000000000000000000000000000000000000000000000000000000000000000000000000000000000000000000000000000000000000000000000000000000000000000000000000000000000000000000000000000000000000000000000000000000000
310
00000000000000000000000000000000000000000000000000000000000000000000000000000000000000000000000000000000000000000000000000000000000000000000000000000000000000000000000000000000000000000000000000000000000000000000000000000000000000000000000000000000000000
310
00000000000000000000000000000000000000000000000000000000000000000000000000000000000000000000000000000000000000000000000000000000000000000000000000000000000000000000000000000000000000000000000000000000000000000000000000000000000000000000000000000000000000
310
00000000000000000000000000000000000000000000000000000000000000000000000000000000000000000000000000000000000000000000000000000000000000000000000000000000000000000000000000000000000000000000000000000000000000000000000000000000000000000000000000000000000000
310
00000000000000000000000000000000000000000000000000000000000000000000000000000000000000000000000000000000000000000000000000000000000000000000000000000000000000000000000000000000000000000000000000000000000000000000000000000000000000000000000000000000000000
310
00000000000000000000000000000000000000000000000000000000000000000000000000000000000000000000000000000000000000000000000000000000000000000000000000000000000000000000000000000000000000000000000000000000000000000000000000000000000000000000000000000000000000
310
00000000000000000000000000000000000000000000000000000000000000000000000000000000000000000000000000000000000000000000000000000000000000000000000000000000000000000000000000000000000000000000000000000000000000000000000000000000000000000000000000000000000000
310
00000000000000000000000000000000000000000000000000000000000000000000000000000000000000000000000000000000000000000000000000000000000000000000000000000000000000000000000000000000000000000000000000000000000000000000000000000000000000000000000000000000000000
310
00000000000000000000000000000000000000000000000000000000000000000000000000000000000000000000000000000000000000000000000000000000000000000000000000000000000000000000000000000000000000000000000000000000000000000000000000000000000000000000000000000000000000
310
00000000000000000000000000000000000000000000000000000000000000000000000000000000000000000000000000000000000000000000000000000000000000000000000000000000000000000000000000000000000000000000000000000000000000000000000000000000000000000000000000000000000000
310
00000000000000000000000000000000000000000000000000000000000000000000000000000000000000000000000000000000000000000000000000000000000000000000000000000000000000000000000000000000000000000000000000000000000000000000000000000000000000000000000000000000000000
310
00000000000000000000000000000000000000000000000000000000000000000000000000000000000000000000000000000000000000000000000000000000000000000000000000000000000000000000000000000000000000000000000000000000000000000000000000000000000000000000000000000000000000
310
00000000000000000000000000000000000000000000000000000000000000000000000000000000000000000000000000000000000000000000000000000000000000000000000000000000000000000000000000000000000000000000000000000000000000000000000000000000000000000000000000000000000000
310
00000000000000000000000000000000000000000000000000000000000000000000000000000000000000000000000000000000000000000000000000000000000000000000000000000000000000000000000000000000000000000000000000000000000000000000000000000000000000000000000000000000000000
310
00000000000000000000000000000000000000000000000000000000000000000000000000000000000000000000000000000000000000000000000000000000000000000000000000000000000000000000000000000000000000000000000000000000000000000000000000000000000000000000000000000000000000
310
00000000000000000000000000000000000000000000000000000000000000000000000000000000000000000000000000000000000000000000000000000000000000000000000000000000000000000000000000000000000000000000000000000000000000000000000000000000000000000000000000000000000000
310
00000000000000000000000000000000000000000000000000000000000000000000000000000000000000000000000000000000000000000000000000000000000000000000000000000000000000000000000000000000000000000000000000000000000000000000000000000000000000000000000000000000000000
310
00000000000000000000000000000000000000000000000000000000000000000000000000000000000000000000000000000000000000000000000000000000000000000000000000000000000000000000000000000000000000000000000000000000000000000000000000000000000000000000000000000000000000
310
00000000000000000000000000000000000000000000000000000000000000000000000000000000000000000000000000000000000000000000000000000000000000000000000000000000000000000000000000000000000000000000000000000000000000000000000000000000000000000000000000000000000000
310
00000000000000000000000000000000000000000000000000000000000000000000000000000000000000000000000000000000000000000000000000000000000000000000000000000000000000000000000000000000000000000000000000000000000000000000000000000000000000000000000000000000000000
310
00000000000000000000000000000000000000000000000000000000000000000000000000000000000000000000000000000000000000000000000000000000000000000000000000000000000000000000000000000000000000000000000000000000000000000000000000000000000000000000000000000000000000
310
00000000000000000000000000000000000000000000000000000000000000000000000000000000000000000000000000000000000000000000000000000000000000000000000000000000000000000000000000000000000000000000000000000000000000000000000000000000000000000000000000000000000000
310
00000000000000000000000000000000000000000000000000000000000000000000000000000000000000000000000000000000000000000000000000000000000000000000000000000000000000000000000000000000000000000000000000000000000000000000000000000000000000000000000000000000000000
310
00000000000000000000000000000000000000000000000000000000000000000000000000000000000000000000000000000000000000000000000000000000000000000000000000000000000000000000000000000000000000000000000000000000000000000000000000000000000000000000000000000000000000
310
00000000000000000000000000000000000000000000000000000000000000000000000000000000000000000000000000000000000000000000000000000000000000000000000000000000000000000000000000000000000000000000000000000000000000000000000000000000000000000000000000000000000000
310
00000000000000000000000000000000000000000000000000000000000000000000000000000000000000000000000000000000000000000000000000000000000000000000000000000000000000000000000000000000000000000000000000000000000000000000000000000000000000000000000000000000000000
310
00000000000000000000000000000000000000000000000000000000000000000000000000000000000000000000000000000000000000000000000000000000000000000000000000000000000000000000000000000000000000000000000000000000000000000000000000000000000000000000000000000000000000
310
00000000000000000000000000000000000000000000000000000000000000000000000000000000000000000000000000000000000000000000000000000000000000000000000000000000000000000000000000000000000000000000000000000000000000000000000000000000000000000000000000000000000000
310
00000000000000000000000000000000000000000000000000000000000000000000000000000000000000000000000000000000000000000000000000000000000000000000000000000000000000000000000000000000000000000000000000000000000000000000000000000000000000000000000000000000000000
310
00000000000000000000000000000000000000000000000000000000000000000000000000000000000000000000000000000000000000000000000000000000000000000000000000000000000000000000000000000000000000000000000000000000000000000000000000000000000000000000000000000000000000
310
00000000000000000000000000000000000000000000000000000000000000000000000000000000000000000000000000000000000000000000000000000000000000000000000000000000000000000000000000000000000000000000000000000000000000000000000000000000000000000000000000000000000000
310
00000000000000000000000000000000000000000000000000000000000000000000000000000000000000000000000000000000000000000000000000000000000000000000000000000000000000000000000000000000000000000000000000000000000000000000000000000000000000000000000000000000000000
310
00000000000000000000000000000000000000000000000000000000000000000000000000000000000000000000000000000000000000000000000000000000000000000000000000000000000000000000000000000000000000000000000000000000000000000000000000000000000000000000000000000000000000
310
00000000000000000000000000000000000000000000000000000000000000000000000000000000000000000000000000000000000000000000000000000000000000000000000000000000000000000000000000000000000000000000000000000000000000000000000000000000000000000000000000000000000000
310
00000000000000000000000000000000000000000000000000000000000000000000000000000000000000000000000000000000000000000000000000000000000000000000000000000000000000000000000000000000000000000000000000000000000000000000000000000000000000000000000000000000000000
310
00000000000000000000000000000000000000000000000000000000000000000000000000000000000000000000000000000000000000000000000000000000000000000000000000000000000000000000000000000000000000000000000000000000000000000000000000000000000000000000000000000000000000
310
00000000000000000000000000000000000000000000000000000000000000000000000000000000000000000000000000000000000000000000000000000000000000000000000000000000000000000000000000000000000000000000000000000000000000000000000000000000000000000000000000000000000000
310
00000000000000000000000000000000000000000000000000000000000000000000000000000000000000000000000000000000000000000000000000000000000000000000000000000000000000000000000000000000000000000000000000000000000000000000000000000000000000000000000000000000000000
310
00000000000000000000000000000000000000000000000000000000000000000000000000000000000000000000000000000000000000000000000000000000000000000000000000000000000000000000000000000000000000000000000000000000000000000000000000000000000000000000000000000000000000
310
00000000000000000000000000000000000000000000000000000000000000000000000000000000000000000000000000000000000000000000000000000000000000000000000000000000000000000000000000000000000000000000000000000000000000000000000000000000000000000000000000000000000000
310
00000000000000000000000000000000000000000000000000000000000000000000000000000000000000000000000000000000000000000000000000000000000000000000000000000000000000000000000000000000000000000000000000000000000000000000000000000000000000000000000000000000000000
310
00000000000000000000000000000000000000000000000000000000000000000000000000000000000000000000000000000000000000000000000000000000000000000000000000000000000000000000000000000000000000000000000000000000000000000000000000000000000000000000000000000000000000
310
00000000000000000000000000000000000000000000000000000000000000000000000000000000000000000000000000000000000000000000000000000000000000000000000000000000000000000000000000000000000000000000000000000000000000000000000000000000000000000000000000000000000000
310
00000000000000000000000000000000000000000000000000000000000000000000000000000000000000000000000000000000000000000000000000000000000000000000000000000000000000000000000000000000000000000000000000000000000000000000000000000000000000000000000000000000000000
310
00000000000000000000000000000000000000000000000000000000000000000000000000000000000000000000000000000000000000000000000000000000000000000000000000000000000000000000000000000000000000000000000000000000000000000000000000000000000000000000000000000000000000
310
00000000000000000000000000000000000000000000000000000000000000000000000000000000000000000000000000000000000000000000000000000000000000000000000000000000000000000000000000000000000000000000000000000000000000000000000000000000000000000000000000000000000000
310
00000000000000000000000000000000000000000000000000000000000000000000000000000000000000000000000000000000000000000000000000000000000000000000000000000000000000000000000000000000000000000000000000000000000000000000000000000000000000000000000000000000000000
310
00000000000000000000000000000000000000000000000000000000000000000000000000000000000000000000000000000000000000000000000000000000000000000000000000000000000000000000000000000000000000000000000000000000000000000000000000000000000000000000000000000000000000
310
00000000000000000000000000000000000000000000000000000000000000000000000000000000000000000000000000000000000000000000000000000000000000000000000000000000000000000000000000000000000000000000000000000000000000000000000000000000000000000000000000000000000000
310
00000000000000000000000000000000000000000000000000000000000000000000000000000000000000000000000000000000000000000000000000000000000000000000000000000000000000000000000000000000000000000000000000000000000000000000000000000000000000000000000000000000000000
310
00000000000000000000000000000000000000000000000000000000000000000000000000000000000000000000000000000000000000000000000000000000000000000000000000000000000000000000000000000000000000000000000000000000000000000000000000000000000000000000000000000000000000
310
00000000000000000000000000000000000000000000000000000000000000000000000000000000000000000000000000000000000000000000000000000000000000000000000000000000000000000000000000000000000000000000000000000000000000000000000000000000000000000000000000000000000000
310
00000000000000000000000000000000000000000000000000000000000000000000000000000000000000000000000000000000000000000000000000000000000000000000000000000000000000000000000000000000000000000000000000000000000000000000000000000000000000000000000000000000000000
310
00000000000000000000000000000000000000000000000000000000000000000000000000000000000000000000000000000000000000000000000000000000000000000000000000000000000000000000000000000000000000000000000000000000000000000000000000000000000000000000000000000000000000
310
00000000000000000000000000000000000000000000000000000000000000000000000000000000000000000000000000000000000000000000000000000000000000000000000000000000000000000000000000000000000000000000000000000000000000000000000000000000000000000000000000000000000000
310
00000000000000000000000000000000000000000000000000000000000000000000000000000000000000000000000000000000000000000000000000000000000000000000000000000000000000000000000000000000000000000000000000000000000000000000000000000000000000000000000000000000000000
310
00000000000000000000000000000000000000000000000000000000000000000000000000000000000000000000000000000000000000000000000000000000000000000000000000000000000000000000000000000000000000000000000000000000000000000000000000000000000000000000000000000000000000
310
00000000000000000000000000000000000000000000000000000000000000000000000000000000000000000000000000000000000000000000000000000000000000000000000000000000000000000000000000000000000000000000000000000000000000000000000000000000000000000000000000000000000000
310
00000000000000000000000000000000000000000000000000000000000000000000000000000000000000000000000000000000000000000000000000000000000000000000000000000000000000000000000000000000000000000000000000000000000000000000000000000000000000000000000000000000000000
310
00000000000000000000000000000000000000000000000000000000000000000000000000000000000000000000000000000000000000000000000000000000000000000000000000000000000000000000000000000000000000000000000000000000000000000000000000000000000000000000000000000000000000
310
00000000000000000000000000000000000000000000000000000000000000000000000000000000000000000000000000000000000000000000000000000000000000000000000000000000000000000000000000000000000000000000000000000000000000000000000000000000000000000000000000000000000000
310
00000000000000000000000000000000000000000000000000000000000000000000000000000000000000000000000000000000000000000000000000000000000000000000000000000000000000000000000000000000000000000000000000000000000000000000000000000000000000000000000000000000000000
310
00000000000000000000000000000000000000000000000000000000000000000000000000000000000000000000000000000000000000000000000000000000000000000000000000000000000000000000000000000000000000000000000000000000000000000000000000000000000000000000000000000000000000
310
00000000000000000000000000000000000000000000000000000000000000000000000000000000000000000000000000000000000000000000000000000000000000000000000000000000000000000000000000000000000000000000000000000000000000000000000000000000000000000000000000000000000000
310
00000000000000000000000000000000000000000000000000000000000000000000000000000000000000000000000000000000000000000000000000000000000000000000000000000000000000000000000000000000000000000000000000000000000000000000000000000000000000000000000000000000000000
310
00000000000000000000000000000000000000000000000000000000000000000000000000000000000000000000000000000000000000000000000000000000000000000000000000000000000000000000000000000000000000000000000000000000000000000000000000000000000000000000000000000000000000
310
0000000000000000000000000000000000000000000000000000000000000000000000000000000000000000000000000000000000000000000000000000000000000000000000000000000000000000000000000000000000000000000000000000000000000000000000000000000000000000000000
  0
ENDSEC
  0
EOF
