  0
SECTION
  2
HEADER
  9
$ACADVER
  1
AC1018
  9
$ACADMAINTVER
 70
     0
  9
$DWGCODEPAGE
  3
ANSI_1252
  9
$LASTSAVEDBY
  1
BelottiMc
  9
$INSBASE
 10
0.0
 20
0.0
 30
0.0
  9
$EXTMIN
 10
155.2568259600262
 20
152.5201041373117
 30
0.0
  9
$EXTMAX
 10
1662.642907085801
 20
1052.982067931161
 30
0.0
  9
$LIMMIN
 10
0.0
 20
0.0
  9
$LIMMAX
 10
420.0
 20
297.0
  9
$ORTHOMODE
 70
     1
  9
$REGENMODE
 70
     1
  9
$FILLMODE
 70
     1
  9
$QTEXTMODE
 70
     0
  9
$MIRRTEXT
 70
     1
  9
$LTSCALE
 40
1.0
  9
$ATTMODE
 70
     1
  9
$TEXTSIZE
 40
2.5
  9
$TRACEWID
 40
1.0
  9
$TEXTSTYLE
  7
Standard
  9
$CLAYER
  8
0
  9
$CELTYPE
  6
ByLayer
  9
$CECOLOR
 62
   256
  9
$CELTSCALE
 40
1.0
  9
$DISPSILH
 70
     0
  9
$DIMSCALE
 40
1.0
  9
$DIMASZ
 40
2.5
  9
$DIMEXO
 40
0.625
  9
$DIMDLI
 40
3.75
  9
$DIMRND
 40
0.0
  9
$DIMDLE
 40
0.0
  9
$DIMEXE
 40
1.25
  9
$DIMTP
 40
0.0
  9
$DIMTM
 40
0.0
  9
$DIMTXT
 40
2.5
  9
$DIMCEN
 40
2.5
  9
$DIMTSZ
 40
0.0
  9
$DIMTOL
 70
     0
  9
$DIMLIM
 70
     0
  9
$DIMTIH
 70
     0
  9
$DIMTOH
 70
     0
  9
$DIMSE1
 70
     0
  9
$DIMSE2
 70
     0
  9
$DIMTAD
 70
     1
  9
$DIMZIN
 70
     8
  9
$DIMBLK
  1

  9
$DIMASO
 70
     1
  9
$DIMSHO
 70
     1
  9
$DIMPOST
  1

  9
$DIMAPOST
  1

  9
$DIMALT
 70
     0
  9
$DIMALTD
 70
     3
  9
$DIMALTF
 40
0.03937
  9
$DIMLFAC
 40
1.0
  9
$DIMTOFL
 70
     1
  9
$DIMTVP
 40
0.0
  9
$DIMTIX
 70
     0
  9
$DIMSOXD
 70
     0
  9
$DIMSAH
 70
     0
  9
$DIMBLK1
  1

  9
$DIMBLK2
  1

  9
$DIMSTYLE
  2
Standard
  9
$DIMCLRD
 70
     0
  9
$DIMCLRE
 70
     0
  9
$DIMCLRT
 70
     0
  9
$DIMTFAC
 40
1.0
  9
$DIMGAP
 40
0.625
  9
$DIMJUST
 70
     0
  9
$DIMSD1
 70
     0
  9
$DIMSD2
 70
     0
  9
$DIMTOLJ
 70
     0
  9
$DIMTZIN
 70
     8
  9
$DIMALTZ
 70
     0
  9
$DIMALTTZ
 70
     0
  9
$DIMUPT
 70
     0
  9
$DIMDEC
 70
     2
  9
$DIMTDEC
 70
     2
  9
$DIMALTU
 70
     2
  9
$DIMALTTD
 70
     3
  9
$DIMTXSTY
  7
Standard
  9
$DIMAUNIT
 70
     0
  9
$DIMADEC
 70
     0
  9
$DIMALTRND
 40
0.0
  9
$DIMAZIN
 70
     0
  9
$DIMDSEP
 70
    44
  9
$DIMATFIT
 70
     0
  9
$DIMFRAC
 70
     0
  9
$DIMLDRBLK
  1

  9
$DIMLUNIT
 70
     2
  9
$DIMLWD
 70
    -2
  9
$DIMLWE
 70
    -2
  9
$DIMTMOVE
 70
     0
  9
$LUNITS
 70
     2
  9
$LUPREC
 70
     4
  9
$SKETCHINC
 40
1.0
  9
$FILLETRAD
 40
2.5
  9
$AUNITS
 70
     0
  9
$AUPREC
 70
     0
  9
$MENU
  1
.
  9
$ELEVATION
 40
0.0
  9
$PELEVATION
 40
0.0
  9
$THICKNESS
 40
0.0
  9
$LIMCHECK
 70
     0
  9
$CHAMFERA
 40
2.5
  9
$CHAMFERB
 40
2.5
  9
$CHAMFERC
 40
0.0
  9
$CHAMFERD
 40
0.0
  9
$SKPOLY
 70
     0
  9
$TDCREATE
 40
2456491.455145509
  9
$TDUCREATE
 40
2456491.371812176
  9
$TDUPDATE
 40
2456491.458753461
  9
$TDUUPDATE
 40
2456491.375420128
  9
$TDINDWG
 40
0.0248873032
  9
$TDUSRTIMER
 40
0.0248871528
  9
$USRTIMER
 70
     1
  9
$ANGBASE
 50
0.0
  9
$ANGDIR
 70
     0
  9
$PDMODE
 70
     0
  9
$PDSIZE
 40
0.0
  9
$PLINEWID
 40
0.0
  9
$SPLFRAME
 70
     0
  9
$SPLINETYPE
 70
     6
  9
$SPLINESEGS
 70
     8
  9
$HANDSEED
  5
11EAF
  9
$SURFTAB1
 70
     6
  9
$SURFTAB2
 70
     6
  9
$SURFTYPE
 70
     6
  9
$SURFU
 70
     6
  9
$SURFV
 70
     6
  9
$UCSBASE
  2

  9
$UCSNAME
  2

  9
$UCSORG
 10
0.0
 20
0.0
 30
0.0
  9
$UCSXDIR
 10
1.0
 20
0.0
 30
0.0
  9
$UCSYDIR
 10
0.0
 20
1.0
 30
0.0
  9
$UCSORTHOREF
  2

  9
$UCSORTHOVIEW
 70
     0
  9
$UCSORGTOP
 10
0.0
 20
0.0
 30
0.0
  9
$UCSORGBOTTOM
 10
0.0
 20
0.0
 30
0.0
  9
$UCSORGLEFT
 10
0.0
 20
0.0
 30
0.0
  9
$UCSORGRIGHT
 10
0.0
 20
0.0
 30
0.0
  9
$UCSORGFRONT
 10
0.0
 20
0.0
 30
0.0
  9
$UCSORGBACK
 10
0.0
 20
0.0
 30
0.0
  9
$PUCSBASE
  2

  9
$PUCSNAME
  2

  9
$PUCSORG
 10
0.0
 20
0.0
 30
0.0
  9
$PUCSXDIR
 10
1.0
 20
0.0
 30
0.0
  9
$PUCSYDIR
 10
0.0
 20
1.0
 30
0.0
  9
$PUCSORTHOREF
  2

  9
$PUCSORTHOVIEW
 70
     0
  9
$PUCSORGTOP
 10
0.0
 20
0.0
 30
0.0
  9
$PUCSORGBOTTOM
 10
0.0
 20
0.0
 30
0.0
  9
$PUCSORGLEFT
 10
0.0
 20
0.0
 30
0.0
  9
$PUCSORGRIGHT
 10
0.0
 20
0.0
 30
0.0
  9
$PUCSORGFRONT
 10
0.0
 20
0.0
 30
0.0
  9
$PUCSORGBACK
 10
0.0
 20
0.0
 30
0.0
  9
$USERI1
 70
     0
  9
$USERI2
 70
     0
  9
$USERI3
 70
     0
  9
$USERI4
 70
     0
  9
$USERI5
 70
     0
  9
$USERR1
 40
0.0
  9
$USERR2
 40
0.0
  9
$USERR3
 40
0.0
  9
$USERR4
 40
0.0
  9
$USERR5
 40
0.0
  9
$WORLDVIEW
 70
     1
  9
$SHADEDGE
 70
     3
  9
$SHADEDIF
 70
    70
  9
$TILEMODE
 70
     1
  9
$MAXACTVP
 70
    48
  9
$PINSBASE
 10
0.0
 20
0.0
 30
0.0
  9
$PLIMCHECK
 70
     0
  9
$PEXTMIN
 10
0.0
 20
0.0
 30
0.0
  9
$PEXTMAX
 10
1189.0
 20
841.0
 30
2.0
  9
$PLIMMIN
 10
0.0
 20
0.0
  9
$PLIMMAX
 10
420.0
 20
297.0
  9
$UNITMODE
 70
     0
  9
$VISRETAIN
 70
     0
  9
$PLINEGEN
 70
     0
  9
$PSLTSCALE
 70
     1
  9
$TREEDEPTH
 70
  3020
  9
$CMLSTYLE
  2
Standard
  9
$CMLJUST
 70
     0
  9
$CMLSCALE
 40
20.0
  9
$PROXYGRAPHICS
 70
     1
  9
$MEASUREMENT
 70
     1
  9
$CELWEIGHT
370
    25
  9
$ENDCAPS
280
     0
  9
$JOINSTYLE
280
     0
  9
$LWDISPLAY
290
     0
  9
$INSUNITS
 70
     0
  9
$HYPERLINKBASE
  1

  9
$STYLESHEET
  1

  9
$XEDIT
290
     1
  9
$CEPSNTYPE
380
     0
  9
$PSTYLEMODE
290
     0
  9
$FINGERPRINTGUID
  2

  9
$VERSIONGUID
  2
{08ECE4D4-B76B-4C8C-9197-0F214061B9A3}
  9
$EXTNAMES
290
     0
  9
$PSVPSCALE
 40
0.0
  9
$OLESTARTUP
290
     0
  9
$SORTENTS
280
   127
  9
$INDEXCTL
280
     0
  9
$HIDETEXT
280
     1
  9
$XCLIPFRAME
290
     0
  9
$HALOGAP
280
     0
  9
$OBSCOLOR
 70
   257
  9
$OBSLTYPE
280
     0
  9
$INTERSECTIONDISPLAY
280
     0
  9
$INTERSECTIONCOLOR
 70
   257
  9
$DIMASSOC
280
     2
  9
$PROJECTNAME
  1

  0
ENDSEC
  0
SECTION
  2
CLASSES
  0
CLASS
  1
ACDBDICTIONARYWDFLT
  2
AcDbDictionaryWithDefault
  3
ObjectDBX Classes
 90
        0
 91
        4
280
     0
281
     0
  0
CLASS
  1
ACDBPLACEHOLDER
  2
AcDbPlaceHolder
  3
ObjectDBX Classes
 90
        0
 91
        1
280
     0
281
     0
  0
CLASS
  1
LAYOUT
  2
AcDbLayout
  3
ObjectDBX Classes
 90
        0
 91
        1
280
     0
281
     0
  0
CLASS
  1
DICTIONARYVAR
  2
AcDbDictionaryVar
  3
ObjectDBX Classes
 90
        0
 91
        4
280
     0
281
     0
  0
CLASS
  1
TABLESTYLE
  2
AcDbTableStyle
  3
ObjectDBX Classes
 90
     4095
 91
        6
280
     0
281
     0
  0
CLASS
  1
SCALE
  2
AcDbScale
  3
ObjectDBX Classes
 90
     1153
 91
       70
280
     0
281
     0
  0
CLASS
  1
MATERIAL
  2
AcDbMaterial
  3
ObjectDBX Classes
 90
     1153
 91
        7
280
     0
281
     0
  0
CLASS
  1
MLEADERSTYLE
  2
AcDbMLeaderStyle
  3
ACDB_MLEADERSTYLE_CLASS
 90
     4095
 91
        5
280
     0
281
     0
  0
CLASS
  1
VISUALSTYLE
  2
AcDbVisualStyle
  3
ObjectDBX Classes
 90
     4095
 91
       20
280
     0
281
     0
  0
CLASS
  1
WIPEOUTVARIABLES
  2
AcDbWipeoutVariables
  3
WipeOut|AutoCAD Express Tool|expresstools@autodesk.com
 90
        0
 91
        4
280
     0
281
     0
  0
ENDSEC
  0
SECTION
  2
TABLES
  0
TABLE
  2
VPORT
  5
8
102
{ACAD_XDICTIONARY
360
11EAD
102
}
330
0
100
AcDbSymbolTable
 70
     2
  0
VPORT
  5
97
330
8
100
AcDbSymbolTableRecord
100
AcDbViewportTableRecord
  2
*ACTIVE
 70
     0
 10
0.0
 20
0.0
 11
1.0
 21
1.0
 12
838.5944466688476
 22
758.6585069216093
 13
0.0
 23
0.0
 14
1.0
 24
1.0
 15
0.5
 25
0.5
 16
0.0
 26
0.0
 36
1.0
 17
0.0
 27
0.0
 37
0.0
 40
1774.00058390063
 41
2.004836759371221
 42
50.0
 43
0.0
 44
0.0
 50
0.0
 51
0.0
 71
     0
 72
   100
 73
     1
 74
     1
 75
     0
 76
     0
 77
     0
 78
     0
281
     0
 65
     1
110
0.0
120
0.0
130
0.0
111
1.0
121
0.0
131
0.0
112
0.0
122
1.0
132
0.0
 79
     0
146
0.0
  0
ENDTAB
  0
TABLE
  2
LTYPE
  5
5
330
0
100
AcDbSymbolTable
 70
     2
  0
LTYPE
  5
14
330
5
100
AcDbSymbolTableRecord
100
AcDbLinetypeTableRecord
  2
ByBlock
 70
     0
  3

 72
    65
 73
     0
 40
0.0
  0
LTYPE
  5
15
330
5
100
AcDbSymbolTableRecord
100
AcDbLinetypeTableRecord
  2
ByLayer
 70
     0
  3

 72
    65
 73
     0
 40
0.0
  0
LTYPE
  5
16
330
5
100
AcDbSymbolTableRecord
100
AcDbLinetypeTableRecord
  2
Continuous
 70
     0
  3
Solid line
 72
    65
 73
     0
 40
0.0
  0
LTYPE
  5
11E5D
330
5
100
AcDbSymbolTableRecord
100
AcDbLinetypeTableRecord
  2
DASHDOT
 70
     0
  3
 __ . __ . __ . __ . __ . __ . __ . 
 72
    65
 73
     4
 40
18.5
 49
12.0
 74
     0
 49
-3.0
 74
     0
 49
0.5
 74
     0
 49
-3.0
 74
     0
  0
ENDTAB
  0
TABLE
  2
LAYER
  5
2
330
0
100
AcDbSymbolTable
 70
     2
  0
LAYER
  5
10
330
2
100
AcDbSymbolTableRecord
100
AcDbLayerTableRecord
  2
0
 70
     0
 62
     7
  6
Continuous
370
    -3
390
F
  0
LAYER
  5
11C4B
330
2
100
AcDbSymbolTableRecord
100
AcDbLayerTableRecord
  2
DEFPOINTS
 70
     0
 62
     7
  6
Continuous
290
     0
370
    -3
390
F
  0
ENDTAB
  0
TABLE
  2
STYLE
  5
3
330
0
100
AcDbSymbolTable
 70
     1
  0
STYLE
  5
11
330
3
100
AcDbSymbolTableRecord
100
AcDbTextStyleTableRecord
  2
Standard
 70
     0
 40
0.0
 41
1.0
 50
0.0
 71
     0
 42
2.5
  3
txt
  4

  0
ENDTAB
  0
TABLE
  2
VIEW
  5
6
330
0
100
AcDbSymbolTable
 70
     0
  0
ENDTAB
  0
TABLE
  2
UCS
  5
7
330
0
100
AcDbSymbolTable
 70
     0
  0
ENDTAB
  0
TABLE
  2
APPID
  5
9
330
0
100
AcDbSymbolTable
 70
     2
  0
APPID
  5
12
330
9
100
AcDbSymbolTableRecord
100
AcDbRegAppTableRecord
  2
ACAD
 70
     0
  0
APPID
  5
11E5C
330
9
100
AcDbSymbolTableRecord
100
AcDbRegAppTableRecord
  2
ACAD_MLEADERVER
 70
     0
  0
ENDTAB
  0
TABLE
  2
DIMSTYLE
  5
A
330
0
100
AcDbSymbolTable
 70
     1
100
AcDbDimStyleTable
  0
DIMSTYLE
105
27
102
{ACAD_REACTORS
330
11C93
330
11C9F
330
11CD0
330
11D35
330
11D7A
330
11DBD
102
}
330
A
100
AcDbSymbolTableRecord
100
AcDbDimStyleTableRecord
  2
Standard
 70
     0
340
11
  0
ENDTAB
  0
TABLE
  2
BLOCK_RECORD
  5
1
330
0
100
AcDbSymbolTable
 70
    35
  0
BLOCK_RECORD
  5
1F
330
1
100
AcDbSymbolTableRecord
100
AcDbBlockTableRecord
  2
*Model_Space
340
22
  0
BLOCK_RECORD
  5
73
330
1
100
AcDbSymbolTableRecord
100
AcDbBlockTableRecord
  2
*Paper_Space
340
74
  0
BLOCK_RECORD
  5
11C57
330
1
100
AcDbSymbolTableRecord
100
AcDbBlockTableRecord
  2
*D0
340
0
  0
BLOCK_RECORD
  5
11C63
330
1
100
AcDbSymbolTableRecord
100
AcDbBlockTableRecord
  2
*D1
340
0
  0
BLOCK_RECORD
  5
11C87
330
1
100
AcDbSymbolTableRecord
100
AcDbBlockTableRecord
  2
*D2
340
0
  0
BLOCK_RECORD
  5
11C9E
330
1
100
AcDbSymbolTableRecord
100
AcDbBlockTableRecord
  2
*D3
340
0
  0
BLOCK_RECORD
  5
11CAA
330
1
100
AcDbSymbolTableRecord
100
AcDbBlockTableRecord
  2
*D4
340
0
  0
BLOCK_RECORD
  5
11CB6
330
1
100
AcDbSymbolTableRecord
100
AcDbBlockTableRecord
  2
*D5
340
0
  0
BLOCK_RECORD
  5
11CC3
330
1
100
AcDbSymbolTableRecord
100
AcDbBlockTableRecord
  2
*D6
340
0
  0
BLOCK_RECORD
  5
11CCF
330
1
100
AcDbSymbolTableRecord
100
AcDbBlockTableRecord
  2
*D7
340
0
  0
BLOCK_RECORD
  5
11CDB
330
1
100
AcDbSymbolTableRecord
100
AcDbBlockTableRecord
  2
*D8
340
0
  0
BLOCK_RECORD
  5
11CE6
330
1
100
AcDbSymbolTableRecord
100
AcDbBlockTableRecord
  2
*D9
340
0
  0
BLOCK_RECORD
  5
11CF1
330
1
100
AcDbSymbolTableRecord
100
AcDbBlockTableRecord
  2
*D10
340
0
  0
BLOCK_RECORD
  5
11CFC
330
1
100
AcDbSymbolTableRecord
100
AcDbBlockTableRecord
  2
*D11
340
0
  0
BLOCK_RECORD
  5
11D07
330
1
100
AcDbSymbolTableRecord
100
AcDbBlockTableRecord
  2
*D12
340
0
  0
BLOCK_RECORD
  5
11D12
330
1
100
AcDbSymbolTableRecord
100
AcDbBlockTableRecord
  2
*D13
340
0
  0
BLOCK_RECORD
  5
11D1D
330
1
100
AcDbSymbolTableRecord
100
AcDbBlockTableRecord
  2
*D14
340
0
  0
BLOCK_RECORD
  5
11D28
330
1
100
AcDbSymbolTableRecord
100
AcDbBlockTableRecord
  2
*D15
340
0
  0
BLOCK_RECORD
  5
11D34
330
1
100
AcDbSymbolTableRecord
100
AcDbBlockTableRecord
  2
*D16
340
0
  0
BLOCK_RECORD
  5
11D40
330
1
100
AcDbSymbolTableRecord
100
AcDbBlockTableRecord
  2
*D17
340
0
  0
BLOCK_RECORD
  5
11D4B
330
1
100
AcDbSymbolTableRecord
100
AcDbBlockTableRecord
  2
*D18
340
0
  0
BLOCK_RECORD
  5
11D57
330
1
100
AcDbSymbolTableRecord
100
AcDbBlockTableRecord
  2
*D19
340
0
  0
BLOCK_RECORD
  5
11D6E
330
1
100
AcDbSymbolTableRecord
100
AcDbBlockTableRecord
  2
*D20
340
0
  0
BLOCK_RECORD
  5
11D79
330
1
100
AcDbSymbolTableRecord
100
AcDbBlockTableRecord
  2
*D21
340
0
  0
BLOCK_RECORD
  5
11D85
330
1
100
AcDbSymbolTableRecord
100
AcDbBlockTableRecord
  2
*D22
340
0
  0
BLOCK_RECORD
  5
11D90
330
1
100
AcDbSymbolTableRecord
100
AcDbBlockTableRecord
  2
*D23
340
0
  0
BLOCK_RECORD
  5
11D9B
330
1
100
AcDbSymbolTableRecord
100
AcDbBlockTableRecord
  2
*D24
340
0
  0
BLOCK_RECORD
  5
11DA6
330
1
100
AcDbSymbolTableRecord
100
AcDbBlockTableRecord
  2
*D25
340
0
  0
BLOCK_RECORD
  5
11DB1
330
1
100
AcDbSymbolTableRecord
100
AcDbBlockTableRecord
  2
*D26
340
0
  0
BLOCK_RECORD
  5
11DBC
330
1
100
AcDbSymbolTableRecord
100
AcDbBlockTableRecord
  2
*D27
340
0
  0
BLOCK_RECORD
  5
11DC8
330
1
100
AcDbSymbolTableRecord
100
AcDbBlockTableRecord
  2
*D28
340
0
  0
BLOCK_RECORD
  5
11DD3
330
1
100
AcDbSymbolTableRecord
100
AcDbBlockTableRecord
  2
*D29
340
0
  0
BLOCK_RECORD
  5
11DDE
330
1
100
AcDbSymbolTableRecord
100
AcDbBlockTableRecord
  2
*D30
340
0
  0
BLOCK_RECORD
  5
11E37
330
1
100
AcDbSymbolTableRecord
100
AcDbBlockTableRecord
  2
*D31
340
0
  0
BLOCK_RECORD
  5
11E43
330
1
100
AcDbSymbolTableRecord
100
AcDbBlockTableRecord
  2
*D32
340
0
  0
BLOCK_RECORD
  5
11E4E
330
1
100
AcDbSymbolTableRecord
100
AcDbBlockTableRecord
  2
*D33
340
0
  0
BLOCK_RECORD
  5
11E5A
330
1
100
AcDbSymbolTableRecord
100
AcDbBlockTableRecord
  2
*D34
340
0
  0
ENDTAB
  0
ENDSEC
  0
SECTION
  2
BLOCKS
  0
BLOCK
  5
20
330
1F
100
AcDbEntity
  8
0
100
AcDbBlockBegin
  2
*Model_Space
 70
     0
 10
0.0
 20
0.0
 30
0.0
  3
*Model_Space
  1

  0
ENDBLK
  5
21
330
1F
100
AcDbEntity
  8
0
100
AcDbBlockEnd
  0
BLOCK
  5
75
330
73
100
AcDbEntity
 67
     1
  8
0
100
AcDbBlockBegin
  2
*Paper_Space
 70
     0
 10
0.0
 20
0.0
 30
0.0
  3
*Paper_Space
  1

  0
ENDBLK
  5
76
330
73
100
AcDbEntity
 67
     1
  8
0
100
AcDbBlockEnd
  0
BLOCK
  5
11E5F
102
{ACAD_REACTORS
330
11C93
330
11C9F
330
11CD0
330
11D35
330
11D7A
330
11DBD
102
}
330
11C57
100
AcDbEntity
  8
0
100
AcDbBlockBegin
  2
*D0
 70
     1
 10
0.0
 20
0.0
 30
0.0
  3
*D0
  1

  0
POINT
  5
11C4E
330
11C57
100
AcDbEntity
  8
DEFPOINTS
  6
ByBlock
 62
     0
380
     1
100
AcDbPoint
 10
1037.589906930631
 20
707.533142
 30
0.0
  0
POINT
  5
11C4F
330
11C57
100
AcDbEntity
  8
DEFPOINTS
  6
ByBlock
 62
     0
380
     1
100
AcDbPoint
 10
611.0213594058833
 20
456.5482789999999
 30
0.0
  0
LINE
  5
11C50
330
11C57
100
AcDbEntity
  8
0
  6
ByBlock
 62
     0
370
    -2
380
     1
100
AcDbLine
 10
1038.214906930631
 20
707.533142
 30
0.0
 11
1158.713112062695
 21
707.533142
 31
0.0
  0
LINE
  5
11C51
330
11C57
100
AcDbEntity
  8
0
  6
ByBlock
 62
     0
370
    -2
380
     1
100
AcDbLine
 10
611.6463594058833
 20
456.5482789999999
 30
0.0
 11
1158.713112062695
 21
456.5482789999999
 31
0.0
  0
LINE
  5
11C52
330
11C57
100
AcDbEntity
  8
0
  6
ByBlock
 62
     0
370
    -2
380
     1
100
AcDbLine
 10
1157.463112062695
 20
705.033142
 30
0.0
 11
1157.463112062695
 21
459.0482789999999
 31
0.0
  0
SOLID
  5
11C53
330
11C57
100
AcDbEntity
  8
0
  6
ByBlock
 62
     0
380
     1
100
AcDbTrace
 10
1157.463112062695
 20
707.533142
 30
0.0
 11
1157.046445396028
 21
705.033142
 31
0.0
 12
1157.879778729361
 22
705.033142
 32
0.0
 13
1157.879778729361
 23
705.033142
 33
0.0
  0
SOLID
  5
11C54
330
11C57
100
AcDbEntity
  8
0
  6
ByBlock
 62
     0
380
     1
100
AcDbTrace
 10
1157.463112062695
 20
456.5482789999999
 30
0.0
 11
1157.046445396028
 21
459.0482789999999
 31
0.0
 12
1157.879778729361
 22
459.0482789999999
 32
0.0
 13
1157.879778729361
 23
459.0482789999999
 33
0.0
  0
MTEXT
  5
11C55
330
11C57
100
AcDbEntity
  8
0
  6
ByBlock
 62
     0
370
    -2
380
     1
100
AcDbMText
 10
1155.379778729361
 20
582.0407104999999
 30
0.0
 40
2.5
 41
0.0
 71
     5
 72
     1
  1
\A1;250,98
 11
6.123031769111886E-17
 21
1.0
 31
0.0
 73
     1
 44
1.0
  0
ENDBLK
  5
11E60
330
11C57
100
AcDbEntity
  8
0
100
AcDbBlockEnd
  0
BLOCK
  5
11E61
330
11C63
100
AcDbEntity
  8
0
100
AcDbBlockBegin
  2
*D1
 70
     1
 10
0.0
 20
0.0
 30
0.0
  3
*D1
  1

  0
POINT
  5
11C5A
330
11C63
100
AcDbEntity
  8
DEFPOINTS
  6
ByBlock
 62
     0
380
     1
100
AcDbPoint
 10
471.4331669999999
 20
646.3893715637007
 30
0.0
  0
POINT
  5
11C5B
330
11C63
100
AcDbEntity
  8
DEFPOINTS
  6
ByBlock
 62
     0
380
     1
100
AcDbPoint
 10
606.433167
 20
680.0095124648327
 30
0.0
  0
LINE
  5
11C5C
330
11C63
100
AcDbEntity
  8
0
  6
ByBlock
 62
     0
370
    -2
380
     1
100
AcDbLine
 10
471.4331669999999
 20
647.0143715637007
 30
0.0
 11
471.4331669999999
 21
755.4046430495689
 31
0.0
  0
LINE
  5
11C5D
330
11C63
100
AcDbEntity
  8
0
  6
ByBlock
 62
     0
370
    -2
380
     1
100
AcDbLine
 10
606.433167
 20
680.6345124648327
 30
0.0
 11
606.433167
 21
755.4046430495689
 31
0.0
  0
LINE
  5
11C5E
330
11C63
100
AcDbEntity
  8
0
  6
ByBlock
 62
     0
370
    -2
380
     1
100
AcDbLine
 10
473.9331669999999
 20
754.1546430495689
 30
0.0
 11
603.933167
 21
754.1546430495689
 31
0.0
  0
SOLID
  5
11C5F
330
11C63
100
AcDbEntity
  8
0
  6
ByBlock
 62
     0
380
     1
100
AcDbTrace
 10
471.4331669999999
 20
754.1546430495689
 30
0.0
 11
473.9331669999999
 21
753.7379763829023
 31
0.0
 12
473.9331669999999
 22
754.5713097162355
 32
0.0
 13
473.9331669999999
 23
754.5713097162355
 33
0.0
  0
SOLID
  5
11C60
330
11C63
100
AcDbEntity
  8
0
  6
ByBlock
 62
     0
380
     1
100
AcDbTrace
 10
606.433167
 20
754.1546430495689
 30
0.0
 11
603.933167
 21
753.7379763829023
 31
0.0
 12
603.933167
 22
754.5713097162355
 32
0.0
 13
603.933167
 23
754.5713097162355
 33
0.0
  0
MTEXT
  5
11C61
330
11C63
100
AcDbEntity
  8
0
  6
ByBlock
 62
     0
370
    -2
380
     1
100
AcDbMText
 10
538.9331669999999
 20
756.0296430495689
 30
0.0
 40
2.5
 41
0.0
 71
     5
 72
     1
  1
\A1;135
 73
     1
 44
1.0
  0
ENDBLK
  5
11E62
330
11C63
100
AcDbEntity
  8
0
100
AcDbBlockEnd
  0
BLOCK
  5
11E63
330
11C87
100
AcDbEntity
  8
0
100
AcDbBlockBegin
  2
*D2
 70
     1
 10
0.0
 20
0.0
 30
0.0
  3
*D2
  1

  0
POINT
  5
11C7E
330
11C87
100
AcDbEntity
  8
DEFPOINTS
  6
ByBlock
 62
     0
380
     1
100
AcDbPoint
 10
534.3361935900607
 20
273.0923317940066
 30
0.0
  0
POINT
  5
11C7F
330
11C87
100
AcDbEntity
  8
DEFPOINTS
  6
ByBlock
 62
     0
380
     1
100
AcDbPoint
 10
607.6078187605938
 20
278.4417193196837
 30
0.0
  0
LINE
  5
11C80
330
11C87
100
AcDbEntity
  8
0
  6
ByBlock
 62
     0
370
    -2
380
     1
100
AcDbLine
 10
534.3361935900607
 20
272.4673317940066
 30
0.0
 11
534.3361935900607
 21
200.6620967160458
 31
0.0
  0
LINE
  5
11C81
330
11C87
100
AcDbEntity
  8
0
  6
ByBlock
 62
     0
370
    -2
380
     1
100
AcDbLine
 10
607.6078187605938
 20
277.8167193196837
 30
0.0
 11
607.6078187605938
 21
200.6620967160458
 31
0.0
  0
LINE
  5
11C82
330
11C87
100
AcDbEntity
  8
0
  6
ByBlock
 62
     0
370
    -2
380
     1
100
AcDbLine
 10
536.8361935900607
 20
201.9120967160458
 30
0.0
 11
605.1078187605938
 21
201.9120967160458
 31
0.0
  0
SOLID
  5
11C83
330
11C87
100
AcDbEntity
  8
0
  6
ByBlock
 62
     0
380
     1
100
AcDbTrace
 10
534.3361935900607
 20
201.9120967160458
 30
0.0
 11
536.8361935900607
 21
201.4954300493791
 31
0.0
 12
536.8361935900607
 22
202.3287633827125
 32
0.0
 13
536.8361935900607
 23
202.3287633827125
 33
0.0
  0
SOLID
  5
11C84
330
11C87
100
AcDbEntity
  8
0
  6
ByBlock
 62
     0
380
     1
100
AcDbTrace
 10
607.6078187605938
 20
201.9120967160458
 30
0.0
 11
605.1078187605938
 21
201.4954300493791
 31
0.0
 12
605.1078187605938
 22
202.3287633827125
 32
0.0
 13
605.1078187605938
 23
202.3287633827125
 33
0.0
  0
MTEXT
  5
11C85
330
11C87
100
AcDbEntity
  8
0
  6
ByBlock
 62
     0
370
    -2
380
     1
100
AcDbMText
 10
570.9720061753272
 20
203.9954300493791
 30
0.0
 40
2.5
 41
0.0
 71
     5
 72
     1
  1
\A1;73,27
 73
     1
 44
1.0
  0
ENDBLK
  5
11E64
330
11C87
100
AcDbEntity
  8
0
100
AcDbBlockEnd
  0
BLOCK
  5
11E65
330
11C9E
100
AcDbEntity
  8
0
100
AcDbBlockBegin
  2
*D3
 70
     1
 10
0.0
 20
0.0
 30
0.0
  3
*D3
  1

  0
POINT
  5
11C95
330
11C9E
100
AcDbEntity
  8
DEFPOINTS
  6
ByBlock
 62
     0
380
     1
100
AcDbPoint
 10
534.3361935900607
 20
247.9128985459765
 30
0.0
  0
POINT
  5
11C96
330
11C9E
100
AcDbEntity
  8
DEFPOINTS
  6
ByBlock
 62
     0
380
     1
100
AcDbPoint
 10
604.3361935900607
 20
246.6905581159117
 30
0.0
  0
LINE
  5
11C97
330
11C9E
100
AcDbEntity
  8
0
  6
ByBlock
 62
     0
370
    -2
380
     1
100
AcDbLine
 10
534.3361935900607
 20
247.2878985459765
 30
0.0
 11
534.3361935900607
 21
216.1043877943567
 31
0.0
  0
LINE
  5
11C98
330
11C9E
100
AcDbEntity
  8
0
  6
ByBlock
 62
     0
370
    -2
380
     1
100
AcDbLine
 10
604.3361935900607
 20
246.0655581159117
 30
0.0
 11
604.3361935900607
 21
216.1043877943567
 31
0.0
  0
LINE
  5
11C99
330
11C9E
100
AcDbEntity
  8
0
  6
ByBlock
 62
     0
370
    -2
380
     1
100
AcDbLine
 10
536.8361935900607
 20
217.3543877943567
 30
0.0
 11
601.8361935900607
 21
217.3543877943567
 31
0.0
  0
SOLID
  5
11C9A
330
11C9E
100
AcDbEntity
  8
0
  6
ByBlock
 62
     0
380
     1
100
AcDbTrace
 10
534.3361935900607
 20
217.3543877943567
 30
0.0
 11
536.8361935900607
 21
216.93772112769
 31
0.0
 12
536.8361935900607
 22
217.7710544610233
 32
0.0
 13
536.8361935900607
 23
217.7710544610233
 33
0.0
  0
SOLID
  5
11C9B
330
11C9E
100
AcDbEntity
  8
0
  6
ByBlock
 62
     0
380
     1
100
AcDbTrace
 10
604.3361935900607
 20
217.3543877943567
 30
0.0
 11
601.8361935900607
 21
216.93772112769
 31
0.0
 12
601.8361935900607
 22
217.7710544610233
 32
0.0
 13
601.8361935900607
 23
217.7710544610233
 33
0.0
  0
MTEXT
  5
11C9C
330
11C9E
100
AcDbEntity
  8
0
  6
ByBlock
 62
     0
370
    -2
380
     1
100
AcDbMText
 10
569.3361935900607
 20
219.2293877943567
 30
0.0
 40
2.5
 41
0.0
 71
     5
 72
     1
  1
\A1;70
 73
     1
 44
1.0
  0
ENDBLK
  5
11E66
330
11C9E
100
AcDbEntity
  8
0
100
AcDbBlockEnd
  0
BLOCK
  5
11E67
330
11CAA
100
AcDbEntity
  8
0
100
AcDbBlockBegin
  2
*D4
 70
     1
 10
0.0
 20
0.0
 30
0.0
  3
*D4
  1

  0
POINT
  5
11CA1
330
11CAA
100
AcDbEntity
  8
DEFPOINTS
  6
ByBlock
 62
     0
380
     1
100
AcDbPoint
 10
299.3361935900605
 20
628.8118167440456
 30
0.0
  0
POINT
  5
11CA2
330
11CAA
100
AcDbEntity
  8
DEFPOINTS
  6
ByBlock
 62
     0
380
     1
100
AcDbPoint
 10
1569.336069590061
 20
689.1683105804054
 30
0.0
  0
LINE
  5
11CA3
330
11CAA
100
AcDbEntity
  8
0
  6
ByBlock
 62
     0
370
    -2
380
     1
100
AcDbLine
 10
299.3361935900605
 20
629.4368167440456
 30
0.0
 11
299.3361935900605
 21
809.9001161694467
 31
0.0
  0
LINE
  5
11CA4
330
11CAA
100
AcDbEntity
  8
0
  6
ByBlock
 62
     0
370
    -2
380
     1
100
AcDbLine
 10
1569.336069590061
 20
689.7933105804054
 30
0.0
 11
1569.336069590061
 21
809.9001161694467
 31
0.0
  0
LINE
  5
11CA5
330
11CAA
100
AcDbEntity
  8
0
  6
ByBlock
 62
     0
370
    -2
380
     1
100
AcDbLine
 10
301.8361935900605
 20
808.6501161694467
 30
0.0
 11
1566.836069590061
 21
808.6501161694467
 31
0.0
  0
SOLID
  5
11CA6
330
11CAA
100
AcDbEntity
  8
0
  6
ByBlock
 62
     0
380
     1
100
AcDbTrace
 10
299.3361935900605
 20
808.6501161694467
 30
0.0
 11
301.8361935900605
 21
808.2334495027801
 31
0.0
 12
301.8361935900605
 22
809.0667828361134
 32
0.0
 13
301.8361935900605
 23
809.0667828361134
 33
0.0
  0
SOLID
  5
11CA7
330
11CAA
100
AcDbEntity
  8
0
  6
ByBlock
 62
     0
380
     1
100
AcDbTrace
 10
1569.336069590061
 20
808.6501161694467
 30
0.0
 11
1566.836069590061
 21
808.2334495027801
 31
0.0
 12
1566.836069590061
 22
809.0667828361134
 32
0.0
 13
1566.836069590061
 23
809.0667828361134
 33
0.0
  0
MTEXT
  5
11CA8
330
11CAA
100
AcDbEntity
  8
0
  6
ByBlock
 62
     0
370
    -2
380
     1
100
AcDbMText
 10
934.3361315900606
 20
810.5251161694467
 30
0.0
 40
2.5
 41
0.0
 71
     5
 72
     1
  1
\A1;1270
 73
     1
 44
1.0
  0
ENDBLK
  5
11E68
330
11CAA
100
AcDbEntity
  8
0
100
AcDbBlockEnd
  0
BLOCK
  5
11E69
330
11CB6
100
AcDbEntity
  8
0
100
AcDbBlockBegin
  2
*D5
 70
     1
 10
0.0
 20
0.0
 30
0.0
  3
*D5
  1

  0
POINT
  5
11CAD
330
11CB6
100
AcDbEntity
  8
DEFPOINTS
  6
ByBlock
 62
     0
380
     1
100
AcDbPoint
 10
1548.15487123845
 20
742.9058913196839
 30
0.0
  0
POINT
  5
11CAE
330
11CB6
100
AcDbEntity
  8
DEFPOINTS
  6
ByBlock
 62
     0
380
     1
100
AcDbPoint
 10
573.0439574500326
 20
240.9361653196837
 30
0.0
  0
LINE
  5
11CAF
330
11CB6
100
AcDbEntity
  8
0
  6
ByBlock
 62
     0
370
    -2
380
     1
100
AcDbLine
 10
1548.77987123845
 20
742.9058913196839
 30
0.0
 11
1613.885889829047
 21
742.9058913196839
 31
0.0
  0
LINE
  5
11CB0
330
11CB6
100
AcDbEntity
  8
0
  6
ByBlock
 62
     0
370
    -2
380
     1
100
AcDbLine
 10
573.6689574500326
 20
240.9361653196837
 30
0.0
 11
1613.885889829047
 21
240.9361653196837
 31
0.0
  0
LINE
  5
11CB1
330
11CB6
100
AcDbEntity
  8
0
  6
ByBlock
 62
     0
370
    -2
380
     1
100
AcDbLine
 10
1612.635889829047
 20
740.4058913196839
 30
0.0
 11
1612.635889829047
 21
243.4361653196837
 31
0.0
  0
SOLID
  5
11CB2
330
11CB6
100
AcDbEntity
  8
0
  6
ByBlock
 62
     0
380
     1
100
AcDbTrace
 10
1612.635889829047
 20
742.9058913196839
 30
0.0
 11
1612.219223162381
 21
740.4058913196839
 31
0.0
 12
1613.052556495714
 22
740.4058913196839
 32
0.0
 13
1613.052556495714
 23
740.4058913196839
 33
0.0
  0
SOLID
  5
11CB3
330
11CB6
100
AcDbEntity
  8
0
  6
ByBlock
 62
     0
380
     1
100
AcDbTrace
 10
1612.635889829047
 20
240.9361653196837
 30
0.0
 11
1612.219223162381
 21
243.4361653196837
 31
0.0
 12
1613.052556495714
 22
243.4361653196837
 32
0.0
 13
1613.052556495714
 23
243.4361653196837
 33
0.0
  0
MTEXT
  5
11CB4
330
11CB6
100
AcDbEntity
  8
0
  6
ByBlock
 62
     0
370
    -2
380
     1
100
AcDbMText
 10
1610.552556495714
 20
491.9210283196838
 30
0.0
 40
2.5
 41
0.0
 71
     5
 72
     1
  1
\A1;501,97
 11
6.123031769111886E-17
 21
1.0
 31
0.0
 73
     1
 44
1.0
  0
ENDBLK
  5
11E6A
330
11CB6
100
AcDbEntity
  8
0
100
AcDbBlockEnd
  0
BLOCK
  5
11E6B
330
11CC3
100
AcDbEntity
  8
0
100
AcDbBlockBegin
  2
*D6
 70
     1
 10
0.0
 20
0.0
 30
0.0
  3
*D6
  1

  0
POINT
  5
11CBA
330
11CC3
100
AcDbEntity
  8
DEFPOINTS
  6
ByBlock
 62
     0
380
     1
100
AcDbPoint
 10
571.4195950556906
 20
748.3229821425409
 30
0.0
  0
POINT
  5
11CBB
330
11CC3
100
AcDbEntity
  8
DEFPOINTS
  6
ByBlock
 62
     0
380
     1
100
AcDbPoint
 10
1569.336069590061
 20
705.3115780040554
 30
0.0
  0
LINE
  5
11CBC
330
11CC3
100
AcDbEntity
  8
0
  6
ByBlock
 62
     0
370
    -2
380
     1
100
AcDbLine
 10
571.4195950556906
 20
748.9479821425409
 30
0.0
 11
571.4195950556906
 21
871.2637840953283
 31
0.0
  0
LINE
  5
11CBD
330
11CC3
100
AcDbEntity
  8
0
  6
ByBlock
 62
     0
370
    -2
380
     1
100
AcDbLine
 10
1569.336069590061
 20
705.9365780040554
 30
0.0
 11
1569.336069590061
 21
871.2637840953283
 31
0.0
  0
LINE
  5
11CBE
330
11CC3
100
AcDbEntity
  8
0
  6
ByBlock
 62
     0
370
    -2
380
     1
100
AcDbLine
 10
573.9195950556906
 20
870.0137840953283
 30
0.0
 11
1566.836069590061
 21
870.0137840953283
 31
0.0
  0
SOLID
  5
11CBF
330
11CC3
100
AcDbEntity
  8
0
  6
ByBlock
 62
     0
380
     1
100
AcDbTrace
 10
571.4195950556906
 20
870.0137840953283
 30
0.0
 11
573.9195950556906
 21
869.5971174286617
 31
0.0
 12
573.9195950556906
 22
870.430450761995
 32
0.0
 13
573.9195950556906
 23
870.430450761995
 33
0.0
  0
SOLID
  5
11CC0
330
11CC3
100
AcDbEntity
  8
0
  6
ByBlock
 62
     0
380
     1
100
AcDbTrace
 10
1569.336069590061
 20
870.0137840953283
 30
0.0
 11
1566.836069590061
 21
869.5971174286617
 31
0.0
 12
1566.836069590061
 22
870.430450761995
 32
0.0
 13
1566.836069590061
 23
870.430450761995
 33
0.0
  0
MTEXT
  5
11CC1
330
11CC3
100
AcDbEntity
  8
0
  6
ByBlock
 62
     0
370
    -2
380
     1
100
AcDbMText
 10
1070.377832322876
 20
872.0971174286617
 30
0.0
 40
2.5
 41
0.0
 71
     5
 72
     1
  1
\A1;997,92
 73
     1
 44
1.0
  0
ENDBLK
  5
11E6C
330
11CC3
100
AcDbEntity
  8
0
100
AcDbBlockEnd
  0
BLOCK
  5
11E6D
330
11CCF
100
AcDbEntity
  8
0
100
AcDbBlockBegin
  2
*D7
 70
     1
 10
0.0
 20
0.0
 30
0.0
  3
*D7
  1

  0
POINT
  5
11CC6
330
11CCF
100
AcDbEntity
  8
DEFPOINTS
  6
ByBlock
 62
     0
380
     1
100
AcDbPoint
 10
1569.336069590061
 20
709.1245615311752
 30
0.0
  0
POINT
  5
11CC7
330
11CCF
100
AcDbEntity
  8
DEFPOINTS
  6
ByBlock
 62
     0
380
     1
100
AcDbPoint
 10
1292.61794031108
 20
741.4592615595265
 30
0.0
  0
LINE
  5
11CC8
330
11CCF
100
AcDbEntity
  8
0
  6
ByBlock
 62
     0
370
    -2
380
     1
100
AcDbLine
 10
1569.336069590061
 20
709.7495615311752
 30
0.0
 11
1569.336069590061
 21
925.2410709092554
 31
0.0
  0
LINE
  5
11CC9
330
11CCF
100
AcDbEntity
  8
0
  6
ByBlock
 62
     0
370
    -2
380
     1
100
AcDbLine
 10
1292.61794031108
 20
742.0842615595265
 30
0.0
 11
1292.61794031108
 21
925.2410709092554
 31
0.0
  0
LINE
  5
11CCA
330
11CCF
100
AcDbEntity
  8
0
  6
ByBlock
 62
     0
370
    -2
380
     1
100
AcDbLine
 10
1566.836069590061
 20
923.9910709092554
 30
0.0
 11
1295.11794031108
 21
923.9910709092554
 31
0.0
  0
SOLID
  5
11CCB
330
11CCF
100
AcDbEntity
  8
0
  6
ByBlock
 62
     0
380
     1
100
AcDbTrace
 10
1569.336069590061
 20
923.9910709092554
 30
0.0
 11
1566.836069590061
 21
924.407737575922
 31
0.0
 12
1566.836069590061
 22
923.5744042425888
 32
0.0
 13
1566.836069590061
 23
923.5744042425888
 33
0.0
  0
SOLID
  5
11CCC
330
11CCF
100
AcDbEntity
  8
0
  6
ByBlock
 62
     0
380
     1
100
AcDbTrace
 10
1292.61794031108
 20
923.9910709092554
 30
0.0
 11
1295.11794031108
 21
924.407737575922
 31
0.0
 12
1295.11794031108
 22
923.5744042425888
 32
0.0
 13
1295.11794031108
 23
923.5744042425888
 33
0.0
  0
MTEXT
  5
11CCD
330
11CCF
100
AcDbEntity
  8
0
  6
ByBlock
 62
     0
370
    -2
380
     1
100
AcDbMText
 10
1430.97700495057
 20
926.0744042425888
 30
0.0
 40
2.5
 41
0.0
 71
     5
 72
     1
  1
\A1;276,72
 73
     1
 44
1.0
  0
ENDBLK
  5
11E6E
330
11CCF
100
AcDbEntity
  8
0
100
AcDbBlockEnd
  0
BLOCK
  5
11E6F
330
11CDB
100
AcDbEntity
  8
0
100
AcDbBlockBegin
  2
*D8
 70
     1
 10
0.0
 20
0.0
 30
0.0
  3
*D8
  1

  0
POINT
  5
11CD2
330
11CDB
100
AcDbEntity
  8
DEFPOINTS
  6
ByBlock
 62
     0
380
     1
100
AcDbPoint
 10
1520.649707897795
 20
742.9058913196839
 30
0.0
  0
POINT
  5
11CD3
330
11CDB
100
AcDbEntity
  8
DEFPOINTS
  6
ByBlock
 62
     0
380
     1
100
AcDbPoint
 10
1512.743987755748
 20
672.9058913196836
 30
0.0
  0
LINE
  5
11CD4
330
11CDB
100
AcDbEntity
  8
0
  6
ByBlock
 62
     0
370
    -2
380
     1
100
AcDbLine
 10
1521.274707897795
 20
742.9058913196839
 30
0.0
 11
1662.226240419134
 21
742.9058913196839
 31
0.0
  0
LINE
  5
11CD5
330
11CDB
100
AcDbEntity
  8
0
  6
ByBlock
 62
     0
370
    -2
380
     1
100
AcDbLine
 10
1513.368987755748
 20
672.9058913196836
 30
0.0
 11
1662.226240419134
 21
672.9058913196836
 31
0.0
  0
LINE
  5
11CD6
330
11CDB
100
AcDbEntity
  8
0
  6
ByBlock
 62
     0
370
    -2
380
     1
100
AcDbLine
 10
1660.976240419134
 20
740.4058913196839
 30
0.0
 11
1660.976240419134
 21
675.4058913196836
 31
0.0
  0
SOLID
  5
11CD7
330
11CDB
100
AcDbEntity
  8
0
  6
ByBlock
 62
     0
380
     1
100
AcDbTrace
 10
1660.976240419134
 20
742.9058913196839
 30
0.0
 11
1660.559573752467
 21
740.4058913196839
 31
0.0
 12
1661.392907085801
 22
740.4058913196839
 32
0.0
 13
1661.392907085801
 23
740.4058913196839
 33
0.0
  0
SOLID
  5
11CD8
330
11CDB
100
AcDbEntity
  8
0
  6
ByBlock
 62
     0
380
     1
100
AcDbTrace
 10
1660.976240419134
 20
672.9058913196836
 30
0.0
 11
1660.559573752467
 21
675.4058913196836
 31
0.0
 12
1661.392907085801
 22
675.4058913196836
 32
0.0
 13
1661.392907085801
 23
675.4058913196836
 33
0.0
  0
MTEXT
  5
11CD9
330
11CDB
100
AcDbEntity
  8
0
  6
ByBlock
 62
     0
370
    -2
380
     1
100
AcDbMText
 10
1659.101240419134
 20
707.9058913196837
 30
0.0
 40
2.5
 41
0.0
 71
     5
 72
     1
  1
\A1;70
 11
6.123031769111886E-17
 21
1.0
 31
0.0
 73
     1
 44
1.0
  0
ENDBLK
  5
11E70
330
11CDB
100
AcDbEntity
  8
0
100
AcDbBlockEnd
  0
BLOCK
  5
11E71
330
11CE6
100
AcDbEntity
  8
0
100
AcDbBlockBegin
  2
*D9
 70
     1
 10
0.0
 20
0.0
 30
0.0
  3
*D9
  1

  0
POINT
  5
11CDD
330
11CE6
100
AcDbEntity
  8
DEFPOINTS
  6
ByBlock
 62
     0
380
     1
100
AcDbPoint
 10
534.3361935900607
 20
247.9128985459765
 30
0.0
  0
POINT
  5
11CDE
330
11CE6
100
AcDbEntity
  8
DEFPOINTS
  6
ByBlock
 62
     0
380
     1
100
AcDbPoint
 10
604.3361935900607
 20
246.6905581159117
 30
0.0
  0
LINE
  5
11CDF
330
11CE6
100
AcDbEntity
  8
0
  6
ByBlock
 62
     0
370
    -2
380
     1
100
AcDbLine
 10
534.3361935900607
 20
247.2878985459765
 30
0.0
 11
534.3361935900607
 21
208.7631670237548
 31
0.0
  0
LINE
  5
11CE0
330
11CE6
100
AcDbEntity
  8
0
  6
ByBlock
 62
     0
370
    -2
380
     1
100
AcDbLine
 10
604.3361935900607
 20
246.0655581159117
 30
0.0
 11
604.3361935900607
 21
208.7631670237548
 31
0.0
  0
LINE
  5
11CE1
330
11CE6
100
AcDbEntity
  8
0
  6
ByBlock
 62
     0
370
    -2
380
     1
100
AcDbLine
 10
536.8361935900607
 20
210.0131670237548
 30
0.0
 11
601.8361935900607
 21
210.0131670237548
 31
0.0
  0
SOLID
  5
11CE2
330
11CE6
100
AcDbEntity
  8
0
  6
ByBlock
 62
     0
380
     1
100
AcDbTrace
 10
534.3361935900607
 20
210.0131670237548
 30
0.0
 11
536.8361935900607
 21
209.5965003570882
 31
0.0
 12
536.8361935900607
 22
210.4298336904215
 32
0.0
 13
536.8361935900607
 23
210.4298336904215
 33
0.0
  0
SOLID
  5
11CE3
330
11CE6
100
AcDbEntity
  8
0
  6
ByBlock
 62
     0
380
     1
100
AcDbTrace
 10
604.3361935900607
 20
210.0131670237548
 30
0.0
 11
601.8361935900607
 21
209.5965003570882
 31
0.0
 12
601.8361935900607
 22
210.4298336904215
 32
0.0
 13
601.8361935900607
 23
210.4298336904215
 33
0.0
  0
MTEXT
  5
11CE4
330
11CE6
100
AcDbEntity
  8
0
  6
ByBlock
 62
     0
370
    -2
380
     1
100
AcDbMText
 10
569.3361935900607
 20
211.8881670237548
 30
0.0
 40
2.5
 41
0.0
 71
     5
 72
     1
  1
\A1;70
 73
     1
 44
1.0
  0
ENDBLK
  5
11E72
330
11CE6
100
AcDbEntity
  8
0
100
AcDbBlockEnd
  0
BLOCK
  5
11E73
330
11CF1
100
AcDbEntity
  8
0
100
AcDbBlockBegin
  2
*D10
 70
     1
 10
0.0
 20
0.0
 30
0.0
  3
*D10
  1

  0
POINT
  5
11CE8
330
11CF1
100
AcDbEntity
  8
DEFPOINTS
  6
ByBlock
 62
     0
370
    25
380
     1
100
AcDbPoint
 10
534.3361935900607
 20
247.9128985459765
 30
0.0
  0
POINT
  5
11CE9
330
11CF1
100
AcDbEntity
  8
DEFPOINTS
  6
ByBlock
 62
     0
370
    25
380
     1
100
AcDbPoint
 10
604.3361935900607
 20
246.6905581159117
 30
0.0
  0
LINE
  5
11CEA
330
11CF1
100
AcDbEntity
  8
0
  6
ByBlock
 62
     0
370
    -2
380
     1
100
AcDbLine
 10
534.3361935900607
 20
247.2878985459765
 30
0.0
 11
534.3361935900607
 21
208.7631670237548
 31
0.0
  0
LINE
  5
11CEB
330
11CF1
100
AcDbEntity
  8
0
  6
ByBlock
 62
     0
370
    -2
380
     1
100
AcDbLine
 10
604.3361935900607
 20
246.0655581159117
 30
0.0
 11
604.3361935900607
 21
208.7631670237548
 31
0.0
  0
LINE
  5
11CEC
330
11CF1
100
AcDbEntity
  8
0
  6
ByBlock
 62
     0
370
    -2
380
     1
100
AcDbLine
 10
534.3361935900607
 20
210.0131670237548
 30
0.0
 11
604.3361935900607
 21
210.0131670237548
 31
0.0
  0
SOLID
  5
11CED
330
11CF1
100
AcDbEntity
  8
0
  6
ByBlock
 62
     0
370
    25
380
     1
100
AcDbTrace
 10
534.3361935900607
 20
210.0131670237548
 30
0.0
 11
544.3361935900607
 21
208.3465003570882
 31
0.0
 12
544.3361935900607
 22
211.6798336904215
 32
0.0
 13
544.3361935900607
 23
211.6798336904215
 33
0.0
  0
SOLID
  5
11CEE
330
11CF1
100
AcDbEntity
  8
0
  6
ByBlock
 62
     0
370
    25
380
     1
100
AcDbTrace
 10
604.3361935900607
 20
210.0131670237548
 30
0.0
 11
594.3361935900607
 21
208.3465003570882
 31
0.0
 12
594.3361935900607
 22
211.6798336904215
 32
0.0
 13
594.3361935900607
 23
211.6798336904215
 33
0.0
  0
MTEXT
  5
11CEF
330
11CF1
100
AcDbEntity
  8
0
  6
ByBlock
 62
     0
370
    -2
380
     1
100
AcDbMText
 10
569.3361935900607
 20
238.0131670237548
 30
0.0
 40
36.0
 41
0.0
 71
     5
 72
     1
  1
\A1;70
 73
     1
 44
1.0
  0
ENDBLK
  5
11E74
330
11CF1
100
AcDbEntity
  8
0
100
AcDbBlockEnd
  0
BLOCK
  5
11E75
330
11CFC
100
AcDbEntity
  8
0
100
AcDbBlockBegin
  2
*D11
 70
     1
 10
0.0
 20
0.0
 30
0.0
  3
*D11
  1

  0
POINT
  5
11CF3
330
11CFC
100
AcDbEntity
  8
DEFPOINTS
  6
ByBlock
 62
     0
370
    25
380
     1
100
AcDbPoint
 10
534.3361935900607
 20
247.9128985459765
 30
0.0
  0
POINT
  5
11CF4
330
11CFC
100
AcDbEntity
  8
DEFPOINTS
  6
ByBlock
 62
     0
370
    25
380
     1
100
AcDbPoint
 10
604.3361935900607
 20
246.6905581159117
 30
0.0
  0
LINE
  5
11CF5
330
11CFC
100
AcDbEntity
  8
0
  6
ByBlock
 62
     0
370
    -2
380
     1
100
AcDbLine
 10
534.3361935900607
 20
247.2878985459765
 30
0.0
 11
534.3361935900607
 21
174.1327329872856
 31
0.0
  0
LINE
  5
11CF6
330
11CFC
100
AcDbEntity
  8
0
  6
ByBlock
 62
     0
370
    -2
380
     1
100
AcDbLine
 10
604.3361935900607
 20
246.0655581159117
 30
0.0
 11
604.3361935900607
 21
174.1327329872856
 31
0.0
  0
LINE
  5
11CF7
330
11CFC
100
AcDbEntity
  8
0
  6
ByBlock
 62
     0
370
    -2
380
     1
100
AcDbLine
 10
534.3361935900607
 20
175.3827329872856
 30
0.0
 11
604.3361935900607
 21
175.3827329872856
 31
0.0
  0
SOLID
  5
11CF8
330
11CFC
100
AcDbEntity
  8
0
  6
ByBlock
 62
     0
370
    25
380
     1
100
AcDbTrace
 10
534.3361935900607
 20
175.3827329872856
 30
0.0
 11
544.3361935900607
 21
173.7160663206189
 31
0.0
 12
544.3361935900607
 22
177.0493996539523
 32
0.0
 13
544.3361935900607
 23
177.0493996539523
 33
0.0
  0
SOLID
  5
11CF9
330
11CFC
100
AcDbEntity
  8
0
  6
ByBlock
 62
     0
370
    25
380
     1
100
AcDbTrace
 10
604.3361935900607
 20
175.3827329872856
 30
0.0
 11
594.3361935900607
 21
173.7160663206189
 31
0.0
 12
594.3361935900607
 22
177.0493996539523
 32
0.0
 13
594.3361935900607
 23
177.0493996539523
 33
0.0
  0
MTEXT
  5
11CFA
330
11CFC
100
AcDbEntity
  8
0
  6
ByBlock
 62
     0
370
    -2
380
     1
100
AcDbMText
 10
569.3361935900607
 20
203.3827329872856
 30
0.0
 40
36.0
 41
0.0
 71
     5
 72
     1
  1
\A1;70
 73
     1
 44
1.0
  0
ENDBLK
  5
11E76
330
11CFC
100
AcDbEntity
  8
0
100
AcDbBlockEnd
  0
BLOCK
  5
11E77
330
11D07
100
AcDbEntity
  8
0
100
AcDbBlockBegin
  2
*D12
 70
     1
 10
0.0
 20
0.0
 30
0.0
  3
*D12
  1

  0
POINT
  5
11CFE
330
11D07
100
AcDbEntity
  8
DEFPOINTS
  6
ByBlock
 62
     0
370
    25
380
     1
100
AcDbPoint
 10
534.3361935900607
 20
247.9128985459765
 30
0.0
  0
POINT
  5
11CFF
330
11D07
100
AcDbEntity
  8
DEFPOINTS
  6
ByBlock
 62
     0
370
    25
380
     1
100
AcDbPoint
 10
604.3361935900607
 20
246.6905581159117
 30
0.0
  0
LINE
  5
11D00
330
11D07
100
AcDbEntity
  8
0
  6
ByBlock
 62
     0
370
    -2
380
     1
100
AcDbLine
 10
534.3361935900607
 20
247.2878985459765
 30
0.0
 11
534.3361935900607
 21
152.9367708039784
 31
0.0
  0
LINE
  5
11D01
330
11D07
100
AcDbEntity
  8
0
  6
ByBlock
 62
     0
370
    -2
380
     1
100
AcDbLine
 10
604.3361935900607
 20
246.0655581159117
 30
0.0
 11
604.3361935900607
 21
152.9367708039784
 31
0.0
  0
LINE
  5
11D02
330
11D07
100
AcDbEntity
  8
0
  6
ByBlock
 62
     0
370
    -2
380
     1
100
AcDbLine
 10
534.3361935900607
 20
154.1867708039784
 30
0.0
 11
604.3361935900607
 21
154.1867708039784
 31
0.0
  0
SOLID
  5
11D03
330
11D07
100
AcDbEntity
  8
0
  6
ByBlock
 62
     0
370
    25
380
     1
100
AcDbTrace
 10
534.3361935900607
 20
154.1867708039784
 30
0.0
 11
544.3361935900607
 21
152.5201041373117
 31
0.0
 12
544.3361935900607
 22
155.853437470645
 32
0.0
 13
544.3361935900607
 23
155.853437470645
 33
0.0
  0
SOLID
  5
11D04
330
11D07
100
AcDbEntity
  8
0
  6
ByBlock
 62
     0
370
    25
380
     1
100
AcDbTrace
 10
604.3361935900607
 20
154.1867708039784
 30
0.0
 11
594.3361935900607
 21
152.5201041373117
 31
0.0
 12
594.3361935900607
 22
155.853437470645
 32
0.0
 13
594.3361935900607
 23
155.853437470645
 33
0.0
  0
MTEXT
  5
11D05
330
11D07
100
AcDbEntity
  8
0
  6
ByBlock
 62
     0
370
    -2
380
     1
100
AcDbMText
 10
569.3361935900607
 20
182.1867708039784
 30
0.0
 40
36.0
 41
0.0
 71
     5
 72
     1
  1
\A1;70
 73
     1
 44
1.0
  0
ENDBLK
  5
11E78
330
11D07
100
AcDbEntity
  8
0
100
AcDbBlockEnd
  0
BLOCK
  5
11E79
330
11D12
100
AcDbEntity
  8
0
100
AcDbBlockBegin
  2
*D13
 70
     1
 10
0.0
 20
0.0
 30
0.0
  3
*D13
  1

  0
POINT
  5
11D09
330
11D12
100
AcDbEntity
  8
DEFPOINTS
  6
ByBlock
 62
     0
370
    25
380
     1
100
AcDbPoint
 10
534.3361935900607
 20
247.9128985459765
 30
0.0
  0
POINT
  5
11D0A
330
11D12
100
AcDbEntity
  8
DEFPOINTS
  6
ByBlock
 62
     0
370
    25
380
     1
100
AcDbPoint
 10
604.3361935900607
 20
246.6905581159117
 30
0.0
  0
LINE
  5
11D0B
330
11D12
100
AcDbEntity
  8
0
  6
ByBlock
 62
     0
370
    -2
380
     1
100
AcDbLine
 10
534.3361935900607
 20
247.2878985459765
 30
0.0
 11
534.3361935900607
 21
152.9367708039784
 31
0.0
  0
LINE
  5
11D0C
330
11D12
100
AcDbEntity
  8
0
  6
ByBlock
 62
     0
370
    -2
380
     1
100
AcDbLine
 10
604.3361935900607
 20
246.0655581159117
 30
0.0
 11
604.3361935900607
 21
152.9367708039784
 31
0.0
  0
LINE
  5
11D0D
330
11D12
100
AcDbEntity
  8
0
  6
ByBlock
 62
     0
370
    -2
380
     1
100
AcDbLine
 10
534.3361935900607
 20
154.1867708039784
 30
0.0
 11
604.3361935900607
 21
154.1867708039784
 31
0.0
  0
SOLID
  5
11D0E
330
11D12
100
AcDbEntity
  8
0
  6
ByBlock
 62
     0
370
    25
380
     1
100
AcDbTrace
 10
534.3361935900607
 20
154.1867708039784
 30
0.0
 11
544.3361935900607
 21
152.5201041373117
 31
0.0
 12
544.3361935900607
 22
155.853437470645
 32
0.0
 13
544.3361935900607
 23
155.853437470645
 33
0.0
  0
SOLID
  5
11D0F
330
11D12
100
AcDbEntity
  8
0
  6
ByBlock
 62
     0
370
    25
380
     1
100
AcDbTrace
 10
604.3361935900607
 20
154.1867708039784
 30
0.0
 11
594.3361935900607
 21
152.5201041373117
 31
0.0
 12
594.3361935900607
 22
155.853437470645
 32
0.0
 13
594.3361935900607
 23
155.853437470645
 33
0.0
  0
MTEXT
  5
11D10
330
11D12
100
AcDbEntity
  8
0
  6
ByBlock
 62
     0
370
    -2
380
     1
100
AcDbMText
 10
569.3361935900607
 20
182.1867708039784
 30
0.0
 40
36.0
 41
0.0
 71
     5
 72
     1
  1
\A1;70
 73
     1
 44
1.0
  0
ENDBLK
  5
11E7A
330
11D12
100
AcDbEntity
  8
0
100
AcDbBlockEnd
  0
BLOCK
  5
11E7B
330
11D1D
100
AcDbEntity
  8
0
100
AcDbBlockBegin
  2
*D14
 70
     1
 10
0.0
 20
0.0
 30
0.0
  3
*D14
  1

  0
POINT
  5
11D14
330
11D1D
100
AcDbEntity
  8
DEFPOINTS
  6
ByBlock
 62
     0
370
    25
380
     1
100
AcDbPoint
 10
534.3361935900607
 20
247.9128985459765
 30
0.0
  0
POINT
  5
11D15
330
11D1D
100
AcDbEntity
  8
DEFPOINTS
  6
ByBlock
 62
     0
370
    25
380
     1
100
AcDbPoint
 10
604.3361935900607
 20
246.6905581159117
 30
0.0
  0
LINE
  5
11D16
330
11D1D
100
AcDbEntity
  8
0
  6
ByBlock
 62
     0
370
    -2
380
     1
100
AcDbLine
 10
534.3361935900607
 20
247.2878985459765
 30
0.0
 11
534.3361935900607
 21
152.9367708039784
 31
0.0
  0
LINE
  5
11D17
330
11D1D
100
AcDbEntity
  8
0
  6
ByBlock
 62
     0
370
    -2
380
     1
100
AcDbLine
 10
604.3361935900607
 20
246.0655581159117
 30
0.0
 11
604.3361935900607
 21
152.9367708039784
 31
0.0
  0
LINE
  5
11D18
330
11D1D
100
AcDbEntity
  8
0
  6
ByBlock
 62
     0
370
    -2
380
     1
100
AcDbLine
 10
534.3361935900607
 20
154.1867708039784
 30
0.0
 11
604.3361935900607
 21
154.1867708039784
 31
0.0
  0
SOLID
  5
11D19
330
11D1D
100
AcDbEntity
  8
0
  6
ByBlock
 62
     0
370
    25
380
     1
100
AcDbTrace
 10
534.3361935900607
 20
154.1867708039784
 30
0.0
 11
544.3361935900607
 21
152.5201041373117
 31
0.0
 12
544.3361935900607
 22
155.853437470645
 32
0.0
 13
544.3361935900607
 23
155.853437470645
 33
0.0
  0
SOLID
  5
11D1A
330
11D1D
100
AcDbEntity
  8
0
  6
ByBlock
 62
     0
370
    25
380
     1
100
AcDbTrace
 10
604.3361935900607
 20
154.1867708039784
 30
0.0
 11
594.3361935900607
 21
152.5201041373117
 31
0.0
 12
594.3361935900607
 22
155.853437470645
 32
0.0
 13
594.3361935900607
 23
155.853437470645
 33
0.0
  0
MTEXT
  5
11D1B
330
11D1D
100
AcDbEntity
  8
0
  6
ByBlock
 62
     0
370
    -2
380
     1
100
AcDbMText
 10
569.3361935900607
 20
182.1867708039784
 30
0.0
 40
36.0
 41
0.0
 71
     5
 72
     1
  1
\A1;70
 73
     1
 44
1.0
  0
ENDBLK
  5
11E7C
330
11D1D
100
AcDbEntity
  8
0
100
AcDbBlockEnd
  0
BLOCK
  5
11E7D
330
11D28
100
AcDbEntity
  8
0
100
AcDbBlockBegin
  2
*D15
 70
     1
 10
0.0
 20
0.0
 30
0.0
  3
*D15
  1

  0
POINT
  5
11D1F
330
11D28
100
AcDbEntity
  8
DEFPOINTS
  6
ByBlock
 62
     0
370
    25
380
     1
100
AcDbPoint
 10
571.4195950556906
 20
748.3229821425409
 30
0.0
  0
POINT
  5
11D20
330
11D28
100
AcDbEntity
  8
DEFPOINTS
  6
ByBlock
 62
     0
370
    25
380
     1
100
AcDbPoint
 10
1569.336069590061
 20
705.3115780040554
 30
0.0
  0
LINE
  5
11D21
330
11D28
100
AcDbEntity
  8
0
  6
ByBlock
 62
     0
370
    -2
380
     1
100
AcDbLine
 10
571.4195950556906
 20
748.9479821425409
 30
0.0
 11
571.4195950556906
 21
871.2637840953283
 31
0.0
  0
LINE
  5
11D22
330
11D28
100
AcDbEntity
  8
0
  6
ByBlock
 62
     0
370
    -2
380
     1
100
AcDbLine
 10
1569.336069590061
 20
705.9365780040554
 30
0.0
 11
1569.336069590061
 21
871.2637840953283
 31
0.0
  0
LINE
  5
11D23
330
11D28
100
AcDbEntity
  8
0
  6
ByBlock
 62
     0
370
    -2
380
     1
100
AcDbLine
 10
573.9195950556906
 20
870.0137840953283
 30
0.0
 11
1566.836069590061
 21
870.0137840953283
 31
0.0
  0
SOLID
  5
11D24
330
11D28
100
AcDbEntity
  8
0
  6
ByBlock
 62
     0
370
    25
380
     1
100
AcDbTrace
 10
571.4195950556906
 20
870.0137840953283
 30
0.0
 11
573.9195950556906
 21
869.5971174286617
 31
0.0
 12
573.9195950556906
 22
870.430450761995
 32
0.0
 13
573.9195950556906
 23
870.430450761995
 33
0.0
  0
SOLID
  5
11D25
330
11D28
100
AcDbEntity
  8
0
  6
ByBlock
 62
     0
370
    25
380
     1
100
AcDbTrace
 10
1569.336069590061
 20
870.0137840953283
 30
0.0
 11
1566.836069590061
 21
869.5971174286617
 31
0.0
 12
1566.836069590061
 22
870.430450761995
 32
0.0
 13
1566.836069590061
 23
870.430450761995
 33
0.0
  0
MTEXT
  5
11D26
330
11D28
100
AcDbEntity
  8
0
  6
ByBlock
 62
     0
370
    -2
380
     1
100
AcDbMText
 10
1070.377832322876
 20
872.0971174286617
 30
0.0
 40
2.5
 41
0.0
 71
     5
 72
     1
  1
\A1;997,92
 73
     1
 44
1.0
  0
ENDBLK
  5
11E7E
330
11D28
100
AcDbEntity
  8
0
100
AcDbBlockEnd
  0
BLOCK
  5
11E7F
330
11D34
100
AcDbEntity
  8
0
100
AcDbBlockBegin
  2
*D16
 70
     1
 10
0.0
 20
0.0
 30
0.0
  3
*D16
  1

  0
POINT
  5
11D2B
330
11D34
100
AcDbEntity
  8
DEFPOINTS
  6
ByBlock
 62
     0
370
    25
380
     1
100
AcDbPoint
 10
299.3361935900605
 20
628.8118167440456
 30
0.0
  0
POINT
  5
11D2C
330
11D34
100
AcDbEntity
  8
DEFPOINTS
  6
ByBlock
 62
     0
370
    25
380
     1
100
AcDbPoint
 10
1569.336069590061
 20
689.1683105804054
 30
0.0
  0
LINE
  5
11D2D
330
11D34
100
AcDbEntity
  8
0
  6
ByBlock
 62
     0
370
    -2
380
     1
100
AcDbLine
 10
299.3361935900605
 20
629.4368167440456
 30
0.0
 11
299.3361935900605
 21
1008.232067931161
 31
0.0
  0
LINE
  5
11D2E
330
11D34
100
AcDbEntity
  8
0
  6
ByBlock
 62
     0
370
    -2
380
     1
100
AcDbLine
 10
1569.336069590061
 20
689.7933105804054
 30
0.0
 11
1569.336069590061
 21
1008.232067931161
 31
0.0
  0
LINE
  5
11D2F
330
11D34
100
AcDbEntity
  8
0
  6
ByBlock
 62
     0
370
    -2
380
     1
100
AcDbLine
 10
301.8361935900605
 20
1006.982067931161
 30
0.0
 11
1566.836069590061
 21
1006.982067931161
 31
0.0
  0
SOLID
  5
11D30
330
11D34
100
AcDbEntity
  8
0
  6
ByBlock
 62
     0
370
    25
380
     1
100
AcDbTrace
 10
299.3361935900605
 20
1006.982067931161
 30
0.0
 11
301.8361935900605
 21
1006.565401264495
 31
0.0
 12
301.8361935900605
 22
1007.398734597828
 32
0.0
 13
301.8361935900605
 23
1007.398734597828
 33
0.0
  0
SOLID
  5
11D31
330
11D34
100
AcDbEntity
  8
0
  6
ByBlock
 62
     0
370
    25
380
     1
100
AcDbTrace
 10
1569.336069590061
 20
1006.982067931161
 30
0.0
 11
1566.836069590061
 21
1006.565401264495
 31
0.0
 12
1566.836069590061
 22
1007.398734597828
 32
0.0
 13
1566.836069590061
 23
1007.398734597828
 33
0.0
  0
MTEXT
  5
11D32
330
11D34
100
AcDbEntity
  8
0
  6
ByBlock
 62
     0
370
    -2
380
     1
100
AcDbMText
 10
934.3361315900606
 20
1008.857067931161
 30
0.0
 40
2.5
 41
0.0
 71
     5
 72
     1
  1
\A1;1270
 73
     1
 44
1.0
  0
ENDBLK
  5
11E80
330
11D34
100
AcDbEntity
  8
0
100
AcDbBlockEnd
  0
BLOCK
  5
11E81
330
11D40
100
AcDbEntity
  8
0
100
AcDbBlockBegin
  2
*D17
 70
     1
 10
0.0
 20
0.0
 30
0.0
  3
*D17
  1

  0
POINT
  5
11D37
330
11D40
100
AcDbEntity
  8
DEFPOINTS
  6
ByBlock
 62
     0
370
    25
380
     1
100
AcDbPoint
 10
569.3361999605125
 20
607.0538571680203
 30
0.0
  0
POINT
  5
11D38
330
11D40
100
AcDbEntity
  8
DEFPOINTS
  6
ByBlock
 62
     0
370
    25
380
     1
100
AcDbPoint
 10
1569.336069590061
 20
703.6402929749676
 30
0.0
  0
LINE
  5
11D39
330
11D40
100
AcDbEntity
  8
0
  6
ByBlock
 62
     0
370
    -2
380
     1
100
AcDbLine
 10
569.3361999605125
 20
607.6788571680203
 30
0.0
 11
569.3361999605125
 21
925.2410709092554
 31
0.0
  0
LINE
  5
11D3A
330
11D40
100
AcDbEntity
  8
0
  6
ByBlock
 62
     0
370
    -2
380
     1
100
AcDbLine
 10
1569.336069590061
 20
704.2652929749676
 30
0.0
 11
1569.336069590061
 21
925.2410709092554
 31
0.0
  0
LINE
  5
11D3B
330
11D40
100
AcDbEntity
  8
0
  6
ByBlock
 62
     0
370
    -2
380
     1
100
AcDbLine
 10
571.8361999605125
 20
923.9910709092554
 30
0.0
 11
1566.836069590061
 21
923.9910709092554
 31
0.0
  0
SOLID
  5
11D3C
330
11D40
100
AcDbEntity
  8
0
  6
ByBlock
 62
     0
370
    25
380
     1
100
AcDbTrace
 10
569.3361999605125
 20
923.9910709092554
 30
0.0
 11
571.8361999605125
 21
923.5744042425888
 31
0.0
 12
571.8361999605125
 22
924.407737575922
 32
0.0
 13
571.8361999605125
 23
924.407737575922
 33
0.0
  0
SOLID
  5
11D3D
330
11D40
100
AcDbEntity
  8
0
  6
ByBlock
 62
     0
370
    25
380
     1
100
AcDbTrace
 10
1569.336069590061
 20
923.9910709092554
 30
0.0
 11
1566.836069590061
 21
923.5744042425888
 31
0.0
 12
1566.836069590061
 22
924.407737575922
 32
0.0
 13
1566.836069590061
 23
924.407737575922
 33
0.0
  0
MTEXT
  5
11D3E
330
11D40
100
AcDbEntity
  8
0
  6
ByBlock
 62
     0
370
    -2
380
     1
100
AcDbMText
 10
1069.336134775287
 20
925.8660709092554
 30
0.0
 40
2.5
 41
0.0
 71
     5
 72
     1
  1
\A1;1000
 73
     1
 44
1.0
  0
ENDBLK
  5
11E82
330
11D40
100
AcDbEntity
  8
0
100
AcDbBlockEnd
  0
BLOCK
  5
11E83
330
11D4B
100
AcDbEntity
  8
0
100
AcDbBlockBegin
  2
*D18
 70
     1
 10
0.0
 20
0.0
 30
0.0
  3
*D18
  1

  0
POINT
  5
11D42
330
11D4B
100
AcDbEntity
  8
DEFPOINTS
  6
ByBlock
 62
     0
370
    25
380
     1
100
AcDbPoint
 10
569.3361999605125
 20
607.0538571680203
 30
0.0
  0
POINT
  5
11D43
330
11D4B
100
AcDbEntity
  8
DEFPOINTS
  6
ByBlock
 62
     0
370
    25
380
     1
100
AcDbPoint
 10
1569.336069590061
 20
703.6402929749676
 30
0.0
  0
LINE
  5
11D44
330
11D4B
100
AcDbEntity
  8
0
  6
ByBlock
 62
     0
370
    -2
380
     1
100
AcDbLine
 10
569.3361999605125
 20
607.6788571680203
 30
0.0
 11
569.3361999605125
 21
925.2410709092554
 31
0.0
  0
LINE
  5
11D45
330
11D4B
100
AcDbEntity
  8
0
  6
ByBlock
 62
     0
370
    -2
380
     1
100
AcDbLine
 10
1569.336069590061
 20
704.2652929749676
 30
0.0
 11
1569.336069590061
 21
925.2410709092554
 31
0.0
  0
LINE
  5
11D46
330
11D4B
100
AcDbEntity
  8
0
  6
ByBlock
 62
     0
370
    -2
380
     1
100
AcDbLine
 10
579.3361999605125
 20
923.9910709092554
 30
0.0
 11
1559.336069590061
 21
923.9910709092554
 31
0.0
  0
SOLID
  5
11D47
330
11D4B
100
AcDbEntity
  8
0
  6
ByBlock
 62
     0
370
    25
380
     1
100
AcDbTrace
 10
569.3361999605125
 20
923.9910709092554
 30
0.0
 11
579.3361999605125
 21
922.3244042425888
 31
0.0
 12
579.3361999605125
 22
925.657737575922
 32
0.0
 13
579.3361999605125
 23
925.657737575922
 33
0.0
  0
SOLID
  5
11D48
330
11D4B
100
AcDbEntity
  8
0
  6
ByBlock
 62
     0
370
    25
380
     1
100
AcDbTrace
 10
1569.336069590061
 20
923.9910709092554
 30
0.0
 11
1559.336069590061
 21
922.3244042425888
 31
0.0
 12
1559.336069590061
 22
925.657737575922
 32
0.0
 13
1559.336069590061
 23
925.657737575922
 33
0.0
  0
MTEXT
  5
11D49
330
11D4B
100
AcDbEntity
  8
0
  6
ByBlock
 62
     0
370
    -2
380
     1
100
AcDbMText
 10
1069.336134775287
 20
951.9910709092554
 30
0.0
 40
36.0
 41
0.0
 71
     5
 72
     1
  1
\A1;1000
 73
     1
 44
1.0
  0
ENDBLK
  5
11E84
330
11D4B
100
AcDbEntity
  8
0
100
AcDbBlockEnd
  0
BLOCK
  5
11E85
330
11D57
100
AcDbEntity
  8
0
100
AcDbBlockBegin
  2
*D19
 70
     1
 10
0.0
 20
0.0
 30
0.0
  3
*D19
  1

  0
POINT
  5
11D4D
330
11D57
100
AcDbEntity
  8
DEFPOINTS
  6
ByBlock
 62
     0
370
    25
380
     1
100
AcDbPoint
 10
1520.649707897795
 20
742.9058913196839
 30
0.0
  0
POINT
  5
11D4E
330
11D57
100
AcDbEntity
  8
DEFPOINTS
  6
ByBlock
 62
     0
370
    25
380
     1
100
AcDbPoint
 10
1512.743987755748
 20
672.9058913196836
 30
0.0
  0
LINE
  5
11D4F
330
11D57
100
AcDbEntity
  8
0
  6
ByBlock
 62
     0
370
    -2
380
     1
100
AcDbLine
 10
1521.274707897795
 20
742.9058913196839
 30
0.0
 11
1662.226240419134
 21
742.9058913196839
 31
0.0
  0
LINE
  5
11D50
330
11D57
100
AcDbEntity
  8
0
  6
ByBlock
 62
     0
370
    -2
380
     1
100
AcDbLine
 10
1513.368987755748
 20
672.9058913196836
 30
0.0
 11
1662.226240419134
 21
672.9058913196836
 31
0.0
  0
LINE
  5
11D51
330
11D57
100
AcDbEntity
  8
0
  6
ByBlock
 62
     0
370
    -2
380
     1
100
AcDbLine
 10
1660.976240419134
 20
732.9058913196839
 30
0.0
 11
1660.976240419134
 21
682.9058913196836
 31
0.0
  0
LINE
  5
11D52
330
11D57
100
AcDbEntity
  8
0
  6
ByBlock
 62
     0
370
    -2
380
     1
100
AcDbLine
 10
1660.976240419134
 20
672.9058913196836
 30
0.0
 11
1660.976240419134
 21
606.9058913196836
 31
0.0
  0
SOLID
  5
11D53
330
11D57
100
AcDbEntity
  8
0
  6
ByBlock
 62
     0
370
    25
380
     1
100
AcDbTrace
 10
1660.976240419134
 20
742.9058913196839
 30
0.0
 11
1659.309573752467
 21
732.9058913196839
 31
0.0
 12
1662.642907085801
 22
732.9058913196839
 32
0.0
 13
1662.642907085801
 23
732.9058913196839
 33
0.0
  0
SOLID
  5
11D54
330
11D57
100
AcDbEntity
  8
0
  6
ByBlock
 62
     0
370
    25
380
     1
100
AcDbTrace
 10
1660.976240419134
 20
672.9058913196836
 30
0.0
 11
1659.309573752467
 21
682.9058913196836
 31
0.0
 12
1662.642907085801
 22
682.9058913196836
 32
0.0
 13
1662.642907085801
 23
682.9058913196836
 33
0.0
  0
MTEXT
  5
11D55
330
11D57
100
AcDbEntity
  8
0
  6
ByBlock
 62
     0
370
    -2
380
     1
100
AcDbMText
 10
1632.976240419134
 20
634.9058913196836
 30
0.0
 40
36.0
 41
0.0
 71
     5
 72
     1
  1
\A1;70
 11
6.123031769111886E-17
 21
1.0
 31
0.0
 73
     1
 44
1.0
  0
ENDBLK
  5
11E86
330
11D57
100
AcDbEntity
  8
0
100
AcDbBlockEnd
  0
BLOCK
  5
11E87
330
11D6E
100
AcDbEntity
  8
0
100
AcDbBlockBegin
  2
*D20
 70
     1
 10
0.0
 20
0.0
 30
0.0
  3
*D20
  1

  0
POINT
  5
11D65
330
11D6E
100
AcDbEntity
  8
DEFPOINTS
  6
ByBlock
 62
     0
370
    25
380
     1
100
AcDbPoint
 10
1520.649707897795
 20
742.9058913196839
 30
0.0
  0
POINT
  5
11D66
330
11D6E
100
AcDbEntity
  8
DEFPOINTS
  6
ByBlock
 62
     0
370
    25
380
     1
100
AcDbPoint
 10
1512.743987755748
 20
672.9058913196836
 30
0.0
  0
LINE
  5
11D67
330
11D6E
100
AcDbEntity
  8
0
  6
ByBlock
 62
     0
370
    -2
380
     1
100
AcDbLine
 10
1521.274707897795
 20
742.9058913196839
 30
0.0
 11
1662.226240419134
 21
742.9058913196839
 31
0.0
  0
LINE
  5
11D68
330
11D6E
100
AcDbEntity
  8
0
  6
ByBlock
 62
     0
370
    -2
380
     1
100
AcDbLine
 10
1513.368987755748
 20
672.9058913196836
 30
0.0
 11
1662.226240419134
 21
672.9058913196836
 31
0.0
  0
LINE
  5
11D69
330
11D6E
100
AcDbEntity
  8
0
  6
ByBlock
 62
     0
370
    -2
380
     1
100
AcDbLine
 10
1660.976240419134
 20
742.9058913196839
 30
0.0
 11
1660.976240419134
 21
672.9058913196836
 31
0.0
  0
SOLID
  5
11D6A
330
11D6E
100
AcDbEntity
  8
0
  6
ByBlock
 62
     0
370
    25
380
     1
100
AcDbTrace
 10
1660.976240419134
 20
742.9058913196839
 30
0.0
 11
1659.309573752467
 21
732.9058913196839
 31
0.0
 12
1662.642907085801
 22
732.9058913196839
 32
0.0
 13
1662.642907085801
 23
732.9058913196839
 33
0.0
  0
SOLID
  5
11D6B
330
11D6E
100
AcDbEntity
  8
0
  6
ByBlock
 62
     0
370
    25
380
     1
100
AcDbTrace
 10
1660.976240419134
 20
672.9058913196836
 30
0.0
 11
1659.309573752467
 21
682.9058913196836
 31
0.0
 12
1662.642907085801
 22
682.9058913196836
 32
0.0
 13
1662.642907085801
 23
682.9058913196836
 33
0.0
  0
MTEXT
  5
11D6C
330
11D6E
100
AcDbEntity
  8
0
  6
ByBlock
 62
     0
370
    -2
380
     1
100
AcDbMText
 10
1632.976240419134
 20
707.9058913196837
 30
0.0
 40
36.0
 41
0.0
 71
     5
 72
     1
  1
\A1;70
 11
6.123031769111886E-17
 21
1.0
 31
0.0
 73
     1
 44
1.0
  0
ENDBLK
  5
11E88
330
11D6E
100
AcDbEntity
  8
0
100
AcDbBlockEnd
  0
BLOCK
  5
11E89
330
11D79
100
AcDbEntity
  8
0
100
AcDbBlockBegin
  2
*D21
 70
     1
 10
0.0
 20
0.0
 30
0.0
  3
*D21
  1

  0
POINT
  5
11D70
330
11D79
100
AcDbEntity
  8
DEFPOINTS
  6
ByBlock
 62
     0
370
    25
380
     1
100
AcDbPoint
 10
1520.649707897795
 20
742.9058913196839
 30
0.0
  0
POINT
  5
11D71
330
11D79
100
AcDbEntity
  8
DEFPOINTS
  6
ByBlock
 62
     0
370
    25
380
     1
100
AcDbPoint
 10
1512.743987755748
 20
672.9058913196836
 30
0.0
  0
LINE
  5
11D72
330
11D79
100
AcDbEntity
  8
0
  6
ByBlock
 62
     0
370
    -2
380
     1
100
AcDbLine
 10
1521.274707897795
 20
742.9058913196839
 30
0.0
 11
1662.226240419134
 21
742.9058913196839
 31
0.0
  0
LINE
  5
11D73
330
11D79
100
AcDbEntity
  8
0
  6
ByBlock
 62
     0
370
    -2
380
     1
100
AcDbLine
 10
1513.368987755748
 20
672.9058913196836
 30
0.0
 11
1662.226240419134
 21
672.9058913196836
 31
0.0
  0
LINE
  5
11D74
330
11D79
100
AcDbEntity
  8
0
  6
ByBlock
 62
     0
370
    -2
380
     1
100
AcDbLine
 10
1660.976240419134
 20
742.9058913196839
 30
0.0
 11
1660.976240419134
 21
672.9058913196836
 31
0.0
  0
SOLID
  5
11D75
330
11D79
100
AcDbEntity
  8
0
  6
ByBlock
 62
     0
370
    25
380
     1
100
AcDbTrace
 10
1660.976240419134
 20
742.9058913196839
 30
0.0
 11
1659.309573752467
 21
732.9058913196839
 31
0.0
 12
1662.642907085801
 22
732.9058913196839
 32
0.0
 13
1662.642907085801
 23
732.9058913196839
 33
0.0
  0
SOLID
  5
11D76
330
11D79
100
AcDbEntity
  8
0
  6
ByBlock
 62
     0
370
    25
380
     1
100
AcDbTrace
 10
1660.976240419134
 20
672.9058913196836
 30
0.0
 11
1659.309573752467
 21
682.9058913196836
 31
0.0
 12
1662.642907085801
 22
682.9058913196836
 32
0.0
 13
1662.642907085801
 23
682.9058913196836
 33
0.0
  0
MTEXT
  5
11D77
330
11D79
100
AcDbEntity
  8
0
  6
ByBlock
 62
     0
370
    -2
380
     1
100
AcDbMText
 10
1632.976240419134
 20
707.9058913196837
 30
0.0
 40
36.0
 41
0.0
 71
     5
 72
     1
  1
\A1;70
 11
6.123031769111886E-17
 21
1.0
 31
0.0
 73
     1
 44
1.0
  0
ENDBLK
  5
11E8A
330
11D79
100
AcDbEntity
  8
0
100
AcDbBlockEnd
  0
BLOCK
  5
11E8B
330
11D85
100
AcDbEntity
  8
0
100
AcDbBlockBegin
  2
*D22
 70
     1
 10
0.0
 20
0.0
 30
0.0
  3
*D22
  1

  0
POINT
  5
11D7C
330
11D85
100
AcDbEntity
  8
DEFPOINTS
  6
ByBlock
 62
     0
370
    25
380
     1
100
AcDbPoint
 10
1569.336069590061
 20
709.0011437920878
 30
0.0
  0
POINT
  5
11D7D
330
11D85
100
AcDbEntity
  8
DEFPOINTS
  6
ByBlock
 62
     0
370
    25
380
     1
100
AcDbPoint
 10
1334.938910255492
 20
742.6151646310338
 30
0.0
  0
LINE
  5
11D7E
330
11D85
100
AcDbEntity
  8
0
  6
ByBlock
 62
     0
370
    -2
380
     1
100
AcDbLine
 10
1569.336069590061
 20
709.6261437920878
 30
0.0
 11
1569.336069590061
 21
831.6587014368149
 31
0.0
  0
LINE
  5
11D7F
330
11D85
100
AcDbEntity
  8
0
  6
ByBlock
 62
     0
370
    -2
380
     1
100
AcDbLine
 10
1334.938910255492
 20
743.2401646310338
 30
0.0
 11
1334.938910255492
 21
831.6587014368149
 31
0.0
  0
LINE
  5
11D80
330
11D85
100
AcDbEntity
  8
0
  6
ByBlock
 62
     0
370
    -2
380
     1
100
AcDbLine
 10
1566.836069590061
 20
830.4087014368149
 30
0.0
 11
1337.438910255492
 21
830.4087014368149
 31
0.0
  0
SOLID
  5
11D81
330
11D85
100
AcDbEntity
  8
0
  6
ByBlock
 62
     0
370
    25
380
     1
100
AcDbTrace
 10
1569.336069590061
 20
830.4087014368149
 30
0.0
 11
1566.836069590061
 21
830.8253681034815
 31
0.0
 12
1566.836069590061
 22
829.9920347701483
 32
0.0
 13
1566.836069590061
 23
829.9920347701483
 33
0.0
  0
SOLID
  5
11D82
330
11D85
100
AcDbEntity
  8
0
  6
ByBlock
 62
     0
370
    25
380
     1
100
AcDbTrace
 10
1334.938910255492
 20
830.4087014368149
 30
0.0
 11
1337.438910255492
 21
830.8253681034815
 31
0.0
 12
1337.438910255492
 22
829.9920347701483
 32
0.0
 13
1337.438910255492
 23
829.9920347701483
 33
0.0
  0
MTEXT
  5
11D83
330
11D85
100
AcDbEntity
  8
0
  6
ByBlock
 62
     0
370
    -2
380
     1
100
AcDbMText
 10
1452.137489922777
 20
832.4920347701482
 30
0.0
 40
2.5
 41
0.0
 71
     5
 72
     1
  1
\A1;234,4
 73
     1
 44
1.0
  0
ENDBLK
  5
11E8C
330
11D85
100
AcDbEntity
  8
0
100
AcDbBlockEnd
  0
BLOCK
  5
11E8D
330
11D90
100
AcDbEntity
  8
0
100
AcDbBlockBegin
  2
*D23
 70
     1
 10
0.0
 20
0.0
 30
0.0
  3
*D23
  1

  0
POINT
  5
11D87
330
11D90
100
AcDbEntity
  8
DEFPOINTS
  6
ByBlock
 62
     0
370
    25
380
     1
100
AcDbPoint
 10
1569.336069590061
 20
709.0011437920878
 30
0.0
  0
POINT
  5
11D88
330
11D90
100
AcDbEntity
  8
DEFPOINTS
  6
ByBlock
 62
     0
370
    25
380
     1
100
AcDbPoint
 10
1362.366914953342
 20
742.893957416211
 30
0.0
  0
LINE
  5
11D89
330
11D90
100
AcDbEntity
  8
0
  6
ByBlock
 62
     0
370
    -2
380
     1
100
AcDbLine
 10
1569.336069590061
 20
709.6261437920878
 30
0.0
 11
1569.336069590061
 21
831.6587014368149
 31
0.0
  0
LINE
  5
11D8A
330
11D90
100
AcDbEntity
  8
0
  6
ByBlock
 62
     0
370
    -2
380
     1
100
AcDbLine
 10
1362.366914953342
 20
743.518957416211
 30
0.0
 11
1362.366914953342
 21
831.6587014368149
 31
0.0
  0
LINE
  5
11D8B
330
11D90
100
AcDbEntity
  8
0
  6
ByBlock
 62
     0
370
    -2
380
     1
100
AcDbLine
 10
1566.836069590061
 20
830.4087014368149
 30
0.0
 11
1364.866914953342
 21
830.4087014368149
 31
0.0
  0
SOLID
  5
11D8C
330
11D90
100
AcDbEntity
  8
0
  6
ByBlock
 62
     0
370
    25
380
     1
100
AcDbTrace
 10
1569.336069590061
 20
830.4087014368149
 30
0.0
 11
1566.836069590061
 21
830.8253681034815
 31
0.0
 12
1566.836069590061
 22
829.9920347701483
 32
0.0
 13
1566.836069590061
 23
829.9920347701483
 33
0.0
  0
SOLID
  5
11D8D
330
11D90
100
AcDbEntity
  8
0
  6
ByBlock
 62
     0
370
    25
380
     1
100
AcDbTrace
 10
1362.366914953342
 20
830.4087014368149
 30
0.0
 11
1364.866914953342
 21
830.8253681034815
 31
0.0
 12
1364.866914953342
 22
829.9920347701483
 32
0.0
 13
1364.866914953342
 23
829.9920347701483
 33
0.0
  0
MTEXT
  5
11D8E
330
11D90
100
AcDbEntity
  8
0
  6
ByBlock
 62
     0
370
    -2
380
     1
100
AcDbMText
 10
1465.851492271701
 20
832.4920347701482
 30
0.0
 40
2.5
 41
0.0
 71
     5
 72
     1
  1
\A1;206,97
 73
     1
 44
1.0
  0
ENDBLK
  5
11E8E
330
11D90
100
AcDbEntity
  8
0
100
AcDbBlockEnd
  0
BLOCK
  5
11E8F
330
11D9B
100
AcDbEntity
  8
0
100
AcDbBlockBegin
  2
*D24
 70
     1
 10
0.0
 20
0.0
 30
0.0
  3
*D24
  1

  0
POINT
  5
11D92
330
11D9B
100
AcDbEntity
  8
DEFPOINTS
  6
ByBlock
 62
     0
370
    25
380
     1
100
AcDbPoint
 10
1569.336069590061
 20
709.0011437920878
 30
0.0
  0
POINT
  5
11D93
330
11D9B
100
AcDbEntity
  8
DEFPOINTS
  6
ByBlock
 62
     0
370
    25
380
     1
100
AcDbPoint
 10
1367.826904426007
 20
742.9053316258033
 30
0.0
  0
LINE
  5
11D94
330
11D9B
100
AcDbEntity
  8
0
  6
ByBlock
 62
     0
370
    -2
380
     1
100
AcDbLine
 10
1569.336069590061
 20
709.6261437920878
 30
0.0
 11
1569.336069590061
 21
831.6587014368149
 31
0.0
  0
LINE
  5
11D95
330
11D9B
100
AcDbEntity
  8
0
  6
ByBlock
 62
     0
370
    -2
380
     1
100
AcDbLine
 10
1367.826904426007
 20
743.5303316258033
 30
0.0
 11
1367.826904426007
 21
831.6587014368149
 31
0.0
  0
LINE
  5
11D96
330
11D9B
100
AcDbEntity
  8
0
  6
ByBlock
 62
     0
370
    -2
380
     1
100
AcDbLine
 10
1566.836069590061
 20
830.4087014368149
 30
0.0
 11
1370.326904426007
 21
830.4087014368149
 31
0.0
  0
SOLID
  5
11D97
330
11D9B
100
AcDbEntity
  8
0
  6
ByBlock
 62
     0
370
    25
380
     1
100
AcDbTrace
 10
1569.336069590061
 20
830.4087014368149
 30
0.0
 11
1566.836069590061
 21
830.8253681034815
 31
0.0
 12
1566.836069590061
 22
829.9920347701483
 32
0.0
 13
1566.836069590061
 23
829.9920347701483
 33
0.0
  0
SOLID
  5
11D98
330
11D9B
100
AcDbEntity
  8
0
  6
ByBlock
 62
     0
370
    25
380
     1
100
AcDbTrace
 10
1367.826904426007
 20
830.4087014368149
 30
0.0
 11
1370.326904426007
 21
830.8253681034815
 31
0.0
 12
1370.326904426007
 22
829.9920347701483
 32
0.0
 13
1370.326904426007
 23
829.9920347701483
 33
0.0
  0
MTEXT
  5
11D99
330
11D9B
100
AcDbEntity
  8
0
  6
ByBlock
 62
     0
370
    -2
380
     1
100
AcDbMText
 10
1468.581487008034
 20
832.4920347701482
 30
0.0
 40
2.5
 41
0.0
 71
     5
 72
     1
  1
\A1;201,51
 73
     1
 44
1.0
  0
ENDBLK
  5
11E90
330
11D9B
100
AcDbEntity
  8
0
100
AcDbBlockEnd
  0
BLOCK
  5
11E91
330
11DA6
100
AcDbEntity
  8
0
100
AcDbBlockBegin
  2
*D25
 70
     1
 10
0.0
 20
0.0
 30
0.0
  3
*D25
  1

  0
POINT
  5
11D9D
330
11DA6
100
AcDbEntity
  8
DEFPOINTS
  6
ByBlock
 62
     0
370
    25
380
     1
100
AcDbPoint
 10
1569.336069590061
 20
709.0011437920878
 30
0.0
  0
POINT
  5
11D9E
330
11DA6
100
AcDbEntity
  8
DEFPOINTS
  6
ByBlock
 62
     0
370
    25
380
     1
100
AcDbPoint
 10
1369.217574260754
 20
742.9058878625474
 30
0.0
  0
LINE
  5
11D9F
330
11DA6
100
AcDbEntity
  8
0
  6
ByBlock
 62
     0
370
    -2
380
     1
100
AcDbLine
 10
1569.336069590061
 20
709.6261437920878
 30
0.0
 11
1569.336069590061
 21
831.6587014368149
 31
0.0
  0
LINE
  5
11DA0
330
11DA6
100
AcDbEntity
  8
0
  6
ByBlock
 62
     0
370
    -2
380
     1
100
AcDbLine
 10
1369.217574260754
 20
743.5308878625474
 30
0.0
 11
1369.217574260754
 21
831.6587014368149
 31
0.0
  0
LINE
  5
11DA1
330
11DA6
100
AcDbEntity
  8
0
  6
ByBlock
 62
     0
370
    -2
380
     1
100
AcDbLine
 10
1566.836069590061
 20
830.4087014368149
 30
0.0
 11
1371.717574260754
 21
830.4087014368149
 31
0.0
  0
SOLID
  5
11DA2
330
11DA6
100
AcDbEntity
  8
0
  6
ByBlock
 62
     0
370
    25
380
     1
100
AcDbTrace
 10
1569.336069590061
 20
830.4087014368149
 30
0.0
 11
1566.836069590061
 21
830.8253681034815
 31
0.0
 12
1566.836069590061
 22
829.9920347701483
 32
0.0
 13
1566.836069590061
 23
829.9920347701483
 33
0.0
  0
SOLID
  5
11DA3
330
11DA6
100
AcDbEntity
  8
0
  6
ByBlock
 62
     0
370
    25
380
     1
100
AcDbTrace
 10
1369.217574260754
 20
830.4087014368149
 30
0.0
 11
1371.717574260754
 21
830.8253681034815
 31
0.0
 12
1371.717574260754
 22
829.9920347701483
 32
0.0
 13
1371.717574260754
 23
829.9920347701483
 33
0.0
  0
MTEXT
  5
11DA4
330
11DA6
100
AcDbEntity
  8
0
  6
ByBlock
 62
     0
370
    -2
380
     1
100
AcDbMText
 10
1469.276821925407
 20
832.4920347701482
 30
0.0
 40
2.5
 41
0.0
 71
     5
 72
     1
  1
\A1;200,12
 73
     1
 44
1.0
  0
ENDBLK
  5
11E92
330
11DA6
100
AcDbEntity
  8
0
100
AcDbBlockEnd
  0
BLOCK
  5
11E93
330
11DB1
100
AcDbEntity
  8
0
100
AcDbBlockBegin
  2
*D26
 70
     1
 10
0.0
 20
0.0
 30
0.0
  3
*D26
  1

  0
POINT
  5
11DA8
330
11DB1
100
AcDbEntity
  8
DEFPOINTS
  6
ByBlock
 62
     0
370
    25
380
     1
100
AcDbPoint
 10
1569.336069590061
 20
709.0011437920878
 30
0.0
  0
POINT
  5
11DA9
330
11DB1
100
AcDbEntity
  8
DEFPOINTS
  6
ByBlock
 62
     0
370
    25
380
     1
100
AcDbPoint
 10
1369.217574260754
 20
742.9058878625474
 30
0.0
  0
LINE
  5
11DAA
330
11DB1
100
AcDbEntity
  8
0
  6
ByBlock
 62
     0
370
    -2
380
     1
100
AcDbLine
 10
1569.336069590061
 20
709.6261437920878
 30
0.0
 11
1569.336069590061
 21
831.6587014368149
 31
0.0
  0
LINE
  5
11DAB
330
11DB1
100
AcDbEntity
  8
0
  6
ByBlock
 62
     0
370
    -2
380
     1
100
AcDbLine
 10
1369.217574260754
 20
743.5308878625474
 30
0.0
 11
1369.217574260754
 21
831.6587014368149
 31
0.0
  0
LINE
  5
11DAC
330
11DB1
100
AcDbEntity
  8
0
  6
ByBlock
 62
     0
370
    -2
380
     1
100
AcDbLine
 10
1559.336069590061
 20
830.4087014368149
 30
0.0
 11
1379.217574260754
 21
830.4087014368149
 31
0.0
  0
SOLID
  5
11DAD
330
11DB1
100
AcDbEntity
  8
0
  6
ByBlock
 62
     0
370
    25
380
     1
100
AcDbTrace
 10
1569.336069590061
 20
830.4087014368149
 30
0.0
 11
1559.336069590061
 21
832.0753681034815
 31
0.0
 12
1559.336069590061
 22
828.7420347701483
 32
0.0
 13
1559.336069590061
 23
828.7420347701483
 33
0.0
  0
SOLID
  5
11DAE
330
11DB1
100
AcDbEntity
  8
0
  6
ByBlock
 62
     0
370
    25
380
     1
100
AcDbTrace
 10
1369.217574260754
 20
830.4087014368149
 30
0.0
 11
1379.217574260754
 21
832.0753681034815
 31
0.0
 12
1379.217574260754
 22
828.7420347701483
 32
0.0
 13
1379.217574260754
 23
828.7420347701483
 33
0.0
  0
MTEXT
  5
11DAF
330
11DB1
100
AcDbEntity
  8
0
  6
ByBlock
 62
     0
370
    -2
380
     1
100
AcDbMText
 10
1469.276821925407
 20
858.4087014368149
 30
0.0
 40
36.0
 41
0.0
 71
     5
 72
     1
  1
\A1;200
 73
     1
 44
1.0
  0
ENDBLK
  5
11E94
330
11DB1
100
AcDbEntity
  8
0
100
AcDbBlockEnd
  0
BLOCK
  5
11E95
330
11DBC
100
AcDbEntity
  8
0
100
AcDbBlockBegin
  2
*D27
 70
     1
 10
0.0
 20
0.0
 30
0.0
  3
*D27
  1

  0
POINT
  5
11DB3
330
11DBC
100
AcDbEntity
  8
DEFPOINTS
  6
ByBlock
 62
     0
370
    25
380
     1
100
AcDbPoint
 10
299.3361935900605
 20
628.8118167440456
 30
0.0
  0
POINT
  5
11DB4
330
11DBC
100
AcDbEntity
  8
DEFPOINTS
  6
ByBlock
 62
     0
370
    25
380
     1
100
AcDbPoint
 10
1569.336069590061
 20
689.1683105804054
 30
0.0
  0
LINE
  5
11DB5
330
11DBC
100
AcDbEntity
  8
0
  6
ByBlock
 62
     0
370
    -2
380
     1
100
AcDbLine
 10
299.3361935900605
 20
629.4368167440456
 30
0.0
 11
299.3361935900605
 21
1008.232067931161
 31
0.0
  0
LINE
  5
11DB6
330
11DBC
100
AcDbEntity
  8
0
  6
ByBlock
 62
     0
370
    -2
380
     1
100
AcDbLine
 10
1569.336069590061
 20
689.7933105804054
 30
0.0
 11
1569.336069590061
 21
1008.232067931161
 31
0.0
  0
LINE
  5
11DB7
330
11DBC
100
AcDbEntity
  8
0
  6
ByBlock
 62
     0
370
    -2
380
     1
100
AcDbLine
 10
309.3361935900605
 20
1006.982067931161
 30
0.0
 11
1559.336069590061
 21
1006.982067931161
 31
0.0
  0
SOLID
  5
11DB8
330
11DBC
100
AcDbEntity
  8
0
  6
ByBlock
 62
     0
370
    25
380
     1
100
AcDbTrace
 10
299.3361935900605
 20
1006.982067931161
 30
0.0
 11
309.3361935900605
 21
1005.315401264495
 31
0.0
 12
309.3361935900605
 22
1008.648734597828
 32
0.0
 13
309.3361935900605
 23
1008.648734597828
 33
0.0
  0
SOLID
  5
11DB9
330
11DBC
100
AcDbEntity
  8
0
  6
ByBlock
 62
     0
370
    25
380
     1
100
AcDbTrace
 10
1569.336069590061
 20
1006.982067931161
 30
0.0
 11
1559.336069590061
 21
1005.315401264495
 31
0.0
 12
1559.336069590061
 22
1008.648734597828
 32
0.0
 13
1559.336069590061
 23
1008.648734597828
 33
0.0
  0
MTEXT
  5
11DBA
330
11DBC
100
AcDbEntity
  8
0
  6
ByBlock
 62
     0
370
    -2
380
     1
100
AcDbMText
 10
934.3361315900606
 20
1034.982067931161
 30
0.0
 40
36.0
 41
0.0
 71
     5
 72
     1
  1
\A1;1270
 73
     1
 44
1.0
  0
ENDBLK
  5
11E96
330
11DBC
100
AcDbEntity
  8
0
100
AcDbBlockEnd
  0
BLOCK
  5
11E97
330
11DC8
100
AcDbEntity
  8
0
100
AcDbBlockBegin
  2
*D28
 70
     1
 10
0.0
 20
0.0
 30
0.0
  3
*D28
  1

  0
POINT
  5
11DBF
330
11DC8
100
AcDbEntity
  8
DEFPOINTS
  6
ByBlock
 62
     0
370
    25
380
     1
100
AcDbPoint
 10
1492.775170059244
 20
742.9058913196839
 30
0.0
  0
POINT
  5
11DC0
330
11DC8
100
AcDbEntity
  8
DEFPOINTS
  6
ByBlock
 62
     0
370
    25
380
     1
100
AcDbPoint
 10
586.5335339280007
 20
240.9005218803173
 30
0.0
  0
LINE
  5
11DC1
330
11DC8
100
AcDbEntity
  8
0
  6
ByBlock
 62
     0
370
    -2
380
     1
100
AcDbLine
 10
1492.150170059244
 20
742.9058913196839
 30
0.0
 11
200.0068259600262
 21
742.9058913196839
 31
0.0
  0
LINE
  5
11DC2
330
11DC8
100
AcDbEntity
  8
0
  6
ByBlock
 62
     0
370
    -2
380
     1
100
AcDbLine
 10
585.9085339280007
 20
240.9005218803173
 30
0.0
 11
200.0068259600262
 21
240.9005218803173
 31
0.0
  0
LINE
  5
11DC3
330
11DC8
100
AcDbEntity
  8
0
  6
ByBlock
 62
     0
370
    -2
380
     1
100
AcDbLine
 10
201.2568259600262
 20
740.4058913196839
 30
0.0
 11
201.2568259600262
 21
243.4005218803173
 31
0.0
  0
SOLID
  5
11DC4
330
11DC8
100
AcDbEntity
  8
0
  6
ByBlock
 62
     0
370
    25
380
     1
100
AcDbTrace
 10
201.2568259600262
 20
742.9058913196839
 30
0.0
 11
200.8401592933594
 21
740.4058913196839
 31
0.0
 12
201.6734926266929
 22
740.4058913196839
 32
0.0
 13
201.6734926266929
 23
740.4058913196839
 33
0.0
  0
SOLID
  5
11DC5
330
11DC8
100
AcDbEntity
  8
0
  6
ByBlock
 62
     0
370
    25
380
     1
100
AcDbTrace
 10
201.2568259600262
 20
240.9005218803173
 30
0.0
 11
200.8401592933594
 21
243.4005218803173
 31
0.0
 12
201.6734926266929
 22
243.4005218803173
 32
0.0
 13
201.6734926266929
 23
243.4005218803173
 33
0.0
  0
MTEXT
  5
11DC6
330
11DC8
100
AcDbEntity
  8
0
  6
ByBlock
 62
     0
370
    -2
380
     1
100
AcDbMText
 10
199.1734926266929
 20
491.9032066000006
 30
0.0
 40
2.5
 41
0.0
 71
     5
 72
     1
  1
\A1;502,01
 11
6.123031769111886E-17
 21
1.0
 31
0.0
 73
     1
 44
1.0
  0
ENDBLK
  5
11E98
330
11DC8
100
AcDbEntity
  8
0
100
AcDbBlockEnd
  0
BLOCK
  5
11E99
330
11DD3
100
AcDbEntity
  8
0
100
AcDbBlockBegin
  2
*D29
 70
     1
 10
0.0
 20
0.0
 30
0.0
  3
*D29
  1

  0
POINT
  5
11DCA
330
11DD3
100
AcDbEntity
  8
DEFPOINTS
  6
ByBlock
 62
     0
370
    25
380
     1
100
AcDbPoint
 10
1492.775170059244
 20
742.9058913196839
 30
0.0
  0
POINT
  5
11DCB
330
11DD3
100
AcDbEntity
  8
DEFPOINTS
  6
ByBlock
 62
     0
370
    25
380
     1
100
AcDbPoint
 10
586.5335339280007
 20
240.9005218803173
 30
0.0
  0
LINE
  5
11DCC
330
11DD3
100
AcDbEntity
  8
0
  6
ByBlock
 62
     0
370
    -2
380
     1
100
AcDbLine
 10
1492.150170059244
 20
742.9058913196839
 30
0.0
 11
200.0068259600262
 21
742.9058913196839
 31
0.0
  0
LINE
  5
11DCD
330
11DD3
100
AcDbEntity
  8
0
  6
ByBlock
 62
     0
370
    -2
380
     1
100
AcDbLine
 10
585.9085339280007
 20
240.9005218803173
 30
0.0
 11
200.0068259600262
 21
240.9005218803173
 31
0.0
  0
LINE
  5
11DCE
330
11DD3
100
AcDbEntity
  8
0
  6
ByBlock
 62
     0
370
    -2
380
     1
100
AcDbLine
 10
201.2568259600262
 20
732.9058913196839
 30
0.0
 11
201.2568259600262
 21
250.9005218803173
 31
0.0
  0
SOLID
  5
11DCF
330
11DD3
100
AcDbEntity
  8
0
  6
ByBlock
 62
     0
370
    25
380
     1
100
AcDbTrace
 10
201.2568259600262
 20
742.9058913196839
 30
0.0
 11
199.5901592933594
 21
732.9058913196839
 31
0.0
 12
202.9234926266929
 22
732.9058913196839
 32
0.0
 13
202.9234926266929
 23
732.9058913196839
 33
0.0
  0
SOLID
  5
11DD0
330
11DD3
100
AcDbEntity
  8
0
  6
ByBlock
 62
     0
370
    25
380
     1
100
AcDbTrace
 10
201.2568259600262
 20
240.9005218803173
 30
0.0
 11
199.5901592933594
 21
250.9005218803173
 31
0.0
 12
202.9234926266929
 22
250.9005218803173
 32
0.0
 13
202.9234926266929
 23
250.9005218803173
 33
0.0
  0
MTEXT
  5
11DD1
330
11DD3
100
AcDbEntity
  8
0
  6
ByBlock
 62
     0
370
    -2
380
     1
100
AcDbMText
 10
173.2568259600262
 20
491.9032066000006
 30
0.0
 40
36.0
 41
0.0
 71
     5
 72
     1
  1
\A1;502
 11
6.123031769111886E-17
 21
1.0
 31
0.0
 73
     1
 44
1.0
  0
ENDBLK
  5
11E9A
330
11DD3
100
AcDbEntity
  8
0
100
AcDbBlockEnd
  0
BLOCK
  5
11E9B
330
11DDE
100
AcDbEntity
  8
0
100
AcDbBlockBegin
  2
*D30
 70
     1
 10
0.0
 20
0.0
 30
0.0
  3
*D30
  1

  0
POINT
  5
11DD5
330
11DDE
100
AcDbEntity
  8
DEFPOINTS
  6
ByBlock
 62
     0
370
    25
380
     1
100
AcDbPoint
 10
299.3361935900605
 20
628.8118167440456
 30
0.0
  0
POINT
  5
11DD6
330
11DDE
100
AcDbEntity
  8
DEFPOINTS
  6
ByBlock
 62
     0
370
    25
380
     1
100
AcDbPoint
 10
1569.336069590061
 20
689.1683105804054
 30
0.0
  0
LINE
  5
11DD7
330
11DDE
100
AcDbEntity
  8
0
  6
ByBlock
 62
     0
370
    -2
380
     1
100
AcDbLine
 10
299.3361935900605
 20
629.4368167440456
 30
0.0
 11
299.3361935900605
 21
1008.232067931161
 31
0.0
  0
LINE
  5
11DD8
330
11DDE
100
AcDbEntity
  8
0
  6
ByBlock
 62
     0
370
    -2
380
     1
100
AcDbLine
 10
1569.336069590061
 20
689.7933105804054
 30
0.0
 11
1569.336069590061
 21
1008.232067931161
 31
0.0
  0
LINE
  5
11DD9
330
11DDE
100
AcDbEntity
  8
0
  6
ByBlock
 62
     0
370
    -2
380
     1
100
AcDbLine
 10
309.3361935900605
 20
1006.982067931161
 30
0.0
 11
1559.336069590061
 21
1006.982067931161
 31
0.0
  0
SOLID
  5
11DDA
330
11DDE
100
AcDbEntity
  8
0
  6
ByBlock
 62
     0
370
    25
380
     1
100
AcDbTrace
 10
299.3361935900605
 20
1006.982067931161
 30
0.0
 11
309.3361935900605
 21
1005.315401264495
 31
0.0
 12
309.3361935900605
 22
1008.648734597828
 32
0.0
 13
309.3361935900605
 23
1008.648734597828
 33
0.0
  0
SOLID
  5
11DDB
330
11DDE
100
AcDbEntity
  8
0
  6
ByBlock
 62
     0
370
    25
380
     1
100
AcDbTrace
 10
1569.336069590061
 20
1006.982067931161
 30
0.0
 11
1559.336069590061
 21
1005.315401264495
 31
0.0
 12
1559.336069590061
 22
1008.648734597828
 32
0.0
 13
1559.336069590061
 23
1008.648734597828
 33
0.0
  0
MTEXT
  5
11DDC
330
11DDE
100
AcDbEntity
  8
0
  6
ByBlock
 62
     0
370
    -2
380
     1
100
AcDbMText
 10
934.3361315900606
 20
1034.982067931161
 30
0.0
 40
36.0
 41
0.0
 71
     5
 72
     1
  1
\A1;1270
 73
     1
 44
1.0
  0
ENDBLK
  5
11E9C
330
11DDE
100
AcDbEntity
  8
0
100
AcDbBlockEnd
  0
BLOCK
  5
11E9D
330
11E37
100
AcDbEntity
  8
0
100
AcDbBlockBegin
  2
*D31
 70
     1
 10
0.0
 20
0.0
 30
0.0
  3
*D31
  1

  0
POINT
  5
11E2E
330
11E37
100
AcDbEntity
  8
DEFPOINTS
  6
ByBlock
 62
     0
370
    25
380
     1
100
AcDbPoint
 10
534.3361935900607
 20
247.9128985459765
 30
0.0
  0
POINT
  5
11E2F
330
11E37
100
AcDbEntity
  8
DEFPOINTS
  6
ByBlock
 62
     0
370
    25
380
     1
100
AcDbPoint
 10
604.3361935900607
 20
246.6905581159117
 30
0.0
  0
LINE
  5
11E30
330
11E37
100
AcDbEntity
  8
0
  6
ByBlock
 62
     0
370
    -2
380
     1
100
AcDbLine
 10
534.3361935900607
 20
247.2878985459765
 30
0.0
 11
534.3361935900607
 21
152.9367708039784
 31
0.0
  0
LINE
  5
11E31
330
11E37
100
AcDbEntity
  8
0
  6
ByBlock
 62
     0
370
    -2
380
     1
100
AcDbLine
 10
604.3361935900607
 20
246.0655581159117
 30
0.0
 11
604.3361935900607
 21
152.9367708039784
 31
0.0
  0
LINE
  5
11E32
330
11E37
100
AcDbEntity
  8
0
  6
ByBlock
 62
     0
370
    -2
380
     1
100
AcDbLine
 10
534.3361935900607
 20
154.1867708039784
 30
0.0
 11
604.3361935900607
 21
154.1867708039784
 31
0.0
  0
SOLID
  5
11E33
330
11E37
100
AcDbEntity
  8
0
  6
ByBlock
 62
     0
370
    25
380
     1
100
AcDbTrace
 10
534.3361935900607
 20
154.1867708039784
 30
0.0
 11
544.3361935900607
 21
152.5201041373117
 31
0.0
 12
544.3361935900607
 22
155.8534374706451
 32
0.0
 13
544.3361935900607
 23
155.8534374706451
 33
0.0
  0
SOLID
  5
11E34
330
11E37
100
AcDbEntity
  8
0
  6
ByBlock
 62
     0
370
    25
380
     1
100
AcDbTrace
 10
604.3361935900607
 20
154.1867708039784
 30
0.0
 11
594.3361935900607
 21
152.5201041373117
 31
0.0
 12
594.3361935900607
 22
155.8534374706451
 32
0.0
 13
594.3361935900607
 23
155.8534374706451
 33
0.0
  0
MTEXT
  5
11E35
330
11E37
100
AcDbEntity
  8
0
  6
ByBlock
 62
     0
370
    -2
380
     1
100
AcDbMText
 10
569.3361935900607
 20
182.1867708039784
 30
0.0
 40
36.0
 41
0.0
 71
     5
 72
     1
  1
Ø70
 73
     1
 44
1.0
  0
ENDBLK
  5
11E9E
330
11E37
100
AcDbEntity
  8
0
100
AcDbBlockEnd
  0
BLOCK
  5
11E9F
330
11E43
100
AcDbEntity
  8
0
100
AcDbBlockBegin
  2
*D32
 70
     1
 10
0.0
 20
0.0
 30
0.0
  3
*D32
  1

  0
POINT
  5
11E39
330
11E43
100
AcDbEntity
  8
DEFPOINTS
  6
ByBlock
 62
     0
370
    25
380
     1
100
AcDbPoint
 10
534.3361935900607
 20
247.9128985459765
 30
0.0
  0
POINT
  5
11E3A
330
11E43
100
AcDbEntity
  8
DEFPOINTS
  6
ByBlock
 62
     0
370
    25
380
     1
100
AcDbPoint
 10
604.3361935900607
 20
246.6905581159117
 30
0.0
  0
LINE
  5
11E3B
330
11E43
100
AcDbEntity
  8
0
  6
ByBlock
 62
     0
370
    -2
380
     1
100
AcDbLine
 10
534.3361935900607
 20
247.2878985459765
 30
0.0
 11
534.3361935900607
 21
180.9367708039784
 31
0.0
  0
LINE
  5
11E3C
330
11E43
100
AcDbEntity
  8
0
  6
ByBlock
 62
     0
370
    -2
380
     1
100
AcDbLine
 10
604.3361935900607
 20
246.0655581159117
 30
0.0
 11
604.3361935900607
 21
180.9367708039784
 31
0.0
  0
LINE
  5
11E3D
330
11E43
100
AcDbEntity
  8
0
  6
ByBlock
 62
     0
370
    -2
380
     1
100
AcDbLine
 10
544.3361935900607
 20
182.1867708039784
 30
0.0
 11
594.3361935900607
 21
182.1867708039784
 31
0.0
  0
LINE
  5
11E3E
330
11E43
100
AcDbEntity
  8
0
  6
ByBlock
 62
     0
370
    -2
380
     1
100
AcDbLine
 10
604.3361935900607
 20
182.1867708039784
 30
0.0
 11
736.6939505816364
 21
182.1867708039784
 31
0.0
  0
SOLID
  5
11E3F
330
11E43
100
AcDbEntity
  8
0
  6
ByBlock
 62
     0
370
    25
380
     1
100
AcDbTrace
 10
534.3361935900607
 20
182.1867708039784
 30
0.0
 11
544.3361935900607
 21
180.5201041373117
 31
0.0
 12
544.3361935900607
 22
183.8534374706451
 32
0.0
 13
544.3361935900607
 23
183.8534374706451
 33
0.0
  0
SOLID
  5
11E40
330
11E43
100
AcDbEntity
  8
0
  6
ByBlock
 62
     0
370
    25
380
     1
100
AcDbTrace
 10
604.3361935900607
 20
182.1867708039784
 30
0.0
 11
594.3361935900607
 21
180.5201041373117
 31
0.0
 12
594.3361935900607
 22
183.8534374706451
 32
0.0
 13
594.3361935900607
 23
183.8534374706451
 33
0.0
  0
MTEXT
  5
11E41
330
11E43
100
AcDbEntity
  8
0
  6
ByBlock
 62
     0
370
    -2
380
     1
100
AcDbMText
 10
681.6939505816364
 20
210.1867708039784
 30
0.0
 40
36.0
 41
0.0
 71
     5
 72
     1
  1
Ø70
 73
     1
 44
1.0
  0
ENDBLK
  5
11EA0
330
11E43
100
AcDbEntity
  8
0
100
AcDbBlockEnd
  0
BLOCK
  5
11EA1
330
11E4E
100
AcDbEntity
  8
0
100
AcDbBlockBegin
  2
*D33
 70
     1
 10
0.0
 20
0.0
 30
0.0
  3
*D33
  1

  0
POINT
  5
11E45
330
11E4E
100
AcDbEntity
  8
DEFPOINTS
  6
ByBlock
 62
     0
370
    25
380
     1
100
AcDbPoint
 10
1520.649707897795
 20
742.9058913196839
 30
0.0
  0
POINT
  5
11E46
330
11E4E
100
AcDbEntity
  8
DEFPOINTS
  6
ByBlock
 62
     0
370
    25
380
     1
100
AcDbPoint
 10
1512.743987755748
 20
672.9058913196836
 30
0.0
  0
LINE
  5
11E47
330
11E4E
100
AcDbEntity
  8
0
  6
ByBlock
 62
     0
370
    -2
380
     1
100
AcDbLine
 10
1521.274707897795
 20
742.9058913196839
 30
0.0
 11
1662.226240419134
 21
742.9058913196839
 31
0.0
  0
LINE
  5
11E48
330
11E4E
100
AcDbEntity
  8
0
  6
ByBlock
 62
     0
370
    -2
380
     1
100
AcDbLine
 10
1513.368987755748
 20
672.9058913196836
 30
0.0
 11
1662.226240419134
 21
672.9058913196836
 31
0.0
  0
LINE
  5
11E49
330
11E4E
100
AcDbEntity
  8
0
  6
ByBlock
 62
     0
370
    -2
380
     1
100
AcDbLine
 10
1660.976240419134
 20
742.9058913196839
 30
0.0
 11
1660.976240419134
 21
672.9058913196836
 31
0.0
  0
SOLID
  5
11E4A
330
11E4E
100
AcDbEntity
  8
0
  6
ByBlock
 62
     0
370
    25
380
     1
100
AcDbTrace
 10
1660.976240419134
 20
742.9058913196839
 30
0.0
 11
1659.309573752467
 21
732.9058913196839
 31
0.0
 12
1662.642907085801
 22
732.9058913196839
 32
0.0
 13
1662.642907085801
 23
732.9058913196839
 33
0.0
  0
SOLID
  5
11E4B
330
11E4E
100
AcDbEntity
  8
0
  6
ByBlock
 62
     0
370
    25
380
     1
100
AcDbTrace
 10
1660.976240419134
 20
672.9058913196836
 30
0.0
 11
1659.309573752467
 21
682.9058913196836
 31
0.0
 12
1662.642907085801
 22
682.9058913196836
 32
0.0
 13
1662.642907085801
 23
682.9058913196836
 33
0.0
  0
MTEXT
  5
11E4C
330
11E4E
100
AcDbEntity
  8
0
  6
ByBlock
 62
     0
370
    -2
380
     1
100
AcDbMText
 10
1632.976240419134
 20
707.9058913196837
 30
0.0
 40
36.0
 41
0.0
 71
     5
 72
     1
  1
Ø70
 11
6.123031769111886E-17
 21
1.0
 31
0.0
 73
     1
 44
1.0
  0
ENDBLK
  5
11EA2
330
11E4E
100
AcDbEntity
  8
0
100
AcDbBlockEnd
  0
BLOCK
  5
11EA3
330
11E5A
100
AcDbEntity
  8
0
100
AcDbBlockBegin
  2
*D34
 70
     1
 10
0.0
 20
0.0
 30
0.0
  3
*D34
  1

  0
POINT
  5
11E50
330
11E5A
100
AcDbEntity
  8
DEFPOINTS
  6
ByBlock
 62
     0
370
    25
380
     1
100
AcDbPoint
 10
1520.649707897795
 20
742.9058913196839
 30
0.0
  0
POINT
  5
11E51
330
11E5A
100
AcDbEntity
  8
DEFPOINTS
  6
ByBlock
 62
     0
370
    25
380
     1
100
AcDbPoint
 10
1512.743987755748
 20
672.9058913196836
 30
0.0
  0
LINE
  5
11E52
330
11E5A
100
AcDbEntity
  8
0
  6
ByBlock
 62
     0
370
    -2
380
     1
100
AcDbLine
 10
1521.274707897795
 20
742.9058913196839
 30
0.0
 11
1634.226240419134
 21
742.9058913196839
 31
0.0
  0
LINE
  5
11E53
330
11E5A
100
AcDbEntity
  8
0
  6
ByBlock
 62
     0
370
    -2
380
     1
100
AcDbLine
 10
1513.368987755748
 20
672.9058913196836
 30
0.0
 11
1634.226240419134
 21
672.9058913196836
 31
0.0
  0
LINE
  5
11E54
330
11E5A
100
AcDbEntity
  8
0
  6
ByBlock
 62
     0
370
    -2
380
     1
100
AcDbLine
 10
1632.976240419134
 20
732.9058913196839
 30
0.0
 11
1632.976240419134
 21
682.9058913196836
 31
0.0
  0
LINE
  5
11E55
330
11E5A
100
AcDbEntity
  8
0
  6
ByBlock
 62
     0
370
    -2
380
     1
100
AcDbLine
 10
1632.976240419134
 20
672.9058913196836
 30
0.0
 11
1632.976240419134
 21
579.9058913196836
 31
0.0
  0
SOLID
  5
11E56
330
11E5A
100
AcDbEntity
  8
0
  6
ByBlock
 62
     0
370
    25
380
     1
100
AcDbTrace
 10
1632.976240419134
 20
742.9058913196839
 30
0.0
 11
1631.309573752467
 21
732.9058913196839
 31
0.0
 12
1634.642907085801
 22
732.9058913196839
 32
0.0
 13
1634.642907085801
 23
732.9058913196839
 33
0.0
  0
SOLID
  5
11E57
330
11E5A
100
AcDbEntity
  8
0
  6
ByBlock
 62
     0
370
    25
380
     1
100
AcDbTrace
 10
1632.976240419134
 20
672.9058913196836
 30
0.0
 11
1631.309573752467
 21
682.9058913196836
 31
0.0
 12
1634.642907085801
 22
682.9058913196836
 32
0.0
 13
1634.642907085801
 23
682.9058913196836
 33
0.0
  0
MTEXT
  5
11E58
330
11E5A
100
AcDbEntity
  8
0
  6
ByBlock
 62
     0
370
    -2
380
     1
100
AcDbMText
 10
1604.976240419134
 20
607.9058913196836
 30
0.0
 40
36.0
 41
0.0
 71
     5
 72
     1
  1
Ø70
 11
6.123031769111886E-17
 21
1.0
 31
0.0
 73
     1
 44
1.0
  0
ENDBLK
  5
11EA4
330
11E5A
100
AcDbEntity
  8
0
100
AcDbBlockEnd
  0
ENDSEC
  0
SECTION
  2
ENTITIES
  0
POINT
  5
118C6
330
1F
100
AcDbEntity
  8
0
 62
     7
370
    60
390
F
100
AcDbPoint
 10
1369.336193590061
 20
743.4058913196836
 30
0.0
  0
ARC
  5
118C8
330
1F
100
AcDbEntity
  8
0
 62
     7
370
    60
390
F
100
AcDbCircle
 10
569.3361935900607
 20
970.6475913196841
 30
0.0
 40
435.0
100
AcDbArc
 50
274.614992
 51
289.471221
  0
ARC
  5
118C9
330
1F
100
AcDbEntity
  8
0
 62
     7
370
    60
390
F
100
AcDbCircle
 10
569.3361935900607
 20
970.6475913196841
 30
0.0
 40
365.0
100
AcDbArc
 50
250.528781
 51
289.471221
  0
ARC
  5
118CA
330
1F
100
AcDbEntity
  8
0
 62
     7
370
    60
390
F
100
AcDbCircle
 10
569.3361935900607
 20
970.6475913196841
 30
0.0
 40
435.0
100
AcDbArc
 50
250.528781
 51
265.385009
  0
ARC
  5
118CB
330
1F
100
AcDbEntity
  8
0
 62
     7
370
    60
390
F
100
AcDbCircle
 10
-230.6638064099394
 20
-1292.094108680316
 30
0.0
 40
1965.0
100
AcDbArc
 50
74.20092800000002
 51
74.352387
  0
ARC
  5
118CC
330
1F
100
AcDbEntity
  8
0
 62
     7
370
    60
390
F
100
AcDbCircle
 10
-230.6638064099394
 20
-1292.094108680316
 30
0.0
 40
2035.0
100
AcDbArc
 50
70.528779
 51
74.90369300000002
  0
ARC
  5
118CD
330
1F
100
AcDbEntity
  8
0
 62
     7
370
    60
390
F
100
AcDbCircle
 10
-230.6638064099394
 20
-1292.094108680316
 30
0.0
 40
1965.0
100
AcDbArc
 50
70.528779
 51
73.89766800000001
  0
ARC
  5
118D6
330
1F
100
AcDbEntity
  8
0
 62
     7
370
    60
390
F
100
AcDbCircle
 10
1369.336193590061
 20
-1292.094108680316
 30
0.0
 40
2035.0
100
AcDbArc
 50
90.00000299999999
 51
109.471219
  0
ARC
  5
118D7
330
1F
100
AcDbEntity
  8
0
 62
     7
370
    60
390
F
100
AcDbCircle
 10
1369.336193590061
 20
-1292.094108680316
 30
0.0
 40
1965.0
100
AcDbArc
 50
90.00000299999999
 51
109.471219
  0
LINE
  5
118D8
330
1F
100
AcDbEntity
  8
0
 62
     7
370
    60
390
F
100
AcDbLine
 10
604.3361935900607
 20
537.0578693196837
 30
0.0
 11
604.3361935900607
 21
274.1861653196837
 31
0.0
  0
LINE
  5
118DA
330
1F
100
AcDbEntity
  8
0
 62
     7
 48
0.334375
370
    60
390
F
100
AcDbLine
 10
604.3361935900607
 20
267.6861653196837
 30
0.0
 11
604.3361935900607
 21
240.9361653196837
 31
0.0
  0
LINE
  5
118DB
330
1F
100
AcDbEntity
  8
0
 62
     7
370
    60
390
F
100
AcDbLine
 10
534.3361935900607
 20
537.0578693196837
 30
0.0
 11
534.3361935900607
 21
240.9361653196837
 31
0.0
  0
LINE
  5
118F1
330
1F
100
AcDbEntity
  8
0
 62
     7
370
    60
390
F
100
AcDbLine
 10
299.3361935900605
 20
672.6768873196836
 30
0.0
 11
299.3361935900605
 21
600.0805733196839
 31
0.0
  0
LINE
  5
118FC
330
1F
100
AcDbEntity
  8
0
 62
     7
370
    60
390
F
100
AcDbLine
 10
1569.336069590061
 20
742.9058913196839
 30
0.0
 11
1369.336193590061
 21
742.9058913196839
 31
0.0
  0
LINE
  5
118FD
330
1F
100
AcDbEntity
  8
0
 62
     7
370
    60
390
F
100
AcDbLine
 10
1569.336069590061
 20
672.9058913196836
 30
0.0
 11
1369.336193590061
 21
672.9058913196836
 31
0.0
  0
LINE
  5
11901
330
1F
100
AcDbEntity
  8
0
 62
     7
 48
0.0375
370
    60
390
F
100
AcDbLine
 10
534.3361935900607
 20
240.9361653196837
 30
0.0
 11
604.3361935900607
 21
240.8883651685746
 31
0.0
  0
LINE
  5
1193F
330
1F
100
AcDbEntity
  8
0
 62
     7
 48
0.05
370
    60
390
F
100
AcDbLine
 10
1569.336069590061
 20
676.9058913196839
 30
0.0
 11
1569.336069590061
 21
672.9058913196836
 31
0.0
  0
LINE
  5
11940
330
1F
100
AcDbEntity
  8
0
 62
     7
370
    60
390
F
100
AcDbLine
 10
1569.336069590061
 20
738.9058913196836
 30
0.0
 11
1569.336069590061
 21
676.9058913196839
 31
0.0
  0
LINE
  5
11941
330
1F
100
AcDbEntity
  8
0
 62
     7
 48
0.05
370
    60
390
F
100
AcDbLine
 10
1569.336069590061
 20
742.9058913196839
 30
0.0
 11
1569.336069590061
 21
738.9058913196836
 31
0.0
  0
LINE
  5
1199A
330
1F
100
AcDbEntity
  8
0
 62
     7
 48
0.08125
370
    60
390
F
100
AcDbLine
 10
610.8361935900607
 20
278.4417193196837
 30
0.0
 11
604.3361935900607
 21
278.4417193196837
 31
0.0
  0
LINE
  5
1199B
330
1F
100
AcDbEntity
  8
0
 62
     7
 48
0.053194
370
    60
390
F
100
AcDbLine
 10
604.3361935900607
 20
267.6861653196837
 30
0.0
 11
604.3361935900607
 21
263.4306113196836
 31
0.0
  0
LINE
  5
1199C
330
1F
100
AcDbEntity
  8
0
 62
     7
 48
0.08125
370
    60
390
F
100
AcDbLine
 10
604.3361935900607
 20
274.1861653196837
 30
0.0
 11
604.3361935900607
 21
267.6861653196837
 31
0.0
  0
LINE
  5
1199D
330
1F
100
AcDbEntity
  8
0
 62
     7
 48
0.053194
370
    60
390
F
100
AcDbLine
 10
604.3361935900607
 20
278.4417193196837
 30
0.0
 11
604.3361935900607
 21
274.1861653196837
 31
0.0
  0
LINE
  5
1199E
330
1F
100
AcDbEntity
  8
0
 62
     7
 48
0.08125
370
    60
390
F
100
AcDbLine
 10
610.8361935900607
 20
263.4306113196836
 30
0.0
 11
604.3361935900607
 21
263.4306113196836
 31
0.0
  0
LINE
  5
1199F
330
1F
100
AcDbEntity
  8
0
 62
     7
 48
0.053194
370
    60
390
F
100
AcDbLine
 10
610.8361935900607
 20
267.6861653196837
 30
0.0
 11
610.8361935900607
 21
263.4306113196836
 31
0.0
  0
LINE
  5
119A0
330
1F
100
AcDbEntity
  8
0
 62
     7
 48
0.08125
370
    60
390
F
100
AcDbLine
 10
610.8361935900607
 20
274.1861653196837
 30
0.0
 11
610.8361935900607
 21
267.6861653196837
 31
0.0
  0
LINE
  5
119A1
330
1F
100
AcDbEntity
  8
0
 62
     7
 48
0.053194
370
    60
390
F
100
AcDbLine
 10
610.8361935900607
 20
278.4417193196837
 30
0.0
 11
610.8361935900607
 21
274.1861653196837
 31
0.0
  0
LINE
  5
119A7
330
1F
100
AcDbEntity
  8
0
 62
     7
 48
0.025
370
    60
390
F
100
AcDbLine
 10
353.3764755900606
 20
582.0217353196836
 30
0.0
 11
354.0792884243684
 21
583.7022584245012
 31
0.0
  0
ARC
  5
119A8
330
1F
100
AcDbEntity
  8
0
 62
     7
370
    60
390
F
100
AcDbCircle
 10
234.3000595900606
 20
306.6659013196837
 30
0.0
 40
300.0
100
AcDbArc
 50
6.559455000000001
 51
66.614131
  0
LINE
  5
119A9
330
1F
100
AcDbEntity
  8
0
 62
     7
 48
0.025
370
    60
390
F
100
AcDbLine
 10
534.3361935900607
 20
340.9361653196837
 30
0.0
 11
532.3361935900607
 21
340.9361653196837
 31
0.0
  0
LINE
  5
119AA
330
1F
100
AcDbEntity
  8
0
 62
     7
370
    60
390
F
100
AcDbLine
 10
534.3361935900607
 20
530.6157313196838
 30
0.0
 11
534.3361935900607
 21
340.9361653196837
 31
0.0
  0
LINE
  5
119AE
330
1F
100
AcDbEntity
  8
0
 62
     7
 48
0.025
370
    60
390
F
100
AcDbLine
 10
785.2959095900605
 20
582.0216339351912
 30
0.0
 11
785.0052963991361
 21
582.821393300916
 31
0.0
  0
ARC
  5
119AF
330
1F
100
AcDbEntity
  8
0
 62
     7
370
    60
390
F
100
AcDbCircle
 10
904.3723255900607
 20
306.6659013196837
 30
0.0
 40
300.0
100
AcDbArc
 50
113.385867
 51
173.440551
  0
LINE
  5
119B0
330
1F
100
AcDbEntity
  8
0
 62
     7
 48
0.025
370
    60
390
F
100
AcDbLine
 10
606.3361935900607
 20
340.9361653196837
 30
0.0
 11
604.3361935900607
 21
340.9361653196837
 31
0.0
  0
LINE
  5
119B1
330
1F
100
AcDbEntity
  8
0
 62
     7
370
    60
390
F
100
AcDbLine
 10
604.3361935900607
 20
530.6157313196838
 30
0.0
 11
604.3361935900607
 21
340.9361653196837
 31
0.0
  0
LINE
  5
11C3D
330
1F
100
AcDbEntity
  8
0
 62
     7
370
    60
100
AcDbLine
 10
314.3361935900607
 20
595.8148273196839
 30
0.0
 11
304.3362549929436
 21
598.6729140643981
 31
0.0
  0
DIMENSION
  5
11C93
330
1F
100
AcDbEntity
  8
0
100
AcDbDimension
  2
*D32
 10
604.3361935900607
 20
182.1867708039784
 30
0.0
 11
681.6939505816364
 21
210.1867708039784
 31
0.0
 70
   160
  1
Ø70
 71
     5
 41
2.5
 42
70.0
  3
Standard
100
AcDbAlignedDimension
 13
534.3361935900607
 23
247.9128985459765
 33
0.0
 14
604.3361935900607
 24
246.6905581159117
 34
0.0
100
AcDbRotatedDimension
1001
ACAD
1000
DSTYLE
1002
{
1070
    41
1040
10.0
1070
    42
1040
0.625
1070
    43
1040
3.75
1070
    44
1040
1.25
1070
    73
1070
     0
1070
    74
1070
     0
1070
    77
1070
     1
1070
    78
1070
     8
1070
   140
1040
36.0
1070
   141
1040
2.5
1070
   143
1040
0.03937
1070
   147
1040
10.0
1070
   171
1070
     3
1070
   172
1070
     1
1070
   271
1070
     0
1070
   272
1070
     2
1070
   274
1070
     3
1070
   278
1070
    44
1070
   283
1070
     0
1070
   284
1070
     8
1070
   289
1070
     0
1002
}
  0
DIMENSION
  5
11C9F
330
1F
100
AcDbEntity
  8
0
370
    25
100
AcDbDimension
  2
*D30
 10
1569.336069590061
 20
1006.982067931161
 30
0.0
 11
934.3361315900606
 21
1034.982067931161
 31
0.0
 70
   160
 71
     5
 41
2.5
 42
1269.999876000001
  3
Standard
100
AcDbAlignedDimension
 13
299.3361935900605
 23
628.8118167440456
 33
0.0
 14
1569.336069590061
 24
689.1683105804054
 34
0.0
100
AcDbRotatedDimension
1001
ACAD
1000
DSTYLE
1002
{
1070
    41
1040
10.0
1070
    42
1040
0.625
1070
    43
1040
3.75
1070
    44
1040
1.25
1070
    73
1070
     0
1070
    74
1070
     0
1070
    77
1070
     1
1070
    78
1070
     8
1070
   140
1040
36.0
1070
   141
1040
2.5
1070
   143
1040
0.03937
1070
   147
1040
10.0
1070
   171
1070
     3
1070
   172
1070
     1
1070
   271
1070
     0
1070
   272
1070
     2
1070
   274
1070
     3
1070
   278
1070
    44
1070
   283
1070
     0
1070
   284
1070
     8
1070
   289
1070
     0
1002
}
  0
DIMENSION
  5
11CD0
330
1F
100
AcDbEntity
  8
0
370
    25
100
AcDbDimension
  2
*D34
 10
1632.976240419134
 20
672.9058913196836
 30
0.0
 11
1604.976240419134
 21
607.9058913196836
 31
0.0
 70
   160
  1
Ø70
 71
     5
 41
2.5
 42
70.00000000000023
  3
Standard
100
AcDbAlignedDimension
 13
1520.649707897795
 23
742.9058913196839
 33
0.0
 14
1512.743987755748
 24
672.9058913196836
 34
0.0
 50
90.0
100
AcDbRotatedDimension
1001
ACAD
1000
DSTYLE
1002
{
1070
    41
1040
10.0
1070
    42
1040
0.625
1070
    43
1040
3.75
1070
    44
1040
1.25
1070
    73
1070
     0
1070
    74
1070
     0
1070
    77
1070
     1
1070
    78
1070
     8
1070
   140
1040
36.0
1070
   141
1040
2.5
1070
   143
1040
0.03937
1070
   147
1040
10.0
1070
   171
1070
     3
1070
   172
1070
     1
1070
   271
1070
     0
1070
   272
1070
     2
1070
   274
1070
     3
1070
   278
1070
    44
1070
   283
1070
     0
1070
   284
1070
     8
1070
   289
1070
     0
1002
}
  0
LINE
  5
11D29
330
1F
100
AcDbEntity
  8
0
  6
DASHDOT
370
    25
100
AcDbLine
 10
569.3361999605125
 20
629.2264808379525
 30
0.0
 11
569.3361999605125
 21
218.6616888315716
 31
0.0
  0
DIMENSION
  5
11D35
330
1F
100
AcDbEntity
  8
0
370
    25
100
AcDbDimension
  2
*D18
 10
1569.336069590061
 20
923.9910709092554
 30
0.0
 11
1069.336134775287
 21
951.9910709092554
 31
0.0
 70
    32
 71
     5
 41
2.5
 42
999.9998696295485
  3
Standard
100
AcDbAlignedDimension
 13
569.3361999605125
 23
607.0538571680203
 33
0.0
 14
1569.336069590061
 24
703.6402929749676
 34
0.0
100
AcDbRotatedDimension
1001
ACAD
1000
DSTYLE
1002
{
1070
    41
1040
10.0
1070
    42
1040
0.625
1070
    43
1040
3.75
1070
    44
1040
1.25
1070
    73
1070
     0
1070
    74
1070
     0
1070
    77
1070
     1
1070
    78
1070
     8
1070
   140
1040
36.0
1070
   141
1040
2.5
1070
   143
1040
0.03937
1070
   147
1040
10.0
1070
   171
1070
     3
1070
   172
1070
     1
1070
   271
1070
     0
1070
   272
1070
     2
1070
   274
1070
     3
1070
   278
1070
    44
1070
   283
1070
     0
1070
   284
1070
     8
1070
   289
1070
     0
1002
}
  0
DIMENSION
  5
11D7A
330
1F
100
AcDbEntity
  8
0
370
    25
100
AcDbDimension
  2
*D26
 10
1369.217574260754
 20
830.4087014368149
 30
0.0
 11
1469.276821925407
 21
858.4087014368149
 31
0.0
 70
    32
 71
     5
 41
2.5
 42
200.1184953293071
  3
Standard
100
AcDbAlignedDimension
 13
1569.336069590061
 23
709.0011437920878
 33
0.0
 14
1369.217574260754
 24
742.9058878625474
 34
0.0
100
AcDbRotatedDimension
1001
ACAD
1000
DSTYLE
1002
{
1070
    41
1040
10.0
1070
    42
1040
0.625
1070
    43
1040
3.75
1070
    44
1040
1.25
1070
    73
1070
     0
1070
    74
1070
     0
1070
    77
1070
     1
1070
    78
1070
     8
1070
   140
1040
36.0
1070
   141
1040
2.5
1070
   143
1040
0.03937
1070
   147
1040
10.0
1070
   171
1070
     3
1070
   172
1070
     1
1070
   271
1070
     0
1070
   272
1070
     2
1070
   274
1070
     3
1070
   278
1070
    44
1070
   283
1070
     0
1070
   284
1070
     8
1070
   289
1070
     0
1002
}
  0
DIMENSION
  5
11DBD
330
1F
100
AcDbEntity
  8
0
370
    25
100
AcDbDimension
  2
*D29
 10
201.2568259600262
 20
240.9005218803173
 30
0.0
 11
173.2568259600262
 21
491.9032066000006
 31
0.0
 70
    32
 71
     5
 41
2.5
 42
502.0053694393666
  3
Standard
100
AcDbAlignedDimension
 13
1492.775170059244
 23
742.9058913196839
 33
0.0
 14
586.5335339280007
 24
240.9005218803173
 34
0.0
 50
90.0
100
AcDbRotatedDimension
1001
ACAD
1000
DSTYLE
1002
{
1070
    41
1040
10.0
1070
    42
1040
0.625
1070
    43
1040
3.75
1070
    44
1040
1.25
1070
    73
1070
     0
1070
    74
1070
     0
1070
    77
1070
     1
1070
    78
1070
     8
1070
   140
1040
36.0
1070
   141
1040
2.5
1070
   143
1040
0.03937
1070
   147
1040
10.0
1070
   171
1070
     3
1070
   172
1070
     1
1070
   271
1070
     0
1070
   272
1070
     2
1070
   274
1070
     3
1070
   278
1070
    44
1070
   283
1070
     0
1070
   284
1070
     8
1070
   289
1070
     0
1002
}
  0
VIEWPORT
  5
11BD5
330
73
100
AcDbEntity
 67
     1
  8
0
 62
     0
370
     0
390
F
100
AcDbViewport
 10
0.0
 20
0.0
 30
0.0
 40
1000.0
 41
1000.0
 68
     1
 69
     1
 12
0.0
 22
0.0
 13
0.0
 23
0.0
 14
1.0
 24
1.0
 15
1.0
 25
1.0
 16
0.0
 26
0.0
 36
1.0
 17
0.0
 27
0.0
 37
0.0
 42
50.0
 43
0.0
 44
0.0
 45
1000.0
 50
0.0
 51
0.0
 72
   100
 90
   557056
  1

281
     0
 71
     0
 74
     0
110
0.0
120
0.0
130
0.0
111
1.0
121
0.0
131
0.0
112
0.0
122
1.0
132
0.0
 79
     0
146
0.0
170
     0
  0
ENDSEC
  0
SECTION
  2
OBJECTS
  0
DICTIONARY
  5
C
330
0
100
AcDbDictionary
281
     1
  3
ACAD_COLOR
350
6C
  3
ACAD_GROUP
350
D
  3
ACAD_LAYOUT
350
1A
  3
ACAD_MATERIAL
350
6B
  3
ACAD_MLEADERSTYLE
350
11BFB
  3
ACAD_MLINESTYLE
350
17
  3
ACAD_PLOTSETTINGS
350
19
  3
ACAD_PLOTSTYLENAME
350
E
  3
ACAD_SCALELIST
350
99
  3
ACAD_TABLESTYLE
350
92
  3
ACAD_VISUALSTYLE
350
11C19
  3
ACAD_WIPEOUT_VARS
350
11E5E
  3
ACDB_RECOMPOSE_DATA
350
11C48
  3
AcDbVariableDictionary
350
59
  0
DICTIONARY
  5
11EAD
330
8
100
AcDbDictionary
280
     1
281
     1
  3
ACAD_XREC_ROUNDTRIP
360
11EAE
  0
DICTIONARY
  5
6C
102
{ACAD_REACTORS
330
C
102
}
330
C
100
AcDbDictionary
281
     1
  0
DICTIONARY
  5
D
102
{ACAD_REACTORS
330
C
102
}
330
C
100
AcDbDictionary
281
     1
  0
DICTIONARY
  5
1A
102
{ACAD_REACTORS
330
C
102
}
330
C
100
AcDbDictionary
281
     1
  3
Layout1
350
74
  3
Model
350
22
  0
DICTIONARY
  5
6B
102
{ACAD_REACTORS
330
C
102
}
330
C
100
AcDbDictionary
281
     1
  3
ByBlock
350
11C09
  3
ByLayer
350
11C01
  3
Global
350
11C11
  0
DICTIONARY
  5
11BFB
102
{ACAD_REACTORS
330
C
102
}
330
C
100
AcDbDictionary
281
     1
  3
Standard
350
11C2C
  0
DICTIONARY
  5
17
102
{ACAD_REACTORS
330
C
102
}
330
C
100
AcDbDictionary
281
     1
  3
Standard
350
18
  0
DICTIONARY
  5
19
102
{ACAD_REACTORS
330
C
102
}
330
C
100
AcDbDictionary
281
     1
  0
ACDBDICTIONARYWDFLT
  5
E
102
{ACAD_REACTORS
330
C
102
}
330
C
100
AcDbDictionary
281
     1
  3
Normal
350
F
100
AcDbDictionaryWithDefault
340
F
  0
DICTIONARY
  5
99
102
{ACAD_REACTORS
330
C
102
}
330
C
100
AcDbDictionary
281
     1
  3
A0
350
11BD7
  3
A1
350
11BD8
  3
A2
350
11BD9
  3
A3
350
11BDA
  3
A4
350
11BDB
  3
A5
350
11BDC
  3
A6
350
11BDD
  3
A7
350
11BDE
  3
A8
350
11BDF
  3
A9
350
11BE0
  3
B0
350
11BE1
  3
B1
350
11BE2
  3
B2
350
11BE3
  3
B3
350
11BE4
  3
B4
350
11BE5
  3
B5
350
11BE6
  3
B6
350
11BE7
  3
B7
350
11BE8
  3
B8
350
11BE9
  3
B9
350
11BEA
  3
C0
350
11BEB
  3
C1
350
11BEC
  3
C2
350
11BED
  3
C3
350
11BEE
  3
C4
350
11BEF
  3
C5
350
11BF0
  3
C6
350
11BF1
  3
C7
350
11BF2
  3
C8
350
11BF3
  3
C9
350
11BF4
  3
D0
350
11BF5
  3
D1
350
11BF6
  3
D2
350
11BF7
  0
DICTIONARY
  5
92
102
{ACAD_REACTORS
330
C
102
}
330
C
100
AcDbDictionary
281
     1
  3
Standard
350
11C2B
  0
DICTIONARY
  5
11C19
102
{ACAD_REACTORS
330
C
102
}
330
C
100
AcDbDictionary
281
     1
  3
2dWireframe
350
11C1F
  3
3D Hidden
350
11C21
  3
3dWireframe
350
11C20
  3
Basic
350
11C1E
  3
Brighten
350
11C25
  3
ColorChange
350
11C29
  3
Conceptual
350
11C22
  3
Dim
350
11C24
  3
Facepattern
350
11C28
  3
Flat
350
11C1A
  3
FlatWithEdges
350
11C1B
  3
Gouraud
350
11C1C
  3
GouraudWithEdges
350
11C1D
  3
Linepattern
350
11C27
  3
Realistic
350
11C23
  3
Thicken
350
11C26
  0
WIPEOUTVARIABLES
  5
11E5E
102
{ACAD_REACTORS
330
C
102
}
330
C
100
AcDbWipeoutVariables
 70
     1
  0
XRECORD
  5
11C48
102
{ACAD_REACTORS
330
C
102
}
330
C
100
AcDbXrecord
280
     1
 90
        1
330
11C2B
  0
DICTIONARY
  5
59
102
{ACAD_REACTORS
330
C
102
}
330
C
100
AcDbDictionary
281
     1
  3
CANNOSCALE
350
11BF9
  3
CTABLESTYLE
350
11C40
  3
DIMASSOC
350
5A
  3
HIDETEXT
350
5E
  3
LAYEREVAL
350
11C44
  3
LAYERNOTIFY
350
11C45
  3
LIGHTINGUNITS
350
11C43
  3
MSLTSCALE
350
11C42
  0
XRECORD
  5
11EAE
102
{ACAD_REACTORS
330
11EAD
102
}
330
11EAD
100
AcDbXrecord
280
     1
102
VTR_0.000_0.000_1.000_1.000_VISUALSTYLE
340
11C1F
102
VTR_0.000_0.000_1.000_1.000_GRIDDISPLAY
 70
     3
102
VTR_0.000_0.000_1.000_1.000_GRIDMAJOR
 70
     5
102
VTR_0.000_0.000_1.000_1.000_DEFAULTLIGHTING
280
     1
102
VTR_0.000_0.000_1.000_1.000_DEFAULTLIGHTINGTYPE
 70
     1
102
VTR_0.000_0.000_1.000_1.000_BRIGHTNESS
141
0.0
102
VTR_0.000_0.000_1.000_1.000_CONTRAST
142
0.0
  0
LAYOUT
  5
74
102
{ACAD_REACTORS
330
1A
102
}
330
1A
100
AcDbPlotSettings
  1

  2
none_device
  4
none_user_media
  6

 40
0.0
 41
0.0
 42
0.0
 43
0.0
 44
0.0
 45
0.0
 46
0.0
 47
0.0
 48
0.0
 49
0.0
140
0.0
141
0.0
142
1.0
143
1.0
 70
   544
 72
     0
 73
     0
 74
     0
  7

 75
    16
 76
     0
 77
     2
 78
   300
147
1.0
148
0.0
149
0.0
100
AcDbLayout
  1
Layout1
 70
     1
 71
     1
 10
0.0
 20
0.0
 11
420.0
 21
297.0
 12
0.0
 22
0.0
 32
0.0
 14
0.0
 24
0.0
 34
0.0
 15
1189.0
 25
841.0
 35
2.0
146
0.0
 13
0.0
 23
0.0
 33
0.0
 16
1.0
 26
0.0
 36
0.0
 17
0.0
 27
1.0
 37
0.0
 76
     0
330
73
331
11BD5
  0
LAYOUT
  5
22
102
{ACAD_REACTORS
330
1A
102
}
330
1A
100
AcDbPlotSettings
  1

  2
none_device
  4
none_user_media
  6

 40
6.349999904632568
 41
6.349999904632568
 42
6.350006103515625
 43
6.350006103515625
 44
215.8999938964844
 45
279.3999938964844
 46
0.0
 47
0.0
 48
0.0
 49
0.0
140
0.0
141
0.0
142
1.0
143
1.0
 70
 11936
 72
     0
 73
     0
 74
     0
  7

 75
     0
 76
     0
 77
     2
 78
   300
147
0.0571335095843219
148
0.0
149
0.0
100
AcDbLayout
  1
Model
 70
     1
 71
     0
 10
0.0
 20
0.0
 11
420.0
 21
297.0
 12
0.0
 22
0.0
 32
0.0
 14
155.2568259600262
 24
152.5201041373117
 34
0.0
 15
1662.642907085801
 25
1052.982067931161
 35
0.0
146
0.0
 13
0.0
 23
0.0
 33
0.0
 16
1.0
 26
0.0
 36
0.0
 17
0.0
 27
1.0
 37
0.0
 76
     0
330
1F
331
97
  0
MATERIAL
  5
11C09
102
{ACAD_REACTORS
330
6B
102
}
102
{ACAD_XDICTIONARY
360
11EA5
102
}
330
6B
100
AcDbMaterial
  1
ByBlock
 72
     0
 43
0.0208333333333333
 43
0.0
 43
0.0
 43
0.0
 43
0.0
 43
0.0208333333333333
 43
0.0
 43
0.0
 43
0.0
 43
0.0
 43
1.0
 43
0.0
 43
0.0
 43
0.0
 43
0.0
 43
1.0
 77
     0
 47
0.0208333333333333
 47
0.0
 47
0.0
 47
0.0
 47
0.0
 47
0.0208333333333333
 47
0.0
 47
0.0
 47
0.0
 47
0.0
 47
1.0
 47
0.0
 47
0.0
 47
0.0
 47
0.0
 47
1.0
171
     0
 49
0.0208333333333333
 49
0.0
 49
0.0
 49
0.0
 49
0.0
 49
0.0208333333333333
 49
0.0
 49
0.0
 49
0.0
 49
0.0
 49
1.0
 49
0.0
 49
0.0
 49
0.0
 49
0.0
 49
1.0
175
     0
142
0.0208333333333333
142
0.0
142
0.0
142
0.0
142
0.0
142
0.0208333333333333
142
0.0
142
0.0
142
0.0
142
0.0
142
1.0
142
0.0
142
0.0
142
0.0
142
0.0
142
1.0
179
     0
144
0.0208333333333333
144
0.0
144
0.0
144
0.0
144
0.0
144
0.0208333333333333
144
0.0
144
0.0
144
0.0
144
0.0
144
1.0
144
0.0
144
0.0
144
0.0
144
0.0
144
1.0
147
0.0208333333333333
147
0.0
147
0.0
147
0.0
147
0.0
147
0.0208333333333333
147
0.0
147
0.0
147
0.0
147
0.0
147
1.0
147
0.0
147
0.0
147
0.0
147
0.0
147
1.0
  0
MATERIAL
  5
11C01
102
{ACAD_REACTORS
330
6B
102
}
102
{ACAD_XDICTIONARY
360
11EA7
102
}
330
6B
100
AcDbMaterial
  1
ByLayer
 72
     0
 43
0.0208333333333333
 43
0.0
 43
0.0
 43
0.0
 43
0.0
 43
0.0208333333333333
 43
0.0
 43
0.0
 43
0.0
 43
0.0
 43
1.0
 43
0.0
 43
0.0
 43
0.0
 43
0.0
 43
1.0
 77
     0
 47
0.0208333333333333
 47
0.0
 47
0.0
 47
0.0
 47
0.0
 47
0.0208333333333333
 47
0.0
 47
0.0
 47
0.0
 47
0.0
 47
1.0
 47
0.0
 47
0.0
 47
0.0
 47
0.0
 47
1.0
171
     0
 49
0.0208333333333333
 49
0.0
 49
0.0
 49
0.0
 49
0.0
 49
0.0208333333333333
 49
0.0
 49
0.0
 49
0.0
 49
0.0
 49
1.0
 49
0.0
 49
0.0
 49
0.0
 49
0.0
 49
1.0
175
     0
142
0.0208333333333333
142
0.0
142
0.0
142
0.0
142
0.0
142
0.0208333333333333
142
0.0
142
0.0
142
0.0
142
0.0
142
1.0
142
0.0
142
0.0
142
0.0
142
0.0
142
1.0
179
     0
144
0.0208333333333333
144
0.0
144
0.0
144
0.0
144
0.0
144
0.0208333333333333
144
0.0
144
0.0
144
0.0
144
0.0
144
1.0
144
0.0
144
0.0
144
0.0
144
0.0
144
1.0
147
0.0208333333333333
147
0.0
147
0.0
147
0.0
147
0.0
147
0.0208333333333333
147
0.0
147
0.0
147
0.0
147
0.0
147
1.0
147
0.0
147
0.0
147
0.0
147
0.0
147
1.0
  0
MATERIAL
  5
11C11
102
{ACAD_REACTORS
330
6B
102
}
102
{ACAD_XDICTIONARY
360
11EA9
102
}
330
6B
100
AcDbMaterial
  1
Global
 72
     0
 43
0.0208333333333333
 43
0.0
 43
0.0
 43
0.0
 43
0.0
 43
0.0208333333333333
 43
0.0
 43
0.0
 43
0.0
 43
0.0
 43
1.0
 43
0.0
 43
0.0
 43
0.0
 43
0.0
 43
1.0
 77
     0
 47
0.0208333333333333
 47
0.0
 47
0.0
 47
0.0
 47
0.0
 47
0.0208333333333333
 47
0.0
 47
0.0
 47
0.0
 47
0.0
 47
1.0
 47
0.0
 47
0.0
 47
0.0
 47
0.0
 47
1.0
171
     0
 49
0.0208333333333333
 49
0.0
 49
0.0
 49
0.0
 49
0.0
 49
0.0208333333333333
 49
0.0
 49
0.0
 49
0.0
 49
0.0
 49
1.0
 49
0.0
 49
0.0
 49
0.0
 49
0.0
 49
1.0
175
     0
142
0.0208333333333333
142
0.0
142
0.0
142
0.0
142
0.0
142
0.0208333333333333
142
0.0
142
0.0
142
0.0
142
0.0
142
1.0
142
0.0
142
0.0
142
0.0
142
0.0
142
1.0
179
     0
144
0.0208333333333333
144
0.0
144
0.0
144
0.0
144
0.0
144
0.0208333333333333
144
0.0
144
0.0
144
0.0
144
0.0
144
1.0
144
0.0
144
0.0
144
0.0
144
0.0
144
1.0
147
0.0208333333333333
147
0.0
147
0.0
147
0.0
147
0.0
147
0.0208333333333333
147
0.0
147
0.0
147
0.0
147
0.0
147
1.0
147
0.0
147
0.0
147
0.0
147
0.0
147
1.0
  0
MLEADERSTYLE
  5
11C2C
102
{ACAD_REACTORS
330
11BFB
102
}
330
11BFB
100
AcDbMLeaderStyle
170
     2
171
     1
172
     0
 90
        2
 40
0.0
 41
0.0
173
     1
 91
-1056964608
340
11
 92
       -2
290
     1
 42
2.0
291
     1
 43
0.36
  3
Standard
341
0
 44
4.0
300

342
17
174
     1
178
     6
175
     1
176
     0
 93
-1056964608
 45
4.0
292
     0
297
     0
 46
4.0
343
0
 94
-1056964608
 47
1.0
 49
1.0
140
1.0
293
     1
141
0.0
294
     1
177
     0
142
1.0
295
     0
296
     0
143
0.125
1001
ACAD_MLEADERVER
1070
     2
  0
MLINESTYLE
  5
18
102
{ACAD_REACTORS
330
17
102
}
330
17
100
AcDbMlineStyle
  2
STANDARD
 70
     0
  3

 62
     0
 51
90.0
 52
90.0
 71
     2
 49
0.5
 62
   256
  6
BYLAYER
 49
-0.5
 62
   256
  6
BYLAYER
  0
ACDBPLACEHOLDER
  5
F
102
{ACAD_REACTORS
330
E
102
}
330
E
  0
SCALE
  5
11BD7
102
{ACAD_REACTORS
330
99
102
}
330
99
100
AcDbScale
 70
     0
300
1:1
140
1.0
141
1.0
290
     1
  0
SCALE
  5
11BD8
102
{ACAD_REACTORS
330
99
102
}
330
99
100
AcDbScale
 70
     0
300
1:2
140
1.0
141
2.0
290
     0
  0
SCALE
  5
11BD9
102
{ACAD_REACTORS
330
99
102
}
330
99
100
AcDbScale
 70
     0
300
1:4
140
1.0
141
4.0
290
     0
  0
SCALE
  5
11BDA
102
{ACAD_REACTORS
330
99
102
}
330
99
100
AcDbScale
 70
     0
300
1:5
140
1.0
141
5.0
290
     0
  0
SCALE
  5
11BDB
102
{ACAD_REACTORS
330
99
102
}
330
99
100
AcDbScale
 70
     0
300
1:8
140
1.0
141
8.0
290
     0
  0
SCALE
  5
11BDC
102
{ACAD_REACTORS
330
99
102
}
330
99
100
AcDbScale
 70
     0
300
1:10
140
1.0
141
10.0
290
     0
  0
SCALE
  5
11BDD
102
{ACAD_REACTORS
330
99
102
}
330
99
100
AcDbScale
 70
     0
300
1:16
140
1.0
141
16.0
290
     0
  0
SCALE
  5
11BDE
102
{ACAD_REACTORS
330
99
102
}
330
99
100
AcDbScale
 70
     0
300
1:20
140
1.0
141
20.0
290
     0
  0
SCALE
  5
11BDF
102
{ACAD_REACTORS
330
99
102
}
330
99
100
AcDbScale
 70
     0
300
1:30
140
1.0
141
30.0
290
     0
  0
SCALE
  5
11BE0
102
{ACAD_REACTORS
330
99
102
}
330
99
100
AcDbScale
 70
     0
300
1:40
140
1.0
141
40.0
290
     0
  0
SCALE
  5
11BE1
102
{ACAD_REACTORS
330
99
102
}
330
99
100
AcDbScale
 70
     0
300
1:50
140
1.0
141
50.0
290
     0
  0
SCALE
  5
11BE2
102
{ACAD_REACTORS
330
99
102
}
330
99
100
AcDbScale
 70
     0
300
1:100
140
1.0
141
100.0
290
     0
  0
SCALE
  5
11BE3
102
{ACAD_REACTORS
330
99
102
}
330
99
100
AcDbScale
 70
     0
300
2:1
140
2.0
141
1.0
290
     0
  0
SCALE
  5
11BE4
102
{ACAD_REACTORS
330
99
102
}
330
99
100
AcDbScale
 70
     0
300
4:1
140
4.0
141
1.0
290
     0
  0
SCALE
  5
11BE5
102
{ACAD_REACTORS
330
99
102
}
330
99
100
AcDbScale
 70
     0
300
8:1
140
8.0
141
1.0
290
     0
  0
SCALE
  5
11BE6
102
{ACAD_REACTORS
330
99
102
}
330
99
100
AcDbScale
 70
     0
300
10:1
140
10.0
141
1.0
290
     0
  0
SCALE
  5
11BE7
102
{ACAD_REACTORS
330
99
102
}
330
99
100
AcDbScale
 70
     0
300
100:1
140
100.0
141
1.0
290
     0
  0
SCALE
  5
11BE8
102
{ACAD_REACTORS
330
99
102
}
330
99
100
AcDbScale
 70
     0
300
1/128" = 1'-0"
140
0.0078125
141
12.0
290
     0
  0
SCALE
  5
11BE9
102
{ACAD_REACTORS
330
99
102
}
330
99
100
AcDbScale
 70
     0
300
1/64" = 1'-0"
140
0.015625
141
12.0
290
     0
  0
SCALE
  5
11BEA
102
{ACAD_REACTORS
330
99
102
}
330
99
100
AcDbScale
 70
     0
300
1/32" = 1'-0"
140
0.03125
141
12.0
290
     0
  0
SCALE
  5
11BEB
102
{ACAD_REACTORS
330
99
102
}
330
99
100
AcDbScale
 70
     0
300
1/16" = 1'-0"
140
0.0625
141
12.0
290
     0
  0
SCALE
  5
11BEC
102
{ACAD_REACTORS
330
99
102
}
330
99
100
AcDbScale
 70
     0
300
3/32" = 1'-0"
140
0.09375
141
12.0
290
     0
  0
SCALE
  5
11BED
102
{ACAD_REACTORS
330
99
102
}
330
99
100
AcDbScale
 70
     0
300
1/8" = 1'-0"
140
0.125
141
12.0
290
     0
  0
SCALE
  5
11BEE
102
{ACAD_REACTORS
330
99
102
}
330
99
100
AcDbScale
 70
     0
300
3/16" = 1'-0"
140
0.1875
141
12.0
290
     0
  0
SCALE
  5
11BEF
102
{ACAD_REACTORS
330
99
102
}
330
99
100
AcDbScale
 70
     0
300
1/4" = 1'-0"
140
0.25
141
12.0
290
     0
  0
SCALE
  5
11BF0
102
{ACAD_REACTORS
330
99
102
}
330
99
100
AcDbScale
 70
     0
300
3/8" = 1'-0"
140
0.375
141
12.0
290
     0
  0
SCALE
  5
11BF1
102
{ACAD_REACTORS
330
99
102
}
330
99
100
AcDbScale
 70
     0
300
1/2" = 1'-0"
140
0.5
141
12.0
290
     0
  0
SCALE
  5
11BF2
102
{ACAD_REACTORS
330
99
102
}
330
99
100
AcDbScale
 70
     0
300
3/4" = 1'-0"
140
0.75
141
12.0
290
     0
  0
SCALE
  5
11BF3
102
{ACAD_REACTORS
330
99
102
}
330
99
100
AcDbScale
 70
     0
300
1" = 1'-0"
140
1.0
141
12.0
290
     0
  0
SCALE
  5
11BF4
102
{ACAD_REACTORS
330
99
102
}
330
99
100
AcDbScale
 70
     0
300
1-1/2" = 1'-0"
140
1.5
141
12.0
290
     0
  0
SCALE
  5
11BF5
102
{ACAD_REACTORS
330
99
102
}
330
99
100
AcDbScale
 70
     0
300
3" = 1'-0"
140
3.0
141
12.0
290
     0
  0
SCALE
  5
11BF6
102
{ACAD_REACTORS
330
99
102
}
330
99
100
AcDbScale
 70
     0
300
6" = 1'-0"
140
6.0
141
12.0
290
     0
  0
SCALE
  5
11BF7
102
{ACAD_REACTORS
330
99
102
}
330
99
100
AcDbScale
 70
     0
300
1'-0" = 1'-0"
140
12.0
141
12.0
290
     0
  0
TABLESTYLE
  5
11C2B
102
{ACAD_REACTORS
330
92
102
}
102
{ACAD_XDICTIONARY
360
11EAB
102
}
330
92
100
AcDbTableStyle
  3
Standard
 70
     0
 71
     0
 40
1.5
 41
1.5
280
     0
281
     0
  7
Standard
140
4.5
170
     2
 62
     0
 63
     7
283
     0
274
    -2
284
     1
 64
     0
275
    -2
285
     1
 65
     0
276
    -2
286
     1
 66
     0
277
    -2
287
     1
 67
     0
278
    -2
288
     1
 68
     0
279
    -2
289
     1
 69
     0
  7
Standard
140
6.0
170
     5
 62
     0
 63
     7
283
     0
274
    -2
284
     1
 64
     0
275
    -2
285
     1
 65
     0
276
    -2
286
     1
 66
     0
277
    -2
287
     1
 67
     0
278
    -2
288
     1
 68
     0
279
    -2
289
     1
 69
     0
  7
Standard
140
4.5
170
     5
 62
     0
 63
     7
283
     0
274
    -2
284
     1
 64
     0
275
    -2
285
     1
 65
     0
276
    -2
286
     1
 66
     0
277
    -2
287
     1
 67
     0
278
    -2
288
     1
 68
     0
279
    -2
289
     1
 69
     0
  0
VISUALSTYLE
  5
11C1F
102
{ACAD_REACTORS
330
11C19
102
}
330
11C19
100
AcDbVisualStyle
  2
2dWireframe
 70
     4
 71
     0
 72
     2
 73
     0
 90
        0
 40
-0.6
 41
-30.0
 62
     5
 63
     7
421
 16777215
 74
     1
 91
        4
 64
     7
 65
   257
 75
     1
175
     1
 42
1.0
 92
        0
 66
   257
 43
1.0
 76
     1
 77
     6
 78
     2
 67
     7
 79
     5
170
     0
171
     0
290
     0
174
     0
 93
        1
 44
0.0
173
     0
291
     0
 45
0.0
1001
ACAD
1000
AcDbSavedByObjectVersion
1070
     0
  0
VISUALSTYLE
  5
11C21
102
{ACAD_REACTORS
330
11C19
102
}
330
11C19
100
AcDbVisualStyle
  2
3D Hidden
 70
     6
 71
     1
 72
     2
 73
     2
 90
        0
 40
-0.6
 41
-30.0
 62
     5
 63
     7
421
 16777215
 74
     2
 91
        2
 64
     7
 65
   257
 75
     2
175
     1
 42
40.0
 92
        0
 66
   257
 43
1.0
 76
     1
 77
     6
 78
     2
 67
     7
 79
     3
170
     0
171
     0
290
     0
174
     0
 93
        1
 44
0.0
173
     0
291
     0
 45
0.0
1001
ACAD
1000
AcDbSavedByObjectVersion
1070
     0
  0
VISUALSTYLE
  5
11C20
102
{ACAD_REACTORS
330
11C19
102
}
330
11C19
100
AcDbVisualStyle
  2
3dWireframe
 70
     5
 71
     0
 72
     2
 73
     0
 90
        0
 40
-0.6
 41
-30.0
 62
     5
 63
     7
421
 16777215
 74
     1
 91
        4
 64
     7
 65
   257
 75
     1
175
     1
 42
1.0
 92
        0
 66
   257
 43
1.0
 76
     1
 77
     6
 78
     2
 67
     7
 79
     5
170
     0
171
     0
290
     0
174
     0
 93
        1
 44
0.0
173
     0
291
     0
 45
0.0
1001
ACAD
1000
AcDbSavedByObjectVersion
1070
     0
  0
VISUALSTYLE
  5
11C1E
102
{ACAD_REACTORS
330
11C19
102
}
330
11C19
100
AcDbVisualStyle
  2
Basic
 70
     7
 71
     1
 72
     0
 73
     1
 90
        0
 40
-0.6
 41
-30.0
 62
     5
 63
     7
421
 16777215
 74
     0
 91
        4
 64
     7
 65
   257
 75
     1
175
     1
 42
1.0
 92
        8
 66
     7
 43
1.0
 76
     1
 77
     6
 78
     2
 67
     7
 79
     5
170
     0
171
     0
290
     0
174
     0
 93
        1
 44
0.0
173
     0
291
     1
 45
0.0
1001
ACAD
1000
AcDbSavedByObjectVersion
1070
     0
  0
VISUALSTYLE
  5
11C25
102
{ACAD_REACTORS
330
11C19
102
}
330
11C19
100
AcDbVisualStyle
  2
Brighten
 70
    12
 71
     2
 72
     2
 73
     0
 90
        0
 40
-0.6
 41
-30.0
 62
     5
 63
     7
421
 16777215
 74
     1
 91
        4
 64
     7
 65
   257
 75
     1
175
     1
 42
1.0
 92
        8
 66
     7
 43
1.0
 76
     1
 77
     6
 78
     2
 67
     7
 79
     5
170
     0
171
     0
290
     0
174
     0
 93
        1
 44
50.0
173
     0
291
     1
 45
0.0
1001
ACAD
1000
AcDbSavedByObjectVersion
1070
     0
  0
VISUALSTYLE
  5
11C29
102
{ACAD_REACTORS
330
11C19
102
}
330
11C19
100
AcDbVisualStyle
  2
ColorChange
 70
    16
 71
     2
 72
     2
 73
     3
 90
        0
 40
-0.6
 41
-30.0
 62
     5
 63
     8
421
  8421504
 74
     1
 91
        4
 64
     7
 65
   257
 75
     1
175
     1
 42
1.0
 92
        8
 66
     8
424
  8421504
 43
1.0
 76
     1
 77
     6
 78
     2
 67
     7
 79
     5
170
     0
171
     0
290
     0
174
     0
 93
        1
 44
0.0
173
     0
291
     1
 45
0.0
1001
ACAD
1000
AcDbSavedByObjectVersion
1070
     0
  0
VISUALSTYLE
  5
11C22
102
{ACAD_REACTORS
330
11C19
102
}
330
11C19
100
AcDbVisualStyle
  2
Conceptual
 70
     9
 71
     3
 72
     2
 73
     0
 90
        0
 40
-0.6
 41
-30.0
 62
     5
 63
     7
421
 16777215
 74
     2
 91
        2
 64
     7
 65
   257
 75
     1
175
     1
 42
40.0
 92
        8
 66
     7
 43
1.0
 76
     1
 77
     6
 78
     2
 67
     7
 79
     3
170
     0
171
     0
290
     0
174
     0
 93
        1
 44
0.0
173
     0
291
     0
 45
0.0
1001
ACAD
1000
AcDbSavedByObjectVersion
1070
     0
  0
VISUALSTYLE
  5
11C24
102
{ACAD_REACTORS
330
11C19
102
}
330
11C19
100
AcDbVisualStyle
  2
Dim
 70
    11
 71
     2
 72
     2
 73
     0
 90
        0
 40
-0.6
 41
-30.0
 62
     5
 63
     7
421
 16777215
 74
     1
 91
        4
 64
     7
 65
   257
 75
     1
175
     1
 42
1.0
 92
        8
 66
     7
 43
1.0
 76
     1
 77
     6
 78
     2
 67
     7
 79
     5
170
     0
171
     0
290
     0
174
     0
 93
        1
 44
-50.0
173
     0
291
     1
 45
0.0
1001
ACAD
1000
AcDbSavedByObjectVersion
1070
     0
  0
VISUALSTYLE
  5
11C28
102
{ACAD_REACTORS
330
11C19
102
}
330
11C19
100
AcDbVisualStyle
  2
Facepattern
 70
    15
 71
     2
 72
     2
 73
     0
 90
        0
 40
-0.6
 41
-30.0
 62
     5
 63
     7
421
 16777215
 74
     1
 91
        4
 64
     7
 65
   257
 75
     1
175
     1
 42
1.0
 92
        8
 66
     7
 43
1.0
 76
     1
 77
     6
 78
     2
 67
     7
 79
     5
170
     0
171
     0
290
     0
174
     0
 93
        1
 44
0.0
173
     0
291
     1
 45
0.0
1001
ACAD
1000
AcDbSavedByObjectVersion
1070
     0
  0
VISUALSTYLE
  5
11C1A
102
{ACAD_REACTORS
330
11C19
102
}
330
11C19
100
AcDbVisualStyle
  2
Flat
 70
     0
 71
     2
 72
     1
 73
     1
 90
        2
 40
-0.6
 41
30.0
 62
     5
 63
     7
421
 16777215
 74
     0
 91
        4
 64
     7
 65
   257
 75
     1
175
     1
 42
1.0
 92
        8
 66
     7
 43
1.0
 76
     1
 77
     6
 78
     2
 67
     7
 79
     5
170
     0
171
     0
290
     0
174
     0
 93
       13
 44
0.0
173
     0
291
     1
 45
0.0
1001
ACAD
1000
AcDbSavedByObjectVersion
1070
     0
  0
VISUALSTYLE
  5
11C1B
102
{ACAD_REACTORS
330
11C19
102
}
330
11C19
100
AcDbVisualStyle
  2
FlatWithEdges
 70
     1
 71
     2
 72
     1
 73
     1
 90
        2
 40
-0.6
 41
30.0
 62
     5
 63
     7
421
 16777215
 74
     1
 91
        4
 64
     7
 65
   257
 75
     1
175
     1
 42
1.0
 92
        0
 66
   257
 43
1.0
 76
     1
 77
     6
 78
     2
 67
     7
 79
     5
170
     0
171
     0
290
     0
174
     0
 93
       13
 44
0.0
173
     0
291
     1
 45
0.0
1001
ACAD
1000
AcDbSavedByObjectVersion
1070
     0
  0
VISUALSTYLE
  5
11C1C
102
{ACAD_REACTORS
330
11C19
102
}
330
11C19
100
AcDbVisualStyle
  2
Gouraud
 70
     2
 71
     2
 72
     2
 73
     1
 90
        2
 40
-0.6
 41
30.0
 62
     5
 63
     7
421
 16777215
 74
     0
 91
        4
 64
     7
 65
   257
 75
     1
175
     1
 42
1.0
 92
        0
 66
     7
 43
1.0
 76
     1
 77
     6
 78
     2
 67
     7
 79
     5
170
     0
171
     0
290
     0
174
     0
 93
       13
 44
0.0
173
     0
291
     1
 45
0.0
1001
ACAD
1000
AcDbSavedByObjectVersion
1070
     0
  0
VISUALSTYLE
  5
11C1D
102
{ACAD_REACTORS
330
11C19
102
}
330
11C19
100
AcDbVisualStyle
  2
GouraudWithEdges
 70
     3
 71
     2
 72
     2
 73
     1
 90
        2
 40
-0.6
 41
30.0
 62
     5
 63
     7
421
 16777215
 74
     1
 91
        4
 64
     7
 65
   257
 75
     1
175
     1
 42
1.0
 92
        0
 66
   257
 43
1.0
 76
     1
 77
     6
 78
     2
 67
     7
 79
     5
170
     0
171
     0
290
     0
174
     0
 93
       13
 44
0.0
173
     0
291
     1
 45
0.0
1001
ACAD
1000
AcDbSavedByObjectVersion
1070
     0
  0
VISUALSTYLE
  5
11C27
102
{ACAD_REACTORS
330
11C19
102
}
330
11C19
100
AcDbVisualStyle
  2
Linepattern
 70
    14
 71
     2
 72
     2
 73
     0
 90
        0
 40
-0.6
 41
-30.0
 62
     5
 63
     7
421
 16777215
 74
     1
 91
        4
 64
     7
 65
   257
 75
     7
175
     7
 42
1.0
 92
        8
 66
     7
 43
1.0
 76
     1
 77
     6
 78
     2
 67
     7
 79
     5
170
     0
171
     0
290
     0
174
     0
 93
        1
 44
0.0
173
     0
291
     1
 45
0.0
1001
ACAD
1000
AcDbSavedByObjectVersion
1070
     0
  0
VISUALSTYLE
  5
11C23
102
{ACAD_REACTORS
330
11C19
102
}
330
11C19
100
AcDbVisualStyle
  2
Realistic
 70
     8
 71
     2
 72
     2
 73
     0
 90
        0
 40
-0.6
 41
-30.0
 62
     5
 63
     7
421
 16777215
 74
     1
 91
        0
 64
     7
 65
   257
 75
     1
175
     1
 42
1.0
 92
        8
 66
     8
424
  7895160
 43
1.0
 76
     1
 77
     6
 78
     2
 67
     7
 79
     5
170
     0
171
     0
290
     0
174
     0
 93
       13
 44
0.0
173
     0
291
     0
 45
0.0
1001
ACAD
1000
AcDbSavedByObjectVersion
1070
     0
  0
VISUALSTYLE
  5
11C26
102
{ACAD_REACTORS
330
11C19
102
}
330
11C19
100
AcDbVisualStyle
  2
Thicken
 70
    13
 71
     2
 72
     2
 73
     0
 90
        0
 40
-0.6
 41
-30.0
 62
     5
 63
     7
421
 16777215
 74
     1
 91
        4
 64
     7
 65
   257
 75
     1
175
     1
 42
1.0
 92
       12
 66
     7
 43
1.0
 76
     1
 77
     6
 78
     2
 67
     7
 79
     5
170
     0
171
     0
290
     0
174
     0
 93
        1
 44
0.0
173
     0
291
     1
 45
0.0
1001
ACAD
1000
AcDbSavedByObjectVersion
1070
     0
  0
DICTIONARYVAR
  5
11BF9
102
{ACAD_REACTORS
330
59
102
}
330
59
100
DictionaryVariables
280
     0
  1

  0
DICTIONARYVAR
  5
11C40
102
{ACAD_REACTORS
330
59
102
}
330
59
100
DictionaryVariables
280
     0
  1
Standard
  0
DICTIONARYVAR
  5
5A
102
{ACAD_REACTORS
330
59
102
}
330
59
100
DictionaryVariables
280
     0
  1
2
  0
DICTIONARYVAR
  5
5E
102
{ACAD_REACTORS
330
59
102
}
330
59
100
DictionaryVariables
280
     0
  1
1
  0
DICTIONARYVAR
  5
11C44
102
{ACAD_REACTORS
330
59
102
}
330
59
100
DictionaryVariables
280
     0
  1
1
  0
DICTIONARYVAR
  5
11C45
102
{ACAD_REACTORS
330
59
102
}
330
59
100
DictionaryVariables
280
     0
  1
15
  0
DICTIONARYVAR
  5
11C43
102
{ACAD_REACTORS
330
59
102
}
330
59
100
DictionaryVariables
280
     0
  1
0
  0
DICTIONARYVAR
  5
11C42
102
{ACAD_REACTORS
330
59
102
}
330
59
100
DictionaryVariables
280
     0
  1
1
  0
DICTIONARY
  5
11EA5
330
11C09
100
AcDbDictionary
280
     1
281
     1
  3
ACAD_XREC_ROUNDTRIP
360
11EA6
  0
DICTIONARY
  5
11EA7
330
11C01
100
AcDbDictionary
280
     1
281
     1
  3
ACAD_XREC_ROUNDTRIP
360
11EA8
  0
DICTIONARY
  5
11EA9
330
11C11
100
AcDbDictionary
280
     1
281
     1
  3
ACAD_XREC_ROUNDTRIP
360
11EAA
  0
DICTIONARY
  5
11EAB
330
11C2B
100
AcDbDictionary
280
     1
281
     1
  3
ACAD_XREC_ROUNDTRIP
360
11EAC
  0
XRECORD
  5
11EA6
102
{ACAD_REACTORS
330
11EA5
102
}
330
11EA5
100
AcDbXrecord
280
     1
102
MATERIAL
148
0.0
149
0.0
149
0.0
 93
        0
 94
       63
282
     0
 72
     0
 77
     0
171
     0
175
     0
179
     0
273
     0
  0
XRECORD
  5
11EA8
102
{ACAD_REACTORS
330
11EA7
102
}
330
11EA7
100
AcDbXrecord
280
     1
102
MATERIAL
148
0.0
149
0.0
149
0.0
 93
        0
 94
       63
282
     0
 72
     0
 77
     0
171
     0
175
     0
179
     0
273
     0
  0
XRECORD
  5
11EAA
102
{ACAD_REACTORS
330
11EA9
102
}
330
11EA9
100
AcDbXrecord
280
     1
102
MATERIAL
148
0.0
149
0.0
149
0.0
 93
        0
 94
       63
282
     0
 72
     0
 77
     0
171
     0
175
     0
179
     0
273
     0
  0
XRECORD
  5
11EAC
102
{ACAD_REACTORS
330
11EAB
102
}
330
11EAB
100
AcDbXrecord
280
     1
102
ACAD_ROUNDTRIP_PRE2007_TABLESTYLE
 90
      512
 91
        0
  1

 92
      512
 93
        0
  2

 94
      512
 95
        0
  3

  0
ENDSEC
  0
EOF
