  0
SECTION
  2
HEADER
  9
$ACADVER
  1
AC1015
  9
$ACADMAINTVER
 70
     6
  9
$DWGCODEPAGE
  3
ANSI_1252
  9
$INSBASE
 10
0.0
 20
0.0
 30
0.0
  9
$EXTMIN
 10
0.0
 20
0.0
 30
0.0
  9
$EXTMAX
 10
1698.234480981973
 20
696.4080924833019
 30
0.0
  9
$LIMMIN
 10
0.0
 20
0.0
  9
$LIMMAX
 10
0.0
 20
0.0
  9
$ORTHOMODE
 70
     0
  9
$REGENMODE
 70
     1
  9
$FILLMODE
 70
     1
  9
$QTEXTMODE
 70
     0
  9
$MIRRTEXT
 70
     0
  9
$LTSCALE
 40
1.0
  9
$ATTMODE
 70
     1
  9
$TEXTSIZE
 40
2.5
  9
$TRACEWID
 40
1.0
  9
$TEXTSTYLE
  7
Standard
  9
$CLAYER
  8
0
  9
$CELTYPE
  6
ByLayer
  9
$CECOLOR
 62
   256
  9
$CELTSCALE
 40
1.0
  9
$DISPSILH
 70
     0
  9
$DIMSCALE
 40
1.0
  9
$DIMASZ
 40
2.5
  9
$DIMEXO
 40
0.625
  9
$DIMDLI
 40
3.75
  9
$DIMRND
 40
0.0
  9
$DIMDLE
 40
0.0
  9
$DIMEXE
 40
1.25
  9
$DIMTP
 40
0.0
  9
$DIMTM
 40
0.0
  9
$DIMTXT
 40
2.5
  9
$DIMCEN
 40
2.5
  9
$DIMTSZ
 40
0.0
  9
$DIMTOL
 70
     0
  9
$DIMLIM
 70
     0
  9
$DIMTIH
 70
     0
  9
$DIMTOH
 70
     0
  9
$DIMSE1
 70
     0
  9
$DIMSE2
 70
     0
  9
$DIMTAD
 70
     1
  9
$DIMZIN
 70
     8
  9
$DIMBLK
  1

  9
$DIMASO
 70
     1
  9
$DIMSHO
 70
     1
  9
$DIMPOST
  1

  9
$DIMAPOST
  1

  9
$DIMALT
 70
     0
  9
$DIMALTD
 70
     3
  9
$DIMALTF
 40
0.03937007874016
  9
$DIMLFAC
 40
1.0
  9
$DIMTOFL
 70
     1
  9
$DIMTVP
 40
0.0
  9
$DIMTIX
 70
     0
  9
$DIMSOXD
 70
     0
  9
$DIMSAH
 70
     0
  9
$DIMBLK1
  1

  9
$DIMBLK2
  1

  9
$DIMSTYLE
  2
ISO-25
  9
$DIMCLRD
 70
     0
  9
$DIMCLRE
 70
     0
  9
$DIMCLRT
 70
     0
  9
$DIMTFAC
 40
1.0
  9
$DIMGAP
 40
0.625
  9
$DIMJUST
 70
     0
  9
$DIMSD1
 70
     0
  9
$DIMSD2
 70
     0
  9
$DIMTOLJ
 70
     0
  9
$DIMTZIN
 70
     8
  9
$DIMALTZ
 70
     0
  9
$DIMALTTZ
 70
     0
  9
$DIMUPT
 70
     0
  9
$DIMDEC
 70
     2
  9
$DIMTDEC
 70
     2
  9
$DIMALTU
 70
     2
  9
$DIMALTTD
 70
     3
  9
$DIMTXSTY
  7
Standard
  9
$DIMAUNIT
 70
     0
  9
$DIMADEC
 70
     0
  9
$DIMALTRND
 40
0.0
  9
$DIMAZIN
 70
     0
  9
$DIMDSEP
 70
    44
  9
$DIMATFIT
 70
     3
  9
$DIMFRAC
 70
     0
  9
$DIMLDRBLK
  1

  9
$DIMLUNIT
 70
     2
  9
$DIMLWD
 70
    -2
  9
$DIMLWE
 70
    -2
  9
$DIMTMOVE
 70
     0
  9
$LUNITS
 70
     2
  9
$LUPREC
 70
     4
  9
$SKETCHINC
 40
1.0
  9
$FILLETRAD
 40
0.0
  9
$AUNITS
 70
     0
  9
$AUPREC
 70
     0
  9
$MENU
  1
.
  9
$ELEVATION
 40
0.0
  9
$PELEVATION
 40
0.0
  9
$THICKNESS
 40
0.0
  9
$LIMCHECK
 70
     0
  9
$CHAMFERA
 40
0.0
  9
$CHAMFERB
 40
0.0
  9
$CHAMFERC
 40
0.0
  9
$CHAMFERD
 40
0.0
  9
$SKPOLY
 70
     0
  9
$TDCREATE
 40
2455245.744816898
  9
$TDUCREATE
 40
2455245.703150231
  9
$TDUPDATE
 40
2455245.744816887
  9
$TDUUPDATE
 40
2455245.70315022
  9
$TDINDWG
 40
0.0316830903
  9
$TDUSRTIMER
 40
0.0316807292
  9
$USRTIMER
 70
     1
  9
$ANGBASE
 50
0.0
  9
$ANGDIR
 70
     0
  9
$PDMODE
 70
     0
  9
$PDSIZE
 40
0.0
  9
$PLINEWID
 40
0.0
  9
$SPLFRAME
 70
     0
  9
$SPLINETYPE
 70
     6
  9
$SPLINESEGS
 70
     8
  9
$HANDSEED
  5
476
  9
$SURFTAB1
 70
     6
  9
$SURFTAB2
 70
     6
  9
$SURFTYPE
 70
     6
  9
$SURFU
 70
     6
  9
$SURFV
 70
     6
  9
$UCSBASE
  2

  9
$UCSNAME
  2

  9
$UCSORG
 10
0.0
 20
0.0
 30
0.0
  9
$UCSXDIR
 10
1.0
 20
0.0
 30
0.0
  9
$UCSYDIR
 10
0.0
 20
1.0
 30
0.0
  9
$UCSORTHOREF
  2

  9
$UCSORTHOVIEW
 70
     0
  9
$UCSORGTOP
 10
0.0
 20
0.0
 30
0.0
  9
$UCSORGBOTTOM
 10
0.0
 20
0.0
 30
0.0
  9
$UCSORGLEFT
 10
0.0
 20
0.0
 30
0.0
  9
$UCSORGRIGHT
 10
0.0
 20
0.0
 30
0.0
  9
$UCSORGFRONT
 10
0.0
 20
0.0
 30
0.0
  9
$UCSORGBACK
 10
0.0
 20
0.0
 30
0.0
  9
$PUCSBASE
  2

  9
$PUCSNAME
  2

  9
$PUCSORG
 10
0.0
 20
0.0
 30
0.0
  9
$PUCSXDIR
 10
1.0
 20
0.0
 30
0.0
  9
$PUCSYDIR
 10
0.0
 20
1.0
 30
0.0
  9
$PUCSORTHOREF
  2

  9
$PUCSORTHOVIEW
 70
     0
  9
$PUCSORGTOP
 10
0.0
 20
0.0
 30
0.0
  9
$PUCSORGBOTTOM
 10
0.0
 20
0.0
 30
0.0
  9
$PUCSORGLEFT
 10
0.0
 20
0.0
 30
0.0
  9
$PUCSORGRIGHT
 10
0.0
 20
0.0
 30
0.0
  9
$PUCSORGFRONT
 10
0.0
 20
0.0
 30
0.0
  9
$PUCSORGBACK
 10
0.0
 20
0.0
 30
0.0
  9
$USERI1
 70
     0
  9
$USERI2
 70
     0
  9
$USERI3
 70
     0
  9
$USERI4
 70
     0
  9
$USERI5
 70
     0
  9
$USERR1
 40
0.0
  9
$USERR2
 40
0.0
  9
$USERR3
 40
0.0
  9
$USERR4
 40
0.0
  9
$USERR5
 40
0.0
  9
$WORLDVIEW
 70
     1
  9
$SHADEDGE
 70
     3
  9
$SHADEDIF
 70
    70
  9
$TILEMODE
 70
     1
  9
$MAXACTVP
 70
    64
  9
$PINSBASE
 10
0.0
 20
0.0
 30
0.0
  9
$PLIMCHECK
 70
     0
  9
$PEXTMIN
 10
0.0
 20
0.0
 30
0.0
  9
$PEXTMAX
 10
12.0
 20
9.0
 30
0.0
  9
$PLIMMIN
 10
0.0
 20
0.0
  9
$PLIMMAX
 10
12.0
 20
9.0
  9
$UNITMODE
 70
     0
  9
$VISRETAIN
 70
     1
  9
$PLINEGEN
 70
     0
  9
$PSLTSCALE
 70
     1
  9
$TREEDEPTH
 70
  3020
  9
$CMLSTYLE
  2
Standard
  9
$CMLJUST
 70
     0
  9
$CMLSCALE
 40
20.0
  9
$PROXYGRAPHICS
 70
     1
  9
$MEASUREMENT
 70
     1
  9
$CELWEIGHT
370
    -1
  9
$ENDCAPS
280
     0
  9
$JOINSTYLE
280
     0
  9
$LWDISPLAY
290
     0
  9
$INSUNITS
 70
     4
  9
$HYPERLINKBASE
  1

  9
$STYLESHEET
  1

  9
$XEDIT
290
     1
  9
$CEPSNTYPE
380
     0
  9
$PSTYLEMODE
290
     1
  9
$FINGERPRINTGUID
  2
{5559452E-1E62-4159-8551-BF76FFF3E7E8}
  9
$VERSIONGUID
  2
{3CEB9EF8-4431-4551-B596-6734A9F966A9}
  9
$EXTNAMES
290
     1
  9
$PSVPSCALE
 40
0.0
  9
$OLESTARTUP
290
     0
  0
ENDSEC
  0
SECTION
  2
CLASSES
  0
CLASS
  1
ACDBDICTIONARYWDFLT
  2
AcDbDictionaryWithDefault
  3
ObjectDBX Classes
 90
        0
280
     0
281
     0
  0
CLASS
  1
ACDBPLACEHOLDER
  2
AcDbPlaceHolder
  3
ObjectDBX Classes
 90
        0
280
     0
281
     0
  0
CLASS
  1
LAYOUT
  2
AcDbLayout
  3
ObjectDBX Classes
 90
        0
280
     0
281
     0
  0
CLASS
  1
DICTIONARYVAR
  2
AcDbDictionaryVar
  3
ObjectDBX Classes
 90
        0
280
     0
281
     0
  0
CLASS
  1
TABLESTYLE
  2
AcDbTableStyle
  3
ObjectDBX Classes
 90
     4095
280
     0
281
     0
  0
CLASS
  1
SCALE
  2
AcDbScale
  3
ObjectDBX Classes
 90
     1153
280
     0
281
     0
  0
ENDSEC
  0
SECTION
  2
TABLES
  0
TABLE
  2
VPORT
  5
8
330
0
100
AcDbSymbolTable
 70
     2
  0
VPORT
  5
97
330
8
100
AcDbSymbolTableRecord
100
AcDbViewportTableRecord
  2
*Active
 70
     0
 10
0.0
 20
0.0
 11
1.0
 21
1.0
 12
1056.92519033947
 22
353.8955776258641
 13
0.0
 23
0.0
 14
10.0
 24
10.0
 15
10.0
 25
10.0
 16
0.0
 26
0.0
 36
1.0
 17
0.0
 27
0.0
 37
0.0
 40
1604.338917340861
 41
1.664827586206897
 42
50.0
 43
0.0
 44
0.0
 50
0.0
 51
0.0
 71
     0
 72
  1000
 73
     1
 74
     3
 75
     0
 76
     0
 77
     0
 78
     0
281
     0
 65
     1
110
0.0
120
0.0
130
0.0
111
1.0
121
0.0
131
0.0
112
0.0
122
1.0
132
0.0
 79
     0
146
0.0
  0
ENDTAB
  0
TABLE
  2
LTYPE
  5
5
330
0
100
AcDbSymbolTable
 70
     1
  0
LTYPE
  5
14
330
5
100
AcDbSymbolTableRecord
100
AcDbLinetypeTableRecord
  2
ByBlock
 70
     0
  3

 72
    65
 73
     0
 40
0.0
  0
LTYPE
  5
15
330
5
100
AcDbSymbolTableRecord
100
AcDbLinetypeTableRecord
  2
ByLayer
 70
     0
  3

 72
    65
 73
     0
 40
0.0
  0
LTYPE
  5
16
330
5
100
AcDbSymbolTableRecord
100
AcDbLinetypeTableRecord
  2
Continuous
 70
     0
  3
Solid line
 72
    65
 73
     0
 40
0.0
  0
ENDTAB
  0
TABLE
  2
LAYER
  5
2
330
0
100
AcDbSymbolTable
 70
     2
  0
LAYER
  5
10
330
2
100
AcDbSymbolTableRecord
100
AcDbLayerTableRecord
  2
0
 70
     0
 62
     7
  6
Continuous
370
    -3
390
F
  0
LAYER
  5
FA
330
2
100
AcDbSymbolTableRecord
100
AcDbLayerTableRecord
  2
DEFPOINTS
 70
     0
 62
     7
  6
Continuous
290
     0
370
    -3
390
F
  0
ENDTAB
  0
TABLE
  2
STYLE
  5
3
330
0
100
AcDbSymbolTable
 70
     2
  0
STYLE
  5
11
330
3
100
AcDbSymbolTableRecord
100
AcDbTextStyleTableRecord
  2
Standard
 70
     0
 40
0.0
 41
1.0
 50
0.0
 71
     0
 42
2.5
  3
txt
  4

  0
STYLE
  5
F9
330
3
100
AcDbSymbolTableRecord
100
AcDbTextStyleTableRecord
  2
GDT
 70
     0
 40
0.0
 41
1.0
 50
0.0
 71
     0
 42
0.2
  3
gdt.shx
  4

  0
ENDTAB
  0
TABLE
  2
VIEW
  5
6
330
0
100
AcDbSymbolTable
 70
     0
  0
ENDTAB
  0
TABLE
  2
UCS
  5
7
330
0
100
AcDbSymbolTable
 70
     0
  0
ENDTAB
  0
TABLE
  2
APPID
  5
9
330
0
100
AcDbSymbolTable
 70
     3
  0
APPID
  5
12
330
9
100
AcDbSymbolTableRecord
100
AcDbRegAppTableRecord
  2
ACAD
 70
     0
  0
APPID
  5
3CA
330
9
100
AcDbSymbolTableRecord
100
AcDbRegAppTableRecord
  2
PROGE_PRINT_SETTINGS
 70
     0
  0
APPID
  5
3CB
330
9
100
AcDbSymbolTableRecord
100
AcDbRegAppTableRecord
  2
Conv5506CA
 70
     0
  0
ENDTAB
  0
TABLE
  2
DIMSTYLE
  5
A
330
0
100
AcDbSymbolTable
 70
     2
100
AcDbDimStyleTable
  0
DIMSTYLE
105
27
330
A
100
AcDbSymbolTableRecord
100
AcDbDimStyleTableRecord
  2
Standard
 70
     0
278
     0
340
11
  0
DIMSTYLE
105
29
102
{ACAD_REACTORS
330
378
330
38F
330
3A6
102
}
330
A
100
AcDbSymbolTableRecord
100
AcDbDimStyleTableRecord
  2
ISO-25
 70
     0
 41
2.5
 42
0.625
 43
3.75
 44
1.25
 73
     0
 74
     0
 77
     1
 78
     8
140
2.5
141
2.5
143
0.03937007874016
147
0.625
171
     3
172
     1
271
     2
272
     2
274
     3
278
    44
283
     0
284
     8
340
11
  0
ENDTAB
  0
TABLE
  2
BLOCK_RECORD
  5
1
330
0
100
AcDbSymbolTable
 70
    81
  0
BLOCK_RECORD
  5
1F
330
1
100
AcDbSymbolTableRecord
100
AcDbBlockTableRecord
  2
*Model_Space
340
22
  0
BLOCK_RECORD
  5
73
330
1
100
AcDbSymbolTableRecord
100
AcDbBlockTableRecord
  2
*Paper_Space
340
3CD
  0
BLOCK_RECORD
  5
D1
330
1
100
AcDbSymbolTableRecord
100
AcDbBlockTableRecord
  2
*Paper_Space0
340
74
  0
BLOCK_RECORD
  5
FE
330
1
100
AcDbSymbolTableRecord
100
AcDbBlockTableRecord
  2
BLOCK1
340
0
  0
BLOCK_RECORD
  5
102
330
1
100
AcDbSymbolTableRecord
100
AcDbBlockTableRecord
  2
BLOCK2
340
0
  0
BLOCK_RECORD
  5
106
330
1
100
AcDbSymbolTableRecord
100
AcDbBlockTableRecord
  2
BLOCK3
340
0
  0
BLOCK_RECORD
  5
10A
330
1
100
AcDbSymbolTableRecord
100
AcDbBlockTableRecord
  2
BLOCK4
340
0
  0
BLOCK_RECORD
  5
10E
330
1
100
AcDbSymbolTableRecord
100
AcDbBlockTableRecord
  2
BLOCK5
340
0
  0
BLOCK_RECORD
  5
112
330
1
100
AcDbSymbolTableRecord
100
AcDbBlockTableRecord
  2
BLOCK6
340
0
  0
BLOCK_RECORD
  5
116
330
1
100
AcDbSymbolTableRecord
100
AcDbBlockTableRecord
  2
BLOCK7
340
0
  0
BLOCK_RECORD
  5
11A
330
1
100
AcDbSymbolTableRecord
100
AcDbBlockTableRecord
  2
BLOCK8
340
0
  0
BLOCK_RECORD
  5
11E
330
1
100
AcDbSymbolTableRecord
100
AcDbBlockTableRecord
  2
BLOCK9
340
0
  0
BLOCK_RECORD
  5
122
330
1
100
AcDbSymbolTableRecord
100
AcDbBlockTableRecord
  2
BLOCK10
340
0
  0
BLOCK_RECORD
  5
126
330
1
100
AcDbSymbolTableRecord
100
AcDbBlockTableRecord
  2
BLOCK11
340
0
  0
BLOCK_RECORD
  5
12A
330
1
100
AcDbSymbolTableRecord
100
AcDbBlockTableRecord
  2
BLOCK12
340
0
  0
BLOCK_RECORD
  5
12E
330
1
100
AcDbSymbolTableRecord
100
AcDbBlockTableRecord
  2
BLOCK13
340
0
  0
BLOCK_RECORD
  5
132
330
1
100
AcDbSymbolTableRecord
100
AcDbBlockTableRecord
  2
BLOCK14
340
0
  0
BLOCK_RECORD
  5
136
330
1
100
AcDbSymbolTableRecord
100
AcDbBlockTableRecord
  2
BLOCK15
340
0
  0
BLOCK_RECORD
  5
13A
330
1
100
AcDbSymbolTableRecord
100
AcDbBlockTableRecord
  2
BLOCK16
340
0
  0
BLOCK_RECORD
  5
13E
330
1
100
AcDbSymbolTableRecord
100
AcDbBlockTableRecord
  2
BLOCK17
340
0
  0
BLOCK_RECORD
  5
142
330
1
100
AcDbSymbolTableRecord
100
AcDbBlockTableRecord
  2
BLOCK18
340
0
  0
BLOCK_RECORD
  5
146
330
1
100
AcDbSymbolTableRecord
100
AcDbBlockTableRecord
  2
BLOCK19
340
0
  0
BLOCK_RECORD
  5
14A
330
1
100
AcDbSymbolTableRecord
100
AcDbBlockTableRecord
  2
BLOCK20
340
0
  0
BLOCK_RECORD
  5
14E
330
1
100
AcDbSymbolTableRecord
100
AcDbBlockTableRecord
  2
BLOCK21
340
0
  0
BLOCK_RECORD
  5
152
330
1
100
AcDbSymbolTableRecord
100
AcDbBlockTableRecord
  2
BLOCK22
340
0
  0
BLOCK_RECORD
  5
156
330
1
100
AcDbSymbolTableRecord
100
AcDbBlockTableRecord
  2
BLOCK23
340
0
  0
BLOCK_RECORD
  5
15A
330
1
100
AcDbSymbolTableRecord
100
AcDbBlockTableRecord
  2
BLOCK24
340
0
  0
BLOCK_RECORD
  5
15E
330
1
100
AcDbSymbolTableRecord
100
AcDbBlockTableRecord
  2
BLOCK25
340
0
  0
BLOCK_RECORD
  5
162
330
1
100
AcDbSymbolTableRecord
100
AcDbBlockTableRecord
  2
BLOCK26
340
0
  0
BLOCK_RECORD
  5
166
330
1
100
AcDbSymbolTableRecord
100
AcDbBlockTableRecord
  2
BLOCK27
340
0
  0
BLOCK_RECORD
  5
16A
330
1
100
AcDbSymbolTableRecord
100
AcDbBlockTableRecord
  2
BLOCK28
340
0
  0
BLOCK_RECORD
  5
16E
330
1
100
AcDbSymbolTableRecord
100
AcDbBlockTableRecord
  2
BLOCK29
340
0
  0
BLOCK_RECORD
  5
172
330
1
100
AcDbSymbolTableRecord
100
AcDbBlockTableRecord
  2
BLOCK30
340
0
  0
BLOCK_RECORD
  5
176
330
1
100
AcDbSymbolTableRecord
100
AcDbBlockTableRecord
  2
BLOCK31
340
0
  0
BLOCK_RECORD
  5
17A
330
1
100
AcDbSymbolTableRecord
100
AcDbBlockTableRecord
  2
BLOCK32
340
0
  0
BLOCK_RECORD
  5
17E
330
1
100
AcDbSymbolTableRecord
100
AcDbBlockTableRecord
  2
BLOCK33
340
0
  0
BLOCK_RECORD
  5
182
330
1
100
AcDbSymbolTableRecord
100
AcDbBlockTableRecord
  2
BLOCK34
340
0
  0
BLOCK_RECORD
  5
186
330
1
100
AcDbSymbolTableRecord
100
AcDbBlockTableRecord
  2
BLOCK35
340
0
  0
BLOCK_RECORD
  5
18A
330
1
100
AcDbSymbolTableRecord
100
AcDbBlockTableRecord
  2
BLOCK36
340
0
  0
BLOCK_RECORD
  5
18E
330
1
100
AcDbSymbolTableRecord
100
AcDbBlockTableRecord
  2
BLOCK37
340
0
  0
BLOCK_RECORD
  5
192
330
1
100
AcDbSymbolTableRecord
100
AcDbBlockTableRecord
  2
BLOCK38
340
0
  0
BLOCK_RECORD
  5
196
330
1
100
AcDbSymbolTableRecord
100
AcDbBlockTableRecord
  2
BLOCK39
340
0
  0
BLOCK_RECORD
  5
19A
330
1
100
AcDbSymbolTableRecord
100
AcDbBlockTableRecord
  2
BLOCK40
340
0
  0
BLOCK_RECORD
  5
19E
330
1
100
AcDbSymbolTableRecord
100
AcDbBlockTableRecord
  2
BLOCK41
340
0
  0
BLOCK_RECORD
  5
1A2
330
1
100
AcDbSymbolTableRecord
100
AcDbBlockTableRecord
  2
BLOCK42
340
0
  0
BLOCK_RECORD
  5
1A6
330
1
100
AcDbSymbolTableRecord
100
AcDbBlockTableRecord
  2
BLOCK43
340
0
  0
BLOCK_RECORD
  5
1AA
330
1
100
AcDbSymbolTableRecord
100
AcDbBlockTableRecord
  2
BLOCK44
340
0
  0
BLOCK_RECORD
  5
1AE
330
1
100
AcDbSymbolTableRecord
100
AcDbBlockTableRecord
  2
BLOCK45
340
0
  0
BLOCK_RECORD
  5
1B2
330
1
100
AcDbSymbolTableRecord
100
AcDbBlockTableRecord
  2
BLOCK46
340
0
  0
BLOCK_RECORD
  5
1B6
330
1
100
AcDbSymbolTableRecord
100
AcDbBlockTableRecord
  2
BLOCK47
340
0
  0
BLOCK_RECORD
  5
1BA
330
1
100
AcDbSymbolTableRecord
100
AcDbBlockTableRecord
  2
BLOCK48
340
0
  0
BLOCK_RECORD
  5
1BE
330
1
100
AcDbSymbolTableRecord
100
AcDbBlockTableRecord
  2
BLOCK49
340
0
  0
BLOCK_RECORD
  5
1C2
330
1
100
AcDbSymbolTableRecord
100
AcDbBlockTableRecord
  2
BLOCK50
340
0
  0
BLOCK_RECORD
  5
1C6
330
1
100
AcDbSymbolTableRecord
100
AcDbBlockTableRecord
  2
BLOCK51
340
0
  0
BLOCK_RECORD
  5
1CA
330
1
100
AcDbSymbolTableRecord
100
AcDbBlockTableRecord
  2
BLOCK52
340
0
  0
BLOCK_RECORD
  5
1D0
330
1
100
AcDbSymbolTableRecord
100
AcDbBlockTableRecord
  2
BLOCK53
340
0
  0
BLOCK_RECORD
  5
1D6
330
1
100
AcDbSymbolTableRecord
100
AcDbBlockTableRecord
  2
BLOCK54
340
0
  0
BLOCK_RECORD
  5
1E1
330
1
100
AcDbSymbolTableRecord
100
AcDbBlockTableRecord
  2
BLOCK55
340
0
  0
BLOCK_RECORD
  5
210
330
1
100
AcDbSymbolTableRecord
100
AcDbBlockTableRecord
  2
BLOCK56
340
0
  0
BLOCK_RECORD
  5
21B
330
1
100
AcDbSymbolTableRecord
100
AcDbBlockTableRecord
  2
BLOCK57
340
0
  0
BLOCK_RECORD
  5
234
330
1
100
AcDbSymbolTableRecord
100
AcDbBlockTableRecord
  2
BLOCK58
340
0
  0
BLOCK_RECORD
  5
23F
330
1
100
AcDbSymbolTableRecord
100
AcDbBlockTableRecord
  2
BLOCK59
340
0
  0
BLOCK_RECORD
  5
258
330
1
100
AcDbSymbolTableRecord
100
AcDbBlockTableRecord
  2
BLOCK60
340
0
  0
BLOCK_RECORD
  5
263
330
1
100
AcDbSymbolTableRecord
100
AcDbBlockTableRecord
  2
*D61
340
0
  0
BLOCK_RECORD
  5
26E
330
1
100
AcDbSymbolTableRecord
100
AcDbBlockTableRecord
  2
*D62
340
0
  0
BLOCK_RECORD
  5
279
330
1
100
AcDbSymbolTableRecord
100
AcDbBlockTableRecord
  2
*D63
340
0
  0
BLOCK_RECORD
  5
284
330
1
100
AcDbSymbolTableRecord
100
AcDbBlockTableRecord
  2
*D64
340
0
  0
BLOCK_RECORD
  5
28F
330
1
100
AcDbSymbolTableRecord
100
AcDbBlockTableRecord
  2
*D65
340
0
  0
BLOCK_RECORD
  5
29A
330
1
100
AcDbSymbolTableRecord
100
AcDbBlockTableRecord
  2
*D66
340
0
  0
BLOCK_RECORD
  5
2A5
330
1
100
AcDbSymbolTableRecord
100
AcDbBlockTableRecord
  2
*D67
340
0
  0
BLOCK_RECORD
  5
2B0
330
1
100
AcDbSymbolTableRecord
100
AcDbBlockTableRecord
  2
*D68
340
0
  0
BLOCK_RECORD
  5
2BB
330
1
100
AcDbSymbolTableRecord
100
AcDbBlockTableRecord
  2
*D69
340
0
  0
BLOCK_RECORD
  5
2C6
330
1
100
AcDbSymbolTableRecord
100
AcDbBlockTableRecord
  2
*D70
340
0
  0
BLOCK_RECORD
  5
35D
330
1
100
AcDbSymbolTableRecord
100
AcDbBlockTableRecord
  2
*D71
340
0
  0
BLOCK_RECORD
  5
36A
330
1
100
AcDbSymbolTableRecord
100
AcDbBlockTableRecord
  2
*D72
340
0
  0
BLOCK_RECORD
  5
377
330
1
100
AcDbSymbolTableRecord
100
AcDbBlockTableRecord
  2
*D73
340
0
  0
BLOCK_RECORD
  5
383
330
1
100
AcDbSymbolTableRecord
100
AcDbBlockTableRecord
  2
*D74
340
0
  0
BLOCK_RECORD
  5
38E
330
1
100
AcDbSymbolTableRecord
100
AcDbBlockTableRecord
  2
*D75
340
0
  0
BLOCK_RECORD
  5
39A
330
1
100
AcDbSymbolTableRecord
100
AcDbBlockTableRecord
  2
*D76
340
0
  0
BLOCK_RECORD
  5
3A5
330
1
100
AcDbSymbolTableRecord
100
AcDbBlockTableRecord
  2
*D77
340
0
  0
BLOCK_RECORD
  5
3B1
330
1
100
AcDbSymbolTableRecord
100
AcDbBlockTableRecord
  2
*D78
340
0
  0
BLOCK_RECORD
  5
3BD
330
1
100
AcDbSymbolTableRecord
100
AcDbBlockTableRecord
  2
*D79
340
0
  0
BLOCK_RECORD
  5
3C8
330
1
100
AcDbSymbolTableRecord
100
AcDbBlockTableRecord
  2
*D80
340
0
  0
ENDTAB
  0
ENDSEC
  0
SECTION
  2
BLOCKS
  0
BLOCK
  5
20
330
1F
100
AcDbEntity
  8
0
100
AcDbBlockBegin
  2
*Model_Space
 70
     0
 10
0.0
 20
0.0
 30
0.0
  3
*Model_Space
  1

  0
ENDBLK
  5
21
330
1F
100
AcDbEntity
  8
0
100
AcDbBlockEnd
  0
BLOCK
  5
75
330
73
100
AcDbEntity
 67
     1
  8
0
100
AcDbBlockBegin
  2
*Paper_Space
 70
     0
 10
0.0
 20
0.0
 30
0.0
  3
*Paper_Space
  1

  0
ENDBLK
  5
76
330
73
100
AcDbEntity
 67
     1
  8
0
100
AcDbBlockEnd
  0
BLOCK
  5
3CE
330
D1
100
AcDbEntity
  8
0
100
AcDbBlockBegin
  2
*Paper_Space0
 70
     0
 10
0.0
 20
0.0
 30
0.0
  3
*Paper_Space0
  1

  0
VIEWPORT
  5
470
330
D1
100
AcDbEntity
  8
0
100
AcDbViewport
 10
7.8
 20
4.5
 30
0.0
 40
15.64
 41
9.0
 68
     1
 69
     1
 12
6.0
 22
4.5
 13
0.0
 23
0.0
 14
0.5
 24
0.5
 15
0.5
 25
0.5
 16
0.0
 26
0.0
 36
1.0
 17
0.0
 27
0.0
 37
0.0
 42
50.0
 43
0.0
 44
0.0
 45
12.0
 50
0.0
 51
0.0
 72
   100
 90
   557152
  1

281
     0
 71
     1
 74
     0
110
0.0
120
0.0
130
0.0
111
1.0
121
0.0
131
0.0
112
0.0
122
1.0
132
0.0
 79
     0
146
0.0
  0
ENDBLK
  5
3CF
330
D1
100
AcDbEntity
  8
0
100
AcDbBlockEnd
  0
BLOCK
  5
3D0
330
FE
100
AcDbEntity
  8
0
100
AcDbBlockBegin
  2
BLOCK1
 70
     0
 10
0.0
 20
0.0
 30
0.0
  3
BLOCK1
  1

  0
TEXT
  5
FC
330
FE
100
AcDbEntity
  8
0
 62
     7
370
    13
390
F
100
AcDbText
 10
16.632565
 20
49.766666
 30
0.0
 40
2.0
  1
L
 41
1.301152500000001
 72
     5
 11
18.367435
 21
49.766666
 31
0.0
100
AcDbText
  0
ENDBLK
  5
3D1
330
FE
100
AcDbEntity
  8
0
100
AcDbBlockEnd
  0
BLOCK
  5
3D2
330
102
100
AcDbEntity
  8
0
100
AcDbBlockBegin
  2
BLOCK2
 70
     0
 10
0.0
 20
0.0
 30
0.0
  3
BLOCK2
  1

  0
TEXT
  5
100
330
102
100
AcDbEntity
  8
0
 62
     7
370
    70
390
F
100
AcDbText
 10
16.766666
 20
131.666672
 30
0.0
 40
2.0
  1
I
 41
2.200001999999998
 72
     5
 11
18.233334
 21
131.666672
 31
0.0
100
AcDbText
  0
ENDBLK
  5
3D3
330
102
100
AcDbEntity
  8
0
100
AcDbBlockEnd
  0
BLOCK
  5
3D4
330
106
100
AcDbEntity
  8
0
100
AcDbBlockBegin
  2
BLOCK3
 70
     0
 10
0.0
 20
0.0
 30
0.0
  3
BLOCK3
  1

  0
TEXT
  5
104
330
106
100
AcDbEntity
  8
0
 62
     7
370
    13
390
F
100
AcDbText
 10
16.632565
 20
213.566666
 30
0.0
 40
2.0
  1
H
 41
1.301152500000001
 72
     5
 11
18.367435
 21
213.566666
 31
0.0
100
AcDbText
  0
ENDBLK
  5
3D5
330
106
100
AcDbEntity
  8
0
100
AcDbBlockEnd
  0
BLOCK
  5
3D6
330
10A
100
AcDbEntity
  8
0
100
AcDbBlockBegin
  2
BLOCK4
 70
     0
 10
0.0
 20
0.0
 30
0.0
  3
BLOCK4
  1

  0
TEXT
  5
108
330
10A
100
AcDbEntity
  8
0
 62
     7
370
    13
390
F
100
AcDbText
 10
16.632565
 20
295.466675
 30
0.0
 40
2.0
  1
G
 41
1.301152500000001
 72
     5
 11
18.367435
 21
295.466675
 31
0.0
100
AcDbText
  0
ENDBLK
  5
3D7
330
10A
100
AcDbEntity
  8
0
100
AcDbBlockEnd
  0
BLOCK
  5
3D8
330
10E
100
AcDbEntity
  8
0
100
AcDbBlockBegin
  2
BLOCK5
 70
     0
 10
0.0
 20
0.0
 30
0.0
  3
BLOCK5
  1

  0
TEXT
  5
10C
330
10E
100
AcDbEntity
  8
0
 62
     7
370
    13
390
F
100
AcDbText
 10
16.632565
 20
377.366669
 30
0.0
 40
2.0
  1
F
 41
1.301152500000001
 72
     5
 11
18.367435
 21
377.366669
 31
0.0
100
AcDbText
  0
ENDBLK
  5
3D9
330
10E
100
AcDbEntity
  8
0
100
AcDbBlockEnd
  0
BLOCK
  5
3DA
330
112
100
AcDbEntity
  8
0
100
AcDbBlockBegin
  2
BLOCK6
 70
     0
 10
0.0
 20
0.0
 30
0.0
  3
BLOCK6
  1

  0
TEXT
  5
110
330
112
100
AcDbEntity
  8
0
 62
     7
370
    13
390
F
100
AcDbText
 10
16.632565
 20
459.266663
 30
0.0
 40
2.0
  1
E
 41
1.301152500000001
 72
     5
 11
18.367435
 21
459.266663
 31
0.0
100
AcDbText
  0
ENDBLK
  5
3DB
330
112
100
AcDbEntity
  8
0
100
AcDbBlockEnd
  0
BLOCK
  5
3DC
330
116
100
AcDbEntity
  8
0
100
AcDbBlockBegin
  2
BLOCK7
 70
     0
 10
0.0
 20
0.0
 30
0.0
  3
BLOCK7
  1

  0
TEXT
  5
114
330
116
100
AcDbEntity
  8
0
 62
     7
370
    13
390
F
100
AcDbText
 10
16.632565
 20
541.166687
 30
0.0
 40
2.0
  1
D
 41
1.301152500000001
 72
     5
 11
18.367435
 21
541.166687
 31
0.0
100
AcDbText
  0
ENDBLK
  5
3DD
330
116
100
AcDbEntity
  8
0
100
AcDbBlockEnd
  0
BLOCK
  5
3DE
330
11A
100
AcDbEntity
  8
0
100
AcDbBlockBegin
  2
BLOCK8
 70
     0
 10
0.0
 20
0.0
 30
0.0
  3
BLOCK8
  1

  0
TEXT
  5
118
330
11A
100
AcDbEntity
  8
0
 62
     7
370
    13
390
F
100
AcDbText
 10
16.632565
 20
623.06665
 30
0.0
 40
2.0
  1
C
 41
1.301152500000001
 72
     5
 11
18.367435
 21
623.06665
 31
0.0
100
AcDbText
  0
ENDBLK
  5
3DF
330
11A
100
AcDbEntity
  8
0
100
AcDbBlockEnd
  0
BLOCK
  5
3E0
330
11E
100
AcDbEntity
  8
0
100
AcDbBlockBegin
  2
BLOCK9
 70
     0
 10
0.0
 20
0.0
 30
0.0
  3
BLOCK9
  1

  0
TEXT
  5
11C
330
11E
100
AcDbEntity
  8
0
 62
     7
370
    13
390
F
100
AcDbText
 10
16.632565
 20
704.966675
 30
0.0
 40
2.0
  1
B
 41
1.301152500000001
 72
     5
 11
18.367435
 21
704.966675
 31
0.0
100
AcDbText
  0
ENDBLK
  5
3E1
330
11E
100
AcDbEntity
  8
0
100
AcDbBlockEnd
  0
BLOCK
  5
3E2
330
122
100
AcDbEntity
  8
0
100
AcDbBlockBegin
  2
BLOCK10
 70
     0
 10
0.0
 20
0.0
 30
0.0
  3
BLOCK10
  1

  0
TEXT
  5
120
330
122
100
AcDbEntity
  8
0
 62
     7
370
    13
390
F
100
AcDbText
 10
16.632565
 20
786.866638
 30
0.0
 40
2.0
  1
A
 41
1.301152500000001
 72
     5
 11
18.367435
 21
786.866638
 31
0.0
100
AcDbText
  0
ENDBLK
  5
3E3
330
122
100
AcDbEntity
  8
0
100
AcDbBlockEnd
  0
BLOCK
  5
3E4
330
126
100
AcDbEntity
  8
0
100
AcDbBlockBegin
  2
BLOCK11
 70
     0
 10
0.0
 20
0.0
 30
0.0
  3
BLOCK11
  1

  0
TEXT
  5
124
330
126
100
AcDbEntity
  8
0
 62
     7
370
    13
390
F
100
AcDbText
 10
55.309486
 20
830.5
 30
0.0
 40
2.0
  1
1
 41
2.602306499999997
 72
     5
 11
57.044357
 21
830.5
 31
0.0
100
AcDbText
  0
ENDBLK
  5
3E5
330
126
100
AcDbEntity
  8
0
100
AcDbBlockEnd
  0
BLOCK
  5
3E6
330
12A
100
AcDbEntity
  8
0
100
AcDbBlockBegin
  2
BLOCK12
 70
     0
 10
0.0
 20
0.0
 30
0.0
  3
BLOCK12
  1

  0
TEXT
  5
128
330
12A
100
AcDbEntity
  8
0
 62
     7
370
    13
390
F
100
AcDbText
 10
127.746994
 20
830.5
 30
0.0
 40
2.0
  1
2
 41
1.301147249999993
 72
     5
 11
129.481857
 21
830.5
 31
0.0
100
AcDbText
  0
ENDBLK
  5
3E7
330
12A
100
AcDbEntity
  8
0
100
AcDbBlockEnd
  0
BLOCK
  5
3E8
330
12E
100
AcDbEntity
  8
0
100
AcDbBlockBegin
  2
BLOCK13
 70
     0
 10
0.0
 20
0.0
 30
0.0
  3
BLOCK13
  1

  0
TEXT
  5
12C
330
12E
100
AcDbEntity
  8
0
 62
     7
370
    13
390
F
100
AcDbText
 10
200.184494
 20
830.5
 30
0.0
 40
2.0
  1
3
 41
1.301147249999993
 72
     5
 11
201.919357
 21
830.5
 31
0.0
100
AcDbText
  0
ENDBLK
  5
3E9
330
12E
100
AcDbEntity
  8
0
100
AcDbBlockEnd
  0
BLOCK
  5
3EA
330
132
100
AcDbEntity
  8
0
100
AcDbBlockBegin
  2
BLOCK14
 70
     0
 10
0.0
 20
0.0
 30
0.0
  3
BLOCK14
  1

  0
TEXT
  5
130
330
132
100
AcDbEntity
  8
0
 62
     7
370
    13
390
F
100
AcDbText
 10
272.621979
 20
830.5
 30
0.0
 40
2.0
  1
4
 41
1.301147249999971
 72
     5
 11
274.356842
 21
830.5
 31
0.0
100
AcDbText
  0
ENDBLK
  5
3EB
330
132
100
AcDbEntity
  8
0
100
AcDbBlockEnd
  0
BLOCK
  5
3EC
330
136
100
AcDbEntity
  8
0
100
AcDbBlockBegin
  2
BLOCK15
 70
     0
 10
0.0
 20
0.0
 30
0.0
  3
BLOCK15
  1

  0
TEXT
  5
134
330
136
100
AcDbEntity
  8
0
 62
     7
370
    13
390
F
100
AcDbText
 10
345.059479
 20
830.5
 30
0.0
 40
2.0
  1
5
 41
1.301147249999971
 72
     5
 11
346.794342
 21
830.5
 31
0.0
100
AcDbText
  0
ENDBLK
  5
3ED
330
136
100
AcDbEntity
  8
0
100
AcDbBlockEnd
  0
BLOCK
  5
3EE
330
13A
100
AcDbEntity
  8
0
100
AcDbBlockBegin
  2
BLOCK16
 70
     0
 10
0.0
 20
0.0
 30
0.0
  3
BLOCK16
  1

  0
TEXT
  5
138
330
13A
100
AcDbEntity
  8
0
 62
     7
370
    13
390
F
100
AcDbText
 10
417.496979
 20
830.5
 30
0.0
 40
2.0
  1
6
 41
1.301147249999971
 72
     5
 11
419.231842
 21
830.5
 31
0.0
100
AcDbText
  0
ENDBLK
  5
3EF
330
13A
100
AcDbEntity
  8
0
100
AcDbBlockEnd
  0
BLOCK
  5
3F0
330
13E
100
AcDbEntity
  8
0
100
AcDbBlockBegin
  2
BLOCK17
 70
     0
 10
0.0
 20
0.0
 30
0.0
  3
BLOCK17
  1

  0
TEXT
  5
13C
330
13E
100
AcDbEntity
  8
0
 62
     7
370
    13
390
F
100
AcDbText
 10
489.934479
 20
830.5
 30
0.0
 40
2.0
  1
7
 41
1.301147249999971
 72
     5
 11
491.669342
 21
830.5
 31
0.0
100
AcDbText
  0
ENDBLK
  5
3F1
330
13E
100
AcDbEntity
  8
0
100
AcDbBlockEnd
  0
BLOCK
  5
3F2
330
142
100
AcDbEntity
  8
0
100
AcDbBlockBegin
  2
BLOCK18
 70
     0
 10
0.0
 20
0.0
 30
0.0
  3
BLOCK18
  1

  0
TEXT
  5
140
330
142
100
AcDbEntity
  8
0
 62
     7
370
    13
390
F
100
AcDbText
 10
562.372009
 20
830.5
 30
0.0
 40
2.0
  1
8
 41
1.301147999999927
 72
     5
 11
564.106873
 21
830.5
 31
0.0
100
AcDbText
  0
ENDBLK
  5
3F3
330
142
100
AcDbEntity
  8
0
100
AcDbBlockEnd
  0
BLOCK
  5
3F4
330
146
100
AcDbEntity
  8
0
100
AcDbBlockBegin
  2
BLOCK19
 70
     0
 10
0.0
 20
0.0
 30
0.0
  3
BLOCK19
  1

  0
TEXT
  5
144
330
146
100
AcDbEntity
  8
0
 62
     7
370
    13
390
F
100
AcDbText
 10
634.809509
 20
830.5
 30
0.0
 40
2.0
  1
9
 41
1.301147999999927
 72
     5
 11
636.544373
 21
830.5
 31
0.0
100
AcDbText
  0
ENDBLK
  5
3F5
330
146
100
AcDbEntity
  8
0
100
AcDbBlockEnd
  0
BLOCK
  5
3F6
330
14A
100
AcDbEntity
  8
0
100
AcDbBlockBegin
  2
BLOCK20
 70
     0
 10
0.0
 20
0.0
 30
0.0
  3
BLOCK20
  1

  0
TEXT
  5
148
330
14A
100
AcDbEntity
  8
0
 62
     7
370
    13
390
F
100
AcDbText
 10
706.179565
 20
830.5
 30
0.0
 40
2.0
  1
10
 41
1.658464714285693
 72
     5
 11
710.049316
 21
830.5
 31
0.0
100
AcDbText
  0
ENDBLK
  5
3F7
330
14A
100
AcDbEntity
  8
0
100
AcDbBlockEnd
  0
BLOCK
  5
3F8
330
14E
100
AcDbEntity
  8
0
100
AcDbBlockBegin
  2
BLOCK21
 70
     0
 10
0.0
 20
0.0
 30
0.0
  3
BLOCK21
  1

  0
TEXT
  5
14C
330
14E
100
AcDbEntity
  8
0
 62
     7
370
    13
390
F
100
AcDbText
 10
778.617065
 20
830.5
 30
0.0
 40
2.0
  1
11
 41
1.934875499999976
 72
     5
 11
782.486816
 21
830.5
 31
0.0
100
AcDbText
  0
ENDBLK
  5
3F9
330
14E
100
AcDbEntity
  8
0
100
AcDbBlockEnd
  0
BLOCK
  5
3FA
330
152
100
AcDbEntity
  8
0
100
AcDbBlockBegin
  2
BLOCK22
 70
     0
 10
0.0
 20
0.0
 30
0.0
  3
BLOCK22
  1

  0
TEXT
  5
150
330
152
100
AcDbEntity
  8
0
 62
     7
370
    13
390
F
100
AcDbText
 10
851.054565
 20
830.5
 30
0.0
 40
2.0
  1
12
 41
1.451156624999982
 72
     5
 11
854.924316
 21
830.5
 31
0.0
100
AcDbText
  0
ENDBLK
  5
3FB
330
152
100
AcDbEntity
  8
0
100
AcDbBlockEnd
  0
BLOCK
  5
3FC
330
156
100
AcDbEntity
  8
0
100
AcDbBlockBegin
  2
BLOCK23
 70
     0
 10
0.0
 20
0.0
 30
0.0
  3
BLOCK23
  1

  0
TEXT
  5
154
330
156
100
AcDbEntity
  8
0
 62
     7
370
    13
390
F
100
AcDbText
 10
923.492065
 20
830.5
 30
0.0
 40
2.0
  1
13
 41
1.451156624999982
 72
     5
 11
927.361816
 21
830.5
 31
0.0
100
AcDbText
  0
ENDBLK
  5
3FD
330
156
100
AcDbEntity
  8
0
100
AcDbBlockEnd
  0
BLOCK
  5
3FE
330
15A
100
AcDbEntity
  8
0
100
AcDbBlockBegin
  2
BLOCK24
 70
     0
 10
0.0
 20
0.0
 30
0.0
  3
BLOCK24
  1

  0
TEXT
  5
158
330
15A
100
AcDbEntity
  8
0
 62
     7
370
    13
390
F
100
AcDbText
 10
995.929565
 20
830.5
 30
0.0
 40
2.0
  1
14
 41
1.451156624999982
 72
     5
 11
999.799316
 21
830.5
 31
0.0
100
AcDbText
  0
ENDBLK
  5
3FF
330
15A
100
AcDbEntity
  8
0
100
AcDbBlockEnd
  0
BLOCK
  5
400
330
15E
100
AcDbEntity
  8
0
100
AcDbBlockBegin
  2
BLOCK25
 70
     0
 10
0.0
 20
0.0
 30
0.0
  3
BLOCK25
  1

  0
TEXT
  5
15C
330
15E
100
AcDbEntity
  8
0
 62
     7
370
    13
390
F
100
AcDbText
 10
1068.367065
 20
830.5
 30
0.0
 40
2.0
  1
15
 41
1.451156625000067
 72
     5
 11
1072.236816
 21
830.5
 31
0.0
100
AcDbText
  0
ENDBLK
  5
401
330
15E
100
AcDbEntity
  8
0
100
AcDbBlockEnd
  0
BLOCK
  5
402
330
162
100
AcDbEntity
  8
0
100
AcDbBlockBegin
  2
BLOCK26
 70
     0
 10
0.0
 20
0.0
 30
0.0
  3
BLOCK26
  1

  0
TEXT
  5
160
330
162
100
AcDbEntity
  8
0
 62
     7
370
    13
390
F
100
AcDbText
 10
1140.804565
 20
830.5
 30
0.0
 40
2.0
  1
16
 41
1.451156625000067
 72
     5
 11
1144.674316
 21
830.5
 31
0.0
100
AcDbText
  0
ENDBLK
  5
403
330
162
100
AcDbEntity
  8
0
100
AcDbBlockEnd
  0
BLOCK
  5
404
330
166
100
AcDbEntity
  8
0
100
AcDbBlockBegin
  2
BLOCK27
 70
     0
 10
0.0
 20
0.0
 30
0.0
  3
BLOCK27
  1

  0
TEXT
  5
164
330
166
100
AcDbEntity
  8
0
 62
     7
370
    13
390
F
100
AcDbText
 10
1140.804565
 20
6.5
 30
0.0
 40
2.0
  1
16
 41
1.451156625000067
 72
     5
 11
1144.674316
 21
6.5
 31
0.0
100
AcDbText
  0
ENDBLK
  5
405
330
166
100
AcDbEntity
  8
0
100
AcDbBlockEnd
  0
BLOCK
  5
406
330
16A
100
AcDbEntity
  8
0
100
AcDbBlockBegin
  2
BLOCK28
 70
     0
 10
0.0
 20
0.0
 30
0.0
  3
BLOCK28
  1

  0
TEXT
  5
168
330
16A
100
AcDbEntity
  8
0
 62
     7
370
    13
390
F
100
AcDbText
 10
1068.367065
 20
6.5
 30
0.0
 40
2.0
  1
15
 41
1.451156625000067
 72
     5
 11
1072.236816
 21
6.5
 31
0.0
100
AcDbText
  0
ENDBLK
  5
407
330
16A
100
AcDbEntity
  8
0
100
AcDbBlockEnd
  0
BLOCK
  5
408
330
16E
100
AcDbEntity
  8
0
100
AcDbBlockBegin
  2
BLOCK29
 70
     0
 10
0.0
 20
0.0
 30
0.0
  3
BLOCK29
  1

  0
TEXT
  5
16C
330
16E
100
AcDbEntity
  8
0
 62
     7
370
    13
390
F
100
AcDbText
 10
995.929565
 20
6.5
 30
0.0
 40
2.0
  1
14
 41
1.451156624999982
 72
     5
 11
999.799316
 21
6.5
 31
0.0
100
AcDbText
  0
ENDBLK
  5
409
330
16E
100
AcDbEntity
  8
0
100
AcDbBlockEnd
  0
BLOCK
  5
40A
330
172
100
AcDbEntity
  8
0
100
AcDbBlockBegin
  2
BLOCK30
 70
     0
 10
0.0
 20
0.0
 30
0.0
  3
BLOCK30
  1

  0
TEXT
  5
170
330
172
100
AcDbEntity
  8
0
 62
     7
370
    13
390
F
100
AcDbText
 10
923.492065
 20
6.5
 30
0.0
 40
2.0
  1
13
 41
1.451156624999982
 72
     5
 11
927.361816
 21
6.5
 31
0.0
100
AcDbText
  0
ENDBLK
  5
40B
330
172
100
AcDbEntity
  8
0
100
AcDbBlockEnd
  0
BLOCK
  5
40C
330
176
100
AcDbEntity
  8
0
100
AcDbBlockBegin
  2
BLOCK31
 70
     0
 10
0.0
 20
0.0
 30
0.0
  3
BLOCK31
  1

  0
TEXT
  5
174
330
176
100
AcDbEntity
  8
0
 62
     7
370
    13
390
F
100
AcDbText
 10
851.054565
 20
6.5
 30
0.0
 40
2.0
  1
12
 41
1.451156624999982
 72
     5
 11
854.924316
 21
6.5
 31
0.0
100
AcDbText
  0
ENDBLK
  5
40D
330
176
100
AcDbEntity
  8
0
100
AcDbBlockEnd
  0
BLOCK
  5
40E
330
17A
100
AcDbEntity
  8
0
100
AcDbBlockBegin
  2
BLOCK32
 70
     0
 10
0.0
 20
0.0
 30
0.0
  3
BLOCK32
  1

  0
TEXT
  5
178
330
17A
100
AcDbEntity
  8
0
 62
     7
370
    13
390
F
100
AcDbText
 10
778.617065
 20
6.5
 30
0.0
 40
2.0
  1
11
 41
1.934875499999976
 72
     5
 11
782.486816
 21
6.5
 31
0.0
100
AcDbText
  0
ENDBLK
  5
40F
330
17A
100
AcDbEntity
  8
0
100
AcDbBlockEnd
  0
BLOCK
  5
410
330
17E
100
AcDbEntity
  8
0
100
AcDbBlockBegin
  2
BLOCK33
 70
     0
 10
0.0
 20
0.0
 30
0.0
  3
BLOCK33
  1

  0
TEXT
  5
17C
330
17E
100
AcDbEntity
  8
0
 62
     7
370
    13
390
F
100
AcDbText
 10
706.179565
 20
6.5
 30
0.0
 40
2.0
  1
10
 41
1.658464714285693
 72
     5
 11
710.049316
 21
6.5
 31
0.0
100
AcDbText
  0
ENDBLK
  5
411
330
17E
100
AcDbEntity
  8
0
100
AcDbBlockEnd
  0
BLOCK
  5
412
330
182
100
AcDbEntity
  8
0
100
AcDbBlockBegin
  2
BLOCK34
 70
     0
 10
0.0
 20
0.0
 30
0.0
  3
BLOCK34
  1

  0
TEXT
  5
180
330
182
100
AcDbEntity
  8
0
 62
     7
370
    13
390
F
100
AcDbText
 10
634.809509
 20
6.5
 30
0.0
 40
2.0
  1
9
 41
1.301147999999927
 72
     5
 11
636.544373
 21
6.5
 31
0.0
100
AcDbText
  0
ENDBLK
  5
413
330
182
100
AcDbEntity
  8
0
100
AcDbBlockEnd
  0
BLOCK
  5
414
330
186
100
AcDbEntity
  8
0
100
AcDbBlockBegin
  2
BLOCK35
 70
     0
 10
0.0
 20
0.0
 30
0.0
  3
BLOCK35
  1

  0
TEXT
  5
184
330
186
100
AcDbEntity
  8
0
 62
     7
370
    13
390
F
100
AcDbText
 10
562.372009
 20
6.5
 30
0.0
 40
2.0
  1
8
 41
1.301147999999927
 72
     5
 11
564.106873
 21
6.5
 31
0.0
100
AcDbText
  0
ENDBLK
  5
415
330
186
100
AcDbEntity
  8
0
100
AcDbBlockEnd
  0
BLOCK
  5
416
330
18A
100
AcDbEntity
  8
0
100
AcDbBlockBegin
  2
BLOCK36
 70
     0
 10
0.0
 20
0.0
 30
0.0
  3
BLOCK36
  1

  0
TEXT
  5
188
330
18A
100
AcDbEntity
  8
0
 62
     7
370
    13
390
F
100
AcDbText
 10
489.934479
 20
6.5
 30
0.0
 40
2.0
  1
7
 41
1.301147249999971
 72
     5
 11
491.669342
 21
6.5
 31
0.0
100
AcDbText
  0
ENDBLK
  5
417
330
18A
100
AcDbEntity
  8
0
100
AcDbBlockEnd
  0
BLOCK
  5
418
330
18E
100
AcDbEntity
  8
0
100
AcDbBlockBegin
  2
BLOCK37
 70
     0
 10
0.0
 20
0.0
 30
0.0
  3
BLOCK37
  1

  0
TEXT
  5
18C
330
18E
100
AcDbEntity
  8
0
 62
     7
370
    13
390
F
100
AcDbText
 10
417.496979
 20
6.5
 30
0.0
 40
2.0
  1
6
 41
1.301147249999971
 72
     5
 11
419.231842
 21
6.5
 31
0.0
100
AcDbText
  0
ENDBLK
  5
419
330
18E
100
AcDbEntity
  8
0
100
AcDbBlockEnd
  0
BLOCK
  5
41A
330
192
100
AcDbEntity
  8
0
100
AcDbBlockBegin
  2
BLOCK38
 70
     0
 10
0.0
 20
0.0
 30
0.0
  3
BLOCK38
  1

  0
TEXT
  5
190
330
192
100
AcDbEntity
  8
0
 62
     7
370
    13
390
F
100
AcDbText
 10
345.059479
 20
6.5
 30
0.0
 40
2.0
  1
5
 41
1.301147249999971
 72
     5
 11
346.794342
 21
6.5
 31
0.0
100
AcDbText
  0
ENDBLK
  5
41B
330
192
100
AcDbEntity
  8
0
100
AcDbBlockEnd
  0
BLOCK
  5
41C
330
196
100
AcDbEntity
  8
0
100
AcDbBlockBegin
  2
BLOCK39
 70
     0
 10
0.0
 20
0.0
 30
0.0
  3
BLOCK39
  1

  0
TEXT
  5
194
330
196
100
AcDbEntity
  8
0
 62
     7
370
    13
390
F
100
AcDbText
 10
272.621979
 20
6.5
 30
0.0
 40
2.0
  1
4
 41
1.301147249999971
 72
     5
 11
274.356842
 21
6.5
 31
0.0
100
AcDbText
  0
ENDBLK
  5
41D
330
196
100
AcDbEntity
  8
0
100
AcDbBlockEnd
  0
BLOCK
  5
41E
330
19A
100
AcDbEntity
  8
0
100
AcDbBlockBegin
  2
BLOCK40
 70
     0
 10
0.0
 20
0.0
 30
0.0
  3
BLOCK40
  1

  0
TEXT
  5
198
330
19A
100
AcDbEntity
  8
0
 62
     7
370
    13
390
F
100
AcDbText
 10
200.184494
 20
6.5
 30
0.0
 40
2.0
  1
3
 41
1.301147249999993
 72
     5
 11
201.919357
 21
6.5
 31
0.0
100
AcDbText
  0
ENDBLK
  5
41F
330
19A
100
AcDbEntity
  8
0
100
AcDbBlockEnd
  0
BLOCK
  5
420
330
19E
100
AcDbEntity
  8
0
100
AcDbBlockBegin
  2
BLOCK41
 70
     0
 10
0.0
 20
0.0
 30
0.0
  3
BLOCK41
  1

  0
TEXT
  5
19C
330
19E
100
AcDbEntity
  8
0
 62
     7
370
    13
390
F
100
AcDbText
 10
127.746994
 20
6.5
 30
0.0
 40
2.0
  1
2
 41
1.301147249999993
 72
     5
 11
129.481857
 21
6.5
 31
0.0
100
AcDbText
  0
ENDBLK
  5
421
330
19E
100
AcDbEntity
  8
0
100
AcDbBlockEnd
  0
BLOCK
  5
422
330
1A2
100
AcDbEntity
  8
0
100
AcDbBlockBegin
  2
BLOCK42
 70
     0
 10
0.0
 20
0.0
 30
0.0
  3
BLOCK42
  1

  0
TEXT
  5
1A0
330
1A2
100
AcDbEntity
  8
0
 62
     7
370
    13
390
F
100
AcDbText
 10
1180.632568
 20
49.766666
 30
0.0
 40
2.0
  1
L
 41
1.301148000000012
 72
     5
 11
1182.367432
 21
49.766666
 31
0.0
100
AcDbText
  0
ENDBLK
  5
423
330
1A2
100
AcDbEntity
  8
0
100
AcDbBlockEnd
  0
BLOCK
  5
424
330
1A6
100
AcDbEntity
  8
0
100
AcDbBlockBegin
  2
BLOCK43
 70
     0
 10
0.0
 20
0.0
 30
0.0
  3
BLOCK43
  1

  0
TEXT
  5
1A4
330
1A6
100
AcDbEntity
  8
0
 62
     7
370
    13
390
F
100
AcDbText
 10
1180.632568
 20
131.666672
 30
0.0
 40
2.0
  1
I
 41
2.602296000000024
 72
     5
 11
1182.367432
 21
131.666672
 31
0.0
100
AcDbText
  0
ENDBLK
  5
425
330
1A6
100
AcDbEntity
  8
0
100
AcDbBlockEnd
  0
BLOCK
  5
426
330
1AA
100
AcDbEntity
  8
0
100
AcDbBlockBegin
  2
BLOCK44
 70
     0
 10
0.0
 20
0.0
 30
0.0
  3
BLOCK44
  1

  0
TEXT
  5
1A8
330
1AA
100
AcDbEntity
  8
0
 62
     7
370
    13
390
F
100
AcDbText
 10
1180.632568
 20
213.566666
 30
0.0
 40
2.0
  1
H
 41
1.301148000000012
 72
     5
 11
1182.367432
 21
213.566666
 31
0.0
100
AcDbText
  0
ENDBLK
  5
427
330
1AA
100
AcDbEntity
  8
0
100
AcDbBlockEnd
  0
BLOCK
  5
428
330
1AE
100
AcDbEntity
  8
0
100
AcDbBlockBegin
  2
BLOCK45
 70
     0
 10
0.0
 20
0.0
 30
0.0
  3
BLOCK45
  1

  0
TEXT
  5
1AC
330
1AE
100
AcDbEntity
  8
0
 62
     7
370
    13
390
F
100
AcDbText
 10
1180.632568
 20
295.466675
 30
0.0
 40
2.0
  1
G
 41
1.301148000000012
 72
     5
 11
1182.367432
 21
295.466675
 31
0.0
100
AcDbText
  0
ENDBLK
  5
429
330
1AE
100
AcDbEntity
  8
0
100
AcDbBlockEnd
  0
BLOCK
  5
42A
330
1B2
100
AcDbEntity
  8
0
100
AcDbBlockBegin
  2
BLOCK46
 70
     0
 10
0.0
 20
0.0
 30
0.0
  3
BLOCK46
  1

  0
TEXT
  5
1B0
330
1B2
100
AcDbEntity
  8
0
 62
     7
370
    13
390
F
100
AcDbText
 10
1180.632568
 20
377.366669
 30
0.0
 40
2.0
  1
F
 41
1.301148000000012
 72
     5
 11
1182.367432
 21
377.366669
 31
0.0
100
AcDbText
  0
ENDBLK
  5
42B
330
1B2
100
AcDbEntity
  8
0
100
AcDbBlockEnd
  0
BLOCK
  5
42C
330
1B6
100
AcDbEntity
  8
0
100
AcDbBlockBegin
  2
BLOCK47
 70
     0
 10
0.0
 20
0.0
 30
0.0
  3
BLOCK47
  1

  0
TEXT
  5
1B4
330
1B6
100
AcDbEntity
  8
0
 62
     7
370
    13
390
F
100
AcDbText
 10
1180.632568
 20
459.266663
 30
0.0
 40
2.0
  1
E
 41
1.301148000000012
 72
     5
 11
1182.367432
 21
459.266663
 31
0.0
100
AcDbText
  0
ENDBLK
  5
42D
330
1B6
100
AcDbEntity
  8
0
100
AcDbBlockEnd
  0
BLOCK
  5
42E
330
1BA
100
AcDbEntity
  8
0
100
AcDbBlockBegin
  2
BLOCK48
 70
     0
 10
0.0
 20
0.0
 30
0.0
  3
BLOCK48
  1

  0
TEXT
  5
1B8
330
1BA
100
AcDbEntity
  8
0
 62
     7
370
    13
390
F
100
AcDbText
 10
1180.632568
 20
541.166687
 30
0.0
 40
2.0
  1
D
 41
1.301148000000012
 72
     5
 11
1182.367432
 21
541.166687
 31
0.0
100
AcDbText
  0
ENDBLK
  5
42F
330
1BA
100
AcDbEntity
  8
0
100
AcDbBlockEnd
  0
BLOCK
  5
430
330
1BE
100
AcDbEntity
  8
0
100
AcDbBlockBegin
  2
BLOCK49
 70
     0
 10
0.0
 20
0.0
 30
0.0
  3
BLOCK49
  1

  0
TEXT
  5
1BC
330
1BE
100
AcDbEntity
  8
0
 62
     7
370
    13
390
F
100
AcDbText
 10
1180.632568
 20
623.06665
 30
0.0
 40
2.0
  1
C
 41
1.301148000000012
 72
     5
 11
1182.367432
 21
623.06665
 31
0.0
100
AcDbText
  0
ENDBLK
  5
431
330
1BE
100
AcDbEntity
  8
0
100
AcDbBlockEnd
  0
BLOCK
  5
432
330
1C2
100
AcDbEntity
  8
0
100
AcDbBlockBegin
  2
BLOCK50
 70
     0
 10
0.0
 20
0.0
 30
0.0
  3
BLOCK50
  1

  0
TEXT
  5
1C0
330
1C2
100
AcDbEntity
  8
0
 62
     7
370
    13
390
F
100
AcDbText
 10
1180.632568
 20
704.966675
 30
0.0
 40
2.0
  1
B
 41
1.301148000000012
 72
     5
 11
1182.367432
 21
704.966675
 31
0.0
100
AcDbText
  0
ENDBLK
  5
433
330
1C2
100
AcDbEntity
  8
0
100
AcDbBlockEnd
  0
BLOCK
  5
434
330
1C6
100
AcDbEntity
  8
0
100
AcDbBlockBegin
  2
BLOCK51
 70
     0
 10
0.0
 20
0.0
 30
0.0
  3
BLOCK51
  1

  0
TEXT
  5
1C4
330
1C6
100
AcDbEntity
  8
0
 62
     7
370
    13
390
F
100
AcDbText
 10
55.309486
 20
6.5
 30
0.0
 40
2.0
  1
1
 41
2.602306499999997
 72
     5
 11
57.044357
 21
6.5
 31
0.0
100
AcDbText
  0
ENDBLK
  5
435
330
1C6
100
AcDbEntity
  8
0
100
AcDbBlockEnd
  0
BLOCK
  5
436
330
1CA
100
AcDbEntity
  8
0
100
AcDbBlockBegin
  2
BLOCK52
 70
     0
 10
0.0
 20
0.0
 30
0.0
  3
BLOCK52
  1

  0
TEXT
  5
1C8
330
1CA
100
AcDbEntity
  8
0
 62
     7
370
    13
390
F
100
AcDbText
 10
1180.632568
 20
786.866638
 30
0.0
 40
2.0
  1
A
 41
1.301148000000012
 72
     5
 11
1182.367432
 21
786.866638
 31
0.0
100
AcDbText
  0
ENDBLK
  5
437
330
1CA
100
AcDbEntity
  8
0
100
AcDbBlockEnd
  0
BLOCK
  5
438
330
1D0
100
AcDbEntity
  8
0
100
AcDbBlockBegin
  2
BLOCK53
 70
     0
 10
0.0
 20
0.0
 30
0.0
  3
BLOCK53
  1

  0
TEXT
  5
1CC
330
1D0
100
AcDbEntity
  8
0
 62
     7
370
    13
390
F
100
AcDbText
 10
6.701831
 20
9.96806
 30
0.0
 40
2.0
  1
GEWISS SpA si riserva tutti i diritti sul presente documento
 50
90.00000275216357
 41
0.954974770642203
 72
     5
 11
6.701826
 21
114.06031
 31
0.0
100
AcDbText
  0
TEXT
  5
1CD
330
1D0
100
AcDbEntity
  8
0
 62
     7
370
    13
390
F
100
AcDbText
 10
10.157163
 20
9.96806
 30
0.0
 40
2.0
  1
e con quanto rappresentato.E'vietato riprodurlo,utilizzarlo
 50
90.00000279881041
 41
0.9686818201892755
 72
     5
 11
10.157158
 21
112.325439
 31
0.0
100
AcDbText
  0
TEXT
  5
1CE
330
1D0
100
AcDbEntity
  8
0
 62
     7
370
    13
390
F
100
AcDbText
 10
13.612494
 20
9.968061
 30
0.0
 40
2.0
  1
renderlo accessibile a terzi senza autorizzazione scritta
 50
90.0000028970143
 41
0.9569771322580658
 72
     5
 11
13.612489
 21
108.855698
 31
0.0
100
AcDbText
  0
ENDBLK
  5
439
330
1D0
100
AcDbEntity
  8
0
100
AcDbBlockEnd
  0
BLOCK
  5
43A
330
1D6
100
AcDbEntity
  8
0
100
AcDbBlockBegin
  2
BLOCK54
 70
     0
 10
0.0
 20
0.0
 30
0.0
  3
BLOCK54
  1

  0
TEXT
  5
1D2
330
1D6
100
AcDbEntity
  8
0
 62
     7
370
    13
390
F
100
AcDbText
 10
6.543763
 20
147.493759
 30
0.0
 40
2.0
  1
GEWISS SpA reserve all rights in this document and in the information
 50
90.00000287182327
 41
0.9401000261780119
 72
     5
 11
6.543757
 21
267.199829
 31
0.0
100
AcDbText
  0
TEXT
  5
1D3
330
1D6
100
AcDbEntity
  8
0
 62
     7
370
    13
390
F
100
AcDbText
 10
9.999094
 20
147.493759
 30
0.0
 40
2.0
  1
contained therein. Reproduction, use or disclosure to third parties
 50
90.00000246462413
 41
0.9527569180327877
 72
     5
 11
9.999089
 21
263.730103
 31
0.0
100
AcDbText
  0
TEXT
  5
1D4
330
1D6
100
AcDbEntity
  8
0
 62
     7
370
    13
390
F
100
AcDbText
 10
13.454425
 20
147.493759
 30
0.0
 40
2.0
  1
without written authorization is stricty forbidden
 50
90.0000026420769
 41
0.9638171777777785
 72
     5
 11
13.454421
 21
234.237305
 31
0.0
100
AcDbText
  0
ENDBLK
  5
43B
330
1D6
100
AcDbEntity
  8
0
100
AcDbBlockEnd
  0
BLOCK
  5
43C
330
1E1
100
AcDbEntity
  8
0
100
AcDbBlockBegin
  2
BLOCK55
 70
     0
 10
0.0
 20
0.0
 30
0.0
  3
BLOCK55
  1

  0
SOLID
  5
1D8
330
1E1
100
AcDbEntity
  8
0
 62
     7
370
    13
390
F
100
AcDbTrace
 10
337.068146
 20
130.024963
 30
0.0
 11
339.0
 21
130.542603
 31
0.0
 12
337.068146
 22
130.024963
 32
0.0
 13
337.068146
 23
131.060242
 33
0.0
  0
SOLID
  5
1D9
330
1E1
100
AcDbEntity
  8
0
 62
     7
370
    13
390
F
100
AcDbTrace
 10
-337.068146
 20
131.060242
 30
0.0
 11
-339.0
 21
130.542603
 31
0.0
 12
-337.068146
 22
131.060242
 32
0.0
 13
-337.068146
 23
130.024963
 33
0.0
  0
TEXT
  5
1DA
330
1E1
100
AcDbEntity
  8
0
 62
     7
370
    13
390
F
100
AcDbText
 10
-7.505764
 20
132.542603
 30
0.0
 40
5.0
  1
678
 41
1.1258646
 72
     5
 11
7.505764
 21
132.542603
 31
0.0
100
AcDbText
  0
LINE
  5
1DB
330
1E1
100
AcDbEntity
  8
0
 62
     7
370
    13
390
F
100
AcDbLine
 10
-339.0
 20
77.0
 30
0.0
 11
-339.0
 21
132.542603
 31
0.0
  0
LINE
  5
1DC
330
1E1
100
AcDbEntity
  8
0
 62
     7
370
    13
390
F
100
AcDbLine
 10
339.0
 20
77.0
 30
0.0
 11
339.0
 21
132.542603
 31
0.0
  0
LINE
  5
1DD
330
1E1
100
AcDbEntity
  8
0
 62
     7
370
    13
390
F
100
AcDbLine
 10
-337.068146
 20
130.542603
 30
0.0
 11
337.068146
 21
130.542603
 31
0.0
  0
LWPOLYLINE
  5
1DE
330
1E1
100
AcDbEntity
  8
0
 62
     7
370
    13
390
F
100
AcDbPolyline
 90
        3
 70
     1
 43
0.0
 10
337.068146
 20
130.024963
 10
339.0
 20
130.542603
 10
337.068146
 20
131.060242
  0
LWPOLYLINE
  5
1DF
330
1E1
100
AcDbEntity
  8
0
 62
     7
370
    13
390
F
100
AcDbPolyline
 90
        3
 70
     1
 43
0.0
 10
-337.068146
 20
131.060242
 10
-339.0
 20
130.542603
 10
-337.068146
 20
130.024963
  0
ENDBLK
  5
43D
330
1E1
100
AcDbEntity
  8
0
100
AcDbBlockEnd
  0
BLOCK
  5
43E
330
210
100
AcDbEntity
  8
0
100
AcDbBlockBegin
  2
BLOCK56
 70
     0
 10
0.0
 20
0.0
 30
0.0
  3
BLOCK56
  1

  0
ARC
  5
1E3
330
210
100
AcDbEntity
  8
0
 62
     7
370
    35
390
F
100
AcDbCircle
 10
321.0
 20
76.0
 30
0.0
 40
18.0
100
AcDbArc
 50
0.0
 51
90.000003
  0
LINE
  5
1E4
330
210
100
AcDbEntity
  8
0
 62
     7
370
    35
390
F
100
AcDbLine
 10
316.068481
 20
89.0
 30
0.0
 11
-316.068481
 21
89.0
 31
0.0
  0
LINE
  5
1E5
330
210
100
AcDbEntity
  8
0
 62
     7
 48
0.103835
370
    13
390
F
100
AcDbLine
 10
316.068481
 20
89.0
 30
0.0
 11
313.131592
 21
86.06311
 31
0.0
  0
LINE
  5
1E6
330
210
100
AcDbEntity
  8
0
 62
     7
370
    13
390
F
100
AcDbLine
 10
313.131592
 20
86.06311
 30
0.0
 11
-313.131592
 21
86.06311
 31
0.0
  0
LINE
  5
1E7
330
210
100
AcDbEntity
  8
0
 62
     7
 48
0.103835
370
    13
390
F
100
AcDbLine
 10
-316.068481
 20
89.0
 30
0.0
 11
-313.131592
 21
86.06311
 31
0.0
  0
ARC
  5
1E8
330
210
100
AcDbEntity
  8
0
 62
     7
370
    35
390
F
100
AcDbCircle
 10
-321.0
 20
76.0
 30
0.0
 40
18.0
100
AcDbArc
 50
90.000003
 51
180.000005
  0
LINE
  5
1E9
330
210
100
AcDbEntity
  8
0
 62
     7
370
    35
390
F
100
AcDbLine
 10
321.0
 20
94.0
 30
0.0
 11
-321.0
 21
94.0
 31
0.0
  0
ARC
  5
1EA
330
210
100
AcDbEntity
  8
0
 62
     7
370
    35
390
F
100
AcDbCircle
 10
321.0
 20
-76.0
 30
0.0
 40
18.0
100
AcDbArc
 50
269.999997
 51
0.0
  0
LINE
  5
1EB
330
210
100
AcDbEntity
  8
0
 62
     7
 48
0.103835
370
    13
390
F
100
AcDbLine
 10
-316.068481
 20
-89.0
 30
0.0
 11
-313.131592
 21
-86.06311
 31
0.0
  0
LINE
  5
1EC
330
210
100
AcDbEntity
  8
0
 62
     7
370
    13
390
F
100
AcDbLine
 10
313.131592
 20
-86.06311
 30
0.0
 11
-313.131592
 21
-86.06311
 31
0.0
  0
LINE
  5
1ED
330
210
100
AcDbEntity
  8
0
 62
     7
 48
0.103835
370
    13
390
F
100
AcDbLine
 10
316.068481
 20
-89.0
 30
0.0
 11
313.131592
 21
-86.06311
 31
0.0
  0
LINE
  5
1EE
330
210
100
AcDbEntity
  8
0
 62
     7
370
    35
390
F
100
AcDbLine
 10
316.068481
 20
-89.0
 30
0.0
 11
-316.068481
 21
-89.0
 31
0.0
  0
ARC
  5
1EF
330
210
100
AcDbEntity
  8
0
 62
     7
370
    35
390
F
100
AcDbCircle
 10
-321.0
 20
-76.0
 30
0.0
 40
18.0
100
AcDbArc
 50
180.000005
 51
269.999997
  0
LINE
  5
1F0
330
210
100
AcDbEntity
  8
0
 62
     7
370
    35
390
F
100
AcDbLine
 10
321.0
 20
-94.0
 30
0.0
 11
-321.0
 21
-94.0
 31
0.0
  0
LINE
  5
1F1
330
210
100
AcDbEntity
  8
0
 62
     7
370
    35
390
F
100
AcDbLine
 10
339.0
 20
-76.0
 30
0.0
 11
339.0
 21
76.0
 31
0.0
  0
LINE
  5
1F2
330
210
100
AcDbEntity
  8
0
 62
     7
370
    13
390
F
100
AcDbLine
 10
313.131592
 20
-68.131607
 30
0.0
 11
313.131592
 21
68.131607
 31
0.0
  0
LINE
  5
1F3
330
210
100
AcDbEntity
  8
0
 62
     7
370
    13
390
F
100
AcDbLine
 10
313.131592
 20
68.131607
 30
0.0
 11
-313.131592
 21
68.131607
 31
0.0
  0
LINE
  5
1F4
330
210
100
AcDbEntity
  8
0
 62
     7
370
    13
390
F
100
AcDbLine
 10
-313.131592
 20
-68.131607
 30
0.0
 11
-313.131592
 21
68.131607
 31
0.0
  0
LINE
  5
1F5
330
210
100
AcDbEntity
  8
0
 62
     7
370
    13
390
F
100
AcDbLine
 10
313.131592
 20
-68.131607
 30
0.0
 11
-313.131592
 21
-68.131607
 31
0.0
  0
LINE
  5
1F6
330
210
100
AcDbEntity
  8
0
 62
     7
 48
0.448288
370
    13
390
F
100
AcDbLine
 10
-313.131592
 20
68.131607
 30
0.0
 11
-331.06311
 21
68.131607
 31
0.0
  0
LINE
  5
1F7
330
210
100
AcDbEntity
  8
0
 62
     7
370
    13
390
F
100
AcDbLine
 10
-331.06311
 20
-68.131607
 30
0.0
 11
-331.06311
 21
68.131607
 31
0.0
  0
LINE
  5
1F8
330
210
100
AcDbEntity
  8
0
 62
     7
 48
0.448288
370
    13
390
F
100
AcDbLine
 10
-313.131592
 20
-68.131607
 30
0.0
 11
-331.06311
 21
-68.131607
 31
0.0
  0
LINE
  5
1F9
330
210
100
AcDbEntity
  8
0
 62
     7
370
    13
390
F
100
AcDbLine
 10
331.06311
 20
-68.131607
 30
0.0
 11
331.06311
 21
68.131607
 31
0.0
  0
LINE
  5
1FA
330
210
100
AcDbEntity
  8
0
 62
     7
 48
0.448288
370
    13
390
F
100
AcDbLine
 10
313.131592
 20
68.131607
 30
0.0
 11
331.06311
 21
68.131607
 31
0.0
  0
LINE
  5
1FB
330
210
100
AcDbEntity
  8
0
 62
     7
 48
0.448288
370
    13
390
F
100
AcDbLine
 10
313.131592
 20
-68.131607
 30
0.0
 11
331.06311
 21
-68.131607
 31
0.0
  0
LINE
  5
1FC
330
210
100
AcDbEntity
  8
0
 62
     7
370
    35
390
F
100
AcDbLine
 10
-339.0
 20
-76.0
 30
0.0
 11
-339.0
 21
76.0
 31
0.0
  0
LINE
  5
1FD
330
210
100
AcDbEntity
  8
0
 62
     7
 48
0.103835
370
    13
390
F
100
AcDbLine
 10
-334.0
 20
-71.068497
 30
0.0
 11
-331.06311
 21
-68.131607
 31
0.0
  0
LINE
  5
1FE
330
210
100
AcDbEntity
  8
0
 62
     7
370
    35
390
F
100
AcDbLine
 10
-334.0
 20
-71.068497
 30
0.0
 11
-334.0
 21
71.068497
 31
0.0
  0
LINE
  5
1FF
330
210
100
AcDbEntity
  8
0
 62
     7
 48
0.103835
370
    13
390
F
100
AcDbLine
 10
-334.0
 20
71.068497
 30
0.0
 11
-331.06311
 21
68.131607
 31
0.0
  0
LINE
  5
200
330
210
100
AcDbEntity
  8
0
 62
     7
 48
0.103835
370
    13
390
F
100
AcDbLine
 10
334.0
 20
71.068497
 30
0.0
 11
331.06311
 21
68.131607
 31
0.0
  0
LINE
  5
201
330
210
100
AcDbEntity
  8
0
 62
     7
370
    35
390
F
100
AcDbLine
 10
334.0
 20
-71.068497
 30
0.0
 11
334.0
 21
71.068497
 31
0.0
  0
LINE
  5
202
330
210
100
AcDbEntity
  8
0
 62
     7
 48
0.103835
370
    13
390
F
100
AcDbLine
 10
334.0
 20
-71.068497
 30
0.0
 11
331.06311
 21
-68.131607
 31
0.0
  0
ELLIPSE
  5
203
330
210
100
AcDbEntity
  8
0
 62
     7
370
    35
390
F
100
AcDbEllipse
 10
315.931122
 20
70.931114
 30
0.0
 11
-12.82477569580078
 21
-12.82542037963867
 31
0.0
210
0.0
220
0.0
230
1.0
 40
0.9924269999999997
 41
2.359971926719437
 42
3.923163636867938
  0
ELLIPSE
  5
204
330
210
100
AcDbEntity
  8
0
 62
     7
370
    35
390
F
100
AcDbEllipse
 10
-315.931122
 20
70.931114
 30
0.0
 11
12.82477569580078
 21
-12.82542037963867
 31
0.0
210
0.0
220
0.0
230
1.0
 40
0.9924269999999997
 41
2.360021670310825
 42
3.923213380459529
  0
ELLIPSE
  5
205
330
210
100
AcDbEntity
  8
0
 62
     7
370
    35
390
F
100
AcDbEllipse
 10
-315.931122
 20
-70.931114
 30
0.0
 11
-12.82477569580078
 21
-12.82542037963867
 31
0.0
210
0.0
220
0.0
230
1.0
 40
0.9924269999999997
 41
5.501564580309853
 42
7.064756290458555
  0
ELLIPSE
  5
206
330
210
100
AcDbEntity
  8
0
 62
     7
370
    35
390
F
100
AcDbEllipse
 10
315.931122
 20
-70.931114
 30
0.0
 11
12.82477569580078
 21
-12.82542037963867
 31
0.0
210
0.0
220
0.0
230
1.0
 40
0.9924269999999997
 41
5.501614323901443
 42
7.064806034049943
  0
ELLIPSE
  5
207
330
210
100
AcDbEntity
  8
0
 62
     7
370
    13
390
F
100
AcDbEllipse
 10
313.131592
 20
68.131607
 30
0.0
 11
-12.7279224395752
 21
12.7279224395752
 31
0.0
210
0.0
220
0.0
230
1.0
 40
0.9924329999999996
 41
3.930788915260527
 42
5.493989045508859
  0
ELLIPSE
  5
208
330
210
100
AcDbEntity
  8
0
 62
     7
370
    13
390
F
100
AcDbEllipse
 10
-313.131592
 20
68.131607
 30
0.0
 11
12.7279224395752
 21
12.7279224395752
 31
0.0
210
0.0
220
0.0
230
1.0
 40
0.9924329999999996
 41
0.7891962616707263
 42
2.35239639191906
  0
LINE
  5
209
330
210
100
AcDbEntity
  8
0
 62
     7
 48
0.448288
370
    13
390
F
100
AcDbLine
 10
313.131592
 20
68.131607
 30
0.0
 11
313.131592
 21
86.06311
 31
0.0
  0
LINE
  5
20A
330
210
100
AcDbEntity
  8
0
 62
     7
 48
0.448288
370
    13
390
F
100
AcDbLine
 10
-313.131592
 20
68.131607
 30
0.0
 11
-313.131592
 21
86.06311
 31
0.0
  0
ELLIPSE
  5
20B
330
210
100
AcDbEntity
  8
0
 62
     7
370
    13
390
F
100
AcDbEllipse
 10
313.131592
 20
-68.131607
 30
0.0
 11
-12.7279224395752
 21
-12.7279224395752
 31
0.0
210
0.0
220
0.0
230
1.0
 40
0.9924329999999996
 41
0.7891962616707263
 42
2.35239639191906
  0
ELLIPSE
  5
20C
330
210
100
AcDbEntity
  8
0
 62
     7
370
    13
390
F
100
AcDbEllipse
 10
-313.131592
 20
-68.131607
 30
0.0
 11
12.7279224395752
 21
-12.7279224395752
 31
0.0
210
0.0
220
0.0
230
1.0
 40
0.9924329999999996
 41
3.930788915260527
 42
5.493989045508859
  0
LINE
  5
20D
330
210
100
AcDbEntity
  8
0
 62
     7
 48
0.448288
370
    13
390
F
100
AcDbLine
 10
313.131592
 20
-68.131607
 30
0.0
 11
313.131592
 21
-86.06311
 31
0.0
  0
LINE
  5
20E
330
210
100
AcDbEntity
  8
0
 62
     7
 48
0.448288
370
    13
390
F
100
AcDbLine
 10
-313.131592
 20
-68.131607
 30
0.0
 11
-313.131592
 21
-86.06311
 31
0.0
  0
ENDBLK
  5
43F
330
210
100
AcDbEntity
  8
0
100
AcDbBlockEnd
  0
BLOCK
  5
440
330
21B
100
AcDbEntity
  8
0
100
AcDbBlockBegin
  2
BLOCK57
 70
     0
 10
0.0
 20
0.0
 30
0.0
  3
BLOCK57
  1

  0
SOLID
  5
212
330
21B
100
AcDbEntity
  8
0
 62
     7
370
    13
390
F
100
AcDbTrace
 10
377.866333
 20
-56.06815
 30
0.0
 11
378.383972
 21
-58.0
 31
0.0
 12
377.866333
 22
-56.06815
 32
0.0
 13
378.901611
 23
-56.06815
 33
0.0
  0
SOLID
  5
213
330
21B
100
AcDbEntity
  8
0
 62
     7
370
    13
390
F
100
AcDbTrace
 10
378.901611
 20
-1.931852
 30
0.0
 11
378.383972
 21
0.0
 31
0.0
 12
378.901611
 22
-1.931852
 32
0.0
 13
377.866333
 23
-1.931852
 33
0.0
  0
TEXT
  5
214
330
21B
100
AcDbEntity
  8
0
 62
     7
370
    13
390
F
100
AcDbText
 10
376.383972
 20
-33.837177
 30
0.0
 40
5.0
  1
58
 50
90.0
 41
1.160922239999999
 72
     5
 11
376.383972
 21
-24.162825
 31
0.0
100
AcDbText
  0
LINE
  5
215
330
21B
100
AcDbEntity
  8
0
 62
     7
370
    13
390
F
100
AcDbLine
 10
314.131592
 20
-58.0
 30
0.0
 11
380.383972
 21
-58.0
 31
0.0
  0
LINE
  5
216
330
21B
100
AcDbEntity
  8
0
 62
     7
370
    13
390
F
100
AcDbLine
 10
322.0
 20
0.0
 30
0.0
 11
380.383972
 21
0.0
 31
0.0
  0
LINE
  5
217
330
21B
100
AcDbEntity
  8
0
 62
     7
370
    13
390
F
100
AcDbLine
 10
378.383972
 20
-56.06815
 30
0.0
 11
378.383972
 21
-1.931852
 31
0.0
  0
LWPOLYLINE
  5
218
330
21B
100
AcDbEntity
  8
0
 62
     7
370
    13
390
F
100
AcDbPolyline
 90
        3
 70
     1
 43
0.0
 10
377.866333
 20
-56.06815
 10
378.383972
 20
-58.0
 10
378.901611
 20
-56.06815
  0
LWPOLYLINE
  5
219
330
21B
100
AcDbEntity
  8
0
 62
     7
370
    13
390
F
100
AcDbPolyline
 90
        3
 70
     1
 43
0.0
 10
378.901611
 20
-1.931852
 10
378.383972
 20
0.0
 10
377.866333
 20
-1.931852
  0
ENDBLK
  5
441
330
21B
100
AcDbEntity
  8
0
100
AcDbBlockEnd
  0
BLOCK
  5
442
330
234
100
AcDbEntity
  8
0
100
AcDbBlockBegin
  2
BLOCK58
 70
     0
 10
0.0
 20
0.0
 30
0.0
  3
BLOCK58
  1

  0
LINE
  5
21D
330
234
100
AcDbEntity
  8
0
 62
     7
 48
0.45
370
    35
390
F
100
AcDbLine
 10
339.0
 20
-8.0
 30
0.0
 11
321.0
 21
-8.0
 31
0.0
  0
LINE
  5
21E
330
234
100
AcDbEntity
  8
0
 62
     7
 48
0.45
370
    35
390
F
100
AcDbLine
 10
321.0
 20
0.0
 30
0.0
 11
339.0
 21
0.0
 31
0.0
  0
LINE
  5
21F
330
234
100
AcDbEntity
  8
0
 62
     7
 48
0.2
370
    13
390
F
100
AcDbLine
 10
321.0
 20
0.0
 30
0.0
 11
321.0
 21
-8.0
 31
0.0
  0
LINE
  5
220
330
234
100
AcDbEntity
  8
0
 62
     7
370
    13
390
F
100
AcDbLine
 10
316.068481
 20
-8.0
 30
0.0
 11
313.131592
 21
-41.568802
 31
0.0
  0
LINE
  5
221
330
234
100
AcDbEntity
  8
0
 62
     7
370
    13
390
F
100
AcDbLine
 10
313.131592
 20
-41.568802
 30
0.0
 11
-313.131592
 21
-41.568802
 31
0.0
  0
LINE
  5
222
330
234
100
AcDbEntity
  8
0
 62
     7
370
    13
390
F
100
AcDbLine
 10
-316.068481
 20
-8.0
 30
0.0
 11
-313.131592
 21
-41.568802
 31
0.0
  0
LINE
  5
223
330
234
100
AcDbEntity
  8
0
 62
     7
 48
0.2
370
    13
390
F
100
AcDbLine
 10
-321.0
 20
0.0
 30
0.0
 11
-321.0
 21
-8.0
 31
0.0
  0
LINE
  5
224
330
234
100
AcDbEntity
  8
0
 62
     7
 48
0.45
370
    35
390
F
100
AcDbLine
 10
-339.0
 20
0.0
 30
0.0
 11
-321.0
 21
0.0
 31
0.0
  0
LINE
  5
225
330
234
100
AcDbEntity
  8
0
 62
     7
 48
0.45
370
    35
390
F
100
AcDbLine
 10
-321.0
 20
-8.0
 30
0.0
 11
-339.0
 21
-8.0
 31
0.0
  0
LINE
  5
226
330
234
100
AcDbEntity
  8
0
 62
     7
370
    35
390
F
100
AcDbLine
 10
-321.0
 20
0.0
 30
0.0
 11
321.0
 21
0.0
 31
0.0
  0
LINE
  5
227
330
234
100
AcDbEntity
  8
0
 62
     7
370
    35
390
F
100
AcDbLine
 10
321.0
 20
-8.0
 30
0.0
 11
-321.0
 21
-8.0
 31
0.0
  0
ARC
  5
228
330
234
100
AcDbEntity
  8
0
 62
     7
370
    35
390
F
100
AcDbCircle
 10
-313.131592
 20
-40.0
 30
0.0
 40
18.0
100
AcDbArc
 50
184.999994
 51
269.999997
  0
ARC
  5
229
330
234
100
AcDbEntity
  8
0
 62
     7
370
    35
390
F
100
AcDbCircle
 10
313.131592
 20
-40.0
 30
0.0
 40
18.0
100
AcDbArc
 50
269.999997
 51
355.0
  0
LINE
  5
22A
330
234
100
AcDbEntity
  8
0
 62
     7
370
    35
390
F
100
AcDbLine
 10
-334.0
 20
-8.0
 30
0.0
 11
-331.06311
 21
-41.568802
 31
0.0
  0
ELLIPSE
  5
22B
330
234
100
AcDbEntity
  8
0
 62
     7
370
    13
390
F
100
AcDbEllipse
 10
313.131592
 20
-40.0
 30
0.0
 11
-17.93150520324707
 21
1.568803310394287
 31
0.0
210
0.0
220
0.0
230
1.0
 40
0.086827
 41
1.57839252334146
 42
3.141592653589793
  0
ELLIPSE
  5
22C
330
234
100
AcDbEntity
  8
0
 62
     7
370
    13
390
F
100
AcDbEllipse
 10
-313.131592
 20
-40.0
 30
0.0
 11
17.93150520324707
 21
1.568803310394287
 31
0.0
210
0.0
220
0.0
230
1.0
 40
0.086827
 41
3.141592653589793
 42
4.704792783838126
  0
LINE
  5
22D
330
234
100
AcDbEntity
  8
0
 62
     7
 48
0.41078
370
    13
390
F
100
AcDbLine
 10
313.131592
 20
-58.0
 30
0.0
 11
313.131592
 21
-41.568802
 31
0.0
  0
LINE
  5
22E
330
234
100
AcDbEntity
  8
0
 62
     7
 48
0.41078
370
    13
390
F
100
AcDbLine
 10
-313.131592
 20
-58.0
 30
0.0
 11
-313.131592
 21
-41.568802
 31
0.0
  0
LINE
  5
22F
330
234
100
AcDbEntity
  8
0
 62
     7
 48
0.2
370
    35
390
F
100
AcDbLine
 10
339.0
 20
0.0
 30
0.0
 11
339.0
 21
-8.0
 31
0.0
  0
LINE
  5
230
330
234
100
AcDbEntity
  8
0
 62
     7
 48
0.2
370
    35
390
F
100
AcDbLine
 10
-339.0
 20
-8.0
 30
0.0
 11
-339.0
 21
0.0
 31
0.0
  0
LINE
  5
231
330
234
100
AcDbEntity
  8
0
 62
     7
370
    35
390
F
100
AcDbLine
 10
334.0
 20
-8.0
 30
0.0
 11
331.06311
 21
-41.568954
 31
0.0
  0
LINE
  5
232
330
234
100
AcDbEntity
  8
0
 62
     7
370
    35
390
F
100
AcDbLine
 10
313.131592
 20
-58.0
 30
0.0
 11
-313.131592
 21
-58.0
 31
0.0
  0
ENDBLK
  5
443
330
234
100
AcDbEntity
  8
0
100
AcDbBlockEnd
  0
BLOCK
  5
444
330
23F
100
AcDbEntity
  8
0
100
AcDbBlockBegin
  2
BLOCK59
 70
     0
 10
0.0
 20
0.0
 30
0.0
  3
BLOCK59
  1

  0
SOLID
  5
236
330
23F
100
AcDbEntity
  8
0
 62
     7
370
    13
390
F
100
AcDbTrace
 10
56.06815
 20
134.290649
 30
0.0
 11
58.0
 21
134.808289
 31
0.0
 12
56.06815
 22
134.290649
 32
0.0
 13
56.06815
 23
135.325928
 33
0.0
  0
SOLID
  5
237
330
23F
100
AcDbEntity
  8
0
 62
     7
370
    13
390
F
100
AcDbTrace
 10
1.931852
 20
135.325928
 30
0.0
 11
0.0
 21
134.808289
 31
0.0
 12
1.931852
 22
135.325928
 32
0.0
 13
1.931852
 23
134.290649
 33
0.0
  0
TEXT
  5
238
330
23F
100
AcDbEntity
  8
0
 62
     7
370
    13
390
F
100
AcDbText
 10
24.162825
 20
136.808289
 30
0.0
 40
5.0
  1
58
 41
1.160922239999999
 72
     5
 11
33.837177
 21
136.808289
 31
0.0
100
AcDbText
  0
LINE
  5
239
330
23F
100
AcDbEntity
  8
0
 62
     7
370
    13
390
F
100
AcDbLine
 10
0.0
 20
77.0
 30
0.0
 11
0.0
 21
136.808289
 31
0.0
  0
LINE
  5
23A
330
23F
100
AcDbEntity
  8
0
 62
     7
370
    13
390
F
100
AcDbLine
 10
58.0
 20
69.131607
 30
0.0
 11
58.0
 21
136.808289
 31
0.0
  0
LINE
  5
23B
330
23F
100
AcDbEntity
  8
0
 62
     7
370
    13
390
F
100
AcDbLine
 10
1.931852
 20
134.808289
 30
0.0
 11
56.06815
 21
134.808289
 31
0.0
  0
LWPOLYLINE
  5
23C
330
23F
100
AcDbEntity
  8
0
 62
     7
370
    13
390
F
100
AcDbPolyline
 90
        3
 70
     1
 43
0.0
 10
56.06815
 20
134.290649
 10
58.0
 20
134.808289
 10
56.06815
 20
135.325928
  0
LWPOLYLINE
  5
23D
330
23F
100
AcDbEntity
  8
0
 62
     7
370
    13
390
F
100
AcDbPolyline
 90
        3
 70
     1
 43
0.0
 10
1.931852
 20
135.325928
 10
0.0
 20
134.808289
 10
1.931852
 20
134.290649
  0
ENDBLK
  5
445
330
23F
100
AcDbEntity
  8
0
100
AcDbBlockEnd
  0
BLOCK
  5
446
330
258
100
AcDbEntity
  8
0
100
AcDbBlockBegin
  2
BLOCK60
 70
     0
 10
0.0
 20
0.0
 30
0.0
  3
BLOCK60
  1

  0
LINE
  5
241
330
258
100
AcDbEntity
  8
0
 62
     7
370
    35
390
F
100
AcDbLine
 10
8.0
 20
89.0
 30
0.0
 11
41.568802
 21
86.06311
 31
0.0
  0
LINE
  5
242
330
258
100
AcDbEntity
  8
0
 62
     7
 48
0.2
370
    35
390
F
100
AcDbLine
 10
0.0
 20
94.0
 30
0.0
 11
8.0
 21
94.0
 31
0.0
  0
LINE
  5
243
330
258
100
AcDbEntity
  8
0
 62
     7
 48
0.45
370
    35
390
F
100
AcDbLine
 10
0.0
 20
76.0
 30
0.0
 11
0.0
 21
94.0
 31
0.0
  0
LINE
  5
244
330
258
100
AcDbEntity
  8
0
 62
     7
 48
0.2
370
    13
390
F
100
AcDbLine
 10
0.0
 20
76.0
 30
0.0
 11
8.0
 21
76.0
 31
0.0
  0
LINE
  5
245
330
258
100
AcDbEntity
  8
0
 62
     7
 48
0.45
370
    35
390
F
100
AcDbLine
 10
8.0
 20
94.0
 30
0.0
 11
8.0
 21
76.0
 31
0.0
  0
LINE
  5
246
330
258
100
AcDbEntity
  8
0
 62
     7
370
    35
390
F
100
AcDbLine
 10
8.0
 20
-89.0
 30
0.0
 11
41.568802
 21
-86.06311
 31
0.0
  0
LINE
  5
247
330
258
100
AcDbEntity
  8
0
 62
     7
 48
0.45
370
    35
390
F
100
AcDbLine
 10
8.0
 20
-76.0
 30
0.0
 11
8.0
 21
-94.0
 31
0.0
  0
LINE
  5
248
330
258
100
AcDbEntity
  8
0
 62
     7
 48
0.2
370
    13
390
F
100
AcDbLine
 10
0.0
 20
-76.0
 30
0.0
 11
8.0
 21
-76.0
 31
0.0
  0
LINE
  5
249
330
258
100
AcDbEntity
  8
0
 62
     7
 48
0.45
370
    35
390
F
100
AcDbLine
 10
0.0
 20
-94.0
 30
0.0
 11
0.0
 21
-76.0
 31
0.0
  0
LINE
  5
24A
330
258
100
AcDbEntity
  8
0
 62
     7
 48
0.2
370
    35
390
F
100
AcDbLine
 10
0.0
 20
-94.0
 30
0.0
 11
8.0
 21
-94.0
 31
0.0
  0
LINE
  5
24B
330
258
100
AcDbEntity
  8
0
 62
     7
 48
0.41078
370
    13
390
F
100
AcDbLine
 10
58.0
 20
68.131607
 30
0.0
 11
41.568802
 21
68.131607
 31
0.0
  0
LINE
  5
24C
330
258
100
AcDbEntity
  8
0
 62
     7
370
    13
390
F
100
AcDbLine
 10
41.568802
 20
-68.131607
 30
0.0
 11
41.568802
 21
68.131607
 31
0.0
  0
LINE
  5
24D
330
258
100
AcDbEntity
  8
0
 62
     7
 48
0.41078
370
    13
390
F
100
AcDbLine
 10
58.0
 20
-68.131607
 30
0.0
 11
41.568802
 21
-68.131607
 31
0.0
  0
LINE
  5
24E
330
258
100
AcDbEntity
  8
0
 62
     7
370
    35
390
F
100
AcDbLine
 10
0.0
 20
-76.0
 30
0.0
 11
0.0
 21
76.0
 31
0.0
  0
LINE
  5
24F
330
258
100
AcDbEntity
  8
0
 62
     7
370
    35
390
F
100
AcDbLine
 10
8.0
 20
-76.0
 30
0.0
 11
8.0
 21
76.0
 31
0.0
  0
LINE
  5
250
330
258
100
AcDbEntity
  8
0
 62
     7
370
    13
390
F
100
AcDbLine
 10
8.0
 20
-71.068497
 30
0.0
 11
41.568802
 21
-68.131607
 31
0.0
  0
LINE
  5
251
330
258
100
AcDbEntity
  8
0
 62
     7
370
    13
390
F
100
AcDbLine
 10
8.0
 20
71.068497
 30
0.0
 11
41.568802
 21
68.131607
 31
0.0
  0
ELLIPSE
  5
252
330
258
100
AcDbEntity
  8
0
 62
     7
370
    13
390
F
100
AcDbEllipse
 10
40.0
 20
68.131607
 30
0.0
 11
1.568803310394287
 21
17.93150520324707
 31
0.0
210
0.0
220
0.0
230
1.0
 40
0.086827
 41
4.719985176931253
 42
6.283185307179586
  0
ARC
  5
253
330
258
100
AcDbEntity
  8
0
 62
     7
370
    35
390
F
100
AcDbCircle
 10
40.0
 20
68.131607
 30
0.0
 40
18.0
100
AcDbArc
 50
0.0
 51
84.999997
  0
ELLIPSE
  5
254
330
258
100
AcDbEntity
  8
0
 62
     7
370
    13
390
F
100
AcDbEllipse
 10
40.0
 20
-68.131607
 30
0.0
 11
1.568803310394287
 21
-17.93150520324707
 31
0.0
210
0.0
220
0.0
230
1.0
 40
0.086827
 41
6.283185307179586
 42
7.846385437427919
  0
ARC
  5
255
330
258
100
AcDbEntity
  8
0
 62
     7
370
    35
390
F
100
AcDbCircle
 10
40.0
 20
-68.131607
 30
0.0
 40
18.0
100
AcDbArc
 50
275.000003
 51
0.0
  0
LINE
  5
256
330
258
100
AcDbEntity
  8
0
 62
     7
370
    35
390
F
100
AcDbLine
 10
58.0
 20
68.131607
 30
0.0
 11
58.0
 21
-68.131607
 31
0.0
  0
ENDBLK
  5
447
330
258
100
AcDbEntity
  8
0
100
AcDbBlockEnd
  0
BLOCK
  5
448
330
263
100
AcDbEntity
  8
0
100
AcDbBlockBegin
  2
*D61
 70
     1
 10
0.0
 20
0.0
 30
0.0
  3
*D61
  1

  0
POINT
  5
25A
330
263
100
AcDbEntity
  8
DEFPOINTS
  6
ByBlock
 62
     0
380
     1
100
AcDbPoint
 10
169.21167
 20
531.8322674515554
 30
0.0
  0
POINT
  5
25B
330
263
100
AcDbEntity
  8
DEFPOINTS
  6
ByBlock
 62
     0
380
     1
100
AcDbPoint
 10
847.21167
 20
540.708435
 30
0.0
  0
LINE
  5
25C
330
263
100
AcDbEntity
  8
0
  6
ByBlock
 62
     0
370
    -2
380
     1
100
AcDbLine
 10
169.21167
 20
532.4572674515554
 30
0.0
 11
169.21167
 21
671.6859808631292
 31
0.0
  0
LINE
  5
25D
330
263
100
AcDbEntity
  8
0
  6
ByBlock
 62
     0
370
    -2
380
     1
100
AcDbLine
 10
847.21167
 20
541.333435
 30
0.0
 11
847.21167
 21
671.6859808631292
 31
0.0
  0
LINE
  5
25E
330
263
100
AcDbEntity
  8
0
  6
ByBlock
 62
     0
370
    -2
380
     1
100
AcDbLine
 10
171.71167
 20
670.4359808631292
 30
0.0
 11
844.71167
 21
670.4359808631292
 31
0.0
  0
SOLID
  5
25F
330
263
100
AcDbEntity
  8
0
  6
ByBlock
 62
     0
380
     1
100
AcDbTrace
 10
169.21167
 20
670.4359808631292
 30
0.0
 11
171.71167
 21
670.0193141964626
 31
0.0
 12
171.71167
 22
670.8526475297958
 32
0.0
 13
171.71167
 23
670.8526475297958
 33
0.0
  0
SOLID
  5
260
330
263
100
AcDbEntity
  8
0
  6
ByBlock
 62
     0
380
     1
100
AcDbTrace
 10
847.21167
 20
670.4359808631292
 30
0.0
 11
844.71167
 21
670.0193141964626
 31
0.0
 12
844.71167
 22
670.8526475297958
 32
0.0
 13
844.71167
 23
670.8526475297958
 33
0.0
  0
MTEXT
  5
261
330
263
100
AcDbEntity
  8
0
  6
ByBlock
 62
     0
370
    -2
380
     1
100
AcDbMText
 10
508.21167
 20
672.1859808631292
 30
0.0
 40
2.5
 41
0.0
 71
     5
 72
     1
  1
\A1;678
 73
     1
 44
1.0
  0
ENDBLK
  5
449
330
263
100
AcDbEntity
  8
0
100
AcDbBlockEnd
  0
BLOCK
  5
44A
330
26E
100
AcDbEntity
  8
0
100
AcDbBlockBegin
  2
*D62
 70
     1
 10
0.0
 20
0.0
 30
0.0
  3
*D62
  1

  0
POINT
  5
265
330
26E
100
AcDbEntity
  8
DEFPOINTS
  6
ByBlock
 62
     7
380
     1
100
AcDbPoint
 10
169.21167
 20
531.8322674515554
 30
0.0
  0
POINT
  5
266
330
26E
100
AcDbEntity
  8
DEFPOINTS
  6
ByBlock
 62
     7
380
     1
100
AcDbPoint
 10
847.21167
 20
540.708435
 30
0.0
  0
LINE
  5
267
330
26E
100
AcDbEntity
  8
0
  6
ByBlock
 62
     7
370
    -2
380
     1
100
AcDbLine
 10
169.21167
 20
532.4572674515554
 30
0.0
 11
169.21167
 21
671.6859808631292
 31
0.0
  0
LINE
  5
268
330
26E
100
AcDbEntity
  8
0
  6
ByBlock
 62
     7
370
    -2
380
     1
100
AcDbLine
 10
847.21167
 20
541.333435
 30
0.0
 11
847.21167
 21
671.6859808631292
 31
0.0
  0
LINE
  5
269
330
26E
100
AcDbEntity
  8
0
  6
ByBlock
 62
     7
370
    -2
380
     1
100
AcDbLine
 10
179.21167
 20
670.4359808631292
 30
0.0
 11
837.21167
 21
670.4359808631292
 31
0.0
  0
SOLID
  5
26A
330
26E
100
AcDbEntity
  8
0
  6
ByBlock
 62
     7
380
     1
100
AcDbTrace
 10
169.21167
 20
670.4359808631292
 30
0.0
 11
179.21167
 21
668.7693141964626
 31
0.0
 12
179.21167
 22
672.1026475297958
 32
0.0
 13
179.21167
 23
672.1026475297958
 33
0.0
  0
SOLID
  5
26B
330
26E
100
AcDbEntity
  8
0
  6
ByBlock
 62
     7
380
     1
100
AcDbTrace
 10
847.21167
 20
670.4359808631292
 30
0.0
 11
837.21167
 21
668.7693141964626
 31
0.0
 12
837.21167
 22
672.1026475297958
 32
0.0
 13
837.21167
 23
672.1026475297958
 33
0.0
  0
MTEXT
  5
26C
330
26E
100
AcDbEntity
  8
0
  6
ByBlock
 62
     0
370
    -2
380
     1
100
AcDbMText
 10
508.21167
 20
681.7359808631292
 30
0.0
 40
14.0
 41
0.0
 71
     5
 72
     1
  1
\A1;678
 73
     1
 44
1.0
  0
ENDBLK
  5
44B
330
26E
100
AcDbEntity
  8
0
100
AcDbBlockEnd
  0
BLOCK
  5
44C
330
279
100
AcDbEntity
  8
0
100
AcDbBlockBegin
  2
*D63
 70
     1
 10
0.0
 20
0.0
 30
0.0
  3
*D63
  1

  0
POINT
  5
270
330
279
100
AcDbEntity
  8
DEFPOINTS
  6
ByBlock
 62
     7
380
     1
100
AcDbPoint
 10
169.21167
 20
531.8322674515554
 30
0.0
  0
POINT
  5
271
330
279
100
AcDbEntity
  8
DEFPOINTS
  6
ByBlock
 62
     7
380
     1
100
AcDbPoint
 10
847.21167
 20
540.708435
 30
0.0
  0
LINE
  5
272
330
279
100
AcDbEntity
  8
0
  6
ByBlock
 62
     7
370
    -2
380
     1
100
AcDbLine
 10
169.21167
 20
532.4572674515554
 30
0.0
 11
169.21167
 21
671.6859808631292
 31
0.0
  0
LINE
  5
273
330
279
100
AcDbEntity
  8
0
  6
ByBlock
 62
     7
370
    -2
380
     1
100
AcDbLine
 10
847.21167
 20
541.333435
 30
0.0
 11
847.21167
 21
671.6859808631292
 31
0.0
  0
LINE
  5
274
330
279
100
AcDbEntity
  8
0
  6
ByBlock
 62
     7
370
    -2
380
     1
100
AcDbLine
 10
179.21167
 20
670.4359808631292
 30
0.0
 11
837.21167
 21
670.4359808631292
 31
0.0
  0
SOLID
  5
275
330
279
100
AcDbEntity
  8
0
  6
ByBlock
 62
     7
380
     1
100
AcDbTrace
 10
169.21167
 20
670.4359808631292
 30
0.0
 11
179.21167
 21
668.7693141964626
 31
0.0
 12
179.21167
 22
672.1026475297958
 32
0.0
 13
179.21167
 23
672.1026475297958
 33
0.0
  0
SOLID
  5
276
330
279
100
AcDbEntity
  8
0
  6
ByBlock
 62
     7
380
     1
100
AcDbTrace
 10
847.21167
 20
670.4359808631292
 30
0.0
 11
837.21167
 21
668.7693141964626
 31
0.0
 12
837.21167
 22
672.1026475297958
 32
0.0
 13
837.21167
 23
672.1026475297958
 33
0.0
  0
MTEXT
  5
277
330
279
100
AcDbEntity
  8
0
  6
ByBlock
 62
     0
370
    -2
380
     1
100
AcDbMText
 10
508.21167
 20
681.7359808631292
 30
0.0
 40
14.0
 41
0.0
 71
     5
 72
     1
  1
\A1;678
 73
     1
 44
1.0
  0
ENDBLK
  5
44D
330
279
100
AcDbEntity
  8
0
100
AcDbBlockEnd
  0
BLOCK
  5
44E
330
284
100
AcDbEntity
  8
0
100
AcDbBlockBegin
  2
*D64
 70
     1
 10
0.0
 20
0.0
 30
0.0
  3
*D64
  1

  0
POINT
  5
27B
330
284
100
AcDbEntity
  8
DEFPOINTS
  6
ByBlock
 62
     0
380
     1
100
AcDbPoint
 10
714.147072692748
 20
634.708435
 30
0.0
  0
POINT
  5
27C
330
284
100
AcDbEntity
  8
DEFPOINTS
  6
ByBlock
 62
     0
380
     1
100
AcDbPoint
 10
714.147072692748
 20
446.708435
 30
0.0
  0
LINE
  5
27D
330
284
100
AcDbEntity
  8
0
  6
ByBlock
 62
     0
370
    -2
380
     1
100
AcDbLine
 10
714.772072692748
 20
634.708435
 30
0.0
 11
886.4611303413891
 21
634.708435
 31
0.0
  0
LINE
  5
27E
330
284
100
AcDbEntity
  8
0
  6
ByBlock
 62
     0
370
    -2
380
     1
100
AcDbLine
 10
714.772072692748
 20
446.708435
 30
0.0
 11
886.4611303413891
 21
446.708435
 31
0.0
  0
LINE
  5
27F
330
284
100
AcDbEntity
  8
0
  6
ByBlock
 62
     0
370
    -2
380
     1
100
AcDbLine
 10
885.2111303413891
 20
632.208435
 30
0.0
 11
885.2111303413891
 21
449.208435
 31
0.0
  0
SOLID
  5
280
330
284
100
AcDbEntity
  8
0
  6
ByBlock
 62
     0
380
     1
100
AcDbTrace
 10
885.2111303413891
 20
634.708435
 30
0.0
 11
884.7944636747225
 21
632.208435
 31
0.0
 12
885.6277970080557
 22
632.208435
 32
0.0
 13
885.6277970080557
 23
632.208435
 33
0.0
  0
SOLID
  5
281
330
284
100
AcDbEntity
  8
0
  6
ByBlock
 62
     0
380
     1
100
AcDbTrace
 10
885.2111303413891
 20
446.708435
 30
0.0
 11
884.7944636747225
 21
449.208435
 31
0.0
 12
885.6277970080557
 22
449.208435
 32
0.0
 13
885.6277970080557
 23
449.208435
 33
0.0
  0
MTEXT
  5
282
330
284
100
AcDbEntity
  8
0
  6
ByBlock
 62
     0
370
    -2
380
     1
100
AcDbMText
 10
883.4611303413891
 20
540.708435
 30
0.0
 40
2.5
 41
0.0
 71
     5
 72
     1
  1
\A1;188
 11
6.123031769111886E-17
 21
1.0
 31
0.0
 73
     1
 44
1.0
  0
ENDBLK
  5
44F
330
284
100
AcDbEntity
  8
0
100
AcDbBlockEnd
  0
BLOCK
  5
450
330
28F
100
AcDbEntity
  8
0
100
AcDbBlockBegin
  2
*D65
 70
     1
 10
0.0
 20
0.0
 30
0.0
  3
*D65
  1

  0
POINT
  5
286
330
28F
100
AcDbEntity
  8
DEFPOINTS
  6
ByBlock
 62
     7
380
     1
100
AcDbPoint
 10
714.147072692748
 20
634.708435
 30
0.0
  0
POINT
  5
287
330
28F
100
AcDbEntity
  8
DEFPOINTS
  6
ByBlock
 62
     7
380
     1
100
AcDbPoint
 10
714.147072692748
 20
446.708435
 30
0.0
  0
LINE
  5
288
330
28F
100
AcDbEntity
  8
0
  6
ByBlock
 62
     7
370
    -2
380
     1
100
AcDbLine
 10
714.772072692748
 20
634.708435
 30
0.0
 11
886.4611303413891
 21
634.708435
 31
0.0
  0
LINE
  5
289
330
28F
100
AcDbEntity
  8
0
  6
ByBlock
 62
     7
370
    -2
380
     1
100
AcDbLine
 10
714.772072692748
 20
446.708435
 30
0.0
 11
886.4611303413891
 21
446.708435
 31
0.0
  0
LINE
  5
28A
330
28F
100
AcDbEntity
  8
0
  6
ByBlock
 62
     7
370
    -2
380
     1
100
AcDbLine
 10
885.2111303413891
 20
624.708435
 30
0.0
 11
885.2111303413891
 21
456.708435
 31
0.0
  0
SOLID
  5
28B
330
28F
100
AcDbEntity
  8
0
  6
ByBlock
 62
     7
380
     1
100
AcDbTrace
 10
885.2111303413891
 20
634.708435
 30
0.0
 11
883.5444636747225
 21
624.708435
 31
0.0
 12
886.8777970080557
 22
624.708435
 32
0.0
 13
886.8777970080557
 23
624.708435
 33
0.0
  0
SOLID
  5
28C
330
28F
100
AcDbEntity
  8
0
  6
ByBlock
 62
     7
380
     1
100
AcDbTrace
 10
885.2111303413891
 20
446.708435
 30
0.0
 11
883.5444636747225
 21
456.708435
 31
0.0
 12
886.8777970080557
 22
456.708435
 32
0.0
 13
886.8777970080557
 23
456.708435
 33
0.0
  0
MTEXT
  5
28D
330
28F
100
AcDbEntity
  8
0
  6
ByBlock
 62
     0
370
    -2
380
     1
100
AcDbMText
 10
873.9111303413891
 20
540.708435
 30
0.0
 40
14.0
 41
0.0
 71
     5
 72
     1
  1
\A1;188
 11
6.123031769111886E-17
 21
1.0
 31
0.0
 73
     1
 44
1.0
  0
ENDBLK
  5
451
330
28F
100
AcDbEntity
  8
0
100
AcDbBlockEnd
  0
BLOCK
  5
452
330
29A
100
AcDbEntity
  8
0
100
AcDbBlockBegin
  2
*D66
 70
     1
 10
0.0
 20
0.0
 30
0.0
  3
*D66
  1

  0
POINT
  5
291
330
29A
100
AcDbEntity
  8
DEFPOINTS
  6
ByBlock
 62
     7
380
     1
100
AcDbPoint
 10
714.147072692748
 20
634.708435
 30
0.0
  0
POINT
  5
292
330
29A
100
AcDbEntity
  8
DEFPOINTS
  6
ByBlock
 62
     7
380
     1
100
AcDbPoint
 10
714.147072692748
 20
446.708435
 30
0.0
  0
LINE
  5
293
330
29A
100
AcDbEntity
  8
0
  6
ByBlock
 62
     7
370
    -2
380
     1
100
AcDbLine
 10
714.772072692748
 20
634.708435
 30
0.0
 11
886.4611303413891
 21
634.708435
 31
0.0
  0
LINE
  5
294
330
29A
100
AcDbEntity
  8
0
  6
ByBlock
 62
     7
370
    -2
380
     1
100
AcDbLine
 10
714.772072692748
 20
446.708435
 30
0.0
 11
886.4611303413891
 21
446.708435
 31
0.0
  0
LINE
  5
295
330
29A
100
AcDbEntity
  8
0
  6
ByBlock
 62
     7
370
    -2
380
     1
100
AcDbLine
 10
885.2111303413891
 20
624.708435
 30
0.0
 11
885.2111303413891
 21
456.708435
 31
0.0
  0
SOLID
  5
296
330
29A
100
AcDbEntity
  8
0
  6
ByBlock
 62
     7
380
     1
100
AcDbTrace
 10
885.2111303413891
 20
634.708435
 30
0.0
 11
883.5444636747225
 21
624.708435
 31
0.0
 12
886.8777970080557
 22
624.708435
 32
0.0
 13
886.8777970080557
 23
624.708435
 33
0.0
  0
SOLID
  5
297
330
29A
100
AcDbEntity
  8
0
  6
ByBlock
 62
     7
380
     1
100
AcDbTrace
 10
885.2111303413891
 20
446.708435
 30
0.0
 11
883.5444636747225
 21
456.708435
 31
0.0
 12
886.8777970080557
 22
456.708435
 32
0.0
 13
886.8777970080557
 23
456.708435
 33
0.0
  0
MTEXT
  5
298
330
29A
100
AcDbEntity
  8
0
  6
ByBlock
 62
     0
370
    -2
380
     1
100
AcDbMText
 10
873.9111303413891
 20
540.708435
 30
0.0
 40
14.0
 41
0.0
 71
     5
 72
     1
  1
\A1;188
 11
6.123031769111886E-17
 21
1.0
 31
0.0
 73
     1
 44
1.0
  0
ENDBLK
  5
453
330
29A
100
AcDbEntity
  8
0
100
AcDbBlockEnd
  0
BLOCK
  5
454
330
2A5
100
AcDbEntity
  8
0
100
AcDbBlockBegin
  2
*D67
 70
     1
 10
0.0
 20
0.0
 30
0.0
  3
*D67
  1

  0
POINT
  5
29C
330
2A5
100
AcDbEntity
  8
DEFPOINTS
  6
ByBlock
 62
     0
380
     1
100
AcDbPoint
 10
715.3171375967551
 20
284.809185
 30
0.0
  0
POINT
  5
29D
330
2A5
100
AcDbEntity
  8
DEFPOINTS
  6
ByBlock
 62
     0
380
     1
100
AcDbPoint
 10
715.3171375967551
 20
226.809185
 30
0.0
  0
LINE
  5
29E
330
2A5
100
AcDbEntity
  8
0
  6
ByBlock
 62
     0
370
    -2
380
     1
100
AcDbLine
 10
715.9421375967551
 20
284.809185
 30
0.0
 11
864.4246710314156
 21
284.809185
 31
0.0
  0
LINE
  5
29F
330
2A5
100
AcDbEntity
  8
0
  6
ByBlock
 62
     0
370
    -2
380
     1
100
AcDbLine
 10
715.9421375967551
 20
226.809185
 30
0.0
 11
864.4246710314156
 21
226.809185
 31
0.0
  0
LINE
  5
2A0
330
2A5
100
AcDbEntity
  8
0
  6
ByBlock
 62
     0
370
    -2
380
     1
100
AcDbLine
 10
863.1746710314156
 20
282.309185
 30
0.0
 11
863.1746710314156
 21
229.309185
 31
0.0
  0
SOLID
  5
2A1
330
2A5
100
AcDbEntity
  8
0
  6
ByBlock
 62
     0
380
     1
100
AcDbTrace
 10
863.1746710314156
 20
284.809185
 30
0.0
 11
862.758004364749
 21
282.309185
 31
0.0
 12
863.5913376980823
 22
282.309185
 32
0.0
 13
863.5913376980823
 23
282.309185
 33
0.0
  0
SOLID
  5
2A2
330
2A5
100
AcDbEntity
  8
0
  6
ByBlock
 62
     0
380
     1
100
AcDbTrace
 10
863.1746710314156
 20
226.809185
 30
0.0
 11
862.758004364749
 21
229.309185
 31
0.0
 12
863.5913376980823
 22
229.309185
 32
0.0
 13
863.5913376980823
 23
229.309185
 33
0.0
  0
MTEXT
  5
2A3
330
2A5
100
AcDbEntity
  8
0
  6
ByBlock
 62
     0
370
    -2
380
     1
100
AcDbMText
 10
861.4246710314156
 20
255.809185
 30
0.0
 40
2.5
 41
0.0
 71
     5
 72
     1
  1
\A1;58
 11
6.123031769111886E-17
 21
1.0
 31
0.0
 73
     1
 44
1.0
  0
ENDBLK
  5
455
330
2A5
100
AcDbEntity
  8
0
100
AcDbBlockEnd
  0
BLOCK
  5
456
330
2B0
100
AcDbEntity
  8
0
100
AcDbBlockBegin
  2
*D68
 70
     1
 10
0.0
 20
0.0
 30
0.0
  3
*D68
  1

  0
POINT
  5
2A7
330
2B0
100
AcDbEntity
  8
DEFPOINTS
  6
ByBlock
 62
     0
380
     1
100
AcDbPoint
 10
715.3171375967551
 20
284.809185
 30
0.0
  0
POINT
  5
2A8
330
2B0
100
AcDbEntity
  8
DEFPOINTS
  6
ByBlock
 62
     0
380
     1
100
AcDbPoint
 10
715.3171375967551
 20
226.809185
 30
0.0
  0
LINE
  5
2A9
330
2B0
100
AcDbEntity
  8
0
  6
ByBlock
 62
     0
370
    -2
380
     1
100
AcDbLine
 10
715.9421375967551
 20
284.809185
 30
0.0
 11
886.4611303413891
 21
284.809185
 31
0.0
  0
LINE
  5
2AA
330
2B0
100
AcDbEntity
  8
0
  6
ByBlock
 62
     0
370
    -2
380
     1
100
AcDbLine
 10
715.9421375967551
 20
226.809185
 30
0.0
 11
886.4611303413891
 21
226.809185
 31
0.0
  0
LINE
  5
2AB
330
2B0
100
AcDbEntity
  8
0
  6
ByBlock
 62
     0
370
    -2
380
     1
100
AcDbLine
 10
885.2111303413891
 20
282.309185
 30
0.0
 11
885.2111303413891
 21
229.309185
 31
0.0
  0
SOLID
  5
2AC
330
2B0
100
AcDbEntity
  8
0
  6
ByBlock
 62
     0
380
     1
100
AcDbTrace
 10
885.2111303413891
 20
284.809185
 30
0.0
 11
884.7944636747225
 21
282.309185
 31
0.0
 12
885.6277970080557
 22
282.309185
 32
0.0
 13
885.6277970080557
 23
282.309185
 33
0.0
  0
SOLID
  5
2AD
330
2B0
100
AcDbEntity
  8
0
  6
ByBlock
 62
     0
380
     1
100
AcDbTrace
 10
885.2111303413891
 20
226.809185
 30
0.0
 11
884.7944636747225
 21
229.309185
 31
0.0
 12
885.6277970080557
 22
229.309185
 32
0.0
 13
885.6277970080557
 23
229.309185
 33
0.0
  0
MTEXT
  5
2AE
330
2B0
100
AcDbEntity
  8
0
  6
ByBlock
 62
     0
370
    -2
380
     1
100
AcDbMText
 10
883.4611303413891
 20
255.809185
 30
0.0
 40
2.5
 41
0.0
 71
     5
 72
     1
  1
\A1;58
 11
6.123031769111886E-17
 21
1.0
 31
0.0
 73
     1
 44
1.0
  0
ENDBLK
  5
457
330
2B0
100
AcDbEntity
  8
0
100
AcDbBlockEnd
  0
BLOCK
  5
458
330
2BB
100
AcDbEntity
  8
0
100
AcDbBlockBegin
  2
*D69
 70
     1
 10
0.0
 20
0.0
 30
0.0
  3
*D69
  1

  0
POINT
  5
2B2
330
2BB
100
AcDbEntity
  8
DEFPOINTS
  6
ByBlock
 62
     7
380
     1
100
AcDbPoint
 10
715.3171375967551
 20
284.809185
 30
0.0
  0
POINT
  5
2B3
330
2BB
100
AcDbEntity
  8
DEFPOINTS
  6
ByBlock
 62
     7
380
     1
100
AcDbPoint
 10
715.3171375967551
 20
226.809185
 30
0.0
  0
LINE
  5
2B4
330
2BB
100
AcDbEntity
  8
0
  6
ByBlock
 62
     7
370
    -2
380
     1
100
AcDbLine
 10
715.9421375967551
 20
284.809185
 30
0.0
 11
886.4611303413891
 21
284.809185
 31
0.0
  0
LINE
  5
2B5
330
2BB
100
AcDbEntity
  8
0
  6
ByBlock
 62
     7
370
    -2
380
     1
100
AcDbLine
 10
715.9421375967551
 20
226.809185
 30
0.0
 11
886.4611303413891
 21
226.809185
 31
0.0
  0
LINE
  5
2B6
330
2BB
100
AcDbEntity
  8
0
  6
ByBlock
 62
     7
370
    -2
380
     1
100
AcDbLine
 10
885.2111303413891
 20
274.809185
 30
0.0
 11
885.2111303413891
 21
236.809185
 31
0.0
  0
SOLID
  5
2B7
330
2BB
100
AcDbEntity
  8
0
  6
ByBlock
 62
     7
380
     1
100
AcDbTrace
 10
885.2111303413891
 20
284.809185
 30
0.0
 11
883.5444636747225
 21
274.809185
 31
0.0
 12
886.8777970080557
 22
274.809185
 32
0.0
 13
886.8777970080557
 23
274.809185
 33
0.0
  0
SOLID
  5
2B8
330
2BB
100
AcDbEntity
  8
0
  6
ByBlock
 62
     7
380
     1
100
AcDbTrace
 10
885.2111303413891
 20
226.809185
 30
0.0
 11
883.5444636747225
 21
236.809185
 31
0.0
 12
886.8777970080557
 22
236.809185
 32
0.0
 13
886.8777970080557
 23
236.809185
 33
0.0
  0
MTEXT
  5
2B9
330
2BB
100
AcDbEntity
  8
0
  6
ByBlock
 62
     0
370
    -2
380
     1
100
AcDbMText
 10
873.911130341389
 20
255.809185
 30
0.0
 40
14.0
 41
0.0
 71
     5
 72
     1
  1
\A1;58
 11
6.123031769111886E-17
 21
1.0
 31
0.0
 73
     1
 44
1.0
  0
ENDBLK
  5
459
330
2BB
100
AcDbEntity
  8
0
100
AcDbBlockEnd
  0
BLOCK
  5
45A
330
2C6
100
AcDbEntity
  8
0
100
AcDbBlockBegin
  2
*D70
 70
     1
 10
0.0
 20
0.0
 30
0.0
  3
*D70
  1

  0
POINT
  5
2BD
330
2C6
100
AcDbEntity
  8
DEFPOINTS
  6
ByBlock
 62
     7
380
     1
100
AcDbPoint
 10
715.3171375967551
 20
284.809185
 30
0.0
  0
POINT
  5
2BE
330
2C6
100
AcDbEntity
  8
DEFPOINTS
  6
ByBlock
 62
     7
380
     1
100
AcDbPoint
 10
715.3171375967551
 20
226.809185
 30
0.0
  0
LINE
  5
2BF
330
2C6
100
AcDbEntity
  8
0
  6
ByBlock
 62
     7
370
    -2
380
     1
100
AcDbLine
 10
715.9421375967551
 20
284.809185
 30
0.0
 11
886.4611303413891
 21
284.809185
 31
0.0
  0
LINE
  5
2C0
330
2C6
100
AcDbEntity
  8
0
  6
ByBlock
 62
     7
370
    -2
380
     1
100
AcDbLine
 10
715.9421375967551
 20
226.809185
 30
0.0
 11
886.4611303413891
 21
226.809185
 31
0.0
  0
LINE
  5
2C1
330
2C6
100
AcDbEntity
  8
0
  6
ByBlock
 62
     7
370
    -2
380
     1
100
AcDbLine
 10
885.2111303413891
 20
274.809185
 30
0.0
 11
885.2111303413891
 21
236.809185
 31
0.0
  0
SOLID
  5
2C2
330
2C6
100
AcDbEntity
  8
0
  6
ByBlock
 62
     7
380
     1
100
AcDbTrace
 10
885.2111303413891
 20
284.809185
 30
0.0
 11
883.5444636747225
 21
274.809185
 31
0.0
 12
886.8777970080557
 22
274.809185
 32
0.0
 13
886.8777970080557
 23
274.809185
 33
0.0
  0
SOLID
  5
2C3
330
2C6
100
AcDbEntity
  8
0
  6
ByBlock
 62
     7
380
     1
100
AcDbTrace
 10
885.2111303413891
 20
226.809185
 30
0.0
 11
883.5444636747225
 21
236.809185
 31
0.0
 12
886.8777970080557
 22
236.809185
 32
0.0
 13
886.8777970080557
 23
236.809185
 33
0.0
  0
MTEXT
  5
2C4
330
2C6
100
AcDbEntity
  8
0
  6
ByBlock
 62
     0
370
    -2
380
     1
100
AcDbMText
 10
873.911130341389
 20
255.809185
 30
0.0
 40
14.0
 41
0.0
 71
     5
 72
     1
  1
\A1;58
 11
6.123031769111886E-17
 21
1.0
 31
0.0
 73
     1
 44
1.0
  0
ENDBLK
  5
45B
330
2C6
100
AcDbEntity
  8
0
100
AcDbBlockEnd
  0
BLOCK
  5
45C
330
35D
100
AcDbEntity
  8
0
100
AcDbBlockBegin
  2
*D71
 70
     1
 10
0.0
 20
0.0
 30
0.0
  3
*D71
  1

  0
POINT
  5
353
330
35D
100
AcDbEntity
  8
DEFPOINTS
  6
ByBlock
 62
     7
380
     1
100
AcDbPoint
 10
321.502173
 20
531.8322674515554
 30
0.0
  0
POINT
  5
354
330
35D
100
AcDbEntity
  8
DEFPOINTS
  6
ByBlock
 62
     7
380
     1
100
AcDbPoint
 10
1609.702173
 20
540.708435
 30
0.0
  0
LINE
  5
355
330
35D
100
AcDbEntity
  8
0
  6
ByBlock
 62
     7
370
    -2
380
     1
100
AcDbLine
 10
321.502173
 20
531.8947674515554
 30
0.0
 11
321.502173
 21
670.6159808631292
 31
0.0
  0
LINE
  5
356
330
35D
100
AcDbEntity
  8
0
  6
ByBlock
 62
     7
370
    -2
380
     1
100
AcDbLine
 10
1609.702173
 20
540.770935
 30
0.0
 11
1609.702173
 21
670.6159808631292
 31
0.0
  0
LINE
  5
357
330
35D
100
AcDbEntity
  8
0
  6
ByBlock
 62
     7
370
    -2
380
     1
100
AcDbLine
 10
331.502173
 20
670.4359808631292
 30
0.0
 11
937.2688396666667
 21
670.4359808631292
 31
0.0
  0
LINE
  5
358
330
35D
100
AcDbEntity
  8
0
  6
ByBlock
 62
     7
370
    -2
380
     1
100
AcDbLine
 10
1599.702173
 20
670.4359808631292
 30
0.0
 11
993.9355063333335
 21
670.4359808631292
 31
0.0
  0
SOLID
  5
359
330
35D
100
AcDbEntity
  8
0
  6
ByBlock
 62
     7
380
     1
100
AcDbTrace
 10
321.502173
 20
670.4359808631292
 30
0.0
 11
331.502173
 21
668.7693141964626
 31
0.0
 12
331.502173
 22
672.1026475297958
 32
0.0
 13
331.502173
 23
672.1026475297958
 33
0.0
  0
SOLID
  5
35A
330
35D
100
AcDbEntity
  8
0
  6
ByBlock
 62
     7
380
     1
100
AcDbTrace
 10
1609.702173
 20
670.4359808631292
 30
0.0
 11
1599.702173
 21
668.7693141964626
 31
0.0
 12
1599.702173
 22
672.1026475297958
 32
0.0
 13
1599.702173
 23
672.1026475297958
 33
0.0
  0
MTEXT
  5
35B
330
35D
100
AcDbEntity
  8
0
  6
ByBlock
 62
     0
370
    -2
380
     1
100
AcDbMText
 10
965.602173
 20
670.4359808631292
 30
0.0
 40
14.0
 41
0.0
 71
     5
 72
     1
  1
\A1;1288
 73
     1
 44
1.0
  0
ENDBLK
  5
45D
330
35D
100
AcDbEntity
  8
0
100
AcDbBlockEnd
  0
BLOCK
  5
45E
330
36A
100
AcDbEntity
  8
0
100
AcDbBlockBegin
  2
*D72
 70
     1
 10
0.0
 20
0.0
 30
0.0
  3
*D72
  1

  0
POINT
  5
360
330
36A
100
AcDbEntity
  8
DEFPOINTS
  6
ByBlock
 62
     7
380
     1
100
AcDbPoint
 10
1356.879438116221
 20
634.708435
 30
0.0
  0
POINT
  5
361
330
36A
100
AcDbEntity
  8
DEFPOINTS
  6
ByBlock
 62
     7
380
     1
100
AcDbPoint
 10
1356.879438116221
 20
446.708435
 30
0.0
  0
LINE
  5
362
330
36A
100
AcDbEntity
  8
0
  6
ByBlock
 62
     7
370
    -2
380
     1
100
AcDbLine
 10
1356.941938116221
 20
634.708435
 30
0.0
 11
1682.081147648639
 21
634.708435
 31
0.0
  0
LINE
  5
363
330
36A
100
AcDbEntity
  8
0
  6
ByBlock
 62
     7
370
    -2
380
     1
100
AcDbLine
 10
1356.941938116221
 20
446.708435
 30
0.0
 11
1682.081147648639
 21
446.708435
 31
0.0
  0
LINE
  5
364
330
36A
100
AcDbEntity
  8
0
  6
ByBlock
 62
     7
370
    -2
380
     1
100
AcDbLine
 10
1681.901147648639
 20
624.708435
 30
0.0
 11
1681.901147648639
 21
562.0417683333334
 31
0.0
  0
LINE
  5
365
330
36A
100
AcDbEntity
  8
0
  6
ByBlock
 62
     7
370
    -2
380
     1
100
AcDbLine
 10
1681.901147648639
 20
456.708435
 30
0.0
 11
1681.901147648639
 21
519.3751016666666
 31
0.0
  0
SOLID
  5
366
330
36A
100
AcDbEntity
  8
0
  6
ByBlock
 62
     7
380
     1
100
AcDbTrace
 10
1681.901147648639
 20
634.708435
 30
0.0
 11
1680.234480981973
 21
624.708435
 31
0.0
 12
1683.567814315306
 22
624.708435
 32
0.0
 13
1683.567814315306
 23
624.708435
 33
0.0
  0
SOLID
  5
367
330
36A
100
AcDbEntity
  8
0
  6
ByBlock
 62
     7
380
     1
100
AcDbTrace
 10
1681.901147648639
 20
446.708435
 30
0.0
 11
1680.234480981973
 21
456.708435
 31
0.0
 12
1683.567814315306
 22
456.708435
 32
0.0
 13
1683.567814315306
 23
456.708435
 33
0.0
  0
MTEXT
  5
368
330
36A
100
AcDbEntity
  8
0
  6
ByBlock
 62
     0
370
    -2
380
     1
100
AcDbMText
 10
1681.901147648639
 20
540.708435
 30
0.0
 40
14.0
 41
0.0
 71
     5
 72
     1
  1
\A1;188
 73
     1
 44
1.0
  0
ENDBLK
  5
45F
330
36A
100
AcDbEntity
  8
0
100
AcDbBlockEnd
  0
BLOCK
  5
460
330
377
100
AcDbEntity
  8
0
100
AcDbBlockBegin
  2
*D73
 70
     1
 10
0.0
 20
0.0
 30
0.0
  3
*D73
  1

  0
POINT
  5
36D
330
377
100
AcDbEntity
  8
DEFPOINTS
  6
ByBlock
 62
     7
380
     1
100
AcDbPoint
 10
1359.102561433835
 20
284.809185
 30
0.0
  0
POINT
  5
36E
330
377
100
AcDbEntity
  8
DEFPOINTS
  6
ByBlock
 62
     7
380
     1
100
AcDbPoint
 10
1359.102561433835
 20
226.809185
 30
0.0
  0
LINE
  5
36F
330
377
100
AcDbEntity
  8
0
  6
ByBlock
 62
     7
370
    -2
380
     1
100
AcDbLine
 10
1359.165061433835
 20
284.809185
 30
0.0
 11
1682.081147648639
 21
284.809185
 31
0.0
  0
LINE
  5
370
330
377
100
AcDbEntity
  8
0
  6
ByBlock
 62
     7
370
    -2
380
     1
100
AcDbLine
 10
1359.165061433835
 20
226.809185
 30
0.0
 11
1682.081147648639
 21
226.809185
 31
0.0
  0
LINE
  5
371
330
377
100
AcDbEntity
  8
0
  6
ByBlock
 62
     7
370
    -2
380
     1
100
AcDbLine
 10
1681.901147648639
 20
274.809185
 30
0.0
 11
1681.901147648639
 21
272.4758516666666
 31
0.0
  0
LINE
  5
372
330
377
100
AcDbEntity
  8
0
  6
ByBlock
 62
     7
370
    -2
380
     1
100
AcDbLine
 10
1681.901147648639
 20
236.809185
 30
0.0
 11
1681.901147648639
 21
239.1425183333334
 31
0.0
  0
SOLID
  5
373
330
377
100
AcDbEntity
  8
0
  6
ByBlock
 62
     7
380
     1
100
AcDbTrace
 10
1681.901147648639
 20
284.809185
 30
0.0
 11
1680.234480981973
 21
274.809185
 31
0.0
 12
1683.567814315306
 22
274.809185
 32
0.0
 13
1683.567814315306
 23
274.809185
 33
0.0
  0
SOLID
  5
374
330
377
100
AcDbEntity
  8
0
  6
ByBlock
 62
     7
380
     1
100
AcDbTrace
 10
1681.901147648639
 20
226.809185
 30
0.0
 11
1680.234480981973
 21
236.809185
 31
0.0
 12
1683.567814315306
 22
236.809185
 32
0.0
 13
1683.567814315306
 23
236.809185
 33
0.0
  0
MTEXT
  5
375
330
377
100
AcDbEntity
  8
0
  6
ByBlock
 62
     0
370
    -2
380
     1
100
AcDbMText
 10
1681.901147648639
 20
255.809185
 30
0.0
 40
14.0
 41
0.0
 71
     5
 72
     1
  1
\A1;58
 73
     1
 44
1.0
  0
ENDBLK
  5
461
330
377
100
AcDbEntity
  8
0
100
AcDbBlockEnd
  0
BLOCK
  5
462
330
383
100
AcDbEntity
  8
0
100
AcDbBlockBegin
  2
*D74
 70
     1
 10
0.0
 20
0.0
 30
0.0
  3
*D74
  1

  0
POINT
  5
37A
330
383
100
AcDbEntity
  8
DEFPOINTS
  6
ByBlock
 62
     0
380
     1
100
AcDbPoint
 10
321.502173
 20
540.708435
 30
0.0
  0
POINT
  5
37B
330
383
100
AcDbEntity
  8
DEFPOINTS
  6
ByBlock
 62
     0
380
     1
100
AcDbPoint
 10
1609.702173
 20
540.708435
 30
0.0
  0
LINE
  5
37C
330
383
100
AcDbEntity
  8
0
  6
ByBlock
 62
     0
370
    -2
380
     1
100
AcDbLine
 10
321.502173
 20
541.333435
 30
0.0
 11
321.502173
 21
694.1164258166351
 31
0.0
  0
LINE
  5
37D
330
383
100
AcDbEntity
  8
0
  6
ByBlock
 62
     0
370
    -2
380
     1
100
AcDbLine
 10
1609.702173
 20
541.333435
 30
0.0
 11
1609.702173
 21
694.1164258166351
 31
0.0
  0
LINE
  5
37E
330
383
100
AcDbEntity
  8
0
  6
ByBlock
 62
     0
370
    -2
380
     1
100
AcDbLine
 10
324.002173
 20
692.8664258166351
 30
0.0
 11
1607.202173
 21
692.8664258166351
 31
0.0
  0
SOLID
  5
37F
330
383
100
AcDbEntity
  8
0
  6
ByBlock
 62
     0
380
     1
100
AcDbTrace
 10
321.502173
 20
692.8664258166351
 30
0.0
 11
324.002173
 21
692.4497591499685
 31
0.0
 12
324.002173
 22
693.2830924833017
 32
0.0
 13
324.002173
 23
693.2830924833017
 33
0.0
  0
SOLID
  5
380
330
383
100
AcDbEntity
  8
0
  6
ByBlock
 62
     0
380
     1
100
AcDbTrace
 10
1609.702173
 20
692.8664258166351
 30
0.0
 11
1607.202173
 21
692.4497591499685
 31
0.0
 12
1607.202173
 22
693.2830924833017
 32
0.0
 13
1607.202173
 23
693.2830924833017
 33
0.0
  0
MTEXT
  5
381
330
383
100
AcDbEntity
  8
0
  6
ByBlock
 62
     0
370
    -2
380
     1
100
AcDbMText
 10
965.602173
 20
694.9497591499685
 30
0.0
 40
2.5
 41
0.0
 71
     5
 72
     1
  1
\A1;1288,2
 73
     1
 44
1.0
  0
ENDBLK
  5
463
330
383
100
AcDbEntity
  8
0
100
AcDbBlockEnd
  0
BLOCK
  5
464
330
38E
100
AcDbEntity
  8
0
100
AcDbBlockBegin
  2
*D75
 70
     1
 10
0.0
 20
0.0
 30
0.0
  3
*D75
  1

  0
POINT
  5
385
330
38E
100
AcDbEntity
  8
DEFPOINTS
  6
ByBlock
 62
     7
380
     1
100
AcDbPoint
 10
321.502173
 20
540.708435
 30
0.0
  0
POINT
  5
386
330
38E
100
AcDbEntity
  8
DEFPOINTS
  6
ByBlock
 62
     7
380
     1
100
AcDbPoint
 10
1609.702173
 20
540.708435
 30
0.0
  0
LINE
  5
387
330
38E
100
AcDbEntity
  8
0
  6
ByBlock
 62
     7
370
    -2
380
     1
100
AcDbLine
 10
321.502173
 20
541.333435
 30
0.0
 11
321.502173
 21
694.1164258166351
 31
0.0
  0
LINE
  5
388
330
38E
100
AcDbEntity
  8
0
  6
ByBlock
 62
     7
370
    -2
380
     1
100
AcDbLine
 10
1609.702173
 20
541.333435
 30
0.0
 11
1609.702173
 21
694.1164258166351
 31
0.0
  0
LINE
  5
389
330
38E
100
AcDbEntity
  8
0
  6
ByBlock
 62
     7
370
    -2
380
     1
100
AcDbLine
 10
331.502173
 20
692.8664258166351
 30
0.0
 11
1599.702173
 21
692.8664258166351
 31
0.0
  0
SOLID
  5
38A
330
38E
100
AcDbEntity
  8
0
  6
ByBlock
 62
     7
380
     1
100
AcDbTrace
 10
321.502173
 20
692.8664258166351
 30
0.0
 11
331.502173
 21
691.1997591499685
 31
0.0
 12
331.502173
 22
694.5330924833017
 32
0.0
 13
331.502173
 23
694.5330924833017
 33
0.0
  0
SOLID
  5
38B
330
38E
100
AcDbEntity
  8
0
  6
ByBlock
 62
     7
380
     1
100
AcDbTrace
 10
1609.702173
 20
692.8664258166351
 30
0.0
 11
1599.702173
 21
691.1997591499685
 31
0.0
 12
1599.702173
 22
694.5330924833017
 32
0.0
 13
1599.702173
 23
694.5330924833017
 33
0.0
  0
MTEXT
  5
38C
330
38E
100
AcDbEntity
  8
0
  6
ByBlock
 62
     0
370
    -2
380
     1
100
AcDbMText
 10
965.602173
 20
704.8664258166351
 30
0.0
 40
14.0
 41
0.0
 71
     5
 72
     1
  1
\A1;1288
 73
     1
 44
1.0
  0
ENDBLK
  5
465
330
38E
100
AcDbEntity
  8
0
100
AcDbBlockEnd
  0
BLOCK
  5
466
330
39A
100
AcDbEntity
  8
0
100
AcDbBlockBegin
  2
*D76
 70
     1
 10
0.0
 20
0.0
 30
0.0
  3
*D76
  1

  0
POINT
  5
391
330
39A
100
AcDbEntity
  8
DEFPOINTS
  6
ByBlock
 62
     0
380
     1
100
AcDbPoint
 10
1381.445771213864
 20
634.708435
 30
0.0
  0
POINT
  5
392
330
39A
100
AcDbEntity
  8
DEFPOINTS
  6
ByBlock
 62
     0
380
     1
100
AcDbPoint
 10
1374.832865221529
 20
446.708435
 30
0.0
  0
LINE
  5
393
330
39A
100
AcDbEntity
  8
0
  6
ByBlock
 62
     0
370
    -2
380
     1
100
AcDbLine
 10
1382.070771213864
 20
634.708435
 30
0.0
 11
1667.319036780479
 21
634.708435
 31
0.0
  0
LINE
  5
394
330
39A
100
AcDbEntity
  8
0
  6
ByBlock
 62
     0
370
    -2
380
     1
100
AcDbLine
 10
1375.457865221529
 20
446.708435
 30
0.0
 11
1667.319036780479
 21
446.708435
 31
0.0
  0
LINE
  5
395
330
39A
100
AcDbEntity
  8
0
  6
ByBlock
 62
     0
370
    -2
380
     1
100
AcDbLine
 10
1666.069036780479
 20
632.208435
 30
0.0
 11
1666.069036780479
 21
449.208435
 31
0.0
  0
SOLID
  5
396
330
39A
100
AcDbEntity
  8
0
  6
ByBlock
 62
     0
380
     1
100
AcDbTrace
 10
1666.069036780479
 20
634.708435
 30
0.0
 11
1665.652370113812
 21
632.208435
 31
0.0
 12
1666.485703447146
 22
632.208435
 32
0.0
 13
1666.485703447146
 23
632.208435
 33
0.0
  0
SOLID
  5
397
330
39A
100
AcDbEntity
  8
0
  6
ByBlock
 62
     0
380
     1
100
AcDbTrace
 10
1666.069036780479
 20
446.708435
 30
0.0
 11
1665.652370113812
 21
449.208435
 31
0.0
 12
1666.485703447146
 22
449.208435
 32
0.0
 13
1666.485703447146
 23
449.208435
 33
0.0
  0
MTEXT
  5
398
330
39A
100
AcDbEntity
  8
0
  6
ByBlock
 62
     0
370
    -2
380
     1
100
AcDbMText
 10
1664.194036780479
 20
540.708435
 30
0.0
 40
2.5
 41
0.0
 71
     5
 72
     1
  1
\A1;188
 11
6.123031769111886E-17
 21
1.0
 31
0.0
 73
     1
 44
1.0
  0
ENDBLK
  5
467
330
39A
100
AcDbEntity
  8
0
100
AcDbBlockEnd
  0
BLOCK
  5
468
330
3A5
100
AcDbEntity
  8
0
100
AcDbBlockBegin
  2
*D77
 70
     1
 10
0.0
 20
0.0
 30
0.0
  3
*D77
  1

  0
POINT
  5
39C
330
3A5
100
AcDbEntity
  8
DEFPOINTS
  6
ByBlock
 62
     7
380
     1
100
AcDbPoint
 10
1381.445771213864
 20
634.708435
 30
0.0
  0
POINT
  5
39D
330
3A5
100
AcDbEntity
  8
DEFPOINTS
  6
ByBlock
 62
     7
380
     1
100
AcDbPoint
 10
1374.832865221529
 20
446.708435
 30
0.0
  0
LINE
  5
39E
330
3A5
100
AcDbEntity
  8
0
  6
ByBlock
 62
     7
370
    -2
380
     1
100
AcDbLine
 10
1382.070771213864
 20
634.708435
 30
0.0
 11
1667.319036780479
 21
634.708435
 31
0.0
  0
LINE
  5
39F
330
3A5
100
AcDbEntity
  8
0
  6
ByBlock
 62
     7
370
    -2
380
     1
100
AcDbLine
 10
1375.457865221529
 20
446.708435
 30
0.0
 11
1667.319036780479
 21
446.708435
 31
0.0
  0
LINE
  5
3A0
330
3A5
100
AcDbEntity
  8
0
  6
ByBlock
 62
     7
370
    -2
380
     1
100
AcDbLine
 10
1666.069036780479
 20
624.708435
 30
0.0
 11
1666.069036780479
 21
456.708435
 31
0.0
  0
SOLID
  5
3A1
330
3A5
100
AcDbEntity
  8
0
  6
ByBlock
 62
     7
380
     1
100
AcDbTrace
 10
1666.069036780479
 20
634.708435
 30
0.0
 11
1664.402370113812
 21
624.708435
 31
0.0
 12
1667.735703447146
 22
624.708435
 32
0.0
 13
1667.735703447146
 23
624.708435
 33
0.0
  0
SOLID
  5
3A2
330
3A5
100
AcDbEntity
  8
0
  6
ByBlock
 62
     7
380
     1
100
AcDbTrace
 10
1666.069036780479
 20
446.708435
 30
0.0
 11
1664.402370113812
 21
456.708435
 31
0.0
 12
1667.735703447146
 22
456.708435
 32
0.0
 13
1667.735703447146
 23
456.708435
 33
0.0
  0
MTEXT
  5
3A3
330
3A5
100
AcDbEntity
  8
0
  6
ByBlock
 62
     0
370
    -2
380
     1
100
AcDbMText
 10
1654.069036780479
 20
540.708435
 30
0.0
 40
14.0
 41
0.0
 71
     5
 72
     1
  1
\A1;188
 11
6.123031769111886E-17
 21
1.0
 31
0.0
 73
     1
 44
1.0
  0
ENDBLK
  5
469
330
3A5
100
AcDbEntity
  8
0
100
AcDbBlockEnd
  0
BLOCK
  5
46A
330
3B1
100
AcDbEntity
  8
0
100
AcDbBlockBegin
  2
*D78
 70
     1
 10
0.0
 20
0.0
 30
0.0
  3
*D78
  1

  0
POINT
  5
3A8
330
3B1
100
AcDbEntity
  8
DEFPOINTS
  6
ByBlock
 62
     0
380
     1
100
AcDbPoint
 10
1436.320359204198
 20
284.809185
 30
0.0
  0
POINT
  5
3A9
330
3B1
100
AcDbEntity
  8
DEFPOINTS
  6
ByBlock
 62
     0
380
     1
100
AcDbPoint
 10
1436.320359204198
 20
226.809185
 30
0.0
  0
LINE
  5
3AA
330
3B1
100
AcDbEntity
  8
0
  6
ByBlock
 62
     0
370
    -2
380
     1
100
AcDbLine
 10
1436.945359204198
 20
284.809185
 30
0.0
 11
1630.366452275203
 21
284.809185
 31
0.0
  0
LINE
  5
3AB
330
3B1
100
AcDbEntity
  8
0
  6
ByBlock
 62
     0
370
    -2
380
     1
100
AcDbLine
 10
1436.945359204198
 20
226.809185
 30
0.0
 11
1630.366452275203
 21
226.809185
 31
0.0
  0
LINE
  5
3AC
330
3B1
100
AcDbEntity
  8
0
  6
ByBlock
 62
     0
370
    -2
380
     1
100
AcDbLine
 10
1629.116452275203
 20
282.309185
 30
0.0
 11
1629.116452275203
 21
229.309185
 31
0.0
  0
SOLID
  5
3AD
330
3B1
100
AcDbEntity
  8
0
  6
ByBlock
 62
     0
380
     1
100
AcDbTrace
 10
1629.116452275203
 20
284.809185
 30
0.0
 11
1628.699785608537
 21
282.309185
 31
0.0
 12
1629.53311894187
 22
282.309185
 32
0.0
 13
1629.53311894187
 23
282.309185
 33
0.0
  0
SOLID
  5
3AE
330
3B1
100
AcDbEntity
  8
0
  6
ByBlock
 62
     0
380
     1
100
AcDbTrace
 10
1629.116452275203
 20
226.809185
 30
0.0
 11
1628.699785608537
 21
229.309185
 31
0.0
 12
1629.53311894187
 22
229.309185
 32
0.0
 13
1629.53311894187
 23
229.309185
 33
0.0
  0
MTEXT
  5
3AF
330
3B1
100
AcDbEntity
  8
0
  6
ByBlock
 62
     0
370
    -2
380
     1
100
AcDbMText
 10
1627.241452275203
 20
255.809185
 30
0.0
 40
2.5
 41
0.0
 71
     5
 72
     1
  1
\A1;58
 11
6.123031769111886E-17
 21
1.0
 31
0.0
 73
     1
 44
1.0
  0
ENDBLK
  5
46B
330
3B1
100
AcDbEntity
  8
0
100
AcDbBlockEnd
  0
BLOCK
  5
46C
330
3BD
100
AcDbEntity
  8
0
100
AcDbBlockBegin
  2
*D79
 70
     1
 10
0.0
 20
0.0
 30
0.0
  3
*D79
  1

  0
POINT
  5
3B4
330
3BD
100
AcDbEntity
  8
DEFPOINTS
  6
ByBlock
 62
     0
380
     1
100
AcDbPoint
 10
1436.320359204198
 20
284.809185
 30
0.0
  0
POINT
  5
3B5
330
3BD
100
AcDbEntity
  8
DEFPOINTS
  6
ByBlock
 62
     0
380
     1
100
AcDbPoint
 10
1436.320359204198
 20
226.809185
 30
0.0
  0
LINE
  5
3B6
330
3BD
100
AcDbEntity
  8
0
  6
ByBlock
 62
     0
370
    -2
380
     1
100
AcDbLine
 10
1436.945359204198
 20
284.809185
 30
0.0
 11
1667.319036780479
 21
284.809185
 31
0.0
  0
LINE
  5
3B7
330
3BD
100
AcDbEntity
  8
0
  6
ByBlock
 62
     0
370
    -2
380
     1
100
AcDbLine
 10
1436.945359204198
 20
226.809185
 30
0.0
 11
1667.319036780479
 21
226.809185
 31
0.0
  0
LINE
  5
3B8
330
3BD
100
AcDbEntity
  8
0
  6
ByBlock
 62
     0
370
    -2
380
     1
100
AcDbLine
 10
1666.069036780479
 20
282.309185
 30
0.0
 11
1666.069036780479
 21
229.309185
 31
0.0
  0
SOLID
  5
3B9
330
3BD
100
AcDbEntity
  8
0
  6
ByBlock
 62
     0
380
     1
100
AcDbTrace
 10
1666.069036780479
 20
284.809185
 30
0.0
 11
1665.652370113812
 21
282.309185
 31
0.0
 12
1666.485703447146
 22
282.309185
 32
0.0
 13
1666.485703447146
 23
282.309185
 33
0.0
  0
SOLID
  5
3BA
330
3BD
100
AcDbEntity
  8
0
  6
ByBlock
 62
     0
380
     1
100
AcDbTrace
 10
1666.069036780479
 20
226.809185
 30
0.0
 11
1665.652370113812
 21
229.309185
 31
0.0
 12
1666.485703447146
 22
229.309185
 32
0.0
 13
1666.485703447146
 23
229.309185
 33
0.0
  0
MTEXT
  5
3BB
330
3BD
100
AcDbEntity
  8
0
  6
ByBlock
 62
     0
370
    -2
380
     1
100
AcDbMText
 10
1664.194036780479
 20
255.809185
 30
0.0
 40
2.5
 41
0.0
 71
     5
 72
     1
  1
\A1;58
 11
6.123031769111886E-17
 21
1.0
 31
0.0
 73
     1
 44
1.0
  0
ENDBLK
  5
46D
330
3BD
100
AcDbEntity
  8
0
100
AcDbBlockEnd
  0
BLOCK
  5
46E
330
3C8
100
AcDbEntity
  8
0
100
AcDbBlockBegin
  2
*D80
 70
     1
 10
0.0
 20
0.0
 30
0.0
  3
*D80
  1

  0
POINT
  5
3BF
330
3C8
100
AcDbEntity
  8
DEFPOINTS
  6
ByBlock
 62
     7
380
     1
100
AcDbPoint
 10
1436.320359204198
 20
284.809185
 30
0.0
  0
POINT
  5
3C0
330
3C8
100
AcDbEntity
  8
DEFPOINTS
  6
ByBlock
 62
     7
380
     1
100
AcDbPoint
 10
1436.320359204198
 20
226.809185
 30
0.0
  0
LINE
  5
3C1
330
3C8
100
AcDbEntity
  8
0
  6
ByBlock
 62
     7
370
    -2
380
     1
100
AcDbLine
 10
1436.945359204198
 20
284.809185
 30
0.0
 11
1667.319036780479
 21
284.809185
 31
0.0
  0
LINE
  5
3C2
330
3C8
100
AcDbEntity
  8
0
  6
ByBlock
 62
     7
370
    -2
380
     1
100
AcDbLine
 10
1436.945359204198
 20
226.809185
 30
0.0
 11
1667.319036780479
 21
226.809185
 31
0.0
  0
LINE
  5
3C3
330
3C8
100
AcDbEntity
  8
0
  6
ByBlock
 62
     7
370
    -2
380
     1
100
AcDbLine
 10
1666.069036780479
 20
274.809185
 30
0.0
 11
1666.069036780479
 21
236.809185
 31
0.0
  0
SOLID
  5
3C4
330
3C8
100
AcDbEntity
  8
0
  6
ByBlock
 62
     7
380
     1
100
AcDbTrace
 10
1666.069036780479
 20
284.809185
 30
0.0
 11
1664.402370113812
 21
274.809185
 31
0.0
 12
1667.735703447146
 22
274.809185
 32
0.0
 13
1667.735703447146
 23
274.809185
 33
0.0
  0
SOLID
  5
3C5
330
3C8
100
AcDbEntity
  8
0
  6
ByBlock
 62
     7
380
     1
100
AcDbTrace
 10
1666.069036780479
 20
226.809185
 30
0.0
 11
1664.402370113812
 21
236.809185
 31
0.0
 12
1667.735703447146
 22
236.809185
 32
0.0
 13
1667.735703447146
 23
236.809185
 33
0.0
  0
MTEXT
  5
3C6
330
3C8
100
AcDbEntity
  8
0
  6
ByBlock
 62
     0
370
    -2
380
     1
100
AcDbMText
 10
1654.069036780479
 20
255.809185
 30
0.0
 40
14.0
 41
0.0
 71
     5
 72
     1
  1
\A1;58
 11
6.123031769111886E-17
 21
1.0
 31
0.0
 73
     1
 44
1.0
  0
ENDBLK
  5
46F
330
3C8
100
AcDbEntity
  8
0
100
AcDbBlockEnd
  0
ENDSEC
  0
SECTION
  2
ENTITIES
  0
ELLIPSE
  5
30F
330
1F
100
AcDbEntity
  8
0
 62
     7
370
    60
100
AcDbEllipse
 10
1575.502173
 20
616.708435
 30
0.0
 11
34.2
 21
0.0
 31
0.0
210
0.0
220
0.0
230
1.0
 40
0.5263157894736842
 41
0.0
 42
1.570796379154776
  0
LINE
  5
310
330
1F
100
AcDbEntity
  8
0
 62
     7
370
    60
100
AcDbLine
 10
1566.1322869
 20
629.708435
 30
0.0
 11
365.0720591
 21
629.708435
 31
0.0
  0
LINE
  5
311
330
1F
100
AcDbEntity
  8
0
 62
     7
 48
0.103835
370
    60
100
AcDbLine
 10
1566.1322869
 20
629.708435
 30
0.0
 11
1560.5521978
 21
626.7715450000001
 31
0.0
  0
LINE
  5
312
330
1F
100
AcDbEntity
  8
0
 62
     7
370
    60
100
AcDbLine
 10
1560.5521978
 20
626.7715450000001
 30
0.0
 11
370.6521482
 21
626.7715450000001
 31
0.0
  0
LINE
  5
313
330
1F
100
AcDbEntity
  8
0
 62
     7
 48
0.103835
370
    60
100
AcDbLine
 10
365.0720591
 20
629.708435
 30
0.0
 11
370.6521482
 21
626.7715450000001
 31
0.0
  0
ELLIPSE
  5
314
330
1F
100
AcDbEntity
  8
0
 62
     7
370
    60
100
AcDbEllipse
 10
355.702173
 20
616.708435
 30
0.0
 11
34.20000000000005
 21
0.0
 31
0.0
210
0.0
220
0.0
230
1.0
 40
0.5263157894736842
 41
1.570796379154775
 42
3.141592740477747
  0
LINE
  5
315
330
1F
100
AcDbEntity
  8
0
 62
     7
370
    60
100
AcDbLine
 10
1575.502173
 20
634.708435
 30
0.0
 11
355.702173
 21
634.708435
 31
0.0
  0
ELLIPSE
  5
316
330
1F
100
AcDbEntity
  8
0
 62
     7
370
    60
100
AcDbEllipse
 10
1575.502173
 20
464.708435
 30
0.0
 11
34.20000000000005
 21
0.0
 31
0.0
210
0.0
220
0.0
230
1.0
 40
0.5263157894736842
 41
4.712388928024813
 42
6.283185307179586
  0
LINE
  5
317
330
1F
100
AcDbEntity
  8
0
 62
     7
 48
0.103835
370
    60
100
AcDbLine
 10
365.0720591
 20
451.708435
 30
0.0
 11
370.6521482
 21
454.645325
 31
0.0
  0
LINE
  5
318
330
1F
100
AcDbEntity
  8
0
 62
     7
370
    60
100
AcDbLine
 10
1560.5521978
 20
454.645325
 30
0.0
 11
370.6521482
 21
454.645325
 31
0.0
  0
LINE
  5
319
330
1F
100
AcDbEntity
  8
0
 62
     7
 48
0.103835
370
    60
100
AcDbLine
 10
1566.1322869
 20
451.708435
 30
0.0
 11
1560.5521978
 21
454.645325
 31
0.0
  0
LINE
  5
31A
330
1F
100
AcDbEntity
  8
0
 62
     7
370
    60
100
AcDbLine
 10
1566.1322869
 20
451.708435
 30
0.0
 11
365.0720591
 21
451.708435
 31
0.0
  0
ELLIPSE
  5
31B
330
1F
100
AcDbEntity
  8
0
 62
     7
370
    60
100
AcDbEllipse
 10
355.702173
 20
464.708435
 30
0.0
 11
34.20000000000002
 21
0.0
 31
0.0
210
0.0
220
0.0
230
1.0
 40
0.5263157894736842
 41
3.141592740477747
 42
4.712388928024811
  0
LINE
  5
31C
330
1F
100
AcDbEntity
  8
0
 62
     7
370
    60
100
AcDbLine
 10
1575.502173
 20
446.708435
 30
0.0
 11
355.702173
 21
446.708435
 31
0.0
  0
LINE
  5
31D
330
1F
100
AcDbEntity
  8
0
 62
     7
370
    60
100
AcDbLine
 10
1609.702173
 20
464.708435
 30
0.0
 11
1609.702173
 21
616.708435
 31
0.0
  0
LINE
  5
31E
330
1F
100
AcDbEntity
  8
0
 62
     7
370
    60
100
AcDbLine
 10
1560.5521978
 20
472.576828
 30
0.0
 11
1560.5521978
 21
608.840042
 31
0.0
  0
LINE
  5
31F
330
1F
100
AcDbEntity
  8
0
 62
     7
370
    60
100
AcDbLine
 10
1560.5521978
 20
608.840042
 30
0.0
 11
370.6521482
 21
608.840042
 31
0.0
  0
LINE
  5
320
330
1F
100
AcDbEntity
  8
0
 62
     7
370
    60
100
AcDbLine
 10
370.6521482
 20
472.576828
 30
0.0
 11
370.6521482
 21
608.840042
 31
0.0
  0
LINE
  5
321
330
1F
100
AcDbEntity
  8
0
 62
     7
370
    60
100
AcDbLine
 10
1560.5521978
 20
472.576828
 30
0.0
 11
370.6521482
 21
472.576828
 31
0.0
  0
LINE
  5
322
330
1F
100
AcDbEntity
  8
0
 62
     7
 48
0.448288
370
    60
100
AcDbLine
 10
370.6521482
 20
608.840042
 30
0.0
 11
336.582264
 21
608.840042
 31
0.0
  0
LINE
  5
323
330
1F
100
AcDbEntity
  8
0
 62
     7
370
    60
100
AcDbLine
 10
336.582264
 20
472.576828
 30
0.0
 11
336.582264
 21
608.840042
 31
0.0
  0
LINE
  5
324
330
1F
100
AcDbEntity
  8
0
 62
     7
 48
0.448288
370
    60
100
AcDbLine
 10
370.6521482
 20
472.576828
 30
0.0
 11
336.582264
 21
472.576828
 31
0.0
  0
LINE
  5
325
330
1F
100
AcDbEntity
  8
0
 62
     7
370
    60
100
AcDbLine
 10
1594.622082
 20
472.576828
 30
0.0
 11
1594.622082
 21
608.840042
 31
0.0
  0
LINE
  5
326
330
1F
100
AcDbEntity
  8
0
 62
     7
 48
0.448288
370
    60
100
AcDbLine
 10
1560.5521978
 20
608.840042
 30
0.0
 11
1594.622082
 21
608.840042
 31
0.0
  0
LINE
  5
327
330
1F
100
AcDbEntity
  8
0
 62
     7
 48
0.448288
370
    60
100
AcDbLine
 10
1560.5521978
 20
472.576828
 30
0.0
 11
1594.622082
 21
472.576828
 31
0.0
  0
LINE
  5
328
330
1F
100
AcDbEntity
  8
0
 62
     7
370
    60
100
AcDbLine
 10
321.502173
 20
464.708435
 30
0.0
 11
321.502173
 21
616.708435
 31
0.0
  0
LINE
  5
329
330
1F
100
AcDbEntity
  8
0
 62
     7
 48
0.103835
370
    60
100
AcDbLine
 10
331.002173
 20
469.639938
 30
0.0
 11
336.582264
 21
472.576828
 31
0.0
  0
LINE
  5
32A
330
1F
100
AcDbEntity
  8
0
 62
     7
370
    60
100
AcDbLine
 10
331.002173
 20
469.639938
 30
0.0
 11
331.002173
 21
611.776932
 31
0.0
  0
LINE
  5
32B
330
1F
100
AcDbEntity
  8
0
 62
     7
 48
0.103835
370
    60
100
AcDbLine
 10
331.002173
 20
611.776932
 30
0.0
 11
336.582264
 21
608.840042
 31
0.0
  0
LINE
  5
32C
330
1F
100
AcDbEntity
  8
0
 62
     7
 48
0.103835
370
    60
100
AcDbLine
 10
1600.202173
 20
611.776932
 30
0.0
 11
1594.622082
 21
608.840042
 31
0.0
  0
LINE
  5
32D
330
1F
100
AcDbEntity
  8
0
 62
     7
370
    60
100
AcDbLine
 10
1600.202173
 20
469.639938
 30
0.0
 11
1600.202173
 21
611.776932
 31
0.0
  0
LINE
  5
32E
330
1F
100
AcDbEntity
  8
0
 62
     7
 48
0.103835
370
    60
100
AcDbLine
 10
1600.202173
 20
469.639938
 30
0.0
 11
1594.622082
 21
472.576828
 31
0.0
  0
ELLIPSE
  5
32F
330
1F
100
AcDbEntity
  8
0
 62
     7
370
    60
100
AcDbEllipse
 10
1565.8713048
 20
611.639549
 30
0.0
 11
-34.33072125520653
 21
-0.1899731723807727
 31
0.0
210
0.0
220
0.0
230
1.0
 40
0.526289131956423
 41
3.138682073367105
 42
4.701873783515606
  0
ELLIPSE
  5
330
330
1F
100
AcDbEntity
  8
0
 62
     7
370
    60
100
AcDbEllipse
 10
365.3330412
 20
611.639549
 30
0.0
 11
34.33072125520653
 21
-0.1899731723807727
 31
0.0
210
0.0
220
0.0
230
1.0
 40
0.526289131956423
 41
1.581311523663157
 42
3.144503233811861
  0
ELLIPSE
  5
331
330
1F
100
AcDbEntity
  8
0
 62
     7
370
    60
100
AcDbEllipse
 10
365.3330412
 20
469.777321
 30
0.0
 11
-34.33072125520653
 21
-0.1899731723807727
 31
0.0
210
0.0
220
0.0
230
1.0
 40
0.526289131956423
 41
6.280274726957521
 42
7.843466437106223
  0
ELLIPSE
  5
332
330
1F
100
AcDbEntity
  8
0
 62
     7
370
    60
100
AcDbEllipse
 10
1565.8713048
 20
469.777321
 30
0.0
 11
34.33072125520653
 21
-0.1899731723807727
 31
0.0
210
0.0
220
0.0
230
1.0
 40
0.526289131956423
 41
4.722904177253774
 42
6.286095887402275
  0
ELLIPSE
  5
333
330
1F
100
AcDbEntity
  8
0
 62
     7
370
    60
100
AcDbEllipse
 10
1560.5521978
 20
608.840042
 30
0.0
 11
-34.07070677218163
 21
0.188384296706335
 31
0.0
210
0.0
220
0.0
230
1.0
 40
0.5262889735669346
 41
3.152098560036348
 42
4.715298690284679
  0
ELLIPSE
  5
334
330
1F
100
AcDbEntity
  8
0
 62
     7
370
    60
100
AcDbEllipse
 10
370.6521482
 20
608.840042
 30
0.0
 11
34.07070677218163
 21
0.188384296706335
 31
0.0
210
0.0
220
0.0
230
1.0
 40
0.5262889735669346
 41
1.567886616894906
 42
3.13108674714324
  0
LINE
  5
335
330
1F
100
AcDbEntity
  8
0
 62
     7
 48
0.448288
370
    60
100
AcDbLine
 10
1560.5521978
 20
608.840042
 30
0.0
 11
1560.5521978
 21
626.7715450000001
 31
0.0
  0
LINE
  5
336
330
1F
100
AcDbEntity
  8
0
 62
     7
 48
0.448288
370
    60
100
AcDbLine
 10
370.6521482
 20
608.840042
 30
0.0
 11
370.6521482
 21
626.7715450000001
 31
0.0
  0
ELLIPSE
  5
337
330
1F
100
AcDbEntity
  8
0
 62
     7
370
    60
100
AcDbEllipse
 10
1560.5521978
 20
472.576828
 30
0.0
 11
-34.07070677218163
 21
-0.188384296706335
 31
0.0
210
0.0
220
0.0
230
1.0
 40
0.5262889735669346
 41
1.567886616894906
 42
3.13108674714324
  0
ELLIPSE
  5
338
330
1F
100
AcDbEntity
  8
0
 62
     7
370
    60
100
AcDbEllipse
 10
370.6521482
 20
472.576828
 30
0.0
 11
34.07070677218163
 21
-0.188384296706335
 31
0.0
210
0.0
220
0.0
230
1.0
 40
0.5262889735669346
 41
3.152098560036348
 42
4.715298690284679
  0
LINE
  5
339
330
1F
100
AcDbEntity
  8
0
 62
     7
 48
0.448288
370
    60
100
AcDbLine
 10
1560.5521978
 20
472.576828
 30
0.0
 11
1560.5521978
 21
454.645325
 31
0.0
  0
LINE
  5
33A
330
1F
100
AcDbEntity
  8
0
 62
     7
 48
0.448288
370
    60
100
AcDbLine
 10
370.6521482
 20
472.576828
 30
0.0
 11
370.6521482
 21
454.645325
 31
0.0
  0
LINE
  5
33B
330
1F
100
AcDbEntity
  8
0
 62
     7
 48
0.45
370
    60
100
AcDbLine
 10
1609.702173
 20
276.809185
 30
0.0
 11
1575.502173
 21
276.809185
 31
0.0
  0
LINE
  5
33C
330
1F
100
AcDbEntity
  8
0
 62
     7
 48
0.45
370
    60
100
AcDbLine
 10
1575.502173
 20
284.809185
 30
0.0
 11
1609.702173
 21
284.809185
 31
0.0
  0
LINE
  5
33D
330
1F
100
AcDbEntity
  8
0
 62
     7
 48
0.2
370
    60
100
AcDbLine
 10
1575.502173
 20
284.809185
 30
0.0
 11
1575.502173
 21
276.809185
 31
0.0
  0
LINE
  5
33E
330
1F
100
AcDbEntity
  8
0
 62
     7
370
    60
100
AcDbLine
 10
1566.1322869
 20
276.809185
 30
0.0
 11
1560.5521978
 21
243.240383
 31
0.0
  0
LINE
  5
33F
330
1F
100
AcDbEntity
  8
0
 62
     7
370
    60
100
AcDbLine
 10
1560.5521978
 20
243.240383
 30
0.0
 11
370.6521482
 21
243.240383
 31
0.0
  0
LINE
  5
340
330
1F
100
AcDbEntity
  8
0
 62
     7
370
    60
100
AcDbLine
 10
365.0720591
 20
276.809185
 30
0.0
 11
370.6521482
 21
243.240383
 31
0.0
  0
LINE
  5
341
330
1F
100
AcDbEntity
  8
0
 62
     7
 48
0.2
370
    60
100
AcDbLine
 10
355.702173
 20
284.809185
 30
0.0
 11
355.702173
 21
276.809185
 31
0.0
  0
LINE
  5
342
330
1F
100
AcDbEntity
  8
0
 62
     7
 48
0.45
370
    60
100
AcDbLine
 10
321.502173
 20
284.809185
 30
0.0
 11
355.702173
 21
284.809185
 31
0.0
  0
LINE
  5
343
330
1F
100
AcDbEntity
  8
0
 62
     7
 48
0.45
370
    60
100
AcDbLine
 10
355.702173
 20
276.809185
 30
0.0
 11
321.502173
 21
276.809185
 31
0.0
  0
LINE
  5
344
330
1F
100
AcDbEntity
  8
0
 62
     7
370
    60
100
AcDbLine
 10
355.702173
 20
284.809185
 30
0.0
 11
1575.502173
 21
284.809185
 31
0.0
  0
LINE
  5
345
330
1F
100
AcDbEntity
  8
0
 62
     7
370
    60
100
AcDbLine
 10
1575.502173
 20
276.809185
 30
0.0
 11
355.702173
 21
276.809185
 31
0.0
  0
ELLIPSE
  5
346
330
1F
100
AcDbEntity
  8
0
 62
     7
370
    60
100
AcDbEllipse
 10
370.6521482
 20
244.809185
 30
0.0
 11
34.2
 21
0.0
 31
0.0
210
0.0
220
0.0
230
1.0
 40
0.5263157894736842
 41
3.228859011469753
 42
4.712388928024811
  0
ELLIPSE
  5
347
330
1F
100
AcDbEntity
  8
0
 62
     7
370
    60
100
AcDbEllipse
 10
1560.5521978
 20
244.809185
 30
0.0
 11
34.2
 21
0.0
 31
0.0
210
0.0
220
0.0
230
1.0
 40
0.5263157894736842
 41
4.712388928024813
 42
6.195918844579871
  0
LINE
  5
348
330
1F
100
AcDbEntity
  8
0
 62
     7
370
    60
100
AcDbLine
 10
331.002173
 20
276.809185
 30
0.0
 11
336.582264
 21
243.240383
 31
0.0
  0
ELLIPSE
  5
349
330
1F
100
AcDbEntity
  8
0
 62
     7
370
    60
100
AcDbEllipse
 10
1560.5521978
 20
244.809185
 30
0.0
 11
-34.07076744533521
 21
1.56022892613027
 31
0.0
210
0.0
220
0.0
230
1.0
 40
0.0459493966229794
 41
1.572900484867068
 42
3.136100615115402
  0
ELLIPSE
  5
34A
330
1F
100
AcDbEntity
  8
0
 62
     7
370
    60
100
AcDbEllipse
 10
370.6521482
 20
244.809185
 30
0.0
 11
34.07076744533521
 21
1.56022892613027
 31
0.0
210
0.0
220
0.0
230
1.0
 40
0.0459493966229794
 41
3.147084692064185
 42
4.710284822312517
  0
LINE
  5
34B
330
1F
100
AcDbEntity
  8
0
 62
     7
 48
0.41078
370
    60
100
AcDbLine
 10
1560.5521978
 20
226.809185
 30
0.0
 11
1560.5521978
 21
243.240383
 31
0.0
  0
LINE
  5
34C
330
1F
100
AcDbEntity
  8
0
 62
     7
 48
0.41078
370
    60
100
AcDbLine
 10
370.6521482
 20
226.809185
 30
0.0
 11
370.6521482
 21
243.240383
 31
0.0
  0
LINE
  5
34D
330
1F
100
AcDbEntity
  8
0
 62
     7
 48
0.2
370
    60
100
AcDbLine
 10
1609.702173
 20
284.809185
 30
0.0
 11
1609.702173
 21
276.809185
 31
0.0
  0
LINE
  5
34E
330
1F
100
AcDbEntity
  8
0
 62
     7
 48
0.2
370
    60
100
AcDbLine
 10
321.502173
 20
276.809185
 30
0.0
 11
321.502173
 21
284.809185
 31
0.0
  0
LINE
  5
34F
330
1F
100
AcDbEntity
  8
0
 62
     7
370
    60
100
AcDbLine
 10
1600.202173
 20
276.809185
 30
0.0
 11
1594.622082
 21
243.240231
 31
0.0
  0
LINE
  5
350
330
1F
100
AcDbEntity
  8
0
 62
     7
370
    60
100
AcDbLine
 10
1560.5521978
 20
226.809185
 30
0.0
 11
370.6521482
 21
226.809185
 31
0.0
  0
DIMENSION
  5
378
330
1F
100
AcDbEntity
  8
0
100
AcDbDimension
  2
*D75
 10
1609.702173
 20
692.8664258166351
 30
0.0
 11
965.602173
 21
704.8664258166351
 31
0.0
 70
    32
 71
     5
 41
2.5
 42
1288.2
  3
ISO-25
100
AcDbAlignedDimension
 13
321.502173
 23
540.708435
 33
0.0
 14
1609.702173
 24
540.708435
 34
0.0
100
AcDbRotatedDimension
1001
ACAD
1000
DSTYLE
1002
{
1070
    41
1040
10.0
1070
   140
1040
14.0
1070
   147
1040
5.0
1070
   176
1070
     7
1070
   177
1070
     7
1070
   271
1070
     0
1002
}
  0
DIMENSION
  5
38F
330
1F
100
AcDbEntity
  8
0
100
AcDbDimension
  2
*D77
 10
1666.069036780479
 20
446.708435
 30
0.0
 11
1654.069036780479
 21
540.708435
 31
0.0
 70
    32
 71
     5
 41
2.5
 42
188.0
  3
ISO-25
100
AcDbAlignedDimension
 13
1381.445771213864
 23
634.708435
 33
0.0
 14
1374.832865221529
 24
446.708435
 34
0.0
 50
90.0
100
AcDbRotatedDimension
1001
ACAD
1000
DSTYLE
1002
{
1070
    41
1040
10.0
1070
   140
1040
14.0
1070
   147
1040
5.0
1070
   176
1070
     7
1070
   177
1070
     7
1070
   271
1070
     0
1002
}
  0
DIMENSION
  5
3A6
330
1F
100
AcDbEntity
  8
0
100
AcDbDimension
  2
*D80
 10
1666.069036780479
 20
226.809185
 30
0.0
 11
1654.069036780479
 21
255.809185
 31
0.0
 70
   160
 71
     5
 41
2.5
 42
58.0
  3
ISO-25
100
AcDbAlignedDimension
 13
1436.320359204198
 23
284.809185
 33
0.0
 14
1436.320359204198
 24
226.809185
 34
0.0
 50
90.0
100
AcDbRotatedDimension
1001
ACAD
1000
DSTYLE
1002
{
1070
    41
1040
10.0
1070
   140
1040
14.0
1070
   147
1040
5.0
1070
   176
1070
     7
1070
   177
1070
     7
1070
   271
1070
     0
1002
}
  0
VIEWPORT
  5
BB
330
73
100
AcDbEntity
 67
     1
  8
0
100
AcDbViewport
 10
7.8
 20
4.5
 30
0.0
 40
15.64
 41
9.0
 68
     1
 69
     1
 12
6.0
 22
4.5
 13
0.0
 23
0.0
 14
0.5
 24
0.5
 15
0.5
 25
0.5
 16
0.0
 26
0.0
 36
1.0
 17
0.0
 27
0.0
 37
0.0
 42
50.0
 43
0.0
 44
0.0
 45
12.0
 50
0.0
 51
0.0
 72
   100
 90
   557152
  1

281
     0
 71
     1
 74
     0
110
0.0
120
0.0
130
0.0
111
1.0
121
0.0
131
0.0
112
0.0
122
1.0
132
0.0
 79
     0
146
0.0
  0
ENDSEC
  0
SECTION
  2
OBJECTS
  0
DICTIONARY
  5
C
330
0
100
AcDbDictionary
281
     1
  3
ACAD_COLOR
350
6C
  3
ACAD_GROUP
350
D
  3
ACAD_LAYOUT
350
1A
  3
ACAD_MATERIAL
350
6B
  3
ACAD_MLEADERSTYLE
350
471
  3
ACAD_MLINESTYLE
350
17
  3
ACAD_PLOTSETTINGS
350
19
  3
ACAD_PLOTSTYLENAME
350
E
  3
ACAD_SCALELIST
350
99
  3
ACAD_TABLESTYLE
350
92
  3
ACDBHEADERROUNDTRIPXREC
350
472
  3
AcDbVariableDictionary
350
59
  3
DWGPROPS
350
475
  0
DICTIONARY
  5
6C
102
{ACAD_REACTORS
330
C
102
}
330
C
100
AcDbDictionary
281
     1
  0
DICTIONARY
  5
D
102
{ACAD_REACTORS
330
C
102
}
330
C
100
AcDbDictionary
281
     1
  0
DICTIONARY
  5
1A
102
{ACAD_REACTORS
330
C
102
}
330
C
100
AcDbDictionary
281
     1
  3
Layout1
350
74
  3
Layout2
350
3CD
  3
Model
350
22
  0
DICTIONARY
  5
6B
102
{ACAD_REACTORS
330
C
102
}
330
C
100
AcDbDictionary
281
     1
  0
DICTIONARY
  5
471
102
{ACAD_REACTORS
330
C
102
}
330
C
100
AcDbDictionary
281
     1
  0
DICTIONARY
  5
17
102
{ACAD_REACTORS
330
C
102
}
330
C
100
AcDbDictionary
281
     1
  3
Standard
350
18
  0
DICTIONARY
  5
19
102
{ACAD_REACTORS
330
C
102
}
330
C
100
AcDbDictionary
281
     1
  0
ACDBDICTIONARYWDFLT
  5
E
102
{ACAD_REACTORS
330
C
102
}
330
C
100
AcDbDictionary
281
     1
  3
Normal
350
F
100
AcDbDictionaryWithDefault
340
F
  0
DICTIONARY
  5
99
102
{ACAD_REACTORS
330
C
102
}
330
C
100
AcDbDictionary
281
     1
  3
A0
350
D5
  3
A1
350
D6
  3
A2
350
D7
  3
A3
350
D8
  3
A4
350
D9
  3
A5
350
DA
  3
A6
350
DB
  3
A7
350
DC
  3
A8
350
DD
  3
A9
350
DE
  3
B0
350
DF
  3
B1
350
E0
  3
B2
350
E1
  3
B3
350
E2
  3
B4
350
E3
  3
B5
350
E4
  3
B6
350
E5
  3
B7
350
E6
  3
B8
350
E7
  3
B9
350
E8
  3
C0
350
E9
  3
C1
350
EA
  3
C2
350
EB
  3
C3
350
EC
  3
C4
350
ED
  3
C5
350
EE
  3
C6
350
EF
  3
C7
350
F0
  3
C8
350
F1
  3
C9
350
F2
  3
D0
350
F3
  3
D1
350
F4
  3
D2
350
F5
  0
DICTIONARY
  5
92
102
{ACAD_REACTORS
330
C
102
}
330
C
100
AcDbDictionary
281
     1
  0
DICTIONARY
  5
472
102
{ACAD_REACTORS
330
C
102
}
330
C
100
AcDbDictionary
281
     1
  3
COLORDICT
350
473
  3
MATERIALDICT
350
474
  0
DICTIONARY
  5
59
102
{ACAD_REACTORS
330
C
102
}
330
C
100
AcDbDictionary
281
     1
  3
CTABLESTYLE
350
98
  3
DIMASSOC
350
5A
  3
HIDETEXT
350
5E
  0
XRECORD
  5
475
102
{ACAD_REACTORS
330
C
102
}
330
C
100
AcDbXrecord
280
     1
  1
DWGPROPS COOKIE
  2

  3

  4

  6

  7

  8
BelottiMc
  9

300
=
301
=
302
=
303
=
304
=
305
=
306
=
307
=
308
=
309
=
 40
0.0
 41
2455245.703150231
 42
2455245.70315022
  1

 90
        0
  0
LAYOUT
  5
74
102
{ACAD_REACTORS
330
1A
102
}
330
1A
100
AcDbPlotSettings
  1

  2
ProgeSOFT PDF Wizard
  4
A4
  6

 40
5.926666666666667
 41
6.011333333333317
 42
6.095999999999985
 43
5.926666666666667
 44
210.0
 45
297.0
 46
88.56200000000001
 47
136.531
 48
0.0
 49
0.0
140
0.0
141
0.0
142
1.0
143
1.0
 70
   692
 72
     1
 73
     0
 74
     0
  7

 75
    16
147
1.0
148
4.426666666666668
149
1.5
100
AcDbLayout
  1
Layout1
 70
     1
 71
     1
 10
0.0
 20
0.0
 11
0.0
 21
0.0
 12
0.0
 22
0.0
 32
0.0
 14
0.0
 24
0.0
 34
0.0
 15
0.0
 25
0.0
 35
0.0
146
0.0
 13
0.0
 23
0.0
 33
0.0
 16
1.0
 26
0.0
 36
0.0
 17
0.0
 27
1.0
 37
0.0
 76
     0
330
D1
331
470
1001
PROGE_PRINT_SETTINGS
1070
    73
1070
     1
  0
LAYOUT
  5
3CD
102
{ACAD_REACTORS
330
1A
102
}
330
1A
100
AcDbPlotSettings
  1

  2
ProgeSOFT PDF Wizard
  4
A4
  6

 40
5.926666666666667
 41
6.011333333333317
 42
6.095999999999985
 43
5.926666666666667
 44
210.0
 45
297.0
 46
88.562
 47
136.531
 48
0.0
 49
0.0
140
0.0
141
0.0
142
1.0
143
1.0
 70
   692
 72
     1
 73
     0
 74
     0
  7

 75
    16
147
1.0
148
0.0
149
0.0
100
AcDbLayout
  1
Layout2
 70
     1
 71
     2
 10
0.0
 20
0.0
 11
12.0
 21
9.0
 12
0.0
 22
0.0
 32
0.0
 14
0.0
 24
0.0
 34
0.0
 15
12.0
 25
9.0
 35
0.0
146
0.0
 13
0.0
 23
0.0
 33
0.0
 16
1.0
 26
0.0
 36
0.0
 17
0.0
 27
1.0
 37
0.0
 76
     0
330
73
331
BB
1001
PROGE_PRINT_SETTINGS
1070
    73
1070
     1
  0
LAYOUT
  5
22
102
{ACAD_REACTORS
330
1A
102
}
330
1A
100
AcDbPlotSettings
  1

  2
ProgeSOFT PDF Wizard
  4
A4
  6

 40
5.926666666666667
 41
6.011333333333317
 42
6.095999999999985
 43
5.926666666666667
 44
210.0
 45
297.0
 46
0.0000000000000038
 47
83.07219027892849
 48
0.0
 49
0.0
140
0.0
141
0.0
142
1.0
143
13.49117922867115
 70
 11956
 72
     1
 73
     0
 74
     0
  7

 75
     0
147
0.074122505012373
148
278.5486532677157
149
448.2738810445665
100
AcDbLayout
  1
Model
 70
     1
 71
     0
 10
0.0
 20
0.0
 11
0.0
 21
0.0
 12
0.0
 22
0.0
 32
0.0
 14
0.0
 24
0.0
 34
0.0
 15
1698.234480981973
 25
696.4080924833019
 35
0.0
146
0.0
 13
0.0
 23
0.0
 33
0.0
 16
1.0
 26
0.0
 36
0.0
 17
0.0
 27
1.0
 37
0.0
 76
     0
330
1F
331
97
1001
PROGE_PRINT_SETTINGS
1070
    73
1070
     1
  0
MLINESTYLE
  5
18
102
{ACAD_REACTORS
330
17
102
}
330
17
100
AcDbMlineStyle
  2
STANDARD
 70
     0
  3

 62
   256
 51
90.0
 52
90.0
 71
     2
 49
0.5
 62
   256
  6
BYLAYER
 49
-0.5
 62
   256
  6
BYLAYER
  0
ACDBPLACEHOLDER
  5
F
102
{ACAD_REACTORS
330
E
102
}
330
E
  0
SCALE
  5
D5
102
{ACAD_REACTORS
330
99
102
}
330
99
100
AcDbScale
 70
     0
300
1:1
140
1.0
141
1.0
290
     1
  0
SCALE
  5
D6
102
{ACAD_REACTORS
330
99
102
}
330
99
100
AcDbScale
 70
     0
300
1:2
140
1.0
141
2.0
290
     0
  0
SCALE
  5
D7
102
{ACAD_REACTORS
330
99
102
}
330
99
100
AcDbScale
 70
     0
300
1:4
140
1.0
141
4.0
290
     0
  0
SCALE
  5
D8
102
{ACAD_REACTORS
330
99
102
}
330
99
100
AcDbScale
 70
     0
300
1:5
140
1.0
141
5.0
290
     0
  0
SCALE
  5
D9
102
{ACAD_REACTORS
330
99
102
}
330
99
100
AcDbScale
 70
     0
300
1:8
140
1.0
141
8.0
290
     0
  0
SCALE
  5
DA
102
{ACAD_REACTORS
330
99
102
}
330
99
100
AcDbScale
 70
     0
300
1:10
140
1.0
141
10.0
290
     0
  0
SCALE
  5
DB
102
{ACAD_REACTORS
330
99
102
}
330
99
100
AcDbScale
 70
     0
300
1:16
140
1.0
141
16.0
290
     0
  0
SCALE
  5
DC
102
{ACAD_REACTORS
330
99
102
}
330
99
100
AcDbScale
 70
     0
300
1:20
140
1.0
141
20.0
290
     0
  0
SCALE
  5
DD
102
{ACAD_REACTORS
330
99
102
}
330
99
100
AcDbScale
 70
     0
300
1:30
140
1.0
141
30.0
290
     0
  0
SCALE
  5
DE
102
{ACAD_REACTORS
330
99
102
}
330
99
100
AcDbScale
 70
     0
300
1:40
140
1.0
141
40.0
290
     0
  0
SCALE
  5
DF
102
{ACAD_REACTORS
330
99
102
}
330
99
100
AcDbScale
 70
     0
300
1:50
140
1.0
141
50.0
290
     0
  0
SCALE
  5
E0
102
{ACAD_REACTORS
330
99
102
}
330
99
100
AcDbScale
 70
     0
300
1:100
140
1.0
141
100.0
290
     0
  0
SCALE
  5
E1
102
{ACAD_REACTORS
330
99
102
}
330
99
100
AcDbScale
 70
     0
300
2:1
140
2.0
141
1.0
290
     0
  0
SCALE
  5
E2
102
{ACAD_REACTORS
330
99
102
}
330
99
100
AcDbScale
 70
     0
300
4:1
140
4.0
141
1.0
290
     0
  0
SCALE
  5
E3
102
{ACAD_REACTORS
330
99
102
}
330
99
100
AcDbScale
 70
     0
300
8:1
140
8.0
141
1.0
290
     0
  0
SCALE
  5
E4
102
{ACAD_REACTORS
330
99
102
}
330
99
100
AcDbScale
 70
     0
300
10:1
140
10.0
141
1.0
290
     0
  0
SCALE
  5
E5
102
{ACAD_REACTORS
330
99
102
}
330
99
100
AcDbScale
 70
     0
300
100:1
140
100.0
141
1.0
290
     0
  0
SCALE
  5
E6
102
{ACAD_REACTORS
330
99
102
}
330
99
100
AcDbScale
 70
     0
300
1/128" = 1'-0"
140
0.0078125
141
12.0
290
     0
  0
SCALE
  5
E7
102
{ACAD_REACTORS
330
99
102
}
330
99
100
AcDbScale
 70
     0
300
1/64" = 1'-0"
140
0.015625
141
12.0
290
     0
  0
SCALE
  5
E8
102
{ACAD_REACTORS
330
99
102
}
330
99
100
AcDbScale
 70
     0
300
1/32" = 1'-0"
140
0.03125
141
12.0
290
     0
  0
SCALE
  5
E9
102
{ACAD_REACTORS
330
99
102
}
330
99
100
AcDbScale
 70
     0
300
1/16" = 1'-0"
140
0.0625
141
12.0
290
     0
  0
SCALE
  5
EA
102
{ACAD_REACTORS
330
99
102
}
330
99
100
AcDbScale
 70
     0
300
3/32" = 1'-0"
140
0.09375
141
12.0
290
     0
  0
SCALE
  5
EB
102
{ACAD_REACTORS
330
99
102
}
330
99
100
AcDbScale
 70
     0
300
1/8" = 1'-0"
140
0.125
141
12.0
290
     0
  0
SCALE
  5
EC
102
{ACAD_REACTORS
330
99
102
}
330
99
100
AcDbScale
 70
     0
300
3/16" = 1'-0"
140
0.1875
141
12.0
290
     0
  0
SCALE
  5
ED
102
{ACAD_REACTORS
330
99
102
}
330
99
100
AcDbScale
 70
     0
300
1/4" = 1'-0"
140
0.25
141
12.0
290
     0
  0
SCALE
  5
EE
102
{ACAD_REACTORS
330
99
102
}
330
99
100
AcDbScale
 70
     0
300
3/8" = 1'-0"
140
0.375
141
12.0
290
     0
  0
SCALE
  5
EF
102
{ACAD_REACTORS
330
99
102
}
330
99
100
AcDbScale
 70
     0
300
1/2" = 1'-0"
140
0.5
141
12.0
290
     0
  0
SCALE
  5
F0
102
{ACAD_REACTORS
330
99
102
}
330
99
100
AcDbScale
 70
     0
300
3/4" = 1'-0"
140
0.75
141
12.0
290
     0
  0
SCALE
  5
F1
102
{ACAD_REACTORS
330
99
102
}
330
99
100
AcDbScale
 70
     0
300
1" = 1'-0"
140
1.0
141
12.0
290
     0
  0
SCALE
  5
F2
102
{ACAD_REACTORS
330
99
102
}
330
99
100
AcDbScale
 70
     0
300
1-1/2" = 1'-0"
140
1.5
141
12.0
290
     0
  0
SCALE
  5
F3
102
{ACAD_REACTORS
330
99
102
}
330
99
100
AcDbScale
 70
     0
300
3" = 1'-0"
140
3.0
141
12.0
290
     0
  0
SCALE
  5
F4
102
{ACAD_REACTORS
330
99
102
}
330
99
100
AcDbScale
 70
     0
300
6" = 1'-0"
140
6.0
141
12.0
290
     0
  0
SCALE
  5
F5
102
{ACAD_REACTORS
330
99
102
}
330
99
100
AcDbScale
 70
     0
300
1'-0" = 1'-0"
140
12.0
141
12.0
290
     0
  0
XRECORD
  5
473
102
{ACAD_REACTORS
330
472
102
}
330
472
100
AcDbXrecord
280
     1
340
6C
  0
XRECORD
  5
474
102
{ACAD_REACTORS
330
472
102
}
330
472
100
AcDbXrecord
280
     1
340
6B
  0
DICTIONARYVAR
  5
98
102
{ACAD_REACTORS
330
59
102
}
330
59
100
DictionaryVariables
280
     0
  1
Standard
  0
DICTIONARYVAR
  5
5A
102
{ACAD_REACTORS
330
59
102
}
330
59
100
DictionaryVariables
280
     0
  1
2
  0
DICTIONARYVAR
  5
5E
102
{ACAD_REACTORS
330
59
102
}
330
59
100
DictionaryVariables
280
     0
  1
1
  0
ENDSEC
  0
EOF
