  0
SECTION
  2
HEADER
  9
$ACADVER
  1
AC1015
  9
$ACADMAINTVER
 70
     6
  9
$DWGCODEPAGE
  3
ANSI_1252
  9
$INSBASE
 10
0.0
 20
0.0
 30
0.0
  9
$EXTMIN
 10
0.0
 20
0.0
 30
0.0
  9
$EXTMAX
 10
1972.689765106231
 20
700.632478457787
 30
0.0
  9
$LIMMIN
 10
0.0
 20
0.0
  9
$LIMMAX
 10
0.0
 20
0.0
  9
$ORTHOMODE
 70
     0
  9
$REGENMODE
 70
     1
  9
$FILLMODE
 70
     1
  9
$QTEXTMODE
 70
     0
  9
$MIRRTEXT
 70
     0
  9
$LTSCALE
 40
1.0
  9
$ATTMODE
 70
     1
  9
$TEXTSIZE
 40
2.5
  9
$TRACEWID
 40
1.0
  9
$TEXTSTYLE
  7
Standard
  9
$CLAYER
  8
0
  9
$CELTYPE
  6
ByLayer
  9
$CECOLOR
 62
   256
  9
$CELTSCALE
 40
1.0
  9
$DISPSILH
 70
     0
  9
$DIMSCALE
 40
1.0
  9
$DIMASZ
 40
2.5
  9
$DIMEXO
 40
0.625
  9
$DIMDLI
 40
3.75
  9
$DIMRND
 40
0.0
  9
$DIMDLE
 40
0.0
  9
$DIMEXE
 40
1.25
  9
$DIMTP
 40
0.0
  9
$DIMTM
 40
0.0
  9
$DIMTXT
 40
2.5
  9
$DIMCEN
 40
2.5
  9
$DIMTSZ
 40
0.0
  9
$DIMTOL
 70
     0
  9
$DIMLIM
 70
     0
  9
$DIMTIH
 70
     0
  9
$DIMTOH
 70
     0
  9
$DIMSE1
 70
     0
  9
$DIMSE2
 70
     0
  9
$DIMTAD
 70
     1
  9
$DIMZIN
 70
     8
  9
$DIMBLK
  1

  9
$DIMASO
 70
     1
  9
$DIMSHO
 70
     1
  9
$DIMPOST
  1

  9
$DIMAPOST
  1

  9
$DIMALT
 70
     0
  9
$DIMALTD
 70
     3
  9
$DIMALTF
 40
0.03937007874016
  9
$DIMLFAC
 40
1.0
  9
$DIMTOFL
 70
     1
  9
$DIMTVP
 40
0.0
  9
$DIMTIX
 70
     0
  9
$DIMSOXD
 70
     0
  9
$DIMSAH
 70
     0
  9
$DIMBLK1
  1

  9
$DIMBLK2
  1

  9
$DIMSTYLE
  2
ISO-25
  9
$DIMCLRD
 70
     0
  9
$DIMCLRE
 70
     0
  9
$DIMCLRT
 70
     0
  9
$DIMTFAC
 40
1.0
  9
$DIMGAP
 40
0.625
  9
$DIMJUST
 70
     0
  9
$DIMSD1
 70
     0
  9
$DIMSD2
 70
     0
  9
$DIMTOLJ
 70
     0
  9
$DIMTZIN
 70
     8
  9
$DIMALTZ
 70
     0
  9
$DIMALTTZ
 70
     0
  9
$DIMUPT
 70
     0
  9
$DIMDEC
 70
     2
  9
$DIMTDEC
 70
     2
  9
$DIMALTU
 70
     2
  9
$DIMALTTD
 70
     3
  9
$DIMTXSTY
  7
Standard
  9
$DIMAUNIT
 70
     0
  9
$DIMADEC
 70
     0
  9
$DIMALTRND
 40
0.0
  9
$DIMAZIN
 70
     0
  9
$DIMDSEP
 70
    44
  9
$DIMATFIT
 70
     3
  9
$DIMFRAC
 70
     0
  9
$DIMLDRBLK
  1

  9
$DIMLUNIT
 70
     2
  9
$DIMLWD
 70
    -2
  9
$DIMLWE
 70
    -2
  9
$DIMTMOVE
 70
     0
  9
$LUNITS
 70
     2
  9
$LUPREC
 70
     4
  9
$SKETCHINC
 40
1.0
  9
$FILLETRAD
 40
0.0
  9
$AUNITS
 70
     0
  9
$AUPREC
 70
     0
  9
$MENU
  1
.
  9
$ELEVATION
 40
0.0
  9
$PELEVATION
 40
0.0
  9
$THICKNESS
 40
0.0
  9
$LIMCHECK
 70
     0
  9
$CHAMFERA
 40
0.0
  9
$CHAMFERB
 40
0.0
  9
$CHAMFERC
 40
0.0
  9
$CHAMFERD
 40
0.0
  9
$SKPOLY
 70
     0
  9
$TDCREATE
 40
2455245.735510822
  9
$TDUCREATE
 40
2455245.693844155
  9
$TDUPDATE
 40
2455245.73551081
  9
$TDUUPDATE
 40
2455245.693844143
  9
$TDINDWG
 40
0.0334539236
  9
$TDUSRTIMER
 40
0.0334515625
  9
$USRTIMER
 70
     1
  9
$ANGBASE
 50
0.0
  9
$ANGDIR
 70
     0
  9
$PDMODE
 70
     0
  9
$PDSIZE
 40
0.0
  9
$PLINEWID
 40
0.0
  9
$SPLFRAME
 70
     0
  9
$SPLINETYPE
 70
     6
  9
$SPLINESEGS
 70
     8
  9
$HANDSEED
  5
455
  9
$SURFTAB1
 70
     6
  9
$SURFTAB2
 70
     6
  9
$SURFTYPE
 70
     6
  9
$SURFU
 70
     6
  9
$SURFV
 70
     6
  9
$UCSBASE
  2

  9
$UCSNAME
  2

  9
$UCSORG
 10
0.0
 20
0.0
 30
0.0
  9
$UCSXDIR
 10
1.0
 20
0.0
 30
0.0
  9
$UCSYDIR
 10
0.0
 20
1.0
 30
0.0
  9
$UCSORTHOREF
  2

  9
$UCSORTHOVIEW
 70
     0
  9
$UCSORGTOP
 10
0.0
 20
0.0
 30
0.0
  9
$UCSORGBOTTOM
 10
0.0
 20
0.0
 30
0.0
  9
$UCSORGLEFT
 10
0.0
 20
0.0
 30
0.0
  9
$UCSORGRIGHT
 10
0.0
 20
0.0
 30
0.0
  9
$UCSORGFRONT
 10
0.0
 20
0.0
 30
0.0
  9
$UCSORGBACK
 10
0.0
 20
0.0
 30
0.0
  9
$PUCSBASE
  2

  9
$PUCSNAME
  2

  9
$PUCSORG
 10
0.0
 20
0.0
 30
0.0
  9
$PUCSXDIR
 10
1.0
 20
0.0
 30
0.0
  9
$PUCSYDIR
 10
0.0
 20
1.0
 30
0.0
  9
$PUCSORTHOREF
  2

  9
$PUCSORTHOVIEW
 70
     0
  9
$PUCSORGTOP
 10
0.0
 20
0.0
 30
0.0
  9
$PUCSORGBOTTOM
 10
0.0
 20
0.0
 30
0.0
  9
$PUCSORGLEFT
 10
0.0
 20
0.0
 30
0.0
  9
$PUCSORGRIGHT
 10
0.0
 20
0.0
 30
0.0
  9
$PUCSORGFRONT
 10
0.0
 20
0.0
 30
0.0
  9
$PUCSORGBACK
 10
0.0
 20
0.0
 30
0.0
  9
$USERI1
 70
     0
  9
$USERI2
 70
     0
  9
$USERI3
 70
     0
  9
$USERI4
 70
     0
  9
$USERI5
 70
     0
  9
$USERR1
 40
0.0
  9
$USERR2
 40
0.0
  9
$USERR3
 40
0.0
  9
$USERR4
 40
0.0
  9
$USERR5
 40
0.0
  9
$WORLDVIEW
 70
     1
  9
$SHADEDGE
 70
     3
  9
$SHADEDIF
 70
    70
  9
$TILEMODE
 70
     1
  9
$MAXACTVP
 70
    64
  9
$PINSBASE
 10
0.0
 20
0.0
 30
0.0
  9
$PLIMCHECK
 70
     0
  9
$PEXTMIN
 10
0.0
 20
0.0
 30
0.0
  9
$PEXTMAX
 10
12.0
 20
9.0
 30
0.0
  9
$PLIMMIN
 10
0.0
 20
0.0
  9
$PLIMMAX
 10
12.0
 20
9.0
  9
$UNITMODE
 70
     0
  9
$VISRETAIN
 70
     1
  9
$PLINEGEN
 70
     0
  9
$PSLTSCALE
 70
     1
  9
$TREEDEPTH
 70
  3020
  9
$CMLSTYLE
  2
Standard
  9
$CMLJUST
 70
     0
  9
$CMLSCALE
 40
20.0
  9
$PROXYGRAPHICS
 70
     1
  9
$MEASUREMENT
 70
     1
  9
$CELWEIGHT
370
    -1
  9
$ENDCAPS
280
     0
  9
$JOINSTYLE
280
     0
  9
$LWDISPLAY
290
     0
  9
$INSUNITS
 70
     4
  9
$HYPERLINKBASE
  1

  9
$STYLESHEET
  1

  9
$XEDIT
290
     1
  9
$CEPSNTYPE
380
     0
  9
$PSTYLEMODE
290
     1
  9
$FINGERPRINTGUID
  2
{5559452E-1E62-4159-8551-BF76FFF3E7E8}
  9
$VERSIONGUID
  2
{3CEB9EF8-4431-4551-B596-6734A9F966A9}
  9
$EXTNAMES
290
     1
  9
$PSVPSCALE
 40
0.0
  9
$OLESTARTUP
290
     0
  0
ENDSEC
  0
SECTION
  2
CLASSES
  0
CLASS
  1
ACDBDICTIONARYWDFLT
  2
AcDbDictionaryWithDefault
  3
ObjectDBX Classes
 90
        0
280
     0
281
     0
  0
CLASS
  1
ACDBPLACEHOLDER
  2
AcDbPlaceHolder
  3
ObjectDBX Classes
 90
        0
280
     0
281
     0
  0
CLASS
  1
LAYOUT
  2
AcDbLayout
  3
ObjectDBX Classes
 90
        0
280
     0
281
     0
  0
CLASS
  1
DICTIONARYVAR
  2
AcDbDictionaryVar
  3
ObjectDBX Classes
 90
        0
280
     0
281
     0
  0
CLASS
  1
TABLESTYLE
  2
AcDbTableStyle
  3
ObjectDBX Classes
 90
     4095
280
     0
281
     0
  0
CLASS
  1
SCALE
  2
AcDbScale
  3
ObjectDBX Classes
 90
     1153
280
     0
281
     0
  0
ENDSEC
  0
SECTION
  2
TABLES
  0
TABLE
  2
VPORT
  5
8
330
0
100
AcDbSymbolTable
 70
     2
  0
VPORT
  5
97
330
8
100
AcDbSymbolTableRecord
100
AcDbViewportTableRecord
  2
*Active
 70
     0
 10
0.0
 20
0.0
 11
1.0
 21
1.0
 12
1066.285559031091
 22
402.2676094421194
 13
0.0
 23
0.0
 14
10.0
 24
10.0
 15
10.0
 25
10.0
 16
0.0
 26
0.0
 36
1.0
 17
0.0
 27
0.0
 37
0.0
 40
1857.846913007564
 41
1.664827586206897
 42
50.0
 43
0.0
 44
0.0
 50
0.0
 51
0.0
 71
     0
 72
  1000
 73
     1
 74
     3
 75
     0
 76
     0
 77
     0
 78
     0
281
     0
 65
     1
110
0.0
120
0.0
130
0.0
111
1.0
121
0.0
131
0.0
112
0.0
122
1.0
132
0.0
 79
     0
146
0.0
  0
ENDTAB
  0
TABLE
  2
LTYPE
  5
5
330
0
100
AcDbSymbolTable
 70
     1
  0
LTYPE
  5
14
330
5
100
AcDbSymbolTableRecord
100
AcDbLinetypeTableRecord
  2
ByBlock
 70
     0
  3

 72
    65
 73
     0
 40
0.0
  0
LTYPE
  5
15
330
5
100
AcDbSymbolTableRecord
100
AcDbLinetypeTableRecord
  2
ByLayer
 70
     0
  3

 72
    65
 73
     0
 40
0.0
  0
LTYPE
  5
16
330
5
100
AcDbSymbolTableRecord
100
AcDbLinetypeTableRecord
  2
Continuous
 70
     0
  3
Solid line
 72
    65
 73
     0
 40
0.0
  0
ENDTAB
  0
TABLE
  2
LAYER
  5
2
330
0
100
AcDbSymbolTable
 70
     2
  0
LAYER
  5
10
330
2
100
AcDbSymbolTableRecord
100
AcDbLayerTableRecord
  2
0
 70
     0
 62
     7
  6
Continuous
370
    -3
390
F
  0
LAYER
  5
FA
330
2
100
AcDbSymbolTableRecord
100
AcDbLayerTableRecord
  2
DEFPOINTS
 70
     0
 62
     7
  6
Continuous
290
     0
370
    -3
390
F
  0
ENDTAB
  0
TABLE
  2
STYLE
  5
3
330
0
100
AcDbSymbolTable
 70
     2
  0
STYLE
  5
11
330
3
100
AcDbSymbolTableRecord
100
AcDbTextStyleTableRecord
  2
Standard
 70
     0
 40
0.0
 41
1.0
 50
0.0
 71
     0
 42
2.5
  3
txt
  4

  0
STYLE
  5
F9
330
3
100
AcDbSymbolTableRecord
100
AcDbTextStyleTableRecord
  2
GDT
 70
     0
 40
0.0
 41
1.0
 50
0.0
 71
     0
 42
0.2
  3
gdt.shx
  4

  0
ENDTAB
  0
TABLE
  2
VIEW
  5
6
330
0
100
AcDbSymbolTable
 70
     0
  0
ENDTAB
  0
TABLE
  2
UCS
  5
7
330
0
100
AcDbSymbolTable
 70
     0
  0
ENDTAB
  0
TABLE
  2
APPID
  5
9
330
0
100
AcDbSymbolTable
 70
     3
  0
APPID
  5
12
330
9
100
AcDbSymbolTableRecord
100
AcDbRegAppTableRecord
  2
ACAD
 70
     0
  0
APPID
  5
3AB
330
9
100
AcDbSymbolTableRecord
100
AcDbRegAppTableRecord
  2
PROGE_PRINT_SETTINGS
 70
     0
  0
APPID
  5
3AC
330
9
100
AcDbSymbolTableRecord
100
AcDbRegAppTableRecord
  2
Conv5506CA
 70
     0
  0
ENDTAB
  0
TABLE
  2
DIMSTYLE
  5
A
330
0
100
AcDbSymbolTable
 70
     2
100
AcDbDimStyleTable
  0
DIMSTYLE
105
27
330
A
100
AcDbSymbolTableRecord
100
AcDbDimStyleTableRecord
  2
Standard
 70
     0
278
     0
340
11
  0
DIMSTYLE
105
29
102
{ACAD_REACTORS
330
32D
330
370
330
387
102
}
330
A
100
AcDbSymbolTableRecord
100
AcDbDimStyleTableRecord
  2
ISO-25
 70
     0
 41
2.5
 42
0.625
 43
3.75
 44
1.25
 73
     0
 74
     0
 77
     1
 78
     8
140
2.5
141
2.5
143
0.03937007874016
147
0.625
171
     3
172
     1
271
     2
272
     2
274
     3
278
    44
283
     0
284
     8
340
11
  0
ENDTAB
  0
TABLE
  2
BLOCK_RECORD
  5
1
330
0
100
AcDbSymbolTable
 70
    80
  0
BLOCK_RECORD
  5
1F
330
1
100
AcDbSymbolTableRecord
100
AcDbBlockTableRecord
  2
*Model_Space
340
22
  0
BLOCK_RECORD
  5
73
330
1
100
AcDbSymbolTableRecord
100
AcDbBlockTableRecord
  2
*Paper_Space
340
3AE
  0
BLOCK_RECORD
  5
D1
330
1
100
AcDbSymbolTableRecord
100
AcDbBlockTableRecord
  2
*Paper_Space0
340
74
  0
BLOCK_RECORD
  5
FE
330
1
100
AcDbSymbolTableRecord
100
AcDbBlockTableRecord
  2
BLOCK61
340
0
  0
BLOCK_RECORD
  5
102
330
1
100
AcDbSymbolTableRecord
100
AcDbBlockTableRecord
  2
BLOCK62
340
0
  0
BLOCK_RECORD
  5
106
330
1
100
AcDbSymbolTableRecord
100
AcDbBlockTableRecord
  2
BLOCK63
340
0
  0
BLOCK_RECORD
  5
10A
330
1
100
AcDbSymbolTableRecord
100
AcDbBlockTableRecord
  2
BLOCK64
340
0
  0
BLOCK_RECORD
  5
10E
330
1
100
AcDbSymbolTableRecord
100
AcDbBlockTableRecord
  2
BLOCK65
340
0
  0
BLOCK_RECORD
  5
112
330
1
100
AcDbSymbolTableRecord
100
AcDbBlockTableRecord
  2
BLOCK66
340
0
  0
BLOCK_RECORD
  5
116
330
1
100
AcDbSymbolTableRecord
100
AcDbBlockTableRecord
  2
BLOCK67
340
0
  0
BLOCK_RECORD
  5
11A
330
1
100
AcDbSymbolTableRecord
100
AcDbBlockTableRecord
  2
BLOCK68
340
0
  0
BLOCK_RECORD
  5
11E
330
1
100
AcDbSymbolTableRecord
100
AcDbBlockTableRecord
  2
BLOCK69
340
0
  0
BLOCK_RECORD
  5
122
330
1
100
AcDbSymbolTableRecord
100
AcDbBlockTableRecord
  2
BLOCK70
340
0
  0
BLOCK_RECORD
  5
126
330
1
100
AcDbSymbolTableRecord
100
AcDbBlockTableRecord
  2
BLOCK71
340
0
  0
BLOCK_RECORD
  5
12A
330
1
100
AcDbSymbolTableRecord
100
AcDbBlockTableRecord
  2
BLOCK72
340
0
  0
BLOCK_RECORD
  5
12E
330
1
100
AcDbSymbolTableRecord
100
AcDbBlockTableRecord
  2
BLOCK73
340
0
  0
BLOCK_RECORD
  5
132
330
1
100
AcDbSymbolTableRecord
100
AcDbBlockTableRecord
  2
BLOCK74
340
0
  0
BLOCK_RECORD
  5
136
330
1
100
AcDbSymbolTableRecord
100
AcDbBlockTableRecord
  2
BLOCK75
340
0
  0
BLOCK_RECORD
  5
13A
330
1
100
AcDbSymbolTableRecord
100
AcDbBlockTableRecord
  2
BLOCK76
340
0
  0
BLOCK_RECORD
  5
13E
330
1
100
AcDbSymbolTableRecord
100
AcDbBlockTableRecord
  2
BLOCK77
340
0
  0
BLOCK_RECORD
  5
142
330
1
100
AcDbSymbolTableRecord
100
AcDbBlockTableRecord
  2
BLOCK78
340
0
  0
BLOCK_RECORD
  5
146
330
1
100
AcDbSymbolTableRecord
100
AcDbBlockTableRecord
  2
BLOCK79
340
0
  0
BLOCK_RECORD
  5
14A
330
1
100
AcDbSymbolTableRecord
100
AcDbBlockTableRecord
  2
BLOCK80
340
0
  0
BLOCK_RECORD
  5
14E
330
1
100
AcDbSymbolTableRecord
100
AcDbBlockTableRecord
  2
BLOCK81
340
0
  0
BLOCK_RECORD
  5
152
330
1
100
AcDbSymbolTableRecord
100
AcDbBlockTableRecord
  2
BLOCK82
340
0
  0
BLOCK_RECORD
  5
156
330
1
100
AcDbSymbolTableRecord
100
AcDbBlockTableRecord
  2
BLOCK83
340
0
  0
BLOCK_RECORD
  5
15A
330
1
100
AcDbSymbolTableRecord
100
AcDbBlockTableRecord
  2
BLOCK84
340
0
  0
BLOCK_RECORD
  5
15E
330
1
100
AcDbSymbolTableRecord
100
AcDbBlockTableRecord
  2
BLOCK85
340
0
  0
BLOCK_RECORD
  5
162
330
1
100
AcDbSymbolTableRecord
100
AcDbBlockTableRecord
  2
BLOCK86
340
0
  0
BLOCK_RECORD
  5
166
330
1
100
AcDbSymbolTableRecord
100
AcDbBlockTableRecord
  2
BLOCK87
340
0
  0
BLOCK_RECORD
  5
16A
330
1
100
AcDbSymbolTableRecord
100
AcDbBlockTableRecord
  2
BLOCK88
340
0
  0
BLOCK_RECORD
  5
16E
330
1
100
AcDbSymbolTableRecord
100
AcDbBlockTableRecord
  2
BLOCK89
340
0
  0
BLOCK_RECORD
  5
172
330
1
100
AcDbSymbolTableRecord
100
AcDbBlockTableRecord
  2
BLOCK90
340
0
  0
BLOCK_RECORD
  5
176
330
1
100
AcDbSymbolTableRecord
100
AcDbBlockTableRecord
  2
BLOCK91
340
0
  0
BLOCK_RECORD
  5
17A
330
1
100
AcDbSymbolTableRecord
100
AcDbBlockTableRecord
  2
BLOCK92
340
0
  0
BLOCK_RECORD
  5
17E
330
1
100
AcDbSymbolTableRecord
100
AcDbBlockTableRecord
  2
BLOCK93
340
0
  0
BLOCK_RECORD
  5
182
330
1
100
AcDbSymbolTableRecord
100
AcDbBlockTableRecord
  2
BLOCK94
340
0
  0
BLOCK_RECORD
  5
186
330
1
100
AcDbSymbolTableRecord
100
AcDbBlockTableRecord
  2
BLOCK95
340
0
  0
BLOCK_RECORD
  5
18A
330
1
100
AcDbSymbolTableRecord
100
AcDbBlockTableRecord
  2
BLOCK96
340
0
  0
BLOCK_RECORD
  5
18E
330
1
100
AcDbSymbolTableRecord
100
AcDbBlockTableRecord
  2
BLOCK97
340
0
  0
BLOCK_RECORD
  5
192
330
1
100
AcDbSymbolTableRecord
100
AcDbBlockTableRecord
  2
BLOCK98
340
0
  0
BLOCK_RECORD
  5
196
330
1
100
AcDbSymbolTableRecord
100
AcDbBlockTableRecord
  2
BLOCK99
340
0
  0
BLOCK_RECORD
  5
19A
330
1
100
AcDbSymbolTableRecord
100
AcDbBlockTableRecord
  2
BLOCK100
340
0
  0
BLOCK_RECORD
  5
19E
330
1
100
AcDbSymbolTableRecord
100
AcDbBlockTableRecord
  2
BLOCK101
340
0
  0
BLOCK_RECORD
  5
1A2
330
1
100
AcDbSymbolTableRecord
100
AcDbBlockTableRecord
  2
BLOCK102
340
0
  0
BLOCK_RECORD
  5
1A6
330
1
100
AcDbSymbolTableRecord
100
AcDbBlockTableRecord
  2
BLOCK103
340
0
  0
BLOCK_RECORD
  5
1AA
330
1
100
AcDbSymbolTableRecord
100
AcDbBlockTableRecord
  2
BLOCK104
340
0
  0
BLOCK_RECORD
  5
1AE
330
1
100
AcDbSymbolTableRecord
100
AcDbBlockTableRecord
  2
BLOCK105
340
0
  0
BLOCK_RECORD
  5
1B2
330
1
100
AcDbSymbolTableRecord
100
AcDbBlockTableRecord
  2
BLOCK106
340
0
  0
BLOCK_RECORD
  5
1B6
330
1
100
AcDbSymbolTableRecord
100
AcDbBlockTableRecord
  2
BLOCK107
340
0
  0
BLOCK_RECORD
  5
1BA
330
1
100
AcDbSymbolTableRecord
100
AcDbBlockTableRecord
  2
BLOCK108
340
0
  0
BLOCK_RECORD
  5
1BE
330
1
100
AcDbSymbolTableRecord
100
AcDbBlockTableRecord
  2
BLOCK109
340
0
  0
BLOCK_RECORD
  5
1C2
330
1
100
AcDbSymbolTableRecord
100
AcDbBlockTableRecord
  2
BLOCK110
340
0
  0
BLOCK_RECORD
  5
1C6
330
1
100
AcDbSymbolTableRecord
100
AcDbBlockTableRecord
  2
BLOCK111
340
0
  0
BLOCK_RECORD
  5
1CA
330
1
100
AcDbSymbolTableRecord
100
AcDbBlockTableRecord
  2
BLOCK112
340
0
  0
BLOCK_RECORD
  5
1D0
330
1
100
AcDbSymbolTableRecord
100
AcDbBlockTableRecord
  2
BLOCK113
340
0
  0
BLOCK_RECORD
  5
1D6
330
1
100
AcDbSymbolTableRecord
100
AcDbBlockTableRecord
  2
BLOCK114
340
0
  0
BLOCK_RECORD
  5
1E1
330
1
100
AcDbSymbolTableRecord
100
AcDbBlockTableRecord
  2
BLOCK115
340
0
  0
BLOCK_RECORD
  5
210
330
1
100
AcDbSymbolTableRecord
100
AcDbBlockTableRecord
  2
BLOCK116
340
0
  0
BLOCK_RECORD
  5
21B
330
1
100
AcDbSymbolTableRecord
100
AcDbBlockTableRecord
  2
BLOCK117
340
0
  0
BLOCK_RECORD
  5
234
330
1
100
AcDbSymbolTableRecord
100
AcDbBlockTableRecord
  2
BLOCK118
340
0
  0
BLOCK_RECORD
  5
23F
330
1
100
AcDbSymbolTableRecord
100
AcDbBlockTableRecord
  2
BLOCK119
340
0
  0
BLOCK_RECORD
  5
258
330
1
100
AcDbSymbolTableRecord
100
AcDbBlockTableRecord
  2
BLOCK120
340
0
  0
BLOCK_RECORD
  5
263
330
1
100
AcDbSymbolTableRecord
100
AcDbBlockTableRecord
  2
*D61
340
0
  0
BLOCK_RECORD
  5
26E
330
1
100
AcDbSymbolTableRecord
100
AcDbBlockTableRecord
  2
*D62
340
0
  0
BLOCK_RECORD
  5
279
330
1
100
AcDbSymbolTableRecord
100
AcDbBlockTableRecord
  2
*D63
340
0
  0
BLOCK_RECORD
  5
284
330
1
100
AcDbSymbolTableRecord
100
AcDbBlockTableRecord
  2
*D64
340
0
  0
BLOCK_RECORD
  5
28F
330
1
100
AcDbSymbolTableRecord
100
AcDbBlockTableRecord
  2
*D65
340
0
  0
BLOCK_RECORD
  5
29A
330
1
100
AcDbSymbolTableRecord
100
AcDbBlockTableRecord
  2
*D66
340
0
  0
BLOCK_RECORD
  5
2A5
330
1
100
AcDbSymbolTableRecord
100
AcDbBlockTableRecord
  2
*D67
340
0
  0
BLOCK_RECORD
  5
312
330
1
100
AcDbSymbolTableRecord
100
AcDbBlockTableRecord
  2
*D68
340
0
  0
BLOCK_RECORD
  5
31F
330
1
100
AcDbSymbolTableRecord
100
AcDbBlockTableRecord
  2
*D69
340
0
  0
BLOCK_RECORD
  5
32C
330
1
100
AcDbSymbolTableRecord
100
AcDbBlockTableRecord
  2
*D70
340
0
  0
BLOCK_RECORD
  5
338
330
1
100
AcDbSymbolTableRecord
100
AcDbBlockTableRecord
  2
*D71
340
0
  0
BLOCK_RECORD
  5
343
330
1
100
AcDbSymbolTableRecord
100
AcDbBlockTableRecord
  2
*D72
340
0
  0
BLOCK_RECORD
  5
34E
330
1
100
AcDbSymbolTableRecord
100
AcDbBlockTableRecord
  2
*D73
340
0
  0
BLOCK_RECORD
  5
359
330
1
100
AcDbSymbolTableRecord
100
AcDbBlockTableRecord
  2
*D74
340
0
  0
BLOCK_RECORD
  5
37B
330
1
100
AcDbSymbolTableRecord
100
AcDbBlockTableRecord
  2
*D75
340
0
  0
BLOCK_RECORD
  5
386
330
1
100
AcDbSymbolTableRecord
100
AcDbBlockTableRecord
  2
*D76
340
0
  0
BLOCK_RECORD
  5
392
330
1
100
AcDbSymbolTableRecord
100
AcDbBlockTableRecord
  2
*D77
340
0
  0
BLOCK_RECORD
  5
39E
330
1
100
AcDbSymbolTableRecord
100
AcDbBlockTableRecord
  2
*D78
340
0
  0
BLOCK_RECORD
  5
3A9
330
1
100
AcDbSymbolTableRecord
100
AcDbBlockTableRecord
  2
*D79
340
0
  0
ENDTAB
  0
ENDSEC
  0
SECTION
  2
BLOCKS
  0
BLOCK
  5
20
330
1F
100
AcDbEntity
  8
0
100
AcDbBlockBegin
  2
*Model_Space
 70
     0
 10
0.0
 20
0.0
 30
0.0
  3
*Model_Space
  1

  0
ENDBLK
  5
21
330
1F
100
AcDbEntity
  8
0
100
AcDbBlockEnd
  0
BLOCK
  5
75
330
73
100
AcDbEntity
 67
     1
  8
0
100
AcDbBlockBegin
  2
*Paper_Space
 70
     0
 10
0.0
 20
0.0
 30
0.0
  3
*Paper_Space
  1

  0
ENDBLK
  5
76
330
73
100
AcDbEntity
 67
     1
  8
0
100
AcDbBlockEnd
  0
BLOCK
  5
3AF
330
D1
100
AcDbEntity
  8
0
100
AcDbBlockBegin
  2
*Paper_Space0
 70
     0
 10
0.0
 20
0.0
 30
0.0
  3
*Paper_Space0
  1

  0
VIEWPORT
  5
44F
330
D1
100
AcDbEntity
  8
0
100
AcDbViewport
 10
7.8
 20
4.5
 30
0.0
 40
15.64
 41
9.0
 68
     1
 69
     1
 12
6.0
 22
4.5
 13
0.0
 23
0.0
 14
0.5
 24
0.5
 15
0.5
 25
0.5
 16
0.0
 26
0.0
 36
1.0
 17
0.0
 27
0.0
 37
0.0
 42
50.0
 43
0.0
 44
0.0
 45
12.0
 50
0.0
 51
0.0
 72
   100
 90
   557152
  1

281
     0
 71
     1
 74
     0
110
0.0
120
0.0
130
0.0
111
1.0
121
0.0
131
0.0
112
0.0
122
1.0
132
0.0
 79
     0
146
0.0
  0
ENDBLK
  5
3B0
330
D1
100
AcDbEntity
  8
0
100
AcDbBlockEnd
  0
BLOCK
  5
3B1
330
FE
100
AcDbEntity
  8
0
100
AcDbBlockBegin
  2
BLOCK61
 70
     0
 10
0.0
 20
0.0
 30
0.0
  3
BLOCK61
  1

  0
TEXT
  5
FC
330
FE
100
AcDbEntity
  8
0
 62
     7
370
    13
390
F
100
AcDbText
 10
16.632565
 20
49.766666
 30
0.0
 40
2.0
  1
L
 41
1.301152500000001
 72
     5
 11
18.367435
 21
49.766666
 31
0.0
100
AcDbText
  0
ENDBLK
  5
3B2
330
FE
100
AcDbEntity
  8
0
100
AcDbBlockEnd
  0
BLOCK
  5
3B3
330
102
100
AcDbEntity
  8
0
100
AcDbBlockBegin
  2
BLOCK62
 70
     0
 10
0.0
 20
0.0
 30
0.0
  3
BLOCK62
  1

  0
TEXT
  5
100
330
102
100
AcDbEntity
  8
0
 62
     7
370
    70
390
F
100
AcDbText
 10
16.766666
 20
131.666672
 30
0.0
 40
2.0
  1
I
 41
2.200001999999998
 72
     5
 11
18.233334
 21
131.666672
 31
0.0
100
AcDbText
  0
ENDBLK
  5
3B4
330
102
100
AcDbEntity
  8
0
100
AcDbBlockEnd
  0
BLOCK
  5
3B5
330
106
100
AcDbEntity
  8
0
100
AcDbBlockBegin
  2
BLOCK63
 70
     0
 10
0.0
 20
0.0
 30
0.0
  3
BLOCK63
  1

  0
TEXT
  5
104
330
106
100
AcDbEntity
  8
0
 62
     7
370
    13
390
F
100
AcDbText
 10
16.632565
 20
213.566666
 30
0.0
 40
2.0
  1
H
 41
1.301152500000001
 72
     5
 11
18.367435
 21
213.566666
 31
0.0
100
AcDbText
  0
ENDBLK
  5
3B6
330
106
100
AcDbEntity
  8
0
100
AcDbBlockEnd
  0
BLOCK
  5
3B7
330
10A
100
AcDbEntity
  8
0
100
AcDbBlockBegin
  2
BLOCK64
 70
     0
 10
0.0
 20
0.0
 30
0.0
  3
BLOCK64
  1

  0
TEXT
  5
108
330
10A
100
AcDbEntity
  8
0
 62
     7
370
    13
390
F
100
AcDbText
 10
16.632565
 20
295.466675
 30
0.0
 40
2.0
  1
G
 41
1.301152500000001
 72
     5
 11
18.367435
 21
295.466675
 31
0.0
100
AcDbText
  0
ENDBLK
  5
3B8
330
10A
100
AcDbEntity
  8
0
100
AcDbBlockEnd
  0
BLOCK
  5
3B9
330
10E
100
AcDbEntity
  8
0
100
AcDbBlockBegin
  2
BLOCK65
 70
     0
 10
0.0
 20
0.0
 30
0.0
  3
BLOCK65
  1

  0
TEXT
  5
10C
330
10E
100
AcDbEntity
  8
0
 62
     7
370
    13
390
F
100
AcDbText
 10
16.632565
 20
377.366669
 30
0.0
 40
2.0
  1
F
 41
1.301152500000001
 72
     5
 11
18.367435
 21
377.366669
 31
0.0
100
AcDbText
  0
ENDBLK
  5
3BA
330
10E
100
AcDbEntity
  8
0
100
AcDbBlockEnd
  0
BLOCK
  5
3BB
330
112
100
AcDbEntity
  8
0
100
AcDbBlockBegin
  2
BLOCK66
 70
     0
 10
0.0
 20
0.0
 30
0.0
  3
BLOCK66
  1

  0
TEXT
  5
110
330
112
100
AcDbEntity
  8
0
 62
     7
370
    13
390
F
100
AcDbText
 10
16.632565
 20
459.266663
 30
0.0
 40
2.0
  1
E
 41
1.301152500000001
 72
     5
 11
18.367435
 21
459.266663
 31
0.0
100
AcDbText
  0
ENDBLK
  5
3BC
330
112
100
AcDbEntity
  8
0
100
AcDbBlockEnd
  0
BLOCK
  5
3BD
330
116
100
AcDbEntity
  8
0
100
AcDbBlockBegin
  2
BLOCK67
 70
     0
 10
0.0
 20
0.0
 30
0.0
  3
BLOCK67
  1

  0
TEXT
  5
114
330
116
100
AcDbEntity
  8
0
 62
     7
370
    13
390
F
100
AcDbText
 10
16.632565
 20
541.166687
 30
0.0
 40
2.0
  1
D
 41
1.301152500000001
 72
     5
 11
18.367435
 21
541.166687
 31
0.0
100
AcDbText
  0
ENDBLK
  5
3BE
330
116
100
AcDbEntity
  8
0
100
AcDbBlockEnd
  0
BLOCK
  5
3BF
330
11A
100
AcDbEntity
  8
0
100
AcDbBlockBegin
  2
BLOCK68
 70
     0
 10
0.0
 20
0.0
 30
0.0
  3
BLOCK68
  1

  0
TEXT
  5
118
330
11A
100
AcDbEntity
  8
0
 62
     7
370
    13
390
F
100
AcDbText
 10
16.632565
 20
623.06665
 30
0.0
 40
2.0
  1
C
 41
1.301152500000001
 72
     5
 11
18.367435
 21
623.06665
 31
0.0
100
AcDbText
  0
ENDBLK
  5
3C0
330
11A
100
AcDbEntity
  8
0
100
AcDbBlockEnd
  0
BLOCK
  5
3C1
330
11E
100
AcDbEntity
  8
0
100
AcDbBlockBegin
  2
BLOCK69
 70
     0
 10
0.0
 20
0.0
 30
0.0
  3
BLOCK69
  1

  0
TEXT
  5
11C
330
11E
100
AcDbEntity
  8
0
 62
     7
370
    13
390
F
100
AcDbText
 10
16.632565
 20
704.966675
 30
0.0
 40
2.0
  1
B
 41
1.301152500000001
 72
     5
 11
18.367435
 21
704.966675
 31
0.0
100
AcDbText
  0
ENDBLK
  5
3C2
330
11E
100
AcDbEntity
  8
0
100
AcDbBlockEnd
  0
BLOCK
  5
3C3
330
122
100
AcDbEntity
  8
0
100
AcDbBlockBegin
  2
BLOCK70
 70
     0
 10
0.0
 20
0.0
 30
0.0
  3
BLOCK70
  1

  0
TEXT
  5
120
330
122
100
AcDbEntity
  8
0
 62
     7
370
    13
390
F
100
AcDbText
 10
16.632565
 20
786.866638
 30
0.0
 40
2.0
  1
A
 41
1.301152500000001
 72
     5
 11
18.367435
 21
786.866638
 31
0.0
100
AcDbText
  0
ENDBLK
  5
3C4
330
122
100
AcDbEntity
  8
0
100
AcDbBlockEnd
  0
BLOCK
  5
3C5
330
126
100
AcDbEntity
  8
0
100
AcDbBlockBegin
  2
BLOCK71
 70
     0
 10
0.0
 20
0.0
 30
0.0
  3
BLOCK71
  1

  0
TEXT
  5
124
330
126
100
AcDbEntity
  8
0
 62
     7
370
    13
390
F
100
AcDbText
 10
55.309486
 20
830.5
 30
0.0
 40
2.0
  1
1
 41
2.602306499999997
 72
     5
 11
57.044357
 21
830.5
 31
0.0
100
AcDbText
  0
ENDBLK
  5
3C6
330
126
100
AcDbEntity
  8
0
100
AcDbBlockEnd
  0
BLOCK
  5
3C7
330
12A
100
AcDbEntity
  8
0
100
AcDbBlockBegin
  2
BLOCK72
 70
     0
 10
0.0
 20
0.0
 30
0.0
  3
BLOCK72
  1

  0
TEXT
  5
128
330
12A
100
AcDbEntity
  8
0
 62
     7
370
    13
390
F
100
AcDbText
 10
127.746994
 20
830.5
 30
0.0
 40
2.0
  1
2
 41
1.301147249999993
 72
     5
 11
129.481857
 21
830.5
 31
0.0
100
AcDbText
  0
ENDBLK
  5
3C8
330
12A
100
AcDbEntity
  8
0
100
AcDbBlockEnd
  0
BLOCK
  5
3C9
330
12E
100
AcDbEntity
  8
0
100
AcDbBlockBegin
  2
BLOCK73
 70
     0
 10
0.0
 20
0.0
 30
0.0
  3
BLOCK73
  1

  0
TEXT
  5
12C
330
12E
100
AcDbEntity
  8
0
 62
     7
370
    13
390
F
100
AcDbText
 10
200.184494
 20
830.5
 30
0.0
 40
2.0
  1
3
 41
1.301147249999993
 72
     5
 11
201.919357
 21
830.5
 31
0.0
100
AcDbText
  0
ENDBLK
  5
3CA
330
12E
100
AcDbEntity
  8
0
100
AcDbBlockEnd
  0
BLOCK
  5
3CB
330
132
100
AcDbEntity
  8
0
100
AcDbBlockBegin
  2
BLOCK74
 70
     0
 10
0.0
 20
0.0
 30
0.0
  3
BLOCK74
  1

  0
TEXT
  5
130
330
132
100
AcDbEntity
  8
0
 62
     7
370
    13
390
F
100
AcDbText
 10
272.621979
 20
830.5
 30
0.0
 40
2.0
  1
4
 41
1.301147249999971
 72
     5
 11
274.356842
 21
830.5
 31
0.0
100
AcDbText
  0
ENDBLK
  5
3CC
330
132
100
AcDbEntity
  8
0
100
AcDbBlockEnd
  0
BLOCK
  5
3CD
330
136
100
AcDbEntity
  8
0
100
AcDbBlockBegin
  2
BLOCK75
 70
     0
 10
0.0
 20
0.0
 30
0.0
  3
BLOCK75
  1

  0
TEXT
  5
134
330
136
100
AcDbEntity
  8
0
 62
     7
370
    13
390
F
100
AcDbText
 10
345.059479
 20
830.5
 30
0.0
 40
2.0
  1
5
 41
1.301147249999971
 72
     5
 11
346.794342
 21
830.5
 31
0.0
100
AcDbText
  0
ENDBLK
  5
3CE
330
136
100
AcDbEntity
  8
0
100
AcDbBlockEnd
  0
BLOCK
  5
3CF
330
13A
100
AcDbEntity
  8
0
100
AcDbBlockBegin
  2
BLOCK76
 70
     0
 10
0.0
 20
0.0
 30
0.0
  3
BLOCK76
  1

  0
TEXT
  5
138
330
13A
100
AcDbEntity
  8
0
 62
     7
370
    13
390
F
100
AcDbText
 10
417.496979
 20
830.5
 30
0.0
 40
2.0
  1
6
 41
1.301147249999971
 72
     5
 11
419.231842
 21
830.5
 31
0.0
100
AcDbText
  0
ENDBLK
  5
3D0
330
13A
100
AcDbEntity
  8
0
100
AcDbBlockEnd
  0
BLOCK
  5
3D1
330
13E
100
AcDbEntity
  8
0
100
AcDbBlockBegin
  2
BLOCK77
 70
     0
 10
0.0
 20
0.0
 30
0.0
  3
BLOCK77
  1

  0
TEXT
  5
13C
330
13E
100
AcDbEntity
  8
0
 62
     7
370
    13
390
F
100
AcDbText
 10
489.934479
 20
830.5
 30
0.0
 40
2.0
  1
7
 41
1.301147249999971
 72
     5
 11
491.669342
 21
830.5
 31
0.0
100
AcDbText
  0
ENDBLK
  5
3D2
330
13E
100
AcDbEntity
  8
0
100
AcDbBlockEnd
  0
BLOCK
  5
3D3
330
142
100
AcDbEntity
  8
0
100
AcDbBlockBegin
  2
BLOCK78
 70
     0
 10
0.0
 20
0.0
 30
0.0
  3
BLOCK78
  1

  0
TEXT
  5
140
330
142
100
AcDbEntity
  8
0
 62
     7
370
    13
390
F
100
AcDbText
 10
562.372009
 20
830.5
 30
0.0
 40
2.0
  1
8
 41
1.301147999999927
 72
     5
 11
564.106873
 21
830.5
 31
0.0
100
AcDbText
  0
ENDBLK
  5
3D4
330
142
100
AcDbEntity
  8
0
100
AcDbBlockEnd
  0
BLOCK
  5
3D5
330
146
100
AcDbEntity
  8
0
100
AcDbBlockBegin
  2
BLOCK79
 70
     0
 10
0.0
 20
0.0
 30
0.0
  3
BLOCK79
  1

  0
TEXT
  5
144
330
146
100
AcDbEntity
  8
0
 62
     7
370
    13
390
F
100
AcDbText
 10
634.809509
 20
830.5
 30
0.0
 40
2.0
  1
9
 41
1.301147999999927
 72
     5
 11
636.544373
 21
830.5
 31
0.0
100
AcDbText
  0
ENDBLK
  5
3D6
330
146
100
AcDbEntity
  8
0
100
AcDbBlockEnd
  0
BLOCK
  5
3D7
330
14A
100
AcDbEntity
  8
0
100
AcDbBlockBegin
  2
BLOCK80
 70
     0
 10
0.0
 20
0.0
 30
0.0
  3
BLOCK80
  1

  0
TEXT
  5
148
330
14A
100
AcDbEntity
  8
0
 62
     7
370
    13
390
F
100
AcDbText
 10
706.179565
 20
830.5
 30
0.0
 40
2.0
  1
10
 41
1.658464714285693
 72
     5
 11
710.049316
 21
830.5
 31
0.0
100
AcDbText
  0
ENDBLK
  5
3D8
330
14A
100
AcDbEntity
  8
0
100
AcDbBlockEnd
  0
BLOCK
  5
3D9
330
14E
100
AcDbEntity
  8
0
100
AcDbBlockBegin
  2
BLOCK81
 70
     0
 10
0.0
 20
0.0
 30
0.0
  3
BLOCK81
  1

  0
TEXT
  5
14C
330
14E
100
AcDbEntity
  8
0
 62
     7
370
    13
390
F
100
AcDbText
 10
778.617065
 20
830.5
 30
0.0
 40
2.0
  1
11
 41
1.934875499999976
 72
     5
 11
782.486816
 21
830.5
 31
0.0
100
AcDbText
  0
ENDBLK
  5
3DA
330
14E
100
AcDbEntity
  8
0
100
AcDbBlockEnd
  0
BLOCK
  5
3DB
330
152
100
AcDbEntity
  8
0
100
AcDbBlockBegin
  2
BLOCK82
 70
     0
 10
0.0
 20
0.0
 30
0.0
  3
BLOCK82
  1

  0
TEXT
  5
150
330
152
100
AcDbEntity
  8
0
 62
     7
370
    13
390
F
100
AcDbText
 10
851.054565
 20
830.5
 30
0.0
 40
2.0
  1
12
 41
1.451156624999982
 72
     5
 11
854.924316
 21
830.5
 31
0.0
100
AcDbText
  0
ENDBLK
  5
3DC
330
152
100
AcDbEntity
  8
0
100
AcDbBlockEnd
  0
BLOCK
  5
3DD
330
156
100
AcDbEntity
  8
0
100
AcDbBlockBegin
  2
BLOCK83
 70
     0
 10
0.0
 20
0.0
 30
0.0
  3
BLOCK83
  1

  0
TEXT
  5
154
330
156
100
AcDbEntity
  8
0
 62
     7
370
    13
390
F
100
AcDbText
 10
923.492065
 20
830.5
 30
0.0
 40
2.0
  1
13
 41
1.451156624999982
 72
     5
 11
927.361816
 21
830.5
 31
0.0
100
AcDbText
  0
ENDBLK
  5
3DE
330
156
100
AcDbEntity
  8
0
100
AcDbBlockEnd
  0
BLOCK
  5
3DF
330
15A
100
AcDbEntity
  8
0
100
AcDbBlockBegin
  2
BLOCK84
 70
     0
 10
0.0
 20
0.0
 30
0.0
  3
BLOCK84
  1

  0
TEXT
  5
158
330
15A
100
AcDbEntity
  8
0
 62
     7
370
    13
390
F
100
AcDbText
 10
995.929565
 20
830.5
 30
0.0
 40
2.0
  1
14
 41
1.451156624999982
 72
     5
 11
999.799316
 21
830.5
 31
0.0
100
AcDbText
  0
ENDBLK
  5
3E0
330
15A
100
AcDbEntity
  8
0
100
AcDbBlockEnd
  0
BLOCK
  5
3E1
330
15E
100
AcDbEntity
  8
0
100
AcDbBlockBegin
  2
BLOCK85
 70
     0
 10
0.0
 20
0.0
 30
0.0
  3
BLOCK85
  1

  0
TEXT
  5
15C
330
15E
100
AcDbEntity
  8
0
 62
     7
370
    13
390
F
100
AcDbText
 10
1068.367065
 20
830.5
 30
0.0
 40
2.0
  1
15
 41
1.451156625000067
 72
     5
 11
1072.236816
 21
830.5
 31
0.0
100
AcDbText
  0
ENDBLK
  5
3E2
330
15E
100
AcDbEntity
  8
0
100
AcDbBlockEnd
  0
BLOCK
  5
3E3
330
162
100
AcDbEntity
  8
0
100
AcDbBlockBegin
  2
BLOCK86
 70
     0
 10
0.0
 20
0.0
 30
0.0
  3
BLOCK86
  1

  0
TEXT
  5
160
330
162
100
AcDbEntity
  8
0
 62
     7
370
    13
390
F
100
AcDbText
 10
1140.804565
 20
830.5
 30
0.0
 40
2.0
  1
16
 41
1.451156625000067
 72
     5
 11
1144.674316
 21
830.5
 31
0.0
100
AcDbText
  0
ENDBLK
  5
3E4
330
162
100
AcDbEntity
  8
0
100
AcDbBlockEnd
  0
BLOCK
  5
3E5
330
166
100
AcDbEntity
  8
0
100
AcDbBlockBegin
  2
BLOCK87
 70
     0
 10
0.0
 20
0.0
 30
0.0
  3
BLOCK87
  1

  0
TEXT
  5
164
330
166
100
AcDbEntity
  8
0
 62
     7
370
    13
390
F
100
AcDbText
 10
1140.804565
 20
6.5
 30
0.0
 40
2.0
  1
16
 41
1.451156625000067
 72
     5
 11
1144.674316
 21
6.5
 31
0.0
100
AcDbText
  0
ENDBLK
  5
3E6
330
166
100
AcDbEntity
  8
0
100
AcDbBlockEnd
  0
BLOCK
  5
3E7
330
16A
100
AcDbEntity
  8
0
100
AcDbBlockBegin
  2
BLOCK88
 70
     0
 10
0.0
 20
0.0
 30
0.0
  3
BLOCK88
  1

  0
TEXT
  5
168
330
16A
100
AcDbEntity
  8
0
 62
     7
370
    13
390
F
100
AcDbText
 10
1068.367065
 20
6.5
 30
0.0
 40
2.0
  1
15
 41
1.451156625000067
 72
     5
 11
1072.236816
 21
6.5
 31
0.0
100
AcDbText
  0
ENDBLK
  5
3E8
330
16A
100
AcDbEntity
  8
0
100
AcDbBlockEnd
  0
BLOCK
  5
3E9
330
16E
100
AcDbEntity
  8
0
100
AcDbBlockBegin
  2
BLOCK89
 70
     0
 10
0.0
 20
0.0
 30
0.0
  3
BLOCK89
  1

  0
TEXT
  5
16C
330
16E
100
AcDbEntity
  8
0
 62
     7
370
    13
390
F
100
AcDbText
 10
995.929565
 20
6.5
 30
0.0
 40
2.0
  1
14
 41
1.451156624999982
 72
     5
 11
999.799316
 21
6.5
 31
0.0
100
AcDbText
  0
ENDBLK
  5
3EA
330
16E
100
AcDbEntity
  8
0
100
AcDbBlockEnd
  0
BLOCK
  5
3EB
330
172
100
AcDbEntity
  8
0
100
AcDbBlockBegin
  2
BLOCK90
 70
     0
 10
0.0
 20
0.0
 30
0.0
  3
BLOCK90
  1

  0
TEXT
  5
170
330
172
100
AcDbEntity
  8
0
 62
     7
370
    13
390
F
100
AcDbText
 10
923.492065
 20
6.5
 30
0.0
 40
2.0
  1
13
 41
1.451156624999982
 72
     5
 11
927.361816
 21
6.5
 31
0.0
100
AcDbText
  0
ENDBLK
  5
3EC
330
172
100
AcDbEntity
  8
0
100
AcDbBlockEnd
  0
BLOCK
  5
3ED
330
176
100
AcDbEntity
  8
0
100
AcDbBlockBegin
  2
BLOCK91
 70
     0
 10
0.0
 20
0.0
 30
0.0
  3
BLOCK91
  1

  0
TEXT
  5
174
330
176
100
AcDbEntity
  8
0
 62
     7
370
    13
390
F
100
AcDbText
 10
851.054565
 20
6.5
 30
0.0
 40
2.0
  1
12
 41
1.451156624999982
 72
     5
 11
854.924316
 21
6.5
 31
0.0
100
AcDbText
  0
ENDBLK
  5
3EE
330
176
100
AcDbEntity
  8
0
100
AcDbBlockEnd
  0
BLOCK
  5
3EF
330
17A
100
AcDbEntity
  8
0
100
AcDbBlockBegin
  2
BLOCK92
 70
     0
 10
0.0
 20
0.0
 30
0.0
  3
BLOCK92
  1

  0
TEXT
  5
178
330
17A
100
AcDbEntity
  8
0
 62
     7
370
    13
390
F
100
AcDbText
 10
778.617065
 20
6.5
 30
0.0
 40
2.0
  1
11
 41
1.934875499999976
 72
     5
 11
782.486816
 21
6.5
 31
0.0
100
AcDbText
  0
ENDBLK
  5
3F0
330
17A
100
AcDbEntity
  8
0
100
AcDbBlockEnd
  0
BLOCK
  5
3F1
330
17E
100
AcDbEntity
  8
0
100
AcDbBlockBegin
  2
BLOCK93
 70
     0
 10
0.0
 20
0.0
 30
0.0
  3
BLOCK93
  1

  0
TEXT
  5
17C
330
17E
100
AcDbEntity
  8
0
 62
     7
370
    13
390
F
100
AcDbText
 10
706.179565
 20
6.5
 30
0.0
 40
2.0
  1
10
 41
1.658464714285693
 72
     5
 11
710.049316
 21
6.5
 31
0.0
100
AcDbText
  0
ENDBLK
  5
3F2
330
17E
100
AcDbEntity
  8
0
100
AcDbBlockEnd
  0
BLOCK
  5
3F3
330
182
100
AcDbEntity
  8
0
100
AcDbBlockBegin
  2
BLOCK94
 70
     0
 10
0.0
 20
0.0
 30
0.0
  3
BLOCK94
  1

  0
TEXT
  5
180
330
182
100
AcDbEntity
  8
0
 62
     7
370
    13
390
F
100
AcDbText
 10
634.809509
 20
6.5
 30
0.0
 40
2.0
  1
9
 41
1.301147999999927
 72
     5
 11
636.544373
 21
6.5
 31
0.0
100
AcDbText
  0
ENDBLK
  5
3F4
330
182
100
AcDbEntity
  8
0
100
AcDbBlockEnd
  0
BLOCK
  5
3F5
330
186
100
AcDbEntity
  8
0
100
AcDbBlockBegin
  2
BLOCK95
 70
     0
 10
0.0
 20
0.0
 30
0.0
  3
BLOCK95
  1

  0
TEXT
  5
184
330
186
100
AcDbEntity
  8
0
 62
     7
370
    13
390
F
100
AcDbText
 10
562.372009
 20
6.5
 30
0.0
 40
2.0
  1
8
 41
1.301147999999927
 72
     5
 11
564.106873
 21
6.5
 31
0.0
100
AcDbText
  0
ENDBLK
  5
3F6
330
186
100
AcDbEntity
  8
0
100
AcDbBlockEnd
  0
BLOCK
  5
3F7
330
18A
100
AcDbEntity
  8
0
100
AcDbBlockBegin
  2
BLOCK96
 70
     0
 10
0.0
 20
0.0
 30
0.0
  3
BLOCK96
  1

  0
TEXT
  5
188
330
18A
100
AcDbEntity
  8
0
 62
     7
370
    13
390
F
100
AcDbText
 10
489.934479
 20
6.5
 30
0.0
 40
2.0
  1
7
 41
1.301147249999971
 72
     5
 11
491.669342
 21
6.5
 31
0.0
100
AcDbText
  0
ENDBLK
  5
3F8
330
18A
100
AcDbEntity
  8
0
100
AcDbBlockEnd
  0
BLOCK
  5
3F9
330
18E
100
AcDbEntity
  8
0
100
AcDbBlockBegin
  2
BLOCK97
 70
     0
 10
0.0
 20
0.0
 30
0.0
  3
BLOCK97
  1

  0
TEXT
  5
18C
330
18E
100
AcDbEntity
  8
0
 62
     7
370
    13
390
F
100
AcDbText
 10
417.496979
 20
6.5
 30
0.0
 40
2.0
  1
6
 41
1.301147249999971
 72
     5
 11
419.231842
 21
6.5
 31
0.0
100
AcDbText
  0
ENDBLK
  5
3FA
330
18E
100
AcDbEntity
  8
0
100
AcDbBlockEnd
  0
BLOCK
  5
3FB
330
192
100
AcDbEntity
  8
0
100
AcDbBlockBegin
  2
BLOCK98
 70
     0
 10
0.0
 20
0.0
 30
0.0
  3
BLOCK98
  1

  0
TEXT
  5
190
330
192
100
AcDbEntity
  8
0
 62
     7
370
    13
390
F
100
AcDbText
 10
345.059479
 20
6.5
 30
0.0
 40
2.0
  1
5
 41
1.301147249999971
 72
     5
 11
346.794342
 21
6.5
 31
0.0
100
AcDbText
  0
ENDBLK
  5
3FC
330
192
100
AcDbEntity
  8
0
100
AcDbBlockEnd
  0
BLOCK
  5
3FD
330
196
100
AcDbEntity
  8
0
100
AcDbBlockBegin
  2
BLOCK99
 70
     0
 10
0.0
 20
0.0
 30
0.0
  3
BLOCK99
  1

  0
TEXT
  5
194
330
196
100
AcDbEntity
  8
0
 62
     7
370
    13
390
F
100
AcDbText
 10
272.621979
 20
6.5
 30
0.0
 40
2.0
  1
4
 41
1.301147249999971
 72
     5
 11
274.356842
 21
6.5
 31
0.0
100
AcDbText
  0
ENDBLK
  5
3FE
330
196
100
AcDbEntity
  8
0
100
AcDbBlockEnd
  0
BLOCK
  5
3FF
330
19A
100
AcDbEntity
  8
0
100
AcDbBlockBegin
  2
BLOCK100
 70
     0
 10
0.0
 20
0.0
 30
0.0
  3
BLOCK100
  1

  0
TEXT
  5
198
330
19A
100
AcDbEntity
  8
0
 62
     7
370
    13
390
F
100
AcDbText
 10
200.184494
 20
6.5
 30
0.0
 40
2.0
  1
3
 41
1.301147249999993
 72
     5
 11
201.919357
 21
6.5
 31
0.0
100
AcDbText
  0
ENDBLK
  5
400
330
19A
100
AcDbEntity
  8
0
100
AcDbBlockEnd
  0
BLOCK
  5
401
330
19E
100
AcDbEntity
  8
0
100
AcDbBlockBegin
  2
BLOCK101
 70
     0
 10
0.0
 20
0.0
 30
0.0
  3
BLOCK101
  1

  0
TEXT
  5
19C
330
19E
100
AcDbEntity
  8
0
 62
     7
370
    13
390
F
100
AcDbText
 10
127.746994
 20
6.5
 30
0.0
 40
2.0
  1
2
 41
1.301147249999993
 72
     5
 11
129.481857
 21
6.5
 31
0.0
100
AcDbText
  0
ENDBLK
  5
402
330
19E
100
AcDbEntity
  8
0
100
AcDbBlockEnd
  0
BLOCK
  5
403
330
1A2
100
AcDbEntity
  8
0
100
AcDbBlockBegin
  2
BLOCK102
 70
     0
 10
0.0
 20
0.0
 30
0.0
  3
BLOCK102
  1

  0
TEXT
  5
1A0
330
1A2
100
AcDbEntity
  8
0
 62
     7
370
    13
390
F
100
AcDbText
 10
1180.632568
 20
49.766666
 30
0.0
 40
2.0
  1
L
 41
1.301148000000012
 72
     5
 11
1182.367432
 21
49.766666
 31
0.0
100
AcDbText
  0
ENDBLK
  5
404
330
1A2
100
AcDbEntity
  8
0
100
AcDbBlockEnd
  0
BLOCK
  5
405
330
1A6
100
AcDbEntity
  8
0
100
AcDbBlockBegin
  2
BLOCK103
 70
     0
 10
0.0
 20
0.0
 30
0.0
  3
BLOCK103
  1

  0
TEXT
  5
1A4
330
1A6
100
AcDbEntity
  8
0
 62
     7
370
    13
390
F
100
AcDbText
 10
1180.632568
 20
131.666672
 30
0.0
 40
2.0
  1
I
 41
2.602296000000024
 72
     5
 11
1182.367432
 21
131.666672
 31
0.0
100
AcDbText
  0
ENDBLK
  5
406
330
1A6
100
AcDbEntity
  8
0
100
AcDbBlockEnd
  0
BLOCK
  5
407
330
1AA
100
AcDbEntity
  8
0
100
AcDbBlockBegin
  2
BLOCK104
 70
     0
 10
0.0
 20
0.0
 30
0.0
  3
BLOCK104
  1

  0
TEXT
  5
1A8
330
1AA
100
AcDbEntity
  8
0
 62
     7
370
    13
390
F
100
AcDbText
 10
1180.632568
 20
213.566666
 30
0.0
 40
2.0
  1
H
 41
1.301148000000012
 72
     5
 11
1182.367432
 21
213.566666
 31
0.0
100
AcDbText
  0
ENDBLK
  5
408
330
1AA
100
AcDbEntity
  8
0
100
AcDbBlockEnd
  0
BLOCK
  5
409
330
1AE
100
AcDbEntity
  8
0
100
AcDbBlockBegin
  2
BLOCK105
 70
     0
 10
0.0
 20
0.0
 30
0.0
  3
BLOCK105
  1

  0
TEXT
  5
1AC
330
1AE
100
AcDbEntity
  8
0
 62
     7
370
    13
390
F
100
AcDbText
 10
1180.632568
 20
295.466675
 30
0.0
 40
2.0
  1
G
 41
1.301148000000012
 72
     5
 11
1182.367432
 21
295.466675
 31
0.0
100
AcDbText
  0
ENDBLK
  5
40A
330
1AE
100
AcDbEntity
  8
0
100
AcDbBlockEnd
  0
BLOCK
  5
40B
330
1B2
100
AcDbEntity
  8
0
100
AcDbBlockBegin
  2
BLOCK106
 70
     0
 10
0.0
 20
0.0
 30
0.0
  3
BLOCK106
  1

  0
TEXT
  5
1B0
330
1B2
100
AcDbEntity
  8
0
 62
     7
370
    13
390
F
100
AcDbText
 10
1180.632568
 20
377.366669
 30
0.0
 40
2.0
  1
F
 41
1.301148000000012
 72
     5
 11
1182.367432
 21
377.366669
 31
0.0
100
AcDbText
  0
ENDBLK
  5
40C
330
1B2
100
AcDbEntity
  8
0
100
AcDbBlockEnd
  0
BLOCK
  5
40D
330
1B6
100
AcDbEntity
  8
0
100
AcDbBlockBegin
  2
BLOCK107
 70
     0
 10
0.0
 20
0.0
 30
0.0
  3
BLOCK107
  1

  0
TEXT
  5
1B4
330
1B6
100
AcDbEntity
  8
0
 62
     7
370
    13
390
F
100
AcDbText
 10
1180.632568
 20
459.266663
 30
0.0
 40
2.0
  1
E
 41
1.301148000000012
 72
     5
 11
1182.367432
 21
459.266663
 31
0.0
100
AcDbText
  0
ENDBLK
  5
40E
330
1B6
100
AcDbEntity
  8
0
100
AcDbBlockEnd
  0
BLOCK
  5
40F
330
1BA
100
AcDbEntity
  8
0
100
AcDbBlockBegin
  2
BLOCK108
 70
     0
 10
0.0
 20
0.0
 30
0.0
  3
BLOCK108
  1

  0
TEXT
  5
1B8
330
1BA
100
AcDbEntity
  8
0
 62
     7
370
    13
390
F
100
AcDbText
 10
1180.632568
 20
541.166687
 30
0.0
 40
2.0
  1
D
 41
1.301148000000012
 72
     5
 11
1182.367432
 21
541.166687
 31
0.0
100
AcDbText
  0
ENDBLK
  5
410
330
1BA
100
AcDbEntity
  8
0
100
AcDbBlockEnd
  0
BLOCK
  5
411
330
1BE
100
AcDbEntity
  8
0
100
AcDbBlockBegin
  2
BLOCK109
 70
     0
 10
0.0
 20
0.0
 30
0.0
  3
BLOCK109
  1

  0
TEXT
  5
1BC
330
1BE
100
AcDbEntity
  8
0
 62
     7
370
    13
390
F
100
AcDbText
 10
1180.632568
 20
623.06665
 30
0.0
 40
2.0
  1
C
 41
1.301148000000012
 72
     5
 11
1182.367432
 21
623.06665
 31
0.0
100
AcDbText
  0
ENDBLK
  5
412
330
1BE
100
AcDbEntity
  8
0
100
AcDbBlockEnd
  0
BLOCK
  5
413
330
1C2
100
AcDbEntity
  8
0
100
AcDbBlockBegin
  2
BLOCK110
 70
     0
 10
0.0
 20
0.0
 30
0.0
  3
BLOCK110
  1

  0
TEXT
  5
1C0
330
1C2
100
AcDbEntity
  8
0
 62
     7
370
    13
390
F
100
AcDbText
 10
1180.632568
 20
704.966675
 30
0.0
 40
2.0
  1
B
 41
1.301148000000012
 72
     5
 11
1182.367432
 21
704.966675
 31
0.0
100
AcDbText
  0
ENDBLK
  5
414
330
1C2
100
AcDbEntity
  8
0
100
AcDbBlockEnd
  0
BLOCK
  5
415
330
1C6
100
AcDbEntity
  8
0
100
AcDbBlockBegin
  2
BLOCK111
 70
     0
 10
0.0
 20
0.0
 30
0.0
  3
BLOCK111
  1

  0
TEXT
  5
1C4
330
1C6
100
AcDbEntity
  8
0
 62
     7
370
    13
390
F
100
AcDbText
 10
55.309486
 20
6.5
 30
0.0
 40
2.0
  1
1
 41
2.602306499999997
 72
     5
 11
57.044357
 21
6.5
 31
0.0
100
AcDbText
  0
ENDBLK
  5
416
330
1C6
100
AcDbEntity
  8
0
100
AcDbBlockEnd
  0
BLOCK
  5
417
330
1CA
100
AcDbEntity
  8
0
100
AcDbBlockBegin
  2
BLOCK112
 70
     0
 10
0.0
 20
0.0
 30
0.0
  3
BLOCK112
  1

  0
TEXT
  5
1C8
330
1CA
100
AcDbEntity
  8
0
 62
     7
370
    13
390
F
100
AcDbText
 10
1180.632568
 20
786.866638
 30
0.0
 40
2.0
  1
A
 41
1.301148000000012
 72
     5
 11
1182.367432
 21
786.866638
 31
0.0
100
AcDbText
  0
ENDBLK
  5
418
330
1CA
100
AcDbEntity
  8
0
100
AcDbBlockEnd
  0
BLOCK
  5
419
330
1D0
100
AcDbEntity
  8
0
100
AcDbBlockBegin
  2
BLOCK113
 70
     0
 10
0.0
 20
0.0
 30
0.0
  3
BLOCK113
  1

  0
TEXT
  5
1CC
330
1D0
100
AcDbEntity
  8
0
 62
     7
370
    13
390
F
100
AcDbText
 10
6.701831
 20
9.96806
 30
0.0
 40
2.0
  1
GEWISS SpA si riserva tutti i diritti sul presente documento
 50
90.00000275216357
 41
0.954974770642203
 72
     5
 11
6.701826
 21
114.06031
 31
0.0
100
AcDbText
  0
TEXT
  5
1CD
330
1D0
100
AcDbEntity
  8
0
 62
     7
370
    13
390
F
100
AcDbText
 10
10.157163
 20
9.96806
 30
0.0
 40
2.0
  1
e con quanto rappresentato.E'vietato riprodurlo,utilizzarlo
 50
90.00000279881041
 41
0.9686818201892755
 72
     5
 11
10.157158
 21
112.325439
 31
0.0
100
AcDbText
  0
TEXT
  5
1CE
330
1D0
100
AcDbEntity
  8
0
 62
     7
370
    13
390
F
100
AcDbText
 10
13.612494
 20
9.968061
 30
0.0
 40
2.0
  1
renderlo accessibile a terzi senza autorizzazione scritta
 50
90.0000028970143
 41
0.9569771322580658
 72
     5
 11
13.612489
 21
108.855698
 31
0.0
100
AcDbText
  0
ENDBLK
  5
41A
330
1D0
100
AcDbEntity
  8
0
100
AcDbBlockEnd
  0
BLOCK
  5
41B
330
1D6
100
AcDbEntity
  8
0
100
AcDbBlockBegin
  2
BLOCK114
 70
     0
 10
0.0
 20
0.0
 30
0.0
  3
BLOCK114
  1

  0
TEXT
  5
1D2
330
1D6
100
AcDbEntity
  8
0
 62
     7
370
    13
390
F
100
AcDbText
 10
6.543763
 20
147.493759
 30
0.0
 40
2.0
  1
GEWISS SpA reserve all rights in this document and in the information
 50
90.00000287182327
 41
0.9401000261780119
 72
     5
 11
6.543757
 21
267.199829
 31
0.0
100
AcDbText
  0
TEXT
  5
1D3
330
1D6
100
AcDbEntity
  8
0
 62
     7
370
    13
390
F
100
AcDbText
 10
9.999094
 20
147.493759
 30
0.0
 40
2.0
  1
contained therein. Reproduction, use or disclosure to third parties
 50
90.00000246462413
 41
0.9527569180327877
 72
     5
 11
9.999089
 21
263.730103
 31
0.0
100
AcDbText
  0
TEXT
  5
1D4
330
1D6
100
AcDbEntity
  8
0
 62
     7
370
    13
390
F
100
AcDbText
 10
13.454425
 20
147.493759
 30
0.0
 40
2.0
  1
without written authorization is stricty forbidden
 50
90.0000026420769
 41
0.9638171777777785
 72
     5
 11
13.454421
 21
234.237305
 31
0.0
100
AcDbText
  0
ENDBLK
  5
41C
330
1D6
100
AcDbEntity
  8
0
100
AcDbBlockEnd
  0
BLOCK
  5
41D
330
1E1
100
AcDbEntity
  8
0
100
AcDbBlockBegin
  2
BLOCK115
 70
     0
 10
0.0
 20
0.0
 30
0.0
  3
BLOCK115
  1

  0
SOLID
  5
1D8
330
1E1
100
AcDbEntity
  8
0
 62
     7
370
    13
390
F
100
AcDbTrace
 10
337.068146
 20
105.647797
 30
0.0
 11
339.0
 21
106.165436
 31
0.0
 12
337.068146
 22
105.647797
 32
0.0
 13
337.068146
 23
106.683075
 33
0.0
  0
SOLID
  5
1D9
330
1E1
100
AcDbEntity
  8
0
 62
     7
370
    13
390
F
100
AcDbTrace
 10
-337.068146
 20
106.683075
 30
0.0
 11
-339.0
 21
106.165436
 31
0.0
 12
-337.068146
 22
106.683075
 32
0.0
 13
-337.068146
 23
105.647797
 33
0.0
  0
TEXT
  5
1DA
330
1E1
100
AcDbEntity
  8
0
 62
     7
370
    13
390
F
100
AcDbText
 10
-7.505764
 20
108.165436
 30
0.0
 40
5.0
  1
678
 41
1.1258646
 72
     5
 11
7.505764
 21
108.165436
 31
0.0
100
AcDbText
  0
LINE
  5
1DB
330
1E1
100
AcDbEntity
  8
0
 62
     7
370
    13
390
F
100
AcDbLine
 10
-339.0
 20
50.0
 30
0.0
 11
-339.0
 21
108.165436
 31
0.0
  0
LINE
  5
1DC
330
1E1
100
AcDbEntity
  8
0
 62
     7
370
    13
390
F
100
AcDbLine
 10
339.0
 20
50.0
 30
0.0
 11
339.0
 21
108.165436
 31
0.0
  0
LINE
  5
1DD
330
1E1
100
AcDbEntity
  8
0
 62
     7
370
    13
390
F
100
AcDbLine
 10
-337.068146
 20
106.165436
 30
0.0
 11
337.068146
 21
106.165436
 31
0.0
  0
LWPOLYLINE
  5
1DE
330
1E1
100
AcDbEntity
  8
0
 62
     7
370
    13
390
F
100
AcDbPolyline
 90
        3
 70
     1
 43
0.0
 10
337.068146
 20
105.647797
 10
339.0
 20
106.165436
 10
337.068146
 20
106.683075
  0
LWPOLYLINE
  5
1DF
330
1E1
100
AcDbEntity
  8
0
 62
     7
370
    13
390
F
100
AcDbPolyline
 90
        3
 70
     1
 43
0.0
 10
-337.068146
 20
106.683075
 10
-339.0
 20
106.165436
 10
-337.068146
 20
105.647797
  0
ENDBLK
  5
41E
330
1E1
100
AcDbEntity
  8
0
100
AcDbBlockEnd
  0
BLOCK
  5
41F
330
210
100
AcDbEntity
  8
0
100
AcDbBlockBegin
  2
BLOCK116
 70
     0
 10
0.0
 20
0.0
 30
0.0
  3
BLOCK116
  1

  0
LINE
  5
1E3
330
210
100
AcDbEntity
  8
0
 62
     7
370
    35
390
F
100
AcDbLine
 10
319.057068
 20
59.0
 30
0.0
 11
-319.057068
 21
59.0
 31
0.0
  0
LINE
  5
1E4
330
210
100
AcDbEntity
  8
0
 62
     7
 48
0.112306
370
    13
390
F
100
AcDbLine
 10
319.057068
 20
59.0
 30
0.0
 11
315.880585
 21
55.823521
 31
0.0
  0
LINE
  5
1E5
330
210
100
AcDbEntity
  8
0
 62
     7
370
    13
390
F
100
AcDbLine
 10
315.880585
 20
55.823521
 30
0.0
 11
-315.880585
 21
55.823521
 31
0.0
  0
LINE
  5
1E6
330
210
100
AcDbEntity
  8
0
 62
     7
 48
0.112306
370
    13
390
F
100
AcDbLine
 10
-319.057068
 20
59.0
 30
0.0
 11
-315.880585
 21
55.823521
 31
0.0
  0
ARC
  5
1E7
330
210
100
AcDbEntity
  8
0
 62
     7
370
    35
390
F
100
AcDbCircle
 10
-324.0
 20
49.0
 30
0.0
 40
15.0
100
AcDbArc
 50
90.000003
 51
180.000005
  0
LINE
  5
1E8
330
210
100
AcDbEntity
  8
0
 62
     7
370
    35
390
F
100
AcDbLine
 10
324.0
 20
64.0
 30
0.0
 11
-324.0
 21
64.0
 31
0.0
  0
ARC
  5
1E9
330
210
100
AcDbEntity
  8
0
 62
     7
370
    35
390
F
100
AcDbCircle
 10
324.0
 20
49.0
 30
0.0
 40
15.0
100
AcDbArc
 50
0.0
 51
90.000003
  0
LINE
  5
1EA
330
210
100
AcDbEntity
  8
0
 62
     7
 48
0.112306
370
    13
390
F
100
AcDbLine
 10
-319.057068
 20
-59.0
 30
0.0
 11
-315.880585
 21
-55.823521
 31
0.0
  0
LINE
  5
1EB
330
210
100
AcDbEntity
  8
0
 62
     7
370
    13
390
F
100
AcDbLine
 10
315.880585
 20
-55.823521
 30
0.0
 11
-315.880585
 21
-55.823521
 31
0.0
  0
LINE
  5
1EC
330
210
100
AcDbEntity
  8
0
 62
     7
 48
0.112306
370
    13
390
F
100
AcDbLine
 10
319.057068
 20
-59.0
 30
0.0
 11
315.880585
 21
-55.823521
 31
0.0
  0
LINE
  5
1ED
330
210
100
AcDbEntity
  8
0
 62
     7
370
    35
390
F
100
AcDbLine
 10
319.057068
 20
-59.0
 30
0.0
 11
-319.057068
 21
-59.0
 31
0.0
  0
ARC
  5
1EE
330
210
100
AcDbEntity
  8
0
 62
     7
370
    35
390
F
100
AcDbCircle
 10
-324.0
 20
-49.0
 30
0.0
 40
15.0
100
AcDbArc
 50
179.999995
 51
269.999997
  0
LINE
  5
1EF
330
210
100
AcDbEntity
  8
0
 62
     7
370
    35
390
F
100
AcDbLine
 10
324.0
 20
-64.0
 30
0.0
 11
-324.0
 21
-64.0
 31
0.0
  0
ARC
  5
1F0
330
210
100
AcDbEntity
  8
0
 62
     7
370
    35
390
F
100
AcDbCircle
 10
324.0
 20
-49.0
 30
0.0
 40
15.0
100
AcDbArc
 50
269.999997
 51
0.0
  0
LINE
  5
1F1
330
210
100
AcDbEntity
  8
0
 62
     7
 48
0.112306
370
    13
390
F
100
AcDbLine
 10
334.0
 20
44.057079
 30
0.0
 11
330.823517
 21
40.8806
 31
0.0
  0
LINE
  5
1F2
330
210
100
AcDbEntity
  8
0
 62
     7
370
    35
390
F
100
AcDbLine
 10
334.0
 20
-44.057079
 30
0.0
 11
334.0
 21
44.057079
 31
0.0
  0
LINE
  5
1F3
330
210
100
AcDbEntity
  8
0
 62
     7
 48
0.112306
370
    13
390
F
100
AcDbLine
 10
334.0
 20
-44.057079
 30
0.0
 11
330.823517
 21
-40.8806
 31
0.0
  0
LINE
  5
1F4
330
210
100
AcDbEntity
  8
0
 62
     7
370
    13
390
F
100
AcDbLine
 10
330.823517
 20
-40.8806
 30
0.0
 11
330.823517
 21
40.8806
 31
0.0
  0
LINE
  5
1F5
330
210
100
AcDbEntity
  8
0
 62
     7
370
    13
390
F
100
AcDbLine
 10
-315.880585
 20
-40.8806
 30
0.0
 11
-315.880585
 21
40.8806
 31
0.0
  0
LINE
  5
1F6
330
210
100
AcDbEntity
  8
0
 62
     7
 48
0.373573
370
    13
390
F
100
AcDbLine
 10
-315.880585
 20
40.8806
 30
0.0
 11
-330.823517
 21
40.8806
 31
0.0
  0
LINE
  5
1F7
330
210
100
AcDbEntity
  8
0
 62
     7
370
    13
390
F
100
AcDbLine
 10
-330.823517
 20
-40.8806
 30
0.0
 11
-330.823517
 21
40.8806
 31
0.0
  0
LINE
  5
1F8
330
210
100
AcDbEntity
  8
0
 62
     7
 48
0.373573
370
    13
390
F
100
AcDbLine
 10
-315.880585
 20
-40.8806
 30
0.0
 11
-330.823517
 21
-40.8806
 31
0.0
  0
LINE
  5
1F9
330
210
100
AcDbEntity
  8
0
 62
     7
370
    13
390
F
100
AcDbLine
 10
315.880585
 20
-40.8806
 30
0.0
 11
315.880585
 21
40.8806
 31
0.0
  0
LINE
  5
1FA
330
210
100
AcDbEntity
  8
0
 62
     7
370
    13
390
F
100
AcDbLine
 10
315.880585
 20
40.8806
 30
0.0
 11
-315.880585
 21
40.8806
 31
0.0
  0
LINE
  5
1FB
330
210
100
AcDbEntity
  8
0
 62
     7
370
    13
390
F
100
AcDbLine
 10
315.880585
 20
-40.8806
 30
0.0
 11
-315.880585
 21
-40.8806
 31
0.0
  0
LINE
  5
1FC
330
210
100
AcDbEntity
  8
0
 62
     7
370
    35
390
F
100
AcDbLine
 10
-339.0
 20
-49.0
 30
0.0
 11
-339.0
 21
49.0
 31
0.0
  0
LINE
  5
1FD
330
210
100
AcDbEntity
  8
0
 62
     7
 48
0.112306
370
    13
390
F
100
AcDbLine
 10
-334.0
 20
-44.057079
 30
0.0
 11
-330.823517
 21
-40.8806
 31
0.0
  0
LINE
  5
1FE
330
210
100
AcDbEntity
  8
0
 62
     7
370
    35
390
F
100
AcDbLine
 10
-334.0
 20
-44.057079
 30
0.0
 11
-334.0
 21
44.057079
 31
0.0
  0
LINE
  5
1FF
330
210
100
AcDbEntity
  8
0
 62
     7
 48
0.112306
370
    13
390
F
100
AcDbLine
 10
-334.0
 20
44.057079
 30
0.0
 11
-330.823517
 21
40.8806
 31
0.0
  0
LINE
  5
200
330
210
100
AcDbEntity
  8
0
 62
     7
370
    35
390
F
100
AcDbLine
 10
339.0
 20
-49.0
 30
0.0
 11
339.0
 21
49.0
 31
0.0
  0
LINE
  5
201
330
210
100
AcDbEntity
  8
0
 62
     7
 48
0.373573
370
    13
390
F
100
AcDbLine
 10
315.880585
 20
40.8806
 30
0.0
 11
330.823517
 21
40.8806
 31
0.0
  0
LINE
  5
202
330
210
100
AcDbEntity
  8
0
 62
     7
 48
0.373573
370
    13
390
F
100
AcDbLine
 10
315.880585
 20
-40.8806
 30
0.0
 11
330.823517
 21
-40.8806
 31
0.0
  0
ELLIPSE
  5
203
330
210
100
AcDbEntity
  8
0
 62
     7
370
    35
390
F
100
AcDbEllipse
 10
318.942444
 20
43.942432
 30
0.0
 11
-10.68746185302734
 21
-10.68802356719971
 31
0.0
210
0.0
220
0.0
230
1.0
 40
0.9924190000000002
 41
2.359977130999538
 42
3.923156184821343
  0
ELLIPSE
  5
204
330
210
100
AcDbEntity
  8
0
 62
     7
370
    35
390
F
100
AcDbEllipse
 10
-318.942444
 20
43.942432
 30
0.0
 11
10.68746185302734
 21
-10.68802356719971
 31
0.0
210
0.0
220
0.0
230
1.0
 40
0.9924190000000002
 41
2.36002912235904
 42
3.923208176181155
  0
ELLIPSE
  5
205
330
210
100
AcDbEntity
  8
0
 62
     7
370
    35
390
F
100
AcDbEllipse
 10
-318.942444
 20
-43.942432
 30
0.0
 11
-10.68746185302734
 21
-10.68802356719971
 31
0.0
210
0.0
220
0.0
230
1.0
 40
0.9924190000000002
 41
5.501569784588225
 42
7.064748838410341
  0
ELLIPSE
  5
206
330
210
100
AcDbEntity
  8
0
 62
     7
370
    35
390
F
100
AcDbEllipse
 10
318.942444
 20
-43.942432
 30
0.0
 11
10.68746185302734
 21
-10.68802356719971
 31
0.0
210
0.0
220
0.0
230
1.0
 40
0.9924190000000002
 41
5.501621775948038
 42
7.064800829769843
  0
ELLIPSE
  5
207
330
210
100
AcDbEntity
  8
0
 62
     7
370
    13
390
F
100
AcDbEllipse
 10
315.880585
 20
40.8806
 30
0.0
 11
-10.60660171508789
 21
10.60660171508789
 31
0.0
210
0.0
220
0.0
230
1.0
 40
0.9924330000000001
 41
3.930788915260517
 42
5.493989045508851
  0
LINE
  5
208
330
210
100
AcDbEntity
  8
0
 62
     7
 48
0.373573
370
    13
390
F
100
AcDbLine
 10
315.880585
 20
40.8806
 30
0.0
 11
315.880585
 21
55.823521
 31
0.0
  0
ELLIPSE
  5
209
330
210
100
AcDbEntity
  8
0
 62
     7
370
    13
390
F
100
AcDbEllipse
 10
-315.880585
 20
40.8806
 30
0.0
 11
10.60660171508789
 21
10.60660171508789
 31
0.0
210
0.0
220
0.0
230
1.0
 40
0.9924330000000001
 41
0.7891962616707353
 42
2.352396391919069
  0
LINE
  5
20A
330
210
100
AcDbEntity
  8
0
 62
     7
 48
0.373573
370
    13
390
F
100
AcDbLine
 10
-315.880585
 20
40.8806
 30
0.0
 11
-315.880585
 21
55.823521
 31
0.0
  0
ELLIPSE
  5
20B
330
210
100
AcDbEntity
  8
0
 62
     7
370
    13
390
F
100
AcDbEllipse
 10
315.880585
 20
-40.8806
 30
0.0
 11
-10.60660171508789
 21
-10.60660171508789
 31
0.0
210
0.0
220
0.0
230
1.0
 40
0.9924330000000001
 41
0.7891962616707353
 42
2.352396391919069
  0
LINE
  5
20C
330
210
100
AcDbEntity
  8
0
 62
     7
 48
0.373573
370
    13
390
F
100
AcDbLine
 10
315.880585
 20
-40.8806
 30
0.0
 11
315.880585
 21
-55.823521
 31
0.0
  0
ELLIPSE
  5
20D
330
210
100
AcDbEntity
  8
0
 62
     7
370
    13
390
F
100
AcDbEllipse
 10
-315.880585
 20
-40.8806
 30
0.0
 11
10.60660171508789
 21
-10.60660171508789
 31
0.0
210
0.0
220
0.0
230
1.0
 40
0.9924330000000001
 41
3.930788915260517
 42
5.493989045508851
  0
LINE
  5
20E
330
210
100
AcDbEntity
  8
0
 62
     7
 48
0.373573
370
    13
390
F
100
AcDbLine
 10
-315.880585
 20
-40.8806
 30
0.0
 11
-315.880585
 21
-55.823521
 31
0.0
  0
ENDBLK
  5
420
330
210
100
AcDbEntity
  8
0
100
AcDbBlockEnd
  0
BLOCK
  5
421
330
21B
100
AcDbEntity
  8
0
100
AcDbBlockBegin
  2
BLOCK117
 70
     0
 10
0.0
 20
0.0
 30
0.0
  3
BLOCK117
  1

  0
SOLID
  5
212
330
21B
100
AcDbEntity
  8
0
 62
     7
370
    13
390
F
100
AcDbTrace
 10
367.255676
 20
-56.06815
 30
0.0
 11
367.773315
 21
-58.0
 31
0.0
 12
367.255676
 22
-56.06815
 32
0.0
 13
368.290955
 23
-56.06815
 33
0.0
  0
SOLID
  5
213
330
21B
100
AcDbEntity
  8
0
 62
     7
370
    13
390
F
100
AcDbTrace
 10
368.290955
 20
-1.931852
 30
0.0
 11
367.773315
 21
0.0
 31
0.0
 12
368.290955
 22
-1.931852
 32
0.0
 13
367.255676
 23
-1.931852
 33
0.0
  0
TEXT
  5
214
330
21B
100
AcDbEntity
  8
0
 62
     7
370
    13
390
F
100
AcDbText
 10
365.773315
 20
-33.837177
 30
0.0
 40
5.0
  1
58
 50
90.0
 41
1.160922239999999
 72
     5
 11
365.773315
 21
-24.162825
 31
0.0
100
AcDbText
  0
LINE
  5
215
330
21B
100
AcDbEntity
  8
0
 62
     7
370
    13
390
F
100
AcDbLine
 10
316.880585
 20
-58.0
 30
0.0
 11
369.773315
 21
-58.0
 31
0.0
  0
LINE
  5
216
330
21B
100
AcDbEntity
  8
0
 62
     7
370
    13
390
F
100
AcDbLine
 10
325.0
 20
0.0
 30
0.0
 11
369.773315
 21
0.0
 31
0.0
  0
LINE
  5
217
330
21B
100
AcDbEntity
  8
0
 62
     7
370
    13
390
F
100
AcDbLine
 10
367.773315
 20
-56.06815
 30
0.0
 11
367.773315
 21
-1.931852
 31
0.0
  0
LWPOLYLINE
  5
218
330
21B
100
AcDbEntity
  8
0
 62
     7
370
    13
390
F
100
AcDbPolyline
 90
        3
 70
     1
 43
0.0
 10
367.255676
 20
-56.06815
 10
367.773315
 20
-58.0
 10
368.290955
 20
-56.06815
  0
LWPOLYLINE
  5
219
330
21B
100
AcDbEntity
  8
0
 62
     7
370
    13
390
F
100
AcDbPolyline
 90
        3
 70
     1
 43
0.0
 10
368.290955
 20
-1.931852
 10
367.773315
 20
0.0
 10
367.255676
 20
-1.931852
  0
ENDBLK
  5
422
330
21B
100
AcDbEntity
  8
0
100
AcDbBlockEnd
  0
BLOCK
  5
423
330
234
100
AcDbEntity
  8
0
100
AcDbBlockBegin
  2
BLOCK118
 70
     0
 10
0.0
 20
0.0
 30
0.0
  3
BLOCK118
  1

  0
LINE
  5
21D
330
234
100
AcDbEntity
  8
0
 62
     7
370
    13
390
F
100
AcDbLine
 10
319.057068
 20
-8.0
 30
0.0
 11
315.880585
 21
-44.307335
 31
0.0
  0
LINE
  5
21E
330
234
100
AcDbEntity
  8
0
 62
     7
370
    13
390
F
100
AcDbLine
 10
315.880585
 20
-44.307335
 30
0.0
 11
-315.880585
 21
-44.307335
 31
0.0
  0
LINE
  5
21F
330
234
100
AcDbEntity
  8
0
 62
     7
370
    13
390
F
100
AcDbLine
 10
-319.057068
 20
-8.0
 30
0.0
 11
-315.880585
 21
-44.307335
 31
0.0
  0
LINE
  5
220
330
234
100
AcDbEntity
  8
0
 62
     7
 48
0.2
370
    13
390
F
100
AcDbLine
 10
-324.0
 20
0.0
 30
0.0
 11
-324.0
 21
-8.0
 31
0.0
  0
LINE
  5
221
330
234
100
AcDbEntity
  8
0
 62
     7
 48
0.375
370
    35
390
F
100
AcDbLine
 10
-339.0
 20
0.0
 30
0.0
 11
-324.0
 21
0.0
 31
0.0
  0
LINE
  5
222
330
234
100
AcDbEntity
  8
0
 62
     7
 48
0.375
370
    35
390
F
100
AcDbLine
 10
-324.0
 20
-8.0
 30
0.0
 11
-339.0
 21
-8.0
 31
0.0
  0
LINE
  5
223
330
234
100
AcDbEntity
  8
0
 62
     7
 48
0.2
370
    13
390
F
100
AcDbLine
 10
324.0
 20
0.0
 30
0.0
 11
324.0
 21
-8.0
 31
0.0
  0
LINE
  5
224
330
234
100
AcDbEntity
  8
0
 62
     7
370
    35
390
F
100
AcDbLine
 10
-324.0
 20
0.0
 30
0.0
 11
324.0
 21
0.0
 31
0.0
  0
LINE
  5
225
330
234
100
AcDbEntity
  8
0
 62
     7
370
    35
390
F
100
AcDbLine
 10
324.0
 20
-8.0
 30
0.0
 11
-324.0
 21
-8.0
 31
0.0
  0
LINE
  5
226
330
234
100
AcDbEntity
  8
0
 62
     7
 48
0.375
370
    35
390
F
100
AcDbLine
 10
339.0
 20
-8.0
 30
0.0
 11
324.0
 21
-8.0
 31
0.0
  0
LINE
  5
227
330
234
100
AcDbEntity
  8
0
 62
     7
 48
0.375
370
    35
390
F
100
AcDbLine
 10
324.0
 20
0.0
 30
0.0
 11
339.0
 21
0.0
 31
0.0
  0
ARC
  5
228
330
234
100
AcDbEntity
  8
0
 62
     7
370
    35
390
F
100
AcDbCircle
 10
-315.880585
 20
-43.0
 30
0.0
 40
15.0
100
AcDbArc
 50
184.999994
 51
269.999997
  0
ARC
  5
229
330
234
100
AcDbEntity
  8
0
 62
     7
370
    35
390
F
100
AcDbCircle
 10
315.880585
 20
-43.0
 30
0.0
 40
15.0
100
AcDbArc
 50
269.999997
 51
355.0
  0
ELLIPSE
  5
22A
330
234
100
AcDbEntity
  8
0
 62
     7
370
    13
390
F
100
AcDbEllipse
 10
315.880585
 20
-43.0
 30
0.0
 11
-14.94292068481445
 21
1.307336091995239
 31
0.0
210
0.0
220
0.0
230
1.0
 40
0.086827
 41
1.578392523341459
 42
3.141592653589793
  0
LINE
  5
22B
330
234
100
AcDbEntity
  8
0
 62
     7
 48
0.342317
370
    13
390
F
100
AcDbLine
 10
315.880585
 20
-58.0
 30
0.0
 11
315.880585
 21
-44.307335
 31
0.0
  0
ELLIPSE
  5
22C
330
234
100
AcDbEntity
  8
0
 62
     7
370
    13
390
F
100
AcDbEllipse
 10
-315.880585
 20
-43.0
 30
0.0
 11
14.94292068481445
 21
1.307336091995239
 31
0.0
210
0.0
220
0.0
230
1.0
 40
0.086827
 41
3.141592653589793
 42
4.704792783838126
  0
LINE
  5
22D
330
234
100
AcDbEntity
  8
0
 62
     7
 48
0.342317
370
    13
390
F
100
AcDbLine
 10
-315.880585
 20
-58.0
 30
0.0
 11
-315.880585
 21
-44.307335
 31
0.0
  0
LINE
  5
22E
330
234
100
AcDbEntity
  8
0
 62
     7
 48
0.2
370
    35
390
F
100
AcDbLine
 10
-339.0
 20
-8.0
 30
0.0
 11
-339.0
 21
0.0
 31
0.0
  0
LINE
  5
22F
330
234
100
AcDbEntity
  8
0
 62
     7
 48
0.2
370
    35
390
F
100
AcDbLine
 10
339.0
 20
0.0
 30
0.0
 11
339.0
 21
-8.0
 31
0.0
  0
LINE
  5
230
330
234
100
AcDbEntity
  8
0
 62
     7
370
    35
390
F
100
AcDbLine
 10
334.0
 20
-8.0
 30
0.0
 11
330.823517
 21
-44.307465
 31
0.0
  0
LINE
  5
231
330
234
100
AcDbEntity
  8
0
 62
     7
370
    35
390
F
100
AcDbLine
 10
-330.823517
 20
-44.307465
 30
0.0
 11
-334.0
 21
-8.0
 31
0.0
  0
LINE
  5
232
330
234
100
AcDbEntity
  8
0
 62
     7
370
    35
390
F
100
AcDbLine
 10
315.880585
 20
-58.0
 30
0.0
 11
-315.880585
 21
-58.0
 31
0.0
  0
ENDBLK
  5
424
330
234
100
AcDbEntity
  8
0
100
AcDbBlockEnd
  0
BLOCK
  5
425
330
23F
100
AcDbEntity
  8
0
100
AcDbBlockBegin
  2
BLOCK119
 70
     0
 10
0.0
 20
0.0
 30
0.0
  3
BLOCK119
  1

  0
SOLID
  5
236
330
23F
100
AcDbEntity
  8
0
 62
     7
370
    13
390
F
100
AcDbTrace
 10
-20.541393
 20
62.06815
 30
0.0
 11
-21.059032
 21
64.0
 31
0.0
 12
-20.541393
 22
62.06815
 32
0.0
 13
-21.57667
 23
62.06815
 33
0.0
  0
SOLID
  5
237
330
23F
100
AcDbEntity
  8
0
 62
     7
370
    13
390
F
100
AcDbTrace
 10
-21.57667
 20
-62.06815
 30
0.0
 11
-21.059032
 21
-64.0
 31
0.0
 12
-21.57667
 22
-62.06815
 32
0.0
 13
-20.541393
 23
-62.06815
 33
0.0
  0
TEXT
  5
238
330
23F
100
AcDbEntity
  8
0
 62
     7
370
    13
390
F
100
AcDbText
 10
-23.059032
 20
-7.505764
 30
0.0
 40
5.0
  1
128
 50
90.0
 41
1.2867024
 72
     5
 11
-23.059032
 21
7.505764
 31
0.0
100
AcDbText
  0
LINE
  5
239
330
23F
100
AcDbEntity
  8
0
 62
     7
370
    13
390
F
100
AcDbLine
 10
-1.0
 20
-64.0
 30
0.0
 11
-23.059032
 21
-64.0
 31
0.0
  0
LINE
  5
23A
330
23F
100
AcDbEntity
  8
0
 62
     7
370
    13
390
F
100
AcDbLine
 10
-1.0
 20
64.0
 30
0.0
 11
-23.059032
 21
64.0
 31
0.0
  0
LINE
  5
23B
330
23F
100
AcDbEntity
  8
0
 62
     7
370
    13
390
F
100
AcDbLine
 10
-21.059032
 20
-62.06815
 30
0.0
 11
-21.059032
 21
62.06815
 31
0.0
  0
LWPOLYLINE
  5
23C
330
23F
100
AcDbEntity
  8
0
 62
     7
370
    13
390
F
100
AcDbPolyline
 90
        3
 70
     1
 43
0.0
 10
-20.541393
 20
62.06815
 10
-21.059032
 20
64.0
 10
-21.57667
 20
62.06815
  0
LWPOLYLINE
  5
23D
330
23F
100
AcDbEntity
  8
0
 62
     7
370
    13
390
F
100
AcDbPolyline
 90
        3
 70
     1
 43
0.0
 10
-21.57667
 20
-62.06815
 10
-21.059032
 20
-64.0
 10
-20.541393
 20
-62.06815
  0
ENDBLK
  5
426
330
23F
100
AcDbEntity
  8
0
100
AcDbBlockEnd
  0
BLOCK
  5
427
330
258
100
AcDbEntity
  8
0
100
AcDbBlockBegin
  2
BLOCK120
 70
     0
 10
0.0
 20
0.0
 30
0.0
  3
BLOCK120
  1

  0
LINE
  5
241
330
258
100
AcDbEntity
  8
0
 62
     7
 48
0.2
370
    35
390
F
100
AcDbLine
 10
0.0
 20
64.0
 30
0.0
 11
8.0
 21
64.0
 31
0.0
  0
LINE
  5
242
330
258
100
AcDbEntity
  8
0
 62
     7
 48
0.375
370
    35
390
F
100
AcDbLine
 10
0.0
 20
49.0
 30
0.0
 11
0.0
 21
64.0
 31
0.0
  0
LINE
  5
243
330
258
100
AcDbEntity
  8
0
 62
     7
 48
0.2
370
    13
390
F
100
AcDbLine
 10
0.0
 20
49.0
 30
0.0
 11
8.0
 21
49.0
 31
0.0
  0
LINE
  5
244
330
258
100
AcDbEntity
  8
0
 62
     7
 48
0.375
370
    35
390
F
100
AcDbLine
 10
8.0
 20
64.0
 30
0.0
 11
8.0
 21
49.0
 31
0.0
  0
LINE
  5
245
330
258
100
AcDbEntity
  8
0
 62
     7
 48
0.375
370
    35
390
F
100
AcDbLine
 10
8.0
 20
-49.0
 30
0.0
 11
8.0
 21
-64.0
 31
0.0
  0
LINE
  5
246
330
258
100
AcDbEntity
  8
0
 62
     7
 48
0.2
370
    13
390
F
100
AcDbLine
 10
0.0
 20
-49.0
 30
0.0
 11
8.0
 21
-49.0
 31
0.0
  0
LINE
  5
247
330
258
100
AcDbEntity
  8
0
 62
     7
 48
0.375
370
    35
390
F
100
AcDbLine
 10
0.0
 20
-64.0
 30
0.0
 11
0.0
 21
-49.0
 31
0.0
  0
LINE
  5
248
330
258
100
AcDbEntity
  8
0
 62
     7
 48
0.2
370
    35
390
F
100
AcDbLine
 10
0.0
 20
-64.0
 30
0.0
 11
8.0
 21
-64.0
 31
0.0
  0
LINE
  5
249
330
258
100
AcDbEntity
  8
0
 62
     7
 48
0.342317
370
    13
390
F
100
AcDbLine
 10
58.0
 20
40.8806
 30
0.0
 11
44.307335
 21
40.8806
 31
0.0
  0
LINE
  5
24A
330
258
100
AcDbEntity
  8
0
 62
     7
370
    13
390
F
100
AcDbLine
 10
44.307335
 20
-40.8806
 30
0.0
 11
44.307335
 21
40.8806
 31
0.0
  0
LINE
  5
24B
330
258
100
AcDbEntity
  8
0
 62
     7
 48
0.342317
370
    13
390
F
100
AcDbLine
 10
58.0
 20
-40.8806
 30
0.0
 11
44.307335
 21
-40.8806
 31
0.0
  0
LINE
  5
24C
330
258
100
AcDbEntity
  8
0
 62
     7
370
    35
390
F
100
AcDbLine
 10
0.0
 20
-49.0
 30
0.0
 11
0.0
 21
49.0
 31
0.0
  0
LINE
  5
24D
330
258
100
AcDbEntity
  8
0
 62
     7
370
    35
390
F
100
AcDbLine
 10
8.0
 20
-49.0
 30
0.0
 11
8.0
 21
49.0
 31
0.0
  0
LINE
  5
24E
330
258
100
AcDbEntity
  8
0
 62
     7
370
    13
390
F
100
AcDbLine
 10
8.0
 20
-44.057079
 30
0.0
 11
44.307335
 21
-40.8806
 31
0.0
  0
LINE
  5
24F
330
258
100
AcDbEntity
  8
0
 62
     7
370
    13
390
F
100
AcDbLine
 10
8.0
 20
44.057079
 30
0.0
 11
44.307335
 21
40.8806
 31
0.0
  0
ELLIPSE
  5
250
330
258
100
AcDbEntity
  8
0
 62
     7
370
    13
390
F
100
AcDbEllipse
 10
43.0
 20
40.8806
 30
0.0
 11
1.307336091995239
 21
14.94292068481445
 31
0.0
210
0.0
220
0.0
230
1.0
 40
0.086827
 41
4.719985176931252
 42
6.283185307179585
  0
ARC
  5
251
330
258
100
AcDbEntity
  8
0
 62
     7
370
    35
390
F
100
AcDbCircle
 10
43.0
 20
40.8806
 30
0.0
 40
15.0
100
AcDbArc
 50
0.0
 51
84.999997
  0
ELLIPSE
  5
252
330
258
100
AcDbEntity
  8
0
 62
     7
370
    13
390
F
100
AcDbEllipse
 10
43.0
 20
-40.8806
 30
0.0
 11
1.307336091995239
 21
-14.94292068481445
 31
0.0
210
0.0
220
0.0
230
1.0
 40
0.086827
 41
0.0000000000000001
 42
1.563200130248334
  0
ARC
  5
253
330
258
100
AcDbEntity
  8
0
 62
     7
370
    35
390
F
100
AcDbCircle
 10
43.0
 20
-40.8806
 30
0.0
 40
15.0
100
AcDbArc
 50
275.000003
 51
0.0
  0
LINE
  5
254
330
258
100
AcDbEntity
  8
0
 62
     7
370
    35
390
F
100
AcDbLine
 10
58.0
 20
40.8806
 30
0.0
 11
58.0
 21
-40.8806
 31
0.0
  0
LINE
  5
255
330
258
100
AcDbEntity
  8
0
 62
     7
370
    35
390
F
100
AcDbLine
 10
44.307465
 20
55.823509
 30
0.0
 11
8.0
 21
59.0
 31
0.0
  0
LINE
  5
256
330
258
100
AcDbEntity
  8
0
 62
     7
370
    35
390
F
100
AcDbLine
 10
8.0
 20
-59.0
 30
0.0
 11
44.307465
 21
-55.823509
 31
0.0
  0
ENDBLK
  5
428
330
258
100
AcDbEntity
  8
0
100
AcDbBlockEnd
  0
BLOCK
  5
429
330
263
100
AcDbEntity
  8
0
100
AcDbBlockBegin
  2
*D61
 70
     1
 10
0.0
 20
0.0
 30
0.0
  3
*D61
  1

  0
POINT
  5
25A
330
263
100
AcDbEntity
  8
DEFPOINTS
  6
ByBlock
 62
     0
380
     1
100
AcDbPoint
 10
116.226318
 20
550.133698
 30
0.0
  0
POINT
  5
25B
330
263
100
AcDbEntity
  8
DEFPOINTS
  6
ByBlock
 62
     0
380
     1
100
AcDbPoint
 10
794.226318
 20
544.0831434619403
 30
0.0
  0
LINE
  5
25C
330
263
100
AcDbEntity
  8
0
  6
ByBlock
 62
     0
370
    -2
380
     1
100
AcDbLine
 10
116.226318
 20
550.758698
 30
0.0
 11
116.226318
 21
648.0928743294268
 31
0.0
  0
LINE
  5
25D
330
263
100
AcDbEntity
  8
0
  6
ByBlock
 62
     0
370
    -2
380
     1
100
AcDbLine
 10
794.226318
 20
544.7081434619403
 30
0.0
 11
794.226318
 21
648.0928743294268
 31
0.0
  0
LINE
  5
25E
330
263
100
AcDbEntity
  8
0
  6
ByBlock
 62
     0
370
    -2
380
     1
100
AcDbLine
 10
118.726318
 20
646.8428743294268
 30
0.0
 11
791.726318
 21
646.8428743294268
 31
0.0
  0
SOLID
  5
25F
330
263
100
AcDbEntity
  8
0
  6
ByBlock
 62
     0
380
     1
100
AcDbTrace
 10
116.226318
 20
646.8428743294268
 30
0.0
 11
118.726318
 21
646.4262076627601
 31
0.0
 12
118.726318
 22
647.2595409960934
 32
0.0
 13
118.726318
 23
647.2595409960934
 33
0.0
  0
SOLID
  5
260
330
263
100
AcDbEntity
  8
0
  6
ByBlock
 62
     0
380
     1
100
AcDbTrace
 10
794.226318
 20
646.8428743294268
 30
0.0
 11
791.726318
 21
646.4262076627601
 31
0.0
 12
791.726318
 22
647.2595409960934
 32
0.0
 13
791.726318
 23
647.2595409960934
 33
0.0
  0
MTEXT
  5
261
330
263
100
AcDbEntity
  8
0
  6
ByBlock
 62
     0
370
    -2
380
     1
100
AcDbMText
 10
455.226318
 20
648.5928743294268
 30
0.0
 40
2.5
 41
0.0
 71
     5
 72
     1
  1
\A1;678
 73
     1
 44
1.0
  0
ENDBLK
  5
42A
330
263
100
AcDbEntity
  8
0
100
AcDbBlockEnd
  0
BLOCK
  5
42B
330
26E
100
AcDbEntity
  8
0
100
AcDbBlockBegin
  2
*D62
 70
     1
 10
0.0
 20
0.0
 30
0.0
  3
*D62
  1

  0
POINT
  5
265
330
26E
100
AcDbEntity
  8
DEFPOINTS
  6
ByBlock
 62
     7
380
     1
100
AcDbPoint
 10
116.226318
 20
550.133698
 30
0.0
  0
POINT
  5
266
330
26E
100
AcDbEntity
  8
DEFPOINTS
  6
ByBlock
 62
     7
380
     1
100
AcDbPoint
 10
794.226318
 20
544.0831434619403
 30
0.0
  0
LINE
  5
267
330
26E
100
AcDbEntity
  8
0
  6
ByBlock
 62
     7
370
    -2
380
     1
100
AcDbLine
 10
116.226318
 20
550.758698
 30
0.0
 11
116.226318
 21
648.0928743294268
 31
0.0
  0
LINE
  5
268
330
26E
100
AcDbEntity
  8
0
  6
ByBlock
 62
     7
370
    -2
380
     1
100
AcDbLine
 10
794.226318
 20
544.7081434619403
 30
0.0
 11
794.226318
 21
648.0928743294268
 31
0.0
  0
LINE
  5
269
330
26E
100
AcDbEntity
  8
0
  6
ByBlock
 62
     7
370
    -2
380
     1
100
AcDbLine
 10
126.226318
 20
646.8428743294268
 30
0.0
 11
784.226318
 21
646.8428743294268
 31
0.0
  0
SOLID
  5
26A
330
26E
100
AcDbEntity
  8
0
  6
ByBlock
 62
     7
380
     1
100
AcDbTrace
 10
116.226318
 20
646.8428743294268
 30
0.0
 11
126.226318
 21
645.1762076627601
 31
0.0
 12
126.226318
 22
648.5095409960934
 32
0.0
 13
126.226318
 23
648.5095409960934
 33
0.0
  0
SOLID
  5
26B
330
26E
100
AcDbEntity
  8
0
  6
ByBlock
 62
     7
380
     1
100
AcDbTrace
 10
794.226318
 20
646.8428743294268
 30
0.0
 11
784.226318
 21
645.1762076627601
 31
0.0
 12
784.226318
 22
648.5095409960934
 32
0.0
 13
784.226318
 23
648.5095409960934
 33
0.0
  0
MTEXT
  5
26C
330
26E
100
AcDbEntity
  8
0
  6
ByBlock
 62
     0
370
    -2
380
     1
100
AcDbMText
 10
455.226318
 20
658.1428743294267
 30
0.0
 40
14.0
 41
0.0
 71
     5
 72
     1
  1
\A1;678
 73
     1
 44
1.0
  0
ENDBLK
  5
42C
330
26E
100
AcDbEntity
  8
0
100
AcDbBlockEnd
  0
BLOCK
  5
42D
330
279
100
AcDbEntity
  8
0
100
AcDbBlockBegin
  2
*D63
 70
     1
 10
0.0
 20
0.0
 30
0.0
  3
*D63
  1

  0
POINT
  5
270
330
279
100
AcDbEntity
  8
DEFPOINTS
  6
ByBlock
 62
     0
370
    40
380
     1
100
AcDbPoint
 10
646.1299063269577
 20
614.133698
 30
0.0
  0
POINT
  5
271
330
279
100
AcDbEntity
  8
DEFPOINTS
  6
ByBlock
 62
     0
370
    40
380
     1
100
AcDbPoint
 10
646.1299063269577
 20
486.133698
 30
0.0
  0
LINE
  5
272
330
279
100
AcDbEntity
  8
0
  6
ByBlock
 62
     0
370
    -2
380
     1
100
AcDbLine
 10
646.7549063269577
 20
614.133698
 30
0.0
 11
837.299757167905
 21
614.133698
 31
0.0
  0
LINE
  5
273
330
279
100
AcDbEntity
  8
0
  6
ByBlock
 62
     0
370
    -2
380
     1
100
AcDbLine
 10
646.7549063269577
 20
486.133698
 30
0.0
 11
837.299757167905
 21
486.133698
 31
0.0
  0
LINE
  5
274
330
279
100
AcDbEntity
  8
0
  6
ByBlock
 62
     0
370
    -2
380
     1
100
AcDbLine
 10
836.049757167905
 20
611.633698
 30
0.0
 11
836.049757167905
 21
488.633698
 31
0.0
  0
SOLID
  5
275
330
279
100
AcDbEntity
  8
0
  6
ByBlock
 62
     0
370
    40
380
     1
100
AcDbTrace
 10
836.049757167905
 20
614.133698
 30
0.0
 11
835.6330905012384
 21
611.633698
 31
0.0
 12
836.4664238345716
 22
611.633698
 32
0.0
 13
836.4664238345716
 23
611.633698
 33
0.0
  0
SOLID
  5
276
330
279
100
AcDbEntity
  8
0
  6
ByBlock
 62
     0
370
    40
380
     1
100
AcDbTrace
 10
836.049757167905
 20
486.133698
 30
0.0
 11
835.6330905012384
 21
488.633698
 31
0.0
 12
836.4664238345716
 22
488.633698
 32
0.0
 13
836.4664238345716
 23
488.633698
 33
0.0
  0
MTEXT
  5
277
330
279
100
AcDbEntity
  8
0
  6
ByBlock
 62
     0
370
    -2
380
     1
100
AcDbMText
 10
834.299757167905
 20
550.133698
 30
0.0
 40
2.5
 41
0.0
 71
     5
 72
     1
  1
\A1;128
 11
6.123031769111886E-17
 21
1.0
 31
0.0
 73
     1
 44
1.0
  0
ENDBLK
  5
42E
330
279
100
AcDbEntity
  8
0
100
AcDbBlockEnd
  0
BLOCK
  5
42F
330
284
100
AcDbEntity
  8
0
100
AcDbBlockBegin
  2
*D64
 70
     1
 10
0.0
 20
0.0
 30
0.0
  3
*D64
  1

  0
POINT
  5
27B
330
284
100
AcDbEntity
  8
DEFPOINTS
  6
ByBlock
 62
     7
370
    40
380
     1
100
AcDbPoint
 10
646.1299063269577
 20
614.133698
 30
0.0
  0
POINT
  5
27C
330
284
100
AcDbEntity
  8
DEFPOINTS
  6
ByBlock
 62
     7
370
    40
380
     1
100
AcDbPoint
 10
646.1299063269577
 20
486.133698
 30
0.0
  0
LINE
  5
27D
330
284
100
AcDbEntity
  8
0
  6
ByBlock
 62
     7
370
    -2
380
     1
100
AcDbLine
 10
646.7549063269577
 20
614.133698
 30
0.0
 11
837.299757167905
 21
614.133698
 31
0.0
  0
LINE
  5
27E
330
284
100
AcDbEntity
  8
0
  6
ByBlock
 62
     7
370
    -2
380
     1
100
AcDbLine
 10
646.7549063269577
 20
486.133698
 30
0.0
 11
837.299757167905
 21
486.133698
 31
0.0
  0
LINE
  5
27F
330
284
100
AcDbEntity
  8
0
  6
ByBlock
 62
     7
370
    -2
380
     1
100
AcDbLine
 10
836.049757167905
 20
604.133698
 30
0.0
 11
836.049757167905
 21
496.133698
 31
0.0
  0
SOLID
  5
280
330
284
100
AcDbEntity
  8
0
  6
ByBlock
 62
     7
370
    40
380
     1
100
AcDbTrace
 10
836.049757167905
 20
614.133698
 30
0.0
 11
834.3830905012384
 21
604.133698
 31
0.0
 12
837.7164238345716
 22
604.133698
 32
0.0
 13
837.7164238345716
 23
604.133698
 33
0.0
  0
SOLID
  5
281
330
284
100
AcDbEntity
  8
0
  6
ByBlock
 62
     7
370
    40
380
     1
100
AcDbTrace
 10
836.049757167905
 20
486.133698
 30
0.0
 11
834.3830905012384
 21
496.133698
 31
0.0
 12
837.7164238345716
 22
496.133698
 32
0.0
 13
837.7164238345716
 23
496.133698
 33
0.0
  0
MTEXT
  5
282
330
284
100
AcDbEntity
  8
0
  6
ByBlock
 62
     0
370
    -2
380
     1
100
AcDbMText
 10
824.749757167905
 20
550.133698
 30
0.0
 40
14.0
 41
0.0
 71
     5
 72
     1
  1
\A1;128
 11
6.123031769111886E-17
 21
1.0
 31
0.0
 73
     1
 44
1.0
  0
ENDBLK
  5
430
330
284
100
AcDbEntity
  8
0
100
AcDbBlockEnd
  0
BLOCK
  5
431
330
28F
100
AcDbEntity
  8
0
100
AcDbBlockBegin
  2
*D65
 70
     1
 10
0.0
 20
0.0
 30
0.0
  3
*D65
  1

  0
POINT
  5
286
330
28F
100
AcDbEntity
  8
DEFPOINTS
  6
ByBlock
 62
     0
370
    40
380
     1
100
AcDbPoint
 10
690.6506029840862
 20
325.293698
 30
0.0
  0
POINT
  5
287
330
28F
100
AcDbEntity
  8
DEFPOINTS
  6
ByBlock
 62
     0
370
    40
380
     1
100
AcDbPoint
 10
690.6506029840862
 20
267.293698
 30
0.0
  0
LINE
  5
288
330
28F
100
AcDbEntity
  8
0
  6
ByBlock
 62
     0
370
    -2
380
     1
100
AcDbLine
 10
691.2756029840862
 20
325.293698
 30
0.0
 11
808.1721829567101
 21
325.293698
 31
0.0
  0
LINE
  5
289
330
28F
100
AcDbEntity
  8
0
  6
ByBlock
 62
     0
370
    -2
380
     1
100
AcDbLine
 10
691.2756029840862
 20
267.293698
 30
0.0
 11
808.1721829567101
 21
267.293698
 31
0.0
  0
LINE
  5
28A
330
28F
100
AcDbEntity
  8
0
  6
ByBlock
 62
     0
370
    -2
380
     1
100
AcDbLine
 10
806.9221829567101
 20
322.793698
 30
0.0
 11
806.9221829567101
 21
269.793698
 31
0.0
  0
SOLID
  5
28B
330
28F
100
AcDbEntity
  8
0
  6
ByBlock
 62
     0
370
    40
380
     1
100
AcDbTrace
 10
806.9221829567101
 20
325.293698
 30
0.0
 11
806.5055162900435
 21
322.793698
 31
0.0
 12
807.3388496233767
 22
322.793698
 32
0.0
 13
807.3388496233767
 23
322.793698
 33
0.0
  0
SOLID
  5
28C
330
28F
100
AcDbEntity
  8
0
  6
ByBlock
 62
     0
370
    40
380
     1
100
AcDbTrace
 10
806.9221829567101
 20
267.293698
 30
0.0
 11
806.5055162900435
 21
269.793698
 31
0.0
 12
807.3388496233767
 22
269.793698
 32
0.0
 13
807.3388496233767
 23
269.793698
 33
0.0
  0
MTEXT
  5
28D
330
28F
100
AcDbEntity
  8
0
  6
ByBlock
 62
     0
370
    -2
380
     1
100
AcDbMText
 10
805.1721829567101
 20
296.293698
 30
0.0
 40
2.5
 41
0.0
 71
     5
 72
     1
  1
\A1;58
 11
6.123031769111886E-17
 21
1.0
 31
0.0
 73
     1
 44
1.0
  0
ENDBLK
  5
432
330
28F
100
AcDbEntity
  8
0
100
AcDbBlockEnd
  0
BLOCK
  5
433
330
29A
100
AcDbEntity
  8
0
100
AcDbBlockBegin
  2
*D66
 70
     1
 10
0.0
 20
0.0
 30
0.0
  3
*D66
  1

  0
POINT
  5
291
330
29A
100
AcDbEntity
  8
DEFPOINTS
  6
ByBlock
 62
     0
370
    40
380
     1
100
AcDbPoint
 10
690.6506029840862
 20
325.293698
 30
0.0
  0
POINT
  5
292
330
29A
100
AcDbEntity
  8
DEFPOINTS
  6
ByBlock
 62
     0
370
    40
380
     1
100
AcDbPoint
 10
690.6506029840862
 20
267.293698
 30
0.0
  0
LINE
  5
293
330
29A
100
AcDbEntity
  8
0
  6
ByBlock
 62
     0
370
    -2
380
     1
100
AcDbLine
 10
691.2756029840862
 20
325.293698
 30
0.0
 11
837.299757167905
 21
325.293698
 31
0.0
  0
LINE
  5
294
330
29A
100
AcDbEntity
  8
0
  6
ByBlock
 62
     0
370
    -2
380
     1
100
AcDbLine
 10
691.2756029840862
 20
267.293698
 30
0.0
 11
837.299757167905
 21
267.293698
 31
0.0
  0
LINE
  5
295
330
29A
100
AcDbEntity
  8
0
  6
ByBlock
 62
     0
370
    -2
380
     1
100
AcDbLine
 10
836.049757167905
 20
322.793698
 30
0.0
 11
836.049757167905
 21
269.793698
 31
0.0
  0
SOLID
  5
296
330
29A
100
AcDbEntity
  8
0
  6
ByBlock
 62
     0
370
    40
380
     1
100
AcDbTrace
 10
836.049757167905
 20
325.293698
 30
0.0
 11
835.6330905012384
 21
322.793698
 31
0.0
 12
836.4664238345716
 22
322.793698
 32
0.0
 13
836.4664238345716
 23
322.793698
 33
0.0
  0
SOLID
  5
297
330
29A
100
AcDbEntity
  8
0
  6
ByBlock
 62
     0
370
    40
380
     1
100
AcDbTrace
 10
836.049757167905
 20
267.293698
 30
0.0
 11
835.6330905012384
 21
269.793698
 31
0.0
 12
836.4664238345716
 22
269.793698
 32
0.0
 13
836.4664238345716
 23
269.793698
 33
0.0
  0
MTEXT
  5
298
330
29A
100
AcDbEntity
  8
0
  6
ByBlock
 62
     0
370
    -2
380
     1
100
AcDbMText
 10
834.299757167905
 20
296.293698
 30
0.0
 40
2.5
 41
0.0
 71
     5
 72
     1
  1
\A1;58
 11
6.123031769111886E-17
 21
1.0
 31
0.0
 73
     1
 44
1.0
  0
ENDBLK
  5
434
330
29A
100
AcDbEntity
  8
0
100
AcDbBlockEnd
  0
BLOCK
  5
435
330
2A5
100
AcDbEntity
  8
0
100
AcDbBlockBegin
  2
*D67
 70
     1
 10
0.0
 20
0.0
 30
0.0
  3
*D67
  1

  0
POINT
  5
29C
330
2A5
100
AcDbEntity
  8
DEFPOINTS
  6
ByBlock
 62
     7
370
    40
380
     1
100
AcDbPoint
 10
690.6506029840862
 20
325.293698
 30
0.0
  0
POINT
  5
29D
330
2A5
100
AcDbEntity
  8
DEFPOINTS
  6
ByBlock
 62
     7
370
    40
380
     1
100
AcDbPoint
 10
690.6506029840862
 20
267.293698
 30
0.0
  0
LINE
  5
29E
330
2A5
100
AcDbEntity
  8
0
  6
ByBlock
 62
     7
370
    -2
380
     1
100
AcDbLine
 10
691.2756029840862
 20
325.293698
 30
0.0
 11
837.299757167905
 21
325.293698
 31
0.0
  0
LINE
  5
29F
330
2A5
100
AcDbEntity
  8
0
  6
ByBlock
 62
     7
370
    -2
380
     1
100
AcDbLine
 10
691.2756029840862
 20
267.293698
 30
0.0
 11
837.299757167905
 21
267.293698
 31
0.0
  0
LINE
  5
2A0
330
2A5
100
AcDbEntity
  8
0
  6
ByBlock
 62
     7
370
    -2
380
     1
100
AcDbLine
 10
836.049757167905
 20
315.293698
 30
0.0
 11
836.049757167905
 21
277.293698
 31
0.0
  0
SOLID
  5
2A1
330
2A5
100
AcDbEntity
  8
0
  6
ByBlock
 62
     7
370
    40
380
     1
100
AcDbTrace
 10
836.049757167905
 20
325.293698
 30
0.0
 11
834.3830905012384
 21
315.293698
 31
0.0
 12
837.7164238345716
 22
315.293698
 32
0.0
 13
837.7164238345716
 23
315.293698
 33
0.0
  0
SOLID
  5
2A2
330
2A5
100
AcDbEntity
  8
0
  6
ByBlock
 62
     7
370
    40
380
     1
100
AcDbTrace
 10
836.049757167905
 20
267.293698
 30
0.0
 11
834.3830905012384
 21
277.293698
 31
0.0
 12
837.7164238345716
 22
277.293698
 32
0.0
 13
837.7164238345716
 23
277.293698
 33
0.0
  0
MTEXT
  5
2A3
330
2A5
100
AcDbEntity
  8
0
  6
ByBlock
 62
     0
370
    -2
380
     1
100
AcDbMText
 10
824.749757167905
 20
296.293698
 30
0.0
 40
14.0
 41
0.0
 71
     5
 72
     1
  1
\A1;58
 11
6.123031769111886E-17
 21
1.0
 31
0.0
 73
     1
 44
1.0
  0
ENDBLK
  5
436
330
2A5
100
AcDbEntity
  8
0
100
AcDbBlockEnd
  0
BLOCK
  5
437
330
312
100
AcDbEntity
  8
0
100
AcDbBlockBegin
  2
*D68
 70
     1
 10
0.0
 20
0.0
 30
0.0
  3
*D68
  1

  0
POINT
  5
308
330
312
100
AcDbEntity
  8
DEFPOINTS
  6
ByBlock
 62
     7
380
     1
100
AcDbPoint
 10
271.96958412
 20
550.133698
 30
0.0
  0
POINT
  5
309
330
312
100
AcDbEntity
  8
DEFPOINTS
  6
ByBlock
 62
     7
380
     1
100
AcDbPoint
 10
1858.48958412
 20
544.0831434619403
 30
0.0
  0
LINE
  5
30A
330
312
100
AcDbEntity
  8
0
  6
ByBlock
 62
     7
370
    -2
380
     1
100
AcDbLine
 10
271.96958412
 20
550.196198
 30
0.0
 11
271.96958412
 21
647.0228743294267
 31
0.0
  0
LINE
  5
30B
330
312
100
AcDbEntity
  8
0
  6
ByBlock
 62
     7
370
    -2
380
     1
100
AcDbLine
 10
1858.48958412
 20
544.1456434619403
 30
0.0
 11
1858.48958412
 21
647.0228743294267
 31
0.0
  0
LINE
  5
30C
330
312
100
AcDbEntity
  8
0
  6
ByBlock
 62
     7
370
    -2
380
     1
100
AcDbLine
 10
281.96958412
 20
646.8428743294268
 30
0.0
 11
1036.896250786667
 21
646.8428743294268
 31
0.0
  0
LINE
  5
30D
330
312
100
AcDbEntity
  8
0
  6
ByBlock
 62
     7
370
    -2
380
     1
100
AcDbLine
 10
1848.48958412
 20
646.8428743294268
 30
0.0
 11
1093.562917453333
 21
646.8428743294268
 31
0.0
  0
SOLID
  5
30E
330
312
100
AcDbEntity
  8
0
  6
ByBlock
 62
     7
380
     1
100
AcDbTrace
 10
271.96958412
 20
646.8428743294268
 30
0.0
 11
281.96958412
 21
645.1762076627601
 31
0.0
 12
281.96958412
 22
648.5095409960934
 32
0.0
 13
281.96958412
 23
648.5095409960934
 33
0.0
  0
SOLID
  5
30F
330
312
100
AcDbEntity
  8
0
  6
ByBlock
 62
     7
380
     1
100
AcDbTrace
 10
1858.48958412
 20
646.8428743294268
 30
0.0
 11
1848.48958412
 21
645.1762076627601
 31
0.0
 12
1848.48958412
 22
648.5095409960934
 32
0.0
 13
1848.48958412
 23
648.5095409960934
 33
0.0
  0
MTEXT
  5
310
330
312
100
AcDbEntity
  8
0
  6
ByBlock
 62
     0
370
    -2
380
     1
100
AcDbMText
 10
1065.22958412
 20
646.8428743294268
 30
0.0
 40
14.0
 41
0.0
 71
     5
 72
     1
  1
\A1;1587
 73
     1
 44
1.0
  0
ENDBLK
  5
438
330
312
100
AcDbEntity
  8
0
100
AcDbBlockEnd
  0
BLOCK
  5
439
330
31F
100
AcDbEntity
  8
0
100
AcDbBlockBegin
  2
*D69
 70
     1
 10
0.0
 20
0.0
 30
0.0
  3
*D69
  1

  0
POINT
  5
315
330
31F
100
AcDbEntity
  8
DEFPOINTS
  6
ByBlock
 62
     7
380
     1
100
AcDbPoint
 10
1511.943980805081
 20
614.133698
 30
0.0
  0
POINT
  5
316
330
31F
100
AcDbEntity
  8
DEFPOINTS
  6
ByBlock
 62
     7
380
     1
100
AcDbPoint
 10
1511.943980805081
 20
486.133698
 30
0.0
  0
LINE
  5
317
330
31F
100
AcDbEntity
  8
0
  6
ByBlock
 62
     7
370
    -2
380
     1
100
AcDbLine
 10
1512.006480805081
 20
614.133698
 30
0.0
 11
1956.536431772898
 21
614.133698
 31
0.0
  0
LINE
  5
318
330
31F
100
AcDbEntity
  8
0
  6
ByBlock
 62
     7
370
    -2
380
     1
100
AcDbLine
 10
1512.006480805081
 20
486.133698
 30
0.0
 11
1956.536431772898
 21
486.133698
 31
0.0
  0
LINE
  5
319
330
31F
100
AcDbEntity
  8
0
  6
ByBlock
 62
     7
370
    -2
380
     1
100
AcDbLine
 10
1956.356431772898
 20
604.133698
 30
0.0
 11
1956.356431772898
 21
571.4670313333334
 31
0.0
  0
LINE
  5
31A
330
31F
100
AcDbEntity
  8
0
  6
ByBlock
 62
     7
370
    -2
380
     1
100
AcDbLine
 10
1956.356431772898
 20
496.133698
 30
0.0
 11
1956.356431772898
 21
528.8003646666666
 31
0.0
  0
SOLID
  5
31B
330
31F
100
AcDbEntity
  8
0
  6
ByBlock
 62
     7
380
     1
100
AcDbTrace
 10
1956.356431772898
 20
614.133698
 30
0.0
 11
1954.689765106231
 21
604.133698
 31
0.0
 12
1958.023098439564
 22
604.133698
 32
0.0
 13
1958.023098439564
 23
604.133698
 33
0.0
  0
SOLID
  5
31C
330
31F
100
AcDbEntity
  8
0
  6
ByBlock
 62
     7
380
     1
100
AcDbTrace
 10
1956.356431772898
 20
486.133698
 30
0.0
 11
1954.689765106231
 21
496.133698
 31
0.0
 12
1958.023098439564
 22
496.133698
 32
0.0
 13
1958.023098439564
 23
496.133698
 33
0.0
  0
MTEXT
  5
31D
330
31F
100
AcDbEntity
  8
0
  6
ByBlock
 62
     0
370
    -2
380
     1
100
AcDbMText
 10
1956.356431772898
 20
550.133698
 30
0.0
 40
14.0
 41
0.0
 71
     5
 72
     1
  1
\A1;128
 73
     1
 44
1.0
  0
ENDBLK
  5
43A
330
31F
100
AcDbEntity
  8
0
100
AcDbBlockEnd
  0
BLOCK
  5
43B
330
32C
100
AcDbEntity
  8
0
100
AcDbBlockBegin
  2
*D70
 70
     1
 10
0.0
 20
0.0
 30
0.0
  3
*D70
  1

  0
POINT
  5
322
330
32C
100
AcDbEntity
  8
DEFPOINTS
  6
ByBlock
 62
     7
380
     1
100
AcDbPoint
 10
1616.122410982761
 20
325.293698
 30
0.0
  0
POINT
  5
323
330
32C
100
AcDbEntity
  8
DEFPOINTS
  6
ByBlock
 62
     7
380
     1
100
AcDbPoint
 10
1616.122410982761
 20
267.293698
 30
0.0
  0
LINE
  5
324
330
32C
100
AcDbEntity
  8
0
  6
ByBlock
 62
     7
370
    -2
380
     1
100
AcDbLine
 10
1616.184910982761
 20
325.293698
 30
0.0
 11
1956.536431772898
 21
325.293698
 31
0.0
  0
LINE
  5
325
330
32C
100
AcDbEntity
  8
0
  6
ByBlock
 62
     7
370
    -2
380
     1
100
AcDbLine
 10
1616.184910982761
 20
267.293698
 30
0.0
 11
1956.536431772898
 21
267.293698
 31
0.0
  0
LINE
  5
326
330
32C
100
AcDbEntity
  8
0
  6
ByBlock
 62
     7
370
    -2
380
     1
100
AcDbLine
 10
1956.356431772898
 20
315.293698
 30
0.0
 11
1956.356431772898
 21
312.9603646666666
 31
0.0
  0
LINE
  5
327
330
32C
100
AcDbEntity
  8
0
  6
ByBlock
 62
     7
370
    -2
380
     1
100
AcDbLine
 10
1956.356431772898
 20
277.293698
 30
0.0
 11
1956.356431772898
 21
279.6270313333334
 31
0.0
  0
SOLID
  5
328
330
32C
100
AcDbEntity
  8
0
  6
ByBlock
 62
     7
380
     1
100
AcDbTrace
 10
1956.356431772898
 20
325.293698
 30
0.0
 11
1954.689765106231
 21
315.293698
 31
0.0
 12
1958.023098439564
 22
315.293698
 32
0.0
 13
1958.023098439564
 23
315.293698
 33
0.0
  0
SOLID
  5
329
330
32C
100
AcDbEntity
  8
0
  6
ByBlock
 62
     7
380
     1
100
AcDbTrace
 10
1956.356431772898
 20
267.293698
 30
0.0
 11
1954.689765106231
 21
277.293698
 31
0.0
 12
1958.023098439564
 22
277.293698
 32
0.0
 13
1958.023098439564
 23
277.293698
 33
0.0
  0
MTEXT
  5
32A
330
32C
100
AcDbEntity
  8
0
  6
ByBlock
 62
     0
370
    -2
380
     1
100
AcDbMText
 10
1956.356431772898
 20
296.293698
 30
0.0
 40
14.0
 41
0.0
 71
     5
 72
     1
  1
\A1;58
 73
     1
 44
1.0
  0
ENDBLK
  5
43C
330
32C
100
AcDbEntity
  8
0
100
AcDbBlockEnd
  0
BLOCK
  5
43D
330
338
100
AcDbEntity
  8
0
100
AcDbBlockBegin
  2
*D71
 70
     1
 10
0.0
 20
0.0
 30
0.0
  3
*D71
  1

  0
POINT
  5
32F
330
338
100
AcDbEntity
  8
DEFPOINTS
  6
ByBlock
 62
     0
380
     1
100
AcDbPoint
 10
271.96958412
 20
550.133698
 30
0.0
  0
POINT
  5
330
330
338
100
AcDbEntity
  8
DEFPOINTS
  6
ByBlock
 62
     0
380
     1
100
AcDbPoint
 10
1846.78958412
 20
550.133698
 30
0.0
  0
LINE
  5
331
330
338
100
AcDbEntity
  8
0
  6
ByBlock
 62
     0
370
    -2
380
     1
100
AcDbLine
 10
271.96958412
 20
550.758698
 30
0.0
 11
271.96958412
 21
682.882478457787
 31
0.0
  0
LINE
  5
332
330
338
100
AcDbEntity
  8
0
  6
ByBlock
 62
     0
370
    -2
380
     1
100
AcDbLine
 10
1846.78958412
 20
550.758698
 30
0.0
 11
1846.78958412
 21
682.882478457787
 31
0.0
  0
LINE
  5
333
330
338
100
AcDbEntity
  8
0
  6
ByBlock
 62
     0
370
    -2
380
     1
100
AcDbLine
 10
274.46958412
 20
681.632478457787
 30
0.0
 11
1844.28958412
 21
681.632478457787
 31
0.0
  0
SOLID
  5
334
330
338
100
AcDbEntity
  8
0
  6
ByBlock
 62
     0
380
     1
100
AcDbTrace
 10
271.96958412
 20
681.632478457787
 30
0.0
 11
274.46958412
 21
681.2158117911204
 31
0.0
 12
274.46958412
 22
682.0491451244536
 32
0.0
 13
274.46958412
 23
682.0491451244536
 33
0.0
  0
SOLID
  5
335
330
338
100
AcDbEntity
  8
0
  6
ByBlock
 62
     0
380
     1
100
AcDbTrace
 10
1846.78958412
 20
681.632478457787
 30
0.0
 11
1844.28958412
 21
681.2158117911204
 31
0.0
 12
1844.28958412
 22
682.0491451244536
 32
0.0
 13
1844.28958412
 23
682.0491451244536
 33
0.0
  0
MTEXT
  5
336
330
338
100
AcDbEntity
  8
0
  6
ByBlock
 62
     0
370
    -2
380
     1
100
AcDbMText
 10
1059.37958412
 20
683.7158117911204
 30
0.0
 40
2.5
 41
0.0
 71
     5
 72
     1
  1
\A1;1574,82
 73
     1
 44
1.0
  0
ENDBLK
  5
43E
330
338
100
AcDbEntity
  8
0
100
AcDbBlockEnd
  0
BLOCK
  5
43F
330
343
100
AcDbEntity
  8
0
100
AcDbBlockBegin
  2
*D72
 70
     1
 10
0.0
 20
0.0
 30
0.0
  3
*D72
  1

  0
POINT
  5
33A
330
343
100
AcDbEntity
  8
DEFPOINTS
  6
ByBlock
 62
     7
380
     1
100
AcDbPoint
 10
271.96958412
 20
550.133698
 30
0.0
  0
POINT
  5
33B
330
343
100
AcDbEntity
  8
DEFPOINTS
  6
ByBlock
 62
     7
380
     1
100
AcDbPoint
 10
1846.78958412
 20
550.133698
 30
0.0
  0
LINE
  5
33C
330
343
100
AcDbEntity
  8
0
  6
ByBlock
 62
     7
370
    -2
380
     1
100
AcDbLine
 10
271.96958412
 20
550.758698
 30
0.0
 11
271.96958412
 21
682.882478457787
 31
0.0
  0
LINE
  5
33D
330
343
100
AcDbEntity
  8
0
  6
ByBlock
 62
     7
370
    -2
380
     1
100
AcDbLine
 10
1846.78958412
 20
550.758698
 30
0.0
 11
1846.78958412
 21
682.882478457787
 31
0.0
  0
LINE
  5
33E
330
343
100
AcDbEntity
  8
0
  6
ByBlock
 62
     7
370
    -2
380
     1
100
AcDbLine
 10
281.96958412
 20
681.632478457787
 30
0.0
 11
1836.78958412
 21
681.632478457787
 31
0.0
  0
SOLID
  5
33F
330
343
100
AcDbEntity
  8
0
  6
ByBlock
 62
     7
380
     1
100
AcDbTrace
 10
271.96958412
 20
681.632478457787
 30
0.0
 11
281.96958412
 21
679.9658117911204
 31
0.0
 12
281.96958412
 22
683.2991451244536
 32
0.0
 13
281.96958412
 23
683.2991451244536
 33
0.0
  0
SOLID
  5
340
330
343
100
AcDbEntity
  8
0
  6
ByBlock
 62
     7
380
     1
100
AcDbTrace
 10
1846.78958412
 20
681.632478457787
 30
0.0
 11
1836.78958412
 21
679.9658117911204
 31
0.0
 12
1836.78958412
 22
683.2991451244536
 32
0.0
 13
1836.78958412
 23
683.2991451244536
 33
0.0
  0
MTEXT
  5
341
330
343
100
AcDbEntity
  8
0
  6
ByBlock
 62
     0
370
    -2
380
     1
100
AcDbMText
 10
1059.37958412
 20
693.632478457787
 30
0.0
 40
14.0
 41
0.0
 71
     5
 72
     1
  1
\A1;1575
 73
     1
 44
1.0
  0
ENDBLK
  5
440
330
343
100
AcDbEntity
  8
0
100
AcDbBlockEnd
  0
BLOCK
  5
441
330
34E
100
AcDbEntity
  8
0
100
AcDbBlockBegin
  2
*D73
 70
     1
 10
0.0
 20
0.0
 30
0.0
  3
*D73
  1

  0
POINT
  5
345
330
34E
100
AcDbEntity
  8
DEFPOINTS
  6
ByBlock
 62
     7
380
     1
100
AcDbPoint
 10
271.96958412
 20
550.133698
 30
0.0
  0
POINT
  5
346
330
34E
100
AcDbEntity
  8
DEFPOINTS
  6
ByBlock
 62
     7
380
     1
100
AcDbPoint
 10
1858.48958412
 20
550.133698
 30
0.0
  0
LINE
  5
347
330
34E
100
AcDbEntity
  8
0
  6
ByBlock
 62
     7
370
    -2
380
     1
100
AcDbLine
 10
271.96958412
 20
550.758698
 30
0.0
 11
271.96958412
 21
682.882478457787
 31
0.0
  0
LINE
  5
348
330
34E
100
AcDbEntity
  8
0
  6
ByBlock
 62
     7
370
    -2
380
     1
100
AcDbLine
 10
1858.48958412
 20
550.758698
 30
0.0
 11
1858.48958412
 21
682.882478457787
 31
0.0
  0
LINE
  5
349
330
34E
100
AcDbEntity
  8
0
  6
ByBlock
 62
     7
370
    -2
380
     1
100
AcDbLine
 10
281.96958412
 20
681.632478457787
 30
0.0
 11
1848.48958412
 21
681.632478457787
 31
0.0
  0
SOLID
  5
34A
330
34E
100
AcDbEntity
  8
0
  6
ByBlock
 62
     7
380
     1
100
AcDbTrace
 10
271.96958412
 20
681.632478457787
 30
0.0
 11
281.96958412
 21
679.9658117911204
 31
0.0
 12
281.96958412
 22
683.2991451244536
 32
0.0
 13
281.96958412
 23
683.2991451244536
 33
0.0
  0
SOLID
  5
34B
330
34E
100
AcDbEntity
  8
0
  6
ByBlock
 62
     7
380
     1
100
AcDbTrace
 10
1858.48958412
 20
681.632478457787
 30
0.0
 11
1848.48958412
 21
679.9658117911204
 31
0.0
 12
1848.48958412
 22
683.2991451244536
 32
0.0
 13
1848.48958412
 23
683.2991451244536
 33
0.0
  0
MTEXT
  5
34C
330
34E
100
AcDbEntity
  8
0
  6
ByBlock
 62
     0
370
    -2
380
     1
100
AcDbMText
 10
1065.22958412
 20
693.632478457787
 30
0.0
 40
14.0
 41
0.0
 71
     5
 72
     1
  1
\A1;1587
 73
     1
 44
1.0
  0
ENDBLK
  5
442
330
34E
100
AcDbEntity
  8
0
100
AcDbBlockEnd
  0
BLOCK
  5
443
330
359
100
AcDbEntity
  8
0
100
AcDbBlockBegin
  2
*D74
 70
     1
 10
0.0
 20
0.0
 30
0.0
  3
*D74
  1

  0
POINT
  5
350
330
359
100
AcDbEntity
  8
DEFPOINTS
  6
ByBlock
 62
     7
380
     1
100
AcDbPoint
 10
271.96958412
 20
550.133698
 30
0.0
  0
POINT
  5
351
330
359
100
AcDbEntity
  8
DEFPOINTS
  6
ByBlock
 62
     7
380
     1
100
AcDbPoint
 10
1858.48958412
 20
550.133698
 30
0.0
  0
LINE
  5
352
330
359
100
AcDbEntity
  8
0
  6
ByBlock
 62
     7
370
    -2
380
     1
100
AcDbLine
 10
271.96958412
 20
550.758698
 30
0.0
 11
271.96958412
 21
682.882478457787
 31
0.0
  0
LINE
  5
353
330
359
100
AcDbEntity
  8
0
  6
ByBlock
 62
     7
370
    -2
380
     1
100
AcDbLine
 10
1858.48958412
 20
550.758698
 30
0.0
 11
1858.48958412
 21
682.882478457787
 31
0.0
  0
LINE
  5
354
330
359
100
AcDbEntity
  8
0
  6
ByBlock
 62
     7
370
    -2
380
     1
100
AcDbLine
 10
281.96958412
 20
681.632478457787
 30
0.0
 11
1848.48958412
 21
681.632478457787
 31
0.0
  0
SOLID
  5
355
330
359
100
AcDbEntity
  8
0
  6
ByBlock
 62
     7
380
     1
100
AcDbTrace
 10
271.96958412
 20
681.632478457787
 30
0.0
 11
281.96958412
 21
679.9658117911204
 31
0.0
 12
281.96958412
 22
683.2991451244536
 32
0.0
 13
281.96958412
 23
683.2991451244536
 33
0.0
  0
SOLID
  5
356
330
359
100
AcDbEntity
  8
0
  6
ByBlock
 62
     7
380
     1
100
AcDbTrace
 10
1858.48958412
 20
681.632478457787
 30
0.0
 11
1848.48958412
 21
679.9658117911204
 31
0.0
 12
1848.48958412
 22
683.2991451244536
 32
0.0
 13
1848.48958412
 23
683.2991451244536
 33
0.0
  0
MTEXT
  5
357
330
359
100
AcDbEntity
  8
0
  6
ByBlock
 62
     0
370
    -2
380
     1
100
AcDbMText
 10
1065.22958412
 20
693.632478457787
 30
0.0
 40
14.0
 41
0.0
 71
     5
 72
     1
  1
\A1;1587
 73
     1
 44
1.0
  0
ENDBLK
  5
444
330
359
100
AcDbEntity
  8
0
100
AcDbBlockEnd
  0
BLOCK
  5
445
330
37B
100
AcDbEntity
  8
0
100
AcDbBlockBegin
  2
*D75
 70
     1
 10
0.0
 20
0.0
 30
0.0
  3
*D75
  1

  0
POINT
  5
372
330
37B
100
AcDbEntity
  8
DEFPOINTS
  6
ByBlock
 62
     0
380
     1
100
AcDbPoint
 10
1632.246231885761
 20
614.133698
 30
0.0
  0
POINT
  5
373
330
37B
100
AcDbEntity
  8
DEFPOINTS
  6
ByBlock
 62
     0
380
     1
100
AcDbPoint
 10
1632.246231885761
 20
486.133698
 30
0.0
  0
LINE
  5
374
330
37B
100
AcDbEntity
  8
0
  6
ByBlock
 62
     0
370
    -2
380
     1
100
AcDbLine
 10
1632.871231885761
 20
614.133698
 30
0.0
 11
1916.680883388077
 21
614.133698
 31
0.0
  0
LINE
  5
375
330
37B
100
AcDbEntity
  8
0
  6
ByBlock
 62
     0
370
    -2
380
     1
100
AcDbLine
 10
1632.871231885761
 20
486.133698
 30
0.0
 11
1916.680883388077
 21
486.133698
 31
0.0
  0
LINE
  5
376
330
37B
100
AcDbEntity
  8
0
  6
ByBlock
 62
     0
370
    -2
380
     1
100
AcDbLine
 10
1915.430883388077
 20
611.633698
 30
0.0
 11
1915.430883388077
 21
488.633698
 31
0.0
  0
SOLID
  5
377
330
37B
100
AcDbEntity
  8
0
  6
ByBlock
 62
     0
380
     1
100
AcDbTrace
 10
1915.430883388077
 20
614.133698
 30
0.0
 11
1915.01421672141
 21
611.633698
 31
0.0
 12
1915.847550054744
 22
611.633698
 32
0.0
 13
1915.847550054744
 23
611.633698
 33
0.0
  0
SOLID
  5
378
330
37B
100
AcDbEntity
  8
0
  6
ByBlock
 62
     0
380
     1
100
AcDbTrace
 10
1915.430883388077
 20
486.133698
 30
0.0
 11
1915.01421672141
 21
488.633698
 31
0.0
 12
1915.847550054744
 22
488.633698
 32
0.0
 13
1915.847550054744
 23
488.633698
 33
0.0
  0
MTEXT
  5
379
330
37B
100
AcDbEntity
  8
0
  6
ByBlock
 62
     0
370
    -2
380
     1
100
AcDbMText
 10
1913.555883388077
 20
550.133698
 30
0.0
 40
2.5
 41
0.0
 71
     5
 72
     1
  1
\A1;128
 11
6.123031769111886E-17
 21
1.0
 31
0.0
 73
     1
 44
1.0
  0
ENDBLK
  5
446
330
37B
100
AcDbEntity
  8
0
100
AcDbBlockEnd
  0
BLOCK
  5
447
330
386
100
AcDbEntity
  8
0
100
AcDbBlockBegin
  2
*D76
 70
     1
 10
0.0
 20
0.0
 30
0.0
  3
*D76
  1

  0
POINT
  5
37D
330
386
100
AcDbEntity
  8
DEFPOINTS
  6
ByBlock
 62
     7
380
     1
100
AcDbPoint
 10
1632.246231885761
 20
614.133698
 30
0.0
  0
POINT
  5
37E
330
386
100
AcDbEntity
  8
DEFPOINTS
  6
ByBlock
 62
     7
380
     1
100
AcDbPoint
 10
1632.246231885761
 20
486.133698
 30
0.0
  0
LINE
  5
37F
330
386
100
AcDbEntity
  8
0
  6
ByBlock
 62
     7
370
    -2
380
     1
100
AcDbLine
 10
1632.871231885761
 20
614.133698
 30
0.0
 11
1916.680883388077
 21
614.133698
 31
0.0
  0
LINE
  5
380
330
386
100
AcDbEntity
  8
0
  6
ByBlock
 62
     7
370
    -2
380
     1
100
AcDbLine
 10
1632.871231885761
 20
486.133698
 30
0.0
 11
1916.680883388077
 21
486.133698
 31
0.0
  0
LINE
  5
381
330
386
100
AcDbEntity
  8
0
  6
ByBlock
 62
     7
370
    -2
380
     1
100
AcDbLine
 10
1915.430883388077
 20
604.133698
 30
0.0
 11
1915.430883388077
 21
496.133698
 31
0.0
  0
SOLID
  5
382
330
386
100
AcDbEntity
  8
0
  6
ByBlock
 62
     7
380
     1
100
AcDbTrace
 10
1915.430883388077
 20
614.133698
 30
0.0
 11
1913.76421672141
 21
604.133698
 31
0.0
 12
1917.097550054744
 22
604.133698
 32
0.0
 13
1917.097550054744
 23
604.133698
 33
0.0
  0
SOLID
  5
383
330
386
100
AcDbEntity
  8
0
  6
ByBlock
 62
     7
380
     1
100
AcDbTrace
 10
1915.430883388077
 20
486.133698
 30
0.0
 11
1913.76421672141
 21
496.133698
 31
0.0
 12
1917.097550054744
 22
496.133698
 32
0.0
 13
1917.097550054744
 23
496.133698
 33
0.0
  0
MTEXT
  5
384
330
386
100
AcDbEntity
  8
0
  6
ByBlock
 62
     0
370
    -2
380
     1
100
AcDbMText
 10
1903.430883388077
 20
550.133698
 30
0.0
 40
14.0
 41
0.0
 71
     5
 72
     1
  1
\A1;128
 11
6.123031769111886E-17
 21
1.0
 31
0.0
 73
     1
 44
1.0
  0
ENDBLK
  5
448
330
386
100
AcDbEntity
  8
0
100
AcDbBlockEnd
  0
BLOCK
  5
449
330
392
100
AcDbEntity
  8
0
100
AcDbBlockBegin
  2
*D77
 70
     1
 10
0.0
 20
0.0
 30
0.0
  3
*D77
  1

  0
POINT
  5
389
330
392
100
AcDbEntity
  8
DEFPOINTS
  6
ByBlock
 62
     0
380
     1
100
AcDbPoint
 10
1524.008038676974
 20
325.293698
 30
0.0
  0
POINT
  5
38A
330
392
100
AcDbEntity
  8
DEFPOINTS
  6
ByBlock
 62
     0
380
     1
100
AcDbPoint
 10
1506.158136963764
 20
267.293698
 30
0.0
  0
LINE
  5
38B
330
392
100
AcDbEntity
  8
0
  6
ByBlock
 62
     0
370
    -2
380
     1
100
AcDbLine
 10
1524.633038676974
 20
325.293698
 30
0.0
 11
1880.981079961657
 21
325.293698
 31
0.0
  0
LINE
  5
38C
330
392
100
AcDbEntity
  8
0
  6
ByBlock
 62
     0
370
    -2
380
     1
100
AcDbLine
 10
1506.783136963764
 20
267.293698
 30
0.0
 11
1880.981079961657
 21
267.293698
 31
0.0
  0
LINE
  5
38D
330
392
100
AcDbEntity
  8
0
  6
ByBlock
 62
     0
370
    -2
380
     1
100
AcDbLine
 10
1879.731079961657
 20
322.793698
 30
0.0
 11
1879.731079961657
 21
269.793698
 31
0.0
  0
SOLID
  5
38E
330
392
100
AcDbEntity
  8
0
  6
ByBlock
 62
     0
380
     1
100
AcDbTrace
 10
1879.731079961657
 20
325.293698
 30
0.0
 11
1879.314413294991
 21
322.793698
 31
0.0
 12
1880.147746628324
 22
322.793698
 32
0.0
 13
1880.147746628324
 23
322.793698
 33
0.0
  0
SOLID
  5
38F
330
392
100
AcDbEntity
  8
0
  6
ByBlock
 62
     0
380
     1
100
AcDbTrace
 10
1879.731079961657
 20
267.293698
 30
0.0
 11
1879.314413294991
 21
269.793698
 31
0.0
 12
1880.147746628324
 22
269.793698
 32
0.0
 13
1880.147746628324
 23
269.793698
 33
0.0
  0
MTEXT
  5
390
330
392
100
AcDbEntity
  8
0
  6
ByBlock
 62
     0
370
    -2
380
     1
100
AcDbMText
 10
1877.856079961657
 20
296.293698
 30
0.0
 40
2.5
 41
0.0
 71
     5
 72
     1
  1
\A1;58
 11
6.123031769111886E-17
 21
1.0
 31
0.0
 73
     1
 44
1.0
  0
ENDBLK
  5
44A
330
392
100
AcDbEntity
  8
0
100
AcDbBlockEnd
  0
BLOCK
  5
44B
330
39E
100
AcDbEntity
  8
0
100
AcDbBlockBegin
  2
*D78
 70
     1
 10
0.0
 20
0.0
 30
0.0
  3
*D78
  1

  0
POINT
  5
395
330
39E
100
AcDbEntity
  8
DEFPOINTS
  6
ByBlock
 62
     0
380
     1
100
AcDbPoint
 10
1524.008038676974
 20
325.293698
 30
0.0
  0
POINT
  5
396
330
39E
100
AcDbEntity
  8
DEFPOINTS
  6
ByBlock
 62
     0
380
     1
100
AcDbPoint
 10
1506.158136963764
 20
267.293698
 30
0.0
  0
LINE
  5
397
330
39E
100
AcDbEntity
  8
0
  6
ByBlock
 62
     0
370
    -2
380
     1
100
AcDbLine
 10
1524.633038676974
 20
325.293698
 30
0.0
 11
1916.680883388077
 21
325.293698
 31
0.0
  0
LINE
  5
398
330
39E
100
AcDbEntity
  8
0
  6
ByBlock
 62
     0
370
    -2
380
     1
100
AcDbLine
 10
1506.783136963764
 20
267.293698
 30
0.0
 11
1916.680883388077
 21
267.293698
 31
0.0
  0
LINE
  5
399
330
39E
100
AcDbEntity
  8
0
  6
ByBlock
 62
     0
370
    -2
380
     1
100
AcDbLine
 10
1915.430883388077
 20
322.793698
 30
0.0
 11
1915.430883388077
 21
269.793698
 31
0.0
  0
SOLID
  5
39A
330
39E
100
AcDbEntity
  8
0
  6
ByBlock
 62
     0
380
     1
100
AcDbTrace
 10
1915.430883388077
 20
325.293698
 30
0.0
 11
1915.01421672141
 21
322.793698
 31
0.0
 12
1915.847550054744
 22
322.793698
 32
0.0
 13
1915.847550054744
 23
322.793698
 33
0.0
  0
SOLID
  5
39B
330
39E
100
AcDbEntity
  8
0
  6
ByBlock
 62
     0
380
     1
100
AcDbTrace
 10
1915.430883388077
 20
267.293698
 30
0.0
 11
1915.01421672141
 21
269.793698
 31
0.0
 12
1915.847550054744
 22
269.793698
 32
0.0
 13
1915.847550054744
 23
269.793698
 33
0.0
  0
MTEXT
  5
39C
330
39E
100
AcDbEntity
  8
0
  6
ByBlock
 62
     0
370
    -2
380
     1
100
AcDbMText
 10
1913.555883388077
 20
296.293698
 30
0.0
 40
2.5
 41
0.0
 71
     5
 72
     1
  1
\A1;58
 11
6.123031769111886E-17
 21
1.0
 31
0.0
 73
     1
 44
1.0
  0
ENDBLK
  5
44C
330
39E
100
AcDbEntity
  8
0
100
AcDbBlockEnd
  0
BLOCK
  5
44D
330
3A9
100
AcDbEntity
  8
0
100
AcDbBlockBegin
  2
*D79
 70
     1
 10
0.0
 20
0.0
 30
0.0
  3
*D79
  1

  0
POINT
  5
3A0
330
3A9
100
AcDbEntity
  8
DEFPOINTS
  6
ByBlock
 62
     7
380
     1
100
AcDbPoint
 10
1524.008038676974
 20
325.293698
 30
0.0
  0
POINT
  5
3A1
330
3A9
100
AcDbEntity
  8
DEFPOINTS
  6
ByBlock
 62
     7
380
     1
100
AcDbPoint
 10
1506.158136963764
 20
267.293698
 30
0.0
  0
LINE
  5
3A2
330
3A9
100
AcDbEntity
  8
0
  6
ByBlock
 62
     7
370
    -2
380
     1
100
AcDbLine
 10
1524.633038676974
 20
325.293698
 30
0.0
 11
1916.680883388077
 21
325.293698
 31
0.0
  0
LINE
  5
3A3
330
3A9
100
AcDbEntity
  8
0
  6
ByBlock
 62
     7
370
    -2
380
     1
100
AcDbLine
 10
1506.783136963764
 20
267.293698
 30
0.0
 11
1916.680883388077
 21
267.293698
 31
0.0
  0
LINE
  5
3A4
330
3A9
100
AcDbEntity
  8
0
  6
ByBlock
 62
     7
370
    -2
380
     1
100
AcDbLine
 10
1915.430883388077
 20
315.293698
 30
0.0
 11
1915.430883388077
 21
277.293698
 31
0.0
  0
SOLID
  5
3A5
330
3A9
100
AcDbEntity
  8
0
  6
ByBlock
 62
     7
380
     1
100
AcDbTrace
 10
1915.430883388077
 20
325.293698
 30
0.0
 11
1913.76421672141
 21
315.293698
 31
0.0
 12
1917.097550054744
 22
315.293698
 32
0.0
 13
1917.097550054744
 23
315.293698
 33
0.0
  0
SOLID
  5
3A6
330
3A9
100
AcDbEntity
  8
0
  6
ByBlock
 62
     7
380
     1
100
AcDbTrace
 10
1915.430883388077
 20
267.293698
 30
0.0
 11
1913.76421672141
 21
277.293698
 31
0.0
 12
1917.097550054744
 22
277.293698
 32
0.0
 13
1917.097550054744
 23
277.293698
 33
0.0
  0
MTEXT
  5
3A7
330
3A9
100
AcDbEntity
  8
0
  6
ByBlock
 62
     0
370
    -2
380
     1
100
AcDbMText
 10
1903.430883388077
 20
296.293698
 30
0.0
 40
14.0
 41
0.0
 71
     5
 72
     1
  1
\A1;58
 11
6.123031769111886E-17
 21
1.0
 31
0.0
 73
     1
 44
1.0
  0
ENDBLK
  5
44E
330
3A9
100
AcDbEntity
  8
0
100
AcDbBlockEnd
  0
ENDSEC
  0
SECTION
  2
ENTITIES
  0
LINE
  5
2DA
330
1F
100
AcDbEntity
  8
0
 62
     7
370
    60
100
AcDbLine
 10
1811.82312324
 20
609.133698
 30
0.0
 11
318.636045
 21
609.133698
 31
0.0
  0
LINE
  5
2DB
330
1F
100
AcDbEntity
  8
0
 62
     7
 48
0.112306
370
    60
100
AcDbLine
 10
1811.82312324
 20
609.133698
 30
0.0
 11
1804.39015302
 21
605.957219
 31
0.0
  0
LINE
  5
2DC
330
1F
100
AcDbEntity
  8
0
 62
     7
370
    60
100
AcDbLine
 10
1804.39015302
 20
605.957219
 30
0.0
 11
326.06901522
 21
605.957219
 31
0.0
  0
LINE
  5
2DD
330
1F
100
AcDbEntity
  8
0
 62
     7
 48
0.112306
370
    60
100
AcDbLine
 10
318.636045
 20
609.133698
 30
0.0
 11
326.06901522
 21
605.957219
 31
0.0
  0
ELLIPSE
  5
2DE
330
1F
100
AcDbEntity
  8
0
 62
     7
370
    60
100
AcDbEllipse
 10
307.0695841199999
 20
599.133698
 30
0.0
 11
35.10000000000005
 21
0.0
 31
0.0
210
0.0
220
0.0
230
1.0
 40
0.4273504273504274
 41
1.570796379154774
 42
3.141592740477747
  0
LINE
  5
2DF
330
1F
100
AcDbEntity
  8
0
 62
     7
370
    60
100
AcDbLine
 10
1823.38958412
 20
614.133698
 30
0.0
 11
307.0695841199999
 21
614.133698
 31
0.0
  0
ELLIPSE
  5
2E0
330
1F
100
AcDbEntity
  8
0
 62
     7
370
    60
100
AcDbEllipse
 10
1823.38958412
 20
599.133698
 30
0.0
 11
35.09999999999999
 21
0.0
 31
0.0
210
0.0
220
0.0
230
1.0
 40
0.4273504273504274
 41
0.0
 42
1.570796379154775
  0
LINE
  5
2E1
330
1F
100
AcDbEntity
  8
0
 62
     7
 48
0.112306
370
    60
100
AcDbLine
 10
318.636045
 20
491.133698
 30
0.0
 11
326.06901522
 21
494.310177
 31
0.0
  0
LINE
  5
2E2
330
1F
100
AcDbEntity
  8
0
 62
     7
370
    60
100
AcDbLine
 10
1804.39015302
 20
494.310177
 30
0.0
 11
326.06901522
 21
494.310177
 31
0.0
  0
LINE
  5
2E3
330
1F
100
AcDbEntity
  8
0
 62
     7
 48
0.112306
370
    60
100
AcDbLine
 10
1811.82312324
 20
491.133698
 30
0.0
 11
1804.39015302
 21
494.310177
 31
0.0
  0
LINE
  5
2E4
330
1F
100
AcDbEntity
  8
0
 62
     7
370
    60
100
AcDbLine
 10
1811.82312324
 20
491.133698
 30
0.0
 11
318.636045
 21
491.133698
 31
0.0
  0
ELLIPSE
  5
2E5
330
1F
100
AcDbEntity
  8
0
 62
     7
370
    60
100
AcDbEllipse
 10
307.0695841199999
 20
501.133698
 30
0.0
 11
35.09999999999999
 21
0.0
 31
0.0
210
0.0
220
0.0
230
1.0
 40
0.4273504273504274
 41
3.141592566701839
 42
4.712388928024811
  0
LINE
  5
2E6
330
1F
100
AcDbEntity
  8
0
 62
     7
370
    60
100
AcDbLine
 10
1823.38958412
 20
486.133698
 30
0.0
 11
307.0695841199999
 21
486.133698
 31
0.0
  0
ELLIPSE
  5
2E7
330
1F
100
AcDbEntity
  8
0
 62
     7
370
    60
100
AcDbEllipse
 10
1823.38958412
 20
501.133698
 30
0.0
 11
35.10000000000005
 21
0.0
 31
0.0
210
0.0
220
0.0
230
1.0
 40
0.4273504273504274
 41
4.712388928024814
 42
6.283185307179586
  0
LINE
  5
2E8
330
1F
100
AcDbEntity
  8
0
 62
     7
 48
0.112306
370
    60
100
AcDbLine
 10
1846.78958412
 20
594.190777
 30
0.0
 11
1839.3566139
 21
591.0142979999999
 31
0.0
  0
LINE
  5
2E9
330
1F
100
AcDbEntity
  8
0
 62
     7
370
    60
100
AcDbLine
 10
1846.78958412
 20
506.076619
 30
0.0
 11
1846.78958412
 21
594.190777
 31
0.0
  0
LINE
  5
2EA
330
1F
100
AcDbEntity
  8
0
 62
     7
 48
0.112306
370
    60
100
AcDbLine
 10
1846.78958412
 20
506.076619
 30
0.0
 11
1839.3566139
 21
509.253098
 31
0.0
  0
LINE
  5
2EB
330
1F
100
AcDbEntity
  8
0
 62
     7
370
    60
100
AcDbLine
 10
1839.3566139
 20
509.253098
 30
0.0
 11
1839.3566139
 21
591.0142979999999
 31
0.0
  0
LINE
  5
2EC
330
1F
100
AcDbEntity
  8
0
 62
     7
370
    60
100
AcDbLine
 10
326.06901522
 20
509.253098
 30
0.0
 11
326.06901522
 21
591.0142979999999
 31
0.0
  0
LINE
  5
2ED
330
1F
100
AcDbEntity
  8
0
 62
     7
 48
0.373573
370
    60
100
AcDbLine
 10
326.06901522
 20
591.0142979999999
 30
0.0
 11
291.10255434
 21
591.0142979999999
 31
0.0
  0
LINE
  5
2EE
330
1F
100
AcDbEntity
  8
0
 62
     7
370
    60
100
AcDbLine
 10
291.10255434
 20
509.253098
 30
0.0
 11
291.10255434
 21
591.0142979999999
 31
0.0
  0
LINE
  5
2EF
330
1F
100
AcDbEntity
  8
0
 62
     7
 48
0.373573
370
    60
100
AcDbLine
 10
326.06901522
 20
509.253098
 30
0.0
 11
291.10255434
 21
509.253098
 31
0.0
  0
LINE
  5
2F0
330
1F
100
AcDbEntity
  8
0
 62
     7
370
    60
100
AcDbLine
 10
1804.39015302
 20
509.253098
 30
0.0
 11
1804.39015302
 21
591.0142979999999
 31
0.0
  0
LINE
  5
2F1
330
1F
100
AcDbEntity
  8
0
 62
     7
370
    60
100
AcDbLine
 10
1804.39015302
 20
591.0142979999999
 30
0.0
 11
326.06901522
 21
591.0142979999999
 31
0.0
  0
LINE
  5
2F2
330
1F
100
AcDbEntity
  8
0
 62
     7
370
    60
100
AcDbLine
 10
1804.39015302
 20
509.253098
 30
0.0
 11
326.06901522
 21
509.253098
 31
0.0
  0
LINE
  5
2F3
330
1F
100
AcDbEntity
  8
0
 62
     7
370
    60
100
AcDbLine
 10
271.96958412
 20
501.133698
 30
0.0
 11
271.96958412
 21
599.133698
 31
0.0
  0
LINE
  5
2F4
330
1F
100
AcDbEntity
  8
0
 62
     7
 48
0.112306
370
    60
100
AcDbLine
 10
283.66958412
 20
506.076619
 30
0.0
 11
291.10255434
 21
509.253098
 31
0.0
  0
LINE
  5
2F5
330
1F
100
AcDbEntity
  8
0
 62
     7
370
    60
100
AcDbLine
 10
283.66958412
 20
506.076619
 30
0.0
 11
283.66958412
 21
594.190777
 31
0.0
  0
LINE
  5
2F6
330
1F
100
AcDbEntity
  8
0
 62
     7
 48
0.112306
370
    60
100
AcDbLine
 10
283.66958412
 20
594.190777
 30
0.0
 11
291.10255434
 21
591.0142979999999
 31
0.0
  0
LINE
  5
2F7
330
1F
100
AcDbEntity
  8
0
 62
     7
370
    60
100
AcDbLine
 10
1858.48958412
 20
501.133698
 30
0.0
 11
1858.48958412
 21
599.133698
 31
0.0
  0
LINE
  5
2F8
330
1F
100
AcDbEntity
  8
0
 62
     7
 48
0.373573
370
    60
100
AcDbLine
 10
1804.39015302
 20
591.0142979999999
 30
0.0
 11
1839.3566139
 21
591.0142979999999
 31
0.0
  0
LINE
  5
2F9
330
1F
100
AcDbEntity
  8
0
 62
     7
 48
0.373573
370
    60
100
AcDbLine
 10
1804.39015302
 20
509.253098
 30
0.0
 11
1839.3566139
 21
509.253098
 31
0.0
  0
ELLIPSE
  5
2FA
330
1F
100
AcDbEntity
  8
0
 62
     7
370
    60
100
AcDbEllipse
 10
1811.55490308
 20
594.0761299999999
 30
0.0
 11
-35.23464934959701
 21
-0.1401836786952194
 31
0.0
210
0.0
220
0.0
230
1.0
 40
0.4273326955530064
 41
3.139896494530056
 42
4.703075548351861
  0
ELLIPSE
  5
2FB
330
1F
100
AcDbEntity
  8
0
 62
     7
370
    60
100
AcDbEllipse
 10
318.90426516
 20
594.0761299999999
 30
0.0
 11
35.23464934959701
 21
-0.1401836786952194
 31
0.0
210
0.0
220
0.0
230
1.0
 40
0.4273326955530064
 41
1.580109758828522
 42
3.143288812650637
  0
ELLIPSE
  5
2FC
330
1F
100
AcDbEntity
  8
0
 62
     7
370
    60
100
AcDbEllipse
 10
318.90426516
 20
506.191266
 30
0.0
 11
-35.23464934959701
 21
-0.1401836786952194
 31
0.0
210
0.0
220
0.0
230
1.0
 40
0.4273326955530064
 41
6.281489148118743
 42
7.844668201940858
  0
ELLIPSE
  5
2FD
330
1F
100
AcDbEntity
  8
0
 62
     7
370
    60
100
AcDbEllipse
 10
1811.55490308
 20
506.191266
 30
0.0
 11
35.23464934959701
 21
-0.1401836786952194
 31
0.0
210
0.0
220
0.0
230
1.0
 40
0.4273326955530064
 41
4.721702412417521
 42
6.284881466239326
  0
ELLIPSE
  5
2FE
330
1F
100
AcDbEntity
  8
0
 62
     7
370
    60
100
AcDbEllipse
 10
1804.39015302
 20
591.0142979999999
 30
0.0
 11
-34.96740096929362
 21
0.1388624540520798
 31
0.0
210
0.0
220
0.0
230
1.0
 40
0.4273325909591603
 41
3.150885623314005
 42
4.714085753562339
  0
LINE
  5
2FF
330
1F
100
AcDbEntity
  8
0
 62
     7
 48
0.373573
370
    60
100
AcDbLine
 10
1804.39015302
 20
591.0142979999999
 30
0.0
 11
1804.39015302
 21
605.957219
 31
0.0
  0
ELLIPSE
  5
300
330
1F
100
AcDbEntity
  8
0
 62
     7
370
    60
100
AcDbEllipse
 10
326.06901522
 20
591.0142979999999
 30
0.0
 11
34.96740096929362
 21
0.1388624540520798
 31
0.0
210
0.0
220
0.0
230
1.0
 40
0.4273325909591603
 41
1.569099553617248
 42
3.132299683865581
  0
LINE
  5
301
330
1F
100
AcDbEntity
  8
0
 62
     7
 48
0.373573
370
    60
100
AcDbLine
 10
326.06901522
 20
591.0142979999999
 30
0.0
 11
326.06901522
 21
605.957219
 31
0.0
  0
ELLIPSE
  5
302
330
1F
100
AcDbEntity
  8
0
 62
     7
370
    60
100
AcDbEllipse
 10
1804.39015302
 20
509.253098
 30
0.0
 11
-34.96740096929362
 21
-0.1388624540520798
 31
0.0
210
0.0
220
0.0
230
1.0
 40
0.4273325909591603
 41
1.569099553617248
 42
3.132299683865581
  0
LINE
  5
303
330
1F
100
AcDbEntity
  8
0
 62
     7
 48
0.373573
370
    60
100
AcDbLine
 10
1804.39015302
 20
509.253098
 30
0.0
 11
1804.39015302
 21
494.310177
 31
0.0
  0
ELLIPSE
  5
304
330
1F
100
AcDbEntity
  8
0
 62
     7
370
    60
100
AcDbEllipse
 10
326.06901522
 20
509.253098
 30
0.0
 11
34.96740096929362
 21
-0.1388624540520798
 31
0.0
210
0.0
220
0.0
230
1.0
 40
0.4273325909591603
 41
3.150885623314005
 42
4.714085753562339
  0
LINE
  5
305
330
1F
100
AcDbEntity
  8
0
 62
     7
 48
0.373573
370
    60
100
AcDbLine
 10
326.06901522
 20
509.253098
 30
0.0
 11
326.06901522
 21
494.310177
 31
0.0
  0
DIMENSION
  5
32D
330
1F
100
AcDbEntity
  8
0
370
    40
100
AcDbDimension
  2
*D74
 10
1858.48958412
 20
681.632478457787
 30
0.0
 11
1065.22958412
 21
693.632478457787
 31
0.0
 70
    32
 71
     5
 41
2.5
 42
1586.52
  3
ISO-25
100
AcDbAlignedDimension
 13
271.96958412
 23
550.133698
 33
0.0
 14
1858.48958412
 24
550.133698
 34
0.0
100
AcDbRotatedDimension
1001
ACAD
1000
DSTYLE
1002
{
1070
    41
1040
10.0
1070
   140
1040
14.0
1070
   147
1040
5.0
1070
   176
1070
     7
1070
   177
1070
     7
1070
   271
1070
     0
1002
}
  0
LINE
  5
35A
330
1F
100
AcDbEntity
  8
0
 62
     7
370
    60
100
AcDbLine
 10
1811.82312324
 20
317.293698
 30
0.0
 11
1804.39015302
 21
280.986363
 31
0.0
  0
LINE
  5
35B
330
1F
100
AcDbEntity
  8
0
 62
     7
370
    60
100
AcDbLine
 10
1804.39015302
 20
280.986363
 30
0.0
 11
326.0690152200001
 21
280.986363
 31
0.0
  0
LINE
  5
35C
330
1F
100
AcDbEntity
  8
0
 62
     7
370
    60
100
AcDbLine
 10
318.6360450000001
 20
317.293698
 30
0.0
 11
326.0690152200001
 21
280.986363
 31
0.0
  0
LINE
  5
35D
330
1F
100
AcDbEntity
  8
0
 62
     7
 48
0.2
370
    60
100
AcDbLine
 10
307.0695841200001
 20
325.293698
 30
0.0
 11
307.0695841200001
 21
317.293698
 31
0.0
  0
LINE
  5
35E
330
1F
100
AcDbEntity
  8
0
 62
     7
 48
0.375
370
    60
100
AcDbLine
 10
271.96958412
 20
325.293698
 30
0.0
 11
307.0695841200001
 21
325.293698
 31
0.0
  0
LINE
  5
35F
330
1F
100
AcDbEntity
  8
0
 62
     7
 48
0.375
370
    60
100
AcDbLine
 10
307.0695841200001
 20
317.293698
 30
0.0
 11
271.96958412
 21
317.293698
 31
0.0
  0
LINE
  5
360
330
1F
100
AcDbEntity
  8
0
 62
     7
 48
0.2
370
    60
100
AcDbLine
 10
1823.38958412
 20
325.293698
 30
0.0
 11
1823.38958412
 21
317.293698
 31
0.0
  0
LINE
  5
361
330
1F
100
AcDbEntity
  8
0
 62
     7
370
    60
100
AcDbLine
 10
307.0695841200001
 20
325.293698
 30
0.0
 11
1823.38958412
 21
325.293698
 31
0.0
  0
LINE
  5
362
330
1F
100
AcDbEntity
  8
0
 62
     7
370
    60
100
AcDbLine
 10
1823.38958412
 20
317.293698
 30
0.0
 11
307.0695841200001
 21
317.293698
 31
0.0
  0
LINE
  5
363
330
1F
100
AcDbEntity
  8
0
 62
     7
 48
0.375
370
    60
100
AcDbLine
 10
1858.48958412
 20
317.293698
 30
0.0
 11
1823.38958412
 21
317.293698
 31
0.0
  0
LINE
  5
364
330
1F
100
AcDbEntity
  8
0
 62
     7
 48
0.375
370
    60
100
AcDbLine
 10
1823.38958412
 20
325.293698
 30
0.0
 11
1858.48958412
 21
325.293698
 31
0.0
  0
ELLIPSE
  5
365
330
1F
100
AcDbEntity
  8
0
 62
     7
370
    60
100
AcDbEllipse
 10
326.0690152200001
 20
282.293698
 30
0.0
 11
35.09999999999999
 21
0.0
 31
0.0
210
0.0
220
0.0
230
1.0
 40
0.4273504273504274
 41
3.228859011469753
 42
4.712388928024812
  0
ELLIPSE
  5
366
330
1F
100
AcDbEntity
  8
0
 62
     7
370
    60
100
AcDbEllipse
 10
1804.39015302
 20
282.293698
 30
0.0
 11
35.09999999999999
 21
0.0
 31
0.0
210
0.0
220
0.0
230
1.0
 40
0.4273504273504274
 41
4.712388928024812
 42
6.195918844579869
  0
ELLIPSE
  5
367
330
1F
100
AcDbEntity
  8
0
 62
     7
370
    60
100
AcDbEllipse
 10
1804.39015302
 20
282.293698
 30
0.0
 11
-34.96740960894756
 21
1.299255119829976
 31
0.0
210
0.0
220
0.0
230
1.0
 40
0.0373359405429714
 41
1.572183551434129
 42
3.135383681682463
  0
LINE
  5
368
330
1F
100
AcDbEntity
  8
0
 62
     7
 48
0.342317
370
    60
100
AcDbLine
 10
1804.39015302
 20
267.293698
 30
0.0
 11
1804.39015302
 21
280.986363
 31
0.0
  0
ELLIPSE
  5
369
330
1F
100
AcDbEntity
  8
0
 62
     7
370
    60
100
AcDbEllipse
 10
326.0690152200001
 20
282.293698
 30
0.0
 11
34.96740960894756
 21
1.299255119829976
 31
0.0
210
0.0
220
0.0
230
1.0
 40
0.0373359405429714
 41
3.147801625497123
 42
4.711001755745456
  0
LINE
  5
36A
330
1F
100
AcDbEntity
  8
0
 62
     7
 48
0.342317
370
    60
100
AcDbLine
 10
326.0690152200001
 20
267.293698
 30
0.0
 11
326.0690152200001
 21
280.986363
 31
0.0
  0
LINE
  5
36B
330
1F
100
AcDbEntity
  8
0
 62
     7
 48
0.2
370
    60
100
AcDbLine
 10
271.96958412
 20
317.293698
 30
0.0
 11
271.96958412
 21
325.293698
 31
0.0
  0
LINE
  5
36C
330
1F
100
AcDbEntity
  8
0
 62
     7
 48
0.2
370
    60
100
AcDbLine
 10
1858.48958412
 20
325.293698
 30
0.0
 11
1858.48958412
 21
317.293698
 31
0.0
  0
LINE
  5
36D
330
1F
100
AcDbEntity
  8
0
 62
     7
370
    60
100
AcDbLine
 10
1846.78958412
 20
317.293698
 30
0.0
 11
1839.3566139
 21
280.986233
 31
0.0
  0
LINE
  5
36E
330
1F
100
AcDbEntity
  8
0
 62
     7
370
    60
100
AcDbLine
 10
291.1025543400001
 20
280.986233
 30
0.0
 11
283.6695841200001
 21
317.293698
 31
0.0
  0
LINE
  5
36F
330
1F
100
AcDbEntity
  8
0
 62
     7
370
    60
100
AcDbLine
 10
1804.39015302
 20
267.293698
 30
0.0
 11
326.0690152200001
 21
267.293698
 31
0.0
  0
DIMENSION
  5
370
330
1F
100
AcDbEntity
  8
0
100
AcDbDimension
  2
*D76
 10
1915.430883388077
 20
486.133698
 30
0.0
 11
1903.430883388077
 21
550.133698
 31
0.0
 70
    32
 71
     5
 41
2.5
 42
128.0
  3
ISO-25
100
AcDbAlignedDimension
 13
1632.246231885761
 23
614.133698
 33
0.0
 14
1632.246231885761
 24
486.133698
 34
0.0
 50
90.0
100
AcDbRotatedDimension
1001
ACAD
1000
DSTYLE
1002
{
1070
    41
1040
10.0
1070
   140
1040
14.0
1070
   147
1040
5.0
1070
   176
1070
     7
1070
   177
1070
     7
1070
   271
1070
     0
1002
}
  0
DIMENSION
  5
387
330
1F
100
AcDbEntity
  8
0
100
AcDbDimension
  2
*D79
 10
1915.430883388077
 20
267.293698
 30
0.0
 11
1903.430883388077
 21
296.293698
 31
0.0
 70
   160
 71
     5
 41
2.5
 42
58.0
  3
ISO-25
100
AcDbAlignedDimension
 13
1524.008038676974
 23
325.293698
 33
0.0
 14
1506.158136963764
 24
267.293698
 34
0.0
 50
90.0
100
AcDbRotatedDimension
1001
ACAD
1000
DSTYLE
1002
{
1070
    41
1040
10.0
1070
   140
1040
14.0
1070
   147
1040
5.0
1070
   176
1070
     7
1070
   177
1070
     7
1070
   271
1070
     0
1002
}
  0
VIEWPORT
  5
BB
330
73
100
AcDbEntity
 67
     1
  8
0
100
AcDbViewport
 10
7.8
 20
4.5
 30
0.0
 40
15.64
 41
9.0
 68
     1
 69
     1
 12
6.0
 22
4.5
 13
0.0
 23
0.0
 14
0.5
 24
0.5
 15
0.5
 25
0.5
 16
0.0
 26
0.0
 36
1.0
 17
0.0
 27
0.0
 37
0.0
 42
50.0
 43
0.0
 44
0.0
 45
12.0
 50
0.0
 51
0.0
 72
   100
 90
   557152
  1

281
     0
 71
     1
 74
     0
110
0.0
120
0.0
130
0.0
111
1.0
121
0.0
131
0.0
112
0.0
122
1.0
132
0.0
 79
     0
146
0.0
  0
ENDSEC
  0
SECTION
  2
OBJECTS
  0
DICTIONARY
  5
C
330
0
100
AcDbDictionary
281
     1
  3
ACAD_COLOR
350
6C
  3
ACAD_GROUP
350
D
  3
ACAD_LAYOUT
350
1A
  3
ACAD_MATERIAL
350
6B
  3
ACAD_MLEADERSTYLE
350
450
  3
ACAD_MLINESTYLE
350
17
  3
ACAD_PLOTSETTINGS
350
19
  3
ACAD_PLOTSTYLENAME
350
E
  3
ACAD_SCALELIST
350
99
  3
ACAD_TABLESTYLE
350
92
  3
ACDBHEADERROUNDTRIPXREC
350
451
  3
AcDbVariableDictionary
350
59
  3
DWGPROPS
350
454
  0
DICTIONARY
  5
6C
102
{ACAD_REACTORS
330
C
102
}
330
C
100
AcDbDictionary
281
     1
  0
DICTIONARY
  5
D
102
{ACAD_REACTORS
330
C
102
}
330
C
100
AcDbDictionary
281
     1
  0
DICTIONARY
  5
1A
102
{ACAD_REACTORS
330
C
102
}
330
C
100
AcDbDictionary
281
     1
  3
Layout1
350
74
  3
Layout2
350
3AE
  3
Model
350
22
  0
DICTIONARY
  5
6B
102
{ACAD_REACTORS
330
C
102
}
330
C
100
AcDbDictionary
281
     1
  0
DICTIONARY
  5
450
102
{ACAD_REACTORS
330
C
102
}
330
C
100
AcDbDictionary
281
     1
  0
DICTIONARY
  5
17
102
{ACAD_REACTORS
330
C
102
}
330
C
100
AcDbDictionary
281
     1
  3
Standard
350
18
  0
DICTIONARY
  5
19
102
{ACAD_REACTORS
330
C
102
}
330
C
100
AcDbDictionary
281
     1
  0
ACDBDICTIONARYWDFLT
  5
E
102
{ACAD_REACTORS
330
C
102
}
330
C
100
AcDbDictionary
281
     1
  3
Normal
350
F
100
AcDbDictionaryWithDefault
340
F
  0
DICTIONARY
  5
99
102
{ACAD_REACTORS
330
C
102
}
330
C
100
AcDbDictionary
281
     1
  3
A0
350
D5
  3
A1
350
D6
  3
A2
350
D7
  3
A3
350
D8
  3
A4
350
D9
  3
A5
350
DA
  3
A6
350
DB
  3
A7
350
DC
  3
A8
350
DD
  3
A9
350
DE
  3
B0
350
DF
  3
B1
350
E0
  3
B2
350
E1
  3
B3
350
E2
  3
B4
350
E3
  3
B5
350
E4
  3
B6
350
E5
  3
B7
350
E6
  3
B8
350
E7
  3
B9
350
E8
  3
C0
350
E9
  3
C1
350
EA
  3
C2
350
EB
  3
C3
350
EC
  3
C4
350
ED
  3
C5
350
EE
  3
C6
350
EF
  3
C7
350
F0
  3
C8
350
F1
  3
C9
350
F2
  3
D0
350
F3
  3
D1
350
F4
  3
D2
350
F5
  0
DICTIONARY
  5
92
102
{ACAD_REACTORS
330
C
102
}
330
C
100
AcDbDictionary
281
     1
  0
DICTIONARY
  5
451
102
{ACAD_REACTORS
330
C
102
}
330
C
100
AcDbDictionary
281
     1
  3
COLORDICT
350
452
  3
MATERIALDICT
350
453
  0
DICTIONARY
  5
59
102
{ACAD_REACTORS
330
C
102
}
330
C
100
AcDbDictionary
281
     1
  3
CTABLESTYLE
350
98
  3
DIMASSOC
350
5A
  3
HIDETEXT
350
5E
  0
XRECORD
  5
454
102
{ACAD_REACTORS
330
C
102
}
330
C
100
AcDbXrecord
280
     1
  1
DWGPROPS COOKIE
  2

  3

  4

  6

  7

  8
BelottiMc
  9

300
=
301
=
302
=
303
=
304
=
305
=
306
=
307
=
308
=
309
=
 40
0.0
 41
2455245.693844155
 42
2455245.693844143
  1

 90
        0
  0
LAYOUT
  5
74
102
{ACAD_REACTORS
330
1A
102
}
330
1A
100
AcDbPlotSettings
  1

  2
ProgeSOFT PDF Wizard
  4
A4
  6

 40
5.926666666666667
 41
6.011333333333317
 42
6.095999999999985
 43
5.926666666666667
 44
210.0
 45
297.0
 46
88.56200000000001
 47
136.531
 48
0.0
 49
0.0
140
0.0
141
0.0
142
1.0
143
1.0
 70
   692
 72
     1
 73
     0
 74
     0
  7

 75
    16
147
1.0
148
4.426666666666668
149
1.5
100
AcDbLayout
  1
Layout1
 70
     1
 71
     1
 10
0.0
 20
0.0
 11
0.0
 21
0.0
 12
0.0
 22
0.0
 32
0.0
 14
0.0
 24
0.0
 34
0.0
 15
0.0
 25
0.0
 35
0.0
146
0.0
 13
0.0
 23
0.0
 33
0.0
 16
1.0
 26
0.0
 36
0.0
 17
0.0
 27
1.0
 37
0.0
 76
     0
330
D1
331
44F
1001
PROGE_PRINT_SETTINGS
1070
    73
1070
     1
  0
LAYOUT
  5
3AE
102
{ACAD_REACTORS
330
1A
102
}
330
1A
100
AcDbPlotSettings
  1

  2
ProgeSOFT PDF Wizard
  4
A4
  6

 40
5.926666666666667
 41
6.011333333333317
 42
6.095999999999985
 43
5.926666666666667
 44
210.0
 45
297.0
 46
88.562
 47
136.531
 48
0.0
 49
0.0
140
0.0
141
0.0
142
1.0
143
1.0
 70
   692
 72
     1
 73
     0
 74
     0
  7

 75
    16
147
1.0
148
0.0
149
0.0
100
AcDbLayout
  1
Layout2
 70
     1
 71
     2
 10
0.0
 20
0.0
 11
12.0
 21
9.0
 12
0.0
 22
0.0
 32
0.0
 14
0.0
 24
0.0
 34
0.0
 15
12.0
 25
9.0
 35
0.0
146
0.0
 13
0.0
 23
0.0
 33
0.0
 16
1.0
 26
0.0
 36
0.0
 17
0.0
 27
1.0
 37
0.0
 76
     0
330
73
331
BB
1001
PROGE_PRINT_SETTINGS
1070
    73
1070
     1
  0
LAYOUT
  5
22
102
{ACAD_REACTORS
330
1A
102
}
330
1A
100
AcDbPlotSettings
  1

  2
ProgeSOFT PDF Wizard
  4
A4
  6

 40
5.926666666666667
 41
6.011333333333317
 42
6.095999999999985
 43
5.926666666666667
 44
210.0
 45
297.0
 46
0.0000000000000014
 47
83.07219027892847
 48
0.0
 49
0.0
140
0.0
141
0.0
142
1.0
143
15.6229743054305
 70
 11956
 72
     1
 73
     0
 74
     0
  7

 75
     0
147
0.0640082983207879
148
480.2118368310673
149
526.6558470616625
100
AcDbLayout
  1
Model
 70
     1
 71
     0
 10
0.0
 20
0.0
 11
0.0
 21
0.0
 12
0.0
 22
0.0
 32
0.0
 14
0.0
 24
0.0
 34
0.0
 15
1972.689765106231
 25
700.632478457787
 35
0.0
146
0.0
 13
0.0
 23
0.0
 33
0.0
 16
1.0
 26
0.0
 36
0.0
 17
0.0
 27
1.0
 37
0.0
 76
     0
330
1F
331
97
1001
PROGE_PRINT_SETTINGS
1070
    73
1070
     1
  0
MLINESTYLE
  5
18
102
{ACAD_REACTORS
330
17
102
}
330
17
100
AcDbMlineStyle
  2
STANDARD
 70
     0
  3

 62
   256
 51
90.0
 52
90.0
 71
     2
 49
0.5
 62
   256
  6
BYLAYER
 49
-0.5
 62
   256
  6
BYLAYER
  0
ACDBPLACEHOLDER
  5
F
102
{ACAD_REACTORS
330
E
102
}
330
E
  0
SCALE
  5
D5
102
{ACAD_REACTORS
330
99
102
}
330
99
100
AcDbScale
 70
     0
300
1:1
140
1.0
141
1.0
290
     1
  0
SCALE
  5
D6
102
{ACAD_REACTORS
330
99
102
}
330
99
100
AcDbScale
 70
     0
300
1:2
140
1.0
141
2.0
290
     0
  0
SCALE
  5
D7
102
{ACAD_REACTORS
330
99
102
}
330
99
100
AcDbScale
 70
     0
300
1:4
140
1.0
141
4.0
290
     0
  0
SCALE
  5
D8
102
{ACAD_REACTORS
330
99
102
}
330
99
100
AcDbScale
 70
     0
300
1:5
140
1.0
141
5.0
290
     0
  0
SCALE
  5
D9
102
{ACAD_REACTORS
330
99
102
}
330
99
100
AcDbScale
 70
     0
300
1:8
140
1.0
141
8.0
290
     0
  0
SCALE
  5
DA
102
{ACAD_REACTORS
330
99
102
}
330
99
100
AcDbScale
 70
     0
300
1:10
140
1.0
141
10.0
290
     0
  0
SCALE
  5
DB
102
{ACAD_REACTORS
330
99
102
}
330
99
100
AcDbScale
 70
     0
300
1:16
140
1.0
141
16.0
290
     0
  0
SCALE
  5
DC
102
{ACAD_REACTORS
330
99
102
}
330
99
100
AcDbScale
 70
     0
300
1:20
140
1.0
141
20.0
290
     0
  0
SCALE
  5
DD
102
{ACAD_REACTORS
330
99
102
}
330
99
100
AcDbScale
 70
     0
300
1:30
140
1.0
141
30.0
290
     0
  0
SCALE
  5
DE
102
{ACAD_REACTORS
330
99
102
}
330
99
100
AcDbScale
 70
     0
300
1:40
140
1.0
141
40.0
290
     0
  0
SCALE
  5
DF
102
{ACAD_REACTORS
330
99
102
}
330
99
100
AcDbScale
 70
     0
300
1:50
140
1.0
141
50.0
290
     0
  0
SCALE
  5
E0
102
{ACAD_REACTORS
330
99
102
}
330
99
100
AcDbScale
 70
     0
300
1:100
140
1.0
141
100.0
290
     0
  0
SCALE
  5
E1
102
{ACAD_REACTORS
330
99
102
}
330
99
100
AcDbScale
 70
     0
300
2:1
140
2.0
141
1.0
290
     0
  0
SCALE
  5
E2
102
{ACAD_REACTORS
330
99
102
}
330
99
100
AcDbScale
 70
     0
300
4:1
140
4.0
141
1.0
290
     0
  0
SCALE
  5
E3
102
{ACAD_REACTORS
330
99
102
}
330
99
100
AcDbScale
 70
     0
300
8:1
140
8.0
141
1.0
290
     0
  0
SCALE
  5
E4
102
{ACAD_REACTORS
330
99
102
}
330
99
100
AcDbScale
 70
     0
300
10:1
140
10.0
141
1.0
290
     0
  0
SCALE
  5
E5
102
{ACAD_REACTORS
330
99
102
}
330
99
100
AcDbScale
 70
     0
300
100:1
140
100.0
141
1.0
290
     0
  0
SCALE
  5
E6
102
{ACAD_REACTORS
330
99
102
}
330
99
100
AcDbScale
 70
     0
300
1/128" = 1'-0"
140
0.0078125
141
12.0
290
     0
  0
SCALE
  5
E7
102
{ACAD_REACTORS
330
99
102
}
330
99
100
AcDbScale
 70
     0
300
1/64" = 1'-0"
140
0.015625
141
12.0
290
     0
  0
SCALE
  5
E8
102
{ACAD_REACTORS
330
99
102
}
330
99
100
AcDbScale
 70
     0
300
1/32" = 1'-0"
140
0.03125
141
12.0
290
     0
  0
SCALE
  5
E9
102
{ACAD_REACTORS
330
99
102
}
330
99
100
AcDbScale
 70
     0
300
1/16" = 1'-0"
140
0.0625
141
12.0
290
     0
  0
SCALE
  5
EA
102
{ACAD_REACTORS
330
99
102
}
330
99
100
AcDbScale
 70
     0
300
3/32" = 1'-0"
140
0.09375
141
12.0
290
     0
  0
SCALE
  5
EB
102
{ACAD_REACTORS
330
99
102
}
330
99
100
AcDbScale
 70
     0
300
1/8" = 1'-0"
140
0.125
141
12.0
290
     0
  0
SCALE
  5
EC
102
{ACAD_REACTORS
330
99
102
}
330
99
100
AcDbScale
 70
     0
300
3/16" = 1'-0"
140
0.1875
141
12.0
290
     0
  0
SCALE
  5
ED
102
{ACAD_REACTORS
330
99
102
}
330
99
100
AcDbScale
 70
     0
300
1/4" = 1'-0"
140
0.25
141
12.0
290
     0
  0
SCALE
  5
EE
102
{ACAD_REACTORS
330
99
102
}
330
99
100
AcDbScale
 70
     0
300
3/8" = 1'-0"
140
0.375
141
12.0
290
     0
  0
SCALE
  5
EF
102
{ACAD_REACTORS
330
99
102
}
330
99
100
AcDbScale
 70
     0
300
1/2" = 1'-0"
140
0.5
141
12.0
290
     0
  0
SCALE
  5
F0
102
{ACAD_REACTORS
330
99
102
}
330
99
100
AcDbScale
 70
     0
300
3/4" = 1'-0"
140
0.75
141
12.0
290
     0
  0
SCALE
  5
F1
102
{ACAD_REACTORS
330
99
102
}
330
99
100
AcDbScale
 70
     0
300
1" = 1'-0"
140
1.0
141
12.0
290
     0
  0
SCALE
  5
F2
102
{ACAD_REACTORS
330
99
102
}
330
99
100
AcDbScale
 70
     0
300
1-1/2" = 1'-0"
140
1.5
141
12.0
290
     0
  0
SCALE
  5
F3
102
{ACAD_REACTORS
330
99
102
}
330
99
100
AcDbScale
 70
     0
300
3" = 1'-0"
140
3.0
141
12.0
290
     0
  0
SCALE
  5
F4
102
{ACAD_REACTORS
330
99
102
}
330
99
100
AcDbScale
 70
     0
300
6" = 1'-0"
140
6.0
141
12.0
290
     0
  0
SCALE
  5
F5
102
{ACAD_REACTORS
330
99
102
}
330
99
100
AcDbScale
 70
     0
300
1'-0" = 1'-0"
140
12.0
141
12.0
290
     0
  0
XRECORD
  5
452
102
{ACAD_REACTORS
330
451
102
}
330
451
100
AcDbXrecord
280
     1
340
6C
  0
XRECORD
  5
453
102
{ACAD_REACTORS
330
451
102
}
330
451
100
AcDbXrecord
280
     1
340
6B
  0
DICTIONARYVAR
  5
98
102
{ACAD_REACTORS
330
59
102
}
330
59
100
DictionaryVariables
280
     0
  1
Standard
  0
DICTIONARYVAR
  5
5A
102
{ACAD_REACTORS
330
59
102
}
330
59
100
DictionaryVariables
280
     0
  1
2
  0
DICTIONARYVAR
  5
5E
102
{ACAD_REACTORS
330
59
102
}
330
59
100
DictionaryVariables
280
     0
  1
1
  0
ENDSEC
  0
EOF
