  0
SECTION
  2
HEADER
  9
$ACADVER
  1
AC1015
  9
$ACADMAINTVER
 70
     6
  9
$DWGCODEPAGE
  3
ANSI_1252
  9
$INSBASE
 10
0.0
 20
0.0
 30
0.0
  9
$EXTMIN
 10
116.226318
 20
213.1930970170159
 30
0.0
  9
$EXTMAX
 10
837.299757167905
 20
663.049134
 30
0.0
  9
$LIMMIN
 10
0.0
 20
0.0
  9
$LIMMAX
 10
420.0
 20
297.0
  9
$ORTHOMODE
 70
     0
  9
$REGENMODE
 70
     1
  9
$FILLMODE
 70
     1
  9
$QTEXTMODE
 70
     0
  9
$MIRRTEXT
 70
     1
  9
$LTSCALE
 40
1.0
  9
$ATTMODE
 70
     1
  9
$TEXTSIZE
 40
2.5
  9
$TRACEWID
 40
1.0
  9
$TEXTSTYLE
  7
Standard
  9
$CLAYER
  8
0
  9
$CELTYPE
  6
ByLayer
  9
$CECOLOR
 62
   256
  9
$CELTSCALE
 40
1.0
  9
$DISPSILH
 70
     0
  9
$DIMSCALE
 40
1.0
  9
$DIMASZ
 40
2.5
  9
$DIMEXO
 40
0.625
  9
$DIMDLI
 40
3.75
  9
$DIMRND
 40
0.0
  9
$DIMDLE
 40
0.0
  9
$DIMEXE
 40
1.25
  9
$DIMTP
 40
0.0
  9
$DIMTM
 40
0.0
  9
$DIMTXT
 40
2.5
  9
$DIMCEN
 40
2.5
  9
$DIMTSZ
 40
0.0
  9
$DIMTOL
 70
     0
  9
$DIMLIM
 70
     0
  9
$DIMTIH
 70
     0
  9
$DIMTOH
 70
     0
  9
$DIMSE1
 70
     0
  9
$DIMSE2
 70
     0
  9
$DIMTAD
 70
     1
  9
$DIMZIN
 70
     8
  9
$DIMBLK
  1

  9
$DIMASO
 70
     1
  9
$DIMSHO
 70
     1
  9
$DIMPOST
  1

  9
$DIMAPOST
  1

  9
$DIMALT
 70
     0
  9
$DIMALTD
 70
     3
  9
$DIMALTF
 40
0.03937
  9
$DIMLFAC
 40
1.0
  9
$DIMTOFL
 70
     1
  9
$DIMTVP
 40
0.0
  9
$DIMTIX
 70
     0
  9
$DIMSOXD
 70
     0
  9
$DIMSAH
 70
     0
  9
$DIMBLK1
  1

  9
$DIMBLK2
  1

  9
$DIMSTYLE
  2
Standard
  9
$DIMCLRD
 70
     0
  9
$DIMCLRE
 70
     0
  9
$DIMCLRT
 70
     0
  9
$DIMTFAC
 40
1.0
  9
$DIMGAP
 40
0.625
  9
$DIMJUST
 70
     0
  9
$DIMSD1
 70
     0
  9
$DIMSD2
 70
     0
  9
$DIMTOLJ
 70
     0
  9
$DIMTZIN
 70
     8
  9
$DIMALTZ
 70
     0
  9
$DIMALTTZ
 70
     0
  9
$DIMUPT
 70
     0
  9
$DIMDEC
 70
     2
  9
$DIMTDEC
 70
     2
  9
$DIMALTU
 70
     2
  9
$DIMALTTD
 70
     3
  9
$DIMTXSTY
  7
Standard
  9
$DIMAUNIT
 70
     0
  9
$DIMADEC
 70
     0
  9
$DIMALTRND
 40
0.0
  9
$DIMAZIN
 70
     0
  9
$DIMDSEP
 70
    44
  9
$DIMATFIT
 70
     0
  9
$DIMFRAC
 70
     0
  9
$DIMLDRBLK
  1

  9
$DIMLUNIT
 70
     2
  9
$DIMLWD
 70
    -2
  9
$DIMLWE
 70
    -2
  9
$DIMTMOVE
 70
     0
  9
$LUNITS
 70
     2
  9
$LUPREC
 70
     4
  9
$SKETCHINC
 40
1.0
  9
$FILLETRAD
 40
2.5
  9
$AUNITS
 70
     0
  9
$AUPREC
 70
     0
  9
$MENU
  1
.
  9
$ELEVATION
 40
0.0
  9
$PELEVATION
 40
0.0
  9
$THICKNESS
 40
0.0
  9
$LIMCHECK
 70
     0
  9
$CHAMFERA
 40
2.5
  9
$CHAMFERB
 40
2.5
  9
$CHAMFERC
 40
0.0
  9
$CHAMFERD
 40
0.0
  9
$SKPOLY
 70
     0
  9
$TDCREATE
 40
2447893.041666644
  9
$TDUCREATE
 40
2447892.999999977
  9
$TDUPDATE
 40
2447893.041666667
  9
$TDUUPDATE
 40
2447893.0
  9
$TDINDWG
 40
0.0032407292
  9
$TDUSRTIMER
 40
0.0032407292
  9
$USRTIMER
 70
     1
  9
$ANGBASE
 50
0.0
  9
$ANGDIR
 70
     0
  9
$PDMODE
 70
     0
  9
$PDSIZE
 40
0.0
  9
$PLINEWID
 40
0.0
  9
$SPLFRAME
 70
     0
  9
$SPLINETYPE
 70
     6
  9
$SPLINESEGS
 70
     8
  9
$HANDSEED
  5
37E
  9
$SURFTAB1
 70
     6
  9
$SURFTAB2
 70
     6
  9
$SURFTYPE
 70
     6
  9
$SURFU
 70
     6
  9
$SURFV
 70
     6
  9
$UCSBASE
  2

  9
$UCSNAME
  2

  9
$UCSORG
 10
0.0
 20
0.0
 30
0.0
  9
$UCSXDIR
 10
1.0
 20
0.0
 30
0.0
  9
$UCSYDIR
 10
0.0
 20
1.0
 30
0.0
  9
$UCSORTHOREF
  2

  9
$UCSORTHOVIEW
 70
     0
  9
$UCSORGTOP
 10
0.0
 20
0.0
 30
0.0
  9
$UCSORGBOTTOM
 10
0.0
 20
0.0
 30
0.0
  9
$UCSORGLEFT
 10
0.0
 20
0.0
 30
0.0
  9
$UCSORGRIGHT
 10
0.0
 20
0.0
 30
0.0
  9
$UCSORGFRONT
 10
0.0
 20
0.0
 30
0.0
  9
$UCSORGBACK
 10
0.0
 20
0.0
 30
0.0
  9
$PUCSBASE
  2

  9
$PUCSNAME
  2

  9
$PUCSORG
 10
0.0
 20
0.0
 30
0.0
  9
$PUCSXDIR
 10
1.0
 20
0.0
 30
0.0
  9
$PUCSYDIR
 10
0.0
 20
1.0
 30
0.0
  9
$PUCSORTHOREF
  2

  9
$PUCSORTHOVIEW
 70
     0
  9
$PUCSORGTOP
 10
0.0
 20
0.0
 30
0.0
  9
$PUCSORGBOTTOM
 10
0.0
 20
0.0
 30
0.0
  9
$PUCSORGLEFT
 10
0.0
 20
0.0
 30
0.0
  9
$PUCSORGRIGHT
 10
0.0
 20
0.0
 30
0.0
  9
$PUCSORGFRONT
 10
0.0
 20
0.0
 30
0.0
  9
$PUCSORGBACK
 10
0.0
 20
0.0
 30
0.0
  9
$USERI1
 70
     0
  9
$USERI2
 70
     0
  9
$USERI3
 70
     0
  9
$USERI4
 70
     0
  9
$USERI5
 70
     0
  9
$USERR1
 40
0.0
  9
$USERR2
 40
0.0
  9
$USERR3
 40
0.0
  9
$USERR4
 40
0.0
  9
$USERR5
 40
0.0
  9
$WORLDVIEW
 70
     1
  9
$SHADEDGE
 70
     3
  9
$SHADEDIF
 70
    70
  9
$TILEMODE
 70
     1
  9
$MAXACTVP
 70
    48
  9
$PINSBASE
 10
0.0
 20
0.0
 30
0.0
  9
$PLIMCHECK
 70
     0
  9
$PEXTMIN
 10
0.0
 20
0.0
 30
0.0
  9
$PEXTMAX
 10
1189.0
 20
841.0
 30
2.0
  9
$PLIMMIN
 10
0.0
 20
0.0
  9
$PLIMMAX
 10
420.0
 20
297.0
  9
$UNITMODE
 70
     0
  9
$VISRETAIN
 70
     0
  9
$PLINEGEN
 70
     0
  9
$PSLTSCALE
 70
     1
  9
$TREEDEPTH
 70
  3020
  9
$CMLSTYLE
  2
Standard
  9
$CMLJUST
 70
     0
  9
$CMLSCALE
 40
20.0
  9
$PROXYGRAPHICS
 70
     1
  9
$MEASUREMENT
 70
     1
  9
$CELWEIGHT
370
    40
  9
$ENDCAPS
280
     0
  9
$JOINSTYLE
280
     0
  9
$LWDISPLAY
290
     0
  9
$INSUNITS
 70
     0
  9
$HYPERLINKBASE
  1

  9
$STYLESHEET
  1

  9
$XEDIT
290
     1
  9
$CEPSNTYPE
380
     0
  9
$PSTYLEMODE
290
     0
  9
$FINGERPRINTGUID
  2

  9
$VERSIONGUID
  2

  9
$EXTNAMES
290
     0
  9
$PSVPSCALE
 40
0.0
  9
$OLESTARTUP
290
     0
  0
ENDSEC
  0
SECTION
  2
CLASSES
  0
CLASS
  1
ACDBDICTIONARYWDFLT
  2
AcDbDictionaryWithDefault
  3
ObjectDBX Classes
 90
        0
280
     0
281
     0
  0
CLASS
  1
ACDBPLACEHOLDER
  2
AcDbPlaceHolder
  3
ObjectDBX Classes
 90
        0
280
     0
281
     0
  0
CLASS
  1
LAYOUT
  2
AcDbLayout
  3
ObjectDBX Classes
 90
        0
280
     0
281
     0
  0
CLASS
  1
DICTIONARYVAR
  2
AcDbDictionaryVar
  3
ObjectDBX Classes
 90
        0
280
     0
281
     0
  0
CLASS
  1
TABLESTYLE
  2
AcDbTableStyle
  3
ObjectDBX Classes
 90
     4095
280
     0
281
     0
  0
CLASS
  1
SCALE
  2
AcDbScale
  3
ObjectDBX Classes
 90
     1153
280
     0
281
     0
  0
CLASS
  1
WIPEOUTVARIABLES
  2
AcDbWipeoutVariables
  3
WipeOut|AutoCAD Express Tool|expresstools@autodesk.com
 90
        0
280
     0
281
     0
  0
ENDSEC
  0
SECTION
  2
TABLES
  0
TABLE
  2
VPORT
  5
8
330
0
100
AcDbSymbolTable
 70
     2
  0
VPORT
  5
97
330
8
100
AcDbSymbolTableRecord
100
AcDbViewportTableRecord
  2
*ACTIVE
 70
     0
 10
0.0
 20
0.0
 11
1.0
 21
1.0
 12
471.3383262780669
 22
381.2992607081823
 13
0.0
 23
0.0
 14
1.0
 24
1.0
 15
0.5
 25
0.5
 16
0.0
 26
0.0
 36
1.0
 17
0.0
 27
0.0
 37
0.0
 40
1048.451126201194
 41
0.688564
 42
50.0
 43
0.0
 44
0.0
 50
0.0
 51
0.0
 71
     0
 72
   100
 73
     1
 74
     1
 75
     0
 76
     0
 77
     0
 78
     0
281
     0
 65
     1
110
0.0
120
0.0
130
0.0
111
1.0
121
0.0
131
0.0
112
0.0
122
1.0
132
0.0
 79
     0
146
0.0
  0
ENDTAB
  0
TABLE
  2
LTYPE
  5
5
330
0
100
AcDbSymbolTable
 70
     1
  0
LTYPE
  5
14
330
5
100
AcDbSymbolTableRecord
100
AcDbLinetypeTableRecord
  2
ByBlock
 70
     0
  3

 72
    65
 73
     0
 40
0.0
  0
LTYPE
  5
15
330
5
100
AcDbSymbolTableRecord
100
AcDbLinetypeTableRecord
  2
ByLayer
 70
     0
  3

 72
    65
 73
     0
 40
0.0
  0
LTYPE
  5
16
330
5
100
AcDbSymbolTableRecord
100
AcDbLinetypeTableRecord
  2
Continuous
 70
     0
  3
Solid line
 72
    65
 73
     0
 40
0.0
  0
ENDTAB
  0
TABLE
  2
LAYER
  5
2
330
0
100
AcDbSymbolTable
 70
     2
  0
LAYER
  5
10
330
2
100
AcDbSymbolTableRecord
100
AcDbLayerTableRecord
  2
0
 70
     0
 62
     7
  6
Continuous
370
    13
390
F
  0
LAYER
  5
27C
330
2
100
AcDbSymbolTableRecord
100
AcDbLayerTableRecord
  2
DEFPOINTS
 70
     0
 62
     7
  6
Continuous
290
     0
370
    -3
390
F
  0
ENDTAB
  0
TABLE
  2
STYLE
  5
3
330
0
100
AcDbSymbolTable
 70
     2
  0
STYLE
  5
11
330
3
100
AcDbSymbolTableRecord
100
AcDbTextStyleTableRecord
  2
Standard
 70
     0
 40
0.0
 41
1.0
 50
0.0
 71
     0
 42
0.2
  3
isocp.shx
  4

  0
STYLE
  5
24
330
3
100
AcDbSymbolTableRecord
100
AcDbTextStyleTableRecord
  2
GDT
 70
     0
 40
0.0
 41
1.0
 50
0.0
 71
     0
 42
0.2
  3
gdt.shx
  4

  0
ENDTAB
  0
TABLE
  2
VIEW
  5
6
330
0
100
AcDbSymbolTable
 70
     0
  0
ENDTAB
  0
TABLE
  2
UCS
  5
7
330
0
100
AcDbSymbolTable
 70
     0
  0
ENDTAB
  0
TABLE
  2
APPID
  5
9
330
0
100
AcDbSymbolTable
 70
     2
  0
APPID
  5
12
330
9
100
AcDbSymbolTableRecord
100
AcDbRegAppTableRecord
  2
ACAD
 70
     0
  0
APPID
  5
2CF
330
9
100
AcDbSymbolTableRecord
100
AcDbRegAppTableRecord
  2
Conv5506CA
 70
     0
  0
ENDTAB
  0
TABLE
  2
DIMSTYLE
  5
A
330
0
100
AcDbSymbolTable
 70
     1
100
AcDbDimStyleTable
  0
DIMSTYLE
105
27
102
{ACAD_REACTORS
330
27D
330
294
330
2AB
102
}
330
A
100
AcDbSymbolTableRecord
100
AcDbDimStyleTableRecord
  2
Standard
 70
     0
 41
2.5
 42
0.625
 43
3.75
 44
1.25
 73
     0
 74
     0
 77
     1
 78
     8
140
2.5
141
2.5
143
0.03937
147
0.625
171
     3
172
     1
271
     2
272
     2
274
     3
278
    44
283
     0
284
     8
289
     0
340
11
  0
ENDTAB
  0
TABLE
  2
BLOCK_RECORD
  5
1
330
0
100
AcDbSymbolTable
 70
    67
  0
BLOCK_RECORD
  5
1F
330
1
100
AcDbSymbolTableRecord
100
AcDbBlockTableRecord
  2
*Model_Space
340
22
  0
BLOCK_RECORD
  5
73
330
1
100
AcDbSymbolTableRecord
100
AcDbBlockTableRecord
  2
*Paper_Space
340
74
  0
BLOCK_RECORD
  5
79
330
1
100
AcDbSymbolTableRecord
100
AcDbBlockTableRecord
  2
BLOCK61
340
0
  0
BLOCK_RECORD
  5
7A
330
1
100
AcDbSymbolTableRecord
100
AcDbBlockTableRecord
  2
BLOCK62
340
0
  0
BLOCK_RECORD
  5
7B
330
1
100
AcDbSymbolTableRecord
100
AcDbBlockTableRecord
  2
BLOCK63
340
0
  0
BLOCK_RECORD
  5
7C
330
1
100
AcDbSymbolTableRecord
100
AcDbBlockTableRecord
  2
BLOCK64
340
0
  0
BLOCK_RECORD
  5
7D
330
1
100
AcDbSymbolTableRecord
100
AcDbBlockTableRecord
  2
BLOCK65
340
0
  0
BLOCK_RECORD
  5
7E
330
1
100
AcDbSymbolTableRecord
100
AcDbBlockTableRecord
  2
BLOCK66
340
0
  0
BLOCK_RECORD
  5
7F
330
1
100
AcDbSymbolTableRecord
100
AcDbBlockTableRecord
  2
BLOCK67
340
0
  0
BLOCK_RECORD
  5
80
330
1
100
AcDbSymbolTableRecord
100
AcDbBlockTableRecord
  2
BLOCK68
340
0
  0
BLOCK_RECORD
  5
81
330
1
100
AcDbSymbolTableRecord
100
AcDbBlockTableRecord
  2
BLOCK69
340
0
  0
BLOCK_RECORD
  5
82
330
1
100
AcDbSymbolTableRecord
100
AcDbBlockTableRecord
  2
BLOCK70
340
0
  0
BLOCK_RECORD
  5
83
330
1
100
AcDbSymbolTableRecord
100
AcDbBlockTableRecord
  2
BLOCK71
340
0
  0
BLOCK_RECORD
  5
84
330
1
100
AcDbSymbolTableRecord
100
AcDbBlockTableRecord
  2
BLOCK72
340
0
  0
BLOCK_RECORD
  5
85
330
1
100
AcDbSymbolTableRecord
100
AcDbBlockTableRecord
  2
BLOCK73
340
0
  0
BLOCK_RECORD
  5
86
330
1
100
AcDbSymbolTableRecord
100
AcDbBlockTableRecord
  2
BLOCK74
340
0
  0
BLOCK_RECORD
  5
87
330
1
100
AcDbSymbolTableRecord
100
AcDbBlockTableRecord
  2
BLOCK75
340
0
  0
BLOCK_RECORD
  5
88
330
1
100
AcDbSymbolTableRecord
100
AcDbBlockTableRecord
  2
BLOCK76
340
0
  0
BLOCK_RECORD
  5
89
330
1
100
AcDbSymbolTableRecord
100
AcDbBlockTableRecord
  2
BLOCK77
340
0
  0
BLOCK_RECORD
  5
8A
330
1
100
AcDbSymbolTableRecord
100
AcDbBlockTableRecord
  2
BLOCK78
340
0
  0
BLOCK_RECORD
  5
8B
330
1
100
AcDbSymbolTableRecord
100
AcDbBlockTableRecord
  2
BLOCK79
340
0
  0
BLOCK_RECORD
  5
8C
330
1
100
AcDbSymbolTableRecord
100
AcDbBlockTableRecord
  2
BLOCK80
340
0
  0
BLOCK_RECORD
  5
8D
330
1
100
AcDbSymbolTableRecord
100
AcDbBlockTableRecord
  2
BLOCK81
340
0
  0
BLOCK_RECORD
  5
8E
330
1
100
AcDbSymbolTableRecord
100
AcDbBlockTableRecord
  2
BLOCK82
340
0
  0
BLOCK_RECORD
  5
8F
330
1
100
AcDbSymbolTableRecord
100
AcDbBlockTableRecord
  2
BLOCK83
340
0
  0
BLOCK_RECORD
  5
90
330
1
100
AcDbSymbolTableRecord
100
AcDbBlockTableRecord
  2
BLOCK84
340
0
  0
BLOCK_RECORD
  5
91
330
1
100
AcDbSymbolTableRecord
100
AcDbBlockTableRecord
  2
BLOCK85
340
0
  0
BLOCK_RECORD
  5
303
330
1
100
AcDbSymbolTableRecord
100
AcDbBlockTableRecord
  2
BLOCK86
340
0
  0
BLOCK_RECORD
  5
306
330
1
100
AcDbSymbolTableRecord
100
AcDbBlockTableRecord
  2
BLOCK87
340
0
  0
BLOCK_RECORD
  5
94
330
1
100
AcDbSymbolTableRecord
100
AcDbBlockTableRecord
  2
BLOCK88
340
0
  0
BLOCK_RECORD
  5
95
330
1
100
AcDbSymbolTableRecord
100
AcDbBlockTableRecord
  2
BLOCK89
340
0
  0
BLOCK_RECORD
  5
96
330
1
100
AcDbSymbolTableRecord
100
AcDbBlockTableRecord
  2
BLOCK90
340
0
  0
BLOCK_RECORD
  5
30F
330
1
100
AcDbSymbolTableRecord
100
AcDbBlockTableRecord
  2
BLOCK91
340
0
  0
BLOCK_RECORD
  5
312
330
1
100
AcDbSymbolTableRecord
100
AcDbBlockTableRecord
  2
BLOCK92
340
0
  0
BLOCK_RECORD
  5
315
330
1
100
AcDbSymbolTableRecord
100
AcDbBlockTableRecord
  2
BLOCK93
340
0
  0
BLOCK_RECORD
  5
318
330
1
100
AcDbSymbolTableRecord
100
AcDbBlockTableRecord
  2
BLOCK94
340
0
  0
BLOCK_RECORD
  5
31B
330
1
100
AcDbSymbolTableRecord
100
AcDbBlockTableRecord
  2
BLOCK95
340
0
  0
BLOCK_RECORD
  5
31E
330
1
100
AcDbSymbolTableRecord
100
AcDbBlockTableRecord
  2
BLOCK96
340
0
  0
BLOCK_RECORD
  5
321
330
1
100
AcDbSymbolTableRecord
100
AcDbBlockTableRecord
  2
BLOCK97
340
0
  0
BLOCK_RECORD
  5
324
330
1
100
AcDbSymbolTableRecord
100
AcDbBlockTableRecord
  2
BLOCK98
340
0
  0
BLOCK_RECORD
  5
327
330
1
100
AcDbSymbolTableRecord
100
AcDbBlockTableRecord
  2
BLOCK99
340
0
  0
BLOCK_RECORD
  5
32A
330
1
100
AcDbSymbolTableRecord
100
AcDbBlockTableRecord
  2
BLOCK100
340
0
  0
BLOCK_RECORD
  5
32D
330
1
100
AcDbSymbolTableRecord
100
AcDbBlockTableRecord
  2
BLOCK101
340
0
  0
BLOCK_RECORD
  5
330
330
1
100
AcDbSymbolTableRecord
100
AcDbBlockTableRecord
  2
BLOCK102
340
0
  0
BLOCK_RECORD
  5
333
330
1
100
AcDbSymbolTableRecord
100
AcDbBlockTableRecord
  2
BLOCK103
340
0
  0
BLOCK_RECORD
  5
336
330
1
100
AcDbSymbolTableRecord
100
AcDbBlockTableRecord
  2
BLOCK104
340
0
  0
BLOCK_RECORD
  5
339
330
1
100
AcDbSymbolTableRecord
100
AcDbBlockTableRecord
  2
BLOCK105
340
0
  0
BLOCK_RECORD
  5
33C
330
1
100
AcDbSymbolTableRecord
100
AcDbBlockTableRecord
  2
BLOCK106
340
0
  0
BLOCK_RECORD
  5
33F
330
1
100
AcDbSymbolTableRecord
100
AcDbBlockTableRecord
  2
BLOCK107
340
0
  0
BLOCK_RECORD
  5
342
330
1
100
AcDbSymbolTableRecord
100
AcDbBlockTableRecord
  2
BLOCK108
340
0
  0
BLOCK_RECORD
  5
345
330
1
100
AcDbSymbolTableRecord
100
AcDbBlockTableRecord
  2
BLOCK109
340
0
  0
BLOCK_RECORD
  5
348
330
1
100
AcDbSymbolTableRecord
100
AcDbBlockTableRecord
  2
BLOCK110
340
0
  0
BLOCK_RECORD
  5
34B
330
1
100
AcDbSymbolTableRecord
100
AcDbBlockTableRecord
  2
BLOCK111
340
0
  0
BLOCK_RECORD
  5
34E
330
1
100
AcDbSymbolTableRecord
100
AcDbBlockTableRecord
  2
BLOCK112
340
0
  0
BLOCK_RECORD
  5
351
330
1
100
AcDbSymbolTableRecord
100
AcDbBlockTableRecord
  2
BLOCK113
340
0
  0
BLOCK_RECORD
  5
354
330
1
100
AcDbSymbolTableRecord
100
AcDbBlockTableRecord
  2
BLOCK114
340
0
  0
BLOCK_RECORD
  5
357
330
1
100
AcDbSymbolTableRecord
100
AcDbBlockTableRecord
  2
BLOCK115
340
0
  0
BLOCK_RECORD
  5
35A
330
1
100
AcDbSymbolTableRecord
100
AcDbBlockTableRecord
  2
BLOCK116
340
0
  0
BLOCK_RECORD
  5
35D
330
1
100
AcDbSymbolTableRecord
100
AcDbBlockTableRecord
  2
BLOCK117
340
0
  0
BLOCK_RECORD
  5
360
330
1
100
AcDbSymbolTableRecord
100
AcDbBlockTableRecord
  2
BLOCK118
340
0
102
{BLKREFS
331
228
102
}
  0
BLOCK_RECORD
  5
363
330
1
100
AcDbSymbolTableRecord
100
AcDbBlockTableRecord
  2
BLOCK119
340
0
  0
BLOCK_RECORD
  5
366
330
1
100
AcDbSymbolTableRecord
100
AcDbBlockTableRecord
  2
BLOCK120
340
0
  0
BLOCK_RECORD
  5
288
330
1
100
AcDbSymbolTableRecord
100
AcDbBlockTableRecord
  2
*D60
340
0
  0
BLOCK_RECORD
  5
293
330
1
100
AcDbSymbolTableRecord
100
AcDbBlockTableRecord
  2
*D61
340
0
  0
BLOCK_RECORD
  5
29F
330
1
100
AcDbSymbolTableRecord
100
AcDbBlockTableRecord
  2
*D62
340
0
  0
BLOCK_RECORD
  5
2AA
330
1
100
AcDbSymbolTableRecord
100
AcDbBlockTableRecord
  2
*D63
340
0
  0
BLOCK_RECORD
  5
2B6
330
1
100
AcDbSymbolTableRecord
100
AcDbBlockTableRecord
  2
*D64
340
0
  0
BLOCK_RECORD
  5
2C2
330
1
100
AcDbSymbolTableRecord
100
AcDbBlockTableRecord
  2
*D65
340
0
  0
BLOCK_RECORD
  5
2CD
330
1
100
AcDbSymbolTableRecord
100
AcDbBlockTableRecord
  2
*D66
340
0
  0
ENDTAB
  0
ENDSEC
  0
SECTION
  2
BLOCKS
  0
BLOCK
  5
20
330
1F
100
AcDbEntity
  8
0
100
AcDbBlockBegin
  2
*Model_Space
 70
     0
 10
0.0
 20
0.0
 30
0.0
  3
*Model_Space
  1

  0
ENDBLK
  5
21
330
1F
100
AcDbEntity
  8
0
100
AcDbBlockEnd
  0
BLOCK
  5
75
330
73
100
AcDbEntity
 67
     1
  8
0
100
AcDbBlockBegin
  2
*Paper_Space
 70
     0
 10
0.0
 20
0.0
 30
0.0
  3
*Paper_Space
  1

  0
ENDBLK
  5
76
330
73
100
AcDbEntity
 67
     1
  8
0
100
AcDbBlockEnd
  0
BLOCK
  5
2D1
330
79
100
AcDbEntity
  8
0
100
AcDbBlockBegin
  2
BLOCK61
 70
     0
 10
0.0
 20
0.0
 30
0.0
  3
BLOCK61
  1

  0
TEXT
  5
377
330
79
100
AcDbEntity
  8
0
 62
     7
370
    13
390
F
100
AcDbText
 10
16.632565
 20
49.766666
 30
0.0
 40
2.0
  1
L
 41
1.577154545454546
 72
     5
 11
18.367435
 21
49.766666
 31
0.0
100
AcDbText
  0
ENDBLK
  5
2D2
330
79
100
AcDbEntity
  8
0
100
AcDbBlockEnd
  0
BLOCK
  5
2D3
330
7A
100
AcDbEntity
  8
0
100
AcDbBlockBegin
  2
BLOCK62
 70
     0
 10
0.0
 20
0.0
 30
0.0
  3
BLOCK62
  1

  0
TEXT
  5
378
330
7A
100
AcDbEntity
  8
0
 62
     7
370
    70
390
F
100
AcDbText
 10
16.766666
 20
131.666672
 30
0.0
 40
2.0
  1
I
 41
4.888893333333328
 72
     5
 11
18.233334
 21
131.666672
 31
0.0
100
AcDbText
  0
ENDBLK
  5
2D4
330
7A
100
AcDbEntity
  8
0
100
AcDbBlockEnd
  0
BLOCK
  5
2D5
330
7B
100
AcDbEntity
  8
0
100
AcDbBlockBegin
  2
BLOCK63
 70
     0
 10
0.0
 20
0.0
 30
0.0
  3
BLOCK63
  1

  0
TEXT
  5
BC
330
7B
100
AcDbEntity
  8
0
 62
     7
370
    13
390
F
100
AcDbText
 10
16.632565
 20
213.566666
 30
0.0
 40
2.0
  1
H
 41
1.334515384615385
 72
     5
 11
18.367435
 21
213.566666
 31
0.0
100
AcDbText
  0
ENDBLK
  5
2D6
330
7B
100
AcDbEntity
  8
0
100
AcDbBlockEnd
  0
BLOCK
  5
2D7
330
7C
100
AcDbEntity
  8
0
100
AcDbBlockBegin
  2
BLOCK64
 70
     0
 10
0.0
 20
0.0
 30
0.0
  3
BLOCK64
  1

  0
TEXT
  5
BF
330
7C
100
AcDbEntity
  8
0
 62
     7
370
    13
390
F
100
AcDbText
 10
16.632565
 20
295.466675
 30
0.0
 40
2.0
  1
G
 41
1.334515384615385
 72
     5
 11
18.367435
 21
295.466675
 31
0.0
100
AcDbText
  0
ENDBLK
  5
2D8
330
7C
100
AcDbEntity
  8
0
100
AcDbBlockEnd
  0
BLOCK
  5
2D9
330
7D
100
AcDbEntity
  8
0
100
AcDbBlockBegin
  2
BLOCK65
 70
     0
 10
0.0
 20
0.0
 30
0.0
  3
BLOCK65
  1

  0
TEXT
  5
C2
330
7D
100
AcDbEntity
  8
0
 62
     7
370
    13
390
F
100
AcDbText
 10
16.632565
 20
377.366669
 30
0.0
 40
2.0
  1
F
 41
1.577154545454546
 72
     5
 11
18.367435
 21
377.366669
 31
0.0
100
AcDbText
  0
ENDBLK
  5
2DA
330
7D
100
AcDbEntity
  8
0
100
AcDbBlockEnd
  0
BLOCK
  5
2DB
330
7E
100
AcDbEntity
  8
0
100
AcDbBlockBegin
  2
BLOCK66
 70
     0
 10
0.0
 20
0.0
 30
0.0
  3
BLOCK66
  1

  0
TEXT
  5
C5
330
7E
100
AcDbEntity
  8
0
 62
     7
370
    13
390
F
100
AcDbText
 10
16.632565
 20
459.266663
 30
0.0
 40
2.0
  1
E
 41
1.577154545454546
 72
     5
 11
18.367435
 21
459.266663
 31
0.0
100
AcDbText
  0
ENDBLK
  5
2DC
330
7E
100
AcDbEntity
  8
0
100
AcDbBlockEnd
  0
BLOCK
  5
2DD
330
7F
100
AcDbEntity
  8
0
100
AcDbBlockBegin
  2
BLOCK67
 70
     0
 10
0.0
 20
0.0
 30
0.0
  3
BLOCK67
  1

  0
TEXT
  5
C8
330
7F
100
AcDbEntity
  8
0
 62
     7
370
    13
390
F
100
AcDbText
 10
16.632565
 20
541.166687
 30
0.0
 40
2.0
  1
D
 41
1.334515384615385
 72
     5
 11
18.367435
 21
541.166687
 31
0.0
100
AcDbText
  0
ENDBLK
  5
2DE
330
7F
100
AcDbEntity
  8
0
100
AcDbBlockEnd
  0
BLOCK
  5
2DF
330
80
100
AcDbEntity
  8
0
100
AcDbBlockBegin
  2
BLOCK68
 70
     0
 10
0.0
 20
0.0
 30
0.0
  3
BLOCK68
  1

  0
TEXT
  5
CB
330
80
100
AcDbEntity
  8
0
 62
     7
370
    13
390
F
100
AcDbText
 10
16.632565
 20
623.06665
 30
0.0
 40
2.0
  1
C
 41
1.577154545454546
 72
     5
 11
18.367435
 21
623.06665
 31
0.0
100
AcDbText
  0
ENDBLK
  5
2E0
330
80
100
AcDbEntity
  8
0
100
AcDbBlockEnd
  0
BLOCK
  5
2E1
330
81
100
AcDbEntity
  8
0
100
AcDbBlockBegin
  2
BLOCK69
 70
     0
 10
0.0
 20
0.0
 30
0.0
  3
BLOCK69
  1

  0
TEXT
  5
CE
330
81
100
AcDbEntity
  8
0
 62
     7
370
    13
390
F
100
AcDbText
 10
16.632565
 20
704.966675
 30
0.0
 40
2.0
  1
B
 41
1.334515384615385
 72
     5
 11
18.367435
 21
704.966675
 31
0.0
100
AcDbText
  0
ENDBLK
  5
2E2
330
81
100
AcDbEntity
  8
0
100
AcDbBlockEnd
  0
BLOCK
  5
2E3
330
82
100
AcDbEntity
  8
0
100
AcDbBlockBegin
  2
BLOCK70
 70
     0
 10
0.0
 20
0.0
 30
0.0
  3
BLOCK70
  1

  0
TEXT
  5
D1
330
82
100
AcDbEntity
  8
0
 62
     7
370
    13
390
F
100
AcDbText
 10
16.632565
 20
786.866638
 30
0.0
 40
2.0
  1
A
 41
1.156580000000001
 72
     5
 11
18.367435
 21
786.866638
 31
0.0
100
AcDbText
  0
ENDBLK
  5
2E4
330
82
100
AcDbEntity
  8
0
100
AcDbBlockEnd
  0
BLOCK
  5
2E5
330
83
100
AcDbEntity
  8
0
100
AcDbBlockBegin
  2
BLOCK71
 70
     0
 10
0.0
 20
0.0
 30
0.0
  3
BLOCK71
  1

  0
TEXT
  5
D4
330
83
100
AcDbEntity
  8
0
 62
     7
370
    13
390
F
100
AcDbText
 10
55.309486
 20
830.5
 30
0.0
 40
2.0
  1
1
 41
2.47838714285714
 72
     5
 11
57.044357
 21
830.5
 31
0.0
100
AcDbText
  0
ENDBLK
  5
2E6
330
83
100
AcDbEntity
  8
0
100
AcDbBlockEnd
  0
BLOCK
  5
2E7
330
84
100
AcDbEntity
  8
0
100
AcDbBlockBegin
  2
BLOCK72
 70
     0
 10
0.0
 20
0.0
 30
0.0
  3
BLOCK72
  1

  0
TEXT
  5
D7
330
84
100
AcDbEntity
  8
0
 62
     7
370
    13
390
F
100
AcDbText
 10
127.746994
 20
830.5
 30
0.0
 40
2.0
  1
2
 41
1.576514355514555
 72
     5
 11
129.481857
 21
830.5
 31
0.0
100
AcDbText
  0
ENDBLK
  5
2E8
330
84
100
AcDbEntity
  8
0
100
AcDbBlockEnd
  0
BLOCK
  5
2E9
330
85
100
AcDbEntity
  8
0
100
AcDbBlockBegin
  2
BLOCK73
 70
     0
 10
0.0
 20
0.0
 30
0.0
  3
BLOCK73
  1

  0
TEXT
  5
DA
330
85
100
AcDbEntity
  8
0
 62
     7
370
    13
390
F
100
AcDbText
 10
200.184494
 20
830.5
 30
0.0
 40
2.0
  1
3
 41
1.577148181818173
 72
     5
 11
201.919357
 21
830.5
 31
0.0
100
AcDbText
  0
ENDBLK
  5
2EA
330
85
100
AcDbEntity
  8
0
100
AcDbBlockEnd
  0
BLOCK
  5
2EB
330
86
100
AcDbEntity
  8
0
100
AcDbBlockBegin
  2
BLOCK74
 70
     0
 10
0.0
 20
0.0
 30
0.0
  3
BLOCK74
  1

  0
TEXT
  5
DD
330
86
100
AcDbEntity
  8
0
 62
     7
370
    13
390
F
100
AcDbText
 10
272.621979
 20
830.5
 30
0.0
 40
2.0
  1
4
 41
1.33450999999997
 72
     5
 11
274.356842
 21
830.5
 31
0.0
100
AcDbText
  0
ENDBLK
  5
2EC
330
86
100
AcDbEntity
  8
0
100
AcDbBlockEnd
  0
BLOCK
  5
2ED
330
87
100
AcDbEntity
  8
0
100
AcDbBlockBegin
  2
BLOCK75
 70
     0
 10
0.0
 20
0.0
 30
0.0
  3
BLOCK75
  1

  0
TEXT
  5
E0
330
87
100
AcDbEntity
  8
0
 62
     7
370
    13
390
F
100
AcDbText
 10
345.059479
 20
830.5
 30
0.0
 40
2.0
  1
5
 41
1.577148181818147
 72
     5
 11
346.794342
 21
830.5
 31
0.0
100
AcDbText
  0
ENDBLK
  5
2EE
330
87
100
AcDbEntity
  8
0
100
AcDbBlockEnd
  0
BLOCK
  5
2EF
330
88
100
AcDbEntity
  8
0
100
AcDbBlockBegin
  2
BLOCK76
 70
     0
 10
0.0
 20
0.0
 30
0.0
  3
BLOCK76
  1

  0
TEXT
  5
E3
330
88
100
AcDbEntity
  8
0
 62
     7
370
    13
390
F
100
AcDbText
 10
417.496979
 20
830.5
 30
0.0
 40
2.0
  1
6
 41
1.577148181818147
 72
     5
 11
419.231842
 21
830.5
 31
0.0
100
AcDbText
  0
ENDBLK
  5
2F0
330
88
100
AcDbEntity
  8
0
100
AcDbBlockEnd
  0
BLOCK
  5
2F1
330
89
100
AcDbEntity
  8
0
100
AcDbBlockBegin
  2
BLOCK77
 70
     0
 10
0.0
 20
0.0
 30
0.0
  3
BLOCK77
  1

  0
TEXT
  5
E6
330
89
100
AcDbEntity
  8
0
 62
     7
370
    13
390
F
100
AcDbText
 10
489.934479
 20
830.5
 30
0.0
 40
2.0
  1
7
 41
1.577148181818147
 72
     5
 11
491.669342
 21
830.5
 31
0.0
100
AcDbText
  0
ENDBLK
  5
2F2
330
89
100
AcDbEntity
  8
0
100
AcDbBlockEnd
  0
BLOCK
  5
2F3
330
8A
100
AcDbEntity
  8
0
100
AcDbBlockBegin
  2
BLOCK78
 70
     0
 10
0.0
 20
0.0
 30
0.0
  3
BLOCK78
  1

  0
TEXT
  5
E9
330
8A
100
AcDbEntity
  8
0
 62
     7
370
    13
390
F
100
AcDbText
 10
562.372009
 20
830.5
 30
0.0
 40
2.0
  1
8
 41
1.577866302864849
 72
     5
 11
564.106873
 21
830.5
 31
0.0
100
AcDbText
  0
ENDBLK
  5
2F4
330
8A
100
AcDbEntity
  8
0
100
AcDbBlockEnd
  0
BLOCK
  5
2F5
330
8B
100
AcDbEntity
  8
0
100
AcDbBlockBegin
  2
BLOCK79
 70
     0
 10
0.0
 20
0.0
 30
0.0
  3
BLOCK79
  1

  0
TEXT
  5
EC
330
8B
100
AcDbEntity
  8
0
 62
     7
370
    13
390
F
100
AcDbText
 10
634.809509
 20
830.5
 30
0.0
 40
2.0
  1
9
 41
1.567192204525961
 72
     5
 11
636.544373
 21
830.5
 31
0.0
100
AcDbText
  0
ENDBLK
  5
2F6
330
8B
100
AcDbEntity
  8
0
100
AcDbBlockEnd
  0
BLOCK
  5
2F7
330
8C
100
AcDbEntity
  8
0
100
AcDbBlockBegin
  2
BLOCK80
 70
     0
 10
0.0
 20
0.0
 30
0.0
  3
BLOCK80
  1

  0
TEXT
  5
EF
330
8C
100
AcDbEntity
  8
0
 62
     7
370
    13
390
F
100
AcDbText
 10
706.179565
 20
830.5
 30
0.0
 40
2.0
  1
10
 41
1.841357725739954
 72
     5
 11
710.049316
 21
830.5
 31
0.0
100
AcDbText
  0
ENDBLK
  5
2F8
330
8C
100
AcDbEntity
  8
0
100
AcDbBlockEnd
  0
BLOCK
  5
2F9
330
8D
100
AcDbEntity
  8
0
100
AcDbBlockBegin
  2
BLOCK81
 70
     0
 10
0.0
 20
0.0
 30
0.0
  3
BLOCK81
  1

  0
TEXT
  5
F2
330
8D
100
AcDbEntity
  8
0
 62
     7
370
    13
390
F
100
AcDbText
 10
778.617065
 20
830.5
 30
0.0
 40
2.0
  1
11
 41
2.27632411764703
 72
     5
 11
782.486816
 21
830.5
 31
0.0
100
AcDbText
  0
ENDBLK
  5
2FA
330
8D
100
AcDbEntity
  8
0
100
AcDbBlockEnd
  0
BLOCK
  5
2FB
330
8E
100
AcDbEntity
  8
0
100
AcDbBlockBegin
  2
BLOCK82
 70
     0
 10
0.0
 20
0.0
 30
0.0
  3
BLOCK82
  1

  0
TEXT
  5
F5
330
8E
100
AcDbEntity
  8
0
 62
     7
370
    13
390
F
100
AcDbText
 10
851.054565
 20
830.5
 30
0.0
 40
2.0
  1
12
 41
1.84235058369503
 72
     5
 11
854.924316
 21
830.5
 31
0.0
100
AcDbText
  0
ENDBLK
  5
2FC
330
8E
100
AcDbEntity
  8
0
100
AcDbBlockEnd
  0
BLOCK
  5
2FD
330
8F
100
AcDbEntity
  8
0
100
AcDbBlockBegin
  2
BLOCK83
 70
     0
 10
0.0
 20
0.0
 30
0.0
  3
BLOCK83
  1

  0
TEXT
  5
F8
330
8F
100
AcDbEntity
  8
0
 62
     7
370
    13
390
F
100
AcDbText
 10
923.492065
 20
830.5
 30
0.0
 40
2.0
  1
13
 41
1.842738571428548
 72
     5
 11
927.361816
 21
830.5
 31
0.0
100
AcDbText
  0
ENDBLK
  5
2FE
330
8F
100
AcDbEntity
  8
0
100
AcDbBlockEnd
  0
BLOCK
  5
2FF
330
90
100
AcDbEntity
  8
0
100
AcDbBlockBegin
  2
BLOCK84
 70
     0
 10
0.0
 20
0.0
 30
0.0
  3
BLOCK84
  1

  0
TEXT
  5
FB
330
90
100
AcDbEntity
  8
0
 62
     7
370
    13
390
F
100
AcDbText
 10
995.929565
 20
830.5
 30
0.0
 40
2.0
  1
14
 41
1.682500434782587
 72
     5
 11
999.799316
 21
830.5
 31
0.0
100
AcDbText
  0
ENDBLK
  5
300
330
90
100
AcDbEntity
  8
0
100
AcDbBlockEnd
  0
BLOCK
  5
301
330
91
100
AcDbEntity
  8
0
100
AcDbBlockBegin
  2
BLOCK85
 70
     0
 10
0.0
 20
0.0
 30
0.0
  3
BLOCK85
  1

  0
TEXT
  5
FE
330
91
100
AcDbEntity
  8
0
 62
     7
370
    13
390
F
100
AcDbText
 10
1068.367065
 20
830.5
 30
0.0
 40
2.0
  1
15
 41
1.842738571428656
 72
     5
 11
1072.236816
 21
830.5
 31
0.0
100
AcDbText
  0
ENDBLK
  5
302
330
91
100
AcDbEntity
  8
0
100
AcDbBlockEnd
  0
BLOCK
  5
304
330
303
100
AcDbEntity
  8
0
100
AcDbBlockBegin
  2
BLOCK86
 70
     0
 10
0.0
 20
0.0
 30
0.0
  3
BLOCK86
  1

  0
TEXT
  5
101
330
303
100
AcDbEntity
  8
0
 62
     7
370
    13
390
F
100
AcDbText
 10
1140.804565
 20
830.5
 30
0.0
 40
2.0
  1
16
 41
1.842738571428656
 72
     5
 11
1144.674316
 21
830.5
 31
0.0
100
AcDbText
  0
ENDBLK
  5
305
330
303
100
AcDbEntity
  8
0
100
AcDbBlockEnd
  0
BLOCK
  5
307
330
306
100
AcDbEntity
  8
0
100
AcDbBlockBegin
  2
BLOCK87
 70
     0
 10
0.0
 20
0.0
 30
0.0
  3
BLOCK87
  1

  0
TEXT
  5
104
330
306
100
AcDbEntity
  8
0
 62
     7
370
    13
390
F
100
AcDbText
 10
1140.804565
 20
6.5
 30
0.0
 40
2.0
  1
16
 41
1.842738571428656
 72
     5
 11
1144.674316
 21
6.5
 31
0.0
100
AcDbText
  0
ENDBLK
  5
308
330
306
100
AcDbEntity
  8
0
100
AcDbBlockEnd
  0
BLOCK
  5
309
330
94
100
AcDbEntity
  8
0
100
AcDbBlockBegin
  2
BLOCK88
 70
     0
 10
0.0
 20
0.0
 30
0.0
  3
BLOCK88
  1

  0
TEXT
  5
107
330
94
100
AcDbEntity
  8
0
 62
     7
370
    13
390
F
100
AcDbText
 10
1068.367065
 20
6.5
 30
0.0
 40
2.0
  1
15
 41
1.842738571428656
 72
     5
 11
1072.236816
 21
6.5
 31
0.0
100
AcDbText
  0
ENDBLK
  5
30A
330
94
100
AcDbEntity
  8
0
100
AcDbBlockEnd
  0
BLOCK
  5
30B
330
95
100
AcDbEntity
  8
0
100
AcDbBlockBegin
  2
BLOCK89
 70
     0
 10
0.0
 20
0.0
 30
0.0
  3
BLOCK89
  1

  0
TEXT
  5
10A
330
95
100
AcDbEntity
  8
0
 62
     7
370
    13
390
F
100
AcDbText
 10
995.929565
 20
6.5
 30
0.0
 40
2.0
  1
14
 41
1.682500434782587
 72
     5
 11
999.799316
 21
6.5
 31
0.0
100
AcDbText
  0
ENDBLK
  5
30C
330
95
100
AcDbEntity
  8
0
100
AcDbBlockEnd
  0
BLOCK
  5
30D
330
96
100
AcDbEntity
  8
0
100
AcDbBlockBegin
  2
BLOCK90
 70
     0
 10
0.0
 20
0.0
 30
0.0
  3
BLOCK90
  1

  0
TEXT
  5
10D
330
96
100
AcDbEntity
  8
0
 62
     7
370
    13
390
F
100
AcDbText
 10
923.492065
 20
6.5
 30
0.0
 40
2.0
  1
13
 41
1.842738571428548
 72
     5
 11
927.361816
 21
6.5
 31
0.0
100
AcDbText
  0
ENDBLK
  5
30E
330
96
100
AcDbEntity
  8
0
100
AcDbBlockEnd
  0
BLOCK
  5
310
330
30F
100
AcDbEntity
  8
0
100
AcDbBlockBegin
  2
BLOCK91
 70
     0
 10
0.0
 20
0.0
 30
0.0
  3
BLOCK91
  1

  0
TEXT
  5
110
330
30F
100
AcDbEntity
  8
0
 62
     7
370
    13
390
F
100
AcDbText
 10
851.054565
 20
6.5
 30
0.0
 40
2.0
  1
12
 41
1.84235058369503
 72
     5
 11
854.924316
 21
6.5
 31
0.0
100
AcDbText
  0
ENDBLK
  5
311
330
30F
100
AcDbEntity
  8
0
100
AcDbBlockEnd
  0
BLOCK
  5
313
330
312
100
AcDbEntity
  8
0
100
AcDbBlockBegin
  2
BLOCK92
 70
     0
 10
0.0
 20
0.0
 30
0.0
  3
BLOCK92
  1

  0
TEXT
  5
113
330
312
100
AcDbEntity
  8
0
 62
     7
370
    13
390
F
100
AcDbText
 10
778.617065
 20
6.5
 30
0.0
 40
2.0
  1
11
 41
2.27632411764703
 72
     5
 11
782.486816
 21
6.5
 31
0.0
100
AcDbText
  0
ENDBLK
  5
314
330
312
100
AcDbEntity
  8
0
100
AcDbBlockEnd
  0
BLOCK
  5
316
330
315
100
AcDbEntity
  8
0
100
AcDbBlockBegin
  2
BLOCK93
 70
     0
 10
0.0
 20
0.0
 30
0.0
  3
BLOCK93
  1

  0
TEXT
  5
116
330
315
100
AcDbEntity
  8
0
 62
     7
370
    13
390
F
100
AcDbText
 10
706.179565
 20
6.5
 30
0.0
 40
2.0
  1
10
 41
1.841357725739954
 72
     5
 11
710.049316
 21
6.5
 31
0.0
100
AcDbText
  0
ENDBLK
  5
317
330
315
100
AcDbEntity
  8
0
100
AcDbBlockEnd
  0
BLOCK
  5
319
330
318
100
AcDbEntity
  8
0
100
AcDbBlockBegin
  2
BLOCK94
 70
     0
 10
0.0
 20
0.0
 30
0.0
  3
BLOCK94
  1

  0
TEXT
  5
119
330
318
100
AcDbEntity
  8
0
 62
     7
370
    13
390
F
100
AcDbText
 10
634.809509
 20
6.5
 30
0.0
 40
2.0
  1
9
 41
1.567192204525961
 72
     5
 11
636.544373
 21
6.5
 31
0.0
100
AcDbText
  0
ENDBLK
  5
31A
330
318
100
AcDbEntity
  8
0
100
AcDbBlockEnd
  0
BLOCK
  5
31C
330
31B
100
AcDbEntity
  8
0
100
AcDbBlockBegin
  2
BLOCK95
 70
     0
 10
0.0
 20
0.0
 30
0.0
  3
BLOCK95
  1

  0
TEXT
  5
11C
330
31B
100
AcDbEntity
  8
0
 62
     7
370
    13
390
F
100
AcDbText
 10
562.372009
 20
6.5
 30
0.0
 40
2.0
  1
8
 41
1.577866302864849
 72
     5
 11
564.106873
 21
6.5
 31
0.0
100
AcDbText
  0
ENDBLK
  5
31D
330
31B
100
AcDbEntity
  8
0
100
AcDbBlockEnd
  0
BLOCK
  5
31F
330
31E
100
AcDbEntity
  8
0
100
AcDbBlockBegin
  2
BLOCK96
 70
     0
 10
0.0
 20
0.0
 30
0.0
  3
BLOCK96
  1

  0
TEXT
  5
11F
330
31E
100
AcDbEntity
  8
0
 62
     7
370
    13
390
F
100
AcDbText
 10
489.934479
 20
6.5
 30
0.0
 40
2.0
  1
7
 41
1.577148181818147
 72
     5
 11
491.669342
 21
6.5
 31
0.0
100
AcDbText
  0
ENDBLK
  5
320
330
31E
100
AcDbEntity
  8
0
100
AcDbBlockEnd
  0
BLOCK
  5
322
330
321
100
AcDbEntity
  8
0
100
AcDbBlockBegin
  2
BLOCK97
 70
     0
 10
0.0
 20
0.0
 30
0.0
  3
BLOCK97
  1

  0
TEXT
  5
122
330
321
100
AcDbEntity
  8
0
 62
     7
370
    13
390
F
100
AcDbText
 10
417.496979
 20
6.5
 30
0.0
 40
2.0
  1
6
 41
1.577148181818147
 72
     5
 11
419.231842
 21
6.5
 31
0.0
100
AcDbText
  0
ENDBLK
  5
323
330
321
100
AcDbEntity
  8
0
100
AcDbBlockEnd
  0
BLOCK
  5
325
330
324
100
AcDbEntity
  8
0
100
AcDbBlockBegin
  2
BLOCK98
 70
     0
 10
0.0
 20
0.0
 30
0.0
  3
BLOCK98
  1

  0
TEXT
  5
125
330
324
100
AcDbEntity
  8
0
 62
     7
370
    13
390
F
100
AcDbText
 10
345.059479
 20
6.5
 30
0.0
 40
2.0
  1
5
 41
1.577148181818147
 72
     5
 11
346.794342
 21
6.5
 31
0.0
100
AcDbText
  0
ENDBLK
  5
326
330
324
100
AcDbEntity
  8
0
100
AcDbBlockEnd
  0
BLOCK
  5
328
330
327
100
AcDbEntity
  8
0
100
AcDbBlockBegin
  2
BLOCK99
 70
     0
 10
0.0
 20
0.0
 30
0.0
  3
BLOCK99
  1

  0
TEXT
  5
128
330
327
100
AcDbEntity
  8
0
 62
     7
370
    13
390
F
100
AcDbText
 10
272.621979
 20
6.5
 30
0.0
 40
2.0
  1
4
 41
1.33450999999997
 72
     5
 11
274.356842
 21
6.5
 31
0.0
100
AcDbText
  0
ENDBLK
  5
329
330
327
100
AcDbEntity
  8
0
100
AcDbBlockEnd
  0
BLOCK
  5
32B
330
32A
100
AcDbEntity
  8
0
100
AcDbBlockBegin
  2
BLOCK100
 70
     0
 10
0.0
 20
0.0
 30
0.0
  3
BLOCK100
  1

  0
TEXT
  5
12B
330
32A
100
AcDbEntity
  8
0
 62
     7
370
    13
390
F
100
AcDbText
 10
200.184494
 20
6.5
 30
0.0
 40
2.0
  1
3
 41
1.577148181818173
 72
     5
 11
201.919357
 21
6.5
 31
0.0
100
AcDbText
  0
ENDBLK
  5
32C
330
32A
100
AcDbEntity
  8
0
100
AcDbBlockEnd
  0
BLOCK
  5
32E
330
32D
100
AcDbEntity
  8
0
100
AcDbBlockBegin
  2
BLOCK101
 70
     0
 10
0.0
 20
0.0
 30
0.0
  3
BLOCK101
  1

  0
TEXT
  5
12E
330
32D
100
AcDbEntity
  8
0
 62
     7
370
    13
390
F
100
AcDbText
 10
127.746994
 20
6.5
 30
0.0
 40
2.0
  1
2
 41
1.576514355514555
 72
     5
 11
129.481857
 21
6.5
 31
0.0
100
AcDbText
  0
ENDBLK
  5
32F
330
32D
100
AcDbEntity
  8
0
100
AcDbBlockEnd
  0
BLOCK
  5
331
330
330
100
AcDbEntity
  8
0
100
AcDbBlockBegin
  2
BLOCK102
 70
     0
 10
0.0
 20
0.0
 30
0.0
  3
BLOCK102
  1

  0
TEXT
  5
131
330
330
100
AcDbEntity
  8
0
 62
     7
370
    13
390
F
100
AcDbText
 10
1180.632568
 20
49.766666
 30
0.0
 40
2.0
  1
L
 41
1.577149090909105
 72
     5
 11
1182.367432
 21
49.766666
 31
0.0
100
AcDbText
  0
ENDBLK
  5
332
330
330
100
AcDbEntity
  8
0
100
AcDbBlockEnd
  0
BLOCK
  5
334
330
333
100
AcDbEntity
  8
0
100
AcDbBlockBegin
  2
BLOCK103
 70
     0
 10
0.0
 20
0.0
 30
0.0
  3
BLOCK103
  1

  0
TEXT
  5
134
330
333
100
AcDbEntity
  8
0
 62
     7
370
    13
390
F
100
AcDbText
 10
1180.632568
 20
131.666672
 30
0.0
 40
2.0
  1
I
 41
5.782880000000052
 72
     5
 11
1182.367432
 21
131.666672
 31
0.0
100
AcDbText
  0
ENDBLK
  5
335
330
333
100
AcDbEntity
  8
0
100
AcDbBlockEnd
  0
BLOCK
  5
337
330
336
100
AcDbEntity
  8
0
100
AcDbBlockBegin
  2
BLOCK104
 70
     0
 10
0.0
 20
0.0
 30
0.0
  3
BLOCK104
  1

  0
TEXT
  5
137
330
336
100
AcDbEntity
  8
0
 62
     7
370
    13
390
F
100
AcDbText
 10
1180.632568
 20
213.566666
 30
0.0
 40
2.0
  1
H
 41
1.334510769230781
 72
     5
 11
1182.367432
 21
213.566666
 31
0.0
100
AcDbText
  0
ENDBLK
  5
338
330
336
100
AcDbEntity
  8
0
100
AcDbBlockEnd
  0
BLOCK
  5
33A
330
339
100
AcDbEntity
  8
0
100
AcDbBlockBegin
  2
BLOCK105
 70
     0
 10
0.0
 20
0.0
 30
0.0
  3
BLOCK105
  1

  0
TEXT
  5
13A
330
339
100
AcDbEntity
  8
0
 62
     7
370
    13
390
F
100
AcDbText
 10
1180.632568
 20
295.466675
 30
0.0
 40
2.0
  1
G
 41
1.334510769230781
 72
     5
 11
1182.367432
 21
295.466675
 31
0.0
100
AcDbText
  0
ENDBLK
  5
33B
330
339
100
AcDbEntity
  8
0
100
AcDbBlockEnd
  0
BLOCK
  5
33D
330
33C
100
AcDbEntity
  8
0
100
AcDbBlockBegin
  2
BLOCK106
 70
     0
 10
0.0
 20
0.0
 30
0.0
  3
BLOCK106
  1

  0
TEXT
  5
13D
330
33C
100
AcDbEntity
  8
0
 62
     7
370
    13
390
F
100
AcDbText
 10
1180.632568
 20
377.366669
 30
0.0
 40
2.0
  1
F
 41
1.577149090909105
 72
     5
 11
1182.367432
 21
377.366669
 31
0.0
100
AcDbText
  0
ENDBLK
  5
33E
330
33C
100
AcDbEntity
  8
0
100
AcDbBlockEnd
  0
BLOCK
  5
340
330
33F
100
AcDbEntity
  8
0
100
AcDbBlockBegin
  2
BLOCK107
 70
     0
 10
0.0
 20
0.0
 30
0.0
  3
BLOCK107
  1

  0
TEXT
  5
140
330
33F
100
AcDbEntity
  8
0
 62
     7
370
    13
390
F
100
AcDbText
 10
1180.632568
 20
459.266663
 30
0.0
 40
2.0
  1
E
 41
1.577149090909105
 72
     5
 11
1182.367432
 21
459.266663
 31
0.0
100
AcDbText
  0
ENDBLK
  5
341
330
33F
100
AcDbEntity
  8
0
100
AcDbBlockEnd
  0
BLOCK
  5
343
330
342
100
AcDbEntity
  8
0
100
AcDbBlockBegin
  2
BLOCK108
 70
     0
 10
0.0
 20
0.0
 30
0.0
  3
BLOCK108
  1

  0
TEXT
  5
143
330
342
100
AcDbEntity
  8
0
 62
     7
370
    13
390
F
100
AcDbText
 10
1180.632568
 20
541.166687
 30
0.0
 40
2.0
  1
D
 41
1.334510769230781
 72
     5
 11
1182.367432
 21
541.166687
 31
0.0
100
AcDbText
  0
ENDBLK
  5
344
330
342
100
AcDbEntity
  8
0
100
AcDbBlockEnd
  0
BLOCK
  5
346
330
345
100
AcDbEntity
  8
0
100
AcDbBlockBegin
  2
BLOCK109
 70
     0
 10
0.0
 20
0.0
 30
0.0
  3
BLOCK109
  1

  0
TEXT
  5
146
330
345
100
AcDbEntity
  8
0
 62
     7
370
    13
390
F
100
AcDbText
 10
1180.632568
 20
623.06665
 30
0.0
 40
2.0
  1
C
 41
1.577149090909105
 72
     5
 11
1182.367432
 21
623.06665
 31
0.0
100
AcDbText
  0
ENDBLK
  5
347
330
345
100
AcDbEntity
  8
0
100
AcDbBlockEnd
  0
BLOCK
  5
349
330
348
100
AcDbEntity
  8
0
100
AcDbBlockBegin
  2
BLOCK110
 70
     0
 10
0.0
 20
0.0
 30
0.0
  3
BLOCK110
  1

  0
TEXT
  5
149
330
348
100
AcDbEntity
  8
0
 62
     7
370
    13
390
F
100
AcDbText
 10
1180.632568
 20
704.966675
 30
0.0
 40
2.0
  1
B
 41
1.334510769230781
 72
     5
 11
1182.367432
 21
704.966675
 31
0.0
100
AcDbText
  0
ENDBLK
  5
34A
330
348
100
AcDbEntity
  8
0
100
AcDbBlockEnd
  0
BLOCK
  5
34C
330
34B
100
AcDbEntity
  8
0
100
AcDbBlockBegin
  2
BLOCK111
 70
     0
 10
0.0
 20
0.0
 30
0.0
  3
BLOCK111
  1

  0
TEXT
  5
14C
330
34B
100
AcDbEntity
  8
0
 62
     7
370
    13
390
F
100
AcDbText
 10
55.309486
 20
6.5
 30
0.0
 40
2.0
  1
1
 41
2.47838714285714
 72
     5
 11
57.044357
 21
6.5
 31
0.0
100
AcDbText
  0
ENDBLK
  5
34D
330
34B
100
AcDbEntity
  8
0
100
AcDbBlockEnd
  0
BLOCK
  5
34F
330
34E
100
AcDbEntity
  8
0
100
AcDbBlockBegin
  2
BLOCK112
 70
     0
 10
0.0
 20
0.0
 30
0.0
  3
BLOCK112
  1

  0
TEXT
  5
14F
330
34E
100
AcDbEntity
  8
0
 62
     7
370
    13
390
F
100
AcDbText
 10
1180.632568
 20
786.866638
 30
0.0
 40
2.0
  1
A
 41
1.156576000000011
 72
     5
 11
1182.367432
 21
786.866638
 31
0.0
100
AcDbText
  0
ENDBLK
  5
350
330
34E
100
AcDbEntity
  8
0
100
AcDbBlockEnd
  0
BLOCK
  5
352
330
351
100
AcDbEntity
  8
0
100
AcDbBlockBegin
  2
BLOCK113
 70
     0
 10
0.0
 20
0.0
 30
0.0
  3
BLOCK113
  1

  0
TEXT
  5
152
330
351
100
AcDbEntity
  8
0
 62
     7
370
    13
390
F
100
AcDbText
 10
6.701831
 20
9.96806
 30
0.0
 40
2.0
  1
GEWISS SpA si riserva tutti i diritti sul presente documento
 50
90.00000275216357
 41
1.459509955131802
 72
     5
 11
6.701826
 21
114.06031
 31
0.0
100
AcDbText
  0
TEXT
  5
153
330
351
100
AcDbEntity
  8
0
 62
     7
370
    13
390
F
100
AcDbText
 10
10.157163
 20
9.96806
 30
0.0
 40
2.0
  1
e con quanto rappresentato.E'vietato riprodurlo,utilizzarlo
 50
90.00000279881041
 41
1.460058184152345
 72
     5
 11
10.157158
 21
112.325439
 31
0.0
100
AcDbText
  0
TEXT
  5
154
330
351
100
AcDbEntity
  8
0
 62
     7
370
    13
390
F
100
AcDbText
 10
13.612494
 20
9.968061
 30
0.0
 40
2.0
  1
renderlo accessibile a terzi senza autorizzazione scritta
 50
90.0000028970143
 41
1.464568083530808
 72
     5
 11
13.612489
 21
108.855698
 31
0.0
100
AcDbText
  0
ENDBLK
  5
353
330
351
100
AcDbEntity
  8
0
100
AcDbBlockEnd
  0
BLOCK
  5
355
330
354
100
AcDbEntity
  8
0
100
AcDbBlockBegin
  2
BLOCK114
 70
     0
 10
0.0
 20
0.0
 30
0.0
  3
BLOCK114
  1

  0
TEXT
  5
157
330
354
100
AcDbEntity
  8
0
 62
     7
370
    13
390
F
100
AcDbText
 10
6.543763
 20
147.493759
 30
0.0
 40
2.0
  1
GEWISS SpA reserve all rights in this document and in the information
 50
90.00000287182327
 41
1.433348141052508
 72
     5
 11
6.543757
 21
267.199829
 31
0.0
100
AcDbText
  0
TEXT
  5
158
330
354
100
AcDbEntity
  8
0
 62
     7
370
    13
390
F
100
AcDbText
 10
9.999094
 20
147.493759
 30
0.0
 40
2.0
  1
contained therein. Reproduction, use or disclosure to third parties
 50
90.00000246462413
 41
1.471122518305551
 72
     5
 11
9.999089
 21
263.730103
 31
0.0
100
AcDbText
  0
TEXT
  5
159
330
354
100
AcDbEntity
  8
0
 62
     7
370
    13
390
F
100
AcDbText
 10
13.454425
 20
147.493759
 30
0.0
 40
2.0
  1
without written authorization is stricty forbidden
 50
90.0000026420769
 41
1.467493588225344
 72
     5
 11
13.454421
 21
234.237305
 31
0.0
100
AcDbText
  0
ENDBLK
  5
356
330
354
100
AcDbEntity
  8
0
100
AcDbBlockEnd
  0
BLOCK
  5
358
330
357
100
AcDbEntity
  8
0
100
AcDbBlockBegin
  2
BLOCK115
 70
     0
 10
0.0
 20
0.0
 30
0.0
  3
BLOCK115
  1

  0
SOLID
  5
15C
330
357
100
AcDbEntity
  8
0
 62
     7
370
    13
390
F
100
AcDbTrace
 10
337.068146
 20
105.647797
 30
0.0
 11
339.0
 21
106.165436
 31
0.0
 12
337.068146
 22
105.647797
 32
0.0
 13
337.068146
 23
106.683075
 33
0.0
  0
SOLID
  5
15D
330
357
100
AcDbEntity
  8
0
 62
     7
370
    13
390
F
100
AcDbTrace
 10
-337.068146
 20
106.683075
 30
0.0
 11
-339.0
 21
106.165436
 31
0.0
 12
-337.068146
 22
106.683075
 32
0.0
 13
-337.068146
 23
105.647797
 33
0.0
  0
TEXT
  5
15E
330
357
100
AcDbEntity
  8
0
 62
     7
370
    13
390
F
100
AcDbText
 10
-7.505764
 20
108.165436
 30
0.0
 40
5.0
  1
678
 41
1.539841312988845
 72
     5
 11
7.505764
 21
108.165436
 31
0.0
100
AcDbText
  0
LINE
  5
15F
330
357
100
AcDbEntity
  8
0
 62
     7
370
    13
390
F
100
AcDbLine
 10
-339.0
 20
50.0
 30
0.0
 11
-339.0
 21
108.165436
 31
0.0
  0
LINE
  5
160
330
357
100
AcDbEntity
  8
0
 62
     7
370
    13
390
F
100
AcDbLine
 10
339.0
 20
50.0
 30
0.0
 11
339.0
 21
108.165436
 31
0.0
  0
LINE
  5
161
330
357
100
AcDbEntity
  8
0
 62
     7
370
    13
390
F
100
AcDbLine
 10
-337.068146
 20
106.165436
 30
0.0
 11
337.068146
 21
106.165436
 31
0.0
  0
LWPOLYLINE
  5
162
330
357
100
AcDbEntity
  8
0
 62
     7
370
    13
390
F
100
AcDbPolyline
 90
        3
 70
     1
 43
0.0
 10
337.068146
 20
105.647797
 10
339.0
 20
106.165436
 10
337.068146
 20
106.683075
  0
LWPOLYLINE
  5
167
330
357
100
AcDbEntity
  8
0
 62
     7
370
    13
390
F
100
AcDbPolyline
 90
        3
 70
     1
 43
0.0
 10
-337.068146
 20
106.683075
 10
-339.0
 20
106.165436
 10
-337.068146
 20
105.647797
  0
ENDBLK
  5
359
330
357
100
AcDbEntity
  8
0
100
AcDbBlockEnd
  0
BLOCK
  5
35B
330
35A
100
AcDbEntity
  8
0
100
AcDbBlockBegin
  2
BLOCK116
 70
     0
 10
0.0
 20
0.0
 30
0.0
  3
BLOCK116
  1

  0
LINE
  5
16E
330
35A
100
AcDbEntity
  8
0
 62
     7
370
    35
390
F
100
AcDbLine
 10
319.057068
 20
59.0
 30
0.0
 11
-319.057068
 21
59.0
 31
0.0
  0
LINE
  5
16F
330
35A
100
AcDbEntity
  8
0
 62
     7
 48
0.112306
370
    13
390
F
100
AcDbLine
 10
319.057068
 20
59.0
 30
0.0
 11
315.880585
 21
55.823521
 31
0.0
  0
LINE
  5
170
330
35A
100
AcDbEntity
  8
0
 62
     7
370
    13
390
F
100
AcDbLine
 10
315.880585
 20
55.823521
 30
0.0
 11
-315.880585
 21
55.823521
 31
0.0
  0
LINE
  5
171
330
35A
100
AcDbEntity
  8
0
 62
     7
 48
0.112306
370
    13
390
F
100
AcDbLine
 10
-319.057068
 20
59.0
 30
0.0
 11
-315.880585
 21
55.823521
 31
0.0
  0
ARC
  5
172
330
35A
100
AcDbEntity
  8
0
 62
     7
370
    35
390
F
100
AcDbCircle
 10
-324.0
 20
49.0
 30
0.0
 40
15.0
100
AcDbArc
 50
90.000003
 51
180.000005
  0
LINE
  5
173
330
35A
100
AcDbEntity
  8
0
 62
     7
370
    35
390
F
100
AcDbLine
 10
324.0
 20
64.0
 30
0.0
 11
-324.0
 21
64.0
 31
0.0
  0
ARC
  5
174
330
35A
100
AcDbEntity
  8
0
 62
     7
370
    35
390
F
100
AcDbCircle
 10
324.0
 20
49.0
 30
0.0
 40
15.0
100
AcDbArc
 50
0.0
 51
90.000003
  0
LINE
  5
175
330
35A
100
AcDbEntity
  8
0
 62
     7
 48
0.112306
370
    13
390
F
100
AcDbLine
 10
-319.057068
 20
-59.0
 30
0.0
 11
-315.880585
 21
-55.823521
 31
0.0
  0
LINE
  5
176
330
35A
100
AcDbEntity
  8
0
 62
     7
370
    13
390
F
100
AcDbLine
 10
315.880585
 20
-55.823521
 30
0.0
 11
-315.880585
 21
-55.823521
 31
0.0
  0
LINE
  5
177
330
35A
100
AcDbEntity
  8
0
 62
     7
 48
0.112306
370
    13
390
F
100
AcDbLine
 10
319.057068
 20
-59.0
 30
0.0
 11
315.880585
 21
-55.823521
 31
0.0
  0
LINE
  5
178
330
35A
100
AcDbEntity
  8
0
 62
     7
370
    35
390
F
100
AcDbLine
 10
319.057068
 20
-59.0
 30
0.0
 11
-319.057068
 21
-59.0
 31
0.0
  0
ARC
  5
179
330
35A
100
AcDbEntity
  8
0
 62
     7
370
    35
390
F
100
AcDbCircle
 10
-324.0
 20
-49.0
 30
0.0
 40
15.0
100
AcDbArc
 50
179.999995
 51
269.999997
  0
LINE
  5
17A
330
35A
100
AcDbEntity
  8
0
 62
     7
370
    35
390
F
100
AcDbLine
 10
324.0
 20
-64.0
 30
0.0
 11
-324.0
 21
-64.0
 31
0.0
  0
ARC
  5
17B
330
35A
100
AcDbEntity
  8
0
 62
     7
370
    35
390
F
100
AcDbCircle
 10
324.0
 20
-49.0
 30
0.0
 40
15.0
100
AcDbArc
 50
269.999997
 51
0.0
  0
LINE
  5
17C
330
35A
100
AcDbEntity
  8
0
 62
     7
 48
0.112306
370
    13
390
F
100
AcDbLine
 10
334.0
 20
44.057079
 30
0.0
 11
330.823517
 21
40.8806
 31
0.0
  0
LINE
  5
17D
330
35A
100
AcDbEntity
  8
0
 62
     7
370
    35
390
F
100
AcDbLine
 10
334.0
 20
-44.057079
 30
0.0
 11
334.0
 21
44.057079
 31
0.0
  0
LINE
  5
17E
330
35A
100
AcDbEntity
  8
0
 62
     7
 48
0.112306
370
    13
390
F
100
AcDbLine
 10
334.0
 20
-44.057079
 30
0.0
 11
330.823517
 21
-40.8806
 31
0.0
  0
LINE
  5
17F
330
35A
100
AcDbEntity
  8
0
 62
     7
370
    13
390
F
100
AcDbLine
 10
330.823517
 20
-40.8806
 30
0.0
 11
330.823517
 21
40.8806
 31
0.0
  0
LINE
  5
180
330
35A
100
AcDbEntity
  8
0
 62
     7
370
    13
390
F
100
AcDbLine
 10
-315.880585
 20
-40.8806
 30
0.0
 11
-315.880585
 21
40.8806
 31
0.0
  0
LINE
  5
181
330
35A
100
AcDbEntity
  8
0
 62
     7
 48
0.373573
370
    13
390
F
100
AcDbLine
 10
-315.880585
 20
40.8806
 30
0.0
 11
-330.823517
 21
40.8806
 31
0.0
  0
LINE
  5
182
330
35A
100
AcDbEntity
  8
0
 62
     7
370
    13
390
F
100
AcDbLine
 10
-330.823517
 20
-40.8806
 30
0.0
 11
-330.823517
 21
40.8806
 31
0.0
  0
LINE
  5
183
330
35A
100
AcDbEntity
  8
0
 62
     7
 48
0.373573
370
    13
390
F
100
AcDbLine
 10
-315.880585
 20
-40.8806
 30
0.0
 11
-330.823517
 21
-40.8806
 31
0.0
  0
LINE
  5
184
330
35A
100
AcDbEntity
  8
0
 62
     7
370
    13
390
F
100
AcDbLine
 10
315.880585
 20
-40.8806
 30
0.0
 11
315.880585
 21
40.8806
 31
0.0
  0
LINE
  5
185
330
35A
100
AcDbEntity
  8
0
 62
     7
370
    13
390
F
100
AcDbLine
 10
315.880585
 20
40.8806
 30
0.0
 11
-315.880585
 21
40.8806
 31
0.0
  0
LINE
  5
186
330
35A
100
AcDbEntity
  8
0
 62
     7
370
    13
390
F
100
AcDbLine
 10
315.880585
 20
-40.8806
 30
0.0
 11
-315.880585
 21
-40.8806
 31
0.0
  0
LINE
  5
187
330
35A
100
AcDbEntity
  8
0
 62
     7
370
    35
390
F
100
AcDbLine
 10
-339.0
 20
-49.0
 30
0.0
 11
-339.0
 21
49.0
 31
0.0
  0
LINE
  5
188
330
35A
100
AcDbEntity
  8
0
 62
     7
 48
0.112306
370
    13
390
F
100
AcDbLine
 10
-334.0
 20
-44.057079
 30
0.0
 11
-330.823517
 21
-40.8806
 31
0.0
  0
LINE
  5
189
330
35A
100
AcDbEntity
  8
0
 62
     7
370
    35
390
F
100
AcDbLine
 10
-334.0
 20
-44.057079
 30
0.0
 11
-334.0
 21
44.057079
 31
0.0
  0
LINE
  5
18A
330
35A
100
AcDbEntity
  8
0
 62
     7
 48
0.112306
370
    13
390
F
100
AcDbLine
 10
-334.0
 20
44.057079
 30
0.0
 11
-330.823517
 21
40.8806
 31
0.0
  0
LINE
  5
18B
330
35A
100
AcDbEntity
  8
0
 62
     7
370
    35
390
F
100
AcDbLine
 10
339.0
 20
-49.0
 30
0.0
 11
339.0
 21
49.0
 31
0.0
  0
LINE
  5
18C
330
35A
100
AcDbEntity
  8
0
 62
     7
 48
0.373573
370
    13
390
F
100
AcDbLine
 10
315.880585
 20
40.8806
 30
0.0
 11
330.823517
 21
40.8806
 31
0.0
  0
LINE
  5
18D
330
35A
100
AcDbEntity
  8
0
 62
     7
 48
0.373573
370
    13
390
F
100
AcDbLine
 10
315.880585
 20
-40.8806
 30
0.0
 11
330.823517
 21
-40.8806
 31
0.0
  0
ELLIPSE
  5
18E
330
35A
100
AcDbEntity
  8
0
 62
     7
370
    35
390
F
100
AcDbEllipse
 10
318.942444
 20
43.942432
 30
0.0
 11
-10.68746185302734
 21
-10.68802356719971
 31
0.0
210
0.0
220
0.0
230
1.0
 40
0.9924190000000002
 41
2.359977130999538
 42
3.923156184821343
  0
ELLIPSE
  5
18F
330
35A
100
AcDbEntity
  8
0
 62
     7
370
    35
390
F
100
AcDbEllipse
 10
-318.942444
 20
43.942432
 30
0.0
 11
10.68746185302734
 21
-10.68802356719971
 31
0.0
210
0.0
220
0.0
230
1.0
 40
0.9924190000000002
 41
2.36002912235904
 42
3.923208176181155
  0
ELLIPSE
  5
190
330
35A
100
AcDbEntity
  8
0
 62
     7
370
    35
390
F
100
AcDbEllipse
 10
-318.942444
 20
-43.942432
 30
0.0
 11
-10.68746185302734
 21
-10.68802356719971
 31
0.0
210
0.0
220
0.0
230
1.0
 40
0.9924190000000002
 41
5.501569784588225
 42
7.064748838410341
  0
ELLIPSE
  5
191
330
35A
100
AcDbEntity
  8
0
 62
     7
370
    35
390
F
100
AcDbEllipse
 10
318.942444
 20
-43.942432
 30
0.0
 11
10.68746185302734
 21
-10.68802356719971
 31
0.0
210
0.0
220
0.0
230
1.0
 40
0.9924190000000002
 41
5.501621775948038
 42
7.064800829769843
  0
ELLIPSE
  5
192
330
35A
100
AcDbEntity
  8
0
 62
     7
370
    13
390
F
100
AcDbEllipse
 10
315.880585
 20
40.8806
 30
0.0
 11
-10.60660171508789
 21
10.60660171508789
 31
0.0
210
0.0
220
0.0
230
1.0
 40
0.9924330000000001
 41
3.930788915260517
 42
5.493989045508851
  0
LINE
  5
193
330
35A
100
AcDbEntity
  8
0
 62
     7
 48
0.373573
370
    13
390
F
100
AcDbLine
 10
315.880585
 20
40.8806
 30
0.0
 11
315.880585
 21
55.823521
 31
0.0
  0
ELLIPSE
  5
194
330
35A
100
AcDbEntity
  8
0
 62
     7
370
    13
390
F
100
AcDbEllipse
 10
-315.880585
 20
40.8806
 30
0.0
 11
10.60660171508789
 21
10.60660171508789
 31
0.0
210
0.0
220
0.0
230
1.0
 40
0.9924330000000001
 41
0.7891962616707353
 42
2.352396391919069
  0
LINE
  5
195
330
35A
100
AcDbEntity
  8
0
 62
     7
 48
0.373573
370
    13
390
F
100
AcDbLine
 10
-315.880585
 20
40.8806
 30
0.0
 11
-315.880585
 21
55.823521
 31
0.0
  0
ELLIPSE
  5
196
330
35A
100
AcDbEntity
  8
0
 62
     7
370
    13
390
F
100
AcDbEllipse
 10
315.880585
 20
-40.8806
 30
0.0
 11
-10.60660171508789
 21
-10.60660171508789
 31
0.0
210
0.0
220
0.0
230
1.0
 40
0.9924330000000001
 41
0.7891962616707353
 42
2.352396391919069
  0
LINE
  5
197
330
35A
100
AcDbEntity
  8
0
 62
     7
 48
0.373573
370
    13
390
F
100
AcDbLine
 10
315.880585
 20
-40.8806
 30
0.0
 11
315.880585
 21
-55.823521
 31
0.0
  0
ELLIPSE
  5
198
330
35A
100
AcDbEntity
  8
0
 62
     7
370
    13
390
F
100
AcDbEllipse
 10
-315.880585
 20
-40.8806
 30
0.0
 11
10.60660171508789
 21
-10.60660171508789
 31
0.0
210
0.0
220
0.0
230
1.0
 40
0.9924330000000001
 41
3.930788915260517
 42
5.493989045508851
  0
LINE
  5
199
330
35A
100
AcDbEntity
  8
0
 62
     7
 48
0.373573
370
    13
390
F
100
AcDbLine
 10
-315.880585
 20
-40.8806
 30
0.0
 11
-315.880585
 21
-55.823521
 31
0.0
  0
ENDBLK
  5
35C
330
35A
100
AcDbEntity
  8
0
100
AcDbBlockEnd
  0
BLOCK
  5
35E
330
35D
100
AcDbEntity
  8
0
100
AcDbBlockBegin
  2
BLOCK117
 70
     0
 10
0.0
 20
0.0
 30
0.0
  3
BLOCK117
  1

  0
SOLID
  5
19C
330
35D
100
AcDbEntity
  8
0
 62
     7
370
    13
390
F
100
AcDbTrace
 10
367.255676
 20
-56.06815
 30
0.0
 11
367.773315
 21
-58.0
 31
0.0
 12
367.255676
 22
-56.06815
 32
0.0
 13
368.290955
 23
-56.06815
 33
0.0
  0
SOLID
  5
19D
330
35D
100
AcDbEntity
  8
0
 62
     7
370
    13
390
F
100
AcDbTrace
 10
368.290955
 20
-1.931852
 30
0.0
 11
367.773315
 21
0.0
 31
0.0
 12
368.290955
 22
-1.931852
 32
0.0
 13
367.255676
 23
-1.931852
 33
0.0
  0
TEXT
  5
19E
330
35D
100
AcDbEntity
  8
0
 62
     7
370
    13
390
F
100
AcDbText
 10
365.773315
 20
-33.837177
 30
0.0
 40
5.0
  1
58
 50
90.0
 41
1.548205961192238
 72
     5
 11
365.773315
 21
-24.162825
 31
0.0
100
AcDbText
  0
LINE
  5
19F
330
35D
100
AcDbEntity
  8
0
 62
     7
370
    13
390
F
100
AcDbLine
 10
316.880585
 20
-58.0
 30
0.0
 11
369.773315
 21
-58.0
 31
0.0
  0
LINE
  5
1A0
330
35D
100
AcDbEntity
  8
0
 62
     7
370
    13
390
F
100
AcDbLine
 10
325.0
 20
0.0
 30
0.0
 11
369.773315
 21
0.0
 31
0.0
  0
LINE
  5
1A1
330
35D
100
AcDbEntity
  8
0
 62
     7
370
    13
390
F
100
AcDbLine
 10
367.773315
 20
-56.06815
 30
0.0
 11
367.773315
 21
-1.931852
 31
0.0
  0
LWPOLYLINE
  5
1A2
330
35D
100
AcDbEntity
  8
0
 62
     7
370
    13
390
F
100
AcDbPolyline
 90
        3
 70
     1
 43
0.0
 10
367.255676
 20
-56.06815
 10
367.773315
 20
-58.0
 10
368.290955
 20
-56.06815
  0
LWPOLYLINE
  5
1A7
330
35D
100
AcDbEntity
  8
0
 62
     7
370
    13
390
F
100
AcDbPolyline
 90
        3
 70
     1
 43
0.0
 10
368.290955
 20
-1.931852
 10
367.773315
 20
0.0
 10
367.255676
 20
-1.931852
  0
ENDBLK
  5
35F
330
35D
100
AcDbEntity
  8
0
100
AcDbBlockEnd
  0
BLOCK
  5
361
330
360
100
AcDbEntity
  8
0
100
AcDbBlockBegin
  2
BLOCK118
 70
     0
 10
0.0
 20
0.0
 30
0.0
  3
BLOCK118
  1

  0
LINE
  5
1AE
330
360
100
AcDbEntity
  8
0
 62
     7
370
    13
390
F
100
AcDbLine
 10
319.057068
 20
-8.0
 30
0.0
 11
315.880585
 21
-44.307335
 31
0.0
  0
LINE
  5
1AF
330
360
100
AcDbEntity
  8
0
 62
     7
370
    13
390
F
100
AcDbLine
 10
315.880585
 20
-44.307335
 30
0.0
 11
-315.880585
 21
-44.307335
 31
0.0
  0
LINE
  5
1B0
330
360
100
AcDbEntity
  8
0
 62
     7
370
    13
390
F
100
AcDbLine
 10
-319.057068
 20
-8.0
 30
0.0
 11
-315.880585
 21
-44.307335
 31
0.0
  0
LINE
  5
1B1
330
360
100
AcDbEntity
  8
0
 62
     7
 48
0.2
370
    13
390
F
100
AcDbLine
 10
-324.0
 20
0.0
 30
0.0
 11
-324.0
 21
-8.0
 31
0.0
  0
LINE
  5
1B2
330
360
100
AcDbEntity
  8
0
 62
     7
 48
0.375
370
    35
390
F
100
AcDbLine
 10
-339.0
 20
0.0
 30
0.0
 11
-324.0
 21
0.0
 31
0.0
  0
LINE
  5
1B3
330
360
100
AcDbEntity
  8
0
 62
     7
 48
0.375
370
    35
390
F
100
AcDbLine
 10
-324.0
 20
-8.0
 30
0.0
 11
-339.0
 21
-8.0
 31
0.0
  0
LINE
  5
1B4
330
360
100
AcDbEntity
  8
0
 62
     7
 48
0.2
370
    13
390
F
100
AcDbLine
 10
324.0
 20
0.0
 30
0.0
 11
324.0
 21
-8.0
 31
0.0
  0
LINE
  5
1B5
330
360
100
AcDbEntity
  8
0
 62
     7
370
    35
390
F
100
AcDbLine
 10
-324.0
 20
0.0
 30
0.0
 11
324.0
 21
0.0
 31
0.0
  0
LINE
  5
1B6
330
360
100
AcDbEntity
  8
0
 62
     7
370
    35
390
F
100
AcDbLine
 10
324.0
 20
-8.0
 30
0.0
 11
-324.0
 21
-8.0
 31
0.0
  0
LINE
  5
1B7
330
360
100
AcDbEntity
  8
0
 62
     7
 48
0.375
370
    35
390
F
100
AcDbLine
 10
339.0
 20
-8.0
 30
0.0
 11
324.0
 21
-8.0
 31
0.0
  0
LINE
  5
1B8
330
360
100
AcDbEntity
  8
0
 62
     7
 48
0.375
370
    35
390
F
100
AcDbLine
 10
324.0
 20
0.0
 30
0.0
 11
339.0
 21
0.0
 31
0.0
  0
ARC
  5
1B9
330
360
100
AcDbEntity
  8
0
 62
     7
370
    35
390
F
100
AcDbCircle
 10
-315.880585
 20
-43.0
 30
0.0
 40
15.0
100
AcDbArc
 50
184.999994
 51
269.999997
  0
ARC
  5
1BA
330
360
100
AcDbEntity
  8
0
 62
     7
370
    35
390
F
100
AcDbCircle
 10
315.880585
 20
-43.0
 30
0.0
 40
15.0
100
AcDbArc
 50
269.999997
 51
355.0
  0
ELLIPSE
  5
1BB
330
360
100
AcDbEntity
  8
0
 62
     7
370
    13
390
F
100
AcDbEllipse
 10
315.880585
 20
-43.0
 30
0.0
 11
-14.94292068481445
 21
1.307336091995239
 31
0.0
210
0.0
220
0.0
230
1.0
 40
0.086827
 41
1.578392523341459
 42
3.141592653589793
  0
LINE
  5
1BC
330
360
100
AcDbEntity
  8
0
 62
     7
 48
0.342317
370
    13
390
F
100
AcDbLine
 10
315.880585
 20
-58.0
 30
0.0
 11
315.880585
 21
-44.307335
 31
0.0
  0
ELLIPSE
  5
1BD
330
360
100
AcDbEntity
  8
0
 62
     7
370
    13
390
F
100
AcDbEllipse
 10
-315.880585
 20
-43.0
 30
0.0
 11
14.94292068481445
 21
1.307336091995239
 31
0.0
210
0.0
220
0.0
230
1.0
 40
0.086827
 41
3.141592653589793
 42
4.704792783838126
  0
LINE
  5
1BE
330
360
100
AcDbEntity
  8
0
 62
     7
 48
0.342317
370
    13
390
F
100
AcDbLine
 10
-315.880585
 20
-58.0
 30
0.0
 11
-315.880585
 21
-44.307335
 31
0.0
  0
LINE
  5
1BF
330
360
100
AcDbEntity
  8
0
 62
     7
 48
0.2
370
    35
390
F
100
AcDbLine
 10
-339.0
 20
-8.0
 30
0.0
 11
-339.0
 21
0.0
 31
0.0
  0
LINE
  5
1C0
330
360
100
AcDbEntity
  8
0
 62
     7
 48
0.2
370
    35
390
F
100
AcDbLine
 10
339.0
 20
0.0
 30
0.0
 11
339.0
 21
-8.0
 31
0.0
  0
LINE
  5
1C1
330
360
100
AcDbEntity
  8
0
 62
     7
370
    35
390
F
100
AcDbLine
 10
334.0
 20
-8.0
 30
0.0
 11
330.823517
 21
-44.307465
 31
0.0
  0
LINE
  5
1C2
330
360
100
AcDbEntity
  8
0
 62
     7
370
    35
390
F
100
AcDbLine
 10
-330.823517
 20
-44.307465
 30
0.0
 11
-334.0
 21
-8.0
 31
0.0
  0
LINE
  5
1C3
330
360
100
AcDbEntity
  8
0
 62
     7
370
    35
390
F
100
AcDbLine
 10
315.880585
 20
-58.0
 30
0.0
 11
-315.880585
 21
-58.0
 31
0.0
  0
ENDBLK
  5
362
330
360
100
AcDbEntity
  8
0
100
AcDbBlockEnd
  0
BLOCK
  5
364
330
363
100
AcDbEntity
  8
0
100
AcDbBlockBegin
  2
BLOCK119
 70
     0
 10
0.0
 20
0.0
 30
0.0
  3
BLOCK119
  1

  0
SOLID
  5
1C6
330
363
100
AcDbEntity
  8
0
 62
     7
370
    13
390
F
100
AcDbTrace
 10
-20.541393
 20
62.06815
 30
0.0
 11
-21.059032
 21
64.0
 31
0.0
 12
-20.541393
 22
62.06815
 32
0.0
 13
-21.57667
 23
62.06815
 33
0.0
  0
SOLID
  5
1C7
330
363
100
AcDbEntity
  8
0
 62
     7
370
    13
390
F
100
AcDbTrace
 10
-21.57667
 20
-62.06815
 30
0.0
 11
-21.059032
 21
-64.0
 31
0.0
 12
-21.57667
 22
-62.06815
 32
0.0
 13
-20.541393
 23
-62.06815
 33
0.0
  0
TEXT
  5
1C8
330
363
100
AcDbEntity
  8
0
 62
     7
370
    13
390
F
100
AcDbText
 10
-23.059032
 20
-7.505764
 30
0.0
 40
5.0
  1
128
 50
90.0
 41
1.715848321188741
 72
     5
 11
-23.059032
 21
7.505764
 31
0.0
100
AcDbText
  0
LINE
  5
1C9
330
363
100
AcDbEntity
  8
0
 62
     7
370
    13
390
F
100
AcDbLine
 10
-1.0
 20
-64.0
 30
0.0
 11
-23.059032
 21
-64.0
 31
0.0
  0
LINE
  5
1CA
330
363
100
AcDbEntity
  8
0
 62
     7
370
    13
390
F
100
AcDbLine
 10
-1.0
 20
64.0
 30
0.0
 11
-23.059032
 21
64.0
 31
0.0
  0
LINE
  5
1CB
330
363
100
AcDbEntity
  8
0
 62
     7
370
    13
390
F
100
AcDbLine
 10
-21.059032
 20
-62.06815
 30
0.0
 11
-21.059032
 21
62.06815
 31
0.0
  0
LWPOLYLINE
  5
1CC
330
363
100
AcDbEntity
  8
0
 62
     7
370
    13
390
F
100
AcDbPolyline
 90
        3
 70
     1
 43
0.0
 10
-20.541393
 20
62.06815
 10
-21.059032
 20
64.0
 10
-21.57667
 20
62.06815
  0
LWPOLYLINE
  5
1D1
330
363
100
AcDbEntity
  8
0
 62
     7
370
    13
390
F
100
AcDbPolyline
 90
        3
 70
     1
 43
0.0
 10
-21.57667
 20
-62.06815
 10
-21.059032
 20
-64.0
 10
-20.541393
 20
-62.06815
  0
ENDBLK
  5
365
330
363
100
AcDbEntity
  8
0
100
AcDbBlockEnd
  0
BLOCK
  5
367
330
366
100
AcDbEntity
  8
0
100
AcDbBlockBegin
  2
BLOCK120
 70
     0
 10
0.0
 20
0.0
 30
0.0
  3
BLOCK120
  1

  0
LINE
  5
1D8
330
366
100
AcDbEntity
  8
0
 62
     7
 48
0.2
370
    35
390
F
100
AcDbLine
 10
0.0
 20
64.0
 30
0.0
 11
8.0
 21
64.0
 31
0.0
  0
LINE
  5
1D9
330
366
100
AcDbEntity
  8
0
 62
     7
 48
0.375
370
    35
390
F
100
AcDbLine
 10
0.0
 20
49.0
 30
0.0
 11
0.0
 21
64.0
 31
0.0
  0
LINE
  5
1DA
330
366
100
AcDbEntity
  8
0
 62
     7
 48
0.2
370
    13
390
F
100
AcDbLine
 10
0.0
 20
49.0
 30
0.0
 11
8.0
 21
49.0
 31
0.0
  0
LINE
  5
1DB
330
366
100
AcDbEntity
  8
0
 62
     7
 48
0.375
370
    35
390
F
100
AcDbLine
 10
8.0
 20
64.0
 30
0.0
 11
8.0
 21
49.0
 31
0.0
  0
LINE
  5
1DC
330
366
100
AcDbEntity
  8
0
 62
     7
 48
0.375
370
    35
390
F
100
AcDbLine
 10
8.0
 20
-49.0
 30
0.0
 11
8.0
 21
-64.0
 31
0.0
  0
LINE
  5
1DD
330
366
100
AcDbEntity
  8
0
 62
     7
 48
0.2
370
    13
390
F
100
AcDbLine
 10
0.0
 20
-49.0
 30
0.0
 11
8.0
 21
-49.0
 31
0.0
  0
LINE
  5
1DE
330
366
100
AcDbEntity
  8
0
 62
     7
 48
0.375
370
    35
390
F
100
AcDbLine
 10
0.0
 20
-64.0
 30
0.0
 11
0.0
 21
-49.0
 31
0.0
  0
LINE
  5
1DF
330
366
100
AcDbEntity
  8
0
 62
     7
 48
0.2
370
    35
390
F
100
AcDbLine
 10
0.0
 20
-64.0
 30
0.0
 11
8.0
 21
-64.0
 31
0.0
  0
LINE
  5
1E0
330
366
100
AcDbEntity
  8
0
 62
     7
 48
0.342317
370
    13
390
F
100
AcDbLine
 10
58.0
 20
40.8806
 30
0.0
 11
44.307335
 21
40.8806
 31
0.0
  0
LINE
  5
1E1
330
366
100
AcDbEntity
  8
0
 62
     7
370
    13
390
F
100
AcDbLine
 10
44.307335
 20
-40.8806
 30
0.0
 11
44.307335
 21
40.8806
 31
0.0
  0
LINE
  5
1E2
330
366
100
AcDbEntity
  8
0
 62
     7
 48
0.342317
370
    13
390
F
100
AcDbLine
 10
58.0
 20
-40.8806
 30
0.0
 11
44.307335
 21
-40.8806
 31
0.0
  0
LINE
  5
1E3
330
366
100
AcDbEntity
  8
0
 62
     7
370
    35
390
F
100
AcDbLine
 10
0.0
 20
-49.0
 30
0.0
 11
0.0
 21
49.0
 31
0.0
  0
LINE
  5
1E4
330
366
100
AcDbEntity
  8
0
 62
     7
370
    35
390
F
100
AcDbLine
 10
8.0
 20
-49.0
 30
0.0
 11
8.0
 21
49.0
 31
0.0
  0
LINE
  5
1E5
330
366
100
AcDbEntity
  8
0
 62
     7
370
    13
390
F
100
AcDbLine
 10
8.0
 20
-44.057079
 30
0.0
 11
44.307335
 21
-40.8806
 31
0.0
  0
LINE
  5
1E6
330
366
100
AcDbEntity
  8
0
 62
     7
370
    13
390
F
100
AcDbLine
 10
8.0
 20
44.057079
 30
0.0
 11
44.307335
 21
40.8806
 31
0.0
  0
ELLIPSE
  5
1E7
330
366
100
AcDbEntity
  8
0
 62
     7
370
    13
390
F
100
AcDbEllipse
 10
43.0
 20
40.8806
 30
0.0
 11
1.307336091995239
 21
14.94292068481445
 31
0.0
210
0.0
220
0.0
230
1.0
 40
0.086827
 41
4.719985176931252
 42
6.283185307179585
  0
ARC
  5
1E8
330
366
100
AcDbEntity
  8
0
 62
     7
370
    35
390
F
100
AcDbCircle
 10
43.0
 20
40.8806
 30
0.0
 40
15.0
100
AcDbArc
 50
0.0
 51
84.999997
  0
ELLIPSE
  5
1E9
330
366
100
AcDbEntity
  8
0
 62
     7
370
    13
390
F
100
AcDbEllipse
 10
43.0
 20
-40.8806
 30
0.0
 11
1.307336091995239
 21
-14.94292068481445
 31
0.0
210
0.0
220
0.0
230
1.0
 40
0.086827
 41
0.0000000000000001
 42
1.563200130248334
  0
ARC
  5
1EA
330
366
100
AcDbEntity
  8
0
 62
     7
370
    35
390
F
100
AcDbCircle
 10
43.0
 20
-40.8806
 30
0.0
 40
15.0
100
AcDbArc
 50
275.000003
 51
0.0
  0
LINE
  5
1EB
330
366
100
AcDbEntity
  8
0
 62
     7
370
    35
390
F
100
AcDbLine
 10
58.0
 20
40.8806
 30
0.0
 11
58.0
 21
-40.8806
 31
0.0
  0
LINE
  5
1EC
330
366
100
AcDbEntity
  8
0
 62
     7
370
    35
390
F
100
AcDbLine
 10
44.307465
 20
55.823509
 30
0.0
 11
8.0
 21
59.0
 31
0.0
  0
LINE
  5
1ED
330
366
100
AcDbEntity
  8
0
 62
     7
370
    35
390
F
100
AcDbLine
 10
8.0
 20
-59.0
 30
0.0
 11
44.307465
 21
-55.823509
 31
0.0
  0
ENDBLK
  5
368
330
366
100
AcDbEntity
  8
0
100
AcDbBlockEnd
  0
BLOCK
  5
369
330
288
100
AcDbEntity
  8
0
100
AcDbBlockBegin
  2
*D60
 70
     1
 10
0.0
 20
0.0
 30
0.0
  3
*D60
  1

  0
POINT
  5
27F
330
288
100
AcDbEntity
  8
DEFPOINTS
  6
ByBlock
 62
     0
380
     1
100
AcDbPoint
 10
116.226318
 20
550.133698
 30
0.0
  0
POINT
  5
280
330
288
100
AcDbEntity
  8
DEFPOINTS
  6
ByBlock
 62
     0
380
     1
100
AcDbPoint
 10
794.226318
 20
544.0831434619403
 30
0.0
  0
LINE
  5
281
330
288
100
AcDbEntity
  8
0
  6
ByBlock
 62
     0
370
    -2
380
     1
100
AcDbLine
 10
116.226318
 20
550.758698
 30
0.0
 11
116.226318
 21
648.0928743294268
 31
0.0
  0
LINE
  5
282
330
288
100
AcDbEntity
  8
0
  6
ByBlock
 62
     0
370
    -2
380
     1
100
AcDbLine
 10
794.226318
 20
544.7081434619403
 30
0.0
 11
794.226318
 21
648.0928743294268
 31
0.0
  0
LINE
  5
283
330
288
100
AcDbEntity
  8
0
  6
ByBlock
 62
     0
370
    -2
380
     1
100
AcDbLine
 10
118.726318
 20
646.8428743294268
 30
0.0
 11
791.726318
 21
646.8428743294268
 31
0.0
  0
SOLID
  5
284
330
288
100
AcDbEntity
  8
0
  6
ByBlock
 62
     0
380
     1
100
AcDbTrace
 10
116.226318
 20
646.8428743294268
 30
0.0
 11
118.726318
 21
646.4262076627601
 31
0.0
 12
118.726318
 22
647.2595409960934
 32
0.0
 13
118.726318
 23
647.2595409960934
 33
0.0
  0
SOLID
  5
285
330
288
100
AcDbEntity
  8
0
  6
ByBlock
 62
     0
380
     1
100
AcDbTrace
 10
794.226318
 20
646.8428743294268
 30
0.0
 11
791.726318
 21
646.4262076627601
 31
0.0
 12
791.726318
 22
647.2595409960934
 32
0.0
 13
791.726318
 23
647.2595409960934
 33
0.0
  0
MTEXT
  5
286
330
288
100
AcDbEntity
  8
0
  6
ByBlock
 62
     0
370
    -2
380
     1
100
AcDbMText
 10
455.226318
 20
648.5928743294268
 30
0.0
 40
2.5
 41
0.0
 71
     5
 72
     1
  1
\A1;678
 73
     1
 44
1.0
  0
ENDBLK
  5
36A
330
288
100
AcDbEntity
  8
0
100
AcDbBlockEnd
  0
BLOCK
  5
36B
330
293
100
AcDbEntity
  8
0
100
AcDbBlockBegin
  2
*D61
 70
     1
 10
0.0
 20
0.0
 30
0.0
  3
*D61
  1

  0
POINT
  5
28A
330
293
100
AcDbEntity
  8
DEFPOINTS
  6
ByBlock
 62
     7
380
     1
100
AcDbPoint
 10
116.226318
 20
550.133698
 30
0.0
  0
POINT
  5
28B
330
293
100
AcDbEntity
  8
DEFPOINTS
  6
ByBlock
 62
     7
380
     1
100
AcDbPoint
 10
794.226318
 20
544.0831434619403
 30
0.0
  0
LINE
  5
28C
330
293
100
AcDbEntity
  8
0
  6
ByBlock
 62
     7
370
    -2
380
     1
100
AcDbLine
 10
116.226318
 20
550.758698
 30
0.0
 11
116.226318
 21
648.0928743294268
 31
0.0
  0
LINE
  5
28D
330
293
100
AcDbEntity
  8
0
  6
ByBlock
 62
     7
370
    -2
380
     1
100
AcDbLine
 10
794.226318
 20
544.7081434619403
 30
0.0
 11
794.226318
 21
648.0928743294268
 31
0.0
  0
LINE
  5
28E
330
293
100
AcDbEntity
  8
0
  6
ByBlock
 62
     7
370
    -2
380
     1
100
AcDbLine
 10
126.226318
 20
646.8428743294268
 30
0.0
 11
784.226318
 21
646.8428743294268
 31
0.0
  0
SOLID
  5
28F
330
293
100
AcDbEntity
  8
0
  6
ByBlock
 62
     7
380
     1
100
AcDbTrace
 10
116.226318
 20
646.8428743294268
 30
0.0
 11
126.226318
 21
645.1762076627601
 31
0.0
 12
126.226318
 22
648.5095409960934
 32
0.0
 13
126.226318
 23
648.5095409960934
 33
0.0
  0
SOLID
  5
290
330
293
100
AcDbEntity
  8
0
  6
ByBlock
 62
     7
380
     1
100
AcDbTrace
 10
794.226318
 20
646.8428743294268
 30
0.0
 11
784.226318
 21
645.1762076627601
 31
0.0
 12
784.226318
 22
648.5095409960934
 32
0.0
 13
784.226318
 23
648.5095409960934
 33
0.0
  0
MTEXT
  5
291
330
293
100
AcDbEntity
  8
0
  6
ByBlock
 62
     0
370
    -2
380
     1
100
AcDbMText
 10
455.226318
 20
658.1428743294267
 30
0.0
 40
14.0
 41
0.0
 71
     5
 72
     1
  1
\A1;678
 73
     1
 44
1.0
  0
ENDBLK
  5
36C
330
293
100
AcDbEntity
  8
0
100
AcDbBlockEnd
  0
BLOCK
  5
36D
330
29F
100
AcDbEntity
  8
0
100
AcDbBlockBegin
  2
*D62
 70
     1
 10
0.0
 20
0.0
 30
0.0
  3
*D62
  1

  0
POINT
  5
296
330
29F
100
AcDbEntity
  8
DEFPOINTS
  6
ByBlock
 62
     0
370
    40
380
     1
100
AcDbPoint
 10
646.1299063269577
 20
614.133698
 30
0.0
  0
POINT
  5
297
330
29F
100
AcDbEntity
  8
DEFPOINTS
  6
ByBlock
 62
     0
370
    40
380
     1
100
AcDbPoint
 10
646.1299063269577
 20
486.133698
 30
0.0
  0
LINE
  5
298
330
29F
100
AcDbEntity
  8
0
  6
ByBlock
 62
     0
370
    -2
380
     1
100
AcDbLine
 10
646.7549063269577
 20
614.133698
 30
0.0
 11
837.299757167905
 21
614.133698
 31
0.0
  0
LINE
  5
299
330
29F
100
AcDbEntity
  8
0
  6
ByBlock
 62
     0
370
    -2
380
     1
100
AcDbLine
 10
646.7549063269577
 20
486.133698
 30
0.0
 11
837.299757167905
 21
486.133698
 31
0.0
  0
LINE
  5
29A
330
29F
100
AcDbEntity
  8
0
  6
ByBlock
 62
     0
370
    -2
380
     1
100
AcDbLine
 10
836.049757167905
 20
611.633698
 30
0.0
 11
836.049757167905
 21
488.633698
 31
0.0
  0
SOLID
  5
29B
330
29F
100
AcDbEntity
  8
0
  6
ByBlock
 62
     0
370
    40
380
     1
100
AcDbTrace
 10
836.049757167905
 20
614.133698
 30
0.0
 11
835.6330905012384
 21
611.633698
 31
0.0
 12
836.4664238345716
 22
611.633698
 32
0.0
 13
836.4664238345716
 23
611.633698
 33
0.0
  0
SOLID
  5
29C
330
29F
100
AcDbEntity
  8
0
  6
ByBlock
 62
     0
370
    40
380
     1
100
AcDbTrace
 10
836.049757167905
 20
486.133698
 30
0.0
 11
835.6330905012384
 21
488.633698
 31
0.0
 12
836.4664238345716
 22
488.633698
 32
0.0
 13
836.4664238345716
 23
488.633698
 33
0.0
  0
MTEXT
  5
29D
330
29F
100
AcDbEntity
  8
0
  6
ByBlock
 62
     0
370
    -2
380
     1
100
AcDbMText
 10
834.299757167905
 20
550.133698
 30
0.0
 40
2.5
 41
0.0
 71
     5
 72
     1
  1
\A1;128
 11
6.123031769111886E-17
 21
1.0
 31
0.0
 73
     1
 44
1.0
  0
ENDBLK
  5
36E
330
29F
100
AcDbEntity
  8
0
100
AcDbBlockEnd
  0
BLOCK
  5
36F
330
2AA
100
AcDbEntity
  8
0
100
AcDbBlockBegin
  2
*D63
 70
     1
 10
0.0
 20
0.0
 30
0.0
  3
*D63
  1

  0
POINT
  5
2A1
330
2AA
100
AcDbEntity
  8
DEFPOINTS
  6
ByBlock
 62
     7
370
    40
380
     1
100
AcDbPoint
 10
646.1299063269577
 20
614.133698
 30
0.0
  0
POINT
  5
2A2
330
2AA
100
AcDbEntity
  8
DEFPOINTS
  6
ByBlock
 62
     7
370
    40
380
     1
100
AcDbPoint
 10
646.1299063269577
 20
486.133698
 30
0.0
  0
LINE
  5
2A3
330
2AA
100
AcDbEntity
  8
0
  6
ByBlock
 62
     7
370
    -2
380
     1
100
AcDbLine
 10
646.7549063269577
 20
614.133698
 30
0.0
 11
837.299757167905
 21
614.133698
 31
0.0
  0
LINE
  5
2A4
330
2AA
100
AcDbEntity
  8
0
  6
ByBlock
 62
     7
370
    -2
380
     1
100
AcDbLine
 10
646.7549063269577
 20
486.133698
 30
0.0
 11
837.299757167905
 21
486.133698
 31
0.0
  0
LINE
  5
2A5
330
2AA
100
AcDbEntity
  8
0
  6
ByBlock
 62
     7
370
    -2
380
     1
100
AcDbLine
 10
836.049757167905
 20
604.133698
 30
0.0
 11
836.049757167905
 21
496.133698
 31
0.0
  0
SOLID
  5
2A6
330
2AA
100
AcDbEntity
  8
0
  6
ByBlock
 62
     7
370
    40
380
     1
100
AcDbTrace
 10
836.049757167905
 20
614.133698
 30
0.0
 11
834.3830905012384
 21
604.133698
 31
0.0
 12
837.7164238345716
 22
604.133698
 32
0.0
 13
837.7164238345716
 23
604.133698
 33
0.0
  0
SOLID
  5
2A7
330
2AA
100
AcDbEntity
  8
0
  6
ByBlock
 62
     7
370
    40
380
     1
100
AcDbTrace
 10
836.049757167905
 20
486.133698
 30
0.0
 11
834.3830905012384
 21
496.133698
 31
0.0
 12
837.7164238345716
 22
496.133698
 32
0.0
 13
837.7164238345716
 23
496.133698
 33
0.0
  0
MTEXT
  5
2A8
330
2AA
100
AcDbEntity
  8
0
  6
ByBlock
 62
     0
370
    -2
380
     1
100
AcDbMText
 10
824.749757167905
 20
550.133698
 30
0.0
 40
14.0
 41
0.0
 71
     5
 72
     1
  1
\A1;128
 11
6.123031769111886E-17
 21
1.0
 31
0.0
 73
     1
 44
1.0
  0
ENDBLK
  5
370
330
2AA
100
AcDbEntity
  8
0
100
AcDbBlockEnd
  0
BLOCK
  5
371
330
2B6
100
AcDbEntity
  8
0
100
AcDbBlockBegin
  2
*D64
 70
     1
 10
0.0
 20
0.0
 30
0.0
  3
*D64
  1

  0
POINT
  5
2AD
330
2B6
100
AcDbEntity
  8
DEFPOINTS
  6
ByBlock
 62
     0
370
    40
380
     1
100
AcDbPoint
 10
690.6506029840862
 20
325.293698
 30
0.0
  0
POINT
  5
2AE
330
2B6
100
AcDbEntity
  8
DEFPOINTS
  6
ByBlock
 62
     0
370
    40
380
     1
100
AcDbPoint
 10
690.6506029840862
 20
267.293698
 30
0.0
  0
LINE
  5
2AF
330
2B6
100
AcDbEntity
  8
0
  6
ByBlock
 62
     0
370
    -2
380
     1
100
AcDbLine
 10
691.2756029840862
 20
325.293698
 30
0.0
 11
808.1721829567101
 21
325.293698
 31
0.0
  0
LINE
  5
2B0
330
2B6
100
AcDbEntity
  8
0
  6
ByBlock
 62
     0
370
    -2
380
     1
100
AcDbLine
 10
691.2756029840862
 20
267.293698
 30
0.0
 11
808.1721829567101
 21
267.293698
 31
0.0
  0
LINE
  5
2B1
330
2B6
100
AcDbEntity
  8
0
  6
ByBlock
 62
     0
370
    -2
380
     1
100
AcDbLine
 10
806.9221829567101
 20
322.793698
 30
0.0
 11
806.9221829567101
 21
269.793698
 31
0.0
  0
SOLID
  5
2B2
330
2B6
100
AcDbEntity
  8
0
  6
ByBlock
 62
     0
370
    40
380
     1
100
AcDbTrace
 10
806.9221829567101
 20
325.293698
 30
0.0
 11
806.5055162900435
 21
322.793698
 31
0.0
 12
807.3388496233767
 22
322.793698
 32
0.0
 13
807.3388496233767
 23
322.793698
 33
0.0
  0
SOLID
  5
2B3
330
2B6
100
AcDbEntity
  8
0
  6
ByBlock
 62
     0
370
    40
380
     1
100
AcDbTrace
 10
806.9221829567101
 20
267.293698
 30
0.0
 11
806.5055162900435
 21
269.793698
 31
0.0
 12
807.3388496233767
 22
269.793698
 32
0.0
 13
807.3388496233767
 23
269.793698
 33
0.0
  0
MTEXT
  5
2B4
330
2B6
100
AcDbEntity
  8
0
  6
ByBlock
 62
     0
370
    -2
380
     1
100
AcDbMText
 10
805.1721829567101
 20
296.293698
 30
0.0
 40
2.5
 41
0.0
 71
     5
 72
     1
  1
\A1;58
 11
6.123031769111886E-17
 21
1.0
 31
0.0
 73
     1
 44
1.0
  0
ENDBLK
  5
372
330
2B6
100
AcDbEntity
  8
0
100
AcDbBlockEnd
  0
BLOCK
  5
373
330
2C2
100
AcDbEntity
  8
0
100
AcDbBlockBegin
  2
*D65
 70
     1
 10
0.0
 20
0.0
 30
0.0
  3
*D65
  1

  0
POINT
  5
2B9
330
2C2
100
AcDbEntity
  8
DEFPOINTS
  6
ByBlock
 62
     0
370
    40
380
     1
100
AcDbPoint
 10
690.6506029840862
 20
325.293698
 30
0.0
  0
POINT
  5
2BA
330
2C2
100
AcDbEntity
  8
DEFPOINTS
  6
ByBlock
 62
     0
370
    40
380
     1
100
AcDbPoint
 10
690.6506029840862
 20
267.293698
 30
0.0
  0
LINE
  5
2BB
330
2C2
100
AcDbEntity
  8
0
  6
ByBlock
 62
     0
370
    -2
380
     1
100
AcDbLine
 10
691.2756029840862
 20
325.293698
 30
0.0
 11
837.299757167905
 21
325.293698
 31
0.0
  0
LINE
  5
2BC
330
2C2
100
AcDbEntity
  8
0
  6
ByBlock
 62
     0
370
    -2
380
     1
100
AcDbLine
 10
691.2756029840862
 20
267.293698
 30
0.0
 11
837.299757167905
 21
267.293698
 31
0.0
  0
LINE
  5
2BD
330
2C2
100
AcDbEntity
  8
0
  6
ByBlock
 62
     0
370
    -2
380
     1
100
AcDbLine
 10
836.049757167905
 20
322.793698
 30
0.0
 11
836.049757167905
 21
269.793698
 31
0.0
  0
SOLID
  5
2BE
330
2C2
100
AcDbEntity
  8
0
  6
ByBlock
 62
     0
370
    40
380
     1
100
AcDbTrace
 10
836.049757167905
 20
325.293698
 30
0.0
 11
835.6330905012384
 21
322.793698
 31
0.0
 12
836.4664238345716
 22
322.793698
 32
0.0
 13
836.4664238345716
 23
322.793698
 33
0.0
  0
SOLID
  5
2BF
330
2C2
100
AcDbEntity
  8
0
  6
ByBlock
 62
     0
370
    40
380
     1
100
AcDbTrace
 10
836.049757167905
 20
267.293698
 30
0.0
 11
835.6330905012384
 21
269.793698
 31
0.0
 12
836.4664238345716
 22
269.793698
 32
0.0
 13
836.4664238345716
 23
269.793698
 33
0.0
  0
MTEXT
  5
2C0
330
2C2
100
AcDbEntity
  8
0
  6
ByBlock
 62
     0
370
    -2
380
     1
100
AcDbMText
 10
834.299757167905
 20
296.293698
 30
0.0
 40
2.5
 41
0.0
 71
     5
 72
     1
  1
\A1;58
 11
6.123031769111886E-17
 21
1.0
 31
0.0
 73
     1
 44
1.0
  0
ENDBLK
  5
374
330
2C2
100
AcDbEntity
  8
0
100
AcDbBlockEnd
  0
BLOCK
  5
375
330
2CD
100
AcDbEntity
  8
0
100
AcDbBlockBegin
  2
*D66
 70
     1
 10
0.0
 20
0.0
 30
0.0
  3
*D66
  1

  0
POINT
  5
2C4
330
2CD
100
AcDbEntity
  8
DEFPOINTS
  6
ByBlock
 62
     7
370
    40
380
     1
100
AcDbPoint
 10
690.6506029840862
 20
325.293698
 30
0.0
  0
POINT
  5
2C5
330
2CD
100
AcDbEntity
  8
DEFPOINTS
  6
ByBlock
 62
     7
370
    40
380
     1
100
AcDbPoint
 10
690.6506029840862
 20
267.293698
 30
0.0
  0
LINE
  5
2C6
330
2CD
100
AcDbEntity
  8
0
  6
ByBlock
 62
     7
370
    -2
380
     1
100
AcDbLine
 10
691.2756029840862
 20
325.293698
 30
0.0
 11
837.299757167905
 21
325.293698
 31
0.0
  0
LINE
  5
2C7
330
2CD
100
AcDbEntity
  8
0
  6
ByBlock
 62
     7
370
    -2
380
     1
100
AcDbLine
 10
691.2756029840862
 20
267.293698
 30
0.0
 11
837.299757167905
 21
267.293698
 31
0.0
  0
LINE
  5
2C8
330
2CD
100
AcDbEntity
  8
0
  6
ByBlock
 62
     7
370
    -2
380
     1
100
AcDbLine
 10
836.049757167905
 20
315.293698
 30
0.0
 11
836.049757167905
 21
277.293698
 31
0.0
  0
SOLID
  5
2C9
330
2CD
100
AcDbEntity
  8
0
  6
ByBlock
 62
     7
370
    40
380
     1
100
AcDbTrace
 10
836.049757167905
 20
325.293698
 30
0.0
 11
834.3830905012384
 21
315.293698
 31
0.0
 12
837.7164238345716
 22
315.293698
 32
0.0
 13
837.7164238345716
 23
315.293698
 33
0.0
  0
SOLID
  5
2CA
330
2CD
100
AcDbEntity
  8
0
  6
ByBlock
 62
     7
370
    40
380
     1
100
AcDbTrace
 10
836.049757167905
 20
267.293698
 30
0.0
 11
834.3830905012384
 21
277.293698
 31
0.0
 12
837.7164238345716
 22
277.293698
 32
0.0
 13
837.7164238345716
 23
277.293698
 33
0.0
  0
MTEXT
  5
2CB
330
2CD
100
AcDbEntity
  8
0
  6
ByBlock
 62
     0
370
    -2
380
     1
100
AcDbMText
 10
824.749757167905
 20
296.293698
 30
0.0
 40
14.0
 41
0.0
 71
     5
 72
     1
  1
\A1;58
 11
6.123031769111886E-17
 21
1.0
 31
0.0
 73
     1
 44
1.0
  0
ENDBLK
  5
376
330
2CD
100
AcDbEntity
  8
0
100
AcDbBlockEnd
  0
ENDSEC
  0
SECTION
  2
ENTITIES
  0
INSERT
  5
228
330
1F
100
AcDbEntity
  8
0
370
    60
390
F
100
AcDbBlockReference
  2
BLOCK118
 10
455.226318
 20
325.293698
 30
0.0
  0
LINE
  5
250
330
1F
100
AcDbEntity
  8
0
 62
     7
370
    60
390
F
100
AcDbLine
 10
774.2833860000001
 20
609.133698
 30
0.0
 11
136.16925
 21
609.133698
 31
0.0
  0
LINE
  5
251
330
1F
100
AcDbEntity
  8
0
 62
     7
 48
0.112306
370
    60
390
F
100
AcDbLine
 10
774.2833860000001
 20
609.133698
 30
0.0
 11
771.106903
 21
605.957219
 31
0.0
  0
LINE
  5
252
330
1F
100
AcDbEntity
  8
0
 62
     7
370
    60
390
F
100
AcDbLine
 10
771.106903
 20
605.957219
 30
0.0
 11
139.345733
 21
605.957219
 31
0.0
  0
LINE
  5
253
330
1F
100
AcDbEntity
  8
0
 62
     7
 48
0.112306
370
    60
390
F
100
AcDbLine
 10
136.16925
 20
609.133698
 30
0.0
 11
139.345733
 21
605.957219
 31
0.0
  0
ARC
  5
254
330
1F
100
AcDbEntity
  8
0
 62
     7
370
    60
390
F
100
AcDbCircle
 10
131.226318
 20
599.133698
 30
0.0
 40
15.0
100
AcDbArc
 50
90.000003
 51
180.000005
  0
LINE
  5
255
330
1F
100
AcDbEntity
  8
0
 62
     7
370
    60
390
F
100
AcDbLine
 10
779.226318
 20
614.133698
 30
0.0
 11
131.226318
 21
614.133698
 31
0.0
  0
ARC
  5
256
330
1F
100
AcDbEntity
  8
0
 62
     7
370
    60
390
F
100
AcDbCircle
 10
779.226318
 20
599.133698
 30
0.0
 40
15.0
100
AcDbArc
 50
0.0
 51
90.000003
  0
LINE
  5
257
330
1F
100
AcDbEntity
  8
0
 62
     7
 48
0.112306
370
    60
390
F
100
AcDbLine
 10
136.16925
 20
491.133698
 30
0.0
 11
139.345733
 21
494.310177
 31
0.0
  0
LINE
  5
258
330
1F
100
AcDbEntity
  8
0
 62
     7
370
    60
390
F
100
AcDbLine
 10
771.106903
 20
494.310177
 30
0.0
 11
139.345733
 21
494.310177
 31
0.0
  0
LINE
  5
259
330
1F
100
AcDbEntity
  8
0
 62
     7
 48
0.112306
370
    60
390
F
100
AcDbLine
 10
774.2833860000001
 20
491.133698
 30
0.0
 11
771.106903
 21
494.310177
 31
0.0
  0
LINE
  5
25A
330
1F
100
AcDbEntity
  8
0
 62
     7
370
    60
390
F
100
AcDbLine
 10
774.2833860000001
 20
491.133698
 30
0.0
 11
136.16925
 21
491.133698
 31
0.0
  0
ARC
  5
25B
330
1F
100
AcDbEntity
  8
0
 62
     7
370
    60
390
F
100
AcDbCircle
 10
131.226318
 20
501.133698
 30
0.0
 40
15.0
100
AcDbArc
 50
179.999995
 51
269.999997
  0
LINE
  5
25C
330
1F
100
AcDbEntity
  8
0
 62
     7
370
    60
390
F
100
AcDbLine
 10
779.226318
 20
486.133698
 30
0.0
 11
131.226318
 21
486.133698
 31
0.0
  0
ARC
  5
25D
330
1F
100
AcDbEntity
  8
0
 62
     7
370
    60
390
F
100
AcDbCircle
 10
779.226318
 20
501.133698
 30
0.0
 40
15.0
100
AcDbArc
 50
269.999997
 51
360.0
  0
LINE
  5
25E
330
1F
100
AcDbEntity
  8
0
 62
     7
 48
0.112306
370
    60
390
F
100
AcDbLine
 10
789.226318
 20
594.190777
 30
0.0
 11
786.049835
 21
591.0142979999999
 31
0.0
  0
LINE
  5
25F
330
1F
100
AcDbEntity
  8
0
 62
     7
370
    60
390
F
100
AcDbLine
 10
789.226318
 20
506.076619
 30
0.0
 11
789.226318
 21
594.190777
 31
0.0
  0
LINE
  5
260
330
1F
100
AcDbEntity
  8
0
 62
     7
 48
0.112306
370
    60
390
F
100
AcDbLine
 10
789.226318
 20
506.076619
 30
0.0
 11
786.049835
 21
509.253098
 31
0.0
  0
LINE
  5
261
330
1F
100
AcDbEntity
  8
0
 62
     7
370
    60
390
F
100
AcDbLine
 10
786.049835
 20
509.253098
 30
0.0
 11
786.049835
 21
591.0142979999999
 31
0.0
  0
LINE
  5
262
330
1F
100
AcDbEntity
  8
0
 62
     7
370
    60
390
F
100
AcDbLine
 10
139.345733
 20
509.253098
 30
0.0
 11
139.345733
 21
591.0142979999999
 31
0.0
  0
LINE
  5
263
330
1F
100
AcDbEntity
  8
0
 62
     7
 48
0.373573
370
    60
390
F
100
AcDbLine
 10
139.345733
 20
591.0142979999999
 30
0.0
 11
124.402801
 21
591.0142979999999
 31
0.0
  0
LINE
  5
264
330
1F
100
AcDbEntity
  8
0
 62
     7
370
    60
390
F
100
AcDbLine
 10
124.402801
 20
509.253098
 30
0.0
 11
124.402801
 21
591.0142979999999
 31
0.0
  0
LINE
  5
265
330
1F
100
AcDbEntity
  8
0
 62
     7
 48
0.373573
370
    60
390
F
100
AcDbLine
 10
139.345733
 20
509.253098
 30
0.0
 11
124.402801
 21
509.253098
 31
0.0
  0
LINE
  5
266
330
1F
100
AcDbEntity
  8
0
 62
     7
370
    60
390
F
100
AcDbLine
 10
771.106903
 20
509.253098
 30
0.0
 11
771.106903
 21
591.0142979999999
 31
0.0
  0
LINE
  5
267
330
1F
100
AcDbEntity
  8
0
 62
     7
370
    60
390
F
100
AcDbLine
 10
771.106903
 20
591.0142979999999
 30
0.0
 11
139.345733
 21
591.0142979999999
 31
0.0
  0
LINE
  5
268
330
1F
100
AcDbEntity
  8
0
 62
     7
370
    60
390
F
100
AcDbLine
 10
771.106903
 20
509.253098
 30
0.0
 11
139.345733
 21
509.253098
 31
0.0
  0
LINE
  5
269
330
1F
100
AcDbEntity
  8
0
 62
     7
370
    60
390
F
100
AcDbLine
 10
116.226318
 20
501.133698
 30
0.0
 11
116.226318
 21
599.133698
 31
0.0
  0
LINE
  5
26A
330
1F
100
AcDbEntity
  8
0
 62
     7
 48
0.112306
370
    60
390
F
100
AcDbLine
 10
121.226318
 20
506.076619
 30
0.0
 11
124.402801
 21
509.253098
 31
0.0
  0
LINE
  5
26B
330
1F
100
AcDbEntity
  8
0
 62
     7
370
    60
390
F
100
AcDbLine
 10
121.226318
 20
506.076619
 30
0.0
 11
121.226318
 21
594.190777
 31
0.0
  0
LINE
  5
26C
330
1F
100
AcDbEntity
  8
0
 62
     7
 48
0.112306
370
    60
390
F
100
AcDbLine
 10
121.226318
 20
594.190777
 30
0.0
 11
124.402801
 21
591.0142979999999
 31
0.0
  0
LINE
  5
26D
330
1F
100
AcDbEntity
  8
0
 62
     7
370
    60
390
F
100
AcDbLine
 10
794.226318
 20
501.133698
 30
0.0
 11
794.226318
 21
599.133698
 31
0.0
  0
LINE
  5
26E
330
1F
100
AcDbEntity
  8
0
 62
     7
 48
0.373573
370
    60
390
F
100
AcDbLine
 10
771.106903
 20
591.0142979999999
 30
0.0
 11
786.049835
 21
591.0142979999999
 31
0.0
  0
LINE
  5
26F
330
1F
100
AcDbEntity
  8
0
 62
     7
 48
0.373573
370
    60
390
F
100
AcDbLine
 10
771.106903
 20
509.253098
 30
0.0
 11
786.049835
 21
509.253098
 31
0.0
  0
ELLIPSE
  5
270
330
1F
100
AcDbEntity
  8
0
 62
     7
370
    60
100
AcDbEllipse
 10
774.168762
 20
594.0761299999999
 30
0.0
 11
-10.68746185302734
 21
-10.68802356719971
 31
0.0
210
0.0
220
0.0
230
1.0
 40
0.9924190000000002
 41
2.359977130999538
 42
3.923156184821343
  0
ELLIPSE
  5
271
330
1F
100
AcDbEntity
  8
0
 62
     7
370
    60
100
AcDbEllipse
 10
136.283874
 20
594.0761299999999
 30
0.0
 11
10.68746185302734
 21
-10.68802356719971
 31
0.0
210
0.0
220
0.0
230
1.0
 40
0.9924190000000002
 41
2.36002912235904
 42
3.923208176181155
  0
ELLIPSE
  5
272
330
1F
100
AcDbEntity
  8
0
 62
     7
370
    60
100
AcDbEllipse
 10
136.283874
 20
506.191266
 30
0.0
 11
-10.68746185302734
 21
-10.68802356719971
 31
0.0
210
0.0
220
0.0
230
1.0
 40
0.9924190000000002
 41
5.501569784588225
 42
7.064748838410341
  0
ELLIPSE
  5
273
330
1F
100
AcDbEntity
  8
0
 62
     7
370
    60
100
AcDbEllipse
 10
774.168762
 20
506.191266
 30
0.0
 11
10.68746185302734
 21
-10.68802356719971
 31
0.0
210
0.0
220
0.0
230
1.0
 40
0.9924190000000002
 41
5.501621775948038
 42
7.064800829769843
  0
ELLIPSE
  5
274
330
1F
100
AcDbEntity
  8
0
 62
     7
370
    60
100
AcDbEllipse
 10
771.106903
 20
591.0142979999999
 30
0.0
 11
-10.60660171508789
 21
10.60660171508789
 31
0.0
210
0.0
220
0.0
230
1.0
 40
0.9924330000000001
 41
3.930788915260517
 42
5.493989045508851
  0
LINE
  5
275
330
1F
100
AcDbEntity
  8
0
 62
     7
 48
0.373573
370
    60
390
F
100
AcDbLine
 10
771.106903
 20
591.0142979999999
 30
0.0
 11
771.106903
 21
605.957219
 31
0.0
  0
ELLIPSE
  5
276
330
1F
100
AcDbEntity
  8
0
 62
     7
370
    60
100
AcDbEllipse
 10
139.345733
 20
591.0142979999999
 30
0.0
 11
10.60660171508789
 21
10.60660171508789
 31
0.0
210
0.0
220
0.0
230
1.0
 40
0.9924330000000001
 41
0.7891962616707353
 42
2.352396391919069
  0
LINE
  5
277
330
1F
100
AcDbEntity
  8
0
 62
     7
 48
0.373573
370
    60
390
F
100
AcDbLine
 10
139.345733
 20
591.0142979999999
 30
0.0
 11
139.345733
 21
605.957219
 31
0.0
  0
ELLIPSE
  5
278
330
1F
100
AcDbEntity
  8
0
 62
     7
370
    60
100
AcDbEllipse
 10
771.106903
 20
509.253098
 30
0.0
 11
-10.60660171508789
 21
-10.60660171508789
 31
0.0
210
0.0
220
0.0
230
1.0
 40
0.9924330000000001
 41
0.7891962616707353
 42
2.352396391919069
  0
LINE
  5
279
330
1F
100
AcDbEntity
  8
0
 62
     7
 48
0.373573
370
    60
390
F
100
AcDbLine
 10
771.106903
 20
509.253098
 30
0.0
 11
771.106903
 21
494.310177
 31
0.0
  0
ELLIPSE
  5
27A
330
1F
100
AcDbEntity
  8
0
 62
     7
370
    60
100
AcDbEllipse
 10
139.345733
 20
509.253098
 30
0.0
 11
10.60660171508789
 21
-10.60660171508789
 31
0.0
210
0.0
220
0.0
230
1.0
 40
0.9924330000000001
 41
3.930788915260517
 42
5.493989045508851
  0
LINE
  5
27B
330
1F
100
AcDbEntity
  8
0
 62
     7
 48
0.373573
370
    60
390
F
100
AcDbLine
 10
139.345733
 20
509.253098
 30
0.0
 11
139.345733
 21
494.310177
 31
0.0
  0
DIMENSION
  5
27D
330
1F
100
AcDbEntity
  8
0
100
AcDbDimension
  2
*D61
 10
794.226318
 20
646.8428743294268
 30
0.0
 11
455.226318
 21
658.1428743294267
 31
0.0
 70
    32
 71
     5
 41
2.5
 42
678.0
  3
Standard
100
AcDbAlignedDimension
 13
116.226318
 23
550.133698
 33
0.0
 14
794.226318
 24
544.0831434619403
 34
0.0
100
AcDbRotatedDimension
1001
ACAD
1000
DSTYLE
1002
{
1070
    41
1040
10.0
1070
   140
1040
14.0
1070
   147
1040
5.0
1070
   176
1070
     7
1070
   177
1070
     7
1070
   271
1070
     0
1070
   340
1005
11
1002
}
  0
DIMENSION
  5
294
330
1F
100
AcDbEntity
  8
0
370
    40
100
AcDbDimension
  2
*D63
 10
836.049757167905
 20
486.133698
 30
0.0
 11
824.749757167905
 21
550.133698
 31
0.0
 70
    32
 71
     5
 41
2.5
 42
128.0
  3
Standard
100
AcDbAlignedDimension
 13
646.1299063269577
 23
614.133698
 33
0.0
 14
646.1299063269577
 24
486.133698
 34
0.0
 50
90.0
100
AcDbRotatedDimension
1001
ACAD
1000
DSTYLE
1002
{
1070
    41
1040
10.0
1070
   140
1040
14.0
1070
   147
1040
5.0
1070
   176
1070
     7
1070
   177
1070
     7
1070
   271
1070
     0
1070
   340
1005
11
1002
}
  0
DIMENSION
  5
2AB
330
1F
100
AcDbEntity
  8
0
370
    40
100
AcDbDimension
  2
*D66
 10
836.049757167905
 20
267.293698
 30
0.0
 11
824.749757167905
 21
296.293698
 31
0.0
 70
   160
 71
     5
 41
2.5
 42
58.0
  3
Standard
100
AcDbAlignedDimension
 13
690.6506029840862
 23
325.293698
 33
0.0
 14
690.6506029840862
 24
267.293698
 34
0.0
 50
90.0
100
AcDbRotatedDimension
1001
ACAD
1000
DSTYLE
1002
{
1070
    41
1040
10.0
1070
   140
1040
14.0
1070
   147
1040
5.0
1070
   176
1070
     7
1070
   177
1070
     7
1070
   271
1070
     0
1070
   340
1005
11
1002
}
  0
VIEWPORT
  5
78
330
73
100
AcDbEntity
 67
     1
  8
0
 62
     0
370
     0
390
F
100
AcDbViewport
 10
0.0
 20
0.0
 30
0.0
 40
1000.0
 41
1000.0
 68
     1
 69
     1
 12
0.0
 22
0.0
 13
0.0
 23
0.0
 14
1.0
 24
1.0
 15
1.0
 25
1.0
 16
0.0
 26
0.0
 36
1.0
 17
0.0
 27
0.0
 37
0.0
 42
50.0
 43
0.0
 44
0.0
 45
1000.0
 50
0.0
 51
0.0
 72
   100
 90
   557056
  1

281
     0
 71
     0
 74
     0
110
0.0
120
0.0
130
0.0
111
1.0
121
0.0
131
0.0
112
0.0
122
1.0
132
0.0
 79
     0
146
0.0
  0
ENDSEC
  0
SECTION
  2
OBJECTS
  0
DICTIONARY
  5
C
330
0
100
AcDbDictionary
281
     1
  3
ACAD_COLOR
350
6C
  3
ACAD_GROUP
350
D
  3
ACAD_LAYOUT
350
1A
  3
ACAD_MATERIAL
350
6B
  3
ACAD_MLEADERSTYLE
350
379
  3
ACAD_MLINESTYLE
350
17
  3
ACAD_PLOTSETTINGS
350
19
  3
ACAD_PLOTSTYLENAME
350
E
  3
ACAD_SCALELIST
350
99
  3
ACAD_TABLESTYLE
350
92
  3
ACAD_WIPEOUT_VARS
350
2D0
  3
ACDBHEADERROUNDTRIPXREC
350
37A
  3
AcDbVariableDictionary
350
59
  3
DWGPROPS
350
37D
  0
DICTIONARY
  5
6C
102
{ACAD_REACTORS
330
C
102
}
330
C
100
AcDbDictionary
281
     1
  0
DICTIONARY
  5
D
102
{ACAD_REACTORS
330
C
102
}
330
C
100
AcDbDictionary
281
     1
  0
DICTIONARY
  5
1A
102
{ACAD_REACTORS
330
C
102
}
330
C
100
AcDbDictionary
281
     1
  3
Layout1
350
74
  3
Model
350
22
  0
DICTIONARY
  5
6B
102
{ACAD_REACTORS
330
C
102
}
330
C
100
AcDbDictionary
281
     1
  0
DICTIONARY
  5
379
102
{ACAD_REACTORS
330
C
102
}
330
C
100
AcDbDictionary
281
     1
  0
DICTIONARY
  5
17
102
{ACAD_REACTORS
330
C
102
}
330
C
100
AcDbDictionary
281
     1
  3
Standard
350
18
  0
DICTIONARY
  5
19
102
{ACAD_REACTORS
330
C
102
}
330
C
100
AcDbDictionary
281
     1
  0
ACDBDICTIONARYWDFLT
  5
E
102
{ACAD_REACTORS
330
C
102
}
330
C
100
AcDbDictionary
281
     1
  3
Normal
350
F
100
AcDbDictionaryWithDefault
340
F
  0
DICTIONARY
  5
99
102
{ACAD_REACTORS
330
C
102
}
330
C
100
AcDbDictionary
281
     1
  3
A0
350
22C
  3
A1
350
22D
  3
A2
350
22E
  3
A3
350
22F
  3
A4
350
230
  3
A5
350
231
  3
A6
350
232
  3
A7
350
233
  3
A8
350
234
  3
A9
350
235
  3
B0
350
236
  3
B1
350
237
  3
B2
350
238
  3
B3
350
239
  3
B4
350
23A
  3
B5
350
23B
  3
B6
350
23C
  3
B7
350
23D
  3
B8
350
23E
  3
B9
350
23F
  3
C0
350
240
  3
C1
350
241
  3
C2
350
242
  3
C3
350
243
  3
C4
350
244
  3
C5
350
245
  3
C6
350
246
  3
C7
350
247
  3
C8
350
248
  3
C9
350
249
  3
D0
350
24A
  3
D1
350
24B
  3
D2
350
24C
  0
DICTIONARY
  5
92
102
{ACAD_REACTORS
330
C
102
}
330
C
100
AcDbDictionary
281
     1
  0
WIPEOUTVARIABLES
  5
2D0
102
{ACAD_REACTORS
330
C
102
}
330
C
100
AcDbWipeoutVariables
 70
     1
  0
DICTIONARY
  5
37A
102
{ACAD_REACTORS
330
C
102
}
330
C
100
AcDbDictionary
281
     1
  3
COLORDICT
350
37B
  3
MATERIALDICT
350
37C
  0
DICTIONARY
  5
59
102
{ACAD_REACTORS
330
C
102
}
330
C
100
AcDbDictionary
281
     1
  3
CTABLESTYLE
350
98
  3
DIMASSOC
350
5A
  3
HIDETEXT
350
5E
  0
XRECORD
  5
37D
102
{ACAD_REACTORS
330
C
102
}
330
C
100
AcDbXrecord
280
     1
  1
DWGPROPS COOKIE
  2

  3

  4

  6

  7

  8
BelottiMc
  9

300
=
301
=
302
=
303
=
304
=
305
=
306
=
307
=
308
=
309
=
 40
0.0
 41
2447892.999999977
 42
2447893.0
  1

 90
        0
  0
LAYOUT
  5
74
102
{ACAD_REACTORS
330
1A
102
}
330
1A
100
AcDbPlotSettings
  1

  2
none_device
  4
none_user_media
  6

 40
0.0
 41
0.0
 42
0.0
 43
0.0
 44
0.0
 45
0.0
 46
0.0
 47
0.0
 48
0.0
 49
0.0
140
0.0
141
0.0
142
1.0
143
1.0
 70
   544
 72
     0
 73
     0
 74
     0
  7

 75
    16
147
1.0
148
0.0
149
0.0
100
AcDbLayout
  1
Layout1
 70
     1
 71
     0
 10
0.0
 20
0.0
 11
420.0
 21
297.0
 12
0.0
 22
0.0
 32
0.0
 14
0.0
 24
0.0
 34
0.0
 15
1189.0
 25
841.0
 35
2.0
146
0.0
 13
0.0
 23
0.0
 33
0.0
 16
1.0
 26
0.0
 36
0.0
 17
0.0
 27
1.0
 37
0.0
 76
     0
330
73
331
78
  0
LAYOUT
  5
22
102
{ACAD_REACTORS
330
1A
102
}
330
1A
100
AcDbPlotSettings
  1

  2
none_device
  4
none_user_media
  6

 40
6.349999904632568
 41
6.349999904632568
 42
6.350006103515625
 43
6.350006103515625
 44
215.8999938964844
 45
279.3999938964844
 46
0.0
 47
0.0
 48
0.0
 49
0.0
140
0.0
141
0.0
142
1.0
143
1.0
 70
 11936
 72
     0
 73
     0
 74
     0
  7

 75
     0
147
0.2543752219091587
148
0.0
149
0.0
100
AcDbLayout
  1
Model
 70
     1
 71
     0
 10
0.0
 20
0.0
 11
420.0
 21
297.0
 12
0.0
 22
0.0
 32
0.0
 14
116.226318
 24
213.1930970170159
 34
0.0
 15
837.299757167905
 25
663.049134
 35
0.0
146
0.0
 13
0.0
 23
0.0
 33
0.0
 16
1.0
 26
0.0
 36
0.0
 17
0.0
 27
1.0
 37
0.0
 76
     0
330
1F
331
97
  0
MLINESTYLE
  5
18
102
{ACAD_REACTORS
330
17
102
}
330
17
100
AcDbMlineStyle
  2
Standard
 70
     0
  3

 62
     0
 51
90.0
 52
90.0
 71
     2
 49
0.5
 62
   256
  6
BYLAYER
 49
-0.5
 62
   256
  6
BYLAYER
  0
ACDBPLACEHOLDER
  5
F
102
{ACAD_REACTORS
330
E
102
}
330
E
  0
SCALE
  5
22C
102
{ACAD_REACTORS
330
99
102
}
330
99
100
AcDbScale
 70
     0
300
1:1
140
1.0
141
1.0
290
     1
  0
SCALE
  5
22D
102
{ACAD_REACTORS
330
99
102
}
330
99
100
AcDbScale
 70
     0
300
1:2
140
1.0
141
2.0
290
     0
  0
SCALE
  5
22E
102
{ACAD_REACTORS
330
99
102
}
330
99
100
AcDbScale
 70
     0
300
1:4
140
1.0
141
4.0
290
     0
  0
SCALE
  5
22F
102
{ACAD_REACTORS
330
99
102
}
330
99
100
AcDbScale
 70
     0
300
1:5
140
1.0
141
5.0
290
     0
  0
SCALE
  5
230
102
{ACAD_REACTORS
330
99
102
}
330
99
100
AcDbScale
 70
     0
300
1:8
140
1.0
141
8.0
290
     0
  0
SCALE
  5
231
102
{ACAD_REACTORS
330
99
102
}
330
99
100
AcDbScale
 70
     0
300
1:10
140
1.0
141
10.0
290
     0
  0
SCALE
  5
232
102
{ACAD_REACTORS
330
99
102
}
330
99
100
AcDbScale
 70
     0
300
1:16
140
1.0
141
16.0
290
     0
  0
SCALE
  5
233
102
{ACAD_REACTORS
330
99
102
}
330
99
100
AcDbScale
 70
     0
300
1:20
140
1.0
141
20.0
290
     0
  0
SCALE
  5
234
102
{ACAD_REACTORS
330
99
102
}
330
99
100
AcDbScale
 70
     0
300
1:30
140
1.0
141
30.0
290
     0
  0
SCALE
  5
235
102
{ACAD_REACTORS
330
99
102
}
330
99
100
AcDbScale
 70
     0
300
1:40
140
1.0
141
40.0
290
     0
  0
SCALE
  5
236
102
{ACAD_REACTORS
330
99
102
}
330
99
100
AcDbScale
 70
     0
300
1:50
140
1.0
141
50.0
290
     0
  0
SCALE
  5
237
102
{ACAD_REACTORS
330
99
102
}
330
99
100
AcDbScale
 70
     0
300
1:100
140
1.0
141
100.0
290
     0
  0
SCALE
  5
238
102
{ACAD_REACTORS
330
99
102
}
330
99
100
AcDbScale
 70
     0
300
2:1
140
2.0
141
1.0
290
     0
  0
SCALE
  5
239
102
{ACAD_REACTORS
330
99
102
}
330
99
100
AcDbScale
 70
     0
300
4:1
140
4.0
141
1.0
290
     0
  0
SCALE
  5
23A
102
{ACAD_REACTORS
330
99
102
}
330
99
100
AcDbScale
 70
     0
300
8:1
140
8.0
141
1.0
290
     0
  0
SCALE
  5
23B
102
{ACAD_REACTORS
330
99
102
}
330
99
100
AcDbScale
 70
     0
300
10:1
140
10.0
141
1.0
290
     0
  0
SCALE
  5
23C
102
{ACAD_REACTORS
330
99
102
}
330
99
100
AcDbScale
 70
     0
300
100:1
140
100.0
141
1.0
290
     0
  0
SCALE
  5
23D
102
{ACAD_REACTORS
330
99
102
}
330
99
100
AcDbScale
 70
     0
300
1/128" = 1'-0"
140
0.0078125
141
12.0
290
     0
  0
SCALE
  5
23E
102
{ACAD_REACTORS
330
99
102
}
330
99
100
AcDbScale
 70
     0
300
1/64" = 1'-0"
140
0.015625
141
12.0
290
     0
  0
SCALE
  5
23F
102
{ACAD_REACTORS
330
99
102
}
330
99
100
AcDbScale
 70
     0
300
1/32" = 1'-0"
140
0.03125
141
12.0
290
     0
  0
SCALE
  5
240
102
{ACAD_REACTORS
330
99
102
}
330
99
100
AcDbScale
 70
     0
300
1/16" = 1'-0"
140
0.0625
141
12.0
290
     0
  0
SCALE
  5
241
102
{ACAD_REACTORS
330
99
102
}
330
99
100
AcDbScale
 70
     0
300
3/32" = 1'-0"
140
0.09375
141
12.0
290
     0
  0
SCALE
  5
242
102
{ACAD_REACTORS
330
99
102
}
330
99
100
AcDbScale
 70
     0
300
1/8" = 1'-0"
140
0.125
141
12.0
290
     0
  0
SCALE
  5
243
102
{ACAD_REACTORS
330
99
102
}
330
99
100
AcDbScale
 70
     0
300
3/16" = 1'-0"
140
0.1875
141
12.0
290
     0
  0
SCALE
  5
244
102
{ACAD_REACTORS
330
99
102
}
330
99
100
AcDbScale
 70
     0
300
1/4" = 1'-0"
140
0.25
141
12.0
290
     0
  0
SCALE
  5
245
102
{ACAD_REACTORS
330
99
102
}
330
99
100
AcDbScale
 70
     0
300
3/8" = 1'-0"
140
0.375
141
12.0
290
     0
  0
SCALE
  5
246
102
{ACAD_REACTORS
330
99
102
}
330
99
100
AcDbScale
 70
     0
300
1/2" = 1'-0"
140
0.5
141
12.0
290
     0
  0
SCALE
  5
247
102
{ACAD_REACTORS
330
99
102
}
330
99
100
AcDbScale
 70
     0
300
3/4" = 1'-0"
140
0.75
141
12.0
290
     0
  0
SCALE
  5
248
102
{ACAD_REACTORS
330
99
102
}
330
99
100
AcDbScale
 70
     0
300
1" = 1'-0"
140
1.0
141
12.0
290
     0
  0
SCALE
  5
249
102
{ACAD_REACTORS
330
99
102
}
330
99
100
AcDbScale
 70
     0
300
1-1/2" = 1'-0"
140
1.5
141
12.0
290
     0
  0
SCALE
  5
24A
102
{ACAD_REACTORS
330
99
102
}
330
99
100
AcDbScale
 70
     0
300
3" = 1'-0"
140
3.0
141
12.0
290
     0
  0
SCALE
  5
24B
102
{ACAD_REACTORS
330
99
102
}
330
99
100
AcDbScale
 70
     0
300
6" = 1'-0"
140
6.0
141
12.0
290
     0
  0
SCALE
  5
24C
102
{ACAD_REACTORS
330
99
102
}
330
99
100
AcDbScale
 70
     0
300
1'-0" = 1'-0"
140
12.0
141
12.0
290
     0
  0
XRECORD
  5
37B
102
{ACAD_REACTORS
330
37A
102
}
330
37A
100
AcDbXrecord
280
     1
340
6C
  0
XRECORD
  5
37C
102
{ACAD_REACTORS
330
37A
102
}
330
37A
100
AcDbXrecord
280
     1
340
6B
  0
DICTIONARYVAR
  5
98
102
{ACAD_REACTORS
330
59
102
}
330
59
100
DictionaryVariables
280
     0
  1
Standard
  0
DICTIONARYVAR
  5
5A
102
{ACAD_REACTORS
330
59
102
}
330
59
100
DictionaryVariables
280
     0
  1
2
  0
DICTIONARYVAR
  5
5E
102
{ACAD_REACTORS
330
59
102
}
330
59
100
DictionaryVariables
280
     0
  1
1
  0
ENDSEC
  0
EOF
