  0
SECTION
  2
HEADER
  9
$ACADVER
  1
AC1015
  9
$ACADMAINTVER
 70
     6
  9
$DWGCODEPAGE
  3
ANSI_1252
  9
$INSBASE
 10
0.0
 20
0.0
 30
0.0
  9
$EXTMIN
 10
250.401177
 20
179.742545741077
 30
0.0
  9
$EXTMAX
 10
2522.59165382766
 20
418.684803
 30
0.0
  9
$LIMMIN
 10
0.0
 20
0.0
  9
$LIMMAX
 10
420.0
 20
297.0
  9
$ORTHOMODE
 70
     1
  9
$REGENMODE
 70
     1
  9
$FILLMODE
 70
     1
  9
$QTEXTMODE
 70
     0
  9
$MIRRTEXT
 70
     1
  9
$LTSCALE
 40
1.0
  9
$ATTMODE
 70
     1
  9
$TEXTSIZE
 40
2.5
  9
$TRACEWID
 40
1.0
  9
$TEXTSTYLE
  7
Standard
  9
$CLAYER
  8
0
  9
$CELTYPE
  6
ByLayer
  9
$CECOLOR
 62
   256
  9
$CELTSCALE
 40
1.0
  9
$DISPSILH
 70
     0
  9
$DIMSCALE
 40
1.0
  9
$DIMASZ
 40
2.5
  9
$DIMEXO
 40
0.625
  9
$DIMDLI
 40
3.75
  9
$DIMRND
 40
0.0
  9
$DIMDLE
 40
0.0
  9
$DIMEXE
 40
1.25
  9
$DIMTP
 40
0.0
  9
$DIMTM
 40
0.0
  9
$DIMTXT
 40
2.5
  9
$DIMCEN
 40
2.5
  9
$DIMTSZ
 40
0.0
  9
$DIMTOL
 70
     0
  9
$DIMLIM
 70
     0
  9
$DIMTIH
 70
     0
  9
$DIMTOH
 70
     0
  9
$DIMSE1
 70
     0
  9
$DIMSE2
 70
     0
  9
$DIMTAD
 70
     1
  9
$DIMZIN
 70
     8
  9
$DIMBLK
  1

  9
$DIMASO
 70
     1
  9
$DIMSHO
 70
     1
  9
$DIMPOST
  1

  9
$DIMAPOST
  1

  9
$DIMALT
 70
     0
  9
$DIMALTD
 70
     3
  9
$DIMALTF
 40
0.03937
  9
$DIMLFAC
 40
1.0
  9
$DIMTOFL
 70
     1
  9
$DIMTVP
 40
0.0
  9
$DIMTIX
 70
     0
  9
$DIMSOXD
 70
     0
  9
$DIMSAH
 70
     0
  9
$DIMBLK1
  1

  9
$DIMBLK2
  1

  9
$DIMSTYLE
  2
Standard
  9
$DIMCLRD
 70
     0
  9
$DIMCLRE
 70
     0
  9
$DIMCLRT
 70
     0
  9
$DIMTFAC
 40
1.0
  9
$DIMGAP
 40
0.625
  9
$DIMJUST
 70
     0
  9
$DIMSD1
 70
     0
  9
$DIMSD2
 70
     0
  9
$DIMTOLJ
 70
     0
  9
$DIMTZIN
 70
     8
  9
$DIMALTZ
 70
     0
  9
$DIMALTTZ
 70
     0
  9
$DIMUPT
 70
     0
  9
$DIMDEC
 70
     2
  9
$DIMTDEC
 70
     2
  9
$DIMALTU
 70
     2
  9
$DIMALTTD
 70
     3
  9
$DIMTXSTY
  7
Standard
  9
$DIMAUNIT
 70
     0
  9
$DIMADEC
 70
     0
  9
$DIMALTRND
 40
0.0
  9
$DIMAZIN
 70
     0
  9
$DIMDSEP
 70
    44
  9
$DIMATFIT
 70
     0
  9
$DIMFRAC
 70
     0
  9
$DIMLDRBLK
  1

  9
$DIMLUNIT
 70
     2
  9
$DIMLWD
 70
    -2
  9
$DIMLWE
 70
    -2
  9
$DIMTMOVE
 70
     0
  9
$LUNITS
 70
     2
  9
$LUPREC
 70
     4
  9
$SKETCHINC
 40
1.0
  9
$FILLETRAD
 40
2.5
  9
$AUNITS
 70
     0
  9
$AUPREC
 70
     0
  9
$MENU
  1
.
  9
$ELEVATION
 40
0.0
  9
$PELEVATION
 40
0.0
  9
$THICKNESS
 40
0.0
  9
$LIMCHECK
 70
     0
  9
$CHAMFERA
 40
2.5
  9
$CHAMFERB
 40
2.5
  9
$CHAMFERC
 40
0.0
  9
$CHAMFERD
 40
0.0
  9
$SKPOLY
 70
     0
  9
$TDCREATE
 40
2447893.041666644
  9
$TDUCREATE
 40
2447892.999999977
  9
$TDUPDATE
 40
2447893.041666667
  9
$TDUUPDATE
 40
2447893.0
  9
$TDINDWG
 40
0.013680544
  9
$TDUSRTIMER
 40
0.013680544
  9
$USRTIMER
 70
     1
  9
$ANGBASE
 50
0.0
  9
$ANGDIR
 70
     0
  9
$PDMODE
 70
     0
  9
$PDSIZE
 40
0.0
  9
$PLINEWID
 40
0.0
  9
$SPLFRAME
 70
     0
  9
$SPLINETYPE
 70
     6
  9
$SPLINESEGS
 70
     8
  9
$HANDSEED
  5
877
  9
$SURFTAB1
 70
     6
  9
$SURFTAB2
 70
     6
  9
$SURFTYPE
 70
     6
  9
$SURFU
 70
     6
  9
$SURFV
 70
     6
  9
$UCSBASE
  2

  9
$UCSNAME
  2

  9
$UCSORG
 10
0.0
 20
0.0
 30
0.0
  9
$UCSXDIR
 10
1.0
 20
0.0
 30
0.0
  9
$UCSYDIR
 10
0.0
 20
1.0
 30
0.0
  9
$UCSORTHOREF
  2

  9
$UCSORTHOVIEW
 70
     0
  9
$UCSORGTOP
 10
0.0
 20
0.0
 30
0.0
  9
$UCSORGBOTTOM
 10
0.0
 20
0.0
 30
0.0
  9
$UCSORGLEFT
 10
0.0
 20
0.0
 30
0.0
  9
$UCSORGRIGHT
 10
0.0
 20
0.0
 30
0.0
  9
$UCSORGFRONT
 10
0.0
 20
0.0
 30
0.0
  9
$UCSORGBACK
 10
0.0
 20
0.0
 30
0.0
  9
$PUCSBASE
  2

  9
$PUCSNAME
  2

  9
$PUCSORG
 10
0.0
 20
0.0
 30
0.0
  9
$PUCSXDIR
 10
1.0
 20
0.0
 30
0.0
  9
$PUCSYDIR
 10
0.0
 20
1.0
 30
0.0
  9
$PUCSORTHOREF
  2

  9
$PUCSORTHOVIEW
 70
     0
  9
$PUCSORGTOP
 10
0.0
 20
0.0
 30
0.0
  9
$PUCSORGBOTTOM
 10
0.0
 20
0.0
 30
0.0
  9
$PUCSORGLEFT
 10
0.0
 20
0.0
 30
0.0
  9
$PUCSORGRIGHT
 10
0.0
 20
0.0
 30
0.0
  9
$PUCSORGFRONT
 10
0.0
 20
0.0
 30
0.0
  9
$PUCSORGBACK
 10
0.0
 20
0.0
 30
0.0
  9
$USERI1
 70
     0
  9
$USERI2
 70
     0
  9
$USERI3
 70
     0
  9
$USERI4
 70
     0
  9
$USERI5
 70
     0
  9
$USERR1
 40
0.0
  9
$USERR2
 40
0.0
  9
$USERR3
 40
0.0
  9
$USERR4
 40
0.0
  9
$USERR5
 40
0.0
  9
$WORLDVIEW
 70
     1
  9
$SHADEDGE
 70
     3
  9
$SHADEDIF
 70
    70
  9
$TILEMODE
 70
     1
  9
$MAXACTVP
 70
    48
  9
$PINSBASE
 10
0.0
 20
0.0
 30
0.0
  9
$PLIMCHECK
 70
     0
  9
$PEXTMIN
 10
0.0
 20
0.0
 30
0.0
  9
$PEXTMAX
 10
1053.266357
 20
259.294098
 30
2.0
  9
$PLIMMIN
 10
0.0
 20
0.0
  9
$PLIMMAX
 10
420.0
 20
297.0
  9
$UNITMODE
 70
     0
  9
$VISRETAIN
 70
     0
  9
$PLINEGEN
 70
     0
  9
$PSLTSCALE
 70
     1
  9
$TREEDEPTH
 70
  3020
  9
$CMLSTYLE
  2
Standard
  9
$CMLJUST
 70
     0
  9
$CMLSCALE
 40
20.0
  9
$PROXYGRAPHICS
 70
     1
  9
$MEASUREMENT
 70
     1
  9
$CELWEIGHT
370
    -1
  9
$ENDCAPS
280
     0
  9
$JOINSTYLE
280
     0
  9
$LWDISPLAY
290
     0
  9
$INSUNITS
 70
     0
  9
$HYPERLINKBASE
  1

  9
$STYLESHEET
  1

  9
$XEDIT
290
     1
  9
$CEPSNTYPE
380
     0
  9
$PSTYLEMODE
290
     0
  9
$FINGERPRINTGUID
  2

  9
$VERSIONGUID
  2

  9
$EXTNAMES
290
     0
  9
$PSVPSCALE
 40
0.0
  9
$OLESTARTUP
290
     0
  0
ENDSEC
  0
SECTION
  2
CLASSES
  0
CLASS
  1
ACDBDICTIONARYWDFLT
  2
AcDbDictionaryWithDefault
  3
ObjectDBX Classes
 90
        0
280
     0
281
     0
  0
CLASS
  1
ACDBPLACEHOLDER
  2
AcDbPlaceHolder
  3
ObjectDBX Classes
 90
        0
280
     0
281
     0
  0
CLASS
  1
LAYOUT
  2
AcDbLayout
  3
ObjectDBX Classes
 90
        0
280
     0
281
     0
  0
CLASS
  1
DICTIONARYVAR
  2
AcDbDictionaryVar
  3
ObjectDBX Classes
 90
        0
280
     0
281
     0
  0
CLASS
  1
TABLESTYLE
  2
AcDbTableStyle
  3
ObjectDBX Classes
 90
     4095
280
     0
281
     0
  0
CLASS
  1
SCALE
  2
AcDbScale
  3
ObjectDBX Classes
 90
     1153
280
     0
281
     0
  0
CLASS
  1
WIPEOUTVARIABLES
  2
AcDbWipeoutVariables
  3
WipeOut|AutoCAD Express Tool|expresstools@autodesk.com
 90
        0
280
     0
281
     0
  0
ENDSEC
  0
SECTION
  2
TABLES
  0
TABLE
  2
VPORT
  5
8
330
0
100
AcDbSymbolTable
 70
     2
  0
VPORT
  5
97
330
8
100
AcDbSymbolTableRecord
100
AcDbViewportTableRecord
  2
*ACTIVE
 70
     0
 10
0.0
 20
0.0
 11
1.0
 21
1.0
 12
1581.217578270345
 22
235.0281590662546
 13
0.0
 23
0.0
 14
1.0
 24
1.0
 15
0.5
 25
0.5
 16
0.0
 26
0.0
 36
1.0
 17
0.0
 27
0.0
 37
0.0
 40
1799.604051546748
 41
0.688564
 42
50.0
 43
0.0
 44
0.0
 50
0.0
 51
0.0
 71
     0
 72
   100
 73
     1
 74
     1
 75
     0
 76
     0
 77
     0
 78
     0
281
     0
 65
     1
110
0.0
120
0.0
130
0.0
111
1.0
121
0.0
131
0.0
112
0.0
122
1.0
132
0.0
 79
     0
146
0.0
  0
ENDTAB
  0
TABLE
  2
LTYPE
  5
5
330
0
100
AcDbSymbolTable
 70
     2
  0
LTYPE
  5
14
330
5
100
AcDbSymbolTableRecord
100
AcDbLinetypeTableRecord
  2
ByBlock
 70
     0
  3

 72
    65
 73
     0
 40
0.0
  0
LTYPE
  5
15
330
5
100
AcDbSymbolTableRecord
100
AcDbLinetypeTableRecord
  2
ByLayer
 70
     0
  3

 72
    65
 73
     0
 40
0.0
  0
LTYPE
  5
16
330
5
100
AcDbSymbolTableRecord
100
AcDbLinetypeTableRecord
  2
Continuous
 70
     0
  3
Solid line
 72
    65
 73
     0
 40
0.0
  0
LTYPE
  5
6D7
330
5
100
AcDbSymbolTableRecord
100
AcDbLinetypeTableRecord
  2
DASHDOT
 70
     0
  3
 __ . __ . __ . __ . __ . __ . __ . 
 72
    65
 73
     4
 40
18.5
 49
12.0
 74
     0
 49
-3.0
 74
     0
 49
0.5
 74
     0
 49
-3.0
 74
     0
  0
ENDTAB
  0
TABLE
  2
LAYER
  5
2
330
0
100
AcDbSymbolTable
 70
     2
  0
LAYER
  5
10
330
2
100
AcDbSymbolTableRecord
100
AcDbLayerTableRecord
  2
0
 70
     0
 62
     7
  6
Continuous
370
    13
390
F
  0
LAYER
  5
66E
330
2
100
AcDbSymbolTableRecord
100
AcDbLayerTableRecord
  2
DEFPOINTS
 70
     0
 62
     7
  6
Continuous
290
     0
370
    -3
390
F
  0
ENDTAB
  0
TABLE
  2
STYLE
  5
3
330
0
100
AcDbSymbolTable
 70
     2
  0
STYLE
  5
11
330
3
100
AcDbSymbolTableRecord
100
AcDbTextStyleTableRecord
  2
Standard
 70
     0
 40
0.0
 41
1.0
 50
0.0
 71
     0
 42
0.2
  3
isocp.shx
  4

  0
STYLE
  5
25
330
3
100
AcDbSymbolTableRecord
100
AcDbTextStyleTableRecord
  2
GDT
 70
     0
 40
0.0
 41
1.0
 50
0.0
 71
     0
 42
0.2
  3
gdt.shx
  4

  0
ENDTAB
  0
TABLE
  2
VIEW
  5
6
330
0
100
AcDbSymbolTable
 70
     0
  0
ENDTAB
  0
TABLE
  2
UCS
  5
7
330
0
100
AcDbSymbolTable
 70
     0
  0
ENDTAB
  0
TABLE
  2
APPID
  5
9
330
0
100
AcDbSymbolTable
 70
     2
  0
APPID
  5
12
330
9
100
AcDbSymbolTableRecord
100
AcDbRegAppTableRecord
  2
ACAD
 70
     0
  0
APPID
  5
6D6
330
9
100
AcDbSymbolTableRecord
100
AcDbRegAppTableRecord
  2
Conv5506CA
 70
     0
  0
ENDTAB
  0
TABLE
  2
DIMSTYLE
  5
A
330
0
100
AcDbSymbolTable
 70
     1
100
AcDbDimStyleTable
  0
DIMSTYLE
105
27
102
{ACAD_REACTORS
330
67B
330
69D
102
}
330
A
100
AcDbSymbolTableRecord
100
AcDbDimStyleTableRecord
  2
Standard
 70
     0
 41
2.5
 42
0.625
 43
3.75
 44
1.25
 73
     0
 74
     0
 77
     1
 78
     8
140
2.5
141
2.5
143
0.03937
147
0.625
171
     3
172
     1
271
     2
272
     2
274
     3
278
    44
283
     0
284
     8
289
     0
340
11
  0
ENDTAB
  0
TABLE
  2
BLOCK_RECORD
  5
1
330
0
100
AcDbSymbolTable
 70
   186
  0
BLOCK_RECORD
  5
1F
330
1
100
AcDbSymbolTableRecord
100
AcDbBlockTableRecord
  2
*Model_Space
340
22
  0
BLOCK_RECORD
  5
73
330
1
100
AcDbSymbolTableRecord
100
AcDbBlockTableRecord
  2
*Paper_Space
340
74
  0
BLOCK_RECORD
  5
2B3
330
1
100
AcDbSymbolTableRecord
100
AcDbBlockTableRecord
  2
BLOCK472
340
0
  0
BLOCK_RECORD
  5
2B4
330
1
100
AcDbSymbolTableRecord
100
AcDbBlockTableRecord
  2
BLOCK473
340
0
  0
BLOCK_RECORD
  5
2B5
330
1
100
AcDbSymbolTableRecord
100
AcDbBlockTableRecord
  2
BLOCK474
340
0
  0
BLOCK_RECORD
  5
2B6
330
1
100
AcDbSymbolTableRecord
100
AcDbBlockTableRecord
  2
BLOCK475
340
0
  0
BLOCK_RECORD
  5
2B7
330
1
100
AcDbSymbolTableRecord
100
AcDbBlockTableRecord
  2
BLOCK476
340
0
  0
BLOCK_RECORD
  5
2B8
330
1
100
AcDbSymbolTableRecord
100
AcDbBlockTableRecord
  2
BLOCK477
340
0
  0
BLOCK_RECORD
  5
2B9
330
1
100
AcDbSymbolTableRecord
100
AcDbBlockTableRecord
  2
BLOCK478
340
0
  0
BLOCK_RECORD
  5
2BA
330
1
100
AcDbSymbolTableRecord
100
AcDbBlockTableRecord
  2
BLOCK479
340
0
  0
BLOCK_RECORD
  5
2BB
330
1
100
AcDbSymbolTableRecord
100
AcDbBlockTableRecord
  2
BLOCK480
340
0
  0
BLOCK_RECORD
  5
2BC
330
1
100
AcDbSymbolTableRecord
100
AcDbBlockTableRecord
  2
BLOCK481
340
0
  0
BLOCK_RECORD
  5
2BD
330
1
100
AcDbSymbolTableRecord
100
AcDbBlockTableRecord
  2
BLOCK482
340
0
  0
BLOCK_RECORD
  5
2BE
330
1
100
AcDbSymbolTableRecord
100
AcDbBlockTableRecord
  2
BLOCK483
340
0
  0
BLOCK_RECORD
  5
2BF
330
1
100
AcDbSymbolTableRecord
100
AcDbBlockTableRecord
  2
BLOCK484
340
0
  0
BLOCK_RECORD
  5
2C0
330
1
100
AcDbSymbolTableRecord
100
AcDbBlockTableRecord
  2
BLOCK485
340
0
  0
BLOCK_RECORD
  5
2C1
330
1
100
AcDbSymbolTableRecord
100
AcDbBlockTableRecord
  2
BLOCK486
340
0
  0
BLOCK_RECORD
  5
2C2
330
1
100
AcDbSymbolTableRecord
100
AcDbBlockTableRecord
  2
BLOCK487
340
0
  0
BLOCK_RECORD
  5
2C3
330
1
100
AcDbSymbolTableRecord
100
AcDbBlockTableRecord
  2
BLOCK488
340
0
  0
BLOCK_RECORD
  5
2C4
330
1
100
AcDbSymbolTableRecord
100
AcDbBlockTableRecord
  2
BLOCK489
340
0
  0
BLOCK_RECORD
  5
2C5
330
1
100
AcDbSymbolTableRecord
100
AcDbBlockTableRecord
  2
BLOCK490
340
0
  0
BLOCK_RECORD
  5
2C6
330
1
100
AcDbSymbolTableRecord
100
AcDbBlockTableRecord
  2
BLOCK491
340
0
  0
BLOCK_RECORD
  5
2C7
330
1
100
AcDbSymbolTableRecord
100
AcDbBlockTableRecord
  2
BLOCK492
340
0
  0
BLOCK_RECORD
  5
2C8
330
1
100
AcDbSymbolTableRecord
100
AcDbBlockTableRecord
  2
BLOCK493
340
0
  0
BLOCK_RECORD
  5
2C9
330
1
100
AcDbSymbolTableRecord
100
AcDbBlockTableRecord
  2
BLOCK494
340
0
  0
BLOCK_RECORD
  5
2CA
330
1
100
AcDbSymbolTableRecord
100
AcDbBlockTableRecord
  2
BLOCK495
340
0
  0
BLOCK_RECORD
  5
2CB
330
1
100
AcDbSymbolTableRecord
100
AcDbBlockTableRecord
  2
BLOCK496
340
0
  0
BLOCK_RECORD
  5
2CC
330
1
100
AcDbSymbolTableRecord
100
AcDbBlockTableRecord
  2
BLOCK497
340
0
  0
BLOCK_RECORD
  5
2CD
330
1
100
AcDbSymbolTableRecord
100
AcDbBlockTableRecord
  2
BLOCK498
340
0
  0
BLOCK_RECORD
  5
2CE
330
1
100
AcDbSymbolTableRecord
100
AcDbBlockTableRecord
  2
BLOCK499
340
0
  0
BLOCK_RECORD
  5
2CF
330
1
100
AcDbSymbolTableRecord
100
AcDbBlockTableRecord
  2
BLOCK500
340
0
  0
BLOCK_RECORD
  5
2D0
330
1
100
AcDbSymbolTableRecord
100
AcDbBlockTableRecord
  2
BLOCK501
340
0
  0
BLOCK_RECORD
  5
2D1
330
1
100
AcDbSymbolTableRecord
100
AcDbBlockTableRecord
  2
BLOCK502
340
0
  0
BLOCK_RECORD
  5
2D2
330
1
100
AcDbSymbolTableRecord
100
AcDbBlockTableRecord
  2
BLOCK503
340
0
  0
BLOCK_RECORD
  5
2D3
330
1
100
AcDbSymbolTableRecord
100
AcDbBlockTableRecord
  2
BLOCK504
340
0
  0
BLOCK_RECORD
  5
2D4
330
1
100
AcDbSymbolTableRecord
100
AcDbBlockTableRecord
  2
BLOCK505
340
0
  0
BLOCK_RECORD
  5
2D5
330
1
100
AcDbSymbolTableRecord
100
AcDbBlockTableRecord
  2
BLOCK506
340
0
  0
BLOCK_RECORD
  5
2D6
330
1
100
AcDbSymbolTableRecord
100
AcDbBlockTableRecord
  2
BLOCK507
340
0
  0
BLOCK_RECORD
  5
2D7
330
1
100
AcDbSymbolTableRecord
100
AcDbBlockTableRecord
  2
BLOCK508
340
0
  0
BLOCK_RECORD
  5
2D8
330
1
100
AcDbSymbolTableRecord
100
AcDbBlockTableRecord
  2
BLOCK509
340
0
  0
BLOCK_RECORD
  5
2D9
330
1
100
AcDbSymbolTableRecord
100
AcDbBlockTableRecord
  2
BLOCK510
340
0
  0
BLOCK_RECORD
  5
2DA
330
1
100
AcDbSymbolTableRecord
100
AcDbBlockTableRecord
  2
BLOCK511
340
0
  0
BLOCK_RECORD
  5
2DB
330
1
100
AcDbSymbolTableRecord
100
AcDbBlockTableRecord
  2
BLOCK512
340
0
  0
BLOCK_RECORD
  5
2DC
330
1
100
AcDbSymbolTableRecord
100
AcDbBlockTableRecord
  2
BLOCK513
340
0
  0
BLOCK_RECORD
  5
2DD
330
1
100
AcDbSymbolTableRecord
100
AcDbBlockTableRecord
  2
BLOCK514
340
0
  0
BLOCK_RECORD
  5
2DE
330
1
100
AcDbSymbolTableRecord
100
AcDbBlockTableRecord
  2
BLOCK515
340
0
  0
BLOCK_RECORD
  5
2DF
330
1
100
AcDbSymbolTableRecord
100
AcDbBlockTableRecord
  2
BLOCK516
340
0
  0
BLOCK_RECORD
  5
2E0
330
1
100
AcDbSymbolTableRecord
100
AcDbBlockTableRecord
  2
BLOCK517
340
0
  0
BLOCK_RECORD
  5
2E1
330
1
100
AcDbSymbolTableRecord
100
AcDbBlockTableRecord
  2
BLOCK518
340
0
  0
BLOCK_RECORD
  5
2E2
330
1
100
AcDbSymbolTableRecord
100
AcDbBlockTableRecord
  2
BLOCK519
340
0
  0
BLOCK_RECORD
  5
2E3
330
1
100
AcDbSymbolTableRecord
100
AcDbBlockTableRecord
  2
BLOCK520
340
0
  0
BLOCK_RECORD
  5
2E4
330
1
100
AcDbSymbolTableRecord
100
AcDbBlockTableRecord
  2
BLOCK521
340
0
  0
BLOCK_RECORD
  5
2E5
330
1
100
AcDbSymbolTableRecord
100
AcDbBlockTableRecord
  2
BLOCK522
340
0
  0
BLOCK_RECORD
  5
2E6
330
1
100
AcDbSymbolTableRecord
100
AcDbBlockTableRecord
  2
BLOCK523
340
0
  0
BLOCK_RECORD
  5
2E7
330
1
100
AcDbSymbolTableRecord
100
AcDbBlockTableRecord
  2
BLOCK524
340
0
  0
BLOCK_RECORD
  5
2E8
330
1
100
AcDbSymbolTableRecord
100
AcDbBlockTableRecord
  2
BLOCK525
340
0
  0
BLOCK_RECORD
  5
2E9
330
1
100
AcDbSymbolTableRecord
100
AcDbBlockTableRecord
  2
BLOCK526
340
0
  0
BLOCK_RECORD
  5
2EA
330
1
100
AcDbSymbolTableRecord
100
AcDbBlockTableRecord
  2
BLOCK527
340
0
  0
BLOCK_RECORD
  5
2EB
330
1
100
AcDbSymbolTableRecord
100
AcDbBlockTableRecord
  2
BLOCK528
340
0
  0
BLOCK_RECORD
  5
2EC
330
1
100
AcDbSymbolTableRecord
100
AcDbBlockTableRecord
  2
BLOCK529
340
0
  0
BLOCK_RECORD
  5
2ED
330
1
100
AcDbSymbolTableRecord
100
AcDbBlockTableRecord
  2
BLOCK530
340
0
  0
BLOCK_RECORD
  5
2EE
330
1
100
AcDbSymbolTableRecord
100
AcDbBlockTableRecord
  2
BLOCK531
340
0
  0
BLOCK_RECORD
  5
2EF
330
1
100
AcDbSymbolTableRecord
100
AcDbBlockTableRecord
  2
BLOCK532
340
0
  0
BLOCK_RECORD
  5
2F0
330
1
100
AcDbSymbolTableRecord
100
AcDbBlockTableRecord
  2
BLOCK533
340
0
  0
BLOCK_RECORD
  5
2F1
330
1
100
AcDbSymbolTableRecord
100
AcDbBlockTableRecord
  2
BLOCK534
340
0
  0
BLOCK_RECORD
  5
2F2
330
1
100
AcDbSymbolTableRecord
100
AcDbBlockTableRecord
  2
BLOCK535
340
0
  0
BLOCK_RECORD
  5
2F3
330
1
100
AcDbSymbolTableRecord
100
AcDbBlockTableRecord
  2
BLOCK536
340
0
  0
BLOCK_RECORD
  5
2F4
330
1
100
AcDbSymbolTableRecord
100
AcDbBlockTableRecord
  2
BLOCK537
340
0
  0
BLOCK_RECORD
  5
2F5
330
1
100
AcDbSymbolTableRecord
100
AcDbBlockTableRecord
  2
BLOCK538
340
0
  0
BLOCK_RECORD
  5
2F6
330
1
100
AcDbSymbolTableRecord
100
AcDbBlockTableRecord
  2
BLOCK539
340
0
  0
BLOCK_RECORD
  5
2F7
330
1
100
AcDbSymbolTableRecord
100
AcDbBlockTableRecord
  2
BLOCK540
340
0
  0
BLOCK_RECORD
  5
2F8
330
1
100
AcDbSymbolTableRecord
100
AcDbBlockTableRecord
  2
BLOCK541
340
0
  0
BLOCK_RECORD
  5
2F9
330
1
100
AcDbSymbolTableRecord
100
AcDbBlockTableRecord
  2
BLOCK542
340
0
  0
BLOCK_RECORD
  5
2FA
330
1
100
AcDbSymbolTableRecord
100
AcDbBlockTableRecord
  2
BLOCK543
340
0
  0
BLOCK_RECORD
  5
2FB
330
1
100
AcDbSymbolTableRecord
100
AcDbBlockTableRecord
  2
BLOCK544
340
0
  0
BLOCK_RECORD
  5
2FC
330
1
100
AcDbSymbolTableRecord
100
AcDbBlockTableRecord
  2
BLOCK545
340
0
  0
BLOCK_RECORD
  5
2FD
330
1
100
AcDbSymbolTableRecord
100
AcDbBlockTableRecord
  2
BLOCK546
340
0
  0
BLOCK_RECORD
  5
2FE
330
1
100
AcDbSymbolTableRecord
100
AcDbBlockTableRecord
  2
BLOCK547
340
0
  0
BLOCK_RECORD
  5
2FF
330
1
100
AcDbSymbolTableRecord
100
AcDbBlockTableRecord
  2
BLOCK548
340
0
  0
BLOCK_RECORD
  5
300
330
1
100
AcDbSymbolTableRecord
100
AcDbBlockTableRecord
  2
BLOCK549
340
0
  0
BLOCK_RECORD
  5
301
330
1
100
AcDbSymbolTableRecord
100
AcDbBlockTableRecord
  2
BLOCK550
340
0
  0
BLOCK_RECORD
  5
302
330
1
100
AcDbSymbolTableRecord
100
AcDbBlockTableRecord
  2
BLOCK551
340
0
  0
BLOCK_RECORD
  5
303
330
1
100
AcDbSymbolTableRecord
100
AcDbBlockTableRecord
  2
BLOCK552
340
0
  0
BLOCK_RECORD
  5
304
330
1
100
AcDbSymbolTableRecord
100
AcDbBlockTableRecord
  2
BLOCK553
340
0
  0
BLOCK_RECORD
  5
305
330
1
100
AcDbSymbolTableRecord
100
AcDbBlockTableRecord
  2
BLOCK554
340
0
  0
BLOCK_RECORD
  5
306
330
1
100
AcDbSymbolTableRecord
100
AcDbBlockTableRecord
  2
BLOCK555
340
0
  0
BLOCK_RECORD
  5
307
330
1
100
AcDbSymbolTableRecord
100
AcDbBlockTableRecord
  2
BLOCK556
340
0
  0
BLOCK_RECORD
  5
308
330
1
100
AcDbSymbolTableRecord
100
AcDbBlockTableRecord
  2
BLOCK557
340
0
  0
BLOCK_RECORD
  5
309
330
1
100
AcDbSymbolTableRecord
100
AcDbBlockTableRecord
  2
BLOCK558
340
0
  0
BLOCK_RECORD
  5
30A
330
1
100
AcDbSymbolTableRecord
100
AcDbBlockTableRecord
  2
BLOCK559
340
0
  0
BLOCK_RECORD
  5
30B
330
1
100
AcDbSymbolTableRecord
100
AcDbBlockTableRecord
  2
BLOCK560
340
0
  0
BLOCK_RECORD
  5
30C
330
1
100
AcDbSymbolTableRecord
100
AcDbBlockTableRecord
  2
BLOCK561
340
0
  0
BLOCK_RECORD
  5
30D
330
1
100
AcDbSymbolTableRecord
100
AcDbBlockTableRecord
  2
BLOCK562
340
0
  0
BLOCK_RECORD
  5
30E
330
1
100
AcDbSymbolTableRecord
100
AcDbBlockTableRecord
  2
BLOCK563
340
0
  0
BLOCK_RECORD
  5
30F
330
1
100
AcDbSymbolTableRecord
100
AcDbBlockTableRecord
  2
BLOCK564
340
0
  0
BLOCK_RECORD
  5
310
330
1
100
AcDbSymbolTableRecord
100
AcDbBlockTableRecord
  2
BLOCK565
340
0
  0
BLOCK_RECORD
  5
311
330
1
100
AcDbSymbolTableRecord
100
AcDbBlockTableRecord
  2
BLOCK566
340
0
  0
BLOCK_RECORD
  5
312
330
1
100
AcDbSymbolTableRecord
100
AcDbBlockTableRecord
  2
BLOCK567
340
0
  0
BLOCK_RECORD
  5
313
330
1
100
AcDbSymbolTableRecord
100
AcDbBlockTableRecord
  2
BLOCK568
340
0
  0
BLOCK_RECORD
  5
314
330
1
100
AcDbSymbolTableRecord
100
AcDbBlockTableRecord
  2
BLOCK569
340
0
  0
BLOCK_RECORD
  5
315
330
1
100
AcDbSymbolTableRecord
100
AcDbBlockTableRecord
  2
BLOCK570
340
0
  0
BLOCK_RECORD
  5
316
330
1
100
AcDbSymbolTableRecord
100
AcDbBlockTableRecord
  2
BLOCK571
340
0
  0
BLOCK_RECORD
  5
317
330
1
100
AcDbSymbolTableRecord
100
AcDbBlockTableRecord
  2
BLOCK572
340
0
  0
BLOCK_RECORD
  5
318
330
1
100
AcDbSymbolTableRecord
100
AcDbBlockTableRecord
  2
BLOCK573
340
0
  0
BLOCK_RECORD
  5
319
330
1
100
AcDbSymbolTableRecord
100
AcDbBlockTableRecord
  2
BLOCK574
340
0
  0
BLOCK_RECORD
  5
31A
330
1
100
AcDbSymbolTableRecord
100
AcDbBlockTableRecord
  2
BLOCK575
340
0
  0
BLOCK_RECORD
  5
31B
330
1
100
AcDbSymbolTableRecord
100
AcDbBlockTableRecord
  2
BLOCK576
340
0
  0
BLOCK_RECORD
  5
31C
330
1
100
AcDbSymbolTableRecord
100
AcDbBlockTableRecord
  2
BLOCK577
340
0
  0
BLOCK_RECORD
  5
31D
330
1
100
AcDbSymbolTableRecord
100
AcDbBlockTableRecord
  2
BLOCK578
340
0
  0
BLOCK_RECORD
  5
31E
330
1
100
AcDbSymbolTableRecord
100
AcDbBlockTableRecord
  2
BLOCK579
340
0
  0
BLOCK_RECORD
  5
31F
330
1
100
AcDbSymbolTableRecord
100
AcDbBlockTableRecord
  2
BLOCK580
340
0
  0
BLOCK_RECORD
  5
320
330
1
100
AcDbSymbolTableRecord
100
AcDbBlockTableRecord
  2
BLOCK581
340
0
  0
BLOCK_RECORD
  5
321
330
1
100
AcDbSymbolTableRecord
100
AcDbBlockTableRecord
  2
BLOCK582
340
0
  0
BLOCK_RECORD
  5
322
330
1
100
AcDbSymbolTableRecord
100
AcDbBlockTableRecord
  2
BLOCK583
340
0
  0
BLOCK_RECORD
  5
323
330
1
100
AcDbSymbolTableRecord
100
AcDbBlockTableRecord
  2
BLOCK584
340
0
  0
BLOCK_RECORD
  5
324
330
1
100
AcDbSymbolTableRecord
100
AcDbBlockTableRecord
  2
BLOCK585
340
0
  0
BLOCK_RECORD
  5
325
330
1
100
AcDbSymbolTableRecord
100
AcDbBlockTableRecord
  2
BLOCK586
340
0
  0
BLOCK_RECORD
  5
326
330
1
100
AcDbSymbolTableRecord
100
AcDbBlockTableRecord
  2
BLOCK587
340
0
  0
BLOCK_RECORD
  5
327
330
1
100
AcDbSymbolTableRecord
100
AcDbBlockTableRecord
  2
BLOCK588
340
0
  0
BLOCK_RECORD
  5
328
330
1
100
AcDbSymbolTableRecord
100
AcDbBlockTableRecord
  2
BLOCK589
340
0
  0
BLOCK_RECORD
  5
329
330
1
100
AcDbSymbolTableRecord
100
AcDbBlockTableRecord
  2
BLOCK590
340
0
  0
BLOCK_RECORD
  5
32A
330
1
100
AcDbSymbolTableRecord
100
AcDbBlockTableRecord
  2
BLOCK591
340
0
  0
BLOCK_RECORD
  5
32B
330
1
100
AcDbSymbolTableRecord
100
AcDbBlockTableRecord
  2
BLOCK592
340
0
  0
BLOCK_RECORD
  5
32C
330
1
100
AcDbSymbolTableRecord
100
AcDbBlockTableRecord
  2
BLOCK593
340
0
  0
BLOCK_RECORD
  5
32D
330
1
100
AcDbSymbolTableRecord
100
AcDbBlockTableRecord
  2
BLOCK594
340
0
  0
BLOCK_RECORD
  5
32E
330
1
100
AcDbSymbolTableRecord
100
AcDbBlockTableRecord
  2
BLOCK595
340
0
  0
BLOCK_RECORD
  5
32F
330
1
100
AcDbSymbolTableRecord
100
AcDbBlockTableRecord
  2
BLOCK596
340
0
  0
BLOCK_RECORD
  5
330
330
1
100
AcDbSymbolTableRecord
100
AcDbBlockTableRecord
  2
BLOCK597
340
0
  0
BLOCK_RECORD
  5
331
330
1
100
AcDbSymbolTableRecord
100
AcDbBlockTableRecord
  2
BLOCK598
340
0
  0
BLOCK_RECORD
  5
332
330
1
100
AcDbSymbolTableRecord
100
AcDbBlockTableRecord
  2
BLOCK599
340
0
  0
BLOCK_RECORD
  5
333
330
1
100
AcDbSymbolTableRecord
100
AcDbBlockTableRecord
  2
BLOCK600
340
0
  0
BLOCK_RECORD
  5
334
330
1
100
AcDbSymbolTableRecord
100
AcDbBlockTableRecord
  2
BLOCK601
340
0
  0
BLOCK_RECORD
  5
335
330
1
100
AcDbSymbolTableRecord
100
AcDbBlockTableRecord
  2
BLOCK602
340
0
  0
BLOCK_RECORD
  5
336
330
1
100
AcDbSymbolTableRecord
100
AcDbBlockTableRecord
  2
BLOCK603
340
0
  0
BLOCK_RECORD
  5
337
330
1
100
AcDbSymbolTableRecord
100
AcDbBlockTableRecord
  2
BLOCK604
340
0
  0
BLOCK_RECORD
  5
338
330
1
100
AcDbSymbolTableRecord
100
AcDbBlockTableRecord
  2
BLOCK605
340
0
  0
BLOCK_RECORD
  5
339
330
1
100
AcDbSymbolTableRecord
100
AcDbBlockTableRecord
  2
BLOCK606
340
0
  0
BLOCK_RECORD
  5
33A
330
1
100
AcDbSymbolTableRecord
100
AcDbBlockTableRecord
  2
BLOCK607
340
0
  0
BLOCK_RECORD
  5
33B
330
1
100
AcDbSymbolTableRecord
100
AcDbBlockTableRecord
  2
BLOCK608
340
0
  0
BLOCK_RECORD
  5
33C
330
1
100
AcDbSymbolTableRecord
100
AcDbBlockTableRecord
  2
BLOCK609
340
0
  0
BLOCK_RECORD
  5
33D
330
1
100
AcDbSymbolTableRecord
100
AcDbBlockTableRecord
  2
BLOCK610
340
0
  0
BLOCK_RECORD
  5
33E
330
1
100
AcDbSymbolTableRecord
100
AcDbBlockTableRecord
  2
BLOCK611
340
0
  0
BLOCK_RECORD
  5
33F
330
1
100
AcDbSymbolTableRecord
100
AcDbBlockTableRecord
  2
BLOCK612
340
0
  0
BLOCK_RECORD
  5
340
330
1
100
AcDbSymbolTableRecord
100
AcDbBlockTableRecord
  2
BLOCK613
340
0
  0
BLOCK_RECORD
  5
341
330
1
100
AcDbSymbolTableRecord
100
AcDbBlockTableRecord
  2
BLOCK614
340
0
  0
BLOCK_RECORD
  5
342
330
1
100
AcDbSymbolTableRecord
100
AcDbBlockTableRecord
  2
BLOCK615
340
0
  0
BLOCK_RECORD
  5
343
330
1
100
AcDbSymbolTableRecord
100
AcDbBlockTableRecord
  2
BLOCK616
340
0
  0
BLOCK_RECORD
  5
344
330
1
100
AcDbSymbolTableRecord
100
AcDbBlockTableRecord
  2
BLOCK617
340
0
  0
BLOCK_RECORD
  5
345
330
1
100
AcDbSymbolTableRecord
100
AcDbBlockTableRecord
  2
BLOCK618
340
0
  0
BLOCK_RECORD
  5
346
330
1
100
AcDbSymbolTableRecord
100
AcDbBlockTableRecord
  2
BLOCK619
340
0
  0
BLOCK_RECORD
  5
347
330
1
100
AcDbSymbolTableRecord
100
AcDbBlockTableRecord
  2
BLOCK620
340
0
  0
BLOCK_RECORD
  5
348
330
1
100
AcDbSymbolTableRecord
100
AcDbBlockTableRecord
  2
BLOCK621
340
0
  0
BLOCK_RECORD
  5
349
330
1
100
AcDbSymbolTableRecord
100
AcDbBlockTableRecord
  2
BLOCK622
340
0
  0
BLOCK_RECORD
  5
34A
330
1
100
AcDbSymbolTableRecord
100
AcDbBlockTableRecord
  2
BLOCK623
340
0
  0
BLOCK_RECORD
  5
34B
330
1
100
AcDbSymbolTableRecord
100
AcDbBlockTableRecord
  2
BLOCK624
340
0
  0
BLOCK_RECORD
  5
34C
330
1
100
AcDbSymbolTableRecord
100
AcDbBlockTableRecord
  2
BLOCK625
340
0
  0
BLOCK_RECORD
  5
34D
330
1
100
AcDbSymbolTableRecord
100
AcDbBlockTableRecord
  2
BLOCK626
340
0
  0
BLOCK_RECORD
  5
34E
330
1
100
AcDbSymbolTableRecord
100
AcDbBlockTableRecord
  2
BLOCK627
340
0
  0
BLOCK_RECORD
  5
34F
330
1
100
AcDbSymbolTableRecord
100
AcDbBlockTableRecord
  2
BLOCK628
340
0
  0
BLOCK_RECORD
  5
350
330
1
100
AcDbSymbolTableRecord
100
AcDbBlockTableRecord
  2
BLOCK629
340
0
  0
BLOCK_RECORD
  5
351
330
1
100
AcDbSymbolTableRecord
100
AcDbBlockTableRecord
  2
BLOCK630
340
0
  0
BLOCK_RECORD
  5
352
330
1
100
AcDbSymbolTableRecord
100
AcDbBlockTableRecord
  2
BLOCK631
340
0
  0
BLOCK_RECORD
  5
353
330
1
100
AcDbSymbolTableRecord
100
AcDbBlockTableRecord
  2
BLOCK632
340
0
  0
BLOCK_RECORD
  5
354
330
1
100
AcDbSymbolTableRecord
100
AcDbBlockTableRecord
  2
BLOCK633
340
0
  0
BLOCK_RECORD
  5
355
330
1
100
AcDbSymbolTableRecord
100
AcDbBlockTableRecord
  2
BLOCK634
340
0
  0
BLOCK_RECORD
  5
356
330
1
100
AcDbSymbolTableRecord
100
AcDbBlockTableRecord
  2
BLOCK635
340
0
  0
BLOCK_RECORD
  5
357
330
1
100
AcDbSymbolTableRecord
100
AcDbBlockTableRecord
  2
BLOCK636
340
0
  0
BLOCK_RECORD
  5
358
330
1
100
AcDbSymbolTableRecord
100
AcDbBlockTableRecord
  2
BLOCK637
340
0
  0
BLOCK_RECORD
  5
359
330
1
100
AcDbSymbolTableRecord
100
AcDbBlockTableRecord
  2
BLOCK638
340
0
  0
BLOCK_RECORD
  5
35A
330
1
100
AcDbSymbolTableRecord
100
AcDbBlockTableRecord
  2
BLOCK639
340
0
  0
BLOCK_RECORD
  5
35B
330
1
100
AcDbSymbolTableRecord
100
AcDbBlockTableRecord
  2
BLOCK640
340
0
  0
BLOCK_RECORD
  5
35C
330
1
100
AcDbSymbolTableRecord
100
AcDbBlockTableRecord
  2
BLOCK641
340
0
  0
BLOCK_RECORD
  5
35D
330
1
100
AcDbSymbolTableRecord
100
AcDbBlockTableRecord
  2
BLOCK642
340
0
  0
BLOCK_RECORD
  5
35E
330
1
100
AcDbSymbolTableRecord
100
AcDbBlockTableRecord
  2
BLOCK643
340
0
  0
BLOCK_RECORD
  5
35F
330
1
100
AcDbSymbolTableRecord
100
AcDbBlockTableRecord
  2
BLOCK644
340
0
  0
BLOCK_RECORD
  5
360
330
1
100
AcDbSymbolTableRecord
100
AcDbBlockTableRecord
  2
BLOCK645
340
0
  0
BLOCK_RECORD
  5
361
330
1
100
AcDbSymbolTableRecord
100
AcDbBlockTableRecord
  2
BLOCK646
340
0
  0
BLOCK_RECORD
  5
362
330
1
100
AcDbSymbolTableRecord
100
AcDbBlockTableRecord
  2
BLOCK647
340
0
  0
BLOCK_RECORD
  5
363
330
1
100
AcDbSymbolTableRecord
100
AcDbBlockTableRecord
  2
BLOCK648
340
0
  0
BLOCK_RECORD
  5
67A
330
1
100
AcDbSymbolTableRecord
100
AcDbBlockTableRecord
  2
*D177
340
0
  0
BLOCK_RECORD
  5
686
330
1
100
AcDbSymbolTableRecord
100
AcDbBlockTableRecord
  2
*D178
340
0
  0
BLOCK_RECORD
  5
691
330
1
100
AcDbSymbolTableRecord
100
AcDbBlockTableRecord
  2
*D179
340
0
  0
BLOCK_RECORD
  5
69C
330
1
100
AcDbSymbolTableRecord
100
AcDbBlockTableRecord
  2
*D180
340
0
  0
BLOCK_RECORD
  5
6A8
330
1
100
AcDbSymbolTableRecord
100
AcDbBlockTableRecord
  2
*D181
340
0
  0
BLOCK_RECORD
  5
6B3
330
1
100
AcDbSymbolTableRecord
100
AcDbBlockTableRecord
  2
*D182
340
0
  0
BLOCK_RECORD
  5
6BE
330
1
100
AcDbSymbolTableRecord
100
AcDbBlockTableRecord
  2
*D183
340
0
  0
BLOCK_RECORD
  5
6C9
330
1
100
AcDbSymbolTableRecord
100
AcDbBlockTableRecord
  2
*D184
340
0
  0
BLOCK_RECORD
  5
6D4
330
1
100
AcDbSymbolTableRecord
100
AcDbBlockTableRecord
  2
*D185
340
0
  0
ENDTAB
  0
ENDSEC
  0
SECTION
  2
BLOCKS
  0
BLOCK
  5
20
330
1F
100
AcDbEntity
  8
0
100
AcDbBlockBegin
  2
*Model_Space
 70
     0
 10
0.0
 20
0.0
 30
0.0
  3
*Model_Space
  1

  0
ENDBLK
  5
21
330
1F
100
AcDbEntity
  8
0
100
AcDbBlockEnd
  0
BLOCK
  5
75
330
73
100
AcDbEntity
 67
     1
  8
0
100
AcDbBlockBegin
  2
*Paper_Space
 70
     0
 10
0.0
 20
0.0
 30
0.0
  3
*Paper_Space
  1

  0
ENDBLK
  5
76
330
73
100
AcDbEntity
 67
     1
  8
0
100
AcDbBlockEnd
  0
BLOCK
  5
6D9
330
2B3
100
AcDbEntity
  8
0
100
AcDbBlockBegin
  2
BLOCK472
 70
     0
 10
0.0
 20
0.0
 30
0.0
  3
BLOCK472
  1

  0
TEXT
  5
365
330
2B3
100
AcDbEntity
  8
0
 62
     7
370
    13
390
F
100
AcDbText
 10
368.450714
 20
48.311954
 30
0.0
 40
3.0
  1
 35,4
 50
349.571336200907
 41
1.3749950534883
 72
     5
 11
381.432617
 21
45.922615
 31
0.0
100
AcDbText
  0
ENDBLK
  5
6DA
330
2B3
100
AcDbEntity
  8
0
100
AcDbBlockEnd
  0
BLOCK
  5
6DB
330
2B4
100
AcDbEntity
  8
0
100
AcDbBlockBegin
  2
BLOCK473
 70
     0
 10
0.0
 20
0.0
 30
0.0
  3
BLOCK473
  1

  0
TEXT
  5
368
330
2B4
100
AcDbEntity
  8
0
 62
     7
370
    13
390
F
100
AcDbText
 10
368.450714
 20
48.311954
 30
0.0
 40
3.0
  1
R
 50
349.5714135391919
 41
1.128208871472217
 72
     5
 11
370.61438
 21
47.913731
 31
0.0
100
AcDbText
  0
ENDBLK
  5
6DC
330
2B4
100
AcDbEntity
  8
0
100
AcDbBlockEnd
  0
BLOCK
  5
6DD
330
2B5
100
AcDbEntity
  8
0
100
AcDbBlockBegin
  2
BLOCK474
 70
     0
 10
0.0
 20
0.0
 30
0.0
  3
BLOCK474
  1

  0
TEXT
  5
36B
330
2B5
100
AcDbEntity
  8
0
 62
     7
370
    13
390
F
100
AcDbText
 10
408.176392
 20
17.752588
 30
0.0
 40
3.0
  1
12,6
 50
90.0
 41
1.658725555555556
 72
     5
 11
408.176392
 21
28.202559
 31
0.0
100
AcDbText
  0
ENDBLK
  5
6DE
330
2B5
100
AcDbEntity
  8
0
100
AcDbBlockEnd
  0
BLOCK
  5
6DF
330
2B6
100
AcDbEntity
  8
0
100
AcDbBlockBegin
  2
BLOCK475
 70
     0
 10
0.0
 20
0.0
 30
0.0
  3
BLOCK475
  1

  0
TEXT
  5
36E
330
2B6
100
AcDbEntity
  8
0
 62
     7
370
    13
390
F
100
AcDbText
 10
376.539276
 20
34.156826
 30
0.0
 40
3.0
  1
60
 41
1.319164230406052
 72
     5
 11
381.489258
 21
34.156826
 31
0.0
100
AcDbText
  0
ENDBLK
  5
6E0
330
2B6
100
AcDbEntity
  8
0
100
AcDbBlockEnd
  0
BLOCK
  5
6E1
330
2B7
100
AcDbEntity
  8
0
100
AcDbBlockBegin
  2
BLOCK476
 70
     0
 10
0.0
 20
0.0
 30
0.0
  3
BLOCK476
  1

  0
TEXT
  5
371
330
2B7
100
AcDbEntity
  8
0
 62
     7
370
    13
390
F
100
AcDbText
 10
386.241608
 20
50.42506
 30
0.0
 40
3.0
  1
 63
 50
322.9260911550672
 41
1.252028912432036
 72
     5
 11
392.385101
 21
45.783169
 31
0.0
100
AcDbText
  0
ENDBLK
  5
6E2
330
2B7
100
AcDbEntity
  8
0
100
AcDbBlockEnd
  0
BLOCK
  5
6E3
330
2B8
100
AcDbEntity
  8
0
100
AcDbBlockBegin
  2
BLOCK477
 70
     0
 10
0.0
 20
0.0
 30
0.0
  3
BLOCK477
  1

  0
TEXT
  5
374
330
2B8
100
AcDbEntity
  8
0
 62
     7
370
    13
390
F
100
AcDbText
 10
386.241608
 20
50.42506
 30
0.0
 40
3.0
  1
R
 50
322.9259251176982
 41
1.128201317350453
 72
     5
 11
387.996887
 21
49.098801
 31
0.0
100
AcDbText
  0
ENDBLK
  5
6E4
330
2B8
100
AcDbEntity
  8
0
100
AcDbBlockEnd
  0
BLOCK
  5
6E5
330
2B9
100
AcDbEntity
  8
0
100
AcDbBlockBegin
  2
BLOCK478
 70
     0
 10
0.0
 20
0.0
 30
0.0
  3
BLOCK478
  1

  0
TEXT
  5
377
330
2B9
100
AcDbEntity
  8
0
 62
     7
370
    13
390
F
100
AcDbText
 10
375.968506
 20
79.542366
 30
0.0
 40
2.999999
  1
 3,5
 50
2.3988714823779
 41
1.451382951550353
 72
     5
 11
386.409302
 21
79.979759
 31
0.0
100
AcDbText
  0
ENDBLK
  5
6E6
330
2B9
100
AcDbEntity
  8
0
100
AcDbBlockEnd
  0
BLOCK
  5
6E7
330
2BA
100
AcDbEntity
  8
0
100
AcDbBlockBegin
  2
BLOCK479
 70
     0
 10
0.0
 20
0.0
 30
0.0
  3
BLOCK479
  1

  0
TEXT
  5
37A
330
2BA
100
AcDbEntity
  8
0
 62
     7
370
    13
390
F
100
AcDbText
 10
375.968506
 20
79.542366
 30
0.0
 40
2.999999
  1
R
 50
2.398986027923565
 41
1.128198905540012
 72
     5
 11
378.166565
 21
79.634453
 31
0.0
100
AcDbText
  0
ENDBLK
  5
6E8
330
2BA
100
AcDbEntity
  8
0
100
AcDbBlockEnd
  0
BLOCK
  5
6E9
330
2BB
100
AcDbEntity
  8
0
100
AcDbBlockBegin
  2
BLOCK480
 70
     0
 10
0.0
 20
0.0
 30
0.0
  3
BLOCK480
  1

  0
TEXT
  5
37D
330
2BB
100
AcDbEntity
  8
0
 62
     7
370
    13
390
F
100
AcDbText
 10
535.934692
 20
-112.390701
 30
0.0
 40
3.0
  1
155
 41
1.466657523809512
 72
     5
 11
543.634644
 21
-112.390701
 31
0.0
100
AcDbText
  0
ENDBLK
  5
6EA
330
2BB
100
AcDbEntity
  8
0
100
AcDbBlockEnd
  0
BLOCK
  5
6EB
330
2BC
100
AcDbEntity
  8
0
100
AcDbBlockBegin
  2
BLOCK481
 70
     0
 10
0.0
 20
0.0
 30
0.0
  3
BLOCK481
  1

  0
TEXT
  5
380
330
2BC
100
AcDbEntity
  8
0
 62
     7
370
    13
390
F
100
AcDbText
 10
716.107178
 20
-113.575005
 30
0.0
 40
3.0
  1
L
 41
1.333340606060615
 72
     5
 11
718.30719
 21
-113.575005
 31
0.0
100
AcDbText
  0
ENDBLK
  5
6EC
330
2BC
100
AcDbEntity
  8
0
100
AcDbBlockEnd
  0
BLOCK
  5
6ED
330
2BD
100
AcDbEntity
  8
0
100
AcDbBlockBegin
  2
BLOCK482
 70
     0
 10
0.0
 20
0.0
 30
0.0
  3
BLOCK482
  1

  0
TEXT
  5
383
330
2BD
100
AcDbEntity
  8
0
 62
     7
370
    13
390
F
100
AcDbText
 10
716.107178
 20
-150.135086
 30
0.0
 40
3.0
  1
L1
 41
1.571432380952386
 72
     5
 11
721.05719
 21
-150.135086
 31
0.0
100
AcDbText
  0
ENDBLK
  5
6EE
330
2BD
100
AcDbEntity
  8
0
100
AcDbBlockEnd
  0
BLOCK
  5
6EF
330
2BE
100
AcDbEntity
  8
0
100
AcDbBlockBegin
  2
BLOCK483
 70
     0
 10
0.0
 20
0.0
 30
0.0
  3
BLOCK483
  1

  0
TEXT
  5
386
330
2BE
100
AcDbEntity
  8
0
 62
     7
370
    13
390
F
100
AcDbText
 10
536.492676
 20
-199.270187
 30
0.0
 40
5.0
  1
CODICE
 41
1.506598129870132
 72
     5
 11
565.49469
 21
-199.270187
 31
0.0
100
AcDbText
  0
ENDBLK
  5
6F0
330
2BE
100
AcDbEntity
  8
0
100
AcDbBlockEnd
  0
BLOCK
  5
6F1
330
2BF
100
AcDbEntity
  8
0
100
AcDbBlockBegin
  2
BLOCK484
 70
     0
 10
0.0
 20
0.0
 30
0.0
  3
BLOCK484
  1

  0
TEXT
  5
389
330
2BF
100
AcDbEntity
  8
0
 62
     7
370
    13
390
F
100
AcDbText
 10
593.96051
 20
-199.270187
 30
0.0
 40
5.0
  1
POTENZA
 41
1.24779155963303
 72
     5
 11
627.96283
 21
-199.270187
 31
0.0
100
AcDbText
  0
ENDBLK
  5
6F2
330
2BF
100
AcDbEntity
  8
0
100
AcDbBlockEnd
  0
BLOCK
  5
6F3
330
2C0
100
AcDbEntity
  8
0
100
AcDbBlockBegin
  2
BLOCK485
 70
     0
 10
0.0
 20
0.0
 30
0.0
  3
BLOCK485
  1

  0
TEXT
  5
38C
330
2C0
100
AcDbEntity
  8
0
 62
     7
370
    13
390
F
100
AcDbText
 10
656.595886
 20
-199.646759
 30
0.0
 40
5.0
  1
L
 41
1.454656363636373
 72
     5
 11
660.596191
 21
-199.646759
 31
0.0
100
AcDbText
  0
ENDBLK
  5
6F4
330
2C0
100
AcDbEntity
  8
0
100
AcDbBlockEnd
  0
BLOCK
  5
6F5
330
2C1
100
AcDbEntity
  8
0
100
AcDbBlockBegin
  2
BLOCK486
 70
     0
 10
0.0
 20
0.0
 30
0.0
  3
BLOCK486
  1

  0
TEXT
  5
38F
330
2C1
100
AcDbEntity
  8
0
 62
     7
370
    13
390
F
100
AcDbText
 10
685.256531
 20
-199.646759
 30
0.0
 40
5.0
  1
L1
 41
1.714413523809526
 72
     5
 11
694.257202
 21
-199.646759
 31
0.0
100
AcDbText
  0
ENDBLK
  5
6F6
330
2C1
100
AcDbEntity
  8
0
100
AcDbBlockEnd
  0
BLOCK
  5
6F7
330
2C2
100
AcDbEntity
  8
0
100
AcDbBlockBegin
  2
BLOCK487
 70
     0
 10
0.0
 20
0.0
 30
0.0
  3
BLOCK487
  1

  0
TEXT
  5
392
330
2C2
100
AcDbEntity
  8
0
 62
     7
370
    13
390
F
100
AcDbText
 10
526.869263
 20
-219.792938
 30
0.0
 40
5.0
  1
5631.546.8
 41
1.647240875667043
 72
     5
 11
575.87262
 21
-219.792938
 31
0.0
100
AcDbText
  0
ENDBLK
  5
6F8
330
2C2
100
AcDbEntity
  8
0
100
AcDbBlockEnd
  0
BLOCK
  5
6F9
330
2C3
100
AcDbEntity
  8
0
100
AcDbBlockBegin
  2
BLOCK488
 70
     0
 10
0.0
 20
0.0
 30
0.0
  3
BLOCK488
  1

  0
TEXT
  5
395
330
2C3
100
AcDbEntity
  8
0
 62
     7
370
    13
390
F
100
AcDbText
 10
597.966797
 20
-219.416367
 30
0.0
 40
5.0
  1
2X58 W
 41
1.333502569113163
 72
     5
 11
626.968811
 21
-219.416367
 31
0.0
100
AcDbText
  0
ENDBLK
  5
6FA
330
2C3
100
AcDbEntity
  8
0
100
AcDbBlockEnd
  0
BLOCK
  5
6FB
330
2C4
100
AcDbEntity
  8
0
100
AcDbBlockBegin
  2
BLOCK489
 70
     0
 10
0.0
 20
0.0
 30
0.0
  3
BLOCK489
  1

  0
TEXT
  5
398
330
2C4
100
AcDbEntity
  8
0
 62
     7
370
    13
390
F
100
AcDbText
 10
648.342773
 20
-219.416367
 30
0.0
 40
5.0
  1
1100
 41
1.688417394437644
 72
     5
 11
667.344116
 21
-219.416367
 31
0.0
100
AcDbText
  0
ENDBLK
  5
6FC
330
2C4
100
AcDbEntity
  8
0
100
AcDbBlockEnd
  0
BLOCK
  5
6FD
330
2C5
100
AcDbEntity
  8
0
100
AcDbBlockBegin
  2
BLOCK490
 70
     0
 10
0.0
 20
0.0
 30
0.0
  3
BLOCK490
  1

  0
TEXT
  5
39B
330
2C5
100
AcDbEntity
  8
0
 62
     7
370
    13
390
F
100
AcDbText
 10
680.256531
 20
-219.416367
 30
0.0
 40
5.0
  1
1410
 41
1.61659391123765
 72
     5
 11
699.257874
 21
-219.416367
 31
0.0
100
AcDbText
  0
ENDBLK
  5
6FE
330
2C5
100
AcDbEntity
  8
0
100
AcDbBlockEnd
  0
BLOCK
  5
6FF
330
2C6
100
AcDbEntity
  8
0
100
AcDbBlockBegin
  2
BLOCK491
 70
     0
 10
0.0
 20
0.0
 30
0.0
  3
BLOCK491
  1

  0
TEXT
  5
39E
330
2C6
100
AcDbEntity
  8
0
 62
     7
370
    13
390
F
100
AcDbText
 10
323.268066
 20
-23.44241
 30
0.0
 40
3.0
  1
41,5
 50
90.0
 41
1.583328939393939
 72
     5
 11
323.268066
 21
-12.992439
 31
0.0
100
AcDbText
  0
ENDBLK
  5
700
330
2C6
100
AcDbEntity
  8
0
100
AcDbBlockEnd
  0
BLOCK
  5
701
330
2C7
100
AcDbEntity
  8
0
100
AcDbBlockBegin
  2
BLOCK492
 70
     0
 10
0.0
 20
0.0
 30
0.0
  3
BLOCK492
  1

  0
TEXT
  5
3A1
330
2C7
100
AcDbEntity
  8
0
 62
     7
370
    13
390
F
100
AcDbText
 10
917.287964
 20
-250.050323
 30
0.0
 40
5.0
  1
C
 41
1.454656363636373
 72
     5
 11
921.288269
 21
-250.050323
 31
0.0
100
AcDbText
  0
ENDBLK
  5
702
330
2C7
100
AcDbEntity
  8
0
100
AcDbBlockEnd
  0
BLOCK
  5
703
330
2C8
100
AcDbEntity
  8
0
100
AcDbBlockBegin
  2
BLOCK493
 70
     0
 10
0.0
 20
0.0
 30
0.0
  3
BLOCK493
  1

  0
TEXT
  5
3A4
330
2C8
100
AcDbEntity
  8
0
 62
     7
370
    13
390
F
100
AcDbText
 10
542.104614
 20
-35.378746
 30
0.0
 40
3.0
  1
 25
 50
0.000029764230692
 41
1.252024552845706
 72
     5
 11
549.804565
 21
-35.378742
 31
0.0
100
AcDbText
  0
ENDBLK
  5
704
330
2C8
100
AcDbEntity
  8
0
100
AcDbBlockEnd
  0
BLOCK
  5
705
330
2C9
100
AcDbEntity
  8
0
100
AcDbBlockBegin
  2
BLOCK494
 70
     0
 10
0.0
 20
0.0
 30
0.0
  3
BLOCK494
  1

  0
TEXT
  5
3A7
330
2C9
100
AcDbEntity
  8
0
 62
     7
370
    13
390
F
100
AcDbText
 10
542.104614
 20
-35.378746
 30
0.0
 40
3.0
  1
R
 41
1.12821128205129
 72
     5
 11
544.304626
 21
-35.378746
 31
0.0
100
AcDbText
  0
ENDBLK
  5
706
330
2C9
100
AcDbEntity
  8
0
100
AcDbBlockEnd
  0
BLOCK
  5
707
330
2CA
100
AcDbEntity
  8
0
100
AcDbBlockBegin
  2
BLOCK495
 70
     0
 10
0.0
 20
0.0
 30
0.0
  3
BLOCK495
  1

  0
TEXT
  5
3AA
330
2CA
100
AcDbEntity
  8
0
 62
     7
370
    13
390
F
100
AcDbText
 10
891.344055
 20
-32.392811
 30
0.0
 40
3.0
  1
 25
 41
1.252024552845519
 72
     5
 11
899.044006
 21
-32.392811
 31
0.0
100
AcDbText
  0
ENDBLK
  5
708
330
2CA
100
AcDbEntity
  8
0
100
AcDbBlockEnd
  0
BLOCK
  5
709
330
2CB
100
AcDbEntity
  8
0
100
AcDbBlockBegin
  2
BLOCK496
 70
     0
 10
0.0
 20
0.0
 30
0.0
  3
BLOCK496
  1

  0
TEXT
  5
3AD
330
2CB
100
AcDbEntity
  8
0
 62
     7
370
    13
390
F
100
AcDbText
 10
891.344055
 20
-32.392811
 30
0.0
 40
3.0
  1
R
 41
1.12821128205129
 72
     5
 11
893.544067
 21
-32.392811
 31
0.0
100
AcDbText
  0
ENDBLK
  5
70A
330
2CB
100
AcDbEntity
  8
0
100
AcDbBlockEnd
  0
BLOCK
  5
70B
330
2CC
100
AcDbEntity
  8
0
100
AcDbBlockBegin
  2
BLOCK497
 70
     0
 10
0.0
 20
0.0
 30
0.0
  3
BLOCK497
  1

  0
TEXT
  5
3B0
330
2CC
100
AcDbEntity
  8
0
 62
     7
370
    13
390
F
100
AcDbText
 10
388.902283
 20
6.848765
 30
0.0
 40
3.0
  1
 3,5
 50
9.373863669413675
 41
1.451384443606491
 72
     5
 11
399.212708
 21
8.550813
 31
0.0
100
AcDbText
  0
ENDBLK
  5
70C
330
2CC
100
AcDbEntity
  8
0
100
AcDbBlockEnd
  0
BLOCK
  5
70D
330
2CD
100
AcDbEntity
  8
0
100
AcDbBlockBegin
  2
BLOCK498
 70
     0
 10
0.0
 20
0.0
 30
0.0
  3
BLOCK498
  1

  0
TEXT
  5
3B3
330
2CD
100
AcDbEntity
  8
0
 62
     7
370
    13
390
F
100
AcDbText
 10
388.902283
 20
6.848765
 30
0.0
 40
3.0
  1
R
 50
9.373861483921313
 41
1.128205413409976
 72
     5
 11
391.072906
 21
7.207092
 31
0.0
100
AcDbText
  0
ENDBLK
  5
70E
330
2CD
100
AcDbEntity
  8
0
100
AcDbBlockEnd
  0
BLOCK
  5
70F
330
2CE
100
AcDbEntity
  8
0
100
AcDbBlockBegin
  2
BLOCK499
 70
     0
 10
0.0
 20
0.0
 30
0.0
  3
BLOCK499
  1

  0
TEXT
  5
3B6
330
2CE
100
AcDbEntity
  8
0
 62
     7
370
    13
390
F
100
AcDbText
 10
1012.118103
 20
-295.795746
 30
0.0
 40
2.0
  1
16-06-93
 41
1.392238582526803
 72
     5
 11
1026.746338
 21
-295.795746
 31
0.0
100
AcDbText
  0
ENDBLK
  5
710
330
2CE
100
AcDbEntity
  8
0
100
AcDbBlockEnd
  0
BLOCK
  5
711
330
2CF
100
AcDbEntity
  8
0
100
AcDbBlockBegin
  2
BLOCK500
 70
     0
 10
0.0
 20
0.0
 30
0.0
  3
BLOCK500
  1

  0
TEXT
  5
3B9
330
2CF
100
AcDbEntity
  8
0
 62
     7
370
    13
390
F
100
AcDbText
 10
1012.332397
 20
-300.724762
 30
0.0
 40
2.0
  1
16-06-93
 41
1.392232776867178
 72
     5
 11
1026.960571
 21
-300.724762
 31
0.0
100
AcDbText
  0
ENDBLK
  5
712
330
2CF
100
AcDbEntity
  8
0
100
AcDbBlockEnd
  0
BLOCK
  5
713
330
2D0
100
AcDbEntity
  8
0
100
AcDbBlockBegin
  2
BLOCK501
 70
     0
 10
0.0
 20
0.0
 30
0.0
  3
BLOCK501
  1

  0
TEXT
  5
3BC
330
2D0
100
AcDbEntity
  8
0
 62
     7
370
    13
390
F
100
AcDbText
 10
1011.421631
 20
-280.09787
 30
0.0
 40
2.0
  1
28-07-93
 41
1.341235887616479
 72
     5
 11
1026.049805
 21
-280.09787
 31
0.0
100
AcDbText
  0
ENDBLK
  5
714
330
2D0
100
AcDbEntity
  8
0
100
AcDbBlockEnd
  0
BLOCK
  5
715
330
2D1
100
AcDbEntity
  8
0
100
AcDbBlockBegin
  2
BLOCK502
 70
     0
 10
0.0
 20
0.0
 30
0.0
  3
BLOCK502
  1

  0
TEXT
  5
3BF
330
2D1
100
AcDbEntity
  8
0
 62
     7
370
    13
390
F
100
AcDbText
 10
941.477112
 20
-279.615692
 30
0.0
 40
2.0
  1
A
 41
1.00028466666663
 72
     5
 11
942.977539
 21
-279.615692
 31
0.0
100
AcDbText
  0
ENDBLK
  5
716
330
2D1
100
AcDbEntity
  8
0
100
AcDbBlockEnd
  0
BLOCK
  5
717
330
2D2
100
AcDbEntity
  8
0
100
AcDbBlockBegin
  2
BLOCK503
 70
     0
 10
0.0
 20
0.0
 30
0.0
  3
BLOCK503
  1

  0
TEXT
  5
3C2
330
2D2
100
AcDbEntity
  8
0
 62
     7
370
    13
390
F
100
AcDbText
 10
963.203735
 20
-279.883545
 30
0.0
 40
2.0
  1
AGGIORNATO DISEGNO
 41
1.288888146718147
 72
     5
 11
996.585938
 21
-279.883545
 31
0.0
100
AcDbText
  0
ENDBLK
  5
718
330
2D2
100
AcDbEntity
  8
0
100
AcDbBlockEnd
  0
BLOCK
  5
719
330
2D3
100
AcDbEntity
  8
0
100
AcDbBlockBegin
  2
BLOCK504
 70
     0
 10
0.0
 20
0.0
 30
0.0
  3
BLOCK504
  1

  0
TEXT
  5
3C5
330
2D3
100
AcDbEntity
  8
0
 62
     7
370
    13
390
F
100
AcDbText
 10
336.008392
 20
18.05759
 30
0.0
 40
3.0
  1
41,5
 50
90.0
 41
1.583328939393939
 72
     5
 11
336.008392
 21
28.507561
 31
0.0
100
AcDbText
  0
ENDBLK
  5
71A
330
2D3
100
AcDbEntity
  8
0
100
AcDbBlockEnd
  0
BLOCK
  5
71B
330
2D4
100
AcDbEntity
  8
0
100
AcDbBlockBegin
  2
BLOCK505
 70
     0
 10
0.0
 20
0.0
 30
0.0
  3
BLOCK505
  1

  0
TEXT
  5
3C8
330
2D4
100
AcDbEntity
  8
0
 62
     7
370
    13
390
F
100
AcDbText
 10
417.519745
 20
24.80759
 30
0.0
 40
3.0
  1
12,555
 50
90.0
 41
1.519043047619048
 72
     5
 11
417.519745
 21
40.757542
 31
0.0
100
AcDbText
  0
ENDBLK
  5
71C
330
2D4
100
AcDbEntity
  8
0
100
AcDbBlockEnd
  0
BLOCK
  5
71D
330
2D5
100
AcDbEntity
  8
0
100
AcDbBlockBegin
  2
BLOCK506
 70
     0
 10
0.0
 20
0.0
 30
0.0
  3
BLOCK506
  1

  0
TEXT
  5
3CB
330
2D5
100
AcDbEntity
  8
0
 62
     7
370
    13
390
F
100
AcDbText
 10
371.039276
 20
89.104561
 30
0.0
 40
3.0
  1
60,013
 41
1.519042952380958
 72
     5
 11
386.989227
 21
89.104561
 31
0.0
100
AcDbText
  0
ENDBLK
  5
71E
330
2D5
100
AcDbEntity
  8
0
100
AcDbBlockEnd
  0
BLOCK
  5
71F
330
2D6
100
AcDbEntity
  8
0
100
AcDbBlockBegin
  2
BLOCK507
 70
     0
 10
0.0
 20
0.0
 30
0.0
  3
BLOCK507
  1

  0
TEXT
  5
3CE
330
2D6
100
AcDbEntity
  8
0
 62
     7
370
    13
390
F
100
AcDbText
 10
941.691162
 20
-274.605194
 30
0.0
 40
2.0
  1
B
 41
1.154174615384661
 72
     5
 11
943.191589
 21
-274.605194
 31
0.0
100
AcDbText
  0
ENDBLK
  5
720
330
2D6
100
AcDbEntity
  8
0
100
AcDbBlockEnd
  0
BLOCK
  5
721
330
2D7
100
AcDbEntity
  8
0
100
AcDbBlockBegin
  2
BLOCK508
 70
     0
 10
0.0
 20
0.0
 30
0.0
  3
BLOCK508
  1

  0
TEXT
  5
3D1
330
2D7
100
AcDbEntity
  8
0
 62
     7
370
    13
390
F
100
AcDbText
 10
956.895386
 20
-273.153198
 30
0.0
 40
1.0
  1
VARIATO INTERASSE DA 1380 A 1385,5
 41
2.233129275975242
 72
     5
 11
1007.586304
 21
-273.153198
 31
0.0
100
AcDbText
  0
ENDBLK
  5
722
330
2D7
100
AcDbEntity
  8
0
100
AcDbBlockEnd
  0
BLOCK
  5
723
330
2D8
100
AcDbEntity
  8
0
100
AcDbBlockBegin
  2
BLOCK509
 70
     0
 10
0.0
 20
0.0
 30
0.0
  3
BLOCK509
  1

  0
TEXT
  5
3D4
330
2D8
100
AcDbEntity
  8
0
 62
     7
370
    13
390
F
100
AcDbText
 10
1011.716003
 20
-274.736786
 30
0.0
 40
2.0
  1
28-07-93
 41
1.341241480617283
 72
     5
 11
1026.344238
 21
-274.736786
 31
0.0
100
AcDbText
  0
ENDBLK
  5
724
330
2D8
100
AcDbEntity
  8
0
100
AcDbBlockEnd
  0
BLOCK
  5
725
330
2D9
100
AcDbEntity
  8
0
100
AcDbBlockBegin
  2
BLOCK510
 70
     0
 10
0.0
 20
0.0
 30
0.0
  3
BLOCK510
  1

  0
TEXT
  5
3D7
330
2D9
100
AcDbEntity
  8
0
 62
     7
370
    13
390
F
100
AcDbText
 10
957.029053
 20
-275.458466
 30
0.0
 40
1.0
  1
VARIATO INTERASSE DA 1080 A 1085,5
 41
2.233129275975242
 72
     5
 11
1007.719971
 21
-275.458466
 31
0.0
100
AcDbText
  0
ENDBLK
  5
726
330
2D9
100
AcDbEntity
  8
0
100
AcDbBlockEnd
  0
BLOCK
  5
727
330
2DA
100
AcDbEntity
  8
0
100
AcDbBlockBegin
  2
BLOCK511
 70
     0
 10
0.0
 20
0.0
 30
0.0
  3
BLOCK511
  1

  0
TEXT
  5
3DA
330
2DA
100
AcDbEntity
  8
0
 62
     7
370
    13
390
F
100
AcDbText
 10
940.303589
 20
-269.586182
 30
0.0
 40
3.0
  1
C
 41
1.212010303030308
 72
     5
 11
942.303406
 21
-269.586182
 31
0.0
100
AcDbText
  0
ENDBLK
  5
728
330
2DA
100
AcDbEntity
  8
0
100
AcDbBlockEnd
  0
BLOCK
  5
729
330
2DB
100
AcDbEntity
  8
0
100
AcDbBlockBegin
  2
BLOCK512
 70
     0
 10
0.0
 20
0.0
 30
0.0
  3
BLOCK512
  1

  0
TEXT
  5
3DD
330
2DB
100
AcDbEntity
  8
0
 62
     7
370
    13
390
F
100
AcDbText
 10
960.321716
 20
-269.994507
 30
0.0
 40
3.0
  1
INS.FISS.RAPIDO
 41
1.31897083778966
 72
     5
 11
997.318848
 21
-269.994507
 31
0.0
100
AcDbText
  0
ENDBLK
  5
72A
330
2DB
100
AcDbEntity
  8
0
100
AcDbBlockEnd
  0
BLOCK
  5
72B
330
2DC
100
AcDbEntity
  8
0
100
AcDbBlockBegin
  2
BLOCK513
 70
     0
 10
0.0
 20
0.0
 30
0.0
  3
BLOCK513
  1

  0
TEXT
  5
3E0
330
2DC
100
AcDbEntity
  8
0
 62
     7
370
    13
390
F
100
AcDbText
 10
946.725403
 20
-269.76767
 30
0.0
 40
2.5
  1
2101
 41
1.292588977777773
 72
     5
 11
953.996216
 21
-269.76767
 31
0.0
100
AcDbText
  0
ENDBLK
  5
72C
330
2DC
100
AcDbEntity
  8
0
100
AcDbBlockEnd
  0
BLOCK
  5
72D
330
2DD
100
AcDbEntity
  8
0
100
AcDbBlockBegin
  2
BLOCK514
 70
     0
 10
0.0
 20
0.0
 30
0.0
  3
BLOCK514
  1

  0
TEXT
  5
3E3
330
2DD
100
AcDbEntity
  8
0
 62
     7
370
    13
390
F
100
AcDbText
 10
1011.055115
 20
-269.994507
 30
0.0
 40
2.5
  1
04/10/95
 41
1.115094708515152
 72
     5
 11
1025.979248
 21
-269.994507
 31
0.0
100
AcDbText
  0
ENDBLK
  5
72E
330
2DD
100
AcDbEntity
  8
0
100
AcDbBlockEnd
  0
BLOCK
  5
72F
330
2DE
100
AcDbEntity
  8
0
100
AcDbBlockBegin
  2
BLOCK515
 70
     0
 10
0.0
 20
0.0
 30
0.0
  3
BLOCK515
  1

  0
TEXT
  5
3E6
330
2DE
100
AcDbEntity
  8
0
 62
     7
370
    13
390
F
100
AcDbText
 10
467.309723
 20
24.370928
 30
0.0
 40
3.0
  1
15
 41
1.57142285714285
 72
     5
 11
472.259705
 21
24.370928
 31
0.0
100
AcDbText
  0
ENDBLK
  5
730
330
2DE
100
AcDbEntity
  8
0
100
AcDbBlockEnd
  0
BLOCK
  5
731
330
2DF
100
AcDbEntity
  8
0
100
AcDbBlockBegin
  2
BLOCK516
 70
     0
 10
0.0
 20
0.0
 30
0.0
  3
BLOCK516
  1

  0
TEXT
  5
3E9
330
2DF
100
AcDbEntity
  8
0
 62
     7
370
    13
390
F
100
AcDbText
 10
448.022949
 20
63.483631
 30
0.0
 40
3.0
  1
2X45%%d
 41
1.239432018779343
 72
     5
 11
461.2229
 21
63.483631
 31
0.0
100
AcDbText
  0
ENDBLK
  5
732
330
2DF
100
AcDbEntity
  8
0
100
AcDbBlockEnd
  0
BLOCK
  5
733
330
2E0
100
AcDbEntity
  8
0
100
AcDbBlockBegin
  2
BLOCK517
 70
     0
 10
0.0
 20
0.0
 30
0.0
  3
BLOCK517
  1

  0
TEXT
  5
3EC
330
2E0
100
AcDbEntity
  8
0
 62
     7
370
    13
390
F
100
AcDbText
 10
451.138367
 20
42.93259
 30
0.0
 40
3.0
  1
9
 50
90.0
 41
1.324916311268785
 72
     5
 11
451.138367
 21
45.132591
 31
0.0
100
AcDbText
  0
ENDBLK
  5
734
330
2E0
100
AcDbEntity
  8
0
100
AcDbBlockEnd
  0
BLOCK
  5
735
330
2E1
100
AcDbEntity
  8
0
100
AcDbBlockBegin
  2
BLOCK518
 70
     0
 10
0.0
 20
0.0
 30
0.0
  3
BLOCK518
  1

  0
TEXT
  5
3EF
330
2E1
100
AcDbEntity
  8
0
 62
     7
370
    13
390
F
100
AcDbText
 10
443.636627
 20
41.55759
 30
0.0
 40
3.0
  1
13
 50
90.0
 41
1.571425396825397
 72
     5
 11
443.636627
 21
46.50758
 31
0.0
100
AcDbText
  0
ENDBLK
  5
736
330
2E1
100
AcDbEntity
  8
0
100
AcDbBlockEnd
  0
BLOCK
  5
737
330
2E2
100
AcDbEntity
  8
0
100
AcDbBlockBegin
  2
BLOCK519
 70
     0
 10
0.0
 20
0.0
 30
0.0
  3
BLOCK519
  1

  0
TEXT
  5
3F2
330
2E2
100
AcDbEntity
  8
0
 62
     7
370
    13
390
F
100
AcDbText
 10
345.271545
 20
102.709152
 30
0.0
 40
3.0
  1
11,9
 50
345.9999547614931
 41
1.829962143751486
 72
     5
 11
355.411102
 21
100.181068
 31
0.0
100
AcDbText
  0
ENDBLK
  5
738
330
2E2
100
AcDbEntity
  8
0
100
AcDbBlockEnd
  0
BLOCK
  5
739
330
2E3
100
AcDbEntity
  8
0
100
AcDbBlockBegin
  2
BLOCK520
 70
     0
 10
0.0
 20
0.0
 30
0.0
  3
BLOCK520
  1

  0
TEXT
  5
3F5
330
2E3
100
AcDbEntity
  8
0
 62
     7
370
    13
390
F
100
AcDbText
 10
370.365112
 20
-71.600021
 30
0.0
 40
3.0
  1
14%%d
 50
276.9999515051005
 41
1.466662797467019
 72
     5
 11
371.303497
 21
-79.242607
 31
0.0
100
AcDbText
  0
ENDBLK
  5
73A
330
2E3
100
AcDbEntity
  8
0
100
AcDbBlockEnd
  0
BLOCK
  5
73B
330
2E4
100
AcDbEntity
  8
0
100
AcDbBlockBegin
  2
BLOCK521
 70
     0
 10
0.0
 20
0.0
 30
0.0
  3
BLOCK521
  1

  0
TEXT
  5
3F8
330
2E4
100
AcDbEntity
  8
0
 62
     7
370
    13
390
F
100
AcDbText
 10
305.473053
 20
-4.067406
 30
0.0
 40
3.0
  1
161,1
 50
90.0
 41
1.833327916666667
 72
     5
 11
305.473053
 21
9.132555
 31
0.0
100
AcDbText
  0
ENDBLK
  5
73C
330
2E4
100
AcDbEntity
  8
0
100
AcDbBlockEnd
  0
BLOCK
  5
73D
330
2E5
100
AcDbEntity
  8
0
100
AcDbBlockBegin
  2
BLOCK522
 70
     0
 10
0.0
 20
0.0
 30
0.0
  3
BLOCK522
  1

  0
TEXT
  5
3FB
330
2E5
100
AcDbEntity
  8
0
 62
     7
370
    13
390
F
100
AcDbText
 10
881.050537
 20
-257.93158
 30
0.0
 40
2.0
  1
TOLLERANZE GENERALI
 41
1.262511098901102
 72
     5
 11
915.51709
 21
-257.93158
 31
0.0
100
AcDbText
  0
ENDBLK
  5
73E
330
2E5
100
AcDbEntity
  8
0
100
AcDbBlockEnd
  0
BLOCK
  5
73F
330
2E6
100
AcDbEntity
  8
0
100
AcDbBlockBegin
  2
BLOCK523
 70
     0
 10
0.0
 20
0.0
 30
0.0
  3
BLOCK523
  1

  0
TEXT
  5
3FE
330
2E6
100
AcDbEntity
  8
0
 62
     7
370
    13
390
F
100
AcDbText
 10
872.984802
 20
-261.65387
 30
0.0
 40
2.0
  1
quote indicate in millimetri
 41
1.649401035598706
 72
     5
 11
923.951294
 21
-261.65387
 31
0.0
100
AcDbText
  0
ENDBLK
  5
740
330
2E6
100
AcDbEntity
  8
0
100
AcDbBlockEnd
  0
BLOCK
  5
741
330
2E7
100
AcDbEntity
  8
0
100
AcDbBlockBegin
  2
BLOCK524
 70
     0
 10
0.0
 20
0.0
 30
0.0
  3
BLOCK524
  1

  0
TEXT
  5
401
330
2E7
100
AcDbEntity
  8
0
 62
     7
370
    13
390
F
100
AcDbText
 10
864.252991
 20
-266.223816
 30
0.0
 40
2.0
  1
OLTRE
 41
1.205477808219191
 72
     5
 11
873.052979
 21
-266.223816
 31
0.0
100
AcDbText
  0
ENDBLK
  5
742
330
2E7
100
AcDbEntity
  8
0
100
AcDbBlockEnd
  0
BLOCK
  5
743
330
2E8
100
AcDbEntity
  8
0
100
AcDbBlockBegin
  2
BLOCK525
 70
     0
 10
0.0
 20
0.0
 30
0.0
  3
BLOCK525
  1

  0
TEXT
  5
404
330
2E8
100
AcDbEntity
  8
0
 62
     7
370
    13
390
F
100
AcDbText
 10
864.948486
 20
-270.498932
 30
0.0
 40
2.0
  1
FINO
 41
1.421770408163267
 72
     5
 11
871.915161
 21
-270.498932
 31
0.0
100
AcDbText
  0
ENDBLK
  5
744
330
2E8
100
AcDbEntity
  8
0
100
AcDbBlockEnd
  0
BLOCK
  5
745
330
2E9
100
AcDbEntity
  8
0
100
AcDbBlockBegin
  2
BLOCK526
 70
     0
 10
0.0
 20
0.0
 30
0.0
  3
BLOCK526
  1

  0
TEXT
  5
407
330
2E9
100
AcDbEntity
  8
0
 62
     7
370
    13
390
F
100
AcDbText
 10
865.127075
 20
-289.919952
 30
0.0
 40
2.0
  1
DENOMINAZIONE
 41
1.268465621621624
 72
     5
 11
888.593689
 21
-289.919952
 31
0.0
100
AcDbText
  0
ENDBLK
  5
746
330
2E9
100
AcDbEntity
  8
0
100
AcDbBlockEnd
  0
BLOCK
  5
747
330
2EA
100
AcDbEntity
  8
0
100
AcDbBlockBegin
  2
BLOCK527
 70
     0
 10
0.0
 20
0.0
 30
0.0
  3
BLOCK527
  1

  0
TEXT
  5
40A
330
2EA
100
AcDbEntity
  8
0
 62
     7
370
    13
390
F
100
AcDbText
 10
914.171753
 20
-305.844086
 30
0.0
 40
2.0
  1
MATERIALE
 41
1.231549694656494
 72
     5
 11
930.305054
 21
-305.844086
 31
0.0
100
AcDbText
  0
ENDBLK
  5
748
330
2EA
100
AcDbEntity
  8
0
100
AcDbBlockEnd
  0
BLOCK
  5
749
330
2EB
100
AcDbEntity
  8
0
100
AcDbBlockBegin
  2
BLOCK528
 70
     0
 10
0.0
 20
0.0
 30
0.0
  3
BLOCK528
  1

  0
TEXT
  5
40D
330
2EB
100
AcDbEntity
  8
0
 62
     7
370
    13
390
F
100
AcDbText
 10
914.367798
 20
-318.653168
 30
0.0
 40
2.0
  1
FINITURA
 41
1.361897809523812
 72
     5
 11
928.667725
 21
-318.653168
 31
0.0
100
AcDbText
  0
ENDBLK
  5
74A
330
2EB
100
AcDbEntity
  8
0
100
AcDbBlockEnd
  0
BLOCK
  5
74B
330
2EC
100
AcDbEntity
  8
0
100
AcDbBlockBegin
  2
BLOCK529
 70
     0
 10
0.0
 20
0.0
 30
0.0
  3
BLOCK529
  1

  0
TEXT
  5
410
330
2EC
100
AcDbEntity
  8
0
 62
     7
370
    13
390
F
100
AcDbText
 10
939.165894
 20
-285.317047
 30
0.0
 40
2.0
  1
IND.
 41
1.699188780487808
 72
     5
 11
946.132568
 21
-285.317047
 31
0.0
100
AcDbText
  0
ENDBLK
  5
74C
330
2EC
100
AcDbEntity
  8
0
100
AcDbBlockEnd
  0
BLOCK
  5
74D
330
2ED
100
AcDbEntity
  8
0
100
AcDbBlockBegin
  2
BLOCK530
 70
     0
 10
0.0
 20
0.0
 30
0.0
  3
BLOCK530
  1

  0
TEXT
  5
413
330
2ED
100
AcDbEntity
  8
0
 62
     7
370
    13
390
F
100
AcDbText
 10
947.302368
 20
-285.363556
 30
0.0
 40
2.0
  1
RIF.
 41
1.786326923076925
 72
     5
 11
954.269043
 21
-285.363556
 31
0.0
100
AcDbText
  0
ENDBLK
  5
74E
330
2ED
100
AcDbEntity
  8
0
100
AcDbBlockEnd
  0
BLOCK
  5
74F
330
2EE
100
AcDbEntity
  8
0
100
AcDbBlockBegin
  2
BLOCK531
 70
     0
 10
0.0
 20
0.0
 30
0.0
  3
BLOCK531
  1

  0
TEXT
  5
416
330
2EE
100
AcDbEntity
  8
0
 62
     7
370
    13
390
F
100
AcDbText
 10
970.595337
 20
-285.247284
 30
0.0
 40
2.0
  1
DESCRIZIONE
 41
1.346933809523811
 72
     5
 11
990.395264
 21
-285.247284
 31
0.0
100
AcDbText
  0
ENDBLK
  5
750
330
2EE
100
AcDbEntity
  8
0
100
AcDbBlockEnd
  0
BLOCK
  5
751
330
2EF
100
AcDbEntity
  8
0
100
AcDbBlockBegin
  2
BLOCK532
 70
     0
 10
0.0
 20
0.0
 30
0.0
  3
BLOCK532
  1

  0
TEXT
  5
419
330
2EF
100
AcDbEntity
  8
0
 62
     7
370
    13
390
F
100
AcDbText
 10
1014.369751
 20
-285.293793
 30
0.0
 40
2.0
  1
DATA
 41
1.071796153846155
 72
     5
 11
1021.336426
 21
-285.293793
 31
0.0
100
AcDbText
  0
ENDBLK
  5
752
330
2EF
100
AcDbEntity
  8
0
100
AcDbBlockEnd
  0
BLOCK
  5
753
330
2F0
100
AcDbEntity
  8
0
100
AcDbBlockBegin
  2
BLOCK533
 70
     0
 10
0.0
 20
0.0
 30
0.0
  3
BLOCK533
  1

  0
TEXT
  5
41C
330
2F0
100
AcDbEntity
  8
0
 62
     7
370
    13
390
F
100
AcDbText
 10
1031.283569
 20
-285.107819
 30
0.0
 40
2.0
  1
FIRMA
 41
1.275351739130438
 72
     5
 11
1040.083496
 21
-285.107819
 31
0.0
100
AcDbText
  0
ENDBLK
  5
754
330
2F0
100
AcDbEntity
  8
0
100
AcDbBlockEnd
  0
BLOCK
  5
755
330
2F1
100
AcDbEntity
  8
0
100
AcDbBlockBegin
  2
BLOCK534
 70
     0
 10
0.0
 20
0.0
 30
0.0
  3
BLOCK534
  1

  0
TEXT
  5
41F
330
2F1
100
AcDbEntity
  8
0
 62
     7
370
    13
390
F
100
AcDbText
 10
982.929932
 20
-290.175659
 30
0.0
 40
2.0
  1
SCALA
 41
1.142855454545453
 72
     5
 11
991.729919
 21
-290.175659
 31
0.0
100
AcDbText
  0
ENDBLK
  5
756
330
2F1
100
AcDbEntity
  8
0
100
AcDbBlockEnd
  0
BLOCK
  5
757
330
2F2
100
AcDbEntity
  8
0
100
AcDbBlockBegin
  2
BLOCK535
 70
     0
 10
0.0
 20
0.0
 30
0.0
  3
BLOCK535
  1

  0
TEXT
  5
422
330
2F2
100
AcDbEntity
  8
0
 62
     7
370
    13
390
F
100
AcDbText
 10
863.612366
 20
-251.999863
 30
0.0
 40
2.0
  1
TOLLERANZE GENERALI GRUPPO..........
 41
1.501901990846684
 72
     5
 11
929.245483
 21
-251.999863
 31
0.0
100
AcDbText
  0
ENDBLK
  5
758
330
2F2
100
AcDbEntity
  8
0
100
AcDbBlockEnd
  0
BLOCK
  5
759
330
2F3
100
AcDbEntity
  8
0
100
AcDbBlockBegin
  2
BLOCK536
 70
     0
 10
0.0
 20
0.0
 30
0.0
  3
BLOCK536
  1

  0
TEXT
  5
425
330
2F3
100
AcDbEntity
  8
0
 62
     7
370
    13
390
F
100
AcDbText
 10
937.668518
 20
-281.663666
 30
0.0
 40
2.5
  1
MODIFICHE
 50
90.0
 41
1.378912547008545
 72
     5
 11
937.668518
 21
-261.49707
 31
0.0
100
AcDbText
  0
ENDBLK
  5
75A
330
2F3
100
AcDbEntity
  8
0
100
AcDbBlockEnd
  0
BLOCK
  5
75B
330
2F4
100
AcDbEntity
  8
0
100
AcDbBlockBegin
  2
BLOCK537
 70
     0
 10
0.0
 20
0.0
 30
0.0
  3
BLOCK537
  1

  0
TEXT
  5
428
330
2F4
100
AcDbEntity
  8
0
 62
     7
370
    13
390
F
100
AcDbText
 10
866.935852
 20
-275.637054
 30
0.0
 40
2.5
  1
A
 41
0.9777669333333809
 72
     5
 11
868.769165
 21
-275.637054
 31
0.0
100
AcDbText
  0
ENDBLK
  5
75C
330
2F4
100
AcDbEntity
  8
0
100
AcDbBlockEnd
  0
BLOCK
  5
75D
330
2F5
100
AcDbEntity
  8
0
100
AcDbBlockBegin
  2
BLOCK538
 70
     0
 10
0.0
 20
0.0
 30
0.0
  3
BLOCK538
  1

  0
TEXT
  5
42B
330
2F5
100
AcDbEntity
  8
0
 62
     7
370
    13
390
F
100
AcDbText
 10
867.054932
 20
-280.220612
 30
0.0
 40
2.5
  1
B
 41
1.1281926153846
 72
     5
 11
868.888245
 21
-280.220612
 31
0.0
100
AcDbText
  0
ENDBLK
  5
75E
330
2F5
100
AcDbEntity
  8
0
100
AcDbBlockEnd
  0
BLOCK
  5
75F
330
2F6
100
AcDbEntity
  8
0
100
AcDbBlockBegin
  2
BLOCK539
 70
     0
 10
0.0
 20
0.0
 30
0.0
  3
BLOCK539
  1

  0
TEXT
  5
42E
330
2F6
100
AcDbEntity
  8
0
 62
     7
370
    13
390
F
100
AcDbText
 10
867.054932
 20
-285.399445
 30
0.0
 40
2.5
  1
C
 41
1.333318545454528
 72
     5
 11
868.888245
 21
-285.399445
 31
0.0
100
AcDbText
  0
ENDBLK
  5
760
330
2F6
100
AcDbEntity
  8
0
100
AcDbBlockEnd
  0
BLOCK
  5
761
330
2F7
100
AcDbEntity
  8
0
100
AcDbBlockBegin
  2
BLOCK540
 70
     0
 10
0.0
 20
0.0
 30
0.0
  3
BLOCK540
  1

  0
TEXT
  5
431
330
2F7
100
AcDbEntity
  8
0
 62
     7
370
    13
390
F
100
AcDbText
 10
982.855408
 20
-306.563263
 30
0.0
 40
2.5
  1
CODICE
 41
1.380948155844151
 72
     5
 11
996.147034
 21
-306.563263
 31
0.0
100
AcDbText
  0
ENDBLK
  5
762
330
2F7
100
AcDbEntity
  8
0
100
AcDbBlockEnd
  0
BLOCK
  5
763
330
2F8
100
AcDbEntity
  8
0
100
AcDbBlockBegin
  2
BLOCK541
 70
     0
 10
0.0
 20
0.0
 30
0.0
  3
BLOCK541
  1

  0
TEXT
  5
434
330
2F8
100
AcDbEntity
  8
0
 62
     7
370
    13
390
F
100
AcDbText
 10
897.785828
 20
-314.615204
 30
0.0
 40
2.0
  1
s p a
 41
1.598544414168935
 72
     5
 11
906.585815
 21
-314.615204
 31
0.0
100
AcDbText
  0
ENDBLK
  5
764
330
2F8
100
AcDbEntity
  8
0
100
AcDbBlockEnd
  0
BLOCK
  5
765
330
2F9
100
AcDbEntity
  8
0
100
AcDbBlockBegin
  2
BLOCK542
 70
     0
 10
0.0
 20
0.0
 30
0.0
  3
BLOCK542
  1

  0
TEXT
  5
437
330
2F9
100
AcDbEntity
  8
0
 62
     7
370
    13
390
F
100
AcDbText
 10
870.56488
 20
-320.377411
 30
0.0
 40
1.5
  1
24069 Cenate Sotto/Bergamo
 41
1.347304543550713
 72
     5
 11
906.039734
 21
-320.377411
 31
0.0
100
AcDbText
  0
ENDBLK
  5
766
330
2F9
100
AcDbEntity
  8
0
100
AcDbBlockEnd
  0
BLOCK
  5
767
330
2FA
100
AcDbEntity
  8
0
100
AcDbBlockBegin
  2
BLOCK543
 70
     0
 10
0.0
 20
0.0
 30
0.0
  3
BLOCK543
  1

  0
TEXT
  5
43A
330
2FA
100
AcDbEntity
  8
0
 62
     7
370
    13
390
F
100
AcDbText
 10
874.248718
 20
-275.208466
 30
0.0
 40
2.0
  1
+
 41
1.333340909090814
 72
     5
 11
875.715393
 21
-275.208466
 31
0.0
100
AcDbText
  0
ENDBLK
  5
768
330
2FA
100
AcDbEntity
  8
0
100
AcDbBlockEnd
  0
BLOCK
  5
769
330
2FB
100
AcDbEntity
  8
0
100
AcDbBlockBegin
  2
BLOCK544
 70
     0
 10
0.0
 20
0.0
 30
0.0
  3
BLOCK544
  1

  0
TEXT
  5
43D
330
2FB
100
AcDbEntity
  8
0
 62
     7
370
    13
390
F
100
AcDbText
 10
874.248718
 20
-276.220428
 30
0.0
 40
2.0
  1
-
 41
1.333340909090814
 72
     5
 11
875.715393
 21
-276.220428
 31
0.0
100
AcDbText
  0
ENDBLK
  5
76A
330
2FB
100
AcDbEntity
  8
0
100
AcDbBlockEnd
  0
BLOCK
  5
76B
330
2FC
100
AcDbEntity
  8
0
100
AcDbBlockBegin
  2
BLOCK545
 70
     0
 10
0.0
 20
0.0
 30
0.0
  3
BLOCK545
  1

  0
TEXT
  5
440
330
2FC
100
AcDbEntity
  8
0
 62
     7
370
    13
390
F
100
AcDbText
 10
876.022705
 20
-275.506104
 30
0.0
 40
2.0
  1
0,05
 41
1.514494565217393
 72
     5
 11
882.98938
 21
-275.506104
 31
0.0
100
AcDbText
  0
ENDBLK
  5
76C
330
2FC
100
AcDbEntity
  8
0
100
AcDbBlockEnd
  0
BLOCK
  5
76D
330
2FD
100
AcDbEntity
  8
0
100
AcDbBlockBegin
  2
BLOCK546
 70
     0
 10
0.0
 20
0.0
 30
0.0
  3
BLOCK546
  1

  0
TEXT
  5
443
330
2FD
100
AcDbEntity
  8
0
 62
     7
370
    13
390
F
100
AcDbText
 10
876.939392
 20
-280.506104
 30
0.0
 40
2.0
  1
0,1
 41
1.833321785714271
 72
     5
 11
882.072693
 21
-280.506104
 31
0.0
100
AcDbText
  0
ENDBLK
  5
76E
330
2FD
100
AcDbEntity
  8
0
100
AcDbBlockEnd
  0
BLOCK
  5
76F
330
2FE
100
AcDbEntity
  8
0
100
AcDbBlockBegin
  2
BLOCK547
 70
     0
 10
0.0
 20
0.0
 30
0.0
  3
BLOCK547
  1

  0
TEXT
  5
446
330
2FE
100
AcDbEntity
  8
0
 62
     7
370
    13
390
F
100
AcDbText
 10
874.248718
 20
-280.208466
 30
0.0
 40
2.0
  1
+
 41
1.333340909090814
 72
     5
 11
875.715393
 21
-280.208466
 31
0.0
100
AcDbText
  0
ENDBLK
  5
770
330
2FE
100
AcDbEntity
  8
0
100
AcDbBlockEnd
  0
BLOCK
  5
771
330
2FF
100
AcDbEntity
  8
0
100
AcDbBlockBegin
  2
BLOCK548
 70
     0
 10
0.0
 20
0.0
 30
0.0
  3
BLOCK548
  1

  0
TEXT
  5
449
330
2FF
100
AcDbEntity
  8
0
 62
     7
370
    13
390
F
100
AcDbText
 10
874.248718
 20
-280.208466
 30
0.0
 40
2.0
  1
+
 41
1.333340909090814
 72
     5
 11
875.715393
 21
-280.208466
 31
0.0
100
AcDbText
  0
ENDBLK
  5
772
330
2FF
100
AcDbEntity
  8
0
100
AcDbBlockEnd
  0
BLOCK
  5
773
330
300
100
AcDbEntity
  8
0
100
AcDbBlockBegin
  2
BLOCK549
 70
     0
 10
0.0
 20
0.0
 30
0.0
  3
BLOCK549
  1

  0
TEXT
  5
44C
330
300
100
AcDbEntity
  8
0
 62
     7
370
    13
390
F
100
AcDbText
 10
874.248718
 20
-280.208466
 30
0.0
 40
2.0
  1
+
 41
1.333340909090814
 72
     5
 11
875.715393
 21
-280.208466
 31
0.0
100
AcDbText
  0
ENDBLK
  5
774
330
300
100
AcDbEntity
  8
0
100
AcDbBlockEnd
  0
BLOCK
  5
775
330
301
100
AcDbEntity
  8
0
100
AcDbBlockBegin
  2
BLOCK550
 70
     0
 10
0.0
 20
0.0
 30
0.0
  3
BLOCK550
  1

  0
TEXT
  5
44F
330
301
100
AcDbEntity
  8
0
 62
     7
370
    13
390
F
100
AcDbText
 10
876.939392
 20
-285.506073
 30
0.0
 40
2.0
  1
0,2
 41
1.60393489512853
 72
     5
 11
882.072693
 21
-285.506073
 31
0.0
100
AcDbText
  0
ENDBLK
  5
776
330
301
100
AcDbEntity
  8
0
100
AcDbBlockEnd
  0
BLOCK
  5
777
330
302
100
AcDbEntity
  8
0
100
AcDbBlockBegin
  2
BLOCK551
 70
     0
 10
0.0
 20
0.0
 30
0.0
  3
BLOCK551
  1

  0
TEXT
  5
452
330
302
100
AcDbEntity
  8
0
 62
     7
370
    13
390
F
100
AcDbText
 10
874.248718
 20
-285.208466
 30
0.0
 40
2.0
  1
+
 41
1.333340909090814
 72
     5
 11
875.715393
 21
-285.208466
 31
0.0
100
AcDbText
  0
ENDBLK
  5
778
330
302
100
AcDbEntity
  8
0
100
AcDbBlockEnd
  0
BLOCK
  5
779
330
303
100
AcDbEntity
  8
0
100
AcDbBlockBegin
  2
BLOCK552
 70
     0
 10
0.0
 20
0.0
 30
0.0
  3
BLOCK552
  1

  0
TEXT
  5
455
330
303
100
AcDbEntity
  8
0
 62
     7
370
    13
390
F
100
AcDbText
 10
874.248718
 20
-281.220428
 30
0.0
 40
2.0
  1
-
 41
1.333340909090814
 72
     5
 11
875.715393
 21
-281.220428
 31
0.0
100
AcDbText
  0
ENDBLK
  5
77A
330
303
100
AcDbEntity
  8
0
100
AcDbBlockEnd
  0
BLOCK
  5
77B
330
304
100
AcDbEntity
  8
0
100
AcDbBlockBegin
  2
BLOCK553
 70
     0
 10
0.0
 20
0.0
 30
0.0
  3
BLOCK553
  1

  0
TEXT
  5
458
330
304
100
AcDbEntity
  8
0
 62
     7
370
    13
390
F
100
AcDbText
 10
874.248718
 20
-286.220428
 30
0.0
 40
2.0
  1
-
 41
1.333340909090814
 72
     5
 11
875.715393
 21
-286.220428
 31
0.0
100
AcDbText
  0
ENDBLK
  5
77C
330
304
100
AcDbEntity
  8
0
100
AcDbBlockEnd
  0
BLOCK
  5
77D
330
305
100
AcDbEntity
  8
0
100
AcDbBlockBegin
  2
BLOCK554
 70
     0
 10
0.0
 20
0.0
 30
0.0
  3
BLOCK554
  1

  0
TEXT
  5
45B
330
305
100
AcDbEntity
  8
0
 62
     7
370
    13
390
F
100
AcDbText
 10
886.939392
 20
-275.506104
 30
0.0
 40
2.0
  1
0,1
 41
1.833321785714271
 72
     5
 11
892.072693
 21
-275.506104
 31
0.0
100
AcDbText
  0
ENDBLK
  5
77E
330
305
100
AcDbEntity
  8
0
100
AcDbBlockEnd
  0
BLOCK
  5
77F
330
306
100
AcDbEntity
  8
0
100
AcDbBlockBegin
  2
BLOCK555
 70
     0
 10
0.0
 20
0.0
 30
0.0
  3
BLOCK555
  1

  0
TEXT
  5
45E
330
306
100
AcDbEntity
  8
0
 62
     7
370
    13
390
F
100
AcDbText
 10
886.022705
 20
-280.506104
 30
0.0
 40
2.0
  1
0,15
 41
1.658732142857145
 72
     5
 11
892.98938
 21
-280.506104
 31
0.0
100
AcDbText
  0
ENDBLK
  5
780
330
306
100
AcDbEntity
  8
0
100
AcDbBlockEnd
  0
BLOCK
  5
781
330
307
100
AcDbEntity
  8
0
100
AcDbBlockBegin
  2
BLOCK556
 70
     0
 10
0.0
 20
0.0
 30
0.0
  3
BLOCK556
  1

  0
TEXT
  5
461
330
307
100
AcDbEntity
  8
0
 62
     7
370
    13
390
F
100
AcDbText
 10
886.939392
 20
-285.506073
 30
0.0
 40
2.0
  1
0,3
 41
1.604156562499988
 72
     5
 11
892.072693
 21
-285.506073
 31
0.0
100
AcDbText
  0
ENDBLK
  5
782
330
307
100
AcDbEntity
  8
0
100
AcDbBlockEnd
  0
BLOCK
  5
783
330
308
100
AcDbEntity
  8
0
100
AcDbBlockBegin
  2
BLOCK557
 70
     0
 10
0.0
 20
0.0
 30
0.0
  3
BLOCK557
  1

  0
TEXT
  5
464
330
308
100
AcDbEntity
  8
0
 62
     7
370
    13
390
F
100
AcDbText
 10
896.939392
 20
-285.506073
 30
0.0
 40
2.0
  1
0,5
 41
1.604156562499988
 72
     5
 11
902.072693
 21
-285.506073
 31
0.0
100
AcDbText
  0
ENDBLK
  5
784
330
308
100
AcDbEntity
  8
0
100
AcDbBlockEnd
  0
BLOCK
  5
785
330
309
100
AcDbEntity
  8
0
100
AcDbBlockBegin
  2
BLOCK558
 70
     0
 10
0.0
 20
0.0
 30
0.0
  3
BLOCK558
  1

  0
TEXT
  5
467
330
309
100
AcDbEntity
  8
0
 62
     7
370
    13
390
F
100
AcDbText
 10
896.022705
 20
-280.506104
 30
0.0
 40
2.0
  1
0,25
 41
1.514494565217393
 72
     5
 11
902.98938
 21
-280.506104
 31
0.0
100
AcDbText
  0
ENDBLK
  5
786
330
309
100
AcDbEntity
  8
0
100
AcDbBlockEnd
  0
BLOCK
  5
787
330
30A
100
AcDbEntity
  8
0
100
AcDbBlockBegin
  2
BLOCK559
 70
     0
 10
0.0
 20
0.0
 30
0.0
  3
BLOCK559
  1

  0
TEXT
  5
46A
330
30A
100
AcDbEntity
  8
0
 62
     7
370
    13
390
F
100
AcDbText
 10
896.022705
 20
-275.506104
 30
0.0
 40
2.0
  1
0,15
 41
1.658732142857145
 72
     5
 11
902.98938
 21
-275.506104
 31
0.0
100
AcDbText
  0
ENDBLK
  5
788
330
30A
100
AcDbEntity
  8
0
100
AcDbBlockEnd
  0
BLOCK
  5
789
330
30B
100
AcDbEntity
  8
0
100
AcDbBlockBegin
  2
BLOCK560
 70
     0
 10
0.0
 20
0.0
 30
0.0
  3
BLOCK560
  1

  0
TEXT
  5
46D
330
30B
100
AcDbEntity
  8
0
 62
     7
370
    13
390
F
100
AcDbText
 10
908.772705
 20
-285.506073
 30
0.0
 40
2.0
  1
1
 41
2.095250000000013
 72
     5
 11
910.23938
 21
-285.506073
 31
0.0
100
AcDbText
  0
ENDBLK
  5
78A
330
30B
100
AcDbEntity
  8
0
100
AcDbBlockEnd
  0
BLOCK
  5
78B
330
30C
100
AcDbEntity
  8
0
100
AcDbBlockBegin
  2
BLOCK561
 70
     0
 10
0.0
 20
0.0
 30
0.0
  3
BLOCK561
  1

  0
TEXT
  5
470
330
30C
100
AcDbEntity
  8
0
 62
     7
370
    13
390
F
100
AcDbText
 10
906.939392
 20
-280.506104
 30
0.0
 40
2.0
  1
0,5
 41
1.604156562499988
 72
     5
 11
912.072693
 21
-280.506104
 31
0.0
100
AcDbText
  0
ENDBLK
  5
78C
330
30C
100
AcDbEntity
  8
0
100
AcDbBlockEnd
  0
BLOCK
  5
78D
330
30D
100
AcDbEntity
  8
0
100
AcDbBlockBegin
  2
BLOCK562
 70
     0
 10
0.0
 20
0.0
 30
0.0
  3
BLOCK562
  1

  0
TEXT
  5
473
330
30D
100
AcDbEntity
  8
0
 62
     7
370
    13
390
F
100
AcDbText
 10
906.939392
 20
-275.506104
 30
0.0
 40
2.0
  1
0,2
 41
1.60393489512853
 72
     5
 11
912.072693
 21
-275.506104
 31
0.0
100
AcDbText
  0
ENDBLK
  5
78E
330
30D
100
AcDbEntity
  8
0
100
AcDbBlockEnd
  0
BLOCK
  5
78F
330
30E
100
AcDbEntity
  8
0
100
AcDbBlockBegin
  2
BLOCK563
 70
     0
 10
0.0
 20
0.0
 30
0.0
  3
BLOCK563
  1

  0
TEXT
  5
476
330
30E
100
AcDbEntity
  8
0
 62
     7
370
    13
390
F
100
AcDbText
 10
916.939392
 20
-285.506073
 30
0.0
 40
2.0
  1
1,5
 41
1.833321785714271
 72
     5
 11
922.072693
 21
-285.506073
 31
0.0
100
AcDbText
  0
ENDBLK
  5
790
330
30E
100
AcDbEntity
  8
0
100
AcDbBlockEnd
  0
BLOCK
  5
791
330
30F
100
AcDbEntity
  8
0
100
AcDbBlockBegin
  2
BLOCK564
 70
     0
 10
0.0
 20
0.0
 30
0.0
  3
BLOCK564
  1

  0
TEXT
  5
479
330
30F
100
AcDbEntity
  8
0
 62
     7
370
    13
390
F
100
AcDbText
 10
916.939392
 20
-280.506104
 30
0.0
 40
2.0
  1
0,8
 41
1.604407251132977
 72
     5
 11
922.072693
 21
-280.506104
 31
0.0
100
AcDbText
  0
ENDBLK
  5
792
330
30F
100
AcDbEntity
  8
0
100
AcDbBlockEnd
  0
BLOCK
  5
793
330
310
100
AcDbEntity
  8
0
100
AcDbBlockBegin
  2
BLOCK565
 70
     0
 10
0.0
 20
0.0
 30
0.0
  3
BLOCK565
  1

  0
TEXT
  5
47C
330
310
100
AcDbEntity
  8
0
 62
     7
370
    13
390
F
100
AcDbText
 10
916.939392
 20
-275.506104
 30
0.0
 40
2.0
  1
0,3
 41
1.604156562499988
 72
     5
 11
922.072693
 21
-275.506104
 31
0.0
100
AcDbText
  0
ENDBLK
  5
794
330
310
100
AcDbEntity
  8
0
100
AcDbBlockEnd
  0
BLOCK
  5
795
330
311
100
AcDbEntity
  8
0
100
AcDbBlockBegin
  2
BLOCK566
 70
     0
 10
0.0
 20
0.0
 30
0.0
  3
BLOCK566
  1

  0
TEXT
  5
47F
330
311
100
AcDbEntity
  8
0
 62
     7
370
    13
390
F
100
AcDbText
 10
928.772705
 20
-285.506073
 30
0.0
 40
2.0
  1
3
 41
1.333340909090917
 72
     5
 11
930.23938
 21
-285.506073
 31
0.0
100
AcDbText
  0
ENDBLK
  5
796
330
311
100
AcDbEntity
  8
0
100
AcDbBlockEnd
  0
BLOCK
  5
797
330
312
100
AcDbEntity
  8
0
100
AcDbBlockBegin
  2
BLOCK567
 70
     0
 10
0.0
 20
0.0
 30
0.0
  3
BLOCK567
  1

  0
TEXT
  5
482
330
312
100
AcDbEntity
  8
0
 62
     7
370
    13
390
F
100
AcDbText
 10
926.939392
 20
-280.506104
 30
0.0
 40
2.0
  1
1,5
 41
1.833321785714271
 72
     5
 11
932.072693
 21
-280.506104
 31
0.0
100
AcDbText
  0
ENDBLK
  5
798
330
312
100
AcDbEntity
  8
0
100
AcDbBlockEnd
  0
BLOCK
  5
799
330
313
100
AcDbEntity
  8
0
100
AcDbBlockBegin
  2
BLOCK568
 70
     0
 10
0.0
 20
0.0
 30
0.0
  3
BLOCK568
  1

  0
TEXT
  5
485
330
313
100
AcDbEntity
  8
0
 62
     7
370
    13
390
F
100
AcDbText
 10
926.939392
 20
-275.506104
 30
0.0
 40
2.0
  1
0,5
 41
1.604156562499988
 72
     5
 11
932.072693
 21
-275.506104
 31
0.0
100
AcDbText
  0
ENDBLK
  5
79A
330
313
100
AcDbEntity
  8
0
100
AcDbBlockEnd
  0
BLOCK
  5
79B
330
314
100
AcDbEntity
  8
0
100
AcDbBlockBegin
  2
BLOCK569
 70
     0
 10
0.0
 20
0.0
 30
0.0
  3
BLOCK569
  1

  0
TEXT
  5
488
330
314
100
AcDbEntity
  8
0
 62
     7
370
    13
390
F
100
AcDbText
 10
884.248718
 20
-286.220428
 30
0.0
 40
2.0
  1
-
 41
1.333340909090814
 72
     5
 11
885.715393
 21
-286.220428
 31
0.0
100
AcDbText
  0
ENDBLK
  5
79C
330
314
100
AcDbEntity
  8
0
100
AcDbBlockEnd
  0
BLOCK
  5
79D
330
315
100
AcDbEntity
  8
0
100
AcDbBlockBegin
  2
BLOCK570
 70
     0
 10
0.0
 20
0.0
 30
0.0
  3
BLOCK570
  1

  0
TEXT
  5
48B
330
315
100
AcDbEntity
  8
0
 62
     7
370
    13
390
F
100
AcDbText
 10
884.248718
 20
-285.208466
 30
0.0
 40
2.0
  1
+
 41
1.333340909090814
 72
     5
 11
885.715393
 21
-285.208466
 31
0.0
100
AcDbText
  0
ENDBLK
  5
79E
330
315
100
AcDbEntity
  8
0
100
AcDbBlockEnd
  0
BLOCK
  5
79F
330
316
100
AcDbEntity
  8
0
100
AcDbBlockBegin
  2
BLOCK571
 70
     0
 10
0.0
 20
0.0
 30
0.0
  3
BLOCK571
  1

  0
TEXT
  5
48E
330
316
100
AcDbEntity
  8
0
 62
     7
370
    13
390
F
100
AcDbText
 10
884.248718
 20
-281.220428
 30
0.0
 40
2.0
  1
-
 41
1.333340909090814
 72
     5
 11
885.715393
 21
-281.220428
 31
0.0
100
AcDbText
  0
ENDBLK
  5
7A0
330
316
100
AcDbEntity
  8
0
100
AcDbBlockEnd
  0
BLOCK
  5
7A1
330
317
100
AcDbEntity
  8
0
100
AcDbBlockBegin
  2
BLOCK572
 70
     0
 10
0.0
 20
0.0
 30
0.0
  3
BLOCK572
  1

  0
TEXT
  5
491
330
317
100
AcDbEntity
  8
0
 62
     7
370
    13
390
F
100
AcDbText
 10
884.248718
 20
-280.208466
 30
0.0
 40
2.0
  1
+
 41
1.333340909090814
 72
     5
 11
885.715393
 21
-280.208466
 31
0.0
100
AcDbText
  0
ENDBLK
  5
7A2
330
317
100
AcDbEntity
  8
0
100
AcDbBlockEnd
  0
BLOCK
  5
7A3
330
318
100
AcDbEntity
  8
0
100
AcDbBlockBegin
  2
BLOCK573
 70
     0
 10
0.0
 20
0.0
 30
0.0
  3
BLOCK573
  1

  0
TEXT
  5
494
330
318
100
AcDbEntity
  8
0
 62
     7
370
    13
390
F
100
AcDbText
 10
884.248718
 20
-276.220428
 30
0.0
 40
2.0
  1
-
 41
1.333340909090814
 72
     5
 11
885.715393
 21
-276.220428
 31
0.0
100
AcDbText
  0
ENDBLK
  5
7A4
330
318
100
AcDbEntity
  8
0
100
AcDbBlockEnd
  0
BLOCK
  5
7A5
330
319
100
AcDbEntity
  8
0
100
AcDbBlockBegin
  2
BLOCK574
 70
     0
 10
0.0
 20
0.0
 30
0.0
  3
BLOCK574
  1

  0
TEXT
  5
497
330
319
100
AcDbEntity
  8
0
 62
     7
370
    13
390
F
100
AcDbText
 10
884.248718
 20
-275.208466
 30
0.0
 40
2.0
  1
+
 41
1.333340909090814
 72
     5
 11
885.715393
 21
-275.208466
 31
0.0
100
AcDbText
  0
ENDBLK
  5
7A6
330
319
100
AcDbEntity
  8
0
100
AcDbBlockEnd
  0
BLOCK
  5
7A7
330
31A
100
AcDbEntity
  8
0
100
AcDbBlockBegin
  2
BLOCK575
 70
     0
 10
0.0
 20
0.0
 30
0.0
  3
BLOCK575
  1

  0
TEXT
  5
49A
330
31A
100
AcDbEntity
  8
0
 62
     7
370
    13
390
F
100
AcDbText
 10
894.248718
 20
-286.220428
 30
0.0
 40
2.0
  1
-
 41
1.333340909090814
 72
     5
 11
895.715393
 21
-286.220428
 31
0.0
100
AcDbText
  0
ENDBLK
  5
7A8
330
31A
100
AcDbEntity
  8
0
100
AcDbBlockEnd
  0
BLOCK
  5
7A9
330
31B
100
AcDbEntity
  8
0
100
AcDbBlockBegin
  2
BLOCK576
 70
     0
 10
0.0
 20
0.0
 30
0.0
  3
BLOCK576
  1

  0
TEXT
  5
49D
330
31B
100
AcDbEntity
  8
0
 62
     7
370
    13
390
F
100
AcDbText
 10
894.248718
 20
-285.208466
 30
0.0
 40
2.0
  1
+
 41
1.333340909090814
 72
     5
 11
895.715393
 21
-285.208466
 31
0.0
100
AcDbText
  0
ENDBLK
  5
7AA
330
31B
100
AcDbEntity
  8
0
100
AcDbBlockEnd
  0
BLOCK
  5
7AB
330
31C
100
AcDbEntity
  8
0
100
AcDbBlockBegin
  2
BLOCK577
 70
     0
 10
0.0
 20
0.0
 30
0.0
  3
BLOCK577
  1

  0
TEXT
  5
4A0
330
31C
100
AcDbEntity
  8
0
 62
     7
370
    13
390
F
100
AcDbText
 10
894.248718
 20
-281.220428
 30
0.0
 40
2.0
  1
-
 41
1.333340909090814
 72
     5
 11
895.715393
 21
-281.220428
 31
0.0
100
AcDbText
  0
ENDBLK
  5
7AC
330
31C
100
AcDbEntity
  8
0
100
AcDbBlockEnd
  0
BLOCK
  5
7AD
330
31D
100
AcDbEntity
  8
0
100
AcDbBlockBegin
  2
BLOCK578
 70
     0
 10
0.0
 20
0.0
 30
0.0
  3
BLOCK578
  1

  0
TEXT
  5
4A3
330
31D
100
AcDbEntity
  8
0
 62
     7
370
    13
390
F
100
AcDbText
 10
894.248718
 20
-280.208466
 30
0.0
 40
2.0
  1
+
 41
1.333340909090814
 72
     5
 11
895.715393
 21
-280.208466
 31
0.0
100
AcDbText
  0
ENDBLK
  5
7AE
330
31D
100
AcDbEntity
  8
0
100
AcDbBlockEnd
  0
BLOCK
  5
7AF
330
31E
100
AcDbEntity
  8
0
100
AcDbBlockBegin
  2
BLOCK579
 70
     0
 10
0.0
 20
0.0
 30
0.0
  3
BLOCK579
  1

  0
TEXT
  5
4A6
330
31E
100
AcDbEntity
  8
0
 62
     7
370
    13
390
F
100
AcDbText
 10
894.248718
 20
-276.220428
 30
0.0
 40
2.0
  1
-
 41
1.333340909090814
 72
     5
 11
895.715393
 21
-276.220428
 31
0.0
100
AcDbText
  0
ENDBLK
  5
7B0
330
31E
100
AcDbEntity
  8
0
100
AcDbBlockEnd
  0
BLOCK
  5
7B1
330
31F
100
AcDbEntity
  8
0
100
AcDbBlockBegin
  2
BLOCK580
 70
     0
 10
0.0
 20
0.0
 30
0.0
  3
BLOCK580
  1

  0
TEXT
  5
4A9
330
31F
100
AcDbEntity
  8
0
 62
     7
370
    13
390
F
100
AcDbText
 10
894.248718
 20
-275.208466
 30
0.0
 40
2.0
  1
+
 41
1.333340909090814
 72
     5
 11
895.715393
 21
-275.208466
 31
0.0
100
AcDbText
  0
ENDBLK
  5
7B2
330
31F
100
AcDbEntity
  8
0
100
AcDbBlockEnd
  0
BLOCK
  5
7B3
330
320
100
AcDbEntity
  8
0
100
AcDbBlockBegin
  2
BLOCK581
 70
     0
 10
0.0
 20
0.0
 30
0.0
  3
BLOCK581
  1

  0
TEXT
  5
4AC
330
320
100
AcDbEntity
  8
0
 62
     7
370
    13
390
F
100
AcDbText
 10
904.248718
 20
-286.220428
 30
0.0
 40
2.0
  1
-
 41
1.333340909090814
 72
     5
 11
905.715393
 21
-286.220428
 31
0.0
100
AcDbText
  0
ENDBLK
  5
7B4
330
320
100
AcDbEntity
  8
0
100
AcDbBlockEnd
  0
BLOCK
  5
7B5
330
321
100
AcDbEntity
  8
0
100
AcDbBlockBegin
  2
BLOCK582
 70
     0
 10
0.0
 20
0.0
 30
0.0
  3
BLOCK582
  1

  0
TEXT
  5
4AF
330
321
100
AcDbEntity
  8
0
 62
     7
370
    13
390
F
100
AcDbText
 10
904.248718
 20
-285.208466
 30
0.0
 40
2.0
  1
+
 41
1.333340909090814
 72
     5
 11
905.715393
 21
-285.208466
 31
0.0
100
AcDbText
  0
ENDBLK
  5
7B6
330
321
100
AcDbEntity
  8
0
100
AcDbBlockEnd
  0
BLOCK
  5
7B7
330
322
100
AcDbEntity
  8
0
100
AcDbBlockBegin
  2
BLOCK583
 70
     0
 10
0.0
 20
0.0
 30
0.0
  3
BLOCK583
  1

  0
TEXT
  5
4B2
330
322
100
AcDbEntity
  8
0
 62
     7
370
    13
390
F
100
AcDbText
 10
904.248718
 20
-281.220428
 30
0.0
 40
2.0
  1
-
 41
1.333340909090814
 72
     5
 11
905.715393
 21
-281.220428
 31
0.0
100
AcDbText
  0
ENDBLK
  5
7B8
330
322
100
AcDbEntity
  8
0
100
AcDbBlockEnd
  0
BLOCK
  5
7B9
330
323
100
AcDbEntity
  8
0
100
AcDbBlockBegin
  2
BLOCK584
 70
     0
 10
0.0
 20
0.0
 30
0.0
  3
BLOCK584
  1

  0
TEXT
  5
4B5
330
323
100
AcDbEntity
  8
0
 62
     7
370
    13
390
F
100
AcDbText
 10
904.248718
 20
-280.208466
 30
0.0
 40
2.0
  1
+
 41
1.333340909090814
 72
     5
 11
905.715393
 21
-280.208466
 31
0.0
100
AcDbText
  0
ENDBLK
  5
7BA
330
323
100
AcDbEntity
  8
0
100
AcDbBlockEnd
  0
BLOCK
  5
7BB
330
324
100
AcDbEntity
  8
0
100
AcDbBlockBegin
  2
BLOCK585
 70
     0
 10
0.0
 20
0.0
 30
0.0
  3
BLOCK585
  1

  0
TEXT
  5
4B8
330
324
100
AcDbEntity
  8
0
 62
     7
370
    13
390
F
100
AcDbText
 10
904.248718
 20
-276.220428
 30
0.0
 40
2.0
  1
-
 41
1.333340909090814
 72
     5
 11
905.715393
 21
-276.220428
 31
0.0
100
AcDbText
  0
ENDBLK
  5
7BC
330
324
100
AcDbEntity
  8
0
100
AcDbBlockEnd
  0
BLOCK
  5
7BD
330
325
100
AcDbEntity
  8
0
100
AcDbBlockBegin
  2
BLOCK586
 70
     0
 10
0.0
 20
0.0
 30
0.0
  3
BLOCK586
  1

  0
TEXT
  5
4BB
330
325
100
AcDbEntity
  8
0
 62
     7
370
    13
390
F
100
AcDbText
 10
904.248718
 20
-275.208466
 30
0.0
 40
2.0
  1
+
 41
1.333340909090814
 72
     5
 11
905.715393
 21
-275.208466
 31
0.0
100
AcDbText
  0
ENDBLK
  5
7BE
330
325
100
AcDbEntity
  8
0
100
AcDbBlockEnd
  0
BLOCK
  5
7BF
330
326
100
AcDbEntity
  8
0
100
AcDbBlockBegin
  2
BLOCK587
 70
     0
 10
0.0
 20
0.0
 30
0.0
  3
BLOCK587
  1

  0
TEXT
  5
4BE
330
326
100
AcDbEntity
  8
0
 62
     7
370
    13
390
F
100
AcDbText
 10
914.248718
 20
-286.220428
 30
0.0
 40
2.0
  1
-
 41
1.333340909090814
 72
     5
 11
915.715393
 21
-286.220428
 31
0.0
100
AcDbText
  0
ENDBLK
  5
7C0
330
326
100
AcDbEntity
  8
0
100
AcDbBlockEnd
  0
BLOCK
  5
7C1
330
327
100
AcDbEntity
  8
0
100
AcDbBlockBegin
  2
BLOCK588
 70
     0
 10
0.0
 20
0.0
 30
0.0
  3
BLOCK588
  1

  0
TEXT
  5
4C1
330
327
100
AcDbEntity
  8
0
 62
     7
370
    13
390
F
100
AcDbText
 10
914.248718
 20
-285.208466
 30
0.0
 40
2.0
  1
+
 41
1.333340909090814
 72
     5
 11
915.715393
 21
-285.208466
 31
0.0
100
AcDbText
  0
ENDBLK
  5
7C2
330
327
100
AcDbEntity
  8
0
100
AcDbBlockEnd
  0
BLOCK
  5
7C3
330
328
100
AcDbEntity
  8
0
100
AcDbBlockBegin
  2
BLOCK589
 70
     0
 10
0.0
 20
0.0
 30
0.0
  3
BLOCK589
  1

  0
TEXT
  5
4C4
330
328
100
AcDbEntity
  8
0
 62
     7
370
    13
390
F
100
AcDbText
 10
914.248718
 20
-281.220428
 30
0.0
 40
2.0
  1
-
 41
1.333340909090814
 72
     5
 11
915.715393
 21
-281.220428
 31
0.0
100
AcDbText
  0
ENDBLK
  5
7C4
330
328
100
AcDbEntity
  8
0
100
AcDbBlockEnd
  0
BLOCK
  5
7C5
330
329
100
AcDbEntity
  8
0
100
AcDbBlockBegin
  2
BLOCK590
 70
     0
 10
0.0
 20
0.0
 30
0.0
  3
BLOCK590
  1

  0
TEXT
  5
4C7
330
329
100
AcDbEntity
  8
0
 62
     7
370
    13
390
F
100
AcDbText
 10
914.248718
 20
-280.208466
 30
0.0
 40
2.0
  1
+
 41
1.333340909090814
 72
     5
 11
915.715393
 21
-280.208466
 31
0.0
100
AcDbText
  0
ENDBLK
  5
7C6
330
329
100
AcDbEntity
  8
0
100
AcDbBlockEnd
  0
BLOCK
  5
7C7
330
32A
100
AcDbEntity
  8
0
100
AcDbBlockBegin
  2
BLOCK591
 70
     0
 10
0.0
 20
0.0
 30
0.0
  3
BLOCK591
  1

  0
TEXT
  5
4CA
330
32A
100
AcDbEntity
  8
0
 62
     7
370
    13
390
F
100
AcDbText
 10
914.248718
 20
-276.220428
 30
0.0
 40
2.0
  1
-
 41
1.333340909090814
 72
     5
 11
915.715393
 21
-276.220428
 31
0.0
100
AcDbText
  0
ENDBLK
  5
7C8
330
32A
100
AcDbEntity
  8
0
100
AcDbBlockEnd
  0
BLOCK
  5
7C9
330
32B
100
AcDbEntity
  8
0
100
AcDbBlockBegin
  2
BLOCK592
 70
     0
 10
0.0
 20
0.0
 30
0.0
  3
BLOCK592
  1

  0
TEXT
  5
4CD
330
32B
100
AcDbEntity
  8
0
 62
     7
370
    13
390
F
100
AcDbText
 10
914.248718
 20
-275.208466
 30
0.0
 40
2.0
  1
+
 41
1.333340909090814
 72
     5
 11
915.715393
 21
-275.208466
 31
0.0
100
AcDbText
  0
ENDBLK
  5
7CA
330
32B
100
AcDbEntity
  8
0
100
AcDbBlockEnd
  0
BLOCK
  5
7CB
330
32C
100
AcDbEntity
  8
0
100
AcDbBlockBegin
  2
BLOCK593
 70
     0
 10
0.0
 20
0.0
 30
0.0
  3
BLOCK593
  1

  0
TEXT
  5
4D0
330
32C
100
AcDbEntity
  8
0
 62
     7
370
    13
390
F
100
AcDbText
 10
924.248718
 20
-286.220428
 30
0.0
 40
2.0
  1
-
 41
1.333340909090814
 72
     5
 11
925.715393
 21
-286.220428
 31
0.0
100
AcDbText
  0
ENDBLK
  5
7CC
330
32C
100
AcDbEntity
  8
0
100
AcDbBlockEnd
  0
BLOCK
  5
7CD
330
32D
100
AcDbEntity
  8
0
100
AcDbBlockBegin
  2
BLOCK594
 70
     0
 10
0.0
 20
0.0
 30
0.0
  3
BLOCK594
  1

  0
TEXT
  5
4D3
330
32D
100
AcDbEntity
  8
0
 62
     7
370
    13
390
F
100
AcDbText
 10
924.248718
 20
-285.208466
 30
0.0
 40
2.0
  1
+
 41
1.333340909090814
 72
     5
 11
925.715393
 21
-285.208466
 31
0.0
100
AcDbText
  0
ENDBLK
  5
7CE
330
32D
100
AcDbEntity
  8
0
100
AcDbBlockEnd
  0
BLOCK
  5
7CF
330
32E
100
AcDbEntity
  8
0
100
AcDbBlockBegin
  2
BLOCK595
 70
     0
 10
0.0
 20
0.0
 30
0.0
  3
BLOCK595
  1

  0
TEXT
  5
4D6
330
32E
100
AcDbEntity
  8
0
 62
     7
370
    13
390
F
100
AcDbText
 10
924.248718
 20
-281.220428
 30
0.0
 40
2.0
  1
-
 41
1.333340909090814
 72
     5
 11
925.715393
 21
-281.220428
 31
0.0
100
AcDbText
  0
ENDBLK
  5
7D0
330
32E
100
AcDbEntity
  8
0
100
AcDbBlockEnd
  0
BLOCK
  5
7D1
330
32F
100
AcDbEntity
  8
0
100
AcDbBlockBegin
  2
BLOCK596
 70
     0
 10
0.0
 20
0.0
 30
0.0
  3
BLOCK596
  1

  0
TEXT
  5
4D9
330
32F
100
AcDbEntity
  8
0
 62
     7
370
    13
390
F
100
AcDbText
 10
924.248718
 20
-280.208466
 30
0.0
 40
2.0
  1
+
 41
1.333340909090814
 72
     5
 11
925.715393
 21
-280.208466
 31
0.0
100
AcDbText
  0
ENDBLK
  5
7D2
330
32F
100
AcDbEntity
  8
0
100
AcDbBlockEnd
  0
BLOCK
  5
7D3
330
330
100
AcDbEntity
  8
0
100
AcDbBlockBegin
  2
BLOCK597
 70
     0
 10
0.0
 20
0.0
 30
0.0
  3
BLOCK597
  1

  0
TEXT
  5
4DC
330
330
100
AcDbEntity
  8
0
 62
     7
370
    13
390
F
100
AcDbText
 10
924.248718
 20
-276.220428
 30
0.0
 40
2.0
  1
-
 41
1.333340909090814
 72
     5
 11
925.715393
 21
-276.220428
 31
0.0
100
AcDbText
  0
ENDBLK
  5
7D4
330
330
100
AcDbEntity
  8
0
100
AcDbBlockEnd
  0
BLOCK
  5
7D5
330
331
100
AcDbEntity
  8
0
100
AcDbBlockBegin
  2
BLOCK598
 70
     0
 10
0.0
 20
0.0
 30
0.0
  3
BLOCK598
  1

  0
TEXT
  5
4DF
330
331
100
AcDbEntity
  8
0
 62
     7
370
    13
390
F
100
AcDbText
 10
924.248718
 20
-275.208466
 30
0.0
 40
2.0
  1
+
 41
1.333340909090814
 72
     5
 11
925.715393
 21
-275.208466
 31
0.0
100
AcDbText
  0
ENDBLK
  5
7D6
330
331
100
AcDbEntity
  8
0
100
AcDbBlockEnd
  0
BLOCK
  5
7D7
330
332
100
AcDbEntity
  8
0
100
AcDbBlockBegin
  2
BLOCK599
 70
     0
 10
0.0
 20
0.0
 30
0.0
  3
BLOCK599
  1

  0
TEXT
  5
4E2
330
332
100
AcDbEntity
  8
0
 62
     7
370
    13
390
F
100
AcDbText
 10
877.403625
 20
-266.398468
 30
0.0
 40
2.0
  1
0
 41
1.331434774839179
 72
     5
 11
878.8703
 21
-266.398468
 31
0.0
100
AcDbText
  0
ENDBLK
  5
7D8
330
332
100
AcDbEntity
  8
0
100
AcDbBlockEnd
  0
BLOCK
  5
7D9
330
333
100
AcDbEntity
  8
0
100
AcDbBlockBegin
  2
BLOCK600
 70
     0
 10
0.0
 20
0.0
 30
0.0
  3
BLOCK600
  1

  0
TEXT
  5
4E5
330
333
100
AcDbEntity
  8
0
 62
     7
370
    13
390
F
100
AcDbText
 10
877.522644
 20
-270.505829
 30
0.0
 40
2.0
  1
6
 41
1.333340909090917
 72
     5
 11
878.989319
 21
-270.505829
 31
0.0
100
AcDbText
  0
ENDBLK
  5
7DA
330
333
100
AcDbEntity
  8
0
100
AcDbBlockEnd
  0
BLOCK
  5
7DB
330
334
100
AcDbEntity
  8
0
100
AcDbBlockBegin
  2
BLOCK601
 70
     0
 10
0.0
 20
0.0
 30
0.0
  3
BLOCK601
  1

  0
TEXT
  5
4E8
330
334
100
AcDbEntity
  8
0
 62
     7
370
    13
390
F
100
AcDbText
 10
887.403625
 20
-266.398468
 30
0.0
 40
2.0
  1
6
 41
1.333340909090917
 72
     5
 11
888.8703
 21
-266.398468
 31
0.0
100
AcDbText
  0
ENDBLK
  5
7DC
330
334
100
AcDbEntity
  8
0
100
AcDbBlockEnd
  0
BLOCK
  5
7DD
330
335
100
AcDbEntity
  8
0
100
AcDbBlockBegin
  2
BLOCK602
 70
     0
 10
0.0
 20
0.0
 30
0.0
  3
BLOCK602
  1

  0
TEXT
  5
4EB
330
335
100
AcDbEntity
  8
0
 62
     7
370
    13
390
F
100
AcDbText
 10
896.487
 20
-266.398468
 30
0.0
 40
2.0
  1
30
 41
1.319163830657848
 72
     5
 11
899.786987
 21
-266.398468
 31
0.0
100
AcDbText
  0
ENDBLK
  5
7DE
330
335
100
AcDbEntity
  8
0
100
AcDbBlockEnd
  0
BLOCK
  5
7DF
330
336
100
AcDbEntity
  8
0
100
AcDbBlockBegin
  2
BLOCK603
 70
     0
 10
0.0
 20
0.0
 30
0.0
  3
BLOCK603
  1

  0
TEXT
  5
4EE
330
336
100
AcDbEntity
  8
0
 62
     7
370
    13
390
F
100
AcDbText
 10
905.570313
 20
-266.398468
 30
0.0
 40
2.0
  1
120
 41
1.465997526422296
 72
     5
 11
910.703613
 21
-266.398468
 31
0.0
100
AcDbText
  0
ENDBLK
  5
7E0
330
336
100
AcDbEntity
  8
0
100
AcDbBlockEnd
  0
BLOCK
  5
7E1
330
337
100
AcDbEntity
  8
0
100
AcDbBlockBegin
  2
BLOCK604
 70
     0
 10
0.0
 20
0.0
 30
0.0
  3
BLOCK604
  1

  0
TEXT
  5
4F1
330
337
100
AcDbEntity
  8
0
 62
     7
370
    13
390
F
100
AcDbText
 10
915.570313
 20
-266.398468
 30
0.0
 40
2.0
  1
315
 41
1.466657142857132
 72
     5
 11
920.703613
 21
-266.398468
 31
0.0
100
AcDbText
  0
ENDBLK
  5
7E2
330
337
100
AcDbEntity
  8
0
100
AcDbBlockEnd
  0
BLOCK
  5
7E3
330
338
100
AcDbEntity
  8
0
100
AcDbBlockBegin
  2
BLOCK605
 70
     0
 10
0.0
 20
0.0
 30
0.0
  3
BLOCK605
  1

  0
TEXT
  5
4F4
330
338
100
AcDbEntity
  8
0
 62
     7
370
    13
390
F
100
AcDbText
 10
925.570313
 20
-266.398468
 30
0.0
 40
2.0
  1
500
 41
1.315699495459123
 72
     5
 11
930.703613
 21
-266.398468
 31
0.0
100
AcDbText
  0
ENDBLK
  5
7E4
330
338
100
AcDbEntity
  8
0
100
AcDbBlockEnd
  0
BLOCK
  5
7E5
330
339
100
AcDbEntity
  8
0
100
AcDbBlockBegin
  2
BLOCK606
 70
     0
 10
0.0
 20
0.0
 30
0.0
  3
BLOCK606
  1

  0
TEXT
  5
4F7
330
339
100
AcDbEntity
  8
0
 62
     7
370
    13
390
F
100
AcDbText
 10
886.606018
 20
-270.505829
 30
0.0
 40
2.0
  1
30
 41
1.319164230406082
 72
     5
 11
889.906006
 21
-270.505829
 31
0.0
100
AcDbText
  0
ENDBLK
  5
7E6
330
339
100
AcDbEntity
  8
0
100
AcDbBlockEnd
  0
BLOCK
  5
7E7
330
33A
100
AcDbEntity
  8
0
100
AcDbBlockBegin
  2
BLOCK607
 70
     0
 10
0.0
 20
0.0
 30
0.0
  3
BLOCK607
  1

  0
TEXT
  5
4FA
330
33A
100
AcDbEntity
  8
0
 62
     7
370
    13
390
F
100
AcDbText
 10
895.689331
 20
-270.505829
 30
0.0
 40
2.0
  1
120
 41
1.465997812008084
 72
     5
 11
900.822632
 21
-270.505829
 31
0.0
100
AcDbText
  0
ENDBLK
  5
7E8
330
33A
100
AcDbEntity
  8
0
100
AcDbBlockEnd
  0
BLOCK
  5
7E9
330
33B
100
AcDbEntity
  8
0
100
AcDbBlockBegin
  2
BLOCK608
 70
     0
 10
0.0
 20
0.0
 30
0.0
  3
BLOCK608
  1

  0
TEXT
  5
4FD
330
33B
100
AcDbEntity
  8
0
 62
     7
370
    13
390
F
100
AcDbText
 10
905.689331
 20
-270.505829
 30
0.0
 40
2.0
  1
315
 41
1.466657428571417
 72
     5
 11
910.822632
 21
-270.505829
 31
0.0
100
AcDbText
  0
ENDBLK
  5
7EA
330
33B
100
AcDbEntity
  8
0
100
AcDbBlockEnd
  0
BLOCK
  5
7EB
330
33C
100
AcDbEntity
  8
0
100
AcDbBlockBegin
  2
BLOCK609
 70
     0
 10
0.0
 20
0.0
 30
0.0
  3
BLOCK609
  1

  0
TEXT
  5
500
330
33C
100
AcDbEntity
  8
0
 62
     7
370
    13
390
F
100
AcDbText
 10
915.689331
 20
-270.505829
 30
0.0
 40
2.0
  1
500
 41
1.315699751765883
 72
     5
 11
920.822632
 21
-270.505829
 31
0.0
100
AcDbText
  0
ENDBLK
  5
7EC
330
33C
100
AcDbEntity
  8
0
100
AcDbBlockEnd
  0
BLOCK
  5
7ED
330
33D
100
AcDbEntity
  8
0
100
AcDbBlockBegin
  2
BLOCK610
 70
     0
 10
0.0
 20
0.0
 30
0.0
  3
BLOCK610
  1

  0
TEXT
  5
503
330
33D
100
AcDbEntity
  8
0
 62
     7
370
    13
390
F
100
AcDbText
 10
228.84967
 20
200.460754
 30
0.0
 40
2.0
  1
A
 41
0.9777733333333268
 72
     5
 11
230.31633
 21
200.460754
 31
0.0
100
AcDbText
  0
ENDBLK
  5
7EE
330
33D
100
AcDbEntity
  8
0
100
AcDbBlockEnd
  0
BLOCK
  5
7EF
330
33E
100
AcDbEntity
  8
0
100
AcDbBlockBegin
  2
BLOCK611
 70
     0
 10
0.0
 20
0.0
 30
0.0
  3
BLOCK611
  1

  0
TEXT
  5
506
330
33E
100
AcDbEntity
  8
0
 62
     7
370
    13
390
F
100
AcDbText
 10
228.84967
 20
104.794098
 30
0.0
 40
2.0
  1
B
 41
1.128199999999993
 72
     5
 11
230.31633
 21
104.794098
 31
0.0
100
AcDbText
  0
ENDBLK
  5
7F0
330
33E
100
AcDbEntity
  8
0
100
AcDbBlockEnd
  0
BLOCK
  5
7F1
330
33F
100
AcDbEntity
  8
0
100
AcDbBlockBegin
  2
BLOCK612
 70
     0
 10
0.0
 20
0.0
 30
0.0
  3
BLOCK612
  1

  0
TEXT
  5
509
330
33F
100
AcDbEntity
  8
0
 62
     7
370
    13
390
F
100
AcDbText
 10
228.84967
 20
9.127421
 30
0.0
 40
2.0
  1
C
 41
1.333327272727264
 72
     5
 11
230.31633
 21
9.127421
 31
0.0
100
AcDbText
  0
ENDBLK
  5
7F2
330
33F
100
AcDbEntity
  8
0
100
AcDbBlockEnd
  0
BLOCK
  5
7F3
330
340
100
AcDbEntity
  8
0
100
AcDbBlockBegin
  2
BLOCK613
 70
     0
 10
0.0
 20
0.0
 30
0.0
  3
BLOCK613
  1

  0
TEXT
  5
50C
330
340
100
AcDbEntity
  8
0
 62
     7
370
    13
390
F
100
AcDbText
 10
228.84967
 20
-86.539238
 30
0.0
 40
2.0
  1
D
 41
1.128199999999993
 72
     5
 11
230.31633
 21
-86.539238
 31
0.0
100
AcDbText
  0
ENDBLK
  5
7F4
330
340
100
AcDbEntity
  8
0
100
AcDbBlockEnd
  0
BLOCK
  5
7F5
330
341
100
AcDbEntity
  8
0
100
AcDbBlockBegin
  2
BLOCK614
 70
     0
 10
0.0
 20
0.0
 30
0.0
  3
BLOCK614
  1

  0
TEXT
  5
50F
330
341
100
AcDbEntity
  8
0
 62
     7
370
    13
390
F
100
AcDbText
 10
228.84967
 20
-182.205917
 30
0.0
 40
2.0
  1
E
 41
1.333327272727264
 72
     5
 11
230.31633
 21
-182.205917
 31
0.0
100
AcDbText
  0
ENDBLK
  5
7F6
330
341
100
AcDbEntity
  8
0
100
AcDbBlockEnd
  0
BLOCK
  5
7F7
330
342
100
AcDbEntity
  8
0
100
AcDbBlockBegin
  2
BLOCK615
 70
     0
 10
0.0
 20
0.0
 30
0.0
  3
BLOCK615
  1

  0
TEXT
  5
512
330
342
100
AcDbEntity
  8
0
 62
     7
370
    13
390
F
100
AcDbText
 10
228.84967
 20
-277.872589
 30
0.0
 40
2.0
  1
F
 41
1.333327272727264
 72
     5
 11
230.31633
 21
-277.872589
 31
0.0
100
AcDbText
  0
ENDBLK
  5
7F8
330
342
100
AcDbEntity
  8
0
100
AcDbBlockEnd
  0
BLOCK
  5
7F9
330
343
100
AcDbEntity
  8
0
100
AcDbBlockBegin
  2
BLOCK616
 70
     0
 10
0.0
 20
0.0
 30
0.0
  3
BLOCK616
  1

  0
TEXT
  5
515
330
343
100
AcDbEntity
  8
0
 62
     7
370
    13
390
F
100
AcDbText
 10
276.405212
 20
-328.205902
 30
0.0
 40
2.0
  1
1
 41
2.095250000000013
 72
     5
 11
277.871887
 21
-328.205902
 31
0.0
100
AcDbText
  0
ENDBLK
  5
7FA
330
343
100
AcDbEntity
  8
0
100
AcDbBlockEnd
  0
BLOCK
  5
7FB
330
344
100
AcDbEntity
  8
0
100
AcDbBlockBegin
  2
BLOCK617
 70
     0
 10
0.0
 20
0.0
 30
0.0
  3
BLOCK617
  1

  0
TEXT
  5
518
330
344
100
AcDbEntity
  8
0
 62
     7
370
    13
390
F
100
AcDbText
 10
366.516357
 20
-328.205902
 30
0.0
 40
2.0
  1
2
 41
1.332805064361997
 72
     5
 11
367.983032
 21
-328.205902
 31
0.0
100
AcDbText
  0
ENDBLK
  5
7FC
330
344
100
AcDbEntity
  8
0
100
AcDbBlockEnd
  0
BLOCK
  5
7FD
330
345
100
AcDbEntity
  8
0
100
AcDbBlockBegin
  2
BLOCK618
 70
     0
 10
0.0
 20
0.0
 30
0.0
  3
BLOCK618
  1

  0
TEXT
  5
51B
330
345
100
AcDbEntity
  8
0
 62
     7
370
    13
390
F
100
AcDbText
 10
456.627502
 20
-328.205902
 30
0.0
 40
2.0
  1
3
 41
1.333340909090917
 72
     5
 11
458.094177
 21
-328.205902
 31
0.0
100
AcDbText
  0
ENDBLK
  5
7FE
330
345
100
AcDbEntity
  8
0
100
AcDbBlockEnd
  0
BLOCK
  5
7FF
330
346
100
AcDbEntity
  8
0
100
AcDbBlockBegin
  2
BLOCK619
 70
     0
 10
0.0
 20
0.0
 30
0.0
  3
BLOCK619
  1

  0
TEXT
  5
51E
330
346
100
AcDbEntity
  8
0
 62
     7
370
    13
390
F
100
AcDbText
 10
546.738525
 20
-328.205902
 30
0.0
 40
2.0
  1
4
 41
1.128211538461546
 72
     5
 11
548.2052
 21
-328.205902
 31
0.0
100
AcDbText
  0
ENDBLK
  5
800
330
346
100
AcDbEntity
  8
0
100
AcDbBlockEnd
  0
BLOCK
  5
801
330
347
100
AcDbEntity
  8
0
100
AcDbBlockBegin
  2
BLOCK620
 70
     0
 10
0.0
 20
0.0
 30
0.0
  3
BLOCK620
  1

  0
TEXT
  5
521
330
347
100
AcDbEntity
  8
0
 62
     7
370
    13
390
F
100
AcDbText
 10
636.84967
 20
-328.205902
 30
0.0
 40
2.0
  1
5
 41
1.333340909090917
 72
     5
 11
638.316345
 21
-328.205902
 31
0.0
100
AcDbText
  0
ENDBLK
  5
802
330
347
100
AcDbEntity
  8
0
100
AcDbBlockEnd
  0
BLOCK
  5
803
330
348
100
AcDbEntity
  8
0
100
AcDbBlockBegin
  2
BLOCK621
 70
     0
 10
0.0
 20
0.0
 30
0.0
  3
BLOCK621
  1

  0
TEXT
  5
524
330
348
100
AcDbEntity
  8
0
 62
     7
370
    13
390
F
100
AcDbText
 10
726.960754
 20
-328.205902
 30
0.0
 40
2.0
  1
6
 41
1.333340909090917
 72
     5
 11
728.427429
 21
-328.205902
 31
0.0
100
AcDbText
  0
ENDBLK
  5
804
330
348
100
AcDbEntity
  8
0
100
AcDbBlockEnd
  0
BLOCK
  5
805
330
349
100
AcDbEntity
  8
0
100
AcDbBlockBegin
  2
BLOCK622
 70
     0
 10
0.0
 20
0.0
 30
0.0
  3
BLOCK622
  1

  0
TEXT
  5
527
330
349
100
AcDbEntity
  8
0
 62
     7
370
    13
390
F
100
AcDbText
 10
817.071899
 20
-328.205902
 30
0.0
 40
2.0
  1
7
 41
1.333340909090917
 72
     5
 11
818.538574
 21
-328.205902
 31
0.0
100
AcDbText
  0
ENDBLK
  5
806
330
349
100
AcDbEntity
  8
0
100
AcDbBlockEnd
  0
BLOCK
  5
807
330
34A
100
AcDbEntity
  8
0
100
AcDbBlockBegin
  2
BLOCK623
 70
     0
 10
0.0
 20
0.0
 30
0.0
  3
BLOCK623
  1

  0
TEXT
  5
52A
330
34A
100
AcDbEntity
  8
0
 62
     7
370
    13
390
F
100
AcDbText
 10
907.182983
 20
-328.205902
 30
0.0
 40
2.0
  1
8
 41
1.33394724874944
 72
     5
 11
908.649658
 21
-328.205902
 31
0.0
100
AcDbText
  0
ENDBLK
  5
808
330
34A
100
AcDbEntity
  8
0
100
AcDbBlockEnd
  0
BLOCK
  5
809
330
34B
100
AcDbEntity
  8
0
100
AcDbBlockBegin
  2
BLOCK624
 70
     0
 10
0.0
 20
0.0
 30
0.0
  3
BLOCK624
  1

  0
TEXT
  5
52D
330
34B
100
AcDbEntity
  8
0
 62
     7
370
    13
390
F
100
AcDbText
 10
997.294067
 20
-328.205902
 30
0.0
 40
2.0
  1
9
 41
1.324923236964545
 72
     5
 11
998.760742
 21
-328.205902
 31
0.0
100
AcDbText
  0
ENDBLK
  5
80A
330
34B
100
AcDbEntity
  8
0
100
AcDbBlockEnd
  0
BLOCK
  5
80B
330
34C
100
AcDbEntity
  8
0
100
AcDbBlockBegin
  2
BLOCK625
 70
     0
 10
0.0
 20
0.0
 30
0.0
  3
BLOCK625
  1

  0
TEXT
  5
530
330
34C
100
AcDbEntity
  8
0
 62
     7
370
    13
390
F
100
AcDbText
 10
276.405212
 20
250.794083
 30
0.0
 40
2.0
  1
1
 41
2.095250000000013
 72
     5
 11
277.871887
 21
250.794083
 31
0.0
100
AcDbText
  0
ENDBLK
  5
80C
330
34C
100
AcDbEntity
  8
0
100
AcDbBlockEnd
  0
BLOCK
  5
80D
330
34D
100
AcDbEntity
  8
0
100
AcDbBlockBegin
  2
BLOCK626
 70
     0
 10
0.0
 20
0.0
 30
0.0
  3
BLOCK626
  1

  0
TEXT
  5
533
330
34D
100
AcDbEntity
  8
0
 62
     7
370
    13
390
F
100
AcDbText
 10
366.516357
 20
250.794083
 30
0.0
 40
2.0
  1
2
 41
1.332805064361997
 72
     5
 11
367.983032
 21
250.794083
 31
0.0
100
AcDbText
  0
ENDBLK
  5
80E
330
34D
100
AcDbEntity
  8
0
100
AcDbBlockEnd
  0
BLOCK
  5
80F
330
34E
100
AcDbEntity
  8
0
100
AcDbBlockBegin
  2
BLOCK627
 70
     0
 10
0.0
 20
0.0
 30
0.0
  3
BLOCK627
  1

  0
TEXT
  5
536
330
34E
100
AcDbEntity
  8
0
 62
     7
370
    13
390
F
100
AcDbText
 10
456.627502
 20
250.794083
 30
0.0
 40
2.0
  1
3
 41
1.333340909090917
 72
     5
 11
458.094177
 21
250.794083
 31
0.0
100
AcDbText
  0
ENDBLK
  5
810
330
34E
100
AcDbEntity
  8
0
100
AcDbBlockEnd
  0
BLOCK
  5
811
330
34F
100
AcDbEntity
  8
0
100
AcDbBlockBegin
  2
BLOCK628
 70
     0
 10
0.0
 20
0.0
 30
0.0
  3
BLOCK628
  1

  0
TEXT
  5
539
330
34F
100
AcDbEntity
  8
0
 62
     7
370
    13
390
F
100
AcDbText
 10
546.738525
 20
250.794083
 30
0.0
 40
2.0
  1
4
 41
1.128211538461546
 72
     5
 11
548.2052
 21
250.794083
 31
0.0
100
AcDbText
  0
ENDBLK
  5
812
330
34F
100
AcDbEntity
  8
0
100
AcDbBlockEnd
  0
BLOCK
  5
813
330
350
100
AcDbEntity
  8
0
100
AcDbBlockBegin
  2
BLOCK629
 70
     0
 10
0.0
 20
0.0
 30
0.0
  3
BLOCK629
  1

  0
TEXT
  5
53C
330
350
100
AcDbEntity
  8
0
 62
     7
370
    13
390
F
100
AcDbText
 10
636.84967
 20
250.794083
 30
0.0
 40
2.0
  1
5
 41
1.333340909090917
 72
     5
 11
638.316345
 21
250.794083
 31
0.0
100
AcDbText
  0
ENDBLK
  5
814
330
350
100
AcDbEntity
  8
0
100
AcDbBlockEnd
  0
BLOCK
  5
815
330
351
100
AcDbEntity
  8
0
100
AcDbBlockBegin
  2
BLOCK630
 70
     0
 10
0.0
 20
0.0
 30
0.0
  3
BLOCK630
  1

  0
TEXT
  5
53F
330
351
100
AcDbEntity
  8
0
 62
     7
370
    13
390
F
100
AcDbText
 10
726.960754
 20
250.794083
 30
0.0
 40
2.0
  1
6
 41
1.333340909090917
 72
     5
 11
728.427429
 21
250.794083
 31
0.0
100
AcDbText
  0
ENDBLK
  5
816
330
351
100
AcDbEntity
  8
0
100
AcDbBlockEnd
  0
BLOCK
  5
817
330
352
100
AcDbEntity
  8
0
100
AcDbBlockBegin
  2
BLOCK631
 70
     0
 10
0.0
 20
0.0
 30
0.0
  3
BLOCK631
  1

  0
TEXT
  5
542
330
352
100
AcDbEntity
  8
0
 62
     7
370
    13
390
F
100
AcDbText
 10
817.071899
 20
250.794083
 30
0.0
 40
2.0
  1
7
 41
1.333340909090917
 72
     5
 11
818.538574
 21
250.794083
 31
0.0
100
AcDbText
  0
ENDBLK
  5
818
330
352
100
AcDbEntity
  8
0
100
AcDbBlockEnd
  0
BLOCK
  5
819
330
353
100
AcDbEntity
  8
0
100
AcDbBlockBegin
  2
BLOCK632
 70
     0
 10
0.0
 20
0.0
 30
0.0
  3
BLOCK632
  1

  0
TEXT
  5
545
330
353
100
AcDbEntity
  8
0
 62
     7
370
    13
390
F
100
AcDbText
 10
907.182983
 20
250.794083
 30
0.0
 40
2.0
  1
8
 41
1.33394724874944
 72
     5
 11
908.649658
 21
250.794083
 31
0.0
100
AcDbText
  0
ENDBLK
  5
81A
330
353
100
AcDbEntity
  8
0
100
AcDbBlockEnd
  0
BLOCK
  5
81B
330
354
100
AcDbEntity
  8
0
100
AcDbBlockBegin
  2
BLOCK633
 70
     0
 10
0.0
 20
0.0
 30
0.0
  3
BLOCK633
  1

  0
TEXT
  5
548
330
354
100
AcDbEntity
  8
0
 62
     7
370
    13
390
F
100
AcDbText
 10
997.294067
 20
250.794083
 30
0.0
 40
2.0
  1
9
 41
1.324923236964545
 72
     5
 11
998.760742
 21
250.794083
 31
0.0
100
AcDbText
  0
ENDBLK
  5
81C
330
354
100
AcDbEntity
  8
0
100
AcDbBlockEnd
  0
BLOCK
  5
81D
330
355
100
AcDbEntity
  8
0
100
AcDbBlockBegin
  2
BLOCK634
 70
     0
 10
0.0
 20
0.0
 30
0.0
  3
BLOCK634
  1

  0
TEXT
  5
54B
330
355
100
AcDbEntity
  8
0
 62
     7
370
    13
390
F
100
AcDbText
 10
1044.849731
 20
200.460754
 30
0.0
 40
2.0
  1
A
 41
0.9777833333332637
 72
     5
 11
1046.316406
 21
200.460754
 31
0.0
100
AcDbText
  0
ENDBLK
  5
81E
330
355
100
AcDbEntity
  8
0
100
AcDbBlockEnd
  0
BLOCK
  5
81F
330
356
100
AcDbEntity
  8
0
100
AcDbBlockBegin
  2
BLOCK635
 70
     0
 10
0.0
 20
0.0
 30
0.0
  3
BLOCK635
  1

  0
TEXT
  5
54E
330
356
100
AcDbEntity
  8
0
 62
     7
370
    13
390
F
100
AcDbText
 10
1044.849731
 20
104.794098
 30
0.0
 40
2.0
  1
B
 41
1.128211538461458
 72
     5
 11
1046.316406
 21
104.794098
 31
0.0
100
AcDbText
  0
ENDBLK
  5
820
330
356
100
AcDbEntity
  8
0
100
AcDbBlockEnd
  0
BLOCK
  5
821
330
357
100
AcDbEntity
  8
0
100
AcDbBlockBegin
  2
BLOCK636
 70
     0
 10
0.0
 20
0.0
 30
0.0
  3
BLOCK636
  1

  0
TEXT
  5
551
330
357
100
AcDbEntity
  8
0
 62
     7
370
    13
390
F
100
AcDbText
 10
1044.849731
 20
9.127421
 30
0.0
 40
2.0
  1
C
 41
1.333340909090814
 72
     5
 11
1046.316406
 21
9.127421
 31
0.0
100
AcDbText
  0
ENDBLK
  5
822
330
357
100
AcDbEntity
  8
0
100
AcDbBlockEnd
  0
BLOCK
  5
823
330
358
100
AcDbEntity
  8
0
100
AcDbBlockBegin
  2
BLOCK637
 70
     0
 10
0.0
 20
0.0
 30
0.0
  3
BLOCK637
  1

  0
TEXT
  5
554
330
358
100
AcDbEntity
  8
0
 62
     7
370
    13
390
F
100
AcDbText
 10
1044.849731
 20
-86.539238
 30
0.0
 40
2.0
  1
D
 41
1.128211538461458
 72
     5
 11
1046.316406
 21
-86.539238
 31
0.0
100
AcDbText
  0
ENDBLK
  5
824
330
358
100
AcDbEntity
  8
0
100
AcDbBlockEnd
  0
BLOCK
  5
825
330
359
100
AcDbEntity
  8
0
100
AcDbBlockBegin
  2
BLOCK638
 70
     0
 10
0.0
 20
0.0
 30
0.0
  3
BLOCK638
  1

  0
TEXT
  5
557
330
359
100
AcDbEntity
  8
0
 62
     7
370
    13
390
F
100
AcDbText
 10
1044.849731
 20
-182.205917
 30
0.0
 40
2.0
  1
E
 41
1.333340909090814
 72
     5
 11
1046.316406
 21
-182.205917
 31
0.0
100
AcDbText
  0
ENDBLK
  5
826
330
359
100
AcDbEntity
  8
0
100
AcDbBlockEnd
  0
BLOCK
  5
827
330
35A
100
AcDbEntity
  8
0
100
AcDbBlockBegin
  2
BLOCK639
 70
     0
 10
0.0
 20
0.0
 30
0.0
  3
BLOCK639
  1

  0
TEXT
  5
55A
330
35A
100
AcDbEntity
  8
0
 62
     7
370
    13
390
F
100
AcDbText
 10
1044.849731
 20
-277.872589
 30
0.0
 40
2.0
  1
F
 41
1.333340909090814
 72
     5
 11
1046.316406
 21
-277.872589
 31
0.0
100
AcDbText
  0
ENDBLK
  5
828
330
35A
100
AcDbEntity
  8
0
100
AcDbBlockEnd
  0
BLOCK
  5
829
330
35B
100
AcDbEntity
  8
0
100
AcDbBlockBegin
  2
BLOCK640
 70
     0
 10
0.0
 20
0.0
 30
0.0
  3
BLOCK640
  1

  0
TEXT
  5
55D
330
35B
100
AcDbEntity
  8
0
 62
     7
370
    13
390
F
100
AcDbText
 10
996.05011
 20
-290.822144
 30
0.0
 40
2.0
  1
DISEGNATO
 41
0.8398763358778638
 72
     5
 11
1007.05249
 21
-290.822144
 31
0.0
100
AcDbText
  0
ENDBLK
  5
82A
330
35B
100
AcDbEntity
  8
0
100
AcDbBlockEnd
  0
BLOCK
  5
82B
330
35C
100
AcDbEntity
  8
0
100
AcDbBlockBegin
  2
BLOCK641
 70
     0
 10
0.0
 20
0.0
 30
0.0
  3
BLOCK641
  1

  0
TEXT
  5
560
330
35C
100
AcDbEntity
  8
0
 62
     7
370
    13
390
F
100
AcDbText
 10
996.05011
 20
-295.621185
 30
0.0
 40
2.0
  1
APPROVATO
 41
0.748461224489797
 72
     5
 11
1007.05249
 21
-295.621185
 31
0.0
100
AcDbText
  0
ENDBLK
  5
82C
330
35C
100
AcDbEntity
  8
0
100
AcDbBlockEnd
  0
BLOCK
  5
82D
330
35D
100
AcDbEntity
  8
0
100
AcDbBlockBegin
  2
BLOCK642
 70
     0
 10
0.0
 20
0.0
 30
0.0
  3
BLOCK642
  1

  0
TEXT
  5
563
330
35D
100
AcDbEntity
  8
0
 62
     7
370
    13
390
F
100
AcDbText
 10
997.920349
 20
-300.89798
 30
0.0
 40
2.0
  1
VISTO
 41
0.8697598550724666
 72
     5
 11
1003.921692
 21
-300.89798
 31
0.0
100
AcDbText
  0
ENDBLK
  5
82E
330
35D
100
AcDbEntity
  8
0
100
AcDbBlockEnd
  0
BLOCK
  5
82F
330
35E
100
AcDbEntity
  8
0
100
AcDbBlockBegin
  2
BLOCK643
 70
     0
 10
0.0
 20
0.0
 30
0.0
  3
BLOCK643
  1

  0
TEXT
  5
566
330
35E
100
AcDbEntity
  8
0
 62
     7
370
    13
390
F
100
AcDbText
 10
982.457336
 20
-297.728668
 30
0.0
 40
4.0
  1
1:1
 41
2.229614347826081
 72
     5
 11
992.713562
 21
-297.728668
 31
0.0
100
AcDbText
  0
ENDBLK
  5
830
330
35E
100
AcDbEntity
  8
0
100
AcDbBlockEnd
  0
BLOCK
  5
831
330
35F
100
AcDbEntity
  8
0
100
AcDbBlockBegin
  2
BLOCK644
 70
     0
 10
0.0
 20
0.0
 30
0.0
  3
BLOCK644
  1

  0
TEXT
  5
569
330
35F
100
AcDbEntity
  8
0
 62
     7
370
    13
390
F
100
AcDbText
 10
992.917297
 20
-319.270081
 30
0.0
 40
4.0
  1
5631.548.4
 41
1.483394685730819
 72
     5
 11
1028.813965
 21
-319.270081
 31
0.0
100
AcDbText
  0
ENDBLK
  5
832
330
35F
100
AcDbEntity
  8
0
100
AcDbBlockEnd
  0
BLOCK
  5
833
330
360
100
AcDbEntity
  8
0
100
AcDbBlockBegin
  2
BLOCK645
 70
     0
 10
0.0
 20
0.0
 30
0.0
  3
BLOCK645
  1

  0
TEXT
  5
56C
330
360
100
AcDbEntity
  8
0
 62
     7
370
    13
390
F
100
AcDbText
 10
1012.372375
 20
-290.626709
 30
0.0
 40
2.0
  1
28-07-93
 41
1.341241480617293
 72
     5
 11
1027.00061
 21
-290.626709
 31
0.0
100
AcDbText
  0
ENDBLK
  5
834
330
360
100
AcDbEntity
  8
0
100
AcDbBlockEnd
  0
BLOCK
  5
835
330
361
100
AcDbEntity
  8
0
100
AcDbBlockBegin
  2
BLOCK646
 70
     0
 10
0.0
 20
0.0
 30
0.0
  3
BLOCK646
  1

  0
TEXT
  5
56F
330
361
100
AcDbEntity
  8
0
 62
     7
370
    13
390
F
100
AcDbText
 10
917.574219
 20
-311.011536
 30
0.0
 40
3.0
  1
Alluminio speculare 99.85
 41
1.321730772893677
 72
     5
 11
976.493958
 21
-311.011536
 31
0.0
100
AcDbText
  0
ENDBLK
  5
836
330
361
100
AcDbEntity
  8
0
100
AcDbBlockEnd
  0
BLOCK
  5
837
330
362
100
AcDbEntity
  8
0
100
AcDbBlockBegin
  2
BLOCK647
 70
     0
 10
0.0
 20
0.0
 30
0.0
  3
BLOCK647
  1

  0
TEXT
  5
572
330
362
100
AcDbEntity
  8
0
 62
     7
370
    13
390
F
100
AcDbText
 10
868.279419
 20
-296.095428
 30
0.0
 40
3.0
  1
RIFLETTORE CONCENTRANTE ZNT 2X36/2X58 W
 41
1.267980950513522
 72
     5
 11
974.979065
 21
-296.095428
 31
0.0
100
AcDbText
  0
ENDBLK
  5
838
330
362
100
AcDbEntity
  8
0
100
AcDbBlockEnd
  0
BLOCK
  5
839
330
363
100
AcDbEntity
  8
0
100
AcDbBlockBegin
  2
BLOCK648
 70
     0
 10
0.0
 20
0.0
 30
0.0
  3
BLOCK648
  1

  0
LINE
  5
575
330
363
100
AcDbEntity
  8
0
 62
     7
 48
0.034375
370
     5
390
F
100
AcDbLine
 10
873.855591
 20
-314.96701
 30
0.0
 11
872.480591
 21
-314.96701
 31
0.0
  0
LINE
  5
576
330
363
100
AcDbEntity
  8
0
 62
     7
 48
0.012864
370
     5
390
F
100
AcDbLine
 10
872.480591
 20
-314.96701
 30
0.0
 11
871.968506
 21
-314.916565
 31
0.0
  0
LINE
  5
577
330
363
100
AcDbEntity
  8
0
 62
     7
 48
0.012865
370
     5
390
F
100
AcDbLine
 10
871.968506
 20
-314.916565
 30
0.0
 11
871.476074
 21
-314.767181
 31
0.0
  0
LINE
  5
578
330
363
100
AcDbEntity
  8
0
 62
     7
 48
0.012865
370
     5
390
F
100
AcDbLine
 10
871.476074
 20
-314.767181
 30
0.0
 11
871.022217
 21
-314.524597
 31
0.0
  0
LINE
  5
579
330
363
100
AcDbEntity
  8
0
 62
     7
 48
0.012864
370
     5
390
F
100
AcDbLine
 10
871.022217
 20
-314.524597
 30
0.0
 11
870.624451
 21
-314.198151
 31
0.0
  0
LINE
  5
57A
330
363
100
AcDbEntity
  8
0
 62
     7
 48
0.012865
370
     5
390
F
100
AcDbLine
 10
870.624451
 20
-314.198151
 30
0.0
 11
870.297974
 21
-313.800385
 31
0.0
  0
LINE
  5
57B
330
363
100
AcDbEntity
  8
0
 62
     7
 48
0.012864
370
     5
390
F
100
AcDbLine
 10
870.297974
 20
-313.800385
 30
0.0
 11
870.05542
 21
-313.346558
 31
0.0
  0
LINE
  5
57C
330
363
100
AcDbEntity
  8
0
 62
     7
 48
0.012865
370
     5
390
F
100
AcDbLine
 10
870.05542
 20
-313.346558
 30
0.0
 11
869.906006
 21
-312.854126
 31
0.0
  0
LINE
  5
57D
330
363
100
AcDbEntity
  8
0
 62
     7
 48
0.012865
370
     5
390
F
100
AcDbLine
 10
869.906006
 20
-312.854126
 30
0.0
 11
869.855591
 21
-312.34201
 31
0.0
  0
LINE
  5
57E
330
363
100
AcDbEntity
  8
0
 62
     7
 48
0.012865
370
     5
390
F
100
AcDbLine
 10
869.855591
 20
-312.34201
 30
0.0
 11
869.906006
 21
-311.829895
 31
0.0
  0
LINE
  5
57F
330
363
100
AcDbEntity
  8
0
 62
     7
 48
0.012865
370
     5
390
F
100
AcDbLine
 10
869.906006
 20
-311.829895
 30
0.0
 11
870.05542
 21
-311.337463
 31
0.0
  0
LINE
  5
580
330
363
100
AcDbEntity
  8
0
 62
     7
 48
0.012864
370
     5
390
F
100
AcDbLine
 10
870.05542
 20
-311.337463
 30
0.0
 11
870.297974
 21
-310.883636
 31
0.0
  0
LINE
  5
581
330
363
100
AcDbEntity
  8
0
 62
     7
 48
0.012865
370
     5
390
F
100
AcDbLine
 10
870.297974
 20
-310.883636
 30
0.0
 11
870.624451
 21
-310.48584
 31
0.0
  0
LINE
  5
582
330
363
100
AcDbEntity
  8
0
 62
     7
 48
0.012864
370
     5
390
F
100
AcDbLine
 10
870.624451
 20
-310.48584
 30
0.0
 11
871.022217
 21
-310.159393
 31
0.0
  0
LINE
  5
583
330
363
100
AcDbEntity
  8
0
 62
     7
 48
0.012865
370
     5
390
F
100
AcDbLine
 10
871.022217
 20
-310.159393
 30
0.0
 11
871.476074
 21
-309.916809
 31
0.0
  0
LINE
  5
584
330
363
100
AcDbEntity
  8
0
 62
     7
 48
0.012865
370
     5
390
F
100
AcDbLine
 10
871.476074
 20
-309.916809
 30
0.0
 11
871.968506
 21
-309.767456
 31
0.0
  0
LINE
  5
585
330
363
100
AcDbEntity
  8
0
 62
     7
 48
0.012864
370
     5
390
F
100
AcDbLine
 10
871.968506
 20
-309.767456
 30
0.0
 11
872.480591
 21
-309.71701
 31
0.0
  0
LINE
  5
586
330
363
100
AcDbEntity
  8
0
 62
     7
 48
0.034375
370
     5
390
F
100
AcDbLine
 10
872.480591
 20
-309.71701
 30
0.0
 11
873.855591
 21
-309.71701
 31
0.0
  0
LINE
  5
587
330
363
100
AcDbEntity
  8
0
 62
     7
 48
0.0375
370
     5
390
F
100
AcDbLine
 10
873.855591
 20
-309.71701
 30
0.0
 11
873.855591
 21
-311.21701
 31
0.0
  0
LINE
  5
588
330
363
100
AcDbEntity
  8
0
 62
     7
 48
0.05
370
     5
390
F
100
AcDbLine
 10
873.855591
 20
-311.21701
 30
0.0
 11
871.855591
 21
-311.21701
 31
0.0
  0
LINE
  5
589
330
363
100
AcDbEntity
  8
0
 62
     7
 48
0.05625
370
     5
390
F
100
AcDbLine
 10
871.855591
 20
-311.21701
 30
0.0
 11
871.855591
 21
-313.46701
 31
0.0
  0
LINE
  5
58A
330
363
100
AcDbEntity
  8
0
 62
     7
 48
0.009375
370
     5
390
F
100
AcDbLine
 10
871.855591
 20
-313.46701
 30
0.0
 11
872.230591
 21
-313.46701
 31
0.0
  0
LINE
  5
58B
330
363
100
AcDbEntity
  8
0
 62
     7
 48
0.046875
370
     5
390
F
100
AcDbLine
 10
872.230591
 20
-313.46701
 30
0.0
 11
872.230591
 21
-311.59201
 31
0.0
  0
LINE
  5
58C
330
363
100
AcDbEntity
  8
0
 62
     7
 48
0.040625
370
     5
390
F
100
AcDbLine
 10
872.230591
 20
-311.59201
 30
0.0
 11
873.855591
 21
-311.59201
 31
0.0
  0
LINE
  5
58D
330
363
100
AcDbEntity
  8
0
 62
     7
 48
0.084375
370
     5
390
F
100
AcDbLine
 10
873.855591
 20
-311.59201
 30
0.0
 11
873.855591
 21
-314.96701
 31
0.0
  0
ENDBLK
  5
83A
330
363
100
AcDbEntity
  8
0
100
AcDbBlockEnd
  0
BLOCK
  5
83B
330
67A
100
AcDbEntity
  8
0
100
AcDbBlockBegin
  2
*D177
 70
     1
 10
0.0
 20
0.0
 30
0.0
  3
*D177
  1

  0
POINT
  5
671
330
67A
100
AcDbEntity
  8
DEFPOINTS
  6
ByBlock
 62
     0
380
     1
100
AcDbPoint
 10
901.0125828884156
 20
321.6348039999998
 30
0.0
  0
POINT
  5
672
330
67A
100
AcDbEntity
  8
DEFPOINTS
  6
ByBlock
 62
     0
380
     1
100
AcDbPoint
 10
2311.012582888416
 20
321.6348039999998
 30
0.0
  0
LINE
  5
673
330
67A
100
AcDbEntity
  8
0
  6
ByBlock
 62
     0
370
    -2
380
     1
100
AcDbLine
 10
901.0125828884156
 20
322.2598039999998
 30
0.0
 11
901.0125828884156
 21
446.251879506074
 31
0.0
  0
LINE
  5
674
330
67A
100
AcDbEntity
  8
0
  6
ByBlock
 62
     0
370
    -2
380
     1
100
AcDbLine
 10
2311.012582888416
 20
322.2598039999998
 30
0.0
 11
2311.012582888416
 21
446.251879506074
 31
0.0
  0
LINE
  5
675
330
67A
100
AcDbEntity
  8
0
  6
ByBlock
 62
     0
370
    -2
380
     1
100
AcDbLine
 10
903.5125828884156
 20
445.001879506074
 30
0.0
 11
2308.512582888416
 21
445.001879506074
 31
0.0
  0
SOLID
  5
676
330
67A
100
AcDbEntity
  8
0
  6
ByBlock
 62
     0
380
     1
100
AcDbTrace
 10
901.0125828884156
 20
445.001879506074
 30
0.0
 11
903.5125828884156
 21
444.5852128394073
 31
0.0
 12
903.5125828884156
 22
445.4185461727407
 32
0.0
 13
903.5125828884156
 23
445.4185461727407
 33
0.0
  0
SOLID
  5
677
330
67A
100
AcDbEntity
  8
0
  6
ByBlock
 62
     0
380
     1
100
AcDbTrace
 10
2311.012582888416
 20
445.001879506074
 30
0.0
 11
2308.512582888416
 21
444.5852128394073
 31
0.0
 12
2308.512582888416
 22
445.4185461727407
 32
0.0
 13
2308.512582888416
 23
445.4185461727407
 33
0.0
  0
MTEXT
  5
678
330
67A
100
AcDbEntity
  8
0
  6
ByBlock
 62
     0
370
    -2
380
     1
100
AcDbMText
 10
1606.012582888416
 20
446.7528637580425
 30
0.0
 40
2.5
 41
0.0
 71
     5
 72
     1
  1
\A1;1410
 73
     1
 44
1.0
  0
ENDBLK
  5
83C
330
67A
100
AcDbEntity
  8
0
100
AcDbBlockEnd
  0
BLOCK
  5
83D
330
686
100
AcDbEntity
  8
0
100
AcDbBlockBegin
  2
*D178
 70
     1
 10
0.0
 20
0.0
 30
0.0
  3
*D178
  1

  0
POINT
  5
67D
330
686
100
AcDbEntity
  8
DEFPOINTS
  6
ByBlock
 62
     0
380
     1
100
AcDbPoint
 10
900.5478699237531
 20
338.134804
 30
0.0
  0
POINT
  5
67E
330
686
100
AcDbEntity
  8
DEFPOINTS
  6
ByBlock
 62
     0
380
     1
100
AcDbPoint
 10
2311.322244521999
 20
338.1348039999996
 30
0.0
  0
LINE
  5
67F
330
686
100
AcDbEntity
  8
0
  6
ByBlock
 62
     0
370
    -2
380
     1
100
AcDbLine
 10
900.5478699237531
 20
337.509804
 30
0.0
 11
900.5478699237531
 21
180.1592124077436
 31
0.0
  0
LINE
  5
680
330
686
100
AcDbEntity
  8
0
  6
ByBlock
 62
     0
370
    -2
380
     1
100
AcDbLine
 10
2311.322244521999
 20
337.5098039999996
 30
0.0
 11
2311.322244521999
 21
180.1592124077436
 31
0.0
  0
LINE
  5
681
330
686
100
AcDbEntity
  8
0
  6
ByBlock
 62
     0
370
    -2
380
     1
100
AcDbLine
 10
903.0478699237531
 20
181.4092124077436
 30
0.0
 11
2308.822244521999
 21
181.4092124077436
 31
0.0
  0
SOLID
  5
682
330
686
100
AcDbEntity
  8
0
  6
ByBlock
 62
     0
380
     1
100
AcDbTrace
 10
900.5478699237531
 20
181.4092124077436
 30
0.0
 11
903.0478699237531
 21
180.992545741077
 31
0.0
 12
903.0478699237531
 22
181.8258790744103
 32
0.0
 13
903.0478699237531
 23
181.8258790744103
 33
0.0
  0
SOLID
  5
683
330
686
100
AcDbEntity
  8
0
  6
ByBlock
 62
     0
380
     1
100
AcDbTrace
 10
2311.322244521999
 20
181.4092124077436
 30
0.0
 11
2308.822244521999
 21
180.992545741077
 31
0.0
 12
2308.822244521999
 22
181.8258790744103
 32
0.0
 13
2308.822244521999
 23
181.8258790744103
 33
0.0
  0
MTEXT
  5
684
330
686
100
AcDbEntity
  8
0
  6
ByBlock
 62
     0
370
    -2
380
     1
100
AcDbMText
 10
1605.935057222876
 20
183.4097045337278
 30
0.0
 40
2.5
 41
0.0
 71
     5
 72
     1
  1
\A1;1410,77
 73
     1
 44
1.0
  0
ENDBLK
  5
83E
330
686
100
AcDbEntity
  8
0
100
AcDbBlockEnd
  0
BLOCK
  5
83F
330
691
100
AcDbEntity
  8
0
100
AcDbBlockBegin
  2
*D179
 70
     1
 10
0.0
 20
0.0
 30
0.0
  3
*D179
  1

  0
POINT
  5
688
330
691
100
AcDbEntity
  8
DEFPOINTS
  6
ByBlock
 62
     7
380
     1
100
AcDbPoint
 10
900.5478699237531
 20
338.134804
 30
0.0
  0
POINT
  5
689
330
691
100
AcDbEntity
  8
DEFPOINTS
  6
ByBlock
 62
     7
380
     1
100
AcDbPoint
 10
2311.322244521999
 20
338.1348039999996
 30
0.0
  0
LINE
  5
68A
330
691
100
AcDbEntity
  8
0
  6
ByBlock
 62
     7
370
    -2
380
     1
100
AcDbLine
 10
900.5478699237531
 20
337.509804
 30
0.0
 11
900.5478699237531
 21
180.1592124077436
 31
0.0
  0
LINE
  5
68B
330
691
100
AcDbEntity
  8
0
  6
ByBlock
 62
     7
370
    -2
380
     1
100
AcDbLine
 10
2311.322244521999
 20
337.5098039999996
 30
0.0
 11
2311.322244521999
 21
180.1592124077436
 31
0.0
  0
LINE
  5
68C
330
691
100
AcDbEntity
  8
0
  6
ByBlock
 62
     7
370
    -2
380
     1
100
AcDbLine
 10
910.5478699237531
 20
181.4092124077436
 30
0.0
 11
2301.322244521999
 21
181.4092124077436
 31
0.0
  0
SOLID
  5
68D
330
691
100
AcDbEntity
  8
0
  6
ByBlock
 62
     7
380
     1
100
AcDbTrace
 10
900.5478699237531
 20
181.4092124077436
 30
0.0
 11
910.5478699237531
 21
179.742545741077
 31
0.0
 12
910.5478699237531
 22
183.0758790744103
 32
0.0
 13
910.5478699237531
 23
183.0758790744103
 33
0.0
  0
SOLID
  5
68E
330
691
100
AcDbEntity
  8
0
  6
ByBlock
 62
     7
380
     1
100
AcDbTrace
 10
2311.322244521999
 20
181.4092124077436
 30
0.0
 11
2301.322244521999
 21
179.742545741077
 31
0.0
 12
2301.322244521999
 22
183.0758790744103
 32
0.0
 13
2301.322244521999
 23
183.0758790744103
 33
0.0
  0
MTEXT
  5
68F
330
691
100
AcDbEntity
  8
0
  6
ByBlock
 62
     0
370
    -2
380
     1
100
AcDbMText
 10
1605.935057222876
 20
192.7092124077436
 30
0.0
 40
14.0
 41
0.0
 71
     5
 72
     1
  1
\A1;1411
 73
     1
 44
1.0
  0
ENDBLK
  5
840
330
691
100
AcDbEntity
  8
0
100
AcDbBlockEnd
  0
BLOCK
  5
841
330
69C
100
AcDbEntity
  8
0
100
AcDbBlockBegin
  2
*D180
 70
     1
 10
0.0
 20
0.0
 30
0.0
  3
*D180
  1

  0
POINT
  5
693
330
69C
100
AcDbEntity
  8
DEFPOINTS
  6
ByBlock
 62
     7
380
     1
100
AcDbPoint
 10
900.5478699237531
 20
338.134804
 30
0.0
  0
POINT
  5
694
330
69C
100
AcDbEntity
  8
DEFPOINTS
  6
ByBlock
 62
     7
380
     1
100
AcDbPoint
 10
2311.322244521999
 20
338.1348039999996
 30
0.0
  0
LINE
  5
695
330
69C
100
AcDbEntity
  8
0
  6
ByBlock
 62
     7
370
    -2
380
     1
100
AcDbLine
 10
900.5478699237531
 20
337.509804
 30
0.0
 11
900.5478699237531
 21
180.1592124077436
 31
0.0
  0
LINE
  5
696
330
69C
100
AcDbEntity
  8
0
  6
ByBlock
 62
     7
370
    -2
380
     1
100
AcDbLine
 10
2311.322244521999
 20
337.5098039999996
 30
0.0
 11
2311.322244521999
 21
180.1592124077436
 31
0.0
  0
LINE
  5
697
330
69C
100
AcDbEntity
  8
0
  6
ByBlock
 62
     7
370
    -2
380
     1
100
AcDbLine
 10
910.5478699237531
 20
181.4092124077436
 30
0.0
 11
2301.322244521999
 21
181.4092124077436
 31
0.0
  0
SOLID
  5
698
330
69C
100
AcDbEntity
  8
0
  6
ByBlock
 62
     7
380
     1
100
AcDbTrace
 10
900.5478699237531
 20
181.4092124077436
 30
0.0
 11
910.5478699237531
 21
179.742545741077
 31
0.0
 12
910.5478699237531
 22
183.0758790744103
 32
0.0
 13
910.5478699237531
 23
183.0758790744103
 33
0.0
  0
SOLID
  5
699
330
69C
100
AcDbEntity
  8
0
  6
ByBlock
 62
     7
380
     1
100
AcDbTrace
 10
2311.322244521999
 20
181.4092124077436
 30
0.0
 11
2301.322244521999
 21
179.742545741077
 31
0.0
 12
2301.322244521999
 22
183.0758790744103
 32
0.0
 13
2301.322244521999
 23
183.0758790744103
 33
0.0
  0
MTEXT
  5
69A
330
69C
100
AcDbEntity
  8
0
  6
ByBlock
 62
     0
370
    -2
380
     1
100
AcDbMText
 10
1605.935057222876
 20
192.7092124077436
 30
0.0
 40
14.0
 41
0.0
 71
     5
 72
     1
  1
\A1;1411
 73
     1
 44
1.0
  0
ENDBLK
  5
842
330
69C
100
AcDbEntity
  8
0
100
AcDbBlockEnd
  0
BLOCK
  5
843
330
6A8
100
AcDbEntity
  8
0
100
AcDbBlockBegin
  2
*D181
 70
     1
 10
0.0
 20
0.0
 30
0.0
  3
*D181
  1

  0
POINT
  5
69F
330
6A8
100
AcDbEntity
  8
DEFPOINTS
  6
ByBlock
 62
     0
380
     1
100
AcDbPoint
 10
2056.577170024106
 20
418.6848029999996
 30
0.0
  0
POINT
  5
6A0
330
6A8
100
AcDbEntity
  8
DEFPOINTS
  6
ByBlock
 62
     0
380
     1
100
AcDbPoint
 10
2056.577170024106
 20
257.5848049999996
 30
0.0
  0
LINE
  5
6A1
330
6A8
100
AcDbEntity
  8
0
  6
ByBlock
 62
     0
370
    -2
380
     1
100
AcDbLine
 10
2057.202170024106
 20
418.6848029999996
 30
0.0
 11
2368.55213486372
 21
418.6848029999996
 31
0.0
  0
LINE
  5
6A2
330
6A8
100
AcDbEntity
  8
0
  6
ByBlock
 62
     0
370
    -2
380
     1
100
AcDbLine
 10
2057.202170024106
 20
257.5848049999996
 30
0.0
 11
2368.55213486372
 21
257.5848049999996
 31
0.0
  0
LINE
  5
6A3
330
6A8
100
AcDbEntity
  8
0
  6
ByBlock
 62
     0
370
    -2
380
     1
100
AcDbLine
 10
2367.30213486372
 20
416.1848029999996
 30
0.0
 11
2367.30213486372
 21
260.0848049999996
 31
0.0
  0
SOLID
  5
6A4
330
6A8
100
AcDbEntity
  8
0
  6
ByBlock
 62
     0
380
     1
100
AcDbTrace
 10
2367.30213486372
 20
418.6848029999996
 30
0.0
 11
2366.885468197053
 21
416.1848029999996
 31
0.0
 12
2367.718801530386
 22
416.1848029999996
 32
0.0
 13
2367.718801530386
 23
416.1848029999996
 33
0.0
  0
SOLID
  5
6A5
330
6A8
100
AcDbEntity
  8
0
  6
ByBlock
 62
     0
380
     1
100
AcDbTrace
 10
2367.30213486372
 20
257.5848049999996
 30
0.0
 11
2366.885468197053
 21
260.0848049999996
 31
0.0
 12
2367.718801530386
 22
260.0848049999996
 32
0.0
 13
2367.718801530386
 23
260.0848049999996
 33
0.0
  0
MTEXT
  5
6A6
330
6A8
100
AcDbEntity
  8
0
  6
ByBlock
 62
     0
370
    -2
380
     1
100
AcDbMText
 10
2365.30213486372
 20
338.1348039999996
 30
0.0
 40
2.5
 41
0.0
 71
     5
 72
     1
  1
\A1;161,1
 11
6.123031769111886E-17
 21
1.0
 31
0.0
 73
     1
 44
1.0
  0
ENDBLK
  5
844
330
6A8
100
AcDbEntity
  8
0
100
AcDbBlockEnd
  0
BLOCK
  5
845
330
6B3
100
AcDbEntity
  8
0
100
AcDbBlockBegin
  2
*D182
 70
     1
 10
0.0
 20
0.0
 30
0.0
  3
*D182
  1

  0
POINT
  5
6AA
330
6B3
100
AcDbEntity
  8
DEFPOINTS
  6
ByBlock
 62
     7
380
     1
100
AcDbPoint
 10
2056.577170024106
 20
418.6848029999996
 30
0.0
  0
POINT
  5
6AB
330
6B3
100
AcDbEntity
  8
DEFPOINTS
  6
ByBlock
 62
     7
380
     1
100
AcDbPoint
 10
2056.577170024106
 20
257.5848049999996
 30
0.0
  0
LINE
  5
6AC
330
6B3
100
AcDbEntity
  8
0
  6
ByBlock
 62
     7
370
    -2
380
     1
100
AcDbLine
 10
2057.202170024106
 20
418.6848029999996
 30
0.0
 11
2368.55213486372
 21
418.6848029999996
 31
0.0
  0
LINE
  5
6AD
330
6B3
100
AcDbEntity
  8
0
  6
ByBlock
 62
     7
370
    -2
380
     1
100
AcDbLine
 10
2057.202170024106
 20
257.5848049999996
 30
0.0
 11
2368.55213486372
 21
257.5848049999996
 31
0.0
  0
LINE
  5
6AE
330
6B3
100
AcDbEntity
  8
0
  6
ByBlock
 62
     7
370
    -2
380
     1
100
AcDbLine
 10
2367.30213486372
 20
408.6848029999996
 30
0.0
 11
2367.30213486372
 21
267.5848049999996
 31
0.0
  0
SOLID
  5
6AF
330
6B3
100
AcDbEntity
  8
0
  6
ByBlock
 62
     7
380
     1
100
AcDbTrace
 10
2367.30213486372
 20
418.6848029999996
 30
0.0
 11
2365.635468197053
 21
408.6848029999996
 31
0.0
 12
2368.968801530386
 22
408.6848029999996
 32
0.0
 13
2368.968801530386
 23
408.6848029999996
 33
0.0
  0
SOLID
  5
6B0
330
6B3
100
AcDbEntity
  8
0
  6
ByBlock
 62
     7
380
     1
100
AcDbTrace
 10
2367.30213486372
 20
257.5848049999996
 30
0.0
 11
2365.635468197053
 21
267.5848049999996
 31
0.0
 12
2368.968801530386
 22
267.5848049999996
 32
0.0
 13
2368.968801530386
 23
267.5848049999996
 33
0.0
  0
MTEXT
  5
6B1
330
6B3
100
AcDbEntity
  8
0
  6
ByBlock
 62
     0
370
    -2
380
     1
100
AcDbMText
 10
2356.00213486372
 20
338.1348039999996
 30
0.0
 40
14.0
 41
0.0
 71
     5
 72
     1
  1
\A1;161
 11
6.123031769111886E-17
 21
1.0
 31
0.0
 73
     1
 44
1.0
  0
ENDBLK
  5
846
330
6B3
100
AcDbEntity
  8
0
100
AcDbBlockEnd
  0
BLOCK
  5
847
330
6BE
100
AcDbEntity
  8
0
100
AcDbBlockBegin
  2
*D183
 70
     1
 10
0.0
 20
0.0
 30
0.0
  3
*D183
  1

  0
POINT
  5
6B5
330
6BE
100
AcDbEntity
  8
DEFPOINTS
  6
ByBlock
 62
     7
380
     1
100
AcDbPoint
 10
2056.577170024106
 20
418.6848029999996
 30
0.0
  0
POINT
  5
6B6
330
6BE
100
AcDbEntity
  8
DEFPOINTS
  6
ByBlock
 62
     7
380
     1
100
AcDbPoint
 10
2056.577170024106
 20
257.5848049999996
 30
0.0
  0
LINE
  5
6B7
330
6BE
100
AcDbEntity
  8
0
  6
ByBlock
 62
     7
370
    -2
380
     1
100
AcDbLine
 10
2057.202170024106
 20
418.6848029999996
 30
0.0
 11
2368.55213486372
 21
418.6848029999996
 31
0.0
  0
LINE
  5
6B8
330
6BE
100
AcDbEntity
  8
0
  6
ByBlock
 62
     7
370
    -2
380
     1
100
AcDbLine
 10
2057.202170024106
 20
257.5848049999996
 30
0.0
 11
2368.55213486372
 21
257.5848049999996
 31
0.0
  0
LINE
  5
6B9
330
6BE
100
AcDbEntity
  8
0
  6
ByBlock
 62
     7
370
    -2
380
     1
100
AcDbLine
 10
2367.30213486372
 20
408.6848029999996
 30
0.0
 11
2367.30213486372
 21
267.5848049999996
 31
0.0
  0
SOLID
  5
6BA
330
6BE
100
AcDbEntity
  8
0
  6
ByBlock
 62
     7
380
     1
100
AcDbTrace
 10
2367.30213486372
 20
418.6848029999996
 30
0.0
 11
2365.635468197053
 21
408.6848029999996
 31
0.0
 12
2368.968801530386
 22
408.6848029999996
 32
0.0
 13
2368.968801530386
 23
408.6848029999996
 33
0.0
  0
SOLID
  5
6BB
330
6BE
100
AcDbEntity
  8
0
  6
ByBlock
 62
     7
380
     1
100
AcDbTrace
 10
2367.30213486372
 20
257.5848049999996
 30
0.0
 11
2365.635468197053
 21
267.5848049999996
 31
0.0
 12
2368.968801530386
 22
267.5848049999996
 32
0.0
 13
2368.968801530386
 23
267.5848049999996
 33
0.0
  0
MTEXT
  5
6BC
330
6BE
100
AcDbEntity
  8
0
  6
ByBlock
 62
     0
370
    -2
380
     1
100
AcDbMText
 10
2356.00213486372
 20
338.1348039999996
 30
0.0
 40
14.0
 41
0.0
 71
     5
 72
     1
  1
\A1;161
 11
6.123031769111886E-17
 21
1.0
 31
0.0
 73
     1
 44
1.0
  0
ENDBLK
  5
848
330
6BE
100
AcDbEntity
  8
0
100
AcDbBlockEnd
  0
BLOCK
  5
849
330
6C9
100
AcDbEntity
  8
0
100
AcDbBlockBegin
  2
*D184
 70
     1
 10
0.0
 20
0.0
 30
0.0
  3
*D184
  1

  0
POINT
  5
6C0
330
6C9
100
AcDbEntity
  8
DEFPOINTS
  6
ByBlock
 62
     7
380
     1
100
AcDbPoint
 10
2056.577170024106
 20
418.6848029999996
 30
0.0
  0
POINT
  5
6C1
330
6C9
100
AcDbEntity
  8
DEFPOINTS
  6
ByBlock
 62
     7
380
     1
100
AcDbPoint
 10
2056.577170024106
 20
257.5848049999996
 30
0.0
  0
LINE
  5
6C2
330
6C9
100
AcDbEntity
  8
0
  6
ByBlock
 62
     7
370
    -2
380
     1
100
AcDbLine
 10
2057.202170024106
 20
418.6848029999996
 30
0.0
 11
2522.174987160994
 21
418.6848029999996
 31
0.0
  0
LINE
  5
6C3
330
6C9
100
AcDbEntity
  8
0
  6
ByBlock
 62
     7
370
    -2
380
     1
100
AcDbLine
 10
2057.202170024106
 20
257.5848049999996
 30
0.0
 11
2522.174987160994
 21
257.5848049999996
 31
0.0
  0
LINE
  5
6C4
330
6C9
100
AcDbEntity
  8
0
  6
ByBlock
 62
     7
370
    -2
380
     1
100
AcDbLine
 10
2520.924987160994
 20
408.6848029999996
 30
0.0
 11
2520.924987160994
 21
267.5848049999996
 31
0.0
  0
SOLID
  5
6C5
330
6C9
100
AcDbEntity
  8
0
  6
ByBlock
 62
     7
380
     1
100
AcDbTrace
 10
2520.924987160994
 20
418.6848029999996
 30
0.0
 11
2519.258320494327
 21
408.6848029999996
 31
0.0
 12
2522.59165382766
 22
408.6848029999996
 32
0.0
 13
2522.59165382766
 23
408.6848029999996
 33
0.0
  0
SOLID
  5
6C6
330
6C9
100
AcDbEntity
  8
0
  6
ByBlock
 62
     7
380
     1
100
AcDbTrace
 10
2520.924987160994
 20
257.5848049999996
 30
0.0
 11
2519.258320494327
 21
267.5848049999996
 31
0.0
 12
2522.59165382766
 22
267.5848049999996
 32
0.0
 13
2522.59165382766
 23
267.5848049999996
 33
0.0
  0
MTEXT
  5
6C7
330
6C9
100
AcDbEntity
  8
0
  6
ByBlock
 62
     0
370
    -2
380
     1
100
AcDbMText
 10
2509.624987160993
 20
338.1348039999996
 30
0.0
 40
14.0
 41
0.0
 71
     5
 72
     1
  1
\A1;161
 11
6.123031769111886E-17
 21
1.0
 31
0.0
 73
     1
 44
1.0
  0
ENDBLK
  5
84A
330
6C9
100
AcDbEntity
  8
0
100
AcDbBlockEnd
  0
BLOCK
  5
84B
330
6D4
100
AcDbEntity
  8
0
100
AcDbBlockBegin
  2
*D185
 70
     1
 10
0.0
 20
0.0
 30
0.0
  3
*D185
  1

  0
POINT
  5
6CB
330
6D4
100
AcDbEntity
  8
DEFPOINTS
  6
ByBlock
 62
     7
380
     1
100
AcDbPoint
 10
2056.577170024106
 20
418.6848029999996
 30
0.0
  0
POINT
  5
6CC
330
6D4
100
AcDbEntity
  8
DEFPOINTS
  6
ByBlock
 62
     7
380
     1
100
AcDbPoint
 10
2056.577170024106
 20
257.5848049999996
 30
0.0
  0
LINE
  5
6CD
330
6D4
100
AcDbEntity
  8
0
  6
ByBlock
 62
     7
370
    -2
380
     1
100
AcDbLine
 10
2057.202170024106
 20
418.6848029999996
 30
0.0
 11
2388.298863154655
 21
418.6848029999996
 31
0.0
  0
LINE
  5
6CE
330
6D4
100
AcDbEntity
  8
0
  6
ByBlock
 62
     7
370
    -2
380
     1
100
AcDbLine
 10
2057.202170024106
 20
257.5848049999996
 30
0.0
 11
2388.298863154655
 21
257.5848049999996
 31
0.0
  0
LINE
  5
6CF
330
6D4
100
AcDbEntity
  8
0
  6
ByBlock
 62
     7
370
    -2
380
     1
100
AcDbLine
 10
2387.048863154655
 20
408.6848029999996
 30
0.0
 11
2387.048863154655
 21
267.5848049999996
 31
0.0
  0
SOLID
  5
6D0
330
6D4
100
AcDbEntity
  8
0
  6
ByBlock
 62
     7
380
     1
100
AcDbTrace
 10
2387.048863154655
 20
418.6848029999996
 30
0.0
 11
2385.382196487988
 21
408.6848029999996
 31
0.0
 12
2388.715529821321
 22
408.6848029999996
 32
0.0
 13
2388.715529821321
 23
408.6848029999996
 33
0.0
  0
SOLID
  5
6D1
330
6D4
100
AcDbEntity
  8
0
  6
ByBlock
 62
     7
380
     1
100
AcDbTrace
 10
2387.048863154655
 20
257.5848049999996
 30
0.0
 11
2385.382196487988
 21
267.5848049999996
 31
0.0
 12
2388.715529821321
 22
267.5848049999996
 32
0.0
 13
2388.715529821321
 23
267.5848049999996
 33
0.0
  0
MTEXT
  5
6D2
330
6D4
100
AcDbEntity
  8
0
  6
ByBlock
 62
     0
370
    -2
380
     1
100
AcDbMText
 10
2375.748863154654
 20
338.1348039999996
 30
0.0
 40
14.0
 41
0.0
 71
     5
 72
     1
  1
\A1;161
 11
6.123031769111886E-17
 21
1.0
 31
0.0
 73
     1
 44
1.0
  0
ENDBLK
  5
84C
330
6D4
100
AcDbEntity
  8
0
100
AcDbBlockEnd
  0
ENDSEC
  0
SECTION
  2
ENTITIES
  0
POINT
  5
3C
330
1F
100
AcDbEntity
  8
0
 62
     7
370
    60
390
F
100
AcDbPoint
 10
900.5478699237531
 20
379.119293
 30
0.0
  0
POINT
  5
3D
330
1F
100
AcDbEntity
  8
0
 62
     7
370
    60
390
F
100
AcDbPoint
 10
900.5478699237531
 20
374.119293
 30
0.0
  0
POINT
  5
3E
330
1F
100
AcDbEntity
  8
0
 62
     7
370
    60
390
F
100
AcDbPoint
 10
900.5478699237531
 20
379.634804
 30
0.0
  0
POINT
  5
3F
330
1F
100
AcDbEntity
  8
0
 62
     7
370
    60
390
F
100
AcDbPoint
 10
900.5478699237531
 20
376.619293
 30
0.0
  0
POINT
  5
40
330
1F
100
AcDbEntity
  8
0
 62
     7
370
    60
390
F
100
AcDbPoint
 10
900.5478699237531
 20
299.650314
 30
0.0
  0
POINT
  5
41
330
1F
100
AcDbEntity
  8
0
 62
     7
370
    60
390
F
100
AcDbPoint
 10
900.5478699237531
 20
296.634804
 30
0.0
  0
POINT
  5
42
330
1F
100
AcDbEntity
  8
0
 62
     7
370
    60
390
F
100
AcDbPoint
 10
900.5478699237531
 20
302.150314
 30
0.0
  0
POINT
  5
43
330
1F
100
AcDbEntity
  8
0
 62
     7
370
    60
390
F
100
AcDbPoint
 10
900.5478699237531
 20
297.150314
 30
0.0
  0
POINT
  5
44
330
1F
100
AcDbEntity
  8
0
 62
     7
370
    60
390
F
100
AcDbPoint
 10
2311.322244521999
 20
296.6348039999996
 30
0.0
  0
POINT
  5
45
330
1F
100
AcDbEntity
  8
0
 62
     7
370
    60
390
F
100
AcDbPoint
 10
902.5478699237531
 20
373.134804
 30
0.0
  0
LINE
  5
84D
330
1F
100
AcDbEntity
  8
0
 62
     7
370
    60
390
F
100
AcDbLine
 10
900.5478699237531
 20
415.103786
 30
0.0
 11
2132.866168385936
 21
415.1037859999996
 31
0.0
  0
LINE
  5
84E
330
1F
100
AcDbEntity
  8
0
 62
     7
370
    60
390
F
100
AcDbLine
 10
900.5478699237531
 20
261.165821
 30
0.0
 11
2115.619069461749
 21
261.1658209999996
 31
0.0
  0
LINE
  5
77
330
1F
100
AcDbEntity
  8
0
 62
     7
 48
0.125
370
    60
390
F
100
AcDbLine
 10
900.5478699237531
 20
377.134804
 30
0.0
 11
900.5478699237531
 21
382.134804
 31
0.0
  0
LINE
  5
79
330
1F
100
AcDbEntity
  8
0
 62
     7
370
    60
390
F
100
AcDbLine
 10
2311.322244521999
 20
388.1348039999996
 30
0.0
 11
2311.322244521999
 21
418.6848029999996
 31
0.0
  0
LINE
  5
7D
330
1F
100
AcDbEntity
  8
0
 62
     7
370
    60
390
F
100
AcDbLine
 10
2074.603982521999
 20
415.1037859999996
 30
0.0
 11
2311.322244521999
 21
415.1037859999996
 31
0.0
  0
LINE
  5
7E
330
1F
100
AcDbEntity
  8
0
 62
     7
370
    60
390
F
100
AcDbLine
 10
2047.460549521999
 20
261.1658209999996
 30
0.0
 11
2311.322244521999
 21
261.1658209999996
 31
0.0
  0
CIRCLE
  5
81
330
1F
100
AcDbEntity
  8
0
 62
     7
370
    60
390
F
100
AcDbCircle
 10
2156.322244521999
 20
338.1348039999996
 30
0.0
 40
25.0
  0
CIRCLE
  5
82
330
1F
100
AcDbEntity
  8
0
 62
     7
370
    60
390
F
100
AcDbCircle
 10
1055.547900923753
 20
338.134804
 30
0.0
 40
25.0
  0
LINE
  5
8C
330
1F
100
AcDbEntity
  8
0
 62
     7
 48
0.325
370
    60
390
F
100
AcDbLine
 10
902.5478699237531
 20
384.134804
 30
0.0
 11
915.5478699237531
 21
384.134804
 31
0.0
  0
LINE
  5
8D
330
1F
100
AcDbEntity
  8
0
 62
     7
 48
0.325
370
    60
390
F
100
AcDbLine
 10
902.5478699237531
 20
375.134804
 30
0.0
 11
915.5478699237531
 21
375.134804
 31
0.0
  0
LINE
  5
8E
330
1F
100
AcDbEntity
  8
0
 62
     7
 48
0.325
370
    60
390
F
100
AcDbLine
 10
902.5478699237531
 20
386.134804
 30
0.0
 11
915.5478699237531
 21
386.134804
 31
0.0
  0
LINE
  5
8F
330
1F
100
AcDbEntity
  8
0
 62
     7
 48
0.325
370
    60
390
F
100
AcDbLine
 10
902.5478699237531
 20
373.134804
 30
0.0
 11
915.5478699237531
 21
373.134804
 31
0.0
  0
LINE
  5
90
330
1F
100
AcDbEntity
  8
0
 62
     7
 48
0.070711
370
    60
390
F
100
AcDbLine
 10
900.5478699237531
 20
382.134804
 30
0.0
 11
902.5478699237531
 21
384.134804
 31
0.0
  0
LINE
  5
91
330
1F
100
AcDbEntity
  8
0
 62
     7
 48
0.070711
370
    60
390
F
100
AcDbLine
 10
900.5478699237531
 20
377.134804
 30
0.0
 11
902.5478699237531
 21
375.134804
 31
0.0
  0
LINE
  5
84F
330
1F
100
AcDbEntity
  8
0
 62
     7
370
    60
390
F
100
AcDbLine
 10
900.5478699237531
 20
338.134804
 30
0.0
 11
900.5478699237531
 21
371.134804
 31
0.0
  0
LINE
  5
850
330
1F
100
AcDbEntity
  8
0
 62
     7
370
    60
390
F
100
AcDbLine
 10
900.5478699237531
 20
388.134804
 30
0.0
 11
900.5478699237531
 21
418.684803
 31
0.0
  0
LINE
  5
94
330
1F
100
AcDbEntity
  8
0
 62
     7
 48
0.070711
370
    60
390
F
100
AcDbLine
 10
900.5478699237531
 20
388.134804
 30
0.0
 11
902.5478699237531
 21
386.134804
 31
0.0
  0
LINE
  5
95
330
1F
100
AcDbEntity
  8
0
 62
     7
 48
0.070711
370
    60
390
F
100
AcDbLine
 10
900.5478699237531
 20
371.134804
 30
0.0
 11
902.5478699237531
 21
373.134804
 31
0.0
  0
LINE
  5
851
330
1F
100
AcDbEntity
  8
0
 62
     7
 48
0.05
370
    60
390
F
100
AcDbLine
 10
915.5478699237531
 20
373.134804
 30
0.0
 11
915.5478699237531
 21
375.134804
 31
0.0
  0
LINE
  5
852
330
1F
100
AcDbEntity
  8
0
 62
     7
 48
0.05
370
    60
390
F
100
AcDbLine
 10
915.5478699237531
 20
384.134804
 30
0.0
 11
915.5478699237531
 21
386.134804
 31
0.0
  0
LINE
  5
853
330
1F
100
AcDbEntity
  8
0
 62
     7
 48
0.05
370
    60
390
F
100
AcDbLine
 10
915.5478699237531
 20
290.134804
 30
0.0
 11
915.5478699237531
 21
292.134804
 31
0.0
  0
LINE
  5
854
330
1F
100
AcDbEntity
  8
0
 62
     7
 48
0.05
370
    60
390
F
100
AcDbLine
 10
915.5478699237531
 20
301.134804
 30
0.0
 11
915.5478699237531
 21
303.134804
 31
0.0
  0
LINE
  5
855
330
1F
100
AcDbEntity
  8
0
 62
     7
 48
0.070711
370
    60
390
F
100
AcDbLine
 10
900.5478699237531
 20
305.134804
 30
0.0
 11
902.5478699237531
 21
303.134804
 31
0.0
  0
LINE
  5
856
330
1F
100
AcDbEntity
  8
0
 62
     7
 48
0.070711
370
    60
390
F
100
AcDbLine
 10
900.5478699237531
 20
288.134804
 30
0.0
 11
902.5478699237531
 21
290.134804
 31
0.0
  0
LINE
  5
857
330
1F
100
AcDbEntity
  8
0
 62
     7
370
    60
390
F
100
AcDbLine
 10
900.5478699237531
 20
257.584805
 30
0.0
 11
900.5478699237531
 21
288.134804
 31
0.0
  0
LINE
  5
858
330
1F
100
AcDbEntity
  8
0
 62
     7
370
    60
390
F
100
AcDbLine
 10
900.5478699237531
 20
305.134804
 30
0.0
 11
900.5478699237531
 21
338.134804
 31
0.0
  0
LINE
  5
859
330
1F
100
AcDbEntity
  8
0
 62
     7
 48
0.070711
370
    60
390
F
100
AcDbLine
 10
900.5478699237531
 20
299.134804
 30
0.0
 11
902.5478699237531
 21
301.134804
 31
0.0
  0
LINE
  5
85A
330
1F
100
AcDbEntity
  8
0
 62
     7
 48
0.070711
370
    60
390
F
100
AcDbLine
 10
900.5478699237531
 20
294.134804
 30
0.0
 11
902.5478699237531
 21
292.134804
 31
0.0
  0
LINE
  5
85B
330
1F
100
AcDbEntity
  8
0
 62
     7
 48
0.325
370
    60
390
F
100
AcDbLine
 10
902.5478699237531
 20
303.134804
 30
0.0
 11
915.5478699237531
 21
303.134804
 31
0.0
  0
LINE
  5
85C
330
1F
100
AcDbEntity
  8
0
 62
     7
 48
0.325
370
    60
390
F
100
AcDbLine
 10
902.5478699237531
 20
290.134804
 30
0.0
 11
915.5478699237531
 21
290.134804
 31
0.0
  0
LINE
  5
85D
330
1F
100
AcDbEntity
  8
0
 62
     7
 48
0.325
370
    60
390
F
100
AcDbLine
 10
902.5478699237531
 20
301.134804
 30
0.0
 11
915.5478699237531
 21
301.134804
 31
0.0
  0
LINE
  5
85E
330
1F
100
AcDbEntity
  8
0
 62
     7
 48
0.325
370
    60
390
F
100
AcDbLine
 10
902.5478699237531
 20
292.134804
 30
0.0
 11
915.5478699237531
 21
292.134804
 31
0.0
  0
LINE
  5
85F
330
1F
100
AcDbEntity
  8
0
 62
     7
 48
0.125
370
    60
390
F
100
AcDbLine
 10
900.5478699237531
 20
294.134804
 30
0.0
 11
900.5478699237531
 21
299.134804
 31
0.0
  0
LINE
  5
860
330
1F
100
AcDbEntity
  8
0
 62
     7
 48
0.125
370
    60
390
F
100
AcDbLine
 10
2311.322244521999
 20
294.1348039999996
 30
0.0
 11
2311.322244521999
 21
299.1348039999996
 31
0.0
  0
LINE
  5
861
330
1F
100
AcDbEntity
  8
0
 62
     7
 48
0.325
370
    60
390
F
100
AcDbLine
 10
2296.322244521999
 20
292.1348039999996
 30
0.0
 11
2309.322244521999
 21
292.1348039999996
 31
0.0
  0
LINE
  5
862
330
1F
100
AcDbEntity
  8
0
 62
     7
 48
0.325
370
    60
390
F
100
AcDbLine
 10
2296.322244521999
 20
301.1348039999996
 30
0.0
 11
2309.322244521999
 21
301.1348039999996
 31
0.0
  0
LINE
  5
863
330
1F
100
AcDbEntity
  8
0
 62
     7
 48
0.325
370
    60
390
F
100
AcDbLine
 10
2296.322244521999
 20
290.1348039999996
 30
0.0
 11
2309.322244521999
 21
290.1348039999996
 31
0.0
  0
LINE
  5
864
330
1F
100
AcDbEntity
  8
0
 62
     7
 48
0.325
370
    60
390
F
100
AcDbLine
 10
2296.322244521999
 20
303.1348039999996
 30
0.0
 11
2309.322244521999
 21
303.1348039999996
 31
0.0
  0
LINE
  5
865
330
1F
100
AcDbEntity
  8
0
 62
     7
 48
0.070711
370
    60
390
F
100
AcDbLine
 10
2309.322244521999
 20
292.1348039999996
 30
0.0
 11
2311.322244521999
 21
294.1348039999996
 31
0.0
  0
LINE
  5
866
330
1F
100
AcDbEntity
  8
0
 62
     7
 48
0.070711
370
    60
390
F
100
AcDbLine
 10
2309.322244521999
 20
301.1348039999996
 30
0.0
 11
2311.322244521999
 21
299.1348039999996
 31
0.0
  0
LINE
  5
867
330
1F
100
AcDbEntity
  8
0
 62
     7
370
    60
390
F
100
AcDbLine
 10
2311.322244521999
 20
305.1348039999996
 30
0.0
 11
2311.322244521999
 21
338.1348039999996
 31
0.0
  0
LINE
  5
868
330
1F
100
AcDbEntity
  8
0
 62
     7
 48
0.070711
370
    60
390
F
100
AcDbLine
 10
2309.322244521999
 20
290.1348039999996
 30
0.0
 11
2311.322244521999
 21
288.1348039999996
 31
0.0
  0
LINE
  5
869
330
1F
100
AcDbEntity
  8
0
 62
     7
 48
0.070711
370
    60
390
F
100
AcDbLine
 10
2309.322244521999
 20
303.1348039999996
 30
0.0
 11
2311.322244521999
 21
305.1348039999996
 31
0.0
  0
LINE
  5
86A
330
1F
100
AcDbEntity
  8
0
 62
     7
 48
0.05
370
    60
390
F
100
AcDbLine
 10
2296.322244521999
 20
301.1348039999996
 30
0.0
 11
2296.322244521999
 21
303.1348039999996
 31
0.0
  0
LINE
  5
86B
330
1F
100
AcDbEntity
  8
0
 62
     7
 48
0.05
370
    60
390
F
100
AcDbLine
 10
2296.322244521999
 20
290.1348039999996
 30
0.0
 11
2296.322244521999
 21
292.1348039999996
 31
0.0
  0
LINE
  5
86C
330
1F
100
AcDbEntity
  8
0
 62
     7
 48
0.05
370
    60
390
F
100
AcDbLine
 10
2296.322244521999
 20
384.1348039999996
 30
0.0
 11
2296.322244521999
 21
386.1348039999996
 31
0.0
  0
LINE
  5
86D
330
1F
100
AcDbEntity
  8
0
 62
     7
 48
0.05
370
    60
390
F
100
AcDbLine
 10
2296.322244521999
 20
373.1348039999996
 30
0.0
 11
2296.322244521999
 21
375.1348039999996
 31
0.0
  0
LINE
  5
86E
330
1F
100
AcDbEntity
  8
0
 62
     7
 48
0.070711
370
    60
390
F
100
AcDbLine
 10
2309.322244521999
 20
373.1348039999996
 30
0.0
 11
2311.322244521999
 21
371.1348039999996
 31
0.0
  0
LINE
  5
86F
330
1F
100
AcDbEntity
  8
0
 62
     7
 48
0.070711
370
    60
390
F
100
AcDbLine
 10
2309.322244521999
 20
386.1348039999996
 30
0.0
 11
2311.322244521999
 21
388.1348039999996
 31
0.0
  0
LINE
  5
870
330
1F
100
AcDbEntity
  8
0
 62
     7
370
    60
390
F
100
AcDbLine
 10
2311.322244521999
 20
338.1348039999996
 30
0.0
 11
2311.322244521999
 21
371.1348039999996
 31
0.0
  0
LINE
  5
871
330
1F
100
AcDbEntity
  8
0
 62
     7
 48
0.070711
370
    60
390
F
100
AcDbLine
 10
2309.322244521999
 20
375.1348039999996
 30
0.0
 11
2311.322244521999
 21
377.1348039999996
 31
0.0
  0
LINE
  5
BB
330
1F
100
AcDbEntity
  8
0
 62
     7
 48
0.070711
370
    60
390
F
100
AcDbLine
 10
2309.322244521999
 20
384.1348039999996
 30
0.0
 11
2311.322244521999
 21
382.1348039999996
 31
0.0
  0
LINE
  5
BC
330
1F
100
AcDbEntity
  8
0
 62
     7
 48
0.325
370
    60
390
F
100
AcDbLine
 10
2296.322244521999
 20
373.1348039999996
 30
0.0
 11
2309.322244521999
 21
373.1348039999996
 31
0.0
  0
LINE
  5
BD
330
1F
100
AcDbEntity
  8
0
 62
     7
 48
0.325
370
    60
390
F
100
AcDbLine
 10
2296.322244521999
 20
386.1348039999996
 30
0.0
 11
2309.322244521999
 21
386.1348039999996
 31
0.0
  0
LINE
  5
BE
330
1F
100
AcDbEntity
  8
0
 62
     7
 48
0.325
370
    60
390
F
100
AcDbLine
 10
2296.322244521999
 20
375.1348039999996
 30
0.0
 11
2309.322244521999
 21
375.1348039999996
 31
0.0
  0
LINE
  5
BF
330
1F
100
AcDbEntity
  8
0
 62
     7
 48
0.325
370
    60
390
F
100
AcDbLine
 10
2296.322244521999
 20
384.1348039999996
 30
0.0
 11
2309.322244521999
 21
384.1348039999996
 31
0.0
  0
LINE
  5
C0
330
1F
100
AcDbEntity
  8
0
 62
     7
 48
0.125
370
    60
390
F
100
AcDbLine
 10
2311.322244521999
 20
377.1348039999996
 30
0.0
 11
2311.322244521999
 21
382.1348039999996
 31
0.0
  0
LINE
  5
C6
330
1F
100
AcDbEntity
  8
0
 62
     7
370
    60
390
F
100
AcDbLine
 10
900.5478699237531
 20
418.684803
 30
0.0
 11
2179.223302833804
 21
418.6848029999996
 31
0.0
  0
LINE
  5
C7
330
1F
100
AcDbEntity
  8
0
 62
     7
370
    60
390
F
100
AcDbLine
 10
900.5478699237531
 20
257.584805
 30
0.0
 11
2055.090390997795
 21
257.5848049999996
 31
0.0
  0
LINE
  5
C8
330
1F
100
AcDbEntity
  8
0
 62
     7
370
    60
390
F
100
AcDbLine
 10
2075.235391521999
 20
418.6848029999996
 30
0.0
 11
2311.322244521999
 21
418.6848029999996
 31
0.0
  0
LINE
  5
C9
330
1F
100
AcDbEntity
  8
0
 62
     7
370
    60
390
F
100
AcDbLine
 10
2046.829141521999
 20
257.5848049999996
 30
0.0
 11
2311.322244521999
 21
257.5848049999996
 31
0.0
  0
LINE
  5
CA
330
1F
100
AcDbEntity
  8
0
 62
     7
370
    60
390
F
100
AcDbLine
 10
2311.322244521999
 20
257.5848049999996
 30
0.0
 11
2311.322244521999
 21
288.1348039999996
 31
0.0
  0
LINE
  5
289
330
1F
100
AcDbEntity
  8
0
 62
     7
 48
0.441901
370
    60
390
F
100
AcDbLine
 10
900.5478699237531
 20
399.810841
 30
0.0
 11
900.5478699237531
 21
382.134804
 31
0.0
  0
LINE
  5
665
330
1F
100
AcDbEntity
  8
0
370
    60
100
AcDbLine
 10
900.5478699237531
 20
354.634804
 30
0.0
 11
900.5478699237531
 21
354.634804
 31
0.0
  0
DIMENSION
  5
67B
330
1F
100
AcDbEntity
  8
0
370
    40
100
AcDbDimension
  2
*D180
 10
2311.322244521999
 20
181.4092124077436
 30
0.0
 11
1605.935057222876
 21
192.7092124077436
 31
0.0
 70
    32
 71
     5
 41
2.5
 42
1410.774374598246
  3
Standard
100
AcDbAlignedDimension
 13
900.5478699237531
 23
338.134804
 33
0.0
 14
2311.322244521999
 24
338.1348039999996
 34
0.0
100
AcDbRotatedDimension
1001
ACAD
1000
DSTYLE
1002
{
1070
    41
1040
10.0
1070
   140
1040
14.0
1070
   147
1040
5.0
1070
   176
1070
     7
1070
   177
1070
     7
1070
   271
1070
     0
1070
   340
1005
11
1002
}
  0
DIMENSION
  5
69D
330
1F
100
AcDbEntity
  8
0
370
    40
100
AcDbDimension
  2
*D185
 10
2387.048863154655
 20
257.5848049999996
 30
0.0
 11
2375.748863154654
 21
338.1348039999996
 31
0.0
 70
   160
 71
     5
 41
2.5
 42
161.099998
  3
Standard
100
AcDbAlignedDimension
 13
2056.577170024106
 23
418.6848029999996
 33
0.0
 14
2056.577170024106
 24
257.5848049999996
 34
0.0
 50
90.0
100
AcDbRotatedDimension
1001
ACAD
1000
DSTYLE
1002
{
1070
    41
1040
10.0
1070
   140
1040
14.0
1070
   147
1040
5.0
1070
   176
1070
     7
1070
   177
1070
     7
1070
   271
1070
     0
1070
   340
1005
11
1002
}
  0
VIEWPORT
  5
2B2
330
73
100
AcDbEntity
 67
     1
  8
0
 62
     0
370
     0
390
F
100
AcDbViewport
 10
0.0
 20
0.0
 30
0.0
 40
1000.0
 41
1000.0
 68
     1
 69
     1
 12
0.0
 22
0.0
 13
0.0
 23
0.0
 14
1.0
 24
1.0
 15
1.0
 25
1.0
 16
0.0
 26
0.0
 36
1.0
 17
0.0
 27
0.0
 37
0.0
 42
50.0
 43
0.0
 44
0.0
 45
1000.0
 50
0.0
 51
0.0
 72
   100
 90
   557056
  1

281
     0
 71
     0
 74
     0
110
0.0
120
0.0
130
0.0
111
1.0
121
0.0
131
0.0
112
0.0
122
1.0
132
0.0
 79
     0
146
0.0
  0
ENDSEC
  0
SECTION
  2
OBJECTS
  0
DICTIONARY
  5
C
330
0
100
AcDbDictionary
281
     1
  3
ACAD_COLOR
350
6C
  3
ACAD_GROUP
350
D
  3
ACAD_LAYOUT
350
1A
  3
ACAD_MATERIAL
350
6B
  3
ACAD_MLEADERSTYLE
350
872
  3
ACAD_MLINESTYLE
350
17
  3
ACAD_PLOTSETTINGS
350
19
  3
ACAD_PLOTSTYLENAME
350
E
  3
ACAD_SCALELIST
350
99
  3
ACAD_TABLESTYLE
350
92
  3
ACAD_WIPEOUT_VARS
350
6D8
  3
ACDBHEADERROUNDTRIPXREC
350
873
  3
AcDbVariableDictionary
350
59
  3
DWGPROPS
350
876
  0
DICTIONARY
  5
6C
102
{ACAD_REACTORS
330
C
102
}
330
C
100
AcDbDictionary
281
     1
  0
DICTIONARY
  5
D
102
{ACAD_REACTORS
330
C
102
}
330
C
100
AcDbDictionary
281
     1
  0
DICTIONARY
  5
1A
102
{ACAD_REACTORS
330
C
102
}
330
C
100
AcDbDictionary
281
     1
  3
Layout1
350
74
  3
Model
350
22
  0
DICTIONARY
  5
6B
102
{ACAD_REACTORS
330
C
102
}
330
C
100
AcDbDictionary
281
     1
  0
DICTIONARY
  5
872
102
{ACAD_REACTORS
330
C
102
}
330
C
100
AcDbDictionary
281
     1
  0
DICTIONARY
  5
17
102
{ACAD_REACTORS
330
C
102
}
330
C
100
AcDbDictionary
281
     1
  3
Standard
350
18
  0
DICTIONARY
  5
19
102
{ACAD_REACTORS
330
C
102
}
330
C
100
AcDbDictionary
281
     1
  0
ACDBDICTIONARYWDFLT
  5
E
102
{ACAD_REACTORS
330
C
102
}
330
C
100
AcDbDictionary
281
     1
  3
Normal
350
F
100
AcDbDictionaryWithDefault
340
F
  0
DICTIONARY
  5
99
102
{ACAD_REACTORS
330
C
102
}
330
C
100
AcDbDictionary
281
     1
  3
A0
350
641
  3
A1
350
642
  3
A2
350
643
  3
A3
350
644
  3
A4
350
645
  3
A5
350
646
  3
A6
350
647
  3
A7
350
648
  3
A8
350
649
  3
A9
350
64A
  3
B0
350
64B
  3
B1
350
64C
  3
B2
350
64D
  3
B3
350
64E
  3
B4
350
64F
  3
B5
350
650
  3
B6
350
651
  3
B7
350
652
  3
B8
350
653
  3
B9
350
654
  3
C0
350
655
  3
C1
350
656
  3
C2
350
657
  3
C3
350
658
  3
C4
350
659
  3
C5
350
65A
  3
C6
350
65B
  3
C7
350
65C
  3
C8
350
65D
  3
C9
350
65E
  3
D0
350
65F
  3
D1
350
660
  3
D2
350
661
  0
DICTIONARY
  5
92
102
{ACAD_REACTORS
330
C
102
}
330
C
100
AcDbDictionary
281
     1
  0
WIPEOUTVARIABLES
  5
6D8
102
{ACAD_REACTORS
330
C
102
}
330
C
100
AcDbWipeoutVariables
 70
     1
  0
DICTIONARY
  5
873
102
{ACAD_REACTORS
330
C
102
}
330
C
100
AcDbDictionary
281
     1
  3
COLORDICT
350
874
  3
MATERIALDICT
350
875
  0
DICTIONARY
  5
59
102
{ACAD_REACTORS
330
C
102
}
330
C
100
AcDbDictionary
281
     1
  3
CTABLESTYLE
350
98
  3
DIMASSOC
350
5A
  3
HIDETEXT
350
5E
  0
XRECORD
  5
876
102
{ACAD_REACTORS
330
C
102
}
330
C
100
AcDbXrecord
280
     1
  1
DWGPROPS COOKIE
  2

  3

  4

  6

  7

  8
BelottiMc
  9

300
=
301
=
302
=
303
=
304
=
305
=
306
=
307
=
308
=
309
=
 40
0.0
 41
2447892.999999977
 42
2447893.0
  1

 90
        0
  0
LAYOUT
  5
74
102
{ACAD_REACTORS
330
1A
102
}
330
1A
100
AcDbPlotSettings
  1

  2
none_device
  4
none_user_media
  6

 40
0.0
 41
0.0
 42
0.0
 43
0.0
 44
0.0
 45
0.0
 46
0.0
 47
0.0
 48
0.0
 49
0.0
140
0.0
141
0.0
142
1.0
143
1.0
 70
   544
 72
     0
 73
     0
 74
     0
  7

 75
    16
147
1.0
148
0.0
149
0.0
100
AcDbLayout
  1
Layout1
 70
     1
 71
     0
 10
0.0
 20
0.0
 11
420.0
 21
297.0
 12
0.0
 22
0.0
 32
0.0
 14
0.0
 24
0.0
 34
0.0
 15
1053.266357
 25
259.294098
 35
2.0
146
0.0
 13
0.0
 23
0.0
 33
0.0
 16
1.0
 26
0.0
 36
0.0
 17
0.0
 27
1.0
 37
0.0
 76
     0
330
73
331
2B2
  0
LAYOUT
  5
22
102
{ACAD_REACTORS
330
1A
102
}
330
1A
100
AcDbPlotSettings
  1

  2
none_device
  4
none_user_media
  6

 40
6.349999904632568
 41
6.349999904632568
 42
6.350006103515625
 43
6.350006103515625
 44
215.8999938964844
 45
279.3999938964844
 46
0.0
 47
0.0
 48
0.0
 49
0.0
140
0.0
141
0.0
142
1.0
143
1.0
 70
 11936
 72
     0
 73
     0
 74
     0
  7

 75
     0
147
0.148199259531067
148
0.0
149
0.0
100
AcDbLayout
  1
Model
 70
     1
 71
     0
 10
0.0
 20
0.0
 11
420.0
 21
297.0
 12
0.0
 22
0.0
 32
0.0
 14
250.401177
 24
179.742545741077
 34
0.0
 15
2522.59165382766
 25
418.684803
 35
0.0
146
0.0
 13
0.0
 23
0.0
 33
0.0
 16
1.0
 26
0.0
 36
0.0
 17
0.0
 27
1.0
 37
0.0
 76
     0
330
1F
331
97
  0
MLINESTYLE
  5
18
102
{ACAD_REACTORS
330
17
102
}
330
17
100
AcDbMlineStyle
  2
Standard
 70
     0
  3

 62
     0
 51
90.0
 52
90.0
 71
     2
 49
0.5
 62
   256
  6
BYLAYER
 49
-0.5
 62
   256
  6
BYLAYER
  0
ACDBPLACEHOLDER
  5
F
102
{ACAD_REACTORS
330
E
102
}
330
E
  0
SCALE
  5
641
102
{ACAD_REACTORS
330
99
102
}
330
99
100
AcDbScale
 70
     0
300
1:1
140
1.0
141
1.0
290
     1
  0
SCALE
  5
642
102
{ACAD_REACTORS
330
99
102
}
330
99
100
AcDbScale
 70
     0
300
1:2
140
1.0
141
2.0
290
     0
  0
SCALE
  5
643
102
{ACAD_REACTORS
330
99
102
}
330
99
100
AcDbScale
 70
     0
300
1:4
140
1.0
141
4.0
290
     0
  0
SCALE
  5
644
102
{ACAD_REACTORS
330
99
102
}
330
99
100
AcDbScale
 70
     0
300
1:5
140
1.0
141
5.0
290
     0
  0
SCALE
  5
645
102
{ACAD_REACTORS
330
99
102
}
330
99
100
AcDbScale
 70
     0
300
1:8
140
1.0
141
8.0
290
     0
  0
SCALE
  5
646
102
{ACAD_REACTORS
330
99
102
}
330
99
100
AcDbScale
 70
     0
300
1:10
140
1.0
141
10.0
290
     0
  0
SCALE
  5
647
102
{ACAD_REACTORS
330
99
102
}
330
99
100
AcDbScale
 70
     0
300
1:16
140
1.0
141
16.0
290
     0
  0
SCALE
  5
648
102
{ACAD_REACTORS
330
99
102
}
330
99
100
AcDbScale
 70
     0
300
1:20
140
1.0
141
20.0
290
     0
  0
SCALE
  5
649
102
{ACAD_REACTORS
330
99
102
}
330
99
100
AcDbScale
 70
     0
300
1:30
140
1.0
141
30.0
290
     0
  0
SCALE
  5
64A
102
{ACAD_REACTORS
330
99
102
}
330
99
100
AcDbScale
 70
     0
300
1:40
140
1.0
141
40.0
290
     0
  0
SCALE
  5
64B
102
{ACAD_REACTORS
330
99
102
}
330
99
100
AcDbScale
 70
     0
300
1:50
140
1.0
141
50.0
290
     0
  0
SCALE
  5
64C
102
{ACAD_REACTORS
330
99
102
}
330
99
100
AcDbScale
 70
     0
300
1:100
140
1.0
141
100.0
290
     0
  0
SCALE
  5
64D
102
{ACAD_REACTORS
330
99
102
}
330
99
100
AcDbScale
 70
     0
300
2:1
140
2.0
141
1.0
290
     0
  0
SCALE
  5
64E
102
{ACAD_REACTORS
330
99
102
}
330
99
100
AcDbScale
 70
     0
300
4:1
140
4.0
141
1.0
290
     0
  0
SCALE
  5
64F
102
{ACAD_REACTORS
330
99
102
}
330
99
100
AcDbScale
 70
     0
300
8:1
140
8.0
141
1.0
290
     0
  0
SCALE
  5
650
102
{ACAD_REACTORS
330
99
102
}
330
99
100
AcDbScale
 70
     0
300
10:1
140
10.0
141
1.0
290
     0
  0
SCALE
  5
651
102
{ACAD_REACTORS
330
99
102
}
330
99
100
AcDbScale
 70
     0
300
100:1
140
100.0
141
1.0
290
     0
  0
SCALE
  5
652
102
{ACAD_REACTORS
330
99
102
}
330
99
100
AcDbScale
 70
     0
300
1/128" = 1'-0"
140
0.0078125
141
12.0
290
     0
  0
SCALE
  5
653
102
{ACAD_REACTORS
330
99
102
}
330
99
100
AcDbScale
 70
     0
300
1/64" = 1'-0"
140
0.015625
141
12.0
290
     0
  0
SCALE
  5
654
102
{ACAD_REACTORS
330
99
102
}
330
99
100
AcDbScale
 70
     0
300
1/32" = 1'-0"
140
0.03125
141
12.0
290
     0
  0
SCALE
  5
655
102
{ACAD_REACTORS
330
99
102
}
330
99
100
AcDbScale
 70
     0
300
1/16" = 1'-0"
140
0.0625
141
12.0
290
     0
  0
SCALE
  5
656
102
{ACAD_REACTORS
330
99
102
}
330
99
100
AcDbScale
 70
     0
300
3/32" = 1'-0"
140
0.09375
141
12.0
290
     0
  0
SCALE
  5
657
102
{ACAD_REACTORS
330
99
102
}
330
99
100
AcDbScale
 70
     0
300
1/8" = 1'-0"
140
0.125
141
12.0
290
     0
  0
SCALE
  5
658
102
{ACAD_REACTORS
330
99
102
}
330
99
100
AcDbScale
 70
     0
300
3/16" = 1'-0"
140
0.1875
141
12.0
290
     0
  0
SCALE
  5
659
102
{ACAD_REACTORS
330
99
102
}
330
99
100
AcDbScale
 70
     0
300
1/4" = 1'-0"
140
0.25
141
12.0
290
     0
  0
SCALE
  5
65A
102
{ACAD_REACTORS
330
99
102
}
330
99
100
AcDbScale
 70
     0
300
3/8" = 1'-0"
140
0.375
141
12.0
290
     0
  0
SCALE
  5
65B
102
{ACAD_REACTORS
330
99
102
}
330
99
100
AcDbScale
 70
     0
300
1/2" = 1'-0"
140
0.5
141
12.0
290
     0
  0
SCALE
  5
65C
102
{ACAD_REACTORS
330
99
102
}
330
99
100
AcDbScale
 70
     0
300
3/4" = 1'-0"
140
0.75
141
12.0
290
     0
  0
SCALE
  5
65D
102
{ACAD_REACTORS
330
99
102
}
330
99
100
AcDbScale
 70
     0
300
1" = 1'-0"
140
1.0
141
12.0
290
     0
  0
SCALE
  5
65E
102
{ACAD_REACTORS
330
99
102
}
330
99
100
AcDbScale
 70
     0
300
1-1/2" = 1'-0"
140
1.5
141
12.0
290
     0
  0
SCALE
  5
65F
102
{ACAD_REACTORS
330
99
102
}
330
99
100
AcDbScale
 70
     0
300
3" = 1'-0"
140
3.0
141
12.0
290
     0
  0
SCALE
  5
660
102
{ACAD_REACTORS
330
99
102
}
330
99
100
AcDbScale
 70
     0
300
6" = 1'-0"
140
6.0
141
12.0
290
     0
  0
SCALE
  5
661
102
{ACAD_REACTORS
330
99
102
}
330
99
100
AcDbScale
 70
     0
300
1'-0" = 1'-0"
140
12.0
141
12.0
290
     0
  0
XRECORD
  5
874
102
{ACAD_REACTORS
330
873
102
}
330
873
100
AcDbXrecord
280
     1
340
6C
  0
XRECORD
  5
875
102
{ACAD_REACTORS
330
873
102
}
330
873
100
AcDbXrecord
280
     1
340
6B
  0
DICTIONARYVAR
  5
98
102
{ACAD_REACTORS
330
59
102
}
330
59
100
DictionaryVariables
280
     0
  1
Standard
  0
DICTIONARYVAR
  5
5A
102
{ACAD_REACTORS
330
59
102
}
330
59
100
DictionaryVariables
280
     0
  1
2
  0
DICTIONARYVAR
  5
5E
102
{ACAD_REACTORS
330
59
102
}
330
59
100
DictionaryVariables
280
     0
  1
1
  0
ENDSEC
  0
EOF
