  0
SECTION
  2
HEADER
  9
$ACADVER
  1
AC1015
  9
$ACADMAINTVER
 70
     6
  9
$DWGCODEPAGE
  3
ANSI_1252
  9
$INSBASE
 10
0.0
 20
0.0
 30
0.0
  9
$EXTMIN
 10
237.531013
 20
34.47540126466367
 30
0.0
  9
$EXTMAX
 10
1693.337175474172
 20
365.756535
 30
0.0
  9
$LIMMIN
 10
0.0
 20
0.0
  9
$LIMMAX
 10
420.0
 20
297.0
  9
$ORTHOMODE
 70
     1
  9
$REGENMODE
 70
     1
  9
$FILLMODE
 70
     1
  9
$QTEXTMODE
 70
     0
  9
$MIRRTEXT
 70
     1
  9
$LTSCALE
 40
1.0
  9
$ATTMODE
 70
     1
  9
$TEXTSIZE
 40
2.5
  9
$TRACEWID
 40
1.0
  9
$TEXTSTYLE
  7
Standard
  9
$CLAYER
  8
0
  9
$CELTYPE
  6
ByLayer
  9
$CECOLOR
 62
   256
  9
$CELTSCALE
 40
1.0
  9
$DISPSILH
 70
     0
  9
$DIMSCALE
 40
1.0
  9
$DIMASZ
 40
2.5
  9
$DIMEXO
 40
0.625
  9
$DIMDLI
 40
3.75
  9
$DIMRND
 40
0.0
  9
$DIMDLE
 40
0.0
  9
$DIMEXE
 40
1.25
  9
$DIMTP
 40
0.0
  9
$DIMTM
 40
0.0
  9
$DIMTXT
 40
2.5
  9
$DIMCEN
 40
2.5
  9
$DIMTSZ
 40
0.0
  9
$DIMTOL
 70
     0
  9
$DIMLIM
 70
     0
  9
$DIMTIH
 70
     0
  9
$DIMTOH
 70
     0
  9
$DIMSE1
 70
     0
  9
$DIMSE2
 70
     0
  9
$DIMTAD
 70
     1
  9
$DIMZIN
 70
     8
  9
$DIMBLK
  1

  9
$DIMASO
 70
     1
  9
$DIMSHO
 70
     1
  9
$DIMPOST
  1

  9
$DIMAPOST
  1

  9
$DIMALT
 70
     0
  9
$DIMALTD
 70
     3
  9
$DIMALTF
 40
0.03937
  9
$DIMLFAC
 40
1.0
  9
$DIMTOFL
 70
     1
  9
$DIMTVP
 40
0.0
  9
$DIMTIX
 70
     0
  9
$DIMSOXD
 70
     0
  9
$DIMSAH
 70
     0
  9
$DIMBLK1
  1

  9
$DIMBLK2
  1

  9
$DIMSTYLE
  2
Standard
  9
$DIMCLRD
 70
     0
  9
$DIMCLRE
 70
     0
  9
$DIMCLRT
 70
     0
  9
$DIMTFAC
 40
1.0
  9
$DIMGAP
 40
0.625
  9
$DIMJUST
 70
     0
  9
$DIMSD1
 70
     0
  9
$DIMSD2
 70
     0
  9
$DIMTOLJ
 70
     0
  9
$DIMTZIN
 70
     8
  9
$DIMALTZ
 70
     0
  9
$DIMALTTZ
 70
     0
  9
$DIMUPT
 70
     0
  9
$DIMDEC
 70
     2
  9
$DIMTDEC
 70
     2
  9
$DIMALTU
 70
     2
  9
$DIMALTTD
 70
     3
  9
$DIMTXSTY
  7
Standard
  9
$DIMAUNIT
 70
     0
  9
$DIMADEC
 70
     0
  9
$DIMALTRND
 40
0.0
  9
$DIMAZIN
 70
     0
  9
$DIMDSEP
 70
    44
  9
$DIMATFIT
 70
     0
  9
$DIMFRAC
 70
     0
  9
$DIMLDRBLK
  1

  9
$DIMLUNIT
 70
     2
  9
$DIMLWD
 70
    -2
  9
$DIMLWE
 70
    -2
  9
$DIMTMOVE
 70
     0
  9
$LUNITS
 70
     2
  9
$LUPREC
 70
     4
  9
$SKETCHINC
 40
1.0
  9
$FILLETRAD
 40
2.5
  9
$AUNITS
 70
     0
  9
$AUPREC
 70
     0
  9
$MENU
  1
.
  9
$ELEVATION
 40
0.0
  9
$PELEVATION
 40
0.0
  9
$THICKNESS
 40
0.0
  9
$LIMCHECK
 70
     0
  9
$CHAMFERA
 40
2.5
  9
$CHAMFERB
 40
2.5
  9
$CHAMFERC
 40
0.0
  9
$CHAMFERD
 40
0.0
  9
$SKPOLY
 70
     0
  9
$TDCREATE
 40
2447893.041666644
  9
$TDUCREATE
 40
2447892.999999977
  9
$TDUPDATE
 40
2447893.041666667
  9
$TDUUPDATE
 40
2447893.0
  9
$TDINDWG
 40
0.0092476736
  9
$TDUSRTIMER
 40
0.0092476736
  9
$USRTIMER
 70
     1
  9
$ANGBASE
 50
0.0
  9
$ANGDIR
 70
     0
  9
$PDMODE
 70
     0
  9
$PDSIZE
 40
0.0
  9
$PLINEWID
 40
0.0
  9
$SPLFRAME
 70
     0
  9
$SPLINETYPE
 70
     6
  9
$SPLINESEGS
 70
     8
  9
$HANDSEED
  5
910
  9
$SURFTAB1
 70
     6
  9
$SURFTAB2
 70
     6
  9
$SURFTYPE
 70
     6
  9
$SURFU
 70
     6
  9
$SURFV
 70
     6
  9
$UCSBASE
  2

  9
$UCSNAME
  2

  9
$UCSORG
 10
0.0
 20
0.0
 30
0.0
  9
$UCSXDIR
 10
1.0
 20
0.0
 30
0.0
  9
$UCSYDIR
 10
0.0
 20
1.0
 30
0.0
  9
$UCSORTHOREF
  2

  9
$UCSORTHOVIEW
 70
     0
  9
$UCSORGTOP
 10
0.0
 20
0.0
 30
0.0
  9
$UCSORGBOTTOM
 10
0.0
 20
0.0
 30
0.0
  9
$UCSORGLEFT
 10
0.0
 20
0.0
 30
0.0
  9
$UCSORGRIGHT
 10
0.0
 20
0.0
 30
0.0
  9
$UCSORGFRONT
 10
0.0
 20
0.0
 30
0.0
  9
$UCSORGBACK
 10
0.0
 20
0.0
 30
0.0
  9
$PUCSBASE
  2

  9
$PUCSNAME
  2

  9
$PUCSORG
 10
0.0
 20
0.0
 30
0.0
  9
$PUCSXDIR
 10
1.0
 20
0.0
 30
0.0
  9
$PUCSYDIR
 10
0.0
 20
1.0
 30
0.0
  9
$PUCSORTHOREF
  2

  9
$PUCSORTHOVIEW
 70
     0
  9
$PUCSORGTOP
 10
0.0
 20
0.0
 30
0.0
  9
$PUCSORGBOTTOM
 10
0.0
 20
0.0
 30
0.0
  9
$PUCSORGLEFT
 10
0.0
 20
0.0
 30
0.0
  9
$PUCSORGRIGHT
 10
0.0
 20
0.0
 30
0.0
  9
$PUCSORGFRONT
 10
0.0
 20
0.0
 30
0.0
  9
$PUCSORGBACK
 10
0.0
 20
0.0
 30
0.0
  9
$USERI1
 70
     0
  9
$USERI2
 70
     0
  9
$USERI3
 70
     0
  9
$USERI4
 70
     0
  9
$USERI5
 70
     0
  9
$USERR1
 40
0.0
  9
$USERR2
 40
0.0
  9
$USERR3
 40
0.0
  9
$USERR4
 40
0.0
  9
$USERR5
 40
0.0
  9
$WORLDVIEW
 70
     1
  9
$SHADEDGE
 70
     3
  9
$SHADEDIF
 70
    70
  9
$TILEMODE
 70
     1
  9
$MAXACTVP
 70
    48
  9
$PINSBASE
 10
0.0
 20
0.0
 30
0.0
  9
$PLIMCHECK
 70
     0
  9
$PEXTMIN
 10
0.0
 20
0.0
 30
0.0
  9
$PEXTMAX
 10
655.135864
 20
281.941956
 30
2.0
  9
$PLIMMIN
 10
0.0
 20
0.0
  9
$PLIMMAX
 10
420.0
 20
297.0
  9
$UNITMODE
 70
     0
  9
$VISRETAIN
 70
     0
  9
$PLINEGEN
 70
     0
  9
$PSLTSCALE
 70
     1
  9
$TREEDEPTH
 70
  3020
  9
$CMLSTYLE
  2
Standard
  9
$CMLJUST
 70
     0
  9
$CMLSCALE
 40
20.0
  9
$PROXYGRAPHICS
 70
     1
  9
$MEASUREMENT
 70
     1
  9
$CELWEIGHT
370
    -1
  9
$ENDCAPS
280
     0
  9
$JOINSTYLE
280
     0
  9
$LWDISPLAY
290
     0
  9
$INSUNITS
 70
     0
  9
$HYPERLINKBASE
  1

  9
$STYLESHEET
  1

  9
$XEDIT
290
     1
  9
$CEPSNTYPE
380
     0
  9
$PSTYLEMODE
290
     0
  9
$FINGERPRINTGUID
  2

  9
$VERSIONGUID
  2

  9
$EXTNAMES
290
     0
  9
$PSVPSCALE
 40
0.0
  9
$OLESTARTUP
290
     0
  0
ENDSEC
  0
SECTION
  2
CLASSES
  0
CLASS
  1
ACDBDICTIONARYWDFLT
  2
AcDbDictionaryWithDefault
  3
ObjectDBX Classes
 90
        0
280
     0
281
     0
  0
CLASS
  1
ACDBPLACEHOLDER
  2
AcDbPlaceHolder
  3
ObjectDBX Classes
 90
        0
280
     0
281
     0
  0
CLASS
  1
LAYOUT
  2
AcDbLayout
  3
ObjectDBX Classes
 90
        0
280
     0
281
     0
  0
CLASS
  1
DICTIONARYVAR
  2
AcDbDictionaryVar
  3
ObjectDBX Classes
 90
        0
280
     0
281
     0
  0
CLASS
  1
TABLESTYLE
  2
AcDbTableStyle
  3
ObjectDBX Classes
 90
     4095
280
     0
281
     0
  0
CLASS
  1
SCALE
  2
AcDbScale
  3
ObjectDBX Classes
 90
     1153
280
     0
281
     0
  0
CLASS
  1
WIPEOUTVARIABLES
  2
AcDbWipeoutVariables
  3
WipeOut|AutoCAD Express Tool|expresstools@autodesk.com
 90
        0
280
     0
281
     0
  0
ENDSEC
  0
SECTION
  2
TABLES
  0
TABLE
  2
VPORT
  5
8
330
0
100
AcDbSymbolTable
 70
     2
  0
VPORT
  5
97
330
8
100
AcDbSymbolTableRecord
100
AcDbViewportTableRecord
  2
*ACTIVE
 70
     0
 10
0.0
 20
0.0
 11
1.0
 21
1.0
 12
886.9559048128276
 22
22.41347602479581
 13
0.0
 23
0.0
 14
1.0
 24
1.0
 15
0.5
 25
0.5
 16
0.0
 26
0.0
 36
1.0
 17
0.0
 27
0.0
 37
0.0
 40
1788.466187043196
 41
0.688564
 42
50.0
 43
0.0
 44
0.0
 50
0.0
 51
0.0
 71
     0
 72
   100
 73
     1
 74
     1
 75
     0
 76
     0
 77
     0
 78
     0
281
     0
 65
     1
110
0.0
120
0.0
130
0.0
111
1.0
121
0.0
131
0.0
112
0.0
122
1.0
132
0.0
 79
     0
146
0.0
  0
ENDTAB
  0
TABLE
  2
LTYPE
  5
5
330
0
100
AcDbSymbolTable
 70
     3
  0
LTYPE
  5
14
330
5
100
AcDbSymbolTableRecord
100
AcDbLinetypeTableRecord
  2
ByBlock
 70
     0
  3

 72
    65
 73
     0
 40
0.0
  0
LTYPE
  5
15
330
5
100
AcDbSymbolTableRecord
100
AcDbLinetypeTableRecord
  2
ByLayer
 70
     0
  3

 72
    65
 73
     0
 40
0.0
  0
LTYPE
  5
16
330
5
100
AcDbSymbolTableRecord
100
AcDbLinetypeTableRecord
  2
Continuous
 70
     0
  3
Solid line
 72
    65
 73
     0
 40
0.0
  0
LTYPE
  5
777
330
5
100
AcDbSymbolTableRecord
100
AcDbLinetypeTableRecord
  2
DASHDOT
 70
     0
  3
 __ . __ . __ . __ . __ . __ . __ . 
 72
    65
 73
     4
 40
18.5
 49
12.0
 74
     0
 49
-3.0
 74
     0
 49
0.5
 74
     0
 49
-3.0
 74
     0
  0
LTYPE
  5
778
330
5
100
AcDbSymbolTableRecord
100
AcDbLinetypeTableRecord
  2
DASHED
 70
     0
  3
__ __ __ __ __ __ __ __ __ __ __ __ __ __ __ __
 72
    65
 73
     2
 40
15.0
 49
12.0
 74
     0
 49
-3.0
 74
     0
  0
ENDTAB
  0
TABLE
  2
LAYER
  5
2
330
0
100
AcDbSymbolTable
 70
     2
  0
LAYER
  5
10
330
2
100
AcDbSymbolTableRecord
100
AcDbLayerTableRecord
  2
0
 70
     0
 62
     7
  6
Continuous
370
    13
390
F
  0
LAYER
  5
693
330
2
100
AcDbSymbolTableRecord
100
AcDbLayerTableRecord
  2
DEFPOINTS
 70
     0
 62
     7
  6
Continuous
290
     0
370
    -3
390
F
  0
ENDTAB
  0
TABLE
  2
STYLE
  5
3
330
0
100
AcDbSymbolTable
 70
     2
  0
STYLE
  5
11
330
3
100
AcDbSymbolTableRecord
100
AcDbTextStyleTableRecord
  2
Standard
 70
     0
 40
0.0
 41
1.0
 50
0.0
 71
     0
 42
0.2
  3
isocp.shx
  4

  0
STYLE
  5
26
330
3
100
AcDbSymbolTableRecord
100
AcDbTextStyleTableRecord
  2
GDT
 70
     0
 40
0.0
 41
1.0
 50
0.0
 71
     0
 42
0.2
  3
gdt.shx
  4

  0
ENDTAB
  0
TABLE
  2
VIEW
  5
6
330
0
100
AcDbSymbolTable
 70
     0
  0
ENDTAB
  0
TABLE
  2
UCS
  5
7
330
0
100
AcDbSymbolTable
 70
     0
  0
ENDTAB
  0
TABLE
  2
APPID
  5
9
330
0
100
AcDbSymbolTable
 70
     2
  0
APPID
  5
12
330
9
100
AcDbSymbolTableRecord
100
AcDbRegAppTableRecord
  2
ACAD
 70
     0
  0
APPID
  5
776
330
9
100
AcDbSymbolTableRecord
100
AcDbRegAppTableRecord
  2
Conv5506CA
 70
     0
  0
ENDTAB
  0
TABLE
  2
DIMSTYLE
  5
A
330
0
100
AcDbSymbolTable
 70
     1
100
AcDbDimStyleTable
  0
DIMSTYLE
105
27
102
{ACAD_REACTORS
330
710
330
748
102
}
330
A
100
AcDbSymbolTableRecord
100
AcDbDimStyleTableRecord
  2
Standard
 70
     0
 41
2.5
 42
0.625
 43
3.75
 44
1.25
 73
     0
 74
     0
 77
     1
 78
     8
140
2.5
141
2.5
143
0.03937
147
0.625
171
     3
172
     1
271
     2
272
     2
274
     3
278
    44
283
     0
284
     8
289
     0
340
11
  0
ENDTAB
  0
TABLE
  2
BLOCK_RECORD
  5
1
330
0
100
AcDbSymbolTable
 70
   200
  0
BLOCK_RECORD
  5
1F
330
1
100
AcDbSymbolTableRecord
100
AcDbBlockTableRecord
  2
*Model_Space
340
22
  0
BLOCK_RECORD
  5
73
330
1
100
AcDbSymbolTableRecord
100
AcDbBlockTableRecord
  2
*Paper_Space
340
74
  0
BLOCK_RECORD
  5
2D2
330
1
100
AcDbSymbolTableRecord
100
AcDbBlockTableRecord
  2
BLOCK292
340
0
  0
BLOCK_RECORD
  5
2D3
330
1
100
AcDbSymbolTableRecord
100
AcDbBlockTableRecord
  2
BLOCK293
340
0
  0
BLOCK_RECORD
  5
2D4
330
1
100
AcDbSymbolTableRecord
100
AcDbBlockTableRecord
  2
BLOCK294
340
0
  0
BLOCK_RECORD
  5
2D5
330
1
100
AcDbSymbolTableRecord
100
AcDbBlockTableRecord
  2
BLOCK295
340
0
  0
BLOCK_RECORD
  5
2D6
330
1
100
AcDbSymbolTableRecord
100
AcDbBlockTableRecord
  2
BLOCK296
340
0
  0
BLOCK_RECORD
  5
2D7
330
1
100
AcDbSymbolTableRecord
100
AcDbBlockTableRecord
  2
BLOCK297
340
0
  0
BLOCK_RECORD
  5
2D8
330
1
100
AcDbSymbolTableRecord
100
AcDbBlockTableRecord
  2
BLOCK298
340
0
  0
BLOCK_RECORD
  5
2D9
330
1
100
AcDbSymbolTableRecord
100
AcDbBlockTableRecord
  2
BLOCK299
340
0
  0
BLOCK_RECORD
  5
2DA
330
1
100
AcDbSymbolTableRecord
100
AcDbBlockTableRecord
  2
BLOCK300
340
0
  0
BLOCK_RECORD
  5
2DB
330
1
100
AcDbSymbolTableRecord
100
AcDbBlockTableRecord
  2
BLOCK301
340
0
  0
BLOCK_RECORD
  5
2DC
330
1
100
AcDbSymbolTableRecord
100
AcDbBlockTableRecord
  2
BLOCK302
340
0
  0
BLOCK_RECORD
  5
2DD
330
1
100
AcDbSymbolTableRecord
100
AcDbBlockTableRecord
  2
BLOCK303
340
0
  0
BLOCK_RECORD
  5
2DE
330
1
100
AcDbSymbolTableRecord
100
AcDbBlockTableRecord
  2
BLOCK304
340
0
  0
BLOCK_RECORD
  5
2DF
330
1
100
AcDbSymbolTableRecord
100
AcDbBlockTableRecord
  2
BLOCK305
340
0
  0
BLOCK_RECORD
  5
2E0
330
1
100
AcDbSymbolTableRecord
100
AcDbBlockTableRecord
  2
BLOCK306
340
0
  0
BLOCK_RECORD
  5
2E1
330
1
100
AcDbSymbolTableRecord
100
AcDbBlockTableRecord
  2
BLOCK307
340
0
  0
BLOCK_RECORD
  5
2E2
330
1
100
AcDbSymbolTableRecord
100
AcDbBlockTableRecord
  2
BLOCK308
340
0
  0
BLOCK_RECORD
  5
2E3
330
1
100
AcDbSymbolTableRecord
100
AcDbBlockTableRecord
  2
BLOCK309
340
0
  0
BLOCK_RECORD
  5
2E4
330
1
100
AcDbSymbolTableRecord
100
AcDbBlockTableRecord
  2
BLOCK310
340
0
  0
BLOCK_RECORD
  5
2E5
330
1
100
AcDbSymbolTableRecord
100
AcDbBlockTableRecord
  2
BLOCK311
340
0
  0
BLOCK_RECORD
  5
2E6
330
1
100
AcDbSymbolTableRecord
100
AcDbBlockTableRecord
  2
BLOCK312
340
0
  0
BLOCK_RECORD
  5
2E7
330
1
100
AcDbSymbolTableRecord
100
AcDbBlockTableRecord
  2
BLOCK313
340
0
  0
BLOCK_RECORD
  5
2E8
330
1
100
AcDbSymbolTableRecord
100
AcDbBlockTableRecord
  2
BLOCK314
340
0
  0
BLOCK_RECORD
  5
2E9
330
1
100
AcDbSymbolTableRecord
100
AcDbBlockTableRecord
  2
BLOCK315
340
0
  0
BLOCK_RECORD
  5
2EA
330
1
100
AcDbSymbolTableRecord
100
AcDbBlockTableRecord
  2
BLOCK316
340
0
  0
BLOCK_RECORD
  5
2EB
330
1
100
AcDbSymbolTableRecord
100
AcDbBlockTableRecord
  2
BLOCK317
340
0
  0
BLOCK_RECORD
  5
2EC
330
1
100
AcDbSymbolTableRecord
100
AcDbBlockTableRecord
  2
BLOCK318
340
0
  0
BLOCK_RECORD
  5
2ED
330
1
100
AcDbSymbolTableRecord
100
AcDbBlockTableRecord
  2
BLOCK319
340
0
  0
BLOCK_RECORD
  5
2EE
330
1
100
AcDbSymbolTableRecord
100
AcDbBlockTableRecord
  2
BLOCK320
340
0
  0
BLOCK_RECORD
  5
2EF
330
1
100
AcDbSymbolTableRecord
100
AcDbBlockTableRecord
  2
BLOCK321
340
0
  0
BLOCK_RECORD
  5
2F0
330
1
100
AcDbSymbolTableRecord
100
AcDbBlockTableRecord
  2
BLOCK322
340
0
  0
BLOCK_RECORD
  5
2F1
330
1
100
AcDbSymbolTableRecord
100
AcDbBlockTableRecord
  2
BLOCK323
340
0
  0
BLOCK_RECORD
  5
2F2
330
1
100
AcDbSymbolTableRecord
100
AcDbBlockTableRecord
  2
BLOCK324
340
0
  0
BLOCK_RECORD
  5
2F3
330
1
100
AcDbSymbolTableRecord
100
AcDbBlockTableRecord
  2
BLOCK325
340
0
  0
BLOCK_RECORD
  5
2F4
330
1
100
AcDbSymbolTableRecord
100
AcDbBlockTableRecord
  2
BLOCK326
340
0
  0
BLOCK_RECORD
  5
2F5
330
1
100
AcDbSymbolTableRecord
100
AcDbBlockTableRecord
  2
BLOCK327
340
0
  0
BLOCK_RECORD
  5
2F6
330
1
100
AcDbSymbolTableRecord
100
AcDbBlockTableRecord
  2
BLOCK328
340
0
  0
BLOCK_RECORD
  5
2F7
330
1
100
AcDbSymbolTableRecord
100
AcDbBlockTableRecord
  2
BLOCK329
340
0
  0
BLOCK_RECORD
  5
2F8
330
1
100
AcDbSymbolTableRecord
100
AcDbBlockTableRecord
  2
BLOCK330
340
0
  0
BLOCK_RECORD
  5
2F9
330
1
100
AcDbSymbolTableRecord
100
AcDbBlockTableRecord
  2
BLOCK331
340
0
  0
BLOCK_RECORD
  5
2FA
330
1
100
AcDbSymbolTableRecord
100
AcDbBlockTableRecord
  2
BLOCK332
340
0
  0
BLOCK_RECORD
  5
2FB
330
1
100
AcDbSymbolTableRecord
100
AcDbBlockTableRecord
  2
BLOCK333
340
0
  0
BLOCK_RECORD
  5
2FC
330
1
100
AcDbSymbolTableRecord
100
AcDbBlockTableRecord
  2
BLOCK334
340
0
  0
BLOCK_RECORD
  5
2FD
330
1
100
AcDbSymbolTableRecord
100
AcDbBlockTableRecord
  2
BLOCK335
340
0
  0
BLOCK_RECORD
  5
2FE
330
1
100
AcDbSymbolTableRecord
100
AcDbBlockTableRecord
  2
BLOCK336
340
0
  0
BLOCK_RECORD
  5
2FF
330
1
100
AcDbSymbolTableRecord
100
AcDbBlockTableRecord
  2
BLOCK337
340
0
  0
BLOCK_RECORD
  5
300
330
1
100
AcDbSymbolTableRecord
100
AcDbBlockTableRecord
  2
BLOCK338
340
0
  0
BLOCK_RECORD
  5
301
330
1
100
AcDbSymbolTableRecord
100
AcDbBlockTableRecord
  2
BLOCK339
340
0
  0
BLOCK_RECORD
  5
302
330
1
100
AcDbSymbolTableRecord
100
AcDbBlockTableRecord
  2
BLOCK340
340
0
  0
BLOCK_RECORD
  5
303
330
1
100
AcDbSymbolTableRecord
100
AcDbBlockTableRecord
  2
BLOCK341
340
0
  0
BLOCK_RECORD
  5
304
330
1
100
AcDbSymbolTableRecord
100
AcDbBlockTableRecord
  2
BLOCK342
340
0
  0
BLOCK_RECORD
  5
305
330
1
100
AcDbSymbolTableRecord
100
AcDbBlockTableRecord
  2
BLOCK343
340
0
  0
BLOCK_RECORD
  5
306
330
1
100
AcDbSymbolTableRecord
100
AcDbBlockTableRecord
  2
BLOCK344
340
0
  0
BLOCK_RECORD
  5
307
330
1
100
AcDbSymbolTableRecord
100
AcDbBlockTableRecord
  2
BLOCK345
340
0
  0
BLOCK_RECORD
  5
308
330
1
100
AcDbSymbolTableRecord
100
AcDbBlockTableRecord
  2
BLOCK346
340
0
  0
BLOCK_RECORD
  5
309
330
1
100
AcDbSymbolTableRecord
100
AcDbBlockTableRecord
  2
BLOCK347
340
0
  0
BLOCK_RECORD
  5
30A
330
1
100
AcDbSymbolTableRecord
100
AcDbBlockTableRecord
  2
BLOCK348
340
0
  0
BLOCK_RECORD
  5
30B
330
1
100
AcDbSymbolTableRecord
100
AcDbBlockTableRecord
  2
BLOCK349
340
0
  0
BLOCK_RECORD
  5
30C
330
1
100
AcDbSymbolTableRecord
100
AcDbBlockTableRecord
  2
BLOCK350
340
0
  0
BLOCK_RECORD
  5
30D
330
1
100
AcDbSymbolTableRecord
100
AcDbBlockTableRecord
  2
BLOCK351
340
0
  0
BLOCK_RECORD
  5
30E
330
1
100
AcDbSymbolTableRecord
100
AcDbBlockTableRecord
  2
BLOCK352
340
0
  0
BLOCK_RECORD
  5
30F
330
1
100
AcDbSymbolTableRecord
100
AcDbBlockTableRecord
  2
BLOCK353
340
0
  0
BLOCK_RECORD
  5
310
330
1
100
AcDbSymbolTableRecord
100
AcDbBlockTableRecord
  2
BLOCK354
340
0
  0
BLOCK_RECORD
  5
311
330
1
100
AcDbSymbolTableRecord
100
AcDbBlockTableRecord
  2
BLOCK355
340
0
  0
BLOCK_RECORD
  5
312
330
1
100
AcDbSymbolTableRecord
100
AcDbBlockTableRecord
  2
BLOCK356
340
0
  0
BLOCK_RECORD
  5
313
330
1
100
AcDbSymbolTableRecord
100
AcDbBlockTableRecord
  2
BLOCK357
340
0
  0
BLOCK_RECORD
  5
314
330
1
100
AcDbSymbolTableRecord
100
AcDbBlockTableRecord
  2
BLOCK358
340
0
  0
BLOCK_RECORD
  5
315
330
1
100
AcDbSymbolTableRecord
100
AcDbBlockTableRecord
  2
BLOCK359
340
0
  0
BLOCK_RECORD
  5
316
330
1
100
AcDbSymbolTableRecord
100
AcDbBlockTableRecord
  2
BLOCK360
340
0
  0
BLOCK_RECORD
  5
317
330
1
100
AcDbSymbolTableRecord
100
AcDbBlockTableRecord
  2
BLOCK361
340
0
  0
BLOCK_RECORD
  5
318
330
1
100
AcDbSymbolTableRecord
100
AcDbBlockTableRecord
  2
BLOCK362
340
0
  0
BLOCK_RECORD
  5
319
330
1
100
AcDbSymbolTableRecord
100
AcDbBlockTableRecord
  2
BLOCK363
340
0
  0
BLOCK_RECORD
  5
31A
330
1
100
AcDbSymbolTableRecord
100
AcDbBlockTableRecord
  2
BLOCK364
340
0
  0
BLOCK_RECORD
  5
31B
330
1
100
AcDbSymbolTableRecord
100
AcDbBlockTableRecord
  2
BLOCK365
340
0
  0
BLOCK_RECORD
  5
31C
330
1
100
AcDbSymbolTableRecord
100
AcDbBlockTableRecord
  2
BLOCK366
340
0
  0
BLOCK_RECORD
  5
31D
330
1
100
AcDbSymbolTableRecord
100
AcDbBlockTableRecord
  2
BLOCK367
340
0
  0
BLOCK_RECORD
  5
31E
330
1
100
AcDbSymbolTableRecord
100
AcDbBlockTableRecord
  2
BLOCK368
340
0
  0
BLOCK_RECORD
  5
31F
330
1
100
AcDbSymbolTableRecord
100
AcDbBlockTableRecord
  2
BLOCK369
340
0
  0
BLOCK_RECORD
  5
320
330
1
100
AcDbSymbolTableRecord
100
AcDbBlockTableRecord
  2
BLOCK370
340
0
  0
BLOCK_RECORD
  5
321
330
1
100
AcDbSymbolTableRecord
100
AcDbBlockTableRecord
  2
BLOCK371
340
0
  0
BLOCK_RECORD
  5
322
330
1
100
AcDbSymbolTableRecord
100
AcDbBlockTableRecord
  2
BLOCK372
340
0
  0
BLOCK_RECORD
  5
323
330
1
100
AcDbSymbolTableRecord
100
AcDbBlockTableRecord
  2
BLOCK373
340
0
  0
BLOCK_RECORD
  5
324
330
1
100
AcDbSymbolTableRecord
100
AcDbBlockTableRecord
  2
BLOCK374
340
0
  0
BLOCK_RECORD
  5
325
330
1
100
AcDbSymbolTableRecord
100
AcDbBlockTableRecord
  2
BLOCK375
340
0
  0
BLOCK_RECORD
  5
326
330
1
100
AcDbSymbolTableRecord
100
AcDbBlockTableRecord
  2
BLOCK376
340
0
  0
BLOCK_RECORD
  5
327
330
1
100
AcDbSymbolTableRecord
100
AcDbBlockTableRecord
  2
BLOCK377
340
0
  0
BLOCK_RECORD
  5
328
330
1
100
AcDbSymbolTableRecord
100
AcDbBlockTableRecord
  2
BLOCK378
340
0
  0
BLOCK_RECORD
  5
329
330
1
100
AcDbSymbolTableRecord
100
AcDbBlockTableRecord
  2
BLOCK379
340
0
  0
BLOCK_RECORD
  5
32A
330
1
100
AcDbSymbolTableRecord
100
AcDbBlockTableRecord
  2
BLOCK380
340
0
  0
BLOCK_RECORD
  5
32B
330
1
100
AcDbSymbolTableRecord
100
AcDbBlockTableRecord
  2
BLOCK381
340
0
  0
BLOCK_RECORD
  5
32C
330
1
100
AcDbSymbolTableRecord
100
AcDbBlockTableRecord
  2
BLOCK382
340
0
  0
BLOCK_RECORD
  5
32D
330
1
100
AcDbSymbolTableRecord
100
AcDbBlockTableRecord
  2
BLOCK383
340
0
  0
BLOCK_RECORD
  5
32E
330
1
100
AcDbSymbolTableRecord
100
AcDbBlockTableRecord
  2
BLOCK384
340
0
  0
BLOCK_RECORD
  5
32F
330
1
100
AcDbSymbolTableRecord
100
AcDbBlockTableRecord
  2
BLOCK385
340
0
  0
BLOCK_RECORD
  5
330
330
1
100
AcDbSymbolTableRecord
100
AcDbBlockTableRecord
  2
BLOCK386
340
0
  0
BLOCK_RECORD
  5
331
330
1
100
AcDbSymbolTableRecord
100
AcDbBlockTableRecord
  2
BLOCK387
340
0
  0
BLOCK_RECORD
  5
332
330
1
100
AcDbSymbolTableRecord
100
AcDbBlockTableRecord
  2
BLOCK388
340
0
  0
BLOCK_RECORD
  5
333
330
1
100
AcDbSymbolTableRecord
100
AcDbBlockTableRecord
  2
BLOCK389
340
0
  0
BLOCK_RECORD
  5
334
330
1
100
AcDbSymbolTableRecord
100
AcDbBlockTableRecord
  2
BLOCK390
340
0
  0
BLOCK_RECORD
  5
335
330
1
100
AcDbSymbolTableRecord
100
AcDbBlockTableRecord
  2
BLOCK391
340
0
  0
BLOCK_RECORD
  5
336
330
1
100
AcDbSymbolTableRecord
100
AcDbBlockTableRecord
  2
BLOCK392
340
0
  0
BLOCK_RECORD
  5
337
330
1
100
AcDbSymbolTableRecord
100
AcDbBlockTableRecord
  2
BLOCK393
340
0
  0
BLOCK_RECORD
  5
338
330
1
100
AcDbSymbolTableRecord
100
AcDbBlockTableRecord
  2
BLOCK394
340
0
  0
BLOCK_RECORD
  5
339
330
1
100
AcDbSymbolTableRecord
100
AcDbBlockTableRecord
  2
BLOCK395
340
0
  0
BLOCK_RECORD
  5
33A
330
1
100
AcDbSymbolTableRecord
100
AcDbBlockTableRecord
  2
BLOCK396
340
0
  0
BLOCK_RECORD
  5
33B
330
1
100
AcDbSymbolTableRecord
100
AcDbBlockTableRecord
  2
BLOCK397
340
0
  0
BLOCK_RECORD
  5
33C
330
1
100
AcDbSymbolTableRecord
100
AcDbBlockTableRecord
  2
BLOCK398
340
0
  0
BLOCK_RECORD
  5
33D
330
1
100
AcDbSymbolTableRecord
100
AcDbBlockTableRecord
  2
BLOCK399
340
0
  0
BLOCK_RECORD
  5
33E
330
1
100
AcDbSymbolTableRecord
100
AcDbBlockTableRecord
  2
BLOCK400
340
0
  0
BLOCK_RECORD
  5
33F
330
1
100
AcDbSymbolTableRecord
100
AcDbBlockTableRecord
  2
BLOCK401
340
0
  0
BLOCK_RECORD
  5
340
330
1
100
AcDbSymbolTableRecord
100
AcDbBlockTableRecord
  2
BLOCK402
340
0
  0
BLOCK_RECORD
  5
341
330
1
100
AcDbSymbolTableRecord
100
AcDbBlockTableRecord
  2
BLOCK403
340
0
  0
BLOCK_RECORD
  5
342
330
1
100
AcDbSymbolTableRecord
100
AcDbBlockTableRecord
  2
BLOCK404
340
0
  0
BLOCK_RECORD
  5
343
330
1
100
AcDbSymbolTableRecord
100
AcDbBlockTableRecord
  2
BLOCK405
340
0
  0
BLOCK_RECORD
  5
344
330
1
100
AcDbSymbolTableRecord
100
AcDbBlockTableRecord
  2
BLOCK406
340
0
  0
BLOCK_RECORD
  5
345
330
1
100
AcDbSymbolTableRecord
100
AcDbBlockTableRecord
  2
BLOCK407
340
0
  0
BLOCK_RECORD
  5
346
330
1
100
AcDbSymbolTableRecord
100
AcDbBlockTableRecord
  2
BLOCK408
340
0
  0
BLOCK_RECORD
  5
347
330
1
100
AcDbSymbolTableRecord
100
AcDbBlockTableRecord
  2
BLOCK409
340
0
  0
BLOCK_RECORD
  5
348
330
1
100
AcDbSymbolTableRecord
100
AcDbBlockTableRecord
  2
BLOCK410
340
0
  0
BLOCK_RECORD
  5
349
330
1
100
AcDbSymbolTableRecord
100
AcDbBlockTableRecord
  2
BLOCK411
340
0
  0
BLOCK_RECORD
  5
34A
330
1
100
AcDbSymbolTableRecord
100
AcDbBlockTableRecord
  2
BLOCK412
340
0
  0
BLOCK_RECORD
  5
34B
330
1
100
AcDbSymbolTableRecord
100
AcDbBlockTableRecord
  2
BLOCK413
340
0
  0
BLOCK_RECORD
  5
34C
330
1
100
AcDbSymbolTableRecord
100
AcDbBlockTableRecord
  2
BLOCK414
340
0
  0
BLOCK_RECORD
  5
34D
330
1
100
AcDbSymbolTableRecord
100
AcDbBlockTableRecord
  2
BLOCK415
340
0
  0
BLOCK_RECORD
  5
34E
330
1
100
AcDbSymbolTableRecord
100
AcDbBlockTableRecord
  2
BLOCK416
340
0
  0
BLOCK_RECORD
  5
34F
330
1
100
AcDbSymbolTableRecord
100
AcDbBlockTableRecord
  2
BLOCK417
340
0
  0
BLOCK_RECORD
  5
350
330
1
100
AcDbSymbolTableRecord
100
AcDbBlockTableRecord
  2
BLOCK418
340
0
  0
BLOCK_RECORD
  5
351
330
1
100
AcDbSymbolTableRecord
100
AcDbBlockTableRecord
  2
BLOCK419
340
0
  0
BLOCK_RECORD
  5
352
330
1
100
AcDbSymbolTableRecord
100
AcDbBlockTableRecord
  2
BLOCK420
340
0
  0
BLOCK_RECORD
  5
353
330
1
100
AcDbSymbolTableRecord
100
AcDbBlockTableRecord
  2
BLOCK421
340
0
  0
BLOCK_RECORD
  5
354
330
1
100
AcDbSymbolTableRecord
100
AcDbBlockTableRecord
  2
BLOCK422
340
0
  0
BLOCK_RECORD
  5
355
330
1
100
AcDbSymbolTableRecord
100
AcDbBlockTableRecord
  2
BLOCK423
340
0
  0
BLOCK_RECORD
  5
356
330
1
100
AcDbSymbolTableRecord
100
AcDbBlockTableRecord
  2
BLOCK424
340
0
  0
BLOCK_RECORD
  5
357
330
1
100
AcDbSymbolTableRecord
100
AcDbBlockTableRecord
  2
BLOCK425
340
0
  0
BLOCK_RECORD
  5
358
330
1
100
AcDbSymbolTableRecord
100
AcDbBlockTableRecord
  2
BLOCK426
340
0
  0
BLOCK_RECORD
  5
359
330
1
100
AcDbSymbolTableRecord
100
AcDbBlockTableRecord
  2
BLOCK427
340
0
  0
BLOCK_RECORD
  5
35A
330
1
100
AcDbSymbolTableRecord
100
AcDbBlockTableRecord
  2
BLOCK428
340
0
  0
BLOCK_RECORD
  5
35B
330
1
100
AcDbSymbolTableRecord
100
AcDbBlockTableRecord
  2
BLOCK429
340
0
  0
BLOCK_RECORD
  5
35C
330
1
100
AcDbSymbolTableRecord
100
AcDbBlockTableRecord
  2
BLOCK430
340
0
  0
BLOCK_RECORD
  5
35D
330
1
100
AcDbSymbolTableRecord
100
AcDbBlockTableRecord
  2
BLOCK431
340
0
  0
BLOCK_RECORD
  5
35E
330
1
100
AcDbSymbolTableRecord
100
AcDbBlockTableRecord
  2
BLOCK432
340
0
  0
BLOCK_RECORD
  5
35F
330
1
100
AcDbSymbolTableRecord
100
AcDbBlockTableRecord
  2
BLOCK433
340
0
  0
BLOCK_RECORD
  5
360
330
1
100
AcDbSymbolTableRecord
100
AcDbBlockTableRecord
  2
BLOCK434
340
0
  0
BLOCK_RECORD
  5
361
330
1
100
AcDbSymbolTableRecord
100
AcDbBlockTableRecord
  2
BLOCK435
340
0
  0
BLOCK_RECORD
  5
362
330
1
100
AcDbSymbolTableRecord
100
AcDbBlockTableRecord
  2
BLOCK436
340
0
  0
BLOCK_RECORD
  5
363
330
1
100
AcDbSymbolTableRecord
100
AcDbBlockTableRecord
  2
BLOCK437
340
0
  0
BLOCK_RECORD
  5
364
330
1
100
AcDbSymbolTableRecord
100
AcDbBlockTableRecord
  2
BLOCK438
340
0
  0
BLOCK_RECORD
  5
365
330
1
100
AcDbSymbolTableRecord
100
AcDbBlockTableRecord
  2
BLOCK439
340
0
  0
BLOCK_RECORD
  5
366
330
1
100
AcDbSymbolTableRecord
100
AcDbBlockTableRecord
  2
BLOCK440
340
0
  0
BLOCK_RECORD
  5
367
330
1
100
AcDbSymbolTableRecord
100
AcDbBlockTableRecord
  2
BLOCK441
340
0
  0
BLOCK_RECORD
  5
368
330
1
100
AcDbSymbolTableRecord
100
AcDbBlockTableRecord
  2
BLOCK442
340
0
  0
BLOCK_RECORD
  5
369
330
1
100
AcDbSymbolTableRecord
100
AcDbBlockTableRecord
  2
BLOCK443
340
0
  0
BLOCK_RECORD
  5
36A
330
1
100
AcDbSymbolTableRecord
100
AcDbBlockTableRecord
  2
BLOCK444
340
0
  0
BLOCK_RECORD
  5
36B
330
1
100
AcDbSymbolTableRecord
100
AcDbBlockTableRecord
  2
BLOCK445
340
0
  0
BLOCK_RECORD
  5
36C
330
1
100
AcDbSymbolTableRecord
100
AcDbBlockTableRecord
  2
BLOCK446
340
0
  0
BLOCK_RECORD
  5
36D
330
1
100
AcDbSymbolTableRecord
100
AcDbBlockTableRecord
  2
BLOCK447
340
0
  0
BLOCK_RECORD
  5
36E
330
1
100
AcDbSymbolTableRecord
100
AcDbBlockTableRecord
  2
BLOCK448
340
0
  0
BLOCK_RECORD
  5
36F
330
1
100
AcDbSymbolTableRecord
100
AcDbBlockTableRecord
  2
BLOCK449
340
0
  0
BLOCK_RECORD
  5
370
330
1
100
AcDbSymbolTableRecord
100
AcDbBlockTableRecord
  2
BLOCK450
340
0
  0
BLOCK_RECORD
  5
371
330
1
100
AcDbSymbolTableRecord
100
AcDbBlockTableRecord
  2
BLOCK451
340
0
  0
BLOCK_RECORD
  5
372
330
1
100
AcDbSymbolTableRecord
100
AcDbBlockTableRecord
  2
BLOCK452
340
0
  0
BLOCK_RECORD
  5
373
330
1
100
AcDbSymbolTableRecord
100
AcDbBlockTableRecord
  2
BLOCK453
340
0
  0
BLOCK_RECORD
  5
374
330
1
100
AcDbSymbolTableRecord
100
AcDbBlockTableRecord
  2
BLOCK454
340
0
  0
BLOCK_RECORD
  5
375
330
1
100
AcDbSymbolTableRecord
100
AcDbBlockTableRecord
  2
BLOCK455
340
0
  0
BLOCK_RECORD
  5
376
330
1
100
AcDbSymbolTableRecord
100
AcDbBlockTableRecord
  2
BLOCK456
340
0
  0
BLOCK_RECORD
  5
377
330
1
100
AcDbSymbolTableRecord
100
AcDbBlockTableRecord
  2
BLOCK457
340
0
  0
BLOCK_RECORD
  5
378
330
1
100
AcDbSymbolTableRecord
100
AcDbBlockTableRecord
  2
BLOCK458
340
0
  0
BLOCK_RECORD
  5
379
330
1
100
AcDbSymbolTableRecord
100
AcDbBlockTableRecord
  2
BLOCK459
340
0
  0
BLOCK_RECORD
  5
37A
330
1
100
AcDbSymbolTableRecord
100
AcDbBlockTableRecord
  2
BLOCK460
340
0
  0
BLOCK_RECORD
  5
37B
330
1
100
AcDbSymbolTableRecord
100
AcDbBlockTableRecord
  2
BLOCK461
340
0
  0
BLOCK_RECORD
  5
37C
330
1
100
AcDbSymbolTableRecord
100
AcDbBlockTableRecord
  2
BLOCK462
340
0
  0
BLOCK_RECORD
  5
37D
330
1
100
AcDbSymbolTableRecord
100
AcDbBlockTableRecord
  2
BLOCK463
340
0
  0
BLOCK_RECORD
  5
37E
330
1
100
AcDbSymbolTableRecord
100
AcDbBlockTableRecord
  2
BLOCK464
340
0
  0
BLOCK_RECORD
  5
37F
330
1
100
AcDbSymbolTableRecord
100
AcDbBlockTableRecord
  2
BLOCK465
340
0
  0
BLOCK_RECORD
  5
380
330
1
100
AcDbSymbolTableRecord
100
AcDbBlockTableRecord
  2
BLOCK466
340
0
  0
BLOCK_RECORD
  5
381
330
1
100
AcDbSymbolTableRecord
100
AcDbBlockTableRecord
  2
BLOCK467
340
0
  0
BLOCK_RECORD
  5
382
330
1
100
AcDbSymbolTableRecord
100
AcDbBlockTableRecord
  2
BLOCK468
340
0
  0
BLOCK_RECORD
  5
383
330
1
100
AcDbSymbolTableRecord
100
AcDbBlockTableRecord
  2
BLOCK469
340
0
  0
BLOCK_RECORD
  5
384
330
1
100
AcDbSymbolTableRecord
100
AcDbBlockTableRecord
  2
BLOCK470
340
0
  0
BLOCK_RECORD
  5
385
330
1
100
AcDbSymbolTableRecord
100
AcDbBlockTableRecord
  2
BLOCK471
340
0
  0
BLOCK_RECORD
  5
69F
330
1
100
AcDbSymbolTableRecord
100
AcDbBlockTableRecord
  2
*D180
340
0
  0
BLOCK_RECORD
  5
6AB
330
1
100
AcDbSymbolTableRecord
100
AcDbBlockTableRecord
  2
*D181
340
0
  0
BLOCK_RECORD
  5
6B7
330
1
100
AcDbSymbolTableRecord
100
AcDbBlockTableRecord
  2
*D182
340
0
  0
BLOCK_RECORD
  5
6C2
330
1
100
AcDbSymbolTableRecord
100
AcDbBlockTableRecord
  2
*D183
340
0
  0
BLOCK_RECORD
  5
6CD
330
1
100
AcDbSymbolTableRecord
100
AcDbBlockTableRecord
  2
*D184
340
0
  0
BLOCK_RECORD
  5
6D8
330
1
100
AcDbSymbolTableRecord
100
AcDbBlockTableRecord
  2
*D185
340
0
  0
BLOCK_RECORD
  5
6E3
330
1
100
AcDbSymbolTableRecord
100
AcDbBlockTableRecord
  2
*D186
340
0
  0
BLOCK_RECORD
  5
6EE
330
1
100
AcDbSymbolTableRecord
100
AcDbBlockTableRecord
  2
*D187
340
0
  0
BLOCK_RECORD
  5
6F9
330
1
100
AcDbSymbolTableRecord
100
AcDbBlockTableRecord
  2
*D188
340
0
  0
BLOCK_RECORD
  5
704
330
1
100
AcDbSymbolTableRecord
100
AcDbBlockTableRecord
  2
*D189
340
0
  0
BLOCK_RECORD
  5
70F
330
1
100
AcDbSymbolTableRecord
100
AcDbBlockTableRecord
  2
*D190
340
0
  0
BLOCK_RECORD
  5
71B
330
1
100
AcDbSymbolTableRecord
100
AcDbBlockTableRecord
  2
*D191
340
0
  0
BLOCK_RECORD
  5
726
330
1
100
AcDbSymbolTableRecord
100
AcDbBlockTableRecord
  2
*D192
340
0
  0
BLOCK_RECORD
  5
731
330
1
100
AcDbSymbolTableRecord
100
AcDbBlockTableRecord
  2
*D193
340
0
  0
BLOCK_RECORD
  5
73C
330
1
100
AcDbSymbolTableRecord
100
AcDbBlockTableRecord
  2
*D194
340
0
  0
BLOCK_RECORD
  5
747
330
1
100
AcDbSymbolTableRecord
100
AcDbBlockTableRecord
  2
*D195
340
0
  0
BLOCK_RECORD
  5
753
330
1
100
AcDbSymbolTableRecord
100
AcDbBlockTableRecord
  2
*D196
340
0
  0
BLOCK_RECORD
  5
75E
330
1
100
AcDbSymbolTableRecord
100
AcDbBlockTableRecord
  2
*D197
340
0
  0
BLOCK_RECORD
  5
769
330
1
100
AcDbSymbolTableRecord
100
AcDbBlockTableRecord
  2
*D198
340
0
  0
BLOCK_RECORD
  5
774
330
1
100
AcDbSymbolTableRecord
100
AcDbBlockTableRecord
  2
*D199
340
0
  0
ENDTAB
  0
ENDSEC
  0
SECTION
  2
BLOCKS
  0
BLOCK
  5
20
330
1F
100
AcDbEntity
  8
0
100
AcDbBlockBegin
  2
*Model_Space
 70
     0
 10
0.0
 20
0.0
 30
0.0
  3
*Model_Space
  1

  0
ENDBLK
  5
21
330
1F
100
AcDbEntity
  8
0
100
AcDbBlockEnd
  0
BLOCK
  5
75
330
73
100
AcDbEntity
 67
     1
  8
0
100
AcDbBlockBegin
  2
*Paper_Space
 70
     0
 10
0.0
 20
0.0
 30
0.0
  3
*Paper_Space
  1

  0
ENDBLK
  5
76
330
73
100
AcDbEntity
 67
     1
  8
0
100
AcDbBlockEnd
  0
BLOCK
  5
77A
330
2D2
100
AcDbEntity
  8
0
100
AcDbBlockBegin
  2
BLOCK292
 70
     0
 10
0.0
 20
0.0
 30
0.0
  3
BLOCK292
  1

  0
TEXT
  5
387
330
2D2
100
AcDbEntity
  8
0
 62
     7
370
    13
390
F
100
AcDbText
 10
120.173958
 20
-94.826721
 30
0.0
 40
3.0
  1
155
 41
1.466663238095239
 72
     5
 11
127.87394
 21
-94.826721
 31
0.0
100
AcDbText
  0
ENDBLK
  5
77B
330
2D2
100
AcDbEntity
  8
0
100
AcDbBlockEnd
  0
BLOCK
  5
77C
330
2D3
100
AcDbEntity
  8
0
100
AcDbBlockBegin
  2
BLOCK293
 70
     0
 10
0.0
 20
0.0
 30
0.0
  3
BLOCK293
  1

  0
TEXT
  5
38A
330
2D3
100
AcDbEntity
  8
0
 62
     7
370
    13
390
F
100
AcDbText
 10
301.783997
 20
-94.826721
 30
0.0
 40
3.0
  1
L
 41
1.333340606060615
 72
     5
 11
303.984009
 21
-94.826721
 31
0.0
100
AcDbText
  0
ENDBLK
  5
77D
330
2D3
100
AcDbEntity
  8
0
100
AcDbBlockEnd
  0
BLOCK
  5
77E
330
2D4
100
AcDbEntity
  8
0
100
AcDbBlockBegin
  2
BLOCK294
 70
     0
 10
0.0
 20
0.0
 30
0.0
  3
BLOCK294
  1

  0
TEXT
  5
38D
330
2D4
100
AcDbEntity
  8
0
 62
     7
370
    13
390
F
100
AcDbText
 10
301.783966
 20
-129.518799
 30
0.0
 40
3.0
  1
L1
 41
1.57142285714285
 72
     5
 11
306.733948
 21
-129.518799
 31
0.0
100
AcDbText
  0
ENDBLK
  5
77F
330
2D4
100
AcDbEntity
  8
0
100
AcDbBlockEnd
  0
BLOCK
  5
780
330
2D5
100
AcDbEntity
  8
0
100
AcDbBlockBegin
  2
BLOCK295
 70
     0
 10
0.0
 20
0.0
 30
0.0
  3
BLOCK295
  1

  0
TEXT
  5
390
330
2D5
100
AcDbEntity
  8
0
 62
     7
370
    13
390
F
100
AcDbText
 10
139.061829
 20
-177.860535
 30
0.0
 40
5.0
  1
CODICE
 41
1.506597350649351
 72
     5
 11
168.063828
 21
-177.860535
 31
0.0
100
AcDbText
  0
ENDBLK
  5
781
330
2D5
100
AcDbEntity
  8
0
100
AcDbBlockEnd
  0
BLOCK
  5
782
330
2D6
100
AcDbEntity
  8
0
100
AcDbBlockBegin
  2
BLOCK296
 70
     0
 10
0.0
 20
0.0
 30
0.0
  3
BLOCK296
  1

  0
TEXT
  5
393
330
2D6
100
AcDbEntity
  8
0
 62
     7
370
    13
390
F
100
AcDbText
 10
213.828049
 20
-177.860535
 30
0.0
 40
5.0
  1
POTENZA
 41
1.247792073394496
 72
     5
 11
247.830383
 21
-177.860535
 31
0.0
100
AcDbText
  0
ENDBLK
  5
783
330
2D6
100
AcDbEntity
  8
0
100
AcDbBlockEnd
  0
BLOCK
  5
784
330
2D7
100
AcDbEntity
  8
0
100
AcDbBlockBegin
  2
BLOCK297
 70
     0
 10
0.0
 20
0.0
 30
0.0
  3
BLOCK297
  1

  0
TEXT
  5
396
330
2D7
100
AcDbEntity
  8
0
 62
     7
370
    13
390
F
100
AcDbText
 10
282.748169
 20
-178.575089
 30
0.0
 40
5.0
  1
L
 41
1.454667636363638
 72
     5
 11
286.748505
 21
-178.575089
 31
0.0
100
AcDbText
  0
ENDBLK
  5
785
330
2D7
100
AcDbEntity
  8
0
100
AcDbBlockEnd
  0
BLOCK
  5
786
330
2D8
100
AcDbEntity
  8
0
100
AcDbBlockBegin
  2
BLOCK298
 70
     0
 10
0.0
 20
0.0
 30
0.0
  3
BLOCK298
  1

  0
TEXT
  5
399
330
2D8
100
AcDbEntity
  8
0
 62
     7
370
    13
390
F
100
AcDbText
 10
312.901245
 20
-178.196289
 30
0.0
 40
5.0
  1
L1
 41
1.714413714285716
 72
     5
 11
321.901917
 21
-178.196289
 31
0.0
100
AcDbText
  0
ENDBLK
  5
787
330
2D8
100
AcDbEntity
  8
0
100
AcDbBlockEnd
  0
BLOCK
  5
788
330
2D9
100
AcDbEntity
  8
0
100
AcDbBlockBegin
  2
BLOCK299
 70
     0
 10
0.0
 20
0.0
 30
0.0
  3
BLOCK299
  1

  0
TEXT
  5
39C
330
2D9
100
AcDbEntity
  8
0
 62
     7
370
    13
390
F
100
AcDbText
 10
131.751801
 20
-210.298492
 30
0.0
 40
5.0
  1
5631.544.3
 41
1.619944661157024
 72
     5
 11
180.755127
 21
-210.298492
 31
0.0
100
AcDbText
  0
ENDBLK
  5
789
330
2D9
100
AcDbEntity
  8
0
100
AcDbBlockEnd
  0
BLOCK
  5
78A
330
2DA
100
AcDbEntity
  8
0
100
AcDbBlockBegin
  2
BLOCK300
 70
     0
 10
0.0
 20
0.0
 30
0.0
  3
BLOCK300
  1

  0
TEXT
  5
39F
330
2DA
100
AcDbEntity
  8
0
 62
     7
370
    13
390
F
100
AcDbText
 10
216.968948
 20
-210.616272
 30
0.0
 40
5.0
  1
1X58 W
 41
1.397770901861557
 72
     5
 11
245.970947
 21
-210.616272
 31
0.0
100
AcDbText
  0
ENDBLK
  5
78B
330
2DA
100
AcDbEntity
  8
0
100
AcDbBlockEnd
  0
BLOCK
  5
78C
330
2DB
100
AcDbEntity
  8
0
100
AcDbBlockBegin
  2
BLOCK301
 70
     0
 10
0.0
 20
0.0
 30
0.0
  3
BLOCK301
  1

  0
TEXT
  5
3A2
330
2DB
100
AcDbEntity
  8
0
 62
     7
370
    13
390
F
100
AcDbText
 10
275.551208
 20
-209.637177
 30
0.0
 40
5.0
  1
1100
 41
1.688417394437644
 72
     5
 11
294.552551
 21
-209.637177
 31
0.0
100
AcDbText
  0
ENDBLK
  5
78D
330
2DB
100
AcDbEntity
  8
0
100
AcDbBlockEnd
  0
BLOCK
  5
78E
330
2DC
100
AcDbEntity
  8
0
100
AcDbBlockBegin
  2
BLOCK302
 70
     0
 10
0.0
 20
0.0
 30
0.0
  3
BLOCK302
  1

  0
TEXT
  5
3A5
330
2DC
100
AcDbEntity
  8
0
 62
     7
370
    13
390
F
100
AcDbText
 10
513.823608
 20
-231.385651
 30
0.0
 40
5.0
  1
C
 41
1.454656727272694
 72
     5
 11
517.823914
 21
-231.385651
 31
0.0
100
AcDbText
  0
ENDBLK
  5
78F
330
2DC
100
AcDbEntity
  8
0
100
AcDbBlockEnd
  0
BLOCK
  5
790
330
2DD
100
AcDbEntity
  8
0
100
AcDbBlockBegin
  2
BLOCK303
 70
     0
 10
0.0
 20
0.0
 30
0.0
  3
BLOCK303
  1

  0
TEXT
  5
3A8
330
2DD
100
AcDbEntity
  8
0
 62
     7
370
    13
390
F
100
AcDbText
 10
255.812347
 20
-27.805845
 30
0.0
 40
3.0
  1
 25
 41
1.25202959349594
 72
     5
 11
263.512329
 21
-27.805845
 31
0.0
100
AcDbText
  0
ENDBLK
  5
791
330
2DD
100
AcDbEntity
  8
0
100
AcDbBlockEnd
  0
BLOCK
  5
792
330
2DE
100
AcDbEntity
  8
0
100
AcDbBlockBegin
  2
BLOCK304
 70
     0
 10
0.0
 20
0.0
 30
0.0
  3
BLOCK304
  1

  0
TEXT
  5
3AB
330
2DE
100
AcDbEntity
  8
0
 62
     7
370
    13
390
F
100
AcDbText
 10
255.812347
 20
-27.805845
 30
0.0
 40
3.0
  1
R
 41
1.128211794871801
 72
     5
 11
258.01236
 21
-27.805845
 31
0.0
100
AcDbText
  0
ENDBLK
  5
793
330
2DE
100
AcDbEntity
  8
0
100
AcDbBlockEnd
  0
BLOCK
  5
794
330
2DF
100
AcDbEntity
  8
0
100
AcDbBlockBegin
  2
BLOCK305
 70
     0
 10
0.0
 20
0.0
 30
0.0
  3
BLOCK305
  1

  0
TEXT
  5
3AE
330
2DF
100
AcDbEntity
  8
0
 62
     7
370
    13
390
F
100
AcDbText
 10
478.048462
 20
-30.920752
 30
0.0
 40
3.0
  1
 25
 41
1.25202959349594
 72
     5
 11
485.748444
 21
-30.920752
 31
0.0
100
AcDbText
  0
ENDBLK
  5
795
330
2DF
100
AcDbEntity
  8
0
100
AcDbBlockEnd
  0
BLOCK
  5
796
330
2E0
100
AcDbEntity
  8
0
100
AcDbBlockBegin
  2
BLOCK306
 70
     0
 10
0.0
 20
0.0
 30
0.0
  3
BLOCK306
  1

  0
TEXT
  5
3B1
330
2E0
100
AcDbEntity
  8
0
 62
     7
370
    13
390
F
100
AcDbText
 10
478.048462
 20
-30.920752
 30
0.0
 40
3.0
  1
R
 41
1.12821128205129
 72
     5
 11
480.248474
 21
-30.920752
 31
0.0
100
AcDbText
  0
ENDBLK
  5
797
330
2E0
100
AcDbEntity
  8
0
100
AcDbBlockEnd
  0
BLOCK
  5
798
330
2E1
100
AcDbEntity
  8
0
100
AcDbBlockBegin
  2
BLOCK307
 70
     0
 10
0.0
 20
0.0
 30
0.0
  3
BLOCK307
  1

  0
TEXT
  5
3B4
330
2E1
100
AcDbEntity
  8
0
 62
     7
370
    13
390
F
100
AcDbText
 10
628.441101
 20
-268.004272
 30
0.0
 40
1.899
  1
FIRMA
 41
1.281695934549845
 72
     5
 11
636.838196
 21
-268.004272
 31
0.0
100
AcDbText
  0
ENDBLK
  5
799
330
2E1
100
AcDbEntity
  8
0
100
AcDbBlockEnd
  0
BLOCK
  5
79A
330
2E2
100
AcDbEntity
  8
0
100
AcDbBlockBegin
  2
BLOCK308
 70
     0
 10
0.0
 20
0.0
 30
0.0
  3
BLOCK308
  1

  0
TEXT
  5
3B7
330
2E2
100
AcDbEntity
  8
0
 62
     7
370
    13
390
F
100
AcDbText
 10
477.920105
 20
-240.283707
 30
0.0
 40
2.0
  1
TOLLERANZE GENERALI
 41
1.2625110989011
 72
     5
 11
512.386658
 21
-240.283707
 31
0.0
100
AcDbText
  0
ENDBLK
  5
79B
330
2E2
100
AcDbEntity
  8
0
100
AcDbBlockEnd
  0
BLOCK
  5
79C
330
2E3
100
AcDbEntity
  8
0
100
AcDbBlockBegin
  2
BLOCK309
 70
     0
 10
0.0
 20
0.0
 30
0.0
  3
BLOCK309
  1

  0
TEXT
  5
3BA
330
2E3
100
AcDbEntity
  8
0
 62
     7
370
    13
390
F
100
AcDbText
 10
469.85437
 20
-244.005997
 30
0.0
 40
2.0
  1
quote indicate in millimetri
 41
1.649401035598706
 72
     5
 11
520.820862
 21
-244.005997
 31
0.0
100
AcDbText
  0
ENDBLK
  5
79D
330
2E3
100
AcDbEntity
  8
0
100
AcDbBlockEnd
  0
BLOCK
  5
79E
330
2E4
100
AcDbEntity
  8
0
100
AcDbBlockBegin
  2
BLOCK310
 70
     0
 10
0.0
 20
0.0
 30
0.0
  3
BLOCK310
  1

  0
TEXT
  5
3BD
330
2E4
100
AcDbEntity
  8
0
 62
     7
370
    13
390
F
100
AcDbText
 10
461.122498
 20
-248.575943
 30
0.0
 40
2.0
  1
OLTRE
 41
1.205477671232875
 72
     5
 11
469.922485
 21
-248.575943
 31
0.0
100
AcDbText
  0
ENDBLK
  5
79F
330
2E4
100
AcDbEntity
  8
0
100
AcDbBlockEnd
  0
BLOCK
  5
7A0
330
2E5
100
AcDbEntity
  8
0
100
AcDbBlockBegin
  2
BLOCK311
 70
     0
 10
0.0
 20
0.0
 30
0.0
  3
BLOCK311
  1

  0
TEXT
  5
3C0
330
2E5
100
AcDbEntity
  8
0
 62
     7
370
    13
390
F
100
AcDbText
 10
461.818054
 20
-252.851074
 30
0.0
 40
2.0
  1
FINO
 41
1.421764081632648
 72
     5
 11
468.784698
 21
-252.851074
 31
0.0
100
AcDbText
  0
ENDBLK
  5
7A1
330
2E5
100
AcDbEntity
  8
0
100
AcDbBlockEnd
  0
BLOCK
  5
7A2
330
2E6
100
AcDbEntity
  8
0
100
AcDbBlockBegin
  2
BLOCK312
 70
     0
 10
0.0
 20
0.0
 30
0.0
  3
BLOCK312
  1

  0
TEXT
  5
3C3
330
2E6
100
AcDbEntity
  8
0
 62
     7
370
    13
390
F
100
AcDbText
 10
461.996643
 20
-272.272125
 30
0.0
 40
2.0
  1
DENOMINAZIONE
 41
1.268463945945947
 72
     5
 11
485.463226
 21
-272.272125
 31
0.0
100
AcDbText
  0
ENDBLK
  5
7A3
330
2E6
100
AcDbEntity
  8
0
100
AcDbBlockEnd
  0
BLOCK
  5
7A4
330
2E7
100
AcDbEntity
  8
0
100
AcDbBlockBegin
  2
BLOCK313
 70
     0
 10
0.0
 20
0.0
 30
0.0
  3
BLOCK313
  1

  0
TEXT
  5
3C6
330
2E7
100
AcDbEntity
  8
0
 62
     7
370
    13
390
F
100
AcDbText
 10
511.041321
 20
-288.196259
 30
0.0
 40
2.0
  1
MATERIALE
 41
1.23154969465649
 72
     5
 11
527.174622
 21
-288.196259
 31
0.0
100
AcDbText
  0
ENDBLK
  5
7A5
330
2E7
100
AcDbEntity
  8
0
100
AcDbBlockEnd
  0
BLOCK
  5
7A6
330
2E8
100
AcDbEntity
  8
0
100
AcDbBlockBegin
  2
BLOCK314
 70
     0
 10
0.0
 20
0.0
 30
0.0
  3
BLOCK314
  1

  0
TEXT
  5
3C9
330
2E8
100
AcDbEntity
  8
0
 62
     7
370
    13
390
F
100
AcDbText
 10
511.237335
 20
-301.005341
 30
0.0
 40
2.0
  1
FINITURA
 41
1.361900666666667
 72
     5
 11
525.537292
 21
-301.005341
 31
0.0
100
AcDbText
  0
ENDBLK
  5
7A7
330
2E8
100
AcDbEntity
  8
0
100
AcDbBlockEnd
  0
BLOCK
  5
7A8
330
2E9
100
AcDbEntity
  8
0
100
AcDbBlockBegin
  2
BLOCK315
 70
     0
 10
0.0
 20
0.0
 30
0.0
  3
BLOCK315
  1

  0
TEXT
  5
3CC
330
2E9
100
AcDbEntity
  8
0
 62
     7
370
    13
390
F
100
AcDbText
 10
536.035461
 20
-267.66922
 30
0.0
 40
2.0
  1
IND.
 41
1.699189024390218
 72
     5
 11
543.002136
 21
-267.66922
 31
0.0
100
AcDbText
  0
ENDBLK
  5
7A9
330
2E9
100
AcDbEntity
  8
0
100
AcDbBlockEnd
  0
BLOCK
  5
7AA
330
2EA
100
AcDbEntity
  8
0
100
AcDbBlockBegin
  2
BLOCK316
 70
     0
 10
0.0
 20
0.0
 30
0.0
  3
BLOCK316
  1

  0
TEXT
  5
3CF
330
2EA
100
AcDbEntity
  8
0
 62
     7
370
    13
390
F
100
AcDbText
 10
544.171875
 20
-267.715729
 30
0.0
 40
2.0
  1
RIF.
 41
1.786326923076925
 72
     5
 11
551.13855
 21
-267.715729
 31
0.0
100
AcDbText
  0
ENDBLK
  5
7AB
330
2EA
100
AcDbEntity
  8
0
100
AcDbBlockEnd
  0
BLOCK
  5
7AC
330
2EB
100
AcDbEntity
  8
0
100
AcDbBlockBegin
  2
BLOCK317
 70
     0
 10
0.0
 20
0.0
 30
0.0
  3
BLOCK317
  1

  0
TEXT
  5
3D2
330
2EB
100
AcDbEntity
  8
0
 62
     7
370
    13
390
F
100
AcDbText
 10
567.464844
 20
-267.599457
 30
0.0
 40
2.0
  1
DESCRIZIONE
 41
1.346933809523811
 72
     5
 11
587.264771
 21
-267.599457
 31
0.0
100
AcDbText
  0
ENDBLK
  5
7AD
330
2EB
100
AcDbEntity
  8
0
100
AcDbBlockEnd
  0
BLOCK
  5
7AE
330
2EC
100
AcDbEntity
  8
0
100
AcDbBlockBegin
  2
BLOCK318
 70
     0
 10
0.0
 20
0.0
 30
0.0
  3
BLOCK318
  1

  0
TEXT
  5
3D5
330
2EC
100
AcDbEntity
  8
0
 62
     7
370
    13
390
F
100
AcDbText
 10
611.239319
 20
-267.645966
 30
0.0
 40
2.0
  1
DATA
 41
1.071796153846155
 72
     5
 11
618.205994
 21
-267.645966
 31
0.0
100
AcDbText
  0
ENDBLK
  5
7AF
330
2EC
100
AcDbEntity
  8
0
100
AcDbBlockEnd
  0
BLOCK
  5
7B0
330
2ED
100
AcDbEntity
  8
0
100
AcDbBlockBegin
  2
BLOCK319
 70
     0
 10
0.0
 20
0.0
 30
0.0
  3
BLOCK319
  1

  0
TEXT
  5
3D8
330
2ED
100
AcDbEntity
  8
0
 62
     7
370
    13
390
F
100
AcDbText
 10
579.799438
 20
-272.527832
 30
0.0
 40
2.0
  1
SCALA
 41
1.142855584415582
 72
     5
 11
588.599426
 21
-272.527832
 31
0.0
100
AcDbText
  0
ENDBLK
  5
7B1
330
2ED
100
AcDbEntity
  8
0
100
AcDbBlockEnd
  0
BLOCK
  5
7B2
330
2EE
100
AcDbEntity
  8
0
100
AcDbBlockBegin
  2
BLOCK320
 70
     0
 10
0.0
 20
0.0
 30
0.0
  3
BLOCK320
  1

  0
TEXT
  5
3DB
330
2EE
100
AcDbEntity
  8
0
 62
     7
370
    13
390
F
100
AcDbText
 10
460.481903
 20
-234.351974
 30
0.0
 40
2.0
  1
TOLLERANZE GENERALI GRUPPO..........
 41
1.501902700228833
 72
     5
 11
526.115051
 21
-234.351974
 31
0.0
100
AcDbText
  0
ENDBLK
  5
7B3
330
2EE
100
AcDbEntity
  8
0
100
AcDbBlockEnd
  0
BLOCK
  5
7B4
330
2EF
100
AcDbEntity
  8
0
100
AcDbBlockBegin
  2
BLOCK321
 70
     0
 10
0.0
 20
0.0
 30
0.0
  3
BLOCK321
  1

  0
TEXT
  5
3DE
330
2EF
100
AcDbEntity
  8
0
 62
     7
370
    13
390
F
100
AcDbText
 10
534.538025
 20
-264.015808
 30
0.0
 40
2.5
  1
MODIFICHE
 50
90.0
 41
1.378912478632479
 72
     5
 11
534.538025
 21
-243.849213
 31
0.0
100
AcDbText
  0
ENDBLK
  5
7B5
330
2EF
100
AcDbEntity
  8
0
100
AcDbBlockEnd
  0
BLOCK
  5
7B6
330
2F0
100
AcDbEntity
  8
0
100
AcDbBlockBegin
  2
BLOCK322
 70
     0
 10
0.0
 20
0.0
 30
0.0
  3
BLOCK322
  1

  0
TEXT
  5
3E1
330
2F0
100
AcDbEntity
  8
0
 62
     7
370
    13
390
F
100
AcDbText
 10
463.805359
 20
-257.989227
 30
0.0
 40
2.5
  1
A
 41
0.9777829333333405
 72
     5
 11
465.638702
 21
-257.989227
 31
0.0
100
AcDbText
  0
ENDBLK
  5
7B7
330
2F0
100
AcDbEntity
  8
0
100
AcDbBlockEnd
  0
BLOCK
  5
7B8
330
2F1
100
AcDbEntity
  8
0
100
AcDbBlockBegin
  2
BLOCK323
 70
     0
 10
0.0
 20
0.0
 30
0.0
  3
BLOCK323
  1

  0
TEXT
  5
3E4
330
2F1
100
AcDbEntity
  8
0
 62
     7
370
    13
390
F
100
AcDbText
 10
463.924438
 20
-262.572784
 30
0.0
 40
2.5
  1
B
 41
1.128211692307699
 72
     5
 11
465.757782
 21
-262.572784
 31
0.0
100
AcDbText
  0
ENDBLK
  5
7B9
330
2F1
100
AcDbEntity
  8
0
100
AcDbBlockEnd
  0
BLOCK
  5
7BA
330
2F2
100
AcDbEntity
  8
0
100
AcDbBlockBegin
  2
BLOCK324
 70
     0
 10
0.0
 20
0.0
 30
0.0
  3
BLOCK324
  1

  0
TEXT
  5
3E7
330
2F2
100
AcDbEntity
  8
0
 62
     7
370
    13
390
F
100
AcDbText
 10
463.924438
 20
-267.751617
 30
0.0
 40
2.5
  1
C
 41
1.333341090909099
 72
     5
 11
465.757782
 21
-267.751617
 31
0.0
100
AcDbText
  0
ENDBLK
  5
7BB
330
2F2
100
AcDbEntity
  8
0
100
AcDbBlockEnd
  0
BLOCK
  5
7BC
330
2F3
100
AcDbEntity
  8
0
100
AcDbBlockBegin
  2
BLOCK325
 70
     0
 10
0.0
 20
0.0
 30
0.0
  3
BLOCK325
  1

  0
TEXT
  5
3EA
330
2F3
100
AcDbEntity
  8
0
 62
     7
370
    13
390
F
100
AcDbText
 10
579.724976
 20
-288.915436
 30
0.0
 40
2.5
  1
CODICE
 41
1.380948155844163
 72
     5
 11
593.016602
 21
-288.915436
 31
0.0
100
AcDbText
  0
ENDBLK
  5
7BD
330
2F3
100
AcDbEntity
  8
0
100
AcDbBlockEnd
  0
BLOCK
  5
7BE
330
2F4
100
AcDbEntity
  8
0
100
AcDbBlockBegin
  2
BLOCK326
 70
     0
 10
0.0
 20
0.0
 30
0.0
  3
BLOCK326
  1

  0
TEXT
  5
3ED
330
2F4
100
AcDbEntity
  8
0
 62
     7
370
    13
390
F
100
AcDbText
 10
494.655334
 20
-296.967377
 30
0.0
 40
2.0
  1
s p a
 41
1.598544595821988
 72
     5
 11
503.455322
 21
-296.967377
 31
0.0
100
AcDbText
  0
ENDBLK
  5
7BF
330
2F4
100
AcDbEntity
  8
0
100
AcDbBlockEnd
  0
BLOCK
  5
7C0
330
2F5
100
AcDbEntity
  8
0
100
AcDbBlockBegin
  2
BLOCK327
 70
     0
 10
0.0
 20
0.0
 30
0.0
  3
BLOCK327
  1

  0
TEXT
  5
3F0
330
2F5
100
AcDbEntity
  8
0
 62
     7
370
    13
390
F
100
AcDbText
 10
467.434357
 20
-302.729584
 30
0.0
 40
1.5
  1
24069 Cenate Sotto/Bergamo
 41
1.347305682924999
 72
     5
 11
502.909241
 21
-302.729584
 31
0.0
100
AcDbText
  0
ENDBLK
  5
7C1
330
2F5
100
AcDbEntity
  8
0
100
AcDbBlockEnd
  0
BLOCK
  5
7C2
330
2F6
100
AcDbEntity
  8
0
100
AcDbBlockBegin
  2
BLOCK328
 70
     0
 10
0.0
 20
0.0
 30
0.0
  3
BLOCK328
  1

  0
TEXT
  5
3F3
330
2F6
100
AcDbEntity
  8
0
 62
     7
370
    13
390
F
100
AcDbText
 10
471.118225
 20
-257.560638
 30
0.0
 40
2.0
  1
+
 41
1.333340909090917
 72
     5
 11
472.5849
 21
-257.560638
 31
0.0
100
AcDbText
  0
ENDBLK
  5
7C3
330
2F6
100
AcDbEntity
  8
0
100
AcDbBlockEnd
  0
BLOCK
  5
7C4
330
2F7
100
AcDbEntity
  8
0
100
AcDbBlockBegin
  2
BLOCK329
 70
     0
 10
0.0
 20
0.0
 30
0.0
  3
BLOCK329
  1

  0
TEXT
  5
3F6
330
2F7
100
AcDbEntity
  8
0
 62
     7
370
    13
390
F
100
AcDbText
 10
471.118225
 20
-258.572601
 30
0.0
 40
2.0
  1
-
 41
1.333340909090917
 72
     5
 11
472.5849
 21
-258.572601
 31
0.0
100
AcDbText
  0
ENDBLK
  5
7C5
330
2F7
100
AcDbEntity
  8
0
100
AcDbBlockEnd
  0
BLOCK
  5
7C6
330
2F8
100
AcDbEntity
  8
0
100
AcDbBlockBegin
  2
BLOCK330
 70
     0
 10
0.0
 20
0.0
 30
0.0
  3
BLOCK330
  1

  0
TEXT
  5
3F9
330
2F8
100
AcDbEntity
  8
0
 62
     7
370
    13
390
F
100
AcDbText
 10
472.892273
 20
-257.858276
 30
0.0
 40
2.0
  1
0,05
 41
1.514487826086963
 72
     5
 11
479.858917
 21
-257.858276
 31
0.0
100
AcDbText
  0
ENDBLK
  5
7C7
330
2F8
100
AcDbEntity
  8
0
100
AcDbBlockEnd
  0
BLOCK
  5
7C8
330
2F9
100
AcDbEntity
  8
0
100
AcDbBlockBegin
  2
BLOCK331
 70
     0
 10
0.0
 20
0.0
 30
0.0
  3
BLOCK331
  1

  0
TEXT
  5
3FC
330
2F9
100
AcDbEntity
  8
0
 62
     7
370
    13
390
F
100
AcDbText
 10
473.808929
 20
-262.858276
 30
0.0
 40
2.0
  1
0,1
 41
1.833332857142856
 72
     5
 11
478.942261
 21
-262.858276
 31
0.0
100
AcDbText
  0
ENDBLK
  5
7C9
330
2F9
100
AcDbEntity
  8
0
100
AcDbBlockEnd
  0
BLOCK
  5
7CA
330
2FA
100
AcDbEntity
  8
0
100
AcDbBlockBegin
  2
BLOCK332
 70
     0
 10
0.0
 20
0.0
 30
0.0
  3
BLOCK332
  1

  0
TEXT
  5
3FF
330
2FA
100
AcDbEntity
  8
0
 62
     7
370
    13
390
F
100
AcDbText
 10
471.118225
 20
-262.560638
 30
0.0
 40
2.0
  1
+
 41
1.333340909090917
 72
     5
 11
472.5849
 21
-262.560638
 31
0.0
100
AcDbText
  0
ENDBLK
  5
7CB
330
2FA
100
AcDbEntity
  8
0
100
AcDbBlockEnd
  0
BLOCK
  5
7CC
330
2FB
100
AcDbEntity
  8
0
100
AcDbBlockBegin
  2
BLOCK333
 70
     0
 10
0.0
 20
0.0
 30
0.0
  3
BLOCK333
  1

  0
TEXT
  5
402
330
2FB
100
AcDbEntity
  8
0
 62
     7
370
    13
390
F
100
AcDbText
 10
471.118225
 20
-262.560638
 30
0.0
 40
2.0
  1
+
 41
1.333340909090917
 72
     5
 11
472.5849
 21
-262.560638
 31
0.0
100
AcDbText
  0
ENDBLK
  5
7CD
330
2FB
100
AcDbEntity
  8
0
100
AcDbBlockEnd
  0
BLOCK
  5
7CE
330
2FC
100
AcDbEntity
  8
0
100
AcDbBlockBegin
  2
BLOCK334
 70
     0
 10
0.0
 20
0.0
 30
0.0
  3
BLOCK334
  1

  0
TEXT
  5
405
330
2FC
100
AcDbEntity
  8
0
 62
     7
370
    13
390
F
100
AcDbText
 10
471.118225
 20
-262.560638
 30
0.0
 40
2.0
  1
+
 41
1.333340909090917
 72
     5
 11
472.5849
 21
-262.560638
 31
0.0
100
AcDbText
  0
ENDBLK
  5
7CF
330
2FC
100
AcDbEntity
  8
0
100
AcDbBlockEnd
  0
BLOCK
  5
7D0
330
2FD
100
AcDbEntity
  8
0
100
AcDbBlockBegin
  2
BLOCK335
 70
     0
 10
0.0
 20
0.0
 30
0.0
  3
BLOCK335
  1

  0
TEXT
  5
408
330
2FD
100
AcDbEntity
  8
0
 62
     7
370
    13
390
F
100
AcDbText
 10
473.808929
 20
-267.858246
 30
0.0
 40
2.0
  1
0,2
 41
1.603944581289892
 72
     5
 11
478.942261
 21
-267.858246
 31
0.0
100
AcDbText
  0
ENDBLK
  5
7D1
330
2FD
100
AcDbEntity
  8
0
100
AcDbBlockEnd
  0
BLOCK
  5
7D2
330
2FE
100
AcDbEntity
  8
0
100
AcDbBlockBegin
  2
BLOCK336
 70
     0
 10
0.0
 20
0.0
 30
0.0
  3
BLOCK336
  1

  0
TEXT
  5
40B
330
2FE
100
AcDbEntity
  8
0
 62
     7
370
    13
390
F
100
AcDbText
 10
471.118225
 20
-267.560638
 30
0.0
 40
2.0
  1
+
 41
1.333340909090917
 72
     5
 11
472.5849
 21
-267.560638
 31
0.0
100
AcDbText
  0
ENDBLK
  5
7D3
330
2FE
100
AcDbEntity
  8
0
100
AcDbBlockEnd
  0
BLOCK
  5
7D4
330
2FF
100
AcDbEntity
  8
0
100
AcDbBlockBegin
  2
BLOCK337
 70
     0
 10
0.0
 20
0.0
 30
0.0
  3
BLOCK337
  1

  0
TEXT
  5
40E
330
2FF
100
AcDbEntity
  8
0
 62
     7
370
    13
390
F
100
AcDbText
 10
471.118225
 20
-263.572601
 30
0.0
 40
2.0
  1
-
 41
1.333340909090917
 72
     5
 11
472.5849
 21
-263.572601
 31
0.0
100
AcDbText
  0
ENDBLK
  5
7D5
330
2FF
100
AcDbEntity
  8
0
100
AcDbBlockEnd
  0
BLOCK
  5
7D6
330
300
100
AcDbEntity
  8
0
100
AcDbBlockBegin
  2
BLOCK338
 70
     0
 10
0.0
 20
0.0
 30
0.0
  3
BLOCK338
  1

  0
TEXT
  5
411
330
300
100
AcDbEntity
  8
0
 62
     7
370
    13
390
F
100
AcDbText
 10
471.118225
 20
-268.572601
 30
0.0
 40
2.0
  1
-
 41
1.333340909090917
 72
     5
 11
472.5849
 21
-268.572601
 31
0.0
100
AcDbText
  0
ENDBLK
  5
7D7
330
300
100
AcDbEntity
  8
0
100
AcDbBlockEnd
  0
BLOCK
  5
7D8
330
301
100
AcDbEntity
  8
0
100
AcDbBlockBegin
  2
BLOCK339
 70
     0
 10
0.0
 20
0.0
 30
0.0
  3
BLOCK339
  1

  0
TEXT
  5
414
330
301
100
AcDbEntity
  8
0
 62
     7
370
    13
390
F
100
AcDbText
 10
483.808929
 20
-257.858276
 30
0.0
 40
2.0
  1
0,1
 41
1.833332857142856
 72
     5
 11
488.942261
 21
-257.858276
 31
0.0
100
AcDbText
  0
ENDBLK
  5
7D9
330
301
100
AcDbEntity
  8
0
100
AcDbBlockEnd
  0
BLOCK
  5
7DA
330
302
100
AcDbEntity
  8
0
100
AcDbBlockBegin
  2
BLOCK340
 70
     0
 10
0.0
 20
0.0
 30
0.0
  3
BLOCK340
  1

  0
TEXT
  5
417
330
302
100
AcDbEntity
  8
0
 62
     7
370
    13
390
F
100
AcDbText
 10
482.892273
 20
-262.858276
 30
0.0
 40
2.0
  1
0,15
 41
1.658724761904769
 72
     5
 11
489.858917
 21
-262.858276
 31
0.0
100
AcDbText
  0
ENDBLK
  5
7DB
330
302
100
AcDbEntity
  8
0
100
AcDbBlockEnd
  0
BLOCK
  5
7DC
330
303
100
AcDbEntity
  8
0
100
AcDbBlockBegin
  2
BLOCK341
 70
     0
 10
0.0
 20
0.0
 30
0.0
  3
BLOCK341
  1

  0
TEXT
  5
41A
330
303
100
AcDbEntity
  8
0
 62
     7
370
    13
390
F
100
AcDbText
 10
483.808929
 20
-267.858246
 30
0.0
 40
2.0
  1
0,3
 41
1.604166249999999
 72
     5
 11
488.942261
 21
-267.858246
 31
0.0
100
AcDbText
  0
ENDBLK
  5
7DD
330
303
100
AcDbEntity
  8
0
100
AcDbBlockEnd
  0
BLOCK
  5
7DE
330
304
100
AcDbEntity
  8
0
100
AcDbBlockBegin
  2
BLOCK342
 70
     0
 10
0.0
 20
0.0
 30
0.0
  3
BLOCK342
  1

  0
TEXT
  5
41D
330
304
100
AcDbEntity
  8
0
 62
     7
370
    13
390
F
100
AcDbText
 10
493.808929
 20
-267.858246
 30
0.0
 40
2.0
  1
0,5
 41
1.604166249999999
 72
     5
 11
498.942261
 21
-267.858246
 31
0.0
100
AcDbText
  0
ENDBLK
  5
7DF
330
304
100
AcDbEntity
  8
0
100
AcDbBlockEnd
  0
BLOCK
  5
7E0
330
305
100
AcDbEntity
  8
0
100
AcDbBlockBegin
  2
BLOCK343
 70
     0
 10
0.0
 20
0.0
 30
0.0
  3
BLOCK343
  1

  0
TEXT
  5
420
330
305
100
AcDbEntity
  8
0
 62
     7
370
    13
390
F
100
AcDbText
 10
492.892273
 20
-262.858276
 30
0.0
 40
2.0
  1
0,25
 41
1.514487826086963
 72
     5
 11
499.858917
 21
-262.858276
 31
0.0
100
AcDbText
  0
ENDBLK
  5
7E1
330
305
100
AcDbEntity
  8
0
100
AcDbBlockEnd
  0
BLOCK
  5
7E2
330
306
100
AcDbEntity
  8
0
100
AcDbBlockBegin
  2
BLOCK344
 70
     0
 10
0.0
 20
0.0
 30
0.0
  3
BLOCK344
  1

  0
TEXT
  5
423
330
306
100
AcDbEntity
  8
0
 62
     7
370
    13
390
F
100
AcDbText
 10
492.892273
 20
-257.858276
 30
0.0
 40
2.0
  1
0,15
 41
1.658724761904769
 72
     5
 11
499.858917
 21
-257.858276
 31
0.0
100
AcDbText
  0
ENDBLK
  5
7E3
330
306
100
AcDbEntity
  8
0
100
AcDbBlockEnd
  0
BLOCK
  5
7E4
330
307
100
AcDbEntity
  8
0
100
AcDbBlockBegin
  2
BLOCK345
 70
     0
 10
0.0
 20
0.0
 30
0.0
  3
BLOCK345
  1

  0
TEXT
  5
426
330
307
100
AcDbEntity
  8
0
 62
     7
370
    13
390
F
100
AcDbText
 10
505.642273
 20
-267.858246
 30
0.0
 40
2.0
  1
1
 41
2.095250000000013
 72
     5
 11
507.108948
 21
-267.858246
 31
0.0
100
AcDbText
  0
ENDBLK
  5
7E5
330
307
100
AcDbEntity
  8
0
100
AcDbBlockEnd
  0
BLOCK
  5
7E6
330
308
100
AcDbEntity
  8
0
100
AcDbBlockBegin
  2
BLOCK346
 70
     0
 10
0.0
 20
0.0
 30
0.0
  3
BLOCK346
  1

  0
TEXT
  5
429
330
308
100
AcDbEntity
  8
0
 62
     7
370
    13
390
F
100
AcDbText
 10
503.808929
 20
-262.858276
 30
0.0
 40
2.0
  1
0,5
 41
1.604166249999999
 72
     5
 11
508.942261
 21
-262.858276
 31
0.0
100
AcDbText
  0
ENDBLK
  5
7E7
330
308
100
AcDbEntity
  8
0
100
AcDbBlockEnd
  0
BLOCK
  5
7E8
330
309
100
AcDbEntity
  8
0
100
AcDbBlockBegin
  2
BLOCK347
 70
     0
 10
0.0
 20
0.0
 30
0.0
  3
BLOCK347
  1

  0
TEXT
  5
42C
330
309
100
AcDbEntity
  8
0
 62
     7
370
    13
390
F
100
AcDbText
 10
503.808929
 20
-257.858276
 30
0.0
 40
2.0
  1
0,2
 41
1.603944581289892
 72
     5
 11
508.942261
 21
-257.858276
 31
0.0
100
AcDbText
  0
ENDBLK
  5
7E9
330
309
100
AcDbEntity
  8
0
100
AcDbBlockEnd
  0
BLOCK
  5
7EA
330
30A
100
AcDbEntity
  8
0
100
AcDbBlockBegin
  2
BLOCK348
 70
     0
 10
0.0
 20
0.0
 30
0.0
  3
BLOCK348
  1

  0
TEXT
  5
42F
330
30A
100
AcDbEntity
  8
0
 62
     7
370
    13
390
F
100
AcDbText
 10
513.80896
 20
-267.858246
 30
0.0
 40
2.0
  1
1,5
 41
1.833321785714312
 72
     5
 11
518.942261
 21
-267.858246
 31
0.0
100
AcDbText
  0
ENDBLK
  5
7EB
330
30A
100
AcDbEntity
  8
0
100
AcDbBlockEnd
  0
BLOCK
  5
7EC
330
30B
100
AcDbEntity
  8
0
100
AcDbBlockBegin
  2
BLOCK349
 70
     0
 10
0.0
 20
0.0
 30
0.0
  3
BLOCK349
  1

  0
TEXT
  5
432
330
30B
100
AcDbEntity
  8
0
 62
     7
370
    13
390
F
100
AcDbText
 10
513.80896
 20
-262.858276
 30
0.0
 40
2.0
  1
0,8
 41
1.604407251133013
 72
     5
 11
518.942261
 21
-262.858276
 31
0.0
100
AcDbText
  0
ENDBLK
  5
7ED
330
30B
100
AcDbEntity
  8
0
100
AcDbBlockEnd
  0
BLOCK
  5
7EE
330
30C
100
AcDbEntity
  8
0
100
AcDbBlockBegin
  2
BLOCK350
 70
     0
 10
0.0
 20
0.0
 30
0.0
  3
BLOCK350
  1

  0
TEXT
  5
435
330
30C
100
AcDbEntity
  8
0
 62
     7
370
    13
390
F
100
AcDbText
 10
513.80896
 20
-257.858276
 30
0.0
 40
2.0
  1
0,3
 41
1.604156562500023
 72
     5
 11
518.942261
 21
-257.858276
 31
0.0
100
AcDbText
  0
ENDBLK
  5
7EF
330
30C
100
AcDbEntity
  8
0
100
AcDbBlockEnd
  0
BLOCK
  5
7F0
330
30D
100
AcDbEntity
  8
0
100
AcDbBlockBegin
  2
BLOCK351
 70
     0
 10
0.0
 20
0.0
 30
0.0
  3
BLOCK351
  1

  0
TEXT
  5
438
330
30D
100
AcDbEntity
  8
0
 62
     7
370
    13
390
F
100
AcDbText
 10
525.642273
 20
-267.858246
 30
0.0
 40
2.0
  1
3
 41
1.333340909090917
 72
     5
 11
527.108948
 21
-267.858246
 31
0.0
100
AcDbText
  0
ENDBLK
  5
7F1
330
30D
100
AcDbEntity
  8
0
100
AcDbBlockEnd
  0
BLOCK
  5
7F2
330
30E
100
AcDbEntity
  8
0
100
AcDbBlockBegin
  2
BLOCK352
 70
     0
 10
0.0
 20
0.0
 30
0.0
  3
BLOCK352
  1

  0
TEXT
  5
43B
330
30E
100
AcDbEntity
  8
0
 62
     7
370
    13
390
F
100
AcDbText
 10
523.80896
 20
-262.858276
 30
0.0
 40
2.0
  1
1,5
 41
1.833321785714312
 72
     5
 11
528.942261
 21
-262.858276
 31
0.0
100
AcDbText
  0
ENDBLK
  5
7F3
330
30E
100
AcDbEntity
  8
0
100
AcDbBlockEnd
  0
BLOCK
  5
7F4
330
30F
100
AcDbEntity
  8
0
100
AcDbBlockBegin
  2
BLOCK353
 70
     0
 10
0.0
 20
0.0
 30
0.0
  3
BLOCK353
  1

  0
TEXT
  5
43E
330
30F
100
AcDbEntity
  8
0
 62
     7
370
    13
390
F
100
AcDbText
 10
523.80896
 20
-257.858276
 30
0.0
 40
2.0
  1
0,5
 41
1.604156562500023
 72
     5
 11
528.942261
 21
-257.858276
 31
0.0
100
AcDbText
  0
ENDBLK
  5
7F5
330
30F
100
AcDbEntity
  8
0
100
AcDbBlockEnd
  0
BLOCK
  5
7F6
330
310
100
AcDbEntity
  8
0
100
AcDbBlockBegin
  2
BLOCK354
 70
     0
 10
0.0
 20
0.0
 30
0.0
  3
BLOCK354
  1

  0
TEXT
  5
441
330
310
100
AcDbEntity
  8
0
 62
     7
370
    13
390
F
100
AcDbText
 10
481.118225
 20
-268.572601
 30
0.0
 40
2.0
  1
-
 41
1.333340909090917
 72
     5
 11
482.5849
 21
-268.572601
 31
0.0
100
AcDbText
  0
ENDBLK
  5
7F7
330
310
100
AcDbEntity
  8
0
100
AcDbBlockEnd
  0
BLOCK
  5
7F8
330
311
100
AcDbEntity
  8
0
100
AcDbBlockBegin
  2
BLOCK355
 70
     0
 10
0.0
 20
0.0
 30
0.0
  3
BLOCK355
  1

  0
TEXT
  5
444
330
311
100
AcDbEntity
  8
0
 62
     7
370
    13
390
F
100
AcDbText
 10
481.118225
 20
-267.560638
 30
0.0
 40
2.0
  1
+
 41
1.333340909090917
 72
     5
 11
482.5849
 21
-267.560638
 31
0.0
100
AcDbText
  0
ENDBLK
  5
7F9
330
311
100
AcDbEntity
  8
0
100
AcDbBlockEnd
  0
BLOCK
  5
7FA
330
312
100
AcDbEntity
  8
0
100
AcDbBlockBegin
  2
BLOCK356
 70
     0
 10
0.0
 20
0.0
 30
0.0
  3
BLOCK356
  1

  0
TEXT
  5
447
330
312
100
AcDbEntity
  8
0
 62
     7
370
    13
390
F
100
AcDbText
 10
481.118225
 20
-263.572601
 30
0.0
 40
2.0
  1
-
 41
1.333340909090917
 72
     5
 11
482.5849
 21
-263.572601
 31
0.0
100
AcDbText
  0
ENDBLK
  5
7FB
330
312
100
AcDbEntity
  8
0
100
AcDbBlockEnd
  0
BLOCK
  5
7FC
330
313
100
AcDbEntity
  8
0
100
AcDbBlockBegin
  2
BLOCK357
 70
     0
 10
0.0
 20
0.0
 30
0.0
  3
BLOCK357
  1

  0
TEXT
  5
44A
330
313
100
AcDbEntity
  8
0
 62
     7
370
    13
390
F
100
AcDbText
 10
481.118225
 20
-262.560638
 30
0.0
 40
2.0
  1
+
 41
1.333340909090917
 72
     5
 11
482.5849
 21
-262.560638
 31
0.0
100
AcDbText
  0
ENDBLK
  5
7FD
330
313
100
AcDbEntity
  8
0
100
AcDbBlockEnd
  0
BLOCK
  5
7FE
330
314
100
AcDbEntity
  8
0
100
AcDbBlockBegin
  2
BLOCK358
 70
     0
 10
0.0
 20
0.0
 30
0.0
  3
BLOCK358
  1

  0
TEXT
  5
44D
330
314
100
AcDbEntity
  8
0
 62
     7
370
    13
390
F
100
AcDbText
 10
481.118225
 20
-258.572601
 30
0.0
 40
2.0
  1
-
 41
1.333340909090917
 72
     5
 11
482.5849
 21
-258.572601
 31
0.0
100
AcDbText
  0
ENDBLK
  5
7FF
330
314
100
AcDbEntity
  8
0
100
AcDbBlockEnd
  0
BLOCK
  5
800
330
315
100
AcDbEntity
  8
0
100
AcDbBlockBegin
  2
BLOCK359
 70
     0
 10
0.0
 20
0.0
 30
0.0
  3
BLOCK359
  1

  0
TEXT
  5
450
330
315
100
AcDbEntity
  8
0
 62
     7
370
    13
390
F
100
AcDbText
 10
481.118225
 20
-257.560638
 30
0.0
 40
2.0
  1
+
 41
1.333340909090917
 72
     5
 11
482.5849
 21
-257.560638
 31
0.0
100
AcDbText
  0
ENDBLK
  5
801
330
315
100
AcDbEntity
  8
0
100
AcDbBlockEnd
  0
BLOCK
  5
802
330
316
100
AcDbEntity
  8
0
100
AcDbBlockBegin
  2
BLOCK360
 70
     0
 10
0.0
 20
0.0
 30
0.0
  3
BLOCK360
  1

  0
TEXT
  5
453
330
316
100
AcDbEntity
  8
0
 62
     7
370
    13
390
F
100
AcDbText
 10
491.118225
 20
-268.572601
 30
0.0
 40
2.0
  1
-
 41
1.333340909090917
 72
     5
 11
492.5849
 21
-268.572601
 31
0.0
100
AcDbText
  0
ENDBLK
  5
803
330
316
100
AcDbEntity
  8
0
100
AcDbBlockEnd
  0
BLOCK
  5
804
330
317
100
AcDbEntity
  8
0
100
AcDbBlockBegin
  2
BLOCK361
 70
     0
 10
0.0
 20
0.0
 30
0.0
  3
BLOCK361
  1

  0
TEXT
  5
456
330
317
100
AcDbEntity
  8
0
 62
     7
370
    13
390
F
100
AcDbText
 10
491.118225
 20
-267.560638
 30
0.0
 40
2.0
  1
+
 41
1.333340909090917
 72
     5
 11
492.5849
 21
-267.560638
 31
0.0
100
AcDbText
  0
ENDBLK
  5
805
330
317
100
AcDbEntity
  8
0
100
AcDbBlockEnd
  0
BLOCK
  5
806
330
318
100
AcDbEntity
  8
0
100
AcDbBlockBegin
  2
BLOCK362
 70
     0
 10
0.0
 20
0.0
 30
0.0
  3
BLOCK362
  1

  0
TEXT
  5
459
330
318
100
AcDbEntity
  8
0
 62
     7
370
    13
390
F
100
AcDbText
 10
491.118225
 20
-263.572601
 30
0.0
 40
2.0
  1
-
 41
1.333340909090917
 72
     5
 11
492.5849
 21
-263.572601
 31
0.0
100
AcDbText
  0
ENDBLK
  5
807
330
318
100
AcDbEntity
  8
0
100
AcDbBlockEnd
  0
BLOCK
  5
808
330
319
100
AcDbEntity
  8
0
100
AcDbBlockBegin
  2
BLOCK363
 70
     0
 10
0.0
 20
0.0
 30
0.0
  3
BLOCK363
  1

  0
TEXT
  5
45C
330
319
100
AcDbEntity
  8
0
 62
     7
370
    13
390
F
100
AcDbText
 10
491.118225
 20
-262.560638
 30
0.0
 40
2.0
  1
+
 41
1.333340909090917
 72
     5
 11
492.5849
 21
-262.560638
 31
0.0
100
AcDbText
  0
ENDBLK
  5
809
330
319
100
AcDbEntity
  8
0
100
AcDbBlockEnd
  0
BLOCK
  5
80A
330
31A
100
AcDbEntity
  8
0
100
AcDbBlockBegin
  2
BLOCK364
 70
     0
 10
0.0
 20
0.0
 30
0.0
  3
BLOCK364
  1

  0
TEXT
  5
45F
330
31A
100
AcDbEntity
  8
0
 62
     7
370
    13
390
F
100
AcDbText
 10
491.118225
 20
-258.572601
 30
0.0
 40
2.0
  1
-
 41
1.333340909090917
 72
     5
 11
492.5849
 21
-258.572601
 31
0.0
100
AcDbText
  0
ENDBLK
  5
80B
330
31A
100
AcDbEntity
  8
0
100
AcDbBlockEnd
  0
BLOCK
  5
80C
330
31B
100
AcDbEntity
  8
0
100
AcDbBlockBegin
  2
BLOCK365
 70
     0
 10
0.0
 20
0.0
 30
0.0
  3
BLOCK365
  1

  0
TEXT
  5
462
330
31B
100
AcDbEntity
  8
0
 62
     7
370
    13
390
F
100
AcDbText
 10
491.118225
 20
-257.560638
 30
0.0
 40
2.0
  1
+
 41
1.333340909090917
 72
     5
 11
492.5849
 21
-257.560638
 31
0.0
100
AcDbText
  0
ENDBLK
  5
80D
330
31B
100
AcDbEntity
  8
0
100
AcDbBlockEnd
  0
BLOCK
  5
80E
330
31C
100
AcDbEntity
  8
0
100
AcDbBlockBegin
  2
BLOCK366
 70
     0
 10
0.0
 20
0.0
 30
0.0
  3
BLOCK366
  1

  0
TEXT
  5
465
330
31C
100
AcDbEntity
  8
0
 62
     7
370
    13
390
F
100
AcDbText
 10
501.118225
 20
-268.572601
 30
0.0
 40
2.0
  1
-
 41
1.333340909090917
 72
     5
 11
502.5849
 21
-268.572601
 31
0.0
100
AcDbText
  0
ENDBLK
  5
80F
330
31C
100
AcDbEntity
  8
0
100
AcDbBlockEnd
  0
BLOCK
  5
810
330
31D
100
AcDbEntity
  8
0
100
AcDbBlockBegin
  2
BLOCK367
 70
     0
 10
0.0
 20
0.0
 30
0.0
  3
BLOCK367
  1

  0
TEXT
  5
468
330
31D
100
AcDbEntity
  8
0
 62
     7
370
    13
390
F
100
AcDbText
 10
501.118225
 20
-267.560638
 30
0.0
 40
2.0
  1
+
 41
1.333340909090917
 72
     5
 11
502.5849
 21
-267.560638
 31
0.0
100
AcDbText
  0
ENDBLK
  5
811
330
31D
100
AcDbEntity
  8
0
100
AcDbBlockEnd
  0
BLOCK
  5
812
330
31E
100
AcDbEntity
  8
0
100
AcDbBlockBegin
  2
BLOCK368
 70
     0
 10
0.0
 20
0.0
 30
0.0
  3
BLOCK368
  1

  0
TEXT
  5
46B
330
31E
100
AcDbEntity
  8
0
 62
     7
370
    13
390
F
100
AcDbText
 10
501.118225
 20
-263.572601
 30
0.0
 40
2.0
  1
-
 41
1.333340909090917
 72
     5
 11
502.5849
 21
-263.572601
 31
0.0
100
AcDbText
  0
ENDBLK
  5
813
330
31E
100
AcDbEntity
  8
0
100
AcDbBlockEnd
  0
BLOCK
  5
814
330
31F
100
AcDbEntity
  8
0
100
AcDbBlockBegin
  2
BLOCK369
 70
     0
 10
0.0
 20
0.0
 30
0.0
  3
BLOCK369
  1

  0
TEXT
  5
46E
330
31F
100
AcDbEntity
  8
0
 62
     7
370
    13
390
F
100
AcDbText
 10
501.118225
 20
-262.560638
 30
0.0
 40
2.0
  1
+
 41
1.333340909090917
 72
     5
 11
502.5849
 21
-262.560638
 31
0.0
100
AcDbText
  0
ENDBLK
  5
815
330
31F
100
AcDbEntity
  8
0
100
AcDbBlockEnd
  0
BLOCK
  5
816
330
320
100
AcDbEntity
  8
0
100
AcDbBlockBegin
  2
BLOCK370
 70
     0
 10
0.0
 20
0.0
 30
0.0
  3
BLOCK370
  1

  0
TEXT
  5
471
330
320
100
AcDbEntity
  8
0
 62
     7
370
    13
390
F
100
AcDbText
 10
501.118225
 20
-258.572601
 30
0.0
 40
2.0
  1
-
 41
1.333340909090917
 72
     5
 11
502.5849
 21
-258.572601
 31
0.0
100
AcDbText
  0
ENDBLK
  5
817
330
320
100
AcDbEntity
  8
0
100
AcDbBlockEnd
  0
BLOCK
  5
818
330
321
100
AcDbEntity
  8
0
100
AcDbBlockBegin
  2
BLOCK371
 70
     0
 10
0.0
 20
0.0
 30
0.0
  3
BLOCK371
  1

  0
TEXT
  5
474
330
321
100
AcDbEntity
  8
0
 62
     7
370
    13
390
F
100
AcDbText
 10
501.118225
 20
-257.560638
 30
0.0
 40
2.0
  1
+
 41
1.333340909090917
 72
     5
 11
502.5849
 21
-257.560638
 31
0.0
100
AcDbText
  0
ENDBLK
  5
819
330
321
100
AcDbEntity
  8
0
100
AcDbBlockEnd
  0
BLOCK
  5
81A
330
322
100
AcDbEntity
  8
0
100
AcDbBlockBegin
  2
BLOCK372
 70
     0
 10
0.0
 20
0.0
 30
0.0
  3
BLOCK372
  1

  0
TEXT
  5
477
330
322
100
AcDbEntity
  8
0
 62
     7
370
    13
390
F
100
AcDbText
 10
511.118256
 20
-268.572601
 30
0.0
 40
2.0
  1
-
 41
1.333312727272703
 72
     5
 11
512.5849
 21
-268.572601
 31
0.0
100
AcDbText
  0
ENDBLK
  5
81B
330
322
100
AcDbEntity
  8
0
100
AcDbBlockEnd
  0
BLOCK
  5
81C
330
323
100
AcDbEntity
  8
0
100
AcDbBlockBegin
  2
BLOCK373
 70
     0
 10
0.0
 20
0.0
 30
0.0
  3
BLOCK373
  1

  0
TEXT
  5
47A
330
323
100
AcDbEntity
  8
0
 62
     7
370
    13
390
F
100
AcDbText
 10
511.118256
 20
-267.560638
 30
0.0
 40
2.0
  1
+
 41
1.333312727272703
 72
     5
 11
512.5849
 21
-267.560638
 31
0.0
100
AcDbText
  0
ENDBLK
  5
81D
330
323
100
AcDbEntity
  8
0
100
AcDbBlockEnd
  0
BLOCK
  5
81E
330
324
100
AcDbEntity
  8
0
100
AcDbBlockBegin
  2
BLOCK374
 70
     0
 10
0.0
 20
0.0
 30
0.0
  3
BLOCK374
  1

  0
TEXT
  5
47D
330
324
100
AcDbEntity
  8
0
 62
     7
370
    13
390
F
100
AcDbText
 10
511.118256
 20
-263.572601
 30
0.0
 40
2.0
  1
-
 41
1.333312727272703
 72
     5
 11
512.5849
 21
-263.572601
 31
0.0
100
AcDbText
  0
ENDBLK
  5
81F
330
324
100
AcDbEntity
  8
0
100
AcDbBlockEnd
  0
BLOCK
  5
820
330
325
100
AcDbEntity
  8
0
100
AcDbBlockBegin
  2
BLOCK375
 70
     0
 10
0.0
 20
0.0
 30
0.0
  3
BLOCK375
  1

  0
TEXT
  5
480
330
325
100
AcDbEntity
  8
0
 62
     7
370
    13
390
F
100
AcDbText
 10
511.118256
 20
-262.560638
 30
0.0
 40
2.0
  1
+
 41
1.333312727272703
 72
     5
 11
512.5849
 21
-262.560638
 31
0.0
100
AcDbText
  0
ENDBLK
  5
821
330
325
100
AcDbEntity
  8
0
100
AcDbBlockEnd
  0
BLOCK
  5
822
330
326
100
AcDbEntity
  8
0
100
AcDbBlockBegin
  2
BLOCK376
 70
     0
 10
0.0
 20
0.0
 30
0.0
  3
BLOCK376
  1

  0
TEXT
  5
483
330
326
100
AcDbEntity
  8
0
 62
     7
370
    13
390
F
100
AcDbText
 10
511.118256
 20
-258.572601
 30
0.0
 40
2.0
  1
-
 41
1.333312727272703
 72
     5
 11
512.5849
 21
-258.572601
 31
0.0
100
AcDbText
  0
ENDBLK
  5
823
330
326
100
AcDbEntity
  8
0
100
AcDbBlockEnd
  0
BLOCK
  5
824
330
327
100
AcDbEntity
  8
0
100
AcDbBlockBegin
  2
BLOCK377
 70
     0
 10
0.0
 20
0.0
 30
0.0
  3
BLOCK377
  1

  0
TEXT
  5
486
330
327
100
AcDbEntity
  8
0
 62
     7
370
    13
390
F
100
AcDbText
 10
511.118256
 20
-257.560638
 30
0.0
 40
2.0
  1
+
 41
1.333312727272703
 72
     5
 11
512.5849
 21
-257.560638
 31
0.0
100
AcDbText
  0
ENDBLK
  5
825
330
327
100
AcDbEntity
  8
0
100
AcDbBlockEnd
  0
BLOCK
  5
826
330
328
100
AcDbEntity
  8
0
100
AcDbBlockBegin
  2
BLOCK378
 70
     0
 10
0.0
 20
0.0
 30
0.0
  3
BLOCK378
  1

  0
TEXT
  5
489
330
328
100
AcDbEntity
  8
0
 62
     7
370
    13
390
F
100
AcDbText
 10
521.118225
 20
-268.572601
 30
0.0
 40
2.0
  1
-
 41
1.333340909090814
 72
     5
 11
522.5849
 21
-268.572601
 31
0.0
100
AcDbText
  0
ENDBLK
  5
827
330
328
100
AcDbEntity
  8
0
100
AcDbBlockEnd
  0
BLOCK
  5
828
330
329
100
AcDbEntity
  8
0
100
AcDbBlockBegin
  2
BLOCK379
 70
     0
 10
0.0
 20
0.0
 30
0.0
  3
BLOCK379
  1

  0
TEXT
  5
48C
330
329
100
AcDbEntity
  8
0
 62
     7
370
    13
390
F
100
AcDbText
 10
521.118225
 20
-267.560638
 30
0.0
 40
2.0
  1
+
 41
1.333340909090814
 72
     5
 11
522.5849
 21
-267.560638
 31
0.0
100
AcDbText
  0
ENDBLK
  5
829
330
329
100
AcDbEntity
  8
0
100
AcDbBlockEnd
  0
BLOCK
  5
82A
330
32A
100
AcDbEntity
  8
0
100
AcDbBlockBegin
  2
BLOCK380
 70
     0
 10
0.0
 20
0.0
 30
0.0
  3
BLOCK380
  1

  0
TEXT
  5
48F
330
32A
100
AcDbEntity
  8
0
 62
     7
370
    13
390
F
100
AcDbText
 10
521.118225
 20
-263.572601
 30
0.0
 40
2.0
  1
-
 41
1.333340909090814
 72
     5
 11
522.5849
 21
-263.572601
 31
0.0
100
AcDbText
  0
ENDBLK
  5
82B
330
32A
100
AcDbEntity
  8
0
100
AcDbBlockEnd
  0
BLOCK
  5
82C
330
32B
100
AcDbEntity
  8
0
100
AcDbBlockBegin
  2
BLOCK381
 70
     0
 10
0.0
 20
0.0
 30
0.0
  3
BLOCK381
  1

  0
TEXT
  5
492
330
32B
100
AcDbEntity
  8
0
 62
     7
370
    13
390
F
100
AcDbText
 10
521.118225
 20
-262.560638
 30
0.0
 40
2.0
  1
+
 41
1.333340909090814
 72
     5
 11
522.5849
 21
-262.560638
 31
0.0
100
AcDbText
  0
ENDBLK
  5
82D
330
32B
100
AcDbEntity
  8
0
100
AcDbBlockEnd
  0
BLOCK
  5
82E
330
32C
100
AcDbEntity
  8
0
100
AcDbBlockBegin
  2
BLOCK382
 70
     0
 10
0.0
 20
0.0
 30
0.0
  3
BLOCK382
  1

  0
TEXT
  5
495
330
32C
100
AcDbEntity
  8
0
 62
     7
370
    13
390
F
100
AcDbText
 10
521.118225
 20
-258.572601
 30
0.0
 40
2.0
  1
-
 41
1.333340909090814
 72
     5
 11
522.5849
 21
-258.572601
 31
0.0
100
AcDbText
  0
ENDBLK
  5
82F
330
32C
100
AcDbEntity
  8
0
100
AcDbBlockEnd
  0
BLOCK
  5
830
330
32D
100
AcDbEntity
  8
0
100
AcDbBlockBegin
  2
BLOCK383
 70
     0
 10
0.0
 20
0.0
 30
0.0
  3
BLOCK383
  1

  0
TEXT
  5
498
330
32D
100
AcDbEntity
  8
0
 62
     7
370
    13
390
F
100
AcDbText
 10
521.118225
 20
-257.560638
 30
0.0
 40
2.0
  1
+
 41
1.333340909090814
 72
     5
 11
522.5849
 21
-257.560638
 31
0.0
100
AcDbText
  0
ENDBLK
  5
831
330
32D
100
AcDbEntity
  8
0
100
AcDbBlockEnd
  0
BLOCK
  5
832
330
32E
100
AcDbEntity
  8
0
100
AcDbBlockBegin
  2
BLOCK384
 70
     0
 10
0.0
 20
0.0
 30
0.0
  3
BLOCK384
  1

  0
TEXT
  5
49B
330
32E
100
AcDbEntity
  8
0
 62
     7
370
    13
390
F
100
AcDbText
 10
474.273193
 20
-248.75061
 30
0.0
 40
2.0
  1
0
 41
1.331434774839179
 72
     5
 11
475.739868
 21
-248.75061
 31
0.0
100
AcDbText
  0
ENDBLK
  5
833
330
32E
100
AcDbEntity
  8
0
100
AcDbBlockEnd
  0
BLOCK
  5
834
330
32F
100
AcDbEntity
  8
0
100
AcDbBlockBegin
  2
BLOCK385
 70
     0
 10
0.0
 20
0.0
 30
0.0
  3
BLOCK385
  1

  0
TEXT
  5
49E
330
32F
100
AcDbEntity
  8
0
 62
     7
370
    13
390
F
100
AcDbText
 10
474.392212
 20
-252.857971
 30
0.0
 40
2.0
  1
6
 41
1.333340909090917
 72
     5
 11
475.858887
 21
-252.857971
 31
0.0
100
AcDbText
  0
ENDBLK
  5
835
330
32F
100
AcDbEntity
  8
0
100
AcDbBlockEnd
  0
BLOCK
  5
836
330
330
100
AcDbEntity
  8
0
100
AcDbBlockBegin
  2
BLOCK386
 70
     0
 10
0.0
 20
0.0
 30
0.0
  3
BLOCK386
  1

  0
TEXT
  5
4A1
330
330
100
AcDbEntity
  8
0
 62
     7
370
    13
390
F
100
AcDbText
 10
484.273193
 20
-248.75061
 30
0.0
 40
2.0
  1
6
 41
1.333340909090917
 72
     5
 11
485.739868
 21
-248.75061
 31
0.0
100
AcDbText
  0
ENDBLK
  5
837
330
330
100
AcDbEntity
  8
0
100
AcDbBlockEnd
  0
BLOCK
  5
838
330
331
100
AcDbEntity
  8
0
100
AcDbBlockBegin
  2
BLOCK387
 70
     0
 10
0.0
 20
0.0
 30
0.0
  3
BLOCK387
  1

  0
TEXT
  5
4A4
330
331
100
AcDbEntity
  8
0
 62
     7
370
    13
390
F
100
AcDbText
 10
493.356506
 20
-248.75061
 30
0.0
 40
2.0
  1
30
 41
1.319164230406037
 72
     5
 11
496.656494
 21
-248.75061
 31
0.0
100
AcDbText
  0
ENDBLK
  5
839
330
331
100
AcDbEntity
  8
0
100
AcDbBlockEnd
  0
BLOCK
  5
83A
330
332
100
AcDbEntity
  8
0
100
AcDbBlockBegin
  2
BLOCK388
 70
     0
 10
0.0
 20
0.0
 30
0.0
  3
BLOCK388
  1

  0
TEXT
  5
4A7
330
332
100
AcDbEntity
  8
0
 62
     7
370
    13
390
F
100
AcDbText
 10
502.43985
 20
-248.75061
 30
0.0
 40
2.0
  1
120
 41
1.46600637958174
 72
     5
 11
507.573181
 21
-248.75061
 31
0.0
100
AcDbText
  0
ENDBLK
  5
83B
330
332
100
AcDbEntity
  8
0
100
AcDbBlockEnd
  0
BLOCK
  5
83C
330
333
100
AcDbEntity
  8
0
100
AcDbBlockBegin
  2
BLOCK389
 70
     0
 10
0.0
 20
0.0
 30
0.0
  3
BLOCK389
  1

  0
TEXT
  5
4AA
330
333
100
AcDbEntity
  8
0
 62
     7
370
    13
390
F
100
AcDbText
 10
512.439819
 20
-248.75061
 30
0.0
 40
2.0
  1
315
 41
1.466657428571417
 72
     5
 11
517.57312
 21
-248.75061
 31
0.0
100
AcDbText
  0
ENDBLK
  5
83D
330
333
100
AcDbEntity
  8
0
100
AcDbBlockEnd
  0
BLOCK
  5
83E
330
334
100
AcDbEntity
  8
0
100
AcDbBlockBegin
  2
BLOCK390
 70
     0
 10
0.0
 20
0.0
 30
0.0
  3
BLOCK390
  1

  0
TEXT
  5
4AD
330
334
100
AcDbEntity
  8
0
 62
     7
370
    13
390
F
100
AcDbText
 10
522.439819
 20
-248.75061
 30
0.0
 40
2.0
  1
500
 41
1.315699751765883
 72
     5
 11
527.57312
 21
-248.75061
 31
0.0
100
AcDbText
  0
ENDBLK
  5
83F
330
334
100
AcDbEntity
  8
0
100
AcDbBlockEnd
  0
BLOCK
  5
840
330
335
100
AcDbEntity
  8
0
100
AcDbBlockBegin
  2
BLOCK391
 70
     0
 10
0.0
 20
0.0
 30
0.0
  3
BLOCK391
  1

  0
TEXT
  5
4B0
330
335
100
AcDbEntity
  8
0
 62
     7
370
    13
390
F
100
AcDbText
 10
483.475525
 20
-252.857971
 30
0.0
 40
2.0
  1
30
 41
1.319164230406037
 72
     5
 11
486.775513
 21
-252.857971
 31
0.0
100
AcDbText
  0
ENDBLK
  5
841
330
335
100
AcDbEntity
  8
0
100
AcDbBlockEnd
  0
BLOCK
  5
842
330
336
100
AcDbEntity
  8
0
100
AcDbBlockBegin
  2
BLOCK392
 70
     0
 10
0.0
 20
0.0
 30
0.0
  3
BLOCK392
  1

  0
TEXT
  5
4B3
330
336
100
AcDbEntity
  8
0
 62
     7
370
    13
390
F
100
AcDbText
 10
492.558868
 20
-252.857971
 30
0.0
 40
2.0
  1
120
 41
1.466006665167527
 72
     5
 11
497.6922
 21
-252.857971
 31
0.0
100
AcDbText
  0
ENDBLK
  5
843
330
336
100
AcDbEntity
  8
0
100
AcDbBlockEnd
  0
BLOCK
  5
844
330
337
100
AcDbEntity
  8
0
100
AcDbBlockBegin
  2
BLOCK393
 70
     0
 10
0.0
 20
0.0
 30
0.0
  3
BLOCK393
  1

  0
TEXT
  5
4B6
330
337
100
AcDbEntity
  8
0
 62
     7
370
    13
390
F
100
AcDbText
 10
502.558868
 20
-252.857971
 30
0.0
 40
2.0
  1
315
 41
1.466666285714284
 72
     5
 11
507.6922
 21
-252.857971
 31
0.0
100
AcDbText
  0
ENDBLK
  5
845
330
337
100
AcDbEntity
  8
0
100
AcDbBlockEnd
  0
BLOCK
  5
846
330
338
100
AcDbEntity
  8
0
100
AcDbBlockBegin
  2
BLOCK394
 70
     0
 10
0.0
 20
0.0
 30
0.0
  3
BLOCK394
  1

  0
TEXT
  5
4B9
330
338
100
AcDbEntity
  8
0
 62
     7
370
    13
390
F
100
AcDbText
 10
512.558899
 20
-252.857971
 30
0.0
 40
2.0
  1
500
 41
1.315699751765883
 72
     5
 11
517.6922
 21
-252.857971
 31
0.0
100
AcDbText
  0
ENDBLK
  5
847
330
338
100
AcDbEntity
  8
0
100
AcDbBlockEnd
  0
BLOCK
  5
848
330
339
100
AcDbEntity
  8
0
100
AcDbBlockBegin
  2
BLOCK395
 70
     0
 10
0.0
 20
0.0
 30
0.0
  3
BLOCK395
  1

  0
TEXT
  5
4BC
330
339
100
AcDbEntity
  8
0
 62
     7
370
    13
390
F
100
AcDbText
 10
-174.280807
 20
218.108643
 30
0.0
 40
2.0
  1
A
 41
0.9777726666666808
 72
     5
 11
-172.814148
 21
218.108643
 31
0.0
100
AcDbText
  0
ENDBLK
  5
849
330
339
100
AcDbEntity
  8
0
100
AcDbBlockEnd
  0
BLOCK
  5
84A
330
33A
100
AcDbEntity
  8
0
100
AcDbBlockBegin
  2
BLOCK396
 70
     0
 10
0.0
 20
0.0
 30
0.0
  3
BLOCK396
  1

  0
TEXT
  5
4BF
330
33A
100
AcDbEntity
  8
0
 62
     7
370
    13
390
F
100
AcDbText
 10
-174.280807
 20
122.441948
 30
0.0
 40
2.0
  1
B
 41
1.128199230769247
 72
     5
 11
-172.814148
 21
122.441948
 31
0.0
100
AcDbText
  0
ENDBLK
  5
84B
330
33A
100
AcDbEntity
  8
0
100
AcDbBlockEnd
  0
BLOCK
  5
84C
330
33B
100
AcDbEntity
  8
0
100
AcDbBlockBegin
  2
BLOCK397
 70
     0
 10
0.0
 20
0.0
 30
0.0
  3
BLOCK397
  1

  0
TEXT
  5
4C2
330
33B
100
AcDbEntity
  8
0
 62
     7
370
    13
390
F
100
AcDbText
 10
-174.280807
 20
26.775288
 30
0.0
 40
2.0
  1
C
 41
1.333326363636383
 72
     5
 11
-172.814148
 21
26.775288
 31
0.0
100
AcDbText
  0
ENDBLK
  5
84D
330
33B
100
AcDbEntity
  8
0
100
AcDbBlockEnd
  0
BLOCK
  5
84E
330
33C
100
AcDbEntity
  8
0
100
AcDbBlockBegin
  2
BLOCK398
 70
     0
 10
0.0
 20
0.0
 30
0.0
  3
BLOCK398
  1

  0
TEXT
  5
4C5
330
33C
100
AcDbEntity
  8
0
 62
     7
370
    13
390
F
100
AcDbText
 10
-174.280807
 20
-68.891388
 30
0.0
 40
2.0
  1
D
 41
1.128199230769247
 72
     5
 11
-172.814148
 21
-68.891388
 31
0.0
100
AcDbText
  0
ENDBLK
  5
84F
330
33C
100
AcDbEntity
  8
0
100
AcDbBlockEnd
  0
BLOCK
  5
850
330
33D
100
AcDbEntity
  8
0
100
AcDbBlockBegin
  2
BLOCK399
 70
     0
 10
0.0
 20
0.0
 30
0.0
  3
BLOCK399
  1

  0
TEXT
  5
4C8
330
33D
100
AcDbEntity
  8
0
 62
     7
370
    13
390
F
100
AcDbText
 10
-174.280807
 20
-164.558029
 30
0.0
 40
2.0
  1
E
 41
1.333326363636383
 72
     5
 11
-172.814148
 21
-164.558029
 31
0.0
100
AcDbText
  0
ENDBLK
  5
851
330
33D
100
AcDbEntity
  8
0
100
AcDbBlockEnd
  0
BLOCK
  5
852
330
33E
100
AcDbEntity
  8
0
100
AcDbBlockBegin
  2
BLOCK400
 70
     0
 10
0.0
 20
0.0
 30
0.0
  3
BLOCK400
  1

  0
TEXT
  5
4CB
330
33E
100
AcDbEntity
  8
0
 62
     7
370
    13
390
F
100
AcDbText
 10
-174.280807
 20
-260.224762
 30
0.0
 40
2.0
  1
F
 41
1.333326363636383
 72
     5
 11
-172.814148
 21
-260.224762
 31
0.0
100
AcDbText
  0
ENDBLK
  5
853
330
33E
100
AcDbEntity
  8
0
100
AcDbBlockEnd
  0
BLOCK
  5
854
330
33F
100
AcDbEntity
  8
0
100
AcDbBlockBegin
  2
BLOCK401
 70
     0
 10
0.0
 20
0.0
 30
0.0
  3
BLOCK401
  1

  0
TEXT
  5
4CE
330
33F
100
AcDbEntity
  8
0
 62
     7
370
    13
390
F
100
AcDbText
 10
-126.72525
 20
-310.558075
 30
0.0
 40
2.0
  1
1
 41
2.095238571428573
 72
     5
 11
-125.258583
 21
-310.558075
 31
0.0
100
AcDbText
  0
ENDBLK
  5
855
330
33F
100
AcDbEntity
  8
0
100
AcDbBlockEnd
  0
BLOCK
  5
856
330
340
100
AcDbEntity
  8
0
100
AcDbBlockBegin
  2
BLOCK402
 70
     0
 10
0.0
 20
0.0
 30
0.0
  3
BLOCK402
  1

  0
TEXT
  5
4D1
330
340
100
AcDbEntity
  8
0
 62
     7
370
    13
390
F
100
AcDbText
 10
-36.61412
 20
-310.558075
 30
0.0
 40
2.0
  1
2
 41
1.332797794557542
 72
     5
 11
-35.147453
 21
-310.558075
 31
0.0
100
AcDbText
  0
ENDBLK
  5
857
330
340
100
AcDbEntity
  8
0
100
AcDbBlockEnd
  0
BLOCK
  5
858
330
341
100
AcDbEntity
  8
0
100
AcDbBlockBegin
  2
BLOCK403
 70
     0
 10
0.0
 20
0.0
 30
0.0
  3
BLOCK403
  1

  0
TEXT
  5
4D4
330
341
100
AcDbEntity
  8
0
 62
     7
370
    13
390
F
100
AcDbText
 10
53.49699
 20
-310.558075
 30
0.0
 40
2.0
  1
3
 41
1.333333636363637
 72
     5
 11
54.963657
 21
-310.558075
 31
0.0
100
AcDbText
  0
ENDBLK
  5
859
330
341
100
AcDbEntity
  8
0
100
AcDbBlockEnd
  0
BLOCK
  5
85A
330
342
100
AcDbEntity
  8
0
100
AcDbBlockBegin
  2
BLOCK404
 70
     0
 10
0.0
 20
0.0
 30
0.0
  3
BLOCK404
  1

  0
TEXT
  5
4D7
330
342
100
AcDbEntity
  8
0
 62
     7
370
    13
390
F
100
AcDbText
 10
143.608093
 20
-310.558075
 30
0.0
 40
2.0
  1
4
 41
1.128199999999993
 72
     5
 11
145.074753
 21
-310.558075
 31
0.0
100
AcDbText
  0
ENDBLK
  5
85B
330
342
100
AcDbEntity
  8
0
100
AcDbBlockEnd
  0
BLOCK
  5
85C
330
343
100
AcDbEntity
  8
0
100
AcDbBlockBegin
  2
BLOCK405
 70
     0
 10
0.0
 20
0.0
 30
0.0
  3
BLOCK405
  1

  0
TEXT
  5
4DA
330
343
100
AcDbEntity
  8
0
 62
     7
370
    13
390
F
100
AcDbText
 10
233.719193
 20
-310.558075
 30
0.0
 40
2.0
  1
5
 41
1.333326363636383
 72
     5
 11
235.185852
 21
-310.558075
 31
0.0
100
AcDbText
  0
ENDBLK
  5
85D
330
343
100
AcDbEntity
  8
0
100
AcDbBlockEnd
  0
BLOCK
  5
85E
330
344
100
AcDbEntity
  8
0
100
AcDbBlockBegin
  2
BLOCK406
 70
     0
 10
0.0
 20
0.0
 30
0.0
  3
BLOCK406
  1

  0
TEXT
  5
4DD
330
344
100
AcDbEntity
  8
0
 62
     7
370
    13
390
F
100
AcDbText
 10
323.830353
 20
-310.558075
 30
0.0
 40
2.0
  1
6
 41
1.333340909090917
 72
     5
 11
325.297028
 21
-310.558075
 31
0.0
100
AcDbText
  0
ENDBLK
  5
85F
330
344
100
AcDbEntity
  8
0
100
AcDbBlockEnd
  0
BLOCK
  5
860
330
345
100
AcDbEntity
  8
0
100
AcDbBlockBegin
  2
BLOCK407
 70
     0
 10
0.0
 20
0.0
 30
0.0
  3
BLOCK407
  1

  0
TEXT
  5
4E0
330
345
100
AcDbEntity
  8
0
 62
     7
370
    13
390
F
100
AcDbText
 10
413.941437
 20
-310.558075
 30
0.0
 40
2.0
  1
7
 41
1.333340909090917
 72
     5
 11
415.408112
 21
-310.558075
 31
0.0
100
AcDbText
  0
ENDBLK
  5
861
330
345
100
AcDbEntity
  8
0
100
AcDbBlockEnd
  0
BLOCK
  5
862
330
346
100
AcDbEntity
  8
0
100
AcDbBlockBegin
  2
BLOCK408
 70
     0
 10
0.0
 20
0.0
 30
0.0
  3
BLOCK408
  1

  0
TEXT
  5
4E3
330
346
100
AcDbEntity
  8
0
 62
     7
370
    13
390
F
100
AcDbText
 10
504.052551
 20
-310.558075
 30
0.0
 40
2.0
  1
8
 41
1.33394724874944
 72
     5
 11
505.519226
 21
-310.558075
 31
0.0
100
AcDbText
  0
ENDBLK
  5
863
330
346
100
AcDbEntity
  8
0
100
AcDbBlockEnd
  0
BLOCK
  5
864
330
347
100
AcDbEntity
  8
0
100
AcDbBlockBegin
  2
BLOCK409
 70
     0
 10
0.0
 20
0.0
 30
0.0
  3
BLOCK409
  1

  0
TEXT
  5
4E6
330
347
100
AcDbEntity
  8
0
 62
     7
370
    13
390
F
100
AcDbText
 10
594.163635
 20
-310.558075
 30
0.0
 40
2.0
  1
9
 41
1.324923236964545
 72
     5
 11
595.63031
 21
-310.558075
 31
0.0
100
AcDbText
  0
ENDBLK
  5
865
330
347
100
AcDbEntity
  8
0
100
AcDbBlockEnd
  0
BLOCK
  5
866
330
348
100
AcDbEntity
  8
0
100
AcDbBlockBegin
  2
BLOCK410
 70
     0
 10
0.0
 20
0.0
 30
0.0
  3
BLOCK410
  1

  0
TEXT
  5
4E9
330
348
100
AcDbEntity
  8
0
 62
     7
370
    13
390
F
100
AcDbText
 10
-126.72525
 20
268.441925
 30
0.0
 40
2.0
  1
1
 41
2.095238571428573
 72
     5
 11
-125.258583
 21
268.441925
 31
0.0
100
AcDbText
  0
ENDBLK
  5
867
330
348
100
AcDbEntity
  8
0
100
AcDbBlockEnd
  0
BLOCK
  5
868
330
349
100
AcDbEntity
  8
0
100
AcDbBlockBegin
  2
BLOCK411
 70
     0
 10
0.0
 20
0.0
 30
0.0
  3
BLOCK411
  1

  0
TEXT
  5
4EC
330
349
100
AcDbEntity
  8
0
 62
     7
370
    13
390
F
100
AcDbText
 10
-36.61412
 20
268.441925
 30
0.0
 40
2.0
  1
2
 41
1.332797794557542
 72
     5
 11
-35.147453
 21
268.441925
 31
0.0
100
AcDbText
  0
ENDBLK
  5
869
330
349
100
AcDbEntity
  8
0
100
AcDbBlockEnd
  0
BLOCK
  5
86A
330
34A
100
AcDbEntity
  8
0
100
AcDbBlockBegin
  2
BLOCK412
 70
     0
 10
0.0
 20
0.0
 30
0.0
  3
BLOCK412
  1

  0
TEXT
  5
4EF
330
34A
100
AcDbEntity
  8
0
 62
     7
370
    13
390
F
100
AcDbText
 10
53.49699
 20
268.441925
 30
0.0
 40
2.0
  1
3
 41
1.333333636363637
 72
     5
 11
54.963657
 21
268.441925
 31
0.0
100
AcDbText
  0
ENDBLK
  5
86B
330
34A
100
AcDbEntity
  8
0
100
AcDbBlockEnd
  0
BLOCK
  5
86C
330
34B
100
AcDbEntity
  8
0
100
AcDbBlockBegin
  2
BLOCK413
 70
     0
 10
0.0
 20
0.0
 30
0.0
  3
BLOCK413
  1

  0
TEXT
  5
4F2
330
34B
100
AcDbEntity
  8
0
 62
     7
370
    13
390
F
100
AcDbText
 10
143.608093
 20
268.441925
 30
0.0
 40
2.0
  1
4
 41
1.128199999999993
 72
     5
 11
145.074753
 21
268.441925
 31
0.0
100
AcDbText
  0
ENDBLK
  5
86D
330
34B
100
AcDbEntity
  8
0
100
AcDbBlockEnd
  0
BLOCK
  5
86E
330
34C
100
AcDbEntity
  8
0
100
AcDbBlockBegin
  2
BLOCK414
 70
     0
 10
0.0
 20
0.0
 30
0.0
  3
BLOCK414
  1

  0
TEXT
  5
4F5
330
34C
100
AcDbEntity
  8
0
 62
     7
370
    13
390
F
100
AcDbText
 10
233.719193
 20
268.441925
 30
0.0
 40
2.0
  1
5
 41
1.333326363636383
 72
     5
 11
235.185852
 21
268.441925
 31
0.0
100
AcDbText
  0
ENDBLK
  5
86F
330
34C
100
AcDbEntity
  8
0
100
AcDbBlockEnd
  0
BLOCK
  5
870
330
34D
100
AcDbEntity
  8
0
100
AcDbBlockBegin
  2
BLOCK415
 70
     0
 10
0.0
 20
0.0
 30
0.0
  3
BLOCK415
  1

  0
TEXT
  5
4F8
330
34D
100
AcDbEntity
  8
0
 62
     7
370
    13
390
F
100
AcDbText
 10
323.830353
 20
268.441925
 30
0.0
 40
2.0
  1
6
 41
1.333340909090917
 72
     5
 11
325.297028
 21
268.441925
 31
0.0
100
AcDbText
  0
ENDBLK
  5
871
330
34D
100
AcDbEntity
  8
0
100
AcDbBlockEnd
  0
BLOCK
  5
872
330
34E
100
AcDbEntity
  8
0
100
AcDbBlockBegin
  2
BLOCK416
 70
     0
 10
0.0
 20
0.0
 30
0.0
  3
BLOCK416
  1

  0
TEXT
  5
4FB
330
34E
100
AcDbEntity
  8
0
 62
     7
370
    13
390
F
100
AcDbText
 10
413.941437
 20
268.441925
 30
0.0
 40
2.0
  1
7
 41
1.333340909090917
 72
     5
 11
415.408112
 21
268.441925
 31
0.0
100
AcDbText
  0
ENDBLK
  5
873
330
34E
100
AcDbEntity
  8
0
100
AcDbBlockEnd
  0
BLOCK
  5
874
330
34F
100
AcDbEntity
  8
0
100
AcDbBlockBegin
  2
BLOCK417
 70
     0
 10
0.0
 20
0.0
 30
0.0
  3
BLOCK417
  1

  0
TEXT
  5
4FE
330
34F
100
AcDbEntity
  8
0
 62
     7
370
    13
390
F
100
AcDbText
 10
504.052551
 20
268.441925
 30
0.0
 40
2.0
  1
8
 41
1.33394724874944
 72
     5
 11
505.519226
 21
268.441925
 31
0.0
100
AcDbText
  0
ENDBLK
  5
875
330
34F
100
AcDbEntity
  8
0
100
AcDbBlockEnd
  0
BLOCK
  5
876
330
350
100
AcDbEntity
  8
0
100
AcDbBlockBegin
  2
BLOCK418
 70
     0
 10
0.0
 20
0.0
 30
0.0
  3
BLOCK418
  1

  0
TEXT
  5
501
330
350
100
AcDbEntity
  8
0
 62
     7
370
    13
390
F
100
AcDbText
 10
594.163635
 20
268.441925
 30
0.0
 40
2.0
  1
9
 41
1.324923236964545
 72
     5
 11
595.63031
 21
268.441925
 31
0.0
100
AcDbText
  0
ENDBLK
  5
877
330
350
100
AcDbEntity
  8
0
100
AcDbBlockEnd
  0
BLOCK
  5
878
330
351
100
AcDbEntity
  8
0
100
AcDbBlockBegin
  2
BLOCK419
 70
     0
 10
0.0
 20
0.0
 30
0.0
  3
BLOCK419
  1

  0
TEXT
  5
504
330
351
100
AcDbEntity
  8
0
 62
     7
370
    13
390
F
100
AcDbText
 10
641.719177
 20
218.108643
 30
0.0
 40
2.0
  1
A
 41
0.9777833333333396
 72
     5
 11
643.185852
 21
218.108643
 31
0.0
100
AcDbText
  0
ENDBLK
  5
879
330
351
100
AcDbEntity
  8
0
100
AcDbBlockEnd
  0
BLOCK
  5
87A
330
352
100
AcDbEntity
  8
0
100
AcDbBlockBegin
  2
BLOCK420
 70
     0
 10
0.0
 20
0.0
 30
0.0
  3
BLOCK420
  1

  0
TEXT
  5
507
330
352
100
AcDbEntity
  8
0
 62
     7
370
    13
390
F
100
AcDbText
 10
641.719177
 20
122.441948
 30
0.0
 40
2.0
  1
B
 41
1.128211538461546
 72
     5
 11
643.185852
 21
122.441948
 31
0.0
100
AcDbText
  0
ENDBLK
  5
87B
330
352
100
AcDbEntity
  8
0
100
AcDbBlockEnd
  0
BLOCK
  5
87C
330
353
100
AcDbEntity
  8
0
100
AcDbBlockBegin
  2
BLOCK421
 70
     0
 10
0.0
 20
0.0
 30
0.0
  3
BLOCK421
  1

  0
TEXT
  5
50A
330
353
100
AcDbEntity
  8
0
 62
     7
370
    13
390
F
100
AcDbText
 10
641.719177
 20
26.775288
 30
0.0
 40
2.0
  1
C
 41
1.333340909090917
 72
     5
 11
643.185852
 21
26.775288
 31
0.0
100
AcDbText
  0
ENDBLK
  5
87D
330
353
100
AcDbEntity
  8
0
100
AcDbBlockEnd
  0
BLOCK
  5
87E
330
354
100
AcDbEntity
  8
0
100
AcDbBlockBegin
  2
BLOCK422
 70
     0
 10
0.0
 20
0.0
 30
0.0
  3
BLOCK422
  1

  0
TEXT
  5
50D
330
354
100
AcDbEntity
  8
0
 62
     7
370
    13
390
F
100
AcDbText
 10
641.719177
 20
-68.891388
 30
0.0
 40
2.0
  1
D
 41
1.128211538461546
 72
     5
 11
643.185852
 21
-68.891388
 31
0.0
100
AcDbText
  0
ENDBLK
  5
87F
330
354
100
AcDbEntity
  8
0
100
AcDbBlockEnd
  0
BLOCK
  5
880
330
355
100
AcDbEntity
  8
0
100
AcDbBlockBegin
  2
BLOCK423
 70
     0
 10
0.0
 20
0.0
 30
0.0
  3
BLOCK423
  1

  0
TEXT
  5
510
330
355
100
AcDbEntity
  8
0
 62
     7
370
    13
390
F
100
AcDbText
 10
641.719177
 20
-164.558029
 30
0.0
 40
2.0
  1
E
 41
1.333340909090917
 72
     5
 11
643.185852
 21
-164.558029
 31
0.0
100
AcDbText
  0
ENDBLK
  5
881
330
355
100
AcDbEntity
  8
0
100
AcDbBlockEnd
  0
BLOCK
  5
882
330
356
100
AcDbEntity
  8
0
100
AcDbBlockBegin
  2
BLOCK424
 70
     0
 10
0.0
 20
0.0
 30
0.0
  3
BLOCK424
  1

  0
TEXT
  5
513
330
356
100
AcDbEntity
  8
0
 62
     7
370
    13
390
F
100
AcDbText
 10
641.719177
 20
-260.224762
 30
0.0
 40
2.0
  1
F
 41
1.333340909090917
 72
     5
 11
643.185852
 21
-260.224762
 31
0.0
100
AcDbText
  0
ENDBLK
  5
883
330
356
100
AcDbEntity
  8
0
100
AcDbBlockEnd
  0
BLOCK
  5
884
330
357
100
AcDbEntity
  8
0
100
AcDbBlockBegin
  2
BLOCK425
 70
     0
 10
0.0
 20
0.0
 30
0.0
  3
BLOCK425
  1

  0
TEXT
  5
516
330
357
100
AcDbEntity
  8
0
 62
     7
370
    13
390
F
100
AcDbText
 10
592.638428
 20
-273.174316
 30
0.0
 40
2.0
  1
DISEGNATO
 41
0.8817716030534332
 72
     5
 11
604.189636
 21
-273.174316
 31
0.0
100
AcDbText
  0
ENDBLK
  5
885
330
357
100
AcDbEntity
  8
0
100
AcDbBlockEnd
  0
BLOCK
  5
886
330
358
100
AcDbEntity
  8
0
100
AcDbBlockBegin
  2
BLOCK426
 70
     0
 10
0.0
 20
0.0
 30
0.0
  3
BLOCK426
  1

  0
TEXT
  5
519
330
358
100
AcDbEntity
  8
0
 62
     7
370
    13
390
F
100
AcDbText
 10
592.638428
 20
-277.973358
 30
0.0
 40
2.0
  1
APPROVATO
 41
0.7857964625850322
 72
     5
 11
604.189636
 21
-277.973358
 31
0.0
100
AcDbText
  0
ENDBLK
  5
887
330
358
100
AcDbEntity
  8
0
100
AcDbBlockEnd
  0
BLOCK
  5
888
330
359
100
AcDbEntity
  8
0
100
AcDbBlockBegin
  2
BLOCK427
 70
     0
 10
0.0
 20
0.0
 30
0.0
  3
BLOCK427
  1

  0
TEXT
  5
51C
330
359
100
AcDbEntity
  8
0
 62
     7
370
    13
390
F
100
AcDbText
 10
594.633667
 20
-283.250153
 30
0.0
 40
2.0
  1
VISTO
 41
0.9131389855072624
 72
     5
 11
600.934326
 21
-283.250153
 31
0.0
100
AcDbText
  0
ENDBLK
  5
889
330
359
100
AcDbEntity
  8
0
100
AcDbBlockEnd
  0
BLOCK
  5
88A
330
35A
100
AcDbEntity
  8
0
100
AcDbBlockBegin
  2
BLOCK428
 70
     0
 10
0.0
 20
0.0
 30
0.0
  3
BLOCK428
  1

  0
TEXT
  5
51F
330
35A
100
AcDbEntity
  8
0
 62
     7
370
    13
390
F
100
AcDbText
 10
579.326904
 20
-280.080841
 30
0.0
 40
4.0
  1
1:1
 41
2.229614347826081
 72
     5
 11
589.58313
 21
-280.080841
 31
0.0
100
AcDbText
  0
ENDBLK
  5
88B
330
35A
100
AcDbEntity
  8
0
100
AcDbBlockEnd
  0
BLOCK
  5
88C
330
35B
100
AcDbEntity
  8
0
100
AcDbBlockBegin
  2
BLOCK429
 70
     0
 10
0.0
 20
0.0
 30
0.0
  3
BLOCK429
  1

  0
TEXT
  5
522
330
35B
100
AcDbEntity
  8
0
 62
     7
370
    13
390
F
100
AcDbText
 10
586.224304
 20
-302.372253
 30
0.0
 40
5.5
  1
5631.547.6
 41
1.310443941940412
 72
     5
 11
629.108582
 21
-302.372253
 31
0.0
100
AcDbText
  0
ENDBLK
  5
88D
330
35B
100
AcDbEntity
  8
0
100
AcDbBlockEnd
  0
BLOCK
  5
88E
330
35C
100
AcDbEntity
  8
0
100
AcDbBlockBegin
  2
BLOCK430
 70
     0
 10
0.0
 20
0.0
 30
0.0
  3
BLOCK430
  1

  0
TEXT
  5
525
330
35C
100
AcDbEntity
  8
0
 62
     7
370
    13
390
F
100
AcDbText
 10
609.241943
 20
-272.978882
 30
0.0
 40
2.0
  1
28-07-93
 41
1.341235887616479
 72
     5
 11
623.870117
 21
-272.978882
 31
0.0
100
AcDbText
  0
ENDBLK
  5
88F
330
35C
100
AcDbEntity
  8
0
100
AcDbBlockEnd
  0
BLOCK
  5
890
330
35D
100
AcDbEntity
  8
0
100
AcDbBlockBegin
  2
BLOCK431
 70
     0
 10
0.0
 20
0.0
 30
0.0
  3
BLOCK431
  1

  0
TEXT
  5
528
330
35D
100
AcDbEntity
  8
0
 62
     7
370
    13
390
F
100
AcDbText
 10
517.249451
 20
-293.359375
 30
0.0
 40
3.0
  1
Alluminio speculare 99.85
 41
1.251521680054645
 72
     5
 11
573.039429
 21
-293.359375
 31
0.0
100
AcDbText
  0
ENDBLK
  5
891
330
35D
100
AcDbEntity
  8
0
100
AcDbBlockEnd
  0
BLOCK
  5
892
330
35E
100
AcDbEntity
  8
0
100
AcDbBlockBegin
  2
BLOCK432
 70
     0
 10
0.0
 20
0.0
 30
0.0
  3
BLOCK432
  1

  0
TEXT
  5
52B
330
35E
100
AcDbEntity
  8
0
 62
     7
370
    13
390
F
100
AcDbText
 10
466.869202
 20
-279.026184
 30
0.0
 40
3.0
  1
RIFLETTORE CONCENTRANTE ZNT 1X36/1X58 W
 41
1.286324421257577
 72
     5
 11
573.568848
 21
-279.026184
 31
0.0
100
AcDbText
  0
ENDBLK
  5
893
330
35E
100
AcDbEntity
  8
0
100
AcDbBlockEnd
  0
BLOCK
  5
894
330
35F
100
AcDbEntity
  8
0
100
AcDbBlockBegin
  2
BLOCK433
 70
     0
 10
0.0
 20
0.0
 30
0.0
  3
BLOCK433
  1

  0
TEXT
  5
52E
330
35F
100
AcDbEntity
  8
0
 62
     7
370
    13
390
F
100
AcDbText
 10
51.548958
 20
21.676001
 30
0.0
 40
3.0
  1
15
 41
1.57142507936508
 72
     5
 11
56.498947
 21
21.676001
 31
0.0
100
AcDbText
  0
ENDBLK
  5
895
330
35F
100
AcDbEntity
  8
0
100
AcDbBlockEnd
  0
BLOCK
  5
896
330
360
100
AcDbEntity
  8
0
100
AcDbBlockBegin
  2
BLOCK434
 70
     0
 10
0.0
 20
0.0
 30
0.0
  3
BLOCK434
  1

  0
TEXT
  5
531
330
360
100
AcDbEntity
  8
0
 62
     7
370
    13
390
F
100
AcDbText
 10
38.298958
 20
-23.520264
 30
0.0
 40
3.0
  1
10
 41
1.570247540901712
 72
     5
 11
43.248947
 21
-23.520264
 31
0.0
100
AcDbText
  0
ENDBLK
  5
897
330
360
100
AcDbEntity
  8
0
100
AcDbBlockEnd
  0
BLOCK
  5
898
330
361
100
AcDbEntity
  8
0
100
AcDbBlockBegin
  2
BLOCK435
 70
     0
 10
0.0
 20
0.0
 30
0.0
  3
BLOCK435
  1

  0
TEXT
  5
534
330
361
100
AcDbEntity
  8
0
 62
     7
370
    13
390
F
100
AcDbText
 10
36.611668
 20
-1.891948
 30
0.0
 40
3.0
  1
9
 50
90.0
 41
1.324915709034372
 72
     5
 11
36.611668
 21
0.308052
 31
0.0
100
AcDbText
  0
ENDBLK
  5
899
330
361
100
AcDbEntity
  8
0
100
AcDbBlockEnd
  0
BLOCK
  5
89A
330
362
100
AcDbEntity
  8
0
100
AcDbBlockBegin
  2
BLOCK436
 70
     0
 10
0.0
 20
0.0
 30
0.0
  3
BLOCK436
  1

  0
TEXT
  5
537
330
362
100
AcDbEntity
  8
0
 62
     7
370
    13
390
F
100
AcDbText
 10
30.222294
 20
-3.266948
 30
0.0
 40
3.0
  1
18
 50
89.99997685014803
 41
1.57179995236974
 72
     5
 11
30.222296
 21
1.683043
 31
0.0
100
AcDbText
  0
ENDBLK
  5
89B
330
362
100
AcDbEntity
  8
0
100
AcDbBlockEnd
  0
BLOCK
  5
89C
330
363
100
AcDbEntity
  8
0
100
AcDbBlockBegin
  2
BLOCK437
 70
     0
 10
0.0
 20
0.0
 30
0.0
  3
BLOCK437
  1

  0
TEXT
  5
53A
330
363
100
AcDbEntity
  8
0
 62
     7
370
    13
390
F
100
AcDbText
 10
23.205393
 20
-3.266948
 30
0.0
 40
3.0
  1
22
 50
89.99997685014803
 41
1.319764135244746
 72
     5
 11
23.205395
 21
1.683043
 31
0.0
100
AcDbText
  0
ENDBLK
  5
89D
330
363
100
AcDbEntity
  8
0
100
AcDbBlockEnd
  0
BLOCK
  5
89E
330
364
100
AcDbEntity
  8
0
100
AcDbBlockBegin
  2
BLOCK438
 70
     0
 10
0.0
 20
0.0
 30
0.0
  3
BLOCK438
  1

  0
TEXT
  5
53D
330
364
100
AcDbEntity
  8
0
 62
     7
370
    13
390
F
100
AcDbText
 10
22.991463
 20
16.311829
 30
0.0
 40
3.0
  1
2x45
 50
89.99997806853818
 41
1.266663030303123
 72
     5
 11
22.991467
 21
26.761799
 31
0.0
100
AcDbText
  0
ENDBLK
  5
89F
330
364
100
AcDbEntity
  8
0
100
AcDbBlockEnd
  0
BLOCK
  5
8A0
330
365
100
AcDbEntity
  8
0
100
AcDbBlockBegin
  2
BLOCK439
 70
     0
 10
0.0
 20
0.0
 30
0.0
  3
BLOCK439
  1

  0
TEXT
  5
540
330
365
100
AcDbEntity
  8
0
 62
     7
370
    13
390
F
100
AcDbText
 10
68.444443
 20
-23.407829
 30
0.0
 40
3.0
  1
2x45
 50
90.0
 41
1.26666303030303
 72
     5
 11
68.444443
 21
-12.957859
 31
0.0
100
AcDbText
  0
ENDBLK
  5
8A1
330
365
100
AcDbEntity
  8
0
100
AcDbBlockEnd
  0
BLOCK
  5
8A2
330
366
100
AcDbEntity
  8
0
100
AcDbBlockBegin
  2
BLOCK440
 70
     0
 10
0.0
 20
0.0
 30
0.0
  3
BLOCK440
  1

  0
TEXT
  5
543
330
366
100
AcDbEntity
  8
0
 62
     7
370
    13
390
F
100
AcDbText
 10
73.022545
 20
9.708526
 30
0.0
 40
3.0
  1
2x45
 50
90.0
 41
1.266663151515151
 72
     5
 11
73.022545
 21
20.158497
 31
0.0
100
AcDbText
  0
ENDBLK
  5
8A3
330
366
100
AcDbEntity
  8
0
100
AcDbBlockEnd
  0
BLOCK
  5
8A4
330
367
100
AcDbEntity
  8
0
100
AcDbBlockBegin
  2
BLOCK441
 70
     0
 10
0.0
 20
0.0
 30
0.0
  3
BLOCK441
  1

  0
TEXT
  5
546
330
367
100
AcDbEntity
  8
0
 62
     7
370
    13
390
F
100
AcDbText
 10
537.165405
 20
-252.608582
 30
0.0
 40
3.0
  1
c
 41
1.851264444444496
 72
     5
 11
539.664612
 21
-252.608582
 31
0.0
100
AcDbText
  0
ENDBLK
  5
8A5
330
367
100
AcDbEntity
  8
0
100
AcDbBlockEnd
  0
BLOCK
  5
8A6
330
368
100
AcDbEntity
  8
0
100
AcDbBlockBegin
  2
BLOCK442
 70
     0
 10
0.0
 20
0.0
 30
0.0
  3
BLOCK442
  1

  0
TEXT
  5
549
330
368
100
AcDbEntity
  8
0
 62
     7
370
    13
390
F
100
AcDbText
 10
607.557373
 20
-252.056839
 30
0.0
 40
2.5
  1
04/10/95
 41
1.092543605899365
 72
     5
 11
622.179688
 21
-252.056839
 31
0.0
100
AcDbText
  0
ENDBLK
  5
8A7
330
368
100
AcDbEntity
  8
0
100
AcDbBlockEnd
  0
BLOCK
  5
8A8
330
369
100
AcDbEntity
  8
0
100
AcDbBlockBegin
  2
BLOCK443
 70
     0
 10
0.0
 20
0.0
 30
0.0
  3
BLOCK443
  1

  0
TEXT
  5
54C
330
369
100
AcDbEntity
  8
0
 62
     7
370
    13
390
F
100
AcDbText
 10
543.626343
 20
-252.408112
 30
0.0
 40
2.5
  1
2101
 41
1.266427911111108
 72
     5
 11
550.75
 21
-252.408112
 31
0.0
100
AcDbText
  0
ENDBLK
  5
8A9
330
369
100
AcDbEntity
  8
0
100
AcDbBlockEnd
  0
BLOCK
  5
8AA
330
36A
100
AcDbEntity
  8
0
100
AcDbBlockBegin
  2
BLOCK444
 70
     0
 10
0.0
 20
0.0
 30
0.0
  3
BLOCK444
  1

  0
LINE
  5
54F
330
36A
100
AcDbEntity
  8
0
 62
     7
 48
0.034375
370
     5
390
F
100
AcDbLine
 10
470.725128
 20
-297.319153
 30
0.0
 11
469.350128
 21
-297.319153
 31
0.0
  0
LINE
  5
550
330
36A
100
AcDbEntity
  8
0
 62
     7
 48
0.012865
370
     5
390
F
100
AcDbLine
 10
469.350128
 20
-297.319153
 30
0.0
 11
468.838013
 21
-297.268707
 31
0.0
  0
LINE
  5
551
330
36A
100
AcDbEntity
  8
0
 62
     7
 48
0.012865
370
     5
390
F
100
AcDbLine
 10
468.838013
 20
-297.268707
 30
0.0
 11
468.345581
 21
-297.119324
 31
0.0
  0
LINE
  5
552
330
36A
100
AcDbEntity
  8
0
 62
     7
 48
0.012865
370
     5
390
F
100
AcDbLine
 10
468.345581
 20
-297.119324
 30
0.0
 11
467.891754
 21
-296.87674
 31
0.0
  0
LINE
  5
553
330
36A
100
AcDbEntity
  8
0
 62
     7
 48
0.012864
370
     5
390
F
100
AcDbLine
 10
467.891754
 20
-296.87674
 30
0.0
 11
467.493988
 21
-296.550293
 31
0.0
  0
LINE
  5
554
330
36A
100
AcDbEntity
  8
0
 62
     7
 48
0.012865
370
     5
390
F
100
AcDbLine
 10
467.493988
 20
-296.550293
 30
0.0
 11
467.167542
 21
-296.152496
 31
0.0
  0
LINE
  5
555
330
36A
100
AcDbEntity
  8
0
 62
     7
 48
0.012865
370
     5
390
F
100
AcDbLine
 10
467.167542
 20
-296.152496
 30
0.0
 11
466.924957
 21
-295.698669
 31
0.0
  0
LINE
  5
556
330
36A
100
AcDbEntity
  8
0
 62
     7
 48
0.012865
370
     5
390
F
100
AcDbLine
 10
466.924957
 20
-295.698669
 30
0.0
 11
466.775574
 21
-295.206238
 31
0.0
  0
LINE
  5
557
330
36A
100
AcDbEntity
  8
0
 62
     7
 48
0.012864
370
     5
390
F
100
AcDbLine
 10
466.775574
 20
-295.206238
 30
0.0
 11
466.725128
 21
-294.694153
 31
0.0
  0
LINE
  5
558
330
36A
100
AcDbEntity
  8
0
 62
     7
 48
0.012865
370
     5
390
F
100
AcDbLine
 10
466.725128
 20
-294.694153
 30
0.0
 11
466.775574
 21
-294.182037
 31
0.0
  0
LINE
  5
559
330
36A
100
AcDbEntity
  8
0
 62
     7
 48
0.012865
370
     5
390
F
100
AcDbLine
 10
466.775574
 20
-294.182037
 30
0.0
 11
466.924957
 21
-293.689606
 31
0.0
  0
LINE
  5
55A
330
36A
100
AcDbEntity
  8
0
 62
     7
 48
0.012865
370
     5
390
F
100
AcDbLine
 10
466.924957
 20
-293.689606
 30
0.0
 11
467.167542
 21
-293.235779
 31
0.0
  0
LINE
  5
55B
330
36A
100
AcDbEntity
  8
0
 62
     7
 48
0.012865
370
     5
390
F
100
AcDbLine
 10
467.167542
 20
-293.235779
 30
0.0
 11
467.493988
 21
-292.837982
 31
0.0
  0
LINE
  5
55C
330
36A
100
AcDbEntity
  8
0
 62
     7
 48
0.012864
370
     5
390
F
100
AcDbLine
 10
467.493988
 20
-292.837982
 30
0.0
 11
467.891754
 21
-292.511536
 31
0.0
  0
LINE
  5
55D
330
36A
100
AcDbEntity
  8
0
 62
     7
 48
0.012865
370
     5
390
F
100
AcDbLine
 10
467.891754
 20
-292.511536
 30
0.0
 11
468.345581
 21
-292.268951
 31
0.0
  0
LINE
  5
55E
330
36A
100
AcDbEntity
  8
0
 62
     7
 48
0.012865
370
     5
390
F
100
AcDbLine
 10
468.345581
 20
-292.268951
 30
0.0
 11
468.838013
 21
-292.119568
 31
0.0
  0
LINE
  5
55F
330
36A
100
AcDbEntity
  8
0
 62
     7
 48
0.012865
370
     5
390
F
100
AcDbLine
 10
468.838013
 20
-292.119568
 30
0.0
 11
469.350128
 21
-292.069153
 31
0.0
  0
LINE
  5
560
330
36A
100
AcDbEntity
  8
0
 62
     7
 48
0.034375
370
     5
390
F
100
AcDbLine
 10
469.350128
 20
-292.069153
 30
0.0
 11
470.725128
 21
-292.069153
 31
0.0
  0
LINE
  5
561
330
36A
100
AcDbEntity
  8
0
 62
     7
 48
0.0375
370
     5
390
F
100
AcDbLine
 10
470.725128
 20
-292.069153
 30
0.0
 11
470.725128
 21
-293.569153
 31
0.0
  0
LINE
  5
562
330
36A
100
AcDbEntity
  8
0
 62
     7
 48
0.05
370
     5
390
F
100
AcDbLine
 10
470.725128
 20
-293.569153
 30
0.0
 11
468.725128
 21
-293.569153
 31
0.0
  0
LINE
  5
563
330
36A
100
AcDbEntity
  8
0
 62
     7
 48
0.05625
370
     5
390
F
100
AcDbLine
 10
468.725128
 20
-293.569153
 30
0.0
 11
468.725128
 21
-295.819153
 31
0.0
  0
LINE
  5
564
330
36A
100
AcDbEntity
  8
0
 62
     7
 48
0.009375
370
     5
390
F
100
AcDbLine
 10
468.725128
 20
-295.819153
 30
0.0
 11
469.100128
 21
-295.819153
 31
0.0
  0
LINE
  5
565
330
36A
100
AcDbEntity
  8
0
 62
     7
 48
0.046875
370
     5
390
F
100
AcDbLine
 10
469.100128
 20
-295.819153
 30
0.0
 11
469.100128
 21
-293.944153
 31
0.0
  0
LINE
  5
566
330
36A
100
AcDbEntity
  8
0
 62
     7
 48
0.040625
370
     5
390
F
100
AcDbLine
 10
469.100128
 20
-293.944153
 30
0.0
 11
470.725128
 21
-293.944153
 31
0.0
  0
LINE
  5
567
330
36A
100
AcDbEntity
  8
0
 62
     7
 48
0.084375
370
     5
390
F
100
AcDbLine
 10
470.725128
 20
-293.944153
 30
0.0
 11
470.725128
 21
-297.319153
 31
0.0
  0
ENDBLK
  5
8AB
330
36A
100
AcDbEntity
  8
0
100
AcDbBlockEnd
  0
BLOCK
  5
8AC
330
36B
100
AcDbEntity
  8
0
100
AcDbBlockBegin
  2
BLOCK445
 70
     0
 10
0.0
 20
0.0
 30
0.0
  3
BLOCK445
  1

  0
TEXT
  5
56A
330
36B
100
AcDbEntity
  8
0
 62
     7
370
    13
390
F
100
AcDbText
 10
-89.609299
 20
-171.76149
 30
0.0
 40
3.0
  1
 35,4
 50
350.6115372937001
 41
1.374995946762412
 72
     5
 11
-76.586151
 21
-173.914764
 31
0.0
100
AcDbText
  0
ENDBLK
  5
8AD
330
36B
100
AcDbEntity
  8
0
100
AcDbBlockEnd
  0
BLOCK
  5
8AE
330
36C
100
AcDbEntity
  8
0
100
AcDbBlockBegin
  2
BLOCK446
 70
     0
 10
0.0
 20
0.0
 30
0.0
  3
BLOCK446
  1

  0
TEXT
  5
56D
330
36C
100
AcDbEntity
  8
0
 62
     7
370
    13
390
F
100
AcDbText
 10
-89.609299
 20
-171.76149
 30
0.0
 40
3.0
  1
R
 50
350.6113671398966
 41
1.128206687977704
 72
     5
 11
-87.438766
 21
-172.120377
 31
0.0
100
AcDbText
  0
ENDBLK
  5
8AF
330
36C
100
AcDbEntity
  8
0
100
AcDbBlockEnd
  0
BLOCK
  5
8B0
330
36D
100
AcDbEntity
  8
0
100
AcDbBlockBegin
  2
BLOCK447
 70
     0
 10
0.0
 20
0.0
 30
0.0
  3
BLOCK447
  1

  0
TEXT
  5
570
330
36D
100
AcDbEntity
  8
0
 62
     7
370
    13
390
F
100
AcDbText
 10
-67.878319
 20
-168.875259
 30
0.0
 40
3.0
  1
 63
 50
321.0784465836393
 41
1.252028783451821
 72
     5
 11
-61.887684
 21
-173.712814
 31
0.0
100
AcDbText
  0
ENDBLK
  5
8B1
330
36D
100
AcDbEntity
  8
0
100
AcDbBlockEnd
  0
BLOCK
  5
8B2
330
36E
100
AcDbEntity
  8
0
100
AcDbBlockBegin
  2
BLOCK448
 70
     0
 10
0.0
 20
0.0
 30
0.0
  3
BLOCK448
  1

  0
TEXT
  5
573
330
36E
100
AcDbEntity
  8
0
 62
     7
370
    13
390
F
100
AcDbText
 10
-67.878319
 20
-168.875259
 30
0.0
 40
3.0
  1
R
 50
321.0785929581569
 41
1.128204047474777
 72
     5
 11
-66.166702
 21
-170.257416
 31
0.0
100
AcDbText
  0
ENDBLK
  5
8B3
330
36E
100
AcDbEntity
  8
0
100
AcDbBlockEnd
  0
BLOCK
  5
8B4
330
36F
100
AcDbEntity
  8
0
100
AcDbBlockBegin
  2
BLOCK449
 70
     0
 10
0.0
 20
0.0
 30
0.0
  3
BLOCK449
  1

  0
TEXT
  5
576
330
36F
100
AcDbEntity
  8
0
 62
     7
370
    13
390
F
100
AcDbText
 10
-42.419689
 20
-181.499619
 30
0.0
 40
3.0
  1
 118,8
 50
310.7335893986583
 41
1.563950558384955
 72
     5
 11
-32.011665
 21
-193.585724
 31
0.0
100
AcDbText
  0
ENDBLK
  5
8B5
330
36F
100
AcDbEntity
  8
0
100
AcDbBlockEnd
  0
BLOCK
  5
8B6
330
370
100
AcDbEntity
  8
0
100
AcDbBlockBegin
  2
BLOCK450
 70
     0
 10
0.0
 20
0.0
 30
0.0
  3
BLOCK450
  1

  0
TEXT
  5
579
330
370
100
AcDbEntity
  8
0
 62
     7
370
    13
390
F
100
AcDbText
 10
-42.419689
 20
-181.499619
 30
0.0
 40
3.0
  1
R
 50
310.7335698306358
 41
1.128203973807455
 72
     5
 11
-40.984097
 21
-183.166672
 31
0.0
100
AcDbText
  0
ENDBLK
  5
8B7
330
370
100
AcDbEntity
  8
0
100
AcDbBlockEnd
  0
BLOCK
  5
8B8
330
371
100
AcDbEntity
  8
0
100
AcDbBlockBegin
  2
BLOCK451
 70
     0
 10
0.0
 20
0.0
 30
0.0
  3
BLOCK451
  1

  0
TEXT
  5
57C
330
371
100
AcDbEntity
  8
0
 62
     7
370
    13
390
F
100
AcDbText
 10
-77.844955
 20
-193.570801
 30
0.0
 40
3.0
  1
60
 41
1.319166095897598
 72
     5
 11
-72.894966
 21
-193.570801
 31
0.0
100
AcDbText
  0
ENDBLK
  5
8B9
330
371
100
AcDbEntity
  8
0
100
AcDbBlockEnd
  0
BLOCK
  5
8BA
330
372
100
AcDbEntity
  8
0
100
AcDbBlockBegin
  2
BLOCK452
 70
     0
 10
0.0
 20
0.0
 30
0.0
  3
BLOCK452
  1

  0
TEXT
  5
57F
330
372
100
AcDbEntity
  8
0
 62
     7
370
    13
390
F
100
AcDbText
 10
-50.015877
 20
-163.955811
 30
0.0
 40
3.0
  1
12,5
 50
89.99997806853187
 41
1.658724920635045
 72
     5
 11
-50.015873
 21
-153.505844
 31
0.0
100
AcDbText
  0
ENDBLK
  5
8BB
330
372
100
AcDbEntity
  8
0
100
AcDbBlockEnd
  0
BLOCK
  5
8BC
330
373
100
AcDbEntity
  8
0
100
AcDbBlockBegin
  2
BLOCK453
 70
     0
 10
0.0
 20
0.0
 30
0.0
  3
BLOCK453
  1

  0
TEXT
  5
582
330
373
100
AcDbEntity
  8
0
 62
     7
370
    13
390
F
100
AcDbText
 10
-61.719955
 20
-229.771683
 30
0.0
 40
3.0
  1
100,5
 41
1.571423571428572
 72
     5
 11
-48.519997
 21
-229.771683
 31
0.0
100
AcDbText
  0
ENDBLK
  5
8BD
330
373
100
AcDbEntity
  8
0
100
AcDbBlockEnd
  0
BLOCK
  5
8BE
330
374
100
AcDbEntity
  8
0
100
AcDbBlockBegin
  2
BLOCK454
 70
     0
 10
0.0
 20
0.0
 30
0.0
  3
BLOCK454
  1

  0
TEXT
  5
585
330
374
100
AcDbEntity
  8
0
 62
     7
370
    13
390
F
100
AcDbText
 10
-3.448869
 20
-207.01619
 30
0.0
 40
3.0
  1
50,9
 50
89.99998355139891
 41
1.512190539052044
 72
     5
 11
-3.448866
 21
-196.566223
 31
0.0
100
AcDbText
  0
ENDBLK
  5
8BF
330
374
100
AcDbEntity
  8
0
100
AcDbBlockEnd
  0
BLOCK
  5
8C0
330
375
100
AcDbEntity
  8
0
100
AcDbBlockBegin
  2
BLOCK455
 70
     0
 10
0.0
 20
0.0
 30
0.0
  3
BLOCK455
  1

  0
TEXT
  5
588
330
375
100
AcDbEntity
  8
0
 62
     7
370
    13
390
F
100
AcDbText
 10
-69.257034
 20
-218.223846
 30
0.0
 40
2.999999
  1
 3,5
 50
355.3591355947365
 41
1.451384788568798
 72
     5
 11
-58.841328
 21
-219.069351
 31
0.0
100
AcDbText
  0
ENDBLK
  5
8C1
330
375
100
AcDbEntity
  8
0
100
AcDbBlockEnd
  0
BLOCK
  5
8C2
330
376
100
AcDbEntity
  8
0
100
AcDbBlockBegin
  2
BLOCK456
 70
     0
 10
0.0
 20
0.0
 30
0.0
  3
BLOCK456
  1

  0
TEXT
  5
58B
330
376
100
AcDbEntity
  8
0
 62
     7
370
    13
390
F
100
AcDbText
 10
-69.257034
 20
-218.223846
 30
0.0
 40
2.999999
  1
R
 50
355.3593329747054
 41
1.128205118656307
 72
     5
 11
-67.064247
 21
-218.40184
 31
0.0
100
AcDbText
  0
ENDBLK
  5
8C3
330
376
100
AcDbEntity
  8
0
100
AcDbBlockEnd
  0
BLOCK
  5
8C4
330
377
100
AcDbEntity
  8
0
100
AcDbBlockBegin
  2
BLOCK457
 70
     0
 10
0.0
 20
0.0
 30
0.0
  3
BLOCK457
  1

  0
TEXT
  5
58E
330
377
100
AcDbEntity
  8
0
 62
     7
370
    13
390
F
100
AcDbText
 10
-66.534698
 20
-133.803268
 30
0.0
 40
3.0
  1
 3,5
 50
357.7716901869082
 41
1.451384998091683
 72
     5
 11
-56.092628
 21
-134.209579
 31
0.0
100
AcDbText
  0
ENDBLK
  5
8C5
330
377
100
AcDbEntity
  8
0
100
AcDbBlockEnd
  0
BLOCK
  5
8C6
330
378
100
AcDbEntity
  8
0
100
AcDbBlockBegin
  2
BLOCK458
 70
     0
 10
0.0
 20
0.0
 30
0.0
  3
BLOCK458
  1

  0
TEXT
  5
591
330
378
100
AcDbEntity
  8
0
 62
     7
370
    13
390
F
100
AcDbText
 10
-66.534698
 20
-133.803268
 30
0.0
 40
3.0
  1
R
 50
357.7716447530653
 41
1.128203408107083
 72
     5
 11
-64.336365
 21
-133.888809
 31
0.0
100
AcDbText
  0
ENDBLK
  5
8C7
330
378
100
AcDbEntity
  8
0
100
AcDbBlockEnd
  0
BLOCK
  5
8C8
330
379
100
AcDbEntity
  8
0
100
AcDbBlockBegin
  2
BLOCK459
 70
     0
 10
0.0
 20
0.0
 30
0.0
  3
BLOCK459
  1

  0
TEXT
  5
594
330
379
100
AcDbEntity
  8
0
 62
     7
370
    13
390
F
100
AcDbText
 10
608.94104
 20
-453.632141
 30
0.0
 40
2.0
  1
16-06-93
 41
1.392232776867168
 72
     5
 11
623.569214
 21
-453.632141
 31
0.0
100
AcDbText
  0
ENDBLK
  5
8C9
330
379
100
AcDbEntity
  8
0
100
AcDbBlockEnd
  0
BLOCK
  5
8CA
330
37A
100
AcDbEntity
  8
0
100
AcDbBlockBegin
  2
BLOCK460
 70
     0
 10
0.0
 20
0.0
 30
0.0
  3
BLOCK460
  1

  0
TEXT
  5
597
330
37A
100
AcDbEntity
  8
0
 62
     7
370
    13
390
F
100
AcDbText
 10
608.721863
 20
-458.585693
 30
0.0
 40
2.0
  1
16-06-93
 41
1.392232776867178
 72
     5
 11
623.350037
 21
-458.585693
 31
0.0
100
AcDbText
  0
ENDBLK
  5
8CB
330
37A
100
AcDbEntity
  8
0
100
AcDbBlockEnd
  0
BLOCK
  5
8CC
330
37B
100
AcDbEntity
  8
0
100
AcDbBlockBegin
  2
BLOCK461
 70
     0
 10
0.0
 20
0.0
 30
0.0
  3
BLOCK461
  1

  0
TEXT
  5
59A
330
37B
100
AcDbEntity
  8
0
 62
     7
370
    13
390
F
100
AcDbText
 10
538.502197
 20
-438.075989
 30
0.0
 40
2.0
  1
A
 41
1.000285333333295
 72
     5
 11
540.002625
 21
-438.075989
 31
0.0
100
AcDbText
  0
ENDBLK
  5
8CD
330
37B
100
AcDbEntity
  8
0
100
AcDbBlockEnd
  0
BLOCK
  5
8CE
330
37C
100
AcDbEntity
  8
0
100
AcDbBlockBegin
  2
BLOCK462
 70
     0
 10
0.0
 20
0.0
 30
0.0
  3
BLOCK462
  1

  0
TEXT
  5
59D
330
37C
100
AcDbEntity
  8
0
 62
     7
370
    13
390
F
100
AcDbText
 10
557.682861
 20
-437.736145
 30
0.0
 40
2.0
  1
AGGIORNATO DISEGNO
 41
1.288888108108108
 72
     5
 11
591.065063
 21
-437.736145
 31
0.0
100
AcDbText
  0
ENDBLK
  5
8CF
330
37C
100
AcDbEntity
  8
0
100
AcDbBlockEnd
  0
BLOCK
  5
8D0
330
37D
100
AcDbEntity
  8
0
100
AcDbBlockBegin
  2
BLOCK463
 70
     0
 10
0.0
 20
0.0
 30
0.0
  3
BLOCK463
  1

  0
TEXT
  5
5A0
330
37D
100
AcDbEntity
  8
0
 62
     7
370
    13
390
F
100
AcDbText
 10
608.028992
 20
-437.887146
 30
0.0
 40
2.0
  1
16-11-93
 41
1.506973430265675
 72
     5
 11
622.657166
 21
-437.887146
 31
0.0
100
AcDbText
  0
ENDBLK
  5
8D1
330
37D
100
AcDbEntity
  8
0
100
AcDbBlockEnd
  0
BLOCK
  5
8D2
330
37E
100
AcDbEntity
  8
0
100
AcDbBlockBegin
  2
BLOCK464
 70
     0
 10
0.0
 20
0.0
 30
0.0
  3
BLOCK464
  1

  0
TEXT
  5
5A3
330
37E
100
AcDbEntity
  8
0
 62
     7
370
    13
390
F
100
AcDbText
 10
538.653198
 20
-432.676086
 30
0.0
 40
2.0
  1
B
 41
1.154174615384661
 72
     5
 11
540.153625
 21
-432.676086
 31
0.0
100
AcDbText
  0
ENDBLK
  5
8D3
330
37E
100
AcDbEntity
  8
0
100
AcDbBlockEnd
  0
BLOCK
  5
8D4
330
37F
100
AcDbEntity
  8
0
100
AcDbBlockBegin
  2
BLOCK465
 70
     0
 10
0.0
 20
0.0
 30
0.0
  3
BLOCK465
  1

  0
TEXT
  5
5A6
330
37F
100
AcDbEntity
  8
0
 62
     7
370
    13
390
F
100
AcDbText
 10
552.82489
 20
-430.939056
 30
0.0
 40
1.0
  1
VARIATO INTERASSE DA 1380 1385,5
 41
2.415074978387349
 72
     5
 11
604.506287
 21
-430.939056
 31
0.0
100
AcDbText
  0
ENDBLK
  5
8D5
330
37F
100
AcDbEntity
  8
0
100
AcDbBlockEnd
  0
BLOCK
  5
8D6
330
380
100
AcDbEntity
  8
0
100
AcDbBlockBegin
  2
BLOCK466
 70
     0
 10
0.0
 20
0.0
 30
0.0
  3
BLOCK466
  1

  0
TEXT
  5
5A9
330
380
100
AcDbEntity
  8
0
 62
     7
370
    13
390
F
100
AcDbText
 10
552.82489
 20
-433.01593
 30
0.0
 40
1.0
  1
VARIATO INTERASSE DA 1080 1085,5
 41
2.415074978387349
 72
     5
 11
604.506287
 21
-433.01593
 31
0.0
100
AcDbText
  0
ENDBLK
  5
8D7
330
380
100
AcDbEntity
  8
0
100
AcDbBlockEnd
  0
BLOCK
  5
8D8
330
381
100
AcDbEntity
  8
0
100
AcDbBlockBegin
  2
BLOCK467
 70
     0
 10
0.0
 20
0.0
 30
0.0
  3
BLOCK467
  1

  0
TEXT
  5
5AC
330
381
100
AcDbEntity
  8
0
 62
     7
370
    13
390
F
100
AcDbText
 10
608.180054
 20
-432.676086
 30
0.0
 40
2.0
  1
12-01-94
 41
1.419248092836936
 72
     5
 11
622.808228
 21
-432.676086
 31
0.0
100
AcDbText
  0
ENDBLK
  5
8D9
330
381
100
AcDbEntity
  8
0
100
AcDbBlockEnd
  0
BLOCK
  5
8DA
330
382
100
AcDbEntity
  8
0
100
AcDbBlockBegin
  2
BLOCK468
 70
     0
 10
0.0
 20
0.0
 30
0.0
  3
BLOCK468
  1

  0
TEXT
  5
5AF
330
382
100
AcDbEntity
  8
0
 62
     7
370
    13
390
F
100
AcDbText
 10
-93.63372
 20
-118.640579
 30
0.0
 40
3.0
  1
14%%d
 50
307.5524942866256
 41
1.466662939762487
 72
     5
 11
-88.940674
 21
-124.745087
 31
0.0
100
AcDbText
  0
ENDBLK
  5
8DB
330
382
100
AcDbEntity
  8
0
100
AcDbBlockEnd
  0
BLOCK
  5
8DC
330
383
100
AcDbEntity
  8
0
100
AcDbBlockBegin
  2
BLOCK469
 70
     0
 10
0.0
 20
0.0
 30
0.0
  3
BLOCK469
  1

  0
TEXT
  5
5B2
330
383
100
AcDbEntity
  8
0
 62
     7
370
    13
390
F
100
AcDbText
 10
-89.797394
 20
-110.17392
 30
0.0
 40
3.0
  1
18,5
 50
345.9999706929202
 41
1.658923715901469
 72
     5
 11
-79.657829
 21
-112.702003
 31
0.0
100
AcDbText
  0
ENDBLK
  5
8DD
330
383
100
AcDbEntity
  8
0
100
AcDbBlockEnd
  0
BLOCK
  5
8DE
330
384
100
AcDbEntity
  8
0
100
AcDbBlockBegin
  2
BLOCK470
 70
     0
 10
0.0
 20
0.0
 30
0.0
  3
BLOCK470
  1

  0
TEXT
  5
5B5
330
384
100
AcDbEntity
  8
0
 62
     7
370
    13
390
F
100
AcDbText
 10
-126.803879
 20
-181.566193
 30
0.0
 40
3.0
  1
97,9
 50
90.0
 41
1.50990006679994
 72
     5
 11
-126.803879
 21
-171.116226
 31
0.0
100
AcDbText
  0
ENDBLK
  5
8DF
330
384
100
AcDbEntity
  8
0
100
AcDbBlockEnd
  0
BLOCK
  5
8E0
330
385
100
AcDbEntity
  8
0
100
AcDbBlockBegin
  2
BLOCK471
 70
     0
 10
0.0
 20
0.0
 30
0.0
  3
BLOCK471
  1

  0
TEXT
  5
5B8
330
385
100
AcDbEntity
  8
0
 62
     7
370
    13
390
F
100
AcDbText
 10
-615.336548
 20
-3448.885254
 30
0.0
 40
52.631578
  1
1410
 50
90.0
 41
1.475990785100741
 72
     5
 11
-615.336548
 21
-3266.267334
 31
0.0
100
AcDbText
  0
ENDBLK
  5
8E1
330
385
100
AcDbEntity
  8
0
100
AcDbBlockEnd
  0
BLOCK
  5
8E2
330
69F
100
AcDbEntity
  8
0
100
AcDbBlockBegin
  2
*D180
 70
     1
 10
0.0
 20
0.0
 30
0.0
  3
*D180
  1

  0
POINT
  5
696
330
69F
100
AcDbEntity
  8
DEFPOINTS
  6
ByBlock
 62
     0
380
     1
100
AcDbPoint
 10
237.5310123415682
 20
203.0326762769509
 30
0.0
  0
POINT
  5
697
330
69F
100
AcDbEntity
  8
DEFPOINTS
  6
ByBlock
 62
     0
380
     1
100
AcDbPoint
 10
761.251038
 20
213.1757030738298
 30
0.0
  0
LINE
  5
698
330
69F
100
AcDbEntity
  8
0
  6
ByBlock
 62
     0
370
    -2
380
     1
100
AcDbLine
 10
237.5310123415682
 20
202.4076762769509
 30
0.0
 11
237.5310123415682
 21
163.5512675965761
 31
0.0
  0
LINE
  5
699
330
69F
100
AcDbEntity
  8
0
  6
ByBlock
 62
     0
370
    -2
380
     1
100
AcDbLine
 10
761.2510379999999
 20
212.5507030738298
 30
0.0
 11
761.2510379999999
 21
163.5512675965761
 31
0.0
  0
LINE
  5
69A
330
69F
100
AcDbEntity
  8
0
  6
ByBlock
 62
     0
370
    -2
380
     1
100
AcDbLine
 10
240.0310123415682
 20
164.8012675965761
 30
0.0
 11
758.7510379999999
 21
164.8012675965761
 31
0.0
  0
SOLID
  5
69B
330
69F
100
AcDbEntity
  8
0
  6
ByBlock
 62
     0
380
     1
100
AcDbTrace
 10
237.5310123415682
 20
164.8012675965761
 30
0.0
 11
240.0310123415682
 21
164.3846009299094
 31
0.0
 12
240.0310123415682
 22
165.2179342632427
 32
0.0
 13
240.0310123415682
 23
165.2179342632427
 33
0.0
  0
SOLID
  5
69C
330
69F
100
AcDbEntity
  8
0
  6
ByBlock
 62
     0
380
     1
100
AcDbTrace
 10
761.2510379999999
 20
164.8012675965761
 30
0.0
 11
758.7510379999999
 21
164.3846009299094
 31
0.0
 12
758.7510379999999
 22
165.2179342632427
 32
0.0
 13
758.7510379999999
 23
165.2179342632427
 33
0.0
  0
MTEXT
  5
69D
330
69F
100
AcDbEntity
  8
0
  6
ByBlock
 62
     0
370
    -2
380
     1
100
AcDbMText
 10
499.3910251707841
 20
166.8012675965761
 30
0.0
 40
2.5
 41
0.0
 71
     5
 72
     1
  1
\A1;523,72
 73
     1
 44
1.0
  0
ENDBLK
  5
8E3
330
69F
100
AcDbEntity
  8
0
100
AcDbBlockEnd
  0
BLOCK
  5
8E4
330
6AB
100
AcDbEntity
  8
0
100
AcDbBlockBegin
  2
*D181
 70
     1
 10
0.0
 20
0.0
 30
0.0
  3
*D181
  1

  0
POINT
  5
6A2
330
6AB
100
AcDbEntity
  8
DEFPOINTS
  6
ByBlock
 62
     0
380
     1
100
AcDbPoint
 10
292.0167010938658
 20
365.756535
 30
0.0
  0
POINT
  5
6A3
330
6AB
100
AcDbEntity
  8
DEFPOINTS
  6
ByBlock
 62
     0
380
     1
100
AcDbPoint
 10
283.5163799108917
 20
267.856533
 30
0.0
  0
LINE
  5
6A4
330
6AB
100
AcDbEntity
  8
0
  6
ByBlock
 62
     0
370
    -2
380
     1
100
AcDbLine
 10
291.3917010938658
 20
365.756535
 30
0.0
 11
200.096608475476
 21
365.756535
 31
0.0
  0
LINE
  5
6A5
330
6AB
100
AcDbEntity
  8
0
  6
ByBlock
 62
     0
370
    -2
380
     1
100
AcDbLine
 10
282.8913799108917
 20
267.856533
 30
0.0
 11
200.096608475476
 21
267.856533
 31
0.0
  0
LINE
  5
6A6
330
6AB
100
AcDbEntity
  8
0
  6
ByBlock
 62
     0
370
    -2
380
     1
100
AcDbLine
 10
201.346608475476
 20
363.256535
 30
0.0
 11
201.346608475476
 21
270.356533
 31
0.0
  0
SOLID
  5
6A7
330
6AB
100
AcDbEntity
  8
0
  6
ByBlock
 62
     0
380
     1
100
AcDbTrace
 10
201.346608475476
 20
365.756535
 30
0.0
 11
200.9299418088093
 21
363.256535
 31
0.0
 12
201.7632751421427
 22
363.256535
 32
0.0
 13
201.7632751421427
 23
363.256535
 33
0.0
  0
SOLID
  5
6A8
330
6AB
100
AcDbEntity
  8
0
  6
ByBlock
 62
     0
380
     1
100
AcDbTrace
 10
201.346608475476
 20
267.856533
 30
0.0
 11
200.9299418088093
 21
270.356533
 31
0.0
 12
201.7632751421427
 22
270.356533
 32
0.0
 13
201.7632751421427
 23
270.356533
 33
0.0
  0
MTEXT
  5
6A9
330
6AB
100
AcDbEntity
  8
0
  6
ByBlock
 62
     0
370
    -2
380
     1
100
AcDbMText
 10
199.3460042767014
 20
316.806534
 30
0.0
 40
2.5
 41
0.0
 71
     5
 72
     1
  1
\A1;97,9
 11
6.123031769111886E-17
 21
1.0
 31
0.0
 73
     1
 44
1.0
  0
ENDBLK
  5
8E5
330
6AB
100
AcDbEntity
  8
0
100
AcDbBlockEnd
  0
BLOCK
  5
8E6
330
6B7
100
AcDbEntity
  8
0
100
AcDbBlockBegin
  2
*D182
 70
     1
 10
0.0
 20
0.0
 30
0.0
  3
*D182
  1

  0
POINT
  5
6AE
330
6B7
100
AcDbEntity
  8
DEFPOINTS
  6
ByBlock
 62
     0
380
     1
100
AcDbPoint
 10
237.531013
 20
285.831534
 30
0.0
  0
POINT
  5
6AF
330
6B7
100
AcDbEntity
  8
DEFPOINTS
  6
ByBlock
 62
     0
380
     1
100
AcDbPoint
 10
1085.224968713703
 20
285.831534
 30
0.0
  0
LINE
  5
6B0
330
6B7
100
AcDbEntity
  8
0
  6
ByBlock
 62
     0
370
    -2
380
     1
100
AcDbLine
 10
237.531013
 20
285.206534
 30
0.0
 11
237.531013
 21
230.9794991389149
 31
0.0
  0
LINE
  5
6B1
330
6B7
100
AcDbEntity
  8
0
  6
ByBlock
 62
     0
370
    -2
380
     1
100
AcDbLine
 10
1085.224968713703
 20
285.206534
 30
0.0
 11
1085.224968713703
 21
230.9794991389149
 31
0.0
  0
LINE
  5
6B2
330
6B7
100
AcDbEntity
  8
0
  6
ByBlock
 62
     0
370
    -2
380
     1
100
AcDbLine
 10
240.031013
 20
232.2294991389149
 30
0.0
 11
1082.724968713703
 21
232.2294991389149
 31
0.0
  0
SOLID
  5
6B3
330
6B7
100
AcDbEntity
  8
0
  6
ByBlock
 62
     0
380
     1
100
AcDbTrace
 10
237.531013
 20
232.2294991389149
 30
0.0
 11
240.031013
 21
231.8128324722482
 31
0.0
 12
240.031013
 22
232.6461658055815
 32
0.0
 13
240.031013
 23
232.6461658055815
 33
0.0
  0
SOLID
  5
6B4
330
6B7
100
AcDbEntity
  8
0
  6
ByBlock
 62
     0
380
     1
100
AcDbTrace
 10
1085.224968713703
 20
232.2294991389149
 30
0.0
 11
1082.724968713703
 21
231.8128324722482
 31
0.0
 12
1082.724968713703
 22
232.6461658055815
 32
0.0
 13
1082.724968713703
 23
232.6461658055815
 33
0.0
  0
MTEXT
  5
6B5
330
6B7
100
AcDbEntity
  8
0
  6
ByBlock
 62
     0
370
    -2
380
     1
100
AcDbMText
 10
661.3779908568513
 20
234.2301033376895
 30
0.0
 40
2.5
 41
0.0
 71
     5
 72
     1
  1
\A1;847,69
 73
     1
 44
1.0
  0
ENDBLK
  5
8E7
330
6B7
100
AcDbEntity
  8
0
100
AcDbBlockEnd
  0
BLOCK
  5
8E8
330
6C2
100
AcDbEntity
  8
0
100
AcDbBlockBegin
  2
*D183
 70
     1
 10
0.0
 20
0.0
 30
0.0
  3
*D183
  1

  0
POINT
  5
6B9
330
6C2
100
AcDbEntity
  8
DEFPOINTS
  6
ByBlock
 62
     0
380
     1
100
AcDbPoint
 10
237.531013
 20
285.831534
 30
0.0
  0
POINT
  5
6BA
330
6C2
100
AcDbEntity
  8
DEFPOINTS
  6
ByBlock
 62
     0
380
     1
100
AcDbPoint
 10
1579.905918920308
 20
273.161667
 30
0.0
  0
LINE
  5
6BB
330
6C2
100
AcDbEntity
  8
0
  6
ByBlock
 62
     0
370
    -2
380
     1
100
AcDbLine
 10
237.531013
 20
285.206534
 30
0.0
 11
237.531013
 21
230.9794991389149
 31
0.0
  0
LINE
  5
6BC
330
6C2
100
AcDbEntity
  8
0
  6
ByBlock
 62
     0
370
    -2
380
     1
100
AcDbLine
 10
1579.905918920308
 20
272.536667
 30
0.0
 11
1579.905918920308
 21
230.9794991389149
 31
0.0
  0
LINE
  5
6BD
330
6C2
100
AcDbEntity
  8
0
  6
ByBlock
 62
     0
370
    -2
380
     1
100
AcDbLine
 10
240.031013
 20
232.2294991389149
 30
0.0
 11
1577.405918920308
 21
232.2294991389149
 31
0.0
  0
SOLID
  5
6BE
330
6C2
100
AcDbEntity
  8
0
  6
ByBlock
 62
     0
380
     1
100
AcDbTrace
 10
237.531013
 20
232.2294991389149
 30
0.0
 11
240.031013
 21
231.8128324722482
 31
0.0
 12
240.031013
 22
232.6461658055815
 32
0.0
 13
240.031013
 23
232.6461658055815
 33
0.0
  0
SOLID
  5
6BF
330
6C2
100
AcDbEntity
  8
0
  6
ByBlock
 62
     0
380
     1
100
AcDbTrace
 10
1579.905918920308
 20
232.2294991389149
 30
0.0
 11
1577.405918920308
 21
231.8128324722482
 31
0.0
 12
1577.405918920308
 22
232.6461658055815
 32
0.0
 13
1577.405918920308
 23
232.6461658055815
 33
0.0
  0
MTEXT
  5
6C0
330
6C2
100
AcDbEntity
  8
0
  6
ByBlock
 62
     0
370
    -2
380
     1
100
AcDbMText
 10
908.7184659601538
 20
234.2294991389149
 30
0.0
 40
2.5
 41
0.0
 71
     5
 72
     1
  1
\A1;1342,37
 73
     1
 44
1.0
  0
ENDBLK
  5
8E9
330
6C2
100
AcDbEntity
  8
0
100
AcDbBlockEnd
  0
BLOCK
  5
8EA
330
6CD
100
AcDbEntity
  8
0
100
AcDbBlockBegin
  2
*D184
 70
     1
 10
0.0
 20
0.0
 30
0.0
  3
*D184
  1

  0
POINT
  5
6C4
330
6CD
100
AcDbEntity
  8
DEFPOINTS
  6
ByBlock
 62
     0
380
     1
100
AcDbPoint
 10
237.531013
 20
285.831534
 30
0.0
  0
POINT
  5
6C5
330
6CD
100
AcDbEntity
  8
DEFPOINTS
  6
ByBlock
 62
     0
380
     1
100
AcDbPoint
 10
1835.833147464036
 20
267.856533
 30
0.0
  0
LINE
  5
6C6
330
6CD
100
AcDbEntity
  8
0
  6
ByBlock
 62
     0
370
    -2
380
     1
100
AcDbLine
 10
237.531013
 20
285.206534
 30
0.0
 11
237.531013
 21
230.9794991389149
 31
0.0
  0
LINE
  5
6C7
330
6CD
100
AcDbEntity
  8
0
  6
ByBlock
 62
     0
370
    -2
380
     1
100
AcDbLine
 10
1835.833147464036
 20
267.231533
 30
0.0
 11
1835.833147464036
 21
230.9794991389149
 31
0.0
  0
LINE
  5
6C8
330
6CD
100
AcDbEntity
  8
0
  6
ByBlock
 62
     0
370
    -2
380
     1
100
AcDbLine
 10
240.031013
 20
232.2294991389149
 30
0.0
 11
1833.333147464036
 21
232.2294991389149
 31
0.0
  0
SOLID
  5
6C9
330
6CD
100
AcDbEntity
  8
0
  6
ByBlock
 62
     0
380
     1
100
AcDbTrace
 10
237.531013
 20
232.2294991389149
 30
0.0
 11
240.031013
 21
231.8128324722482
 31
0.0
 12
240.031013
 22
232.6461658055815
 32
0.0
 13
240.031013
 23
232.6461658055815
 33
0.0
  0
SOLID
  5
6CA
330
6CD
100
AcDbEntity
  8
0
  6
ByBlock
 62
     0
380
     1
100
AcDbTrace
 10
1835.833147464036
 20
232.2294991389149
 30
0.0
 11
1833.333147464036
 21
231.8128324722482
 31
0.0
 12
1833.333147464036
 22
232.6461658055815
 32
0.0
 13
1833.333147464036
 23
232.6461658055815
 33
0.0
  0
MTEXT
  5
6CB
330
6CD
100
AcDbEntity
  8
0
  6
ByBlock
 62
     0
370
    -2
380
     1
100
AcDbMText
 10
1036.682080232018
 20
234.2294991389149
 30
0.0
 40
2.5
 41
0.0
 71
     5
 72
     1
  1
\A1;1598,3
 73
     1
 44
1.0
  0
ENDBLK
  5
8EB
330
6CD
100
AcDbEntity
  8
0
100
AcDbBlockEnd
  0
BLOCK
  5
8EC
330
6D8
100
AcDbEntity
  8
0
100
AcDbBlockBegin
  2
*D185
 70
     1
 10
0.0
 20
0.0
 30
0.0
  3
*D185
  1

  0
POINT
  5
6CF
330
6D8
100
AcDbEntity
  8
DEFPOINTS
  6
ByBlock
 62
     0
380
     1
100
AcDbPoint
 10
237.531013
 20
285.831534
 30
0.0
  0
POINT
  5
6D0
330
6D8
100
AcDbEntity
  8
DEFPOINTS
  6
ByBlock
 62
     0
380
     1
100
AcDbPoint
 10
1729.189146505056
 20
267.856533
 30
0.0
  0
LINE
  5
6D1
330
6D8
100
AcDbEntity
  8
0
  6
ByBlock
 62
     0
370
    -2
380
     1
100
AcDbLine
 10
237.531013
 20
285.206534
 30
0.0
 11
237.531013
 21
230.9794991389149
 31
0.0
  0
LINE
  5
6D2
330
6D8
100
AcDbEntity
  8
0
  6
ByBlock
 62
     0
370
    -2
380
     1
100
AcDbLine
 10
1729.189146505056
 20
267.231533
 30
0.0
 11
1729.189146505056
 21
230.9794991389149
 31
0.0
  0
LINE
  5
6D3
330
6D8
100
AcDbEntity
  8
0
  6
ByBlock
 62
     0
370
    -2
380
     1
100
AcDbLine
 10
240.031013
 20
232.2294991389149
 30
0.0
 11
1726.689146505056
 21
232.2294991389149
 31
0.0
  0
SOLID
  5
6D4
330
6D8
100
AcDbEntity
  8
0
  6
ByBlock
 62
     0
380
     1
100
AcDbTrace
 10
237.531013
 20
232.2294991389149
 30
0.0
 11
240.031013
 21
231.8128324722482
 31
0.0
 12
240.031013
 22
232.6461658055815
 32
0.0
 13
240.031013
 23
232.6461658055815
 33
0.0
  0
SOLID
  5
6D5
330
6D8
100
AcDbEntity
  8
0
  6
ByBlock
 62
     0
380
     1
100
AcDbTrace
 10
1729.189146505056
 20
232.2294991389149
 30
0.0
 11
1726.689146505056
 21
231.8128324722482
 31
0.0
 12
1726.689146505056
 22
232.6461658055815
 32
0.0
 13
1726.689146505056
 23
232.6461658055815
 33
0.0
  0
MTEXT
  5
6D6
330
6D8
100
AcDbEntity
  8
0
  6
ByBlock
 62
     0
370
    -2
380
     1
100
AcDbMText
 10
983.3600797525278
 20
234.2294991389149
 30
0.0
 40
2.5
 41
0.0
 71
     5
 72
     1
  1
\A1;1491,66
 73
     1
 44
1.0
  0
ENDBLK
  5
8ED
330
6D8
100
AcDbEntity
  8
0
100
AcDbBlockEnd
  0
BLOCK
  5
8EE
330
6E3
100
AcDbEntity
  8
0
100
AcDbBlockBegin
  2
*D186
 70
     1
 10
0.0
 20
0.0
 30
0.0
  3
*D186
  1

  0
POINT
  5
6DA
330
6E3
100
AcDbEntity
  8
DEFPOINTS
  6
ByBlock
 62
     0
380
     1
100
AcDbPoint
 10
237.531013
 20
285.831534
 30
0.0
  0
POINT
  5
6DB
330
6E3
100
AcDbEntity
  8
DEFPOINTS
  6
ByBlock
 62
     0
380
     1
100
AcDbPoint
 10
1680.499293918638
 20
273.161667
 30
0.0
  0
LINE
  5
6DC
330
6E3
100
AcDbEntity
  8
0
  6
ByBlock
 62
     0
370
    -2
380
     1
100
AcDbLine
 10
237.531013
 20
285.206534
 30
0.0
 11
237.531013
 21
230.9794991389149
 31
0.0
  0
LINE
  5
6DD
330
6E3
100
AcDbEntity
  8
0
  6
ByBlock
 62
     0
370
    -2
380
     1
100
AcDbLine
 10
1680.499293918638
 20
272.536667
 30
0.0
 11
1680.499293918638
 21
230.9794991389149
 31
0.0
  0
LINE
  5
6DE
330
6E3
100
AcDbEntity
  8
0
  6
ByBlock
 62
     0
370
    -2
380
     1
100
AcDbLine
 10
240.031013
 20
232.2294991389149
 30
0.0
 11
1677.999293918638
 21
232.2294991389149
 31
0.0
  0
SOLID
  5
6DF
330
6E3
100
AcDbEntity
  8
0
  6
ByBlock
 62
     0
380
     1
100
AcDbTrace
 10
237.531013
 20
232.2294991389149
 30
0.0
 11
240.031013
 21
231.8128324722482
 31
0.0
 12
240.031013
 22
232.6461658055815
 32
0.0
 13
240.031013
 23
232.6461658055815
 33
0.0
  0
SOLID
  5
6E0
330
6E3
100
AcDbEntity
  8
0
  6
ByBlock
 62
     0
380
     1
100
AcDbTrace
 10
1680.499293918638
 20
232.2294991389149
 30
0.0
 11
1677.999293918638
 21
231.8128324722482
 31
0.0
 12
1677.999293918638
 22
232.6461658055815
 32
0.0
 13
1677.999293918638
 23
232.6461658055815
 33
0.0
  0
MTEXT
  5
6E1
330
6E3
100
AcDbEntity
  8
0
  6
ByBlock
 62
     0
370
    -2
380
     1
100
AcDbMText
 10
959.0151534593191
 20
234.2301033376895
 30
0.0
 40
2.5
 41
0.0
 71
     5
 72
     1
  1
\A1;1442,97
 73
     1
 44
1.0
  0
ENDBLK
  5
8EF
330
6E3
100
AcDbEntity
  8
0
100
AcDbBlockEnd
  0
BLOCK
  5
8F0
330
6EE
100
AcDbEntity
  8
0
100
AcDbBlockBegin
  2
*D187
 70
     1
 10
0.0
 20
0.0
 30
0.0
  3
*D187
  1

  0
POINT
  5
6E5
330
6EE
100
AcDbEntity
  8
DEFPOINTS
  6
ByBlock
 62
     0
380
     1
100
AcDbPoint
 10
237.531013
 20
285.831534
 30
0.0
  0
POINT
  5
6E6
330
6EE
100
AcDbEntity
  8
DEFPOINTS
  6
ByBlock
 62
     0
380
     1
100
AcDbPoint
 10
1643.372729436914
 20
273.161667
 30
0.0
  0
LINE
  5
6E7
330
6EE
100
AcDbEntity
  8
0
  6
ByBlock
 62
     0
370
    -2
380
     1
100
AcDbLine
 10
237.531013
 20
285.206534
 30
0.0
 11
237.531013
 21
230.9794991389149
 31
0.0
  0
LINE
  5
6E8
330
6EE
100
AcDbEntity
  8
0
  6
ByBlock
 62
     0
370
    -2
380
     1
100
AcDbLine
 10
1643.372729436914
 20
272.536667
 30
0.0
 11
1643.372729436914
 21
230.9794991389149
 31
0.0
  0
LINE
  5
6E9
330
6EE
100
AcDbEntity
  8
0
  6
ByBlock
 62
     0
370
    -2
380
     1
100
AcDbLine
 10
240.031013
 20
232.2294991389149
 30
0.0
 11
1640.872729436914
 21
232.2294991389149
 31
0.0
  0
SOLID
  5
6EA
330
6EE
100
AcDbEntity
  8
0
  6
ByBlock
 62
     0
380
     1
100
AcDbTrace
 10
237.531013
 20
232.2294991389149
 30
0.0
 11
240.031013
 21
231.8128324722482
 31
0.0
 12
240.031013
 22
232.6461658055815
 32
0.0
 13
240.031013
 23
232.6461658055815
 33
0.0
  0
SOLID
  5
6EB
330
6EE
100
AcDbEntity
  8
0
  6
ByBlock
 62
     0
380
     1
100
AcDbTrace
 10
1643.372729436914
 20
232.2294991389149
 30
0.0
 11
1640.872729436914
 21
231.8128324722482
 31
0.0
 12
1640.872729436914
 22
232.6461658055815
 32
0.0
 13
1640.872729436914
 23
232.6461658055815
 33
0.0
  0
MTEXT
  5
6EC
330
6EE
100
AcDbEntity
  8
0
  6
ByBlock
 62
     0
370
    -2
380
     1
100
AcDbMText
 10
940.4518712184571
 20
234.2299912648991
 30
0.0
 40
2.5
 41
0.0
 71
     5
 72
     1
  1
\A1;1405,84
 73
     1
 44
1.0
  0
ENDBLK
  5
8F1
330
6EE
100
AcDbEntity
  8
0
100
AcDbBlockEnd
  0
BLOCK
  5
8F2
330
6F9
100
AcDbEntity
  8
0
100
AcDbBlockBegin
  2
*D188
 70
     1
 10
0.0
 20
0.0
 30
0.0
  3
*D188
  1

  0
POINT
  5
6F0
330
6F9
100
AcDbEntity
  8
DEFPOINTS
  6
ByBlock
 62
     0
380
     1
100
AcDbPoint
 10
237.531013
 20
285.831534
 30
0.0
  0
POINT
  5
6F1
330
6F9
100
AcDbEntity
  8
DEFPOINTS
  6
ByBlock
 62
     0
380
     1
100
AcDbPoint
 10
1668.372729436914
 20
273.161667
 30
0.0
  0
LINE
  5
6F2
330
6F9
100
AcDbEntity
  8
0
  6
ByBlock
 62
     0
370
    -2
380
     1
100
AcDbLine
 10
237.531013
 20
285.206534
 30
0.0
 11
237.531013
 21
230.9794991389149
 31
0.0
  0
LINE
  5
6F3
330
6F9
100
AcDbEntity
  8
0
  6
ByBlock
 62
     0
370
    -2
380
     1
100
AcDbLine
 10
1668.372729436914
 20
272.536667
 30
0.0
 11
1668.372729436914
 21
230.9794991389149
 31
0.0
  0
LINE
  5
6F4
330
6F9
100
AcDbEntity
  8
0
  6
ByBlock
 62
     0
370
    -2
380
     1
100
AcDbLine
 10
240.031013
 20
232.2294991389149
 30
0.0
 11
1665.872729436914
 21
232.2294991389149
 31
0.0
  0
SOLID
  5
6F5
330
6F9
100
AcDbEntity
  8
0
  6
ByBlock
 62
     0
380
     1
100
AcDbTrace
 10
237.531013
 20
232.2294991389149
 30
0.0
 11
240.031013
 21
231.8128324722482
 31
0.0
 12
240.031013
 22
232.6461658055815
 32
0.0
 13
240.031013
 23
232.6461658055815
 33
0.0
  0
SOLID
  5
6F6
330
6F9
100
AcDbEntity
  8
0
  6
ByBlock
 62
     0
380
     1
100
AcDbTrace
 10
1668.372729436914
 20
232.2294991389149
 30
0.0
 11
1665.872729436914
 21
231.8128324722482
 31
0.0
 12
1665.872729436914
 22
232.6461658055815
 32
0.0
 13
1665.872729436914
 23
232.6461658055815
 33
0.0
  0
MTEXT
  5
6F7
330
6F9
100
AcDbEntity
  8
0
  6
ByBlock
 62
     0
370
    -2
380
     1
100
AcDbMText
 10
952.9518712184571
 20
234.2299912648991
 30
0.0
 40
2.5
 41
0.0
 71
     5
 72
     1
  1
\A1;1430,84
 73
     1
 44
1.0
  0
ENDBLK
  5
8F3
330
6F9
100
AcDbEntity
  8
0
100
AcDbBlockEnd
  0
BLOCK
  5
8F4
330
704
100
AcDbEntity
  8
0
100
AcDbBlockBegin
  2
*D189
 70
     1
 10
0.0
 20
0.0
 30
0.0
  3
*D189
  1

  0
POINT
  5
6FB
330
704
100
AcDbEntity
  8
DEFPOINTS
  6
ByBlock
 62
     0
380
     1
100
AcDbPoint
 10
237.531013
 20
285.831534
 30
0.0
  0
POINT
  5
6FC
330
704
100
AcDbEntity
  8
DEFPOINTS
  6
ByBlock
 62
     0
380
     1
100
AcDbPoint
 10
1655.734216439507
 20
273.161667
 30
0.0
  0
LINE
  5
6FD
330
704
100
AcDbEntity
  8
0
  6
ByBlock
 62
     0
370
    -2
380
     1
100
AcDbLine
 10
237.531013
 20
285.206534
 30
0.0
 11
237.531013
 21
230.9794991389149
 31
0.0
  0
LINE
  5
6FE
330
704
100
AcDbEntity
  8
0
  6
ByBlock
 62
     0
370
    -2
380
     1
100
AcDbLine
 10
1655.734216439507
 20
272.536667
 30
0.0
 11
1655.734216439507
 21
230.9794991389149
 31
0.0
  0
LINE
  5
6FF
330
704
100
AcDbEntity
  8
0
  6
ByBlock
 62
     0
370
    -2
380
     1
100
AcDbLine
 10
240.031013
 20
232.2294991389149
 30
0.0
 11
1653.234216439507
 21
232.2294991389149
 31
0.0
  0
SOLID
  5
700
330
704
100
AcDbEntity
  8
0
  6
ByBlock
 62
     0
380
     1
100
AcDbTrace
 10
237.531013
 20
232.2294991389149
 30
0.0
 11
240.031013
 21
231.8128324722482
 31
0.0
 12
240.031013
 22
232.6461658055815
 32
0.0
 13
240.031013
 23
232.6461658055815
 33
0.0
  0
SOLID
  5
701
330
704
100
AcDbEntity
  8
0
  6
ByBlock
 62
     0
380
     1
100
AcDbTrace
 10
1655.734216439507
 20
232.2294991389149
 30
0.0
 11
1653.234216439507
 21
231.8128324722482
 31
0.0
 12
1653.234216439507
 22
232.6461658055815
 32
0.0
 13
1653.234216439507
 23
232.6461658055815
 33
0.0
  0
MTEXT
  5
702
330
704
100
AcDbEntity
  8
0
  6
ByBlock
 62
     0
370
    -2
380
     1
100
AcDbMText
 10
946.6326147197533
 20
234.2294991389149
 30
0.0
 40
2.5
 41
0.0
 71
     5
 72
     1
  1
\A1;1418,2
 73
     1
 44
1.0
  0
ENDBLK
  5
8F5
330
704
100
AcDbEntity
  8
0
100
AcDbBlockEnd
  0
BLOCK
  5
8F6
330
70F
100
AcDbEntity
  8
0
100
AcDbBlockBegin
  2
*D190
 70
     1
 10
0.0
 20
0.0
 30
0.0
  3
*D190
  1

  0
POINT
  5
706
330
70F
100
AcDbEntity
  8
DEFPOINTS
  6
ByBlock
 62
     0
380
     1
100
AcDbPoint
 10
237.531013
 20
285.831534
 30
0.0
  0
POINT
  5
707
330
70F
100
AcDbEntity
  8
DEFPOINTS
  6
ByBlock
 62
     0
380
     1
100
AcDbPoint
 10
1646.24573412242
 20
267.856533
 30
0.0
  0
LINE
  5
708
330
70F
100
AcDbEntity
  8
0
  6
ByBlock
 62
     0
370
    -2
380
     1
100
AcDbLine
 10
237.531013
 20
285.206534
 30
0.0
 11
237.531013
 21
230.9794991389149
 31
0.0
  0
LINE
  5
709
330
70F
100
AcDbEntity
  8
0
  6
ByBlock
 62
     0
370
    -2
380
     1
100
AcDbLine
 10
1646.24573412242
 20
267.231533
 30
0.0
 11
1646.24573412242
 21
230.9794991389149
 31
0.0
  0
LINE
  5
70A
330
70F
100
AcDbEntity
  8
0
  6
ByBlock
 62
     0
370
    -2
380
     1
100
AcDbLine
 10
240.031013
 20
232.2294991389149
 30
0.0
 11
1643.74573412242
 21
232.2294991389149
 31
0.0
  0
SOLID
  5
70B
330
70F
100
AcDbEntity
  8
0
  6
ByBlock
 62
     0
380
     1
100
AcDbTrace
 10
237.531013
 20
232.2294991389149
 30
0.0
 11
240.031013
 21
231.8128324722482
 31
0.0
 12
240.031013
 22
232.6461658055815
 32
0.0
 13
240.031013
 23
232.6461658055815
 33
0.0
  0
SOLID
  5
70C
330
70F
100
AcDbEntity
  8
0
  6
ByBlock
 62
     0
380
     1
100
AcDbTrace
 10
1646.24573412242
 20
232.2294991389149
 30
0.0
 11
1643.74573412242
 21
231.8128324722482
 31
0.0
 12
1643.74573412242
 22
232.6461658055815
 32
0.0
 13
1643.74573412242
 23
232.6461658055815
 33
0.0
  0
MTEXT
  5
70D
330
70F
100
AcDbEntity
  8
0
  6
ByBlock
 62
     0
370
    -2
380
     1
100
AcDbMText
 10
941.8883735612098
 20
234.2299912648991
 30
0.0
 40
2.5
 41
0.0
 71
     5
 72
     1
  1
\A1;1408,71
 73
     1
 44
1.0
  0
ENDBLK
  5
8F7
330
70F
100
AcDbEntity
  8
0
100
AcDbBlockEnd
  0
BLOCK
  5
8F8
330
71B
100
AcDbEntity
  8
0
100
AcDbBlockBegin
  2
*D191
 70
     1
 10
0.0
 20
0.0
 30
0.0
  3
*D191
  1

  0
POINT
  5
712
330
71B
100
AcDbEntity
  8
DEFPOINTS
  6
ByBlock
 62
     0
380
     1
100
AcDbPoint
 10
237.531013
 20
290.803219
 30
0.0
  0
POINT
  5
713
330
71B
100
AcDbEntity
  8
DEFPOINTS
  6
ByBlock
 62
     0
380
     1
100
AcDbPoint
 10
1646.24573412242
 20
285.8315339999999
 30
0.0
  0
LINE
  5
714
330
71B
100
AcDbEntity
  8
0
  6
ByBlock
 62
     0
370
    -2
380
     1
100
AcDbLine
 10
237.531013
 20
290.178219
 30
0.0
 11
237.531013
 21
232.4487422700656
 31
0.0
  0
LINE
  5
715
330
71B
100
AcDbEntity
  8
0
  6
ByBlock
 62
     0
370
    -2
380
     1
100
AcDbLine
 10
1646.24573412242
 20
285.2065339999999
 30
0.0
 11
1646.24573412242
 21
232.4487422700656
 31
0.0
  0
LINE
  5
716
330
71B
100
AcDbEntity
  8
0
  6
ByBlock
 62
     0
370
    -2
380
     1
100
AcDbLine
 10
240.031013
 20
233.6987422700656
 30
0.0
 11
1643.74573412242
 21
233.6987422700656
 31
0.0
  0
SOLID
  5
717
330
71B
100
AcDbEntity
  8
0
  6
ByBlock
 62
     0
380
     1
100
AcDbTrace
 10
237.531013
 20
233.6987422700656
 30
0.0
 11
240.031013
 21
233.282075603399
 31
0.0
 12
240.031013
 22
234.1154089367323
 32
0.0
 13
240.031013
 23
234.1154089367323
 33
0.0
  0
SOLID
  5
718
330
71B
100
AcDbEntity
  8
0
  6
ByBlock
 62
     0
380
     1
100
AcDbTrace
 10
1646.24573412242
 20
233.6987422700656
 30
0.0
 11
1643.74573412242
 21
233.282075603399
 31
0.0
 12
1643.74573412242
 22
234.1154089367323
 32
0.0
 13
1643.74573412242
 23
234.1154089367323
 33
0.0
  0
MTEXT
  5
719
330
71B
100
AcDbEntity
  8
0
  6
ByBlock
 62
     0
370
    -2
380
     1
100
AcDbMText
 10
941.8883735612098
 20
235.6992343960499
 30
0.0
 40
2.5
 41
0.0
 71
     5
 72
     1
  1
\A1;1408,71
 73
     1
 44
1.0
  0
ENDBLK
  5
8F9
330
71B
100
AcDbEntity
  8
0
100
AcDbBlockEnd
  0
BLOCK
  5
8FA
330
726
100
AcDbEntity
  8
0
100
AcDbBlockBegin
  2
*D192
 70
     1
 10
0.0
 20
0.0
 30
0.0
  3
*D192
  1

  0
POINT
  5
71D
330
726
100
AcDbEntity
  8
DEFPOINTS
  6
ByBlock
 62
     7
380
     1
100
AcDbPoint
 10
237.531013
 20
290.803219
 30
0.0
  0
POINT
  5
71E
330
726
100
AcDbEntity
  8
DEFPOINTS
  6
ByBlock
 62
     7
380
     1
100
AcDbPoint
 10
1646.24573412242
 20
285.8315339999999
 30
0.0
  0
LINE
  5
71F
330
726
100
AcDbEntity
  8
0
  6
ByBlock
 62
     7
370
    -2
380
     1
100
AcDbLine
 10
237.531013
 20
290.178219
 30
0.0
 11
237.531013
 21
232.4487422700656
 31
0.0
  0
LINE
  5
720
330
726
100
AcDbEntity
  8
0
  6
ByBlock
 62
     7
370
    -2
380
     1
100
AcDbLine
 10
1646.24573412242
 20
285.2065339999999
 30
0.0
 11
1646.24573412242
 21
232.4487422700656
 31
0.0
  0
LINE
  5
721
330
726
100
AcDbEntity
  8
0
  6
ByBlock
 62
     7
370
    -2
380
     1
100
AcDbLine
 10
247.531013
 20
233.6987422700656
 30
0.0
 11
1636.24573412242
 21
233.6987422700656
 31
0.0
  0
SOLID
  5
722
330
726
100
AcDbEntity
  8
0
  6
ByBlock
 62
     7
380
     1
100
AcDbTrace
 10
237.531013
 20
233.6987422700656
 30
0.0
 11
247.531013
 21
232.0320756033989
 31
0.0
 12
247.531013
 22
235.3654089367323
 32
0.0
 13
247.531013
 23
235.3654089367323
 33
0.0
  0
SOLID
  5
723
330
726
100
AcDbEntity
  8
0
  6
ByBlock
 62
     7
380
     1
100
AcDbTrace
 10
1646.24573412242
 20
233.6987422700656
 30
0.0
 11
1636.24573412242
 21
232.0320756033989
 31
0.0
 12
1636.24573412242
 22
235.3654089367323
 32
0.0
 13
1636.24573412242
 23
235.3654089367323
 33
0.0
  0
MTEXT
  5
724
330
726
100
AcDbEntity
  8
0
  6
ByBlock
 62
     0
370
    -2
380
     1
100
AcDbMText
 10
941.8883735612098
 20
245.0048816887153
 30
0.0
 40
14.0
 41
0.0
 71
     5
 72
     1
  1
\A1;1409
 73
     1
 44
1.0
  0
ENDBLK
  5
8FB
330
726
100
AcDbEntity
  8
0
100
AcDbBlockEnd
  0
BLOCK
  5
8FC
330
731
100
AcDbEntity
  8
0
100
AcDbBlockBegin
  2
*D193
 70
     1
 10
0.0
 20
0.0
 30
0.0
  3
*D193
  1

  0
POINT
  5
728
330
731
100
AcDbEntity
  8
DEFPOINTS
  6
ByBlock
 62
     7
380
     1
100
AcDbPoint
 10
237.531013
 20
290.803219
 30
0.0
  0
POINT
  5
729
330
731
100
AcDbEntity
  8
DEFPOINTS
  6
ByBlock
 62
     7
380
     1
100
AcDbPoint
 10
1646.24573412242
 20
285.8315339999999
 30
0.0
  0
LINE
  5
72A
330
731
100
AcDbEntity
  8
0
  6
ByBlock
 62
     7
370
    -2
380
     1
100
AcDbLine
 10
237.531013
 20
290.178219
 30
0.0
 11
237.531013
 21
232.4487422700656
 31
0.0
  0
LINE
  5
72B
330
731
100
AcDbEntity
  8
0
  6
ByBlock
 62
     7
370
    -2
380
     1
100
AcDbLine
 10
1646.24573412242
 20
285.2065339999999
 30
0.0
 11
1646.24573412242
 21
232.4487422700656
 31
0.0
  0
LINE
  5
72C
330
731
100
AcDbEntity
  8
0
  6
ByBlock
 62
     7
370
    -2
380
     1
100
AcDbLine
 10
247.531013
 20
233.6987422700656
 30
0.0
 11
1636.24573412242
 21
233.6987422700656
 31
0.0
  0
SOLID
  5
72D
330
731
100
AcDbEntity
  8
0
  6
ByBlock
 62
     7
380
     1
100
AcDbTrace
 10
237.531013
 20
233.6987422700656
 30
0.0
 11
247.531013
 21
232.0320756033989
 31
0.0
 12
247.531013
 22
235.3654089367323
 32
0.0
 13
247.531013
 23
235.3654089367323
 33
0.0
  0
SOLID
  5
72E
330
731
100
AcDbEntity
  8
0
  6
ByBlock
 62
     7
380
     1
100
AcDbTrace
 10
1646.24573412242
 20
233.6987422700656
 30
0.0
 11
1636.24573412242
 21
232.0320756033989
 31
0.0
 12
1636.24573412242
 22
235.3654089367323
 32
0.0
 13
1636.24573412242
 23
235.3654089367323
 33
0.0
  0
MTEXT
  5
72F
330
731
100
AcDbEntity
  8
0
  6
ByBlock
 62
     0
370
    -2
380
     1
100
AcDbMText
 10
941.8883735612098
 20
245.0048816887153
 30
0.0
 40
14.0
 41
0.0
 71
     5
 72
     1
  1
\A1;1409
 73
     1
 44
1.0
  0
ENDBLK
  5
8FD
330
731
100
AcDbEntity
  8
0
100
AcDbBlockEnd
  0
BLOCK
  5
8FE
330
73C
100
AcDbEntity
  8
0
100
AcDbBlockBegin
  2
*D194
 70
     1
 10
0.0
 20
0.0
 30
0.0
  3
*D194
  1

  0
POINT
  5
733
330
73C
100
AcDbEntity
  8
DEFPOINTS
  6
ByBlock
 62
     7
380
     1
100
AcDbPoint
 10
237.531013
 20
290.803219
 30
0.0
  0
POINT
  5
734
330
73C
100
AcDbEntity
  8
DEFPOINTS
  6
ByBlock
 62
     7
380
     1
100
AcDbPoint
 10
1646.24573412242
 20
285.8315339999999
 30
0.0
  0
LINE
  5
735
330
73C
100
AcDbEntity
  8
0
  6
ByBlock
 62
     7
370
    -2
380
     1
100
AcDbLine
 10
237.531013
 20
290.178219
 30
0.0
 11
237.531013
 21
34.89206793133036
 31
0.0
  0
LINE
  5
736
330
73C
100
AcDbEntity
  8
0
  6
ByBlock
 62
     7
370
    -2
380
     1
100
AcDbLine
 10
1646.24573412242
 20
285.2065339999999
 30
0.0
 11
1646.24573412242
 21
34.89206793133036
 31
0.0
  0
LINE
  5
737
330
73C
100
AcDbEntity
  8
0
  6
ByBlock
 62
     7
370
    -2
380
     1
100
AcDbLine
 10
247.531013
 20
36.14206793133036
 30
0.0
 11
1636.24573412242
 21
36.14206793133036
 31
0.0
  0
SOLID
  5
738
330
73C
100
AcDbEntity
  8
0
  6
ByBlock
 62
     7
380
     1
100
AcDbTrace
 10
237.531013
 20
36.14206793133036
 30
0.0
 11
247.531013
 21
34.47540126466367
 31
0.0
 12
247.531013
 22
37.80873459799702
 32
0.0
 13
247.531013
 23
37.80873459799702
 33
0.0
  0
SOLID
  5
739
330
73C
100
AcDbEntity
  8
0
  6
ByBlock
 62
     7
380
     1
100
AcDbTrace
 10
1646.24573412242
 20
36.14206793133036
 30
0.0
 11
1636.24573412242
 21
34.47540126466367
 31
0.0
 12
1636.24573412242
 22
37.80873459799702
 32
0.0
 13
1636.24573412242
 23
37.80873459799702
 33
0.0
  0
MTEXT
  5
73A
330
73C
100
AcDbEntity
  8
0
  6
ByBlock
 62
     0
370
    -2
380
     1
100
AcDbMText
 10
941.8883735612098
 20
47.44820734998001
 30
0.0
 40
14.0
 41
0.0
 71
     5
 72
     1
  1
\A1;1409
 73
     1
 44
1.0
  0
ENDBLK
  5
8FF
330
73C
100
AcDbEntity
  8
0
100
AcDbBlockEnd
  0
BLOCK
  5
900
330
747
100
AcDbEntity
  8
0
100
AcDbBlockBegin
  2
*D195
 70
     1
 10
0.0
 20
0.0
 30
0.0
  3
*D195
  1

  0
POINT
  5
73E
330
747
100
AcDbEntity
  8
DEFPOINTS
  6
ByBlock
 62
     7
380
     1
100
AcDbPoint
 10
237.531013
 20
290.803219
 30
0.0
  0
POINT
  5
73F
330
747
100
AcDbEntity
  8
DEFPOINTS
  6
ByBlock
 62
     7
380
     1
100
AcDbPoint
 10
1646.24573412242
 20
285.8315339999999
 30
0.0
  0
LINE
  5
740
330
747
100
AcDbEntity
  8
0
  6
ByBlock
 62
     7
370
    -2
380
     1
100
AcDbLine
 10
237.531013
 20
290.178219
 30
0.0
 11
237.531013
 21
223.3600079656088
 31
0.0
  0
LINE
  5
741
330
747
100
AcDbEntity
  8
0
  6
ByBlock
 62
     7
370
    -2
380
     1
100
AcDbLine
 10
1646.24573412242
 20
285.2065339999999
 30
0.0
 11
1646.24573412242
 21
223.3600079656088
 31
0.0
  0
LINE
  5
742
330
747
100
AcDbEntity
  8
0
  6
ByBlock
 62
     7
370
    -2
380
     1
100
AcDbLine
 10
247.531013
 20
224.6100079656088
 30
0.0
 11
1636.24573412242
 21
224.6100079656088
 31
0.0
  0
SOLID
  5
743
330
747
100
AcDbEntity
  8
0
  6
ByBlock
 62
     7
380
     1
100
AcDbTrace
 10
237.531013
 20
224.6100079656088
 30
0.0
 11
247.531013
 21
222.9433412989421
 31
0.0
 12
247.531013
 22
226.2766746322755
 32
0.0
 13
247.531013
 23
226.2766746322755
 33
0.0
  0
SOLID
  5
744
330
747
100
AcDbEntity
  8
0
  6
ByBlock
 62
     7
380
     1
100
AcDbTrace
 10
1646.24573412242
 20
224.6100079656088
 30
0.0
 11
1636.24573412242
 21
222.9433412989421
 31
0.0
 12
1636.24573412242
 22
226.2766746322755
 32
0.0
 13
1636.24573412242
 23
226.2766746322755
 33
0.0
  0
MTEXT
  5
745
330
747
100
AcDbEntity
  8
0
  6
ByBlock
 62
     0
370
    -2
380
     1
100
AcDbMText
 10
941.8883735612098
 20
235.9161473842585
 30
0.0
 40
14.0
 41
0.0
 71
     5
 72
     1
  1
\A1;1409
 73
     1
 44
1.0
  0
ENDBLK
  5
901
330
747
100
AcDbEntity
  8
0
100
AcDbBlockEnd
  0
BLOCK
  5
902
330
753
100
AcDbEntity
  8
0
100
AcDbBlockBegin
  2
*D196
 70
     1
 10
0.0
 20
0.0
 30
0.0
  3
*D196
  1

  0
POINT
  5
74A
330
753
100
AcDbEntity
  8
DEFPOINTS
  6
ByBlock
 62
     0
380
     1
100
AcDbPoint
 10
1184.051384187537
 20
365.7565349999999
 30
0.0
  0
POINT
  5
74B
330
753
100
AcDbEntity
  8
DEFPOINTS
  6
ByBlock
 62
     0
380
     1
100
AcDbPoint
 10
1184.051384187537
 20
267.856533
 30
0.0
  0
LINE
  5
74C
330
753
100
AcDbEntity
  8
0
  6
ByBlock
 62
     0
370
    -2
380
     1
100
AcDbLine
 10
1184.676384187537
 20
365.7565349999999
 30
0.0
 11
1692.920508807505
 21
365.7565349999999
 31
0.0
  0
LINE
  5
74D
330
753
100
AcDbEntity
  8
0
  6
ByBlock
 62
     0
370
    -2
380
     1
100
AcDbLine
 10
1184.676384187537
 20
267.856533
 30
0.0
 11
1692.920508807505
 21
267.856533
 31
0.0
  0
LINE
  5
74E
330
753
100
AcDbEntity
  8
0
  6
ByBlock
 62
     0
370
    -2
380
     1
100
AcDbLine
 10
1691.670508807505
 20
363.2565349999999
 30
0.0
 11
1691.670508807505
 21
270.356533
 31
0.0
  0
SOLID
  5
74F
330
753
100
AcDbEntity
  8
0
  6
ByBlock
 62
     0
380
     1
100
AcDbTrace
 10
1691.670508807505
 20
365.7565349999999
 30
0.0
 11
1691.253842140839
 21
363.2565349999999
 31
0.0
 12
1692.087175474172
 22
363.2565349999999
 32
0.0
 13
1692.087175474172
 23
363.2565349999999
 33
0.0
  0
SOLID
  5
750
330
753
100
AcDbEntity
  8
0
  6
ByBlock
 62
     0
380
     1
100
AcDbTrace
 10
1691.670508807505
 20
267.856533
 30
0.0
 11
1691.253842140839
 21
270.356533
 31
0.0
 12
1692.087175474172
 22
270.356533
 32
0.0
 13
1692.087175474172
 23
270.356533
 33
0.0
  0
MTEXT
  5
751
330
753
100
AcDbEntity
  8
0
  6
ByBlock
 62
     0
370
    -2
380
     1
100
AcDbMText
 10
1689.669904608731
 20
316.8065339999999
 30
0.0
 40
2.5
 41
0.0
 71
     5
 72
     1
  1
\A1;97,9
 11
6.123031769111886E-17
 21
1.0
 31
0.0
 73
     1
 44
1.0
  0
ENDBLK
  5
903
330
753
100
AcDbEntity
  8
0
100
AcDbBlockEnd
  0
BLOCK
  5
904
330
75E
100
AcDbEntity
  8
0
100
AcDbBlockBegin
  2
*D197
 70
     1
 10
0.0
 20
0.0
 30
0.0
  3
*D197
  1

  0
POINT
  5
755
330
75E
100
AcDbEntity
  8
DEFPOINTS
  6
ByBlock
 62
     7
380
     1
100
AcDbPoint
 10
1184.051384187537
 20
365.7565349999999
 30
0.0
  0
POINT
  5
756
330
75E
100
AcDbEntity
  8
DEFPOINTS
  6
ByBlock
 62
     7
380
     1
100
AcDbPoint
 10
1184.051384187537
 20
267.856533
 30
0.0
  0
LINE
  5
757
330
75E
100
AcDbEntity
  8
0
  6
ByBlock
 62
     7
370
    -2
380
     1
100
AcDbLine
 10
1184.676384187537
 20
365.7565349999999
 30
0.0
 11
1692.920508807505
 21
365.7565349999999
 31
0.0
  0
LINE
  5
758
330
75E
100
AcDbEntity
  8
0
  6
ByBlock
 62
     7
370
    -2
380
     1
100
AcDbLine
 10
1184.676384187537
 20
267.856533
 30
0.0
 11
1692.920508807505
 21
267.856533
 31
0.0
  0
LINE
  5
759
330
75E
100
AcDbEntity
  8
0
  6
ByBlock
 62
     7
370
    -2
380
     1
100
AcDbLine
 10
1691.670508807505
 20
355.7565349999999
 30
0.0
 11
1691.670508807505
 21
277.856533
 31
0.0
  0
SOLID
  5
75A
330
75E
100
AcDbEntity
  8
0
  6
ByBlock
 62
     7
380
     1
100
AcDbTrace
 10
1691.670508807505
 20
365.7565349999999
 30
0.0
 11
1690.003842140839
 21
355.7565349999999
 31
0.0
 12
1693.337175474172
 22
355.7565349999999
 32
0.0
 13
1693.337175474172
 23
355.7565349999999
 33
0.0
  0
SOLID
  5
75B
330
75E
100
AcDbEntity
  8
0
  6
ByBlock
 62
     7
380
     1
100
AcDbTrace
 10
1691.670508807505
 20
267.856533
 30
0.0
 11
1690.003842140839
 21
277.856533
 31
0.0
 12
1693.337175474172
 22
277.856533
 32
0.0
 13
1693.337175474172
 23
277.856533
 33
0.0
  0
MTEXT
  5
75C
330
75E
100
AcDbEntity
  8
0
  6
ByBlock
 62
     0
370
    -2
380
     1
100
AcDbMText
 10
1680.367125294367
 20
316.8065339999999
 30
0.0
 40
14.0
 41
0.0
 71
     5
 72
     1
  1
\A1;98
 11
6.123031769111886E-17
 21
1.0
 31
0.0
 73
     1
 44
1.0
  0
ENDBLK
  5
905
330
75E
100
AcDbEntity
  8
0
100
AcDbBlockEnd
  0
BLOCK
  5
906
330
769
100
AcDbEntity
  8
0
100
AcDbBlockBegin
  2
*D198
 70
     1
 10
0.0
 20
0.0
 30
0.0
  3
*D198
  1

  0
POINT
  5
760
330
769
100
AcDbEntity
  8
DEFPOINTS
  6
ByBlock
 62
     7
380
     1
100
AcDbPoint
 10
237.531013
 20
290.803219
 30
0.0
  0
POINT
  5
761
330
769
100
AcDbEntity
  8
DEFPOINTS
  6
ByBlock
 62
     7
380
     1
100
AcDbPoint
 10
1646.24573412242
 20
285.8315339999999
 30
0.0
  0
LINE
  5
762
330
769
100
AcDbEntity
  8
0
  6
ByBlock
 62
     7
370
    -2
380
     1
100
AcDbLine
 10
237.531013
 20
290.178219
 30
0.0
 11
237.531013
 21
223.3600079656088
 31
0.0
  0
LINE
  5
763
330
769
100
AcDbEntity
  8
0
  6
ByBlock
 62
     7
370
    -2
380
     1
100
AcDbLine
 10
1646.24573412242
 20
285.2065339999999
 30
0.0
 11
1646.24573412242
 21
223.3600079656088
 31
0.0
  0
LINE
  5
764
330
769
100
AcDbEntity
  8
0
  6
ByBlock
 62
     7
370
    -2
380
     1
100
AcDbLine
 10
247.531013
 20
224.6100079656088
 30
0.0
 11
1636.24573412242
 21
224.6100079656088
 31
0.0
  0
SOLID
  5
765
330
769
100
AcDbEntity
  8
0
  6
ByBlock
 62
     7
380
     1
100
AcDbTrace
 10
237.531013
 20
224.6100079656088
 30
0.0
 11
247.531013
 21
222.9433412989421
 31
0.0
 12
247.531013
 22
226.2766746322755
 32
0.0
 13
247.531013
 23
226.2766746322755
 33
0.0
  0
SOLID
  5
766
330
769
100
AcDbEntity
  8
0
  6
ByBlock
 62
     7
380
     1
100
AcDbTrace
 10
1646.24573412242
 20
224.6100079656088
 30
0.0
 11
1636.24573412242
 21
222.9433412989421
 31
0.0
 12
1636.24573412242
 22
226.2766746322755
 32
0.0
 13
1636.24573412242
 23
226.2766746322755
 33
0.0
  0
MTEXT
  5
767
330
769
100
AcDbEntity
  8
0
  6
ByBlock
 62
     0
370
    -2
380
     1
100
AcDbMText
 10
941.8883735612098
 20
235.9161473842585
 30
0.0
 40
14.0
 41
0.0
 71
     5
 72
     1
  1
\A1;1409
 73
     1
 44
1.0
  0
ENDBLK
  5
907
330
769
100
AcDbEntity
  8
0
100
AcDbBlockEnd
  0
BLOCK
  5
908
330
774
100
AcDbEntity
  8
0
100
AcDbBlockBegin
  2
*D199
 70
     1
 10
0.0
 20
0.0
 30
0.0
  3
*D199
  1

  0
POINT
  5
76B
330
774
100
AcDbEntity
  8
DEFPOINTS
  6
ByBlock
 62
     7
380
     1
100
AcDbPoint
 10
1184.051384187537
 20
365.7565349999999
 30
0.0
  0
POINT
  5
76C
330
774
100
AcDbEntity
  8
DEFPOINTS
  6
ByBlock
 62
     7
380
     1
100
AcDbPoint
 10
1184.051384187537
 20
267.856533
 30
0.0
  0
LINE
  5
76D
330
774
100
AcDbEntity
  8
0
  6
ByBlock
 62
     7
370
    -2
380
     1
100
AcDbLine
 10
1184.676384187537
 20
365.7565349999999
 30
0.0
 11
1692.920508807505
 21
365.7565349999999
 31
0.0
  0
LINE
  5
76E
330
774
100
AcDbEntity
  8
0
  6
ByBlock
 62
     7
370
    -2
380
     1
100
AcDbLine
 10
1184.676384187537
 20
267.856533
 30
0.0
 11
1692.920508807505
 21
267.856533
 31
0.0
  0
LINE
  5
76F
330
774
100
AcDbEntity
  8
0
  6
ByBlock
 62
     7
370
    -2
380
     1
100
AcDbLine
 10
1691.670508807505
 20
355.7565349999999
 30
0.0
 11
1691.670508807505
 21
277.856533
 31
0.0
  0
SOLID
  5
770
330
774
100
AcDbEntity
  8
0
  6
ByBlock
 62
     7
380
     1
100
AcDbTrace
 10
1691.670508807505
 20
365.7565349999999
 30
0.0
 11
1690.003842140839
 21
355.7565349999999
 31
0.0
 12
1693.337175474172
 22
355.7565349999999
 32
0.0
 13
1693.337175474172
 23
355.7565349999999
 33
0.0
  0
SOLID
  5
771
330
774
100
AcDbEntity
  8
0
  6
ByBlock
 62
     7
380
     1
100
AcDbTrace
 10
1691.670508807505
 20
267.856533
 30
0.0
 11
1690.003842140839
 21
277.856533
 31
0.0
 12
1693.337175474172
 22
277.856533
 32
0.0
 13
1693.337175474172
 23
277.856533
 33
0.0
  0
MTEXT
  5
772
330
774
100
AcDbEntity
  8
0
  6
ByBlock
 62
     0
370
    -2
380
     1
100
AcDbMText
 10
1680.367125294367
 20
316.8065339999999
 30
0.0
 40
14.0
 41
0.0
 71
     5
 72
     1
  1
\A1;98
 11
6.123031769111886E-17
 21
1.0
 31
0.0
 73
     1
 44
1.0
  0
ENDBLK
  5
909
330
774
100
AcDbEntity
  8
0
100
AcDbBlockEnd
  0
ENDSEC
  0
SECTION
  2
ENTITIES
  0
POINT
  5
2E
330
1F
100
AcDbEntity
  8
0
 62
     7
370
    60
390
F
100
AcDbPoint
 10
1516.24576412242
 20
317.323477
 30
0.0
  0
POINT
  5
34
330
1F
100
AcDbEntity
  8
0
 62
     7
370
    60
390
F
100
AcDbPoint
 10
237.531013
 20
316.806535
 30
0.0
  0
POINT
  5
39
330
1F
100
AcDbEntity
  8
0
 62
     7
370
    60
390
F
100
AcDbPoint
 10
237.531013
 20
305.806535
 30
0.0
  0
POINT
  5
3A
330
1F
100
AcDbEntity
  8
0
 62
     7
370
    60
390
F
100
AcDbPoint
 10
1646.24573412242
 20
316.8065349999999
 30
0.0
  0
POINT
  5
3B
330
1F
100
AcDbEntity
  8
0
 62
     7
370
    60
390
F
100
AcDbPoint
 10
1646.24573412242
 20
329.8065349999999
 30
0.0
  0
POINT
  5
3C
330
1F
100
AcDbEntity
  8
0
 62
     7
370
    60
390
F
100
AcDbPoint
 10
247.531013
 20
309.806535
 30
0.0
  0
POINT
  5
3D
330
1F
100
AcDbEntity
  8
0
 62
     7
370
    60
390
F
100
AcDbPoint
 10
249.531013
 20
307.806535
 30
0.0
  0
POINT
  5
3E
330
1F
100
AcDbEntity
  8
0
 62
     7
370
    60
390
F
100
AcDbPoint
 10
247.531013
 20
323.806535
 30
0.0
  0
POINT
  5
3F
330
1F
100
AcDbEntity
  8
0
 62
     7
370
    60
390
F
100
AcDbPoint
 10
249.531013
 20
325.806535
 30
0.0
  0
POINT
  5
40
330
1F
100
AcDbEntity
  8
0
 62
     7
370
    60
390
F
100
AcDbPoint
 10
237.531013
 20
319.306535
 30
0.0
  0
POINT
  5
41
330
1F
100
AcDbEntity
  8
0
 62
     7
370
    60
390
F
100
AcDbPoint
 10
239.531013
 20
321.306535
 30
0.0
  0
POINT
  5
42
330
1F
100
AcDbEntity
  8
0
 62
     7
370
    60
390
F
100
AcDbPoint
 10
237.531013
 20
329.806535
 30
0.0
  0
POINT
  5
43
330
1F
100
AcDbEntity
  8
0
 62
     7
370
    60
390
F
100
AcDbPoint
 10
239.531013
 20
327.806535
 30
0.0
  0
CIRCLE
  5
47
330
1F
100
AcDbEntity
  8
0
 62
     7
370
    60
390
F
100
AcDbCircle
 10
392.531021
 20
316.806535
 30
0.0
 40
25.0
  0
CIRCLE
  5
48
330
1F
100
AcDbEntity
  8
0
 62
     7
370
    60
390
F
100
AcDbCircle
 10
1491.24576412242
 20
316.8065349999999
 30
0.0
 40
25.0
  0
LINE
  5
49
330
1F
100
AcDbEntity
  8
0
 62
     7
370
    60
390
F
100
AcDbLine
 10
237.531013
 20
267.856533
 30
0.0
 11
237.531013
 21
303.806535
 31
0.0
  0
LINE
  5
4A
330
1F
100
AcDbEntity
  8
0
 62
     7
370
    60
390
F
100
AcDbLine
 10
1646.24573412242
 20
267.856533
 30
0.0
 11
1646.24573412242
 21
303.8065349999999
 31
0.0
  0
LINE
  5
57
330
1F
100
AcDbEntity
  8
0
 62
     7
370
    60
390
F
100
AcDbLine
 10
237.531013
 20
360.451405
 30
0.0
 11
1468.44593838761
 21
360.451405
 31
0.0
  0
LINE
  5
58
330
1F
100
AcDbEntity
  8
0
 62
     7
370
    60
390
F
100
AcDbLine
 10
237.531013
 20
273.161667
 30
0.0
 11
1379.96512412242
 21
273.161667
 31
0.0
  0
LINE
  5
90A
330
1F
100
AcDbEntity
  8
0
 62
     7
370
    60
390
F
100
AcDbLine
 10
1395.35663412242
 20
360.451405
 30
0.0
 11
1646.24573412242
 21
360.451405
 31
0.0
  0
LINE
  5
5B
330
1F
100
AcDbEntity
  8
0
 62
     7
370
    60
390
F
100
AcDbLine
 10
1379.96512412242
 20
273.161667
 30
0.0
 11
1646.24573412242
 21
273.161667
 31
0.0
  0
LINE
  5
111
330
1F
100
AcDbEntity
  8
0
 62
     7
 48
0.05
370
    60
390
F
100
AcDbLine
 10
252.531013
 20
305.806535
 30
0.0
 11
252.531013
 21
307.806535
 31
0.0
  0
LINE
  5
112
330
1F
100
AcDbEntity
  8
0
 62
     7
 48
0.0625
370
    60
390
F
100
AcDbLine
 10
247.531013
 20
309.806535
 30
0.0
 11
247.531013
 21
312.306535
 31
0.0
  0
LINE
  5
113
330
1F
100
AcDbEntity
  8
0
 62
     7
 48
0.2
370
    60
390
F
100
AcDbLine
 10
239.531013
 20
312.306535
 30
0.0
 11
247.531013
 21
312.306535
 31
0.0
  0
LINE
  5
114
330
1F
100
AcDbEntity
  8
0
 62
     7
 48
0.075
370
    60
390
F
100
AcDbLine
 10
249.531013
 20
307.806535
 30
0.0
 11
252.531013
 21
307.806535
 31
0.0
  0
LINE
  5
115
330
1F
100
AcDbEntity
  8
0
 62
     7
 48
0.325
370
    60
390
F
100
AcDbLine
 10
239.531013
 20
305.806535
 30
0.0
 11
252.531013
 21
305.806535
 31
0.0
  0
LINE
  5
116
330
1F
100
AcDbEntity
  8
0
 62
     7
 48
0.0625
370
    60
390
F
100
AcDbLine
 10
237.531013
 20
314.306535
 30
0.0
 11
237.531013
 21
316.806535
 31
0.0
  0
LINE
  5
117
330
1F
100
AcDbEntity
  8
0
 62
     7
 48
0.070711
370
    60
390
F
100
AcDbLine
 10
237.531013
 20
314.306535
 30
0.0
 11
239.531013
 21
312.306535
 31
0.0
  0
LINE
  5
118
330
1F
100
AcDbEntity
  8
0
 62
     7
 48
0.070711
370
    60
390
F
100
AcDbLine
 10
247.531013
 20
309.806535
 30
0.0
 11
249.531013
 21
307.806535
 31
0.0
  0
LINE
  5
119
330
1F
100
AcDbEntity
  8
0
 62
     7
 48
0.0625
370
    60
390
F
100
AcDbLine
 10
237.531013
 20
316.806535
 30
0.0
 11
237.531013
 21
319.306535
 31
0.0
  0
LINE
  5
11A
330
1F
100
AcDbEntity
  8
0
 62
     7
 48
0.070711
370
    60
390
F
100
AcDbLine
 10
237.531013
 20
319.306535
 30
0.0
 11
239.531013
 21
321.306535
 31
0.0
  0
LINE
  5
11B
330
1F
100
AcDbEntity
  8
0
 62
     7
 48
0.2
370
    60
390
F
100
AcDbLine
 10
239.531013
 20
321.306535
 30
0.0
 11
247.531013
 21
321.306535
 31
0.0
  0
LINE
  5
11C
330
1F
100
AcDbEntity
  8
0
 62
     7
 48
0.0625
370
    60
390
F
100
AcDbLine
 10
247.531013
 20
321.306535
 30
0.0
 11
247.531013
 21
323.806535
 31
0.0
  0
LINE
  5
11D
330
1F
100
AcDbEntity
  8
0
 62
     7
 48
0.070711
370
    60
390
F
100
AcDbLine
 10
247.531013
 20
323.806535
 30
0.0
 11
249.531013
 21
325.806535
 31
0.0
  0
LINE
  5
11E
330
1F
100
AcDbEntity
  8
0
 62
     7
 48
0.075
370
    60
390
F
100
AcDbLine
 10
249.531013
 20
325.806535
 30
0.0
 11
252.531013
 21
325.806535
 31
0.0
  0
LINE
  5
120
330
1F
100
AcDbEntity
  8
0
 62
     7
 48
0.325
370
    60
390
F
100
AcDbLine
 10
239.531013
 20
327.806535
 30
0.0
 11
252.531013
 21
327.806535
 31
0.0
  0
LINE
  5
121
330
1F
100
AcDbEntity
  8
0
 62
     7
370
    60
390
F
100
AcDbLine
 10
237.531013
 20
329.806535
 30
0.0
 11
237.531013
 21
365.756535
 31
0.0
  0
LINE
  5
122
330
1F
100
AcDbEntity
  8
0
 62
     7
 48
0.070711
370
    60
390
F
100
AcDbLine
 10
237.531013
 20
329.806535
 30
0.0
 11
239.531013
 21
327.806535
 31
0.0
  0
LINE
  5
123
330
1F
100
AcDbEntity
  8
0
 62
     7
 48
0.070711
370
    60
390
F
100
AcDbLine
 10
237.531013
 20
303.806535
 30
0.0
 11
239.531013
 21
305.806535
 31
0.0
  0
LINE
  5
124
330
1F
100
AcDbEntity
  8
0
 62
     7
 48
0.070711
370
    60
390
F
100
AcDbLine
 10
1644.24573412242
 20
305.8065349999999
 30
0.0
 11
1646.24573412242
 21
303.8065349999999
 31
0.0
  0
LINE
  5
125
330
1F
100
AcDbEntity
  8
0
 62
     7
 48
0.070711
370
    60
390
F
100
AcDbLine
 10
1644.24573412242
 20
327.8065349999999
 30
0.0
 11
1646.24573412242
 21
329.8065349999999
 31
0.0
  0
LINE
  5
126
330
1F
100
AcDbEntity
  8
0
 62
     7
 48
0.325
370
    60
390
F
100
AcDbLine
 10
1631.24573412242
 20
327.8065349999999
 30
0.0
 11
1644.24573412242
 21
327.8065349999999
 31
0.0
  0
LINE
  5
128
330
1F
100
AcDbEntity
  8
0
 62
     7
 48
0.075
370
    60
390
F
100
AcDbLine
 10
1631.24573412242
 20
325.8065349999999
 30
0.0
 11
1634.24573412242
 21
325.8065349999999
 31
0.0
  0
LINE
  5
129
330
1F
100
AcDbEntity
  8
0
 62
     7
 48
0.070711
370
    60
390
F
100
AcDbLine
 10
1634.24573412242
 20
325.8065349999999
 30
0.0
 11
1636.24573412242
 21
323.8065349999999
 31
0.0
  0
LINE
  5
12A
330
1F
100
AcDbEntity
  8
0
 62
     7
 48
0.0625
370
    60
390
F
100
AcDbLine
 10
1636.24573412242
 20
321.3065349999999
 30
0.0
 11
1636.24573412242
 21
323.8065349999999
 31
0.0
  0
LINE
  5
12B
330
1F
100
AcDbEntity
  8
0
 62
     7
 48
0.2
370
    60
390
F
100
AcDbLine
 10
1636.24573412242
 20
321.3065349999999
 30
0.0
 11
1644.24573412242
 21
321.3065349999999
 31
0.0
  0
LINE
  5
12C
330
1F
100
AcDbEntity
  8
0
 62
     7
 48
0.070711
370
    60
390
F
100
AcDbLine
 10
1644.24573412242
 20
321.3065349999999
 30
0.0
 11
1646.24573412242
 21
319.3065349999999
 31
0.0
  0
LINE
  5
12D
330
1F
100
AcDbEntity
  8
0
 62
     7
 48
0.0625
370
    60
390
F
100
AcDbLine
 10
1646.24573412242
 20
316.8065349999999
 30
0.0
 11
1646.24573412242
 21
319.3065349999999
 31
0.0
  0
LINE
  5
12E
330
1F
100
AcDbEntity
  8
0
 62
     7
 48
0.070711
370
    60
390
F
100
AcDbLine
 10
1634.24573412242
 20
307.8065349999999
 30
0.0
 11
1636.24573412242
 21
309.8065349999999
 31
0.0
  0
LINE
  5
12F
330
1F
100
AcDbEntity
  8
0
 62
     7
 48
0.070711
370
    60
390
F
100
AcDbLine
 10
1644.24573412242
 20
312.3065349999999
 30
0.0
 11
1646.24573412242
 21
314.3065349999999
 31
0.0
  0
LINE
  5
130
330
1F
100
AcDbEntity
  8
0
 62
     7
 48
0.0625
370
    60
390
F
100
AcDbLine
 10
1646.24573412242
 20
314.3065349999999
 30
0.0
 11
1646.24573412242
 21
316.8065349999999
 31
0.0
  0
LINE
  5
131
330
1F
100
AcDbEntity
  8
0
 62
     7
 48
0.325
370
    60
390
F
100
AcDbLine
 10
1631.24573412242
 20
305.8065349999999
 30
0.0
 11
1644.24573412242
 21
305.8065349999999
 31
0.0
  0
LINE
  5
132
330
1F
100
AcDbEntity
  8
0
 62
     7
 48
0.075
370
    60
390
F
100
AcDbLine
 10
1631.24573412242
 20
307.8065349999999
 30
0.0
 11
1634.24573412242
 21
307.8065349999999
 31
0.0
  0
LINE
  5
133
330
1F
100
AcDbEntity
  8
0
 62
     7
 48
0.2
370
    60
390
F
100
AcDbLine
 10
1636.24573412242
 20
312.3065349999999
 30
0.0
 11
1644.24573412242
 21
312.3065349999999
 31
0.0
  0
LINE
  5
134
330
1F
100
AcDbEntity
  8
0
 62
     7
 48
0.0625
370
    60
390
F
100
AcDbLine
 10
1636.24573412242
 20
309.8065349999999
 30
0.0
 11
1636.24573412242
 21
312.3065349999999
 31
0.0
  0
LINE
  5
135
330
1F
100
AcDbEntity
  8
0
 62
     7
 48
0.05
370
    60
390
F
100
AcDbLine
 10
1631.24573412242
 20
305.8065349999999
 30
0.0
 11
1631.24573412242
 21
307.8065349999999
 31
0.0
  0
LINE
  5
136
330
1F
100
AcDbEntity
  8
0
 62
     7
370
    60
390
F
100
AcDbLine
 10
1646.24573412242
 20
329.8065349999999
 30
0.0
 11
1646.24573412242
 21
365.7565349999999
 31
0.0
  0
LINE
  5
137
330
1F
100
AcDbEntity
  8
0
 62
     7
 48
0.05
370
    60
390
F
100
AcDbLine
 10
1631.24573412242
 20
325.8065349999999
 30
0.0
 11
1631.24573412242
 21
327.8065349999999
 31
0.0
  0
LINE
  5
139
330
1F
100
AcDbEntity
  8
0
 62
     7
 48
0.05
370
    60
390
F
100
AcDbLine
 10
252.531013
 20
325.806535
 30
0.0
 11
252.531013
 21
327.806535
 31
0.0
  0
LINE
  5
15D
330
1F
100
AcDbEntity
  8
0
 62
     7
370
    60
390
F
100
AcDbLine
 10
237.531013
 20
365.756535
 30
0.0
 11
1571.229259696591
 21
365.7565349999999
 31
0.0
  0
LINE
  5
15E
330
1F
100
AcDbEntity
  8
0
 62
     7
370
    60
390
F
100
AcDbLine
 10
237.531013
 20
267.856533
 30
0.0
 11
1435.184657801202
 21
267.856533
 31
0.0
  0
LINE
  5
15F
330
1F
100
AcDbEntity
  8
0
 62
     7
370
    60
390
F
100
AcDbLine
 10
1396.29209012242
 20
365.7565349999999
 30
0.0
 11
1646.24573412242
 21
365.7565349999999
 31
0.0
  0
LINE
  5
160
330
1F
100
AcDbEntity
  8
0
 62
     7
370
    60
390
F
100
AcDbLine
 10
1379.02966912242
 20
267.856533
 30
0.0
 11
1646.24573412242
 21
267.856533
 31
0.0
  0
LINE
  5
1A1
330
1F
100
AcDbEntity
  8
0
 62
     7
370
    60
390
F
100
AcDbLine
 10
237.531013
 20
339.999483
 30
0.0
 11
237.531013
 21
319.306536
 31
0.0
  0
LINE
  5
1A8
330
1F
100
AcDbEntity
  8
0
 62
     7
370
    60
390
F
100
AcDbLine
 10
237.531013
 20
290.803219
 30
0.0
 11
237.531013
 21
314.306536
 31
0.0
  0
DIMENSION
  5
710
330
1F
100
AcDbEntity
  8
0
370
    40
100
AcDbDimension
  2
*D198
 10
1646.24573412242
 20
224.6100079656088
 30
0.0
 11
941.8883735612098
 21
235.9161473842585
 31
0.0
 70
   160
 71
     5
 41
2.5
 42
1408.71472112242
  3
Standard
100
AcDbAlignedDimension
 13
237.531013
 23
290.803219
 33
0.0
 14
1646.24573412242
 24
285.8315339999999
 34
0.0
100
AcDbRotatedDimension
1001
ACAD
1000
DSTYLE
1002
{
1070
    41
1040
10.0
1070
   140
1040
14.0
1070
   147
1040
5.0
1070
   176
1070
     7
1070
   177
1070
     7
1070
   271
1070
     0
1070
   340
1005
11
1002
}
  0
DIMENSION
  5
748
330
1F
100
AcDbEntity
  8
0
370
    40
100
AcDbDimension
  2
*D199
 10
1691.670508807505
 20
267.8565329999999
 30
0.0
 11
1680.367125294367
 21
316.8065339999999
 31
0.0
 70
    32
 71
     5
 41
2.5
 42
97.90000199999997
  3
Standard
100
AcDbAlignedDimension
 13
1184.051384187537
 23
365.7565349999999
 33
0.0
 14
1184.051384187537
 24
267.856533
 34
0.0
 50
90.0
100
AcDbRotatedDimension
1001
ACAD
1000
DSTYLE
1002
{
1070
    41
1040
10.0
1070
   140
1040
14.0
1070
   147
1040
5.0
1070
   176
1070
     7
1070
   177
1070
     7
1070
   271
1070
     0
1070
   340
1005
11
1002
}
  0
VIEWPORT
  5
2D1
330
73
100
AcDbEntity
 67
     1
  8
0
 62
     0
370
     0
390
F
100
AcDbViewport
 10
0.0
 20
0.0
 30
0.0
 40
1000.0
 41
1000.0
 68
     1
 69
     1
 12
0.0
 22
0.0
 13
0.0
 23
0.0
 14
1.0
 24
1.0
 15
1.0
 25
1.0
 16
0.0
 26
0.0
 36
1.0
 17
0.0
 27
0.0
 37
0.0
 42
50.0
 43
0.0
 44
0.0
 45
1000.0
 50
0.0
 51
0.0
 72
   100
 90
   557056
  1

281
     0
 71
     0
 74
     0
110
0.0
120
0.0
130
0.0
111
1.0
121
0.0
131
0.0
112
0.0
122
1.0
132
0.0
 79
     0
146
0.0
  0
ENDSEC
  0
SECTION
  2
OBJECTS
  0
DICTIONARY
  5
C
330
0
100
AcDbDictionary
281
     1
  3
ACAD_COLOR
350
6C
  3
ACAD_GROUP
350
D
  3
ACAD_LAYOUT
350
1A
  3
ACAD_MATERIAL
350
6B
  3
ACAD_MLEADERSTYLE
350
90B
  3
ACAD_MLINESTYLE
350
17
  3
ACAD_PLOTSETTINGS
350
19
  3
ACAD_PLOTSTYLENAME
350
E
  3
ACAD_SCALELIST
350
99
  3
ACAD_TABLESTYLE
350
92
  3
ACAD_WIPEOUT_VARS
350
779
  3
ACDBHEADERROUNDTRIPXREC
350
90C
  3
AcDbVariableDictionary
350
59
  3
DWGPROPS
350
90F
  0
DICTIONARY
  5
6C
102
{ACAD_REACTORS
330
C
102
}
330
C
100
AcDbDictionary
281
     1
  0
DICTIONARY
  5
D
102
{ACAD_REACTORS
330
C
102
}
330
C
100
AcDbDictionary
281
     1
  0
DICTIONARY
  5
1A
102
{ACAD_REACTORS
330
C
102
}
330
C
100
AcDbDictionary
281
     1
  3
Layout1
350
74
  3
Model
350
22
  0
DICTIONARY
  5
6B
102
{ACAD_REACTORS
330
C
102
}
330
C
100
AcDbDictionary
281
     1
  0
DICTIONARY
  5
90B
102
{ACAD_REACTORS
330
C
102
}
330
C
100
AcDbDictionary
281
     1
  0
DICTIONARY
  5
17
102
{ACAD_REACTORS
330
C
102
}
330
C
100
AcDbDictionary
281
     1
  3
Standard
350
18
  0
DICTIONARY
  5
19
102
{ACAD_REACTORS
330
C
102
}
330
C
100
AcDbDictionary
281
     1
  0
ACDBDICTIONARYWDFLT
  5
E
102
{ACAD_REACTORS
330
C
102
}
330
C
100
AcDbDictionary
281
     1
  3
Normal
350
F
100
AcDbDictionaryWithDefault
340
F
  0
DICTIONARY
  5
99
102
{ACAD_REACTORS
330
C
102
}
330
C
100
AcDbDictionary
281
     1
  3
A0
350
66F
  3
A1
350
670
  3
A2
350
671
  3
A3
350
672
  3
A4
350
673
  3
A5
350
674
  3
A6
350
675
  3
A7
350
676
  3
A8
350
677
  3
A9
350
678
  3
B0
350
679
  3
B1
350
67A
  3
B2
350
67B
  3
B3
350
67C
  3
B4
350
67D
  3
B5
350
67E
  3
B6
350
67F
  3
B7
350
680
  3
B8
350
681
  3
B9
350
682
  3
C0
350
683
  3
C1
350
684
  3
C2
350
685
  3
C3
350
686
  3
C4
350
687
  3
C5
350
688
  3
C6
350
689
  3
C7
350
68A
  3
C8
350
68B
  3
C9
350
68C
  3
D0
350
68D
  3
D1
350
68E
  3
D2
350
68F
  0
DICTIONARY
  5
92
102
{ACAD_REACTORS
330
C
102
}
330
C
100
AcDbDictionary
281
     1
  0
WIPEOUTVARIABLES
  5
779
102
{ACAD_REACTORS
330
C
102
}
330
C
100
AcDbWipeoutVariables
 70
     1
  0
DICTIONARY
  5
90C
102
{ACAD_REACTORS
330
C
102
}
330
C
100
AcDbDictionary
281
     1
  3
COLORDICT
350
90D
  3
MATERIALDICT
350
90E
  0
DICTIONARY
  5
59
102
{ACAD_REACTORS
330
C
102
}
330
C
100
AcDbDictionary
281
     1
  3
CTABLESTYLE
350
98
  3
DIMASSOC
350
5A
  3
HIDETEXT
350
5E
  0
XRECORD
  5
90F
102
{ACAD_REACTORS
330
C
102
}
330
C
100
AcDbXrecord
280
     1
  1
DWGPROPS COOKIE
  2

  3

  4

  6

  7

  8
BelottiMc
  9

300
=
301
=
302
=
303
=
304
=
305
=
306
=
307
=
308
=
309
=
 40
0.0
 41
2447892.999999977
 42
2447893.0
  1

 90
        0
  0
LAYOUT
  5
74
102
{ACAD_REACTORS
330
1A
102
}
330
1A
100
AcDbPlotSettings
  1

  2
none_device
  4
none_user_media
  6

 40
0.0
 41
0.0
 42
0.0
 43
0.0
 44
0.0
 45
0.0
 46
0.0
 47
0.0
 48
0.0
 49
0.0
140
0.0
141
0.0
142
1.0
143
1.0
 70
   544
 72
     0
 73
     0
 74
     0
  7

 75
    16
147
1.0
148
0.0
149
0.0
100
AcDbLayout
  1
Layout1
 70
     1
 71
     0
 10
0.0
 20
0.0
 11
420.0
 21
297.0
 12
0.0
 22
0.0
 32
0.0
 14
0.0
 24
0.0
 34
0.0
 15
655.135864
 25
281.941956
 35
2.0
146
0.0
 13
0.0
 23
0.0
 33
0.0
 16
1.0
 26
0.0
 36
0.0
 17
0.0
 27
1.0
 37
0.0
 76
     0
330
73
331
2D1
  0
LAYOUT
  5
22
102
{ACAD_REACTORS
330
1A
102
}
330
1A
100
AcDbPlotSettings
  1

  2
none_device
  4
none_user_media
  6

 40
6.349999904632568
 41
6.349999904632568
 42
6.350006103515625
 43
6.350006103515625
 44
215.8999938964844
 45
279.3999938964844
 46
0.0
 47
0.0
 48
0.0
 49
0.0
140
0.0
141
0.0
142
1.0
143
1.0
 70
 11936
 72
     0
 73
     0
 74
     0
  7

 75
     0
147
0.1491221862736255
148
0.0
149
0.0
100
AcDbLayout
  1
Model
 70
     1
 71
     0
 10
0.0
 20
0.0
 11
420.0
 21
297.0
 12
0.0
 22
0.0
 32
0.0
 14
237.531013
 24
34.47540126466367
 34
0.0
 15
1693.337175474172
 25
365.756535
 35
0.0
146
0.0
 13
0.0
 23
0.0
 33
0.0
 16
1.0
 26
0.0
 36
0.0
 17
0.0
 27
1.0
 37
0.0
 76
     0
330
1F
331
97
  0
MLINESTYLE
  5
18
102
{ACAD_REACTORS
330
17
102
}
330
17
100
AcDbMlineStyle
  2
Standard
 70
     0
  3

 62
     0
 51
90.0
 52
90.0
 71
     2
 49
0.5
 62
   256
  6
BYLAYER
 49
-0.5
 62
   256
  6
BYLAYER
  0
ACDBPLACEHOLDER
  5
F
102
{ACAD_REACTORS
330
E
102
}
330
E
  0
SCALE
  5
66F
102
{ACAD_REACTORS
330
99
102
}
330
99
100
AcDbScale
 70
     0
300
1:1
140
1.0
141
1.0
290
     1
  0
SCALE
  5
670
102
{ACAD_REACTORS
330
99
102
}
330
99
100
AcDbScale
 70
     0
300
1:2
140
1.0
141
2.0
290
     0
  0
SCALE
  5
671
102
{ACAD_REACTORS
330
99
102
}
330
99
100
AcDbScale
 70
     0
300
1:4
140
1.0
141
4.0
290
     0
  0
SCALE
  5
672
102
{ACAD_REACTORS
330
99
102
}
330
99
100
AcDbScale
 70
     0
300
1:5
140
1.0
141
5.0
290
     0
  0
SCALE
  5
673
102
{ACAD_REACTORS
330
99
102
}
330
99
100
AcDbScale
 70
     0
300
1:8
140
1.0
141
8.0
290
     0
  0
SCALE
  5
674
102
{ACAD_REACTORS
330
99
102
}
330
99
100
AcDbScale
 70
     0
300
1:10
140
1.0
141
10.0
290
     0
  0
SCALE
  5
675
102
{ACAD_REACTORS
330
99
102
}
330
99
100
AcDbScale
 70
     0
300
1:16
140
1.0
141
16.0
290
     0
  0
SCALE
  5
676
102
{ACAD_REACTORS
330
99
102
}
330
99
100
AcDbScale
 70
     0
300
1:20
140
1.0
141
20.0
290
     0
  0
SCALE
  5
677
102
{ACAD_REACTORS
330
99
102
}
330
99
100
AcDbScale
 70
     0
300
1:30
140
1.0
141
30.0
290
     0
  0
SCALE
  5
678
102
{ACAD_REACTORS
330
99
102
}
330
99
100
AcDbScale
 70
     0
300
1:40
140
1.0
141
40.0
290
     0
  0
SCALE
  5
679
102
{ACAD_REACTORS
330
99
102
}
330
99
100
AcDbScale
 70
     0
300
1:50
140
1.0
141
50.0
290
     0
  0
SCALE
  5
67A
102
{ACAD_REACTORS
330
99
102
}
330
99
100
AcDbScale
 70
     0
300
1:100
140
1.0
141
100.0
290
     0
  0
SCALE
  5
67B
102
{ACAD_REACTORS
330
99
102
}
330
99
100
AcDbScale
 70
     0
300
2:1
140
2.0
141
1.0
290
     0
  0
SCALE
  5
67C
102
{ACAD_REACTORS
330
99
102
}
330
99
100
AcDbScale
 70
     0
300
4:1
140
4.0
141
1.0
290
     0
  0
SCALE
  5
67D
102
{ACAD_REACTORS
330
99
102
}
330
99
100
AcDbScale
 70
     0
300
8:1
140
8.0
141
1.0
290
     0
  0
SCALE
  5
67E
102
{ACAD_REACTORS
330
99
102
}
330
99
100
AcDbScale
 70
     0
300
10:1
140
10.0
141
1.0
290
     0
  0
SCALE
  5
67F
102
{ACAD_REACTORS
330
99
102
}
330
99
100
AcDbScale
 70
     0
300
100:1
140
100.0
141
1.0
290
     0
  0
SCALE
  5
680
102
{ACAD_REACTORS
330
99
102
}
330
99
100
AcDbScale
 70
     0
300
1/128" = 1'-0"
140
0.0078125
141
12.0
290
     0
  0
SCALE
  5
681
102
{ACAD_REACTORS
330
99
102
}
330
99
100
AcDbScale
 70
     0
300
1/64" = 1'-0"
140
0.015625
141
12.0
290
     0
  0
SCALE
  5
682
102
{ACAD_REACTORS
330
99
102
}
330
99
100
AcDbScale
 70
     0
300
1/32" = 1'-0"
140
0.03125
141
12.0
290
     0
  0
SCALE
  5
683
102
{ACAD_REACTORS
330
99
102
}
330
99
100
AcDbScale
 70
     0
300
1/16" = 1'-0"
140
0.0625
141
12.0
290
     0
  0
SCALE
  5
684
102
{ACAD_REACTORS
330
99
102
}
330
99
100
AcDbScale
 70
     0
300
3/32" = 1'-0"
140
0.09375
141
12.0
290
     0
  0
SCALE
  5
685
102
{ACAD_REACTORS
330
99
102
}
330
99
100
AcDbScale
 70
     0
300
1/8" = 1'-0"
140
0.125
141
12.0
290
     0
  0
SCALE
  5
686
102
{ACAD_REACTORS
330
99
102
}
330
99
100
AcDbScale
 70
     0
300
3/16" = 1'-0"
140
0.1875
141
12.0
290
     0
  0
SCALE
  5
687
102
{ACAD_REACTORS
330
99
102
}
330
99
100
AcDbScale
 70
     0
300
1/4" = 1'-0"
140
0.25
141
12.0
290
     0
  0
SCALE
  5
688
102
{ACAD_REACTORS
330
99
102
}
330
99
100
AcDbScale
 70
     0
300
3/8" = 1'-0"
140
0.375
141
12.0
290
     0
  0
SCALE
  5
689
102
{ACAD_REACTORS
330
99
102
}
330
99
100
AcDbScale
 70
     0
300
1/2" = 1'-0"
140
0.5
141
12.0
290
     0
  0
SCALE
  5
68A
102
{ACAD_REACTORS
330
99
102
}
330
99
100
AcDbScale
 70
     0
300
3/4" = 1'-0"
140
0.75
141
12.0
290
     0
  0
SCALE
  5
68B
102
{ACAD_REACTORS
330
99
102
}
330
99
100
AcDbScale
 70
     0
300
1" = 1'-0"
140
1.0
141
12.0
290
     0
  0
SCALE
  5
68C
102
{ACAD_REACTORS
330
99
102
}
330
99
100
AcDbScale
 70
     0
300
1-1/2" = 1'-0"
140
1.5
141
12.0
290
     0
  0
SCALE
  5
68D
102
{ACAD_REACTORS
330
99
102
}
330
99
100
AcDbScale
 70
     0
300
3" = 1'-0"
140
3.0
141
12.0
290
     0
  0
SCALE
  5
68E
102
{ACAD_REACTORS
330
99
102
}
330
99
100
AcDbScale
 70
     0
300
6" = 1'-0"
140
6.0
141
12.0
290
     0
  0
SCALE
  5
68F
102
{ACAD_REACTORS
330
99
102
}
330
99
100
AcDbScale
 70
     0
300
1'-0" = 1'-0"
140
12.0
141
12.0
290
     0
  0
XRECORD
  5
90D
102
{ACAD_REACTORS
330
90C
102
}
330
90C
100
AcDbXrecord
280
     1
340
6C
  0
XRECORD
  5
90E
102
{ACAD_REACTORS
330
90C
102
}
330
90C
100
AcDbXrecord
280
     1
340
6B
  0
DICTIONARYVAR
  5
98
102
{ACAD_REACTORS
330
59
102
}
330
59
100
DictionaryVariables
280
     0
  1
Standard
  0
DICTIONARYVAR
  5
5A
102
{ACAD_REACTORS
330
59
102
}
330
59
100
DictionaryVariables
280
     0
  1
2
  0
DICTIONARYVAR
  5
5E
102
{ACAD_REACTORS
330
59
102
}
330
59
100
DictionaryVariables
280
     0
  1
1
  0
ENDSEC
  0
EOF
