  0
SECTION
  2
HEADER
  9
$ACADVER
  1
AC1015
  9
$ACADMAINTVER
 70
     6
  9
$DWGCODEPAGE
  3
ANSI_1252
  9
$INSBASE
 10
0.0
 20
0.0
 30
0.0
  9
$EXTMIN
 10
469.62495
 20
805.2481509161273
 30
0.0
  9
$EXTMAX
 10
1506.654761606571
 20
1012.462509
 30
0.0
  9
$LIMMIN
 10
0.0
 20
0.0
  9
$LIMMAX
 10
0.0
 20
0.0
  9
$ORTHOMODE
 70
     0
  9
$REGENMODE
 70
     1
  9
$FILLMODE
 70
     1
  9
$QTEXTMODE
 70
     0
  9
$MIRRTEXT
 70
     0
  9
$LTSCALE
 40
1.0
  9
$ATTMODE
 70
     1
  9
$TEXTSIZE
 40
2.5
  9
$TRACEWID
 40
1.0
  9
$TEXTSTYLE
  7
Standard
  9
$CLAYER
  8
0
  9
$CELTYPE
  6
ByLayer
  9
$CECOLOR
 62
   256
  9
$CELTSCALE
 40
1.0
  9
$DISPSILH
 70
     0
  9
$DIMSCALE
 40
1.0
  9
$DIMASZ
 40
2.5
  9
$DIMEXO
 40
0.625
  9
$DIMDLI
 40
3.75
  9
$DIMRND
 40
0.0
  9
$DIMDLE
 40
0.0
  9
$DIMEXE
 40
1.25
  9
$DIMTP
 40
0.0
  9
$DIMTM
 40
0.0
  9
$DIMTXT
 40
2.5
  9
$DIMCEN
 40
2.5
  9
$DIMTSZ
 40
0.0
  9
$DIMTOL
 70
     0
  9
$DIMLIM
 70
     0
  9
$DIMTIH
 70
     0
  9
$DIMTOH
 70
     0
  9
$DIMSE1
 70
     0
  9
$DIMSE2
 70
     0
  9
$DIMTAD
 70
     1
  9
$DIMZIN
 70
     8
  9
$DIMBLK
  1

  9
$DIMASO
 70
     1
  9
$DIMSHO
 70
     1
  9
$DIMPOST
  1

  9
$DIMAPOST
  1

  9
$DIMALT
 70
     0
  9
$DIMALTD
 70
     3
  9
$DIMALTF
 40
0.03937007874016
  9
$DIMLFAC
 40
1.0
  9
$DIMTOFL
 70
     1
  9
$DIMTVP
 40
0.0
  9
$DIMTIX
 70
     0
  9
$DIMSOXD
 70
     0
  9
$DIMSAH
 70
     0
  9
$DIMBLK1
  1

  9
$DIMBLK2
  1

  9
$DIMSTYLE
  2
ISO-25
  9
$DIMCLRD
 70
     0
  9
$DIMCLRE
 70
     0
  9
$DIMCLRT
 70
     0
  9
$DIMTFAC
 40
1.0
  9
$DIMGAP
 40
0.625
  9
$DIMJUST
 70
     0
  9
$DIMSD1
 70
     0
  9
$DIMSD2
 70
     0
  9
$DIMTOLJ
 70
     0
  9
$DIMTZIN
 70
     8
  9
$DIMALTZ
 70
     0
  9
$DIMALTTZ
 70
     0
  9
$DIMUPT
 70
     0
  9
$DIMDEC
 70
     2
  9
$DIMTDEC
 70
     2
  9
$DIMALTU
 70
     2
  9
$DIMALTTD
 70
     3
  9
$DIMTXSTY
  7
Standard
  9
$DIMAUNIT
 70
     0
  9
$DIMADEC
 70
     0
  9
$DIMALTRND
 40
0.0
  9
$DIMAZIN
 70
     0
  9
$DIMDSEP
 70
    44
  9
$DIMATFIT
 70
     3
  9
$DIMFRAC
 70
     0
  9
$DIMLDRBLK
  1

  9
$DIMLUNIT
 70
     2
  9
$DIMLWD
 70
    -2
  9
$DIMLWE
 70
    -2
  9
$DIMTMOVE
 70
     0
  9
$LUNITS
 70
     2
  9
$LUPREC
 70
     4
  9
$SKETCHINC
 40
1.0
  9
$FILLETRAD
 40
0.0
  9
$AUNITS
 70
     0
  9
$AUPREC
 70
     0
  9
$MENU
  1
.
  9
$ELEVATION
 40
0.0
  9
$PELEVATION
 40
0.0
  9
$THICKNESS
 40
0.0
  9
$LIMCHECK
 70
     0
  9
$CHAMFERA
 40
0.0
  9
$CHAMFERB
 40
0.0
  9
$CHAMFERC
 40
0.0
  9
$CHAMFERD
 40
0.0
  9
$SKPOLY
 70
     0
  9
$TDCREATE
 40
2455245.681664387
  9
$TDUCREATE
 40
2455245.63999772
  9
$TDUPDATE
 40
2455245.681664363
  9
$TDUUPDATE
 40
2455245.639997697
  9
$TDINDWG
 40
0.0357224537
  9
$TDUSRTIMER
 40
0.0357200579
  9
$USRTIMER
 70
     1
  9
$ANGBASE
 50
0.0
  9
$ANGDIR
 70
     0
  9
$PDMODE
 70
     0
  9
$PDSIZE
 40
0.0
  9
$PLINEWID
 40
0.0
  9
$SPLFRAME
 70
     0
  9
$SPLINETYPE
 70
     6
  9
$SPLINESEGS
 70
     8
  9
$HANDSEED
  5
81F
  9
$SURFTAB1
 70
     6
  9
$SURFTAB2
 70
     6
  9
$SURFTYPE
 70
     6
  9
$SURFU
 70
     6
  9
$SURFV
 70
     6
  9
$UCSBASE
  2

  9
$UCSNAME
  2

  9
$UCSORG
 10
0.0
 20
0.0
 30
0.0
  9
$UCSXDIR
 10
1.0
 20
0.0
 30
0.0
  9
$UCSYDIR
 10
0.0
 20
1.0
 30
0.0
  9
$UCSORTHOREF
  2

  9
$UCSORTHOVIEW
 70
     0
  9
$UCSORGTOP
 10
0.0
 20
0.0
 30
0.0
  9
$UCSORGBOTTOM
 10
0.0
 20
0.0
 30
0.0
  9
$UCSORGLEFT
 10
0.0
 20
0.0
 30
0.0
  9
$UCSORGRIGHT
 10
0.0
 20
0.0
 30
0.0
  9
$UCSORGFRONT
 10
0.0
 20
0.0
 30
0.0
  9
$UCSORGBACK
 10
0.0
 20
0.0
 30
0.0
  9
$PUCSBASE
  2

  9
$PUCSNAME
  2

  9
$PUCSORG
 10
0.0
 20
0.0
 30
0.0
  9
$PUCSXDIR
 10
1.0
 20
0.0
 30
0.0
  9
$PUCSYDIR
 10
0.0
 20
1.0
 30
0.0
  9
$PUCSORTHOREF
  2

  9
$PUCSORTHOVIEW
 70
     0
  9
$PUCSORGTOP
 10
0.0
 20
0.0
 30
0.0
  9
$PUCSORGBOTTOM
 10
0.0
 20
0.0
 30
0.0
  9
$PUCSORGLEFT
 10
0.0
 20
0.0
 30
0.0
  9
$PUCSORGRIGHT
 10
0.0
 20
0.0
 30
0.0
  9
$PUCSORGFRONT
 10
0.0
 20
0.0
 30
0.0
  9
$PUCSORGBACK
 10
0.0
 20
0.0
 30
0.0
  9
$USERI1
 70
     0
  9
$USERI2
 70
     0
  9
$USERI3
 70
     0
  9
$USERI4
 70
     0
  9
$USERI5
 70
     0
  9
$USERR1
 40
0.0
  9
$USERR2
 40
0.0
  9
$USERR3
 40
0.0
  9
$USERR4
 40
0.0
  9
$USERR5
 40
0.0
  9
$WORLDVIEW
 70
     1
  9
$SHADEDGE
 70
     3
  9
$SHADEDIF
 70
    70
  9
$TILEMODE
 70
     1
  9
$MAXACTVP
 70
    64
  9
$PINSBASE
 10
0.0
 20
0.0
 30
0.0
  9
$PLIMCHECK
 70
     0
  9
$PEXTMIN
 10
0.0
 20
0.0
 30
0.0
  9
$PEXTMAX
 10
12.0
 20
9.0
 30
0.0
  9
$PLIMMIN
 10
0.0
 20
0.0
  9
$PLIMMAX
 10
12.0
 20
9.0
  9
$UNITMODE
 70
     0
  9
$VISRETAIN
 70
     1
  9
$PLINEGEN
 70
     0
  9
$PSLTSCALE
 70
     1
  9
$TREEDEPTH
 70
  3020
  9
$CMLSTYLE
  2
Standard
  9
$CMLJUST
 70
     0
  9
$CMLSCALE
 40
20.0
  9
$PROXYGRAPHICS
 70
     1
  9
$MEASUREMENT
 70
     1
  9
$CELWEIGHT
370
    -1
  9
$ENDCAPS
280
     0
  9
$JOINSTYLE
280
     0
  9
$LWDISPLAY
290
     0
  9
$INSUNITS
 70
     4
  9
$HYPERLINKBASE
  1

  9
$STYLESHEET
  1

  9
$XEDIT
290
     1
  9
$CEPSNTYPE
380
     0
  9
$PSTYLEMODE
290
     1
  9
$FINGERPRINTGUID
  2
{5559452E-1E62-4159-8551-BF76FFF3E7E8}
  9
$VERSIONGUID
  2
{3CEB9EF8-4431-4551-B596-6734A9F966A9}
  9
$EXTNAMES
290
     1
  9
$PSVPSCALE
 40
0.0
  9
$OLESTARTUP
290
     0
  0
ENDSEC
  0
SECTION
  2
CLASSES
  0
CLASS
  1
ACDBDICTIONARYWDFLT
  2
AcDbDictionaryWithDefault
  3
ObjectDBX Classes
 90
        0
280
     0
281
     0
  0
CLASS
  1
ACDBPLACEHOLDER
  2
AcDbPlaceHolder
  3
ObjectDBX Classes
 90
        0
280
     0
281
     0
  0
CLASS
  1
LAYOUT
  2
AcDbLayout
  3
ObjectDBX Classes
 90
        0
280
     0
281
     0
  0
CLASS
  1
DICTIONARYVAR
  2
AcDbDictionaryVar
  3
ObjectDBX Classes
 90
        0
280
     0
281
     0
  0
CLASS
  1
TABLESTYLE
  2
AcDbTableStyle
  3
ObjectDBX Classes
 90
     4095
280
     0
281
     0
  0
CLASS
  1
SCALE
  2
AcDbScale
  3
ObjectDBX Classes
 90
     1153
280
     0
281
     0
  0
ENDSEC
  0
SECTION
  2
TABLES
  0
TABLE
  2
VPORT
  5
8
330
0
100
AcDbSymbolTable
 70
     2
  0
VPORT
  5
97
330
8
100
AcDbSymbolTableRecord
100
AcDbViewportTableRecord
  2
*Active
 70
     0
 10
0.0
 20
0.0
 11
1.0
 21
1.0
 12
1009.368100323373
 22
822.9992610738692
 13
0.0
 23
0.0
 14
10.0
 24
10.0
 15
10.0
 25
10.0
 16
0.0
 26
0.0
 36
1.0
 17
0.0
 27
0.0
 37
0.0
 40
1079.449044173228
 41
1.664827586206897
 42
50.0
 43
0.0
 44
0.0
 50
0.0
 51
0.0
 71
     0
 72
  1000
 73
     1
 74
     3
 75
     0
 76
     0
 77
     0
 78
     0
281
     0
 65
     1
110
0.0
120
0.0
130
0.0
111
1.0
121
0.0
131
0.0
112
0.0
122
1.0
132
0.0
 79
     0
146
0.0
  0
ENDTAB
  0
TABLE
  2
LTYPE
  5
5
330
0
100
AcDbSymbolTable
 70
     4
  0
LTYPE
  5
14
330
5
100
AcDbSymbolTableRecord
100
AcDbLinetypeTableRecord
  2
ByBlock
 70
     0
  3

 72
    65
 73
     0
 40
0.0
  0
LTYPE
  5
15
330
5
100
AcDbSymbolTableRecord
100
AcDbLinetypeTableRecord
  2
ByLayer
 70
     0
  3

 72
    65
 73
     0
 40
0.0
  0
LTYPE
  5
16
330
5
100
AcDbSymbolTableRecord
100
AcDbLinetypeTableRecord
  2
Continuous
 70
     0
  3
Solid line
 72
    65
 73
     0
 40
0.0
  0
LTYPE
  5
760
330
5
100
AcDbSymbolTableRecord
100
AcDbLinetypeTableRecord
  2
DASHDOT
 70
     0
  3
 __ . __ . __ . __ . __ . __ . __ . 
 72
    65
 73
     4
 40
18.5
 49
12.0
 74
     0
 49
-3.0
 74
     0
 49
0.5
 74
     0
 49
-3.0
 74
     0
  0
LTYPE
  5
761
330
5
100
AcDbSymbolTableRecord
100
AcDbLinetypeTableRecord
  2
DASHED
 70
     0
  3
__ __ __ __ __ __ __ __ __ __ __ __ __ __ __ __
 72
    65
 73
     2
 40
15.0
 49
12.0
 74
     0
 49
-3.0
 74
     0
  0
LTYPE
  5
762
330
5
100
AcDbSymbolTableRecord
100
AcDbLinetypeTableRecord
  2
PHANTOM
 70
     0
  3
____________    ____    ____   _
 72
    65
 73
     6
 40
20.0
 49
10.0
 74
     0
 49
-2.0
 74
     0
 49
2.0
 74
     0
 49
-2.0
 74
     0
 49
2.0
 74
     0
 49
-2.0
 74
     0
  0
ENDTAB
  0
TABLE
  2
LAYER
  5
2
330
0
100
AcDbSymbolTable
 70
     2
  0
LAYER
  5
10
330
2
100
AcDbSymbolTableRecord
100
AcDbLayerTableRecord
  2
0
 70
     0
 62
     7
  6
Continuous
370
    -3
390
F
  0
LAYER
  5
718
330
2
100
AcDbSymbolTableRecord
100
AcDbLayerTableRecord
  2
DEFPOINTS
 70
     0
 62
     7
  6
Continuous
290
     0
370
    -3
390
F
  0
ENDTAB
  0
TABLE
  2
STYLE
  5
3
330
0
100
AcDbSymbolTable
 70
     2
  0
STYLE
  5
11
330
3
100
AcDbSymbolTableRecord
100
AcDbTextStyleTableRecord
  2
Standard
 70
     0
 40
0.0
 41
1.0
 50
0.0
 71
     0
 42
2.5
  3
txt
  4

  0
STYLE
  5
F9
330
3
100
AcDbSymbolTableRecord
100
AcDbTextStyleTableRecord
  2
GDT
 70
     0
 40
0.0
 41
1.0
 50
0.0
 71
     0
 42
0.2
  3
gdt.shx
  4

  0
ENDTAB
  0
TABLE
  2
VIEW
  5
6
330
0
100
AcDbSymbolTable
 70
     0
  0
ENDTAB
  0
TABLE
  2
UCS
  5
7
330
0
100
AcDbSymbolTable
 70
     0
  0
ENDTAB
  0
TABLE
  2
APPID
  5
9
330
0
100
AcDbSymbolTable
 70
     3
  0
APPID
  5
12
330
9
100
AcDbSymbolTableRecord
100
AcDbRegAppTableRecord
  2
ACAD
 70
     0
  0
APPID
  5
75E
330
9
100
AcDbSymbolTableRecord
100
AcDbRegAppTableRecord
  2
PROGE_PRINT_SETTINGS
 70
     0
  0
APPID
  5
75F
330
9
100
AcDbSymbolTableRecord
100
AcDbRegAppTableRecord
  2
Conv5506CA
 70
     0
  0
ENDTAB
  0
TABLE
  2
DIMSTYLE
  5
A
330
0
100
AcDbSymbolTable
 70
     2
100
AcDbDimStyleTable
  0
DIMSTYLE
105
27
330
A
100
AcDbSymbolTableRecord
100
AcDbDimStyleTableRecord
  2
Standard
 70
     0
278
     0
340
11
  0
DIMSTYLE
105
29
102
{ACAD_REACTORS
330
719
330
73B
102
}
330
A
100
AcDbSymbolTableRecord
100
AcDbDimStyleTableRecord
  2
ISO-25
 70
     0
 41
2.5
 42
0.625
 43
3.75
 44
1.25
 73
     0
 74
     0
 77
     1
 78
     8
140
2.5
141
2.5
143
0.03937007874016
147
0.625
171
     3
172
     1
271
     2
272
     2
274
     3
278
    44
283
     0
284
     8
340
11
  0
ENDTAB
  0
TABLE
  2
BLOCK_RECORD
  5
1
330
0
100
AcDbSymbolTable
 70
    92
  0
BLOCK_RECORD
  5
1F
330
1
100
AcDbSymbolTableRecord
100
AcDbBlockTableRecord
  2
*Model_Space
340
22
  0
BLOCK_RECORD
  5
73
330
1
100
AcDbSymbolTableRecord
100
AcDbBlockTableRecord
  2
*Paper_Space
340
624
  0
BLOCK_RECORD
  5
D1
330
1
100
AcDbSymbolTableRecord
100
AcDbBlockTableRecord
  2
*Paper_Space0
340
74
  0
BLOCK_RECORD
  5
1DD
330
1
100
AcDbSymbolTableRecord
100
AcDbBlockTableRecord
  2
BLOCK207
340
0
  0
BLOCK_RECORD
  5
1E1
330
1
100
AcDbSymbolTableRecord
100
AcDbBlockTableRecord
  2
BLOCK208
340
0
  0
BLOCK_RECORD
  5
1E5
330
1
100
AcDbSymbolTableRecord
100
AcDbBlockTableRecord
  2
BLOCK209
340
0
  0
BLOCK_RECORD
  5
1E9
330
1
100
AcDbSymbolTableRecord
100
AcDbBlockTableRecord
  2
BLOCK210
340
0
  0
BLOCK_RECORD
  5
1ED
330
1
100
AcDbSymbolTableRecord
100
AcDbBlockTableRecord
  2
BLOCK211
340
0
  0
BLOCK_RECORD
  5
1F1
330
1
100
AcDbSymbolTableRecord
100
AcDbBlockTableRecord
  2
BLOCK212
340
0
  0
BLOCK_RECORD
  5
1F5
330
1
100
AcDbSymbolTableRecord
100
AcDbBlockTableRecord
  2
BLOCK213
340
0
  0
BLOCK_RECORD
  5
1F9
330
1
100
AcDbSymbolTableRecord
100
AcDbBlockTableRecord
  2
BLOCK214
340
0
  0
BLOCK_RECORD
  5
1FD
330
1
100
AcDbSymbolTableRecord
100
AcDbBlockTableRecord
  2
BLOCK215
340
0
  0
BLOCK_RECORD
  5
201
330
1
100
AcDbSymbolTableRecord
100
AcDbBlockTableRecord
  2
BLOCK216
340
0
  0
BLOCK_RECORD
  5
205
330
1
100
AcDbSymbolTableRecord
100
AcDbBlockTableRecord
  2
BLOCK217
340
0
  0
BLOCK_RECORD
  5
209
330
1
100
AcDbSymbolTableRecord
100
AcDbBlockTableRecord
  2
BLOCK218
340
0
  0
BLOCK_RECORD
  5
20D
330
1
100
AcDbSymbolTableRecord
100
AcDbBlockTableRecord
  2
BLOCK219
340
0
  0
BLOCK_RECORD
  5
211
330
1
100
AcDbSymbolTableRecord
100
AcDbBlockTableRecord
  2
BLOCK220
340
0
  0
BLOCK_RECORD
  5
215
330
1
100
AcDbSymbolTableRecord
100
AcDbBlockTableRecord
  2
BLOCK221
340
0
  0
BLOCK_RECORD
  5
219
330
1
100
AcDbSymbolTableRecord
100
AcDbBlockTableRecord
  2
BLOCK222
340
0
  0
BLOCK_RECORD
  5
21D
330
1
100
AcDbSymbolTableRecord
100
AcDbBlockTableRecord
  2
BLOCK223
340
0
  0
BLOCK_RECORD
  5
221
330
1
100
AcDbSymbolTableRecord
100
AcDbBlockTableRecord
  2
BLOCK224
340
0
  0
BLOCK_RECORD
  5
225
330
1
100
AcDbSymbolTableRecord
100
AcDbBlockTableRecord
  2
BLOCK225
340
0
  0
BLOCK_RECORD
  5
229
330
1
100
AcDbSymbolTableRecord
100
AcDbBlockTableRecord
  2
BLOCK226
340
0
  0
BLOCK_RECORD
  5
22D
330
1
100
AcDbSymbolTableRecord
100
AcDbBlockTableRecord
  2
BLOCK227
340
0
  0
BLOCK_RECORD
  5
231
330
1
100
AcDbSymbolTableRecord
100
AcDbBlockTableRecord
  2
BLOCK228
340
0
  0
BLOCK_RECORD
  5
235
330
1
100
AcDbSymbolTableRecord
100
AcDbBlockTableRecord
  2
BLOCK229
340
0
  0
BLOCK_RECORD
  5
239
330
1
100
AcDbSymbolTableRecord
100
AcDbBlockTableRecord
  2
BLOCK230
340
0
  0
BLOCK_RECORD
  5
23D
330
1
100
AcDbSymbolTableRecord
100
AcDbBlockTableRecord
  2
BLOCK231
340
0
  0
BLOCK_RECORD
  5
241
330
1
100
AcDbSymbolTableRecord
100
AcDbBlockTableRecord
  2
BLOCK232
340
0
  0
BLOCK_RECORD
  5
245
330
1
100
AcDbSymbolTableRecord
100
AcDbBlockTableRecord
  2
BLOCK233
340
0
  0
BLOCK_RECORD
  5
249
330
1
100
AcDbSymbolTableRecord
100
AcDbBlockTableRecord
  2
BLOCK234
340
0
  0
BLOCK_RECORD
  5
24D
330
1
100
AcDbSymbolTableRecord
100
AcDbBlockTableRecord
  2
BLOCK235
340
0
  0
BLOCK_RECORD
  5
251
330
1
100
AcDbSymbolTableRecord
100
AcDbBlockTableRecord
  2
BLOCK236
340
0
  0
BLOCK_RECORD
  5
255
330
1
100
AcDbSymbolTableRecord
100
AcDbBlockTableRecord
  2
BLOCK237
340
0
  0
BLOCK_RECORD
  5
259
330
1
100
AcDbSymbolTableRecord
100
AcDbBlockTableRecord
  2
BLOCK238
340
0
  0
BLOCK_RECORD
  5
25D
330
1
100
AcDbSymbolTableRecord
100
AcDbBlockTableRecord
  2
BLOCK239
340
0
  0
BLOCK_RECORD
  5
261
330
1
100
AcDbSymbolTableRecord
100
AcDbBlockTableRecord
  2
BLOCK240
340
0
  0
BLOCK_RECORD
  5
265
330
1
100
AcDbSymbolTableRecord
100
AcDbBlockTableRecord
  2
BLOCK241
340
0
  0
BLOCK_RECORD
  5
269
330
1
100
AcDbSymbolTableRecord
100
AcDbBlockTableRecord
  2
BLOCK242
340
0
  0
BLOCK_RECORD
  5
26D
330
1
100
AcDbSymbolTableRecord
100
AcDbBlockTableRecord
  2
BLOCK243
340
0
  0
BLOCK_RECORD
  5
271
330
1
100
AcDbSymbolTableRecord
100
AcDbBlockTableRecord
  2
BLOCK244
340
0
  0
BLOCK_RECORD
  5
275
330
1
100
AcDbSymbolTableRecord
100
AcDbBlockTableRecord
  2
BLOCK245
340
0
  0
BLOCK_RECORD
  5
279
330
1
100
AcDbSymbolTableRecord
100
AcDbBlockTableRecord
  2
BLOCK246
340
0
  0
BLOCK_RECORD
  5
27D
330
1
100
AcDbSymbolTableRecord
100
AcDbBlockTableRecord
  2
BLOCK247
340
0
  0
BLOCK_RECORD
  5
283
330
1
100
AcDbSymbolTableRecord
100
AcDbBlockTableRecord
  2
BLOCK248
340
0
  0
BLOCK_RECORD
  5
289
330
1
100
AcDbSymbolTableRecord
100
AcDbBlockTableRecord
  2
BLOCK249
340
0
  0
BLOCK_RECORD
  5
28D
330
1
100
AcDbSymbolTableRecord
100
AcDbBlockTableRecord
  2
BLOCK250
340
0
  0
BLOCK_RECORD
  5
298
330
1
100
AcDbSymbolTableRecord
100
AcDbBlockTableRecord
  2
BLOCK251
340
0
  0
BLOCK_RECORD
  5
2A3
330
1
100
AcDbSymbolTableRecord
100
AcDbBlockTableRecord
  2
BLOCK252
340
0
  0
BLOCK_RECORD
  5
2AE
330
1
100
AcDbSymbolTableRecord
100
AcDbBlockTableRecord
  2
BLOCK253
340
0
  0
BLOCK_RECORD
  5
2B9
330
1
100
AcDbSymbolTableRecord
100
AcDbBlockTableRecord
  2
BLOCK254
340
0
  0
BLOCK_RECORD
  5
2C2
330
1
100
AcDbSymbolTableRecord
100
AcDbBlockTableRecord
  2
BLOCK255
340
0
  0
BLOCK_RECORD
  5
2CE
330
1
100
AcDbSymbolTableRecord
100
AcDbBlockTableRecord
  2
BLOCK256
340
0
  0
BLOCK_RECORD
  5
2DA
330
1
100
AcDbSymbolTableRecord
100
AcDbBlockTableRecord
  2
BLOCK257
340
0
  0
BLOCK_RECORD
  5
2E5
330
1
100
AcDbSymbolTableRecord
100
AcDbBlockTableRecord
  2
BLOCK258
340
0
  0
BLOCK_RECORD
  5
2F0
330
1
100
AcDbSymbolTableRecord
100
AcDbBlockTableRecord
  2
BLOCK259
340
0
  0
BLOCK_RECORD
  5
2FB
330
1
100
AcDbSymbolTableRecord
100
AcDbBlockTableRecord
  2
BLOCK260
340
0
  0
BLOCK_RECORD
  5
305
330
1
100
AcDbSymbolTableRecord
100
AcDbBlockTableRecord
  2
BLOCK261
340
0
  0
BLOCK_RECORD
  5
310
330
1
100
AcDbSymbolTableRecord
100
AcDbBlockTableRecord
  2
BLOCK262
340
0
  0
BLOCK_RECORD
  5
31B
330
1
100
AcDbSymbolTableRecord
100
AcDbBlockTableRecord
  2
BLOCK263
340
0
  0
BLOCK_RECORD
  5
327
330
1
100
AcDbSymbolTableRecord
100
AcDbBlockTableRecord
  2
BLOCK264
340
0
  0
BLOCK_RECORD
  5
334
330
1
100
AcDbSymbolTableRecord
100
AcDbBlockTableRecord
  2
BLOCK265
340
0
  0
BLOCK_RECORD
  5
341
330
1
100
AcDbSymbolTableRecord
100
AcDbBlockTableRecord
  2
BLOCK266
340
0
  0
BLOCK_RECORD
  5
34D
330
1
100
AcDbSymbolTableRecord
100
AcDbBlockTableRecord
  2
BLOCK267
340
0
  0
BLOCK_RECORD
  5
358
330
1
100
AcDbSymbolTableRecord
100
AcDbBlockTableRecord
  2
BLOCK268
340
0
  0
BLOCK_RECORD
  5
365
330
1
100
AcDbSymbolTableRecord
100
AcDbBlockTableRecord
  2
BLOCK269
340
0
  0
BLOCK_RECORD
  5
372
330
1
100
AcDbSymbolTableRecord
100
AcDbBlockTableRecord
  2
BLOCK270
340
0
  0
BLOCK_RECORD
  5
377
330
1
100
AcDbSymbolTableRecord
100
AcDbBlockTableRecord
  2
BLOCK271
340
0
  0
BLOCK_RECORD
  5
37C
330
1
100
AcDbSymbolTableRecord
100
AcDbBlockTableRecord
  2
BLOCK272
340
0
  0
BLOCK_RECORD
  5
381
330
1
100
AcDbSymbolTableRecord
100
AcDbBlockTableRecord
  2
BLOCK273
340
0
  0
BLOCK_RECORD
  5
386
330
1
100
AcDbSymbolTableRecord
100
AcDbBlockTableRecord
  2
BLOCK274
340
0
  0
BLOCK_RECORD
  5
3C8
330
1
100
AcDbSymbolTableRecord
100
AcDbBlockTableRecord
  2
BLOCK275
340
0
  0
BLOCK_RECORD
  5
3CE
330
1
100
AcDbSymbolTableRecord
100
AcDbBlockTableRecord
  2
BLOCK276
340
0
  0
BLOCK_RECORD
  5
3DB
330
1
100
AcDbSymbolTableRecord
100
AcDbBlockTableRecord
  2
BLOCK277
340
0
  0
BLOCK_RECORD
  5
3E4
330
1
100
AcDbSymbolTableRecord
100
AcDbBlockTableRecord
  2
BLOCK278
340
0
  0
BLOCK_RECORD
  5
3ED
330
1
100
AcDbSymbolTableRecord
100
AcDbBlockTableRecord
  2
BLOCK279
340
0
  0
BLOCK_RECORD
  5
3F9
330
1
100
AcDbSymbolTableRecord
100
AcDbBlockTableRecord
  2
BLOCK280
340
0
  0
BLOCK_RECORD
  5
404
330
1
100
AcDbSymbolTableRecord
100
AcDbBlockTableRecord
  2
BLOCK281
340
0
  0
BLOCK_RECORD
  5
40D
330
1
100
AcDbSymbolTableRecord
100
AcDbBlockTableRecord
  2
BLOCK282
340
0
  0
BLOCK_RECORD
  5
416
330
1
100
AcDbSymbolTableRecord
100
AcDbBlockTableRecord
  2
BLOCK283
340
0
  0
BLOCK_RECORD
  5
423
330
1
100
AcDbSymbolTableRecord
100
AcDbBlockTableRecord
  2
BLOCK284
340
0
  0
BLOCK_RECORD
  5
431
330
1
100
AcDbSymbolTableRecord
100
AcDbBlockTableRecord
  2
BLOCK285
340
0
  0
BLOCK_RECORD
  5
43C
330
1
100
AcDbSymbolTableRecord
100
AcDbBlockTableRecord
  2
BLOCK286
340
0
  0
BLOCK_RECORD
  5
449
330
1
100
AcDbSymbolTableRecord
100
AcDbBlockTableRecord
  2
BLOCK287
340
0
  0
BLOCK_RECORD
  5
44E
330
1
100
AcDbSymbolTableRecord
100
AcDbBlockTableRecord
  2
BLOCK288
340
0
  0
BLOCK_RECORD
  5
469
330
1
100
AcDbSymbolTableRecord
100
AcDbBlockTableRecord
  2
BLOCK289
340
0
  0
BLOCK_RECORD
  5
46F
330
1
100
AcDbSymbolTableRecord
100
AcDbBlockTableRecord
  2
BLOCK290
340
0
  0
BLOCK_RECORD
  5
4DD
330
1
100
AcDbSymbolTableRecord
100
AcDbBlockTableRecord
  2
BLOCK291
340
0
  0
BLOCK_RECORD
  5
724
330
1
100
AcDbSymbolTableRecord
100
AcDbBlockTableRecord
  2
*D86
340
0
  0
BLOCK_RECORD
  5
72F
330
1
100
AcDbSymbolTableRecord
100
AcDbBlockTableRecord
  2
*D87
340
0
  0
BLOCK_RECORD
  5
73A
330
1
100
AcDbSymbolTableRecord
100
AcDbBlockTableRecord
  2
*D88
340
0
  0
BLOCK_RECORD
  5
746
330
1
100
AcDbSymbolTableRecord
100
AcDbBlockTableRecord
  2
*D89
340
0
  0
BLOCK_RECORD
  5
751
330
1
100
AcDbSymbolTableRecord
100
AcDbBlockTableRecord
  2
*D90
340
0
  0
BLOCK_RECORD
  5
75C
330
1
100
AcDbSymbolTableRecord
100
AcDbBlockTableRecord
  2
*D91
340
0
  0
ENDTAB
  0
ENDSEC
  0
SECTION
  2
BLOCKS
  0
BLOCK
  5
20
330
1F
100
AcDbEntity
  8
0
100
AcDbBlockBegin
  2
*Model_Space
 70
     0
 10
0.0
 20
0.0
 30
0.0
  3
*Model_Space
  1

  0
ENDBLK
  5
21
330
1F
100
AcDbEntity
  8
0
100
AcDbBlockEnd
  0
BLOCK
  5
75
330
73
100
AcDbEntity
 67
     1
  8
0
100
AcDbBlockBegin
  2
*Paper_Space
 70
     0
 10
0.0
 20
0.0
 30
0.0
  3
*Paper_Space
  1

  0
ENDBLK
  5
76
330
73
100
AcDbEntity
 67
     1
  8
0
100
AcDbBlockEnd
  0
BLOCK
  5
763
330
D1
100
AcDbEntity
  8
0
100
AcDbBlockBegin
  2
*Paper_Space0
 70
     0
 10
0.0
 20
0.0
 30
0.0
  3
*Paper_Space0
  1

  0
VIEWPORT
  5
6D1
330
D1
100
AcDbEntity
  8
0
100
AcDbViewport
 10
7.8
 20
4.5
 30
0.0
 40
15.64
 41
9.0
 68
     1
 69
     1
 12
6.0
 22
4.5
 13
0.0
 23
0.0
 14
0.5
 24
0.5
 15
0.5
 25
0.5
 16
0.0
 26
0.0
 36
1.0
 17
0.0
 27
0.0
 37
0.0
 42
50.0
 43
0.0
 44
0.0
 45
12.0
 50
0.0
 51
0.0
 72
   100
 90
   557152
  1

281
     0
 71
     1
 74
     0
110
0.0
120
0.0
130
0.0
111
1.0
121
0.0
131
0.0
112
0.0
122
1.0
132
0.0
 79
     0
146
0.0
  0
ENDBLK
  5
764
330
D1
100
AcDbEntity
  8
0
100
AcDbBlockEnd
  0
BLOCK
  5
765
330
1DD
100
AcDbEntity
  8
0
100
AcDbBlockBegin
  2
BLOCK207
 70
     0
 10
0.0
 20
0.0
 30
0.0
  3
BLOCK207
  1

  0
LINE
  5
FE
330
1DD
100
AcDbEntity
  8
0
 62
     7
370
   100
390
F
100
AcDbLine
 10
651.450562
 20
10.262883
 30
0.0
 11
651.450562
 21
103.762886
 31
0.0
  0
LINE
  5
FF
330
1DD
100
AcDbEntity
  8
0
 62
     7
370
   100
390
F
100
AcDbLine
 10
651.450562
 20
10.262883
 30
0.0
 11
651.450562
 21
115.062889
 31
0.0
  0
LINE
  5
100
330
1DD
100
AcDbEntity
  8
0
 62
     7
370
   100
390
F
100
AcDbLine
 10
651.450562
 20
10.262883
 30
0.0
 11
831.450562
 21
10.262883
 31
0.0
  0
LINE
  5
101
330
1DD
100
AcDbEntity
  8
0
 62
     7
 48
0.031752
370
    40
390
F
100
AcDbLine
 10
675.139832
 20
19.351791
 30
0.0
 11
676.409912
 21
19.351791
 31
0.0
  0
LINE
  5
102
330
1DD
100
AcDbEntity
  8
0
 62
     7
 48
0.0325
370
    40
390
F
100
AcDbLine
 10
675.139832
 20
20.651791
 30
0.0
 11
675.139832
 21
19.351791
 31
0.0
  0
LINE
  5
103
330
1DD
100
AcDbEntity
  8
0
 62
     7
 48
0.05
370
    40
390
F
100
AcDbLine
 10
677.139832
 20
20.651791
 30
0.0
 11
675.139832
 21
20.651791
 31
0.0
  0
LINE
  5
104
330
1DD
100
AcDbEntity
  8
0
 62
     7
 48
0.014375
370
    40
390
F
100
AcDbLine
 10
677.139832
 20
21.226791
 30
0.0
 11
677.139832
 21
20.651791
 31
0.0
  0
LINE
  5
105
330
1DD
100
AcDbEntity
  8
0
 62
     7
 48
0.05
370
    40
390
F
100
AcDbLine
 10
675.139832
 20
21.226791
 30
0.0
 11
677.139832
 21
21.226791
 31
0.0
  0
LINE
  5
106
330
1DD
100
AcDbEntity
  8
0
 62
     7
 48
0.079375
370
    40
390
F
100
AcDbLine
 10
675.139832
 20
24.401791
 30
0.0
 11
675.139832
 21
21.226791
 31
0.0
  0
LINE
  5
107
330
1DD
100
AcDbEntity
  8
0
 62
     7
 48
0.031734
370
    40
390
F
100
AcDbLine
 10
676.40918
 20
24.401791
 30
0.0
 11
675.139832
 21
24.401791
 31
0.0
  0
LINE
  5
108
330
1DD
100
AcDbEntity
  8
0
 62
     7
 48
0.014347
370
    40
390
F
100
AcDbLine
 10
676.979431
 20
24.337198
 30
0.0
 11
676.40918
 21
24.401791
 31
0.0
  0
LINE
  5
109
330
1DD
100
AcDbEntity
  8
0
 62
     7
 48
0.014206
370
    40
390
F
100
AcDbLine
 10
677.515442
 20
24.148575
 30
0.0
 11
676.979431
 21
24.337198
 31
0.0
  0
LINE
  5
10A
330
1DD
100
AcDbEntity
  8
0
 62
     7
 48
0.014205
370
    40
390
F
100
AcDbLine
 10
677.995667
 20
23.844845
 30
0.0
 11
677.515442
 21
24.148575
 31
0.0
  0
LINE
  5
10B
330
1DD
100
AcDbEntity
  8
0
 62
     7
 48
0.014206
370
    40
390
F
100
AcDbLine
 10
678.395813
 20
23.441391
 30
0.0
 11
677.995667
 21
23.844845
 31
0.0
  0
LINE
  5
10C
330
1DD
100
AcDbEntity
  8
0
 62
     7
 48
0.009994
370
    40
390
F
100
AcDbLine
 10
678.606689
 20
23.101791
 30
0.0
 11
678.395813
 21
23.441391
 31
0.0
  0
LINE
  5
10D
330
1DD
100
AcDbEntity
  8
0
 62
     7
 48
0.051047
370
    40
390
F
100
AcDbLine
 10
676.564819
 20
23.101791
 30
0.0
 11
678.606689
 21
23.101791
 31
0.0
  0
LINE
  5
10E
330
1DD
100
AcDbEntity
  8
0
 62
     7
 48
0.014375
370
    40
390
F
100
AcDbLine
 10
676.564819
 20
22.526791
 30
0.0
 11
676.564819
 21
23.101791
 31
0.0
  0
LINE
  5
10F
330
1DD
100
AcDbEntity
  8
0
 62
     7
 48
0.057181
370
    40
390
F
100
AcDbLine
 10
678.852051
 20
22.526791
 30
0.0
 11
676.564819
 21
22.526791
 31
0.0
  0
LINE
  5
110
330
1DD
100
AcDbEntity
  8
0
 62
     7
 48
0.004256
370
    40
390
F
100
AcDbLine
 10
678.8927
 20
22.36149
 30
0.0
 11
678.852051
 21
22.526791
 31
0.0
  0
LINE
  5
111
330
1DD
100
AcDbEntity
  8
0
 62
     7
 48
0.006094
370
    40
390
F
100
AcDbLine
 10
678.927917
 20
22.120275
 30
0.0
 11
678.8927
 21
22.36149
 31
0.0
  0
LINE
  5
112
330
1DD
100
AcDbEntity
  8
0
 62
     7
 48
0.006032
370
    40
390
F
100
AcDbLine
 10
678.939575
 20
21.879292
 30
0.0
 11
678.927917
 21
22.120275
 31
0.0
  0
LINE
  5
113
330
1DD
100
AcDbEntity
  8
0
 62
     7
 48
0.012435
370
    40
390
F
100
AcDbLine
 10
678.890808
 20
21.384283
 30
0.0
 11
678.939575
 21
21.879292
 31
0.0
  0
LINE
  5
114
330
1DD
100
AcDbEntity
  8
0
 62
     7
 48
0.012372
370
    40
390
F
100
AcDbLine
 10
678.747192
 20
20.910702
 30
0.0
 11
678.890808
 21
21.384283
 31
0.0
  0
LINE
  5
115
330
1DD
100
AcDbEntity
  8
0
 62
     7
 48
0.012373
370
    40
390
F
100
AcDbLine
 10
678.513855
 20
20.474247
 30
0.0
 11
678.747192
 21
20.910702
 31
0.0
  0
LINE
  5
116
330
1DD
100
AcDbEntity
  8
0
 62
     7
 48
0.012371
370
    40
390
F
100
AcDbLine
 10
678.199951
 20
20.09169
 30
0.0
 11
678.513855
 21
20.474247
 31
0.0
  0
LINE
  5
117
330
1DD
100
AcDbEntity
  8
0
 62
     7
 48
0.012373
370
    40
390
F
100
AcDbLine
 10
677.817383
 20
19.777733
 30
0.0
 11
678.199951
 21
20.09169
 31
0.0
  0
LINE
  5
118
330
1DD
100
AcDbEntity
  8
0
 62
     7
 48
0.012372
370
    40
390
F
100
AcDbLine
 10
677.38092
 20
19.544443
 30
0.0
 11
677.817383
 21
19.777733
 31
0.0
  0
LINE
  5
119
330
1DD
100
AcDbEntity
  8
0
 62
     7
 48
0.012372
370
    40
390
F
100
AcDbLine
 10
676.907349
 20
19.400784
 30
0.0
 11
677.38092
 21
19.544443
 31
0.0
  0
LINE
  5
11A
330
1DD
100
AcDbEntity
  8
0
 62
     7
 48
0.012496
370
    40
390
F
100
AcDbLine
 10
676.409912
 20
19.351791
 30
0.0
 11
676.907349
 21
19.400784
 31
0.0
  0
LINE
  5
11B
330
1DD
100
AcDbEntity
  8
0
 62
     7
 48
0.0325
370
    40
390
F
100
AcDbLine
 10
670.764832
 20
20.651791
 30
0.0
 11
670.764832
 21
19.351791
 31
0.0
  0
LINE
  5
11C
330
1DD
100
AcDbEntity
  8
0
 62
     7
 48
0.059375
370
    40
390
F
100
AcDbLine
 10
673.139832
 20
20.651791
 30
0.0
 11
670.764832
 21
20.651791
 31
0.0
  0
LINE
  5
11D
330
1DD
100
AcDbEntity
  8
0
 62
     7
 48
0.014375
370
    40
390
F
100
AcDbLine
 10
673.139832
 20
21.226791
 30
0.0
 11
673.139832
 21
20.651791
 31
0.0
  0
LINE
  5
11E
330
1DD
100
AcDbEntity
  8
0
 62
     7
 48
0.059375
370
    40
390
F
100
AcDbLine
 10
670.764832
 20
21.226791
 30
0.0
 11
673.139832
 21
21.226791
 31
0.0
  0
LINE
  5
11F
330
1DD
100
AcDbEntity
  8
0
 62
     7
 48
0.079375
370
    40
390
F
100
AcDbLine
 10
670.764832
 20
24.401791
 30
0.0
 11
670.764832
 21
21.226791
 31
0.0
  0
LINE
  5
120
330
1DD
100
AcDbEntity
  8
0
 62
     7
 48
0.095
370
    40
390
F
100
AcDbLine
 10
674.564819
 20
24.401791
 30
0.0
 11
670.764832
 21
24.401791
 31
0.0
  0
LINE
  5
121
330
1DD
100
AcDbEntity
  8
0
 62
     7
 48
0.0325
370
    40
390
F
100
AcDbLine
 10
674.564819
 20
23.101791
 30
0.0
 11
674.564819
 21
24.401791
 31
0.0
  0
LINE
  5
122
330
1DD
100
AcDbEntity
  8
0
 62
     7
 48
0.059375
370
    40
390
F
100
AcDbLine
 10
672.189819
 20
23.101791
 30
0.0
 11
674.564819
 21
23.101791
 31
0.0
  0
LINE
  5
123
330
1DD
100
AcDbEntity
  8
0
 62
     7
 48
0.014375
370
    40
390
F
100
AcDbLine
 10
672.189819
 20
22.526791
 30
0.0
 11
672.189819
 21
23.101791
 31
0.0
  0
LINE
  5
124
330
1DD
100
AcDbEntity
  8
0
 62
     7
 48
0.059375
370
    40
390
F
100
AcDbLine
 10
674.564819
 20
22.526791
 30
0.0
 11
672.189819
 21
22.526791
 31
0.0
  0
LINE
  5
125
330
1DD
100
AcDbEntity
  8
0
 62
     7
 48
0.079375
370
    40
390
F
100
AcDbLine
 10
674.564819
 20
19.351791
 30
0.0
 11
674.564819
 21
22.526791
 31
0.0
  0
LINE
  5
126
330
1DD
100
AcDbEntity
  8
0
 62
     7
 48
0.095
370
    40
390
F
100
AcDbLine
 10
670.764832
 20
19.351791
 30
0.0
 11
674.564819
 21
19.351791
 31
0.0
  0
LINE
  5
127
330
1DD
100
AcDbEntity
  8
0
 62
     7
 48
0.079375
370
    40
390
F
100
AcDbLine
 10
668.889832
 20
22.526791
 30
0.0
 11
668.889832
 21
19.351791
 31
0.0
  0
LINE
  5
128
330
1DD
100
AcDbEntity
  8
0
 62
     7
 48
0.0325
370
    40
390
F
100
AcDbLine
 10
670.189819
 20
22.526791
 30
0.0
 11
668.889832
 21
22.526791
 31
0.0
  0
LINE
  5
129
330
1DD
100
AcDbEntity
  8
0
 62
     7
 48
0.079375
370
    40
390
F
100
AcDbLine
 10
670.189819
 20
19.351791
 30
0.0
 11
670.189819
 21
22.526791
 31
0.0
  0
LINE
  5
12A
330
1DD
100
AcDbEntity
  8
0
 62
     7
 48
0.0325
370
    40
390
F
100
AcDbLine
 10
668.889832
 20
19.351791
 30
0.0
 11
670.189819
 21
19.351791
 31
0.0
  0
LINE
  5
12B
330
1DD
100
AcDbEntity
  8
0
 62
     7
 48
0.086272
370
    40
390
F
100
AcDbLine
 10
665.549927
 20
22.735641
 30
0.0
 11
664.873108
 21
19.351791
 31
0.0
  0
LINE
  5
12C
330
1DD
100
AcDbEntity
  8
0
 62
     7
 48
0.086869
370
    40
390
F
100
AcDbLine
 10
666.339478
 20
19.351791
 30
0.0
 11
665.549927
 21
22.735641
 31
0.0
  0
LINE
  5
12D
330
1DD
100
AcDbEntity
  8
0
 62
     7
 48
0.034209
370
    40
390
F
100
AcDbLine
 10
667.707825
 20
19.351791
 30
0.0
 11
666.339478
 21
19.351791
 31
0.0
  0
LINE
  5
12E
330
1DD
100
AcDbEntity
  8
0
 62
     7
 48
0.095607
370
    40
390
F
100
AcDbLine
 10
668.457825
 20
23.101791
 30
0.0
 11
667.707825
 21
19.351791
 31
0.0
  0
LINE
  5
12F
330
1DD
100
AcDbEntity
  8
0
 62
     7
 48
0.0433
370
    40
390
F
100
AcDbLine
 10
670.189819
 20
23.101791
 30
0.0
 11
668.457825
 21
23.101791
 31
0.0
  0
LINE
  5
130
330
1DD
100
AcDbEntity
  8
0
 62
     7
 48
0.0325
370
    40
390
F
100
AcDbLine
 10
670.189819
 20
24.401791
 30
0.0
 11
670.189819
 21
23.101791
 31
0.0
  0
LINE
  5
131
330
1DD
100
AcDbEntity
  8
0
 62
     7
 48
0.069943
370
    40
390
F
100
AcDbLine
 10
667.39209
 20
24.401791
 30
0.0
 11
670.189819
 21
24.401791
 31
0.0
  0
LINE
  5
132
330
1DD
100
AcDbEntity
  8
0
 62
     7
 48
0.068485
370
    40
390
F
100
AcDbLine
 10
666.854858
 20
21.715576
 30
0.0
 11
667.39209
 21
24.401791
 31
0.0
  0
LINE
  5
133
330
1DD
100
AcDbEntity
  8
0
 62
     7
 48
0.06896
370
    40
390
F
100
AcDbLine
 10
666.228027
 20
24.401791
 30
0.0
 11
666.854858
 21
21.715576
 31
0.0
  0
LINE
  5
134
330
1DD
100
AcDbEntity
  8
0
 62
     7
 48
0.033466
370
    40
390
F
100
AcDbLine
 10
664.889404
 20
24.401791
 30
0.0
 11
666.228027
 21
24.401791
 31
0.0
  0
LINE
  5
135
330
1DD
100
AcDbEntity
  8
0
 62
     7
 48
0.072875
370
    40
390
F
100
AcDbLine
 10
664.317749
 20
21.543388
 30
0.0
 11
664.889404
 21
24.401791
 31
0.0
  0
LINE
  5
136
330
1DD
100
AcDbEntity
  8
0
 62
     7
 48
0.07338
370
    40
390
F
100
AcDbLine
 10
663.650757
 20
24.401791
 30
0.0
 11
664.317749
 21
21.543388
 31
0.0
  0
LINE
  5
137
330
1DD
100
AcDbEntity
  8
0
 62
     7
 48
0.062773
370
    40
390
F
100
AcDbLine
 10
661.139832
 20
24.401791
 30
0.0
 11
663.650757
 21
24.401791
 31
0.0
  0
LINE
  5
138
330
1DD
100
AcDbEntity
  8
0
 62
     7
 48
0.0325
370
    40
390
F
100
AcDbLine
 10
661.139832
 20
23.101791
 30
0.0
 11
661.139832
 21
24.401791
 31
0.0
  0
LINE
  5
139
330
1DD
100
AcDbEntity
  8
0
 62
     7
 48
0.036983
370
    40
390
F
100
AcDbLine
 10
662.619141
 20
23.101791
 30
0.0
 11
661.139832
 21
23.101791
 31
0.0
  0
LINE
  5
13A
330
1DD
100
AcDbEntity
  8
0
 62
     7
 48
0.096268
370
    40
390
F
100
AcDbLine
 10
663.494141
 20
19.351791
 30
0.0
 11
662.619141
 21
23.101791
 31
0.0
  0
LINE
  5
13B
330
1DD
100
AcDbEntity
  8
0
 62
     7
 48
0.034474
370
    40
390
F
100
AcDbLine
 10
664.873108
 20
19.351791
 30
0.0
 11
663.494141
 21
19.351791
 31
0.0
  0
LINE
  5
13C
330
1DD
100
AcDbEntity
  8
0
 62
     7
 48
0.12625
370
    40
390
F
100
AcDbLine
 10
658.514832
 20
24.401791
 30
0.0
 11
658.514832
 21
19.351791
 31
0.0
  0
LINE
  5
13D
330
1DD
100
AcDbEntity
  8
0
 62
     7
 48
0.05125
370
    40
390
F
100
AcDbLine
 10
660.564819
 20
24.401791
 30
0.0
 11
658.514832
 21
24.401791
 31
0.0
  0
LINE
  5
13E
330
1DD
100
AcDbEntity
  8
0
 62
     7
 48
0.0325
370
    40
390
F
100
AcDbLine
 10
660.564819
 20
23.101791
 30
0.0
 11
660.564819
 21
24.401791
 31
0.0
  0
LINE
  5
13F
330
1DD
100
AcDbEntity
  8
0
 62
     7
 48
0.015625
370
    40
390
F
100
AcDbLine
 10
659.939819
 20
23.101791
 30
0.0
 11
660.564819
 21
23.101791
 31
0.0
  0
LINE
  5
140
330
1DD
100
AcDbEntity
  8
0
 62
     7
 48
0.014375
370
    40
390
F
100
AcDbLine
 10
659.939819
 20
22.526791
 30
0.0
 11
659.939819
 21
23.101791
 31
0.0
  0
LINE
  5
141
330
1DD
100
AcDbEntity
  8
0
 62
     7
 48
0.059375
370
    40
390
F
100
AcDbLine
 10
662.314819
 20
22.526791
 30
0.0
 11
659.939819
 21
22.526791
 31
0.0
  0
LINE
  5
142
330
1DD
100
AcDbEntity
  8
0
 62
     7
 48
0.0325
370
    40
390
F
100
AcDbLine
 10
662.314819
 20
21.226791
 30
0.0
 11
662.314819
 21
22.526791
 31
0.0
  0
LINE
  5
143
330
1DD
100
AcDbEntity
  8
0
 62
     7
 48
0.059375
370
    40
390
F
100
AcDbLine
 10
659.939819
 20
21.226791
 30
0.0
 11
662.314819
 21
21.226791
 31
0.0
  0
LINE
  5
144
330
1DD
100
AcDbEntity
  8
0
 62
     7
 48
0.014375
370
    40
390
F
100
AcDbLine
 10
659.939819
 20
20.651791
 30
0.0
 11
659.939819
 21
21.226791
 31
0.0
  0
LINE
  5
145
330
1DD
100
AcDbEntity
  8
0
 62
     7
 48
0.059375
370
    40
390
F
100
AcDbLine
 10
662.314819
 20
20.651791
 30
0.0
 11
659.939819
 21
20.651791
 31
0.0
  0
LINE
  5
146
330
1DD
100
AcDbEntity
  8
0
 62
     7
 48
0.0325
370
    40
390
F
100
AcDbLine
 10
662.314819
 20
19.351791
 30
0.0
 11
662.314819
 21
20.651791
 31
0.0
  0
LINE
  5
147
330
1DD
100
AcDbEntity
  8
0
 62
     7
 48
0.095
370
    40
390
F
100
AcDbLine
 10
658.514832
 20
19.351791
 30
0.0
 11
662.314819
 21
19.351791
 31
0.0
  0
LINE
  5
148
330
1DD
100
AcDbEntity
  8
0
 62
     7
 48
0.031752
370
    40
390
F
100
AcDbLine
 10
657.939819
 20
19.351791
 30
0.0
 11
656.669739
 21
19.351791
 31
0.0
  0
LINE
  5
149
330
1DD
100
AcDbEntity
  8
0
 62
     7
 48
0.079375
370
    40
390
F
100
AcDbLine
 10
657.939819
 20
22.526791
 30
0.0
 11
657.939819
 21
19.351791
 31
0.0
  0
LINE
  5
14A
330
1DD
100
AcDbEntity
  8
0
 62
     7
 48
0.035625
370
    40
390
F
100
AcDbLine
 10
656.514832
 20
22.526791
 30
0.0
 11
657.939819
 21
22.526791
 31
0.0
  0
LINE
  5
14B
330
1DD
100
AcDbEntity
  8
0
 62
     7
 48
0.046875
370
    40
390
F
100
AcDbLine
 10
656.514832
 20
20.651791
 30
0.0
 11
656.514832
 21
22.526791
 31
0.0
  0
LINE
  5
14C
330
1DD
100
AcDbEntity
  8
0
 62
     7
 48
0.014375
370
    40
390
F
100
AcDbLine
 10
655.939819
 20
20.651791
 30
0.0
 11
656.514832
 21
20.651791
 31
0.0
  0
LINE
  5
14D
330
1DD
100
AcDbEntity
  8
0
 62
     7
 48
0.06125
370
    40
390
F
100
AcDbLine
 10
655.939819
 20
23.101791
 30
0.0
 11
655.939819
 21
20.651791
 31
0.0
  0
LINE
  5
14E
330
1DD
100
AcDbEntity
  8
0
 62
     7
 48
0.05
370
    40
390
F
100
AcDbLine
 10
657.939819
 20
23.101791
 30
0.0
 11
655.939819
 21
23.101791
 31
0.0
  0
LINE
  5
14F
330
1DD
100
AcDbEntity
  8
0
 62
     7
 48
0.0325
370
    40
390
F
100
AcDbLine
 10
657.939819
 20
24.401791
 30
0.0
 11
657.939819
 21
23.101791
 31
0.0
  0
LINE
  5
150
330
1DD
100
AcDbEntity
  8
0
 62
     7
 48
0.031752
370
    40
390
F
100
AcDbLine
 10
656.669739
 20
24.401791
 30
0.0
 11
657.939819
 21
24.401791
 31
0.0
  0
LINE
  5
151
330
1DD
100
AcDbEntity
  8
0
 62
     7
 48
0.012496
370
    40
390
F
100
AcDbLine
 10
656.172302
 20
24.3528
 30
0.0
 11
656.669739
 21
24.401791
 31
0.0
  0
LINE
  5
152
330
1DD
100
AcDbEntity
  8
0
 62
     7
 48
0.012372
370
    40
390
F
100
AcDbLine
 10
655.69873
 20
24.209141
 30
0.0
 11
656.172302
 21
24.3528
 31
0.0
  0
LINE
  5
153
330
1DD
100
AcDbEntity
  8
0
 62
     7
 48
0.012372
370
    40
390
F
100
AcDbLine
 10
655.262268
 20
23.975849
 30
0.0
 11
655.69873
 21
24.209141
 31
0.0
  0
LINE
  5
154
330
1DD
100
AcDbEntity
  8
0
 62
     7
 48
0.012373
370
    40
390
F
100
AcDbLine
 10
654.8797
 20
23.661894
 30
0.0
 11
655.262268
 21
23.975849
 31
0.0
  0
LINE
  5
155
330
1DD
100
AcDbEntity
  8
0
 62
     7
 48
0.012372
370
    40
390
F
100
AcDbLine
 10
654.565735
 20
23.279339
 30
0.0
 11
654.8797
 21
23.661894
 31
0.0
  0
LINE
  5
156
330
1DD
100
AcDbEntity
  8
0
 62
     7
 48
0.012372
370
    40
390
F
100
AcDbLine
 10
654.332458
 20
22.842882
 30
0.0
 11
654.565735
 21
23.279339
 31
0.0
  0
LINE
  5
157
330
1DD
100
AcDbEntity
  8
0
 62
     7
 48
0.012372
370
    40
390
F
100
AcDbLine
 10
654.188782
 20
22.369301
 30
0.0
 11
654.332458
 21
22.842882
 31
0.0
  0
LINE
  5
158
330
1DD
100
AcDbEntity
  8
0
 62
     7
 48
0.012372
370
    40
390
F
100
AcDbLine
 10
654.140259
 20
21.876793
 30
0.0
 11
654.188782
 21
22.369301
 31
0.0
  0
LINE
  5
159
330
1DD
100
AcDbEntity
  8
0
 62
     7
 48
0.012372
370
    40
390
F
100
AcDbLine
 10
654.188782
 20
21.384283
 30
0.0
 11
654.140259
 21
21.876793
 31
0.0
  0
LINE
  5
15A
330
1DD
100
AcDbEntity
  8
0
 62
     7
 48
0.012372
370
    40
390
F
100
AcDbLine
 10
654.332458
 20
20.910702
 30
0.0
 11
654.188782
 21
21.384283
 31
0.0
  0
LINE
  5
15B
330
1DD
100
AcDbEntity
  8
0
 62
     7
 48
0.012372
370
    40
390
F
100
AcDbLine
 10
654.565735
 20
20.474247
 30
0.0
 11
654.332458
 21
20.910702
 31
0.0
  0
LINE
  5
15C
330
1DD
100
AcDbEntity
  8
0
 62
     7
 48
0.012372
370
    40
390
F
100
AcDbLine
 10
654.8797
 20
20.09169
 30
0.0
 11
654.565735
 21
20.474247
 31
0.0
  0
LINE
  5
15D
330
1DD
100
AcDbEntity
  8
0
 62
     7
 48
0.012373
370
    40
390
F
100
AcDbLine
 10
655.262268
 20
19.777733
 30
0.0
 11
654.8797
 21
20.09169
 31
0.0
  0
LINE
  5
15E
330
1DD
100
AcDbEntity
  8
0
 62
     7
 48
0.012372
370
    40
390
F
100
AcDbLine
 10
655.69873
 20
19.544443
 30
0.0
 11
655.262268
 21
19.777733
 31
0.0
  0
LINE
  5
15F
330
1DD
100
AcDbEntity
  8
0
 62
     7
 48
0.012372
370
    40
390
F
100
AcDbLine
 10
656.172302
 20
19.400784
 30
0.0
 11
655.69873
 21
19.544443
 31
0.0
  0
LINE
  5
160
330
1DD
100
AcDbEntity
  8
0
 62
     7
 48
0.012496
370
    40
390
F
100
AcDbLine
 10
656.669739
 20
19.351791
 30
0.0
 11
656.172302
 21
19.400784
 31
0.0
  0
LINE
  5
161
330
1DD
100
AcDbEntity
  8
0
 62
     7
370
    60
390
F
100
AcDbLine
 10
791.450562
 20
10.262883
 30
0.0
 11
791.450562
 21
33.262882
 31
0.0
  0
LINE
  5
162
330
1DD
100
AcDbEntity
  8
0
 62
     7
370
    60
390
F
100
AcDbLine
 10
651.450562
 20
33.262882
 30
0.0
 11
831.450562
 21
33.262882
 31
0.0
  0
LINE
  5
163
330
1DD
100
AcDbEntity
  8
0
 62
     7
370
    60
390
F
100
AcDbLine
 10
791.450562
 20
58.262882
 30
0.0
 11
831.450562
 21
58.262882
 31
0.0
  0
LINE
  5
164
330
1DD
100
AcDbEntity
  8
0
 62
     7
370
    40
390
F
100
AcDbLine
 10
688.450562
 20
58.262882
 30
0.0
 11
688.450562
 21
115.062889
 31
0.0
  0
LINE
  5
165
330
1DD
100
AcDbEntity
  8
0
 62
     7
370
    60
390
F
100
AcDbLine
 10
681.450562
 20
33.262882
 30
0.0
 11
681.450562
 21
115.062889
 31
0.0
  0
LINE
  5
166
330
1DD
100
AcDbEntity
  8
0
 62
     7
370
    40
390
F
100
AcDbLine
 10
791.450562
 20
58.262882
 30
0.0
 11
791.450562
 21
115.062889
 31
0.0
  0
LINE
  5
167
330
1DD
100
AcDbEntity
  8
0
 62
     7
 48
0.1
370
    40
390
F
100
AcDbLine
 10
811.450562
 20
41.596218
 30
0.0
 11
811.450562
 21
45.596214
 31
0.0
  0
LINE
  5
168
330
1DD
100
AcDbEntity
  8
0
 62
     7
 48
0.1
370
    40
390
F
100
AcDbLine
 10
811.450562
 20
49.92955
 30
0.0
 11
811.450562
 21
53.92955
 31
0.0
  0
LINE
  5
169
330
1DD
100
AcDbEntity
  8
0
 62
     7
370
    40
390
F
100
AcDbLine
 10
811.450562
 20
58.262882
 30
0.0
 11
811.450562
 21
115.062889
 31
0.0
  0
LINE
  5
16A
330
1DD
100
AcDbEntity
  8
0
 62
     7
370
    40
390
F
100
AcDbLine
 10
791.450562
 20
41.596218
 30
0.0
 11
831.450562
 21
41.596218
 31
0.0
  0
LINE
  5
16B
330
1DD
100
AcDbEntity
  8
0
 62
     7
370
    40
390
F
100
AcDbLine
 10
791.450562
 20
49.92955
 30
0.0
 11
831.450562
 21
49.92955
 31
0.0
  0
LINE
  5
16C
330
1DD
100
AcDbEntity
  8
0
 62
     7
370
    40
390
F
100
AcDbLine
 10
688.450562
 20
103.262886
 30
0.0
 11
831.450562
 21
103.262886
 31
0.0
  0
LINE
  5
16D
330
1DD
100
AcDbEntity
  8
0
 62
     7
 48
0.1
370
    40
390
F
100
AcDbLine
 10
811.450562
 20
33.262882
 30
0.0
 11
811.450562
 21
37.262882
 31
0.0
  0
LINE
  5
16E
330
1DD
100
AcDbEntity
  8
0
 62
     7
370
    60
390
F
100
AcDbLine
 10
791.450562
 20
33.262882
 30
0.0
 11
791.450562
 21
58.262882
 31
0.0
  0
LINE
  5
16F
330
1DD
100
AcDbEntity
  8
0
 62
     7
370
    40
390
F
100
AcDbLine
 10
699.117249
 20
58.262882
 30
0.0
 11
699.117249
 21
115.062889
 31
0.0
  0
LINE
  5
170
330
1DD
100
AcDbEntity
  8
0
 62
     7
370
    40
390
F
100
AcDbLine
 10
714.450562
 20
58.262882
 30
0.0
 11
714.450562
 21
115.062889
 31
0.0
  0
LINE
  5
171
330
1DD
100
AcDbEntity
  8
0
 62
     7
370
    60
390
F
100
AcDbLine
 10
651.450562
 20
115.062889
 30
0.0
 11
681.450562
 21
115.062889
 31
0.0
  0
LINE
  5
172
330
1DD
100
AcDbEntity
  8
0
 62
     7
370
    60
390
F
100
AcDbLine
 10
681.450562
 20
115.062889
 30
0.0
 11
831.450562
 21
115.062889
 31
0.0
  0
LINE
  5
173
330
1DD
100
AcDbEntity
  8
0
 62
     7
370
    40
390
F
100
AcDbLine
 10
651.450562
 20
102.262886
 30
0.0
 11
681.450562
 21
102.262886
 31
0.0
  0
LINE
  5
174
330
1DD
100
AcDbEntity
  8
0
 62
     7
370
    40
390
F
100
AcDbLine
 10
651.450562
 20
98.262886
 30
0.0
 11
681.450562
 21
98.262886
 31
0.0
  0
LINE
  5
175
330
1DD
100
AcDbEntity
  8
0
 62
     7
370
    40
390
F
100
AcDbLine
 10
651.450562
 20
94.262886
 30
0.0
 11
681.450562
 21
94.262886
 31
0.0
  0
LINE
  5
176
330
1DD
100
AcDbEntity
  8
0
 62
     7
370
    40
390
F
100
AcDbLine
 10
651.450562
 20
86.262886
 30
0.0
 11
681.450562
 21
86.262886
 31
0.0
  0
LINE
  5
177
330
1DD
100
AcDbEntity
  8
0
 62
     7
370
    40
390
F
100
AcDbLine
 10
651.450562
 20
82.262886
 30
0.0
 11
681.450562
 21
82.262886
 31
0.0
  0
LINE
  5
178
330
1DD
100
AcDbEntity
  8
0
 62
     7
370
    40
390
F
100
AcDbLine
 10
651.450562
 20
78.262886
 30
0.0
 11
681.450562
 21
78.262886
 31
0.0
  0
LINE
  5
179
330
1DD
100
AcDbEntity
  8
0
 62
     7
370
    40
390
F
100
AcDbLine
 10
651.450562
 20
74.262886
 30
0.0
 11
681.450562
 21
74.262886
 31
0.0
  0
LINE
  5
17A
330
1DD
100
AcDbEntity
  8
0
 62
     7
370
    40
390
F
100
AcDbLine
 10
651.450562
 20
70.262886
 30
0.0
 11
681.450562
 21
70.262886
 31
0.0
  0
LINE
  5
17B
330
1DD
100
AcDbEntity
  8
0
 62
     7
370
    40
390
F
100
AcDbLine
 10
651.450562
 20
66.262886
 30
0.0
 11
681.450562
 21
66.262886
 31
0.0
  0
LINE
  5
17C
330
1DD
100
AcDbEntity
  8
0
 62
     7
370
    40
390
F
100
AcDbLine
 10
651.450562
 20
62.262882
 30
0.0
 11
681.450562
 21
62.262882
 31
0.0
  0
LINE
  5
17D
330
1DD
100
AcDbEntity
  8
0
 62
     7
370
    60
390
F
100
AcDbLine
 10
681.450562
 20
10.262883
 30
0.0
 11
681.450562
 21
33.262882
 31
0.0
  0
LINE
  5
17E
330
1DD
100
AcDbEntity
  8
0
 62
     7
 48
0.193066
370
    40
390
F
100
AcDbLine
 10
658.068359
 20
37.345383
 30
0.0
 11
665.654602
 21
35.900383
 31
0.0
  0
LINE
  5
17F
330
1DD
100
AcDbEntity
  8
0
 62
     7
 48
0.193066
370
    40
390
F
100
AcDbLine
 10
658.068359
 20
41.680382
 30
0.0
 11
665.654602
 21
43.125381
 31
0.0
  0
LINE
  5
180
330
1DD
100
AcDbEntity
  8
0
 62
     7
 48
0.108375
370
    40
390
F
100
AcDbLine
 10
658.068359
 20
37.345383
 30
0.0
 11
658.068359
 21
41.680382
 31
0.0
  0
CIRCLE
  5
181
330
1DD
100
AcDbEntity
  8
0
 62
     7
370
    40
390
F
100
AcDbCircle
 10
671.073364
 20
39.512882
 30
0.0
 40
2.1675
  0
CIRCLE
  5
182
330
1DD
100
AcDbEntity
  8
0
 62
     7
370
    40
390
F
100
AcDbCircle
 10
671.073364
 20
39.512882
 30
0.0
 40
3.6125
  0
LINE
  5
183
330
1DD
100
AcDbEntity
  8
0
  6
DASHDOT
 62
     7
 48
0.213802
370
    40
390
F
100
AcDbLine
 10
671.073364
 20
35.306038
 30
0.0
 11
671.073364
 21
43.858109
 31
0.0
  0
LINE
  5
184
330
1DD
100
AcDbEntity
  8
0
 62
     7
 48
0.180625
370
    40
390
F
100
AcDbLine
 10
665.654602
 20
35.900383
 30
0.0
 11
665.654602
 21
43.125381
 31
0.0
  0
LINE
  5
185
330
1DD
100
AcDbEntity
  8
0
  6
DASHDOT
 62
     7
370
    40
390
F
100
AcDbLine
 10
655.336853
 20
39.512882
 30
0.0
 11
676.809448
 21
39.512882
 31
0.0
  0
LINE
  5
186
330
1DD
100
AcDbEntity
  8
0
 62
     7
370
    60
390
F
100
AcDbLine
 10
651.450562
 20
58.262882
 30
0.0
 11
791.450562
 21
58.262882
 31
0.0
  0
LINE
  5
187
330
1DD
100
AcDbEntity
  8
0
 62
     7
370
    60
390
F
100
AcDbLine
 10
651.450562
 20
45.762882
 30
0.0
 11
791.450562
 21
45.762882
 31
0.0
  0
LINE
  5
188
330
1DD
100
AcDbEntity
  8
0
 62
     7
370
    40
390
F
100
AcDbLine
 10
666.450562
 20
58.262882
 30
0.0
 11
666.450562
 21
108.262886
 31
0.0
  0
LINE
  5
189
330
1DD
100
AcDbEntity
  8
0
 62
     7
370
    40
390
F
100
AcDbLine
 10
651.450562
 20
90.262886
 30
0.0
 11
681.450562
 21
90.262886
 31
0.0
  0
LINE
  5
18A
330
1DD
100
AcDbEntity
  8
0
 62
     7
370
    40
390
F
100
AcDbLine
 10
688.450562
 20
63.262882
 30
0.0
 11
831.450562
 21
63.262882
 31
0.0
  0
LINE
  5
18B
330
1DD
100
AcDbEntity
  8
0
 62
     7
370
    40
390
F
100
AcDbLine
 10
688.450562
 20
68.262886
 30
0.0
 11
831.450562
 21
68.262886
 31
0.0
  0
LINE
  5
18C
330
1DD
100
AcDbEntity
  8
0
 62
     7
370
    40
390
F
100
AcDbLine
 10
688.450562
 20
73.262886
 30
0.0
 11
831.450562
 21
73.262886
 31
0.0
  0
LINE
  5
18D
330
1DD
100
AcDbEntity
  8
0
 62
     7
370
    40
390
F
100
AcDbLine
 10
688.450562
 20
78.262886
 30
0.0
 11
831.450562
 21
78.262886
 31
0.0
  0
LINE
  5
18E
330
1DD
100
AcDbEntity
  8
0
 62
     7
370
    40
390
F
100
AcDbLine
 10
688.450562
 20
83.262886
 30
0.0
 11
831.450562
 21
83.262886
 31
0.0
  0
LINE
  5
18F
330
1DD
100
AcDbEntity
  8
0
 62
     7
370
    40
390
F
100
AcDbLine
 10
688.450562
 20
88.262886
 30
0.0
 11
831.450562
 21
88.262886
 31
0.0
  0
LINE
  5
190
330
1DD
100
AcDbEntity
  8
0
 62
     7
370
    40
390
F
100
AcDbLine
 10
688.450562
 20
93.262886
 30
0.0
 11
831.450562
 21
93.262886
 31
0.0
  0
LINE
  5
191
330
1DD
100
AcDbEntity
  8
0
 62
     7
370
    40
390
F
100
AcDbLine
 10
688.450562
 20
98.262886
 30
0.0
 11
831.450562
 21
98.262886
 31
0.0
  0
LINE
  5
192
330
1DD
100
AcDbEntity
  8
0
 62
     7
370
    40
390
F
100
AcDbLine
 10
688.450562
 20
108.262886
 30
0.0
 11
831.450562
 21
108.262886
 31
0.0
  0
LINE
  5
193
330
1DD
100
AcDbEntity
  8
0
 62
     7
370
    40
390
F
100
AcDbLine
 10
651.450562
 20
108.262886
 30
0.0
 11
681.450562
 21
108.262886
 31
0.0
  0
TEXT
  5
194
330
1DD
100
AcDbEntity
  8
0
 62
     7
370
    13
390
F
100
AcDbText
 10
716.761902
 20
51.248283
 30
0.0
 40
2.5
  1
FINITURA LUCIDA
 41
1.147421034146343
 72
     5
 11
755.965454
 21
51.248283
 31
0.0
100
AcDbText
  0
TEXT
  5
195
330
1DD
100
AcDbEntity
  8
0
 62
     7
370
    13
390
F
100
AcDbText
 10
793.976135
 20
51.503994
 30
0.0
 40
2.0
  1
06.06.2005
 41
1.062855586956519
 72
     5
 11
810.273254
 21
51.503994
 31
0.0
100
AcDbText
  0
TEXT
  5
196
330
1DD
100
AcDbEntity
  8
0
 62
     7
370
    13
390
F
100
AcDbText
 10
793.976135
 20
43.170662
 30
0.0
 40
2.0
  1
06.06.2005
 41
1.062855586956519
 72
     5
 11
810.273254
 21
43.170662
 31
0.0
100
AcDbText
  0
TEXT
  5
197
330
1DD
100
AcDbEntity
  8
0
 62
     7
370
    13
390
F
100
AcDbText
 10
806.99585
 20
56.122307
 30
0.0
 40
1.5
  1
/Drawn
 41
0.8451429411764714
 72
     5
 11
814.179565
 21
56.122307
 31
0.0
100
AcDbText
  0
TEXT
  5
198
330
1DD
100
AcDbEntity
  8
0
 62
     7
370
    13
390
F
100
AcDbText
 10
792.450562
 20
56.012882
 30
0.0
 40
1.5
  1
DISEGNATO
 41
1.128828080000003
 72
     5
 11
806.560913
 21
56.012882
 31
0.0
100
AcDbText
  0
TEXT
  5
199
330
1DD
100
AcDbEntity
  8
0
 62
     7
370
    13
390
F
100
AcDbText
 10
686.134766
 20
85.147423
 30
0.0
 40
2.0
  1
/Modifications
 50
90.0
 41
0.9863986285714286
 72
     5
 11
686.134766
 21
108.163391
 31
0.0
100
AcDbText
  0
TEXT
  5
19A
330
1DD
100
AcDbEntity
  8
0
 62
     7
370
    13
390
F
100
AcDbText
 10
686.134766
 20
66.879646
 30
0.0
 40
2.0
  1
MODIFICHE
 50
90.0
 41
1.175864687500001
 72
     5
 11
686.134766
 21
85.693481
 31
0.0
100
AcDbText
  0
TEXT
  5
19B
330
1DD
100
AcDbEntity
  8
0
 62
     7
370
    13
390
F
100
AcDbText
 10
716.967957
 20
47.227962
 30
0.0
 40
2.5
  1
RAL 7043 COLOR
 41
0.851562488888892
 72
     5
 11
745.708191
 21
47.227962
 31
0.0
100
AcDbText
  0
TEXT
  5
19C
330
1DD
100
AcDbEntity
  8
0
 62
     7
370
    13
390
F
100
AcDbText
 10
653.336548
 20
109.426971
 30
0.0
 40
1.5
  1
General Toll.
 41
1.016012507936509
 72
     5
 11
669.338745
 21
109.426971
 31
0.0
100
AcDbText
  0
TEXT
  5
19D
330
1DD
100
AcDbEntity
  8
0
 62
     7
370
    13
390
F
100
AcDbText
 10
653.185486
 20
112.405525
 30
0.0
 40
1.5
  1
TOLL. GENERALI
 41
1.164007894736845
 72
     5
 11
675.301636
 21
112.405525
 31
0.0
100
AcDbText
  0
TEXT
  5
19E
330
1DD
100
AcDbEntity
  8
0
 62
     7
370
    13
390
F
100
AcDbText
 10
690.101563
 20
109.834335
 30
0.0
 40
1.5
  1
Ind.
 41
1.166030749999976
 72
     5
 11
694.765686
 21
109.834335
 31
0.0
100
AcDbText
  0
TEXT
  5
19F
330
1DD
100
AcDbEntity
  8
0
 62
     7
370
    13
390
F
100
AcDbText
 10
689.550537
 20
112.812889
 30
0.0
 40
1.5
  1
IND.
 41
1.526153500000021
 72
     5
 11
695.655151
 21
112.812889
 31
0.0
100
AcDbText
  0
TEXT
  5
1A0
330
1DD
100
AcDbEntity
  8
0
 62
     7
370
    13
390
F
100
AcDbText
 10
700.601563
 20
109.834335
 30
0.0
 40
1.5
  1
Ref.ce
 41
0.9578286666666523
 72
     5
 11
707.785278
 21
109.834335
 31
0.0
100
AcDbText
  0
TEXT
  5
1A1
330
1DD
100
AcDbEntity
  8
0
 62
     7
370
    13
390
F
100
AcDbText
 10
700.450562
 20
112.812889
 30
0.0
 40
1.5
  1
RIF.TO
 41
1.329563571428577
 72
     5
 11
709.757507
 21
112.812889
 31
0.0
100
AcDbText
  0
TEXT
  5
1A2
330
1DD
100
AcDbEntity
  8
0
 62
     7
370
    13
390
F
100
AcDbText
 10
715.401611
 20
109.834335
 30
0.0
 40
1.5
  1
Description
 41
0.9630432142857168
 72
     5
 11
728.884216
 21
109.834335
 31
0.0
100
AcDbText
  0
TEXT
  5
1A3
330
1DD
100
AcDbEntity
  8
0
 62
     7
370
    13
390
F
100
AcDbText
 10
715.450562
 20
112.812889
 30
0.0
 40
1.5
  1
DESCRIZIONE
 41
1.154178866666666
 72
     5
 11
732.763245
 21
112.812889
 31
0.0
100
AcDbText
  0
TEXT
  5
1A4
330
1DD
100
AcDbEntity
  8
0
 62
     7
370
    13
390
F
100
AcDbText
 10
812.594849
 20
109.834335
 30
0.0
 40
1.5
  1
Drawn
 41
0.8462785714285701
 72
     5
 11
818.518799
 21
109.834335
 31
0.0
100
AcDbText
  0
TEXT
  5
1A5
330
1DD
100
AcDbEntity
  8
0
 62
     7
370
    13
390
F
100
AcDbText
 10
812.450562
 20
112.812889
 30
0.0
 40
1.5
  1
DISEGNATO
 41
1.128828080000003
 72
     5
 11
826.560913
 21
112.812889
 31
0.0
100
AcDbText
  0
TEXT
  5
1A6
330
1DD
100
AcDbEntity
  8
0
 62
     7
370
    13
390
F
100
AcDbText
 10
792.594849
 20
109.834335
 30
0.0
 40
1.5
  1
Date
 41
0.8480223636363668
 72
     5
 11
797.258972
 21
109.834335
 31
0.0
100
AcDbText
  0
TEXT
  5
1A7
330
1DD
100
AcDbEntity
  8
0
 62
     7
370
    13
390
F
100
AcDbText
 10
792.450562
 20
112.812889
 30
0.0
 40
1.5
  1
DATA
 41
1.109929818181813
 72
     5
 11
798.555176
 21
112.812889
 31
0.0
100
AcDbText
  0
TEXT
  5
1A8
330
1DD
100
AcDbEntity
  8
0
 62
     7
370
    13
390
F
100
AcDbText
 10
800.251526
 20
39.67955
 30
0.0
 40
1.5
  1
/Checked
 41
0.8437606086956551
 72
     5
 11
809.954773
 21
39.67955
 31
0.0
100
AcDbText
  0
TEXT
  5
1A9
330
1DD
100
AcDbEntity
  8
0
 62
     7
370
    13
390
F
100
AcDbText
 10
792.450562
 20
39.67955
 30
0.0
 40
1.5
  1
VISTO
 41
1.100821285714281
 72
     5
 11
800.156311
 21
39.67955
 31
0.0
100
AcDbText
  0
TEXT
  5
1AA
330
1DD
100
AcDbEntity
  8
0
 62
     7
370
    13
390
F
100
AcDbText
 10
792.450562
 20
31.012882
 30
0.0
 40
1.5
  1
CODICE
 41
1.163368125000005
 72
     5
 11
801.757507
 21
31.012882
 31
0.0
100
AcDbText
  0
TEXT
  5
1AB
330
1DD
100
AcDbEntity
  8
0
 62
     7
370
    13
390
F
100
AcDbText
 10
797.736389
 20
18.577112
 30
0.0
 40
5.0
  1
56330681
 41
0.9691031441860454
 72
     5
 11
832.462585
 21
18.577112
 31
0.0
100
AcDbText
  0
TEXT
  5
1AC
330
1DD
100
AcDbEntity
  8
0
 62
     7
370
    13
390
F
100
AcDbText
 10
714.237976
 20
15.698286
 30
0.0
 40
2.8
  1
REFLECTOR ZNT 4X55W
 41
0.8258492669172922
 72
     5
 11
758.173157
 21
15.698286
 31
0.0
100
AcDbText
  0
TEXT
  5
1AD
330
1DD
100
AcDbEntity
  8
0
 62
     7
370
    13
390
F
100
AcDbText
 10
695.383179
 20
55.955448
 30
0.0
 40
1.5
  1
/Finishing
 41
1.062855565217383
 72
     5
 11
707.606018
 21
55.955448
 31
0.0
100
AcDbText
  0
TEXT
  5
1AE
330
1DD
100
AcDbEntity
  8
0
 62
     7
370
    13
390
F
100
AcDbText
 10
682.450562
 20
56.012882
 30
0.0
 40
1.5
  1
FINITURA
 41
1.191353904761908
 72
     5
 11
694.959778
 21
56.012882
 31
0.0
100
AcDbText
  0
TEXT
  5
1AF
330
1DD
100
AcDbEntity
  8
0
 62
     7
370
    13
390
F
100
AcDbText
 10
715.595642
 20
34.727962
 30
0.0
 40
2.5
  1
ALLUMINIUM 99.85
 41
0.9191247348837203
 72
     5
 11
748.530945
 21
34.727962
 31
0.0
100
AcDbText
  0
TEXT
  5
1B0
330
1DD
100
AcDbEntity
  8
0
 62
     7
370
    13
390
F
100
AcDbText
 10
703.527405
 20
38.748287
 30
0.0
 40
2.5
  1
ALLUMINIO SPECULARE 99.85
 41
1.125815074285714
 72
     5
 11
769.199951
 21
38.748287
 31
0.0
100
AcDbText
  0
TEXT
  5
1B1
330
1DD
100
AcDbEntity
  8
0
 62
     7
370
    13
390
F
100
AcDbText
 10
696.806641
 20
43.451328
 30
0.0
 40
1.5
  1
/Material
 41
0.9744953777777785
 72
     5
 11
707.769714
 21
43.451328
 31
0.0
100
AcDbText
  0
TEXT
  5
1B2
330
1DD
100
AcDbEntity
  8
0
 62
     7
370
    13
390
F
100
AcDbText
 10
682.450562
 20
43.512882
 30
0.0
 40
1.5
  1
MATERIALE
 41
1.128828080000003
 72
     5
 11
696.560913
 21
43.512882
 31
0.0
100
AcDbText
  0
TEXT
  5
1B3
330
1DD
100
AcDbEntity
  8
0
 62
     7
370
    13
390
F
100
AcDbText
 10
667.135376
 20
48.587181
 30
0.0
 40
2.2
  1
(2:1)
 41
1.476662424242432
 72
     5
 11
676.881348
 21
48.587181
 31
0.0
100
AcDbText
  0
TEXT
  5
1B4
330
1DD
100
AcDbEntity
  8
0
 62
     7
370
    13
390
F
100
AcDbText
 10
667.135376
 20
52.587181
 30
0.0
 40
2.2
  1
(2:1)
 41
1.476662424242432
 72
     5
 11
676.881348
 21
52.587181
 31
0.0
100
AcDbText
  0
TEXT
  5
1B5
330
1DD
100
AcDbEntity
  8
0
 62
     7
370
    13
390
F
100
AcDbText
 10
652.759888
 20
49.553268
 30
0.0
 40
4.0
  1
1:2
 41
1.78577264999999
 72
     5
 11
664.665039
 21
49.553268
 31
0.0
100
AcDbText
  0
TEXT
  5
1B6
330
1DD
100
AcDbEntity
  8
0
 62
     7
370
    13
390
F
100
AcDbText
 10
659.851379
 20
56.012882
 30
0.0
 40
1.5
  1
/Scale
 41
0.926931096774194
 72
     5
 11
667.035095
 21
56.012882
 31
0.0
100
AcDbText
  0
TEXT
  5
1B7
330
1DD
100
AcDbEntity
  8
0
 62
     7
370
    13
390
F
100
AcDbText
 10
652.450562
 20
56.012882
 30
0.0
 40
1.5
  1
SCALA
 41
1.100821285714281
 72
     5
 11
660.156311
 21
56.012882
 31
0.0
100
AcDbText
  0
TEXT
  5
1B8
330
1DD
100
AcDbEntity
  8
0
 62
     7
370
    13
390
F
100
AcDbText
 10
699.922119
 20
30.951328
 30
0.0
 40
1.5
  1
/Description
 41
0.9511246451612908
 72
     5
 11
714.664551
 21
30.951328
 31
0.0
100
AcDbText
  0
TEXT
  5
1B9
330
1DD
100
AcDbEntity
  8
0
 62
     7
370
    13
390
F
100
AcDbText
 10
682.450562
 20
31.012882
 30
0.0
 40
1.5
  1
DESCRIZIONE
 41
1.154178866666666
 72
     5
 11
699.763245
 21
31.012882
 31
0.0
100
AcDbText
  0
TEXT
  5
1BA
330
1DD
100
AcDbEntity
  8
0
 62
     7
370
    13
390
F
100
AcDbText
 10
801.651367
 20
31.012882
 30
0.0
 40
1.5
  1
/Code
 41
0.8462785714285701
 72
     5
 11
807.575317
 21
31.012882
 31
0.0
100
AcDbText
  0
TEXT
  5
1BB
330
1DD
100
AcDbEntity
  8
0
 62
     7
370
    13
390
F
100
AcDbText
 10
652.563477
 20
59.162849
 30
0.0
 40
2.0
  1
400÷500
 41
1.069727583333332
 72
     5
 11
665.400208
 21
59.162849
 31
0.0
100
AcDbText
  0
TEXT
  5
1BC
330
1DD
100
AcDbEntity
  8
0
 62
     7
370
    13
390
F
100
AcDbText
 10
652.536133
 20
63.133732
 30
0.0
 40
2.0
  1
320÷400
 41
1.040816027027035
 72
     5
 11
665.372864
 21
63.133732
 31
0.0
100
AcDbText
  0
TEXT
  5
1BD
330
1DD
100
AcDbEntity
  8
0
 62
     7
370
    13
390
F
100
AcDbText
 10
652.536133
 20
67.133736
 30
0.0
 40
2.0
  1
250÷320
 41
1.013426131578955
 72
     5
 11
665.372864
 21
67.133736
 31
0.0
100
AcDbText
  0
TEXT
  5
1BE
330
1DD
100
AcDbEntity
  8
0
 62
     7
370
    13
390
F
100
AcDbText
 10
652.536133
 20
71.133736
 30
0.0
 40
2.0
  1
180÷250
 41
1.069727583333342
 72
     5
 11
665.372864
 21
71.133736
 31
0.0
100
AcDbText
  0
TEXT
  5
1BF
330
1DD
100
AcDbEntity
  8
0
 62
     7
370
    13
390
F
100
AcDbText
 10
652.536133
 20
75.133736
 30
0.0
 40
2.0
  1
120÷180
 41
1.132652735294126
 72
     5
 11
665.372864
 21
75.133736
 31
0.0
100
AcDbText
  0
TEXT
  5
1C0
330
1DD
100
AcDbEntity
  8
0
 62
     7
370
    13
390
F
100
AcDbText
 10
654.188782
 20
79.133766
 30
0.0
 40
2.0
  1
80÷120
 41
1.093145700000002
 72
     5
 11
665.120239
 21
79.133766
 31
0.0
100
AcDbText
  0
TEXT
  5
1C1
330
1DD
100
AcDbEntity
  8
0
 62
     7
370
    13
390
F
100
AcDbText
 10
654.441406
 20
83.133766
 30
0.0
 40
2.0
  1
50÷80
 41
1.04148980769231
 72
     5
 11
663.467651
 21
83.133766
 31
0.0
100
AcDbText
  0
TEXT
  5
1C2
330
1DD
100
AcDbEntity
  8
0
 62
     7
370
    13
390
F
100
AcDbText
 10
654.441406
 20
87.133766
 30
0.0
 40
2.0
  1
30÷50
 41
1.04148980769231
 72
     5
 11
663.467651
 21
87.133766
 31
0.0
100
AcDbText
  0
TEXT
  5
1C3
330
1DD
100
AcDbEntity
  8
0
 62
     7
370
    13
390
F
100
AcDbText
 10
654.441406
 20
91.133766
 30
0.0
 40
2.0
  1
18÷30
 41
1.083149400000002
 72
     5
 11
663.467651
 21
91.133766
 31
0.0
100
AcDbText
  0
TEXT
  5
1C4
330
1DD
100
AcDbEntity
  8
0
 62
     7
370
    13
390
F
100
AcDbText
 10
656.094055
 20
99.133766
 30
0.0
 40
2.0
  1
0÷10
 41
1.186828666666656
 72
     5
 11
663.215027
 21
99.133766
 31
0.0
100
AcDbText
  0
TEXT
  5
1C5
330
1DD
100
AcDbEntity
  8
0
 62
     7
370
    13
390
F
100
AcDbText
 10
654.441406
 20
95.133766
 30
0.0
 40
2.0
  1
10÷18
 41
1.177336304347828
 72
     5
 11
663.467651
 21
95.133766
 31
0.0
100
AcDbText
  0
TEXT
  5
1C6
330
1DD
100
AcDbEntity
  8
0
 62
     7
370
    13
390
F
100
AcDbText
 10
652.880127
 20
104.40715
 30
0.0
 40
2.0
  1
DIM.
 41
1.166038500000006
 72
     5
 11
659.098999
 21
104.40715
 31
0.0
100
AcDbText
  0
TEXT
  5
1C7
330
1DD
100
AcDbEntity
  8
0
 62
     7
370
    13
390
F
100
AcDbText
 10
659.065735
 20
104.453972
 30
0.0
 40
2.0
  1
/Dim.
 41
1.184783849999997
 72
     5
 11
666.964294
 21
104.453972
 31
0.0
100
AcDbText
  0
TEXT
  5
1C8
330
1DD
100
AcDbEntity
  8
0
 62
     7
370
    13
390
F
100
AcDbText
 10
667.880127
 20
104.40715
 30
0.0
 40
2.0
  1
TOL.
 41
1.036478666666672
 72
     5
 11
674.098999
 21
104.40715
 31
0.0
100
AcDbText
  0
TEXT
  5
1C9
330
1DD
100
AcDbEntity
  8
0
 62
     7
370
    13
390
F
100
AcDbText
 10
674.065735
 20
104.453972
 30
0.0
 40
2.0
  1
/Tol.
 41
1.128365571428568
 72
     5
 11
681.964294
 21
104.453972
 31
0.0
100
AcDbText
  0
TEXT
  5
1CA
330
1DD
100
AcDbEntity
  8
0
 62
     7
370
    13
390
F
100
AcDbText
 10
684.368591
 20
20.738024
 30
0.0
 40
3.0
  1
RIFLETTORE CONCENTRANTE ZNT 4X55W
 41
1.063442316326531
 72
     5
 11
788.585938
 21
20.738024
 31
0.0
100
AcDbText
  0
TEXT
  5
1CB
330
1DD
100
AcDbEntity
  8
0
 62
     7
370
    13
390
F
100
AcDbText
 10
792.450562
 20
47.67955
 30
0.0
 40
1.5
  1
APPROVATO
 41
1.045211185185188
 72
     5
 11
806.560913
 21
47.67955
 31
0.0
100
AcDbText
  0
TEXT
  5
1CC
330
1DD
100
AcDbEntity
  8
0
 62
     7
370
    13
390
F
100
AcDbText
 10
806.901001
 20
47.652687
 30
0.0
 40
1.5
  1
/Approved
 41
0.8433133846153851
 72
     5
 11
817.864075
 21
47.652687
 31
0.0
100
AcDbText
  0
TEXT
  5
1CD
330
1DD
100
AcDbEntity
  8
0
 62
     7
370
    40
390
F
100
AcDbText
 10
812.501465
 20
42.668987
 30
0.0
 40
2.5
  1
LEGRENZI
 41
1.013888290909089
 72
     5
 11
831.089417
 21
42.668987
 31
0.0
100
AcDbText
  0
TEXT
  5
1CE
330
1DD
100
AcDbEntity
  8
0
 62
     7
370
    40
390
F
100
AcDbText
 10
812.780579
 20
50.937698
 30
0.0
 40
2.5
  1
LEGRENZI
 41
1.013888236363635
 72
     5
 11
831.36853
 21
50.937698
 31
0.0
100
AcDbText
  0
TEXT
  5
1CF
330
1DD
100
AcDbEntity
  8
0
 62
     7
370
    13
390
F
100
AcDbText
 10
668.529724
 20
99.133766
 30
0.0
 40
2.0
  1
%%p 0.05
 41
1.171227642857145
 72
     5
 11
679.461182
 21
99.133766
 31
0.0
100
AcDbText
  0
TEXT
  5
1D0
330
1DD
100
AcDbEntity
  8
0
 62
     7
370
    13
390
F
100
AcDbText
 10
668.782349
 20
95.133766
 30
0.0
 40
2.0
  1
%%p 0.1
 41
1.289463571428574
 72
     5
 11
677.808594
 21
95.133766
 31
0.0
100
AcDbText
  0
TEXT
  5
1D1
330
1DD
100
AcDbEntity
  8
0
 62
     7
370
    13
390
F
100
AcDbText
 10
668.782349
 20
91.133766
 30
0.0
 40
2.0
  1
%%p 0.1
 41
1.289463571428574
 72
     5
 11
677.808594
 21
91.133766
 31
0.0
100
AcDbText
  0
TEXT
  5
1D2
330
1DD
100
AcDbEntity
  8
0
 62
     7
370
    13
390
F
100
AcDbText
 10
667.829712
 20
87.133766
 30
0.0
 40
2.0
  1
%%p 0.25
 41
1.130840379310347
 72
     5
 11
678.761169
 21
87.133766
 31
0.0
100
AcDbText
  0
TEXT
  5
1D3
330
1DD
100
AcDbEntity
  8
0
 62
     7
370
    13
390
F
100
AcDbText
 10
667.829712
 20
83.133766
 30
0.0
 40
2.0
  1
%%p 0.25
 41
1.130840379310347
 72
     5
 11
678.761169
 21
83.133766
 31
0.0
100
AcDbText
  0
TEXT
  5
1D4
330
1DD
100
AcDbEntity
  8
0
 62
     7
370
    13
390
F
100
AcDbText
 10
669.482361
 20
79.133766
 30
0.0
 40
2.0
  1
%%p 0.5
 41
1.177336304347828
 72
     5
 11
678.508606
 21
79.133766
 31
0.0
100
AcDbText
  0
TEXT
  5
1D5
330
1DD
100
AcDbEntity
  8
0
 62
     7
370
    13
390
F
100
AcDbText
 10
667.829712
 20
75.133736
 30
0.0
 40
2.0
  1
%%p 0.75
 41
1.130840379310347
 72
     5
 11
678.761169
 21
75.133736
 31
0.0
100
AcDbText
  0
TEXT
  5
1D6
330
1DD
100
AcDbEntity
  8
0
 62
     7
370
    13
390
F
100
AcDbText
 10
667.829712
 20
71.133736
 30
0.0
 40
2.0
  1
%%p 0.75
 41
1.130840379310347
 72
     5
 11
678.761169
 21
71.133736
 31
0.0
100
AcDbText
  0
TEXT
  5
1D7
330
1DD
100
AcDbEntity
  8
0
 62
     7
370
    13
390
F
100
AcDbText
 10
668.782349
 20
67.133736
 30
0.0
 40
2.0
  1
%%p 1.5
 41
1.230851590909093
 72
     5
 11
677.808594
 21
67.133736
 31
0.0
100
AcDbText
  0
TEXT
  5
1D8
330
1DD
100
AcDbEntity
  8
0
 62
     7
370
    13
390
F
100
AcDbText
 10
668.782349
 20
63.133732
 30
0.0
 40
2.0
  1
%%p 1.5
 41
1.230851590909093
 72
     5
 11
677.808594
 21
63.133732
 31
0.0
100
AcDbText
  0
TEXT
  5
1D9
330
1DD
100
AcDbEntity
  8
0
 62
     7
370
    13
390
F
100
AcDbText
 10
668.809692
 20
59.162849
 30
0.0
 40
2.0
  1
%%p 1.5
 41
1.230851727272729
 72
     5
 11
677.835938
 21
59.162849
 31
0.0
100
AcDbText
  0
TEXT
  5
1DA
330
1DD
100
AcDbEntity
  8
0
 62
     7
370
    40
390
F
100
AcDbText
 10
676.552124
 20
109.9338
 30
0.0
 40
3.15
  1
B
 41
1.301153333333299
 72
     5
 11
679.284546
 21
109.9338
 31
0.0
100
AcDbText
  0
LINE
  5
1DB
330
1DD
100
AcDbEntity
  8
0
 62
     7
370
   100
390
F
100
AcDbLine
 10
831.450562
 20
115.062889
 30
0.0
 11
831.450562
 21
10.262883
 31
0.0
  0
ENDBLK
  5
766
330
1DD
100
AcDbEntity
  8
0
100
AcDbBlockEnd
  0
BLOCK
  5
767
330
1E1
100
AcDbEntity
  8
0
100
AcDbBlockBegin
  2
BLOCK208
 70
     0
 10
0.0
 20
0.0
 30
0.0
  3
BLOCK208
  1

  0
TEXT
  5
1DF
330
1E1
100
AcDbEntity
  8
0
 62
     7
370
    13
390
F
100
AcDbText
 10
832.632568
 20
547.0
 30
0.0
 40
2.0
  1
A
 41
1.301148000000012
 72
     5
 11
834.367432
 21
547.0
 31
0.0
100
AcDbText
  0
ENDBLK
  5
768
330
1E1
100
AcDbEntity
  8
0
100
AcDbBlockEnd
  0
BLOCK
  5
769
330
1E5
100
AcDbEntity
  8
0
100
AcDbBlockBegin
  2
BLOCK209
 70
     0
 10
0.0
 20
0.0
 30
0.0
  3
BLOCK209
  1

  0
TEXT
  5
1E3
330
1E5
100
AcDbEntity
  8
0
 62
     7
370
    13
390
F
100
AcDbText
 10
52.457352
 20
585.5
 30
0.0
 40
2.0
  1
1
 41
2.602306499999997
 72
     5
 11
54.192223
 21
585.5
 31
0.0
100
AcDbText
  0
ENDBLK
  5
76A
330
1E5
100
AcDbEntity
  8
0
100
AcDbBlockEnd
  0
BLOCK
  5
76B
330
1E9
100
AcDbEntity
  8
0
100
AcDbBlockBegin
  2
BLOCK210
 70
     0
 10
0.0
 20
0.0
 30
0.0
  3
BLOCK210
  1

  0
TEXT
  5
1E7
330
1E9
100
AcDbEntity
  8
0
 62
     7
370
    13
390
F
100
AcDbText
 10
120.040688
 20
585.5
 30
0.0
 40
2.0
  1
2
 41
1.301152500000001
 72
     5
 11
121.775558
 21
585.5
 31
0.0
100
AcDbText
  0
ENDBLK
  5
76C
330
1E9
100
AcDbEntity
  8
0
100
AcDbBlockEnd
  0
BLOCK
  5
76D
330
1ED
100
AcDbEntity
  8
0
100
AcDbBlockBegin
  2
BLOCK211
 70
     0
 10
0.0
 20
0.0
 30
0.0
  3
BLOCK211
  1

  0
TEXT
  5
1EB
330
1ED
100
AcDbEntity
  8
0
 62
     7
370
    13
390
F
100
AcDbText
 10
187.624023
 20
585.5
 30
0.0
 40
2.0
  1
3
 41
1.301148000000012
 72
     5
 11
189.358887
 21
585.5
 31
0.0
100
AcDbText
  0
ENDBLK
  5
76E
330
1ED
100
AcDbEntity
  8
0
100
AcDbBlockEnd
  0
BLOCK
  5
76F
330
1F1
100
AcDbEntity
  8
0
100
AcDbBlockBegin
  2
BLOCK212
 70
     0
 10
0.0
 20
0.0
 30
0.0
  3
BLOCK212
  1

  0
TEXT
  5
1EF
330
1F1
100
AcDbEntity
  8
0
 62
     7
370
    13
390
F
100
AcDbText
 10
255.207367
 20
585.5
 30
0.0
 40
2.0
  1
4
 41
1.301147249999993
 72
     5
 11
256.94223
 21
585.5
 31
0.0
100
AcDbText
  0
ENDBLK
  5
770
330
1F1
100
AcDbEntity
  8
0
100
AcDbBlockEnd
  0
BLOCK
  5
771
330
1F5
100
AcDbEntity
  8
0
100
AcDbBlockBegin
  2
BLOCK213
 70
     0
 10
0.0
 20
0.0
 30
0.0
  3
BLOCK213
  1

  0
TEXT
  5
1F3
330
1F5
100
AcDbEntity
  8
0
 62
     7
370
    13
390
F
100
AcDbText
 10
322.79068
 20
585.5
 30
0.0
 40
2.0
  1
5
 41
1.301147250000014
 72
     5
 11
324.525543
 21
585.5
 31
0.0
100
AcDbText
  0
ENDBLK
  5
772
330
1F5
100
AcDbEntity
  8
0
100
AcDbBlockEnd
  0
BLOCK
  5
773
330
1F9
100
AcDbEntity
  8
0
100
AcDbBlockBegin
  2
BLOCK214
 70
     0
 10
0.0
 20
0.0
 30
0.0
  3
BLOCK214
  1

  0
TEXT
  5
1F7
330
1F9
100
AcDbEntity
  8
0
 62
     7
370
    13
390
F
100
AcDbText
 10
390.374023
 20
585.5
 30
0.0
 40
2.0
  1
6
 41
1.301147999999969
 72
     5
 11
392.108887
 21
585.5
 31
0.0
100
AcDbText
  0
ENDBLK
  5
774
330
1F9
100
AcDbEntity
  8
0
100
AcDbBlockEnd
  0
BLOCK
  5
775
330
1FD
100
AcDbEntity
  8
0
100
AcDbBlockBegin
  2
BLOCK215
 70
     0
 10
0.0
 20
0.0
 30
0.0
  3
BLOCK215
  1

  0
TEXT
  5
1FB
330
1FD
100
AcDbEntity
  8
0
 62
     7
370
    13
390
F
100
AcDbText
 10
457.957367
 20
585.5
 30
0.0
 40
2.0
  1
7
 41
1.301147250000014
 72
     5
 11
459.69223
 21
585.5
 31
0.0
100
AcDbText
  0
ENDBLK
  5
776
330
1FD
100
AcDbEntity
  8
0
100
AcDbBlockEnd
  0
BLOCK
  5
777
330
201
100
AcDbEntity
  8
0
100
AcDbBlockBegin
  2
BLOCK216
 70
     0
 10
0.0
 20
0.0
 30
0.0
  3
BLOCK216
  1

  0
TEXT
  5
1FF
330
201
100
AcDbEntity
  8
0
 62
     7
370
    13
390
F
100
AcDbText
 10
525.54071
 20
585.5
 30
0.0
 40
2.0
  1
8
 41
1.301148000000012
 72
     5
 11
527.275574
 21
585.5
 31
0.0
100
AcDbText
  0
ENDBLK
  5
778
330
201
100
AcDbEntity
  8
0
100
AcDbBlockEnd
  0
BLOCK
  5
779
330
205
100
AcDbEntity
  8
0
100
AcDbBlockBegin
  2
BLOCK217
 70
     0
 10
0.0
 20
0.0
 30
0.0
  3
BLOCK217
  1

  0
TEXT
  5
203
330
205
100
AcDbEntity
  8
0
 62
     7
370
    13
390
F
100
AcDbText
 10
593.124023
 20
585.5
 30
0.0
 40
2.0
  1
9
 41
1.301148000000012
 72
     5
 11
594.858887
 21
585.5
 31
0.0
100
AcDbText
  0
ENDBLK
  5
77A
330
205
100
AcDbEntity
  8
0
100
AcDbBlockEnd
  0
BLOCK
  5
77B
330
209
100
AcDbEntity
  8
0
100
AcDbBlockBegin
  2
BLOCK218
 70
     0
 10
0.0
 20
0.0
 30
0.0
  3
BLOCK218
  1

  0
TEXT
  5
207
330
209
100
AcDbEntity
  8
0
 62
     7
370
    13
390
F
100
AcDbText
 10
659.639893
 20
585.5
 30
0.0
 40
2.0
  1
10
 41
1.658464714285693
 72
     5
 11
663.509644
 21
585.5
 31
0.0
100
AcDbText
  0
ENDBLK
  5
77C
330
209
100
AcDbEntity
  8
0
100
AcDbBlockEnd
  0
BLOCK
  5
77D
330
20D
100
AcDbEntity
  8
0
100
AcDbBlockBegin
  2
BLOCK219
 70
     0
 10
0.0
 20
0.0
 30
0.0
  3
BLOCK219
  1

  0
TEXT
  5
20B
330
20D
100
AcDbEntity
  8
0
 62
     7
370
    13
390
F
100
AcDbText
 10
727.223267
 20
585.5
 30
0.0
 40
2.0
  1
11
 41
1.934875500000032
 72
     5
 11
731.093018
 21
585.5
 31
0.0
100
AcDbText
  0
ENDBLK
  5
77E
330
20D
100
AcDbEntity
  8
0
100
AcDbBlockEnd
  0
BLOCK
  5
77F
330
211
100
AcDbEntity
  8
0
100
AcDbBlockBegin
  2
BLOCK220
 70
     0
 10
0.0
 20
0.0
 30
0.0
  3
BLOCK220
  1

  0
TEXT
  5
20F
330
211
100
AcDbEntity
  8
0
 62
     7
370
    13
390
F
100
AcDbText
 10
794.80658
 20
585.5
 30
0.0
 40
2.0
  1
12
 41
1.451156624999982
 72
     5
 11
798.676331
 21
585.5
 31
0.0
100
AcDbText
  0
ENDBLK
  5
780
330
211
100
AcDbEntity
  8
0
100
AcDbBlockEnd
  0
BLOCK
  5
781
330
215
100
AcDbEntity
  8
0
100
AcDbBlockBegin
  2
BLOCK221
 70
     0
 10
0.0
 20
0.0
 30
0.0
  3
BLOCK221
  1

  0
TEXT
  5
213
330
215
100
AcDbEntity
  8
0
 62
     7
370
    13
390
F
100
AcDbText
 10
832.632568
 20
475.25
 30
0.0
 40
2.0
  1
B
 41
1.301148000000012
 72
     5
 11
834.367432
 21
475.25
 31
0.0
100
AcDbText
  0
ENDBLK
  5
782
330
215
100
AcDbEntity
  8
0
100
AcDbBlockEnd
  0
BLOCK
  5
783
330
219
100
AcDbEntity
  8
0
100
AcDbBlockBegin
  2
BLOCK222
 70
     0
 10
0.0
 20
0.0
 30
0.0
  3
BLOCK222
  1

  0
TEXT
  5
217
330
219
100
AcDbEntity
  8
0
 62
     7
370
    13
390
F
100
AcDbText
 10
832.632568
 20
403.5
 30
0.0
 40
2.0
  1
C
 41
1.301148000000012
 72
     5
 11
834.367432
 21
403.5
 31
0.0
100
AcDbText
  0
ENDBLK
  5
784
330
219
100
AcDbEntity
  8
0
100
AcDbBlockEnd
  0
BLOCK
  5
785
330
21D
100
AcDbEntity
  8
0
100
AcDbBlockBegin
  2
BLOCK223
 70
     0
 10
0.0
 20
0.0
 30
0.0
  3
BLOCK223
  1

  0
TEXT
  5
21B
330
21D
100
AcDbEntity
  8
0
 62
     7
370
    13
390
F
100
AcDbText
 10
832.632568
 20
331.75
 30
0.0
 40
2.0
  1
D
 41
1.301148000000012
 72
     5
 11
834.367432
 21
331.75
 31
0.0
100
AcDbText
  0
ENDBLK
  5
786
330
21D
100
AcDbEntity
  8
0
100
AcDbBlockEnd
  0
BLOCK
  5
787
330
221
100
AcDbEntity
  8
0
100
AcDbBlockBegin
  2
BLOCK224
 70
     0
 10
0.0
 20
0.0
 30
0.0
  3
BLOCK224
  1

  0
TEXT
  5
21F
330
221
100
AcDbEntity
  8
0
 62
     7
370
    13
390
F
100
AcDbText
 10
832.632568
 20
260.0
 30
0.0
 40
2.0
  1
E
 41
1.301148000000012
 72
     5
 11
834.367432
 21
260.0
 31
0.0
100
AcDbText
  0
ENDBLK
  5
788
330
221
100
AcDbEntity
  8
0
100
AcDbBlockEnd
  0
BLOCK
  5
789
330
225
100
AcDbEntity
  8
0
100
AcDbBlockBegin
  2
BLOCK225
 70
     0
 10
0.0
 20
0.0
 30
0.0
  3
BLOCK225
  1

  0
TEXT
  5
223
330
225
100
AcDbEntity
  8
0
 62
     7
370
    13
390
F
100
AcDbText
 10
832.632568
 20
188.25
 30
0.0
 40
2.0
  1
F
 41
1.301148000000012
 72
     5
 11
834.367432
 21
188.25
 31
0.0
100
AcDbText
  0
ENDBLK
  5
78A
330
225
100
AcDbEntity
  8
0
100
AcDbBlockEnd
  0
BLOCK
  5
78B
330
229
100
AcDbEntity
  8
0
100
AcDbBlockBegin
  2
BLOCK226
 70
     0
 10
0.0
 20
0.0
 30
0.0
  3
BLOCK226
  1

  0
TEXT
  5
227
330
229
100
AcDbEntity
  8
0
 62
     7
370
    13
390
F
100
AcDbText
 10
832.632568
 20
116.5
 30
0.0
 40
2.0
  1
G
 41
1.301148000000012
 72
     5
 11
834.367432
 21
116.5
 31
0.0
100
AcDbText
  0
ENDBLK
  5
78C
330
229
100
AcDbEntity
  8
0
100
AcDbBlockEnd
  0
BLOCK
  5
78D
330
22D
100
AcDbEntity
  8
0
100
AcDbBlockBegin
  2
BLOCK227
 70
     0
 10
0.0
 20
0.0
 30
0.0
  3
BLOCK227
  1

  0
TEXT
  5
22B
330
22D
100
AcDbEntity
  8
0
 62
     7
370
    13
390
F
100
AcDbText
 10
832.632568
 20
44.75
 30
0.0
 40
2.0
  1
H
 41
1.301148000000012
 72
     5
 11
834.367432
 21
44.75
 31
0.0
100
AcDbText
  0
ENDBLK
  5
78E
330
22D
100
AcDbEntity
  8
0
100
AcDbBlockEnd
  0
BLOCK
  5
78F
330
231
100
AcDbEntity
  8
0
100
AcDbBlockBegin
  2
BLOCK228
 70
     0
 10
0.0
 20
0.0
 30
0.0
  3
BLOCK228
  1

  0
TEXT
  5
22F
330
231
100
AcDbEntity
  8
0
 62
     7
370
    13
390
F
100
AcDbText
 10
16.632565
 20
547.0
 30
0.0
 40
2.0
  1
A
 41
1.301152500000001
 72
     5
 11
18.367435
 21
547.0
 31
0.0
100
AcDbText
  0
ENDBLK
  5
790
330
231
100
AcDbEntity
  8
0
100
AcDbBlockEnd
  0
BLOCK
  5
791
330
235
100
AcDbEntity
  8
0
100
AcDbBlockBegin
  2
BLOCK229
 70
     0
 10
0.0
 20
0.0
 30
0.0
  3
BLOCK229
  1

  0
TEXT
  5
233
330
235
100
AcDbEntity
  8
0
 62
     7
370
    13
390
F
100
AcDbText
 10
16.632565
 20
475.25
 30
0.0
 40
2.0
  1
B
 41
1.301152500000001
 72
     5
 11
18.367435
 21
475.25
 31
0.0
100
AcDbText
  0
ENDBLK
  5
792
330
235
100
AcDbEntity
  8
0
100
AcDbBlockEnd
  0
BLOCK
  5
793
330
239
100
AcDbEntity
  8
0
100
AcDbBlockBegin
  2
BLOCK230
 70
     0
 10
0.0
 20
0.0
 30
0.0
  3
BLOCK230
  1

  0
TEXT
  5
237
330
239
100
AcDbEntity
  8
0
 62
     7
370
    13
390
F
100
AcDbText
 10
16.632565
 20
403.5
 30
0.0
 40
2.0
  1
C
 41
1.301152500000001
 72
     5
 11
18.367435
 21
403.5
 31
0.0
100
AcDbText
  0
ENDBLK
  5
794
330
239
100
AcDbEntity
  8
0
100
AcDbBlockEnd
  0
BLOCK
  5
795
330
23D
100
AcDbEntity
  8
0
100
AcDbBlockBegin
  2
BLOCK231
 70
     0
 10
0.0
 20
0.0
 30
0.0
  3
BLOCK231
  1

  0
TEXT
  5
23B
330
23D
100
AcDbEntity
  8
0
 62
     7
370
    13
390
F
100
AcDbText
 10
16.632565
 20
331.75
 30
0.0
 40
2.0
  1
D
 41
1.301152500000001
 72
     5
 11
18.367435
 21
331.75
 31
0.0
100
AcDbText
  0
ENDBLK
  5
796
330
23D
100
AcDbEntity
  8
0
100
AcDbBlockEnd
  0
BLOCK
  5
797
330
241
100
AcDbEntity
  8
0
100
AcDbBlockBegin
  2
BLOCK232
 70
     0
 10
0.0
 20
0.0
 30
0.0
  3
BLOCK232
  1

  0
TEXT
  5
23F
330
241
100
AcDbEntity
  8
0
 62
     7
370
    13
390
F
100
AcDbText
 10
16.632565
 20
260.0
 30
0.0
 40
2.0
  1
E
 41
1.301152500000001
 72
     5
 11
18.367435
 21
260.0
 31
0.0
100
AcDbText
  0
ENDBLK
  5
798
330
241
100
AcDbEntity
  8
0
100
AcDbBlockEnd
  0
BLOCK
  5
799
330
245
100
AcDbEntity
  8
0
100
AcDbBlockBegin
  2
BLOCK233
 70
     0
 10
0.0
 20
0.0
 30
0.0
  3
BLOCK233
  1

  0
TEXT
  5
243
330
245
100
AcDbEntity
  8
0
 62
     7
370
    13
390
F
100
AcDbText
 10
16.632565
 20
188.25
 30
0.0
 40
2.0
  1
F
 41
1.301152500000001
 72
     5
 11
18.367435
 21
188.25
 31
0.0
100
AcDbText
  0
ENDBLK
  5
79A
330
245
100
AcDbEntity
  8
0
100
AcDbBlockEnd
  0
BLOCK
  5
79B
330
249
100
AcDbEntity
  8
0
100
AcDbBlockBegin
  2
BLOCK234
 70
     0
 10
0.0
 20
0.0
 30
0.0
  3
BLOCK234
  1

  0
TEXT
  5
247
330
249
100
AcDbEntity
  8
0
 62
     7
370
    13
390
F
100
AcDbText
 10
16.632565
 20
116.5
 30
0.0
 40
2.0
  1
G
 41
1.301152500000001
 72
     5
 11
18.367435
 21
116.5
 31
0.0
100
AcDbText
  0
ENDBLK
  5
79C
330
249
100
AcDbEntity
  8
0
100
AcDbBlockEnd
  0
BLOCK
  5
79D
330
24D
100
AcDbEntity
  8
0
100
AcDbBlockBegin
  2
BLOCK235
 70
     0
 10
0.0
 20
0.0
 30
0.0
  3
BLOCK235
  1

  0
TEXT
  5
24B
330
24D
100
AcDbEntity
  8
0
 62
     7
370
    13
390
F
100
AcDbText
 10
16.632565
 20
44.75
 30
0.0
 40
2.0
  1
H
 41
1.301152500000001
 72
     5
 11
18.367435
 21
44.75
 31
0.0
100
AcDbText
  0
ENDBLK
  5
79E
330
24D
100
AcDbEntity
  8
0
100
AcDbBlockEnd
  0
BLOCK
  5
79F
330
251
100
AcDbEntity
  8
0
100
AcDbBlockBegin
  2
BLOCK236
 70
     0
 10
0.0
 20
0.0
 30
0.0
  3
BLOCK236
  1

  0
TEXT
  5
24F
330
251
100
AcDbEntity
  8
0
 62
     7
370
    13
390
F
100
AcDbText
 10
794.80658
 20
6.5
 30
0.0
 40
2.0
  1
12
 41
1.451156624999982
 72
     5
 11
798.676331
 21
6.5
 31
0.0
100
AcDbText
  0
ENDBLK
  5
7A0
330
251
100
AcDbEntity
  8
0
100
AcDbBlockEnd
  0
BLOCK
  5
7A1
330
255
100
AcDbEntity
  8
0
100
AcDbBlockBegin
  2
BLOCK237
 70
     0
 10
0.0
 20
0.0
 30
0.0
  3
BLOCK237
  1

  0
TEXT
  5
253
330
255
100
AcDbEntity
  8
0
 62
     7
370
    13
390
F
100
AcDbText
 10
727.223267
 20
6.5
 30
0.0
 40
2.0
  1
11
 41
1.934875500000032
 72
     5
 11
731.093018
 21
6.5
 31
0.0
100
AcDbText
  0
ENDBLK
  5
7A2
330
255
100
AcDbEntity
  8
0
100
AcDbBlockEnd
  0
BLOCK
  5
7A3
330
259
100
AcDbEntity
  8
0
100
AcDbBlockBegin
  2
BLOCK238
 70
     0
 10
0.0
 20
0.0
 30
0.0
  3
BLOCK238
  1

  0
TEXT
  5
257
330
259
100
AcDbEntity
  8
0
 62
     7
370
    13
390
F
100
AcDbText
 10
659.639893
 20
6.5
 30
0.0
 40
2.0
  1
10
 41
1.658464714285693
 72
     5
 11
663.509644
 21
6.5
 31
0.0
100
AcDbText
  0
ENDBLK
  5
7A4
330
259
100
AcDbEntity
  8
0
100
AcDbBlockEnd
  0
BLOCK
  5
7A5
330
25D
100
AcDbEntity
  8
0
100
AcDbBlockBegin
  2
BLOCK239
 70
     0
 10
0.0
 20
0.0
 30
0.0
  3
BLOCK239
  1

  0
TEXT
  5
25B
330
25D
100
AcDbEntity
  8
0
 62
     7
370
    13
390
F
100
AcDbText
 10
593.124023
 20
6.5
 30
0.0
 40
2.0
  1
9
 41
1.301148000000012
 72
     5
 11
594.858887
 21
6.5
 31
0.0
100
AcDbText
  0
ENDBLK
  5
7A6
330
25D
100
AcDbEntity
  8
0
100
AcDbBlockEnd
  0
BLOCK
  5
7A7
330
261
100
AcDbEntity
  8
0
100
AcDbBlockBegin
  2
BLOCK240
 70
     0
 10
0.0
 20
0.0
 30
0.0
  3
BLOCK240
  1

  0
TEXT
  5
25F
330
261
100
AcDbEntity
  8
0
 62
     7
370
    13
390
F
100
AcDbText
 10
525.54071
 20
6.5
 30
0.0
 40
2.0
  1
8
 41
1.301148000000012
 72
     5
 11
527.275574
 21
6.5
 31
0.0
100
AcDbText
  0
ENDBLK
  5
7A8
330
261
100
AcDbEntity
  8
0
100
AcDbBlockEnd
  0
BLOCK
  5
7A9
330
265
100
AcDbEntity
  8
0
100
AcDbBlockBegin
  2
BLOCK241
 70
     0
 10
0.0
 20
0.0
 30
0.0
  3
BLOCK241
  1

  0
TEXT
  5
263
330
265
100
AcDbEntity
  8
0
 62
     7
370
    13
390
F
100
AcDbText
 10
457.957367
 20
6.5
 30
0.0
 40
2.0
  1
7
 41
1.301147250000014
 72
     5
 11
459.69223
 21
6.5
 31
0.0
100
AcDbText
  0
ENDBLK
  5
7AA
330
265
100
AcDbEntity
  8
0
100
AcDbBlockEnd
  0
BLOCK
  5
7AB
330
269
100
AcDbEntity
  8
0
100
AcDbBlockBegin
  2
BLOCK242
 70
     0
 10
0.0
 20
0.0
 30
0.0
  3
BLOCK242
  1

  0
TEXT
  5
267
330
269
100
AcDbEntity
  8
0
 62
     7
370
    13
390
F
100
AcDbText
 10
390.374023
 20
6.5
 30
0.0
 40
2.0
  1
6
 41
1.301147999999969
 72
     5
 11
392.108887
 21
6.5
 31
0.0
100
AcDbText
  0
ENDBLK
  5
7AC
330
269
100
AcDbEntity
  8
0
100
AcDbBlockEnd
  0
BLOCK
  5
7AD
330
26D
100
AcDbEntity
  8
0
100
AcDbBlockBegin
  2
BLOCK243
 70
     0
 10
0.0
 20
0.0
 30
0.0
  3
BLOCK243
  1

  0
TEXT
  5
26B
330
26D
100
AcDbEntity
  8
0
 62
     7
370
    13
390
F
100
AcDbText
 10
322.79068
 20
6.5
 30
0.0
 40
2.0
  1
5
 41
1.301147250000014
 72
     5
 11
324.525543
 21
6.5
 31
0.0
100
AcDbText
  0
ENDBLK
  5
7AE
330
26D
100
AcDbEntity
  8
0
100
AcDbBlockEnd
  0
BLOCK
  5
7AF
330
271
100
AcDbEntity
  8
0
100
AcDbBlockBegin
  2
BLOCK244
 70
     0
 10
0.0
 20
0.0
 30
0.0
  3
BLOCK244
  1

  0
TEXT
  5
26F
330
271
100
AcDbEntity
  8
0
 62
     7
370
    13
390
F
100
AcDbText
 10
255.207367
 20
6.5
 30
0.0
 40
2.0
  1
4
 41
1.301147249999993
 72
     5
 11
256.94223
 21
6.5
 31
0.0
100
AcDbText
  0
ENDBLK
  5
7B0
330
271
100
AcDbEntity
  8
0
100
AcDbBlockEnd
  0
BLOCK
  5
7B1
330
275
100
AcDbEntity
  8
0
100
AcDbBlockBegin
  2
BLOCK245
 70
     0
 10
0.0
 20
0.0
 30
0.0
  3
BLOCK245
  1

  0
TEXT
  5
273
330
275
100
AcDbEntity
  8
0
 62
     7
370
    13
390
F
100
AcDbText
 10
187.624023
 20
6.5
 30
0.0
 40
2.0
  1
3
 41
1.301148000000012
 72
     5
 11
189.358887
 21
6.5
 31
0.0
100
AcDbText
  0
ENDBLK
  5
7B2
330
275
100
AcDbEntity
  8
0
100
AcDbBlockEnd
  0
BLOCK
  5
7B3
330
279
100
AcDbEntity
  8
0
100
AcDbBlockBegin
  2
BLOCK246
 70
     0
 10
0.0
 20
0.0
 30
0.0
  3
BLOCK246
  1

  0
TEXT
  5
277
330
279
100
AcDbEntity
  8
0
 62
     7
370
    13
390
F
100
AcDbText
 10
120.040688
 20
6.5
 30
0.0
 40
2.0
  1
2
 41
1.301152500000001
 72
     5
 11
121.775558
 21
6.5
 31
0.0
100
AcDbText
  0
ENDBLK
  5
7B4
330
279
100
AcDbEntity
  8
0
100
AcDbBlockEnd
  0
BLOCK
  5
7B5
330
27D
100
AcDbEntity
  8
0
100
AcDbBlockBegin
  2
BLOCK247
 70
     0
 10
0.0
 20
0.0
 30
0.0
  3
BLOCK247
  1

  0
TEXT
  5
27B
330
27D
100
AcDbEntity
  8
0
 62
     7
370
    13
390
F
100
AcDbText
 10
52.457352
 20
6.5
 30
0.0
 40
2.0
  1
1
 41
2.602306499999997
 72
     5
 11
54.192223
 21
6.5
 31
0.0
100
AcDbText
  0
ENDBLK
  5
7B6
330
27D
100
AcDbEntity
  8
0
100
AcDbBlockEnd
  0
BLOCK
  5
7B7
330
283
100
AcDbEntity
  8
0
100
AcDbBlockBegin
  2
BLOCK248
 70
     0
 10
0.0
 20
0.0
 30
0.0
  3
BLOCK248
  1

  0
TEXT
  5
27F
330
283
100
AcDbEntity
  8
0
 62
     7
370
    13
390
F
100
AcDbText
 10
6.543763
 20
147.493759
 30
0.0
 40
2.0
  1
GEWISS SpA reserve all rights in this document and in the information
 50
90.00000287182327
 41
0.9401000261780118
 72
     5
 11
6.543757
 21
267.199829
 31
0.0
100
AcDbText
  0
TEXT
  5
280
330
283
100
AcDbEntity
  8
0
 62
     7
370
    13
390
F
100
AcDbText
 10
9.999094
 20
147.493759
 30
0.0
 40
2.0
  1
contained therein. Reproduction, use or disclosure to third parties
 50
90.00000246462413
 41
0.9527569180327875
 72
     5
 11
9.999089
 21
263.730103
 31
0.0
100
AcDbText
  0
TEXT
  5
281
330
283
100
AcDbEntity
  8
0
 62
     7
370
    13
390
F
100
AcDbText
 10
13.454425
 20
147.493759
 30
0.0
 40
2.0
  1
without written authorization is stricty forbidden
 50
90.0000026420769
 41
0.9638171777777785
 72
     5
 11
13.454421
 21
234.237305
 31
0.0
100
AcDbText
  0
ENDBLK
  5
7B8
330
283
100
AcDbEntity
  8
0
100
AcDbBlockEnd
  0
BLOCK
  5
7B9
330
289
100
AcDbEntity
  8
0
100
AcDbBlockBegin
  2
BLOCK249
 70
     0
 10
0.0
 20
0.0
 30
0.0
  3
BLOCK249
  1

  0
TEXT
  5
285
330
289
100
AcDbEntity
  8
0
 62
     7
370
    13
390
F
100
AcDbText
 10
6.701831
 20
9.96806
 30
0.0
 40
2.0
  1
GEWISS SpA si riserva tutti i diritti sul presente documento
 50
90.00000275216357
 41
0.9549747706422029
 72
     5
 11
6.701826
 21
114.06031
 31
0.0
100
AcDbText
  0
TEXT
  5
286
330
289
100
AcDbEntity
  8
0
 62
     7
370
    13
390
F
100
AcDbText
 10
10.157163
 20
9.96806
 30
0.0
 40
2.0
  1
e con quanto rappresentato.E'vietato riprodurlo,utilizzarlo
 50
90.00000279881041
 41
0.9686818201892755
 72
     5
 11
10.157158
 21
112.325439
 31
0.0
100
AcDbText
  0
TEXT
  5
287
330
289
100
AcDbEntity
  8
0
 62
     7
370
    13
390
F
100
AcDbText
 10
13.612494
 20
9.968061
 30
0.0
 40
2.0
  1
renderlo accessibile a terzi senza autorizzazione scritta
 50
90.0000028970143
 41
0.9569771322580658
 72
     5
 11
13.612489
 21
108.855698
 31
0.0
100
AcDbText
  0
ENDBLK
  5
7BA
330
289
100
AcDbEntity
  8
0
100
AcDbBlockEnd
  0
BLOCK
  5
7BB
330
28D
100
AcDbEntity
  8
0
100
AcDbBlockBegin
  2
BLOCK250
 70
     0
 10
0.0
 20
0.0
 30
0.0
  3
BLOCK250
  1

  0
TEXT
  5
28B
330
28D
100
AcDbEntity
  8
0
 62
     7
370
    13
390
F
100
AcDbText
 10
-156.569839
 20
-172.248184
 30
0.0
 40
5.0
  1
SMOOTH SIDE
 41
0.9233988000000001
 72
     5
 11
-108.860901
 21
-172.248184
 31
0.0
100
AcDbText
  0
ENDBLK
  5
7BC
330
28D
100
AcDbEntity
  8
0
100
AcDbBlockEnd
  0
BLOCK
  5
7BD
330
298
100
AcDbEntity
  8
0
100
AcDbBlockBegin
  2
BLOCK251
 70
     0
 10
0.0
 20
0.0
 30
0.0
  3
BLOCK251
  1

  0
SOLID
  5
28F
330
298
100
AcDbEntity
  8
0
 62
     7
370
    13
390
F
100
AcDbTrace
 10
1018.136292
 20
-148.620087
 30
0.0
 11
1022.0
 21
-147.584808
 31
0.0
 12
1018.136292
 22
-148.620087
 32
0.0
 13
1018.136292
 23
-146.54953
 33
0.0
  0
SOLID
  5
290
330
298
100
AcDbEntity
  8
0
 62
     7
370
    13
390
F
100
AcDbTrace
 10
718.863708
 20
-146.54953
 30
0.0
 11
715.0
 21
-147.584808
 31
0.0
 12
718.863708
 22
-146.54953
 32
0.0
 13
718.863708
 23
-148.620087
 33
0.0
  0
TEXT
  5
291
330
298
100
AcDbEntity
  8
0
 62
     7
370
    13
390
F
100
AcDbText
 10
835.991699
 20
-143.584808
 30
0.0
 40
6.0
  1
307
 41
1.200919599999998
 72
     5
 11
854.005493
 21
-143.584808
 31
0.0
100
AcDbText
  0
LINE
  5
292
330
298
100
AcDbEntity
  8
0
 62
     7
370
    13
390
F
100
AcDbLine
 10
715.0
 20
-55.0
 30
0.0
 11
715.0
 21
-151.584808
 31
0.0
  0
LINE
  5
293
330
298
100
AcDbEntity
  8
0
 62
     7
370
    13
390
F
100
AcDbLine
 10
1022.0
 20
-34.5
 30
0.0
 11
1022.0
 21
-151.584808
 31
0.0
  0
LINE
  5
294
330
298
100
AcDbEntity
  8
0
 62
     7
370
    13
390
F
100
AcDbLine
 10
718.863708
 20
-147.584808
 30
0.0
 11
1018.136292
 21
-147.584808
 31
0.0
  0
LWPOLYLINE
  5
295
330
298
100
AcDbEntity
  8
0
 62
     7
370
    13
390
F
100
AcDbPolyline
 90
        3
 70
     1
 43
0.0
 10
1018.136292
 20
-148.620087
 10
1022.0
 20
-147.584808
 10
1018.136292
 20
-146.54953
  0
LWPOLYLINE
  5
296
330
298
100
AcDbEntity
  8
0
 62
     7
370
    13
390
F
100
AcDbPolyline
 90
        3
 70
     1
 43
0.0
 10
718.863708
 20
-146.54953
 10
715.0
 20
-147.584808
 10
718.863708
 20
-148.620087
  0
ENDBLK
  5
7BE
330
298
100
AcDbEntity
  8
0
100
AcDbBlockEnd
  0
BLOCK
  5
7BF
330
2A3
100
AcDbEntity
  8
0
100
AcDbBlockBegin
  2
BLOCK252
 70
     0
 10
0.0
 20
0.0
 30
0.0
  3
BLOCK252
  1

  0
SOLID
  5
29A
330
2A3
100
AcDbEntity
  8
0
 62
     7
370
    13
390
F
100
AcDbTrace
 10
525.136292
 20
139.811493
 30
0.0
 11
529.0
 21
140.846771
 31
0.0
 12
525.136292
 22
139.811493
 32
0.0
 13
525.136292
 23
141.88205
 33
0.0
  0
SOLID
  5
29B
330
2A3
100
AcDbEntity
  8
0
 62
     7
370
    13
390
F
100
AcDbTrace
 10
225.863708
 20
141.88205
 30
0.0
 11
222.0
 21
140.846771
 31
0.0
 12
225.863708
 22
141.88205
 32
0.0
 13
225.863708
 23
139.811493
 33
0.0
  0
TEXT
  5
29C
330
2A3
100
AcDbEntity
  8
0
 62
     7
370
    13
390
F
100
AcDbText
 10
342.587067
 20
144.846771
 30
0.0
 40
6.0
  1
307
 41
1.200923666666669
 72
     5
 11
360.600922
 21
144.846771
 31
0.0
100
AcDbText
  0
LINE
  5
29D
330
2A3
100
AcDbEntity
  8
0
 62
     7
370
    13
390
F
100
AcDbLine
 10
222.0
 20
34.5
 30
0.0
 11
222.0
 21
144.846771
 31
0.0
  0
LINE
  5
29E
330
2A3
100
AcDbEntity
  8
0
 62
     7
370
    13
390
F
100
AcDbLine
 10
529.0
 20
55.0
 30
0.0
 11
529.0
 21
144.846771
 31
0.0
  0
LINE
  5
29F
330
2A3
100
AcDbEntity
  8
0
 62
     7
370
    13
390
F
100
AcDbLine
 10
225.863708
 20
140.846771
 30
0.0
 11
525.136292
 21
140.846771
 31
0.0
  0
LWPOLYLINE
  5
2A0
330
2A3
100
AcDbEntity
  8
0
 62
     7
370
    13
390
F
100
AcDbPolyline
 90
        3
 70
     1
 43
0.0
 10
525.136292
 20
139.811493
 10
529.0
 20
140.846771
 10
525.136292
 20
141.88205
  0
LWPOLYLINE
  5
2A1
330
2A3
100
AcDbEntity
  8
0
 62
     7
370
    13
390
F
100
AcDbPolyline
 90
        3
 70
     1
 43
0.0
 10
225.863708
 20
141.88205
 10
222.0
 20
140.846771
 10
225.863708
 20
139.811493
  0
ENDBLK
  5
7C0
330
2A3
100
AcDbEntity
  8
0
100
AcDbBlockEnd
  0
BLOCK
  5
7C1
330
2AE
100
AcDbEntity
  8
0
100
AcDbBlockBegin
  2
BLOCK253
 70
     0
 10
0.0
 20
0.0
 30
0.0
  3
BLOCK253
  1

  0
SOLID
  5
2A5
330
2AE
100
AcDbEntity
  8
0
 62
     7
370
    13
390
F
100
AcDbTrace
 10
536.136292
 20
-154.60965
 30
0.0
 11
540.0
 21
-153.574371
 31
0.0
 12
536.136292
 22
-154.60965
 32
0.0
 13
536.136292
 23
-152.539093
 33
0.0
  0
SOLID
  5
2A6
330
2AE
100
AcDbEntity
  8
0
 62
     7
370
    13
390
F
100
AcDbTrace
 10
225.863708
 20
-152.539093
 30
0.0
 11
222.0
 21
-153.574371
 31
0.0
 12
225.863708
 22
-152.539093
 32
0.0
 13
225.863708
 23
-154.60965
 33
0.0
  0
TEXT
  5
2A7
330
2AE
100
AcDbEntity
  8
0
 62
     7
370
    13
390
F
100
AcDbText
 10
381.513519
 20
-149.574371
 30
0.0
 40
6.0
  1
318
 41
1.286703928571431
 72
     5
 11
399.527374
 21
-149.574371
 31
0.0
100
AcDbText
  0
LINE
  5
2A8
330
2AE
100
AcDbEntity
  8
0
 62
     7
370
    13
390
F
100
AcDbLine
 10
222.0
 20
-34.5
 30
0.0
 11
222.0
 21
-157.574371
 31
0.0
  0
LINE
  5
2A9
330
2AE
100
AcDbEntity
  8
0
 62
     7
370
    13
390
F
100
AcDbLine
 10
540.0
 20
-45.25
 30
0.0
 11
540.0
 21
-157.574371
 31
0.0
  0
LINE
  5
2AA
330
2AE
100
AcDbEntity
  8
0
 62
     7
370
    13
390
F
100
AcDbLine
 10
225.863708
 20
-153.574371
 30
0.0
 11
536.136292
 21
-153.574371
 31
0.0
  0
LWPOLYLINE
  5
2AB
330
2AE
100
AcDbEntity
  8
0
 62
     7
370
    13
390
F
100
AcDbPolyline
 90
        3
 70
     1
 43
0.0
 10
536.136292
 20
-154.60965
 10
540.0
 20
-153.574371
 10
536.136292
 20
-152.539093
  0
LWPOLYLINE
  5
2AC
330
2AE
100
AcDbEntity
  8
0
 62
     7
370
    13
390
F
100
AcDbPolyline
 90
        3
 70
     1
 43
0.0
 10
225.863708
 20
-152.539093
 10
222.0
 20
-153.574371
 10
225.863708
 20
-154.60965
  0
ENDBLK
  5
7C2
330
2AE
100
AcDbEntity
  8
0
100
AcDbBlockEnd
  0
BLOCK
  5
7C3
330
2B9
100
AcDbEntity
  8
0
100
AcDbBlockBegin
  2
BLOCK254
 70
     0
 10
0.0
 20
0.0
 30
0.0
  3
BLOCK254
  1

  0
SOLID
  5
2B0
330
2B9
100
AcDbEntity
  8
0
 62
     7
370
    13
390
F
100
AcDbTrace
 10
707.863708
 20
140.241302
 30
0.0
 11
704.0
 21
139.206024
 31
0.0
 12
707.863708
 22
140.241302
 32
0.0
 13
707.863708
 23
138.170746
 33
0.0
  0
SOLID
  5
2B1
330
2B9
100
AcDbEntity
  8
0
 62
     7
370
    13
390
F
100
AcDbTrace
 10
1018.136292
 20
138.170746
 30
0.0
 11
1022.0
 21
139.206024
 31
0.0
 12
1018.136292
 22
138.170746
 32
0.0
 13
1018.136292
 23
140.241302
 33
0.0
  0
TEXT
  5
2B2
330
2B9
100
AcDbEntity
  8
0
 62
     7
370
    13
390
F
100
AcDbText
 10
854.810669
 20
143.206024
 30
0.0
 40
6.0
  1
318
 41
1.286699571428577
 72
     5
 11
872.824463
 21
143.206024
 31
0.0
100
AcDbText
  0
LINE
  5
2B3
330
2B9
100
AcDbEntity
  8
0
 62
     7
370
    13
390
F
100
AcDbLine
 10
704.0
 20
45.900002
 30
0.0
 11
704.0
 21
143.206024
 31
0.0
  0
LINE
  5
2B4
330
2B9
100
AcDbEntity
  8
0
 62
     7
370
    13
390
F
100
AcDbLine
 10
1022.0
 20
34.5
 30
0.0
 11
1022.0
 21
143.206024
 31
0.0
  0
LINE
  5
2B5
330
2B9
100
AcDbEntity
  8
0
 62
     7
370
    13
390
F
100
AcDbLine
 10
707.863708
 20
139.206024
 30
0.0
 11
1018.136292
 21
139.206024
 31
0.0
  0
LWPOLYLINE
  5
2B6
330
2B9
100
AcDbEntity
  8
0
 62
     7
370
    13
390
F
100
AcDbPolyline
 90
        3
 70
     1
 43
0.0
 10
707.863708
 20
140.241302
 10
704.0
 20
139.206024
 10
707.863708
 20
138.170746
  0
LWPOLYLINE
  5
2B7
330
2B9
100
AcDbEntity
  8
0
 62
     7
370
    13
390
F
100
AcDbPolyline
 90
        3
 70
     1
 43
0.0
 10
1018.136292
 20
138.170746
 10
1022.0
 20
139.206024
 10
1018.136292
 20
140.241302
  0
ENDBLK
  5
7C4
330
2B9
100
AcDbEntity
  8
0
100
AcDbBlockEnd
  0
BLOCK
  5
7C5
330
2C2
100
AcDbEntity
  8
0
100
AcDbBlockBegin
  2
BLOCK255
 70
     0
 10
0.0
 20
0.0
 30
0.0
  3
BLOCK255
  1

  0
SOLID
  5
2BB
330
2C2
100
AcDbEntity
  8
0
 62
     7
370
    13
390
F
100
AcDbTrace
 10
1036.12085
 20
25.195007
 30
0.0
 11
1034.996582
 21
21.356237
 31
0.0
 12
1036.12085
 22
25.195007
 32
0.0
 13
1037.889526
 23
24.118603
 33
0.0
  0
TEXT
  5
2BC
330
2C2
100
AcDbEntity
  8
0
 62
     7
370
    13
390
F
100
AcDbText
 10
1096.891357
 20
130.757278
 30
0.0
 40
6.0
  1
25
 50
58.67714563802682
 41
1.160919893143472
 72
     5
 11
1102.926514
 21
140.674454
 31
0.0
100
AcDbText
  0
TEXT
  5
2BD
330
2C2
100
AcDbEntity
  8
0
 62
     7
370
    13
390
F
100
AcDbText
 10
1093.145996
 20
124.602737
 30
0.0
 40
6.0
  1
R
 50
58.67800379374531
 41
1.301135935259764
 72
     5
 11
1095.851563
 21
129.048767
 31
0.0
100
AcDbText
  0
LINE
  5
2BE
330
2C2
100
AcDbEntity
  8
0
 62
     7
370
    13
390
F
100
AcDbLine
 10
1022.0
 20
0.0
 30
0.0
 11
1034.996582
 21
21.356241
 31
0.0
  0
LINE
  5
2BF
330
2C2
100
AcDbEntity
  8
0
 62
     7
370
    13
390
F
100
AcDbLine
 10
1037.005127
 20
24.656813
 30
0.0
 11
1106.343506
 21
138.594986
 31
0.0
  0
LWPOLYLINE
  5
2C0
330
2C2
100
AcDbEntity
  8
0
 62
     7
370
    13
390
F
100
AcDbPolyline
 90
        3
 70
     1
 43
0.0
 10
1036.12085
 20
25.195007
 10
1034.996582
 20
21.356237
 10
1037.889526
 20
24.118603
  0
ENDBLK
  5
7C6
330
2C2
100
AcDbEntity
  8
0
100
AcDbBlockEnd
  0
BLOCK
  5
7C7
330
2CE
100
AcDbEntity
  8
0
100
AcDbBlockBegin
  2
BLOCK256
 70
     0
 10
0.0
 20
0.0
 30
0.0
  3
BLOCK256
  1

  0
SOLID
  5
2C4
330
2CE
100
AcDbEntity
  8
0
 62
     7
370
    13
390
F
100
AcDbTrace
 10
711.136292
 20
-129.1763
 30
0.0
 11
715.0
 21
-128.141022
 31
0.0
 12
711.136292
 22
-129.1763
 32
0.0
 13
711.136292
 23
-127.105743
 33
0.0
  0
SOLID
  5
2C5
330
2CE
100
AcDbEntity
  8
0
 62
     7
370
    13
390
F
100
AcDbTrace
 10
696.863708
 20
-127.105743
 30
0.0
 11
693.0
 21
-128.141022
 31
0.0
 12
696.863708
 22
-127.105743
 32
0.0
 13
696.863708
 23
-129.1763
 33
0.0
  0
TEXT
  5
2C6
330
2CE
100
AcDbEntity
  8
0
 62
     7
370
    13
390
F
100
AcDbText
 10
673.880615
 20
-124.141022
 30
0.0
 40
6.0
  1
22
 41
1.160925299999997
 72
     5
 11
685.489868
 21
-124.141022
 31
0.0
100
AcDbText
  0
LINE
  5
2C7
330
2CE
100
AcDbEntity
  8
0
 62
     7
370
    13
390
F
100
AcDbLine
 10
693.0
 20
-55.0
 30
0.0
 11
693.0
 21
-132.141022
 31
0.0
  0
LINE
  5
2C8
330
2CE
100
AcDbEntity
  8
0
 62
     7
370
    13
390
F
100
AcDbLine
 10
715.0
 20
-55.0
 30
0.0
 11
715.0
 21
-132.141022
 31
0.0
  0
LINE
  5
2C9
330
2CE
100
AcDbEntity
  8
0
 62
     7
 48
0.477985
370
    13
390
F
100
AcDbLine
 10
673.880615
 20
-128.141022
 30
0.0
 11
693.0
 21
-128.141022
 31
0.0
  0
LINE
  5
2CA
330
2CE
100
AcDbEntity
  8
0
 62
     7
 48
0.356815
370
    13
390
F
100
AcDbLine
 10
696.863708
 20
-128.141022
 30
0.0
 11
711.136292
 21
-128.141022
 31
0.0
  0
LWPOLYLINE
  5
2CB
330
2CE
100
AcDbEntity
  8
0
 62
     7
370
    13
390
F
100
AcDbPolyline
 90
        3
 70
     1
 43
0.0
 10
711.136292
 20
-129.1763
 10
715.0
 20
-128.141022
 10
711.136292
 20
-127.105743
  0
LWPOLYLINE
  5
2CC
330
2CE
100
AcDbEntity
  8
0
 62
     7
370
    13
390
F
100
AcDbPolyline
 90
        3
 70
     1
 43
0.0
 10
696.863708
 20
-127.105743
 10
693.0
 20
-128.141022
 10
696.863708
 20
-129.1763
  0
ENDBLK
  5
7C8
330
2CE
100
AcDbEntity
  8
0
100
AcDbBlockEnd
  0
BLOCK
  5
7C9
330
2DA
100
AcDbEntity
  8
0
100
AcDbBlockBegin
  2
BLOCK257
 70
     0
 10
0.0
 20
0.0
 30
0.0
  3
BLOCK257
  1

  0
SOLID
  5
2D0
330
2DA
100
AcDbEntity
  8
0
 62
     7
370
    13
390
F
100
AcDbTrace
 10
708.548401
 20
34.756489
 30
0.0
 11
705.605774
 21
37.46595
 31
0.0
 12
708.548401
 22
34.756489
 32
0.0
 13
706.799438
 23
33.648193
 33
0.0
  0
SOLID
  5
2D1
330
2DA
100
AcDbEntity
  8
0
 62
     7
370
    13
390
F
100
AcDbTrace
 10
699.451599
 20
45.243511
 30
0.0
 11
702.394226
 21
42.53405
 31
0.0
 12
699.451599
 22
45.243511
 32
0.0
 13
701.200562
 23
46.351807
 33
0.0
  0
TEXT
  5
2D2
330
2DA
100
AcDbEntity
  8
0
 62
     7
370
    13
390
F
100
AcDbText
 10
660.177612
 20
116.627419
 30
0.0
 40
6.0
  1
6
 50
302.3622638020727
 41
1.301159202832638
 72
     5
 11
662.963501
 21
112.231163
 31
0.0
100
AcDbText
  0
TEXT
  5
2D3
330
2DA
100
AcDbEntity
  8
0
 62
     7
370
    13
390
F
100
AcDbText
 10
655.895508
 20
123.384888
 30
0.0
 40
6.0
  1
%%c
 50
302.3615723181592
 41
1.499993295116347
 72
     5
 11
659.107056
 21
118.316788
 31
0.0
100
AcDbText
  0
LINE
  5
2D4
330
2DA
100
AcDbEntity
  8
0
 62
     7
370
    13
390
F
100
AcDbLine
 10
652.516785
 20
121.24382
 30
0.0
 11
700.32605
 21
45.797657
 31
0.0
  0
LINE
  5
2D5
330
2DA
100
AcDbEntity
  8
0
 62
     7
 48
0.149999
370
    13
390
F
100
AcDbLine
 10
702.394226
 20
42.534031
 30
0.0
 11
705.605774
 21
37.465954
 31
0.0
  0
LINE
  5
2D6
330
2DA
100
AcDbEntity
  8
0
 62
     7
 48
0.153407
370
    13
390
F
100
AcDbLine
 10
707.673889
 20
34.202328
 30
0.0
 11
710.958435
 21
29.019112
 31
0.0
  0
LWPOLYLINE
  5
2D7
330
2DA
100
AcDbEntity
  8
0
 62
     7
370
    13
390
F
100
AcDbPolyline
 90
        3
 70
     1
 43
0.0
 10
708.548401
 20
34.756489
 10
705.605774
 20
37.46595
 10
706.799438
 20
33.648193
  0
LWPOLYLINE
  5
2D8
330
2DA
100
AcDbEntity
  8
0
 62
     7
370
    13
390
F
100
AcDbPolyline
 90
        3
 70
     1
 43
0.0
 10
699.451599
 20
45.243511
 10
702.394226
 20
42.53405
 10
701.200562
 20
46.351807
  0
ENDBLK
  5
7CA
330
2DA
100
AcDbEntity
  8
0
100
AcDbBlockEnd
  0
BLOCK
  5
7CB
330
2E5
100
AcDbEntity
  8
0
100
AcDbBlockBegin
  2
BLOCK258
 70
     0
 10
0.0
 20
0.0
 30
0.0
  3
BLOCK258
  1

  0
SOLID
  5
2DC
330
2E5
100
AcDbEntity
  8
0
 62
     7
370
    13
390
F
100
AcDbTrace
 10
125.863701
 20
-196.75827
 30
0.0
 11
122.0
 21
-197.793549
 31
0.0
 12
125.863701
 22
-196.75827
 32
0.0
 13
125.863701
 23
-198.828827
 33
0.0
  0
SOLID
  5
2DD
330
2E5
100
AcDbEntity
  8
0
 62
     7
370
    13
390
F
100
AcDbTrace
 10
1118.136353
 20
-198.828827
 30
0.0
 11
1122.0
 21
-197.793549
 31
0.0
 12
1118.136353
 22
-198.828827
 32
0.0
 13
1118.136353
 23
-196.75827
 33
0.0
  0
TEXT
  5
2DE
330
2E5
100
AcDbEntity
  8
0
 62
     7
370
    13
390
F
100
AcDbText
 10
608.892517
 20
-193.793549
 30
0.0
 40
6.0
  1
1000
 41
1.436379823529411
 72
     5
 11
633.310974
 21
-193.793549
 31
0.0
100
AcDbText
  0
LINE
  5
2DF
330
2E5
100
AcDbEntity
  8
0
 62
     7
370
    13
390
F
100
AcDbLine
 10
122.0
 20
23.123913
 30
0.0
 11
122.0
 21
-201.793549
 31
0.0
  0
LINE
  5
2E0
330
2E5
100
AcDbEntity
  8
0
 62
     7
370
    13
390
F
100
AcDbLine
 10
1122.0
 20
23.123913
 30
0.0
 11
1122.0
 21
-201.793549
 31
0.0
  0
LINE
  5
2E1
330
2E5
100
AcDbEntity
  8
0
 62
     7
370
    13
390
F
100
AcDbLine
 10
125.863701
 20
-197.793549
 30
0.0
 11
1118.136353
 21
-197.793549
 31
0.0
  0
LWPOLYLINE
  5
2E2
330
2E5
100
AcDbEntity
  8
0
 62
     7
370
    13
390
F
100
AcDbPolyline
 90
        3
 70
     1
 43
0.0
 10
125.863701
 20
-196.75827
 10
122.0
 20
-197.793549
 10
125.863701
 20
-198.828827
  0
LWPOLYLINE
  5
2E3
330
2E5
100
AcDbEntity
  8
0
 62
     7
370
    13
390
F
100
AcDbPolyline
 90
        3
 70
     1
 43
0.0
 10
1118.136353
 20
-198.828827
 10
1122.0
 20
-197.793549
 10
1118.136353
 20
-196.75827
  0
ENDBLK
  5
7CC
330
2E5
100
AcDbEntity
  8
0
100
AcDbBlockEnd
  0
BLOCK
  5
7CD
330
2F0
100
AcDbEntity
  8
0
100
AcDbBlockBegin
  2
BLOCK259
 70
     0
 10
0.0
 20
0.0
 30
0.0
  3
BLOCK259
  1

  0
SOLID
  5
2E7
330
2F0
100
AcDbEntity
  8
0
 62
     7
370
    13
390
F
100
AcDbTrace
 10
218.136292
 20
-154.60965
 30
0.0
 11
222.0
 21
-153.574371
 31
0.0
 12
218.136292
 22
-154.60965
 32
0.0
 13
218.136292
 23
-152.539093
 33
0.0
  0
SOLID
  5
2E8
330
2F0
100
AcDbEntity
  8
0
 62
     7
370
    13
390
F
100
AcDbTrace
 10
125.863701
 20
-152.539093
 30
0.0
 11
122.0
 21
-153.574371
 31
0.0
 12
125.863701
 22
-152.539093
 32
0.0
 13
125.863701
 23
-154.60965
 33
0.0
  0
TEXT
  5
2E9
330
2F0
100
AcDbEntity
  8
0
 62
     7
370
    13
390
F
100
AcDbText
 10
162.993088
 20
-149.574371
 30
0.0
 40
6.0
  1
100
 41
1.501152
 72
     5
 11
181.006912
 21
-149.574371
 31
0.0
100
AcDbText
  0
LINE
  5
2EA
330
2F0
100
AcDbEntity
  8
0
 62
     7
370
    13
390
F
100
AcDbLine
 10
122.0
 20
-59.934784
 30
0.0
 11
122.0
 21
-157.574371
 31
0.0
  0
LINE
  5
2EB
330
2F0
100
AcDbEntity
  8
0
 62
     7
370
    13
390
F
100
AcDbLine
 10
222.0
 20
-34.5
 30
0.0
 11
222.0
 21
-157.574371
 31
0.0
  0
LINE
  5
2EC
330
2F0
100
AcDbEntity
  8
0
 62
     7
370
    13
390
F
100
AcDbLine
 10
125.863701
 20
-153.574371
 30
0.0
 11
218.136292
 21
-153.574371
 31
0.0
  0
LWPOLYLINE
  5
2ED
330
2F0
100
AcDbEntity
  8
0
 62
     7
370
    13
390
F
100
AcDbPolyline
 90
        3
 70
     1
 43
0.0
 10
218.136292
 20
-154.60965
 10
222.0
 20
-153.574371
 10
218.136292
 20
-152.539093
  0
LWPOLYLINE
  5
2EE
330
2F0
100
AcDbEntity
  8
0
 62
     7
370
    13
390
F
100
AcDbPolyline
 90
        3
 70
     1
 43
0.0
 10
125.863701
 20
-152.539093
 10
122.0
 20
-153.574371
 10
125.863701
 20
-154.60965
  0
ENDBLK
  5
7CE
330
2F0
100
AcDbEntity
  8
0
100
AcDbBlockEnd
  0
BLOCK
  5
7CF
330
2FB
100
AcDbEntity
  8
0
100
AcDbBlockBegin
  2
BLOCK260
 70
     0
 10
0.0
 20
0.0
 30
0.0
  3
BLOCK260
  1

  0
SOLID
  5
2F2
330
2FB
100
AcDbEntity
  8
0
 62
     7
370
    13
390
F
100
AcDbTrace
 10
689.136292
 20
138.934662
 30
0.0
 11
693.0
 21
139.96994
 31
0.0
 12
689.136292
 22
138.934662
 32
0.0
 13
689.136292
 23
141.005219
 33
0.0
  0
SOLID
  5
2F3
330
2FB
100
AcDbEntity
  8
0
 62
     7
370
    13
390
F
100
AcDbTrace
 10
554.863708
 20
141.005219
 30
0.0
 11
551.0
 21
139.96994
 31
0.0
 12
554.863708
 22
141.005219
 32
0.0
 13
554.863708
 23
138.934662
 33
0.0
  0
TEXT
  5
2F4
330
2FB
100
AcDbEntity
  8
0
 62
     7
370
    13
390
F
100
AcDbText
 10
610.758545
 20
143.96994
 30
0.0
 40
6.0
  1
142
 41
1.286699571428569
 72
     5
 11
628.772339
 21
143.96994
 31
0.0
100
AcDbText
  0
LINE
  5
2F5
330
2FB
100
AcDbEntity
  8
0
 62
     7
370
    13
390
F
100
AcDbLine
 10
551.0
 20
55.0
 30
0.0
 11
551.0
 21
143.96994
 31
0.0
  0
LINE
  5
2F6
330
2FB
100
AcDbEntity
  8
0
 62
     7
370
    13
390
F
100
AcDbLine
 10
693.0
 20
-25.0
 30
0.0
 11
693.0
 21
143.96994
 31
0.0
  0
LINE
  5
2F7
330
2FB
100
AcDbEntity
  8
0
 62
     7
370
    13
390
F
100
AcDbLine
 10
554.863708
 20
139.96994
 30
0.0
 11
689.136292
 21
139.96994
 31
0.0
  0
LWPOLYLINE
  5
2F8
330
2FB
100
AcDbEntity
  8
0
 62
     7
370
    13
390
F
100
AcDbPolyline
 90
        3
 70
     1
 43
0.0
 10
689.136292
 20
138.934662
 10
693.0
 20
139.96994
 10
689.136292
 20
141.005219
  0
LWPOLYLINE
  5
2F9
330
2FB
100
AcDbEntity
  8
0
 62
     7
370
    13
390
F
100
AcDbPolyline
 90
        3
 70
     1
 43
0.0
 10
554.863708
 20
141.005219
 10
551.0
 20
139.96994
 10
554.863708
 20
138.934662
  0
ENDBLK
  5
7D0
330
2FB
100
AcDbEntity
  8
0
100
AcDbBlockEnd
  0
BLOCK
  5
7D1
330
305
100
AcDbEntity
  8
0
100
AcDbBlockBegin
  2
BLOCK261
 70
     0
 10
0.0
 20
0.0
 30
0.0
  3
BLOCK261
  1

  0
SOLID
  5
2FD
330
305
100
AcDbEntity
  8
0
 62
     7
370
    13
390
F
100
AcDbTrace
 10
554.863708
 20
108.028168
 30
0.0
 11
551.0
 21
106.992889
 31
0.0
 12
554.863708
 22
108.028168
 32
0.0
 13
554.863708
 23
105.957611
 33
0.0
  0
SOLID
  5
2FE
330
305
100
AcDbEntity
  8
0
 62
     7
370
    13
390
F
100
AcDbTrace
 10
618.136292
 20
105.957611
 30
0.0
 11
622.0
 21
106.992889
 31
0.0
 12
618.136292
 22
105.957611
 32
0.0
 13
618.136292
 23
108.028168
 33
0.0
  0
TEXT
  5
2FF
330
305
100
AcDbEntity
  8
0
 62
     7
370
    13
390
F
100
AcDbText
 10
589.381287
 20
110.992889
 30
0.0
 40
6.0
  1
71
 41
1.451156624999996
 72
     5
 11
600.99054
 21
110.992889
 31
0.0
100
AcDbText
  0
LINE
  5
300
330
305
100
AcDbEntity
  8
0
 62
     7
370
    13
390
F
100
AcDbLine
 10
551.0
 20
55.0
 30
0.0
 11
551.0
 21
110.992889
 31
0.0
  0
LINE
  5
301
330
305
100
AcDbEntity
  8
0
 62
     7
370
    13
390
F
100
AcDbLine
 10
554.863708
 20
106.992889
 30
0.0
 11
618.136292
 21
106.992889
 31
0.0
  0
LWPOLYLINE
  5
302
330
305
100
AcDbEntity
  8
0
 62
     7
370
    13
390
F
100
AcDbPolyline
 90
        3
 70
     1
 43
0.0
 10
554.863708
 20
108.028168
 10
551.0
 20
106.992889
 10
554.863708
 20
105.957611
  0
LWPOLYLINE
  5
303
330
305
100
AcDbEntity
  8
0
 62
     7
370
    13
390
F
100
AcDbPolyline
 90
        3
 70
     1
 43
0.0
 10
618.136292
 20
105.957611
 10
622.0
 20
106.992889
 10
618.136292
 20
108.028168
  0
ENDBLK
  5
7D2
330
305
100
AcDbEntity
  8
0
100
AcDbBlockEnd
  0
BLOCK
  5
7D3
330
310
100
AcDbEntity
  8
0
100
AcDbBlockBegin
  2
BLOCK262
 70
     0
 10
0.0
 20
0.0
 30
0.0
  3
BLOCK262
  1

  0
SOLID
  5
307
330
310
100
AcDbEntity
  8
0
 62
     7
370
    13
390
F
100
AcDbTrace
 10
62.929539
 20
-36.136295
 30
0.0
 11
63.964813
 21
-40.0
 31
0.0
 12
62.929539
 22
-36.136295
 32
0.0
 13
65.000092
 23
-36.136295
 33
0.0
  0
SOLID
  5
308
330
310
100
AcDbEntity
  8
0
 62
     7
370
    13
390
F
100
AcDbTrace
 10
65.000092
 20
-3.863703
 30
0.0
 11
63.964813
 21
0.0
 31
0.0
 12
65.000092
 22
-3.863703
 32
0.0
 13
62.929539
 23
-3.863703
 33
0.0
  0
TEXT
  5
309
330
310
100
AcDbEntity
  8
0
 62
     7
370
    13
390
F
100
AcDbText
 10
59.964813
 20
-100.286697
 30
0.0
 40
6.0
  1
40
 50
90.0
 41
1.289913555555556
 72
     5
 11
59.964813
 21
-88.677475
 31
0.0
100
AcDbText
  0
LINE
  5
30A
330
310
100
AcDbEntity
  8
0
 62
     7
370
    13
390
F
100
AcDbLine
 10
515.181702
 20
-40.0
 30
0.0
 11
59.964813
 21
-40.0
 31
0.0
  0
LINE
  5
30B
330
310
100
AcDbEntity
  8
0
 62
     7
370
    13
390
F
100
AcDbLine
 10
63.964813
 20
-100.286697
 30
0.0
 11
63.964813
 21
-40.0
 31
0.0
  0
LINE
  5
30C
330
310
100
AcDbEntity
  8
0
 62
     7
370
    13
390
F
100
AcDbLine
 10
63.964813
 20
-36.136295
 30
0.0
 11
63.964813
 21
-3.863703
 31
0.0
  0
LWPOLYLINE
  5
30D
330
310
100
AcDbEntity
  8
0
 62
     7
370
    13
390
F
100
AcDbPolyline
 90
        3
 70
     1
 43
0.0
 10
62.929539
 20
-36.136295
 10
63.964813
 20
-40.0
 10
65.000092
 20
-36.136295
  0
LWPOLYLINE
  5
30E
330
310
100
AcDbEntity
  8
0
 62
     7
370
    13
390
F
100
AcDbPolyline
 90
        3
 70
     1
 43
0.0
 10
65.000092
 20
-3.863703
 10
63.964813
 20
0.0
 10
62.929539
 20
-3.863703
  0
ENDBLK
  5
7D4
330
310
100
AcDbEntity
  8
0
100
AcDbBlockEnd
  0
BLOCK
  5
7D5
330
31B
100
AcDbEntity
  8
0
100
AcDbBlockBegin
  2
BLOCK263
 70
     0
 10
0.0
 20
0.0
 30
0.0
  3
BLOCK263
  1

  0
SOLID
  5
312
330
31B
100
AcDbEntity
  8
0
 62
     7
370
    13
390
F
100
AcDbTrace
 10
543.863708
 20
-152.539093
 30
0.0
 11
540.0
 21
-153.574371
 31
0.0
 12
543.863708
 22
-152.539093
 32
0.0
 13
543.863708
 23
-154.60965
 33
0.0
  0
SOLID
  5
313
330
31B
100
AcDbEntity
  8
0
 62
     7
370
    13
390
F
100
AcDbTrace
 10
618.136292
 20
-154.60965
 30
0.0
 11
622.0
 21
-153.574371
 31
0.0
 12
618.136292
 22
-154.60965
 32
0.0
 13
618.136292
 23
-152.539093
 33
0.0
  0
TEXT
  5
314
330
31B
100
AcDbEntity
  8
0
 62
     7
370
    13
390
F
100
AcDbText
 10
575.195374
 20
-149.574371
 30
0.0
 40
6.0
  1
82
 41
1.160925199999997
 72
     5
 11
586.804626
 21
-149.574371
 31
0.0
100
AcDbText
  0
LINE
  5
315
330
31B
100
AcDbEntity
  8
0
 62
     7
370
    13
390
F
100
AcDbLine
 10
540.0
 20
-45.25
 30
0.0
 11
540.0
 21
-157.574371
 31
0.0
  0
LINE
  5
316
330
31B
100
AcDbEntity
  8
0
 62
     7
370
    13
390
F
100
AcDbLine
 10
622.0
 20
-111.480255
 30
0.0
 11
622.0
 21
-157.574371
 31
0.0
  0
LINE
  5
317
330
31B
100
AcDbEntity
  8
0
 62
     7
370
    13
390
F
100
AcDbLine
 10
543.863708
 20
-153.574371
 30
0.0
 11
618.136292
 21
-153.574371
 31
0.0
  0
LWPOLYLINE
  5
318
330
31B
100
AcDbEntity
  8
0
 62
     7
370
    13
390
F
100
AcDbPolyline
 90
        3
 70
     1
 43
0.0
 10
543.863708
 20
-152.539093
 10
540.0
 20
-153.574371
 10
543.863708
 20
-154.60965
  0
LWPOLYLINE
  5
319
330
31B
100
AcDbEntity
  8
0
 62
     7
370
    13
390
F
100
AcDbPolyline
 90
        3
 70
     1
 43
0.0
 10
618.136292
 20
-154.60965
 10
622.0
 20
-153.574371
 10
618.136292
 20
-152.539093
  0
ENDBLK
  5
7D6
330
31B
100
AcDbEntity
  8
0
100
AcDbBlockEnd
  0
BLOCK
  5
7D7
330
327
100
AcDbEntity
  8
0
100
AcDbBlockBegin
  2
BLOCK264
 70
     0
 10
0.0
 20
0.0
 30
0.0
  3
BLOCK264
  1

  0
SOLID
  5
31D
330
327
100
AcDbEntity
  8
0
 62
    34
370
    13
390
F
100
AcDbTrace
 10
543.342896
 20
-34.486973
 30
0.0
 11
541.622681
 21
-38.098175
 31
0.0
 12
543.342896
 22
-34.486973
 32
0.0
 13
544.91803
 23
-35.830902
 33
0.0
  0
SOLID
  5
31E
330
327
100
AcDbEntity
  8
0
 62
    34
370
    13
390
F
100
AcDbTrace
 10
536.657104
 20
-45.513027
 30
0.0
 11
538.377319
 21
-41.901825
 31
0.0
 12
536.657104
 22
-45.513027
 32
0.0
 13
535.08197
 23
-44.169098
 33
0.0
  0
TEXT
  5
31F
330
327
100
AcDbEntity
  8
0
 62
    34
370
    13
390
F
100
AcDbText
 10
467.233398
 20
-119.122292
 30
0.0
 40
6.0
  1
6
 50
49.52839390456564
 41
1.30115707298593
 72
     5
 11
470.611572
 21
-115.162987
 31
0.0
100
AcDbText
  0
TEXT
  5
320
330
327
100
AcDbEntity
  8
0
 62
    34
370
    13
390
F
100
AcDbText
 10
462.040863
 20
-125.20813
 30
0.0
 40
6.0
  1
%%c
 50
49.52858964135596
 41
1.499999142862461
 72
     5
 11
465.935272
 21
-120.643753
 31
0.0
100
AcDbText
  0
LINE
  5
321
330
327
100
AcDbEntity
  8
0
 62
    34
370
    13
390
F
100
AcDbLine
 10
465.083801
 20
-127.804405
 30
0.0
 11
535.869507
 21
-44.841053
 31
0.0
  0
LINE
  5
322
330
327
100
AcDbEntity
  8
0
 62
    34
 48
0.125001
370
    13
390
F
100
AcDbLine
 10
538.377319
 20
-41.901829
 30
0.0
 11
541.622681
 21
-38.098167
 31
0.0
  0
LINE
  5
323
330
327
100
AcDbEntity
  8
0
 62
    34
 48
0.153407
370
    13
390
F
100
AcDbLine
 10
544.130493
 20
-35.158939
 30
0.0
 11
548.113342
 21
-30.49087
 31
0.0
  0
LWPOLYLINE
  5
324
330
327
100
AcDbEntity
  8
0
 62
    34
370
    13
390
F
100
AcDbPolyline
 90
        3
 70
     1
 43
0.0
 10
543.342896
 20
-34.486973
 10
541.622681
 20
-38.098175
 10
544.91803
 20
-35.830902
  0
LWPOLYLINE
  5
325
330
327
100
AcDbEntity
  8
0
 62
    34
370
    13
390
F
100
AcDbPolyline
 90
        3
 70
     1
 43
0.0
 10
536.657104
 20
-45.513027
 10
538.377319
 20
-41.901825
 10
535.08197
 20
-44.169098
  0
ENDBLK
  5
7D8
330
327
100
AcDbEntity
  8
0
100
AcDbBlockEnd
  0
BLOCK
  5
7D9
330
334
100
AcDbEntity
  8
0
100
AcDbBlockBegin
  2
BLOCK265
 70
     0
 10
0.0
 20
0.0
 30
0.0
  3
BLOCK265
  1

  0
SOLID
  5
329
330
334
100
AcDbEntity
  8
0
 62
     7
370
    13
390
F
100
AcDbTrace
 10
784.296082
 20
-43.863705
 30
0.0
 11
783.260803
 21
-40.0
 31
0.0
 12
784.296082
 22
-43.863705
 32
0.0
 13
782.225525
 23
-43.863705
 33
0.0
  0
SOLID
  5
32A
330
334
100
AcDbEntity
  8
0
 62
     7
370
    13
390
F
100
AcDbTrace
 10
782.225525
 20
-23.136297
 30
0.0
 11
783.260803
 21
-27.0
 31
0.0
 12
782.225525
 22
-23.136297
 32
0.0
 13
784.296082
 23
-23.136297
 33
0.0
  0
TEXT
  5
32B
330
334
100
AcDbEntity
  8
0
 62
     7
370
    13
390
F
100
AcDbText
 10
779.260803
 20
-116.803665
 30
0.0
 40
6.0
  1
13
 50
90.0
 41
1.451152749999999
 72
     5
 11
779.260803
 21
-105.194443
 31
0.0
100
AcDbText
  0
LINE
  5
32C
330
334
100
AcDbEntity
  8
0
 62
     7
370
    13
390
F
100
AcDbLine
 10
725.315979
 20
-40.0
 30
0.0
 11
787.260803
 21
-40.0
 31
0.0
  0
LINE
  5
32D
330
334
100
AcDbEntity
  8
0
 62
     7
370
    13
390
F
100
AcDbLine
 10
717.0
 20
-27.0
 30
0.0
 11
787.260803
 21
-27.0
 31
0.0
  0
LINE
  5
32E
330
334
100
AcDbEntity
  8
0
 62
     7
370
    13
390
F
100
AcDbLine
 10
783.260803
 20
-116.803665
 30
0.0
 11
783.260803
 21
-43.863705
 31
0.0
  0
LINE
  5
32F
330
334
100
AcDbEntity
  8
0
 62
     7
 48
0.325
370
    13
390
F
100
AcDbLine
 10
783.260803
 20
-40.0
 30
0.0
 11
783.260803
 21
-27.0
 31
0.0
  0
LINE
  5
330
330
334
100
AcDbEntity
  8
0
 62
     7
 48
0.153407
370
    13
390
F
100
AcDbLine
 10
783.260803
 20
-23.136297
 30
0.0
 11
783.260803
 21
-17.0
 31
0.0
  0
LWPOLYLINE
  5
331
330
334
100
AcDbEntity
  8
0
 62
     7
370
    13
390
F
100
AcDbPolyline
 90
        3
 70
     1
 43
0.0
 10
784.296082
 20
-43.863705
 10
783.260803
 20
-40.0
 10
782.225525
 20
-43.863705
  0
LWPOLYLINE
  5
332
330
334
100
AcDbEntity
  8
0
 62
     7
370
    13
390
F
100
AcDbPolyline
 90
        3
 70
     1
 43
0.0
 10
782.225525
 20
-23.136297
 10
783.260803
 20
-27.0
 10
784.296082
 20
-23.136297
  0
ENDBLK
  5
7DA
330
334
100
AcDbEntity
  8
0
100
AcDbBlockEnd
  0
BLOCK
  5
7DB
330
341
100
AcDbEntity
  8
0
100
AcDbBlockBegin
  2
BLOCK266
 70
     0
 10
0.0
 20
0.0
 30
0.0
  3
BLOCK266
  1

  0
SOLID
  5
336
330
341
100
AcDbEntity
  8
0
 62
     7
370
    13
390
F
100
AcDbTrace
 10
689.136292
 20
-106.320648
 30
0.0
 11
693.0
 21
-105.28537
 31
0.0
 12
689.136292
 22
-106.320648
 32
0.0
 13
689.136292
 23
-104.250092
 33
0.0
  0
SOLID
  5
337
330
341
100
AcDbEntity
  8
0
 62
     7
370
    13
390
F
100
AcDbTrace
 10
707.863708
 20
-104.250092
 30
0.0
 11
704.0
 21
-105.28537
 31
0.0
 12
707.863708
 22
-104.250092
 32
0.0
 13
707.863708
 23
-106.320648
 33
0.0
  0
TEXT
  5
338
330
341
100
AcDbEntity
  8
0
 62
     7
370
    13
390
F
100
AcDbText
 10
673.634644
 20
-101.28537
 30
0.0
 40
6.0
  1
11
 41
1.934875333333328
 72
     5
 11
685.243896
 21
-101.28537
 31
0.0
100
AcDbText
  0
LINE
  5
339
330
341
100
AcDbEntity
  8
0
 62
     7
370
    13
390
F
100
AcDbLine
 10
693.0
 20
-55.0
 30
0.0
 11
693.0
 21
-109.28537
 31
0.0
  0
LINE
  5
33A
330
341
100
AcDbEntity
  8
0
 62
     7
370
    13
390
F
100
AcDbLine
 10
704.0
 20
34.099998
 30
0.0
 11
704.0
 21
-109.28537
 31
0.0
  0
LINE
  5
33B
330
341
100
AcDbEntity
  8
0
 62
     7
 48
0.387541
370
    13
390
F
100
AcDbLine
 10
673.634644
 20
-105.28537
 30
0.0
 11
689.136292
 21
-105.28537
 31
0.0
  0
LINE
  5
33C
330
341
100
AcDbEntity
  8
0
 62
     7
 48
0.275
370
    13
390
F
100
AcDbLine
 10
693.0
 20
-105.28537
 30
0.0
 11
704.0
 21
-105.28537
 31
0.0
  0
LINE
  5
33D
330
341
100
AcDbEntity
  8
0
 62
     7
 48
0.153407
370
    13
390
F
100
AcDbLine
 10
707.863708
 20
-105.28537
 30
0.0
 11
714.0
 21
-105.28537
 31
0.0
  0
LWPOLYLINE
  5
33E
330
341
100
AcDbEntity
  8
0
 62
     7
370
    13
390
F
100
AcDbPolyline
 90
        3
 70
     1
 43
0.0
 10
689.136292
 20
-106.320648
 10
693.0
 20
-105.28537
 10
689.136292
 20
-104.250092
  0
LWPOLYLINE
  5
33F
330
341
100
AcDbEntity
  8
0
 62
     7
370
    13
390
F
100
AcDbPolyline
 90
        3
 70
     1
 43
0.0
 10
707.863708
 20
-104.250092
 10
704.0
 20
-105.28537
 10
707.863708
 20
-106.320648
  0
ENDBLK
  5
7DC
330
341
100
AcDbEntity
  8
0
100
AcDbBlockEnd
  0
BLOCK
  5
7DD
330
34D
100
AcDbEntity
  8
0
100
AcDbBlockBegin
  2
BLOCK267
 70
     0
 10
0.0
 20
0.0
 30
0.0
  3
BLOCK267
  1

  0
SOLID
  5
343
330
34D
100
AcDbEntity
  8
0
 62
     7
370
    13
390
F
100
AcDbTrace
 10
660.094482
 20
-30.863703
 30
0.0
 11
659.059204
 21
-27.0
 31
0.0
 12
660.094482
 22
-30.863703
 32
0.0
 13
658.023926
 23
-30.863703
 33
0.0
  0
SOLID
  5
344
330
34D
100
AcDbEntity
  8
0
 62
     7
370
    13
390
F
100
AcDbTrace
 10
658.023926
 20
-49.136295
 30
0.0
 11
659.059204
 21
-53.0
 31
0.0
 12
658.023926
 22
-49.136295
 32
0.0
 13
660.094482
 23
-49.136295
 33
0.0
  0
TEXT
  5
345
330
34D
100
AcDbEntity
  8
0
 62
     7
370
    13
390
F
100
AcDbText
 10
655.059204
 20
-123.146011
 30
0.0
 40
6.0
  1
26
 50
90.0
 41
1.1609222
 72
     5
 11
655.059204
 21
-111.536789
 31
0.0
100
AcDbText
  0
LINE
  5
346
330
34D
100
AcDbEntity
  8
0
 62
     7
370
    13
390
F
100
AcDbLine
 10
691.0
 20
-53.0
 30
0.0
 11
655.059204
 21
-53.0
 31
0.0
  0
LINE
  5
347
330
34D
100
AcDbEntity
  8
0
 62
     7
370
    13
390
F
100
AcDbLine
 10
691.0
 20
-27.0
 30
0.0
 11
655.059204
 21
-27.0
 31
0.0
  0
LINE
  5
348
330
34D
100
AcDbEntity
  8
0
 62
     7
370
    13
390
F
100
AcDbLine
 10
659.059204
 20
-123.146011
 30
0.0
 11
659.059204
 21
-53.0
 31
0.0
  0
LINE
  5
349
330
34D
100
AcDbEntity
  8
0
 62
     7
 48
0.456815
370
    13
390
F
100
AcDbLine
 10
659.059204
 20
-49.136295
 30
0.0
 11
659.059204
 21
-30.863703
 31
0.0
  0
LWPOLYLINE
  5
34A
330
34D
100
AcDbEntity
  8
0
 62
     7
370
    13
390
F
100
AcDbPolyline
 90
        3
 70
     1
 43
0.0
 10
660.094482
 20
-30.863703
 10
659.059204
 20
-27.0
 10
658.023926
 20
-30.863703
  0
LWPOLYLINE
  5
34B
330
34D
100
AcDbEntity
  8
0
 62
     7
370
    13
390
F
100
AcDbPolyline
 90
        3
 70
     1
 43
0.0
 10
658.023926
 20
-49.136295
 10
659.059204
 20
-53.0
 10
660.094482
 20
-49.136295
  0
ENDBLK
  5
7DE
330
34D
100
AcDbEntity
  8
0
100
AcDbBlockEnd
  0
BLOCK
  5
7DF
330
358
100
AcDbEntity
  8
0
100
AcDbBlockBegin
  2
BLOCK268
 70
     0
 10
0.0
 20
0.0
 30
0.0
  3
BLOCK268
  1

  0
SOLID
  5
34F
330
358
100
AcDbEntity
  8
0
 62
     7
370
    13
390
F
100
AcDbTrace
 10
448.777283
 20
49.136295
 30
0.0
 11
447.742004
 21
53.0
 31
0.0
 12
448.777283
 22
49.136295
 32
0.0
 13
446.706726
 23
49.136295
 33
0.0
  0
SOLID
  5
350
330
358
100
AcDbEntity
  8
0
 62
     7
370
    13
390
F
100
AcDbTrace
 10
446.706726
 20
30.863703
 30
0.0
 11
447.742004
 21
27.0
 31
0.0
 12
446.706726
 22
30.863703
 32
0.0
 13
448.777283
 23
30.863703
 33
0.0
  0
TEXT
  5
351
330
358
100
AcDbEntity
  8
0
 62
     7
370
    13
390
F
100
AcDbText
 10
443.742004
 20
33.67363
 30
0.0
 40
6.0
  1
26
 50
90.0
 41
1.160922199999999
 72
     5
 11
443.742004
 21
45.282852
 31
0.0
100
AcDbText
  0
LINE
  5
352
330
358
100
AcDbEntity
  8
0
 62
     7
370
    13
390
F
100
AcDbLine
 10
527.0
 20
27.0
 30
0.0
 11
443.742004
 21
27.0
 31
0.0
  0
LINE
  5
353
330
358
100
AcDbEntity
  8
0
 62
     7
370
    13
390
F
100
AcDbLine
 10
527.0
 20
53.0
 30
0.0
 11
443.742004
 21
53.0
 31
0.0
  0
LINE
  5
354
330
358
100
AcDbEntity
  8
0
 62
     7
 48
0.456815
370
    13
390
F
100
AcDbLine
 10
447.742004
 20
30.863703
 30
0.0
 11
447.742004
 21
49.136295
 31
0.0
  0
LWPOLYLINE
  5
355
330
358
100
AcDbEntity
  8
0
 62
     7
370
    13
390
F
100
AcDbPolyline
 90
        3
 70
     1
 43
0.0
 10
448.777283
 20
49.136295
 10
447.742004
 20
53.0
 10
446.706726
 20
49.136295
  0
LWPOLYLINE
  5
356
330
358
100
AcDbEntity
  8
0
 62
     7
370
    13
390
F
100
AcDbPolyline
 90
        3
 70
     1
 43
0.0
 10
446.706726
 20
30.863703
 10
447.742004
 20
27.0
 10
448.777283
 20
30.863703
  0
ENDBLK
  5
7E0
330
358
100
AcDbEntity
  8
0
100
AcDbBlockEnd
  0
BLOCK
  5
7E1
330
365
100
AcDbEntity
  8
0
100
AcDbBlockBegin
  2
BLOCK269
 70
     0
 10
0.0
 20
0.0
 30
0.0
  3
BLOCK269
  1

  0
SOLID
  5
35A
330
365
100
AcDbEntity
  8
0
 62
     7
370
    13
390
F
100
AcDbTrace
 10
748.515442
 20
43.863705
 30
0.0
 11
749.55072
 21
40.0
 31
0.0
 12
748.515442
 22
43.863705
 32
0.0
 13
750.585999
 23
43.863705
 33
0.0
  0
SOLID
  5
35B
330
365
100
AcDbEntity
  8
0
 62
     7
370
    13
390
F
100
AcDbTrace
 10
750.585999
 20
23.136297
 30
0.0
 11
749.55072
 21
27.0
 31
0.0
 12
750.585999
 22
23.136297
 32
0.0
 13
748.515442
 23
23.136297
 33
0.0
  0
TEXT
  5
35C
330
365
100
AcDbEntity
  8
0
 62
     7
370
    13
390
F
100
AcDbText
 10
745.55072
 20
44.118637
 30
0.0
 40
6.0
  1
13
 50
90.0
 41
1.45115275
 72
     5
 11
745.55072
 21
55.727859
 31
0.0
100
AcDbText
  0
LINE
  5
35D
330
365
100
AcDbEntity
  8
0
 62
     7
370
    13
390
F
100
AcDbLine
 10
553.0
 20
27.0
 30
0.0
 11
753.55072
 21
27.0
 31
0.0
  0
LINE
  5
35E
330
365
100
AcDbEntity
  8
0
 62
     7
370
    13
390
F
100
AcDbLine
 10
709.900024
 20
40.0
 30
0.0
 11
753.55072
 21
40.0
 31
0.0
  0
LINE
  5
35F
330
365
100
AcDbEntity
  8
0
 62
     7
 48
0.153407
370
    13
390
F
100
AcDbLine
 10
749.55072
 20
17.0
 30
0.0
 11
749.55072
 21
23.136297
 31
0.0
  0
LINE
  5
360
330
365
100
AcDbEntity
  8
0
 62
     7
 48
0.325
370
    13
390
F
100
AcDbLine
 10
749.55072
 20
27.0
 30
0.0
 11
749.55072
 21
40.0
 31
0.0
  0
LINE
  5
361
330
365
100
AcDbEntity
  8
0
 62
     7
 48
0.296604
370
    13
390
F
100
AcDbLine
 10
749.55072
 20
43.863705
 30
0.0
 11
749.55072
 21
55.727859
 31
0.0
  0
LWPOLYLINE
  5
362
330
365
100
AcDbEntity
  8
0
 62
     7
370
    13
390
F
100
AcDbPolyline
 90
        3
 70
     1
 43
0.0
 10
748.515442
 20
43.863705
 10
749.55072
 20
40.0
 10
750.585999
 20
43.863705
  0
LWPOLYLINE
  5
363
330
365
100
AcDbEntity
  8
0
 62
     7
370
    13
390
F
100
AcDbPolyline
 90
        3
 70
     1
 43
0.0
 10
750.585999
 20
23.136297
 10
749.55072
 20
27.0
 10
748.515442
 20
23.136297
  0
ENDBLK
  5
7E2
330
365
100
AcDbEntity
  8
0
100
AcDbBlockEnd
  0
BLOCK
  5
7E3
330
372
100
AcDbEntity
  8
0
100
AcDbBlockBegin
  2
BLOCK270
 70
     0
 10
0.0
 20
0.0
 30
0.0
  3
BLOCK270
  1

  0
SOLID
  5
367
330
372
100
AcDbEntity
  8
0
 62
     7
370
    13
390
F
100
AcDbTrace
 10
554.863708
 20
108.028168
 30
0.0
 11
551.0
 21
106.992889
 31
0.0
 12
554.863708
 22
108.028168
 32
0.0
 13
554.863708
 23
105.957611
 33
0.0
  0
SOLID
  5
368
330
372
100
AcDbEntity
  8
0
 62
     7
370
    13
390
F
100
AcDbTrace
 10
525.136292
 20
105.957611
 30
0.0
 11
529.0
 21
106.992889
 31
0.0
 12
525.136292
 22
105.957611
 32
0.0
 13
525.136292
 23
108.028168
 33
0.0
  0
TEXT
  5
369
330
372
100
AcDbEntity
  8
0
 62
     7
370
    13
390
F
100
AcDbText
 10
534.195374
 20
110.992889
 30
0.0
 40
6.0
  1
22
 41
1.160925199999997
 72
     5
 11
545.804626
 21
110.992889
 31
0.0
100
AcDbText
  0
LINE
  5
36A
330
372
100
AcDbEntity
  8
0
 62
     7
370
    13
390
F
100
AcDbLine
 10
529.0
 20
55.0
 30
0.0
 11
529.0
 21
110.992889
 31
0.0
  0
LINE
  5
36B
330
372
100
AcDbEntity
  8
0
 62
     7
370
    13
390
F
100
AcDbLine
 10
551.0
 20
55.0
 30
0.0
 11
551.0
 21
110.992889
 31
0.0
  0
LINE
  5
36C
330
372
100
AcDbEntity
  8
0
 62
     7
 48
0.153407
370
    13
390
F
100
AcDbLine
 10
519.0
 20
106.992889
 30
0.0
 11
525.136292
 21
106.992889
 31
0.0
  0
LINE
  5
36D
330
372
100
AcDbEntity
  8
0
 62
     7
370
    13
390
F
100
AcDbLine
 10
529.0
 20
106.992889
 30
0.0
 11
551.0
 21
106.992889
 31
0.0
  0
LINE
  5
36E
330
372
100
AcDbEntity
  8
0
 62
     7
 48
0.153407
370
    13
390
F
100
AcDbLine
 10
554.863708
 20
106.992889
 30
0.0
 11
561.0
 21
106.992889
 31
0.0
  0
LWPOLYLINE
  5
36F
330
372
100
AcDbEntity
  8
0
 62
     7
370
    13
390
F
100
AcDbPolyline
 90
        3
 70
     1
 43
0.0
 10
554.863708
 20
108.028168
 10
551.0
 20
106.992889
 10
554.863708
 20
105.957611
  0
LWPOLYLINE
  5
370
330
372
100
AcDbEntity
  8
0
 62
     7
370
    13
390
F
100
AcDbPolyline
 90
        3
 70
     1
 43
0.0
 10
525.136292
 20
105.957611
 10
529.0
 20
106.992889
 10
525.136292
 20
108.028168
  0
ENDBLK
  5
7E4
330
372
100
AcDbEntity
  8
0
100
AcDbBlockEnd
  0
BLOCK
  5
7E5
330
377
100
AcDbEntity
  8
0
100
AcDbBlockBegin
  2
BLOCK271
 70
     0
 10
0.0
 20
0.0
 30
0.0
  3
BLOCK271
  1

  0
LINE
  5
374
330
377
100
AcDbEntity
  8
0
  6
DASHDOT
 62
     7
370
    13
390
F
100
AcDbLine
 10
1054.5
 20
0.0
 30
0.0
 11
989.5
 21
0.0
 31
0.0
  0
LINE
  5
375
330
377
100
AcDbEntity
  8
0
  6
DASHDOT
 62
     7
370
    13
390
F
100
AcDbLine
 10
1022.0
 20
32.5
 30
0.0
 11
1022.0
 21
-32.5
 31
0.0
  0
ENDBLK
  5
7E6
330
377
100
AcDbEntity
  8
0
100
AcDbBlockEnd
  0
BLOCK
  5
7E7
330
37C
100
AcDbEntity
  8
0
100
AcDbBlockBegin
  2
BLOCK272
 70
     0
 10
0.0
 20
0.0
 30
0.0
  3
BLOCK272
  1

  0
LINE
  5
379
330
37C
100
AcDbEntity
  8
0
  6
DASHDOT
 62
     7
 48
0.195001
370
    13
390
F
100
AcDbLine
 10
707.900024
 20
40.0
 30
0.0
 11
700.099976
 21
40.0
 31
0.0
  0
LINE
  5
37A
330
37C
100
AcDbEntity
  8
0
  6
DASHDOT
 62
     7
 48
0.195
370
    13
390
F
100
AcDbLine
 10
704.0
 20
43.900002
 30
0.0
 11
704.0
 21
36.099998
 31
0.0
  0
ENDBLK
  5
7E8
330
37C
100
AcDbEntity
  8
0
100
AcDbBlockEnd
  0
BLOCK
  5
7E9
330
381
100
AcDbEntity
  8
0
100
AcDbBlockBegin
  2
BLOCK273
 70
     0
 10
0.0
 20
0.0
 30
0.0
  3
BLOCK273
  1

  0
LINE
  5
37E
330
381
100
AcDbEntity
  8
0
  6
DASHDOT
 62
     7
370
    13
390
F
100
AcDbLine
 10
254.5
 20
0.0
 30
0.0
 11
189.5
 21
0.0
 31
0.0
  0
LINE
  5
37F
330
381
100
AcDbEntity
  8
0
  6
DASHDOT
 62
     7
370
    13
390
F
100
AcDbLine
 10
222.0
 20
32.5
 30
0.0
 11
222.0
 21
-32.5
 31
0.0
  0
ENDBLK
  5
7EA
330
381
100
AcDbEntity
  8
0
100
AcDbBlockEnd
  0
BLOCK
  5
7EB
330
386
100
AcDbEntity
  8
0
100
AcDbBlockBegin
  2
BLOCK274
 70
     0
 10
0.0
 20
0.0
 30
0.0
  3
BLOCK274
  1

  0
LINE
  5
383
330
386
100
AcDbEntity
  8
0
  6
DASHDOT
 62
     7
 48
0.1625
370
    13
390
F
100
AcDbLine
 10
543.25
 20
-40.0
 30
0.0
 11
536.75
 21
-40.0
 31
0.0
  0
LINE
  5
384
330
386
100
AcDbEntity
  8
0
  6
DASHDOT
 62
     7
 48
0.1625
370
    13
390
F
100
AcDbLine
 10
540.0
 20
-36.75
 30
0.0
 11
540.0
 21
-43.25
 31
0.0
  0
ENDBLK
  5
7EC
330
386
100
AcDbEntity
  8
0
100
AcDbBlockEnd
  0
BLOCK
  5
7ED
330
3C8
100
AcDbEntity
  8
0
100
AcDbBlockBegin
  2
BLOCK275
 70
     0
 10
0.0
 20
0.0
 30
0.0
  3
BLOCK275
  1

  0
LINE
  5
388
330
3C8
100
AcDbEntity
  8
0
 62
     7
370
    40
390
F
100
AcDbLine
 10
529.0
 20
27.0
 30
0.0
 11
551.0
 21
27.0
 31
0.0
  0
LINE
  5
389
330
3C8
100
AcDbEntity
  8
0
 62
     7
370
    13
390
F
100
AcDbLine
 10
122.0
 20
57.934784
 30
0.0
 11
1122.0
 21
57.934784
 31
0.0
  0
LINE
  5
38A
330
3C8
100
AcDbEntity
  8
0
 62
     7
370
    40
390
F
100
AcDbLine
 10
1122.0
 20
25.123913
 30
0.0
 11
1122.0
 21
57.934784
 31
0.0
  0
LINE
  5
38B
330
3C8
100
AcDbEntity
  8
0
 62
     7
370
    13
390
F
100
AcDbLine
 10
122.0
 20
25.123913
 30
0.0
 11
1122.0
 21
25.123913
 31
0.0
  0
LINE
  5
38C
330
3C8
100
AcDbEntity
  8
0
 62
     7
370
    40
390
F
100
AcDbLine
 10
122.0
 20
25.123913
 30
0.0
 11
122.0
 21
57.934784
 31
0.0
  0
CIRCLE
  5
38D
330
3C8
100
AcDbEntity
  8
0
 62
     7
370
    40
390
F
100
AcDbCircle
 10
704.0
 20
40.0
 30
0.0
 40
3.0
  0
LINE
  5
38E
330
3C8
100
AcDbEntity
  8
0
 62
     7
 48
0.2875
370
    40
390
F
100
AcDbLine
 10
551.0
 20
41.5
 30
0.0
 11
551.0
 21
53.0
 31
0.0
  0
LINE
  5
38F
330
3C8
100
AcDbEntity
  8
0
 62
     7
370
    40
390
F
100
AcDbLine
 10
551.0
 20
53.0
 30
0.0
 11
529.0
 21
53.0
 31
0.0
  0
LINE
  5
390
330
3C8
100
AcDbEntity
  8
0
 62
     7
 48
0.2875
370
    40
390
F
100
AcDbLine
 10
529.0
 20
53.0
 30
0.0
 11
529.0
 21
41.5
 31
0.0
  0
LINE
  5
391
330
3C8
100
AcDbEntity
  8
0
 62
     7
 48
0.3625
370
    40
390
F
100
AcDbLine
 10
529.0
 20
41.5
 30
0.0
 11
529.0
 21
27.0
 31
0.0
  0
LINE
  5
392
330
3C8
100
AcDbEntity
  8
0
 62
     7
 48
0.3625
370
    40
390
F
100
AcDbLine
 10
551.0
 20
27.0
 30
0.0
 11
551.0
 21
41.5
 31
0.0
  0
LINE
  5
393
330
3C8
100
AcDbEntity
  8
0
 62
     7
 48
0.014555
370
    40
390
F
100
AcDbLine
 10
122.0
 20
80.550003
 30
0.0
 11
122.0
 21
79.967819
 31
0.0
  0
LINE
  5
394
330
3C8
100
AcDbEntity
  8
0
 62
     7
 48
0.048004
370
    40
390
F
100
AcDbLine
 10
122.0
 20
79.967819
 30
0.0
 11
122.0
 21
78.047661
 31
0.0
  0
LINE
  5
395
330
3C8
100
AcDbEntity
  8
0
 62
     7
 48
0.120861
370
    40
390
F
100
AcDbLine
 10
122.0
 20
73.213234
 30
0.0
 11
122.0
 21
78.047661
 31
0.0
  0
LINE
  5
396
330
3C8
100
AcDbEntity
  8
0
 62
     7
 48
0.381961
370
    40
390
F
100
AcDbLine
 10
122.0
 20
57.934784
 30
0.0
 11
122.0
 21
73.213234
 31
0.0
  0
LINE
  5
397
330
3C8
100
AcDbEntity
  8
0
 62
     7
370
    40
390
F
100
AcDbLine
 10
122.0
 20
2.357286
 30
0.0
 11
122.0
 21
25.123913
 31
0.0
  0
LINE
  5
398
330
3C8
100
AcDbEntity
  8
0
 62
     7
 48
0.117864
370
    40
390
F
100
AcDbLine
 10
122.0
 20
-2.357286
 30
0.0
 11
122.0
 21
2.357286
 31
0.0
  0
LINE
  5
399
330
3C8
100
AcDbEntity
  8
0
 62
     7
370
    40
390
F
100
AcDbLine
 10
122.0
 20
-25.123913
 30
0.0
 11
122.0
 21
-2.357286
 31
0.0
  0
LINE
  5
39A
330
3C8
100
AcDbEntity
  8
0
 62
     7
370
    40
390
F
100
AcDbLine
 10
122.0
 20
-57.934784
 30
0.0
 11
122.0
 21
-25.123913
 31
0.0
  0
LINE
  5
39B
330
3C8
100
AcDbEntity
  8
0
 62
     7
 48
0.381961
370
    40
390
F
100
AcDbLine
 10
122.0
 20
-73.213234
 30
0.0
 11
122.0
 21
-57.934784
 31
0.0
  0
LINE
  5
39C
330
3C8
100
AcDbEntity
  8
0
 62
     7
 48
0.120861
370
    40
390
F
100
AcDbLine
 10
122.0
 20
-78.047661
 30
0.0
 11
122.0
 21
-73.213234
 31
0.0
  0
LINE
  5
39D
330
3C8
100
AcDbEntity
  8
0
 62
     7
 48
0.048004
370
    40
390
F
100
AcDbLine
 10
122.0
 20
-79.967819
 30
0.0
 11
122.0
 21
-78.047661
 31
0.0
  0
LINE
  5
39E
330
3C8
100
AcDbEntity
  8
0
 62
     7
 48
0.014555
370
    40
390
F
100
AcDbLine
 10
122.0
 20
-80.550003
 30
0.0
 11
122.0
 21
-79.967819
 31
0.0
  0
ARC
  5
39F
330
3C8
100
AcDbEntity
  8
0
 62
     7
370
    40
390
F
100
AcDbCircle
 10
222.0
 20
0.0
 30
0.0
 40
25.0
100
AcDbArc
 50
0.0
 51
179.999995
  0
LINE
  5
3A0
330
3C8
100
AcDbEntity
  8
0
 62
     7
370
    13
390
F
100
AcDbLine
 10
197.111389
 20
2.357286
 30
0.0
 11
122.0
 21
2.357286
 31
0.0
  0
LINE
  5
3A1
330
3C8
100
AcDbEntity
  8
0
 62
     7
370
    40
390
F
100
AcDbLine
 10
1122.0
 20
2.357286
 30
0.0
 11
1122.0
 21
25.123913
 31
0.0
  0
LINE
  5
3A2
330
3C8
100
AcDbEntity
  8
0
 62
     7
370
    13
390
F
100
AcDbLine
 10
1046.888672
 20
2.357286
 30
0.0
 11
1122.0
 21
2.357286
 31
0.0
  0
CIRCLE
  5
3A3
330
3C8
100
AcDbEntity
  8
0
 62
     7
370
    40
390
F
100
AcDbCircle
 10
1022.0
 20
0.0
 30
0.0
 40
25.0
  0
LINE
  5
3A4
330
3C8
100
AcDbEntity
  8
0
 62
     7
370
    13
390
F
100
AcDbLine
 10
622.0
 20
2.357286
 30
0.0
 11
997.111389
 21
2.357286
 31
0.0
  0
LINE
  5
3A5
330
3C8
100
AcDbEntity
  8
0
 62
     7
370
    13
390
F
100
AcDbLine
 10
622.0
 20
2.357286
 30
0.0
 11
246.888611
 21
2.357286
 31
0.0
  0
LINE
  5
3A6
330
3C8
100
AcDbEntity
  8
0
 62
     7
370
    13
390
F
100
AcDbLine
 10
1046.888672
 20
-2.357286
 30
0.0
 11
1122.0
 21
-2.357286
 31
0.0
  0
LINE
  5
3A7
330
3C8
100
AcDbEntity
  8
0
 62
     7
 48
0.117864
370
    40
390
F
100
AcDbLine
 10
1122.0
 20
-2.357286
 30
0.0
 11
1122.0
 21
2.357286
 31
0.0
  0
ARC
  5
3A8
330
3C8
100
AcDbEntity
  8
0
 62
     7
370
    40
390
F
100
AcDbCircle
 10
222.0
 20
0.0
 30
0.0
 40
25.0
100
AcDbArc
 50
180.000005
 51
0.0
  0
LINE
  5
3A9
330
3C8
100
AcDbEntity
  8
0
 62
     7
 48
0.2875
370
    40
390
F
100
AcDbLine
 10
715.0
 20
-53.0
 30
0.0
 11
715.0
 21
-41.5
 31
0.0
  0
LINE
  5
3AA
330
3C8
100
AcDbEntity
  8
0
 62
     7
 48
0.3625
370
    40
390
F
100
AcDbLine
 10
715.0
 20
-41.5
 30
0.0
 11
715.0
 21
-27.0
 31
0.0
  0
LINE
  5
3AB
330
3C8
100
AcDbEntity
  8
0
 62
     7
 48
0.3625
370
    40
390
F
100
AcDbLine
 10
693.0
 20
-27.0
 30
0.0
 11
693.0
 21
-41.5
 31
0.0
  0
LINE
  5
3AC
330
3C8
100
AcDbEntity
  8
0
 62
     7
 48
0.2875
370
    40
390
F
100
AcDbLine
 10
693.0
 20
-41.5
 30
0.0
 11
693.0
 21
-53.0
 31
0.0
  0
CIRCLE
  5
3AD
330
3C8
100
AcDbEntity
  8
0
 62
     7
370
    40
390
F
100
AcDbCircle
 10
540.0
 20
-40.0
 30
0.0
 40
2.5
  0
LINE
  5
3AE
330
3C8
100
AcDbEntity
  8
0
 62
     7
370
    40
390
F
100
AcDbLine
 10
715.0
 20
-27.0
 30
0.0
 11
693.0
 21
-27.0
 31
0.0
  0
LINE
  5
3AF
330
3C8
100
AcDbEntity
  8
0
 62
     7
370
    40
390
F
100
AcDbLine
 10
693.0
 20
-53.0
 30
0.0
 11
715.0
 21
-53.0
 31
0.0
  0
LINE
  5
3B0
330
3C8
100
AcDbEntity
  8
0
 62
     7
370
    13
390
F
100
AcDbLine
 10
622.0
 20
-2.357286
 30
0.0
 11
997.111389
 21
-2.357286
 31
0.0
  0
LINE
  5
3B1
330
3C8
100
AcDbEntity
  8
0
 62
     7
370
    13
390
F
100
AcDbLine
 10
622.0
 20
-2.357286
 30
0.0
 11
246.888611
 21
-2.357286
 31
0.0
  0
LINE
  5
3B2
330
3C8
100
AcDbEntity
  8
0
 62
     7
370
    40
390
F
100
AcDbLine
 10
122.0
 20
-80.550003
 30
0.0
 11
1122.0
 21
-80.550003
 31
0.0
  0
LINE
  5
3B3
330
3C8
100
AcDbEntity
  8
0
 62
     7
370
    40
390
F
100
AcDbLine
 10
122.0
 20
-79.967819
 30
0.0
 11
1122.0
 21
-79.967819
 31
0.0
  0
LINE
  5
3B4
330
3C8
100
AcDbEntity
  8
0
 62
     7
 48
0.014555
370
    40
390
F
100
AcDbLine
 10
1122.0
 20
-80.550003
 30
0.0
 11
1122.0
 21
-79.967819
 31
0.0
  0
LINE
  5
3B5
330
3C8
100
AcDbEntity
  8
0
 62
     7
370
    13
390
F
100
AcDbLine
 10
122.0
 20
-78.047661
 30
0.0
 11
1122.0
 21
-78.047661
 31
0.0
  0
LINE
  5
3B6
330
3C8
100
AcDbEntity
  8
0
 62
     7
 48
0.048004
370
    40
390
F
100
AcDbLine
 10
1122.0
 20
-79.967819
 30
0.0
 11
1122.0
 21
-78.047661
 31
0.0
  0
LINE
  5
3B7
330
3C8
100
AcDbEntity
  8
0
 62
     7
370
    13
390
F
100
AcDbLine
 10
122.0
 20
-73.213234
 30
0.0
 11
1122.0
 21
-73.213234
 31
0.0
  0
LINE
  5
3B8
330
3C8
100
AcDbEntity
  8
0
 62
     7
 48
0.120861
370
    40
390
F
100
AcDbLine
 10
1122.0
 20
-78.047661
 30
0.0
 11
1122.0
 21
-73.213234
 31
0.0
  0
LINE
  5
3B9
330
3C8
100
AcDbEntity
  8
0
 62
     7
370
    13
390
F
100
AcDbLine
 10
122.0
 20
-57.934784
 30
0.0
 11
1122.0
 21
-57.934784
 31
0.0
  0
LINE
  5
3BA
330
3C8
100
AcDbEntity
  8
0
 62
     7
 48
0.381961
370
    40
390
F
100
AcDbLine
 10
1122.0
 20
-73.213234
 30
0.0
 11
1122.0
 21
-57.934784
 31
0.0
  0
LINE
  5
3BB
330
3C8
100
AcDbEntity
  8
0
 62
     7
370
    13
390
F
100
AcDbLine
 10
122.0
 20
-25.123913
 30
0.0
 11
1122.0
 21
-25.123913
 31
0.0
  0
LINE
  5
3BC
330
3C8
100
AcDbEntity
  8
0
 62
     7
370
    40
390
F
100
AcDbLine
 10
1122.0
 20
-57.934784
 30
0.0
 11
1122.0
 21
-25.123913
 31
0.0
  0
LINE
  5
3BD
330
3C8
100
AcDbEntity
  8
0
 62
     7
370
    40
390
F
100
AcDbLine
 10
1122.0
 20
-25.123913
 30
0.0
 11
1122.0
 21
-2.357286
 31
0.0
  0
LINE
  5
3BE
330
3C8
100
AcDbEntity
  8
0
 62
     7
370
    13
390
F
100
AcDbLine
 10
197.111389
 20
-2.357286
 30
0.0
 11
122.0
 21
-2.357286
 31
0.0
  0
LINE
  5
3BF
330
3C8
100
AcDbEntity
  8
0
 62
     7
370
    13
390
F
100
AcDbLine
 10
122.0
 20
78.047661
 30
0.0
 11
1122.0
 21
78.047661
 31
0.0
  0
LINE
  5
3C0
330
3C8
100
AcDbEntity
  8
0
 62
     7
 48
0.120861
370
    40
390
F
100
AcDbLine
 10
1122.0
 20
73.213234
 30
0.0
 11
1122.0
 21
78.047661
 31
0.0
  0
LINE
  5
3C1
330
3C8
100
AcDbEntity
  8
0
 62
     7
370
    13
390
F
100
AcDbLine
 10
122.0
 20
73.213234
 30
0.0
 11
1122.0
 21
73.213234
 31
0.0
  0
LINE
  5
3C2
330
3C8
100
AcDbEntity
  8
0
 62
     7
370
    40
390
F
100
AcDbLine
 10
122.0
 20
79.967819
 30
0.0
 11
1122.0
 21
79.967819
 31
0.0
  0
LINE
  5
3C3
330
3C8
100
AcDbEntity
  8
0
 62
     7
 48
0.048004
370
    40
390
F
100
AcDbLine
 10
1122.0
 20
79.967819
 30
0.0
 11
1122.0
 21
78.047661
 31
0.0
  0
LINE
  5
3C4
330
3C8
100
AcDbEntity
  8
0
 62
     7
370
    40
390
F
100
AcDbLine
 10
122.0
 20
80.550003
 30
0.0
 11
1122.0
 21
80.550003
 31
0.0
  0
LINE
  5
3C5
330
3C8
100
AcDbEntity
  8
0
 62
     7
 48
0.014555
370
    40
390
F
100
AcDbLine
 10
1122.0
 20
80.550003
 30
0.0
 11
1122.0
 21
79.967819
 31
0.0
  0
LINE
  5
3C6
330
3C8
100
AcDbEntity
  8
0
 62
     7
 48
0.381961
370
    40
390
F
100
AcDbLine
 10
1122.0
 20
57.934784
 30
0.0
 11
1122.0
 21
73.213234
 31
0.0
  0
ENDBLK
  5
7EE
330
3C8
100
AcDbEntity
  8
0
100
AcDbBlockEnd
  0
BLOCK
  5
7EF
330
3CE
100
AcDbEntity
  8
0
100
AcDbBlockBegin
  2
BLOCK276
 70
     0
 10
0.0
 20
0.0
 30
0.0
  3
BLOCK276
  1

  0
TEXT
  5
3CA
330
3CE
100
AcDbEntity
  8
0
 62
     7
370
    13
390
F
100
AcDbText
 10
61.189373
 20
-155.117813
 30
0.0
 40
5.0
  1
LATO RIFLETTENTE DA PROTEGGERE CON PELABILE
 41
0.8880881333333334
 72
     5
 11
247.687881
 21
-155.117813
 31
0.0
100
AcDbText
  0
LWPOLYLINE
  5
3CB
330
3CE
100
AcDbEntity
  8
0
 62
     7
370
    13
390
F
100
AcDbPolyline
 90
        3
 70
     0
 43
0.0
 10
1.364399
 20
-38.092285
 10
55.189373
 20
-156.8181
 10
247.687881
 20
-156.8181
  0
LWPOLYLINE
  5
3CC
330
3CE
100
AcDbEntity
  8
0
 62
     7
370
    13
390
F
100
AcDbPolyline
 90
        3
 70
     0
 43
0.0
 10
3.99218
 20
-41.292831
 10
1.364399
 20
-38.092285
 10
2.039852
 20
-42.177933
  0
ENDBLK
  5
7F0
330
3CE
100
AcDbEntity
  8
0
100
AcDbBlockEnd
  0
BLOCK
  5
7F1
330
3DB
100
AcDbEntity
  8
0
100
AcDbBlockBegin
  2
BLOCK277
 70
     0
 10
0.0
 20
0.0
 30
0.0
  3
BLOCK277
  1

  0
SOLID
  5
3D0
330
3DB
100
AcDbEntity
  8
0
 62
   230
370
    13
390
F
100
AcDbTrace
 10
125.839554
 20
45.363705
 30
0.0
 11
126.874832
 21
41.5
 31
0.0
 12
125.839554
 22
45.363705
 32
0.0
 13
127.91011
 23
45.363705
 33
0.0
  0
SOLID
  5
3D1
330
3DB
100
AcDbEntity
  8
0
 62
   230
370
    13
390
F
100
AcDbTrace
 10
127.91011
 20
25.036297
 30
0.0
 11
126.874832
 21
28.9
 31
0.0
 12
127.91011
 22
25.036297
 32
0.0
 13
125.839554
 23
25.036297
 33
0.0
  0
TEXT
  5
3D2
330
3DB
100
AcDbEntity
  8
0
 62
   230
370
    13
390
F
100
AcDbText
 10
122.874832
 20
-1.400233
 30
0.0
 40
6.0
  1
12.6
 50
90.0
 41
1.52615275
 72
     5
 11
122.874832
 21
23.018211
 31
0.0
100
AcDbText
  0
LINE
  5
3D3
330
3DB
100
AcDbEntity
  8
0
 62
   230
370
    13
390
F
100
AcDbLine
 10
74.828644
 20
28.9
 30
0.0
 11
130.874832
 21
28.9
 31
0.0
  0
LINE
  5
3D4
330
3DB
100
AcDbEntity
  8
0
 62
   230
370
    13
390
F
100
AcDbLine
 10
48.539452
 20
41.5
 30
0.0
 11
130.874832
 21
41.5
 31
0.0
  0
LINE
  5
3D5
330
3DB
100
AcDbEntity
  8
0
 62
   230
370
    13
390
F
100
AcDbLine
 10
126.874832
 20
-1.400233
 30
0.0
 11
126.874832
 21
25.036297
 31
0.0
  0
LINE
  5
3D6
330
3DB
100
AcDbEntity
  8
0
 62
   230
 48
0.315
370
    13
390
F
100
AcDbLine
 10
126.874832
 20
28.9
 30
0.0
 11
126.874832
 21
41.5
 31
0.0
  0
LINE
  5
3D7
330
3DB
100
AcDbEntity
  8
0
 62
   230
 48
0.153407
370
    13
390
F
100
AcDbLine
 10
126.874832
 20
45.363705
 30
0.0
 11
126.874832
 21
51.5
 31
0.0
  0
LWPOLYLINE
  5
3D8
330
3DB
100
AcDbEntity
  8
0
 62
   230
370
    13
390
F
100
AcDbPolyline
 90
        3
 70
     1
 43
0.0
 10
125.839554
 20
45.363705
 10
126.874832
 20
41.5
 10
127.91011
 20
45.363705
  0
LWPOLYLINE
  5
3D9
330
3DB
100
AcDbEntity
  8
0
 62
   230
370
    13
390
F
100
AcDbPolyline
 90
        3
 70
     1
 43
0.0
 10
127.91011
 20
25.036297
 10
126.874832
 20
28.9
 10
125.839554
 20
25.036297
  0
ENDBLK
  5
7F2
330
3DB
100
AcDbEntity
  8
0
100
AcDbBlockEnd
  0
BLOCK
  5
7F3
330
3E4
100
AcDbEntity
  8
0
100
AcDbBlockBegin
  2
BLOCK278
 70
     0
 10
0.0
 20
0.0
 30
0.0
  3
BLOCK278
  1

  0
SOLID
  5
3DD
330
3E4
100
AcDbEntity
  8
0
 62
   230
370
    13
390
F
100
AcDbTrace
 10
1.193976
 20
58.503635
 30
0.0
 11
5.104186
 21
57.66087
 31
0.0
 12
1.193976
 22
58.503635
 32
0.0
 13
2.139228
 23
60.345833
 33
0.0
  0
TEXT
  5
3DE
330
3E4
100
AcDbEntity
  8
0
 62
   230
370
    13
390
F
100
AcDbText
 10
-37.065529
 20
83.794487
 30
0.0
 40
6.0
  1
35.4
 50
332.8370730077941
 41
1.356580569447479
 72
     5
 11
-15.340142
 21
72.646919
 31
0.0
100
AcDbText
  0
TEXT
  5
3DF
330
3E4
100
AcDbEntity
  8
0
 62
   230
370
    13
390
F
100
AcDbText
 10
-43.475559
 20
87.083542
 30
0.0
 40
6.0
  1
R
 50
332.8370770397151
 41
1.301153376166049
 72
     5
 11
-38.844952
 21
84.70752
 31
0.0
100
AcDbText
  0
LINE
  5
3E0
330
3E4
100
AcDbEntity
  8
0
 62
   230
370
    13
390
F
100
AcDbLine
 10
36.600071
 20
41.499962
 30
0.0
 11
5.104185
 21
57.66087
 31
0.0
  0
LINE
  5
3E1
330
3E4
100
AcDbEntity
  8
0
 62
   230
370
    13
390
F
100
AcDbLine
 10
1.666601
 20
59.424732
 30
0.0
 11
-45.301647
 21
83.524689
 31
0.0
  0
LWPOLYLINE
  5
3E2
330
3E4
100
AcDbEntity
  8
0
 62
   230
370
    13
390
F
100
AcDbPolyline
 90
        3
 70
     1
 43
0.0
 10
1.193976
 20
58.503635
 10
5.104186
 20
57.66087
 10
2.139228
 20
60.345833
  0
ENDBLK
  5
7F4
330
3E4
100
AcDbEntity
  8
0
100
AcDbBlockEnd
  0
BLOCK
  5
7F5
330
3ED
100
AcDbEntity
  8
0
100
AcDbBlockBegin
  2
BLOCK279
 70
     0
 10
0.0
 20
0.0
 30
0.0
  3
BLOCK279
  1

  0
SOLID
  5
3E6
330
3ED
100
AcDbEntity
  8
0
 62
     7
370
    13
390
F
100
AcDbTrace
 10
7.694264
 20
69.070427
 30
0.0
 11
11.381508
 21
67.519867
 31
0.0
 12
7.694264
 22
69.070427
 32
0.0
 13
8.963542
 23
70.706314
 33
0.0
  0
TEXT
  5
3E7
330
3ED
100
AcDbEntity
  8
0
 62
     7
370
    13
390
F
100
AcDbText
 10
-22.92347
 20
99.199783
 30
0.0
 40
6.0
  1
63
 50
322.1922850526451
 41
1.160921848635062
 72
     5
 11
-13.751346
 21
92.083176
 31
0.0
100
AcDbText
  0
TEXT
  5
3E8
330
3ED
100
AcDbEntity
  8
0
 62
     7
370
    13
390
F
100
AcDbText
 10
-28.615633
 20
103.616318
 30
0.0
 40
6.0
  1
R
 50
322.1921964320894
 41
1.301154026057183
 72
     5
 11
-24.503614
 21
100.425812
 31
0.0
100
AcDbText
  0
LINE
  5
3E9
330
3ED
100
AcDbEntity
  8
0
 62
     7
370
    13
390
F
100
AcDbLine
 10
61.156059
 20
28.9
 30
0.0
 11
11.381509
 21
67.519867
 31
0.0
  0
LINE
  5
3EA
330
3ED
100
AcDbEntity
  8
0
 62
     7
370
    13
390
F
100
AcDbLine
 10
8.328904
 20
69.888374
 30
0.0
 11
-31.067688
 21
100.456024
 31
0.0
  0
LWPOLYLINE
  5
3EB
330
3ED
100
AcDbEntity
  8
0
 62
     7
370
    13
390
F
100
AcDbPolyline
 90
        3
 70
     1
 43
0.0
 10
7.694264
 20
69.070427
 10
11.381508
 20
67.519867
 10
8.963542
 20
70.706314
  0
ENDBLK
  5
7F6
330
3ED
100
AcDbEntity
  8
0
100
AcDbBlockEnd
  0
BLOCK
  5
7F7
330
3F9
100
AcDbEntity
  8
0
100
AcDbBlockBegin
  2
BLOCK280
 70
     0
 10
0.0
 20
0.0
 30
0.0
  3
BLOCK280
  1

  0
SOLID
  5
3EF
330
3F9
100
AcDbEntity
  8
0
 62
   230
370
    13
390
F
100
AcDbTrace
 10
40.463703
 20
98.75351
 30
0.0
 11
36.599998
 21
97.718231
 31
0.0
 12
40.463703
 22
98.75351
 32
0.0
 13
40.463703
 23
96.682953
 33
0.0
  0
SOLID
  5
3F0
330
3F9
100
AcDbEntity
  8
0
 62
   230
370
    13
390
F
100
AcDbTrace
 10
57.292355
 20
96.682953
 30
0.0
 11
61.156059
 21
97.718231
 31
0.0
 12
57.292355
 22
96.682953
 32
0.0
 13
57.292355
 23
98.75351
 33
0.0
  0
TEXT
  5
3F1
330
3F9
100
AcDbEntity
  8
0
 62
   230
370
    13
390
F
100
AcDbText
 10
69.467155
 20
101.718231
 30
0.0
 40
6.0
  1
24.6
 41
1.356580111111111
 72
     5
 11
93.885597
 21
101.718231
 31
0.0
100
AcDbText
  0
LINE
  5
3F2
330
3F9
100
AcDbEntity
  8
0
 62
   230
370
    13
390
F
100
AcDbLine
 10
36.599998
 20
53.439449
 30
0.0
 11
36.599998
 21
101.718231
 31
0.0
  0
LINE
  5
3F3
330
3F9
100
AcDbEntity
  8
0
 62
   230
370
    13
390
F
100
AcDbLine
 10
61.156059
 20
42.572586
 30
0.0
 11
61.156059
 21
101.718231
 31
0.0
  0
LINE
  5
3F4
330
3F9
100
AcDbEntity
  8
0
 62
   230
 48
0.420716
370
    13
390
F
100
AcDbLine
 10
40.463703
 20
97.718231
 30
0.0
 11
57.292355
 21
97.718231
 31
0.0
  0
LINE
  5
3F5
330
3F9
100
AcDbEntity
  8
0
 62
   230
370
    13
390
F
100
AcDbLine
 10
61.156059
 20
97.718231
 30
0.0
 11
93.885597
 21
97.718231
 31
0.0
  0
LWPOLYLINE
  5
3F6
330
3F9
100
AcDbEntity
  8
0
 62
   230
370
    13
390
F
100
AcDbPolyline
 90
        3
 70
     1
 43
0.0
 10
40.463703
 20
98.75351
 10
36.599998
 20
97.718231
 10
40.463703
 20
96.682953
  0
LWPOLYLINE
  5
3F7
330
3F9
100
AcDbEntity
  8
0
 62
   230
370
    13
390
F
100
AcDbPolyline
 90
        3
 70
     1
 43
0.0
 10
57.292355
 20
96.682953
 10
61.156059
 20
97.718231
 10
57.292355
 20
98.75351
  0
ENDBLK
  5
7F8
330
3F9
100
AcDbEntity
  8
0
100
AcDbBlockEnd
  0
BLOCK
  5
7F9
330
404
100
AcDbEntity
  8
0
100
AcDbBlockBegin
  2
BLOCK281
 70
     0
 10
0.0
 20
0.0
 30
0.0
  3
BLOCK281
  1

  0
SOLID
  5
3FB
330
404
100
AcDbEntity
  8
0
 62
   230
370
    13
390
F
100
AcDbTrace
 10
-36.435116
 20
37.636295
 30
0.0
 11
-37.47039
 21
41.5
 31
0.0
 12
-36.435116
 22
37.636295
 32
0.0
 13
-38.505669
 23
37.636295
 33
0.0
  0
SOLID
  5
3FC
330
404
100
AcDbEntity
  8
0
 62
   230
370
    13
390
F
100
AcDbTrace
 10
-38.505669
 20
3.863703
 30
0.0
 11
-37.47039
 21
0.0
 31
0.0
 12
-38.505669
 22
3.863703
 32
0.0
 13
-36.435116
 23
3.863703
 33
0.0
  0
TEXT
  5
3FD
330
404
100
AcDbEntity
  8
0
 62
   230
370
    13
390
F
100
AcDbText
 10
-41.47039
 20
6.580236
 30
0.0
 40
6.0
  1
41.5
 50
90.0
 41
1.526152875
 72
     5
 11
-41.47039
 21
30.998682
 31
0.0
100
AcDbText
  0
LINE
  5
3FE
330
404
100
AcDbEntity
  8
0
 62
   230
 48
0.111233
370
    13
390
F
100
AcDbLine
 10
-37.021065
 20
0.0
 30
0.0
 11
-41.47039
 21
0.0
 31
0.0
  0
LINE
  5
3FF
330
404
100
AcDbEntity
  8
0
 62
   230
370
    13
390
F
100
AcDbLine
 10
24.660549
 20
41.5
 30
0.0
 11
-41.47039
 21
41.5
 31
0.0
  0
LINE
  5
400
330
404
100
AcDbEntity
  8
0
 62
   230
370
    13
390
F
100
AcDbLine
 10
-37.47039
 20
3.863703
 30
0.0
 11
-37.47039
 21
37.636295
 31
0.0
  0
LWPOLYLINE
  5
401
330
404
100
AcDbEntity
  8
0
 62
   230
370
    13
390
F
100
AcDbPolyline
 90
        3
 70
     1
 43
0.0
 10
-36.435116
 20
37.636295
 10
-37.47039
 20
41.5
 10
-38.505669
 20
37.636295
  0
LWPOLYLINE
  5
402
330
404
100
AcDbEntity
  8
0
 62
   230
370
    13
390
F
100
AcDbPolyline
 90
        3
 70
     1
 43
0.0
 10
-38.505669
 20
3.863703
 10
-37.47039
 20
0.0
 10
-36.435116
 20
3.863703
  0
ENDBLK
  5
7FA
330
404
100
AcDbEntity
  8
0
100
AcDbBlockEnd
  0
BLOCK
  5
7FB
330
40D
100
AcDbEntity
  8
0
100
AcDbBlockBegin
  2
BLOCK282
 70
     0
 10
0.0
 20
0.0
 30
0.0
  3
BLOCK282
  1

  0
SOLID
  5
406
330
40D
100
AcDbEntity
  8
0
 62
   230
370
    13
390
F
100
AcDbTrace
 10
29.778553
 20
-1.232604
 30
0.0
 11
25.782497
 21
-1.055045
 31
0.0
 12
29.778553
 22
-1.232604
 32
0.0
 13
29.154404
 23
-3.206845
 33
0.0
  0
TEXT
  5
407
330
40D
100
AcDbEntity
  8
0
 62
   230
370
    13
390
F
100
AcDbText
 10
56.639656
 20
-6.615308
 30
0.0
 40
6.0
  1
3.5
 50
342.4558253463836
 41
1.50115297643373
 72
     5
 11
73.815575
 21
-12.045417
 31
0.0
100
AcDbText
  0
TEXT
  5
408
330
40D
100
AcDbEntity
  8
0
 62
   230
370
    13
390
F
100
AcDbText
 10
49.770172
 20
-4.443539
 30
0.0
 40
6.0
  1
R
 50
342.4558153972849
 41
1.301152661602996
 72
     5
 11
54.732689
 21
-6.012423
 31
0.0
100
AcDbText
  0
LINE
  5
409
330
40D
100
AcDbEntity
  8
0
 62
   230
 48
0.0875
370
    13
390
F
100
AcDbLine
 10
22.445299
 20
0.0
 30
0.0
 11
25.782497
 21
-1.055045
 31
0.0
  0
LINE
  5
40A
330
40D
100
AcDbEntity
  8
0
 62
   230
370
    13
390
F
100
AcDbLine
 10
29.466478
 20
-2.219724
 30
0.0
 11
72.60981
 21
-15.859358
 31
0.0
  0
LWPOLYLINE
  5
40B
330
40D
100
AcDbEntity
  8
0
 62
   230
370
    13
390
F
100
AcDbPolyline
 90
        3
 70
     1
 43
0.0
 10
29.778553
 20
-1.232604
 10
25.782497
 20
-1.055045
 10
29.154404
 20
-3.206845
  0
ENDBLK
  5
7FC
330
40D
100
AcDbEntity
  8
0
100
AcDbBlockEnd
  0
BLOCK
  5
7FD
330
416
100
AcDbEntity
  8
0
100
AcDbBlockBegin
  2
BLOCK283
 70
     0
 10
0.0
 20
0.0
 30
0.0
  3
BLOCK283
  1

  0
SOLID
  5
40F
330
416
100
AcDbEntity
  8
0
 62
     7
370
    13
390
F
100
AcDbTrace
 10
16.917126
 20
81.814606
 30
0.0
 11
15.499688
 21
78.074165
 31
0.0
 12
16.917126
 22
81.814606
 32
0.0
 13
18.597443
 23
80.604759
 33
0.0
  0
TEXT
  5
410
330
416
100
AcDbEntity
  8
0
 62
     7
370
    13
390
F
100
AcDbText
 10
49.664059
 20
132.369873
 30
0.0
 40
6.0
  1
3.5
 50
54.24584842979144
 41
1.501153720985658
 72
     5
 11
60.189701
 21
146.988678
 31
0.0
100
AcDbText
  0
TEXT
  5
411
330
416
100
AcDbEntity
  8
0
 62
     7
370
    13
390
F
100
AcDbText
 10
45.454342
 20
126.523109
 30
0.0
 40
6.0
  1
R
 50
54.2458129235722
 41
1.301151934647839
 72
     5
 11
48.495441
 21
130.746811
 31
0.0
100
AcDbText
  0
LINE
  5
412
330
416
100
AcDbEntity
  8
0
 62
     7
 48
0.0875
370
    13
390
F
100
AcDbLine
 10
13.454608
 20
75.233803
 30
0.0
 11
15.499689
 21
78.074165
 31
0.0
  0
LINE
  5
413
330
416
100
AcDbEntity
  8
0
 62
     7
370
    13
390
F
100
AcDbLine
 10
17.757286
 20
81.209679
 30
0.0
 11
63.435825
 21
144.651443
 31
0.0
  0
LWPOLYLINE
  5
414
330
416
100
AcDbEntity
  8
0
 62
     7
370
    13
390
F
100
AcDbPolyline
 90
        3
 70
     1
 43
0.0
 10
16.917126
 20
81.814606
 10
15.499688
 20
78.074165
 10
18.597443
 20
80.604759
  0
ENDBLK
  5
7FE
330
416
100
AcDbEntity
  8
0
100
AcDbBlockEnd
  0
BLOCK
  5
7FF
330
423
100
AcDbEntity
  8
0
100
AcDbBlockBegin
  2
BLOCK284
 70
     0
 10
0.0
 20
0.0
 30
0.0
  3
BLOCK284
  1

  0
SOLID
  5
418
330
423
100
AcDbEntity
  8
0
 62
   230
370
    13
390
F
100
AcDbTrace
 10
26.828711
 20
112.643532
 30
0.0
 11
22.829321
 21
112.573723
 31
0.0
 12
26.828711
 22
112.643532
 32
0.0
 13
26.327799
 23
110.634483
 33
0.0
  0
SOLID
  5
419
330
423
100
AcDbEntity
  8
0
 62
   230
370
    13
390
F
100
AcDbTrace
 10
11.067564
 20
114.439293
 30
0.0
 11
15.066955
 21
114.509102
 31
0.0
 12
11.067564
 22
114.439293
 32
0.0
 13
11.568476
 23
116.448334
 33
0.0
  0
TEXT
  5
41A
330
423
100
AcDbEntity
  8
0
 62
   230
370
    13
390
F
100
AcDbText
 10
-6.677543
 20
124.053062
 30
0.0
 40
6.0
  1
8
 50
346.0000043398926
 41
1.301152774322278
 72
     5
 11
-1.627531
 21
122.793953
 31
0.0
100
AcDbText
  0
LINE
  5
41B
330
423
100
AcDbEntity
  8
0
 62
   230
370
    13
390
F
100
AcDbLine
 10
7.083844
 20
82.490593
 30
0.0
 11
16.034641
 21
118.390282
 31
0.0
  0
LINE
  5
41C
330
423
100
AcDbEntity
  8
0
 62
   230
370
    13
390
F
100
AcDbLine
 10
14.84621
 20
80.555214
 30
0.0
 11
23.797009
 21
116.45491
 31
0.0
  0
LINE
  5
41D
330
423
100
AcDbEntity
  8
0
 62
   230
 48
0.488595
370
    13
390
F
100
AcDbLine
 10
-7.64523
 20
120.171883
 30
0.0
 11
11.31802
 21
115.44381
 31
0.0
  0
LINE
  5
41E
330
423
100
AcDbEntity
  8
0
 62
   230
 48
0.2
370
    13
390
F
100
AcDbLine
 10
15.066954
 20
114.509094
 30
0.0
 11
22.829321
 21
112.573723
 31
0.0
  0
LINE
  5
41F
330
423
100
AcDbEntity
  8
0
 62
   230
 48
0.153407
370
    13
390
F
100
AcDbLine
 10
26.578255
 20
111.639008
 30
0.0
 11
32.532276
 21
110.154503
 31
0.0
  0
LWPOLYLINE
  5
420
330
423
100
AcDbEntity
  8
0
 62
   230
370
    13
390
F
100
AcDbPolyline
 90
        3
 70
     1
 43
0.0
 10
26.828711
 20
112.643532
 10
22.829321
 20
112.573723
 10
26.327799
 20
110.634483
  0
LWPOLYLINE
  5
421
330
423
100
AcDbEntity
  8
0
 62
   230
370
    13
390
F
100
AcDbPolyline
 90
        3
 70
     1
 43
0.0
 10
11.067564
 20
114.439293
 10
15.066955
 20
114.509102
 10
11.568476
 20
116.448334
  0
ENDBLK
  5
800
330
423
100
AcDbEntity
  8
0
100
AcDbBlockEnd
  0
BLOCK
  5
801
330
431
100
AcDbEntity
  8
0
100
AcDbBlockBegin
  2
BLOCK285
 70
     0
 10
0.0
 20
0.0
 30
0.0
  3
BLOCK285
  1

  0
SOLID
  5
425
330
431
100
AcDbEntity
  8
0
 62
   230
370
    13
390
F
100
AcDbTrace
 10
53.14394
 20
64.96331
 30
0.0
 11
53.074131
 21
68.9627
 31
0.0
 12
53.14394
 22
64.96331
 32
0.0
 13
51.134892
 23
65.464218
 33
0.0
  0
SOLID
  5
426
330
431
100
AcDbEntity
  8
0
 62
   230
370
    13
390
F
100
AcDbTrace
 10
53.461597
 20
84.413704
 30
0.0
 11
54.496872
 21
80.550003
 31
0.0
 12
53.461597
 22
84.413704
 32
0.0
 13
55.53215
 23
84.413704
 33
0.0
  0
TEXT
  5
427
330
431
100
AcDbEntity
  8
0
 62
   230
370
    13
390
F
100
AcDbText
 10
44.603951
 20
57.16819
 30
0.0
 40
6.0
  1
14
 50
68.73258389792457
 41
1.451153316572271
 72
     5
 11
48.814865
 21
67.986801
 31
0.0
100
AcDbText
  0
TEXT
  5
428
330
431
100
AcDbEntity
  8
0
 62
   230
370
    13
390
F
100
AcDbText
 10
47.696587
 20
68.422066
 30
0.0
 40
6.0
  1
%%d
 50
68.7326647689844
 41
2.200002714109066
 72
     5
 11
49.292557
 21
72.522423
 31
0.0
100
AcDbText
  0
LINE
  5
429
330
431
100
AcDbEntity
  8
0
 62
   230
370
    13
390
F
100
AcDbLine
 10
13.952894
 20
78.716721
 30
0.0
 11
56.955315
 21
67.99501
 31
0.0
  0
LINE
  5
42A
330
431
100
AcDbEntity
  8
0
 62
   230
370
    13
390
F
100
AcDbLine
 10
30.736877
 20
80.550003
 30
0.0
 11
58.496872
 21
80.550003
 31
0.0
  0
ARC
  5
42B
330
431
100
AcDbEntity
  8
0
 62
   230
370
    13
390
F
100
AcDbCircle
 10
6.6
 20
80.550003
 30
0.0
 40
47.896873
100
AcDbArc
 50
326.427554
 51
341.373074
  0
ARC
  5
42C
330
431
100
AcDbEntity
  8
0
 62
   230
370
    13
390
F
100
AcDbCircle
 10
6.6
 20
80.550003
 30
0.0
 40
47.896873
100
AcDbArc
 50
346.000008
 51
0.00001
  0
ARC
  5
42D
330
431
100
AcDbEntity
  8
0
 62
   230
370
    13
390
F
100
AcDbCircle
 10
6.6
 20
80.550003
 30
0.0
 40
47.896873
100
AcDbArc
 50
4.626917
 51
11.962349
  0
LWPOLYLINE
  5
42E
330
431
100
AcDbEntity
  8
0
 62
   230
370
    13
390
F
100
AcDbPolyline
 90
        3
 70
     1
 43
0.0
 10
53.14394
 20
64.96331
 10
53.074131
 20
68.9627
 10
51.134892
 20
65.464218
  0
LWPOLYLINE
  5
42F
330
431
100
AcDbEntity
  8
0
 62
   230
370
    13
390
F
100
AcDbPolyline
 90
        3
 70
     1
 43
0.0
 10
53.461597
 20
84.413704
 10
54.496872
 20
80.550003
 10
55.53215
 20
84.413704
  0
ENDBLK
  5
802
330
431
100
AcDbEntity
  8
0
100
AcDbBlockEnd
  0
BLOCK
  5
803
330
43C
100
AcDbEntity
  8
0
100
AcDbBlockBegin
  2
BLOCK286
 70
     0
 10
0.0
 20
0.0
 30
0.0
  3
BLOCK286
  1

  0
SOLID
  5
433
330
43C
100
AcDbEntity
  8
0
 62
     7
370
    13
390
F
100
AcDbTrace
 10
-55.716545
 20
-76.686295
 30
0.0
 11
-54.681267
 21
-80.550003
 31
0.0
 12
-55.716545
 22
-76.686295
 32
0.0
 13
-53.645992
 23
-76.686295
 33
0.0
  0
SOLID
  5
434
330
43C
100
AcDbEntity
  8
0
 62
     7
370
    13
390
F
100
AcDbTrace
 10
-53.645992
 20
76.686295
 30
0.0
 11
-54.681267
 21
80.550003
 31
0.0
 12
-53.645992
 22
76.686295
 32
0.0
 13
-55.716545
 23
76.686295
 33
0.0
  0
TEXT
  5
435
330
43C
100
AcDbEntity
  8
0
 62
     7
370
    13
390
F
100
AcDbText
 10
-58.681267
 20
-26.307556
 30
0.0
 40
6.0
  1
161.1
 50
90.0
 41
1.712392111111111
 72
     5
 11
-58.681267
 21
4.515502
 31
0.0
100
AcDbText
  0
LINE
  5
436
330
43C
100
AcDbEntity
  8
0
 62
     7
370
    13
390
F
100
AcDbLine
 10
4.6
 20
-80.550003
 30
0.0
 11
-58.681267
 21
-80.550003
 31
0.0
  0
LINE
  5
437
330
43C
100
AcDbEntity
  8
0
 62
     7
370
    13
390
F
100
AcDbLine
 10
4.6
 20
80.550003
 30
0.0
 11
-58.681267
 21
80.550003
 31
0.0
  0
LINE
  5
438
330
43C
100
AcDbEntity
  8
0
 62
     7
370
    13
390
F
100
AcDbLine
 10
-54.681267
 20
-76.686295
 30
0.0
 11
-54.681267
 21
76.686295
 31
0.0
  0
LWPOLYLINE
  5
439
330
43C
100
AcDbEntity
  8
0
 62
     7
370
    13
390
F
100
AcDbPolyline
 90
        3
 70
     1
 43
0.0
 10
-55.716545
 20
-76.686295
 10
-54.681267
 20
-80.550003
 10
-53.645992
 20
-76.686295
  0
LWPOLYLINE
  5
43A
330
43C
100
AcDbEntity
  8
0
 62
     7
370
    13
390
F
100
AcDbPolyline
 90
        3
 70
     1
 43
0.0
 10
-53.645992
 20
76.686295
 10
-54.681267
 20
80.550003
 10
-55.716545
 20
76.686295
  0
ENDBLK
  5
804
330
43C
100
AcDbEntity
  8
0
100
AcDbBlockEnd
  0
BLOCK
  5
805
330
449
100
AcDbEntity
  8
0
100
AcDbBlockBegin
  2
BLOCK287
 70
     0
 10
0.0
 20
0.0
 30
0.0
  3
BLOCK287
  1

  0
SOLID
  5
43E
330
449
100
AcDbEntity
  8
0
 62
     7
370
    13
390
F
100
AcDbTrace
 10
66.123985
 20
-61.10865
 30
0.0
 11
68.063225
 21
-64.607132
 31
0.0
 12
66.123985
 22
-61.10865
 32
0.0
 13
68.133034
 23
-60.607738
 33
0.0
  0
SOLID
  5
43F
330
449
100
AcDbEntity
  8
0
 62
     7
370
    13
390
F
100
AcDbTrace
 10
70.147621
 20
-68.687782
 30
0.0
 11
68.208382
 21
-65.189308
 31
0.0
 12
70.147621
 22
-68.687782
 32
0.0
 13
68.138573
 23
-69.188698
 33
0.0
  0
TEXT
  5
440
330
449
100
AcDbEntity
  8
0
 62
     7
370
    13
390
F
100
AcDbText
 10
75.653137
 20
-78.514351
 30
0.0
 40
6.0
  1
0.6
 50
284.0000020562348
 41
1.637621086500339
 72
     5
 11
80.011078
 21
-95.993095
 31
0.0
100
AcDbText
  0
LINE
  5
441
330
449
100
AcDbEntity
  8
0
 62
     7
370
    13
390
F
100
AcDbLine
 10
16.096773
 20
-77.56382
 30
0.0
 11
71.944412
 21
-63.639442
 31
0.0
  0
LINE
  5
442
330
449
100
AcDbEntity
  8
0
 62
     7
370
    13
390
F
100
AcDbLine
 10
16.241926
 20
-78.145996
 30
0.0
 11
72.089561
 21
-64.221619
 31
0.0
  0
LINE
  5
443
330
449
100
AcDbEntity
  8
0
 62
     7
 48
0.153407
370
    13
390
F
100
AcDbLine
 10
65.644005
 20
-54.904171
 30
0.0
 11
67.12851
 21
-60.858192
 31
0.0
  0
LINE
  5
444
330
449
100
AcDbEntity
  8
0
 62
     7
 48
0.015
370
    13
390
F
100
AcDbLine
 10
68.063225
 20
-64.607132
 30
0.0
 11
68.208382
 21
-65.189308
 31
0.0
  0
LINE
  5
445
330
449
100
AcDbEntity
  8
0
 62
     7
370
    13
390
F
100
AcDbLine
 10
69.143089
 20
-68.93824
 30
0.0
 11
76.129898
 21
-96.960777
 31
0.0
  0
LWPOLYLINE
  5
446
330
449
100
AcDbEntity
  8
0
 62
     7
370
    13
390
F
100
AcDbPolyline
 90
        3
 70
     1
 43
0.0
 10
66.123985
 20
-61.10865
 10
68.063225
 20
-64.607132
 10
68.133034
 20
-60.607738
  0
LWPOLYLINE
  5
447
330
449
100
AcDbEntity
  8
0
 62
     7
370
    13
390
F
100
AcDbPolyline
 90
        3
 70
     1
 43
0.0
 10
70.147621
 20
-68.687782
 10
68.208382
 20
-65.189308
 10
68.138573
 20
-69.188698
  0
ENDBLK
  5
806
330
449
100
AcDbEntity
  8
0
100
AcDbBlockEnd
  0
BLOCK
  5
807
330
44E
100
AcDbEntity
  8
0
100
AcDbBlockBegin
  2
BLOCK288
 70
     0
 10
0.0
 20
0.0
 30
0.0
  3
BLOCK288
  1

  0
LINE
  5
44B
330
44E
100
AcDbEntity
  8
0
  6
DASHDOT
 62
     7
370
    13
390
F
100
AcDbLine
 10
72.828644
 20
28.9
 30
0.0
 11
49.483475
 21
28.9
 31
0.0
  0
LINE
  5
44C
330
44E
100
AcDbEntity
  8
0
  6
DASHDOT
 62
     7
370
    13
390
F
100
AcDbLine
 10
61.156059
 20
40.572586
 30
0.0
 11
61.156059
 21
17.227415
 31
0.0
  0
ENDBLK
  5
808
330
44E
100
AcDbEntity
  8
0
100
AcDbBlockEnd
  0
BLOCK
  5
809
330
469
100
AcDbEntity
  8
0
100
AcDbBlockBegin
  2
BLOCK289
 70
     0
 10
0.0
 20
0.0
 30
0.0
  3
BLOCK289
  1

  0
ARC
  5
450
330
469
100
AcDbEntity
  8
0
 62
     7
370
    40
390
F
100
AcDbCircle
 10
36.599998
 20
41.5
 30
0.0
 40
36.0
100
AcDbArc
 50
152.837108
 51
207.05794
  0
ARC
  5
451
330
469
100
AcDbEntity
  8
0
 62
     7
370
    40
390
F
100
AcDbCircle
 10
61.179096
 20
54.055
 30
0.0
 40
63.6
100
AcDbArc
 50
207.05794
 51
234.376033
  0
ARC
  5
452
330
469
100
AcDbEntity
  8
0
 62
     7
370
    40
390
F
100
AcDbCircle
 10
22.445299
 20
0.0
 30
0.0
 40
2.9
100
AcDbArc
 50
305.623969
 51
54.376031
  0
ARC
  5
453
330
469
100
AcDbEntity
  8
0
 62
     7
370
    40
390
F
100
AcDbCircle
 10
22.445299
 20
0.0
 30
0.0
 40
3.5
100
AcDbArc
 50
305.623969
 51
54.376031
  0
ARC
  5
454
330
469
100
AcDbEntity
  8
0
 62
     7
370
    40
390
F
100
AcDbCircle
 10
36.599998
 20
-41.5
 30
0.0
 40
35.4
100
AcDbArc
 50
152.94206
 51
207.162892
  0
ARC
  5
455
330
469
100
AcDbEntity
  8
0
 62
     7
370
    40
390
F
100
AcDbCircle
 10
61.156059
 20
-28.9
 30
0.0
 40
63.0
100
AcDbArc
 50
207.162892
 51
224.166758
  0
ARC
  5
456
330
469
100
AcDbEntity
  8
0
 62
     7
370
    40
390
F
100
AcDbCircle
 10
13.454608
 20
-75.233803
 30
0.0
 40
3.5
100
AcDbArc
 50
284.0
 51
44.166752
  0
LINE
  5
457
330
469
100
AcDbEntity
  8
0
 62
     7
 48
0.198428
370
    40
390
F
100
AcDbLine
 10
6.6
 20
-80.550003
 30
0.0
 11
14.301334
 21
-78.629845
 31
0.0
  0
LINE
  5
458
330
469
100
AcDbEntity
  8
0
 62
     7
 48
0.015
370
    40
390
F
100
AcDbLine
 10
6.6
 20
-80.550003
 30
0.0
 11
6.454847
 21
-79.967819
 31
0.0
  0
LINE
  5
459
330
469
100
AcDbEntity
  8
0
 62
     7
 48
0.198428
370
    40
390
F
100
AcDbLine
 10
6.454847
 20
-79.967819
 30
0.0
 11
14.156181
 21
-78.047661
 31
0.0
  0
ARC
  5
45A
330
469
100
AcDbEntity
  8
0
 62
     7
370
    40
390
F
100
AcDbCircle
 10
13.454608
 20
-75.233803
 30
0.0
 40
2.9
100
AcDbArc
 50
284.0
 51
44.166752
  0
ARC
  5
45B
330
469
100
AcDbEntity
  8
0
 62
     7
370
    40
390
F
100
AcDbCircle
 10
61.156059
 20
-28.9
 30
0.0
 40
63.6
100
AcDbArc
 50
207.162892
 51
224.166758
  0
ARC
  5
45C
330
469
100
AcDbEntity
  8
0
 62
     7
370
    40
390
F
100
AcDbCircle
 10
36.599998
 20
-41.5
 30
0.0
 40
36.0
100
AcDbArc
 50
152.94206
 51
207.162892
  0
ARC
  5
45D
330
469
100
AcDbEntity
  8
0
 62
     7
370
    40
390
F
100
AcDbCircle
 10
61.179096
 20
-54.055
 30
0.0
 40
63.6
100
AcDbArc
 50
125.623967
 51
152.94206
  0
ARC
  5
45E
330
469
100
AcDbEntity
  8
0
 62
     7
370
    40
390
F
100
AcDbCircle
 10
13.454608
 20
75.233803
 30
0.0
 40
2.9
100
AcDbArc
 50
315.833248
 51
76.0
  0
LINE
  5
45F
330
469
100
AcDbEntity
  8
0
 62
     7
 48
0.198428
370
    40
390
F
100
AcDbLine
 10
6.454847
 20
79.967819
 30
0.0
 11
14.156181
 21
78.047661
 31
0.0
  0
LINE
  5
460
330
469
100
AcDbEntity
  8
0
 62
     7
 48
0.015
370
    40
390
F
100
AcDbLine
 10
6.6
 20
80.550003
 30
0.0
 11
6.454847
 21
79.967819
 31
0.0
  0
LINE
  5
461
330
469
100
AcDbEntity
  8
0
 62
     7
 48
0.198428
370
    40
390
F
100
AcDbLine
 10
6.6
 20
80.550003
 30
0.0
 11
14.301334
 21
78.629845
 31
0.0
  0
ARC
  5
462
330
469
100
AcDbEntity
  8
0
 62
     7
370
    40
390
F
100
AcDbCircle
 10
13.454608
 20
75.233803
 30
0.0
 40
3.5
100
AcDbArc
 50
315.833248
 51
76.0
  0
ARC
  5
463
330
469
100
AcDbEntity
  8
0
 62
     7
370
    40
390
F
100
AcDbCircle
 10
61.156059
 20
28.9
 30
0.0
 40
63.0
100
AcDbArc
 50
135.833242
 51
152.837108
  0
ARC
  5
464
330
469
100
AcDbEntity
  8
0
 62
     7
370
    40
390
F
100
AcDbCircle
 10
61.179096
 20
54.055
 30
0.0
 40
63.0
100
AcDbArc
 50
207.05794
 51
234.376033
  0
ARC
  5
465
330
469
100
AcDbEntity
  8
0
 62
     7
370
    40
390
F
100
AcDbCircle
 10
61.179096
 20
-54.055
 30
0.0
 40
63.0
100
AcDbArc
 50
125.623967
 51
152.94206
  0
ARC
  5
466
330
469
100
AcDbEntity
  8
0
 62
     7
370
    40
390
F
100
AcDbCircle
 10
61.156059
 20
28.9
 30
0.0
 40
63.6
100
AcDbArc
 50
135.833242
 51
152.837108
  0
ARC
  5
467
330
469
100
AcDbEntity
  8
0
 62
     7
370
    40
390
F
100
AcDbCircle
 10
36.599998
 20
41.5
 30
0.0
 40
35.4
100
AcDbArc
 50
152.837108
 51
207.05794
  0
ENDBLK
  5
80A
330
469
100
AcDbEntity
  8
0
100
AcDbBlockEnd
  0
BLOCK
  5
80B
330
46F
100
AcDbEntity
  8
0
100
AcDbBlockBegin
  2
BLOCK290
 70
     0
 10
0.0
 20
0.0
 30
0.0
  3
BLOCK290
  1

  0
TEXT
  5
46B
330
46F
100
AcDbEntity
  8
0
 62
     7
370
    13
390
F
100
AcDbText
 10
-272.194794
 20
-482.259186
 30
0.0
 40
7.0
  1
Vista isometrica
 41
0.9913543469387756
 72
     5
 11
-175.042068
 21
-482.259186
 31
0.0
100
AcDbText
  0
TEXT
  5
46C
330
46F
100
AcDbEntity
  8
0
 62
     7
370
    13
390
F
100
AcDbText
 10
-272.194794
 20
-494.352844
 30
0.0
 40
7.0
  1
Scala:
 41
1.156580380952381
 72
     5
 11
-235.762512
 21
-494.352844
 31
0.0
100
AcDbText
  0
TEXT
  5
46D
330
46F
100
AcDbEntity
  8
0
 62
     7
370
    13
390
F
100
AcDbText
 10
-235.762512
 20
-494.352844
 30
0.0
 40
7.0
  1
  1:2
 41
0.7653839243697472
 72
     5
 11
-205.402283
 21
-494.352844
 31
0.0
100
AcDbText
  0
ENDBLK
  5
80C
330
46F
100
AcDbEntity
  8
0
100
AcDbBlockEnd
  0
BLOCK
  5
80D
330
4DD
100
AcDbEntity
  8
0
100
AcDbBlockBegin
  2
BLOCK291
 70
     0
 10
0.0
 20
0.0
 30
0.0
  3
BLOCK291
  1

  0
LINE
  5
471
330
4DD
100
AcDbEntity
  8
0
 62
     7
 48
0.378509
370
    40
390
F
100
AcDbLine
 10
-282.4328
 20
-239.601166
 30
0.0
 11
-293.253143
 21
-250.191269
 31
0.0
  0
ELLIPSE
  5
472
330
4DD
100
AcDbEntity
  8
0
 62
     7
370
    40
390
F
100
AcDbEllipse
 10
-580.726135
 20
-494.174011
 30
0.0
 11
-25.18066215515137
 21
25.72808265686035
 31
0.0
210
0.0
220
0.0
230
0.9999999999999999
 40
0.7255240000000001
 41
1.529606502711594
 42
2.475938495418686
  0
ARC
  5
473
330
4DD
100
AcDbEntity
  8
0
 62
     7
370
    40
390
F
100
AcDbCircle
 10
-380.958923
 20
-324.257019
 30
0.0
 40
5.217945
100
AcDbArc
 50
65.09089
 51
82.116134
  0
SPLINE
  5
474
330
4DD
100
AcDbEntity
  8
0
 62
     7
370
    40
390
F
100
AcDbSpline
210
0.0
220
0.0
230
1.0
 70
     8
 71
     3
 72
    28
 73
    24
 74
     0
 42
0.0
 43
0.0
 40
0.0
 40
0.0
 40
0.0
 40
0.0
 40
0.0896650153480689
 40
0.1803768755490154
 40
0.272554212277211
 40
0.3665811416841681
 40
0.4628009542476868
 40
0.5615116929218614
 40
0.6629627906022652
 40
0.7673546818450017
 40
0.8748399883716442
 40
0.9855256830363304
 40
1.099475861216731
 40
1.216714830311279
 40
1.337230307875699
 40
1.460976587092447
 40
1.587877581457397
 40
1.717829481370884
 40
1.850702039536378
 40
1.986341259123324
 40
2.124572260614502
 40
2.26520168141705
 40
2.408019935188016
 40
2.408019935188016
 40
2.408019935188016
 40
2.408019935188016
 10
-377.2482870126538
 20
-321.2451034708625
 30
0.0
 10
-377.2482430100901
 20
-321.2151972515804
 30
0.0
 10
-377.2507347989268
 20
-321.1550644363536
 30
0.0
 10
-377.2620872876847
 20
-321.0648157126895
 30
0.0
 10
-377.2810219478276
 20
-320.9743747798932
 30
0.0
 10
-377.3074703459091
 20
-320.8839292773437
 30
0.0
 10
-377.3413455118092
 20
-320.7936731571234
 30
0.0
 10
-377.3825444583325
 20
-320.7037939264428
 30
0.0
 10
-377.4309472671903
 20
-320.6144770998533
 30
0.0
 10
-377.4864179779664
 20
-320.5259061797122
 30
0.0
 10
-377.5488049636228
 20
-320.4382634297697
 30
0.0
 10
-377.6179412882783
 20
-320.3517300829075
 30
0.0
 10
-377.6936449749218
 20
-320.266486489366
 30
0.0
 10
-377.7757192747535
 20
-320.1827120921536
 30
0.0
 10
-377.8639529604353
 20
-320.1005852945605
 30
0.0
 10
-377.9581206545367
 20
-320.0202832238747
 30
0.0
 10
-378.0579831574418
 20
-319.9419815011352
 30
0.0
 10
-378.1632873618888
 20
-319.8658540799107
 30
0.0
 10
-378.273766787746
 20
-319.792073897727
 30
0.0
 10
-378.3891418122781
 20
-319.720812310496
 30
0.0
 10
-378.5091196692475
 20
-319.6522388150555
 30
0.0
 10
-378.6333980605951
 20
-319.586519251229
 30
0.0
 10
-378.7182919950289
 20
-319.5450185876414
 30
0.0
 10
-378.7613799008311
 20
-319.5247663749354
 30
0.0
  0
SPLINE
  5
475
330
4DD
100
AcDbEntity
  8
0
 62
     7
370
    40
390
F
100
AcDbSpline
210
0.0
220
0.0
230
1.0
 70
     8
 71
     3
 72
    27
 73
    23
 74
     0
 42
0.0
 43
0.0
 40
0.0
 40
0.0
 40
0.0
 40
0.0
 40
0.1255988858705128
 40
0.2530448649574087
 40
0.3829778519095282
 40
0.5159714513721945
 40
0.6525205117281948
 40
0.7930329960755717
 40
0.937826753449582
 40
1.087128177373152
 40
1.241073426702908
 40
1.399712550672295
 40
1.563014808423211
 40
1.730874583272724
 40
1.903117496620652
 40
2.079506474927485
 40
2.259747743537053
 40
2.443495971792767
 40
2.630357363373281
 40
2.819895035474142
 40
3.011635107955674
 40
3.205072799031652
 40
3.205072799031652
 40
3.205072799031652
 40
3.205072799031652
 10
-383.0845423428588
 20
-320.0710770934927
 30
0.0
 10
-383.0673453321681
 20
-320.0328672535734
 30
0.0
 10
-383.0288037018632
 20
-319.9577091851071
 30
0.0
 10
-382.959496781544
 20
-319.8502487690683
 30
0.0
 10
-382.8787227119781
 20
-319.7479902431982
 30
0.0
 10
-382.786838651573
 20
-319.651366704433
 30
0.0
 10
-382.6842531882627
 20
-319.5607916423323
 30
0.0
 10
-382.5714125229298
 20
-319.4766322788151
 30
0.0
 10
-382.4487997564168
 20
-319.3992188890321
 30
0.0
 10
-382.3169335478571
 20
-319.3288424327108
 30
0.0
 10
-382.1763674139366
 20
-319.2657547601169
 30
0.0
 10
-382.0276875547875
 20
-319.2101694383944
 30
0.0
 10
-381.8715108510084
 20
-319.1622618957707
 30
0.0
 10
-381.7084826487051
 20
-319.1221695657295
 30
0.0
 10
-381.5392744584531
 20
-319.0899919915624
 30
0.0
 10
-381.3645815087786
 20
-319.0657910748457
 30
0.0
 10
-381.1851203169484
 20
-319.0495911240384
 30
0.0
 10
-381.0016269313321
 20
-319.0413824528523
 30
0.0
 10
-380.814855238725
 20
-319.0411204379356
 30
0.0
 10
-380.6255763958977
 20
-319.0487268892302
 30
0.0
 10
-380.4345694222685
 20
-319.0640926764922
 30
0.0
 10
-380.3070624300008
 20
-319.0793616727893
 30
0.0
 10
-380.2431891227602
 20
-319.088239848312
 30
0.0
  0
LINE
  5
476
330
4DD
100
AcDbEntity
  8
0
 62
     7
 48
0.367561
370
    40
390
F
100
AcDbLine
 10
-315.426575
 20
-239.936417
 30
0.0
 11
-304.919189
 21
-229.652603
 31
0.0
  0
ELLIPSE
  5
477
330
4DD
100
AcDbEntity
  8
0
 62
     7
370
    40
390
F
100
AcDbEllipse
 10
-289.069031
 20
-208.722565
 30
0.0
 11
25.18066215515137
 21
-25.72808265686035
 31
0.0
210
0.0
220
0.0
230
0.9999999999999999
 40
0.7255240000000001
 41
4.820137837649005
 42
5.548347693702219
  0
ELLIPSE
  5
478
330
4DD
100
AcDbEntity
  8
0
 62
     7
370
    40
390
F
100
AcDbEllipse
 10
-299.889374
 20
-219.312668
 30
0.0
 11
-24.76098442077637
 21
25.29928207397461
 31
0.0
210
0.0
220
0.0
230
0.9999999999999998
 40
0.7255240000000001
 41
1.672825958689961
 42
2.425708844513791
  0
ELLIPSE
  5
479
330
4DD
100
AcDbEntity
  8
0
 62
     7
370
    40
390
F
100
AcDbEllipse
 10
-3.079754
 20
-35.762638
 30
0.0
 11
-44.06615829467773
 21
45.02414703369141
 31
0.0
210
0.0
220
0.0
230
1.0
 40
0.725524
 41
1.054647604241877
 42
1.531438184641535
  0
ELLIPSE
  5
47A
330
4DD
100
AcDbEntity
  8
0
 62
     7
370
    40
390
F
100
AcDbEllipse
 10
-56.025063
 20
-41.65802
 30
0.0
 11
-2.448119878768921
 21
2.501341342926025
 31
0.0
210
0.0
220
0.0
230
1.0
 40
0.7255239999999998
 41
4.19624025783167
 42
6.094321729408137
  0
ELLIPSE
  5
47B
330
4DD
100
AcDbEntity
  8
0
 62
     7
370
    40
390
F
100
AcDbEllipse
 10
-95.238701
 20
11.358175
 30
0.0
 11
-44.06615829467773
 21
45.02414703369141
 31
0.0
210
0.0
220
0.0
230
1.0
 40
0.725524
 41
2.475938495418687
 42
2.952729075818347
  0
ELLIPSE
  5
47C
330
4DD
100
AcDbEntity
  8
0
 62
     7
370
    40
390
F
100
AcDbEllipse
 10
-88.892937
 20
-12.805647
 30
0.0
 11
-24.76098442077637
 21
25.29928207397461
 31
0.0
210
0.0
220
0.0
230
0.9999999999999998
 40
0.7255240000000001
 41
1.529606502711593
 42
2.475938495418688
  0
ELLIPSE
  5
47D
330
4DD
100
AcDbEntity
  8
0
 62
     7
370
    40
390
F
100
AcDbEllipse
 10
-73.799271
 20
0.3766
 30
0.0
 11
-44.06615829467773
 21
45.02414703369141
 31
0.0
210
0.0
220
0.0
230
1.0
 40
0.725524
 41
1.232833098145382
 42
1.529606502711594
  0
ELLIPSE
  5
47E
330
4DD
100
AcDbEntity
  8
0
 62
     7
370
    40
390
F
100
AcDbEllipse
 10
-121.752182
 20
-15.703751
 30
0.0
 11
-2.448119878768921
 21
2.501341342926025
 31
0.0
210
0.0
220
0.0
230
1.0
 40
0.7255239999999998
 41
4.374425751735171
 42
6.283185067156991
  0
LINE
  5
47F
330
4DD
100
AcDbEntity
  8
0
 62
     7
 48
0.167476
370
    40
390
F
100
AcDbLine
 10
9.831524
 20
-88.816368
 30
0.0
 11
9.55979
 21
-82.122833
 31
0.0
  0
ELLIPSE
  5
480
330
4DD
100
AcDbEntity
  8
0
 62
     7
370
    40
390
F
100
AcDbEllipse
 10
6.514734
 20
-81.286545
 30
0.0
 11
-2.448119878768921
 21
2.501341342926025
 31
0.0
210
0.0
220
0.0
230
1.0
 40
0.7255239999999998
 41
3.818830762104213
 42
5.916136235504631
  0
ELLIPSE
  5
481
330
4DD
100
AcDbEntity
  8
0
 62
     7
370
    40
390
F
100
AcDbEllipse
 10
-24.527351
 20
-24.816101
 30
0.0
 11
-44.06615829467773
 21
45.02414703369141
 31
0.0
210
0.0
220
0.0
230
1.0
 40
0.725524
 41
2.477770177348628
 42
2.774543581914841
  0
ELLIPSE
  5
482
330
4DD
100
AcDbEntity
  8
0
 62
     7
370
    40
390
F
100
AcDbEllipse
 10
-18.139147
 20
-48.982018
 30
0.0
 11
-24.76098442077637
 21
25.29928207397461
 31
0.0
210
0.0
220
0.0
230
0.9999999999999998
 40
0.7255240000000001
 41
1.531438184641535
 42
2.477770177348628
  0
SPLINE
  5
483
330
4DD
100
AcDbEntity
  8
0
 62
     7
370
    40
390
F
100
AcDbSpline
210
0.0
220
0.0
230
1.0
 70
     8
 71
     3
 72
    80
 73
    76
 74
     0
 42
0.0
 43
0.0
 40
0.0
 40
0.0
 40
0.0
 40
0.0
 40
0.3408608616793478
 40
0.6930640380236304
 40
1.057092022577007
 40
1.433353399983176
 40
1.82218751181108
 40
2.223869236466565
 40
2.638613676157839
 40
3.0665806215629
 40
3.507878716849979
 40
3.962569285930005
 40
4.43066984110292
 40
4.912157094435571
 40
5.406967262847224
 40
5.914997132322996
 40
6.436106110520841
 40
6.970118068191544
 40
7.516822971406492
 40
8.075978331781492
 40
8.647310501347077
 40
9.230515837720821
 40
9.825261730501618
 40
10.43118560483854
 40
11.0478938493735
 40
11.67496471390976
 40
12.3119496591086
 40
12.95837452756147
 40
13.61374073913519
 40
14.27752652138368
 40
14.94918818490411
 40
15.62816145256579
 40
16.31386285056635
 40
17.005691167066
 40
17.70302842231232
 40
18.40524425520847
 40
19.11170420053842
 40
19.82177214245352
 40
20.53481200528734
 40
21.25018953455427
 40
21.96727416051725
 40
22.68544093611427
 40
23.40407254057654
 40
24.12256187707244
 40
24.84031960922561
 40
25.55677943602125
 40
26.27139904351271
 40
26.9836612403153
 40
27.69307509232
 40
28.39917704313104
 40
29.10153201003668
 40
29.79973444608425
 40
30.49340936761656
 40
31.18221543467367
 40
31.86584680066512
 40
32.54402684443311
 40
33.21650755206972
 40
33.88306980265479
 40
34.54352359005742
 40
35.19770817903725
 40
35.84549219453904
 40
36.48677364372687
 40
37.12147987094
 40
37.74956740950473
 40
38.3710192466598
 40
38.98583787675219
 40
39.59404333682347
 40
40.19567308069671
 40
40.79078182541109
 40
41.37944135855737
 40
41.96174030824975
 40
42.53778387758845
 40
43.10769354558597
 40
43.67160673665911
 40
44.22967646091691
 40
44.22967646091691
 40
44.22967646091691
 40
44.22967646091691
 10
-132.4862300027573
 20
-96.71877724327663
 30
0.0
 10
-132.4553413758764
 20
-96.60940510641053
 30
0.0
 10
-132.3859888102803
 20
-96.3889320009323
 30
0.0
 10
-132.261890910672
 20
-96.05895590106256
 30
0.0
 10
-132.1161151160024
 20
-95.72507591061725
 30
0.0
 10
-131.9487162035838
 20
-95.38781763469689
 30
0.0
 10
-131.7597881704615
 20
-95.04771260200417
 30
0.0
 10
-131.5494571358774
 20
-94.70527437674363
 30
0.0
 10
-131.3178823917277
 20
-94.36100301421304
 30
0.0
 10
-131.0652551076422
 20
-94.01538160426537
 30
0.0
 10
-130.7917976493395
 20
-93.66887512920599
 30
0.0
 10
-130.4977626377487
 20
-93.3219288073357
 30
0.0
 10
-130.1834321715866
 20
-92.97496664196349
 30
0.0
 10
-129.8491169982688
 20
-92.62839118337028
 30
0.0
 10
-129.4951566558248
 20
-92.28258328347914
 30
0.0
 10
-129.1219198125547
 20
-91.93790173268785
 30
0.0
 10
-128.7298037254826
 20
-91.5946827773247
 30
0.0
 10
-128.3192335187817
 20
-91.25323934684783
 30
0.0
 10
-127.8906614208993
 20
-90.91386043230605
 30
0.0
 10
-127.4445660053504
 20
-90.5768105880251
 30
0.0
 10
-126.9814514288998
 20
-90.2423295593081
 30
0.0
 10
-126.5018466595742
 20
-89.91063206744597
 30
0.0
 10
-126.0063053041481
 20
-89.58190799950624
 30
0.0
 10
-125.4954057908498
 20
-89.25632337215524
 30
0.0
 10
-124.9697511089077
 20
-88.93402087791291
 30
0.0
 10
-124.429968155395
 20
-88.61511957888342
 30
0.0
 10
-123.8767059376906
 20
-88.29971505078838
 30
0.0
 10
-123.3106343270108
 20
-87.98787982432768
 30
0.0
 10
-122.7324428106361
 20
-87.67966400854014
 30
0.0
 10
-122.1428392186128
 20
-87.37509600585783
 30
0.0
 10
-121.5425484110804
 20
-87.07418332678603
 30
0.0
 10
-120.932310924824
 20
-86.77691349293102
 30
0.0
 10
-120.3128815724052
 20
-86.48325502639538
 30
0.0
 10
-119.6850281675052
 20
-86.1931585825607
 30
0.0
 10
-119.0495293361035
 20
-85.90655780356994
 30
0.0
 10
-118.4071700139124
 20
-85.6233699196285
 30
0.0
 10
-117.7587367880792
 20
-85.34349564353157
 30
0.0
 10
-117.105013867562
 20
-85.06681997118203
 30
0.0
 10
-116.4467810797056
 20
-84.79321387740491
 30
0.0
 10
-115.7848120914882
 20
-84.52253608284568
 30
0.0
 10
-115.1198726011082
 20
-84.25463475351174
 30
0.0
 10
-114.452718503168
 20
-83.98934911991826
 30
0.0
 10
-113.7840938590392
 20
-83.72651095346276
 30
0.0
 10
-113.1147271770803
 20
-83.46594524685665
 30
0.0
 10
-112.4453265880328
 20
-83.20747071274315
 30
0.0
 10
-111.7765755925426
 20
-82.95090029745631
 30
0.0
 10
-111.1091308504522
 20
-82.69604227501202
 30
0.0
 10
-110.4436212661584
 20
-82.44270174140603
 30
0.0
 10
-109.7806470559578
 20
-82.19068190802483
 30
0.0
 10
-109.1207788519791
 20
-81.93978523059636
 30
0.0
 10
-108.4645568524427
 20
-81.68981436727614
 30
0.0
 10
-107.8124900226777
 20
-81.4405729642818
 30
0.0
 10
-107.1650546984151
 20
-81.19186602028185
 30
0.0
 10
-106.5226929717051
 20
-80.94349994920196
 30
0.0
 10
-105.8858133456418
 20
-80.69528338269063
 30
0.0
 10
-105.2547925548504
 20
-80.44702824105272
 30
0.0
 10
-104.6299778840674
 20
-80.19855083083199
 30
0.0
 10
-104.0116874665935
 20
-79.94967204294403
 30
0.0
 10
-103.4002103483373
 20
-79.70021732200678
 30
0.0
 10
-102.7958066197591
 20
-79.45001652999035
 30
0.0
 10
-102.1987076191874
 20
-79.19890370738221
 30
0.0
 10
-101.6091162093041
 20
-78.94671673846196
 30
0.0
 10
-101.0272071433483
 20
-78.69329692385062
 30
0.0
 10
-100.453128280528
 20
-78.43848883075182
 30
0.0
 10
-99.88700394283833
 20
-78.1821409278001
 30
0.0
 10
-99.32893874397496
 20
-77.92410659851664
 30
0.0
 10
-98.77902056453827
 20
-77.66424487859861
 30
0.0
 10
-98.23732145634021
 20
-77.40242022535955
 30
0.0
 10
-97.7038980028282
 20
-77.13850202066338
 30
0.0
 10
-97.17879170241116
 20
-76.87236404204518
 30
0.0
 10
-96.66202942367754
 20
-76.60388393741246
 30
0.0
 10
-96.15362376070544
 20
-76.33294260445074
 30
0.0
 10
-95.65357391980275
 20
-76.05942384541926
 30
0.0
 10
-95.16186481715837
 20
-75.78321294743078
 30
0.0
 10
-94.83794891431644
 20
-75.59624870050523
 30
0.0
 10
-94.67740226607437
 20
-75.50227937289516
 30
0.0
  0
ELLIPSE
  5
484
330
4DD
100
AcDbEntity
  8
0
 62
     7
370
    40
390
F
100
AcDbEllipse
 10
-587.071899
 20
-470.010193
 30
0.0
 11
-44.48583602905273
 21
45.45294570922852
 31
0.0
210
0.0
220
0.0
230
0.9999999999999999
 40
0.725524
 41
2.475938495418687
 42
2.952729075818346
  0
SPLINE
  5
485
330
4DD
100
AcDbEntity
  8
0
 62
     7
370
    40
390
F
100
AcDbSpline
210
0.0
220
0.0
230
1.0
 70
     8
 71
     3
 72
    80
 73
    76
 74
     0
 42
0.0
 43
0.0
 40
0.0
 40
0.0
 40
0.0
 40
0.0
 40
0.340860861663236
 40
0.6930640379888036
 40
1.057092022518131
 40
1.433353399894626
 40
1.822187511688085
 40
2.223869236306522
 40
2.638613675960331
 40
3.066580621329943
 40
3.507878716584598
 40
3.96256928563464
 40
4.430669840776325
 40
4.912157094065912
 40
5.406967262414519
 40
5.914997131806744
 40
6.436106109905848
 40
6.970118067471114
 40
7.516822970583728
 40
8.075978330868189
 40
8.647310500360629
 40
9.230515836677798
 40
9.825261729410602
 40
10.43118560370332
 40
11.04789384820528
 40
11.67496471272262
 40
12.31194965791567
 40
12.95837452637148
 40
13.61374073795088
 40
14.27752652020167
 40
14.94918818371511
 40
15.62816145135718
 40
16.31386284932569
 40
17.00569116578498
 40
17.70302842099387
 40
18.40524425386722
 40
19.11170419919228
 40
19.8217721411166
 40
20.53481200396581
 40
21.25018953324436
 40
21.96727415920693
 40
22.68544093478784
 40
23.40407253922129
 40
24.12256187569047
 40
24.84031960784745
 40
25.55677943469122
 40
26.27139904227083
 40
26.9836612391842
 40
27.69307509129962
 40
28.39917704219834
 40
29.10153200915256
 40
29.79973444520609
 40
30.49340936671737
 40
31.18221543376109
 40
31.86584679977398
 40
32.54402684360655
 40
33.21650755134483
 40
33.88306980205245
 40
34.54352358957816
 40
35.19770817866075
 40
35.84549219422888
 40
36.48677364344004
 40
37.12147987064087
 40
37.74956740918258
 40
38.37101924632564
 40
38.9858378764249
 40
39.59404333652307
 40
40.19567308043967
 40
40.79078182520675
 40
41.3794413584063
 40
41.96174030814397
 40
42.53778387751253
 40
43.10769354552048
 40
43.67160673658491
 40
44.22967646082153
 40
44.22967646082153
 40
44.22967646082153
 40
44.22967646082153
 10
-525.9527780381287
 20
-481.8134616040647
 30
0.0
 10
-525.9218894112502
 20
-481.7040894672036
 30
0.0
 10
-525.8525368456576
 20
-481.4836163617363
 30
0.0
 10
-525.7284389460567
 20
-481.1536402618848
 30
0.0
 10
-525.5826631513991
 20
-480.8197602714606
 30
0.0
 10
-525.4152642389982
 20
-480.4825019955643
 30
0.0
 10
-525.2263362058984
 20
-480.1423969628977
 30
0.0
 10
-525.0160051713409
 20
-479.7999587376637
 30
0.0
 10
-524.7844304272196
 20
-479.455687375158
 30
0.0
 10
-524.5318031431626
 20
-479.110065965233
 30
0.0
 10
-524.2583456848881
 20
-478.7635594901928
 30
0.0
 10
-523.9643106733256
 20
-478.4166131683397
 30
0.0
 10
-523.6499802071947
 20
-478.0696510029861
 30
0.0
 10
-523.3156650339179
 20
-477.723075544417
 30
0.0
 10
-522.9617046915297
 20
-477.3772676445593
 30
0.0
 10
-522.5884678483309
 20
-477.0325860938113
 30
0.0
 10
-522.1963517613422
 20
-476.6893671384985
 30
0.0
 10
-521.7857815547306
 20
-476.3479237080739
 30
0.0
 10
-521.3572094569366
 20
-476.0085447935808
 30
0.0
 10
-520.9111140414689
 20
-475.6714949493395
 30
0.0
 10
-520.4479994650883
 20
-475.337013920651
 30
0.0
 10
-519.9683946958229
 20
-475.0053164288061
 30
0.0
 10
-519.4728533404495
 20
-474.6765923608765
 30
0.0
 10
-518.9619538271971
 20
-474.351007733531
 30
0.0
 10
-518.4362991452924
 20
-474.0287052392891
 30
0.0
 10
-517.8965161918059
 20
-473.7098039402533
 30
0.0
 10
-517.3432539741168
 20
-473.3943994121458
 30
0.0
 10
-516.7771823634448
 20
-473.082564185669
 30
0.0
 10
-516.1989908470752
 20
-472.7743483698642
 30
0.0
 10
-515.609387255059
 20
-472.4697803671673
 30
0.0
 10
-515.0090964475406
 20
-472.1688676880857
 30
0.0
 10
-514.3988589613075
 20
-471.8715978542276
 30
0.0
 10
-513.7794296089214
 20
-471.5779393876946
 30
0.0
 10
-513.1515762040593
 20
-471.2878429438651
 30
0.0
 10
-512.5160773726935
 20
-471.0012421648761
 30
0.0
 10
-511.873718050527
 20
-470.7180542809327
 30
0.0
 10
-511.2252848247036
 20
-470.4381800048286
 30
0.0
 10
-510.5715619041838
 20
-470.1615043324684
 30
0.0
 10
-509.9133291163192
 20
-469.8878982386796
 30
0.0
 10
-509.2513601280963
 20
-469.6172204441104
 30
0.0
 10
-508.5864206377201
 20
-469.3493191147714
 30
0.0
 10
-507.919266539796
 20
-469.0840334811784
 30
0.0
 10
-507.2506418956911
 20
-468.8211953147271
 30
0.0
 10
-506.5812752137499
 20
-468.5606296081233
 30
0.0
 10
-505.9118746246955
 20
-468.3021550740041
 30
0.0
 10
-505.2431236291623
 20
-468.0455846586994
 30
0.0
 10
-504.5756788869953
 20
-467.7907266362249
 30
0.0
 10
-503.9101693026052
 20
-467.5373861025814
 30
0.0
 10
-503.2471950923087
 20
-467.2853662691625
 30
0.0
 10
-502.5873268882533
 20
-467.0344695917039
 30
0.0
 10
-501.9311048886727
 20
-466.7844987283667
 30
0.0
 10
-501.2790380588967
 20
-466.5352573253698
 30
0.0
 10
-500.6316027346422
 20
-466.2865503813753
 30
0.0
 10
-499.9892410079358
 20
-466.0381843102984
 30
0.0
 10
-499.3523613818488
 20
-465.7899677437807
 30
0.0
 10
-498.721340590998
 20
-465.541712602123
 30
0.0
 10
-498.0965259201242
 20
-465.2932351918701
 30
0.0
 10
-497.4782355025417
 20
-465.0443564039419
 30
0.0
 10
-496.8667583841769
 20
-464.7949016829633
 30
0.0
 10
-496.2623546555081
 20
-464.5447008909113
 30
0.0
 10
-495.6652556548764
 20
-464.2935880682801
 30
0.0
 10
-495.0756642449686
 20
-464.0414010993517
 30
0.0
 10
-494.4937551790154
 20
-463.7879812847445
 30
0.0
 10
-493.9196763162087
 20
-463.5331731916542
 30
0.0
 10
-493.3535519785267
 20
-463.2768252887082
 30
0.0
 10
-492.7954867796556
 20
-463.0187909594239
 30
0.0
 10
-492.2455686001946
 20
-462.7589292394973
 30
0.0
 10
-491.7038694919584
 20
-462.4971045862432
 30
0.0
 10
-491.1704460384006
 20
-462.2331863815273
 30
0.0
 10
-490.6453397379375
 20
-461.9670484028883
 30
0.0
 10
-490.128577459165
 20
-461.6985682982374
 30
0.0
 10
-489.620171796167
 20
-461.4276269652636
 30
0.0
 10
-489.1201219552545
 20
-461.1541082062283
 30
0.0
 10
-488.6284128526152
 20
-460.8778973082441
 30
0.0
 10
-488.3044969497813
 20
-460.6909330613245
 30
0.0
 10
-488.1439503015451
 20
-460.5969637337184
 30
0.0
  0
SPLINE
  5
486
330
4DD
100
AcDbEntity
  8
0
 62
     7
370
    40
390
F
100
AcDbSpline
210
0.0
220
0.0
230
1.0
 70
     8
 71
     3
 72
    48
 73
    44
 74
     0
 42
0.0
 43
0.0
 40
0.0
 40
0.0
 40
0.0
 40
0.0
 40
0.1363021878863136
 40
0.2739798205002881
 40
0.4128839044200356
 40
0.5528584231146487
 40
0.6937410620387932
 40
0.8353639470482479
 40
0.9775543971487191
 40
1.120135692910606
 40
1.262927862118057
 40
1.405748484389806
 40
1.548413516617599
 40
1.69073814113073
 40
1.832537751731751
 40
1.973628307491461
 40
2.113825535325568
 40
2.252945684648618
 40
2.390806643658584
 40
2.527229125756323
 40
2.662037930287396
 40
2.795063282394656
 40
2.926142257241096
 40
3.05512029413685
 40
3.181852806038792
 40
3.306206889323291
 40
3.428062625036911
 40
3.547313414239555
 40
3.663869363882427
 40
3.777659892682693
 40
3.888636026342865
 40
3.996772845544657
 40
4.102072054566454
 40
4.204564614771355
 40
4.30431335489148
 40
4.401415428130083
 40
4.496004435382911
 40
4.588251978077269
 40
4.678368486770708
 40
4.766603388448297
 40
4.853243299936748
 40
4.938608463379864
 40
5.023047595295173
 40
5.023047595295173
 40
5.023047595295173
 40
5.023047595295173
 10
-381.6059308164645
 20
-321.9562927435215
 30
0.0
 10
-381.5647969943649
 20
-321.9755979181664
 30
0.0
 10
-381.481429055815
 20
-322.0129228173228
 30
0.0
 10
-381.3539117172827
 20
-322.064774828082
 30
0.0
 10
-381.2235566714897
 20
-322.1126775248128
 30
0.0
 10
-381.0906597425598
 20
-322.1565331930034
 30
0.0
 10
-380.9555252057388
 20
-322.196255107629
 30
0.0
 10
-380.8184616979586
 20
-322.2317690528363
 30
0.0
 10
-380.6797822549485
 20
-322.2630128668241
 30
0.0
 10
-380.5398032267532
 20
-322.289936477851
 30
0.0
 10
-380.3988434949302
 20
-322.3125017645912
 30
0.0
 10
-380.2572236080936
 20
-322.3306824236191
 30
0.0
 10
-380.1152649392134
 20
-322.3444637949868
 30
0.0
 10
-379.9732888049476
 20
-322.353842671575
 30
0.0
 10
-379.8316157553919
 20
-322.358827045242
 30
0.0
 10
-379.6905654585208
 20
-322.3594348159014
 30
0.0
 10
-379.5504568061776
 20
-322.3556943841359
 30
0.0
 10
-379.4116077229615
 20
-322.3476442207051
 30
0.0
 10
-379.2743344015223
 20
-322.3353325206338
 30
0.0
 10
-379.1389504391686
 20
-322.3188168353126
 30
0.0
 10
-379.0057659796096
 20
-322.2981636963942
 30
0.0
 10
-378.8750868588958
 20
-322.2734482306946
 30
0.0
 10
-378.7472137562082
 20
-322.2447537703405
 30
0.0
 10
-378.6224413506437
 20
-322.2121714609108
 30
0.0
 10
-378.5010574824282
 20
-322.1757998720224
 30
0.0
 10
-378.3833424900048
 20
-322.1357446654995
 30
0.0
 10
-378.2695690097675
 20
-322.0921185113857
 30
0.0
 10
-378.1600018078794
 20
-322.0450398670538
 30
0.0
 10
-378.0548966174932
 20
-321.9946336300244
 30
0.0
 10
-377.9544989091989
 20
-321.9410303267354
 30
0.0
 10
-377.8590431632311
 20
-321.8843654580567
 30
0.0
 10
-377.7687523116933
 20
-321.8247789366515
 30
0.0
 10
-377.6838372108895
 20
-321.7624145733288
 30
0.0
 10
-377.6044961444262
 20
-321.6974196257812
 30
0.0
 10
-377.530914356284
 20
-321.6299444307506
 30
0.0
 10
-377.4632636004074
 20
-321.5601421364776
 30
0.0
 10
-377.4017016967122
 20
-321.4881685802731
 30
0.0
 10
-377.3463719847911
 20
-321.4141822163792
 30
0.0
 10
-377.2974027013433
 20
-321.3383442098103
 30
0.0
 10
-377.2549074752735
 20
-321.2608166988957
 30
0.0
 10
-377.2189845285588
 20
-321.1817668027148
 30
0.0
 10
-377.1897135895038
 20
-321.1013549100535
 30
0.0
 10
-377.174621139605
 20
-321.0467512667657
 30
0.0
 10
-377.1682253260279
 20
-321.0193256333063
 30
0.0
  0
SPLINE
  5
487
330
4DD
100
AcDbEntity
  8
0
 62
     7
370
    40
390
F
100
AcDbSpline
210
0.0
220
0.0
230
1.0
 70
     8
 71
     3
 72
    31
 73
    27
 74
     0
 42
0.0
 43
0.0
 40
0.0
 40
0.0
 40
0.0
 40
0.0
 40
0.0876829289773837
 40
0.1751978174941133
 40
0.2629888908152475
 40
0.3514940581274338
 40
0.4411339686466744
 40
0.5323023989334887
 40
0.6253585398153795
 40
0.7206218035707477
 40
0.8183677315228447
 40
0.9188255133410016
 40
1.022178068759203
 40
1.128563389009509
 40
1.238076703916606
 40
1.350773150748954
 40
1.466670695367343
 40
1.585753126715374
 40
1.707973004888342
 40
1.833254488765551
 40
1.961495708665416
 40
2.09256987341844
 40
2.226327954858904
 40
2.362601305991253
 40
2.501203889050365
 40
2.641934374970766
 40
2.641934374970766
 40
2.641934374970766
 40
2.641934374970766
 10
-377.1682253260279
 20
-321.0193256333063
 30
0.0
 10
-377.1615833381045
 20
-320.9908443894365
 30
0.0
 10
-377.1507164116876
 20
-320.9334072715331
 30
0.0
 10
-377.1417966155136
 20
-320.8460872084814
 30
0.0
 10
-377.1403189532912
 20
-320.7580591756839
 30
0.0
 10
-377.1462706813025
 20
-320.6695113268671
 30
0.0
 10
-377.1596204628975
 20
-320.5806397674278
 30
0.0
 10
-377.1803163035654
 20
-320.4916338704778
 30
0.0
 10
-377.2082874919713
 20
-320.4026792591673
 30
0.0
 10
-377.2434467586494
 20
-320.3139571734072
 30
0.0
 10
-377.2856915740778
 20
-320.2256458748851
 30
0.0
 10
-377.3349035821299
 20
-320.1379212000925
 30
0.0
 10
-377.390949420404
 20
-320.0509574892619
 30
0.0
 10
-377.4536810299915
 20
-319.9649279492376
 30
0.0
 10
-377.522935975706
 20
-319.8800048999349
 30
0.0
 10
-377.5985376915011
 20
-319.7963598654984
 30
0.0
 10
-377.6802957362541
 20
-319.7141635418915
 30
0.0
 10
-377.7680060735554
 20
-319.6335856618315
 30
0.0
 10
-377.861451386798
 20
-319.5547947733741
 30
0.0
 10
-377.9604013591715
 20
-319.477958033973
 30
0.0
 10
-378.0646125762366
 20
-319.4032411226065
 30
0.0
 10
-378.1738290493174
 20
-319.3308088908026
 30
0.0
 10
-378.287782376197
 20
-319.2608247144448
 30
0.0
 10
-378.4061918105667
 20
-319.193450281601
 30
0.0
 10
-378.5287676562183
 20
-319.1288438836742
 30
0.0
 10
-378.6124624415212
 20
-319.0880145434639
 30
0.0
 10
-378.6549317061994
 20
-319.0680826108158
 30
0.0
  0
ELLIPSE
  5
488
330
4DD
100
AcDbEntity
  8
0
 62
     7
370
    40
390
F
100
AcDbEllipse
 10
-547.858276
 20
-523.026367
 30
0.0
 11
-2.028442144393921
 21
2.072540044784546
 31
0.0
210
0.0
220
0.0
230
1.0
 40
0.725524
 41
4.196240257831667
 42
6.094321729408142
  0
LINE
  5
489
330
4DD
100
AcDbEntity
  8
0
 62
     7
370
    13
390
F
100
AcDbLine
 10
-512.954773
 20
-484.055237
 30
0.0
 11
-549.922119
 21
-520.236023
 31
0.0
  0
ELLIPSE
  5
48A
330
4DD
100
AcDbEntity
  8
0
 62
     7
370
    40
390
F
100
AcDbEllipse
 10
-547.858276
 20
-523.026367
 30
0.0
 11
-2.448119878768921
 21
2.501341342926025
 31
0.0
210
0.0
220
0.0
230
1.0
 40
0.7255239999999998
 41
4.19624025783167
 42
6.094321729408137
  0
LINE
  5
48B
330
4DD
100
AcDbEntity
  8
0
 62
     7
370
    13
390
F
100
AcDbLine
 10
-508.104279
 20
-486.535278
 30
0.0
 11
-545.071655
 21
-522.716064
 31
0.0
  0
SPLINE
  5
48C
330
4DD
100
AcDbEntity
  8
0
 62
     7
370
    40
390
F
100
AcDbSpline
210
0.0
220
0.0
230
1.0
 70
     8
 71
     3
 72
    26
 73
    22
 74
     0
 42
0.0
 43
0.0
 40
0.0
 40
0.0
 40
0.0
 40
0.0
 40
0.1624236562221359
 40
0.3268334221400133
 40
0.4931166595971981
 40
0.6611389179987768
 40
0.8307455087280943
 40
1.001763201117794
 40
1.174002023716626
 40
1.347257157980962
 40
1.521310914582633
 40
1.695934785326719
 40
1.870891566305708
 40
2.045937409241944
 40
2.220820997074651
 40
2.395284800438501
 40
2.569069525663062
 40
2.741916527838506
 40
2.913570192511876
 40
3.083780397949692
 40
3.252305070864155
 40
3.252305070864155
 40
3.252305070864155
 40
3.252305070864155
 10
-508.1042859713629
 20
-486.5352878018583
 30
0.0
 10
-508.1268617775962
 20
-486.4860692651542
 30
0.0
 10
-508.174407798204
 20
-486.3880182815519
 30
0.0
 10
-508.2521799393704
 20
-486.2431553625605
 30
0.0
 10
-508.3366105555854
 20
-486.099904981547
 30
0.0
 10
-508.4274497516281
 20
-485.9585681779152
 30
0.0
 10
-508.5244303139884
 20
-485.8194470101894
 30
0.0
 10
-508.6272710748248
 20
-485.6828386291221
 30
0.0
 10
-508.7356771804689
 20
-485.5490362699891
 30
0.0
 10
-508.8493413247881
 20
-485.4183283590362
 30
0.0
 10
-508.9679448353178
 20
-485.2909981443475
 30
0.0
 10
-509.0911589133397
 20
-485.16732321988
 30
0.0
 10
-509.2186458781362
 20
-485.0475751342437
 30
0.0
 10
-509.3500597832565
 20
-484.9320197980542
 30
0.0
 10
-509.4850463162226
 20
-484.8209176203873
 30
0.0
 10
-509.623243364226
 20
-484.7145231267092
 30
0.0
 10
-509.7642824127396
 20
-484.6130841043319
 30
0.0
 10
-509.9077903987758
 20
-484.5168401323689
 30
0.0
 10
-510.0533898578109
 20
-484.4260223722968
 30
0.0
 10
-510.2007039140759
 20
-484.3408509345667
 30
0.0
 10
-510.3003381637091
 20
-484.2876891367741
 30
0.0
 10
-510.3503593885661
 20
-484.2621133151774
 30
0.0
  0
SPLINE
  5
48D
330
4DD
100
AcDbEntity
  8
0
 62
     7
370
    40
390
F
100
AcDbSpline
210
0.0
220
0.0
230
1.0
 70
     8
 71
     3
 72
    26
 73
    22
 74
     0
 42
0.0
 43
0.0
 40
0.0
 40
0.0
 40
0.0
 40
0.0
 40
0.1214770639999428
 40
0.2442256338416049
 40
0.3685898115083995
 40
0.4948818274984402
 40
0.6233777420213785
 40
0.7543144845224036
 40
0.8878881542337616
 40
1.024253437045604
 40
1.163523959009931
 40
1.305773388879763
 40
1.451037113334829
 40
1.599314219305318
 40
1.750567366167212
 40
1.904724237765053
 40
2.061681767624202
 40
2.221308846801022
 40
2.383448943717799
 40
2.547922702185061
 40
2.714530516433029
 40
2.714530516433029
 40
2.714530516433029
 40
2.714530516433029
 10
-512.9547567785163
 20
-484.0552450524419
 30
0.0
 10
-512.9192095378146
 20
-484.0358182732223
 30
0.0
 10
-512.8463688523235
 20
-483.9993402073615
 30
0.0
 10
-512.7328371200246
 20
-483.9521043852413
 30
0.0
 10
-512.6148408388317
 20
-483.9122023965145
 30
0.0
 10
-512.4926208197363
 20
-483.8796802924657
 30
0.0
 10
-512.3664364906543
 20
-483.8545715060141
 30
0.0
 10
-512.2365540881539
 20
-483.8368910133306
 30
0.0
 10
-512.1032497142292
 20
-483.8266375324474
 30
0.0
 10
-511.9668083460707
 20
-483.8237935238374
 30
0.0
 10
-511.8275239391667
 20
-483.8283257913994
 30
0.0
 10
-511.6856991763231
 20
-483.8401859349582
 30
0.0
 10
-511.5416452743185
 20
-483.8593108512202
 30
0.0
 10
-511.3956825449112
 20
-483.8856232072152
 30
0.0
 10
-511.2481411517277
 20
-483.9190312279322
 30
0.0
 10
-511.0993611148099
 20
-483.9594285572703
 30
0.0
 10
-510.9496915205419
 20
-484.00669446315
 30
0.0
 10
-510.7994889008961
 20
-484.0606941394548
 30
0.0
 10
-510.6491174257675
 20
-484.1212784197743
 30
0.0
 10
-510.4989439826935
 20
-484.1882861448697
 30
0.0
 10
-510.3998119890893
 20
-484.2368282308539
 30
0.0
 10
-510.3503593885661
 20
-484.2621133151774
 30
0.0
  0
SPLINE
  5
48E
330
4DD
100
AcDbEntity
  8
0
 62
     7
370
    40
390
F
100
AcDbSpline
210
0.0
220
0.0
230
1.0
 70
     8
 71
     3
 72
    26
 73
    22
 74
     0
 42
0.0
 43
0.0
 40
0.0
 40
0.0
 40
0.0
 40
0.0
 40
0.1214770640072584
 40
0.2442256338545523
 40
0.368589811523418
 40
0.49488182751234
 40
0.6233777420315382
 40
0.7543144845273644
 40
0.887888154233937
 40
1.024253437042856
 40
1.163523959007595
 40
1.305773388881907
 40
1.451037113344899
 40
1.599314219325004
 40
1.750567366192658
 40
1.904724237788808
 40
2.061681767640371
 40
2.221308846808015
 40
2.383448943719479
 40
2.547922702189118
 40
2.714530516446527
 40
2.714530516446527
 40
2.714530516446527
 40
2.714530516446527
 10
-119.4882087431645
 20
-98.96056069168782
 30
0.0
 10
-119.4526615024608
 20
-98.94113391246684
 30
0.0
 10
-119.379820816966
 20
-98.90465584660376
 30
0.0
 10
-119.2662890846626
 20
-98.85742002448106
 30
0.0
 10
-119.1482928034677
 20
-98.81751803575386
 30
0.0
 10
-119.0260727843731
 20
-98.78499593170531
 30
0.0
 10
-118.8998884552945
 20
-98.7598871452543
 30
0.0
 10
-118.7700060527986
 20
-98.74220665257113
 30
0.0
 10
-118.6367016788782
 20
-98.73195317168773
 30
0.0
 10
-118.5002603107222
 20
-98.72910916307683
 30
0.0
 10
-118.3609759038175
 20
-98.73364143063817
 30
0.0
 10
-118.2191511409696
 20
-98.7455015741963
 30
0.0
 10
-118.0750972389576
 20
-98.76462649045908
 30
0.0
 10
-117.9291345095426
 20
-98.79093884645557
 30
0.0
 10
-117.7815931163549
 20
-98.82434686717394
 30
0.0
 10
-117.6328130794384
 20
-98.86474419651245
 30
0.0
 10
-117.4831434851764
 20
-98.91201010239044
 30
0.0
 10
-117.3329408655375
 20
-98.96600977869278
 30
0.0
 10
-117.1825693904123
 20
-99.02659405901021
 30
0.0
 10
-117.0323959473362
 20
-99.09360178410608
 30
0.0
 10
-116.9332639537284
 20
-99.14214387009184
 30
0.0
 10
-116.8838113532024
 20
-99.16742895441676
 30
0.0
  0
SPLINE
  5
48F
330
4DD
100
AcDbEntity
  8
0
 62
     7
370
    40
390
F
100
AcDbSpline
210
0.0
220
0.0
230
1.0
 70
     8
 71
     3
 72
    26
 73
    22
 74
     0
 42
0.0
 43
0.0
 40
0.0
 40
0.0
 40
0.0
 40
0.0
 40
0.1624236562129793
 40
0.326833422127624
 40
0.4931166595902178
 40
0.6611389180062027
 40
0.830745508756862
 40
1.001763201171265
 40
1.174002023793867
 40
1.347257158077045
 40
1.521310914689278
 40
1.695934785434493
 40
1.870891566406429
 40
2.045937409331931
 40
2.220820997153641
 40
2.395284800506167
 40
2.569069525719325
 40
2.741916527883316
 40
2.913570192545433
 40
3.083780397972323
 40
3.252305070876209
 40
3.252305070876209
 40
3.252305070876209
 40
3.252305070876209
 10
-114.637737935994
 20
-101.4406034411088
 30
0.0
 10
-114.660313742226
 20
-101.3913849044074
 30
0.0
 10
-114.7078597628314
 20
-101.2933339208085
 30
0.0
 10
-114.7856319039963
 20
-101.1484710018189
 30
0.0
 10
-114.8700625202131
 20
-101.0052206208
 30
0.0
 10
-114.960901716263
 20
-100.8638838171565
 30
0.0
 10
-115.0578822786349
 20
-100.7247626494142
 30
0.0
 10
-115.1607230394862
 20
-100.588154268329
 30
0.0
 10
-115.2691291451458
 20
-100.4543519091797
 30
0.0
 10
-115.3827932894787
 20
-100.3236439982152
 30
0.0
 10
-115.5013968000175
 20
-100.1963137835211
 30
0.0
 10
-115.6246108780428
 20
-100.0726388590548
 30
0.0
 10
-115.7520978428373
 20
-99.95289077342456
 30
0.0
 10
-115.8835117479523
 20
-99.83733543724355
 30
0.0
 10
-116.0184982809113
 20
-99.72623325958529
 30
0.0
 10
-116.156695328907
 20
-99.61983876591566
 30
0.0
 10
-116.2977343774125
 20
-99.51839974354654
 30
0.0
 10
-116.4412423634399
 20
-99.42215577159085
 30
0.0
 10
-116.5868418224658
 20
-99.33133801152528
 30
0.0
 10
-116.7341558787215
 20
-99.246166573801
 30
0.0
 10
-116.8337901283484
 20
-99.19300477601183
 30
0.0
 10
-116.8838113532024
 20
-99.16742895441676
 30
0.0
  0
LINE
  5
490
330
4DD
100
AcDbEntity
  8
0
 62
     7
370
    13
390
F
100
AcDbLine
 10
-299.15506
 20
-282.031921
 30
0.0
 11
-114.637741
 21
-101.440605
 31
0.0
  0
LINE
  5
491
330
4DD
100
AcDbEntity
  8
0
 62
     7
370
    13
390
F
100
AcDbLine
 10
-299.15506
 20
-282.031921
 30
0.0
 11
-483.672394
 21
-462.62323
 31
0.0
  0
SPLINE
  5
492
330
4DD
100
AcDbEntity
  8
0
 62
     7
370
    40
390
F
100
AcDbSpline
210
0.0
220
0.0
230
1.0
 70
     8
 71
     3
 72
    26
 73
    22
 74
     0
 42
0.0
 43
0.0
 40
0.0
 40
0.0
 40
0.0
 40
0.0
 40
0.1683079243231398
 40
0.3381102272493143
 40
0.5092232937053542
 40
0.6814597434826619
 40
0.8546302099780403
 40
1.028545012897427
 40
1.203015725057336
 40
1.377856630711407
 40
1.552886070381785
 40
1.727927665025413
 40
1.90281141055747
 40
2.077374492816183
 40
2.251459073336996
 40
2.4249120190381
 40
2.597587595588054
 40
2.769348003690038
 40
2.940063746302208
 40
3.109613915972855
 40
3.277886392797426
 40
3.277886392797426
 40
3.277886392797426
 40
3.277886392797426
 10
-483.6723820338862
 20
-462.6232261993828
 30
0.0
 10
-483.6910834046675
 20
-462.5703247138355
 30
0.0
 10
-483.7307376555652
 20
-462.4648029925933
 30
0.0
 10
-483.7965706480259
 20
-462.3083004218219
 30
0.0
 10
-483.8689186220197
 20
-462.1532578466199
 30
0.0
 10
-483.9476515060536
 20
-462.0000937768825
 30
0.0
 10
-484.0326224490601
 20
-461.8492277869984
 30
0.0
 10
-484.1236694187213
 20
-461.7010737333101
 30
0.0
 10
-484.2206145638237
 20
-461.556039584501
 30
0.0
 10
-484.3232643003997
 20
-461.414525465497
 30
0.0
 10
-484.4314093159774
 20
-461.2769222039382
 30
0.0
 10
-484.5448246944876
 20
-461.1436097683792
 30
0.0
 10
-484.6632700913423
 20
-461.0149558379607
 30
0.0
 10
-484.7864891770733
 20
-460.8913150310104
 30
0.0
 10
-484.9142090795178
 20
-460.7730285798472
 30
0.0
 10
-485.0461400920425
 20
-460.6604231510325
 30
0.0
 10
-485.1819759823887
 20
-460.5538089197357
 30
0.0
 10
-485.3213956144517
 20
-460.4534776311392
 30
0.0
 10
-485.4640619102873
 20
-460.3597022256432
 30
0.0
 10
-485.609628781023
 20
-460.2727324834033
 30
0.0
 10
-485.7087506127589
 20
-460.2192347034161
 30
0.0
 10
-485.7587001363559
 20
-460.1936955426298
 30
0.0
  0
SPLINE
  5
493
330
4DD
100
AcDbEntity
  8
0
 62
     7
370
    40
390
F
100
AcDbSpline
210
0.0
220
0.0
230
1.0
 70
     8
 71
     3
 72
    26
 73
    22
 74
     0
 42
0.0
 43
0.0
 40
0.0
 40
0.0
 40
0.0
 40
0.0
 40
0.1370716327550625
 40
0.2754225434404743
 40
0.4151716781884125
 40
0.556421682897448
 40
0.6992594726294286
 40
0.8437569193113879
 40
0.9899716203664657
 40
1.137947714434484
 40
1.287716714181645
 40
1.439298330024947
 40
1.592701262184361
 40
1.747923807838057
 40
1.904951588168454
 40
2.063756931136808
 40
2.224301014294561
 40
2.386534013251142
 40
2.550395158832991
 40
2.715812797003424
 40
2.8827044512772
 40
2.8827044512772
 40
2.8827044512772
 40
2.8827044512772
 10
-488.5228528410396
 20
-460.1431834499664
 30
0.0
 10
-488.4834646325193
 20
-460.11999847098
 30
0.0
 10
-488.4028808054654
 20
-460.0759109485422
 30
0.0
 10
-488.2775366132307
 20
-460.017040276405
 30
0.0
 10
-488.1475759252925
 20
-459.9653421954874
 30
0.0
 10
-488.0133557055688
 20
-459.9209819305738
 30
0.0
 10
-487.8752513000597
 20
-459.8841126506626
 30
0.0
 10
-487.7336453766891
 20
-459.8548686864208
 30
0.0
 10
-487.5889293295336
 20
-459.8333661591864
 30
0.0
 10
-487.4415011988277
 20
-459.8197016877582
 30
0.0
 10
-487.2917644578233
 20
-459.8139517246234
 30
0.0
 10
-487.1401264900763
 20
-459.816171825981
 30
0.0
 10
-486.9869971388297
 20
-459.826396074891
 30
0.0
 10
-486.8327881630921
 20
-459.8446363681268
 30
0.0
 10
-486.677913085751
 20
-459.8708818098443
 30
0.0
 10
-486.5227863490813
 20
-459.9050978192632
 30
0.0
 10
-486.3678216396851
 20
-459.9472252554863
 30
0.0
 10
-486.2134294320686
 20
-459.9971805302816
 30
0.0
 10
-486.0600173388846
 20
-460.0548545323819
 30
0.0
 10
-485.9079822432049
 20
-460.1201158567074
 30
0.0
 10
-485.8082401694132
 20
-460.1683657541051
 30
0.0
 10
-485.7587001363557
 20
-460.1936955426298
 30
0.0
  0
LINE
  5
494
330
4DD
100
AcDbEntity
  8
0
 62
     7
370
    13
390
F
100
AcDbLine
 10
-304.005524
 20
-279.55188
 30
0.0
 11
-488.522858
 21
-460.143188
 31
0.0
  0
LINE
  5
495
330
4DD
100
AcDbEntity
  8
0
 62
     7
370
    13
390
F
100
AcDbLine
 10
-304.005524
 20
-279.55188
 30
0.0
 11
-119.488205
 21
-98.960564
 31
0.0
  0
SPLINE
  5
496
330
4DD
100
AcDbEntity
  8
0
 62
     7
370
    40
390
F
100
AcDbSpline
210
0.0
220
0.0
230
1.0
 70
     8
 71
     3
 72
    54
 73
    50
 74
     0
 42
0.0
 43
0.0
 40
0.0
 40
0.0
 40
0.0
 40
0.0
 40
0.6803916275317184
 40
1.363887188042561
 40
2.050391851258311
 40
2.739792632723788
 40
3.431958732059
 40
4.126741932149014
 40
4.823977060777644
 40
5.523482516271443
 40
6.225060858770263
 40
6.928499468782062
 40
7.633571274715082
 40
8.340035551109798
 40
9.047638789317043
 40
9.756115642389656
 40
10.46518991621779
 40
11.17457079162107
 40
11.8839434949032
 40
12.59297328352224
 40
13.30130801274996
 40
14.00858010051499
 40
14.71440856959016
 40
15.4184011601356
 40
16.12015650473577
 40
16.81926635714548
 40
17.51531786498996
 40
18.20789434967664
 40
18.8965729453329
 40
19.58093330186833
 40
20.26056259749653
 40
20.93505845287083
 40
21.60403179007831
 40
22.26710961399596
 40
22.92393769124276
 40
23.57418309968914
 40
24.21753661915376
 40
24.85371493227953
 40
25.48246368479289
 40
26.10356613486639
 40
26.71684920246649
 40
27.32218510007154
 40
27.91949252290913
 40
28.50873758179425
 40
29.08993444548859
 40
29.66314565673285
 40
30.22848208394323
 40
30.78610246936189
 40
31.3362125346214
 40
31.3362125346214
 40
31.3362125346214
 40
31.3362125346214
 10
-90.2058339985349
 20
-77.52854183858673
 30
0.0
 10
-90.13024255546682
 20
-77.74237106424711
 30
0.0
 10
-89.97826702996777
 20
-78.17084654777983
 30
0.0
 10
-89.74868667405906
 20
-78.81459822083173
 30
0.0
 10
-89.51722312709694
 20
-79.46086579342024
 30
0.0
 10
-89.28415130396334
 20
-80.10962687751355
 30
0.0
 10
-89.0497601319546
 20
-80.76084597813664
 30
0.0
 10
-88.81435274326702
 20
-81.41447473316514
 30
0.0
 10
-88.57824664346613
 20
-82.07045213123838
 30
0.0
 10
-88.34177383578903
 20
-82.72870476379686
 30
0.0
 10
-88.10528090522342
 20
-83.38914709380936
 30
0.0
 10
-87.86912905977815
 20
-84.05168174334138
 30
0.0
 10
-87.63369412843426
 20
-84.7161997967307
 30
0.0
 10
-87.3993665138468
 20
-85.3825811170672
 30
0.0
 10
-87.16655110186798
 20
-86.0506946744386
 30
0.0
 10
-86.93566711908245
 20
-86.72039887009393
 30
0.0
 10
-86.70714849993024
 20
-87.39154033866595
 30
0.0
 10
-86.48144514894192
 20
-88.06394937360534
 30
0.0
 10
-86.25902354326529
 20
-88.73743612128955
 30
0.0
 10
-86.04036698677753
 20
-89.41178882307473
 30
0.0
 10
-85.82597420827857
 20
-90.08677540299988
 30
0.0
 10
-85.6163581528016
 20
-90.76214436972774
 30
0.0
 10
-85.41204472045904
 20
-91.43762547272277
 30
0.0
 10
-85.21357140229327
 20
-92.11293032971284
 30
0.0
 10
-85.02148580831495
 20
-92.78775301653303
 30
0.0
 10
-84.83634409456721
 20
-93.46177061404546
 30
0.0
 10
-84.65870940878358
 20
-94.1346432103445
 30
0.0
 10
-84.48915062183993
 20
-94.80601233166465
 30
0.0
 10
-84.32824019313335
 20
-95.4755013052344
 30
0.0
 10
-84.17655138591986
 20
-96.14271687928812
 30
0.0
 10
-84.03465546339659
 20
-96.80725261955462
 30
0.0
 10
-83.9031192843389
 20
-97.46869036573847
 30
0.0
 10
-83.78250298853821
 20
-98.1266009285234
 30
0.0
 10
-83.67335759643426
 20
-98.78054468695971
 30
0.0
 10
-83.57622253634024
 20
-99.43007208510055
 30
0.0
 10
-83.49162309488727
 20
-100.0747240251439
 30
0.0
 10
-83.42006783699502
 20
-100.7140321606176
 30
0.0
 10
-83.3620458265475
 20
-101.3475194365416
 30
0.0
 10
-83.31802411102618
 20
-101.9747028789084
 30
0.0
 10
-83.2884450882583
 20
-102.5950977822546
 30
0.0
 10
-83.27372340933806
 20
-103.2082216077453
 30
0.0
 10
-83.27424488693686
 20
-103.8135957285506
 30
0.0
 10
-83.29036531562939
 20
-104.4107455954578
 30
0.0
 10
-83.32240942012108
 20
-104.9992008879277
 30
0.0
 10
-83.37066973929458
 20
-105.5784952715213
 30
0.0
 10
-83.43540584770942
 20
-106.1481674201205
 30
0.0
 10
-83.51684252783176
 20
-106.707757296382
 30
0.0
 10
-83.61517194652204
 20
-107.2568196997383
 30
0.0
 10
-83.69259812605642
 20
-107.6179166013591
 30
0.0
 10
-83.7342278663507
 20
-107.7965174580351
 30
0.0
  0
SPLINE
  5
497
330
4DD
100
AcDbEntity
  8
0
 62
     7
370
    40
390
F
100
AcDbSpline
210
0.0
220
0.0
230
1.0
 70
     8
 71
     3
 72
    81
 73
    77
 74
     0
 42
0.0
 43
0.0
 40
0.0
 40
0.0
 40
0.0
 40
0.0
 40
0.541934083998388
 40
1.076927966838578
 40
1.60532304374809
 40
2.127503894166324
 40
2.643892340397989
 40
3.154943770899446
 40
3.661143153512758
 40
4.163000751972365
 40
4.661047599233469
 40
5.155830792873749
 40
5.647908687609361
 40
6.137846069816972
 40
6.626209069164108
 40
7.113558302223949
 40
7.60044316297529
 40
8.087397748347497
 40
8.57493723272434
 40
9.06355468528736
 40
9.553718355899218
 40
10.0458694374753
 40
10.54042029608572
 40
11.03775314522522
 40
11.53821828105663
 40
12.04213092551614
 40
12.54977277367638
 40
13.06139279416703
 40
13.57720771313146
 40
14.09740271742295
 40
14.62213231293994
 40
15.15152127836191
 40
15.68566566001877
 40
16.22463375976089
 40
16.76846707413864
 40
17.31718103415549
 40
17.87076596970667
 40
18.42919310551387
 40
18.9924176258099
 40
19.56037933349664
 40
20.13300328338303
 40
20.71020040929406
 40
21.29186813717213
 40
21.87789097851885
 40
22.46814111037118
 40
23.06248077333682
 40
23.66076814187754
 40
24.26285830855636
 40
24.868603470235
 40
25.47785335665728
 40
26.09045576474475
 40
26.70625719994452
 40
27.3251036249288
 40
27.9468413149914
 40
28.57131793387733
 40
29.19838642077515
 40
29.82790412239023
 40
30.45972871099944
 40
31.0937187284676
 40
31.72973445177738
 40
32.3676388314016
 40
33.00729849998677
 40
33.64858484838798
 40
34.2913751657558
 40
34.93555384011861
 40
35.5810133748619
 40
36.2276513453232
 40
36.875365574069
 40
37.52405416316015
 40
38.17361622261279
 40
38.82395259586813
 40
39.47496658304234
 40
40.12656466152175
 40
40.77865720347083
 40
41.43115918982719
 40
42.0839909203668
 40
42.0839909203668
 40
42.0839909203668
 40
42.0839909203668
 10
-83.7342278663507
 20
-107.7965174580351
 30
0.0
 10
-83.77523930853336
 20
-107.9724656781193
 30
0.0
 10
-83.86285335678585
 20
-108.3206492795067
 30
0.0
 10
-84.01233662478735
 20
-108.8345883255897
 30
0.0
 10
-84.17904756553423
 20
-109.3362652975631
 30
0.0
 10
-84.36299763776515
 20
-109.8252691485639
 30
0.0
 10
-84.56415979617911
 20
-110.301183533534
 30
0.0
 10
-84.78247217257653
 20
-110.7636010469392
 30
0.0
 10
-85.01783751846673
 20
-111.2121192531566
 30
0.0
 10
-85.27012392308451
 20
-111.6463418651125
 30
0.0
 10
-85.53916529565504
 20
-112.0658786902365
 30
0.0
 10
-85.82476199888157
 20
-112.4703460336342
 30
0.0
 10
-86.1266815830295
 20
-112.8593670683489
 30
0.0
 10
-86.44465937924522
 20
-113.2325723673239
 30
0.0
 10
-86.77839926644975
 20
-113.5895994568292
 30
0.0
 10
-87.12757390873877
 20
-113.9300921694571
 30
0.0
 10
-87.49182411816464
 20
-114.2537011231358
 30
0.0
 10
-87.87075958991706
 20
-114.5600841401806
 30
0.0
 10
-88.26395976957222
 20
-114.8489072442908
 30
0.0
 10
-88.67097482563004
 20
-115.1198456951332
 30
0.0
 10
-89.09132664292505
 20
-115.3725851067092
 30
0.0
 10
-89.52450985080378
 20
-115.606822639454
 30
0.0
 10
-89.96999288465031
 20
-115.8222682681266
 30
0.0
 10
-90.4272188063509
 20
-116.0186460364471
 30
0.0
 10
-90.89560536792827
 20
-116.1956951033282
 30
0.0
 10
-91.37454591052087
 20
-116.3531702247541
 30
0.0
 10
-91.86340998700845
 20
-116.4908446746643
 30
0.0
 10
-92.36154564035074
 20
-116.6085119250773
 30
0.0
 10
-92.86828117194773
 20
-116.7059872070025
 30
0.0
 10
-93.38292679441753
 20
-116.7831090461066
 30
0.0
 10
-93.90477634015932
 20
-116.8397408641085
 30
0.0
 10
-94.43310903526114
 20
-116.8757726303631
 30
0.0
 10
-94.96719133962532
 20
-116.891122550065
 30
0.0
 10
-95.50627885804644
 20
-116.8857387996356
 30
0.0
 10
-96.04961827692001
 20
-116.8596012191291
 30
0.0
 10
-96.59644947074759
 20
-116.8127232604961
 30
0.0
 10
-97.14600934457219
 20
-116.745152471596
 30
0.0
 10
-97.69753647974137
 20
-116.6569710643946
 30
0.0
 10
-98.25027577474816
 20
-116.5482962628647
 30
0.0
 10
-98.80348123044539
 20
-116.4192798941952
 30
0.0
 10
-99.35641793864602
 20
-116.2701081303924
 30
0.0
 10
-99.90836405620541
 20
-116.1010011170806
 30
0.0
 10
-100.4586127725944
 20
-115.9122125351633
 30
0.0
 10
-101.0064742631193
 20
-115.7040290673953
 30
0.0
 10
-101.5512781968226
 20
-115.4767695601899
 30
0.0
 10
-102.0923777576025
 20
-115.2307831483719
 30
0.0
 10
-102.6291532615166
 20
-114.9664462288783
 30
0.0
 10
-103.1610150140606
 20
-114.6841598432335
 30
0.0
 10
-103.6874042250424
 20
-114.3843474418058
 30
0.0
 10
-104.2077936125517
 20
-114.0674526809149
 30
0.0
 10
-104.7216879543191
 20
-113.733937105105
 30
0.0
 10
-105.2286245402753
 20
-113.3842777453052
 30
0.0
 10
-105.7281735200195
 20
-113.0189646358844
 30
0.0
 10
-106.2199381712847
 20
-112.6384982338723
 30
0.0
 10
-106.7035557764119
 20
-112.2433861668502
 30
0.0
 10
-107.1786977683955
 20
-111.834140241499
 30
0.0
 10
-107.6450682388902
 20
-111.4112744521221
 30
0.0
 10
-108.1024016803105
 20
-110.9753040850818
 30
0.0
 10
-108.5504612568332
 20
-110.5267447577017
 30
0.0
 10
-108.989038224534
 20
-110.0661104189035
 30
0.0
 10
-109.4179513264851
 20
-109.5939112778707
 30
0.0
 10
-109.8370460966288
 20
-109.1106517162887
 30
0.0
 10
-110.2461940740301
 20
-108.61682819134
 30
0.0
 10
-110.6452919236159
 20
-108.1129271320084
 30
0.0
 10
-111.0342604292576
 20
-107.5994229077768
 30
0.0
 10
-111.4130425130897
 20
-107.0767769559352
 30
0.0
 10
-111.7816004016819
 20
-106.545438903627
 30
0.0
 10
-112.1399126926575
 20
-106.0058481077278
 30
0.0
 10
-112.4879724277238
 20
-105.4584344346722
 30
0.0
 10
-112.8257863447028
 20
-104.9036176548872
 30
0.0
 10
-113.1533742227876
 20
-104.3418066247399
 30
0.0
 10
-113.4707681561004
 20
-103.7733985814138
 30
0.0
 10
-113.7780119523516
 20
-103.1987781065248
 30
0.0
 10
-114.0751599041063
 20
-102.6183174087577
 30
0.0
 10
-114.3622777555835
 20
-102.032371770726
 30
0.0
 10
-114.5470097524989
 20
-101.6384040593148
 30
0.0
 10
-114.6377379360142
 20
-101.4406034410648
 30
0.0
  0
SPLINE
  5
498
330
4DD
100
AcDbEntity
  8
0
 62
     7
370
    40
390
F
100
AcDbSpline
210
0.0
220
0.0
230
1.0
 70
     8
 71
     3
 72
    26
 73
    22
 74
     0
 42
0.0
 43
0.0
 40
0.0
 40
0.0
 40
0.0
 40
0.0
 40
0.1683079243285052
 40
0.3381102272562136
 40
0.5092232937082461
 40
0.6814597434757469
 40
0.8546302099569746
 40
1.028545012860151
 40
1.203015725004458
 40
1.377856630646136
 40
1.55288607030936
 40
1.727927664951893
 40
1.902811410488086
 40
2.077374492753397
 40
2.251459073282537
 40
2.424912018994968
 40
2.597587595558476
 40
2.769348003674436
 40
2.94006374629885
 40
3.109613915978821
 40
3.277886392810109
 40
3.277886392810109
 40
3.277886392810109
 40
3.277886392810109
 10
-90.20583399851824
 20
-77.52854183863414
 30
0.0
 10
-90.22453536930004
 20
-77.47564035308508
 30
0.0
 10
-90.26418962019815
 20
-77.37011863184054
 30
0.0
 10
-90.33002261265915
 20
-77.21361606106822
 30
0.0
 10
-90.40237058665072
 20
-77.05857348586976
 30
0.0
 10
-90.48110347067991
 20
-76.90540941614046
 30
0.0
 10
-90.56607441367872
 20
-76.75454342626736
 30
0.0
 10
-90.65712138333082
 20
-76.60638937259141
 30
0.0
 10
-90.7540665284231
 20
-76.4613552237933
 30
0.0
 10
-90.85671626498986
 20
-76.31984110479729
 30
0.0
 10
-90.96486128056095
 20
-76.18223784324191
 30
0.0
 10
-91.07827665906771
 20
-76.04892540768185
 30
0.0
 10
-91.19672205592227
 20
-75.92027147725872
 30
0.0
 10
-91.31994114165556
 20
-75.79663067030181
 30
0.0
 10
-91.4476610441045
 20
-75.67834421913057
 30
0.0
 10
-91.57959205663607
 20
-75.5657387903068
 30
0.0
 10
-91.7154279469914
 20
-75.45912455900049
 30
0.0
 10
-91.85484757906418
 20
-75.35879327039493
 30
0.0
 10
-91.99751387490926
 20
-75.26501786489159
 30
0.0
 10
-92.14308074565281
 20
-75.17804812264654
 30
0.0
 10
-92.24220257739316
 20
-75.12455034265662
 30
0.0
 10
-92.29215210099215
 20
-75.09901118186922
 30
0.0
  0
SPLINE
  5
499
330
4DD
100
AcDbEntity
  8
0
 62
     7
370
    40
390
F
100
AcDbSpline
210
0.0
220
0.0
230
1.0
 70
     8
 71
     3
 72
    26
 73
    22
 74
     0
 42
0.0
 43
0.0
 40
0.0
 40
0.0
 40
0.0
 40
0.0
 40
0.1390273267339879
 40
0.2793299384561939
 40
0.4207592851360307
 40
0.5631626633880823
 40
0.7063846434332056
 40
0.850268419151393
 40
0.9946570818823381
 40
1.139394816866109
 40
1.284328019597251
 40
1.42930632792949
 40
1.574183564539624
 40
1.718818495162745
 40
1.863073657522736
 40
2.006815319221066
 40
2.149915340802431
 40
2.292251750147028
 40
2.433709213845049
 40
2.5741794582491
 40
2.713561633250615
 40
2.713561633250615
 40
2.713561633250615
 40
2.713561633250615
 10
-90.65844074025071
 20
-77.55717193676978
 30
0.0
 10
-90.67421786912782
 20
-77.5135914491929
 30
0.0
 10
-90.70764912403777
 20
-77.42666938007638
 30
0.0
 10
-90.76307092700489
 20
-77.29779076035022
 30
0.0
 10
-90.82390454802515
 20
-77.17013169231824
 30
0.0
 10
-90.89003263818023
 20
-77.0440327865653
 30
0.0
 10
-90.96132372486238
 20
-76.91983524107842
 30
0.0
 10
-91.03763371402114
 20
-76.79787525998339
 30
0.0
 10
-91.11880547420728
 20
-76.6784839914537
 30
0.0
 10
-91.20466903098367
 20
-76.56198598129825
 30
0.0
 10
-91.295041682841
 20
-76.44869805033457
 30
0.0
 10
-91.38972821324728
 20
-76.33892808587004
 30
0.0
 10
-91.48852114130212
 20
-76.23297393563948
 30
0.0
 10
-91.5912005090321
 20
-76.13112272113432
 30
0.0
 10
-91.6975336718924
 20
-76.0336504966802
 30
0.0
 10
-91.80727523752773
 20
-75.94082137988002
 30
0.0
 10
-91.92016735784013
 20
-75.85288622125475
 30
0.0
 10
-92.03594098984108
 20
-75.77008121951911
 30
0.0
 10
-92.15431513969187
 20
-75.69262769251242
 30
0.0
 10
-92.2750024497479
 20
-75.62072868001373
 30
0.0
 10
-92.35713273204426
 20
-75.5764458941172
 30
0.0
 10
-92.39850628500056
 20
-75.55529162186066
 30
0.0
  0
SPLINE
  5
49A
330
4DD
100
AcDbEntity
  8
0
 62
     7
370
    40
390
F
100
AcDbSpline
210
0.0
220
0.0
230
1.0
 70
     8
 71
     3
 72
    53
 73
    49
 74
     0
 42
0.0
 43
0.0
 40
0.0
 40
0.0
 40
0.0
 40
0.0
 40
0.6993350797209306
 40
1.402019897793384
 40
2.107957941613047
 40
2.817032688312879
 40
3.529107962434406
 40
4.24402836273171
 40
4.961619759968203
 40
5.681689867646626
 40
6.404028887683586
 40
7.128410233102684
 40
7.85459132987466
 40
8.582314500081587
 40
9.311307928625173
 40
10.04128671573766
 40
10.77195400302057
 40
11.50299729823628
 40
12.23407716287695
 40
12.9648315097066
 40
13.69487873440772
 40
14.42381994913881
 40
15.15124130743324
 40
15.87671641227124
 40
16.59980879809791
 40
17.32007447643386
 40
18.03706452348136
 40
18.75032478705831
 40
19.45939529314066
 40
20.16382039744013
 40
20.86315327189079
 40
21.55695923357332
 40
22.24481900531029
 40
22.92633188015752
 40
23.60111875927913
 40
24.26882502984219
 40
24.92912324664766
 40
25.58171569820955
 40
26.22634062152566
 40
26.86278234362664
 40
27.4908748115629
 40
28.11050314243365
 40
28.72160488370008
 40
29.32417095031373
 40
29.91824619594422
 40
30.50392957240479
 40
31.08137382921277
 40
31.6507847045987
 40
31.6507847045987
 40
31.6507847045987
 40
31.6507847045987
 10
-90.65844074026707
 20
-77.55717193672434
 30
0.0
 10
-90.57908886905375
 20
-77.77636221301103
 30
0.0
 10
-90.41952171876315
 20
-78.21561751623254
 30
0.0
 10
-90.17840952980669
 20
-78.87560699402191
 30
0.0
 10
-89.93523151933513
 20
-79.53829725774379
 30
0.0
 10
-89.69027892526933
 20
-80.2036700636455
 30
0.0
 10
-89.44385838770035
 20
-80.87169279868334
 30
0.0
 10
-89.19629218377662
 20
-81.54231874503911
 30
0.0
 10
-88.94791843669915
 20
-82.21548732002495
 30
0.0
 10
-88.69909127500314
 20
-82.89112435571448
 30
0.0
 10
-88.45018094677243
 20
-83.5691423983123
 30
0.0
 10
-88.2015738857455
 20
-84.24944102977264
 30
0.0
 10
-87.95367272860098
 20
-84.93190720794873
 30
0.0
 10
-87.70689628143734
 20
-85.61641562273431
 30
0.0
 10
-87.46167943669738
 20
-86.30282906609236
 30
0.0
 10
-87.21847303227112
 20
-86.99099880523354
 30
0.0
 10
-86.97774422212409
 20
-87.68076342795453
 30
0.0
 10
-86.73997801818412
 20
-88.37194365745596
 30
0.0
 10
-86.50567803228135
 20
-89.06433793635588
 30
0.0
 10
-86.27536687228407
 20
-89.75772021495204
 30
0.0
 10
-86.04958455565354
 20
-90.45184175093596
 30
0.0
 10
-85.82888711126573
 20
-91.14643219988423
 30
0.0
 10
-85.61384514778727
 20
-91.84120035892585
 30
0.0
 10
-85.40504230178396
 20
-92.53583487671148
 30
0.0
 10
-85.20307356061178
 20
-93.23000491934296
 30
0.0
 10
-85.00854347089594
 20
-93.92336078311914
 30
0.0
 10
-84.82206446537687
 20
-94.6155335002957
 30
0.0
 10
-84.64425534424267
 20
-95.30613332629798
 30
0.0
 10
-84.47573862336519
 20
-95.99475046986618
 30
0.0
 10
-84.31713737915882
 20
-96.68095730087654
 30
0.0
 10
-84.16907212684708
 20
-97.36431187527982
 30
0.0
 10
-84.03215814021374
 20
-98.04435916696036
 30
0.0
 10
-83.90700277680801
 20
-98.72063183113755
 30
0.0
 10
-83.7942027032129
 20
-99.39265084967374
 30
0.0
 10
-83.69434103759387
 20
-100.0599260571623
 30
0.0
 10
-83.6079844037389
 20
-100.7219565451793
 30
0.0
 10
-83.53567994849911
 20
-101.3782309867466
 30
0.0
 10
-83.4779520474973
 20
-102.0282291772842
 30
0.0
 10
-83.435299794805
 20
-102.6714262865787
 30
0.0
 10
-83.4081930502708
 20
-103.3072974909268
 30
0.0
 10
-83.39707032493476
 20
-103.9353214725551
 30
0.0
 10
-83.40233748921274
 20
-104.5549811599177
 30
0.0
 10
-83.42436648517885
 20
-105.1657639257913
 30
0.0
 10
-83.46349402377624
 20
-105.7671613546896
 30
0.0
 10
-83.52002060776778
 20
-106.3586703524637
 30
0.0
 10
-83.59420852416173
 20
-106.9397891751214
 30
0.0
 10
-83.68628379752772
 20
-107.5100319079189
 30
0.0
 10
-83.76021732890521
 20
-107.8851658706181
 30
0.0
 10
-83.8002820678674
 20
-108.0707128176781
 30
0.0
  0
ELLIPSE
  5
49B
330
4DD
100
AcDbEntity
  8
0
 62
     7
370
    40
390
F
100
AcDbEllipse
 10
-309.796234
 20
-334.433441
 30
0.0
 11
-24.76098442077637
 21
25.29928207397461
 31
0.0
210
0.0
220
0.0
230
0.9999999999999998
 40
0.7255240000000001
 41
1.581667835546468
 42
2.334550721370264
  0
ELLIPSE
  5
49C
330
4DD
100
AcDbEntity
  8
0
 62
     7
370
    40
390
F
100
AcDbEllipse
 10
-298.975891
 20
-323.843353
 30
0.0
 11
25.18066215515137
 21
-25.72808265686035
 31
0.0
210
0.0
220
0.0
230
0.9999999999999999
 40
0.7255240000000001
 41
4.730731331711581
 42
5.460303100470237
  0
LINE
  5
49D
330
4DD
100
AcDbEntity
  8
0
 62
     7
 48
0.012818
370
    40
390
F
100
AcDbLine
 10
-317.177246
 20
-342.581329
 30
0.0
 11
-317.060852
 21
-342.082001
 31
0.0
  0
ELLIPSE
  5
49E
330
4DD
100
AcDbEntity
  8
0
 62
     7
370
    40
390
F
100
AcDbEllipse
 10
-298.975891
 20
-323.843353
 30
0.0
 11
24.76098442077637
 21
-25.29928207397461
 31
0.0
210
0.0
220
0.0
230
0.9999999999999998
 40
0.7255240000000001
 41
4.723260489136225
 42
5.476143374960058
  0
ARC
  5
49F
330
4DD
100
AcDbEntity
  8
0
 62
     7
370
    40
390
F
100
AcDbCircle
 10
-230.187851
 20
-277.29425
 30
0.0
 40
1.265838
100
AcDbArc
 50
2.359498
 51
32.797168
  0
SPLINE
  5
4A0
330
4DD
100
AcDbEntity
  8
0
 62
     7
370
    40
390
F
100
AcDbSpline
210
0.0
220
0.0
230
1.0
 70
     8
 71
     3
 72
    17
 73
    13
 74
     0
 42
0.0
 43
0.0
 40
0.0
 40
0.0
 40
0.0
 40
0.0
 40
0.1220043959060968
 40
0.2481196242791991
 40
0.378355339239797
 40
0.5126480494806627
 40
0.6508685778159566
 40
0.7928293819231844
 40
0.9382916070466605
 40
1.086971825922523
 40
1.238548470735645
 40
1.392667988398648
 40
1.392667988398648
 40
1.392667988398648
 40
1.392667988398648
 10
-229.1230026205894
 20
-276.6080812077714
 30
0.0
 10
-229.1441086508013
 20
-276.5733007824042
 30
0.0
 10
-229.1895385655171
 20
-276.5041253264927
 30
0.0
 10
-229.2655531404036
 20
-276.4033793024636
 30
0.0
 10
-229.3502081468806
 20
-276.3043409506045
 30
0.0
 10
-229.4431442719865
 20
-276.2073660401072
 30
0.0
 10
-229.5439643872058
 20
-276.1128147844539
 30
0.0
 10
-229.6522408930472
 20
-276.021040816164
 30
0.0
 10
-229.7675161738599
 20
-275.9323923485534
 30
0.0
 10
-229.8893039222759
 20
-275.8472108241858
 30
0.0
 10
-230.0170963743019
 20
-275.7658271860662
 30
0.0
 10
-230.1052703359668
 20
-275.7147062118559
 30
0.0
 10
-230.1502280349836
 20
-275.6898311116599
 30
0.0
  0
SPLINE
  5
4A1
330
4DD
100
AcDbEntity
  8
0
 62
     7
370
    40
390
F
100
AcDbSpline
210
0.0
220
0.0
230
1.0
 70
     8
 71
     3
 72
    48
 73
    44
 74
     0
 42
0.0
 43
0.0
 40
0.0
 40
0.0
 40
0.0
 40
0.0
 40
0.1152216246911418
 40
0.2313641758569821
 40
0.3483012439248643
 40
0.4659015945573999
 40
0.5840297401287997
 40
0.7025465346412401
 40
0.8213097901856226
 40
0.9401749129765218
 40
1.05899555701043
 40
1.177624293501054
 40
1.295913294444694
 40
1.41371502895973
 40
1.530883018605923
 40
1.647272905193642
 40
1.762742535403007
 40
1.877152321368159
 40
1.990366152500081
 40
2.10225236495107
 40
2.212684763674917
 40
2.321543700050602
 40
2.42871720888799
 40
2.534102209419264
 40
2.637605775488729
 40
2.739146480421312
 40
2.838655821739211
 40
2.93607970951849
 40
3.031379502926855
 40
3.124533231145274
 40
3.21553756820609
 40
3.304409555659883
 40
3.391188270842926
 40
3.475936397723656
 40
3.558741617743002
 40
3.639717713921385
 40
3.719005257928538
 40
3.796771731441381
 40
3.873210926452213
 40
3.948541481793509
 40
4.023004449941721
 40
4.09685965451864
 40
4.170380675415379
 40
4.170380675415379
 40
4.170380675415379
 40
4.170380675415379
 10
-232.5029457655729
 20
-277.6399891247951
 30
0.0
 10
-232.4693465373505
 20
-277.6586037561171
 30
0.0
 10
-232.4012280079352
 20
-277.6947912077868
 30
0.0
 10
-232.2968612903327
 20
-277.7457069184856
 30
0.0
 10
-232.190105311346
 20
-277.793375663952
 30
0.0
 10
-232.0812008580541
 20
-277.8376945303009
 30
0.0
 10
-231.9703964851444
 20
-277.8785690273599
 30
0.0
 10
-231.8579452488443
 20
-277.9159146882727
 30
0.0
 10
-231.7441047302279
 20
-277.9496568075566
 30
0.0
 10
-231.6291361467508
 20
-277.9797306465383
 30
0.0
 10
-231.5133036926332
 20
-278.0060814755049
 30
0.0
 10
-231.3968738061791
 20
-278.0286646190912
 30
0.0
 10
-231.2801144518403
 20
-278.0474454657369
 30
0.0
 10
-231.1632943815318
 20
-278.0623994268391
 30
0.0
 10
-231.0466822945256
 20
-278.073511951447
 30
0.0
 10
-230.9305461848336
 20
-278.0807780628949
 30
0.0
 10
-230.8151529169323
 20
-278.0842020125659
 30
0.0
 10
-230.7007679170192
 20
-278.0837971903126
 30
0.0
 10
-230.5876546038239
 20
-278.0795858998331
 30
0.0
 10
-230.4760736563228
 20
-278.0715991574295
 30
0.0
 10
-230.366282285017
 20
-278.0598764437998
 30
0.0
 10
-230.2585335161256
 20
-278.0444654222512
 30
0.0
 10
-230.1530754937778
 20
-278.0254216196708
 30
0.0
 10
-230.0501508061227
 20
-278.0028080708532
 30
0.0
 10
-229.9499958399585
 20
-277.9766949288924
 30
0.0
 10
-229.852840172975
 20
-277.9471590344971
 30
0.0
 10
-229.7589060030631
 20
-277.9142834785306
 30
0.0
 10
-229.6684078314689
 20
-277.8781571188643
 30
0.0
 10
-229.5815521653239
 20
-277.8388745453395
 30
0.0
 10
-229.4985372769302
 20
-277.7965356543248
 30
0.0
 10
-229.4195528965679
 20
-277.7512451418486
 30
0.0
 10
-229.3447796458844
 20
-277.7031123263142
 30
0.0
 10
-229.2743886365936
 20
-277.6522509027274
 30
0.0
 10
-229.2085411073263
 20
-277.5987787255127
 30
0.0
 10
-229.1473881006252
 20
-277.5428176009389
 30
0.0
 10
-229.0910701635808
 20
-277.4844931011972
 30
0.0
 10
-229.0397170592695
 20
-277.4239344278262
 30
0.0
 10
-228.9934474426217
 20
-277.3612742360495
 30
0.0
 10
-228.9523685476605
 20
-277.2966487117392
 30
0.0
 10
-228.9165755949138
 20
-277.2301967392477
 30
0.0
 10
-228.8861519307462
 20
-277.1620622846521
 30
0.0
 10
-228.8611663128312
 20
-277.0923850124875
 30
0.0
 10
-228.8481628575338
 20
-277.0449710008451
 30
0.0
 10
-228.8425941038944
 20
-277.0210925532454
 30
0.0
  0
SPLINE
  5
4A2
330
4DD
100
AcDbEntity
  8
0
 62
     7
370
    40
390
F
100
AcDbSpline
210
0.0
220
0.0
230
1.0
 70
     8
 71
     3
 72
    31
 73
    27
 74
     0
 42
0.0
 43
0.0
 40
0.0
 40
0.0
 40
0.0
 40
0.0
 40
0.0767600928972005
 40
0.1537872397750233
 40
0.2314009029438624
 40
0.3099086274506762
 40
0.3895995515252931
 40
0.4707390166554518
 40
0.5535644681211384
 40
0.6382826836622645
 40
0.725068243138492
 40
0.8140630698192362
 40
0.9053767900962661
 40
0.9990870194124635
 40
1.095240336022611
 40
1.193854241454873
 40
1.294919090172694
 40
1.39840009234944
 40
1.504239336541102
 40
1.612357793128647
 40
1.722657274287184
 40
1.83502220911511
 40
1.949321318795337
 40
2.065409547859355
 40
2.183129763695114
 40
2.302314357288124
 40
2.302314357288124
 40
2.302314357288124
 40
2.302314357288124
 10
-228.8425941038944
 20
-277.0210925532454
 30
0.0
 10
-228.8367797341677
 20
-276.9961609200945
 30
0.0
 10
-228.8271474006117
 20
-276.9457658253259
 30
0.0
 10
-228.8187800388966
 20
-276.8690005496153
 30
0.0
 10
-228.8165101193147
 20
-276.7912384386725
 30
0.0
 10
-228.8203343150956
 20
-276.7126497397397
 30
0.0
 10
-228.8302345653219
 20
-276.6334128852259
 30
0.0
 10
-228.8461761942598
 20
-276.5537032435974
 30
0.0
 10
-228.8681092842137
 20
-276.4736957176572
 30
0.0
 10
-228.8959691567092
 20
-276.3935638191958
 30
0.0
 10
-228.9296770167359
 20
-276.3134798746219
 30
0.0
 10
-228.9691404468912
 20
-276.2336150127422
 30
0.0
 10
-229.0142537120314
 20
-276.1541394382285
 30
0.0
 10
-229.0648979164658
 20
-276.0752227901685
 30
0.0
 10
-229.1209411337432
 20
-275.9970343760167
 30
0.0
 10
-229.1822385286854
 20
-275.9197430389416
 30
0.0
 10
-229.2486326597838
 20
-275.8435168521934
 30
0.0
 10
-229.3199538154525
 20
-275.7685228389479
 30
0.0
 10
-229.3960204282393
 20
-275.6949266784019
 30
0.0
 10
-229.4766395576113
 20
-275.6228924084875
 30
0.0
 10
-229.5616074306457
 20
-275.5525821666873
 30
0.0
 10
-229.6507099103645
 20
-275.4841559669119
 30
0.0
 10
-229.7437231572613
 20
-275.4177712129385
 30
0.0
 10
-229.8404137130786
 20
-275.3535827178641
 30
0.0
 10
-229.940541435998
 20
-275.2917410330484
 30
0.0
 10
-230.0090255621752
 20
-275.2524018991878
 30
0.0
 10
-230.0437798403518
 20
-275.2331473475403
 30
0.0
  0
SPLINE
  5
4A3
330
4DD
100
AcDbEntity
  8
0
 62
     7
370
    40
390
F
100
AcDbSpline
210
0.0
220
0.0
230
1.0
 70
     8
 71
     3
 72
    45
 73
    41
 74
     0
 42
0.0
 43
0.0
 40
0.0
 40
0.0
 40
0.0
 40
0.0
 40
0.1153056263192315
 40
0.2316330295101274
 40
0.3488169955637649
 40
0.4666881130551603
 40
0.5850739621290524
 40
0.703800269304472
 40
0.8226920330943926
 40
0.941574624744596
 40
1.060274867877929
 40
1.178622100477792
 40
1.296449222457381
 40
1.413593732020538
 40
1.529898754110625
 40
1.645214069269455
 40
1.759396686214026
 40
1.872310752663406
 40
1.983828392524672
 40
2.093830813690545
 40
2.202209437469345
 40
2.308867046629861
 40
2.413718947699516
 40
2.516694140947566
 40
2.617736488565757
 40
2.716805867741863
 40
2.813879290445116
 40
2.908951965651066
 40
3.002038208084219
 40
3.093171506453324
 40
3.182405317444693
 40
3.269814104874977
 40
3.35549368425063
 40
3.439561218217459
 40
3.522154789176958
 40
3.603432470165479
 40
3.683570829214156
 40
3.762762828748032
 40
3.841215120282071
 40
3.919144783182441
 40
3.919144783182441
 40
3.919144783182441
 40
3.919144783182441
 10
-230.1502280349836
 20
-275.6898311116599
 30
0.0
 10
-230.1838610693162
 20
-275.6712219497764
 30
0.0
 10
-230.251981441028
 20
-275.6348547125755
 30
0.0
 10
-230.3561261466721
 20
-275.5831137612892
 30
0.0
 10
-230.4624938195513
 20
-275.5340376365851
 30
0.0
 10
-230.570846568894
 20
-275.4877400401056
 30
0.0
 10
-230.6809411792377
 20
-275.4443311614162
 30
0.0
 10
-230.7925315934571
 20
-275.4039162413148
 30
0.0
 10
-230.9053690218658
 20
-275.3665954934669
 30
0.0
 10
-231.0192027040085
 20
-275.3324637003681
 30
0.0
 10
-231.1337804986851
 20
-275.3016099397644
 30
0.0
 10
-231.248849517847
 20
-275.2741173198508
 30
0.0
 10
-231.3641567395737
 20
-275.2500627548117
 30
0.0
 10
-231.4794496114971
 20
-275.2295167783133
 30
0.0
 10
-231.5944766348161
 20
-275.2125433726972
 30
0.0
 10
-231.7089877821869
 20
-275.1991999193531
 30
0.0
 10
-231.8227344686569
 20
-275.1895367350642
 30
0.0
 10
-231.935469502228
 20
-275.1835968520119
 30
0.0
 10
-232.0469471888878
 20
-275.1814157695896
 30
0.0
 10
-232.1569238217705
 20
-275.1830210780531
 30
0.0
 10
-232.2651582649358
 20
-275.1884321285515
 30
0.0
 10
-232.3714125403248
 20
-275.1976597317066
 30
0.0
 10
-232.4754524121664
 20
-275.2107058930629
 30
0.0
 10
-232.5770479619151
 20
-275.2275635837309
 30
0.0
 10
-232.6759741474647
 20
-275.2482165453107
 30
0.0
 10
-232.7720113388064
 20
-275.2726391301024
 30
0.0
 10
-232.8649458285356
 20
-275.3007961638764
 30
0.0
 10
-232.9545702747878
 20
-275.3326428565135
 30
0.0
 10
-233.0406839161518
 20
-275.3681245257874
 30
0.0
 10
-233.1230925975783
 20
-275.4071767737393
 30
0.0
 10
-233.2016092779427
 20
-275.4497249341255
 30
0.0
 10
-233.2760547747492
 20
-275.4956839601737
 30
0.0
 10
-233.3462583347898
 20
-275.5449586779099
 30
0.0
 10
-233.4120580847535
 20
-275.597443888223
 30
0.0
 10
-233.4733015014881
 20
-275.6530245445758
 30
0.0
 10
-233.5298457969077
 20
-275.7115757229258
 30
0.0
 10
-233.5815586997533
 20
-275.7729633890012
 30
0.0
 10
-233.6283178965383
 20
-275.837042401157
 30
0.0
 10
-233.670015495044
 20
-275.9036649113521
 30
0.0
 10
-233.6944261499588
 20
-275.9497656412934
 30
0.0
 10
-233.7057395464819
 20
-275.9731619486796
 30
0.0
  0
SPLINE
  5
4A4
330
4DD
100
AcDbEntity
  8
0
 62
     7
370
    40
390
F
100
AcDbSpline
210
0.0
220
0.0
230
1.0
 70
     8
 71
     3
 72
    48
 73
    44
 74
     0
 42
0.0
 43
0.0
 40
0.0
 40
0.0
 40
0.0
 40
0.0
 40
0.1154111341571567
 40
0.2318439730981701
 40
0.3491324761144439
 40
0.4671064586385911
 40
0.5855927897471193
 40
0.7044165549882635
 40
0.8234021895204364
 40
0.9423745858859757
 40
1.061160180255498
 40
1.179588020663326
 40
1.297490820600295
 40
1.4147060013296
 40
1.531076742943525
 40
1.646452961030863
 40
1.760691179299724
 40
1.873654988813076
 40
1.985216134796549
 40
2.095255635344312
 40
2.203664918804772
 40
2.310346977030938
 40
2.415217530010324
 40
2.518206195171865
 40
2.61925765173291
 40
2.718332786621003
 40
2.815409803605818
 40
2.910485246776095
 40
3.003574220599703
 40
3.094710920469377
 40
3.183950048331783
 40
3.271367438316954
 40
3.357060370934554
 40
3.441147535454725
 40
3.523768557006308
 40
3.605083009690842
 40
3.685268852387992
 40
3.764520251758165
 40
3.84304479715372
 40
3.921060161870016
 40
3.998790334970294
 40
4.076462377368746
 40
4.154302795844924
 40
4.154302795844924
 40
4.154302795844924
 40
4.154302795844924
 10
-230.0437798403518
 20
-275.2331473475403
 30
0.0
 10
-230.0774333842834
 20
-275.2145026242502
 30
0.0
 10
-230.1455953559823
 20
-275.1780640413122
 30
0.0
 10
-230.2498041614279
 20
-275.1262158196984
 30
0.0
 10
-230.3562370782525
 20
-275.0770322573107
 30
0.0
 10
-230.4646556207214
 20
-275.0306275161691
 30
0.0
 10
-230.5748160293466
 20
-274.9871122332012
 30
0.0
 10
-230.6864717609585
 20
-274.9465920916386
 30
0.0
 10
-230.7993736051355
 20
-274.909167752327
 30
0.0
 10
-230.9132704511423
 20
-274.8749344597813
 30
0.0
 10
-231.0279098815674
 20
-274.8439817798284
 30
0.0
 10
-231.1430388077589
 20
-274.8163933448524
 30
0.0
 10
-231.25840408333
 20
-274.7922466460215
 30
0.0
 10
-231.3737531085296
 20
-274.7716128396675
 30
0.0
 10
-231.4888344056274
 20
-274.7545566589366
 30
0.0
 10
-231.6033977407377
 20
-274.7411360983574
 30
0.0
 10
-231.7171940576852
 20
-274.7314020948562
 30
0.0
 10
-231.8299754579399
 20
-274.7253983831357
 30
0.0
 10
-231.9414955539175
 20
-274.7231610967379
 30
0.0
 10
-232.0515100459058
 20
-274.724718412522
 30
0.0
 10
-232.1597773080427
 20
-274.7300902178993
 30
0.0
 10
-232.2660589753485
 20
-274.7392878162996
 30
0.0
 10
-232.3701205245926
 20
-274.7523136679423
 30
0.0
 10
-232.4717318427461
 20
-274.7691611660166
 30
0.0
 10
-232.5706677753362
 20
-274.7898144496999
 30
0.0
 10
-232.6667086517213
 20
-274.8142482425903
 30
0.0
 10
-232.7596407605902
 20
-274.8424277458956
 30
0.0
 10
-232.849256594333
 20
-274.8743083742269
 30
0.0
 10
-232.9353548444642
 20
-274.9098357997959
 30
0.0
 10
-233.0177407615728
 20
-274.9489455634381
 30
0.0
 10
-233.0962269213753
 20
-274.9915626816272
 30
0.0
 10
-233.1706338765873
 20
-275.0376019188951
 30
0.0
 10
-233.2407906343325
 20
-275.0869678725101
 30
0.0
 10
-233.3065351033987
 20
-275.1395550798666
 30
0.0
 10
-233.3677145488027
 20
-275.1952481162999
 30
0.0
 10
-233.4241860634558
 20
-275.2539217096723
 30
0.0
 10
-233.475817061508
 20
-275.315440866062
 30
0.0
 10
-233.5224858106511
 20
-275.3796611099904
 30
0.0
 10
-233.5640819275031
 20
-275.4464285808203
 30
0.0
 10
-233.6005070464451
 20
-275.5155810631749
 30
0.0
 10
-233.6316748647896
 20
-275.5869463330988
 30
0.0
 10
-233.6575135520382
 20
-275.6603521668644
 30
0.0
 10
-233.6711157028851
 20
-275.7104117300323
 30
0.0
 10
-233.6770110680066
 20
-275.735691902434
 30
0.0
  0
SPLINE
  5
4A5
330
4DD
100
AcDbEntity
  8
0
 62
     7
370
    40
390
F
100
AcDbSpline
210
0.0
220
0.0
230
1.0
 70
     8
 71
     3
 72
    31
 73
    27
 74
     0
 42
0.0
 43
0.0
 40
0.0
 40
0.0
 40
0.0
 40
0.0
 40
0.0817833303460183
 40
0.1642341381306127
 40
0.247579915722837
 40
0.3320305606358011
 40
0.4177760226863308
 40
0.5049847162597824
 40
0.5938026517895609
 40
0.6843532022014529
 40
0.7767373987427939
 40
0.8710346440323589
 40
0.967303714542425
 40
1.065583490506925
 40
1.165893382846452
 40
1.268234355198301
 40
1.372590072527971
 40
1.478928054533315
 40
1.587200816292059
 40
1.697346984057404
 40
1.809292378524409
 40
1.92295106094616
 40
2.038226339465497
 40
2.15501173419662
 40
2.273191900174357
 40
2.392643507463275
 40
2.392643507463275
 40
2.392643507463275
 40
2.392643507463275
 10
-233.6770110680066
 20
-275.735691902434
 30
0.0
 10
-233.6832052233205
 20
-275.7622533300968
 30
0.0
 10
-233.6936094591322
 20
-275.8160434132453
 30
0.0
 10
-233.703190521888
 20
-275.8980920381739
 30
0.0
 10
-233.7067660917674
 20
-275.98150334604
 30
0.0
 10
-233.7043296814308
 20
-276.0660528606914
 30
0.0
 10
-233.6958879318992
 20
-276.1515057043088
 30
0.0
 10
-233.681462533415
 20
-276.2376273562095
 30
0.0
 10
-233.6610892301575
 20
-276.3241817367312
 30
0.0
 10
-233.6348176163795
 20
-276.4109326773622
 30
0.0
 10
-233.6027107201833
 20
-276.4976444168382
 30
0.0
 10
-233.5648446429909
 20
-276.5840823307534
 30
0.0
 10
-233.5213082743485
 20
-276.6700134466561
 30
0.0
 10
-233.4722030837218
 20
-276.7552066608191
 30
0.0
 10
-233.4176434451587
 20
-276.839433116704
 30
0.0
 10
-233.35775680724
 20
-276.9224666966049
 30
0.0
 10
-233.2926836265364
 20
-277.0040846803296
 30
0.0
 10
-233.2225772458106
 20
-277.0840684674142
 30
0.0
 10
-233.1476036957221
 20
-277.1622043089966
 30
0.0
 10
-233.067941435495
 20
-277.2382840438681
 30
0.0
 10
-232.9837810083773
 20
-277.3121058434854
 30
0.0
 10
-232.8953247054649
 20
-277.3834749102086
 30
0.0
 10
-232.8027858980242
 20
-277.4522043135348
 30
0.0
 10
-232.7063893526055
 20
-277.518115232886
 30
0.0
 10
-232.6063675485812
 20
-277.5810393673763
 30
0.0
 10
-232.5377790224522
 20
-277.6206908173975
 30
0.0
 10
-232.5029457655729
 20
-277.6399891247951
 30
0.0
  0
LINE
  5
4A6
330
4DD
100
AcDbEntity
  8
0
 62
     7
 48
0.378509
370
    40
390
F
100
AcDbLine
 10
-327.881195
 20
-352.672119
 30
0.0
 11
-317.060852
 21
-342.082001
 31
0.0
  0
LINE
  5
4A7
330
4DD
100
AcDbEntity
  8
0
 62
     7
 48
0.367624
370
    40
390
F
100
AcDbLine
 10
-327.686432
 20
-352.866913
 30
0.0
 11
-317.177246
 21
-342.581329
 31
0.0
  0
LINE
  5
4A8
330
4DD
100
AcDbEntity
  8
0
 62
     7
 48
0.378508
370
    40
390
F
100
AcDbLine
 10
-295.107208
 20
-354.316193
 30
0.0
 11
-305.927551
 21
-364.906281
 31
0.0
  0
SPLINE
  5
4A9
330
4DD
100
AcDbEntity
  8
0
 62
     7
370
    40
390
F
100
AcDbSpline
210
0.0
220
0.0
230
1.0
 70
     8
 71
     3
 72
    53
 73
    49
 74
     0
 42
0.0
 43
0.0
 40
0.0
 40
0.0
 40
0.0
 40
0.0
 40
0.699335079712168
 40
1.40201989778635
 40
2.107957941624908
 40
2.817032688363267
 40
3.529107962542091
 40
4.244028362911862
 40
4.96161976023057
 40
5.681689867994251
 40
6.404028888112493
 40
7.128410233602413
 40
7.854591330429311
 40
8.582314500671968
 40
9.311307929231655
 40
10.04128671634357
 40
10.77195400361671
 40
11.50299729882422
 40
12.23407716346494
 40
12.96483151030467
 40
13.694878735024
 40
14.42381994977723
 40
15.15124130809238
 40
15.87671641294461
 40
16.59980879877557
 40
17.32007447710523
 40
18.03706452413931
 40
18.7503247876888
 40
19.45939529370079
 40
20.16382039787604
 40
20.86315327215649
 40
21.5569592336431
 40
22.2448190051848
 40
22.92633187986371
 40
23.60111875886437
 40
24.2688250293617
 40
24.92912324614692
 40
25.58171569770533
 40
26.22634062102914
 40
26.86278234315703
 40
27.49087481114127
 40
28.11050314207758
 40
28.72160488342034
 40
29.3241709501121
 40
29.91824619581354
 40
30.50392957232986
 40
31.08137382917332
 40
31.65078470457357
 40
31.65078470457357
 40
31.65078470457357
 40
31.65078470457357
 10
-484.1249887756179
 20
-462.6518562975205
 30
0.0
 10
-484.0456369044056
 20
-462.8710465738045
 30
0.0
 10
-483.8860697541155
 20
-463.3103018770237
 30
0.0
 10
-483.6449575651569
 20
-463.9702913548165
 30
0.0
 10
-483.4017795546779
 20
-464.6329816185566
 30
0.0
 10
-483.1568269605988
 20
-465.2983544244942
 30
0.0
 10
-482.9104064230106
 20
-465.9663771595847
 30
0.0
 10
-482.6628402190627
 20
-466.6370031060069
 30
0.0
 10
-482.4144664719577
 20
-467.3101716810679
 30
0.0
 10
-482.165639310233
 20
-467.9858087168351
 30
0.0
 10
-481.9167289819751
 20
-468.6638267595073
 30
0.0
 10
-481.6681219209248
 20
-469.3441253910325
 30
0.0
 10
-481.4202207637627
 20
-470.0265915692596
 30
0.0
 10
-481.1734443165885
 20
-470.7110999840791
 30
0.0
 10
-480.9282274718457
 20
-471.3975134274543
 30
0.0
 10
-480.6850210674222
 20
-472.0856831665985
 30
0.0
 10
-480.4442922572804
 20
-472.7754477893147
 30
0.0
 10
-480.206526053344
 20
-473.4666280188111
 30
0.0
 10
-479.972226067443
 20
-474.1590222977123
 30
0.0
 10
-479.7419149074462
 20
-474.8524045763186
 30
0.0
 10
-479.5161325908144
 20
-475.5465261123198
 30
0.0
 10
-479.2954351464257
 20
-476.2411165612891
 30
0.0
 10
-479.080393182947
 20
-476.9358847203506
 30
0.0
 10
-478.8715903369463
 20
-477.6305192381506
 30
0.0
 10
-478.6696215957795
 20
-478.3246892807879
 30
0.0
 10
-478.4750915060721
 20
-479.0180451445611
 30
0.0
 10
-478.2886125005647
 20
-479.7102178617246
 30
0.0
 10
-478.1108033794465
 20
-480.4008176876927
 30
0.0
 10
-477.9422866585897
 20
-481.0894348311897
 30
0.0
 10
-477.7836854144109
 20
-481.7756416620816
 30
0.0
 10
-477.6356201621337
 20
-482.4589962363251
 30
0.0
 10
-477.4987061755381
 20
-483.1390435278224
 30
0.0
 10
-477.373550812169
 20
-483.8153161918167
 30
0.0
 10
-477.2607507386037
 20
-484.4873352101941
 30
0.0
 10
-477.1608890730035
 20
-485.1546104175659
 30
0.0
 10
-477.0745324391543
 20
-485.816640905514
 30
0.0
 10
-477.0022279839085
 20
-486.4729153470506
 30
0.0
 10
-476.9445000828971
 20
-487.122913537582
 30
0.0
 10
-476.9018478301966
 20
-487.7661106468863
 30
0.0
 10
-476.8747410856557
 20
-488.4019818512617
 30
0.0
 10
-476.8636183603141
 20
-489.0300058329367
 30
0.0
 10
-476.8688855245876
 20
-489.6496655203626
 30
0.0
 10
-476.8909145205499
 20
-490.2604482863098
 30
0.0
 10
-476.9300420591442
 20
-490.8618457152836
 30
0.0
 10
-476.9865686431338
 20
-491.4533547131264
 30
0.0
 10
-477.0607565595265
 20
-492.0344735358389
 30
0.0
 10
-477.1528318328922
 20
-492.6047162686721
 30
0.0
 10
-477.2267653642711
 20
-492.979850231388
 30
0.0
 10
-477.2668301032341
 20
-493.1653971784527
 30
0.0
  0
SPLINE
  5
4AA
330
4DD
100
AcDbEntity
  8
0
 62
     7
370
    40
390
F
100
AcDbSpline
210
0.0
220
0.0
230
1.0
 70
     8
 71
     3
 72
    26
 73
    22
 74
     0
 42
0.0
 43
0.0
 40
0.0
 40
0.0
 40
0.0
 40
0.0
 40
0.1390273267458097
 40
0.2793299384713494
 40
0.4207592851416625
 40
0.5631626633713211
 40
0.7063846433841423
 40
0.8502684190653418
 40
0.9946570817607208
 40
1.139394816716265
 40
1.284328019430899
 40
1.429306327760363
 40
1.57418356437932
 40
1.718818495016667
 40
1.863073657393124
 40
2.006815319111646
 40
2.149915340715845
 40
2.292251750083727
 40
2.433709213802933
 40
2.574179458224511
 40
2.713561633240245
 40
2.713561633240245
 40
2.713561633240245
 40
2.713561633240245
 10
-484.1249887756179
 20
-462.6518562975205
 30
0.0
 10
-484.1407659044966
 20
-462.6082758099401
 30
0.0
 10
-484.1741971594088
 20
-462.521353740819
 30
0.0
 10
-484.2296189623775
 20
-462.3924751210914
 30
0.0
 10
-484.2904525833943
 20
-462.2648160530683
 30
0.0
 10
-484.3565806735394
 20
-462.1387171473343
 30
0.0
 10
-484.4278717602057
 20
-462.0145196018736
 30
0.0
 10
-484.5041817493438
 20
-461.892559620807
 30
0.0
 10
-484.5853535095081
 20
-461.7731683523031
 30
0.0
 10
-484.6712170662649
 20
-461.6566703421664
 30
0.0
 10
-484.761589718108
 20
-461.5433824112117
 30
0.0
 10
-484.8562762485075
 20
-461.4336124467459
 30
0.0
 10
-484.9550691765626
 20
-461.3276582965063
 30
0.0
 10
-485.057748544298
 20
-461.225807081988
 30
0.0
 10
-485.1640817071674
 20
-461.1283348575187
 30
0.0
 10
-485.2738232728152
 20
-461.0355057407024
 30
0.0
 10
-485.3867153931428
 20
-460.9475705820607
 30
0.0
 10
-485.5024890251603
 20
-460.8647655803098
 30
0.0
 10
-485.6208631750275
 20
-460.7873120532902
 30
0.0
 10
-485.7415504850982
 20
-460.7154130407818
 30
0.0
 10
-485.8236807674038
 20
-460.67113025488
 30
0.0
 10
-485.8650543203643
 20
-460.6499759826212
 30
0.0
  0
SPLINE
  5
4AB
330
4DD
100
AcDbEntity
  8
0
 62
     7
370
    40
390
F
100
AcDbSpline
210
0.0
220
0.0
230
1.0
 70
     8
 71
     3
 72
    54
 73
    50
 74
     0
 42
0.0
 43
0.0
 40
0.0
 40
0.0
 40
0.0
 40
0.0
 40
0.6803916275469776
 40
1.363887188060783
 40
2.050391851258869
 40
2.739792632682634
 40
3.431958731953249
 40
4.126741931959878
 40
4.823977060493081
 40
5.523482515887567
 40
6.225060858291702
 40
6.928499468221536
 40
7.633571274091924
 40
8.340035550447304
 40
9.047638788639262
 40
9.756115641716898
 40
10.46518991556103
 40
11.1745707909825
 40
11.8839434942847
 40
12.59297328292585
 40
13.301308012177
 40
14.00858009996597
 40
14.71440856906438
 40
15.41840115963153
 40
16.12015650425157
 40
16.81926635667962
 40
17.51531786454252
 40
18.20789434925141
 40
18.89657294494074
 40
19.58093330152341
 40
20.26056259721169
 40
20.93505845265437
 40
21.60403178993207
 40
22.26710961391516
 40
22.92393769121652
 40
23.57418309970294
 40
24.21753661919317
 40
24.85371493233502
 40
25.48246368486019
 40
26.10356613493868
 40
26.71684920253528
 40
27.32218510012865
 40
27.91949252294817
 40
28.5087375818117
 40
29.08993444548426
 40
29.66314565671003
 40
30.22848208390796
 40
30.78610246932237
 40
31.33621253458599
 40
31.33621253458599
 40
31.33621253458599
 40
31.33621253458599
 10
-483.6723820338862
 20
-462.6232261993828
 30
0.0
 10
-483.5967905908163
 20
-462.8370554250479
 30
0.0
 10
-483.4448150653157
 20
-463.2655309085865
 30
0.0
 10
-483.215234709407
 20
-463.9092825816386
 30
0.0
 10
-482.9837711624508
 20
-464.5555501542093
 30
0.0
 10
-482.7506993393305
 20
-465.2043112382635
 30
0.0
 10
-482.5163081673422
 20
-465.8555303388267
 30
0.0
 10
-482.2809007786814
 20
-466.5091590937786
 30
0.0
 10
-482.0447946789116
 20
-467.1651364917646
 30
0.0
 10
-481.8083218712671
 20
-467.8233891242322
 30
0.0
 10
-481.5718289407329
 20
-468.4838314541582
 30
0.0
 10
-481.3356770953148
 20
-469.1463661036153
 30
0.0
 10
-481.1002421639913
 20
-469.8108841569468
 30
0.0
 10
-480.8659145494158
 20
-470.4772654772461
 30
0.0
 10
-480.6330991374405
 20
-471.1453790346012
 30
0.0
 10
-480.4022151546513
 20
-471.8150832302572
 30
0.0
 10
-480.173696535492
 20
-472.4862246988407
 30
0.0
 10
-479.9479931844963
 20
-473.1586337337966
 30
0.0
 10
-479.7255715788115
 20
-473.8321204814994
 30
0.0
 10
-479.5069150223142
 20
-474.5064731833044
 30
0.0
 10
-479.2925222438042
 20
-475.1814597632504
 30
0.0
 10
-479.0829061883159
 20
-475.8568287299994
 30
0.0
 10
-478.8785927559617
 20
-476.5323098330149
 30
0.0
 10
-478.6801194377852
 20
-477.2076146900243
 30
0.0
 10
-478.4880338437977
 20
-477.8824373768626
 30
0.0
 10
-478.3028921300416
 20
-478.5564549743924
 30
0.0
 10
-478.1252574442498
 20
-479.2293275707096
 30
0.0
 10
-477.955698657295
 20
-479.9006966920523
 30
0.0
 10
-477.7947882285758
 20
-480.5701856656541
 30
0.0
 10
-477.643099421349
 20
-481.2374012397528
 30
0.0
 10
-477.5012034988119
 20
-481.9019369800762
 30
0.0
 10
-477.3696673197403
 20
-482.5633747263249
 30
0.0
 10
-477.2490510239266
 20
-483.2212852891765
 30
0.0
 10
-477.1399056318107
 20
-483.8752290476752
 30
0.0
 10
-477.0427705717073
 20
-484.5247564458685
 30
0.0
 10
-476.9581711302473
 20
-485.1694083859513
 30
0.0
 10
-476.8866158723513
 20
-485.8087165214521
 30
0.0
 10
-476.8285938619034
 20
-486.4422037973941
 30
0.0
 10
-476.7845721463843
 20
-487.0693872397719
 30
0.0
 10
-476.7549931236185
 20
-487.6897821431227
 30
0.0
 10
-476.7402714446991
 20
-488.3029059686099
 30
0.0
 10
-476.7407929222974
 20
-488.9082800894042
 30
0.0
 10
-476.7569133509883
 20
-489.5054299562944
 30
0.0
 10
-476.7889574554775
 20
-490.0938852487437
 30
0.0
 10
-476.8372177746494
 20
-490.6731796323169
 30
0.0
 10
-476.9019538830635
 20
-491.2428517808985
 30
0.0
 10
-476.9833905631869
 20
-491.8024416571481
 30
0.0
 10
-477.0817199818802
 20
-492.3515040604995
 30
0.0
 10
-477.1591461614169
 20
-492.7126009621197
 30
0.0
 10
-477.2007759017125
 20
-492.8912018187968
 30
0.0
  0
SPLINE
  5
4AC
330
4DD
100
AcDbEntity
  8
0
 62
     7
370
    40
390
F
100
AcDbSpline
210
0.0
220
0.0
230
1.0
 70
     8
 71
     3
 72
    81
 73
    77
 74
     0
 42
0.0
 43
0.0
 40
0.0
 40
0.0
 40
0.0
 40
0.0
 40
0.5419340840090354
 40
1.076927966862862
 40
1.60532304379135
 40
2.127503894236942
 40
2.643892340504197
 40
3.154943771046703
 40
3.661143153702705
 40
4.163000752201951
 40
4.661047599495663
 40
5.155830793159436
 40
5.647908687910113
 40
6.137846070128997
 40
6.626209069488942
 40
7.113558302564867
 40
7.600443163335573
 40
8.087397748730139
 40
8.574937233130779
 40
9.063554685717573
 40
9.553718356351974
 40
10.04586943794794
 40
10.54042029657585
 40
11.03775314573089
 40
11.53821828157592
 40
12.04213092603947
 40
12.54977277418987
 40
13.06139279465679
 40
13.57720771358734
 40
14.09740271784018
 40
14.62213231332046
 40
15.15152127871381
 40
15.68566566035459
 40
16.22463376009505
 40
16.76846707448364
 40
17.31718103451635
 40
17.87076597007417
 40
18.42919310586932
 40
18.99241762613482
 40
19.56037933377967
 40
20.13300328362304
 40
20.71020040950057
 40
21.29186813736257
 40
21.87789097871209
 40
22.46814111057908
 40
23.06248077355344
 40
23.66076814208177
 40
24.26285830872357
 40
24.86860347034612
 40
25.47785335670433
 40
26.0904557647329
 40
26.70625719989052
 40
27.32510362485633
 40
27.94684131492294
 40
28.57131793382299
 40
29.19838642072503
 40
29.82790412232141
 40
30.45972871088633
 40
31.09371872828963
 40
31.72973445152393
 40
32.36763883107422
 40
33.00729849959905
 40
33.648584847962
 40
34.29137516531701
 40
34.93555383968776
 40
35.58101337444693
 40
36.22765134493125
 40
36.8753655737105
 40
37.52405416284548
 40
38.17361622234944
 40
38.82395259565907
 40
39.47496658288537
 40
40.12656466141014
 40
40.77865720339467
 40
41.43115918977605
 40
42.08399092033335
 40
42.08399092033335
 40
42.08399092033335
 40
42.08399092033335
 10
-477.2007759017125
 20
-492.8912018187968
 30
0.0
 10
-477.241787343897
 20
-493.0671500388842
 30
0.0
 10
-477.329401392153
 20
-493.4153336402791
 30
0.0
 10
-477.4788846601583
 20
-493.929272686376
 30
0.0
 10
-477.6455956009115
 20
-494.4309496583684
 30
0.0
 10
-477.8295456731544
 20
-494.9199535093938
 30
0.0
 10
-478.0307078315865
 20
-495.395867894394
 30
0.0
 10
-478.2490202080074
 20
-495.8582854078322
 30
0.0
 10
-478.4843855539242
 20
-496.3068036140821
 30
0.0
 10
-478.736671958569
 20
-496.7410262260665
 30
0.0
 10
-479.0057133311653
 20
-497.1605630512121
 30
0.0
 10
-479.2913100344144
 20
-497.5650303946227
 30
0.0
 10
-479.5932296185827
 20
-497.9540514293429
 30
0.0
 10
-479.9112074148177
 20
-498.3272567283186
 30
0.0
 10
-480.2449473020422
 20
-498.6842838178235
 30
0.0
 10
-480.5941219443543
 20
-499.0247765304509
 30
0.0
 10
-480.958372153806
 20
-499.3483854841296
 30
0.0
 10
-481.3373076255867
 20
-499.654768501174
 30
0.0
 10
-481.7305078052717
 20
-499.9435916052831
 30
0.0
 10
-482.1375228613594
 20
-500.2145300561228
 30
0.0
 10
-482.5578746786833
 20
-500.4672694676934
 30
0.0
 10
-482.9910578865891
 20
-500.7015070004301
 30
0.0
 10
-483.4365409204609
 20
-500.9169526290913
 30
0.0
 10
-483.8937668421846
 20
-501.1133303973974
 30
0.0
 10
-484.3621534037802
 20
-501.2903794642615
 30
0.0
 10
-484.8410939463817
 20
-501.4478545856688
 30
0.0
 10
-485.3299580228648
 20
-501.585529035558
 30
0.0
 10
-485.8280936761893
 20
-501.7031962859486
 30
0.0
 10
-486.3348292077582
 20
-501.8006715678503
 30
0.0
 10
-486.8494748301947
 20
-501.8777934069311
 30
0.0
 10
-487.371324375904
 20
-501.9344252249105
 30
0.0
 10
-487.8996570709799
 20
-501.9704569911455
 30
0.0
 10
-488.4337393753292
 20
-501.9858069108301
 30
0.0
 10
-488.9728268937478
 20
-501.9804231603861
 30
0.0
 10
-489.5161663126291
 20
-501.9542855798668
 30
0.0
 10
-490.0629975064666
 20
-501.9074076212194
 30
0.0
 10
-490.6125573802931
 20
-501.8398368323063
 30
0.0
 10
-491.1640845154487
 20
-501.7516554250966
 30
0.0
 10
-491.716823810426
 20
-501.6429806235629
 30
0.0
 10
-492.2700292660838
 20
-501.5139642548933
 30
0.0
 10
-492.8229659742437
 20
-501.3647924910916
 30
0.0
 10
-493.3749120917707
 20
-501.1956854777791
 30
0.0
 10
-493.9251608081421
 20
-501.0068968958586
 30
0.0
 10
-494.4730222986648
 20
-500.7987134280835
 30
0.0
 10
-495.0178262323738
 20
-500.5714539208691
 30
0.0
 10
-495.5589257931543
 20
-500.3254675090438
 30
0.0
 10
-496.0957012970543
 20
-500.0611305895522
 30
0.0
 10
-496.6275630495659
 20
-499.7788442039213
 30
0.0
 10
-497.153952260501
 20
-499.4790318025175
 30
0.0
 10
-497.6743416479579
 20
-499.1621370416553
 30
0.0
 10
-498.1882359896779
 20
-498.8286214658735
 30
0.0
 10
-498.6951725756002
 20
-498.4789621060949
 30
0.0
 10
-499.1947215553294
 20
-498.1136489966855
 30
0.0
 10
-499.6864862065955
 20
-497.7331825946748
 30
0.0
 10
-500.1701038117297
 20
-497.3380705276494
 30
0.0
 10
-500.6452458037136
 20
-496.928824602299
 30
0.0
 10
-501.1116162741959
 20
-496.5059588129374
 30
0.0
 10
-501.568949715588
 20
-496.0699884459293
 30
0.0
 10
-502.0170092920712
 20
-495.6214291185968
 30
0.0
 10
-502.4555862597268
 20
-495.1607947798541
 30
0.0
 10
-502.8844993616357
 20
-494.6885956388776
 30
0.0
 10
-503.3035941317466
 20
-494.2053360773432
 30
0.0
 10
-503.71274210913
 20
-493.7115125524278
 30
0.0
 10
-504.1118399587135
 20
-493.2076114931128
 30
0.0
 10
-504.5008084643647
 20
-492.6941072688838
 30
0.0
 10
-504.8795905482132
 20
-492.1714613170349
 30
0.0
 10
-505.2481484368254
 20
-491.6401232647111
 30
0.0
 10
-505.6064607278256
 20
-491.1005324687882
 30
0.0
 10
-505.9545204629202
 20
-490.5531187956997
 30
0.0
 10
-506.2923343799299
 20
-489.9983020158751
 30
0.0
 10
-506.6199222580454
 20
-489.4364909856848
 30
0.0
 10
-506.9373161913866
 20
-488.8680829423166
 30
0.0
 10
-507.2445599876612
 20
-488.2934624673899
 30
0.0
 10
-507.5417079394336
 20
-487.7130017695923
 30
0.0
 10
-507.8288257909234
 20
-487.1270561315376
 30
0.0
 10
-508.0135577878449
 20
-486.7330884201136
 30
0.0
 10
-508.1042859713629
 20
-486.5352878018583
 30
0.0
  0
SPLINE
  5
4AD
330
4DD
100
AcDbEntity
  8
0
 62
     7
370
    40
390
F
100
AcDbSpline
210
0.0
220
0.0
230
1.0
 70
     8
 71
     3
 72
    26
 73
    22
 74
     0
 42
0.0
 43
0.0
 40
0.0
 40
0.0
 40
0.0
 40
0.0
 40
0.1370716327541839
 40
0.2754225434407722
 40
0.4151716781926357
 40
0.5564216829085323
 40
0.6992594726496669
 40
0.8437569193419616
 40
0.9899716204074567
 40
1.137947714484397
 40
1.287716714238068
 40
1.439298330084797
 40
1.592701262244901
 40
1.747923807897806
 40
1.904951588225451
 40
2.063756931187412
 40
2.22430101433579
 40
2.386534013282166
 40
2.550395158855542
 40
2.715812797020729
 40
2.882704451292501
 40
2.882704451292501
 40
2.882704451292501
 40
2.882704451292501
 10
-95.05630480568914
 20
-75.0484990892136
 30
0.0
 10
-95.01691659716927
 20
-75.0253141102271
 30
0.0
 10
-94.93633277011561
 20
-74.98122658778871
 30
0.0
 10
-94.81098857788018
 20
-74.92235591564987
 30
0.0
 10
-94.68102788993843
 20
-74.87065783473015
 30
0.0
 10
-94.54680767020861
 20
-74.82629756981396
 30
0.0
 10
-94.40870326469103
 20
-74.78942828990061
 30
0.0
 10
-94.26709734131039
 20
-74.76018432565755
 30
0.0
 10
-94.12238129414493
 20
-74.73868179842299
 30
0.0
 10
-93.97495316343026
 20
-74.72501732699564
 30
0.0
 10
-93.82521642241954
 20
-74.71926736386246
 30
0.0
 10
-93.67357845466898
 20
-74.7214874652222
 30
0.0
 10
-93.52044910342147
 20
-74.73171171413455
 30
0.0
 10
-93.3662401276851
 20
-74.74995200737253
 30
0.0
 10
-93.21136505034758
 20
-74.77619744909154
 30
0.0
 10
-93.05623831368435
 20
-74.81041345851102
 30
0.0
 10
-92.90127360429695
 20
-74.85254089473315
 30
0.0
 10
-92.74688139668946
 20
-74.90249616952647
 30
0.0
 10
-92.59346930351316
 20
-74.96017017162436
 30
0.0
 10
-92.44143420783847
 20
-75.02543149594818
 30
0.0
 10
-92.34169213404901
 20
-75.07368139334493
 30
0.0
 10
-92.29215210099215
 20
-75.0990111818692
 30
0.0
  0
SPLINE
  5
4AE
330
4DD
100
AcDbEntity
  8
0
 62
     7
370
    40
390
F
100
AcDbSpline
210
0.0
220
0.0
230
1.0
 70
     8
 71
     3
 72
    54
 73
    50
 74
     0
 42
0.0
 43
0.0
 40
0.0
 40
0.0
 40
0.0
 40
0.0
 40
0.4880672574692553
 40
0.9715858378711739
 40
1.450360862155387
 40
1.924189197773166
 40
2.392860810345276
 40
2.856160165456337
 40
3.313867689041632
 40
3.76576129625272
 40
4.211618000335601
 40
4.651215614961992
 40
5.084334565647465
 40
5.510759828403
 40
5.930283016614801
 40
6.342704640349116
 40
6.747836549950562
 40
7.145502051156408
 40
7.535533566099627
 40
7.917778000602291
 40
8.292101632948997
 40
8.658394920471821
 40
9.016577616858633
 40
9.36660422209221
 40
9.708469777321639
 40
10.04221600094478
 40
10.36793773739772
 40
10.68578895796198
 40
10.99598764843994
 40
11.2988257512751
 40
11.59467668561228
 40
11.88400118593974
 40
12.16735198974597
 40
12.44537678843599
 40
12.71881878511389
 40
12.98851419625979
 40
13.25538612551384
 40
13.52043445126002
 40
13.78472215255585
 40
14.04936066238014
 40
14.31549170143533
 40
14.58426607543869
 40
14.85682264596822
 40
15.13426885575446
 40
15.41766384203772
 40
15.70800480089975
 40
16.00621685835415
 40
16.31314634129275
 40
16.62955707481806
 40
16.62955707481806
 40
16.62955707481806
 40
16.62955707481806
 10
-119.4882087430559
 20
-98.96056069162847
 30
0.0
 10
-119.6309740591437
 20
-99.03858278901566
 30
0.0
 10
-119.9166240070037
 20
-99.19122906348476
 30
0.0
 10
-120.3473613829129
 20
-99.41082854896393
 30
0.0
 10
-120.7780876119543
 20
-99.61979239373184
 30
0.0
 10
-121.2084733993884
 20
-99.81790044312697
 30
0.0
 10
-121.6381693430433
 20
-100.0049295029391
 30
0.0
 10
-122.0668095338613
 20
-100.1806565468808
 30
0.0
 10
-122.494010851231
 20
-100.3448595376643
 30
0.0
 10
-122.9193734470202
 20
-100.4973188521335
 30
0.0
 10
-123.3424809696177
 20
-100.6378185180496
 30
0.0
 10
-123.762900910047
 20
-100.7661474675471
 30
0.0
 10
-124.1801849697199
 20
-100.8821007490339
 30
0.0
 10
-124.5938694760893
 20
-100.9854807090176
 30
0.0
 10
-125.0034758393747
 20
-101.0760981342779
 30
0.0
 10
-125.4085110449606
 20
-101.1537733579161
 30
0.0
 10
-125.8084673426221
 20
-101.2183371625528
 30
0.0
 10
-126.2028201831324
 20
-101.2696316570901
 30
0.0
 10
-126.5910268454984
 20
-101.3075118806698
 30
0.0
 10
-126.9725264707495
 20
-101.3318475489999
 30
0.0
 10
-127.3467422358683
 20
-101.3425252211736
 30
0.0
 10
-127.7130832455304
 20
-101.3394502197668
 30
0.0
 10
-128.0709463607846
 20
-101.3225484100366
 30
0.0
 10
-128.4197180766731
 20
-101.2917678375975
 30
0.0
 10
-128.7587764346149
 20
-101.2470802265028
 30
0.0
 10
-129.0874929526697
 20
-101.1884823350493
 30
0.0
 10
-129.4052343319079
 20
-101.1159972411125
 30
0.0
 10
-129.711363531706
 20
-101.0296757238465
 30
0.0
 10
-130.0052419357293
 20
-100.9295976267609
 30
0.0
 10
-130.286232201152
 20
-100.8158731521599
 30
0.0
 10
-130.5537015704044
 20
-100.688643228085
 30
0.0
 10
-130.8070241302814
 20
-100.548080067333
 30
0.0
 10
-131.0455827985024
 20
-100.3943879011222
 30
0.0
 10
-131.2687714664508
 20
-100.2278038436094
 30
0.0
 10
-131.4759974305994
 20
-100.0485988706753
 30
0.0
 10
-131.6666842705238
 20
-99.8570788346338
 30
0.0
 10
-131.840275244923
 20
-99.65358530628453
 30
0.0
 10
-131.996237460051
 20
-99.43849597888249
 30
0.0
 10
-132.1340665024026
 20
-99.21222314499285
 30
0.0
 10
-132.2532913847539
 20
-98.97521075222701
 30
0.0
 10
-132.3534797422528
 20
-98.72793062841284
 30
0.0
 10
-132.4342398093571
 20
-98.47087747361022
 30
0.0
 10
-132.4952213842908
 20
-98.20456437537062
 30
0.0
 10
-132.536115796029
 20
-97.92951827813246
 30
0.0
 10
-132.5566553384791
 20
-97.64627649764508
 30
0.0
 10
-132.5566118035789
 20
-97.35538173205342
 30
0.0
 10
-132.5357969378608
 20
-97.05738608424895
 30
0.0
 10
-132.4940553349121
 20
-96.75282323360426
 30
0.0
 10
-132.4528667415451
 20
-96.54906011105501
 30
0.0
 10
-132.4289168865286
 20
-96.44630947474023
 30
0.0
  0
SPLINE
  5
4AF
330
4DD
100
AcDbEntity
  8
0
 62
     7
370
    40
390
F
100
AcDbSpline
210
0.0
220
0.0
230
1.0
 70
     8
 71
     3
 72
    81
 73
    77
 74
     0
 42
0.0
 43
0.0
 40
0.0
 40
0.0
 40
0.0
 40
0.0
 40
0.326007970302674
 40
0.6627374165728039
 40
1.010707512069847
 40
1.370365112726481
 40
1.742087203346967
 40
2.126185435980855
 40
2.522910722326354
 40
2.932457693933611
 40
3.354968923354801
 40
3.790538844552817
 40
4.239217343714601
 40
4.701013025543754
 40
5.175896159902948
 40
5.663799239060618
 40
6.164617501272414
 40
6.67821079248121
 40
7.204405285228193
 40
7.742995003495858
 40
8.293743178823144
 40
8.856383462433623
 40
9.430621017136206
 40
10.0161335115326
 40
10.61257109024012
 40
11.21955415788616
 40
11.83667600692208
 40
12.46350454168312
 40
13.09958338014518
 40
13.74443297968734
 40
14.39755179670297
 40
15.0584174890632
 40
15.72648816956603
 40
16.40120371761412
 40
17.08198715545834
 40
17.76824594168135
 40
18.4593736158762
 40
19.15475787692786
 40
19.85378514490033
 40
20.55584214647443
 40
21.26031754777257
 40
21.96660366628538
 40
22.67409825419417
 40
23.38220634493332
 40
24.09034216591171
 40
24.79793319737844
 40
25.50442805297831
 40
26.20929842530506
 40
26.91203996663316
 40
27.61217332878144
 40
28.30924519215971
 40
29.00282927439066
 40
29.69252730956839
 40
30.37796998996274
 40
31.05881798780037
 40
31.73476579818694
 40
32.4055400689558
 40
33.07089456727757
 40
33.73061019620392
 40
34.3844952244027
 40
35.03238545550831
 40
35.6741443358659
 40
36.30966300003368
 40
36.93886025398341
 40
37.56168249650543
 40
38.17810337108443
 40
38.78811968805878
 40
39.39174579393689
 40
39.98901272676743
 40
40.57996807991103
 40
41.16467582766641
 40
41.74321611493149
 40
42.31568501260072
 40
42.88219424051423
 40
43.44287085989713
 40
43.99785693735313
 40
43.99785693735313
 40
43.99785693735313
 40
43.99785693735313
 10
-132.4289168865286
 20
-96.44630947474023
 30
0.0
 10
-132.4042417786669
 20
-96.34044732934639
 30
0.0
 10
-132.3475424919626
 20
-96.12682714021801
 30
0.0
 10
-132.2427239127166
 20
-95.80645621427047
 30
0.0
 10
-132.1168151199196
 20
-95.48173757645161
 30
0.0
 10
-131.9698388214567
 20
-95.1531841348116
 30
0.0
 10
-131.8018552466785
 20
-94.82131685141064
 30
0.0
 10
-131.6129560785596
 20
-94.48664080533264
 30
0.0
 10
-131.4032653546688
 20
-94.14964990965895
 30
0.0
 10
-131.1729383128377
 20
-93.81082343000239
 30
0.0
 10
-130.9221607627312
 20
-93.47062487851315
 30
0.0
 10
-130.6511482630049
 20
-93.1295003293798
 30
0.0
 10
-130.360145281022
 20
-92.78787702972191
 30
0.0
 10
-130.0494243973181
 20
-92.44616197611148
 30
0.0
 10
-129.7192855705213
 20
-92.10474147322196
 30
0.0
 10
-129.370056022828
 20
-91.76398113484993
 30
0.0
 10
-129.0020907621588
 20
-91.42422546022827
 30
0.0
 10
-128.6157721564765
 20
-91.08579752534303
 30
0.0
 10
-128.2115092711955
 20
-90.74899825923353
 30
0.0
 10
-127.7897371460213
 20
-90.41410585721283
 30
0.0
 10
-127.3509160785404
 20
-90.08137530629098
 30
0.0
 10
-126.8955309013633
 20
-89.75103803414166
 30
0.0
 10
-126.4240902531151
 20
-89.42330168092168
 30
0.0
 10
-125.9371261129196
 20
-89.09835015752961
 30
0.0
 10
-125.4351941800483
 20
-88.77634438245792
 30
0.0
 10
-124.9188735139437
 20
-88.45742318782149
 30
0.0
 10
-124.3887662581193
 20
-88.14170303359512
 30
0.0
 10
-123.8454958817605
 20
-87.82927800110673
 30
0.0
 10
-123.2897058507602
 20
-87.52022015018366
 30
0.0
 10
-122.7220584399397
 20
-87.21458010568819
 30
0.0
 10
-122.143233517574
 20
-86.91238773656426
 30
0.0
 10
-121.5539272947511
 20
-86.61365292571182
 30
0.0
 10
-120.9548510354659
 20
-86.31836642556318
 30
0.0
 10
-120.3467297271159
 20
-86.02650078445447
 30
0.0
 10
-119.7303007386576
 20
-85.73801139161836
 30
0.0
 10
-119.1063124371327
 20
-85.45283746649778
 30
0.0
 10
-118.4755205507978
 20
-85.17090272445043
 30
0.0
 10
-117.8386836464122
 20
-84.8921155105892
 30
0.0
 10
-117.1965586641113
 20
-84.61636896173692
 30
0.0
 10
-116.5498983149345
 20
-84.34354237497602
 30
0.0
 10
-115.8994494177248
 20
-84.07350289680669
 30
0.0
 10
-115.2459512122938
 20
-83.80610717263015
 30
0.0
 10
-114.5901336496747
 20
-83.5412029187187
 30
0.0
 10
-113.9327156555228
 20
-83.27863041355937
 30
0.0
 10
-113.2744027249684
 20
-83.01822362833991
 30
0.0
 10
-112.6158826555096
 20
-82.7598105854599
 30
0.0
 10
-111.9578211914016
 20
-82.50321388695777
 30
0.0
 10
-111.3008587722187
 20
-82.24825128588132
 30
0.0
 10
-110.6456094017716
 20
-81.99473702934027
 30
0.0
 10
-109.9926598327635
 20
-81.74248315168708
 30
0.0
 10
-109.342568735993
 20
-81.491300594182
 30
0.0
 10
-108.6958659113782
 20
-81.24100016573871
 30
0.0
 10
-108.0530515470309
 20
-80.99139334434238
 30
0.0
 10
-107.4145954942741
 20
-80.74229290307274
 30
0.0
 10
-106.7809356733225
 20
-80.49351301206275
 30
0.0
 10
-106.152477316407
 20
-80.24486946281115
 30
0.0
 10
-105.5295940831411
 20
-79.99618052086997
 30
0.0
 10
-104.9126303810055
 20
-79.74726807543311
 30
0.0
 10
-104.3019030985245
 20
-79.49795843322522
 30
0.0
 10
-103.6977017257819
 20
-79.2480823608948
 30
0.0
 10
-103.1002884528257
 20
-78.99747499361334
 30
0.0
 10
-102.5098983323047
 20
-78.74597564892831
 30
0.0
 10
-101.926739509238
 20
-78.49342754917755
 30
0.0
 10
-101.3509935194331
 20
-78.23967745840449
 30
0.0
 10
-100.7828157245858
 20
-77.98457526120639
 30
0.0
 10
-100.2223369873078
 20
-77.72797402105036
 30
0.0
 10
-99.66966705680636
 20
-77.46973069553573
 30
0.0
 10
-99.12489801479946
 20
-77.20970707443453
 30
0.0
 10
-98.5881064839814
 20
-76.94777021239872
 30
0.0
 10
-98.05935418605105
 20
-76.68379206141948
 30
0.0
 10
-97.53868829387136
 20
-76.417648980531
 30
0.0
 10
-97.02614185341349
 20
-76.14922124598202
 30
0.0
 10
-96.52173410885482
 20
-75.87839246966558
 30
0.0
 10
-96.02547133762477
 20
-75.60504928295425
 30
0.0
 10
-95.53734596584772
 20
-75.32907998167755
 30
0.0
 10
-95.21573312555357
 20
-75.14234296749028
 30
0.0
 10
-95.05630480556897
 20
-75.04849908914287
 30
0.0
  0
SPLINE
  5
4B0
330
4DD
100
AcDbEntity
  8
0
 62
     7
370
    40
390
F
100
AcDbSpline
210
0.0
220
0.0
230
1.0
 70
     8
 71
     3
 72
    26
 73
    22
 74
     0
 42
0.0
 43
0.0
 40
0.0
 40
0.0
 40
0.0
 40
0.0
 40
0.1124818451131062
 40
0.2260248711501918
 40
0.3407416889191258
 40
0.4567306343101824
 40
0.5740758943701935
 40
0.6928477922014553
 40
0.8131031994101396
 40
0.9348860459033592
 40
1.058227898833404
 40
1.183148585019154
 40
1.309656833921282
 40
1.437750835946866
 40
1.567416991623578
 40
1.698629636209343
 40
1.831352544143257
 40
1.965539246933454
 40
2.101133308251426
 40
2.238068609572363
 40
2.376269642846051
 40
2.376269642846051
 40
2.376269642846051
 40
2.376269642846051
 10
-94.67740226619236
 20
-75.50227937296422
 30
0.0
 10
-94.64503295717667
 20
-75.48333333929276
 30
0.0
 10
-94.5787994222185
 20
-75.44733932859855
 30
0.0
 10
-94.47575657309315
 20
-75.39938204832298
 30
0.0
 10
-94.36889537385738
 20
-75.3573818359657
 30
0.0
 10
-94.25850507882879
 20
-75.3214679178304
 30
0.0
 10
-94.14489025209602
 20
-75.2917590938038
 30
0.0
 10
-94.0283615041593
 20
-75.26835821053817
 30
0.0
 10
-93.90923671919163
 20
-75.25135282649525
 30
0.0
 10
-93.78783936320964
 20
-75.24081426683996
 30
0.0
 10
-93.66449753187248
 20
-75.23679720014526
 30
0.0
 10
-93.53954274642567
 20
-75.23933915501729
 30
0.0
 10
-93.41330880827933
 20
-75.24846015602014
 30
0.0
 10
-93.28613122444571
 20
-75.26416227434558
 30
0.0
 10
-93.15834692211118
 20
-75.28642928101254
 30
0.0
 10
-93.03029354847217
 20
-75.31522611217535
 30
0.0
 10
-92.90230827126898
 20
-75.35049832697854
 30
0.0
 10
-92.77472596943336
 20
-75.39217226915031
 30
0.0
 10
-92.64787953422898
 20
-75.44015430200615
 30
0.0
 10
-92.52209361790871
 20
-75.49433347423323
 30
0.0
 10
-92.43952955373778
 20
-75.53431644971064
 30
0.0
 10
-92.39850628500061
 20
-75.55529162186072
 30
0.0
  0
SPLINE
  5
4B1
330
4DD
100
AcDbEntity
  8
0
 62
     7
370
    40
390
F
100
AcDbSpline
210
0.0
220
0.0
230
1.0
 70
     8
 71
     3
 72
    26
 73
    22
 74
     0
 42
0.0
 43
0.0
 40
0.0
 40
0.0
 40
0.0
 40
0.0
 40
0.1124818450967272
 40
0.226024871126722
 40
0.3407416889020692
 40
0.4567306343136343
 40
0.574075894405208
 40
0.6928477922737777
 40
0.8131031995188729
 40
0.9348860460411578
 40
1.058227898987661
 40
1.183148585174737
 40
1.30965683406454
 40
1.437750836071475
 40
1.567416991729202
 40
1.698629636296392
 40
1.83135254421189
 40
1.965539246983341
 40
2.101133308281702
 40
2.238068609581657
 40
2.376269642833291
 40
2.376269642833291
 40
2.376269642833291
 40
2.376269642833291
 10
-488.1439503015451
 20
-460.5969637337184
 30
0.0
 10
-488.111580992534
 20
-460.5780177000498
 30
0.0
 10
-488.0453474575826
 20
-460.5420236893597
 30
0.0
 10
-487.9423046084627
 20
-460.4940664090859
 30
0.0
 10
-487.8354434092208
 20
-460.4520661967259
 30
0.0
 10
-487.7250531141736
 20
-460.416152278585
 30
0.0
 10
-487.6114382874114
 20
-460.3864434545526
 30
0.0
 10
-487.4949095394395
 20
-460.3630425712839
 30
0.0
 10
-487.3757847544369
 20
-460.3460371872418
 30
0.0
 10
-487.2543873984271
 20
-460.3354986275917
 30
0.0
 10
-487.131045567074
 20
-460.3314815609048
 30
0.0
 10
-487.0060907816256
 20
-460.3340235157856
 30
0.0
 10
-486.8798568434897
 20
-460.3431445167961
 30
0.0
 10
-486.7526792596736
 20
-460.3588466351267
 30
0.0
 10
-486.6248949573587
 20
-460.3811136417967
 30
0.0
 10
-486.496841583739
 20
-460.4099104729603
 30
0.0
 10
-486.3688563065548
 20
-460.4451826877628
 30
0.0
 10
-486.2412740047383
 20
-460.4868566299318
 30
0.0
 10
-486.1144275695534
 20
-460.534838662783
 30
0.0
 10
-485.9886416532527
 20
-460.5890178350031
 30
0.0
 10
-485.9060775890949
 20
-460.6290008104745
 30
0.0
 10
-485.8650543203643
 20
-460.6499759826212
 30
0.0
  0
SPLINE
  5
4B2
330
4DD
100
AcDbEntity
  8
0
 62
     7
370
    40
390
F
100
AcDbSpline
210
0.0
220
0.0
230
1.0
 70
     8
 71
     3
 72
    54
 73
    50
 74
     0
 42
0.0
 43
0.0
 40
0.0
 40
0.0
 40
0.0
 40
0.0
 40
0.4880672574865391
 40
0.9715858378963531
 40
1.450360862174151
 40
1.924189197769487
 40
2.392860810303996
 40
2.856160165365162
 40
3.313867688892699
 40
3.76576129604329
 40
4.211618000068574
 40
4.651215614645682
 40
5.084334565294755
 40
5.510759828029543
 40
5.930283016237223
 40
6.342704639982169
 40
6.74783654960321
 40
7.145502050833798
 40
7.535533565807403
 40
7.917778000345739
 40
8.292101632731534
 40
8.65839492029357
 40
9.016577616716408
 40
9.366604221980062
 40
9.708469777231922
 40
10.04221600087049
 40
10.36793773733537
 40
10.68578895791079
 40
10.99598764838834
 40
11.29882575120351
 40
11.59467668550076
 40
11.8840011857739
 40
12.16735198952055
 40
12.44537678815623
 40
12.71881878479469
 40
12.98851419592137
 40
13.25538612517585
 40
13.52043445093309
 40
13.78472215224043
 40
14.04936066207782
 40
14.31549170114941
 40
14.58426607517317
 40
14.85682264572646
 40
15.13426885553875
 40
15.41766384184863
 40
15.7080048007363
 40
16.00621685821386
 40
16.31314634117249
 40
16.62955707471453
 40
16.62955707471453
 40
16.62955707471453
 40
16.62955707471453
 10
-512.9547567785162
 20
-484.0552450524418
 30
0.0
 10
-513.0975220946094
 20
-484.1332671498312
 30
0.0
 10
-513.3831720424774
 20
-484.2859134243029
 30
0.0
 10
-513.8139094183932
 20
-484.5055129097829
 30
0.0
 10
-514.2446356474292
 20
-484.714476754546
 30
0.0
 10
-514.6750214348438
 20
-484.9125848039308
 30
0.0
 10
-515.1047173784651
 20
-485.0996138637279
 30
0.0
 10
-515.5333575692382
 20
-485.2753409076516
 30
0.0
 10
-515.9605588865551
 20
-485.4395438984162
 30
0.0
 10
-516.3859214822883
 20
-485.5920032128679
 30
0.0
 10
-516.8090290048318
 20
-485.7325028787691
 30
0.0
 10
-517.2294489452145
 20
-485.8608318282561
 30
0.0
 10
-517.646733004852
 20
-485.9767851097376
 30
0.0
 10
-518.0604175112004
 20
-486.0801650697213
 30
0.0
 10
-518.4700238744799
 20
-486.1707824949862
 30
0.0
 10
-518.875059080073
 20
-486.2484577186327
 30
0.0
 10
-519.2750153777515
 20
-486.3130215232792
 30
0.0
 10
-519.6693682182855
 20
-486.3643160178273
 30
0.0
 10
-520.057574880681
 20
-486.4021962414171
 30
0.0
 10
-520.4390745059666
 20
-486.426531909756
 30
0.0
 10
-520.8132902711234
 20
-486.4372095819367
 30
0.0
 10
-521.1796312808235
 20
-486.4341345805341
 30
0.0
 10
-521.537494396113
 20
-486.4172327708049
 30
0.0
 10
-521.886266112031
 20
-486.3864521983641
 30
0.0
 10
-522.225324469995
 20
-486.3417645872647
 30
0.0
 10
-522.5540409880657
 20
-486.2831666958049
 30
0.0
 10
-522.8717823673154
 20
-486.2106816018613
 30
0.0
 10
-523.1779115671206
 20
-486.1243600845926
 30
0.0
 10
-523.4717899711421
 20
-486.0242819875118
 30
0.0
 10
-523.7527802365489
 20
-485.9105575129253
 30
0.0
 10
-524.0202496057705
 20
-485.7833275888742
 30
0.0
 10
-524.2735721656062
 20
-485.6427644281535
 30
0.0
 10
-524.5121308337827
 20
-485.4890722619772
 30
0.0
 10
-524.735319501692
 20
-485.3224882044977
 30
0.0
 10
-524.9425454658149
 20
-485.1432832315914
 30
0.0
 10
-525.1332323057311
 20
-484.9517631955694
 30
0.0
 10
-525.3068232801393
 20
-484.7482696672315
 30
0.0
 10
-525.4627854952878
 20
-484.5331803398348
 30
0.0
 10
-525.60061453766
 20
-484.3069075059436
 30
0.0
 10
-525.7198394200304
 20
-484.0698951131721
 30
0.0
 10
-525.8200277775468
 20
-483.822614989347
 30
0.0
 10
-525.9007878446669
 20
-483.565561834528
 30
0.0
 10
-525.9617694196152
 20
-483.2992487362678
 30
0.0
 10
-526.0026638313664
 20
-483.0242026390058
 30
0.0
 10
-526.0232033738276
 20
-482.7409608584929
 30
0.0
 10
-526.0231598389358
 20
-482.4500660928761
 30
0.0
 10
-526.0023449732232
 20
-482.1520704450481
 30
0.0
 10
-525.9606033702769
 20
-481.8475075943829
 30
0.0
 10
-525.9194147769091
 20
-481.6437444718213
 30
0.0
 10
-525.8954649218915
 20
-481.540993835501
 30
0.0
  0
SPLINE
  5
4B3
330
4DD
100
AcDbEntity
  8
0
 62
     7
370
    40
390
F
100
AcDbSpline
210
0.0
220
0.0
230
1.0
 70
     8
 71
     3
 72
    81
 73
    77
 74
     0
 42
0.0
 43
0.0
 40
0.0
 40
0.0
 40
0.0
 40
0.0
 40
0.3260079702938933
 40
0.662737416554393
 40
1.010707512047401
 40
1.370365112710221
 40
1.742087203347686
 40
2.126185436007015
 40
2.522910722382092
 40
2.93245769401769
 40
3.35496892346131
 40
3.790538844672074
 40
4.239217343835096
 40
4.701013025655325
 40
5.175896160008786
 40
5.663799239181643
 40
6.164617501435806
 40
6.678210792710679
 40
7.204405285537158
 40
7.742995003884414
 40
8.293743179277852
 40
8.856383462931184
 40
9.430621017649857
 40
10.01613351204282
 40
10.61257109074738
 40
11.21955415841429
 40
11.83667600750665
 40
12.46350454235904
 40
13.0995833809386
 40
13.74443298060988
 40
14.39755179774954
 40
15.05841749021317
 40
15.72648817078687
 40
16.40120371886869
 40
17.08198715671578
 40
17.76824594292881
 40
18.45937361711913
 40
19.15475787817815
 40
19.85378514616979
 40
20.55584214777013
 40
21.2603175490942
 40
21.96660366762523
 40
22.67409825553883
 40
23.38220634626788
 40
24.09034216722638
 40
24.79793319866452
 40
25.50442805421669
 40
26.20929842647384
 40
26.9120399677154
 40
27.61217332976984
 40
28.30924519305841
 40
29.00282927521386
 40
29.69252731033679
 40
30.37796999069624
 40
31.0588179885083
 40
31.73476579886921
 40
32.40554006961168
 40
33.07089456790682
 40
33.73061019680668
 40
34.38449522497957
 40
35.03238545606028
 40
35.67414433639429
 40
36.30966300053949
 40
36.93886025446752
 40
37.56168249696766
 40
38.1781033715223
 40
38.78811968846104
 40
39.39174579428624
 40
39.9890127270472
 40
40.57996808010984
 40
41.16467582778065
 40
41.74321611496681
 40
42.31568501257008
 40
42.88219424043572
 40
43.44287085978951
 40
43.99785693722857
 40
43.99785693722857
 40
43.99785693722857
 40
43.99785693722857
 10
-525.8954649218915
 20
-481.540993835501
 30
0.0
 10
-525.870789814031
 20
-481.43513169011
 30
0.0
 10
-525.8140905273287
 20
-481.2215115009873
 30
0.0
 10
-525.7092719480858
 20
-480.9011405750466
 30
0.0
 10
-525.5833631552902
 20
-480.57642193723
 30
0.0
 10
-525.4363868568249
 20
-480.247868495584
 30
0.0
 10
-525.2684032820396
 20
-479.9160012121685
 30
0.0
 10
-525.0795041139095
 20
-479.5813251660693
 30
0.0
 10
-524.869813390004
 20
-479.244334270372
 30
0.0
 10
-524.6394863481569
 20
-478.9055077906938
 30
0.0
 10
-524.3887087980357
 20
-478.5653092391891
 30
0.0
 10
-524.1176962982977
 20
-478.2241846900495
 30
0.0
 10
-523.8266933163086
 20
-477.8825613903947
 30
0.0
 10
-523.5159724326049
 20
-477.5408463367903
 30
0.0
 10
-523.185833605807
 20
-477.1994258339014
 30
0.0
 10
-522.8366040580987
 20
-476.8586654955199
 30
0.0
 10
-522.468638797395
 20
-476.518909820875
 30
0.0
 10
-522.0823201916603
 20
-476.1804818859544
 30
0.0
 10
-521.6780573063163
 20
-475.8436826198033
 30
0.0
 10
-521.2562851810783
 20
-475.5087902177422
 30
0.0
 10
-520.8174641135429
 20
-475.1760596667882
 30
0.0
 10
-520.3620789363276
 20
-474.8457223946204
 30
0.0
 10
-519.8906382880594
 20
-474.5179860413969
 30
0.0
 10
-519.4036741478561
 20
-474.1930345180107
 30
0.0
 10
-518.9017422149758
 20
-473.8710287429441
 30
0.0
 10
-518.3854215488443
 20
-473.5521075483036
 30
0.0
 10
-517.8553142929658
 20
-473.2363873940587
 30
0.0
 10
-517.3120439165243
 20
-472.9239623615366
 30
0.0
 10
-516.7562538854202
 20
-472.6149045105685
 30
0.0
 10
-516.188606474486
 20
-472.3092644660235
 30
0.0
 10
-515.6097815520105
 20
-472.007072096853
 30
0.0
 10
-515.0204753290946
 20
-471.7083372859641
 30
0.0
 10
-514.4213990697425
 20
-471.4130507857943
 30
0.0
 10
-513.813277761355
 20
-471.121185144681
 30
0.0
 10
-513.1968487728832
 20
-470.8326957518528
 30
0.0
 10
-512.5728604713574
 20
-470.5475218267436
 30
0.0
 10
-511.9420685850213
 20
-470.2655870847049
 30
0.0
 10
-511.3052316806256
 20
-469.9867998708482
 30
0.0
 10
-510.6631066983054
 20
-469.7110533219965
 30
0.0
 10
-510.0164463491034
 20
-469.438226735234
 30
0.0
 10
-509.3659974518691
 20
-469.1681872570627
 30
0.0
 10
-508.7124992464204
 20
-468.9007915328866
 30
0.0
 10
-508.0566816837948
 20
-468.6358872789793
 30
0.0
 10
-507.3992636896488
 20
-468.3733147738281
 30
0.0
 10
-506.7409507591109
 20
-468.1129079886198
 30
0.0
 10
-506.0824306896812
 20
-467.8544949457537
 30
0.0
 10
-505.4243692256182
 20
-467.5978982472701
 30
0.0
 10
-504.7674068064986
 20
-467.3429356462182
 30
0.0
 10
-504.1121574361293
 20
-467.0894213897071
 30
0.0
 10
-503.459207867205
 20
-466.8371675120868
 30
0.0
 10
-502.8091167705148
 20
-466.5859849546133
 30
0.0
 10
-502.1624139459681
 20
-466.3356845261973
 30
0.0
 10
-501.5195995816721
 20
-466.0860777048211
 30
0.0
 10
-500.8811435289514
 20
-465.8369772635647
 30
0.0
 10
-500.2474837080271
 20
-465.5881973725636
 30
0.0
 10
-499.6190253511365
 20
-465.3395538233195
 30
0.0
 10
-498.9961421178959
 20
-465.0908648813857
 30
0.0
 10
-498.3791784157858
 20
-464.8419524359564
 30
0.0
 10
-497.7684511333301
 20
-464.5926427937561
 30
0.0
 10
-497.1642497606124
 20
-464.3427667214329
 30
0.0
 10
-496.56683648768
 20
-464.0921593541585
 30
0.0
 10
-495.976446367182
 20
-463.8406600094801
 30
0.0
 10
-495.3932875441374
 20
-463.5881119097354
 30
0.0
 10
-494.817541554354
 20
-463.3343618189682
 30
0.0
 10
-494.2493637595288
 20
-463.0792596217764
 30
0.0
 10
-493.6888850222771
 20
-462.8226583816284
 30
0.0
 10
-493.136215091811
 20
-462.5644150561268
 30
0.0
 10
-492.5914460498531
 20
-462.3043914350453
 30
0.0
 10
-492.0546545190971
 20
-462.0424545730369
 30
0.0
 10
-491.5259022212379
 20
-461.7784764220906
 30
0.0
 10
-491.0052363291313
 20
-461.5123333412382
 30
0.0
 10
-490.4926898887415
 20
-461.2439056067242
 30
0.0
 10
-489.9882821442395
 20
-460.9730768304381
 30
0.0
 10
-489.4920193730509
 20
-460.6997336437502
 30
0.0
 10
-489.0038940013008
 20
-460.4237643424894
 30
0.0
 10
-488.6822811610195
 20
-460.2370273283104
 30
0.0
 10
-488.5228528410396
 20
-460.1431834499664
 30
0.0
  0
LINE
  5
4B4
330
4DD
100
AcDbEntity
  8
0
 62
     7
370
    13
390
F
100
AcDbLine
 10
-9.94558
 20
-79.977432
 30
0.0
 11
-501.778778
 21
-561.345764
 31
0.0
  0
ELLIPSE
  5
4B5
330
4DD
100
AcDbEntity
  8
0
 62
     7
370
    40
390
F
100
AcDbEllipse
 10
-509.972321
 20
-530.350403
 30
0.0
 11
-24.76098442077637
 21
25.29928207397461
 31
0.0
210
0.0
220
0.0
230
0.9999999999999998
 40
0.7255240000000001
 41
1.531438184641535
 42
2.477770177348628
  0
LINE
  5
4B6
330
4DD
100
AcDbEntity
  8
0
 62
     7
370
    13
390
F
100
AcDbLine
 10
-37.454456
 20
-65.937309
 30
0.0
 11
-529.287659
 21
-547.305664
 31
0.0
  0
LINE
  5
4B7
330
4DD
100
AcDbEntity
  8
0
 62
     7
370
    13
390
F
100
AcDbLine
 10
4.880939
 20
-78.314415
 30
0.0
 11
-486.95224
 21
-559.6828
 31
0.0
  0
ELLIPSE
  5
4B8
330
4DD
100
AcDbEntity
  8
0
 62
     7
370
    40
390
F
100
AcDbEllipse
 10
-516.360535
 20
-506.184448
 30
0.0
 11
-44.06615829467773
 21
45.02414703369141
 31
0.0
210
0.0
220
0.0
230
1.0
 40
0.725524
 41
2.477770177348628
 42
2.774543581914841
  0
LINE
  5
4B9
330
4DD
100
AcDbEntity
  8
0
 62
     7
370
    13
390
F
100
AcDbLine
 10
9.55979
 20
-82.122833
 30
0.0
 11
-482.273407
 21
-563.491211
 31
0.0
  0
ELLIPSE
  5
4BA
330
4DD
100
AcDbEntity
  8
0
 62
     7
370
    40
390
F
100
AcDbEllipse
 10
-485.318451
 20
-562.654907
 30
0.0
 11
-2.448119878768921
 21
2.501341342926025
 31
0.0
210
0.0
220
0.0
230
1.0
 40
0.7255239999999998
 41
3.818830762104213
 42
5.916136235504631
  0
LINE
  5
4BB
330
4DD
100
AcDbEntity
  8
0
 62
     7
370
    40
390
F
100
AcDbLine
 10
9.831524
 20
-88.816368
 30
0.0
 11
-482.001648
 21
-570.184753
 31
0.0
  0
LINE
  5
4BC
330
4DD
100
AcDbEntity
  8
0
 62
     7
 48
0.167476
370
    40
390
F
100
AcDbLine
 10
-482.001648
 20
-570.184753
 30
0.0
 11
-482.273407
 21
-563.491211
 31
0.0
  0
LINE
  5
4BD
330
4DD
100
AcDbEntity
  8
0
 62
     7
 48
0.013534
370
    40
390
F
100
AcDbLine
 10
-482.001648
 20
-570.184753
 30
0.0
 11
-482.523682
 21
-570.041382
 31
0.0
  0
LINE
  5
4BE
330
4DD
100
AcDbEntity
  8
0
 62
     7
 48
0.167476
370
    40
390
F
100
AcDbLine
 10
-482.523682
 20
-570.041382
 30
0.0
 11
-482.79541
 21
-563.347839
 31
0.0
  0
ELLIPSE
  5
4BF
330
4DD
100
AcDbEntity
  8
0
 62
     7
370
    40
390
F
100
AcDbEllipse
 10
-485.318451
 20
-562.654907
 30
0.0
 11
-2.028442144393921
 21
2.072540044784546
 31
0.0
210
0.0
220
0.0
230
1.0
 40
0.725524
 41
3.818830762104189
 42
5.916136235504631
  0
ELLIPSE
  5
4C0
330
4DD
100
AcDbEntity
  8
0
 62
     7
370
    40
390
F
100
AcDbEllipse
 10
-516.360535
 20
-506.184448
 30
0.0
 11
-44.48583602905273
 21
45.45294570922852
 31
0.0
210
0.0
220
0.0
230
0.9999999999999999
 40
0.725524
 41
2.477770177348629
 42
2.774543581914841
  0
ELLIPSE
  5
4C1
330
4DD
100
AcDbEntity
  8
0
 62
     7
370
    40
390
F
100
AcDbEllipse
 10
-509.972321
 20
-530.350403
 30
0.0
 11
-25.18066215515137
 21
25.72808265686035
 31
0.0
210
0.0
220
0.0
230
0.9999999999999999
 40
0.7255240000000001
 41
1.531438184641535
 42
2.477770177348629
  0
ELLIPSE
  5
4C2
330
4DD
100
AcDbEntity
  8
0
 62
     7
370
    40
390
F
100
AcDbEllipse
 10
-494.912933
 20
-517.130981
 30
0.0
 11
-44.48583602905273
 21
45.45294570922852
 31
0.0
210
0.0
220
0.0
230
0.9999999999999999
 40
0.725524
 41
1.054647604241877
 42
1.531438184641535
  0
LINE
  5
4C3
330
4DD
100
AcDbEntity
  8
0
 62
     7
 48
0.019712
370
    13
390
F
100
AcDbLine
 10
-615.296204
 20
-494.76059
 30
0.0
 11
-615.85968
 21
-495.312134
 31
0.0
  0
ELLIPSE
  5
4C4
330
4DD
100
AcDbEntity
  8
0
 62
     7
370
    40
390
F
100
AcDbEllipse
 10
-613.585388
 20
-497.072113
 30
0.0
 11
-2.028442144393921
 21
2.072540044784546
 31
0.0
210
0.0
220
0.0
230
1.0
 40
0.725524
 41
6.283185067156991
 42
6.471731225135565
  0
ELLIPSE
  5
4C5
330
4DD
100
AcDbEntity
  8
0
 62
     7
370
    40
390
F
100
AcDbEllipse
 10
-613.585388
 20
-497.072113
 30
0.0
 11
-2.028442144393921
 21
2.072540044784546
 31
0.0
210
0.0
220
0.0
230
1.0
 40
0.725524
 41
4.374425751735174
 42
6.283185067156991
  0
LINE
  5
4C6
330
4DD
100
AcDbEntity
  8
0
 62
     7
 48
0.19772
370
    40
390
F
100
AcDbLine
 10
-613.209473
 20
-494.799896
 30
0.0
 11
-618.861633
 21
-500.331818
 31
0.0
  0
LINE
  5
4C7
330
4DD
100
AcDbEntity
  8
0
 62
     7
 48
0.146221
370
    40
390
F
100
AcDbLine
 10
-618.861633
 20
-500.331818
 30
0.0
 11
-615.85968
 21
-495.312134
 31
0.0
  0
LINE
  5
4C8
330
4DD
100
AcDbEntity
  8
0
 62
     7
 48
0.014875
370
    40
390
F
100
AcDbLine
 10
-619.332214
 20
-499.967682
 30
0.0
 11
-618.861633
 21
-500.331818
 31
0.0
  0
LINE
  5
4C9
330
4DD
100
AcDbEntity
  8
0
 62
     7
 48
0.146221
370
    40
390
F
100
AcDbLine
 10
-619.332214
 20
-499.967682
 30
0.0
 11
-616.330261
 21
-494.947998
 31
0.0
  0
LINE
  5
4CA
330
4DD
100
AcDbEntity
  8
0
 62
     7
370
    13
390
F
100
AcDbLine
 10
-119.228348
 20
-14.857416
 30
0.0
 11
-611.061523
 21
-496.225769
 31
0.0
  0
ELLIPSE
  5
4CB
330
4DD
100
AcDbEntity
  8
0
 62
     7
370
    40
390
F
100
AcDbEllipse
 10
-613.585388
 20
-497.072113
 30
0.0
 11
-2.448119878768921
 21
2.501341342926025
 31
0.0
210
0.0
220
0.0
230
1.0
 40
0.7255239999999998
 41
4.374425751735171
 42
6.283185067156991
  0
ELLIPSE
  5
4CC
330
4DD
100
AcDbEntity
  8
0
 62
     7
370
    40
390
F
100
AcDbEllipse
 10
-613.585388
 20
-497.072113
 30
0.0
 11
-2.448119878768921
 21
2.501341342926025
 31
0.0
210
0.0
220
0.0
230
1.0
 40
0.7255239999999998
 41
6.283185067156991
 42
6.471731225135566
  0
LINE
  5
4CD
330
4DD
100
AcDbEntity
  8
0
 62
     7
370
    13
390
F
100
AcDbLine
 10
-108.252213
 20
-29.713312
 30
0.0
 11
-600.085388
 21
-511.081665
 31
0.0
  0
ELLIPSE
  5
4CE
330
4DD
100
AcDbEntity
  8
0
 62
     7
370
    40
390
F
100
AcDbEllipse
 10
-565.632446
 20
-480.99176
 30
0.0
 11
-44.06615829467773
 21
45.02414703369141
 31
0.0
210
0.0
220
0.0
230
1.0
 40
0.725524
 41
1.232833098145382
 42
1.529606502711594
  0
ELLIPSE
  5
4CF
330
4DD
100
AcDbEntity
  8
0
 62
     7
370
    40
390
F
100
AcDbEllipse
 10
-587.071899
 20
-470.010193
 30
0.0
 11
-44.06615829467773
 21
45.02414703369141
 31
0.0
210
0.0
220
0.0
230
1.0
 40
0.725524
 41
2.475938495418687
 42
2.952729075818347
  0
LINE
  5
4D0
330
4DD
100
AcDbEntity
  8
0
 62
     7
370
    13
390
F
100
AcDbLine
 10
-80.753815
 20
-43.798374
 30
0.0
 11
-572.586975
 21
-525.166748
 31
0.0
  0
LINE
  5
4D1
330
4DD
100
AcDbEntity
  8
0
 62
     7
370
    13
390
F
100
AcDbLine
 10
-95.056305
 20
-75.0485
 30
0.0
 11
-58.08894
 21
-38.867695
 31
0.0
  0
LINE
  5
4D2
330
4DD
100
AcDbEntity
  8
0
 62
     7
370
    13
390
F
100
AcDbLine
 10
-90.205833
 20
-77.528542
 30
0.0
 11
-53.238468
 21
-41.347736
 31
0.0
  0
ELLIPSE
  5
4D3
330
4DD
100
AcDbEntity
  8
0
 62
     7
370
    40
390
F
100
AcDbEllipse
 10
-494.912933
 20
-517.130981
 30
0.0
 11
-44.06615829467773
 21
45.02414703369141
 31
0.0
210
0.0
220
0.0
230
1.0
 40
0.725524
 41
1.054647604241877
 42
1.531438184641535
  0
LINE
  5
4D4
330
4DD
100
AcDbEntity
  8
0
 62
     7
 48
0.378508
370
    40
390
F
100
AcDbLine
 10
-315.627167
 20
-239.760727
 30
0.0
 11
-304.806854
 21
-229.170624
 31
0.0
  0
LINE
  5
4D5
330
4DD
100
AcDbEntity
  8
0
 62
     7
 48
0.012372
370
    40
390
F
100
AcDbLine
 10
-304.919189
 20
-229.652603
 30
0.0
 11
-304.806854
 21
-229.170624
 31
0.0
  0
SPLINE
  5
4D6
330
4DD
100
AcDbEntity
  8
0
 62
     7
370
    40
390
F
100
AcDbSpline
210
0.0
220
0.0
230
1.0
 70
     8
 71
     3
 72
    48
 73
    44
 74
     0
 42
0.0
 43
0.0
 40
0.0
 40
0.0
 40
0.0
 40
0.0
 40
0.1362340299114592
 40
0.2740172206371974
 40
0.4131446902531993
 40
0.5534050535674401
 40
0.6945818907507086
 40
0.8364551872771804
 40
0.97880274521984
 40
1.121401565925036
 40
1.264029203970728
 40
1.40646509211299
 40
1.548491836663323
 40
1.689896482414206
 40
1.83047196599759
 40
1.970018674853273
 40
2.108344609134278
 40
2.245266335219013
 40
2.380610198350371
 40
2.514213553749939
 40
2.645926017157834
 40
2.775610734933661
 40
2.903145672496468
 40
3.028424917788266
 40
3.151359993412259
 40
3.271881166855255
 40
3.389938440321752
 40
3.505501741156222
 40
3.618562473292134
 40
3.729134766835879
 40
3.837256483030209
 40
3.942990119101285
 40
4.046423547288679
 40
4.147670505985905
 40
4.2468707455348
 40
4.344189719626067
 40
4.439817709173586
 40
4.533968273146724
 40
4.626875971222042
 40
4.718793359914145
 40
4.809987106435444
 40
4.900733641114313
 40
4.991314495715733
 40
4.991314495715733
 40
4.991314495715733
 40
4.991314495715733
 10
-378.6549317061995
 20
-319.0680826108158
 30
0.0
 10
-378.6960435317638
 20
-319.0487877597182
 30
0.0
 10
-378.7792953398073
 20
-319.0111867898721
 30
0.0
 10
-378.9063744159659
 20
-318.9580688395998
 30
0.0
 10
-379.0361299660108
 20
-318.9080171718157
 30
0.0
 10
-379.1682714636059
 20
-318.8611533448865
 30
0.0
 10
-379.3025014577459
 20
-318.8175952426278
 30
0.0
 10
-379.4385185207001
 20
-318.7774557184358
 30
0.0
 10
-379.5760174517216
 20
-318.7408424986945
 30
0.0
 10
-379.7146902126265
 20
-318.7078577051349
 30
0.0
 10
-379.8542266521314
 20
-318.6785974432482
 30
0.0
 10
-379.9943152730853
 20
-318.6531513379026
 30
0.0
 10
-380.1346439749979
 20
-318.6316020530269
 30
0.0
 10
-380.2749008578017
 20
-318.6140247723301
 30
0.0
 10
-380.4147751496123
 20
-318.6004866855927
 30
0.0
 10
-380.5539578461111
 20
-318.5910475856526
 30
0.0
 10
-380.6921419745268
 20
-318.5857586302515
 30
0.0
 10
-380.8290228934803
 20
-318.5846621799632
 30
0.0
 10
-380.9642989029874
 20
-318.5877915355834
 30
0.0
 10
-381.097671931045
 20
-318.5951706763134
 30
0.0
 10
-381.2288482114081
 20
-318.6068139962896
 30
0.0
 10
-381.3575389543055
 20
-318.6227260456305
 30
0.0
 10
-381.4834610101071
 20
-318.6429012777872
 30
0.0
 10
-381.6063375255821
 20
-318.667323805288
 30
0.0
 10
-381.725898594828
 20
-318.6959671673048
 30
0.0
 10
-381.8418818001831
 20
-318.7287940769784
 30
0.0
 10
-381.9540324404131
 20
-318.7657560606323
 30
0.0
 10
-382.062103381325
 20
-318.8067943515634
 30
0.0
 10
-382.1658556892277
 20
-318.8518386009099
 30
0.0
 10
-382.2650592365986
 20
-318.900807045086
 30
0.0
 10
-382.3594931327017
 20
-318.9536066199606
 30
0.0
 10
-382.4489460961997
 20
-319.0101330671682
 30
0.0
 10
-382.5332168345784
 20
-319.0702710349422
 30
0.0
 10
-382.612114442446
 20
-319.133894171503
 30
0.0
 10
-382.6854588333719
 20
-319.2008652061336
 30
0.0
 10
-382.7530812262058
 20
-319.2710360270341
 30
0.0
 10
-382.8148247004967
 20
-319.3442477469157
 30
0.0
 10
-382.8705448664119
 20
-319.4203308617206
 30
0.0
 10
-382.9201105859477
 20
-319.4991052827176
 30
0.0
 10
-382.9634034154619
 20
-319.5803822638775
 30
0.0
 10
-383.0003186477381
 20
-319.6639609938997
 30
0.0
 10
-383.030768214725
 20
-319.7496403375416
 30
0.0
 10
-383.0467018778172
 20
-319.8079924503652
 30
0.0
 10
-383.0535623481238
 20
-319.837411032392
 30
0.0
  0
SPLINE
  5
4D7
330
4DD
100
AcDbEntity
  8
0
 62
     7
370
    40
390
F
100
AcDbSpline
210
0.0
220
0.0
230
1.0
 70
     8
 71
     3
 72
    31
 73
    27
 74
     0
 42
0.0
 43
0.0
 40
0.0
 40
0.0
 40
0.0
 40
0.0
 40
0.0947626046930685
 40
0.1899680367393065
 40
0.2859215106583657
 40
0.3829124186727519
 40
0.4812101640986275
 40
0.5810608743595514
 40
0.6826850081438833
 40
0.7862758829502028
 40
0.8919985804772317
 40
0.9999894361434796
 40
1.110356586493264
 40
1.223180973437189
 40
1.338517624052009
 40
1.456397084249219
 40
1.576826910685491
 40
1.699793149516825
 40
1.8252617514753
 40
1.953179889795319
 40
2.0834771249099
 40
2.216066367575139
 40
2.350845270718134
 40
2.487697511427666
 40
2.626493910013487
 40
2.767093484876116
 40
2.767093484876116
 40
2.767093484876116
 40
2.767093484876116
 10
-383.0535623481238
 20
-319.837411032392
 30
0.0
 10
-383.0607398213403
 20
-319.868188963806
 30
0.0
 10
-383.0727037733278
 20
-319.9304245305586
 30
0.0
 10
-383.083375895377
 20
-320.0252330050589
 30
0.0
 10
-383.0867584622919
 20
-320.1213152303845
 30
0.0
 10
-383.0828406293019
 20
-320.2184075618403
 30
0.0
 10
-383.0716275869876
 20
-320.3162336605557
 30
0.0
 10
-383.0531431735125
 20
-320.4145179944865
 30
0.0
 10
-383.0274290977983
 20
-320.5129835634582
 30
0.0
 10
-382.9945442291248
 20
-320.6113534953541
 30
0.0
 10
-382.9545638183143
 20
-320.709351008155
 30
0.0
 10
-382.9075807886577
 20
-320.8067004566009
 30
0.0
 10
-382.8537051400905
 20
-320.9031279601373
 30
0.0
 10
-382.7930637827001
 20
-320.9983623385473
 30
0.0
 10
-382.7258002815393
 20
-321.0921360586333
 30
0.0
 10
-382.6520746429143
 20
-321.1841862178713
 30
0.0
 10
-382.5720630874453
 20
-321.274255546177
 30
0.0
 10
-382.4859578098086
 20
-321.3620934155218
 30
0.0
 10
-382.3939667215964
 20
-321.4474568576993
 30
0.0
 10
-382.2963131635974
 20
-321.5301115280021
 30
0.0
 10
-382.1932356884582
 20
-321.609832767174
 30
0.0
 10
-382.0849871218691
 20
-321.6864057690613
 30
0.0
 10
-381.9718338644566
 20
-321.7596267065563
 30
0.0
 10
-381.8540561688843
 20
-321.8293031267345
 30
0.0
 10
-381.7319433592936
 20
-321.8952564191732
 30
0.0
 10
-381.6483622411511
 20
-321.9363785701675
 30
0.0
 10
-381.6059308164645
 20
-321.9562927435215
 30
0.0
  0
ELLIPSE
  5
4D8
330
4DD
100
AcDbEntity
  8
0
 62
     7
370
    40
390
F
100
AcDbEllipse
 10
-565.632446
 20
-480.99176
 30
0.0
 11
-44.48583602905273
 21
45.45294570922852
 31
0.0
210
0.0
220
0.0
230
0.9999999999999999
 40
0.725524
 41
1.232833098145382
 42
1.529606502711594
  0
ELLIPSE
  5
4D9
330
4DD
100
AcDbEntity
  8
0
 62
     7
370
    40
390
F
100
AcDbEllipse
 10
-580.726135
 20
-494.174011
 30
0.0
 11
-24.76098442077637
 21
25.29928207397461
 31
0.0
210
0.0
220
0.0
230
0.9999999999999998
 40
0.7255240000000001
 41
1.529606502711593
 42
2.475938495418688
  0
ELLIPSE
  5
4DA
330
4DD
100
AcDbEntity
  8
0
 62
     7
370
    40
390
F
100
AcDbEllipse
 10
-289.069031
 20
-208.722565
 30
0.0
 11
24.76098442077637
 21
-25.29928207397461
 31
0.0
210
0.0
220
0.0
230
0.9999999999999998
 40
0.7255240000000001
 41
4.814418612279743
 42
5.567301498103353
  0
LINE
  5
4DB
330
4DD
100
AcDbEntity
  8
0
 62
     7
370
    40
390
F
100
AcDbLine
 10
-124.200302
 20
-13.202409
 30
0.0
 11
-616.033508
 21
-494.57077
 31
0.0
  0
ENDBLK
  5
80E
330
4DD
100
AcDbEntity
  8
0
100
AcDbBlockEnd
  0
BLOCK
  5
80F
330
724
100
AcDbEntity
  8
0
100
AcDbBlockBegin
  2
*D86
 70
     1
 10
0.0
 20
0.0
 30
0.0
  3
*D86
  1

  0
POINT
  5
71B
330
724
100
AcDbEntity
  8
DEFPOINTS
  6
ByBlock
 62
     0
380
     1
100
AcDbPoint
 10
469.62495
 20
945.6531055
 30
0.0
  0
POINT
  5
71C
330
724
100
AcDbEntity
  8
DEFPOINTS
  6
ByBlock
 62
     0
380
     1
100
AcDbPoint
 10
1469.62495
 20
945.6531055
 30
0.0
  0
LINE
  5
71D
330
724
100
AcDbEntity
  8
0
  6
ByBlock
 62
     0
370
    -2
380
     1
100
AcDbLine
 10
469.62495
 20
945.0281055
 30
0.0
 11
469.62495
 21
805.664817582794
 31
0.0
  0
LINE
  5
71E
330
724
100
AcDbEntity
  8
0
  6
ByBlock
 62
     0
370
    -2
380
     1
100
AcDbLine
 10
1469.62495
 20
945.0281055
 30
0.0
 11
1469.62495
 21
805.664817582794
 31
0.0
  0
LINE
  5
71F
330
724
100
AcDbEntity
  8
0
  6
ByBlock
 62
     0
370
    -2
380
     1
100
AcDbLine
 10
472.12495
 20
806.914817582794
 30
0.0
 11
1467.12495
 21
806.914817582794
 31
0.0
  0
SOLID
  5
720
330
724
100
AcDbEntity
  8
0
  6
ByBlock
 62
     0
380
     1
100
AcDbTrace
 10
469.62495
 20
806.914817582794
 30
0.0
 11
472.12495
 21
806.4981509161273
 31
0.0
 12
472.12495
 22
807.3314842494606
 32
0.0
 13
472.12495
 23
807.3314842494606
 33
0.0
  0
SOLID
  5
721
330
724
100
AcDbEntity
  8
0
  6
ByBlock
 62
     0
380
     1
100
AcDbTrace
 10
1469.62495
 20
806.914817582794
 30
0.0
 11
1467.12495
 21
806.4981509161273
 31
0.0
 12
1467.12495
 22
807.3314842494606
 32
0.0
 13
1467.12495
 23
807.3314842494606
 33
0.0
  0
MTEXT
  5
722
330
724
100
AcDbEntity
  8
0
  6
ByBlock
 62
     0
370
    -2
380
     1
100
AcDbMText
 10
969.6249499999999
 20
808.789817582794
 30
0.0
 40
2.5
 41
0.0
 71
     5
 72
     1
  1
\A1;1000
 73
     1
 44
1.0
  0
ENDBLK
  5
810
330
724
100
AcDbEntity
  8
0
100
AcDbBlockEnd
  0
BLOCK
  5
811
330
72F
100
AcDbEntity
  8
0
100
AcDbBlockBegin
  2
*D87
 70
     1
 10
0.0
 20
0.0
 30
0.0
  3
*D87
  1

  0
POINT
  5
726
330
72F
100
AcDbEntity
  8
DEFPOINTS
  6
ByBlock
 62
     7
380
     1
100
AcDbPoint
 10
469.62495
 20
945.6531055
 30
0.0
  0
POINT
  5
727
330
72F
100
AcDbEntity
  8
DEFPOINTS
  6
ByBlock
 62
     7
380
     1
100
AcDbPoint
 10
1469.62495
 20
945.6531055
 30
0.0
  0
LINE
  5
728
330
72F
100
AcDbEntity
  8
0
  6
ByBlock
 62
     7
370
    -2
380
     1
100
AcDbLine
 10
469.62495
 20
945.0281055
 30
0.0
 11
469.62495
 21
805.664817582794
 31
0.0
  0
LINE
  5
729
330
72F
100
AcDbEntity
  8
0
  6
ByBlock
 62
     7
370
    -2
380
     1
100
AcDbLine
 10
1469.62495
 20
945.0281055
 30
0.0
 11
1469.62495
 21
805.664817582794
 31
0.0
  0
LINE
  5
72A
330
72F
100
AcDbEntity
  8
0
  6
ByBlock
 62
     7
370
    -2
380
     1
100
AcDbLine
 10
479.62495
 20
806.914817582794
 30
0.0
 11
1459.62495
 21
806.914817582794
 31
0.0
  0
SOLID
  5
72B
330
72F
100
AcDbEntity
  8
0
  6
ByBlock
 62
     7
380
     1
100
AcDbTrace
 10
469.62495
 20
806.914817582794
 30
0.0
 11
479.62495
 21
805.2481509161273
 31
0.0
 12
479.62495
 22
808.5814842494606
 32
0.0
 13
479.62495
 23
808.5814842494606
 33
0.0
  0
SOLID
  5
72C
330
72F
100
AcDbEntity
  8
0
  6
ByBlock
 62
     7
380
     1
100
AcDbTrace
 10
1469.62495
 20
806.914817582794
 30
0.0
 11
1459.62495
 21
805.2481509161273
 31
0.0
 12
1459.62495
 22
808.5814842494606
 32
0.0
 13
1459.62495
 23
808.5814842494606
 33
0.0
  0
MTEXT
  5
72D
330
72F
100
AcDbEntity
  8
0
  6
ByBlock
 62
     0
370
    -2
380
     1
100
AcDbMText
 10
969.6249499999999
 20
818.914817582794
 30
0.0
 40
14.0
 41
0.0
 71
     5
 72
     1
  1
\A1;1000
 73
     1
 44
1.0
  0
ENDBLK
  5
812
330
72F
100
AcDbEntity
  8
0
100
AcDbBlockEnd
  0
BLOCK
  5
813
330
73A
100
AcDbEntity
  8
0
100
AcDbBlockBegin
  2
*D88
 70
     1
 10
0.0
 20
0.0
 30
0.0
  3
*D88
  1

  0
POINT
  5
731
330
73A
100
AcDbEntity
  8
DEFPOINTS
  6
ByBlock
 62
     7
380
     1
100
AcDbPoint
 10
469.62495
 20
945.6531055
 30
0.0
  0
POINT
  5
732
330
73A
100
AcDbEntity
  8
DEFPOINTS
  6
ByBlock
 62
     7
380
     1
100
AcDbPoint
 10
1469.62495
 20
945.6531055
 30
0.0
  0
LINE
  5
733
330
73A
100
AcDbEntity
  8
0
  6
ByBlock
 62
     7
370
    -2
380
     1
100
AcDbLine
 10
469.62495
 20
945.0281055
 30
0.0
 11
469.62495
 21
805.664817582794
 31
0.0
  0
LINE
  5
734
330
73A
100
AcDbEntity
  8
0
  6
ByBlock
 62
     7
370
    -2
380
     1
100
AcDbLine
 10
1469.62495
 20
945.0281055
 30
0.0
 11
1469.62495
 21
805.664817582794
 31
0.0
  0
LINE
  5
735
330
73A
100
AcDbEntity
  8
0
  6
ByBlock
 62
     7
370
    -2
380
     1
100
AcDbLine
 10
479.62495
 20
806.914817582794
 30
0.0
 11
1459.62495
 21
806.914817582794
 31
0.0
  0
SOLID
  5
736
330
73A
100
AcDbEntity
  8
0
  6
ByBlock
 62
     7
380
     1
100
AcDbTrace
 10
469.62495
 20
806.914817582794
 30
0.0
 11
479.62495
 21
805.2481509161273
 31
0.0
 12
479.62495
 22
808.5814842494606
 32
0.0
 13
479.62495
 23
808.5814842494606
 33
0.0
  0
SOLID
  5
737
330
73A
100
AcDbEntity
  8
0
  6
ByBlock
 62
     7
380
     1
100
AcDbTrace
 10
1469.62495
 20
806.914817582794
 30
0.0
 11
1459.62495
 21
805.2481509161273
 31
0.0
 12
1459.62495
 22
808.5814842494606
 32
0.0
 13
1459.62495
 23
808.5814842494606
 33
0.0
  0
MTEXT
  5
738
330
73A
100
AcDbEntity
  8
0
  6
ByBlock
 62
     0
370
    -2
380
     1
100
AcDbMText
 10
969.6249499999999
 20
818.914817582794
 30
0.0
 40
14.0
 41
0.0
 71
     5
 72
     1
  1
\A1;1000
 73
     1
 44
1.0
  0
ENDBLK
  5
814
330
73A
100
AcDbEntity
  8
0
100
AcDbBlockEnd
  0
BLOCK
  5
815
330
746
100
AcDbEntity
  8
0
100
AcDbBlockBegin
  2
*D89
 70
     1
 10
0.0
 20
0.0
 30
0.0
  3
*D89
  1

  0
POINT
  5
73D
330
746
100
AcDbEntity
  8
DEFPOINTS
  6
ByBlock
 62
     0
380
     1
100
AcDbPoint
 10
1224.540966396313
 20
1012.462509
 30
0.0
  0
POINT
  5
73E
330
746
100
AcDbEntity
  8
DEFPOINTS
  6
ByBlock
 62
     0
380
     1
100
AcDbPoint
 10
1218.945200653107
 20
851.3625030000001
 30
0.0
  0
LINE
  5
73F
330
746
100
AcDbEntity
  8
0
  6
ByBlock
 62
     0
370
    -2
380
     1
100
AcDbLine
 10
1225.165966396313
 20
1012.462509
 30
0.0
 11
1506.238094939904
 21
1012.462509
 31
0.0
  0
LINE
  5
740
330
746
100
AcDbEntity
  8
0
  6
ByBlock
 62
     0
370
    -2
380
     1
100
AcDbLine
 10
1219.570200653107
 20
851.3625030000001
 30
0.0
 11
1506.238094939904
 21
851.3625030000001
 31
0.0
  0
LINE
  5
741
330
746
100
AcDbEntity
  8
0
  6
ByBlock
 62
     0
370
    -2
380
     1
100
AcDbLine
 10
1504.988094939904
 20
1009.962509
 30
0.0
 11
1504.988094939904
 21
853.8625030000001
 31
0.0
  0
SOLID
  5
742
330
746
100
AcDbEntity
  8
0
  6
ByBlock
 62
     0
380
     1
100
AcDbTrace
 10
1504.988094939904
 20
1012.462509
 30
0.0
 11
1504.571428273237
 21
1009.962509
 31
0.0
 12
1505.404761606571
 22
1009.962509
 32
0.0
 13
1505.404761606571
 23
1009.962509
 33
0.0
  0
SOLID
  5
743
330
746
100
AcDbEntity
  8
0
  6
ByBlock
 62
     0
380
     1
100
AcDbTrace
 10
1504.988094939904
 20
851.3625030000001
 30
0.0
 11
1504.571428273237
 21
853.8625030000001
 31
0.0
 12
1505.404761606571
 22
853.8625030000001
 32
0.0
 13
1505.404761606571
 23
853.8625030000001
 33
0.0
  0
MTEXT
  5
744
330
746
100
AcDbEntity
  8
0
  6
ByBlock
 62
     0
370
    -2
380
     1
100
AcDbMText
 10
1502.904761606571
 20
931.912506
 30
0.0
 40
2.5
 41
0.0
 71
     5
 72
     1
  1
\A1;161,1
 11
6.123031769111886E-17
 21
1.0
 31
0.0
 73
     1
 44
1.0
  0
ENDBLK
  5
816
330
746
100
AcDbEntity
  8
0
100
AcDbBlockEnd
  0
BLOCK
  5
817
330
751
100
AcDbEntity
  8
0
100
AcDbBlockBegin
  2
*D90
 70
     1
 10
0.0
 20
0.0
 30
0.0
  3
*D90
  1

  0
POINT
  5
748
330
751
100
AcDbEntity
  8
DEFPOINTS
  6
ByBlock
 62
     7
380
     1
100
AcDbPoint
 10
1224.540966396313
 20
1012.462509
 30
0.0
  0
POINT
  5
749
330
751
100
AcDbEntity
  8
DEFPOINTS
  6
ByBlock
 62
     7
380
     1
100
AcDbPoint
 10
1218.945200653107
 20
851.3625030000001
 30
0.0
  0
LINE
  5
74A
330
751
100
AcDbEntity
  8
0
  6
ByBlock
 62
     7
370
    -2
380
     1
100
AcDbLine
 10
1225.165966396313
 20
1012.462509
 30
0.0
 11
1506.238094939904
 21
1012.462509
 31
0.0
  0
LINE
  5
74B
330
751
100
AcDbEntity
  8
0
  6
ByBlock
 62
     7
370
    -2
380
     1
100
AcDbLine
 10
1219.570200653107
 20
851.3625030000001
 30
0.0
 11
1506.238094939904
 21
851.3625030000001
 31
0.0
  0
LINE
  5
74C
330
751
100
AcDbEntity
  8
0
  6
ByBlock
 62
     7
370
    -2
380
     1
100
AcDbLine
 10
1504.988094939904
 20
1002.462509
 30
0.0
 11
1504.988094939904
 21
861.3625030000001
 31
0.0
  0
SOLID
  5
74D
330
751
100
AcDbEntity
  8
0
  6
ByBlock
 62
     7
380
     1
100
AcDbTrace
 10
1504.988094939904
 20
1012.462509
 30
0.0
 11
1503.321428273237
 21
1002.462509
 31
0.0
 12
1506.654761606571
 22
1002.462509
 32
0.0
 13
1506.654761606571
 23
1002.462509
 33
0.0
  0
SOLID
  5
74E
330
751
100
AcDbEntity
  8
0
  6
ByBlock
 62
     7
380
     1
100
AcDbTrace
 10
1504.988094939904
 20
851.3625030000001
 30
0.0
 11
1503.321428273237
 21
861.3625030000001
 31
0.0
 12
1506.654761606571
 22
861.3625030000001
 32
0.0
 13
1506.654761606571
 23
861.3625030000001
 33
0.0
  0
MTEXT
  5
74F
330
751
100
AcDbEntity
  8
0
  6
ByBlock
 62
     0
370
    -2
380
     1
100
AcDbMText
 10
1492.988094939904
 20
931.912506
 30
0.0
 40
14.0
 41
0.0
 71
     5
 72
     1
  1
\A1;161
 11
6.123031769111886E-17
 21
1.0
 31
0.0
 73
     1
 44
1.0
  0
ENDBLK
  5
818
330
751
100
AcDbEntity
  8
0
100
AcDbBlockEnd
  0
BLOCK
  5
819
330
75C
100
AcDbEntity
  8
0
100
AcDbBlockBegin
  2
*D91
 70
     1
 10
0.0
 20
0.0
 30
0.0
  3
*D91
  1

  0
POINT
  5
753
330
75C
100
AcDbEntity
  8
DEFPOINTS
  6
ByBlock
 62
     7
380
     1
100
AcDbPoint
 10
1224.540966396313
 20
1012.462509
 30
0.0
  0
POINT
  5
754
330
75C
100
AcDbEntity
  8
DEFPOINTS
  6
ByBlock
 62
     7
380
     1
100
AcDbPoint
 10
1218.945200653107
 20
851.3625030000001
 30
0.0
  0
LINE
  5
755
330
75C
100
AcDbEntity
  8
0
  6
ByBlock
 62
     7
370
    -2
380
     1
100
AcDbLine
 10
1225.165966396313
 20
1012.462509
 30
0.0
 11
1506.238094939904
 21
1012.462509
 31
0.0
  0
LINE
  5
756
330
75C
100
AcDbEntity
  8
0
  6
ByBlock
 62
     7
370
    -2
380
     1
100
AcDbLine
 10
1219.570200653107
 20
851.3625030000001
 30
0.0
 11
1506.238094939904
 21
851.3625030000001
 31
0.0
  0
LINE
  5
757
330
75C
100
AcDbEntity
  8
0
  6
ByBlock
 62
     7
370
    -2
380
     1
100
AcDbLine
 10
1504.988094939904
 20
1002.462509
 30
0.0
 11
1504.988094939904
 21
861.3625030000001
 31
0.0
  0
SOLID
  5
758
330
75C
100
AcDbEntity
  8
0
  6
ByBlock
 62
     7
380
     1
100
AcDbTrace
 10
1504.988094939904
 20
1012.462509
 30
0.0
 11
1503.321428273237
 21
1002.462509
 31
0.0
 12
1506.654761606571
 22
1002.462509
 32
0.0
 13
1506.654761606571
 23
1002.462509
 33
0.0
  0
SOLID
  5
759
330
75C
100
AcDbEntity
  8
0
  6
ByBlock
 62
     7
380
     1
100
AcDbTrace
 10
1504.988094939904
 20
851.3625030000001
 30
0.0
 11
1503.321428273237
 21
861.3625030000001
 31
0.0
 12
1506.654761606571
 22
861.3625030000001
 32
0.0
 13
1506.654761606571
 23
861.3625030000001
 33
0.0
  0
MTEXT
  5
75A
330
75C
100
AcDbEntity
  8
0
  6
ByBlock
 62
     0
370
    -2
380
     1
100
AcDbMText
 10
1492.988094939904
 20
931.912506
 30
0.0
 40
14.0
 41
0.0
 71
     5
 72
     1
  1
\A1;161
 11
6.123031769111886E-17
 21
1.0
 31
0.0
 73
     1
 44
1.0
  0
ENDBLK
  5
81A
330
75C
100
AcDbEntity
  8
0
100
AcDbBlockEnd
  0
ENDSEC
  0
SECTION
  2
ENTITIES
  0
LINE
  5
6D9
330
1F
100
AcDbEntity
  8
0
 62
     7
370
    60
100
AcDbLine
 10
876.62495
 20
958.912506
 30
0.0
 11
898.62495
 21
958.912506
 31
0.0
  0
LINE
  5
6DA
330
1F
100
AcDbEntity
  8
0
 62
     7
370
    60
100
AcDbLine
 10
469.62495
 20
989.84729
 30
0.0
 11
1469.62495
 21
989.84729
 31
0.0
  0
LINE
  5
6DB
330
1F
100
AcDbEntity
  8
0
 62
     7
370
    60
100
AcDbLine
 10
1469.62495
 20
957.036419
 30
0.0
 11
1469.62495
 21
989.84729
 31
0.0
  0
LINE
  5
6DC
330
1F
100
AcDbEntity
  8
0
 62
     7
370
    60
100
AcDbLine
 10
469.62495
 20
957.036419
 30
0.0
 11
1469.62495
 21
957.036419
 31
0.0
  0
LINE
  5
6DD
330
1F
100
AcDbEntity
  8
0
 62
     7
370
    60
100
AcDbLine
 10
469.62495
 20
957.036419
 30
0.0
 11
469.62495
 21
989.84729
 31
0.0
  0
CIRCLE
  5
6DE
330
1F
100
AcDbEntity
  8
0
 62
     7
370
    60
100
AcDbCircle
 10
1051.62495
 20
971.912506
 30
0.0
 40
3.0
  0
LINE
  5
6DF
330
1F
100
AcDbEntity
  8
0
 62
     7
 48
0.2875
370
    60
100
AcDbLine
 10
898.62495
 20
973.412506
 30
0.0
 11
898.62495
 21
984.912506
 31
0.0
  0
LINE
  5
6E0
330
1F
100
AcDbEntity
  8
0
 62
     7
370
    60
100
AcDbLine
 10
898.62495
 20
984.912506
 30
0.0
 11
876.62495
 21
984.912506
 31
0.0
  0
LINE
  5
6E1
330
1F
100
AcDbEntity
  8
0
 62
     7
 48
0.2875
370
    60
100
AcDbLine
 10
876.62495
 20
984.912506
 30
0.0
 11
876.62495
 21
973.412506
 31
0.0
  0
LINE
  5
6E2
330
1F
100
AcDbEntity
  8
0
 62
     7
 48
0.3625
370
    60
100
AcDbLine
 10
876.62495
 20
973.412506
 30
0.0
 11
876.62495
 21
958.912506
 31
0.0
  0
LINE
  5
6E3
330
1F
100
AcDbEntity
  8
0
 62
     7
 48
0.3625
370
    60
100
AcDbLine
 10
898.62495
 20
958.912506
 30
0.0
 11
898.62495
 21
973.412506
 31
0.0
  0
LINE
  5
6E4
330
1F
100
AcDbEntity
  8
0
 62
     7
 48
0.014555
370
    60
100
AcDbLine
 10
469.62495
 20
1012.462509
 30
0.0
 11
469.62495
 21
1011.880325
 31
0.0
  0
LINE
  5
6E5
330
1F
100
AcDbEntity
  8
0
 62
     7
 48
0.048004
370
    60
100
AcDbLine
 10
469.62495
 20
1011.880325
 30
0.0
 11
469.62495
 21
1009.960167
 31
0.0
  0
LINE
  5
6E6
330
1F
100
AcDbEntity
  8
0
 62
     7
 48
0.120861
370
    60
100
AcDbLine
 10
469.62495
 20
1005.12574
 30
0.0
 11
469.62495
 21
1009.960167
 31
0.0
  0
LINE
  5
6E7
330
1F
100
AcDbEntity
  8
0
 62
     7
 48
0.381961
370
    60
100
AcDbLine
 10
469.62495
 20
989.84729
 30
0.0
 11
469.62495
 21
1005.12574
 31
0.0
  0
LINE
  5
6E8
330
1F
100
AcDbEntity
  8
0
 62
     7
370
    60
100
AcDbLine
 10
469.62495
 20
934.269792
 30
0.0
 11
469.62495
 21
957.036419
 31
0.0
  0
LINE
  5
6E9
330
1F
100
AcDbEntity
  8
0
 62
     7
 48
0.117864
370
    60
100
AcDbLine
 10
469.62495
 20
929.55522
 30
0.0
 11
469.62495
 21
934.269792
 31
0.0
  0
LINE
  5
6EA
330
1F
100
AcDbEntity
  8
0
 62
     7
370
    60
100
AcDbLine
 10
469.62495
 20
906.788593
 30
0.0
 11
469.62495
 21
929.55522
 31
0.0
  0
LINE
  5
6EB
330
1F
100
AcDbEntity
  8
0
 62
     7
370
    60
100
AcDbLine
 10
469.62495
 20
873.977722
 30
0.0
 11
469.62495
 21
906.788593
 31
0.0
  0
LINE
  5
6EC
330
1F
100
AcDbEntity
  8
0
 62
     7
 48
0.381961
370
    60
100
AcDbLine
 10
469.62495
 20
858.6992720000001
 30
0.0
 11
469.62495
 21
873.977722
 31
0.0
  0
LINE
  5
6ED
330
1F
100
AcDbEntity
  8
0
 62
     7
 48
0.120861
370
    60
100
AcDbLine
 10
469.62495
 20
853.8648450000001
 30
0.0
 11
469.62495
 21
858.6992720000001
 31
0.0
  0
LINE
  5
6EE
330
1F
100
AcDbEntity
  8
0
 62
     7
 48
0.048004
370
    60
100
AcDbLine
 10
469.62495
 20
851.944687
 30
0.0
 11
469.62495
 21
853.8648450000001
 31
0.0
  0
LINE
  5
6EF
330
1F
100
AcDbEntity
  8
0
 62
     7
 48
0.014555
370
    60
100
AcDbLine
 10
469.62495
 20
851.3625030000001
 30
0.0
 11
469.62495
 21
851.944687
 31
0.0
  0
ARC
  5
6F0
330
1F
100
AcDbEntity
  8
0
 62
     7
370
    60
100
AcDbCircle
 10
569.62495
 20
931.912506
 30
0.0
 40
25.0
100
AcDbArc
 50
0.0
 51
179.999995
  0
LINE
  5
6F1
330
1F
100
AcDbEntity
  8
0
 62
     7
370
    60
100
AcDbLine
 10
544.736339
 20
934.269792
 30
0.0
 11
469.62495
 21
934.269792
 31
0.0
  0
LINE
  5
6F2
330
1F
100
AcDbEntity
  8
0
 62
     7
370
    60
100
AcDbLine
 10
1469.62495
 20
934.269792
 30
0.0
 11
1469.62495
 21
957.036419
 31
0.0
  0
LINE
  5
6F3
330
1F
100
AcDbEntity
  8
0
 62
     7
370
    60
100
AcDbLine
 10
1394.513622
 20
934.269792
 30
0.0
 11
1469.62495
 21
934.269792
 31
0.0
  0
CIRCLE
  5
6F4
330
1F
100
AcDbEntity
  8
0
 62
     7
370
    60
100
AcDbCircle
 10
1369.62495
 20
931.912506
 30
0.0
 40
25.0
  0
LINE
  5
6F5
330
1F
100
AcDbEntity
  8
0
 62
     7
370
    60
100
AcDbLine
 10
969.62495
 20
934.269792
 30
0.0
 11
1344.736339
 21
934.269792
 31
0.0
  0
LINE
  5
6F6
330
1F
100
AcDbEntity
  8
0
 62
     7
370
    60
100
AcDbLine
 10
969.62495
 20
934.269792
 30
0.0
 11
594.513561
 21
934.269792
 31
0.0
  0
LINE
  5
6F7
330
1F
100
AcDbEntity
  8
0
 62
     7
370
    60
100
AcDbLine
 10
1394.513622
 20
929.55522
 30
0.0
 11
1469.62495
 21
929.55522
 31
0.0
  0
LINE
  5
6F8
330
1F
100
AcDbEntity
  8
0
 62
     7
 48
0.117864
370
    60
100
AcDbLine
 10
1469.62495
 20
929.55522
 30
0.0
 11
1469.62495
 21
934.269792
 31
0.0
  0
ARC
  5
6F9
330
1F
100
AcDbEntity
  8
0
 62
     7
370
    60
100
AcDbCircle
 10
569.62495
 20
931.912506
 30
0.0
 40
25.0
100
AcDbArc
 50
180.000005
 51
0.0
  0
LINE
  5
6FA
330
1F
100
AcDbEntity
  8
0
 62
     7
 48
0.2875
370
    60
100
AcDbLine
 10
1062.62495
 20
878.912506
 30
0.0
 11
1062.62495
 21
890.412506
 31
0.0
  0
LINE
  5
6FB
330
1F
100
AcDbEntity
  8
0
 62
     7
 48
0.3625
370
    60
100
AcDbLine
 10
1062.62495
 20
890.412506
 30
0.0
 11
1062.62495
 21
904.912506
 31
0.0
  0
LINE
  5
6FC
330
1F
100
AcDbEntity
  8
0
 62
     7
 48
0.3625
370
    60
100
AcDbLine
 10
1040.62495
 20
904.912506
 30
0.0
 11
1040.62495
 21
890.412506
 31
0.0
  0
LINE
  5
6FD
330
1F
100
AcDbEntity
  8
0
 62
     7
 48
0.2875
370
    60
100
AcDbLine
 10
1040.62495
 20
890.412506
 30
0.0
 11
1040.62495
 21
878.912506
 31
0.0
  0
CIRCLE
  5
6FE
330
1F
100
AcDbEntity
  8
0
 62
     7
370
    60
100
AcDbCircle
 10
887.62495
 20
891.912506
 30
0.0
 40
2.5
  0
LINE
  5
6FF
330
1F
100
AcDbEntity
  8
0
 62
     7
370
    60
100
AcDbLine
 10
1062.62495
 20
904.912506
 30
0.0
 11
1040.62495
 21
904.912506
 31
0.0
  0
LINE
  5
700
330
1F
100
AcDbEntity
  8
0
 62
     7
370
    60
100
AcDbLine
 10
1040.62495
 20
878.912506
 30
0.0
 11
1062.62495
 21
878.912506
 31
0.0
  0
LINE
  5
701
330
1F
100
AcDbEntity
  8
0
 62
     7
370
    60
100
AcDbLine
 10
969.62495
 20
929.55522
 30
0.0
 11
1344.736339
 21
929.55522
 31
0.0
  0
LINE
  5
702
330
1F
100
AcDbEntity
  8
0
 62
     7
370
    60
100
AcDbLine
 10
969.62495
 20
929.55522
 30
0.0
 11
594.513561
 21
929.55522
 31
0.0
  0
LINE
  5
703
330
1F
100
AcDbEntity
  8
0
 62
     7
370
    60
100
AcDbLine
 10
469.62495
 20
851.3625030000001
 30
0.0
 11
1469.62495
 21
851.3625030000001
 31
0.0
  0
LINE
  5
705
330
1F
100
AcDbEntity
  8
0
 62
     7
 48
0.014555
370
    60
100
AcDbLine
 10
1469.62495
 20
851.3625030000001
 30
0.0
 11
1469.62495
 21
851.944687
 31
0.0
  0
LINE
  5
706
330
1F
100
AcDbEntity
  8
0
 62
     7
370
    60
100
AcDbLine
 10
469.62495
 20
853.8648450000001
 30
0.0
 11
1469.62495
 21
853.8648450000001
 31
0.0
  0
LINE
  5
707
330
1F
100
AcDbEntity
  8
0
 62
     7
 48
0.048004
370
    60
100
AcDbLine
 10
1469.62495
 20
851.944687
 30
0.0
 11
1469.62495
 21
853.8648450000001
 31
0.0
  0
LINE
  5
708
330
1F
100
AcDbEntity
  8
0
 62
     7
370
    60
100
AcDbLine
 10
469.62495
 20
858.6992720000001
 30
0.0
 11
1469.62495
 21
858.6992720000001
 31
0.0
  0
LINE
  5
709
330
1F
100
AcDbEntity
  8
0
 62
     7
 48
0.120861
370
    60
100
AcDbLine
 10
1469.62495
 20
853.8648450000001
 30
0.0
 11
1469.62495
 21
858.6992720000001
 31
0.0
  0
LINE
  5
70A
330
1F
100
AcDbEntity
  8
0
 62
     7
370
    60
100
AcDbLine
 10
469.62495
 20
873.977722
 30
0.0
 11
1469.62495
 21
873.977722
 31
0.0
  0
LINE
  5
70B
330
1F
100
AcDbEntity
  8
0
 62
     7
 48
0.381961
370
    60
100
AcDbLine
 10
1469.62495
 20
858.6992720000001
 30
0.0
 11
1469.62495
 21
873.977722
 31
0.0
  0
LINE
  5
70C
330
1F
100
AcDbEntity
  8
0
 62
     7
370
    60
100
AcDbLine
 10
469.62495
 20
906.788593
 30
0.0
 11
1469.62495
 21
906.788593
 31
0.0
  0
LINE
  5
70D
330
1F
100
AcDbEntity
  8
0
 62
     7
370
    60
100
AcDbLine
 10
1469.62495
 20
873.977722
 30
0.0
 11
1469.62495
 21
906.788593
 31
0.0
  0
LINE
  5
70E
330
1F
100
AcDbEntity
  8
0
 62
     7
370
    60
100
AcDbLine
 10
1469.62495
 20
906.788593
 30
0.0
 11
1469.62495
 21
929.55522
 31
0.0
  0
LINE
  5
70F
330
1F
100
AcDbEntity
  8
0
 62
     7
370
    60
100
AcDbLine
 10
544.736339
 20
929.55522
 30
0.0
 11
469.62495
 21
929.55522
 31
0.0
  0
LINE
  5
710
330
1F
100
AcDbEntity
  8
0
 62
     7
370
    60
100
AcDbLine
 10
469.62495
 20
1009.960167
 30
0.0
 11
1469.62495
 21
1009.960167
 31
0.0
  0
LINE
  5
711
330
1F
100
AcDbEntity
  8
0
 62
     7
 48
0.120861
370
    60
100
AcDbLine
 10
1469.62495
 20
1005.12574
 30
0.0
 11
1469.62495
 21
1009.960167
 31
0.0
  0
LINE
  5
712
330
1F
100
AcDbEntity
  8
0
 62
     7
370
    60
100
AcDbLine
 10
469.62495
 20
1005.12574
 30
0.0
 11
1469.62495
 21
1005.12574
 31
0.0
  0
LINE
  5
714
330
1F
100
AcDbEntity
  8
0
 62
     7
 48
0.048004
370
    60
100
AcDbLine
 10
1469.62495
 20
1011.880325
 30
0.0
 11
1469.62495
 21
1009.960167
 31
0.0
  0
LINE
  5
715
330
1F
100
AcDbEntity
  8
0
 62
     7
370
    60
100
AcDbLine
 10
469.62495
 20
1012.462509
 30
0.0
 11
1469.62495
 21
1012.462509
 31
0.0
  0
LINE
  5
716
330
1F
100
AcDbEntity
  8
0
 62
     7
 48
0.014555
370
    60
100
AcDbLine
 10
1469.62495
 20
1012.462509
 30
0.0
 11
1469.62495
 21
1011.880325
 31
0.0
  0
LINE
  5
717
330
1F
100
AcDbEntity
  8
0
 62
     7
 48
0.381961
370
    60
100
AcDbLine
 10
1469.62495
 20
989.84729
 30
0.0
 11
1469.62495
 21
1005.12574
 31
0.0
  0
DIMENSION
  5
719
330
1F
100
AcDbEntity
  8
0
370
    40
100
AcDbDimension
  2
*D88
 10
1469.62495
 20
806.914817582794
 30
0.0
 11
969.6249499999999
 21
818.914817582794
 31
0.0
 70
    32
 71
     5
 41
2.5
 42
1000.0
  3
ISO-25
100
AcDbAlignedDimension
 13
469.62495
 23
945.6531055
 33
0.0
 14
1469.62495
 24
945.6531055
 34
0.0
100
AcDbRotatedDimension
1001
ACAD
1000
DSTYLE
1002
{
1070
    41
1040
10.0
1070
   140
1040
14.0
1070
   147
1040
5.0
1070
   176
1070
     7
1070
   177
1070
     7
1070
   271
1070
     0
1002
}
  0
DIMENSION
  5
73B
330
1F
100
AcDbEntity
  8
0
370
    40
100
AcDbDimension
  2
*D91
 10
1504.988094939904
 20
851.3625030000001
 30
0.0
 11
1492.988094939904
 21
931.912506
 31
0.0
 70
    32
 71
     5
 41
2.5
 42
161.1000059999999
  3
ISO-25
100
AcDbAlignedDimension
 13
1224.540966396313
 23
1012.462509
 33
0.0
 14
1218.945200653107
 24
851.3625030000001
 34
0.0
 50
90.0
100
AcDbRotatedDimension
1001
ACAD
1000
DSTYLE
1002
{
1070
    41
1040
10.0
1070
   140
1040
14.0
1070
   147
1040
5.0
1070
   176
1070
     7
1070
   177
1070
     7
1070
   271
1070
     0
1002
}
  0
VIEWPORT
  5
BB
330
73
100
AcDbEntity
 67
     1
  8
0
100
AcDbViewport
 10
7.8
 20
4.5
 30
0.0
 40
15.64
 41
9.0
 68
     1
 69
     1
 12
6.0
 22
4.5
 13
0.0
 23
0.0
 14
0.5
 24
0.5
 15
0.5
 25
0.5
 16
0.0
 26
0.0
 36
1.0
 17
0.0
 27
0.0
 37
0.0
 42
50.0
 43
0.0
 44
0.0
 45
12.0
 50
0.0
 51
0.0
 72
   100
 90
   557152
  1

281
     0
 71
     1
 74
     0
110
0.0
120
0.0
130
0.0
111
1.0
121
0.0
131
0.0
112
0.0
122
1.0
132
0.0
 79
     0
146
0.0
  0
ENDSEC
  0
SECTION
  2
OBJECTS
  0
DICTIONARY
  5
C
330
0
100
AcDbDictionary
281
     1
  3
ACAD_COLOR
350
6C
  3
ACAD_GROUP
350
D
  3
ACAD_LAYOUT
350
1A
  3
ACAD_MATERIAL
350
6B
  3
ACAD_MLEADERSTYLE
350
6D2
  3
ACAD_MLINESTYLE
350
17
  3
ACAD_PLOTSETTINGS
350
19
  3
ACAD_PLOTSTYLENAME
350
E
  3
ACAD_SCALELIST
350
99
  3
ACAD_TABLESTYLE
350
92
  3
ACDBHEADERROUNDTRIPXREC
350
81B
  3
AcDbVariableDictionary
350
59
  3
DWGPROPS
350
81E
  0
DICTIONARY
  5
6C
102
{ACAD_REACTORS
330
C
102
}
330
C
100
AcDbDictionary
281
     1
  0
DICTIONARY
  5
D
102
{ACAD_REACTORS
330
C
102
}
330
C
100
AcDbDictionary
281
     1
  0
DICTIONARY
  5
1A
102
{ACAD_REACTORS
330
C
102
}
330
C
100
AcDbDictionary
281
     1
  3
Layout1
350
74
  3
Layout2
350
624
  3
Model
350
22
  0
DICTIONARY
  5
6B
102
{ACAD_REACTORS
330
C
102
}
330
C
100
AcDbDictionary
281
     1
  0
DICTIONARY
  5
6D2
102
{ACAD_REACTORS
330
C
102
}
330
C
100
AcDbDictionary
281
     1
  0
DICTIONARY
  5
17
102
{ACAD_REACTORS
330
C
102
}
330
C
100
AcDbDictionary
281
     1
  3
Standard
350
18
  0
DICTIONARY
  5
19
102
{ACAD_REACTORS
330
C
102
}
330
C
100
AcDbDictionary
281
     1
  0
ACDBDICTIONARYWDFLT
  5
E
102
{ACAD_REACTORS
330
C
102
}
330
C
100
AcDbDictionary
281
     1
  3
Normal
350
F
100
AcDbDictionaryWithDefault
340
F
  0
DICTIONARY
  5
99
102
{ACAD_REACTORS
330
C
102
}
330
C
100
AcDbDictionary
281
     1
  3
A0
350
D5
  3
A1
350
D6
  3
A2
350
D7
  3
A3
350
D8
  3
A4
350
D9
  3
A5
350
DA
  3
A6
350
DB
  3
A7
350
DC
  3
A8
350
DD
  3
A9
350
DE
  3
B0
350
DF
  3
B1
350
E0
  3
B2
350
E1
  3
B3
350
E2
  3
B4
350
E3
  3
B5
350
E4
  3
B6
350
E5
  3
B7
350
E6
  3
B8
350
E7
  3
B9
350
E8
  3
C0
350
E9
  3
C1
350
EA
  3
C2
350
EB
  3
C3
350
EC
  3
C4
350
ED
  3
C5
350
EE
  3
C6
350
EF
  3
C7
350
F0
  3
C8
350
F1
  3
C9
350
F2
  3
D0
350
F3
  3
D1
350
F4
  3
D2
350
F5
  0
DICTIONARY
  5
92
102
{ACAD_REACTORS
330
C
102
}
330
C
100
AcDbDictionary
281
     1
  0
DICTIONARY
  5
81B
102
{ACAD_REACTORS
330
C
102
}
330
C
100
AcDbDictionary
281
     1
  3
COLORDICT
350
81C
  3
MATERIALDICT
350
81D
  0
DICTIONARY
  5
59
102
{ACAD_REACTORS
330
C
102
}
330
C
100
AcDbDictionary
281
     1
  3
CTABLESTYLE
350
98
  3
DIMASSOC
350
5A
  3
HIDETEXT
350
5E
  0
XRECORD
  5
81E
102
{ACAD_REACTORS
330
C
102
}
330
C
100
AcDbXrecord
280
     1
  1
DWGPROPS COOKIE
  2

  3

  4

  6

  7

  8
BelottiMc
  9

300
=
301
=
302
=
303
=
304
=
305
=
306
=
307
=
308
=
309
=
 40
0.0
 41
2455245.63999772
 42
2455245.639997697
  1

 90
        0
  0
LAYOUT
  5
74
102
{ACAD_REACTORS
330
1A
102
}
330
1A
100
AcDbPlotSettings
  1

  2
ProgeSOFT PDF Wizard
  4
A4
  6

 40
5.926666666666667
 41
6.011333333333321
 42
6.095999999999985
 43
5.926666666666667
 44
210.0
 45
297.0
 46
88.56200000000001
 47
136.531
 48
0.0
 49
0.0
140
0.0
141
0.0
142
1.0
143
1.0
 70
   692
 72
     1
 73
     0
 74
     0
  7

 75
    16
147
1.0
148
4.426666666666668
149
1.5
100
AcDbLayout
  1
Layout1
 70
     1
 71
     1
 10
0.0
 20
0.0
 11
0.0
 21
0.0
 12
0.0
 22
0.0
 32
0.0
 14
0.0
 24
0.0
 34
0.0
 15
0.0
 25
0.0
 35
0.0
146
0.0
 13
0.0
 23
0.0
 33
0.0
 16
1.0
 26
0.0
 36
0.0
 17
0.0
 27
1.0
 37
0.0
 76
     0
330
D1
331
6D1
1001
PROGE_PRINT_SETTINGS
1070
    73
1070
     1
  0
LAYOUT
  5
624
102
{ACAD_REACTORS
330
1A
102
}
330
1A
100
AcDbPlotSettings
  1

  2
ProgeSOFT PDF Wizard
  4
A4
  6

 40
5.926666666666667
 41
6.011333333333321
 42
6.095999999999985
 43
5.926666666666667
 44
210.0
 45
297.0
 46
88.562
 47
136.531
 48
0.0
 49
0.0
140
0.0
141
0.0
142
1.0
143
1.0
 70
   692
 72
     1
 73
     0
 74
     0
  7

 75
    16
147
1.0
148
0.0
149
0.0
100
AcDbLayout
  1
Layout2
 70
     1
 71
     2
 10
0.0
 20
0.0
 11
12.0
 21
9.0
 12
0.0
 22
0.0
 32
0.0
 14
0.0
 24
0.0
 34
0.0
 15
12.0
 25
9.0
 35
0.0
146
0.0
 13
0.0
 23
0.0
 33
0.0
 16
1.0
 26
0.0
 36
0.0
 17
0.0
 27
1.0
 37
0.0
 76
     0
330
73
331
BB
1001
PROGE_PRINT_SETTINGS
1070
    73
1070
     1
  0
LAYOUT
  5
22
102
{ACAD_REACTORS
330
1A
102
}
330
1A
100
AcDbPlotSettings
  1

  2
\\prn100b\W366
  4
A4
  6

 40
4.233333333333333
 41
4.233333333333307
 42
4.233333333333335
 43
4.233333333333333
 44
210.0
 45
296.9
 46
0.0
 47
9.861111111113132
 48
0.0
 49
0.0
140
0.0
141
0.0
142
1.0
143
0.044657624875951
 70
 11956
 72
     1
 73
     1
 74
     1
  7

 75
     0
147
22.39259259259259
148
0.0
149
0.0
100
AcDbLayout
  1
Model
 70
     1
 71
     0
 10
0.0
 20
0.0
 11
0.0
 21
0.0
 12
0.0
 22
0.0
 32
0.0
 14
469.62495
 24
805.2481509161273
 34
0.0
 15
1506.654761606571
 25
1012.462509
 35
0.0
146
0.0
 13
0.0
 23
0.0
 33
0.0
 16
1.0
 26
0.0
 36
0.0
 17
0.0
 27
1.0
 37
0.0
 76
     0
330
1F
331
97
1001
PROGE_PRINT_SETTINGS
1070
    73
1070
     2
1070
   311
1000
\\prn100b\W366
1004
303030303030303035323030343930303433303034463030343830303230303034313030363630303639303036333030363930303646303032303030343130303530303033363030333130303330303034453030323030303530303034333030344330303230303033363030303030303030303030303030303030303030
1004
303030303030303030303443303035303030353430303331303033413030303030303030303030303030303030303030303030303030303030303030303030303030303030303030303030303030303030303030303030303030303030303030303030303030303030303030303030303030303030303030303030303030
1004
303030303030303030303030303030303030303030303030303030303030303030303030303030303030303030303030303030303030303030303030303030303030303030303030303030303030303030303030303030303030303030303030303030303030303030303030303030303030303030303030303030303030
1004
303030303030303030303030303030303030303030303030303030303030303030303030303030303030303030303030303030303030303030303030303030303030303030303030303030303030303030303030303030303030303030303030303030303030303030303030303030303030303030303030303030303030
1004
303030303030303030303030303030303030303030303030303030303030303030303030303030303030303030303030303030303030303030303030303030303030303030303030303030303030303030303030303030303030303030303030303030303030303030303030303030303030303030303030373430413030
1004
303030303030303030303030303030303030303130303030303037343041303030303531304430303030303130303030303030363030303030304230303930303030423330443030303030323030303030303030303030303030303030303030303030303030303030303030303030303030303030303030303030303030
1004
303030303030303030303030303030303030303030303030303030303030303030303030303030303030303036343030303030303035303030303030303030303030303030303030303030303030303030303030303130303030303030303030303030303030303030303030303630303030303030303030303030303030
1004
303030303030303030303030303030303030303030303030303030303030313830303030303030303030313032373130323731303237303030303130323730303030303030303030303030303030303130303030303030303030303030303030303030303030303030303030303030303030303030303030303030303030
1004
303030303030303030303030303030303030303030303030303030303030303030303030303030303030303030303030303030303030303030303030303030303030303030303030303030303030303030303030303030303030303030303030303030303030303030303030303030303030303030303030303030303030
1004
303030303030303030303030303030303030303030303030303030303030303030303030303030303030303030303030303030303030303030303030303030303030303030303030303030303030303030303030303030303030303030303030303030303030303030303030303030303030303030303030303030303030
1004
303030303030303030303030303030303030303030303030303030303030303030303030303030303030303030303030303030303030303030303030303030303030303030303030303030303030303030303030303030303030303030303030303030303030303030303030303030303030303030303030303030303030
1004
303030303030303030303030303030303030303030303030303030303030303030303030303030303030303030303030303030303030303030303030303030303030303030303030303030303030303030303030303030303030303030303030303030303030303030303030303030303030303030303030303030303030
1004
303030303030303030303030303030303030303030303030303030303030303030303030303030303030303030303030303030303030303030303030303030303030303030303030303030303030303030303030303030303030303030303030303030303030303030303030303030303030303030303030303030303030
1004
303030303030303030303030303030303030303030303030303030303030303030303030303030303030303030303030303030303030303030303030303030303030303030303030303030303030303030303030303030303030303030303030303030303030303030303030303030303030303030303030303030303030
1004
303030303030303030303030303030303030303030303030303030303030303030303030303030303030303030303030303030303030303030303030303030303030303030303030303030303030303030303030303030303030303030303030303030303030303030303030303030303030303030303030303030303030
1004
303030303030303030303030303030303030303030303030303030303030303030303030303030303030303030303030303030303030303030303030303030303030303030303030303030303030303030303030303030303030303030303030303030303030303030303030303030303030303030303030303030303030
1004
303030303030303030303030303030303030303030303030303030303030303030303030303030303030303030303030303030303030303030303030303030303030303030303030303030303030303030303030303030303030303030303030303030303030303030303030303030303030303030303030303030303030
1004
303030303030303030303030303030303030303030303030303030303030303030303030303030303030303030303030303030303030303030303030303030303030303030303030303030303030303030303030303030303030303030303030303030303030303030303030303030303030303030303030303030303030
1004
303030303030303030303030303030303030303030303030303030303030303030303030303030303030303030303030303030303030303030303030303030303030303030303030303030303030303030303030303030303030303030303030303030303030303030303030303030303030303030303030303030303030
1004
303030303030303030303030303030303030303030303030303030303030303030303030303030303030303030303030303030303030303030303030303030303030303030303030303030303030303030303030303030303030303030303030303030303030303030303030303030303030303030303030303030303030
1004
303030303030303030303030303030303030303030303030303030303030303030303030303030303030303030303030303030303030303030303030303030303030303030303030303030303030303030303030303030303030303030303030303030303030303030303030303030303030303030303030303030303030
1004
303030303030303030303030303030303030303030303030303030303030303030303030303030303030303030303030303030303030303030303030303030303030303030303030303030303030303030303030303030303030303030303030303030303030303030303030303030303030303030303030303030303030
1004
303030303030303030303030303030303030303030303030303030303030303030303030303030303030303030303030303030303030303030303030303030303030303030303030303030303030303030303030303030303030303030303030303030303030303030303030303030303030303030303030303030303030
1004
303030303030303030303030303030303030303030303030303030303030303030303030303030303030303030303030303030303030303030303030303030303030303030303030303030303030303030303030303030303030303030303030303030303030303030303030303030303030303030303030303030303030
1004
303030303030303030303030303030303030303030303030303030303030303030303030303030303030303030303030303130303030303030313030303030303030303030303030303030303030303030303030303030303030303030303030303130303030303030303030303030303031303030303030303030303030
1004
303030303030303030303030303030303030303030303030303030303030303030303030303030303030303030303030303030303030303030303030303030303030303030303030303036343030303030303030303030303030303030303030303030303030303030303034303030303030303630303030303030303030
1004
303030303031303030303030303030303030303030303030303030303030303030303030303030303030303030303030303030303031303030303030303130303030303030303030303030303030303030303030303130303030303030303030303030303030303030303030303030303030303030303030303030303030
1004
303030303030363430303030303030303030303030303030303030303030303030303030303030313030303030303030303030303030303130303030303030303030303030303030303030303030303030303030303030303030303030303030303030303030303030303030303030303030303030303030303030303030
1004
303030303030303030303030303030303030303030303030303030303030303030303030303030303030303030303030303030303030303030303030303030303030303030303030303030303030303030303030303030303030303030303030303030303030303045373033303030304537303330303030453730333030
1004
303045373033303030303030303030303030303030303030303030303030303030303030303030303030303030303030303030363030303030303334303830303030393930423030303030303030303030303434303036353030363630303631303037353030364330303734303030303030303030303030303030303030
1004
303030303030303030303030303030303030303030343030303030303030303030303030303030303030303030303030303030303030303030303030303030303030303030303030303030303030303030303030303030303030303030303030303030303030303030303030303030303030303030303030303030303030
1004
303030303030303030303030303030303030303030303030303030303030303030303030303030303030303030303030303030303030303030303030303030303030303030303030303030303030303030303030303030303030303030303030303030303030303030303030303030303030303030303030303030303030
1004
303030303030303030303030303030303030303030303030303030303030303030303030303030303030303030303030303030303030303030303030303030303030303030303030303030303030303030303030303030303030303030303030303030303030303030303030303030303030303030303030303030303030
1004
303030303030303030303030303030303030303030303030303030303030303030303030303030303030303030303030303030303030303030303030303030303030303030303030303030303030303030303030303030303030303030303030303030303030303030303030303030303030303030303030303030303030
1004
303030303030303030303030303030303030303030303030303030303030303030303030303030303030303030303030303030303030303030303030303030303030303030303030303030303030303030303030303030303030303030303030303030303030303030303030303030303030303030303030303030303030
1004
303030303030303030303030303030303030303030303030303030303030303030303030303030303030303030303030303030303030303030303030303030303030303030303030303030303030303030303030303030303030303030303030303030303030303030303030303030303030303030303030303030303030
1004
303030303030303030303030303030303030303030303030303030303030303030303030303030303030303030303030303030303030303030303030303030303030303030303030303030303030303030303030303030303030303030303030303030303030303030303030303030303030303030303030303030303030
1004
303030303030303030303030303030303030303030303030303030303030303030303030303030303030303030303030303030303030303030303030303030303030303030303030303030303030303030303030303030303030303030303030303030303030303030303030303030303030303030303030303030303030
1004
30303030303030303030303030303030303030303030303030303030303030303030303030303030303030303030303030303030303030303030303030303030303030303030303030303030303030303030303030313030303030303030303030303030303030303030303030303030303030303030303030303030
  0
MLINESTYLE
  5
18
102
{ACAD_REACTORS
330
17
102
}
330
17
100
AcDbMlineStyle
  2
STANDARD
 70
     0
  3

 62
   256
 51
90.0
 52
90.0
 71
     2
 49
0.5
 62
   256
  6
BYLAYER
 49
-0.5
 62
   256
  6
BYLAYER
  0
ACDBPLACEHOLDER
  5
F
102
{ACAD_REACTORS
330
E
102
}
330
E
  0
SCALE
  5
D5
102
{ACAD_REACTORS
330
99
102
}
330
99
100
AcDbScale
 70
     0
300
1:1
140
1.0
141
1.0
290
     1
  0
SCALE
  5
D6
102
{ACAD_REACTORS
330
99
102
}
330
99
100
AcDbScale
 70
     0
300
1:2
140
1.0
141
2.0
290
     0
  0
SCALE
  5
D7
102
{ACAD_REACTORS
330
99
102
}
330
99
100
AcDbScale
 70
     0
300
1:4
140
1.0
141
4.0
290
     0
  0
SCALE
  5
D8
102
{ACAD_REACTORS
330
99
102
}
330
99
100
AcDbScale
 70
     0
300
1:5
140
1.0
141
5.0
290
     0
  0
SCALE
  5
D9
102
{ACAD_REACTORS
330
99
102
}
330
99
100
AcDbScale
 70
     0
300
1:8
140
1.0
141
8.0
290
     0
  0
SCALE
  5
DA
102
{ACAD_REACTORS
330
99
102
}
330
99
100
AcDbScale
 70
     0
300
1:10
140
1.0
141
10.0
290
     0
  0
SCALE
  5
DB
102
{ACAD_REACTORS
330
99
102
}
330
99
100
AcDbScale
 70
     0
300
1:16
140
1.0
141
16.0
290
     0
  0
SCALE
  5
DC
102
{ACAD_REACTORS
330
99
102
}
330
99
100
AcDbScale
 70
     0
300
1:20
140
1.0
141
20.0
290
     0
  0
SCALE
  5
DD
102
{ACAD_REACTORS
330
99
102
}
330
99
100
AcDbScale
 70
     0
300
1:30
140
1.0
141
30.0
290
     0
  0
SCALE
  5
DE
102
{ACAD_REACTORS
330
99
102
}
330
99
100
AcDbScale
 70
     0
300
1:40
140
1.0
141
40.0
290
     0
  0
SCALE
  5
DF
102
{ACAD_REACTORS
330
99
102
}
330
99
100
AcDbScale
 70
     0
300
1:50
140
1.0
141
50.0
290
     0
  0
SCALE
  5
E0
102
{ACAD_REACTORS
330
99
102
}
330
99
100
AcDbScale
 70
     0
300
1:100
140
1.0
141
100.0
290
     0
  0
SCALE
  5
E1
102
{ACAD_REACTORS
330
99
102
}
330
99
100
AcDbScale
 70
     0
300
2:1
140
2.0
141
1.0
290
     0
  0
SCALE
  5
E2
102
{ACAD_REACTORS
330
99
102
}
330
99
100
AcDbScale
 70
     0
300
4:1
140
4.0
141
1.0
290
     0
  0
SCALE
  5
E3
102
{ACAD_REACTORS
330
99
102
}
330
99
100
AcDbScale
 70
     0
300
8:1
140
8.0
141
1.0
290
     0
  0
SCALE
  5
E4
102
{ACAD_REACTORS
330
99
102
}
330
99
100
AcDbScale
 70
     0
300
10:1
140
10.0
141
1.0
290
     0
  0
SCALE
  5
E5
102
{ACAD_REACTORS
330
99
102
}
330
99
100
AcDbScale
 70
     0
300
100:1
140
100.0
141
1.0
290
     0
  0
SCALE
  5
E6
102
{ACAD_REACTORS
330
99
102
}
330
99
100
AcDbScale
 70
     0
300
1/128" = 1'-0"
140
0.0078125
141
12.0
290
     0
  0
SCALE
  5
E7
102
{ACAD_REACTORS
330
99
102
}
330
99
100
AcDbScale
 70
     0
300
1/64" = 1'-0"
140
0.015625
141
12.0
290
     0
  0
SCALE
  5
E8
102
{ACAD_REACTORS
330
99
102
}
330
99
100
AcDbScale
 70
     0
300
1/32" = 1'-0"
140
0.03125
141
12.0
290
     0
  0
SCALE
  5
E9
102
{ACAD_REACTORS
330
99
102
}
330
99
100
AcDbScale
 70
     0
300
1/16" = 1'-0"
140
0.0625
141
12.0
290
     0
  0
SCALE
  5
EA
102
{ACAD_REACTORS
330
99
102
}
330
99
100
AcDbScale
 70
     0
300
3/32" = 1'-0"
140
0.09375
141
12.0
290
     0
  0
SCALE
  5
EB
102
{ACAD_REACTORS
330
99
102
}
330
99
100
AcDbScale
 70
     0
300
1/8" = 1'-0"
140
0.125
141
12.0
290
     0
  0
SCALE
  5
EC
102
{ACAD_REACTORS
330
99
102
}
330
99
100
AcDbScale
 70
     0
300
3/16" = 1'-0"
140
0.1875
141
12.0
290
     0
  0
SCALE
  5
ED
102
{ACAD_REACTORS
330
99
102
}
330
99
100
AcDbScale
 70
     0
300
1/4" = 1'-0"
140
0.25
141
12.0
290
     0
  0
SCALE
  5
EE
102
{ACAD_REACTORS
330
99
102
}
330
99
100
AcDbScale
 70
     0
300
3/8" = 1'-0"
140
0.375
141
12.0
290
     0
  0
SCALE
  5
EF
102
{ACAD_REACTORS
330
99
102
}
330
99
100
AcDbScale
 70
     0
300
1/2" = 1'-0"
140
0.5
141
12.0
290
     0
  0
SCALE
  5
F0
102
{ACAD_REACTORS
330
99
102
}
330
99
100
AcDbScale
 70
     0
300
3/4" = 1'-0"
140
0.75
141
12.0
290
     0
  0
SCALE
  5
F1
102
{ACAD_REACTORS
330
99
102
}
330
99
100
AcDbScale
 70
     0
300
1" = 1'-0"
140
1.0
141
12.0
290
     0
  0
SCALE
  5
F2
102
{ACAD_REACTORS
330
99
102
}
330
99
100
AcDbScale
 70
     0
300
1-1/2" = 1'-0"
140
1.5
141
12.0
290
     0
  0
SCALE
  5
F3
102
{ACAD_REACTORS
330
99
102
}
330
99
100
AcDbScale
 70
     0
300
3" = 1'-0"
140
3.0
141
12.0
290
     0
  0
SCALE
  5
F4
102
{ACAD_REACTORS
330
99
102
}
330
99
100
AcDbScale
 70
     0
300
6" = 1'-0"
140
6.0
141
12.0
290
     0
  0
SCALE
  5
F5
102
{ACAD_REACTORS
330
99
102
}
330
99
100
AcDbScale
 70
     0
300
1'-0" = 1'-0"
140
12.0
141
12.0
290
     0
  0
XRECORD
  5
81C
102
{ACAD_REACTORS
330
81B
102
}
330
81B
100
AcDbXrecord
280
     1
340
6C
  0
XRECORD
  5
81D
102
{ACAD_REACTORS
330
81B
102
}
330
81B
100
AcDbXrecord
280
     1
340
6B
  0
DICTIONARYVAR
  5
98
102
{ACAD_REACTORS
330
59
102
}
330
59
100
DictionaryVariables
280
     0
  1
Standard
  0
DICTIONARYVAR
  5
5A
102
{ACAD_REACTORS
330
59
102
}
330
59
100
DictionaryVariables
280
     0
  1
2
  0
DICTIONARYVAR
  5
5E
102
{ACAD_REACTORS
330
59
102
}
330
59
100
DictionaryVariables
280
     0
  1
1
  0
ENDSEC
  0
EOF
