  0
SECTION
  2
HEADER
  9
$ACADVER
  1
AC1015
  9
$ACADMAINTVER
 70
     6
  9
$DWGCODEPAGE
  3
ANSI_1252
  9
$INSBASE
 10
0.0
 20
0.0
 30
0.0
  9
$EXTMIN
 10
424.096264
 20
763.500539200894
 30
0.0
  9
$EXTMAX
 10
1527.984356424977
 20
904.2841990000001
 30
0.0
  9
$LIMMIN
 10
0.0
 20
0.0
  9
$LIMMAX
 10
0.0
 20
0.0
  9
$ORTHOMODE
 70
     0
  9
$REGENMODE
 70
     1
  9
$FILLMODE
 70
     1
  9
$QTEXTMODE
 70
     0
  9
$MIRRTEXT
 70
     0
  9
$LTSCALE
 40
1.0
  9
$ATTMODE
 70
     1
  9
$TEXTSIZE
 40
2.5
  9
$TRACEWID
 40
1.0
  9
$TEXTSTYLE
  7
Standard
  9
$CLAYER
  8
0
  9
$CELTYPE
  6
ByLayer
  9
$CECOLOR
 62
   256
  9
$CELTSCALE
 40
1.0
  9
$DISPSILH
 70
     0
  9
$DIMSCALE
 40
1.0
  9
$DIMASZ
 40
2.5
  9
$DIMEXO
 40
0.625
  9
$DIMDLI
 40
3.75
  9
$DIMRND
 40
0.0
  9
$DIMDLE
 40
0.0
  9
$DIMEXE
 40
1.25
  9
$DIMTP
 40
0.0
  9
$DIMTM
 40
0.0
  9
$DIMTXT
 40
2.5
  9
$DIMCEN
 40
2.5
  9
$DIMTSZ
 40
0.0
  9
$DIMTOL
 70
     0
  9
$DIMLIM
 70
     0
  9
$DIMTIH
 70
     0
  9
$DIMTOH
 70
     0
  9
$DIMSE1
 70
     0
  9
$DIMSE2
 70
     0
  9
$DIMTAD
 70
     1
  9
$DIMZIN
 70
     8
  9
$DIMBLK
  1

  9
$DIMASO
 70
     1
  9
$DIMSHO
 70
     1
  9
$DIMPOST
  1

  9
$DIMAPOST
  1

  9
$DIMALT
 70
     0
  9
$DIMALTD
 70
     3
  9
$DIMALTF
 40
0.03937007874016
  9
$DIMLFAC
 40
1.0
  9
$DIMTOFL
 70
     1
  9
$DIMTVP
 40
0.0
  9
$DIMTIX
 70
     0
  9
$DIMSOXD
 70
     0
  9
$DIMSAH
 70
     0
  9
$DIMBLK1
  1

  9
$DIMBLK2
  1

  9
$DIMSTYLE
  2
ISO-25
  9
$DIMCLRD
 70
     0
  9
$DIMCLRE
 70
     0
  9
$DIMCLRT
 70
     0
  9
$DIMTFAC
 40
1.0
  9
$DIMGAP
 40
0.625
  9
$DIMJUST
 70
     0
  9
$DIMSD1
 70
     0
  9
$DIMSD2
 70
     0
  9
$DIMTOLJ
 70
     0
  9
$DIMTZIN
 70
     8
  9
$DIMALTZ
 70
     0
  9
$DIMALTTZ
 70
     0
  9
$DIMUPT
 70
     0
  9
$DIMDEC
 70
     2
  9
$DIMTDEC
 70
     2
  9
$DIMALTU
 70
     2
  9
$DIMALTTD
 70
     3
  9
$DIMTXSTY
  7
Standard
  9
$DIMAUNIT
 70
     0
  9
$DIMADEC
 70
     0
  9
$DIMALTRND
 40
0.0
  9
$DIMAZIN
 70
     0
  9
$DIMDSEP
 70
    44
  9
$DIMATFIT
 70
     3
  9
$DIMFRAC
 70
     0
  9
$DIMLDRBLK
  1

  9
$DIMLUNIT
 70
     2
  9
$DIMLWD
 70
    -2
  9
$DIMLWE
 70
    -2
  9
$DIMTMOVE
 70
     0
  9
$LUNITS
 70
     2
  9
$LUPREC
 70
     4
  9
$SKETCHINC
 40
1.0
  9
$FILLETRAD
 40
0.0
  9
$AUNITS
 70
     0
  9
$AUPREC
 70
     0
  9
$MENU
  1
.
  9
$ELEVATION
 40
0.0
  9
$PELEVATION
 40
0.0
  9
$THICKNESS
 40
0.0
  9
$LIMCHECK
 70
     0
  9
$CHAMFERA
 40
0.0
  9
$CHAMFERB
 40
0.0
  9
$CHAMFERC
 40
0.0
  9
$CHAMFERD
 40
0.0
  9
$SKPOLY
 70
     0
  9
$TDCREATE
 40
2455245.688186065
  9
$TDUCREATE
 40
2455245.646519398
  9
$TDUPDATE
 40
2455245.688186065
  9
$TDUUPDATE
 40
2455245.646519398
  9
$TDINDWG
 40
0.0345534722
  9
$TDUSRTIMER
 40
0.0345511111
  9
$USRTIMER
 70
     1
  9
$ANGBASE
 50
0.0
  9
$ANGDIR
 70
     0
  9
$PDMODE
 70
     0
  9
$PDSIZE
 40
0.0
  9
$PLINEWID
 40
0.0
  9
$SPLFRAME
 70
     0
  9
$SPLINETYPE
 70
     6
  9
$SPLINESEGS
 70
     8
  9
$HANDSEED
  5
6C4
  9
$SURFTAB1
 70
     6
  9
$SURFTAB2
 70
     6
  9
$SURFTYPE
 70
     6
  9
$SURFU
 70
     6
  9
$SURFV
 70
     6
  9
$UCSBASE
  2

  9
$UCSNAME
  2

  9
$UCSORG
 10
0.0
 20
0.0
 30
0.0
  9
$UCSXDIR
 10
1.0
 20
0.0
 30
0.0
  9
$UCSYDIR
 10
0.0
 20
1.0
 30
0.0
  9
$UCSORTHOREF
  2

  9
$UCSORTHOVIEW
 70
     0
  9
$UCSORGTOP
 10
0.0
 20
0.0
 30
0.0
  9
$UCSORGBOTTOM
 10
0.0
 20
0.0
 30
0.0
  9
$UCSORGLEFT
 10
0.0
 20
0.0
 30
0.0
  9
$UCSORGRIGHT
 10
0.0
 20
0.0
 30
0.0
  9
$UCSORGFRONT
 10
0.0
 20
0.0
 30
0.0
  9
$UCSORGBACK
 10
0.0
 20
0.0
 30
0.0
  9
$PUCSBASE
  2

  9
$PUCSNAME
  2

  9
$PUCSORG
 10
0.0
 20
0.0
 30
0.0
  9
$PUCSXDIR
 10
1.0
 20
0.0
 30
0.0
  9
$PUCSYDIR
 10
0.0
 20
1.0
 30
0.0
  9
$PUCSORTHOREF
  2

  9
$PUCSORTHOVIEW
 70
     0
  9
$PUCSORGTOP
 10
0.0
 20
0.0
 30
0.0
  9
$PUCSORGBOTTOM
 10
0.0
 20
0.0
 30
0.0
  9
$PUCSORGLEFT
 10
0.0
 20
0.0
 30
0.0
  9
$PUCSORGRIGHT
 10
0.0
 20
0.0
 30
0.0
  9
$PUCSORGFRONT
 10
0.0
 20
0.0
 30
0.0
  9
$PUCSORGBACK
 10
0.0
 20
0.0
 30
0.0
  9
$USERI1
 70
     0
  9
$USERI2
 70
     0
  9
$USERI3
 70
     0
  9
$USERI4
 70
     0
  9
$USERI5
 70
     0
  9
$USERR1
 40
0.0
  9
$USERR2
 40
0.0
  9
$USERR3
 40
0.0
  9
$USERR4
 40
0.0
  9
$USERR5
 40
0.0
  9
$WORLDVIEW
 70
     1
  9
$SHADEDGE
 70
     3
  9
$SHADEDIF
 70
    70
  9
$TILEMODE
 70
     1
  9
$MAXACTVP
 70
    64
  9
$PINSBASE
 10
0.0
 20
0.0
 30
0.0
  9
$PLIMCHECK
 70
     0
  9
$PEXTMIN
 10
0.0
 20
0.0
 30
0.0
  9
$PEXTMAX
 10
12.0
 20
9.0
 30
0.0
  9
$PLIMMIN
 10
0.0
 20
0.0
  9
$PLIMMAX
 10
12.0
 20
9.0
  9
$UNITMODE
 70
     0
  9
$VISRETAIN
 70
     1
  9
$PLINEGEN
 70
     0
  9
$PSLTSCALE
 70
     1
  9
$TREEDEPTH
 70
  3020
  9
$CMLSTYLE
  2
Standard
  9
$CMLJUST
 70
     0
  9
$CMLSCALE
 40
20.0
  9
$PROXYGRAPHICS
 70
     1
  9
$MEASUREMENT
 70
     1
  9
$CELWEIGHT
370
    -1
  9
$ENDCAPS
280
     0
  9
$JOINSTYLE
280
     0
  9
$LWDISPLAY
290
     0
  9
$INSUNITS
 70
     4
  9
$HYPERLINKBASE
  1

  9
$STYLESHEET
  1

  9
$XEDIT
290
     1
  9
$CEPSNTYPE
380
     0
  9
$PSTYLEMODE
290
     1
  9
$FINGERPRINTGUID
  2
{5559452E-1E62-4159-8551-BF76FFF3E7E8}
  9
$VERSIONGUID
  2
{3CEB9EF8-4431-4551-B596-6734A9F966A9}
  9
$EXTNAMES
290
     1
  9
$PSVPSCALE
 40
0.0
  9
$OLESTARTUP
290
     0
  0
ENDSEC
  0
SECTION
  2
CLASSES
  0
CLASS
  1
ACDBDICTIONARYWDFLT
  2
AcDbDictionaryWithDefault
  3
ObjectDBX Classes
 90
        0
280
     0
281
     0
  0
CLASS
  1
ACDBPLACEHOLDER
  2
AcDbPlaceHolder
  3
ObjectDBX Classes
 90
        0
280
     0
281
     0
  0
CLASS
  1
LAYOUT
  2
AcDbLayout
  3
ObjectDBX Classes
 90
        0
280
     0
281
     0
  0
CLASS
  1
DICTIONARYVAR
  2
AcDbDictionaryVar
  3
ObjectDBX Classes
 90
        0
280
     0
281
     0
  0
CLASS
  1
TABLESTYLE
  2
AcDbTableStyle
  3
ObjectDBX Classes
 90
     4095
280
     0
281
     0
  0
CLASS
  1
SCALE
  2
AcDbScale
  3
ObjectDBX Classes
 90
     1153
280
     0
281
     0
  0
ENDSEC
  0
SECTION
  2
TABLES
  0
TABLE
  2
VPORT
  5
8
330
0
100
AcDbSymbolTable
 70
     2
  0
VPORT
  5
97
330
8
100
AcDbSymbolTableRecord
100
AcDbViewportTableRecord
  2
*Active
 70
     0
 10
0.0
 20
0.0
 11
1.0
 21
1.0
 12
955.3605387637989
 22
839.8479545669135
 13
0.0
 23
0.0
 14
10.0
 24
10.0
 15
10.0
 25
10.0
 16
0.0
 26
0.0
 36
1.0
 17
0.0
 27
0.0
 37
0.0
 40
993.0307254171778
 41
1.664827586206897
 42
50.0
 43
0.0
 44
0.0
 50
0.0
 51
0.0
 71
     0
 72
  1000
 73
     1
 74
     3
 75
     0
 76
     0
 77
     0
 78
     0
281
     0
 65
     1
110
0.0
120
0.0
130
0.0
111
1.0
121
0.0
131
0.0
112
0.0
122
1.0
132
0.0
 79
     0
146
0.0
  0
ENDTAB
  0
TABLE
  2
LTYPE
  5
5
330
0
100
AcDbSymbolTable
 70
     3
  0
LTYPE
  5
14
330
5
100
AcDbSymbolTableRecord
100
AcDbLinetypeTableRecord
  2
ByBlock
 70
     0
  3

 72
    65
 73
     0
 40
0.0
  0
LTYPE
  5
15
330
5
100
AcDbSymbolTableRecord
100
AcDbLinetypeTableRecord
  2
ByLayer
 70
     0
  3

 72
    65
 73
     0
 40
0.0
  0
LTYPE
  5
16
330
5
100
AcDbSymbolTableRecord
100
AcDbLinetypeTableRecord
  2
Continuous
 70
     0
  3
Solid line
 72
    65
 73
     0
 40
0.0
  0
LTYPE
  5
5FE
330
5
100
AcDbSymbolTableRecord
100
AcDbLinetypeTableRecord
  2
DASHDOT
 70
     0
  3
 __ . __ . __ . __ . __ . __ . __ . 
 72
    65
 73
     4
 40
18.5
 49
12.0
 74
     0
 49
-3.0
 74
     0
 49
0.5
 74
     0
 49
-3.0
 74
     0
  0
LTYPE
  5
5FF
330
5
100
AcDbSymbolTableRecord
100
AcDbLinetypeTableRecord
  2
DASHED
 70
     0
  3
__ __ __ __ __ __ __ __ __ __ __ __ __ __ __ __
 72
    65
 73
     2
 40
15.0
 49
12.0
 74
     0
 49
-3.0
 74
     0
  0
ENDTAB
  0
TABLE
  2
LAYER
  5
2
330
0
100
AcDbSymbolTable
 70
     2
  0
LAYER
  5
10
330
2
100
AcDbSymbolTableRecord
100
AcDbLayerTableRecord
  2
0
 70
     0
 62
     7
  6
Continuous
370
    -3
390
F
  0
LAYER
  5
568
330
2
100
AcDbSymbolTableRecord
100
AcDbLayerTableRecord
  2
DEFPOINTS
 70
     0
 62
     7
  6
Continuous
290
     0
370
    -3
390
F
  0
ENDTAB
  0
TABLE
  2
STYLE
  5
3
330
0
100
AcDbSymbolTable
 70
     2
  0
STYLE
  5
11
330
3
100
AcDbSymbolTableRecord
100
AcDbTextStyleTableRecord
  2
Standard
 70
     0
 40
0.0
 41
1.0
 50
0.0
 71
     0
 42
2.5
  3
txt
  4

  0
STYLE
  5
F9
330
3
100
AcDbSymbolTableRecord
100
AcDbTextStyleTableRecord
  2
GDT
 70
     0
 40
0.0
 41
1.0
 50
0.0
 71
     0
 42
0.2
  3
gdt.shx
  4

  0
ENDTAB
  0
TABLE
  2
VIEW
  5
6
330
0
100
AcDbSymbolTable
 70
     0
  0
ENDTAB
  0
TABLE
  2
UCS
  5
7
330
0
100
AcDbSymbolTable
 70
     0
  0
ENDTAB
  0
TABLE
  2
APPID
  5
9
330
0
100
AcDbSymbolTable
 70
     3
  0
APPID
  5
12
330
9
100
AcDbSymbolTableRecord
100
AcDbRegAppTableRecord
  2
ACAD
 70
     0
  0
APPID
  5
5FC
330
9
100
AcDbSymbolTableRecord
100
AcDbRegAppTableRecord
  2
PROGE_PRINT_SETTINGS
 70
     0
  0
APPID
  5
5FD
330
9
100
AcDbSymbolTableRecord
100
AcDbRegAppTableRecord
  2
Conv5506CA
 70
     0
  0
ENDTAB
  0
TABLE
  2
DIMSTYLE
  5
A
330
0
100
AcDbSymbolTable
 70
     2
100
AcDbDimStyleTable
  0
DIMSTYLE
105
27
330
A
100
AcDbSymbolTableRecord
100
AcDbDimStyleTableRecord
  2
Standard
 70
     0
278
     0
340
11
  0
DIMSTYLE
105
29
102
{ACAD_REACTORS
330
5B7
330
5D9
102
}
330
A
100
AcDbSymbolTableRecord
100
AcDbDimStyleTableRecord
  2
ISO-25
 70
     0
 41
2.5
 42
0.625
 43
3.75
 44
1.25
 73
     0
 74
     0
 77
     1
 78
     8
140
2.5
141
2.5
143
0.03937007874016
147
0.625
171
     3
172
     1
271
     2
272
     2
274
     3
278
    44
283
     0
284
     8
340
11
  0
ENDTAB
  0
TABLE
  2
BLOCK_RECORD
  5
1
330
0
100
AcDbSymbolTable
 70
    94
  0
BLOCK_RECORD
  5
1F
330
1
100
AcDbSymbolTableRecord
100
AcDbBlockTableRecord
  2
*Model_Space
340
22
  0
BLOCK_RECORD
  5
73
330
1
100
AcDbSymbolTableRecord
100
AcDbBlockTableRecord
  2
*Paper_Space
340
601
  0
BLOCK_RECORD
  5
D1
330
1
100
AcDbSymbolTableRecord
100
AcDbBlockTableRecord
  2
*Paper_Space0
340
74
  0
BLOCK_RECORD
  5
1DA
330
1
100
AcDbSymbolTableRecord
100
AcDbBlockTableRecord
  2
BLOCK121
340
0
  0
BLOCK_RECORD
  5
1DE
330
1
100
AcDbSymbolTableRecord
100
AcDbBlockTableRecord
  2
BLOCK122
340
0
  0
BLOCK_RECORD
  5
1E2
330
1
100
AcDbSymbolTableRecord
100
AcDbBlockTableRecord
  2
BLOCK123
340
0
  0
BLOCK_RECORD
  5
1E6
330
1
100
AcDbSymbolTableRecord
100
AcDbBlockTableRecord
  2
BLOCK124
340
0
  0
BLOCK_RECORD
  5
1EA
330
1
100
AcDbSymbolTableRecord
100
AcDbBlockTableRecord
  2
BLOCK125
340
0
  0
BLOCK_RECORD
  5
1EE
330
1
100
AcDbSymbolTableRecord
100
AcDbBlockTableRecord
  2
BLOCK126
340
0
  0
BLOCK_RECORD
  5
1F2
330
1
100
AcDbSymbolTableRecord
100
AcDbBlockTableRecord
  2
BLOCK127
340
0
  0
BLOCK_RECORD
  5
1F6
330
1
100
AcDbSymbolTableRecord
100
AcDbBlockTableRecord
  2
BLOCK128
340
0
  0
BLOCK_RECORD
  5
1FA
330
1
100
AcDbSymbolTableRecord
100
AcDbBlockTableRecord
  2
BLOCK129
340
0
  0
BLOCK_RECORD
  5
1FE
330
1
100
AcDbSymbolTableRecord
100
AcDbBlockTableRecord
  2
BLOCK130
340
0
  0
BLOCK_RECORD
  5
202
330
1
100
AcDbSymbolTableRecord
100
AcDbBlockTableRecord
  2
BLOCK131
340
0
  0
BLOCK_RECORD
  5
206
330
1
100
AcDbSymbolTableRecord
100
AcDbBlockTableRecord
  2
BLOCK132
340
0
  0
BLOCK_RECORD
  5
20A
330
1
100
AcDbSymbolTableRecord
100
AcDbBlockTableRecord
  2
BLOCK133
340
0
  0
BLOCK_RECORD
  5
20E
330
1
100
AcDbSymbolTableRecord
100
AcDbBlockTableRecord
  2
BLOCK134
340
0
  0
BLOCK_RECORD
  5
212
330
1
100
AcDbSymbolTableRecord
100
AcDbBlockTableRecord
  2
BLOCK135
340
0
  0
BLOCK_RECORD
  5
216
330
1
100
AcDbSymbolTableRecord
100
AcDbBlockTableRecord
  2
BLOCK136
340
0
  0
BLOCK_RECORD
  5
21A
330
1
100
AcDbSymbolTableRecord
100
AcDbBlockTableRecord
  2
BLOCK137
340
0
  0
BLOCK_RECORD
  5
21E
330
1
100
AcDbSymbolTableRecord
100
AcDbBlockTableRecord
  2
BLOCK138
340
0
  0
BLOCK_RECORD
  5
222
330
1
100
AcDbSymbolTableRecord
100
AcDbBlockTableRecord
  2
BLOCK139
340
0
  0
BLOCK_RECORD
  5
226
330
1
100
AcDbSymbolTableRecord
100
AcDbBlockTableRecord
  2
BLOCK140
340
0
  0
BLOCK_RECORD
  5
22A
330
1
100
AcDbSymbolTableRecord
100
AcDbBlockTableRecord
  2
BLOCK141
340
0
  0
BLOCK_RECORD
  5
22E
330
1
100
AcDbSymbolTableRecord
100
AcDbBlockTableRecord
  2
BLOCK142
340
0
  0
BLOCK_RECORD
  5
232
330
1
100
AcDbSymbolTableRecord
100
AcDbBlockTableRecord
  2
BLOCK143
340
0
  0
BLOCK_RECORD
  5
236
330
1
100
AcDbSymbolTableRecord
100
AcDbBlockTableRecord
  2
BLOCK144
340
0
  0
BLOCK_RECORD
  5
23A
330
1
100
AcDbSymbolTableRecord
100
AcDbBlockTableRecord
  2
BLOCK145
340
0
  0
BLOCK_RECORD
  5
23E
330
1
100
AcDbSymbolTableRecord
100
AcDbBlockTableRecord
  2
BLOCK146
340
0
  0
BLOCK_RECORD
  5
242
330
1
100
AcDbSymbolTableRecord
100
AcDbBlockTableRecord
  2
BLOCK147
340
0
  0
BLOCK_RECORD
  5
246
330
1
100
AcDbSymbolTableRecord
100
AcDbBlockTableRecord
  2
BLOCK148
340
0
  0
BLOCK_RECORD
  5
24A
330
1
100
AcDbSymbolTableRecord
100
AcDbBlockTableRecord
  2
BLOCK149
340
0
  0
BLOCK_RECORD
  5
24E
330
1
100
AcDbSymbolTableRecord
100
AcDbBlockTableRecord
  2
BLOCK150
340
0
  0
BLOCK_RECORD
  5
252
330
1
100
AcDbSymbolTableRecord
100
AcDbBlockTableRecord
  2
BLOCK151
340
0
  0
BLOCK_RECORD
  5
256
330
1
100
AcDbSymbolTableRecord
100
AcDbBlockTableRecord
  2
BLOCK152
340
0
  0
BLOCK_RECORD
  5
25A
330
1
100
AcDbSymbolTableRecord
100
AcDbBlockTableRecord
  2
BLOCK153
340
0
  0
BLOCK_RECORD
  5
25E
330
1
100
AcDbSymbolTableRecord
100
AcDbBlockTableRecord
  2
BLOCK154
340
0
  0
BLOCK_RECORD
  5
262
330
1
100
AcDbSymbolTableRecord
100
AcDbBlockTableRecord
  2
BLOCK155
340
0
  0
BLOCK_RECORD
  5
266
330
1
100
AcDbSymbolTableRecord
100
AcDbBlockTableRecord
  2
BLOCK156
340
0
  0
BLOCK_RECORD
  5
26A
330
1
100
AcDbSymbolTableRecord
100
AcDbBlockTableRecord
  2
BLOCK157
340
0
  0
BLOCK_RECORD
  5
26E
330
1
100
AcDbSymbolTableRecord
100
AcDbBlockTableRecord
  2
BLOCK158
340
0
  0
BLOCK_RECORD
  5
272
330
1
100
AcDbSymbolTableRecord
100
AcDbBlockTableRecord
  2
BLOCK159
340
0
  0
BLOCK_RECORD
  5
276
330
1
100
AcDbSymbolTableRecord
100
AcDbBlockTableRecord
  2
BLOCK160
340
0
  0
BLOCK_RECORD
  5
27A
330
1
100
AcDbSymbolTableRecord
100
AcDbBlockTableRecord
  2
BLOCK161
340
0
  0
BLOCK_RECORD
  5
280
330
1
100
AcDbSymbolTableRecord
100
AcDbBlockTableRecord
  2
BLOCK162
340
0
  0
BLOCK_RECORD
  5
286
330
1
100
AcDbSymbolTableRecord
100
AcDbBlockTableRecord
  2
BLOCK163
340
0
  0
BLOCK_RECORD
  5
28A
330
1
100
AcDbSymbolTableRecord
100
AcDbBlockTableRecord
  2
BLOCK164
340
0
  0
BLOCK_RECORD
  5
295
330
1
100
AcDbSymbolTableRecord
100
AcDbBlockTableRecord
  2
BLOCK165
340
0
  0
BLOCK_RECORD
  5
2A2
330
1
100
AcDbSymbolTableRecord
100
AcDbBlockTableRecord
  2
BLOCK166
340
0
  0
BLOCK_RECORD
  5
2AE
330
1
100
AcDbSymbolTableRecord
100
AcDbBlockTableRecord
  2
BLOCK167
340
0
  0
BLOCK_RECORD
  5
2BB
330
1
100
AcDbSymbolTableRecord
100
AcDbBlockTableRecord
  2
BLOCK168
340
0
  0
BLOCK_RECORD
  5
2C7
330
1
100
AcDbSymbolTableRecord
100
AcDbBlockTableRecord
  2
BLOCK169
340
0
  0
BLOCK_RECORD
  5
2D3
330
1
100
AcDbSymbolTableRecord
100
AcDbBlockTableRecord
  2
BLOCK170
340
0
  0
BLOCK_RECORD
  5
2E3
330
1
100
AcDbSymbolTableRecord
100
AcDbBlockTableRecord
  2
BLOCK171
340
0
  0
BLOCK_RECORD
  5
2F3
330
1
100
AcDbSymbolTableRecord
100
AcDbBlockTableRecord
  2
BLOCK172
340
0
  0
BLOCK_RECORD
  5
2FE
330
1
100
AcDbSymbolTableRecord
100
AcDbBlockTableRecord
  2
BLOCK173
340
0
  0
BLOCK_RECORD
  5
30A
330
1
100
AcDbSymbolTableRecord
100
AcDbBlockTableRecord
  2
BLOCK174
340
0
  0
BLOCK_RECORD
  5
315
330
1
100
AcDbSymbolTableRecord
100
AcDbBlockTableRecord
  2
BLOCK175
340
0
  0
BLOCK_RECORD
  5
321
330
1
100
AcDbSymbolTableRecord
100
AcDbBlockTableRecord
  2
BLOCK176
340
0
  0
BLOCK_RECORD
  5
32D
330
1
100
AcDbSymbolTableRecord
100
AcDbBlockTableRecord
  2
BLOCK177
340
0
  0
BLOCK_RECORD
  5
338
330
1
100
AcDbSymbolTableRecord
100
AcDbBlockTableRecord
  2
BLOCK178
340
0
  0
BLOCK_RECORD
  5
344
330
1
100
AcDbSymbolTableRecord
100
AcDbBlockTableRecord
  2
BLOCK179
340
0
  0
BLOCK_RECORD
  5
350
330
1
100
AcDbSymbolTableRecord
100
AcDbBlockTableRecord
  2
BLOCK180
340
0
  0
BLOCK_RECORD
  5
35B
330
1
100
AcDbSymbolTableRecord
100
AcDbBlockTableRecord
  2
BLOCK181
340
0
  0
BLOCK_RECORD
  5
368
330
1
100
AcDbSymbolTableRecord
100
AcDbBlockTableRecord
  2
BLOCK182
340
0
  0
BLOCK_RECORD
  5
375
330
1
100
AcDbSymbolTableRecord
100
AcDbBlockTableRecord
  2
BLOCK183
340
0
  0
BLOCK_RECORD
  5
382
330
1
100
AcDbSymbolTableRecord
100
AcDbBlockTableRecord
  2
BLOCK184
340
0
  0
BLOCK_RECORD
  5
387
330
1
100
AcDbSymbolTableRecord
100
AcDbBlockTableRecord
  2
BLOCK185
340
0
  0
BLOCK_RECORD
  5
38C
330
1
100
AcDbSymbolTableRecord
100
AcDbBlockTableRecord
  2
BLOCK186
340
0
  0
BLOCK_RECORD
  5
391
330
1
100
AcDbSymbolTableRecord
100
AcDbBlockTableRecord
  2
BLOCK187
340
0
  0
BLOCK_RECORD
  5
396
330
1
100
AcDbSymbolTableRecord
100
AcDbBlockTableRecord
  2
BLOCK188
340
0
  0
BLOCK_RECORD
  5
3DB
330
1
100
AcDbSymbolTableRecord
100
AcDbBlockTableRecord
  2
BLOCK189
340
0
  0
BLOCK_RECORD
  5
3E1
330
1
100
AcDbSymbolTableRecord
100
AcDbBlockTableRecord
  2
BLOCK190
340
0
  0
BLOCK_RECORD
  5
3EA
330
1
100
AcDbSymbolTableRecord
100
AcDbBlockTableRecord
  2
BLOCK191
340
0
  0
BLOCK_RECORD
  5
3F3
330
1
100
AcDbSymbolTableRecord
100
AcDbBlockTableRecord
  2
BLOCK192
340
0
  0
BLOCK_RECORD
  5
3FC
330
1
100
AcDbSymbolTableRecord
100
AcDbBlockTableRecord
  2
BLOCK193
340
0
  0
BLOCK_RECORD
  5
407
330
1
100
AcDbSymbolTableRecord
100
AcDbBlockTableRecord
  2
BLOCK194
340
0
  0
BLOCK_RECORD
  5
414
330
1
100
AcDbSymbolTableRecord
100
AcDbBlockTableRecord
  2
BLOCK195
340
0
  0
BLOCK_RECORD
  5
421
330
1
100
AcDbSymbolTableRecord
100
AcDbBlockTableRecord
  2
BLOCK196
340
0
  0
BLOCK_RECORD
  5
42F
330
1
100
AcDbSymbolTableRecord
100
AcDbBlockTableRecord
  2
BLOCK197
340
0
  0
BLOCK_RECORD
  5
438
330
1
100
AcDbSymbolTableRecord
100
AcDbBlockTableRecord
  2
BLOCK198
340
0
  0
BLOCK_RECORD
  5
443
330
1
100
AcDbSymbolTableRecord
100
AcDbBlockTableRecord
  2
BLOCK199
340
0
  0
BLOCK_RECORD
  5
450
330
1
100
AcDbSymbolTableRecord
100
AcDbBlockTableRecord
  2
BLOCK200
340
0
  0
BLOCK_RECORD
  5
455
330
1
100
AcDbSymbolTableRecord
100
AcDbBlockTableRecord
  2
BLOCK201
340
0
  0
BLOCK_RECORD
  5
45A
330
1
100
AcDbSymbolTableRecord
100
AcDbBlockTableRecord
  2
BLOCK202
340
0
  0
BLOCK_RECORD
  5
45F
330
1
100
AcDbSymbolTableRecord
100
AcDbBlockTableRecord
  2
BLOCK203
340
0
  0
BLOCK_RECORD
  5
472
330
1
100
AcDbSymbolTableRecord
100
AcDbBlockTableRecord
  2
BLOCK204
340
0
  0
BLOCK_RECORD
  5
478
330
1
100
AcDbSymbolTableRecord
100
AcDbBlockTableRecord
  2
BLOCK205
340
0
  0
BLOCK_RECORD
  5
504
330
1
100
AcDbSymbolTableRecord
100
AcDbBlockTableRecord
  2
BLOCK206
340
0
  0
BLOCK_RECORD
  5
574
330
1
100
AcDbSymbolTableRecord
100
AcDbBlockTableRecord
  2
*D87
340
0
  0
BLOCK_RECORD
  5
5C2
330
1
100
AcDbSymbolTableRecord
100
AcDbBlockTableRecord
  2
*D88
340
0
  0
BLOCK_RECORD
  5
5CD
330
1
100
AcDbSymbolTableRecord
100
AcDbBlockTableRecord
  2
*D89
340
0
  0
BLOCK_RECORD
  5
5D8
330
1
100
AcDbSymbolTableRecord
100
AcDbBlockTableRecord
  2
*D90
340
0
  0
BLOCK_RECORD
  5
5E4
330
1
100
AcDbSymbolTableRecord
100
AcDbBlockTableRecord
  2
*D91
340
0
  0
BLOCK_RECORD
  5
5EF
330
1
100
AcDbSymbolTableRecord
100
AcDbBlockTableRecord
  2
*D92
340
0
  0
BLOCK_RECORD
  5
5FA
330
1
100
AcDbSymbolTableRecord
100
AcDbBlockTableRecord
  2
*D93
340
0
  0
ENDTAB
  0
ENDSEC
  0
SECTION
  2
BLOCKS
  0
BLOCK
  5
20
330
1F
100
AcDbEntity
  8
0
100
AcDbBlockBegin
  2
*Model_Space
 70
     0
 10
0.0
 20
0.0
 30
0.0
  3
*Model_Space
  1

  0
ENDBLK
  5
21
330
1F
100
AcDbEntity
  8
0
100
AcDbBlockEnd
  0
BLOCK
  5
75
330
73
100
AcDbEntity
 67
     1
  8
0
100
AcDbBlockBegin
  2
*Paper_Space
 70
     0
 10
0.0
 20
0.0
 30
0.0
  3
*Paper_Space
  1

  0
ENDBLK
  5
76
330
73
100
AcDbEntity
 67
     1
  8
0
100
AcDbBlockEnd
  0
BLOCK
  5
602
330
D1
100
AcDbEntity
  8
0
100
AcDbBlockBegin
  2
*Paper_Space0
 70
     0
 10
0.0
 20
0.0
 30
0.0
  3
*Paper_Space0
  1

  0
VIEWPORT
  5
6BE
330
D1
100
AcDbEntity
  8
0
100
AcDbViewport
 10
7.8
 20
4.5
 30
0.0
 40
15.64
 41
9.0
 68
     1
 69
     1
 12
6.0
 22
4.5
 13
0.0
 23
0.0
 14
0.5
 24
0.5
 15
0.5
 25
0.5
 16
0.0
 26
0.0
 36
1.0
 17
0.0
 27
0.0
 37
0.0
 42
50.0
 43
0.0
 44
0.0
 45
12.0
 50
0.0
 51
0.0
 72
   100
 90
   557152
  1

281
     0
 71
     1
 74
     0
110
0.0
120
0.0
130
0.0
111
1.0
121
0.0
131
0.0
112
0.0
122
1.0
132
0.0
 79
     0
146
0.0
  0
ENDBLK
  5
603
330
D1
100
AcDbEntity
  8
0
100
AcDbBlockEnd
  0
BLOCK
  5
604
330
1DA
100
AcDbEntity
  8
0
100
AcDbBlockBegin
  2
BLOCK121
 70
     0
 10
0.0
 20
0.0
 30
0.0
  3
BLOCK121
  1

  0
LINE
  5
FD
330
1DA
100
AcDbEntity
  8
0
 62
     7
370
   100
390
F
100
AcDbLine
 10
651.194641
 20
9.768369
 30
0.0
 11
651.194641
 21
103.268372
 31
0.0
  0
LINE
  5
FE
330
1DA
100
AcDbEntity
  8
0
 62
     7
370
   100
390
F
100
AcDbLine
 10
651.194641
 20
9.768369
 30
0.0
 11
651.194641
 21
114.568375
 31
0.0
  0
LINE
  5
FF
330
1DA
100
AcDbEntity
  8
0
 62
     7
370
   100
390
F
100
AcDbLine
 10
651.194641
 20
9.768369
 30
0.0
 11
831.194641
 21
9.768369
 31
0.0
  0
LINE
  5
100
330
1DA
100
AcDbEntity
  8
0
 62
     7
 48
0.031752
370
    40
390
F
100
AcDbLine
 10
674.883911
 20
18.857277
 30
0.0
 11
676.153992
 21
18.857277
 31
0.0
  0
LINE
  5
101
330
1DA
100
AcDbEntity
  8
0
 62
     7
 48
0.0325
370
    40
390
F
100
AcDbLine
 10
674.883911
 20
20.157276
 30
0.0
 11
674.883911
 21
18.857277
 31
0.0
  0
LINE
  5
102
330
1DA
100
AcDbEntity
  8
0
 62
     7
 48
0.05
370
    40
390
F
100
AcDbLine
 10
676.883911
 20
20.157276
 30
0.0
 11
674.883911
 21
20.157276
 31
0.0
  0
LINE
  5
103
330
1DA
100
AcDbEntity
  8
0
 62
     7
 48
0.014375
370
    40
390
F
100
AcDbLine
 10
676.883911
 20
20.732277
 30
0.0
 11
676.883911
 21
20.157276
 31
0.0
  0
LINE
  5
104
330
1DA
100
AcDbEntity
  8
0
 62
     7
 48
0.05
370
    40
390
F
100
AcDbLine
 10
674.883911
 20
20.732277
 30
0.0
 11
676.883911
 21
20.732277
 31
0.0
  0
LINE
  5
105
330
1DA
100
AcDbEntity
  8
0
 62
     7
 48
0.079375
370
    40
390
F
100
AcDbLine
 10
674.883911
 20
23.907276
 30
0.0
 11
674.883911
 21
20.732277
 31
0.0
  0
LINE
  5
106
330
1DA
100
AcDbEntity
  8
0
 62
     7
 48
0.031734
370
    40
390
F
100
AcDbLine
 10
676.153259
 20
23.907276
 30
0.0
 11
674.883911
 21
23.907276
 31
0.0
  0
LINE
  5
107
330
1DA
100
AcDbEntity
  8
0
 62
     7
 48
0.014347
370
    40
390
F
100
AcDbLine
 10
676.723511
 20
23.842684
 30
0.0
 11
676.153259
 21
23.907276
 31
0.0
  0
LINE
  5
108
330
1DA
100
AcDbEntity
  8
0
 62
     7
 48
0.014206
370
    40
390
F
100
AcDbLine
 10
677.259521
 20
23.65406
 30
0.0
 11
676.723511
 21
23.842684
 31
0.0
  0
LINE
  5
109
330
1DA
100
AcDbEntity
  8
0
 62
     7
 48
0.014205
370
    40
390
F
100
AcDbLine
 10
677.739746
 20
23.35033
 30
0.0
 11
677.259521
 21
23.65406
 31
0.0
  0
LINE
  5
10A
330
1DA
100
AcDbEntity
  8
0
 62
     7
 48
0.014206
370
    40
390
F
100
AcDbLine
 10
678.139893
 20
22.946877
 30
0.0
 11
677.739746
 21
23.35033
 31
0.0
  0
LINE
  5
10B
330
1DA
100
AcDbEntity
  8
0
 62
     7
 48
0.009994
370
    40
390
F
100
AcDbLine
 10
678.350769
 20
22.607277
 30
0.0
 11
678.139893
 21
22.946877
 31
0.0
  0
LINE
  5
10C
330
1DA
100
AcDbEntity
  8
0
 62
     7
 48
0.051047
370
    40
390
F
100
AcDbLine
 10
676.308899
 20
22.607277
 30
0.0
 11
678.350769
 21
22.607277
 31
0.0
  0
LINE
  5
10D
330
1DA
100
AcDbEntity
  8
0
 62
     7
 48
0.014375
370
    40
390
F
100
AcDbLine
 10
676.308899
 20
22.032276
 30
0.0
 11
676.308899
 21
22.607277
 31
0.0
  0
LINE
  5
10E
330
1DA
100
AcDbEntity
  8
0
 62
     7
 48
0.057179
370
    40
390
F
100
AcDbLine
 10
678.596069
 20
22.032276
 30
0.0
 11
676.308899
 21
22.032276
 31
0.0
  0
LINE
  5
10F
330
1DA
100
AcDbEntity
  8
0
 62
     7
 48
0.004256
370
    40
390
F
100
AcDbLine
 10
678.636841
 20
21.866976
 30
0.0
 11
678.596069
 21
22.032276
 31
0.0
  0
LINE
  5
110
330
1DA
100
AcDbEntity
  8
0
 62
     7
 48
0.006094
370
    40
390
F
100
AcDbLine
 10
678.671997
 20
21.625761
 30
0.0
 11
678.636841
 21
21.866976
 31
0.0
  0
LINE
  5
111
330
1DA
100
AcDbEntity
  8
0
 62
     7
 48
0.006032
370
    40
390
F
100
AcDbLine
 10
678.683655
 20
21.384777
 30
0.0
 11
678.671997
 21
21.625761
 31
0.0
  0
LINE
  5
112
330
1DA
100
AcDbEntity
  8
0
 62
     7
 48
0.012435
370
    40
390
F
100
AcDbLine
 10
678.634888
 20
20.889769
 30
0.0
 11
678.683655
 21
21.384777
 31
0.0
  0
LINE
  5
113
330
1DA
100
AcDbEntity
  8
0
 62
     7
 48
0.012372
370
    40
390
F
100
AcDbLine
 10
678.491211
 20
20.416187
 30
0.0
 11
678.634888
 21
20.889769
 31
0.0
  0
LINE
  5
114
330
1DA
100
AcDbEntity
  8
0
 62
     7
 48
0.012372
370
    40
390
F
100
AcDbLine
 10
678.257935
 20
19.979733
 30
0.0
 11
678.491211
 21
20.416187
 31
0.0
  0
LINE
  5
115
330
1DA
100
AcDbEntity
  8
0
 62
     7
 48
0.012372
370
    40
390
F
100
AcDbLine
 10
677.94397
 20
19.597176
 30
0.0
 11
678.257935
 21
19.979733
 31
0.0
  0
LINE
  5
116
330
1DA
100
AcDbEntity
  8
0
 62
     7
 48
0.012373
370
    40
390
F
100
AcDbLine
 10
677.561401
 20
19.283218
 30
0.0
 11
677.94397
 21
19.597176
 31
0.0
  0
LINE
  5
117
330
1DA
100
AcDbEntity
  8
0
 62
     7
 48
0.012371
370
    40
390
F
100
AcDbLine
 10
677.125
 20
19.049929
 30
0.0
 11
677.561401
 21
19.283218
 31
0.0
  0
LINE
  5
118
330
1DA
100
AcDbEntity
  8
0
 62
     7
 48
0.012374
370
    40
390
F
100
AcDbLine
 10
676.651367
 20
18.906269
 30
0.0
 11
677.125
 21
19.049929
 31
0.0
  0
LINE
  5
119
330
1DA
100
AcDbEntity
  8
0
 62
     7
 48
0.012495
370
    40
390
F
100
AcDbLine
 10
676.153992
 20
18.857277
 30
0.0
 11
676.651367
 21
18.906269
 31
0.0
  0
LINE
  5
11A
330
1DA
100
AcDbEntity
  8
0
 62
     7
 48
0.0325
370
    40
390
F
100
AcDbLine
 10
670.508911
 20
20.157276
 30
0.0
 11
670.508911
 21
18.857277
 31
0.0
  0
LINE
  5
11B
330
1DA
100
AcDbEntity
  8
0
 62
     7
 48
0.059375
370
    40
390
F
100
AcDbLine
 10
672.883911
 20
20.157276
 30
0.0
 11
670.508911
 21
20.157276
 31
0.0
  0
LINE
  5
11C
330
1DA
100
AcDbEntity
  8
0
 62
     7
 48
0.014375
370
    40
390
F
100
AcDbLine
 10
672.883911
 20
20.732277
 30
0.0
 11
672.883911
 21
20.157276
 31
0.0
  0
LINE
  5
11D
330
1DA
100
AcDbEntity
  8
0
 62
     7
 48
0.059375
370
    40
390
F
100
AcDbLine
 10
670.508911
 20
20.732277
 30
0.0
 11
672.883911
 21
20.732277
 31
0.0
  0
LINE
  5
11E
330
1DA
100
AcDbEntity
  8
0
 62
     7
 48
0.079375
370
    40
390
F
100
AcDbLine
 10
670.508911
 20
23.907276
 30
0.0
 11
670.508911
 21
20.732277
 31
0.0
  0
LINE
  5
11F
330
1DA
100
AcDbEntity
  8
0
 62
     7
 48
0.095
370
    40
390
F
100
AcDbLine
 10
674.308899
 20
23.907276
 30
0.0
 11
670.508911
 21
23.907276
 31
0.0
  0
LINE
  5
120
330
1DA
100
AcDbEntity
  8
0
 62
     7
 48
0.0325
370
    40
390
F
100
AcDbLine
 10
674.308899
 20
22.607277
 30
0.0
 11
674.308899
 21
23.907276
 31
0.0
  0
LINE
  5
121
330
1DA
100
AcDbEntity
  8
0
 62
     7
 48
0.059375
370
    40
390
F
100
AcDbLine
 10
671.933899
 20
22.607277
 30
0.0
 11
674.308899
 21
22.607277
 31
0.0
  0
LINE
  5
122
330
1DA
100
AcDbEntity
  8
0
 62
     7
 48
0.014375
370
    40
390
F
100
AcDbLine
 10
671.933899
 20
22.032276
 30
0.0
 11
671.933899
 21
22.607277
 31
0.0
  0
LINE
  5
123
330
1DA
100
AcDbEntity
  8
0
 62
     7
 48
0.059375
370
    40
390
F
100
AcDbLine
 10
674.308899
 20
22.032276
 30
0.0
 11
671.933899
 21
22.032276
 31
0.0
  0
LINE
  5
124
330
1DA
100
AcDbEntity
  8
0
 62
     7
 48
0.079375
370
    40
390
F
100
AcDbLine
 10
674.308899
 20
18.857277
 30
0.0
 11
674.308899
 21
22.032276
 31
0.0
  0
LINE
  5
125
330
1DA
100
AcDbEntity
  8
0
 62
     7
 48
0.095
370
    40
390
F
100
AcDbLine
 10
670.508911
 20
18.857277
 30
0.0
 11
674.308899
 21
18.857277
 31
0.0
  0
LINE
  5
126
330
1DA
100
AcDbEntity
  8
0
 62
     7
 48
0.079375
370
    40
390
F
100
AcDbLine
 10
668.633911
 20
22.032276
 30
0.0
 11
668.633911
 21
18.857277
 31
0.0
  0
LINE
  5
127
330
1DA
100
AcDbEntity
  8
0
 62
     7
 48
0.0325
370
    40
390
F
100
AcDbLine
 10
669.933899
 20
22.032276
 30
0.0
 11
668.633911
 21
22.032276
 31
0.0
  0
LINE
  5
128
330
1DA
100
AcDbEntity
  8
0
 62
     7
 48
0.079375
370
    40
390
F
100
AcDbLine
 10
669.933899
 20
18.857277
 30
0.0
 11
669.933899
 21
22.032276
 31
0.0
  0
LINE
  5
129
330
1DA
100
AcDbEntity
  8
0
 62
     7
 48
0.0325
370
    40
390
F
100
AcDbLine
 10
668.633911
 20
18.857277
 30
0.0
 11
669.933899
 21
18.857277
 31
0.0
  0
LINE
  5
12A
330
1DA
100
AcDbEntity
  8
0
 62
     7
 48
0.086272
370
    40
390
F
100
AcDbLine
 10
665.293945
 20
22.241127
 30
0.0
 11
664.617188
 21
18.857277
 31
0.0
  0
LINE
  5
12B
330
1DA
100
AcDbEntity
  8
0
 62
     7
 48
0.086869
370
    40
390
F
100
AcDbLine
 10
666.083557
 20
18.857277
 30
0.0
 11
665.293945
 21
22.241127
 31
0.0
  0
LINE
  5
12C
330
1DA
100
AcDbEntity
  8
0
 62
     7
 48
0.034209
370
    40
390
F
100
AcDbLine
 10
667.451904
 20
18.857277
 30
0.0
 11
666.083557
 21
18.857277
 31
0.0
  0
LINE
  5
12D
330
1DA
100
AcDbEntity
  8
0
 62
     7
 48
0.095607
370
    40
390
F
100
AcDbLine
 10
668.201904
 20
22.607277
 30
0.0
 11
667.451904
 21
18.857277
 31
0.0
  0
LINE
  5
12E
330
1DA
100
AcDbEntity
  8
0
 62
     7
 48
0.0433
370
    40
390
F
100
AcDbLine
 10
669.933899
 20
22.607277
 30
0.0
 11
668.201904
 21
22.607277
 31
0.0
  0
LINE
  5
12F
330
1DA
100
AcDbEntity
  8
0
 62
     7
 48
0.0325
370
    40
390
F
100
AcDbLine
 10
669.933899
 20
23.907276
 30
0.0
 11
669.933899
 21
22.607277
 31
0.0
  0
LINE
  5
130
330
1DA
100
AcDbEntity
  8
0
 62
     7
 48
0.069943
370
    40
390
F
100
AcDbLine
 10
667.136169
 20
23.907276
 30
0.0
 11
669.933899
 21
23.907276
 31
0.0
  0
LINE
  5
131
330
1DA
100
AcDbEntity
  8
0
 62
     7
 48
0.068485
370
    40
390
F
100
AcDbLine
 10
666.598938
 20
21.221062
 30
0.0
 11
667.136169
 21
23.907276
 31
0.0
  0
LINE
  5
132
330
1DA
100
AcDbEntity
  8
0
 62
     7
 48
0.068959
370
    40
390
F
100
AcDbLine
 10
665.972168
 20
23.907276
 30
0.0
 11
666.598938
 21
21.221062
 31
0.0
  0
LINE
  5
133
330
1DA
100
AcDbEntity
  8
0
 62
     7
 48
0.033467
370
    40
390
F
100
AcDbLine
 10
664.633484
 20
23.907276
 30
0.0
 11
665.972168
 21
23.907276
 31
0.0
  0
LINE
  5
134
330
1DA
100
AcDbEntity
  8
0
 62
     7
 48
0.072875
370
    40
390
F
100
AcDbLine
 10
664.061768
 20
21.048874
 30
0.0
 11
664.633484
 21
23.907276
 31
0.0
  0
LINE
  5
135
330
1DA
100
AcDbEntity
  8
0
 62
     7
 48
0.073379
370
    40
390
F
100
AcDbLine
 10
663.394836
 20
23.907276
 30
0.0
 11
664.061768
 21
21.048874
 31
0.0
  0
LINE
  5
136
330
1DA
100
AcDbEntity
  8
0
 62
     7
 48
0.062773
370
    40
390
F
100
AcDbLine
 10
660.883911
 20
23.907276
 30
0.0
 11
663.394836
 21
23.907276
 31
0.0
  0
LINE
  5
137
330
1DA
100
AcDbEntity
  8
0
 62
     7
 48
0.0325
370
    40
390
F
100
AcDbLine
 10
660.883911
 20
22.607277
 30
0.0
 11
660.883911
 21
23.907276
 31
0.0
  0
LINE
  5
138
330
1DA
100
AcDbEntity
  8
0
 62
     7
 48
0.036984
370
    40
390
F
100
AcDbLine
 10
662.363281
 20
22.607277
 30
0.0
 11
660.883911
 21
22.607277
 31
0.0
  0
LINE
  5
139
330
1DA
100
AcDbEntity
  8
0
 62
     7
 48
0.096268
370
    40
390
F
100
AcDbLine
 10
663.238281
 20
18.857277
 30
0.0
 11
662.363281
 21
22.607277
 31
0.0
  0
LINE
  5
13A
330
1DA
100
AcDbEntity
  8
0
 62
     7
 48
0.034473
370
    40
390
F
100
AcDbLine
 10
664.617188
 20
18.857277
 30
0.0
 11
663.238281
 21
18.857277
 31
0.0
  0
LINE
  5
13B
330
1DA
100
AcDbEntity
  8
0
 62
     7
 48
0.12625
370
    40
390
F
100
AcDbLine
 10
658.258911
 20
23.907276
 30
0.0
 11
658.258911
 21
18.857277
 31
0.0
  0
LINE
  5
13C
330
1DA
100
AcDbEntity
  8
0
 62
     7
 48
0.05125
370
    40
390
F
100
AcDbLine
 10
660.308899
 20
23.907276
 30
0.0
 11
658.258911
 21
23.907276
 31
0.0
  0
LINE
  5
13D
330
1DA
100
AcDbEntity
  8
0
 62
     7
 48
0.0325
370
    40
390
F
100
AcDbLine
 10
660.308899
 20
22.607277
 30
0.0
 11
660.308899
 21
23.907276
 31
0.0
  0
LINE
  5
13E
330
1DA
100
AcDbEntity
  8
0
 62
     7
 48
0.015625
370
    40
390
F
100
AcDbLine
 10
659.683899
 20
22.607277
 30
0.0
 11
660.308899
 21
22.607277
 31
0.0
  0
LINE
  5
13F
330
1DA
100
AcDbEntity
  8
0
 62
     7
 48
0.014375
370
    40
390
F
100
AcDbLine
 10
659.683899
 20
22.032276
 30
0.0
 11
659.683899
 21
22.607277
 31
0.0
  0
LINE
  5
140
330
1DA
100
AcDbEntity
  8
0
 62
     7
 48
0.059375
370
    40
390
F
100
AcDbLine
 10
662.058899
 20
22.032276
 30
0.0
 11
659.683899
 21
22.032276
 31
0.0
  0
LINE
  5
141
330
1DA
100
AcDbEntity
  8
0
 62
     7
 48
0.0325
370
    40
390
F
100
AcDbLine
 10
662.058899
 20
20.732277
 30
0.0
 11
662.058899
 21
22.032276
 31
0.0
  0
LINE
  5
142
330
1DA
100
AcDbEntity
  8
0
 62
     7
 48
0.059375
370
    40
390
F
100
AcDbLine
 10
659.683899
 20
20.732277
 30
0.0
 11
662.058899
 21
20.732277
 31
0.0
  0
LINE
  5
143
330
1DA
100
AcDbEntity
  8
0
 62
     7
 48
0.014375
370
    40
390
F
100
AcDbLine
 10
659.683899
 20
20.157276
 30
0.0
 11
659.683899
 21
20.732277
 31
0.0
  0
LINE
  5
144
330
1DA
100
AcDbEntity
  8
0
 62
     7
 48
0.059375
370
    40
390
F
100
AcDbLine
 10
662.058899
 20
20.157276
 30
0.0
 11
659.683899
 21
20.157276
 31
0.0
  0
LINE
  5
145
330
1DA
100
AcDbEntity
  8
0
 62
     7
 48
0.0325
370
    40
390
F
100
AcDbLine
 10
662.058899
 20
18.857277
 30
0.0
 11
662.058899
 21
20.157276
 31
0.0
  0
LINE
  5
146
330
1DA
100
AcDbEntity
  8
0
 62
     7
 48
0.095
370
    40
390
F
100
AcDbLine
 10
658.258911
 20
18.857277
 30
0.0
 11
662.058899
 21
18.857277
 31
0.0
  0
LINE
  5
147
330
1DA
100
AcDbEntity
  8
0
 62
     7
 48
0.031752
370
    40
390
F
100
AcDbLine
 10
657.683899
 20
18.857277
 30
0.0
 11
656.413818
 21
18.857277
 31
0.0
  0
LINE
  5
148
330
1DA
100
AcDbEntity
  8
0
 62
     7
 48
0.079375
370
    40
390
F
100
AcDbLine
 10
657.683899
 20
22.032276
 30
0.0
 11
657.683899
 21
18.857277
 31
0.0
  0
LINE
  5
149
330
1DA
100
AcDbEntity
  8
0
 62
     7
 48
0.035625
370
    40
390
F
100
AcDbLine
 10
656.258911
 20
22.032276
 30
0.0
 11
657.683899
 21
22.032276
 31
0.0
  0
LINE
  5
14A
330
1DA
100
AcDbEntity
  8
0
 62
     7
 48
0.046875
370
    40
390
F
100
AcDbLine
 10
656.258911
 20
20.157276
 30
0.0
 11
656.258911
 21
22.032276
 31
0.0
  0
LINE
  5
14B
330
1DA
100
AcDbEntity
  8
0
 62
     7
 48
0.014375
370
    40
390
F
100
AcDbLine
 10
655.683899
 20
20.157276
 30
0.0
 11
656.258911
 21
20.157276
 31
0.0
  0
LINE
  5
14C
330
1DA
100
AcDbEntity
  8
0
 62
     7
 48
0.06125
370
    40
390
F
100
AcDbLine
 10
655.683899
 20
22.607277
 30
0.0
 11
655.683899
 21
20.157276
 31
0.0
  0
LINE
  5
14D
330
1DA
100
AcDbEntity
  8
0
 62
     7
 48
0.05
370
    40
390
F
100
AcDbLine
 10
657.683899
 20
22.607277
 30
0.0
 11
655.683899
 21
22.607277
 31
0.0
  0
LINE
  5
14E
330
1DA
100
AcDbEntity
  8
0
 62
     7
 48
0.0325
370
    40
390
F
100
AcDbLine
 10
657.683899
 20
23.907276
 30
0.0
 11
657.683899
 21
22.607277
 31
0.0
  0
LINE
  5
14F
330
1DA
100
AcDbEntity
  8
0
 62
     7
 48
0.031752
370
    40
390
F
100
AcDbLine
 10
656.413818
 20
23.907276
 30
0.0
 11
657.683899
 21
23.907276
 31
0.0
  0
LINE
  5
150
330
1DA
100
AcDbEntity
  8
0
 62
     7
 48
0.012496
370
    40
390
F
100
AcDbLine
 10
655.916382
 20
23.858286
 30
0.0
 11
656.413818
 21
23.907276
 31
0.0
  0
LINE
  5
151
330
1DA
100
AcDbEntity
  8
0
 62
     7
 48
0.012372
370
    40
390
F
100
AcDbLine
 10
655.44281
 20
23.714626
 30
0.0
 11
655.916382
 21
23.858286
 31
0.0
  0
LINE
  5
152
330
1DA
100
AcDbEntity
  8
0
 62
     7
 48
0.012372
370
    40
390
F
100
AcDbLine
 10
655.006348
 20
23.481335
 30
0.0
 11
655.44281
 21
23.714626
 31
0.0
  0
LINE
  5
153
330
1DA
100
AcDbEntity
  8
0
 62
     7
 48
0.012373
370
    40
390
F
100
AcDbLine
 10
654.623779
 20
23.167379
 30
0.0
 11
655.006348
 21
23.481335
 31
0.0
  0
LINE
  5
154
330
1DA
100
AcDbEntity
  8
0
 62
     7
 48
0.012372
370
    40
390
F
100
AcDbLine
 10
654.309814
 20
22.784824
 30
0.0
 11
654.623779
 21
23.167379
 31
0.0
  0
LINE
  5
155
330
1DA
100
AcDbEntity
  8
0
 62
     7
 48
0.012372
370
    40
390
F
100
AcDbLine
 10
654.076538
 20
22.348368
 30
0.0
 11
654.309814
 21
22.784824
 31
0.0
  0
LINE
  5
156
330
1DA
100
AcDbEntity
  8
0
 62
     7
 48
0.012372
370
    40
390
F
100
AcDbLine
 10
653.932861
 20
21.874786
 30
0.0
 11
654.076538
 21
22.348368
 31
0.0
  0
LINE
  5
157
330
1DA
100
AcDbEntity
  8
0
 62
     7
 48
0.012372
370
    40
390
F
100
AcDbLine
 10
653.884399
 20
21.382278
 30
0.0
 11
653.932861
 21
21.874786
 31
0.0
  0
LINE
  5
158
330
1DA
100
AcDbEntity
  8
0
 62
     7
 48
0.012372
370
    40
390
F
100
AcDbLine
 10
653.932861
 20
20.889769
 30
0.0
 11
653.884399
 21
21.382278
 31
0.0
  0
LINE
  5
159
330
1DA
100
AcDbEntity
  8
0
 62
     7
 48
0.012372
370
    40
390
F
100
AcDbLine
 10
654.076538
 20
20.416187
 30
0.0
 11
653.932861
 21
20.889769
 31
0.0
  0
LINE
  5
15A
330
1DA
100
AcDbEntity
  8
0
 62
     7
 48
0.012372
370
    40
390
F
100
AcDbLine
 10
654.309814
 20
19.979733
 30
0.0
 11
654.076538
 21
20.416187
 31
0.0
  0
LINE
  5
15B
330
1DA
100
AcDbEntity
  8
0
 62
     7
 48
0.012372
370
    40
390
F
100
AcDbLine
 10
654.623779
 20
19.597176
 30
0.0
 11
654.309814
 21
19.979733
 31
0.0
  0
LINE
  5
15C
330
1DA
100
AcDbEntity
  8
0
 62
     7
 48
0.012373
370
    40
390
F
100
AcDbLine
 10
655.006348
 20
19.283218
 30
0.0
 11
654.623779
 21
19.597176
 31
0.0
  0
LINE
  5
15D
330
1DA
100
AcDbEntity
  8
0
 62
     7
 48
0.012372
370
    40
390
F
100
AcDbLine
 10
655.44281
 20
19.049929
 30
0.0
 11
655.006348
 21
19.283218
 31
0.0
  0
LINE
  5
15E
330
1DA
100
AcDbEntity
  8
0
 62
     7
 48
0.012372
370
    40
390
F
100
AcDbLine
 10
655.916382
 20
18.906269
 30
0.0
 11
655.44281
 21
19.049929
 31
0.0
  0
LINE
  5
15F
330
1DA
100
AcDbEntity
  8
0
 62
     7
 48
0.012496
370
    40
390
F
100
AcDbLine
 10
656.413818
 20
18.857277
 30
0.0
 11
655.916382
 21
18.906269
 31
0.0
  0
LINE
  5
160
330
1DA
100
AcDbEntity
  8
0
 62
     7
370
    60
390
F
100
AcDbLine
 10
791.194641
 20
9.768369
 30
0.0
 11
791.194641
 21
32.768368
 31
0.0
  0
LINE
  5
161
330
1DA
100
AcDbEntity
  8
0
 62
     7
370
    60
390
F
100
AcDbLine
 10
651.194641
 20
32.768368
 30
0.0
 11
831.194641
 21
32.768368
 31
0.0
  0
LINE
  5
162
330
1DA
100
AcDbEntity
  8
0
 62
     7
370
    60
390
F
100
AcDbLine
 10
791.194641
 20
57.768368
 30
0.0
 11
831.194641
 21
57.768368
 31
0.0
  0
LINE
  5
163
330
1DA
100
AcDbEntity
  8
0
 62
     7
370
    40
390
F
100
AcDbLine
 10
688.194641
 20
57.768368
 30
0.0
 11
688.194641
 21
114.568375
 31
0.0
  0
LINE
  5
164
330
1DA
100
AcDbEntity
  8
0
 62
     7
370
    60
390
F
100
AcDbLine
 10
681.194641
 20
32.768368
 30
0.0
 11
681.194641
 21
114.568375
 31
0.0
  0
LINE
  5
165
330
1DA
100
AcDbEntity
  8
0
 62
     7
370
    40
390
F
100
AcDbLine
 10
791.194641
 20
57.768368
 30
0.0
 11
791.194641
 21
114.568375
 31
0.0
  0
LINE
  5
166
330
1DA
100
AcDbEntity
  8
0
 62
     7
 48
0.1
370
    40
390
F
100
AcDbLine
 10
811.194641
 20
41.101704
 30
0.0
 11
811.194641
 21
45.1017
 31
0.0
  0
LINE
  5
167
330
1DA
100
AcDbEntity
  8
0
 62
     7
 48
0.1
370
    40
390
F
100
AcDbLine
 10
811.194641
 20
49.435036
 30
0.0
 11
811.194641
 21
53.435036
 31
0.0
  0
LINE
  5
168
330
1DA
100
AcDbEntity
  8
0
 62
     7
370
    40
390
F
100
AcDbLine
 10
811.194641
 20
57.768368
 30
0.0
 11
811.194641
 21
114.568375
 31
0.0
  0
LINE
  5
169
330
1DA
100
AcDbEntity
  8
0
 62
     7
370
    40
390
F
100
AcDbLine
 10
791.194641
 20
41.101704
 30
0.0
 11
831.194641
 21
41.101704
 31
0.0
  0
LINE
  5
16A
330
1DA
100
AcDbEntity
  8
0
 62
     7
370
    40
390
F
100
AcDbLine
 10
791.194641
 20
49.435036
 30
0.0
 11
831.194641
 21
49.435036
 31
0.0
  0
LINE
  5
16B
330
1DA
100
AcDbEntity
  8
0
 62
     7
370
    40
390
F
100
AcDbLine
 10
688.194641
 20
102.768372
 30
0.0
 11
831.194641
 21
102.768372
 31
0.0
  0
LINE
  5
16C
330
1DA
100
AcDbEntity
  8
0
 62
     7
 48
0.1
370
    40
390
F
100
AcDbLine
 10
811.194641
 20
32.768368
 30
0.0
 11
811.194641
 21
36.768368
 31
0.0
  0
LINE
  5
16D
330
1DA
100
AcDbEntity
  8
0
 62
     7
370
    60
390
F
100
AcDbLine
 10
791.194641
 20
32.768368
 30
0.0
 11
791.194641
 21
57.768368
 31
0.0
  0
LINE
  5
16E
330
1DA
100
AcDbEntity
  8
0
 62
     7
370
    40
390
F
100
AcDbLine
 10
698.861328
 20
57.768368
 30
0.0
 11
698.861328
 21
114.568375
 31
0.0
  0
LINE
  5
16F
330
1DA
100
AcDbEntity
  8
0
 62
     7
370
    40
390
F
100
AcDbLine
 10
714.194641
 20
57.768368
 30
0.0
 11
714.194641
 21
114.568375
 31
0.0
  0
LINE
  5
170
330
1DA
100
AcDbEntity
  8
0
 62
     7
370
    60
390
F
100
AcDbLine
 10
651.194641
 20
114.568375
 30
0.0
 11
681.194641
 21
114.568375
 31
0.0
  0
LINE
  5
171
330
1DA
100
AcDbEntity
  8
0
 62
     7
370
    60
390
F
100
AcDbLine
 10
681.194641
 20
114.568375
 30
0.0
 11
831.194641
 21
114.568375
 31
0.0
  0
LINE
  5
172
330
1DA
100
AcDbEntity
  8
0
 62
     7
370
    40
390
F
100
AcDbLine
 10
651.194641
 20
101.768372
 30
0.0
 11
681.194641
 21
101.768372
 31
0.0
  0
LINE
  5
173
330
1DA
100
AcDbEntity
  8
0
 62
     7
370
    40
390
F
100
AcDbLine
 10
651.194641
 20
97.768372
 30
0.0
 11
681.194641
 21
97.768372
 31
0.0
  0
LINE
  5
174
330
1DA
100
AcDbEntity
  8
0
 62
     7
370
    40
390
F
100
AcDbLine
 10
651.194641
 20
93.768372
 30
0.0
 11
681.194641
 21
93.768372
 31
0.0
  0
LINE
  5
175
330
1DA
100
AcDbEntity
  8
0
 62
     7
370
    40
390
F
100
AcDbLine
 10
651.194641
 20
85.768372
 30
0.0
 11
681.194641
 21
85.768372
 31
0.0
  0
LINE
  5
176
330
1DA
100
AcDbEntity
  8
0
 62
     7
370
    40
390
F
100
AcDbLine
 10
651.194641
 20
81.768372
 30
0.0
 11
681.194641
 21
81.768372
 31
0.0
  0
LINE
  5
177
330
1DA
100
AcDbEntity
  8
0
 62
     7
370
    40
390
F
100
AcDbLine
 10
651.194641
 20
77.768372
 30
0.0
 11
681.194641
 21
77.768372
 31
0.0
  0
LINE
  5
178
330
1DA
100
AcDbEntity
  8
0
 62
     7
370
    40
390
F
100
AcDbLine
 10
651.194641
 20
73.768372
 30
0.0
 11
681.194641
 21
73.768372
 31
0.0
  0
LINE
  5
179
330
1DA
100
AcDbEntity
  8
0
 62
     7
370
    40
390
F
100
AcDbLine
 10
651.194641
 20
69.768372
 30
0.0
 11
681.194641
 21
69.768372
 31
0.0
  0
LINE
  5
17A
330
1DA
100
AcDbEntity
  8
0
 62
     7
370
    40
390
F
100
AcDbLine
 10
651.194641
 20
65.768372
 30
0.0
 11
681.194641
 21
65.768372
 31
0.0
  0
LINE
  5
17B
330
1DA
100
AcDbEntity
  8
0
 62
     7
370
    40
390
F
100
AcDbLine
 10
651.194641
 20
61.768368
 30
0.0
 11
681.194641
 21
61.768368
 31
0.0
  0
LINE
  5
17C
330
1DA
100
AcDbEntity
  8
0
 62
     7
370
    60
390
F
100
AcDbLine
 10
681.194641
 20
9.768369
 30
0.0
 11
681.194641
 21
32.768368
 31
0.0
  0
LINE
  5
17D
330
1DA
100
AcDbEntity
  8
0
 62
     7
 48
0.193066
370
    40
390
F
100
AcDbLine
 10
657.812439
 20
36.850868
 30
0.0
 11
665.398682
 21
35.405869
 31
0.0
  0
LINE
  5
17E
330
1DA
100
AcDbEntity
  8
0
 62
     7
 48
0.193066
370
    40
390
F
100
AcDbLine
 10
657.812439
 20
41.185867
 30
0.0
 11
665.398682
 21
42.630867
 31
0.0
  0
LINE
  5
17F
330
1DA
100
AcDbEntity
  8
0
 62
     7
 48
0.108375
370
    40
390
F
100
AcDbLine
 10
657.812439
 20
36.850868
 30
0.0
 11
657.812439
 21
41.185867
 31
0.0
  0
CIRCLE
  5
180
330
1DA
100
AcDbEntity
  8
0
 62
     7
370
    40
390
F
100
AcDbCircle
 10
670.817444
 20
39.018368
 30
0.0
 40
2.1675
  0
CIRCLE
  5
181
330
1DA
100
AcDbEntity
  8
0
 62
     7
370
    40
390
F
100
AcDbCircle
 10
670.817444
 20
39.018368
 30
0.0
 40
3.6125
  0
LINE
  5
182
330
1DA
100
AcDbEntity
  8
0
  6
DASHDOT
 62
     7
 48
0.213802
370
    40
390
F
100
AcDbLine
 10
670.817444
 20
34.811523
 30
0.0
 11
670.817444
 21
43.363594
 31
0.0
  0
LINE
  5
183
330
1DA
100
AcDbEntity
  8
0
 62
     7
 48
0.180625
370
    40
390
F
100
AcDbLine
 10
665.398682
 20
35.405869
 30
0.0
 11
665.398682
 21
42.630867
 31
0.0
  0
LINE
  5
184
330
1DA
100
AcDbEntity
  8
0
  6
DASHDOT
 62
     7
370
    40
390
F
100
AcDbLine
 10
655.080933
 20
39.018368
 30
0.0
 11
676.553528
 21
39.018368
 31
0.0
  0
LINE
  5
185
330
1DA
100
AcDbEntity
  8
0
 62
     7
370
    60
390
F
100
AcDbLine
 10
651.194641
 20
57.768368
 30
0.0
 11
791.194641
 21
57.768368
 31
0.0
  0
LINE
  5
186
330
1DA
100
AcDbEntity
  8
0
 62
     7
370
    60
390
F
100
AcDbLine
 10
651.194641
 20
45.268368
 30
0.0
 11
791.194641
 21
45.268368
 31
0.0
  0
LINE
  5
187
330
1DA
100
AcDbEntity
  8
0
 62
     7
370
    40
390
F
100
AcDbLine
 10
666.194641
 20
57.768368
 30
0.0
 11
666.194641
 21
107.768372
 31
0.0
  0
LINE
  5
188
330
1DA
100
AcDbEntity
  8
0
 62
     7
370
    40
390
F
100
AcDbLine
 10
651.194641
 20
89.768372
 30
0.0
 11
681.194641
 21
89.768372
 31
0.0
  0
LINE
  5
189
330
1DA
100
AcDbEntity
  8
0
 62
     7
370
    40
390
F
100
AcDbLine
 10
688.194641
 20
62.768368
 30
0.0
 11
831.194641
 21
62.768368
 31
0.0
  0
LINE
  5
18A
330
1DA
100
AcDbEntity
  8
0
 62
     7
370
    40
390
F
100
AcDbLine
 10
688.194641
 20
67.768372
 30
0.0
 11
831.194641
 21
67.768372
 31
0.0
  0
LINE
  5
18B
330
1DA
100
AcDbEntity
  8
0
 62
     7
370
    40
390
F
100
AcDbLine
 10
688.194641
 20
72.768372
 30
0.0
 11
831.194641
 21
72.768372
 31
0.0
  0
LINE
  5
18C
330
1DA
100
AcDbEntity
  8
0
 62
     7
370
    40
390
F
100
AcDbLine
 10
688.194641
 20
77.768372
 30
0.0
 11
831.194641
 21
77.768372
 31
0.0
  0
LINE
  5
18D
330
1DA
100
AcDbEntity
  8
0
 62
     7
370
    40
390
F
100
AcDbLine
 10
688.194641
 20
82.768372
 30
0.0
 11
831.194641
 21
82.768372
 31
0.0
  0
LINE
  5
18E
330
1DA
100
AcDbEntity
  8
0
 62
     7
370
    40
390
F
100
AcDbLine
 10
688.194641
 20
87.768372
 30
0.0
 11
831.194641
 21
87.768372
 31
0.0
  0
LINE
  5
18F
330
1DA
100
AcDbEntity
  8
0
 62
     7
370
    40
390
F
100
AcDbLine
 10
688.194641
 20
92.768372
 30
0.0
 11
831.194641
 21
92.768372
 31
0.0
  0
LINE
  5
190
330
1DA
100
AcDbEntity
  8
0
 62
     7
370
    40
390
F
100
AcDbLine
 10
688.194641
 20
97.768372
 30
0.0
 11
831.194641
 21
97.768372
 31
0.0
  0
LINE
  5
191
330
1DA
100
AcDbEntity
  8
0
 62
     7
370
    40
390
F
100
AcDbLine
 10
688.194641
 20
107.768372
 30
0.0
 11
831.194641
 21
107.768372
 31
0.0
  0
LINE
  5
192
330
1DA
100
AcDbEntity
  8
0
 62
     7
370
    40
390
F
100
AcDbLine
 10
651.194641
 20
107.768372
 30
0.0
 11
681.194641
 21
107.768372
 31
0.0
  0
TEXT
  5
193
330
1DA
100
AcDbEntity
  8
0
 62
     7
370
    13
390
F
100
AcDbText
 10
716.505981
 20
50.753769
 30
0.0
 40
2.5
  1
FINITURA LUCIDA
 41
1.147421063414632
 72
     5
 11
755.709534
 21
50.753769
 31
0.0
100
AcDbText
  0
TEXT
  5
194
330
1DA
100
AcDbEntity
  8
0
 62
     7
370
    13
390
F
100
AcDbText
 10
793.720215
 20
51.00948
 30
0.0
 40
2.0
  1
06.06.2005
 41
1.062855586956519
 72
     5
 11
810.017334
 21
51.00948
 31
0.0
100
AcDbText
  0
TEXT
  5
195
330
1DA
100
AcDbEntity
  8
0
 62
     7
370
    13
390
F
100
AcDbText
 10
793.720215
 20
42.676147
 30
0.0
 40
2.0
  1
06.06.2005
 41
1.062855586956519
 72
     5
 11
810.017334
 21
42.676147
 31
0.0
100
AcDbText
  0
TEXT
  5
196
330
1DA
100
AcDbEntity
  8
0
 62
     7
370
    13
390
F
100
AcDbText
 10
806.739929
 20
55.627792
 30
0.0
 40
1.5
  1
/Drawn
 41
0.8451430588235299
 72
     5
 11
813.923645
 21
55.627792
 31
0.0
100
AcDbText
  0
TEXT
  5
197
330
1DA
100
AcDbEntity
  8
0
 62
     7
370
    13
390
F
100
AcDbText
 10
792.194641
 20
55.518368
 30
0.0
 40
1.5
  1
DISEGNATO
 41
1.128828159999994
 72
     5
 11
806.304993
 21
55.518368
 31
0.0
100
AcDbText
  0
TEXT
  5
198
330
1DA
100
AcDbEntity
  8
0
 62
     7
370
    13
390
F
100
AcDbText
 10
685.878845
 20
84.652908
 30
0.0
 40
2.0
  1
/Modifications
 50
90.0
 41
0.9863983285714287
 72
     5
 11
685.878845
 21
107.668869
 31
0.0
100
AcDbText
  0
TEXT
  5
199
330
1DA
100
AcDbEntity
  8
0
 62
     7
370
    13
390
F
100
AcDbText
 10
685.878845
 20
66.385132
 30
0.0
 40
2.0
  1
MODIFICHE
 50
90.0
 41
1.1758646875
 72
     5
 11
685.878845
 21
85.198967
 31
0.0
100
AcDbText
  0
TEXT
  5
19A
330
1DA
100
AcDbEntity
  8
0
 62
     7
370
    13
390
F
100
AcDbText
 10
725.102112
 20
46.733448
 30
0.0
 40
2.5
  1
SMOOTH
 41
0.8442411529411723
 72
     5
 11
737.062195
 21
46.733448
 31
0.0
100
AcDbText
  0
TEXT
  5
19B
330
1DA
100
AcDbEntity
  8
0
 62
     7
370
    13
390
F
100
AcDbText
 10
653.080627
 20
108.932457
 30
0.0
 40
1.5
  1
General Toll.
 41
1.016012571428566
 72
     5
 11
669.082825
 21
108.932457
 31
0.0
100
AcDbText
  0
TEXT
  5
19C
330
1DA
100
AcDbEntity
  8
0
 62
     7
370
    13
390
F
100
AcDbText
 10
652.929565
 20
111.911011
 30
0.0
 40
1.5
  1
TOLL. GENERALI
 41
1.16400789473684
 72
     5
 11
675.045715
 21
111.911011
 31
0.0
100
AcDbText
  0
TEXT
  5
19D
330
1DA
100
AcDbEntity
  8
0
 62
     7
370
    13
390
F
100
AcDbText
 10
689.845703
 20
109.339821
 30
0.0
 40
1.5
  1
Ind.
 41
1.166031000000004
 72
     5
 11
694.509827
 21
109.339821
 31
0.0
100
AcDbText
  0
TEXT
  5
19E
330
1DA
100
AcDbEntity
  8
0
 62
     7
370
    13
390
F
100
AcDbText
 10
689.294678
 20
112.318375
 30
0.0
 40
1.5
  1
IND.
 41
1.526153499999992
 72
     5
 11
695.399292
 21
112.318375
 31
0.0
100
AcDbText
  0
TEXT
  5
19F
330
1DA
100
AcDbEntity
  8
0
 62
     7
370
    13
390
F
100
AcDbText
 10
700.345703
 20
109.339821
 30
0.0
 40
1.5
  1
Ref.ce
 41
0.9578288000000006
 72
     5
 11
707.529419
 21
109.339821
 31
0.0
100
AcDbText
  0
TEXT
  5
1A0
330
1DA
100
AcDbEntity
  8
0
 62
     7
370
    13
390
F
100
AcDbText
 10
700.194641
 20
112.318375
 30
0.0
 40
1.5
  1
RIF.TO
 41
1.329563714285704
 72
     5
 11
709.501587
 21
112.318375
 31
0.0
100
AcDbText
  0
TEXT
  5
1A1
330
1DA
100
AcDbEntity
  8
0
 62
     7
370
    13
390
F
100
AcDbText
 10
715.145691
 20
109.339821
 30
0.0
 40
1.5
  1
Description
 41
0.9630432142857087
 72
     5
 11
728.628296
 21
109.339821
 31
0.0
100
AcDbText
  0
TEXT
  5
1A2
330
1DA
100
AcDbEntity
  8
0
 62
     7
370
    13
390
F
100
AcDbText
 10
715.194641
 20
112.318375
 30
0.0
 40
1.5
  1
DESCRIZIONE
 41
1.154178866666666
 72
     5
 11
732.507324
 21
112.318375
 31
0.0
100
AcDbText
  0
TEXT
  5
1A3
330
1DA
100
AcDbEntity
  8
0
 62
     7
370
    13
390
F
100
AcDbText
 10
812.338928
 20
109.339821
 30
0.0
 40
1.5
  1
Drawn
 41
0.8462698571428616
 72
     5
 11
818.262817
 21
109.339821
 31
0.0
100
AcDbText
  0
TEXT
  5
1A4
330
1DA
100
AcDbEntity
  8
0
 62
     7
370
    13
390
F
100
AcDbText
 10
812.194641
 20
112.318375
 30
0.0
 40
1.5
  1
DISEGNATO
 41
1.128828159999994
 72
     5
 11
826.304993
 21
112.318375
 31
0.0
100
AcDbText
  0
TEXT
  5
1A5
330
1DA
100
AcDbEntity
  8
0
 62
     7
370
    13
390
F
100
AcDbText
 10
792.338928
 20
109.339821
 30
0.0
 40
1.5
  1
Date
 41
0.8480225454545482
 72
     5
 11
797.003052
 21
109.339821
 31
0.0
100
AcDbText
  0
TEXT
  5
1A6
330
1DA
100
AcDbEntity
  8
0
 62
     7
370
    13
390
F
100
AcDbText
 10
792.194641
 20
112.318375
 30
0.0
 40
1.5
  1
DATA
 41
1.109929818181813
 72
     5
 11
798.299255
 21
112.318375
 31
0.0
100
AcDbText
  0
TEXT
  5
1A7
330
1DA
100
AcDbEntity
  8
0
 62
     7
370
    13
390
F
100
AcDbText
 10
799.995605
 20
39.185036
 30
0.0
 40
1.5
  1
/Checked
 41
0.8437606956521766
 72
     5
 11
809.698853
 21
39.185036
 31
0.0
100
AcDbText
  0
TEXT
  5
1A8
330
1DA
100
AcDbEntity
  8
0
 62
     7
370
    13
390
F
100
AcDbText
 10
792.194641
 20
39.185036
 30
0.0
 40
1.5
  1
VISTO
 41
1.100821428571424
 72
     5
 11
799.900391
 21
39.185036
 31
0.0
100
AcDbText
  0
TEXT
  5
1A9
330
1DA
100
AcDbEntity
  8
0
 62
     7
370
    13
390
F
100
AcDbText
 10
792.194641
 20
30.518368
 30
0.0
 40
1.5
  1
CODICE
 41
1.163368249999991
 72
     5
 11
801.501587
 21
30.518368
 31
0.0
100
AcDbText
  0
TEXT
  5
1AA
330
1DA
100
AcDbEntity
  8
0
 62
     7
370
    13
390
F
100
AcDbText
 10
797.480469
 20
18.082598
 30
0.0
 40
5.0
  1
56330673
 41
0.9260318933333352
 72
     5
 11
832.206665
 21
18.082598
 31
0.0
100
AcDbText
  0
TEXT
  5
1AB
330
1DA
100
AcDbEntity
  8
0
 62
     7
370
    13
390
F
100
AcDbText
 10
715.156677
 20
15.203772
 30
0.0
 40
2.8
  1
REFLECTOR 2X55-80W
 41
0.8328291989319103
 72
     5
 11
756.742615
 21
15.203772
 31
0.0
100
AcDbText
  0
TEXT
  5
1AC
330
1DA
100
AcDbEntity
  8
0
 62
     7
370
    13
390
F
100
AcDbText
 10
695.127319
 20
55.460934
 30
0.0
 40
1.5
  1
/Finishing
 41
1.062855652173905
 72
     5
 11
707.350159
 21
55.460934
 31
0.0
100
AcDbText
  0
TEXT
  5
1AD
330
1DA
100
AcDbEntity
  8
0
 62
     7
370
    13
390
F
100
AcDbText
 10
682.194641
 20
55.518368
 30
0.0
 40
1.5
  1
FINITURA
 41
1.191353904761898
 72
     5
 11
694.703857
 21
55.518368
 31
0.0
100
AcDbText
  0
TEXT
  5
1AE
330
1DA
100
AcDbEntity
  8
0
 62
     7
370
    13
390
F
100
AcDbText
 10
721.632324
 20
34.233448
 30
0.0
 40
2.5
  1
ALLUMINIUM
 41
0.9044515111111094
 72
     5
 11
741.982483
 21
34.233448
 31
0.0
100
AcDbText
  0
TEXT
  5
1AF
330
1DA
100
AcDbEntity
  8
0
 62
     7
370
    13
390
F
100
AcDbText
 10
703.271484
 20
38.253773
 30
0.0
 40
2.5
  1
ALLUMINIO SPECULARE 99.85
 41
1.125816137142857
 72
     5
 11
768.944092
 21
38.253773
 31
0.0
100
AcDbText
  0
TEXT
  5
1B0
330
1DA
100
AcDbEntity
  8
0
 62
     7
370
    13
390
F
100
AcDbText
 10
696.55072
 20
42.956814
 30
0.0
 40
1.5
  1
/Material
 41
0.9744954666666672
 72
     5
 11
707.513794
 21
42.956814
 31
0.0
100
AcDbText
  0
TEXT
  5
1B1
330
1DA
100
AcDbEntity
  8
0
 62
     7
370
    13
390
F
100
AcDbText
 10
682.194641
 20
43.018368
 30
0.0
 40
1.5
  1
MATERIALE
 41
1.128828159999994
 72
     5
 11
696.304993
 21
43.018368
 31
0.0
100
AcDbText
  0
TEXT
  5
1B2
330
1DA
100
AcDbEntity
  8
0
 62
     7
370
    13
390
F
100
AcDbText
 10
652.503967
 20
49.058754
 30
0.0
 40
4.0
  1
1:2
 41
1.785772800000007
 72
     5
 11
664.409119
 21
49.058754
 31
0.0
100
AcDbText
  0
TEXT
  5
1B3
330
1DA
100
AcDbEntity
  8
0
 62
     7
370
    13
390
F
100
AcDbText
 10
659.595459
 20
55.518368
 30
0.0
 40
1.5
  1
/Scale
 41
0.9269310967741939
 72
     5
 11
666.779175
 21
55.518368
 31
0.0
100
AcDbText
  0
TEXT
  5
1B4
330
1DA
100
AcDbEntity
  8
0
 62
     7
370
    13
390
F
100
AcDbText
 10
652.194641
 20
55.518368
 30
0.0
 40
1.5
  1
SCALA
 41
1.100821428571424
 72
     5
 11
659.900391
 21
55.518368
 31
0.0
100
AcDbText
  0
TEXT
  5
1B5
330
1DA
100
AcDbEntity
  8
0
 62
     7
370
    13
390
F
100
AcDbText
 10
699.666199
 20
30.456814
 30
0.0
 40
1.5
  1
/Description
 41
0.9511245806451619
 72
     5
 11
714.40863
 21
30.456814
 31
0.0
100
AcDbText
  0
TEXT
  5
1B6
330
1DA
100
AcDbEntity
  8
0
 62
     7
370
    13
390
F
100
AcDbText
 10
682.194641
 20
30.518368
 30
0.0
 40
1.5
  1
DESCRIZIONE
 41
1.154178866666666
 72
     5
 11
699.507324
 21
30.518368
 31
0.0
100
AcDbText
  0
TEXT
  5
1B7
330
1DA
100
AcDbEntity
  8
0
 62
     7
370
    13
390
F
100
AcDbText
 10
801.395447
 20
30.518368
 30
0.0
 40
1.5
  1
/Code
 41
0.8462698571428616
 72
     5
 11
807.319336
 21
30.518368
 31
0.0
100
AcDbText
  0
TEXT
  5
1B8
330
1DA
100
AcDbEntity
  8
0
 62
     7
370
    13
390
F
100
AcDbText
 10
652.307556
 20
58.668335
 30
0.0
 40
2.0
  1
400÷500
 41
1.069727583333332
 72
     5
 11
665.144287
 21
58.668335
 31
0.0
100
AcDbText
  0
TEXT
  5
1B9
330
1DA
100
AcDbEntity
  8
0
 62
     7
370
    13
390
F
100
AcDbText
 10
652.280212
 20
62.639217
 30
0.0
 40
2.0
  1
320÷400
 41
1.040816027027026
 72
     5
 11
665.116943
 21
62.639217
 31
0.0
100
AcDbText
  0
TEXT
  5
1BA
330
1DA
100
AcDbEntity
  8
0
 62
     7
370
    13
390
F
100
AcDbText
 10
652.280212
 20
66.639221
 30
0.0
 40
2.0
  1
250÷320
 41
1.013426131578946
 72
     5
 11
665.116943
 21
66.639221
 31
0.0
100
AcDbText
  0
TEXT
  5
1BB
330
1DA
100
AcDbEntity
  8
0
 62
     7
370
    13
390
F
100
AcDbText
 10
652.280212
 20
70.639221
 30
0.0
 40
2.0
  1
180÷250
 41
1.069727583333332
 72
     5
 11
665.116943
 21
70.639221
 31
0.0
100
AcDbText
  0
TEXT
  5
1BC
330
1DA
100
AcDbEntity
  8
0
 62
     7
370
    13
390
F
100
AcDbText
 10
652.280212
 20
74.639221
 30
0.0
 40
2.0
  1
120÷180
 41
1.132652735294116
 72
     5
 11
665.116943
 21
74.639221
 31
0.0
100
AcDbText
  0
TEXT
  5
1BD
330
1DA
100
AcDbEntity
  8
0
 62
     7
370
    13
390
F
100
AcDbText
 10
653.932861
 20
78.639252
 30
0.0
 40
2.0
  1
80÷120
 41
1.093145800000002
 72
     5
 11
664.864319
 21
78.639252
 31
0.0
100
AcDbText
  0
TEXT
  5
1BE
330
1DA
100
AcDbEntity
  8
0
 62
     7
370
    13
390
F
100
AcDbText
 10
654.185425
 20
82.639252
 30
0.0
 40
2.0
  1
50÷80
 41
1.04148980769231
 72
     5
 11
663.21167
 21
82.639252
 31
0.0
100
AcDbText
  0
TEXT
  5
1BF
330
1DA
100
AcDbEntity
  8
0
 62
     7
370
    13
390
F
100
AcDbText
 10
654.185425
 20
86.639252
 30
0.0
 40
2.0
  1
30÷50
 41
1.04148980769231
 72
     5
 11
663.21167
 21
86.639252
 31
0.0
100
AcDbText
  0
TEXT
  5
1C0
330
1DA
100
AcDbEntity
  8
0
 62
     7
370
    13
390
F
100
AcDbText
 10
654.185425
 20
90.639252
 30
0.0
 40
2.0
  1
18÷30
 41
1.083149400000002
 72
     5
 11
663.21167
 21
90.639252
 31
0.0
100
AcDbText
  0
TEXT
  5
1C1
330
1DA
100
AcDbEntity
  8
0
 62
     7
370
    13
390
F
100
AcDbText
 10
655.838135
 20
98.639252
 30
0.0
 40
2.0
  1
0÷10
 41
1.186828500000009
 72
     5
 11
662.959106
 21
98.639252
 31
0.0
100
AcDbText
  0
TEXT
  5
1C2
330
1DA
100
AcDbEntity
  8
0
 62
     7
370
    13
390
F
100
AcDbText
 10
654.185425
 20
94.639252
 30
0.0
 40
2.0
  1
10÷18
 41
1.177336304347828
 72
     5
 11
663.21167
 21
94.639252
 31
0.0
100
AcDbText
  0
TEXT
  5
1C3
330
1DA
100
AcDbEntity
  8
0
 62
     7
370
    13
390
F
100
AcDbText
 10
652.624268
 20
103.912636
 30
0.0
 40
2.0
  1
DIM.
 41
1.166038499999985
 72
     5
 11
658.84314
 21
103.912636
 31
0.0
100
AcDbText
  0
TEXT
  5
1C4
330
1DA
100
AcDbEntity
  8
0
 62
     7
370
    13
390
F
100
AcDbText
 10
658.809814
 20
103.959457
 30
0.0
 40
2.0
  1
/Dim.
 41
1.184784000000013
 72
     5
 11
666.708374
 21
103.959457
 31
0.0
100
AcDbText
  0
TEXT
  5
1C5
330
1DA
100
AcDbEntity
  8
0
 62
     7
370
    13
390
F
100
AcDbText
 10
667.624268
 20
103.912636
 30
0.0
 40
2.0
  1
TOL.
 41
1.036478666666653
 72
     5
 11
673.84314
 21
103.912636
 31
0.0
100
AcDbText
  0
TEXT
  5
1C6
330
1DA
100
AcDbEntity
  8
0
 62
     7
370
    13
390
F
100
AcDbText
 10
673.809814
 20
103.959457
 30
0.0
 40
2.0
  1
/Tol.
 41
1.128365714285727
 72
     5
 11
681.708374
 21
103.959457
 31
0.0
100
AcDbText
  0
TEXT
  5
1C7
330
1DA
100
AcDbEntity
  8
0
 62
     7
370
    13
390
F
100
AcDbText
 10
685.700806
 20
20.243509
 30
0.0
 40
3.0
  1
RIFLETTORE CONCENTRANTE 2X55-80W
 41
1.069217735449736
 72
     5
 11
786.741882
 21
20.243509
 31
0.0
100
AcDbText
  0
TEXT
  5
1C8
330
1DA
100
AcDbEntity
  8
0
 62
     7
370
    13
390
F
100
AcDbText
 10
792.194641
 20
47.185036
 30
0.0
 40
1.5
  1
APPROVATO
 41
1.045211259259253
 72
     5
 11
806.304993
 21
47.185036
 31
0.0
100
AcDbText
  0
TEXT
  5
1C9
330
1DA
100
AcDbEntity
  8
0
 62
     7
370
    13
390
F
100
AcDbText
 10
806.645081
 20
47.158173
 30
0.0
 40
1.5
  1
/Approved
 41
0.8433133076923083
 72
     5
 11
817.608154
 21
47.158173
 31
0.0
100
AcDbText
  0
TEXT
  5
1CA
330
1DA
100
AcDbEntity
  8
0
 62
     7
370
    40
390
F
100
AcDbText
 10
812.245544
 20
42.174473
 30
0.0
 40
2.5
  1
LEGRENZI
 41
1.013888290909089
 72
     5
 11
830.833496
 21
42.174473
 31
0.0
100
AcDbText
  0
TEXT
  5
1CB
330
1DA
100
AcDbEntity
  8
0
 62
     7
370
    40
390
F
100
AcDbText
 10
812.524658
 20
50.443184
 30
0.0
 40
2.5
  1
LEGRENZI
 41
1.013888290909089
 72
     5
 11
831.11261
 21
50.443184
 31
0.0
100
AcDbText
  0
TEXT
  5
1CC
330
1DA
100
AcDbEntity
  8
0
 62
     7
370
    13
390
F
100
AcDbText
 10
668.273804
 20
98.639252
 30
0.0
 40
2.0
  1
%%p 0.05
 41
1.171227535714276
 72
     5
 11
679.205261
 21
98.639252
 31
0.0
100
AcDbText
  0
TEXT
  5
1CD
330
1DA
100
AcDbEntity
  8
0
 62
     7
370
    13
390
F
100
AcDbText
 10
668.526367
 20
94.639252
 30
0.0
 40
2.0
  1
%%p 0.1
 41
1.289463571428558
 72
     5
 11
677.552612
 21
94.639252
 31
0.0
100
AcDbText
  0
TEXT
  5
1CE
330
1DA
100
AcDbEntity
  8
0
 62
     7
370
    13
390
F
100
AcDbText
 10
668.526367
 20
90.639252
 30
0.0
 40
2.0
  1
%%p 0.1
 41
1.289463571428558
 72
     5
 11
677.552612
 21
90.639252
 31
0.0
100
AcDbText
  0
TEXT
  5
1CF
330
1DA
100
AcDbEntity
  8
0
 62
     7
370
    13
390
F
100
AcDbText
 10
667.573792
 20
86.639252
 30
0.0
 40
2.0
  1
%%p 0.25
 41
1.130840379310347
 72
     5
 11
678.505249
 21
86.639252
 31
0.0
100
AcDbText
  0
TEXT
  5
1D0
330
1DA
100
AcDbEntity
  8
0
 62
     7
370
    13
390
F
100
AcDbText
 10
667.573792
 20
82.639252
 30
0.0
 40
2.0
  1
%%p 0.25
 41
1.130840379310347
 72
     5
 11
678.505249
 21
82.639252
 31
0.0
100
AcDbText
  0
TEXT
  5
1D1
330
1DA
100
AcDbEntity
  8
0
 62
     7
370
    13
390
F
100
AcDbText
 10
669.22644
 20
78.639252
 30
0.0
 40
2.0
  1
%%p 0.5
 41
1.177336434782611
 72
     5
 11
678.252686
 21
78.639252
 31
0.0
100
AcDbText
  0
TEXT
  5
1D2
330
1DA
100
AcDbEntity
  8
0
 62
     7
370
    13
390
F
100
AcDbText
 10
667.573792
 20
74.639221
 30
0.0
 40
2.0
  1
%%p 0.75
 41
1.130840379310347
 72
     5
 11
678.505249
 21
74.639221
 31
0.0
100
AcDbText
  0
TEXT
  5
1D3
330
1DA
100
AcDbEntity
  8
0
 62
     7
370
    13
390
F
100
AcDbText
 10
667.573792
 20
70.639221
 30
0.0
 40
2.0
  1
%%p 0.75
 41
1.130840379310347
 72
     5
 11
678.505249
 21
70.639221
 31
0.0
100
AcDbText
  0
TEXT
  5
1D4
330
1DA
100
AcDbEntity
  8
0
 62
     7
370
    13
390
F
100
AcDbText
 10
668.526367
 20
66.639221
 30
0.0
 40
2.0
  1
%%p 1.5
 41
1.230851590909078
 72
     5
 11
677.552612
 21
66.639221
 31
0.0
100
AcDbText
  0
TEXT
  5
1D5
330
1DA
100
AcDbEntity
  8
0
 62
     7
370
    13
390
F
100
AcDbText
 10
668.526367
 20
62.639217
 30
0.0
 40
2.0
  1
%%p 1.5
 41
1.230851590909078
 72
     5
 11
677.552612
 21
62.639217
 31
0.0
100
AcDbText
  0
TEXT
  5
1D6
330
1DA
100
AcDbEntity
  8
0
 62
     7
370
    13
390
F
100
AcDbText
 10
668.553711
 20
58.668335
 30
0.0
 40
2.0
  1
%%p 1.5
 41
1.230851590909093
 72
     5
 11
677.579956
 21
58.668335
 31
0.0
100
AcDbText
  0
TEXT
  5
1D7
330
1DA
100
AcDbEntity
  8
0
 62
     7
370
    40
390
F
100
AcDbText
 10
676.296143
 20
109.439285
 30
0.0
 40
3.15
  1
B
 41
1.301152857142824
 72
     5
 11
679.028564
 21
109.439285
 31
0.0
100
AcDbText
  0
LINE
  5
1D8
330
1DA
100
AcDbEntity
  8
0
 62
     7
370
   100
390
F
100
AcDbLine
 10
831.194641
 20
114.568375
 30
0.0
 11
831.194641
 21
9.768369
 31
0.0
  0
ENDBLK
  5
605
330
1DA
100
AcDbEntity
  8
0
100
AcDbBlockEnd
  0
BLOCK
  5
606
330
1DE
100
AcDbEntity
  8
0
100
AcDbBlockBegin
  2
BLOCK122
 70
     0
 10
0.0
 20
0.0
 30
0.0
  3
BLOCK122
  1

  0
TEXT
  5
1DC
330
1DE
100
AcDbEntity
  8
0
 62
     7
370
    13
390
F
100
AcDbText
 10
832.632568
 20
547.0
 30
0.0
 40
2.0
  1
A
 41
1.301148000000012
 72
     5
 11
834.367432
 21
547.0
 31
0.0
100
AcDbText
  0
ENDBLK
  5
607
330
1DE
100
AcDbEntity
  8
0
100
AcDbBlockEnd
  0
BLOCK
  5
608
330
1E2
100
AcDbEntity
  8
0
100
AcDbBlockBegin
  2
BLOCK123
 70
     0
 10
0.0
 20
0.0
 30
0.0
  3
BLOCK123
  1

  0
TEXT
  5
1E0
330
1E2
100
AcDbEntity
  8
0
 62
     7
370
    13
390
F
100
AcDbText
 10
52.457352
 20
585.5
 30
0.0
 40
2.0
  1
1
 41
2.602306499999997
 72
     5
 11
54.192223
 21
585.5
 31
0.0
100
AcDbText
  0
ENDBLK
  5
609
330
1E2
100
AcDbEntity
  8
0
100
AcDbBlockEnd
  0
BLOCK
  5
60A
330
1E6
100
AcDbEntity
  8
0
100
AcDbBlockBegin
  2
BLOCK124
 70
     0
 10
0.0
 20
0.0
 30
0.0
  3
BLOCK124
  1

  0
TEXT
  5
1E4
330
1E6
100
AcDbEntity
  8
0
 62
     7
370
    13
390
F
100
AcDbText
 10
120.040688
 20
585.5
 30
0.0
 40
2.0
  1
2
 41
1.301152500000001
 72
     5
 11
121.775558
 21
585.5
 31
0.0
100
AcDbText
  0
ENDBLK
  5
60B
330
1E6
100
AcDbEntity
  8
0
100
AcDbBlockEnd
  0
BLOCK
  5
60C
330
1EA
100
AcDbEntity
  8
0
100
AcDbBlockBegin
  2
BLOCK125
 70
     0
 10
0.0
 20
0.0
 30
0.0
  3
BLOCK125
  1

  0
TEXT
  5
1E8
330
1EA
100
AcDbEntity
  8
0
 62
     7
370
    13
390
F
100
AcDbText
 10
187.624023
 20
585.5
 30
0.0
 40
2.0
  1
3
 41
1.301148000000012
 72
     5
 11
189.358887
 21
585.5
 31
0.0
100
AcDbText
  0
ENDBLK
  5
60D
330
1EA
100
AcDbEntity
  8
0
100
AcDbBlockEnd
  0
BLOCK
  5
60E
330
1EE
100
AcDbEntity
  8
0
100
AcDbBlockBegin
  2
BLOCK126
 70
     0
 10
0.0
 20
0.0
 30
0.0
  3
BLOCK126
  1

  0
TEXT
  5
1EC
330
1EE
100
AcDbEntity
  8
0
 62
     7
370
    13
390
F
100
AcDbText
 10
255.207367
 20
585.5
 30
0.0
 40
2.0
  1
4
 41
1.301147249999993
 72
     5
 11
256.94223
 21
585.5
 31
0.0
100
AcDbText
  0
ENDBLK
  5
60F
330
1EE
100
AcDbEntity
  8
0
100
AcDbBlockEnd
  0
BLOCK
  5
610
330
1F2
100
AcDbEntity
  8
0
100
AcDbBlockBegin
  2
BLOCK127
 70
     0
 10
0.0
 20
0.0
 30
0.0
  3
BLOCK127
  1

  0
TEXT
  5
1F0
330
1F2
100
AcDbEntity
  8
0
 62
     7
370
    13
390
F
100
AcDbText
 10
322.79068
 20
585.5
 30
0.0
 40
2.0
  1
5
 41
1.301147250000014
 72
     5
 11
324.525543
 21
585.5
 31
0.0
100
AcDbText
  0
ENDBLK
  5
611
330
1F2
100
AcDbEntity
  8
0
100
AcDbBlockEnd
  0
BLOCK
  5
612
330
1F6
100
AcDbEntity
  8
0
100
AcDbBlockBegin
  2
BLOCK128
 70
     0
 10
0.0
 20
0.0
 30
0.0
  3
BLOCK128
  1

  0
TEXT
  5
1F4
330
1F6
100
AcDbEntity
  8
0
 62
     7
370
    13
390
F
100
AcDbText
 10
390.374023
 20
585.5
 30
0.0
 40
2.0
  1
6
 41
1.301147999999969
 72
     5
 11
392.108887
 21
585.5
 31
0.0
100
AcDbText
  0
ENDBLK
  5
613
330
1F6
100
AcDbEntity
  8
0
100
AcDbBlockEnd
  0
BLOCK
  5
614
330
1FA
100
AcDbEntity
  8
0
100
AcDbBlockBegin
  2
BLOCK129
 70
     0
 10
0.0
 20
0.0
 30
0.0
  3
BLOCK129
  1

  0
TEXT
  5
1F8
330
1FA
100
AcDbEntity
  8
0
 62
     7
370
    13
390
F
100
AcDbText
 10
457.957367
 20
585.5
 30
0.0
 40
2.0
  1
7
 41
1.301147250000014
 72
     5
 11
459.69223
 21
585.5
 31
0.0
100
AcDbText
  0
ENDBLK
  5
615
330
1FA
100
AcDbEntity
  8
0
100
AcDbBlockEnd
  0
BLOCK
  5
616
330
1FE
100
AcDbEntity
  8
0
100
AcDbBlockBegin
  2
BLOCK130
 70
     0
 10
0.0
 20
0.0
 30
0.0
  3
BLOCK130
  1

  0
TEXT
  5
1FC
330
1FE
100
AcDbEntity
  8
0
 62
     7
370
    13
390
F
100
AcDbText
 10
525.54071
 20
585.5
 30
0.0
 40
2.0
  1
8
 41
1.301148000000012
 72
     5
 11
527.275574
 21
585.5
 31
0.0
100
AcDbText
  0
ENDBLK
  5
617
330
1FE
100
AcDbEntity
  8
0
100
AcDbBlockEnd
  0
BLOCK
  5
618
330
202
100
AcDbEntity
  8
0
100
AcDbBlockBegin
  2
BLOCK131
 70
     0
 10
0.0
 20
0.0
 30
0.0
  3
BLOCK131
  1

  0
TEXT
  5
200
330
202
100
AcDbEntity
  8
0
 62
     7
370
    13
390
F
100
AcDbText
 10
593.124023
 20
585.5
 30
0.0
 40
2.0
  1
9
 41
1.301148000000012
 72
     5
 11
594.858887
 21
585.5
 31
0.0
100
AcDbText
  0
ENDBLK
  5
619
330
202
100
AcDbEntity
  8
0
100
AcDbBlockEnd
  0
BLOCK
  5
61A
330
206
100
AcDbEntity
  8
0
100
AcDbBlockBegin
  2
BLOCK132
 70
     0
 10
0.0
 20
0.0
 30
0.0
  3
BLOCK132
  1

  0
TEXT
  5
204
330
206
100
AcDbEntity
  8
0
 62
     7
370
    13
390
F
100
AcDbText
 10
659.639893
 20
585.5
 30
0.0
 40
2.0
  1
10
 41
1.658464714285693
 72
     5
 11
663.509644
 21
585.5
 31
0.0
100
AcDbText
  0
ENDBLK
  5
61B
330
206
100
AcDbEntity
  8
0
100
AcDbBlockEnd
  0
BLOCK
  5
61C
330
20A
100
AcDbEntity
  8
0
100
AcDbBlockBegin
  2
BLOCK133
 70
     0
 10
0.0
 20
0.0
 30
0.0
  3
BLOCK133
  1

  0
TEXT
  5
208
330
20A
100
AcDbEntity
  8
0
 62
     7
370
    13
390
F
100
AcDbText
 10
727.223267
 20
585.5
 30
0.0
 40
2.0
  1
11
 41
1.934875500000032
 72
     5
 11
731.093018
 21
585.5
 31
0.0
100
AcDbText
  0
ENDBLK
  5
61D
330
20A
100
AcDbEntity
  8
0
100
AcDbBlockEnd
  0
BLOCK
  5
61E
330
20E
100
AcDbEntity
  8
0
100
AcDbBlockBegin
  2
BLOCK134
 70
     0
 10
0.0
 20
0.0
 30
0.0
  3
BLOCK134
  1

  0
TEXT
  5
20C
330
20E
100
AcDbEntity
  8
0
 62
     7
370
    13
390
F
100
AcDbText
 10
794.80658
 20
585.5
 30
0.0
 40
2.0
  1
12
 41
1.451156624999982
 72
     5
 11
798.676331
 21
585.5
 31
0.0
100
AcDbText
  0
ENDBLK
  5
61F
330
20E
100
AcDbEntity
  8
0
100
AcDbBlockEnd
  0
BLOCK
  5
620
330
212
100
AcDbEntity
  8
0
100
AcDbBlockBegin
  2
BLOCK135
 70
     0
 10
0.0
 20
0.0
 30
0.0
  3
BLOCK135
  1

  0
TEXT
  5
210
330
212
100
AcDbEntity
  8
0
 62
     7
370
    13
390
F
100
AcDbText
 10
832.632568
 20
475.25
 30
0.0
 40
2.0
  1
B
 41
1.301148000000012
 72
     5
 11
834.367432
 21
475.25
 31
0.0
100
AcDbText
  0
ENDBLK
  5
621
330
212
100
AcDbEntity
  8
0
100
AcDbBlockEnd
  0
BLOCK
  5
622
330
216
100
AcDbEntity
  8
0
100
AcDbBlockBegin
  2
BLOCK136
 70
     0
 10
0.0
 20
0.0
 30
0.0
  3
BLOCK136
  1

  0
TEXT
  5
214
330
216
100
AcDbEntity
  8
0
 62
     7
370
    13
390
F
100
AcDbText
 10
832.632568
 20
403.5
 30
0.0
 40
2.0
  1
C
 41
1.301148000000012
 72
     5
 11
834.367432
 21
403.5
 31
0.0
100
AcDbText
  0
ENDBLK
  5
623
330
216
100
AcDbEntity
  8
0
100
AcDbBlockEnd
  0
BLOCK
  5
624
330
21A
100
AcDbEntity
  8
0
100
AcDbBlockBegin
  2
BLOCK137
 70
     0
 10
0.0
 20
0.0
 30
0.0
  3
BLOCK137
  1

  0
TEXT
  5
218
330
21A
100
AcDbEntity
  8
0
 62
     7
370
    13
390
F
100
AcDbText
 10
832.632568
 20
331.75
 30
0.0
 40
2.0
  1
D
 41
1.301148000000012
 72
     5
 11
834.367432
 21
331.75
 31
0.0
100
AcDbText
  0
ENDBLK
  5
625
330
21A
100
AcDbEntity
  8
0
100
AcDbBlockEnd
  0
BLOCK
  5
626
330
21E
100
AcDbEntity
  8
0
100
AcDbBlockBegin
  2
BLOCK138
 70
     0
 10
0.0
 20
0.0
 30
0.0
  3
BLOCK138
  1

  0
TEXT
  5
21C
330
21E
100
AcDbEntity
  8
0
 62
     7
370
    13
390
F
100
AcDbText
 10
832.632568
 20
260.0
 30
0.0
 40
2.0
  1
E
 41
1.301148000000012
 72
     5
 11
834.367432
 21
260.0
 31
0.0
100
AcDbText
  0
ENDBLK
  5
627
330
21E
100
AcDbEntity
  8
0
100
AcDbBlockEnd
  0
BLOCK
  5
628
330
222
100
AcDbEntity
  8
0
100
AcDbBlockBegin
  2
BLOCK139
 70
     0
 10
0.0
 20
0.0
 30
0.0
  3
BLOCK139
  1

  0
TEXT
  5
220
330
222
100
AcDbEntity
  8
0
 62
     7
370
    13
390
F
100
AcDbText
 10
832.632568
 20
188.25
 30
0.0
 40
2.0
  1
F
 41
1.301148000000012
 72
     5
 11
834.367432
 21
188.25
 31
0.0
100
AcDbText
  0
ENDBLK
  5
629
330
222
100
AcDbEntity
  8
0
100
AcDbBlockEnd
  0
BLOCK
  5
62A
330
226
100
AcDbEntity
  8
0
100
AcDbBlockBegin
  2
BLOCK140
 70
     0
 10
0.0
 20
0.0
 30
0.0
  3
BLOCK140
  1

  0
TEXT
  5
224
330
226
100
AcDbEntity
  8
0
 62
     7
370
    13
390
F
100
AcDbText
 10
832.632568
 20
116.5
 30
0.0
 40
2.0
  1
G
 41
1.301148000000012
 72
     5
 11
834.367432
 21
116.5
 31
0.0
100
AcDbText
  0
ENDBLK
  5
62B
330
226
100
AcDbEntity
  8
0
100
AcDbBlockEnd
  0
BLOCK
  5
62C
330
22A
100
AcDbEntity
  8
0
100
AcDbBlockBegin
  2
BLOCK141
 70
     0
 10
0.0
 20
0.0
 30
0.0
  3
BLOCK141
  1

  0
TEXT
  5
228
330
22A
100
AcDbEntity
  8
0
 62
     7
370
    13
390
F
100
AcDbText
 10
832.632568
 20
44.75
 30
0.0
 40
2.0
  1
H
 41
1.301148000000012
 72
     5
 11
834.367432
 21
44.75
 31
0.0
100
AcDbText
  0
ENDBLK
  5
62D
330
22A
100
AcDbEntity
  8
0
100
AcDbBlockEnd
  0
BLOCK
  5
62E
330
22E
100
AcDbEntity
  8
0
100
AcDbBlockBegin
  2
BLOCK142
 70
     0
 10
0.0
 20
0.0
 30
0.0
  3
BLOCK142
  1

  0
TEXT
  5
22C
330
22E
100
AcDbEntity
  8
0
 62
     7
370
    13
390
F
100
AcDbText
 10
16.632565
 20
547.0
 30
0.0
 40
2.0
  1
A
 41
1.301152500000001
 72
     5
 11
18.367435
 21
547.0
 31
0.0
100
AcDbText
  0
ENDBLK
  5
62F
330
22E
100
AcDbEntity
  8
0
100
AcDbBlockEnd
  0
BLOCK
  5
630
330
232
100
AcDbEntity
  8
0
100
AcDbBlockBegin
  2
BLOCK143
 70
     0
 10
0.0
 20
0.0
 30
0.0
  3
BLOCK143
  1

  0
TEXT
  5
230
330
232
100
AcDbEntity
  8
0
 62
     7
370
    13
390
F
100
AcDbText
 10
16.632565
 20
475.25
 30
0.0
 40
2.0
  1
B
 41
1.301152500000001
 72
     5
 11
18.367435
 21
475.25
 31
0.0
100
AcDbText
  0
ENDBLK
  5
631
330
232
100
AcDbEntity
  8
0
100
AcDbBlockEnd
  0
BLOCK
  5
632
330
236
100
AcDbEntity
  8
0
100
AcDbBlockBegin
  2
BLOCK144
 70
     0
 10
0.0
 20
0.0
 30
0.0
  3
BLOCK144
  1

  0
TEXT
  5
234
330
236
100
AcDbEntity
  8
0
 62
     7
370
    13
390
F
100
AcDbText
 10
16.632565
 20
403.5
 30
0.0
 40
2.0
  1
C
 41
1.301152500000001
 72
     5
 11
18.367435
 21
403.5
 31
0.0
100
AcDbText
  0
ENDBLK
  5
633
330
236
100
AcDbEntity
  8
0
100
AcDbBlockEnd
  0
BLOCK
  5
634
330
23A
100
AcDbEntity
  8
0
100
AcDbBlockBegin
  2
BLOCK145
 70
     0
 10
0.0
 20
0.0
 30
0.0
  3
BLOCK145
  1

  0
TEXT
  5
238
330
23A
100
AcDbEntity
  8
0
 62
     7
370
    13
390
F
100
AcDbText
 10
16.632565
 20
331.75
 30
0.0
 40
2.0
  1
D
 41
1.301152500000001
 72
     5
 11
18.367435
 21
331.75
 31
0.0
100
AcDbText
  0
ENDBLK
  5
635
330
23A
100
AcDbEntity
  8
0
100
AcDbBlockEnd
  0
BLOCK
  5
636
330
23E
100
AcDbEntity
  8
0
100
AcDbBlockBegin
  2
BLOCK146
 70
     0
 10
0.0
 20
0.0
 30
0.0
  3
BLOCK146
  1

  0
TEXT
  5
23C
330
23E
100
AcDbEntity
  8
0
 62
     7
370
    13
390
F
100
AcDbText
 10
16.632565
 20
260.0
 30
0.0
 40
2.0
  1
E
 41
1.301152500000001
 72
     5
 11
18.367435
 21
260.0
 31
0.0
100
AcDbText
  0
ENDBLK
  5
637
330
23E
100
AcDbEntity
  8
0
100
AcDbBlockEnd
  0
BLOCK
  5
638
330
242
100
AcDbEntity
  8
0
100
AcDbBlockBegin
  2
BLOCK147
 70
     0
 10
0.0
 20
0.0
 30
0.0
  3
BLOCK147
  1

  0
TEXT
  5
240
330
242
100
AcDbEntity
  8
0
 62
     7
370
    13
390
F
100
AcDbText
 10
16.632565
 20
188.25
 30
0.0
 40
2.0
  1
F
 41
1.301152500000001
 72
     5
 11
18.367435
 21
188.25
 31
0.0
100
AcDbText
  0
ENDBLK
  5
639
330
242
100
AcDbEntity
  8
0
100
AcDbBlockEnd
  0
BLOCK
  5
63A
330
246
100
AcDbEntity
  8
0
100
AcDbBlockBegin
  2
BLOCK148
 70
     0
 10
0.0
 20
0.0
 30
0.0
  3
BLOCK148
  1

  0
TEXT
  5
244
330
246
100
AcDbEntity
  8
0
 62
     7
370
    13
390
F
100
AcDbText
 10
16.632565
 20
116.5
 30
0.0
 40
2.0
  1
G
 41
1.301152500000001
 72
     5
 11
18.367435
 21
116.5
 31
0.0
100
AcDbText
  0
ENDBLK
  5
63B
330
246
100
AcDbEntity
  8
0
100
AcDbBlockEnd
  0
BLOCK
  5
63C
330
24A
100
AcDbEntity
  8
0
100
AcDbBlockBegin
  2
BLOCK149
 70
     0
 10
0.0
 20
0.0
 30
0.0
  3
BLOCK149
  1

  0
TEXT
  5
248
330
24A
100
AcDbEntity
  8
0
 62
     7
370
    13
390
F
100
AcDbText
 10
16.632565
 20
44.75
 30
0.0
 40
2.0
  1
H
 41
1.301152500000001
 72
     5
 11
18.367435
 21
44.75
 31
0.0
100
AcDbText
  0
ENDBLK
  5
63D
330
24A
100
AcDbEntity
  8
0
100
AcDbBlockEnd
  0
BLOCK
  5
63E
330
24E
100
AcDbEntity
  8
0
100
AcDbBlockBegin
  2
BLOCK150
 70
     0
 10
0.0
 20
0.0
 30
0.0
  3
BLOCK150
  1

  0
TEXT
  5
24C
330
24E
100
AcDbEntity
  8
0
 62
     7
370
    13
390
F
100
AcDbText
 10
794.80658
 20
6.5
 30
0.0
 40
2.0
  1
12
 41
1.451156624999982
 72
     5
 11
798.676331
 21
6.5
 31
0.0
100
AcDbText
  0
ENDBLK
  5
63F
330
24E
100
AcDbEntity
  8
0
100
AcDbBlockEnd
  0
BLOCK
  5
640
330
252
100
AcDbEntity
  8
0
100
AcDbBlockBegin
  2
BLOCK151
 70
     0
 10
0.0
 20
0.0
 30
0.0
  3
BLOCK151
  1

  0
TEXT
  5
250
330
252
100
AcDbEntity
  8
0
 62
     7
370
    13
390
F
100
AcDbText
 10
727.223267
 20
6.5
 30
0.0
 40
2.0
  1
11
 41
1.934875500000032
 72
     5
 11
731.093018
 21
6.5
 31
0.0
100
AcDbText
  0
ENDBLK
  5
641
330
252
100
AcDbEntity
  8
0
100
AcDbBlockEnd
  0
BLOCK
  5
642
330
256
100
AcDbEntity
  8
0
100
AcDbBlockBegin
  2
BLOCK152
 70
     0
 10
0.0
 20
0.0
 30
0.0
  3
BLOCK152
  1

  0
TEXT
  5
254
330
256
100
AcDbEntity
  8
0
 62
     7
370
    13
390
F
100
AcDbText
 10
659.639893
 20
6.5
 30
0.0
 40
2.0
  1
10
 41
1.658464714285693
 72
     5
 11
663.509644
 21
6.5
 31
0.0
100
AcDbText
  0
ENDBLK
  5
643
330
256
100
AcDbEntity
  8
0
100
AcDbBlockEnd
  0
BLOCK
  5
644
330
25A
100
AcDbEntity
  8
0
100
AcDbBlockBegin
  2
BLOCK153
 70
     0
 10
0.0
 20
0.0
 30
0.0
  3
BLOCK153
  1

  0
TEXT
  5
258
330
25A
100
AcDbEntity
  8
0
 62
     7
370
    13
390
F
100
AcDbText
 10
593.124023
 20
6.5
 30
0.0
 40
2.0
  1
9
 41
1.301148000000012
 72
     5
 11
594.858887
 21
6.5
 31
0.0
100
AcDbText
  0
ENDBLK
  5
645
330
25A
100
AcDbEntity
  8
0
100
AcDbBlockEnd
  0
BLOCK
  5
646
330
25E
100
AcDbEntity
  8
0
100
AcDbBlockBegin
  2
BLOCK154
 70
     0
 10
0.0
 20
0.0
 30
0.0
  3
BLOCK154
  1

  0
TEXT
  5
25C
330
25E
100
AcDbEntity
  8
0
 62
     7
370
    13
390
F
100
AcDbText
 10
525.54071
 20
6.5
 30
0.0
 40
2.0
  1
8
 41
1.301148000000012
 72
     5
 11
527.275574
 21
6.5
 31
0.0
100
AcDbText
  0
ENDBLK
  5
647
330
25E
100
AcDbEntity
  8
0
100
AcDbBlockEnd
  0
BLOCK
  5
648
330
262
100
AcDbEntity
  8
0
100
AcDbBlockBegin
  2
BLOCK155
 70
     0
 10
0.0
 20
0.0
 30
0.0
  3
BLOCK155
  1

  0
TEXT
  5
260
330
262
100
AcDbEntity
  8
0
 62
     7
370
    13
390
F
100
AcDbText
 10
457.957367
 20
6.5
 30
0.0
 40
2.0
  1
7
 41
1.301147250000014
 72
     5
 11
459.69223
 21
6.5
 31
0.0
100
AcDbText
  0
ENDBLK
  5
649
330
262
100
AcDbEntity
  8
0
100
AcDbBlockEnd
  0
BLOCK
  5
64A
330
266
100
AcDbEntity
  8
0
100
AcDbBlockBegin
  2
BLOCK156
 70
     0
 10
0.0
 20
0.0
 30
0.0
  3
BLOCK156
  1

  0
TEXT
  5
264
330
266
100
AcDbEntity
  8
0
 62
     7
370
    13
390
F
100
AcDbText
 10
390.374023
 20
6.5
 30
0.0
 40
2.0
  1
6
 41
1.301147999999969
 72
     5
 11
392.108887
 21
6.5
 31
0.0
100
AcDbText
  0
ENDBLK
  5
64B
330
266
100
AcDbEntity
  8
0
100
AcDbBlockEnd
  0
BLOCK
  5
64C
330
26A
100
AcDbEntity
  8
0
100
AcDbBlockBegin
  2
BLOCK157
 70
     0
 10
0.0
 20
0.0
 30
0.0
  3
BLOCK157
  1

  0
TEXT
  5
268
330
26A
100
AcDbEntity
  8
0
 62
     7
370
    13
390
F
100
AcDbText
 10
322.79068
 20
6.5
 30
0.0
 40
2.0
  1
5
 41
1.301147250000014
 72
     5
 11
324.525543
 21
6.5
 31
0.0
100
AcDbText
  0
ENDBLK
  5
64D
330
26A
100
AcDbEntity
  8
0
100
AcDbBlockEnd
  0
BLOCK
  5
64E
330
26E
100
AcDbEntity
  8
0
100
AcDbBlockBegin
  2
BLOCK158
 70
     0
 10
0.0
 20
0.0
 30
0.0
  3
BLOCK158
  1

  0
TEXT
  5
26C
330
26E
100
AcDbEntity
  8
0
 62
     7
370
    13
390
F
100
AcDbText
 10
255.207367
 20
6.5
 30
0.0
 40
2.0
  1
4
 41
1.301147249999993
 72
     5
 11
256.94223
 21
6.5
 31
0.0
100
AcDbText
  0
ENDBLK
  5
64F
330
26E
100
AcDbEntity
  8
0
100
AcDbBlockEnd
  0
BLOCK
  5
650
330
272
100
AcDbEntity
  8
0
100
AcDbBlockBegin
  2
BLOCK159
 70
     0
 10
0.0
 20
0.0
 30
0.0
  3
BLOCK159
  1

  0
TEXT
  5
270
330
272
100
AcDbEntity
  8
0
 62
     7
370
    13
390
F
100
AcDbText
 10
187.624023
 20
6.5
 30
0.0
 40
2.0
  1
3
 41
1.301148000000012
 72
     5
 11
189.358887
 21
6.5
 31
0.0
100
AcDbText
  0
ENDBLK
  5
651
330
272
100
AcDbEntity
  8
0
100
AcDbBlockEnd
  0
BLOCK
  5
652
330
276
100
AcDbEntity
  8
0
100
AcDbBlockBegin
  2
BLOCK160
 70
     0
 10
0.0
 20
0.0
 30
0.0
  3
BLOCK160
  1

  0
TEXT
  5
274
330
276
100
AcDbEntity
  8
0
 62
     7
370
    13
390
F
100
AcDbText
 10
120.040688
 20
6.5
 30
0.0
 40
2.0
  1
2
 41
1.301152500000001
 72
     5
 11
121.775558
 21
6.5
 31
0.0
100
AcDbText
  0
ENDBLK
  5
653
330
276
100
AcDbEntity
  8
0
100
AcDbBlockEnd
  0
BLOCK
  5
654
330
27A
100
AcDbEntity
  8
0
100
AcDbBlockBegin
  2
BLOCK161
 70
     0
 10
0.0
 20
0.0
 30
0.0
  3
BLOCK161
  1

  0
TEXT
  5
278
330
27A
100
AcDbEntity
  8
0
 62
     7
370
    13
390
F
100
AcDbText
 10
52.457352
 20
6.5
 30
0.0
 40
2.0
  1
1
 41
2.602306499999997
 72
     5
 11
54.192223
 21
6.5
 31
0.0
100
AcDbText
  0
ENDBLK
  5
655
330
27A
100
AcDbEntity
  8
0
100
AcDbBlockEnd
  0
BLOCK
  5
656
330
280
100
AcDbEntity
  8
0
100
AcDbBlockBegin
  2
BLOCK162
 70
     0
 10
0.0
 20
0.0
 30
0.0
  3
BLOCK162
  1

  0
TEXT
  5
27C
330
280
100
AcDbEntity
  8
0
 62
     7
370
    13
390
F
100
AcDbText
 10
6.543763
 20
147.493759
 30
0.0
 40
2.0
  1
GEWISS SpA reserve all rights in this document and in the information
 50
90.00000287182327
 41
0.9401000261780119
 72
     5
 11
6.543757
 21
267.199829
 31
0.0
100
AcDbText
  0
TEXT
  5
27D
330
280
100
AcDbEntity
  8
0
 62
     7
370
    13
390
F
100
AcDbText
 10
9.999094
 20
147.493759
 30
0.0
 40
2.0
  1
contained therein. Reproduction, use or disclosure to third parties
 50
90.00000246462413
 41
0.9527569180327877
 72
     5
 11
9.999089
 21
263.730103
 31
0.0
100
AcDbText
  0
TEXT
  5
27E
330
280
100
AcDbEntity
  8
0
 62
     7
370
    13
390
F
100
AcDbText
 10
13.454425
 20
147.493759
 30
0.0
 40
2.0
  1
without written authorization is stricty forbidden
 50
90.0000026420769
 41
0.9638171777777785
 72
     5
 11
13.454421
 21
234.237305
 31
0.0
100
AcDbText
  0
ENDBLK
  5
657
330
280
100
AcDbEntity
  8
0
100
AcDbBlockEnd
  0
BLOCK
  5
658
330
286
100
AcDbEntity
  8
0
100
AcDbBlockBegin
  2
BLOCK163
 70
     0
 10
0.0
 20
0.0
 30
0.0
  3
BLOCK163
  1

  0
TEXT
  5
282
330
286
100
AcDbEntity
  8
0
 62
     7
370
    13
390
F
100
AcDbText
 10
6.701831
 20
9.96806
 30
0.0
 40
2.0
  1
GEWISS SpA si riserva tutti i diritti sul presente documento
 50
90.00000275216357
 41
0.954974770642203
 72
     5
 11
6.701826
 21
114.06031
 31
0.0
100
AcDbText
  0
TEXT
  5
283
330
286
100
AcDbEntity
  8
0
 62
     7
370
    13
390
F
100
AcDbText
 10
10.157163
 20
9.96806
 30
0.0
 40
2.0
  1
e con quanto rappresentato.E'vietato riprodurlo,utilizzarlo
 50
90.00000279881041
 41
0.9686818201892755
 72
     5
 11
10.157158
 21
112.325439
 31
0.0
100
AcDbText
  0
TEXT
  5
284
330
286
100
AcDbEntity
  8
0
 62
     7
370
    13
390
F
100
AcDbText
 10
13.612494
 20
9.968061
 30
0.0
 40
2.0
  1
renderlo accessibile a terzi senza autorizzazione scritta
 50
90.0000028970143
 41
0.9569771322580658
 72
     5
 11
13.612489
 21
108.855698
 31
0.0
100
AcDbText
  0
ENDBLK
  5
659
330
286
100
AcDbEntity
  8
0
100
AcDbBlockEnd
  0
BLOCK
  5
65A
330
28A
100
AcDbEntity
  8
0
100
AcDbBlockBegin
  2
BLOCK164
 70
     0
 10
0.0
 20
0.0
 30
0.0
  3
BLOCK164
  1

  0
TEXT
  5
288
330
28A
100
AcDbEntity
  8
0
 62
     7
370
    13
390
F
100
AcDbText
 10
-141.088928
 20
-182.297379
 30
0.0
 40
5.0
  1
SMOOTH SIDE
 41
0.9233988
 72
     5
 11
-93.37999
 21
-182.297379
 31
0.0
100
AcDbText
  0
ENDBLK
  5
65B
330
28A
100
AcDbEntity
  8
0
100
AcDbBlockEnd
  0
BLOCK
  5
65C
330
295
100
AcDbEntity
  8
0
100
AcDbBlockBegin
  2
BLOCK165
 70
     0
 10
0.0
 20
0.0
 30
0.0
  3
BLOCK165
  1

  0
SOLID
  5
28C
330
295
100
AcDbEntity
  8
0
 62
     7
370
    13
390
F
100
AcDbTrace
 10
70.863701
 20
153.060577
 30
0.0
 11
67.0
 21
152.025299
 31
0.0
 12
70.863701
 22
153.060577
 32
0.0
 13
70.863701
 23
150.990021
 33
0.0
  0
SOLID
  5
28D
330
295
100
AcDbEntity
  8
0
 62
     7
370
    13
390
F
100
AcDbTrace
 10
1133.136353
 20
150.990021
 30
0.0
 11
1137.0
 21
152.025299
 31
0.0
 12
1133.136353
 22
150.990021
 32
0.0
 13
1133.136353
 23
153.060577
 33
0.0
  0
TEXT
  5
28E
330
295
100
AcDbEntity
  8
0
 62
     7
370
    13
390
F
100
AcDbText
 10
571.819641
 20
156.025299
 30
0.0
 40
6.0
  1
1070
 41
1.356580944444444
 72
     5
 11
596.238098
 21
156.025299
 31
0.0
100
AcDbText
  0
LINE
  5
28F
330
295
100
AcDbEntity
  8
0
 62
     7
370
    13
390
F
100
AcDbLine
 10
67.0
 20
42.785725
 30
0.0
 11
67.0
 21
156.025299
 31
0.0
  0
LINE
  5
290
330
295
100
AcDbEntity
  8
0
 62
     7
370
    13
390
F
100
AcDbLine
 10
1137.0
 20
42.785725
 30
0.0
 11
1137.0
 21
156.025299
 31
0.0
  0
LINE
  5
291
330
295
100
AcDbEntity
  8
0
 62
     7
370
    13
390
F
100
AcDbLine
 10
70.863701
 20
152.025299
 30
0.0
 11
1133.136353
 21
152.025299
 31
0.0
  0
LWPOLYLINE
  5
292
330
295
100
AcDbEntity
  8
0
 62
     7
370
    13
390
F
100
AcDbPolyline
 90
        3
 70
     1
 43
0.0
 10
70.863701
 20
153.060577
 10
67.0
 20
152.025299
 10
70.863701
 20
150.990021
  0
LWPOLYLINE
  5
293
330
295
100
AcDbEntity
  8
0
 62
     7
370
    13
390
F
100
AcDbPolyline
 90
        3
 70
     1
 43
0.0
 10
1133.136353
 20
150.990021
 10
1137.0
 20
152.025299
 10
1133.136353
 20
153.060577
  0
ENDBLK
  5
65D
330
295
100
AcDbEntity
  8
0
100
AcDbBlockEnd
  0
BLOCK
  5
65E
330
2A2
100
AcDbEntity
  8
0
100
AcDbBlockBegin
  2
BLOCK166
 70
     0
 10
0.0
 20
0.0
 30
0.0
  3
BLOCK166
  1

  0
SOLID
  5
297
330
2A2
100
AcDbEntity
  8
0
 62
     7
370
    13
390
F
100
AcDbTrace
 10
63.136295
 20
-101.512238
 30
0.0
 11
67.0
 21
-100.476959
 31
0.0
 12
63.136295
 22
-101.512238
 32
0.0
 13
63.136295
 23
-99.441681
 33
0.0
  0
SOLID
  5
298
330
2A2
100
AcDbEntity
  8
0
 62
     7
370
    13
390
F
100
AcDbTrace
 10
80.863701
 20
-99.441681
 30
0.0
 11
77.0
 21
-100.476959
 31
0.0
 12
80.863701
 22
-99.441681
 32
0.0
 13
80.863701
 23
-101.512238
 33
0.0
  0
TEXT
  5
299
330
2A2
100
AcDbEntity
  8
0
 62
     7
370
    13
390
F
100
AcDbText
 10
28.633732
 20
-96.476959
 30
0.0
 40
6.0
  1
10
 41
1.658460285714286
 72
     5
 11
40.242954
 21
-96.476959
 31
0.0
100
AcDbText
  0
LINE
  5
29A
330
2A2
100
AcDbEntity
  8
0
 62
     7
370
    13
390
F
100
AcDbLine
 10
67.0
 20
-4.5
 30
0.0
 11
67.0
 21
-104.476959
 31
0.0
  0
LINE
  5
29B
330
2A2
100
AcDbEntity
  8
0
 62
     7
370
    13
390
F
100
AcDbLine
 10
77.0
 20
-9.0
 30
0.0
 11
77.0
 21
-104.476959
 31
0.0
  0
LINE
  5
29C
330
2A2
100
AcDbEntity
  8
0
 62
     7
370
    13
390
F
100
AcDbLine
 10
28.633732
 20
-100.476959
 30
0.0
 11
63.136295
 21
-100.476959
 31
0.0
  0
LINE
  5
29D
330
2A2
100
AcDbEntity
  8
0
 62
     7
 48
0.25
370
    13
390
F
100
AcDbLine
 10
67.0
 20
-100.476959
 30
0.0
 11
77.0
 21
-100.476959
 31
0.0
  0
LINE
  5
29E
330
2A2
100
AcDbEntity
  8
0
 62
     7
 48
0.153407
370
    13
390
F
100
AcDbLine
 10
80.863701
 20
-100.476959
 30
0.0
 11
87.0
 21
-100.476959
 31
0.0
  0
LWPOLYLINE
  5
29F
330
2A2
100
AcDbEntity
  8
0
 62
     7
370
    13
390
F
100
AcDbPolyline
 90
        3
 70
     1
 43
0.0
 10
63.136295
 20
-101.512238
 10
67.0
 20
-100.476959
 10
63.136295
 20
-99.441681
  0
LWPOLYLINE
  5
2A0
330
2A2
100
AcDbEntity
  8
0
 62
     7
370
    13
390
F
100
AcDbPolyline
 90
        3
 70
     1
 43
0.0
 10
80.863701
 20
-99.441681
 10
77.0
 20
-100.476959
 10
80.863701
 20
-101.512238
  0
ENDBLK
  5
65F
330
2A2
100
AcDbEntity
  8
0
100
AcDbBlockEnd
  0
BLOCK
  5
660
330
2AE
100
AcDbEntity
  8
0
100
AcDbBlockBegin
  2
BLOCK167
 70
     0
 10
0.0
 20
0.0
 30
0.0
  3
BLOCK167
  1

  0
SOLID
  5
2A4
330
2AE
100
AcDbEntity
  8
0
 62
     7
370
    13
390
F
100
AcDbTrace
 10
78.136299
 20
-124.205353
 30
0.0
 11
82.0
 21
-123.170074
 31
0.0
 12
78.136299
 22
-124.205353
 32
0.0
 13
78.136299
 23
-122.134796
 33
0.0
  0
SOLID
  5
2A5
330
2AE
100
AcDbEntity
  8
0
 62
     7
370
    13
390
F
100
AcDbTrace
 10
70.863701
 20
-122.134796
 30
0.0
 11
67.0
 21
-123.170074
 31
0.0
 12
70.863701
 22
-122.134796
 32
0.0
 13
70.863701
 23
-124.205353
 33
0.0
  0
TEXT
  5
2A6
330
2AE
100
AcDbEntity
  8
0
 62
     7
370
    13
390
F
100
AcDbText
 10
28.019413
 20
-119.170074
 30
0.0
 40
6.0
  1
15
 41
1.45115275
 72
     5
 11
39.628635
 21
-119.170074
 31
0.0
100
AcDbText
  0
LINE
  5
2A7
330
2AE
100
AcDbEntity
  8
0
 62
     7
370
    13
390
F
100
AcDbLine
 10
67.0
 20
-18.304348
 30
0.0
 11
67.0
 21
-127.170074
 31
0.0
  0
LINE
  5
2A8
330
2AE
100
AcDbEntity
  8
0
 62
     7
370
    13
390
F
100
AcDbLine
 10
82.0
 20
-13.0
 30
0.0
 11
82.0
 21
-127.170074
 31
0.0
  0
LINE
  5
2A9
330
2AE
100
AcDbEntity
  8
0
 62
     7
370
    13
390
F
100
AcDbLine
 10
28.019413
 20
-123.170074
 30
0.0
 11
67.0
 21
-123.170074
 31
0.0
  0
LINE
  5
2AA
330
2AE
100
AcDbEntity
  8
0
 62
     7
 48
0.181815
370
    13
390
F
100
AcDbLine
 10
70.863701
 20
-123.170074
 30
0.0
 11
78.136299
 21
-123.170074
 31
0.0
  0
LWPOLYLINE
  5
2AB
330
2AE
100
AcDbEntity
  8
0
 62
     7
370
    13
390
F
100
AcDbPolyline
 90
        3
 70
     1
 43
0.0
 10
78.136299
 20
-124.205353
 10
82.0
 20
-123.170074
 10
78.136299
 20
-122.134796
  0
LWPOLYLINE
  5
2AC
330
2AE
100
AcDbEntity
  8
0
 62
     7
370
    13
390
F
100
AcDbPolyline
 90
        3
 70
     1
 43
0.0
 10
70.863701
 20
-122.134796
 10
67.0
 20
-123.170074
 10
70.863701
 20
-124.205353
  0
ENDBLK
  5
661
330
2AE
100
AcDbEntity
  8
0
100
AcDbBlockEnd
  0
BLOCK
  5
662
330
2BB
100
AcDbEntity
  8
0
100
AcDbBlockBegin
  2
BLOCK168
 70
     0
 10
0.0
 20
0.0
 30
0.0
  3
BLOCK168
  1

  0
SOLID
  5
2B0
330
2BB
100
AcDbEntity
  8
0
 62
     7
370
    13
390
F
100
AcDbTrace
 10
-0.325083
 20
8.363704
 30
0.0
 11
0.710194
 21
4.5
 31
0.0
 12
-0.325083
 22
8.363704
 32
0.0
 13
1.74547
 23
8.363704
 33
0.0
  0
SOLID
  5
2B1
330
2BB
100
AcDbEntity
  8
0
 62
     7
370
    13
390
F
100
AcDbTrace
 10
1.74547
 20
-8.363704
 30
0.0
 11
0.710194
 21
-4.5
 31
0.0
 12
1.74547
 22
-8.363704
 32
0.0
 13
-0.325083
 23
-8.363704
 33
0.0
  0
TEXT
  5
2B2
330
2BB
100
AcDbEntity
  8
0
 62
     7
370
    13
390
F
100
AcDbText
 10
-3.289806
 20
39.21352
 30
0.0
 40
6.0
  1
9
 50
90.0
 41
1.301153249999999
 72
     5
 11
-3.289806
 21
44.418133
 31
0.0
100
AcDbText
  0
LINE
  5
2B3
330
2BB
100
AcDbEntity
  8
0
 62
     7
370
    13
390
F
100
AcDbLine
 10
67.0
 20
-4.5
 30
0.0
 11
-3.289806
 21
-4.5
 31
0.0
  0
LINE
  5
2B4
330
2BB
100
AcDbEntity
  8
0
 62
     7
370
    13
390
F
100
AcDbLine
 10
67.0
 20
4.5
 30
0.0
 11
-3.289806
 21
4.5
 31
0.0
  0
LINE
  5
2B5
330
2BB
100
AcDbEntity
  8
0
 62
     7
 48
0.153407
370
    13
390
F
100
AcDbLine
 10
0.710194
 20
-14.5
 30
0.0
 11
0.710194
 21
-8.363704
 31
0.0
  0
LINE
  5
2B6
330
2BB
100
AcDbEntity
  8
0
 62
     7
 48
0.225
370
    13
390
F
100
AcDbLine
 10
0.710194
 20
-4.5
 30
0.0
 11
0.710194
 21
4.5
 31
0.0
  0
LINE
  5
2B7
330
2BB
100
AcDbEntity
  8
0
 62
     7
370
    13
390
F
100
AcDbLine
 10
0.710194
 20
8.363704
 30
0.0
 11
0.710194
 21
44.418133
 31
0.0
  0
LWPOLYLINE
  5
2B8
330
2BB
100
AcDbEntity
  8
0
 62
     7
370
    13
390
F
100
AcDbPolyline
 90
        3
 70
     1
 43
0.0
 10
-0.325083
 20
8.363704
 10
0.710194
 20
4.5
 10
1.74547
 20
8.363704
  0
LWPOLYLINE
  5
2B9
330
2BB
100
AcDbEntity
  8
0
 62
     7
370
    13
390
F
100
AcDbPolyline
 90
        3
 70
     1
 43
0.0
 10
1.74547
 20
-8.363704
 10
0.710194
 20
-4.5
 10
-0.325083
 20
-8.363704
  0
ENDBLK
  5
663
330
2BB
100
AcDbEntity
  8
0
100
AcDbBlockEnd
  0
BLOCK
  5
664
330
2C7
100
AcDbEntity
  8
0
100
AcDbBlockBegin
  2
BLOCK169
 70
     0
 10
0.0
 20
0.0
 30
0.0
  3
BLOCK169
  1

  0
SOLID
  5
2BD
330
2C7
100
AcDbEntity
  8
0
 62
     7
370
    13
390
F
100
AcDbTrace
 10
-26.513624
 20
5.136297
 30
0.0
 11
-27.548901
 21
9.0
 31
0.0
 12
-26.513624
 22
5.136297
 32
0.0
 13
-28.584177
 23
5.136297
 33
0.0
  0
SOLID
  5
2BE
330
2C7
100
AcDbEntity
  8
0
 62
     7
370
    13
390
F
100
AcDbTrace
 10
-28.584177
 20
-5.136297
 30
0.0
 11
-27.548901
 21
-9.0
 31
0.0
 12
-28.584177
 22
-5.136297
 32
0.0
 13
-26.513624
 23
-5.136297
 33
0.0
  0
TEXT
  5
2BF
330
2C7
100
AcDbEntity
  8
0
 62
     7
370
    13
390
F
100
AcDbText
 10
-31.548901
 20
32.331223
 30
0.0
 40
6.0
  1
18
 50
90.0
 41
1.451152749999999
 72
     5
 11
-31.548901
 21
43.940445
 31
0.0
100
AcDbText
  0
LINE
  5
2C0
330
2C7
100
AcDbEntity
  8
0
 62
     7
370
    13
390
F
100
AcDbLine
 10
77.0
 20
-9.0
 30
0.0
 11
-31.548901
 21
-9.0
 31
0.0
  0
LINE
  5
2C1
330
2C7
100
AcDbEntity
  8
0
 62
     7
370
    13
390
F
100
AcDbLine
 10
77.0
 20
9.0
 30
0.0
 11
-31.548901
 21
9.0
 31
0.0
  0
LINE
  5
2C2
330
2C7
100
AcDbEntity
  8
0
 62
     7
 48
0.256815
370
    13
390
F
100
AcDbLine
 10
-27.548901
 20
-5.136297
 30
0.0
 11
-27.548901
 21
5.136297
 31
0.0
  0
LINE
  5
2C3
330
2C7
100
AcDbEntity
  8
0
 62
     7
370
    13
390
F
100
AcDbLine
 10
-27.548901
 20
9.0
 30
0.0
 11
-27.548901
 21
43.940445
 31
0.0
  0
LWPOLYLINE
  5
2C4
330
2C7
100
AcDbEntity
  8
0
 62
     7
370
    13
390
F
100
AcDbPolyline
 90
        3
 70
     1
 43
0.0
 10
-26.513624
 20
5.136297
 10
-27.548901
 20
9.0
 10
-28.584177
 20
5.136297
  0
LWPOLYLINE
  5
2C5
330
2C7
100
AcDbEntity
  8
0
 62
     7
370
    13
390
F
100
AcDbPolyline
 90
        3
 70
     1
 43
0.0
 10
-28.584177
 20
-5.136297
 10
-27.548901
 20
-9.0
 10
-26.513624
 20
-5.136297
  0
ENDBLK
  5
665
330
2C7
100
AcDbEntity
  8
0
100
AcDbBlockEnd
  0
BLOCK
  5
666
330
2D3
100
AcDbEntity
  8
0
100
AcDbBlockBegin
  2
BLOCK170
 70
     0
 10
0.0
 20
0.0
 30
0.0
  3
BLOCK170
  1

  0
SOLID
  5
2C9
330
2D3
100
AcDbEntity
  8
0
 62
     7
370
    13
390
F
100
AcDbTrace
 10
-52.929703
 20
7.136297
 30
0.0
 11
-53.964977
 21
11.0
 31
0.0
 12
-52.929703
 22
7.136297
 32
0.0
 13
-55.000252
 23
7.136297
 33
0.0
  0
SOLID
  5
2CA
330
2D3
100
AcDbEntity
  8
0
 62
     7
370
    13
390
F
100
AcDbTrace
 10
-55.000252
 20
-7.136297
 30
0.0
 11
-53.964977
 21
-11.0
 31
0.0
 12
-55.000252
 22
-7.136297
 32
0.0
 13
-52.929703
 23
-7.136297
 33
0.0
  0
TEXT
  5
2CB
330
2D3
100
AcDbEntity
  8
0
 62
     7
370
    13
390
F
100
AcDbText
 10
-57.964977
 20
32.944565
 30
0.0
 40
6.0
  1
22
 50
90.0
 41
1.1609222
 72
     5
 11
-57.964977
 21
44.553787
 31
0.0
100
AcDbText
  0
LINE
  5
2CC
330
2D3
100
AcDbEntity
  8
0
 62
     7
370
    13
390
F
100
AcDbLine
 10
67.0
 20
-11.0
 30
0.0
 11
-57.964977
 21
-11.0
 31
0.0
  0
LINE
  5
2CD
330
2D3
100
AcDbEntity
  8
0
 62
     7
370
    13
390
F
100
AcDbLine
 10
67.0
 20
11.0
 30
0.0
 11
-57.964977
 21
11.0
 31
0.0
  0
LINE
  5
2CE
330
2D3
100
AcDbEntity
  8
0
 62
     7
 48
0.356815
370
    13
390
F
100
AcDbLine
 10
-53.964977
 20
-7.136297
 30
0.0
 11
-53.964977
 21
7.136297
 31
0.0
  0
LINE
  5
2CF
330
2D3
100
AcDbEntity
  8
0
 62
     7
370
    13
390
F
100
AcDbLine
 10
-53.964977
 20
11.0
 30
0.0
 11
-53.964977
 21
44.553787
 31
0.0
  0
LWPOLYLINE
  5
2D0
330
2D3
100
AcDbEntity
  8
0
 62
     7
370
    13
390
F
100
AcDbPolyline
 90
        3
 70
     1
 43
0.0
 10
-52.929703
 20
7.136297
 10
-53.964977
 20
11.0
 10
-55.000252
 20
7.136297
  0
LWPOLYLINE
  5
2D1
330
2D3
100
AcDbEntity
  8
0
 62
     7
370
    13
390
F
100
AcDbPolyline
 90
        3
 70
     1
 43
0.0
 10
-55.000252
 20
-7.136297
 10
-53.964977
 20
-11.0
 10
-52.929703
 20
-7.136297
  0
ENDBLK
  5
667
330
2D3
100
AcDbEntity
  8
0
100
AcDbBlockEnd
  0
BLOCK
  5
668
330
2E3
100
AcDbEntity
  8
0
100
AcDbBlockBegin
  2
BLOCK171
 70
     0
 10
0.0
 20
0.0
 30
0.0
  3
BLOCK171
  1

  0
SOLID
  5
2D5
330
2E3
100
AcDbEntity
  8
0
 62
     7
370
    13
390
F
100
AcDbTrace
 10
43.253624
 20
16.863703
 30
0.0
 11
44.288898
 21
13.0
 31
0.0
 12
43.253624
 22
16.863703
 32
0.0
 13
45.324173
 23
16.863703
 33
0.0
  0
SOLID
  5
2D6
330
2E3
100
AcDbEntity
  8
0
 62
     7
370
    13
390
F
100
AcDbTrace
 10
45.324173
 20
7.136297
 30
0.0
 11
44.288898
 21
11.0
 31
0.0
 12
45.324173
 22
7.136297
 32
0.0
 13
43.253624
 23
7.136297
 33
0.0
  0
TEXT
  5
2D7
330
2E3
100
AcDbEntity
  8
0
 62
     7
370
    13
390
F
100
AcDbText
 10
40.288898
 20
27.6201
 30
0.0
 40
5.0
  1
2
 50
90.0
 41
1.3011531
 72
     5
 11
40.288898
 21
31.957277
 31
0.0
100
AcDbText
  0
TEXT
  5
2D8
330
2E3
100
AcDbEntity
  8
0
 62
     7
370
    13
390
F
100
AcDbText
 10
40.288898
 20
41.457275
 30
0.0
 40
5.0
  1
45
 50
90.0
 41
1.1609226
 72
     5
 11
40.288898
 21
51.13163
 31
0.0
100
AcDbText
  0
TEXT
  5
2D9
330
2E3
100
AcDbEntity
  8
0
 62
     7
370
    13
390
F
100
AcDbText
 10
39.288898
 20
51.13163
 30
0.0
 40
5.0
  1
%%d
 50
90.0
 41
2.199998399999998
 72
     5
 11
39.288898
 21
54.798294
 31
0.0
100
AcDbText
  0
TEXT
  5
2DA
330
2E3
100
AcDbEntity
  8
0
 62
     7
370
    13
390
F
100
AcDbText
 10
39.538898
 20
34.957275
 30
0.0
 40
3.5
  1
×
 50
90.0
 41
2.0
 72
     5
 11
39.538898
 21
38.457275
 31
0.0
100
AcDbText
  0
LINE
  5
2DB
330
2E3
100
AcDbEntity
  8
0
 62
     7
370
    13
390
F
100
AcDbLine
 10
65.0
 20
11.0
 30
0.0
 11
40.288898
 21
11.0
 31
0.0
  0
LINE
  5
2DC
330
2E3
100
AcDbEntity
  8
0
 62
     7
370
    13
390
F
100
AcDbLine
 10
63.0
 20
13.0
 30
0.0
 11
40.288898
 21
13.0
 31
0.0
  0
LINE
  5
2DD
330
2E3
100
AcDbEntity
  8
0
 62
     7
 48
0.153407
370
    13
390
F
100
AcDbLine
 10
44.288898
 20
1.0
 30
0.0
 11
44.288898
 21
7.136297
 31
0.0
  0
LINE
  5
2DE
330
2E3
100
AcDbEntity
  8
0
 62
     7
 48
0.05
370
    13
390
F
100
AcDbLine
 10
44.288898
 20
11.0
 30
0.0
 11
44.288898
 21
13.0
 31
0.0
  0
LINE
  5
2DF
330
2E3
100
AcDbEntity
  8
0
 62
     7
370
    13
390
F
100
AcDbLine
 10
44.288898
 20
16.863703
 30
0.0
 11
44.288898
 21
54.798294
 31
0.0
  0
LWPOLYLINE
  5
2E0
330
2E3
100
AcDbEntity
  8
0
 62
     7
370
    13
390
F
100
AcDbPolyline
 90
        3
 70
     1
 43
0.0
 10
43.253624
 20
16.863703
 10
44.288898
 20
13.0
 10
45.324173
 20
16.863703
  0
LWPOLYLINE
  5
2E1
330
2E3
100
AcDbEntity
  8
0
 62
     7
370
    13
390
F
100
AcDbPolyline
 90
        3
 70
     1
 43
0.0
 10
45.324173
 20
7.136297
 10
44.288898
 20
11.0
 10
43.253624
 20
7.136297
  0
ENDBLK
  5
669
330
2E3
100
AcDbEntity
  8
0
100
AcDbBlockEnd
  0
BLOCK
  5
66A
330
2F3
100
AcDbEntity
  8
0
100
AcDbBlockBegin
  2
BLOCK172
 70
     0
 10
0.0
 20
0.0
 30
0.0
  3
BLOCK172
  1

  0
SOLID
  5
2E5
330
2F3
100
AcDbEntity
  8
0
 62
     7
370
    13
390
F
100
AcDbTrace
 10
82.863701
 20
-71.228546
 30
0.0
 11
79.0
 21
-72.263824
 31
0.0
 12
82.863701
 22
-71.228546
 32
0.0
 13
82.863701
 23
-73.299103
 33
0.0
  0
SOLID
  5
2E6
330
2F3
100
AcDbEntity
  8
0
 62
     7
370
    13
390
F
100
AcDbTrace
 10
73.136299
 20
-73.299103
 30
0.0
 11
77.0
 21
-72.263824
 31
0.0
 12
73.136299
 22
-73.299103
 32
0.0
 13
73.136299
 23
-71.228546
 33
0.0
  0
TEXT
  5
2E7
330
2F3
100
AcDbEntity
  8
0
 62
     7
370
    13
390
F
100
AcDbText
 10
21.463594
 20
-68.263824
 30
0.0
 40
5.0
  1
2
 41
1.301153399999999
 72
     5
 11
25.800772
 21
-68.263824
 31
0.0
100
AcDbText
  0
TEXT
  5
2E8
330
2F3
100
AcDbEntity
  8
0
 62
     7
370
    13
390
F
100
AcDbText
 10
35.30077
 20
-68.263824
 30
0.0
 40
5.0
  1
45
 41
1.16092248
 72
     5
 11
44.975124
 21
-68.263824
 31
0.0
100
AcDbText
  0
TEXT
  5
2E9
330
2F3
100
AcDbEntity
  8
0
 62
     7
370
    13
390
F
100
AcDbText
 10
44.975124
 20
-67.263824
 30
0.0
 40
5.0
  1
%%d
 41
2.199998399999998
 72
     5
 11
48.641788
 21
-67.263824
 31
0.0
100
AcDbText
  0
TEXT
  5
2EA
330
2F3
100
AcDbEntity
  8
0
 62
     7
370
    13
390
F
100
AcDbText
 10
28.800772
 20
-67.513824
 30
0.0
 40
3.5
  1
×
 41
2.000001142857142
 72
     5
 11
32.300774
 21
-67.513824
 31
0.0
100
AcDbText
  0
LINE
  5
2EB
330
2F3
100
AcDbEntity
  8
0
 62
     7
370
    13
390
F
100
AcDbLine
 10
77.0
 20
-11.0
 30
0.0
 11
77.0
 21
-76.263824
 31
0.0
  0
LINE
  5
2EC
330
2F3
100
AcDbEntity
  8
0
 62
     7
370
    13
390
F
100
AcDbLine
 10
79.0
 20
-13.0
 30
0.0
 11
79.0
 21
-76.263824
 31
0.0
  0
LINE
  5
2ED
330
2F3
100
AcDbEntity
  8
0
 62
     7
370
    13
390
F
100
AcDbLine
 10
21.463594
 20
-72.263824
 30
0.0
 11
73.136299
 21
-72.263824
 31
0.0
  0
LINE
  5
2EE
330
2F3
100
AcDbEntity
  8
0
 62
     7
 48
0.05
370
    13
390
F
100
AcDbLine
 10
77.0
 20
-72.263824
 30
0.0
 11
79.0
 21
-72.263824
 31
0.0
  0
LINE
  5
2EF
330
2F3
100
AcDbEntity
  8
0
 62
     7
 48
0.153407
370
    13
390
F
100
AcDbLine
 10
82.863701
 20
-72.263824
 30
0.0
 11
89.0
 21
-72.263824
 31
0.0
  0
LWPOLYLINE
  5
2F0
330
2F3
100
AcDbEntity
  8
0
 62
     7
370
    13
390
F
100
AcDbPolyline
 90
        3
 70
     1
 43
0.0
 10
82.863701
 20
-71.228546
 10
79.0
 20
-72.263824
 10
82.863701
 20
-73.299103
  0
LWPOLYLINE
  5
2F1
330
2F3
100
AcDbEntity
  8
0
 62
     7
370
    13
390
F
100
AcDbPolyline
 90
        3
 70
     1
 43
0.0
 10
73.136299
 20
-73.299103
 10
77.0
 20
-72.263824
 10
73.136299
 20
-71.228546
  0
ENDBLK
  5
66B
330
2F3
100
AcDbEntity
  8
0
100
AcDbBlockEnd
  0
BLOCK
  5
66C
330
2FE
100
AcDbEntity
  8
0
100
AcDbBlockBegin
  2
BLOCK173
 70
     0
 10
0.0
 20
0.0
 30
0.0
  3
BLOCK173
  1

  0
SOLID
  5
2F5
330
2FE
100
AcDbEntity
  8
0
 62
     7
370
    13
390
F
100
AcDbTrace
 10
218.136292
 20
-211.095123
 30
0.0
 11
222.0
 21
-210.059845
 31
0.0
 12
218.136292
 22
-211.095123
 32
0.0
 13
218.136292
 23
-209.024567
 33
0.0
  0
SOLID
  5
2F6
330
2FE
100
AcDbEntity
  8
0
 62
     7
370
    13
390
F
100
AcDbTrace
 10
70.863701
 20
-209.024567
 30
0.0
 11
67.0
 21
-210.059845
 31
0.0
 12
70.863701
 22
-209.024567
 32
0.0
 13
70.863701
 23
-211.095123
 33
0.0
  0
TEXT
  5
2F7
330
2FE
100
AcDbEntity
  8
0
 62
     7
370
    13
390
F
100
AcDbText
 10
152.98587
 20
-206.059845
 30
0.0
 40
6.0
  1
155
 41
1.286701785714286
 72
     5
 11
170.999695
 21
-206.059845
 31
0.0
100
AcDbText
  0
LINE
  5
2F8
330
2FE
100
AcDbEntity
  8
0
 62
     7
370
    13
390
F
100
AcDbLine
 10
67.0
 20
-42.785725
 30
0.0
 11
67.0
 21
-214.059845
 31
0.0
  0
LINE
  5
2F9
330
2FE
100
AcDbEntity
  8
0
 62
     7
370
    13
390
F
100
AcDbLine
 10
222.0
 20
-34.5
 30
0.0
 11
222.0
 21
-214.059845
 31
0.0
  0
LINE
  5
2FA
330
2FE
100
AcDbEntity
  8
0
 62
     7
370
    13
390
F
100
AcDbLine
 10
70.863701
 20
-210.059845
 30
0.0
 11
218.136292
 21
-210.059845
 31
0.0
  0
LWPOLYLINE
  5
2FB
330
2FE
100
AcDbEntity
  8
0
 62
     7
370
    13
390
F
100
AcDbPolyline
 90
        3
 70
     1
 43
0.0
 10
218.136292
 20
-211.095123
 10
222.0
 20
-210.059845
 10
218.136292
 20
-209.024567
  0
LWPOLYLINE
  5
2FC
330
2FE
100
AcDbEntity
  8
0
 62
     7
370
    13
390
F
100
AcDbPolyline
 90
        3
 70
     1
 43
0.0
 10
70.863701
 20
-209.024567
 10
67.0
 20
-210.059845
 10
70.863701
 20
-211.095123
  0
ENDBLK
  5
66D
330
2FE
100
AcDbEntity
  8
0
100
AcDbBlockEnd
  0
BLOCK
  5
66E
330
30A
100
AcDbEntity
  8
0
100
AcDbBlockBegin
  2
BLOCK174
 70
     0
 10
0.0
 20
0.0
 30
0.0
  3
BLOCK174
  1

  0
SOLID
  5
300
330
30A
100
AcDbEntity
  8
0
 62
     7
370
    13
390
F
100
AcDbTrace
 10
232.834946
 20
-18.177429
 30
0.0
 11
235.835464
 21
-20.822578
 31
0.0
 12
232.834946
 22
-18.177429
 32
0.0
 13
234.559509
 23
-17.031548
 33
0.0
  0
SOLID
  5
301
330
30A
100
AcDbEntity
  8
0
 62
     7
370
    13
390
F
100
AcDbTrace
 10
211.165054
 20
18.177431
 30
0.0
 11
208.164536
 21
20.82258
 31
0.0
 12
211.165054
 22
18.177431
 32
0.0
 13
209.440491
 23
17.031548
 33
0.0
  0
TEXT
  5
302
330
30A
100
AcDbEntity
  8
0
 62
     7
370
    13
390
F
100
AcDbText
 10
165.216019
 20
92.688515
 30
0.0
 40
6.0
  1
50
 50
303.6019234475769
 41
1.289914367352239
 72
     5
 11
171.640793
 21
83.019157
 31
0.0
100
AcDbText
  0
TEXT
  5
303
330
30A
100
AcDbEntity
  8
0
 62
     7
370
    13
390
F
100
AcDbText
 10
160.788666
 20
99.351738
 30
0.0
 40
6.0
  1
%%c
 50
303.6019679763871
 41
1.500002282663201
 72
     5
 11
164.109192
 21
94.354317
 31
0.0
100
AcDbText
  0
ARC
  5
304
330
30A
100
AcDbEntity
  8
0
 62
     7
370
    13
390
F
100
AcDbCircle
 10
222.0
 20
0.000001
 30
0.0
 40
25.0
100
AcDbArc
 50
114.434547
 51
216.122051
  0
LINE
  5
305
330
30A
100
AcDbEntity
  8
0
 62
     7
370
    13
390
F
100
AcDbLine
 10
157.457047
 20
97.138062
 30
0.0
 11
208.164536
 21
20.822577
 31
0.0
  0
LINE
  5
306
330
30A
100
AcDbEntity
  8
0
 62
     7
370
    13
390
F
100
AcDbLine
 10
210.302765
 20
17.604488
 30
0.0
 11
233.69722
 21
-17.604492
 31
0.0
  0
LWPOLYLINE
  5
307
330
30A
100
AcDbEntity
  8
0
 62
     7
370
    13
390
F
100
AcDbPolyline
 90
        3
 70
     1
 43
0.0
 10
232.834946
 20
-18.177429
 10
235.835464
 20
-20.822578
 10
234.559509
 20
-17.031548
  0
LWPOLYLINE
  5
308
330
30A
100
AcDbEntity
  8
0
 62
     7
370
    13
390
F
100
AcDbPolyline
 90
        3
 70
     1
 43
0.0
 10
211.165054
 20
18.177431
 10
208.164536
 20
20.82258
 10
209.440491
 20
17.031548
  0
ENDBLK
  5
66F
330
30A
100
AcDbEntity
  8
0
100
AcDbBlockEnd
  0
BLOCK
  5
670
330
315
100
AcDbEntity
  8
0
100
AcDbBlockBegin
  2
BLOCK175
 70
     0
 10
0.0
 20
0.0
 30
0.0
  3
BLOCK175
  1

  0
SOLID
  5
30C
330
315
100
AcDbEntity
  8
0
 62
     7
370
    13
390
F
100
AcDbTrace
 10
330.136292
 20
-168.380402
 30
0.0
 11
334.0
 21
-167.345123
 31
0.0
 12
330.136292
 22
-168.380402
 32
0.0
 13
330.136292
 23
-166.309845
 33
0.0
  0
SOLID
  5
30D
330
315
100
AcDbEntity
  8
0
 62
     7
370
    13
390
F
100
AcDbTrace
 10
225.863708
 20
-166.309845
 30
0.0
 11
222.0
 21
-167.345123
 31
0.0
 12
225.863708
 22
-166.309845
 32
0.0
 13
225.863708
 23
-168.380402
 33
0.0
  0
TEXT
  5
30E
330
315
100
AcDbEntity
  8
0
 62
     7
370
    13
390
F
100
AcDbText
 10
265.933807
 20
-163.345123
 30
0.0
 40
6.0
  1
112
 41
1.501154583333332
 72
     5
 11
283.947662
 21
-163.345123
 31
0.0
100
AcDbText
  0
LINE
  5
30F
330
315
100
AcDbEntity
  8
0
 62
     7
370
    13
390
F
100
AcDbLine
 10
222.0
 20
-34.5
 30
0.0
 11
222.0
 21
-171.345123
 31
0.0
  0
LINE
  5
310
330
315
100
AcDbEntity
  8
0
 62
     7
370
    13
390
F
100
AcDbLine
 10
334.0
 20
-15.0
 30
0.0
 11
334.0
 21
-171.345123
 31
0.0
  0
LINE
  5
311
330
315
100
AcDbEntity
  8
0
 62
     7
370
    13
390
F
100
AcDbLine
 10
225.863708
 20
-167.345123
 30
0.0
 11
330.136292
 21
-167.345123
 31
0.0
  0
LWPOLYLINE
  5
312
330
315
100
AcDbEntity
  8
0
 62
     7
370
    13
390
F
100
AcDbPolyline
 90
        3
 70
     1
 43
0.0
 10
330.136292
 20
-168.380402
 10
334.0
 20
-167.345123
 10
330.136292
 20
-166.309845
  0
LWPOLYLINE
  5
313
330
315
100
AcDbEntity
  8
0
 62
     7
370
    13
390
F
100
AcDbPolyline
 90
        3
 70
     1
 43
0.0
 10
225.863708
 20
-166.309845
 10
222.0
 20
-167.345123
 10
225.863708
 20
-168.380402
  0
ENDBLK
  5
671
330
315
100
AcDbEntity
  8
0
100
AcDbBlockEnd
  0
BLOCK
  5
672
330
321
100
AcDbEntity
  8
0
100
AcDbBlockBegin
  2
BLOCK176
 70
     0
 10
0.0
 20
0.0
 30
0.0
  3
BLOCK176
  1

  0
SOLID
  5
317
330
321
100
AcDbEntity
  8
0
 62
     7
370
    13
390
F
100
AcDbTrace
 10
352.136292
 20
-122.462128
 30
0.0
 11
356.0
 21
-121.426849
 31
0.0
 12
352.136292
 22
-122.462128
 32
0.0
 13
352.136292
 23
-120.391571
 33
0.0
  0
SOLID
  5
318
330
321
100
AcDbEntity
  8
0
 62
     7
370
    13
390
F
100
AcDbTrace
 10
337.863708
 20
-120.391571
 30
0.0
 11
334.0
 21
-121.426849
 31
0.0
 12
337.863708
 22
-120.391571
 32
0.0
 13
337.863708
 23
-122.462128
 33
0.0
  0
TEXT
  5
319
330
321
100
AcDbEntity
  8
0
 62
     7
370
    13
390
F
100
AcDbText
 10
362.622314
 20
-117.426849
 30
0.0
 40
6.0
  1
22
 41
1.160925299999997
 72
     5
 11
374.231567
 21
-117.426849
 31
0.0
100
AcDbText
  0
LINE
  5
31A
330
321
100
AcDbEntity
  8
0
 62
     7
370
    13
390
F
100
AcDbLine
 10
334.0
 20
-15.0
 30
0.0
 11
334.0
 21
-125.426849
 31
0.0
  0
LINE
  5
31B
330
321
100
AcDbEntity
  8
0
 62
     7
370
    13
390
F
100
AcDbLine
 10
356.0
 20
-15.0
 30
0.0
 11
356.0
 21
-125.426849
 31
0.0
  0
LINE
  5
31C
330
321
100
AcDbEntity
  8
0
 62
     7
 48
0.356815
370
    13
390
F
100
AcDbLine
 10
337.863708
 20
-121.426849
 30
0.0
 11
352.136292
 21
-121.426849
 31
0.0
  0
LINE
  5
31D
330
321
100
AcDbEntity
  8
0
 62
     7
 48
0.455788
370
    13
390
F
100
AcDbLine
 10
356.0
 20
-121.426849
 30
0.0
 11
374.231537
 21
-121.426849
 31
0.0
  0
LWPOLYLINE
  5
31E
330
321
100
AcDbEntity
  8
0
 62
     7
370
    13
390
F
100
AcDbPolyline
 90
        3
 70
     1
 43
0.0
 10
352.136292
 20
-122.462128
 10
356.0
 20
-121.426849
 10
352.136292
 20
-120.391571
  0
LWPOLYLINE
  5
31F
330
321
100
AcDbEntity
  8
0
 62
     7
370
    13
390
F
100
AcDbPolyline
 90
        3
 70
     1
 43
0.0
 10
337.863708
 20
-120.391571
 10
334.0
 20
-121.426849
 10
337.863708
 20
-122.462128
  0
ENDBLK
  5
673
330
321
100
AcDbEntity
  8
0
100
AcDbBlockEnd
  0
BLOCK
  5
674
330
32D
100
AcDbEntity
  8
0
100
AcDbBlockBegin
  2
BLOCK177
 70
     0
 10
0.0
 20
0.0
 30
0.0
  3
BLOCK177
  1

  0
SOLID
  5
323
330
32D
100
AcDbEntity
  8
0
 62
     7
370
    13
390
F
100
AcDbTrace
 10
397.347107
 20
-9.136296
 30
0.0
 11
398.382385
 21
-13.0
 31
0.0
 12
397.347107
 22
-9.136296
 32
0.0
 13
399.417664
 23
-9.136296
 33
0.0
  0
SOLID
  5
324
330
32D
100
AcDbEntity
  8
0
 62
     7
370
    13
390
F
100
AcDbTrace
 10
399.417664
 20
9.136296
 30
0.0
 11
398.382385
 21
13.0
 31
0.0
 12
399.417664
 22
9.136296
 32
0.0
 13
397.347107
 23
9.136296
 33
0.0
  0
TEXT
  5
325
330
32D
100
AcDbEntity
  8
0
 62
     7
370
    13
390
F
100
AcDbText
 10
394.382385
 20
71.963058
 30
0.0
 40
6.0
  1
26
 50
90.0
 41
1.1609223
 72
     5
 11
394.382385
 21
83.572281
 31
0.0
100
AcDbText
  0
LINE
  5
326
330
32D
100
AcDbEntity
  8
0
 62
     7
370
    13
390
F
100
AcDbLine
 10
358.0
 20
-13.0
 30
0.0
 11
402.382385
 21
-13.0
 31
0.0
  0
LINE
  5
327
330
32D
100
AcDbEntity
  8
0
 62
     7
370
    13
390
F
100
AcDbLine
 10
358.0
 20
13.0
 30
0.0
 11
402.382385
 21
13.0
 31
0.0
  0
LINE
  5
328
330
32D
100
AcDbEntity
  8
0
 62
     7
 48
0.456815
370
    13
390
F
100
AcDbLine
 10
398.382385
 20
-9.136296
 30
0.0
 11
398.382385
 21
9.136296
 31
0.0
  0
LINE
  5
329
330
32D
100
AcDbEntity
  8
0
 62
     7
370
    13
390
F
100
AcDbLine
 10
398.382385
 20
13.0
 30
0.0
 11
398.382385
 21
83.572281
 31
0.0
  0
LWPOLYLINE
  5
32A
330
32D
100
AcDbEntity
  8
0
 62
     7
370
    13
390
F
100
AcDbPolyline
 90
        3
 70
     1
 43
0.0
 10
397.347107
 20
-9.136296
 10
398.382385
 20
-13.0
 10
399.417664
 20
-9.136296
  0
LWPOLYLINE
  5
32B
330
32D
100
AcDbEntity
  8
0
 62
     7
370
    13
390
F
100
AcDbPolyline
 90
        3
 70
     1
 43
0.0
 10
399.417664
 20
9.136296
 10
398.382385
 20
13.0
 10
397.347107
 20
9.136296
  0
ENDBLK
  5
675
330
32D
100
AcDbEntity
  8
0
100
AcDbBlockEnd
  0
BLOCK
  5
676
330
338
100
AcDbEntity
  8
0
100
AcDbBlockBegin
  2
BLOCK178
 70
     0
 10
0.0
 20
0.0
 30
0.0
  3
BLOCK178
  1

  0
SOLID
  5
32F
330
338
100
AcDbEntity
  8
0
 62
     7
370
    13
390
F
100
AcDbTrace
 10
1018.136292
 20
-169.096954
 30
0.0
 11
1022.0
 21
-168.061676
 31
0.0
 12
1018.136292
 22
-169.096954
 32
0.0
 13
1018.136292
 23
-167.026398
 33
0.0
  0
SOLID
  5
330
330
338
100
AcDbEntity
  8
0
 62
     7
370
    13
390
F
100
AcDbTrace
 10
914.163696
 20
-167.026398
 30
0.0
 11
910.299988
 21
-168.061676
 31
0.0
 12
914.163696
 22
-167.026398
 32
0.0
 13
914.163696
 23
-169.096954
 33
0.0
  0
TEXT
  5
331
330
338
100
AcDbEntity
  8
0
 62
     7
370
    13
390
F
100
AcDbText
 10
949.942322
 20
-164.061676
 30
0.0
 40
6.0
  1
111.7
 41
1.712388777777777
 72
     5
 11
980.76532
 21
-164.061676
 31
0.0
100
AcDbText
  0
LINE
  5
332
330
338
100
AcDbEntity
  8
0
 62
     7
370
    13
390
F
100
AcDbLine
 10
910.299988
 20
-15.0
 30
0.0
 11
910.299988
 21
-172.061676
 31
0.0
  0
LINE
  5
333
330
338
100
AcDbEntity
  8
0
 62
     7
370
    13
390
F
100
AcDbLine
 10
1022.0
 20
-34.5
 30
0.0
 11
1022.0
 21
-172.061676
 31
0.0
  0
LINE
  5
334
330
338
100
AcDbEntity
  8
0
 62
     7
370
    13
390
F
100
AcDbLine
 10
914.163696
 20
-168.061676
 30
0.0
 11
1018.136292
 21
-168.061676
 31
0.0
  0
LWPOLYLINE
  5
335
330
338
100
AcDbEntity
  8
0
 62
     7
370
    13
390
F
100
AcDbPolyline
 90
        3
 70
     1
 43
0.0
 10
1018.136292
 20
-169.096954
 10
1022.0
 20
-168.061676
 10
1018.136292
 20
-167.026398
  0
LWPOLYLINE
  5
336
330
338
100
AcDbEntity
  8
0
 62
     7
370
    13
390
F
100
AcDbPolyline
 90
        3
 70
     1
 43
0.0
 10
914.163696
 20
-167.026398
 10
910.299988
 20
-168.061676
 10
914.163696
 20
-169.096954
  0
ENDBLK
  5
677
330
338
100
AcDbEntity
  8
0
100
AcDbBlockEnd
  0
BLOCK
  5
678
330
344
100
AcDbEntity
  8
0
100
AcDbBlockBegin
  2
BLOCK179
 70
     0
 10
0.0
 20
0.0
 30
0.0
  3
BLOCK179
  1

  0
SOLID
  5
33A
330
344
100
AcDbEntity
  8
0
 62
     7
370
    13
390
F
100
AcDbTrace
 10
906.436279
 20
-119.946747
 30
0.0
 11
910.299988
 21
-118.911469
 31
0.0
 12
906.436279
 22
-119.946747
 32
0.0
 13
906.436279
 23
-117.87619
 33
0.0
  0
SOLID
  5
33B
330
344
100
AcDbEntity
  8
0
 62
     7
370
    13
390
F
100
AcDbTrace
 10
892.163696
 20
-117.87619
 30
0.0
 11
888.299988
 21
-118.911469
 31
0.0
 12
892.163696
 22
-117.87619
 32
0.0
 13
892.163696
 23
-119.946747
 33
0.0
  0
TEXT
  5
33C
330
344
100
AcDbEntity
  8
0
 62
     7
370
    13
390
F
100
AcDbText
 10
865.555908
 20
-114.911469
 30
0.0
 40
6.0
  1
22
 41
1.160925299999997
 72
     5
 11
877.165161
 21
-114.911469
 31
0.0
100
AcDbText
  0
LINE
  5
33D
330
344
100
AcDbEntity
  8
0
 62
     7
370
    13
390
F
100
AcDbLine
 10
888.299988
 20
-15.0
 30
0.0
 11
888.299988
 21
-122.911469
 31
0.0
  0
LINE
  5
33E
330
344
100
AcDbEntity
  8
0
 62
     7
370
    13
390
F
100
AcDbLine
 10
910.299988
 20
-15.0
 30
0.0
 11
910.299988
 21
-122.911469
 31
0.0
  0
LINE
  5
33F
330
344
100
AcDbEntity
  8
0
 62
     7
370
    13
390
F
100
AcDbLine
 10
865.555908
 20
-118.911469
 30
0.0
 11
888.299988
 21
-118.911469
 31
0.0
  0
LINE
  5
340
330
344
100
AcDbEntity
  8
0
 62
     7
 48
0.356815
370
    13
390
F
100
AcDbLine
 10
892.163696
 20
-118.911469
 30
0.0
 11
906.436279
 21
-118.911469
 31
0.0
  0
LWPOLYLINE
  5
341
330
344
100
AcDbEntity
  8
0
 62
     7
370
    13
390
F
100
AcDbPolyline
 90
        3
 70
     1
 43
0.0
 10
906.436279
 20
-119.946747
 10
910.299988
 20
-118.911469
 10
906.436279
 20
-117.87619
  0
LWPOLYLINE
  5
342
330
344
100
AcDbEntity
  8
0
 62
     7
370
    13
390
F
100
AcDbPolyline
 90
        3
 70
     1
 43
0.0
 10
892.163696
 20
-117.87619
 10
888.299988
 20
-118.911469
 10
892.163696
 20
-119.946747
  0
ENDBLK
  5
679
330
344
100
AcDbEntity
  8
0
100
AcDbBlockEnd
  0
BLOCK
  5
67A
330
350
100
AcDbEntity
  8
0
100
AcDbBlockBegin
  2
BLOCK180
 70
     0
 10
0.0
 20
0.0
 30
0.0
  3
BLOCK180
  1

  0
SOLID
  5
346
330
350
100
AcDbEntity
  8
0
 62
     7
370
    13
390
F
100
AcDbTrace
 10
808.247253
 20
9.136296
 30
0.0
 11
807.211975
 21
13.0
 31
0.0
 12
808.247253
 22
9.136296
 32
0.0
 13
806.176697
 23
9.136296
 33
0.0
  0
SOLID
  5
347
330
350
100
AcDbEntity
  8
0
 62
     7
370
    13
390
F
100
AcDbTrace
 10
806.176697
 20
-9.136296
 30
0.0
 11
807.211975
 21
-13.0
 31
0.0
 12
806.176697
 22
-9.136296
 32
0.0
 13
808.247253
 23
-9.136296
 33
0.0
  0
TEXT
  5
348
330
350
100
AcDbEntity
  8
0
 62
     7
370
    13
390
F
100
AcDbText
 10
803.211975
 20
91.247238
 30
0.0
 40
6.0
  1
26
 50
90.0
 41
1.1609223
 72
     5
 11
803.211975
 21
102.856461
 31
0.0
100
AcDbText
  0
LINE
  5
349
330
350
100
AcDbEntity
  8
0
 62
     7
370
    13
390
F
100
AcDbLine
 10
886.299988
 20
-13.0
 30
0.0
 11
803.211975
 21
-13.0
 31
0.0
  0
LINE
  5
34A
330
350
100
AcDbEntity
  8
0
 62
     7
370
    13
390
F
100
AcDbLine
 10
886.299988
 20
13.0
 30
0.0
 11
803.211975
 21
13.0
 31
0.0
  0
LINE
  5
34B
330
350
100
AcDbEntity
  8
0
 62
     7
 48
0.456815
370
    13
390
F
100
AcDbLine
 10
807.211975
 20
-9.136296
 30
0.0
 11
807.211975
 21
9.136296
 31
0.0
  0
LINE
  5
34C
330
350
100
AcDbEntity
  8
0
 62
     7
370
    13
390
F
100
AcDbLine
 10
807.211975
 20
13.0
 30
0.0
 11
807.211975
 21
102.856461
 31
0.0
  0
LWPOLYLINE
  5
34D
330
350
100
AcDbEntity
  8
0
 62
     7
370
    13
390
F
100
AcDbPolyline
 90
        3
 70
     1
 43
0.0
 10
808.247253
 20
9.136296
 10
807.211975
 20
13.0
 10
806.176697
 20
9.136296
  0
LWPOLYLINE
  5
34E
330
350
100
AcDbEntity
  8
0
 62
     7
370
    13
390
F
100
AcDbPolyline
 90
        3
 70
     1
 43
0.0
 10
806.176697
 20
-9.136296
 10
807.211975
 20
-13.0
 10
808.247253
 20
-9.136296
  0
ENDBLK
  5
67B
330
350
100
AcDbEntity
  8
0
100
AcDbBlockEnd
  0
BLOCK
  5
67C
330
35B
100
AcDbEntity
  8
0
100
AcDbBlockBegin
  2
BLOCK181
 70
     0
 10
0.0
 20
0.0
 30
0.0
  3
BLOCK181
  1

  0
SOLID
  5
352
330
35B
100
AcDbEntity
  8
0
 62
     7
370
    13
390
F
100
AcDbTrace
 10
1033.752075
 20
-17.598383
 30
0.0
 11
1036.884277
 21
-20.086313
 31
0.0
 12
1033.752075
 22
-17.598383
 32
0.0
 13
1035.415649
 23
-16.365641
 33
0.0
  0
SOLID
  5
353
330
35B
100
AcDbEntity
  8
0
 62
     7
370
    13
390
F
100
AcDbTrace
 10
1010.247925
 20
17.598383
 30
0.0
 11
1007.115784
 21
20.086313
 31
0.0
 12
1010.247925
 22
17.598383
 32
0.0
 13
1008.58429
 23
16.365641
 33
0.0
  0
TEXT
  5
354
330
35B
100
AcDbEntity
  8
0
 62
     7
370
    13
390
F
100
AcDbText
 10
949.728821
 20
104.248779
 30
0.0
 40
6.0
  1
50
 50
306.538843598392
 41
1.289911331842438
 72
     5
 11
956.640564
 21
94.921326
 31
0.0
100
AcDbText
  0
TEXT
  5
355
330
35B
100
AcDbEntity
  8
0
 62
     7
370
    13
390
F
100
AcDbText
 10
944.96582
 20
110.676399
 30
0.0
 40
6.0
  1
%%c
 50
306.5393712969313
 41
1.500006659098493
 72
     5
 11
948.538086
 21
105.85569
 31
0.0
100
AcDbText
  0
LINE
  5
356
330
35B
100
AcDbEntity
  8
0
 62
     7
370
    13
390
F
100
AcDbLine
 10
941.752075
 20
108.29493
 30
0.0
 11
1007.115784
 21
20.086334
 31
0.0
  0
LINE
  5
357
330
35B
100
AcDbEntity
  8
0
 62
     7
370
    13
390
F
100
AcDbLine
 10
1009.416138
 20
16.982037
 30
0.0
 11
1034.583862
 21
-16.98197
 31
0.0
  0
LWPOLYLINE
  5
358
330
35B
100
AcDbEntity
  8
0
 62
     7
370
    13
390
F
100
AcDbPolyline
 90
        3
 70
     1
 43
0.0
 10
1033.752075
 20
-17.598383
 10
1036.884277
 20
-20.086313
 10
1035.415649
 20
-16.365641
  0
LWPOLYLINE
  5
359
330
35B
100
AcDbEntity
  8
0
 62
     7
370
    13
390
F
100
AcDbPolyline
 90
        3
 70
     1
 43
0.0
 10
1010.247925
 20
17.598383
 10
1007.115784
 20
20.086313
 10
1008.58429
 20
16.365641
  0
ENDBLK
  5
67D
330
35B
100
AcDbEntity
  8
0
100
AcDbBlockEnd
  0
BLOCK
  5
67E
330
368
100
AcDbEntity
  8
0
100
AcDbBlockBegin
  2
BLOCK182
 70
     0
 10
0.0
 20
0.0
 30
0.0
  3
BLOCK182
  1

  0
SOLID
  5
35D
330
368
100
AcDbEntity
  8
0
 62
     7
370
    13
390
F
100
AcDbTrace
 10
1120.690796
 20
-3.657987
 30
0.0
 11
1123.740234
 21
-1.069443
 31
0.0
 12
1120.690796
 22
-3.657987
 32
0.0
 13
1119.805054
 23
-1.786439
 33
0.0
  0
SOLID
  5
35E
330
368
100
AcDbEntity
  8
0
 62
     7
370
    13
390
F
100
AcDbTrace
 10
1131.309204
 20
3.657957
 30
0.0
 11
1128.259766
 21
1.069412
 31
0.0
 12
1131.309204
 22
3.657957
 32
0.0
 13
1132.194946
 23
1.786408
 33
0.0
  0
TEXT
  5
35F
330
368
100
AcDbEntity
  8
0
 62
     7
370
    13
390
F
100
AcDbText
 10
1187.0802
 20
33.331718
 30
0.0
 40
6.0
  1
5
 50
25.32625383727272
 41
1.30114381339314
 72
     5
 11
1191.784546
 21
35.55809
 31
0.0
100
AcDbText
  0
TEXT
  5
360
330
368
100
AcDbEntity
  8
0
 62
     7
370
    13
390
F
100
AcDbText
 10
1179.849121
 20
29.909573
 30
0.0
 40
6.0
  1
%%c
 50
25.32599434950097
 41
1.500002373209468
 72
     5
 11
1185.272461
 21
32.476185
 31
0.0
100
AcDbText
  0
ARC
  5
361
330
368
100
AcDbEntity
  8
0
 62
     7
370
    13
390
F
100
AcDbCircle
 10
1126.0
 20
-0.000015
 30
0.0
 40
2.500015
100
AcDbArc
 50
113.653337
 51
224.163452
  0
LINE
  5
362
330
368
100
AcDbEntity
  8
0
 62
     7
 48
0.153407
370
    13
390
F
100
AcDbLine
 10
1114.701416
 20
-5.347127
 30
0.0
 11
1120.247925
 21
-2.722219
 31
0.0
  0
LINE
  5
363
330
368
100
AcDbEntity
  8
0
 62
     7
 48
0.125002
370
    13
390
F
100
AcDbLine
 10
1123.740234
 20
-1.069465
 30
0.0
 11
1128.259766
 21
1.069415
 31
0.0
  0
LINE
  5
364
330
368
100
AcDbEntity
  8
0
 62
     7
370
    13
390
F
100
AcDbLine
 10
1131.752075
 20
2.722168
 30
0.0
 11
1193.495605
 21
31.942535
 31
0.0
  0
LWPOLYLINE
  5
365
330
368
100
AcDbEntity
  8
0
 62
     7
370
    13
390
F
100
AcDbPolyline
 90
        3
 70
     1
 43
0.0
 10
1120.690796
 20
-3.657987
 10
1123.740234
 20
-1.069443
 10
1119.805054
 20
-1.786439
  0
LWPOLYLINE
  5
366
330
368
100
AcDbEntity
  8
0
 62
     7
370
    13
390
F
100
AcDbPolyline
 90
        3
 70
     1
 43
0.0
 10
1131.309204
 20
3.657957
 10
1128.259766
 20
1.069412
 10
1132.194946
 20
1.786408
  0
ENDBLK
  5
67F
330
368
100
AcDbEntity
  8
0
100
AcDbBlockEnd
  0
BLOCK
  5
680
330
375
100
AcDbEntity
  8
0
100
AcDbBlockBegin
  2
BLOCK183
 70
     0
 10
0.0
 20
0.0
 30
0.0
  3
BLOCK183
  1

  0
SOLID
  5
36A
330
375
100
AcDbEntity
  8
0
 62
     7
370
    13
390
F
100
AcDbTrace
 10
1129.863647
 20
-75.959625
 30
0.0
 11
1126.0
 21
-76.994904
 31
0.0
 12
1129.863647
 22
-75.959625
 32
0.0
 13
1129.863647
 23
-78.030182
 33
0.0
  0
SOLID
  5
36B
330
375
100
AcDbEntity
  8
0
 62
     7
370
    13
390
F
100
AcDbTrace
 10
1110.136353
 20
-78.030182
 30
0.0
 11
1114.0
 21
-76.994904
 31
0.0
 12
1110.136353
 22
-78.030182
 32
0.0
 13
1110.136353
 23
-75.959625
 33
0.0
  0
TEXT
  5
36C
330
375
100
AcDbEntity
  8
0
 62
     7
370
    13
390
F
100
AcDbText
 10
1159.943604
 20
-72.994904
 30
0.0
 40
6.0
  1
12
 41
1.451141250000006
 72
     5
 11
1171.552734
 21
-72.994904
 31
0.0
100
AcDbText
  0
LINE
  5
36D
330
375
100
AcDbEntity
  8
0
 62
     7
370
    13
390
F
100
AcDbLine
 10
1114.0
 20
-5.25
 30
0.0
 11
1114.0
 21
-80.994904
 31
0.0
  0
LINE
  5
36E
330
375
100
AcDbEntity
  8
0
 62
     7
370
    13
390
F
100
AcDbLine
 10
1126.0
 20
-5.25
 30
0.0
 11
1126.0
 21
-80.994904
 31
0.0
  0
LINE
  5
36F
330
375
100
AcDbEntity
  8
0
 62
     7
 48
0.153409
370
    13
390
F
100
AcDbLine
 10
1104.0
 20
-76.994904
 30
0.0
 11
1110.136353
 21
-76.994904
 31
0.0
  0
LINE
  5
370
330
375
100
AcDbEntity
  8
0
 62
     7
 48
0.3
370
    13
390
F
100
AcDbLine
 10
1114.0
 20
-76.994904
 30
0.0
 11
1126.0
 21
-76.994904
 31
0.0
  0
LINE
  5
371
330
375
100
AcDbEntity
  8
0
 62
     7
370
    13
390
F
100
AcDbLine
 10
1129.863647
 20
-76.994904
 30
0.0
 11
1171.552856
 21
-76.994904
 31
0.0
  0
LWPOLYLINE
  5
372
330
375
100
AcDbEntity
  8
0
 62
     7
370
    13
390
F
100
AcDbPolyline
 90
        3
 70
     1
 43
0.0
 10
1129.863647
 20
-75.959625
 10
1126.0
 20
-76.994904
 10
1129.863647
 20
-78.030182
  0
LWPOLYLINE
  5
373
330
375
100
AcDbEntity
  8
0
 62
     7
370
    13
390
F
100
AcDbPolyline
 90
        3
 70
     1
 43
0.0
 10
1110.136353
 20
-78.030182
 10
1114.0
 20
-76.994904
 10
1110.136353
 20
-75.959625
  0
ENDBLK
  5
681
330
375
100
AcDbEntity
  8
0
100
AcDbBlockEnd
  0
BLOCK
  5
682
330
382
100
AcDbEntity
  8
0
100
AcDbBlockBegin
  2
BLOCK184
 70
     0
 10
0.0
 20
0.0
 30
0.0
  3
BLOCK184
  1

  0
SOLID
  5
377
330
382
100
AcDbEntity
  8
0
 62
     7
370
    13
390
F
100
AcDbTrace
 10
1122.136353
 20
-105.176056
 30
0.0
 11
1126.0
 21
-104.140778
 31
0.0
 12
1122.136353
 22
-105.176056
 32
0.0
 13
1122.136353
 23
-103.105499
 33
0.0
  0
SOLID
  5
378
330
382
100
AcDbEntity
  8
0
 62
     7
370
    13
390
F
100
AcDbTrace
 10
1140.863647
 20
-103.105499
 30
0.0
 11
1137.0
 21
-104.140778
 31
0.0
 12
1140.863647
 22
-103.105499
 32
0.0
 13
1140.863647
 23
-105.176056
 33
0.0
  0
TEXT
  5
379
330
382
100
AcDbEntity
  8
0
 62
     7
370
    13
390
F
100
AcDbText
 10
1161.012451
 20
-100.140778
 30
0.0
 40
6.0
  1
11
 41
1.934855166666656
 72
     5
 11
1172.621582
 21
-100.140778
 31
0.0
100
AcDbText
  0
LINE
  5
37A
330
382
100
AcDbEntity
  8
0
 62
     7
370
    13
390
F
100
AcDbLine
 10
1126.0
 20
-5.25
 30
0.0
 11
1126.0
 21
-108.140778
 31
0.0
  0
LINE
  5
37B
330
382
100
AcDbEntity
  8
0
 62
     7
370
    13
390
F
100
AcDbLine
 10
1137.0
 20
-18.304348
 30
0.0
 11
1137.0
 21
-108.140778
 31
0.0
  0
LINE
  5
37C
330
382
100
AcDbEntity
  8
0
 62
     7
 48
0.153409
370
    13
390
F
100
AcDbLine
 10
1116.0
 20
-104.140778
 30
0.0
 11
1122.136353
 21
-104.140778
 31
0.0
  0
LINE
  5
37D
330
382
100
AcDbEntity
  8
0
 62
     7
 48
0.275
370
    13
390
F
100
AcDbLine
 10
1126.0
 20
-104.140778
 30
0.0
 11
1137.0
 21
-104.140778
 31
0.0
  0
LINE
  5
37E
330
382
100
AcDbEntity
  8
0
 62
     7
370
    13
390
F
100
AcDbLine
 10
1140.863647
 20
-104.140778
 30
0.0
 11
1172.621704
 21
-104.140778
 31
0.0
  0
LWPOLYLINE
  5
37F
330
382
100
AcDbEntity
  8
0
 62
     7
370
    13
390
F
100
AcDbPolyline
 90
        3
 70
     1
 43
0.0
 10
1122.136353
 20
-105.176056
 10
1126.0
 20
-104.140778
 10
1122.136353
 20
-103.105499
  0
LWPOLYLINE
  5
380
330
382
100
AcDbEntity
  8
0
 62
     7
370
    13
390
F
100
AcDbPolyline
 90
        3
 70
     1
 43
0.0
 10
1140.863647
 20
-103.105499
 10
1137.0
 20
-104.140778
 10
1140.863647
 20
-105.176056
  0
ENDBLK
  5
683
330
382
100
AcDbEntity
  8
0
100
AcDbBlockEnd
  0
BLOCK
  5
684
330
387
100
AcDbEntity
  8
0
100
AcDbBlockBegin
  2
BLOCK185
 70
     0
 10
0.0
 20
0.0
 30
0.0
  3
BLOCK185
  1

  0
LINE
  5
384
330
387
100
AcDbEntity
  8
0
  6
DASHDOT
 62
     7
 48
0.1625
370
    13
390
F
100
AcDbLine
 10
1117.25
 20
0.0
 30
0.0
 11
1110.75
 21
0.0
 31
0.0
  0
LINE
  5
385
330
387
100
AcDbEntity
  8
0
  6
DASHDOT
 62
     7
 48
0.1625
370
    13
390
F
100
AcDbLine
 10
1114.0
 20
3.25
 30
0.0
 11
1114.0
 21
-3.25
 31
0.0
  0
ENDBLK
  5
685
330
387
100
AcDbEntity
  8
0
100
AcDbBlockEnd
  0
BLOCK
  5
686
330
38C
100
AcDbEntity
  8
0
100
AcDbBlockBegin
  2
BLOCK186
 70
     0
 10
0.0
 20
0.0
 30
0.0
  3
BLOCK186
  1

  0
LINE
  5
389
330
38C
100
AcDbEntity
  8
0
  6
DASHDOT
 62
     7
 48
0.1625
370
    13
390
F
100
AcDbLine
 10
1129.25
 20
0.0
 30
0.0
 11
1122.75
 21
0.0
 31
0.0
  0
LINE
  5
38A
330
38C
100
AcDbEntity
  8
0
  6
DASHDOT
 62
     7
 48
0.1625
370
    13
390
F
100
AcDbLine
 10
1126.0
 20
3.25
 30
0.0
 11
1126.0
 21
-3.25
 31
0.0
  0
ENDBLK
  5
687
330
38C
100
AcDbEntity
  8
0
100
AcDbBlockEnd
  0
BLOCK
  5
688
330
391
100
AcDbEntity
  8
0
100
AcDbBlockBegin
  2
BLOCK187
 70
     0
 10
0.0
 20
0.0
 30
0.0
  3
BLOCK187
  1

  0
LINE
  5
38E
330
391
100
AcDbEntity
  8
0
  6
DASHDOT
 62
     7
370
    13
390
F
100
AcDbLine
 10
1054.5
 20
0.0
 30
0.0
 11
989.5
 21
0.0
 31
0.0
  0
LINE
  5
38F
330
391
100
AcDbEntity
  8
0
  6
DASHDOT
 62
     7
370
    13
390
F
100
AcDbLine
 10
1022.0
 20
32.5
 30
0.0
 11
1022.0
 21
-32.5
 31
0.0
  0
ENDBLK
  5
689
330
391
100
AcDbEntity
  8
0
100
AcDbBlockEnd
  0
BLOCK
  5
68A
330
396
100
AcDbEntity
  8
0
100
AcDbBlockBegin
  2
BLOCK188
 70
     0
 10
0.0
 20
0.0
 30
0.0
  3
BLOCK188
  1

  0
LINE
  5
393
330
396
100
AcDbEntity
  8
0
  6
DASHDOT
 62
     7
370
    13
390
F
100
AcDbLine
 10
254.5
 20
0.0
 30
0.0
 11
189.5
 21
0.0
 31
0.0
  0
LINE
  5
394
330
396
100
AcDbEntity
  8
0
  6
DASHDOT
 62
     7
370
    13
390
F
100
AcDbLine
 10
222.0
 20
32.5
 30
0.0
 11
222.0
 21
-32.5
 31
0.0
  0
ENDBLK
  5
68B
330
396
100
AcDbEntity
  8
0
100
AcDbBlockEnd
  0
BLOCK
  5
68C
330
3DB
100
AcDbEntity
  8
0
100
AcDbBlockBegin
  2
BLOCK189
 70
     0
 10
0.0
 20
0.0
 30
0.0
  3
BLOCK189
  1

  0
LINE
  5
398
330
3DB
100
AcDbEntity
  8
0
 62
     7
 48
0.014555
370
    40
390
F
100
AcDbLine
 10
1137.0
 20
48.950001
 30
0.0
 11
1137.0
 21
48.367821
 31
0.0
  0
LINE
  5
399
330
3DB
100
AcDbEntity
  8
0
 62
     7
 48
0.058464
370
    40
390
F
100
AcDbLine
 10
1137.0
 20
46.029278
 30
0.0
 11
1137.0
 21
48.367821
 31
0.0
  0
LINE
  5
39A
330
3DB
100
AcDbEntity
  8
0
 62
     7
 48
0.131089
370
    40
390
F
100
AcDbLine
 10
1137.0
 20
40.785725
 30
0.0
 11
1137.0
 21
46.029278
 31
0.0
  0
LINE
  5
39B
330
3DB
100
AcDbEntity
  8
0
 62
     7
370
    40
390
F
100
AcDbLine
 10
1137.0
 20
16.304348
 30
0.0
 11
1137.0
 21
40.785725
 31
0.0
  0
LINE
  5
39C
330
3DB
100
AcDbEntity
  8
0
 62
     7
370
    40
390
F
100
AcDbLine
 10
1137.0
 20
-16.304348
 30
0.0
 11
1137.0
 21
16.304348
 31
0.0
  0
LINE
  5
39D
330
3DB
100
AcDbEntity
  8
0
 62
     7
370
    40
390
F
100
AcDbLine
 10
1137.0
 20
-40.785725
 30
0.0
 11
1137.0
 21
-16.304348
 31
0.0
  0
LINE
  5
39E
330
3DB
100
AcDbEntity
  8
0
 62
     7
 48
0.131089
370
    40
390
F
100
AcDbLine
 10
1137.0
 20
-46.029278
 30
0.0
 11
1137.0
 21
-40.785725
 31
0.0
  0
LINE
  5
39F
330
3DB
100
AcDbEntity
  8
0
 62
     7
 48
0.058464
370
    40
390
F
100
AcDbLine
 10
1137.0
 20
-46.029278
 30
0.0
 11
1137.0
 21
-48.367821
 31
0.0
  0
LINE
  5
3A0
330
3DB
100
AcDbEntity
  8
0
 62
     7
 48
0.014555
370
    40
390
F
100
AcDbLine
 10
1137.0
 20
-48.950001
 30
0.0
 11
1137.0
 21
-48.367821
 31
0.0
  0
LINE
  5
3A1
330
3DB
100
AcDbEntity
  8
0
 62
     7
370
    40
390
F
100
AcDbLine
 10
67.0
 20
48.950001
 30
0.0
 11
1137.0
 21
48.950001
 31
0.0
  0
LINE
  5
3A2
330
3DB
100
AcDbEntity
  8
0
 62
     7
 48
0.014555
370
    40
390
F
100
AcDbLine
 10
67.0
 20
48.950001
 30
0.0
 11
67.0
 21
48.367821
 31
0.0
  0
LINE
  5
3A3
330
3DB
100
AcDbEntity
  8
0
 62
     7
370
    40
390
F
100
AcDbLine
 10
67.0
 20
48.367821
 30
0.0
 11
1137.0
 21
48.367821
 31
0.0
  0
LINE
  5
3A4
330
3DB
100
AcDbEntity
  8
0
 62
     7
 48
0.058464
370
    40
390
F
100
AcDbLine
 10
67.0
 20
46.029278
 30
0.0
 11
67.0
 21
48.367821
 31
0.0
  0
LINE
  5
3A5
330
3DB
100
AcDbEntity
  8
0
 62
     7
370
    13
390
F
100
AcDbLine
 10
67.0
 20
46.029278
 30
0.0
 11
1137.0
 21
46.029278
 31
0.0
  0
LINE
  5
3A6
330
3DB
100
AcDbEntity
  8
0
 62
     7
 48
0.131089
370
    40
390
F
100
AcDbLine
 10
67.0
 20
40.785725
 30
0.0
 11
67.0
 21
46.029278
 31
0.0
  0
LINE
  5
3A7
330
3DB
100
AcDbEntity
  8
0
 62
     7
370
    13
390
F
100
AcDbLine
 10
67.0
 20
40.785725
 30
0.0
 11
1137.0
 21
40.785725
 31
0.0
  0
LINE
  5
3A8
330
3DB
100
AcDbEntity
  8
0
 62
     7
370
    13
390
F
100
AcDbLine
 10
240.951736
 20
16.304348
 30
0.0
 11
1003.048279
 21
16.304348
 31
0.0
  0
CIRCLE
  5
3A9
330
3DB
100
AcDbEntity
  8
0
 62
     7
370
    40
390
F
100
AcDbCircle
 10
1022.0
 20
0.0
 30
0.0
 40
25.0
  0
LINE
  5
3AA
330
3DB
100
AcDbEntity
  8
0
 62
     7
370
    13
390
F
100
AcDbLine
 10
1040.951782
 20
16.304348
 30
0.0
 11
1137.0
 21
16.304348
 31
0.0
  0
LINE
  5
3AB
330
3DB
100
AcDbEntity
  8
0
 62
     7
370
    40
390
F
100
AcDbLine
 10
67.0
 20
16.304348
 30
0.0
 11
67.0
 21
40.785725
 31
0.0
  0
LINE
  5
3AC
330
3DB
100
AcDbEntity
  8
0
 62
     7
370
    13
390
F
100
AcDbLine
 10
67.0
 20
16.304348
 30
0.0
 11
203.048264
 21
16.304348
 31
0.0
  0
ARC
  5
3AD
330
3DB
100
AcDbEntity
  8
0
 62
     7
370
    40
390
F
100
AcDbCircle
 10
222.0
 20
0.0
 30
0.0
 40
25.0
100
AcDbArc
 50
0.0
 51
180.000009
  0
LINE
  5
3AE
330
3DB
100
AcDbEntity
  8
0
 62
     7
370
    13
390
F
100
AcDbLine
 10
1040.951782
 20
-16.304348
 30
0.0
 11
1137.0
 21
-16.304348
 31
0.0
  0
ARC
  5
3AF
330
3DB
100
AcDbEntity
  8
0
 62
     7
370
    40
390
F
100
AcDbCircle
 10
1114.0
 20
0.0
 30
0.0
 40
2.5
100
AcDbArc
 50
90.000003
 51
269.999997
  0
LINE
  5
3B0
330
3DB
100
AcDbEntity
  8
0
 62
     7
 48
0.3
370
    40
390
F
100
AcDbLine
 10
1114.0
 20
2.5
 30
0.0
 11
1126.0
 21
2.5
 31
0.0
  0
ARC
  5
3B1
330
3DB
100
AcDbEntity
  8
0
 62
     7
370
    40
390
F
100
AcDbCircle
 10
1126.0
 20
0.0
 30
0.0
 40
2.5
100
AcDbArc
 50
269.999997
 51
90.000003
  0
LINE
  5
3B2
330
3DB
100
AcDbEntity
  8
0
 62
     7
 48
0.3
370
    40
390
F
100
AcDbLine
 10
1114.0
 20
-2.5
 30
0.0
 11
1126.0
 21
-2.5
 31
0.0
  0
LINE
  5
3B3
330
3DB
100
AcDbEntity
  8
0
 62
     7
370
    13
390
F
100
AcDbLine
 10
240.951736
 20
-16.304348
 30
0.0
 11
1003.048279
 21
-16.304348
 31
0.0
  0
ARC
  5
3B4
330
3DB
100
AcDbEntity
  8
0
 62
     7
370
    40
390
F
100
AcDbCircle
 10
222.0
 20
0.0
 30
0.0
 40
25.0
100
AcDbArc
 50
180.000005
 51
0.0
  0
LINE
  5
3B5
330
3DB
100
AcDbEntity
  8
0
 62
     7
370
    13
390
F
100
AcDbLine
 10
67.0
 20
-16.304348
 30
0.0
 11
203.048264
 21
-16.304348
 31
0.0
  0
LINE
  5
3B6
330
3DB
100
AcDbEntity
  8
0
 62
     7
370
    40
390
F
100
AcDbLine
 10
67.0
 20
-40.785725
 30
0.0
 11
67.0
 21
-16.304348
 31
0.0
  0
LINE
  5
3B7
330
3DB
100
AcDbEntity
  8
0
 62
     7
370
    13
390
F
100
AcDbLine
 10
67.0
 20
-40.785725
 30
0.0
 11
1137.0
 21
-40.785725
 31
0.0
  0
LINE
  5
3B8
330
3DB
100
AcDbEntity
  8
0
 62
     7
 48
0.131089
370
    40
390
F
100
AcDbLine
 10
67.0
 20
-46.029278
 30
0.0
 11
67.0
 21
-40.785725
 31
0.0
  0
LINE
  5
3B9
330
3DB
100
AcDbEntity
  8
0
 62
     7
370
    13
390
F
100
AcDbLine
 10
67.0
 20
-46.029278
 30
0.0
 11
1137.0
 21
-46.029278
 31
0.0
  0
LINE
  5
3BA
330
3DB
100
AcDbEntity
  8
0
 62
     7
 48
0.058464
370
    40
390
F
100
AcDbLine
 10
67.0
 20
-46.029278
 30
0.0
 11
67.0
 21
-48.367821
 31
0.0
  0
LINE
  5
3BB
330
3DB
100
AcDbEntity
  8
0
 62
     7
370
    40
390
F
100
AcDbLine
 10
67.0
 20
-48.367821
 30
0.0
 11
1137.0
 21
-48.367821
 31
0.0
  0
LINE
  5
3BC
330
3DB
100
AcDbEntity
  8
0
 62
     7
 48
0.014555
370
    40
390
F
100
AcDbLine
 10
67.0
 20
-48.950001
 30
0.0
 11
67.0
 21
-48.367821
 31
0.0
  0
LINE
  5
3BD
330
3DB
100
AcDbEntity
  8
0
 62
     7
370
    40
390
F
100
AcDbLine
 10
67.0
 20
-48.950001
 30
0.0
 11
1137.0
 21
-48.950001
 31
0.0
  0
LINE
  5
3BE
330
3DB
100
AcDbEntity
  8
0
 62
     7
 48
0.082609
370
    40
390
F
100
AcDbLine
 10
67.0
 20
13.0
 30
0.0
 11
67.0
 21
16.304348
 31
0.0
  0
LINE
  5
3BF
330
3DB
100
AcDbEntity
  8
0
 62
     7
370
    40
390
F
100
AcDbLine
 10
910.299988
 20
13.0
 30
0.0
 11
910.299988
 21
-13.0
 31
0.0
  0
LINE
  5
3C0
330
3DB
100
AcDbEntity
  8
0
 62
     7
370
    40
390
F
100
AcDbLine
 10
910.299988
 20
-13.0
 30
0.0
 11
888.299988
 21
-13.0
 31
0.0
  0
LINE
  5
3C1
330
3DB
100
AcDbEntity
  8
0
 62
     7
370
    40
390
F
100
AcDbLine
 10
888.299988
 20
-13.0
 30
0.0
 11
888.299988
 21
13.0
 31
0.0
  0
LINE
  5
3C2
330
3DB
100
AcDbEntity
  8
0
 62
     7
370
    40
390
F
100
AcDbLine
 10
888.299988
 20
13.0
 30
0.0
 11
910.299988
 21
13.0
 31
0.0
  0
LINE
  5
3C3
330
3DB
100
AcDbEntity
  8
0
 62
     7
370
    40
390
F
100
AcDbLine
 10
356.0
 20
13.0
 30
0.0
 11
356.0
 21
-13.0
 31
0.0
  0
LINE
  5
3C4
330
3DB
100
AcDbEntity
  8
0
 62
     7
370
    40
390
F
100
AcDbLine
 10
356.0
 20
-13.0
 30
0.0
 11
334.0
 21
-13.0
 31
0.0
  0
LINE
  5
3C5
330
3DB
100
AcDbEntity
  8
0
 62
     7
370
    40
390
F
100
AcDbLine
 10
334.0
 20
-13.0
 30
0.0
 11
334.0
 21
13.0
 31
0.0
  0
LINE
  5
3C6
330
3DB
100
AcDbEntity
  8
0
 62
     7
370
    40
390
F
100
AcDbLine
 10
334.0
 20
13.0
 30
0.0
 11
356.0
 21
13.0
 31
0.0
  0
LINE
  5
3C7
330
3DB
100
AcDbEntity
  8
0
 62
     7
 48
0.070711
370
    40
390
F
100
AcDbLine
 10
67.0
 20
13.0
 30
0.0
 11
69.0
 21
11.0
 31
0.0
  0
LINE
  5
3C8
330
3DB
100
AcDbEntity
  8
0
 62
     7
 48
0.325
370
    40
390
F
100
AcDbLine
 10
69.0
 20
11.0
 30
0.0
 11
82.0
 21
11.0
 31
0.0
  0
LINE
  5
3C9
330
3DB
100
AcDbEntity
  8
0
 62
     7
 48
0.05
370
    40
390
F
100
AcDbLine
 10
82.0
 20
9.0
 30
0.0
 11
82.0
 21
11.0
 31
0.0
  0
LINE
  5
3CA
330
3DB
100
AcDbEntity
  8
0
 62
     7
 48
0.075
370
    40
390
F
100
AcDbLine
 10
79.0
 20
9.0
 30
0.0
 11
82.0
 21
9.0
 31
0.0
  0
LINE
  5
3CB
330
3DB
100
AcDbEntity
  8
0
 62
     7
 48
0.070711
370
    40
390
F
100
AcDbLine
 10
77.0
 20
7.0
 30
0.0
 11
79.0
 21
9.0
 31
0.0
  0
LINE
  5
3CC
330
3DB
100
AcDbEntity
  8
0
 62
     7
 48
0.0625
370
    40
390
F
100
AcDbLine
 10
77.0
 20
4.5
 30
0.0
 11
77.0
 21
7.0
 31
0.0
  0
LINE
  5
3CD
330
3DB
100
AcDbEntity
  8
0
 62
     7
 48
0.2
370
    40
390
F
100
AcDbLine
 10
69.0
 20
4.5
 30
0.0
 11
77.0
 21
4.5
 31
0.0
  0
LINE
  5
3CE
330
3DB
100
AcDbEntity
  8
0
 62
     7
 48
0.070711
370
    40
390
F
100
AcDbLine
 10
67.0
 20
2.5
 30
0.0
 11
69.0
 21
4.5
 31
0.0
  0
LINE
  5
3CF
330
3DB
100
AcDbEntity
  8
0
 62
     7
 48
0.0625
370
    40
390
F
100
AcDbLine
 10
67.0
 20
0.0
 30
0.0
 11
67.0
 21
2.5
 31
0.0
  0
LINE
  5
3D0
330
3DB
100
AcDbEntity
  8
0
 62
     7
 48
0.0625
370
    40
390
F
100
AcDbLine
 10
67.0
 20
-2.5
 30
0.0
 11
67.0
 21
0.0
 31
0.0
  0
LINE
  5
3D1
330
3DB
100
AcDbEntity
  8
0
 62
     7
 48
0.070711
370
    40
390
F
100
AcDbLine
 10
69.0
 20
-4.5
 30
0.0
 11
67.0
 21
-2.5
 31
0.0
  0
LINE
  5
3D2
330
3DB
100
AcDbEntity
  8
0
 62
     7
 48
0.2
370
    40
390
F
100
AcDbLine
 10
69.0
 20
-4.5
 30
0.0
 11
77.0
 21
-4.5
 31
0.0
  0
LINE
  5
3D3
330
3DB
100
AcDbEntity
  8
0
 62
     7
 48
0.0625
370
    40
390
F
100
AcDbLine
 10
77.0
 20
-7.0
 30
0.0
 11
77.0
 21
-4.5
 31
0.0
  0
LINE
  5
3D4
330
3DB
100
AcDbEntity
  8
0
 62
     7
 48
0.070711
370
    40
390
F
100
AcDbLine
 10
77.0
 20
-7.0
 30
0.0
 11
79.0
 21
-9.0
 31
0.0
  0
LINE
  5
3D5
330
3DB
100
AcDbEntity
  8
0
 62
     7
 48
0.075
370
    40
390
F
100
AcDbLine
 10
79.0
 20
-9.0
 30
0.0
 11
82.0
 21
-9.0
 31
0.0
  0
LINE
  5
3D6
330
3DB
100
AcDbEntity
  8
0
 62
     7
 48
0.05
370
    40
390
F
100
AcDbLine
 10
82.0
 20
-11.0
 30
0.0
 11
82.0
 21
-9.0
 31
0.0
  0
LINE
  5
3D7
330
3DB
100
AcDbEntity
  8
0
 62
     7
 48
0.325
370
    40
390
F
100
AcDbLine
 10
69.0
 20
-11.0
 30
0.0
 11
82.0
 21
-11.0
 31
0.0
  0
LINE
  5
3D8
330
3DB
100
AcDbEntity
  8
0
 62
     7
 48
0.070711
370
    40
390
F
100
AcDbLine
 10
67.0
 20
-13.0
 30
0.0
 11
69.0
 21
-11.0
 31
0.0
  0
LINE
  5
3D9
330
3DB
100
AcDbEntity
  8
0
 62
     7
 48
0.082609
370
    40
390
F
100
AcDbLine
 10
67.0
 20
-16.304348
 30
0.0
 11
67.0
 21
-13.0
 31
0.0
  0
ENDBLK
  5
68D
330
3DB
100
AcDbEntity
  8
0
100
AcDbBlockEnd
  0
BLOCK
  5
68E
330
3E1
100
AcDbEntity
  8
0
100
AcDbBlockBegin
  2
BLOCK190
 70
     0
 10
0.0
 20
0.0
 30
0.0
  3
BLOCK190
  1

  0
TEXT
  5
3DD
330
3E1
100
AcDbEntity
  8
0
 62
     7
370
    13
390
F
100
AcDbText
 10
17.385487
 20
-168.347488
 30
0.0
 40
5.0
  1
PARTE RIFLETTENTE DA PROTEGGERE CON PELABILE
 41
0.8876077860465116
 72
     5
 11
208.221161
 21
-168.347488
 31
0.0
100
AcDbText
  0
LWPOLYLINE
  5
3DE
330
3E1
100
AcDbEntity
  8
0
 62
     7
370
    13
390
F
100
AcDbPolyline
 90
        3
 70
     0
 43
0.0
 10
18.629591
 20
-33.934418
 10
11.385487
 20
-170.047775
 10
208.221161
 20
-170.047775
  0
LWPOLYLINE
  5
3DF
330
3E1
100
AcDbEntity
  8
0
 62
     7
370
    13
390
F
100
AcDbPolyline
 90
        3
 70
     0
 43
0.0
 10
19.487289
 20
-37.985733
 10
18.629591
 20
-33.934418
 10
17.346725
 20
-37.871796
  0
ENDBLK
  5
68F
330
3E1
100
AcDbEntity
  8
0
100
AcDbBlockEnd
  0
BLOCK
  5
690
330
3EA
100
AcDbEntity
  8
0
100
AcDbBlockBegin
  2
BLOCK191
 70
     0
 10
0.0
 20
0.0
 30
0.0
  3
BLOCK191
  1

  0
SOLID
  5
3E3
330
3EA
100
AcDbEntity
  8
0
 62
     7
370
    13
390
F
100
AcDbTrace
 10
4.947884
 20
23.648661
 30
0.0
 11
8.73875
 21
22.372208
 31
0.0
 12
4.947884
 22
23.648661
 32
0.0
 13
6.09399
 23
25.373081
 33
0.0
  0
TEXT
  5
3E4
330
3EA
100
AcDbEntity
  8
0
 62
     7
370
    13
390
F
100
AcDbText
 10
-41.209511
 20
60.372364
 30
0.0
 40
6.0
  1
63
 50
326.3906904016264
 41
1.160922488148972
 72
     5
 11
-31.540985
 21
53.946346
 31
0.0
100
AcDbText
  0
TEXT
  5
3E5
330
3EA
100
AcDbEntity
  8
0
 62
     7
370
    13
390
F
100
AcDbText
 10
-47.209732
 20
64.360313
 30
0.0
 40
6.0
  1
R
 50
326.3906879479206
 41
1.301153083507688
 72
     5
 11
-42.875168
 21
61.47942
 31
0.0
100
AcDbText
  0
LINE
  5
3E6
330
3EA
100
AcDbEntity
  8
0
 62
     7
370
    13
390
F
100
AcDbLine
 10
61.207111
 20
-12.5
 30
0.0
 11
8.73875
 21
22.372208
 31
0.0
  0
LINE
  5
3E7
330
3EA
100
AcDbEntity
  8
0
 62
     7
370
    13
390
F
100
AcDbLine
 10
5.520937
 20
24.510872
 30
0.0
 11
-49.423843
 21
61.028988
 31
0.0
  0
LWPOLYLINE
  5
3E8
330
3EA
100
AcDbEntity
  8
0
 62
     7
370
    13
390
F
100
AcDbPolyline
 90
        3
 70
     1
 43
0.0
 10
4.947884
 20
23.648661
 10
8.73875
 20
22.372208
 10
6.09399
 20
25.373081
  0
ENDBLK
  5
691
330
3EA
100
AcDbEntity
  8
0
100
AcDbBlockEnd
  0
BLOCK
  5
692
330
3F3
100
AcDbEntity
  8
0
100
AcDbBlockBegin
  2
BLOCK192
 70
     0
 10
0.0
 20
0.0
 30
0.0
  3
BLOCK192
  1

  0
SOLID
  5
3EC
330
3F3
100
AcDbEntity
  8
0
 62
     7
370
    13
390
F
100
AcDbTrace
 10
31.771296
 20
46.063641
 30
0.0
 11
28.290503
 21
44.092834
 31
0.0
 12
31.771296
 22
46.063641
 32
0.0
 13
32.290363
 23
44.059208
 33
0.0
  0
TEXT
  5
3ED
330
3F3
100
AcDbEntity
  8
0
 62
     7
370
    13
390
F
100
AcDbText
 10
57.615978
 20
55.818863
 30
0.0
 40
6.0
  1
3.5
 50
14.51830917899421
 41
1.501152945357586
 72
     5
 11
75.054588
 21
60.33474
 31
0.0
100
AcDbText
  0
TEXT
  5
3EE
330
3F3
100
AcDbEntity
  8
0
 62
     7
370
    13
390
F
100
AcDbText
 10
50.64143
 20
54.012745
 30
0.0
 40
6.0
  1
R
 50
14.51831623802837
 41
1.301152487039784
 72
     5
 11
55.679844
 21
55.317486
 31
0.0
100
AcDbText
  0
LINE
  5
3EF
330
3F3
100
AcDbEntity
  8
0
 62
     7
 48
0.0875
370
    13
390
F
100
AcDbLine
 10
24.902267
 20
43.21542
 30
0.0
 11
28.290503
 21
44.092834
 31
0.0
  0
LINE
  5
3F0
330
3F3
100
AcDbEntity
  8
0
 62
     7
370
    13
390
F
100
AcDbLine
 10
32.03083
 20
45.061424
 30
0.0
 11
76.05735
 21
56.462471
 31
0.0
  0
LWPOLYLINE
  5
3F1
330
3F3
100
AcDbEntity
  8
0
 62
     7
370
    13
390
F
100
AcDbPolyline
 90
        3
 70
     1
 43
0.0
 10
31.771296
 20
46.063641
 10
28.290503
 20
44.092834
 10
32.290363
 20
44.059208
  0
ENDBLK
  5
693
330
3F3
100
AcDbEntity
  8
0
100
AcDbBlockEnd
  0
BLOCK
  5
694
330
3FC
100
AcDbEntity
  8
0
100
AcDbBlockBegin
  2
BLOCK193
 70
     0
 10
0.0
 20
0.0
 30
0.0
  3
BLOCK193
  1

  0
SOLID
  5
3F5
330
3FC
100
AcDbEntity
  8
0
 62
     7
370
    13
390
F
100
AcDbTrace
 10
-1.435854
 20
9.797144
 30
0.0
 11
2.563591
 21
9.730514
 31
0.0
 12
-1.435854
 22
9.797144
 32
0.0
 13
-0.866714
 23
11.78794
 33
0.0
  0
TEXT
  5
3F6
330
3FC
100
AcDbEntity
  8
0
 62
     7
370
    13
390
F
100
AcDbText
 10
-42.480438
 20
26.768196
 30
0.0
 40
6.0
  1
35.4
 50
344.0455360556831
 41
1.356580356386722
 72
     5
 11
-19.002579
 21
20.056217
 31
0.0
100
AcDbText
  0
TEXT
  5
3F7
330
3FC
100
AcDbEntity
  8
0
 62
     7
370
    13
390
F
100
AcDbText
 10
-49.407532
 20
28.74855
 30
0.0
 40
6.0
  1
R
 50
344.0455735112013
 41
1.301153349567727
 72
     5
 11
-44.403397
 21
27.317944
 31
0.0
100
AcDbText
  0
LINE
  5
3F8
330
3FC
100
AcDbEntity
  8
0
 62
     7
370
    13
390
F
100
AcDbLine
 10
36.599998
 20
0.0
 30
0.0
 11
2.563591
 21
9.730513
 31
0.0
  0
LINE
  5
3F9
330
3FC
100
AcDbEntity
  8
0
 62
     7
370
    13
390
F
100
AcDbLine
 10
-1.151284
 20
10.792542
 30
0.0
 11
-50.507027
 21
24.90263
 31
0.0
  0
LWPOLYLINE
  5
3FA
330
3FC
100
AcDbEntity
  8
0
 62
     7
370
    13
390
F
100
AcDbPolyline
 90
        3
 70
     1
 43
0.0
 10
-1.435854
 20
9.797144
 10
2.563591
 20
9.730514
 10
-0.866714
 20
11.78794
  0
ENDBLK
  5
695
330
3FC
100
AcDbEntity
  8
0
100
AcDbBlockEnd
  0
BLOCK
  5
696
330
407
100
AcDbEntity
  8
0
100
AcDbBlockBegin
  2
BLOCK194
 70
     0
 10
0.0
 20
0.0
 30
0.0
  3
BLOCK194
  1

  0
SOLID
  5
3FE
330
407
100
AcDbEntity
  8
0
 62
     7
370
    13
390
F
100
AcDbTrace
 10
57.34341
 20
-87.352448
 30
0.0
 11
61.207111
 21
-86.317169
 31
0.0
 12
57.34341
 22
-87.352448
 32
0.0
 13
57.34341
 23
-85.281891
 33
0.0
  0
SOLID
  5
3FF
330
407
100
AcDbEntity
  8
0
 62
     7
370
    13
390
F
100
AcDbTrace
 10
4.463703
 20
-85.281891
 30
0.0
 11
0.6
 21
-86.317169
 31
0.0
 12
4.463703
 22
-85.281891
 32
0.0
 13
4.463703
 23
-87.352448
 33
0.0
  0
TEXT
  5
400
330
407
100
AcDbEntity
  8
0
 62
     7
370
    13
390
F
100
AcDbText
 10
19.737593
 20
-82.317169
 30
0.0
 40
6.0
  1
60.6
 41
1.436379
 72
     5
 11
44.156036
 21
-82.317169
 31
0.0
100
AcDbText
  0
LINE
  5
401
330
407
100
AcDbEntity
  8
0
 62
     7
370
    13
390
F
100
AcDbLine
 10
0.6
 20
-23.813202
 30
0.0
 11
0.6
 21
-90.317169
 31
0.0
  0
LINE
  5
402
330
407
100
AcDbEntity
  8
0
 62
     7
370
    13
390
F
100
AcDbLine
 10
61.207111
 20
-24.673849
 30
0.0
 11
61.207111
 21
-90.317169
 31
0.0
  0
LINE
  5
403
330
407
100
AcDbEntity
  8
0
 62
     7
370
    13
390
F
100
AcDbLine
 10
4.463703
 20
-86.317169
 30
0.0
 11
57.34341
 21
-86.317169
 31
0.0
  0
LWPOLYLINE
  5
404
330
407
100
AcDbEntity
  8
0
 62
     7
370
    13
390
F
100
AcDbPolyline
 90
        3
 70
     1
 43
0.0
 10
57.34341
 20
-87.352448
 10
61.207111
 20
-86.317169
 10
57.34341
 20
-85.281891
  0
LWPOLYLINE
  5
405
330
407
100
AcDbEntity
  8
0
 62
     7
370
    13
390
F
100
AcDbPolyline
 90
        3
 70
     1
 43
0.0
 10
4.463703
 20
-85.281891
 10
0.6
 20
-86.317169
 10
4.463703
 20
-87.352448
  0
ENDBLK
  5
697
330
407
100
AcDbEntity
  8
0
100
AcDbBlockEnd
  0
BLOCK
  5
698
330
414
100
AcDbEntity
  8
0
100
AcDbBlockBegin
  2
BLOCK195
 70
     0
 10
0.0
 20
0.0
 30
0.0
  3
BLOCK195
  1

  0
SOLID
  5
409
330
414
100
AcDbEntity
  8
0
 62
     7
370
    13
390
F
100
AcDbTrace
 10
85.872597
 20
3.863703
 30
0.0
 11
86.907875
 21
0.0
 31
0.0
 12
85.872597
 22
3.863703
 32
0.0
 13
87.943153
 23
3.863703
 33
0.0
  0
SOLID
  5
40A
330
414
100
AcDbEntity
  8
0
 62
     7
370
    13
390
F
100
AcDbTrace
 10
87.943153
 20
-16.363703
 30
0.0
 11
86.907875
 21
-12.5
 31
0.0
 12
87.943153
 22
-16.363703
 32
0.0
 13
85.872597
 23
-16.363703
 33
0.0
  0
TEXT
  5
40B
330
414
100
AcDbEntity
  8
0
 62
     7
370
    13
390
F
100
AcDbText
 10
82.907875
 20
10.303808
 30
0.0
 40
6.0
  1
12.5
 50
90.0
 41
1.52615275
 72
     5
 11
82.907875
 21
34.722252
 31
0.0
100
AcDbText
  0
LINE
  5
40C
330
414
100
AcDbEntity
  8
0
 62
     7
 48
0.438173
370
    13
390
F
100
AcDbLine
 10
73.380959
 20
-12.5
 30
0.0
 11
90.907875
 21
-12.5
 31
0.0
  0
LINE
  5
40D
330
414
100
AcDbEntity
  8
0
 62
     7
370
    13
390
F
100
AcDbLine
 10
50.039936
 20
0.0
 30
0.0
 11
90.907875
 21
0.0
 31
0.0
  0
LINE
  5
40E
330
414
100
AcDbEntity
  8
0
 62
     7
 48
0.153407
370
    13
390
F
100
AcDbLine
 10
86.907875
 20
-22.5
 30
0.0
 11
86.907875
 21
-16.363703
 31
0.0
  0
LINE
  5
40F
330
414
100
AcDbEntity
  8
0
 62
     7
 48
0.3125
370
    13
390
F
100
AcDbLine
 10
86.907875
 20
-12.5
 30
0.0
 11
86.907875
 21
0.0
 31
0.0
  0
LINE
  5
410
330
414
100
AcDbEntity
  8
0
 62
     7
370
    13
390
F
100
AcDbLine
 10
86.907875
 20
3.863703
 30
0.0
 11
86.907875
 21
34.722252
 31
0.0
  0
LWPOLYLINE
  5
411
330
414
100
AcDbEntity
  8
0
 62
     7
370
    13
390
F
100
AcDbPolyline
 90
        3
 70
     1
 43
0.0
 10
85.872597
 20
3.863703
 10
86.907875
 20
0.0
 10
87.943153
 20
3.863703
  0
LWPOLYLINE
  5
412
330
414
100
AcDbEntity
  8
0
 62
     7
370
    13
390
F
100
AcDbPolyline
 90
        3
 70
     1
 43
0.0
 10
87.943153
 20
-16.363703
 10
86.907875
 20
-12.5
 10
85.872597
 20
-16.363703
  0
ENDBLK
  5
699
330
414
100
AcDbEntity
  8
0
100
AcDbBlockEnd
  0
BLOCK
  5
69A
330
421
100
AcDbEntity
  8
0
100
AcDbBlockBegin
  2
BLOCK196
 70
     0
 10
0.0
 20
0.0
 30
0.0
  3
BLOCK196
  1

  0
SOLID
  5
416
330
421
100
AcDbEntity
  8
0
 62
     7
370
    13
390
F
100
AcDbTrace
 10
39.75766
 20
86.826279
 30
0.0
 11
35.75827
 21
86.75647
 31
0.0
 12
39.75766
 22
86.826279
 32
0.0
 13
39.256748
 23
84.81723
 33
0.0
  0
SOLID
  5
417
330
421
100
AcDbEntity
  8
0
 62
     7
370
    13
390
F
100
AcDbTrace
 10
22.379492
 20
89.0252
 30
0.0
 11
26.378883
 21
89.095009
 31
0.0
 12
22.379492
 22
89.0252
 32
0.0
 13
22.880404
 23
91.034248
 33
0.0
  0
TEXT
  5
418
330
421
100
AcDbEntity
  8
0
 62
     7
370
    13
390
F
100
AcDbText
 10
-0.817287
 20
99.99823
 30
0.0
 40
6.0
  1
9.7
 50
345.9999994827052
 41
1.501152824341266
 72
     5
 11
16.661459
 21
95.640289
 31
0.0
100
AcDbText
  0
LINE
  5
419
330
421
100
AcDbEntity
  8
0
 62
     7
370
    13
390
F
100
AcDbLine
 10
16.853451
 20
50.890591
 30
0.0
 11
27.346571
 21
92.976196
 31
0.0
  0
LINE
  5
41A
330
421
100
AcDbEntity
  8
0
 62
     7
370
    13
390
F
100
AcDbLine
 10
26.232838
 20
48.552048
 30
0.0
 11
36.725956
 21
90.63765
 31
0.0
  0
LINE
  5
41B
330
421
100
AcDbEntity
  8
0
 62
     7
370
    13
390
F
100
AcDbLine
 10
-1.784974
 20
96.11705
 30
0.0
 11
22.629948
 21
90.029724
 31
0.0
  0
LINE
  5
41C
330
421
100
AcDbEntity
  8
0
 62
     7
 48
0.241663
370
    13
390
F
100
AcDbLine
 10
26.378883
 20
89.095009
 30
0.0
 11
35.75827
 21
86.75647
 31
0.0
  0
LINE
  5
41D
330
421
100
AcDbEntity
  8
0
 62
     7
 48
0.153407
370
    13
390
F
100
AcDbLine
 10
39.507202
 20
85.821754
 30
0.0
 11
45.461227
 21
84.33725
 31
0.0
  0
LWPOLYLINE
  5
41E
330
421
100
AcDbEntity
  8
0
 62
     7
370
    13
390
F
100
AcDbPolyline
 90
        3
 70
     1
 43
0.0
 10
39.75766
 20
86.826279
 10
35.75827
 20
86.75647
 10
39.256748
 20
84.81723
  0
LWPOLYLINE
  5
41F
330
421
100
AcDbEntity
  8
0
 62
     7
370
    13
390
F
100
AcDbPolyline
 90
        3
 70
     1
 43
0.0
 10
22.379492
 20
89.0252
 10
26.378883
 20
89.095009
 10
22.880404
 20
91.034248
  0
ENDBLK
  5
69B
330
421
100
AcDbEntity
  8
0
100
AcDbBlockEnd
  0
BLOCK
  5
69C
330
42F
100
AcDbEntity
  8
0
100
AcDbBlockBegin
  2
BLOCK197
 70
     0
 10
0.0
 20
0.0
 30
0.0
  3
BLOCK197
  1

  0
SOLID
  5
423
330
42F
100
AcDbEntity
  8
0
 62
     7
370
    13
390
F
100
AcDbTrace
 10
71.114815
 20
31.318501
 30
0.0
 11
71.045006
 21
35.31789
 31
0.0
 12
71.114815
 22
31.318501
 32
0.0
 13
69.105766
 23
31.819412
 33
0.0
  0
SOLID
  5
424
330
42F
100
AcDbEntity
  8
0
 62
     7
370
    13
390
F
100
AcDbTrace
 10
71.683548
 20
52.813702
 30
0.0
 11
72.718819
 21
48.950001
 31
0.0
 12
71.683548
 22
52.813702
 32
0.0
 13
73.754097
 23
52.813702
 33
0.0
  0
TEXT
  5
425
330
42F
100
AcDbEntity
  8
0
 62
     7
370
    13
390
F
100
AcDbText
 10
67.465538
 20
35.031677
 30
0.0
 40
6.0
  1
14
 50
83.45622921428004
 41
1.45115313964357
 72
     5
 11
68.788551
 21
46.565269
 31
0.0
100
AcDbText
  0
TEXT
  5
426
330
42F
100
AcDbEntity
  8
0
 62
     7
370
    13
390
F
100
AcDbText
 10
67.596375
 20
46.702026
 30
0.0
 40
6.0
  1
%%d
 50
83.45622087953353
 41
2.199998339085569
 72
     5
 11
68.097809
 21
51.073357
 31
0.0
100
AcDbText
  0
LINE
  5
427
330
42F
100
AcDbEntity
  8
0
 62
     7
370
    13
390
F
100
AcDbLine
 10
27.689585
 20
46.127613
 30
0.0
 11
74.926193
 21
34.350204
 31
0.0
  0
LINE
  5
428
330
42F
100
AcDbEntity
  8
0
 62
     7
370
    13
390
F
100
AcDbLine
 10
18.369608
 20
48.950001
 30
0.0
 11
76.718819
 21
48.950001
 31
0.0
  0
ARC
  5
429
330
42F
100
AcDbEntity
  8
0
 62
     7
370
    13
390
F
100
AcDbCircle
 10
16.369608
 20
48.950001
 30
0.0
 40
56.349213
100
AcDbArc
 50
335.832016
 51
342.068305
  0
ARC
  5
42A
330
42F
100
AcDbEntity
  8
0
 62
     7
370
    13
390
F
100
AcDbCircle
 10
16.369608
 20
48.950001
 30
0.0
 40
56.349213
100
AcDbArc
 50
346.000008
 51
0.00001
  0
ARC
  5
42B
330
42F
100
AcDbEntity
  8
0
 62
     7
370
    13
390
F
100
AcDbCircle
 10
16.369608
 20
48.950001
 30
0.0
 40
56.349213
100
AcDbArc
 50
3.931685
 51
10.167976
  0
LWPOLYLINE
  5
42C
330
42F
100
AcDbEntity
  8
0
 62
     7
370
    13
390
F
100
AcDbPolyline
 90
        3
 70
     1
 43
0.0
 10
71.114815
 20
31.318501
 10
71.045006
 20
35.31789
 10
69.105766
 20
31.819412
  0
LWPOLYLINE
  5
42D
330
42F
100
AcDbEntity
  8
0
 62
     7
370
    13
390
F
100
AcDbPolyline
 90
        3
 70
     1
 43
0.0
 10
71.683548
 20
52.813702
 10
72.718819
 20
48.950001
 10
73.754097
 20
52.813702
  0
ENDBLK
  5
69D
330
42F
100
AcDbEntity
  8
0
100
AcDbBlockEnd
  0
BLOCK
  5
69E
330
438
100
AcDbEntity
  8
0
100
AcDbBlockBegin
  2
BLOCK198
 70
     0
 10
0.0
 20
0.0
 30
0.0
  3
BLOCK198
  1

  0
SOLID
  5
431
330
438
100
AcDbEntity
  8
0
 62
    34
370
    13
390
F
100
AcDbTrace
 10
20.019022
 20
40.181759
 30
0.0
 11
23.176741
 21
37.726395
 31
0.0
 12
20.019022
 22
40.181759
 32
0.0
 13
21.66976
 23
41.431664
 33
0.0
  0
TEXT
  5
432
330
438
100
AcDbEntity
  8
0
 62
    34
370
    13
390
F
100
AcDbText
 10
-14.98464
 20
94.752106
 30
0.0
 40
6.0
  1
118
 50
307.1322280315912
 41
1.501153334256718
 72
     5
 11
-4.110468
 21
80.390671
 31
0.0
100
AcDbText
  0
TEXT
  5
433
330
438
100
AcDbEntity
  8
0
 62
    34
370
    13
390
F
100
AcDbText
 10
-19.333752
 20
100.495941
 30
0.0
 40
6.0
  1
R
 50
307.1322147533169
 41
1.301154236596517
 72
     5
 11
-16.191952
 21
96.346588
 31
0.0
100
AcDbText
  0
LINE
  5
434
330
438
100
AcDbEntity
  8
0
 62
    34
 48
0.5
370
    13
390
F
100
AcDbLine
 10
35.249874
 20
21.781507
 30
0.0
 11
23.176741
 21
37.726395
 31
0.0
  0
LINE
  5
435
330
438
100
AcDbEntity
  8
0
 62
    34
370
    13
390
F
100
AcDbLine
 10
20.844391
 20
40.806709
 30
0.0
 11
-22.522728
 21
98.081306
 31
0.0
  0
LWPOLYLINE
  5
436
330
438
100
AcDbEntity
  8
0
 62
    34
370
    13
390
F
100
AcDbPolyline
 90
        3
 70
     1
 43
0.0
 10
20.019022
 20
40.181759
 10
23.176741
 20
37.726395
 10
21.66976
 20
41.431664
  0
ENDBLK
  5
69F
330
438
100
AcDbEntity
  8
0
100
AcDbBlockEnd
  0
BLOCK
  5
6A0
330
443
100
AcDbEntity
  8
0
100
AcDbBlockBegin
  2
BLOCK199
 70
     0
 10
0.0
 20
0.0
 30
0.0
  3
BLOCK199
  1

  0
SOLID
  5
43A
330
443
100
AcDbEntity
  8
0
 62
     7
370
    13
390
F
100
AcDbTrace
 10
-58.124081
 20
45.086296
 30
0.0
 11
-59.159355
 21
48.950001
 31
0.0
 12
-58.124081
 22
45.086296
 32
0.0
 13
-60.19463
 23
45.086296
 33
0.0
  0
SOLID
  5
43B
330
443
100
AcDbEntity
  8
0
 62
     7
370
    13
390
F
100
AcDbTrace
 10
-60.19463
 20
-45.086296
 30
0.0
 11
-59.159355
 21
-48.950001
 31
0.0
 12
-60.19463
 22
-45.086296
 32
0.0
 13
-58.124081
 23
-45.086296
 33
0.0
  0
TEXT
  5
43C
330
443
100
AcDbEntity
  8
0
 62
     7
370
    13
390
F
100
AcDbText
 10
-63.159355
 20
-9.496729
 30
0.0
 40
6.0
  1
97.9
 50
90.0
 41
1.356580333333333
 72
     5
 11
-63.159355
 21
14.921717
 31
0.0
100
AcDbText
  0
LINE
  5
43D
330
443
100
AcDbEntity
  8
0
 62
     7
370
    13
390
F
100
AcDbLine
 10
14.369607
 20
-48.950001
 30
0.0
 11
-63.159355
 21
-48.950001
 31
0.0
  0
LINE
  5
43E
330
443
100
AcDbEntity
  8
0
 62
     7
370
    13
390
F
100
AcDbLine
 10
14.369607
 20
48.950001
 30
0.0
 11
-63.159355
 21
48.950001
 31
0.0
  0
LINE
  5
43F
330
443
100
AcDbEntity
  8
0
 62
     7
370
    13
390
F
100
AcDbLine
 10
-59.159355
 20
-45.086296
 30
0.0
 11
-59.159355
 21
45.086296
 31
0.0
  0
LWPOLYLINE
  5
440
330
443
100
AcDbEntity
  8
0
 62
     7
370
    13
390
F
100
AcDbPolyline
 90
        3
 70
     1
 43
0.0
 10
-58.124081
 20
45.086296
 10
-59.159355
 20
48.950001
 10
-60.19463
 20
45.086296
  0
LWPOLYLINE
  5
441
330
443
100
AcDbEntity
  8
0
 62
     7
370
    13
390
F
100
AcDbPolyline
 90
        3
 70
     1
 43
0.0
 10
-60.19463
 20
-45.086296
 10
-59.159355
 20
-48.950001
 10
-58.124081
 20
-45.086296
  0
ENDBLK
  5
6A1
330
443
100
AcDbEntity
  8
0
100
AcDbBlockEnd
  0
BLOCK
  5
6A2
330
450
100
AcDbEntity
  8
0
100
AcDbBlockBegin
  2
BLOCK200
 70
     0
 10
0.0
 20
0.0
 30
0.0
  3
BLOCK200
  1

  0
SOLID
  5
445
330
450
100
AcDbEntity
  8
0
 62
     7
370
    13
390
F
100
AcDbTrace
 10
-61.546234
 20
-63.776249
 30
0.0
 11
-59.606995
 21
-67.274727
 31
0.0
 12
-61.546234
 22
-63.776249
 32
0.0
 13
-59.537186
 23
-63.275337
 33
0.0
  0
SOLID
  5
446
330
450
100
AcDbEntity
  8
0
 62
     7
370
    13
390
F
100
AcDbTrace
 10
-57.522602
 20
-71.355385
 30
0.0
 11
-59.461842
 21
-67.856903
 31
0.0
 12
-57.522602
 22
-71.355385
 32
0.0
 13
-59.531651
 23
-71.856293
 33
0.0
  0
TEXT
  5
447
330
450
100
AcDbEntity
  8
0
 62
     7
370
    13
390
F
100
AcDbText
 10
-45.025444
 20
-109.223885
 30
0.0
 40
6.0
  1
0.6
 50
284.0000020562348
 41
1.63762108650034
 72
     5
 11
-40.667503
 21
-126.702629
 31
0.0
100
AcDbText
  0
LINE
  5
448
330
450
100
AcDbEntity
  8
0
 62
     7
370
    13
390
F
100
AcDbLine
 10
14.283863
 20
-48.851665
 30
0.0
 11
-63.488178
 21
-68.242416
 31
0.0
  0
LINE
  5
449
330
450
100
AcDbEntity
  8
0
 62
     7
370
    13
390
F
100
AcDbLine
 10
14.429016
 20
-49.433846
 30
0.0
 11
-63.343025
 21
-68.824593
 31
0.0
  0
LINE
  5
44A
330
450
100
AcDbEntity
  8
0
 62
     7
 48
0.153407
370
    13
390
F
100
AcDbLine
 10
-62.026215
 20
-57.57177
 30
0.0
 11
-60.54171
 21
-63.525791
 31
0.0
  0
LINE
  5
44B
330
450
100
AcDbEntity
  8
0
 62
     7
 48
0.015
370
    13
390
F
100
AcDbLine
 10
-59.606995
 20
-67.274727
 30
0.0
 11
-59.461842
 21
-67.856903
 31
0.0
  0
LINE
  5
44C
330
450
100
AcDbEntity
  8
0
 62
     7
370
    13
390
F
100
AcDbLine
 10
-58.527126
 20
-71.605843
 30
0.0
 11
-44.548683
 21
-127.670311
 31
0.0
  0
LWPOLYLINE
  5
44D
330
450
100
AcDbEntity
  8
0
 62
     7
370
    13
390
F
100
AcDbPolyline
 90
        3
 70
     1
 43
0.0
 10
-61.546234
 20
-63.776249
 10
-59.606995
 20
-67.274727
 10
-59.537186
 20
-63.275337
  0
LWPOLYLINE
  5
44E
330
450
100
AcDbEntity
  8
0
 62
     7
370
    13
390
F
100
AcDbPolyline
 90
        3
 70
     1
 43
0.0
 10
-57.522602
 20
-71.355385
 10
-59.461842
 20
-67.856903
 10
-59.531651
 20
-71.856293
  0
ENDBLK
  5
6A3
330
450
100
AcDbEntity
  8
0
100
AcDbBlockEnd
  0
BLOCK
  5
6A4
330
455
100
AcDbEntity
  8
0
100
AcDbBlockBegin
  2
BLOCK201
 70
     0
 10
0.0
 20
0.0
 30
0.0
  3
BLOCK201
  1

  0
LINE
  5
452
330
455
100
AcDbEntity
  8
0
  6
DASHDOT
 62
     7
 48
0.1885
370
    13
390
F
100
AcDbLine
 10
28.672268
 20
43.21542
 30
0.0
 11
21.132267
 21
43.21542
 31
0.0
  0
LINE
  5
453
330
455
100
AcDbEntity
  8
0
  6
DASHDOT
 62
     7
 48
0.1885
370
    13
390
F
100
AcDbLine
 10
24.902267
 20
46.98542
 30
0.0
 11
24.902267
 21
39.445423
 31
0.0
  0
ENDBLK
  5
6A5
330
455
100
AcDbEntity
  8
0
100
AcDbBlockEnd
  0
BLOCK
  5
6A6
330
45A
100
AcDbEntity
  8
0
100
AcDbBlockBegin
  2
BLOCK202
 70
     0
 10
0.0
 20
0.0
 30
0.0
  3
BLOCK202
  1

  0
LINE
  5
457
330
45A
100
AcDbEntity
  8
0
  6
DASHDOT
 62
     7
370
    13
390
F
100
AcDbLine
 10
48.039936
 20
0.0
 30
0.0
 11
25.160063
 21
0.0
 31
0.0
  0
LINE
  5
458
330
45A
100
AcDbEntity
  8
0
  6
DASHDOT
 62
     7
370
    13
390
F
100
AcDbLine
 10
36.599998
 20
11.439938
 30
0.0
 11
36.599998
 21
-11.439938
 31
0.0
  0
ENDBLK
  5
6A7
330
45A
100
AcDbEntity
  8
0
100
AcDbBlockEnd
  0
BLOCK
  5
6A8
330
45F
100
AcDbEntity
  8
0
100
AcDbBlockBegin
  2
BLOCK203
 70
     0
 10
0.0
 20
0.0
 30
0.0
  3
BLOCK203
  1

  0
LINE
  5
45C
330
45F
100
AcDbEntity
  8
0
  6
DASHDOT
 62
     7
370
    13
390
F
100
AcDbLine
 10
71.380959
 20
-12.5
 30
0.0
 11
51.033264
 21
-12.5
 31
0.0
  0
LINE
  5
45D
330
45F
100
AcDbEntity
  8
0
  6
DASHDOT
 62
     7
370
    13
390
F
100
AcDbLine
 10
61.207111
 20
-2.32615
 30
0.0
 11
61.207111
 21
-22.673849
 31
0.0
  0
ENDBLK
  5
6A9
330
45F
100
AcDbEntity
  8
0
100
AcDbBlockEnd
  0
BLOCK
  5
6AA
330
472
100
AcDbEntity
  8
0
100
AcDbBlockBegin
  2
BLOCK204
 70
     0
 10
0.0
 20
0.0
 30
0.0
  3
BLOCK204
  1

  0
ARC
  5
461
330
472
100
AcDbEntity
  8
0
 62
     7
370
    40
390
F
100
AcDbCircle
 10
61.207111
 20
-12.5
 30
0.0
 40
63.0
100
AcDbArc
 50
123.088751
 51
153.070195
  0
ARC
  5
462
330
472
100
AcDbEntity
  8
0
 62
     7
370
    40
390
F
100
AcDbCircle
 10
24.902267
 20
43.21542
 30
0.0
 40
3.5
100
AcDbArc
 50
303.088753
 51
76.0
  0
LINE
  5
463
330
472
100
AcDbEntity
  8
0
 62
     7
 48
0.241663
370
    40
390
F
100
AcDbLine
 10
25.748993
 20
46.611458
 30
0.0
 11
16.369608
 21
48.950001
 31
0.0
  0
LINE
  5
464
330
472
100
AcDbEntity
  8
0
 62
     7
 48
0.015
370
    40
390
F
100
AcDbLine
 10
16.369608
 20
48.950001
 30
0.0
 11
16.224455
 21
48.367821
 31
0.0
  0
LINE
  5
465
330
472
100
AcDbEntity
  8
0
 62
     7
 48
0.241663
370
    40
390
F
100
AcDbLine
 10
25.60384
 20
46.029278
 30
0.0
 11
16.224455
 21
48.367821
 31
0.0
  0
ARC
  5
466
330
472
100
AcDbEntity
  8
0
 62
     7
370
    40
390
F
100
AcDbCircle
 10
24.902267
 20
43.21542
 30
0.0
 40
2.9
100
AcDbArc
 50
303.088753
 51
76.0
  0
ARC
  5
467
330
472
100
AcDbEntity
  8
0
 62
     7
370
    40
390
F
100
AcDbCircle
 10
61.207111
 20
-12.5
 30
0.0
 40
63.6
100
AcDbArc
 50
123.088751
 51
153.070195
  0
ARC
  5
468
330
472
100
AcDbEntity
  8
0
 62
     7
370
    40
390
F
100
AcDbCircle
 10
36.599998
 20
0.0
 30
0.0
 40
36.0
100
AcDbArc
 50
153.070195
 51
206.929805
  0
ARC
  5
469
330
472
100
AcDbEntity
  8
0
 62
     7
370
    40
390
F
100
AcDbCircle
 10
61.207111
 20
12.5
 30
0.0
 40
63.6
100
AcDbArc
 50
206.929805
 51
236.911249
  0
ARC
  5
46A
330
472
100
AcDbEntity
  8
0
 62
     7
370
    40
390
F
100
AcDbCircle
 10
24.902267
 20
-43.21542
 30
0.0
 40
2.9
100
AcDbArc
 50
284.0
 51
56.911247
  0
LINE
  5
46B
330
472
100
AcDbEntity
  8
0
 62
     7
 48
0.241663
370
    40
390
F
100
AcDbLine
 10
25.60384
 20
-46.029278
 30
0.0
 11
16.224455
 21
-48.367821
 31
0.0
  0
LINE
  5
46C
330
472
100
AcDbEntity
  8
0
 62
     7
 48
0.015
370
    40
390
F
100
AcDbLine
 10
16.369608
 20
-48.950001
 30
0.0
 11
16.224455
 21
-48.367821
 31
0.0
  0
LINE
  5
46D
330
472
100
AcDbEntity
  8
0
 62
     7
 48
0.241663
370
    40
390
F
100
AcDbLine
 10
25.748993
 20
-46.611458
 30
0.0
 11
16.369608
 21
-48.950001
 31
0.0
  0
ARC
  5
46E
330
472
100
AcDbEntity
  8
0
 62
     7
370
    40
390
F
100
AcDbCircle
 10
24.902267
 20
-43.21542
 30
0.0
 40
3.5
100
AcDbArc
 50
284.0
 51
56.911247
  0
ARC
  5
46F
330
472
100
AcDbEntity
  8
0
 62
     7
370
    40
390
F
100
AcDbCircle
 10
61.207111
 20
12.5
 30
0.0
 40
63.0
100
AcDbArc
 50
206.929805
 51
236.911249
  0
ARC
  5
470
330
472
100
AcDbEntity
  8
0
 62
     7
370
    40
390
F
100
AcDbCircle
 10
36.599998
 20
0.0
 30
0.0
 40
35.4
100
AcDbArc
 50
153.070195
 51
206.929805
  0
ENDBLK
  5
6AB
330
472
100
AcDbEntity
  8
0
100
AcDbBlockEnd
  0
BLOCK
  5
6AC
330
478
100
AcDbEntity
  8
0
100
AcDbBlockBegin
  2
BLOCK205
 70
     0
 10
0.0
 20
0.0
 30
0.0
  3
BLOCK205
  1

  0
TEXT
  5
474
330
478
100
AcDbEntity
  8
0
 62
     7
370
    13
390
F
100
AcDbText
 10
369.497894
 20
201.228592
 30
0.0
 40
7.0
  1
Vista isometrica
 41
0.9913545000000006
 72
     5
 11
466.650635
 21
201.228592
 31
0.0
100
AcDbText
  0
TEXT
  5
475
330
478
100
AcDbEntity
  8
0
 62
     7
370
    13
390
F
100
AcDbText
 10
369.497894
 20
189.134933
 30
0.0
 40
7.0
  1
Scala:
 41
1.156580380952382
 72
     5
 11
405.930176
 21
189.134933
 31
0.0
100
AcDbText
  0
TEXT
  5
476
330
478
100
AcDbEntity
  8
0
 62
     7
370
    13
390
F
100
AcDbText
 10
405.930176
 20
189.134933
 30
0.0
 40
7.0
  1
  1:2
 41
0.765383924369748
 72
     5
 11
436.290405
 21
189.134933
 31
0.0
100
AcDbText
  0
ENDBLK
  5
6AD
330
478
100
AcDbEntity
  8
0
100
AcDbBlockEnd
  0
BLOCK
  5
6AE
330
504
100
AcDbEntity
  8
0
100
AcDbBlockBegin
  2
BLOCK206
 70
     0
 10
0.0
 20
0.0
 30
0.0
  3
BLOCK206
  1

  0
ELLIPSE
  5
47A
330
504
100
AcDbEntity
  8
0
 62
     7
370
    40
390
F
100
AcDbEllipse
 10
644.89856
 20
632.700317
 30
0.0
 11
42.33165740966797
 21
-46.65866088867188
 31
0.0
210
0.0
220
0.0
230
1.0
 40
0.6443230000000001
 41
5.580670213275352
 42
6.103945071333371
  0
ELLIPSE
  5
47B
330
504
100
AcDbEntity
  8
0
 62
     7
370
    40
390
F
100
AcDbEllipse
 10
683.208618
 20
579.105713
 30
0.0
 11
2.351758718490601
 21
-2.592147827148438
 31
0.0
210
0.0
220
0.0
230
1.0
 40
0.644323
 41
0.6426135710762314
 42
2.962352417743576
  0
LINE
  5
47C
330
504
100
AcDbEntity
  8
0
 62
     7
 48
0.191082
370
    40
390
F
100
AcDbLine
 10
686.092224
 20
577.938721
 30
0.0
 11
686.292053
 21
570.298035
 31
0.0
  0
ELLIPSE
  5
47D
330
504
100
AcDbEntity
  8
0
 62
     7
370
    40
390
F
100
AcDbEllipse
 10
613.682922
 20
623.595581
 30
0.0
 11
2.351758718490601
 21
-2.592147827148438
 31
0.0
210
0.0
220
0.0
230
1.0
 40
0.644323
 41
0.9757751874402656
 42
3.141655129495977
  0
ELLIPSE
  5
47E
330
504
100
AcDbEntity
  8
0
 62
     7
370
    40
390
F
100
AcDbEllipse
 10
665.008789
 20
619.831726
 30
0.0
 11
42.33165740966797
 21
-46.65866088867188
 31
0.0
210
0.0
220
0.0
230
1.0
 40
0.6443230000000001
 41
4.117367841030059
 42
4.64064268724682
  0
ELLIPSE
  5
47F
330
504
100
AcDbEntity
  8
0
 62
     7
370
    40
390
F
100
AcDbEllipse
 10
650.542664
 20
609.378601
 30
0.0
 11
23.78635978698731
 21
-26.21772384643555
 31
0.0
210
0.0
220
0.0
230
1.0
 40
0.6443229999999998
 41
4.640642699088075
 42
5.580670213275352
  0
SPLINE
  5
480
330
504
100
AcDbEntity
  8
0
 62
     7
370
    40
390
F
100
AcDbSpline
210
0.0
220
0.0
230
1.0
 70
     8
 71
     3
 72
    56
 73
    52
 74
     0
 42
0.0
 43
0.0
 40
0.0
 40
0.0
 40
0.0
 40
0.0
 40
0.6846637051331617
 40
1.370103184291109
 40
2.056146926739743
 40
2.742605360674435
 40
3.429271271497872
 40
4.115920191993313
 40
4.802310769306437
 40
5.488185113987891
 40
6.173269136723518
 40
6.857272878802696
 40
7.539890842870553
 40
8.220802331090326
 40
8.899671799372257
 40
9.576147560283653
 40
10.24984869480855
 40
10.92035686484361
 40
11.58721933708619
 40
12.24995274194824
 40
12.90804684831979
 40
13.56096836825641
 40
14.20816480577263
 40
14.84906836394276
 40
15.4830951313281
 40
16.10962930959557
 40
16.72804428371188
 40
17.33771559602706
 40
17.93802629662193
 40
18.52837238727098
 40
19.10816835718747
 40
19.6768527987917
 40
20.23389408318708
 40
20.77879606393643
 40
21.31110406081761
 40
21.83042099691611
 40
22.33643293395358
 40
22.82891444831262
 40
23.30772884221241
 40
23.77282839776515
 40
24.2242546255135
 40
24.66213842695502
 40
25.08670109190591
 40
25.49826707726015
 40
25.8972626006012
 40
26.28420606483449
 40
26.65970532146503
 40
27.02445444714083
 40
27.37922969586938
 40
27.72488446444134
 40
28.06234314240465
 40
28.06234314240465
 40
28.06234314240465
 40
28.06234314240465
 10
128.6733460205314
 20
99.42556752315805
 30
0.0
 10
128.8974626627903
 20
99.46868694115855
 30
0.0
 10
129.3451866908746
 20
99.5588869092461
 30
0.0
 10
130.0146841314989
 20
99.70575299503781
 30
0.0
 10
130.6821889898813
 20
99.8640244479148
 30
0.0
 10
131.3473711604496
 20
100.0334522963585
 30
0.0
 10
132.0098888011536
 20
100.2137826311309
 30
0.0
 10
132.6693925886262
 20
100.4047571385729
 30
0.0
 10
133.3255245425828
 20
100.6061126562357
 30
0.0
 10
133.9779182725764
 20
100.8175810747302
 30
0.0
 10
134.6261988060898
 20
101.0388892332982
 30
0.0
 10
135.2699824882737
 20
101.2697589061137
 30
0.0
 10
135.9088768190057
 20
101.5099068557873
 30
0.0
 10
136.5424802604348
 20
101.7590449631144
 30
0.0
 10
137.1703814876758
 20
102.016880220511
 30
0.0
 10
137.7921544811945
 20
102.2831129840695
 30
0.0
 10
138.4073512740835
 20
102.5574333920006
 30
0.0
 10
139.0154961767186
 20
102.8395180027238
 30
0.0
 10
139.6160852667848
 20
103.1290284229887
 30
0.0
 10
140.2085894795512
 20
103.4256116636839
 30
0.0
 10
140.7924578217009
 20
103.728900828244
 30
0.0
 10
141.367120491443
 20
104.0385160117902
 30
0.0
 10
141.9319919105115
 20
104.3540653913496
 30
0.0
 10
142.4864722969211
 20
104.6751456762802
 30
0.0
 10
143.0299435749768
 20
105.0013391689061
 30
0.0
 10
143.5617704319595
 20
105.3322132320935
 30
0.0
 10
144.0813056228328
 20
105.6673215589965
 30
0.0
 10
144.5879006920867
 20
106.0062100031081
 30
0.0
 10
145.080911967645
 20
106.3484199673516
 30
0.0
 10
145.5597043611204
 20
106.693490427893
 30
0.0
 10
146.0236552048517
 20
107.0409598678971
 30
0.0
 10
146.4721581458283
 20
107.3903680795958
 30
0.0
 10
146.9046271294549
 20
107.7412577750652
 30
0.0
 10
147.3205005318683
 20
108.0931760653027
 30
0.0
 10
147.7192481465866
 20
108.4456778739726
 30
0.0
 10
148.1003823828844
 20
108.7983345234093
 30
0.0
 10
148.4634685056359
 20
109.1507429293781
 30
0.0
 10
148.8081301497441
 20
109.5025318909092
 30
0.0
 10
149.1340480125388
 20
109.8533630576817
 30
0.0
 10
149.4409574411247
 20
110.2029303197621
 30
0.0
 10
149.7286461312217
 20
110.550958904105
 30
0.0
 10
149.9969521268561
 20
110.8972044730565
 30
0.0
 10
150.2457645029698
 20
111.24145549643
 30
0.0
 10
150.4750227345108
 20
111.58353615237
 30
0.0
 10
150.6847134600051
 20
111.923306860515
 30
0.0
 10
150.8748646747322
 20
112.2606607834084
 30
0.0
 10
151.0455399972497
 20
112.5955194799152
 30
0.0
 10
151.196834994393
 20
112.9278324251207
 30
0.0
 10
151.3288717595157
 20
113.2575699646574
 30
0.0
 10
151.4418000155675
 20
113.584740368779
 30
0.0
 10
151.505149002601
 20
113.8035417347841
 30
0.0
 10
151.533566437892
 20
113.912404819494
 30
0.0
  0
SPLINE
  5
481
330
504
100
AcDbEntity
  8
0
 62
     7
370
    40
390
F
100
AcDbSpline
210
0.0
220
0.0
230
1.0
 70
     8
 71
     3
 72
    23
 73
    19
 74
     0
 42
0.0
 43
0.0
 40
0.0
 40
0.0
 40
0.0
 40
0.0
 40
0.3532035811625751
 40
0.6994302866199424
 40
1.040006088343794
 40
1.376282636776843
 40
1.709620341386026
 40
2.041371107877614
 40
2.372861521510696
 40
2.705377508184625
 40
3.040151373441994
 40
3.378351874615836
 40
3.721077419996105
 40
4.069345507297665
 40
4.424084886879115
 40
4.786139099188624
 40
5.15626910775071
 40
5.535157159237722
 40
5.535157159237722
 40
5.535157159237722
 40
5.535157159237722
 10
151.533566437892
 20
113.912404819494
 30
0.0
 10
151.5633114887827
 20
114.026353807559
 30
0.0
 10
151.6159449897031
 20
114.2535821272789
 30
0.0
 10
151.6745301326669
 20
114.5954767578892
 30
0.0
 10
151.7120961420991
 20
114.9346307497316
 30
0.0
 10
151.7288991560551
 20
115.2711494180926
 30
0.0
 10
151.7251949032972
 20
115.6051245094695
 30
0.0
 10
151.7012436864006
 20
115.9366585378402
 30
0.0
 10
151.6573064836393
 20
116.2658585674805
 30
0.0
 10
151.5936426786803
 20
116.5928381530182
 30
0.0
 10
151.5105067820472
 20
116.9177170124932
 30
0.0
 10
151.4081451005366
 20
117.2406209611415
 30
0.0
 10
151.2867931910752
 20
117.5616792593315
 30
0.0
 10
151.1466754042571
 20
117.8810195277373
 30
0.0
 10
150.9880048221769
 20
118.1987645552589
 30
0.0
 10
150.8109859816512
 20
118.5150274887169
 30
0.0
 10
150.6158063478283
 20
118.8299234778153
 30
0.0
 10
150.4754318867049
 20
119.0364637096439
 30
0.0
 10
150.4023989366733
 20
119.1395242668846
 30
0.0
  0
LINE
  5
482
330
504
100
AcDbEntity
  8
0
 62
     7
370
    13
390
F
100
AcDbLine
 10
51.747906
 20
29.633995
 30
0.0
 11
128.67334
 21
99.425568
 31
0.0
  0
ELLIPSE
  5
483
330
504
100
AcDbEntity
  8
0
 62
     7
370
    40
390
F
100
AcDbEllipse
 10
38.864609
 20
82.868416
 30
0.0
 11
42.33165740966797
 21
-46.65866088867188
 31
0.0
210
0.0
220
0.0
230
1.0
 40
0.6443230000000001
 41
5.580670213275352
 42
6.103945071333371
  0
LINE
  5
484
330
504
100
AcDbEntity
  8
0
 62
     7
370
    13
390
F
100
AcDbLine
 10
75.158348
 20
32.094563
 30
0.0
 11
681.192322
 21
581.926514
 31
0.0
  0
LINE
  5
485
330
504
100
AcDbEntity
  8
0
 62
     7
370
    13
390
F
100
AcDbLine
 10
603.511902
 20
530.228821
 30
0.0
 11
657.78186
 21
579.465942
 31
0.0
  0
SPLINE
  5
486
330
504
100
AcDbEntity
  8
0
 62
     7
370
    40
390
F
100
AcDbSpline
210
0.0
220
0.0
230
1.0
 70
     8
 71
     3
 72
    56
 73
    52
 74
     0
 42
0.0
 43
0.0
 40
0.0
 40
0.0
 40
0.0
 40
0.0
 40
0.684663705153721
 40
1.37010318432053
 40
2.056146926759987
 40
2.742605360666416
 40
3.429271271445621
 40
4.115920191886094
 40
4.802310769141021
 40
5.488185113769098
 40
6.173269136462817
 40
6.857272878517122
 40
7.539890842579339
 40
8.220802330811026
 40
8.899671799115103
 40
9.576147560050643
 40
10.24984869460141
 40
10.92035686466382
 40
11.58721933693506
 40
12.2499527418261
 40
12.90804684822588
 40
13.56096836818901
 40
14.20816480572959
 40
14.84906836392221
 40
15.48309513132467
 40
16.10962930958657
 40
16.72804428366448
 40
17.33771559591157
 40
17.93802629642013
 40
18.52837238698097
 40
19.10816835682418
 40
19.67685279838333
 40
20.23389408276782
 40
20.77879606353465
 40
21.31110406044129
 40
21.83042099655034
 40
22.33643293357632
 40
22.82891444790748
 40
23.30772884177529
 40
23.77282839730612
 40
24.22425462505305
 40
24.66213842651414
 40
25.08670109149299
 40
25.49826707688386
 40
25.89726260027732
 40
26.2842060645782
 40
26.65970532128397
 40
27.02445444703255
 40
27.37922969582152
 40
27.72488446443502
 40
28.06234314242062
 40
28.06234314242062
 40
28.06234314242062
 40
28.06234314242062
 10
581.7828420225209
 20
510.5148606841695
 30
0.0
 10
582.0069586647863
 20
510.5579801021714
 30
0.0
 10
582.4546826928803
 20
510.6481800702607
 30
0.0
 10
583.1241801335112
 20
510.7950461560538
 30
0.0
 10
583.7916849918847
 20
510.9533176089274
 30
0.0
 10
584.4568671624269
 20
511.1227454573627
 30
0.0
 10
585.1193848030905
 20
511.3030757921221
 30
0.0
 10
585.7788885905131
 20
511.4940502995478
 30
0.0
 10
586.4350205444174
 20
511.6954058171922
 30
0.0
 10
587.0874142743628
 20
511.9068742356694
 30
0.0
 10
587.7356948078391
 20
512.1281823942226
 30
0.0
 10
588.379478490001
 20
512.3590520670275
 30
0.0
 10
589.0183728207282
 20
512.5992000166959
 30
0.0
 10
589.6519762621675
 20
512.8483381240229
 30
0.0
 10
590.2798774894281
 20
513.1061733814229
 30
0.0
 10
590.9016504829704
 20
513.372406144988
 30
0.0
 10
591.5168472758841
 20
513.6467265529266
 30
0.0
 10
592.1249921785451
 20
513.928811163659
 30
0.0
 10
592.7255812686378
 20
514.2183215839339
 30
0.0
 10
593.3180854814308
 20
514.51490482464
 30
0.0
 10
593.9019538236064
 20
514.818193989211
 30
0.0
 10
594.4766164933723
 20
515.1278091727685
 30
0.0
 10
595.0414879124625
 20
515.4433585523391
 30
0.0
 10
595.5959682988907
 20
515.7644388372801
 30
0.0
 10
596.1394395769563
 20
516.0906323299114
 30
0.0
 10
596.6712664339324
 20
516.4215063930928
 30
0.0
 10
597.1908016247758
 20
516.7566147199732
 30
0.0
 10
597.6973966939778
 20
517.0955031640467
 30
0.0
 10
598.1904079694717
 20
517.4377131282413
 30
0.0
 10
598.6692003628816
 20
517.7827835887322
 30
0.0
 10
599.1331512065598
 20
518.1302530286921
 30
0.0
 10
599.5816541475056
 20
518.4796612403603
 30
0.0
 10
600.014123131127
 20
518.8305509358158
 30
0.0
 10
600.4299965335553
 20
519.1824692260524
 30
0.0
 10
600.8287441482923
 20
519.5349710347278
 30
0.0
 10
601.2098783846011
 20
519.8876276841647
 30
0.0
 10
601.5729645073526
 20
520.2400360901197
 30
0.0
 10
601.9176261514524
 20
520.5918250516257
 30
0.0
 10
602.2435440142381
 20
520.9426562183696
 30
0.0
 10
602.5504534428209
 20
521.292223480428
 30
0.0
 10
602.8381421329274
 20
521.6402520647614
 30
0.0
 10
603.1064481285822
 20
521.9864976337166
 30
0.0
 10
603.3552605047248
 20
522.3307486571039
 30
0.0
 10
603.5845187362983
 20
522.6728293130691
 30
0.0
 10
603.7942094618296
 20
523.0126000212526
 30
0.0
 10
603.9843606765977
 20
523.3499539441975
 30
0.0
 10
604.1550359991567
 20
523.684812640764
 30
0.0
 10
604.306330996337
 20
524.0171255860289
 30
0.0
 10
604.4383677614875
 20
524.3468631256175
 30
0.0
 10
604.5512960175557
 20
524.674033529777
 30
0.0
 10
604.6146450045941
 20
524.892834895803
 30
0.0
 10
604.6430624398863
 20
525.0016979805202
 30
0.0
  0
SPLINE
  5
487
330
504
100
AcDbEntity
  8
0
 62
     7
370
    40
390
F
100
AcDbSpline
210
0.0
220
0.0
230
1.0
 70
     8
 71
     3
 72
    23
 73
    19
 74
     0
 42
0.0
 43
0.0
 40
0.0
 40
0.0
 40
0.0
 40
0.0
 40
0.353203581180748
 40
0.6994302866524279
 40
1.040006088381721
 40
1.376282636809458
 40
1.709620341405664
 40
2.041371107881205
 40
2.372861521500929
 40
2.705377508168936
 40
3.040151373429999
 40
3.378351874616514
 40
3.721077420013481
 40
4.069345507318796
 40
4.424084886883556
 40
4.786139099170431
 40
5.156269107723777
 40
5.535157159223976
 40
5.535157159223976
 40
5.535157159223976
 40
5.535157159223976
 10
604.6430624398863
 20
525.0016979805202
 30
0.0
 10
604.6728074907777
 20
525.1156469685914
 30
0.0
 10
604.7254409916986
 20
525.3428752883224
 30
0.0
 10
604.7840261346665
 20
525.6847699189445
 30
0.0
 10
604.8215921441017
 20
526.0239239107915
 30
0.0
 10
604.8383951580569
 20
526.3604425791484
 30
0.0
 10
604.8346909052955
 20
526.6944176705138
 30
0.0
 10
604.8107396883933
 20
527.0259516988701
 30
0.0
 10
604.766802485627
 20
527.3551517284977
 30
0.0
 10
604.7031386806651
 20
527.6821313140294
 30
0.0
 10
604.6200027840314
 20
528.0070101735078
 30
0.0
 10
604.5176411025213
 20
528.3299141221678
 30
0.0
 10
604.3962891930545
 20
528.6509724203677
 30
0.0
 10
604.2561714062323
 20
528.9703126887732
 30
0.0
 10
604.0975008241575
 20
529.2880577162841
 30
0.0
 10
603.9204819836405
 20
529.6043206497286
 30
0.0
 10
603.725302349821
 20
529.9192166388219
 30
0.0
 10
603.5849278886969
 20
530.1257568706519
 30
0.0
 10
603.5118949386629
 20
530.2288174278963
 30
0.0
  0
LINE
  5
488
330
504
100
AcDbEntity
  8
0
 62
     7
370
    13
390
F
100
AcDbLine
 10
150.402405
 20
119.139526
 30
0.0
 11
581.782837
 21
510.514862
 31
0.0
  0
ELLIPSE
  5
489
330
504
100
AcDbEntity
  8
0
 62
     7
370
    40
390
F
100
AcDbEllipse
 10
77.174667
 20
29.273792
 30
0.0
 11
2.351758718490601
 21
-2.592147827148438
 31
0.0
210
0.0
220
0.0
230
1.0
 40
0.644323
 41
0.6426135710762314
 42
2.962352417743576
  0
LINE
  5
48A
330
504
100
AcDbEntity
  8
0
 62
     7
370
    13
390
F
100
AcDbLine
 10
80.05825
 20
28.106794
 30
0.0
 11
686.092224
 21
577.938721
 31
0.0
  0
LINE
  5
48B
330
504
100
AcDbEntity
  8
0
 62
     7
 48
0.191082
370
    40
390
F
100
AcDbLine
 10
80.05825
 20
28.106794
 30
0.0
 11
80.25808
 21
20.466131
 31
0.0
  0
LINE
  5
48C
330
504
100
AcDbEntity
  8
0
 62
     7
370
    40
390
F
100
AcDbLine
 10
80.25808
 20
20.466131
 30
0.0
 11
686.292053
 21
570.298035
 31
0.0
  0
LINE
  5
48D
330
504
100
AcDbEntity
  8
0
 62
     7
 48
0.013332
370
    40
390
F
100
AcDbLine
 10
80.25808
 20
20.466131
 30
0.0
 11
79.763748
 21
20.666187
 31
0.0
  0
LINE
  5
48E
330
504
100
AcDbEntity
  8
0
 62
     7
 48
0.191082
370
    40
390
F
100
AcDbLine
 10
79.563927
 20
28.30685
 30
0.0
 11
79.763748
 21
20.666187
 31
0.0
  0
ELLIPSE
  5
48F
330
504
100
AcDbEntity
  8
0
 62
     7
370
    40
390
F
100
AcDbEllipse
 10
77.174667
 20
29.273792
 30
0.0
 11
1.948600172996521
 21
-2.147779703140259
 31
0.0
210
0.0
220
0.0
230
1.0
 40
0.6443230000000001
 41
0.6426135710762303
 42
2.962352417743576
  0
SPLINE
  5
490
330
504
100
AcDbEntity
  8
0
 62
     7
370
    40
390
F
100
AcDbSpline
210
0.0
220
0.0
230
1.0
 70
     8
 71
     3
 72
    22
 73
    18
 74
     0
 42
0.0
 43
0.0
 40
0.0
 40
0.0
 40
0.0
 40
0.0
 40
0.3435430534834458
 40
0.6813577901133356
 40
1.01470293351405
 40
1.344849593970412
 40
1.673065957297373
 40
2.000602057700054
 40
2.328675476603804
 40
2.658458780912874
 40
2.991069345944098
 40
3.327561972227303
 40
3.668924276320606
 40
4.016068758770837
 40
4.369826433847196
 40
4.7309512598918
 40
5.1001231546877
 40
5.1001231546877
 40
5.1001231546877
 40
5.1001231546877
 10
604.5755306752557
 20
524.7654240458995
 30
0.0
 10
604.5997580794359
 20
524.8773785718481
 30
0.0
 10
604.6416301986018
 20
525.1007045579861
 30
0.0
 10
604.6847516189052
 20
525.4363808978303
 30
0.0
 10
604.7078017852078
 20
525.7695449280623
 30
0.0
 10
604.7110205362505
 20
526.1002943868766
 30
0.0
 10
604.6946468487738
 20
526.4287130439516
 30
0.0
 10
604.6589226199649
 20
526.7548945898471
 30
0.0
 10
604.6040892284338
 20
527.0789364486795
 30
0.0
 10
604.5303854731877
 20
527.4009415028663
 30
0.0
 10
604.4380447892119
 20
527.7210175259399
 30
0.0
 10
604.3272924528931
 20
528.0392770154447
 30
0.0
 10
604.1983437958066
 20
528.3558345252637
 30
0.0
 10
604.0514035048516
 20
528.6708030437576
 30
0.0
 10
603.8866683837492
 20
528.9842875083859
 30
0.0
 10
603.7043200083071
 20
529.2963950797289
 30
0.0
 10
603.5726674279344
 20
529.5012207758876
 30
0.0
 10
603.5040801807969
 20
529.6034135323996
 30
0.0
  0
ELLIPSE
  5
491
330
504
100
AcDbEntity
  8
0
 62
     7
370
    40
390
F
100
AcDbEllipse
 10
38.864609
 20
82.868416
 30
0.0
 11
42.73481750488282
 21
-47.10303115844725
 31
0.0
210
0.0
220
0.0
230
0.9999999999999999
 40
0.644323
 41
5.580670213275352
 42
6.10394507133337
  0
SPLINE
  5
492
330
504
100
AcDbEntity
  8
0
 62
     7
370
    40
390
F
100
AcDbSpline
210
0.0
220
0.0
230
1.0
 70
     8
 71
     3
 72
    22
 73
    18
 74
     0
 42
0.0
 43
0.0
 40
0.0
 40
0.0
 40
0.0
 40
0.0
 40
0.3435430534764164
 40
0.68135779009813
 40
1.014702933487563
 40
1.344849593928366
 40
1.673065957236688
 40
2.000602057619145
 40
2.328675476503624
 40
2.658458780796348
 40
2.991069345815921
 40
3.32756197209191
 40
3.668924276180542
 40
4.016068758630342
 40
4.369826433710885
 40
4.73095125975847
 40
5.100123154551268
 40
5.100123154551268
 40
5.100123154551268
 40
5.100123154551268
 10
151.4660346732954
 20
113.6761308850229
 30
0.0
 10
151.4902620774726
 20
113.7880854109697
 30
0.0
 10
151.5321341966326
 20
114.0114113971036
 30
0.0
 10
151.5752556169276
 20
114.3470877369401
 30
0.0
 10
151.5983057832234
 20
114.6802517671607
 30
0.0
 10
151.6015245342619
 20
115.0110012259598
 30
0.0
 10
151.5851508467832
 20
115.3394198830166
 30
0.0
 10
151.5494266179737
 20
115.6656014288927
 30
0.0
 10
151.4945932264425
 20
115.9896432877062
 30
0.0
 10
151.4208894711967
 20
116.3116483418768
 30
0.0
 10
151.3285487872212
 20
116.6317243649384
 30
0.0
 10
151.2177964509029
 20
116.9499838544349
 30
0.0
 10
151.088847793818
 20
117.2665413642501
 30
0.0
 10
150.9419075028639
 20
117.5815098827441
 30
0.0
 10
150.7771723817602
 20
117.8949943473742
 30
0.0
 10
150.5948240063173
 20
118.2071019187182
 30
0.0
 10
150.4631714259445
 20
118.4119276148768
 30
0.0
 10
150.3945841788073
 20
118.5141203713879
 30
0.0
  0
SPLINE
  5
493
330
504
100
AcDbEntity
  8
0
 62
     7
370
    40
390
F
100
AcDbSpline
210
0.0
220
0.0
230
1.0
 70
     8
 71
     3
 72
    38
 73
    34
 74
     0
 42
0.0
 43
0.0
 40
0.0
 40
0.0
 40
0.0
 40
0.0
 40
0.3097236921382268
 40
0.6274938873781744
 40
0.9535739415198861
 40
1.288196855009887
 40
1.631566976979586
 40
1.983861516422207
 40
2.345231861751011
 40
2.715804715969081
 40
3.095683058676923
 40
3.484946948600056
 40
3.883654181636186
 40
4.291840819916013
 40
4.709520791397709
 40
5.13668116598673
 40
5.573281917687632
 40
6.019256791461224
 40
6.474513335892136
 40
6.938932918422848
 40
7.412370734483314
 40
7.894655820242237
 40
8.385591077701234
 40
8.884953319840037
 40
9.39249334252885
 40
9.90793602893526
 40
10.43098049118268
 40
10.96130026169903
 40
11.49854467287396
 40
12.0423434464125
 40
12.59230886366954
 40
13.1480363106895
 40
13.7091048101178
 40
13.7091048101178
 40
13.7091048101178
 40
13.7091048101178
 10
603.5040804568939
 20
529.6034131210231
 30
0.0
 10
603.4465429651422
 20
529.6891421114858
 30
0.0
 10
603.3275426737184
 20
529.8611814861022
 30
0.0
 10
603.139951363615
 20
530.117824746933
 30
0.0
 10
602.9410741375896
 20
530.3763713951587
 30
0.0
 10
602.7309423945267
 20
530.6369120093439
 30
0.0
 10
602.5095912597511
 20
530.8995230610021
 30
0.0
 10
602.277057921636
 20
531.1642708248952
 30
0.0
 10
602.0333832351994
 20
531.4312103963421
 30
0.0
 10
601.7786123846965
 20
531.7003860534636
 30
0.0
 10
601.5127957770978
 20
531.9718312261473
 30
0.0
 10
601.2359898390448
 20
532.2455685543991
 30
0.0
 10
600.948257810866
 20
532.5216099055688
 30
0.0
 10
600.6496706984415
 20
532.799956188145
 30
0.0
 10
600.3403094983486
 20
533.0805960849957
 30
0.0
 10
600.0202670919956
 20
533.363504192776
 30
0.0
 10
599.6896506726372
 20
533.6486405155842
 30
0.0
 10
599.3485824598039
 20
533.9359505991869
 30
0.0
 10
598.9972002187912
 20
534.2253656814684
 30
0.0
 10
598.6356579393602
 20
534.5168026941888
 30
0.0
 10
598.2641264580907
 20
534.8101642809163
 30
0.0
 10
597.8827940280077
 20
535.105338840888
 30
0.0
 10
597.4918668338796
 20
535.4022006013929
 30
0.0
 10
597.0915694536561
 20
535.7006097235205
 30
0.0
 10
596.6821452656127
 20
536.0004124442312
 30
0.0
 10
596.2638568043623
 20
536.3014412628404
 30
0.0
 10
595.8369860549572
 20
536.6035151620842
 30
0.0
 10
595.4018344094704
 20
536.906440144229
 30
0.0
 10
594.9587212555958
 20
537.2100104220153
 30
0.0
 10
594.5079818142465
 20
537.5140097907079
 30
0.0
 10
594.0499655914807
 20
537.8182131025972
 30
0.0
 10
593.5850351686671
 20
538.1223871107175
 30
0.0
 10
593.2721383598209
 20
538.3240768023727
 30
0.0
 10
593.1146069869754
 20
538.4248819428644
 30
0.0
  0
SPLINE
  5
494
330
504
100
AcDbEntity
  8
0
 62
     7
370
    40
390
F
100
AcDbSpline
210
0.0
220
0.0
230
1.0
 70
     8
 71
     3
 72
    38
 73
    34
 74
     0
 42
0.0
 43
0.0
 40
0.0
 40
0.0
 40
0.0
 40
0.0
 40
0.5335666263596123
 40
1.071806575678947
 40
1.614625901997107
 40
2.161912688463673
 40
2.713537622669313
 40
3.26935452125996
 40
3.829200811314371
 40
4.392897975694501
 40
4.960251969298616
 40
5.531053612836885
 40
6.105078970448024
 40
6.682089717171449
 40
7.261832332963207
 40
7.844031543355122
 40
8.428390860632653
 40
9.014594585963922
 40
9.602308622387019
 40
10.19118133207326
 40
10.7808444419109
 40
11.37091400005524
 40
11.96099138552447
 40
12.55066437233169
 40
13.13950824902311
 40
13.72708699383789
 40
14.31295450502724
 40
14.89665589261815
 40
15.47772995002289
 40
16.05571483104738
 40
16.63015089586915
 40
17.20058166799736
 40
17.76655476980676
 40
17.76655476980676
 40
17.76655476980676
 40
17.76655476980676
 10
577.2733708656389
 20
546.388580130926
 30
0.0
 10
577.4411963109975
 20
546.3296917283868
 30
0.0
 10
577.7776508654193
 20
546.2095103608565
 30
0.0
 10
578.2825390277895
 20
546.0230495896888
 30
0.0
 10
578.7897584123909
 20
545.829786527958
 30
0.0
 10
579.2991994101759
 20
545.6298993122289
 30
0.0
 10
579.8107377086749
 20
545.4235654470804
 30
0.0
 10
580.3242357269947
 20
545.2109618902973
 30
0.0
 10
580.8395424762165
 20
544.9922656581095
 30
0.0
 10
581.3564938523219
 20
544.7676542513593
 30
0.0
 10
581.8749128189719
 20
544.537306091205
 30
0.0
 10
582.3946096283105
 20
544.3014009106714
 30
0.0
 10
582.915382043884
 20
544.0601201200814
 30
0.0
 10
583.4370152158659
 20
543.813647288955
 30
0.0
 10
583.9592795253592
 20
543.5621696683143
 30
0.0
 10
584.4819282146896
 20
543.3058790853709
 30
0.0
 10
585.0046964152054
 20
543.044973539606
 30
0.0
 10
585.527302150929
 20
542.7796571629136
 30
0.0
 10
586.0494473988367
 20
542.5101400220956
 30
0.0
 10
586.570818832945
 20
542.2366380732224
 30
0.0
 10
587.0910886125932
 20
541.9593730688193
 30
0.0
 10
587.6099152207413
 20
541.678572425983
 30
0.0
 10
588.1269443535181
 20
541.3944690561061
 30
0.0
 10
588.641809863373
 20
541.107301159748
 30
0.0
 10
589.1541347566492
 20
540.8173119885575
 30
0.0
 10
589.6635322497334
 20
540.5247495819274
 30
0.0
 10
590.1696068765128
 20
540.2298664656284
 30
0.0
 10
590.6719560100944
 20
539.9329191823449
 30
0.0
 10
591.170172537779
 20
539.6341668725642
 30
0.0
 10
591.6638478807029
 20
539.3338693321081
 30
0.0
 10
592.1525746454256
 20
539.0322857951737
 30
0.0
 10
592.635948332772
 20
538.7296739074795
 30
0.0
 10
592.9556985773678
 20
538.5265682563042
 30
0.0
 10
593.1146069869754
 20
538.4248819428644
 30
0.0
  0
SPLINE
  5
495
330
504
100
AcDbEntity
  8
0
 62
     7
370
    40
390
F
100
AcDbSpline
210
0.0
220
0.0
230
1.0
 70
     8
 71
     3
 72
    29
 73
    25
 74
     0
 42
0.0
 43
0.0
 40
0.0
 40
0.0
 40
0.0
 40
0.0
 40
0.1095870234752739
 40
0.2179190722972584
 40
0.3248951207469237
 40
0.4304230027258467
 40
0.5344204230557011
 40
0.6368160061521442
 40
0.7375503748447453
 40
0.8365772490329505
 40
0.9338645497501921
 40
1.029395488903601
 40
1.123169618339487
 40
1.215203803942883
 40
1.305533081392531
 40
1.394211341258208
 40
1.481311727656001
 40
1.566926429158851
 40
1.651166303331349
 40
1.734160362162036
 40
1.81605485797285
 40
1.897011915831583
 40
1.977207686178237
 40
2.056830019932811
 40
2.056830019932811
 40
2.056830019932811
 40
2.056830019932811
 10
639.275136892178
 20
580.3046036836424
 30
0.0
 10
639.3059085512949
 20
580.2849127397728
 30
0.0
 10
639.3664441735885
 20
580.2447434293164
 30
0.0
 10
639.454605157839
 20
580.1818063332067
 30
0.0
 10
639.5394370158056
 20
580.1166481277492
 30
0.0
 10
639.6207595650546
 20
580.0494027582149
 30
0.0
 10
639.6983980169189
 20
579.980208259205
 30
0.0
 10
639.7721855955907
 20
579.909204939332
 30
0.0
 10
639.8419632511313
 20
579.8365354487438
 30
0.0
 10
639.9075801336998
 20
579.7623443797797
 30
0.0
 10
639.9688938652764
 20
579.6867780187573
 30
0.0
 10
640.0257708633503
 20
579.6099840896444
 30
0.0
 10
640.0780866441903
 20
579.5321115301041
 30
0.0
 10
640.1257261515306
 20
579.4533103030926
 30
0.0
 10
640.1685840138632
 20
579.3737312018574
 30
0.0
 10
640.2065650776124
 20
579.2935258298589
 30
0.0
 10
640.2395837939833
 20
579.2128461827638
 30
0.0
 10
640.267564069022
 20
579.1318448056126
 30
0.0
 10
640.2904403580247
 20
579.0506752843455
 30
0.0
 10
640.3081575937418
 20
578.9694922195687
 30
0.0
 10
640.3206714051154
 20
578.8884505383622
 30
0.0
 10
640.3279484865368
 20
578.8077073853042
 30
0.0
 10
640.3299663064469
 20
578.72741427325
 30
0.0
 10
640.3277930174719
 20
578.6741539740106
 30
0.0
 10
640.3258234589557
 20
578.6476765336281
 30
0.0
  0
SPLINE
  5
496
330
504
100
AcDbEntity
  8
0
 62
     7
370
    40
390
F
100
AcDbSpline
210
0.0
220
0.0
230
1.0
 70
     8
 71
     3
 72
    42
 73
    38
 74
     0
 42
0.0
 43
0.0
 40
0.0
 40
0.0
 40
0.0
 40
0.0
 40
0.1077012715113656
 40
0.2163805972509479
 40
0.3259263320271515
 40
0.4362223142274595
 40
0.5471487237954855
 40
0.6585829352833077
 40
0.7704003631150531
 40
0.8824752966157452
 40
0.9946817226374858
 40
1.106894133770307
 40
1.218988320166854
 40
1.330842142962572
 40
1.442336287116569
 40
1.553354991321613
 40
1.663786820111818
 40
1.773525161428696
 40
1.882468218145817
 40
1.990519573693786
 40
2.09758886272541
 40
2.203592442129746
 40
2.308454059359431
 40
2.412105514192331
 40
2.514487308915328
 40
2.615549280516544
 40
2.715251206732914
 40
2.813563375738495
 40
2.910467106869781
 40
3.005955206801075
 40
3.100032071525146
 40
3.192713340089791
 40
3.284026537801707
 40
3.374011318869441
 40
3.462719491122361
 40
3.550214908772628
 40
3.636573207756221
 40
3.636573207756221
 40
3.636573207756221
 40
3.636573207756221
 10
639.275136892178
 20
580.3046036836424
 30
0.0
 10
639.2448950638577
 20
580.3239555860445
 30
0.0
 10
639.1835070118264
 20
580.361840420521
 30
0.0
 10
639.0892659151731
 20
580.4159315610759
 30
0.0
 10
638.9926136419272
 20
580.4674480000286
 30
0.0
 10
638.8937432745522
 20
580.516283332041
 30
0.0
 10
638.7928536897234
 20
580.5623342540425
 30
0.0
 10
638.6901470691604
 20
580.6055020564945
 30
0.0
 10
638.5858289673142
 20
580.6456924937362
 30
0.0
 10
638.4801076927695
 20
580.6828161099493
 30
0.0
 10
638.3731938813302
 20
580.7167884577266
 30
0.0
 10
638.26530002389
 20
580.7475303604375
 30
0.0
 10
638.1566400129414
 20
580.7749681757671
 30
0.0
 10
638.0474286913369
 20
580.7990340732385
 30
0.0
 10
637.9378814049203
 20
580.8196663113674
 30
0.0
 10
637.8282135463738
 20
580.8368095562407
 30
0.0
 10
637.7186401298885
 20
580.8504150810887
 30
0.0
 10
637.6093755311193
 20
580.8604399517276
 30
0.0
 10
637.500633564373
 20
580.866848232449
 30
0.0
 10
637.3926272771967
 20
580.8696109902521
 30
0.0
 10
637.2855685560882
 20
580.868706441132
 30
0.0
 10
637.1796676943528
 20
580.8641200742791
 30
0.0
 10
637.0751329650384
 20
580.8558447824931
 30
0.0
 10
636.9721701962008
 20
580.8438809891434
 30
0.0
 10
636.8709823488671
 20
580.8282367732739
 30
0.0
 10
636.7717690971318
 20
580.8089279917923
 30
0.0
 10
636.6747264101258
 20
580.7859783979984
 30
0.0
 10
636.580046134784
 20
580.7594197579851
 30
0.0
 10
636.487915580508
 20
580.7292919582288
 30
0.0
 10
636.3985171829648
 20
580.6956431607761
 30
0.0
 10
636.312028363973
 20
580.6585299899691
 30
0.0
 10
636.2286216100288
 20
580.6180168596
 30
0.0
 10
636.1484640543326
 20
580.5741766085948
 30
0.0
 10
636.0717166671009
 20
580.5270900283822
 30
0.0
 10
635.9985350204529
 20
580.4768467860252
 30
0.0
 10
635.9290647624081
 20
580.4235415558987
 30
0.0
 10
635.8850527361147
 20
580.3858047168166
 30
0.0
 10
635.8637279634733
 20
580.3664575484404
 30
0.0
  0
LINE
  5
497
330
504
100
AcDbEntity
  8
0
 62
     7
 48
0.229426
370
    40
390
F
100
AcDbLine
 10
629.067078
 20
574.200134
 30
0.0
 11
635.863708
 21
580.366455
 31
0.0
  0
ARC
  5
498
330
504
100
AcDbEntity
  8
0
 62
     7
370
    40
390
F
100
AcDbCircle
 10
629.994873
 20
573.162903
 30
0.0
 40
1.391418
100
AcDbArc
 50
131.813458
 51
155.681977
  0
SPLINE
  5
499
330
504
100
AcDbEntity
  8
0
 62
     7
370
    40
390
F
100
AcDbSpline
210
0.0
220
0.0
230
1.0
 70
     8
 71
     3
 72
    56
 73
    52
 74
     0
 42
0.0
 43
0.0
 40
0.0
 40
0.0
 40
0.0
 40
0.0
 40
0.580227377636519
 40
1.156360226442058
 40
1.728256181229509
 40
2.295788233642246
 40
2.858849568638717
 40
3.417353956802681
 40
3.971223639424521
 40
4.520409036585682
 40
5.064899114836008
 40
5.604724254893883
 40
6.139958307210459
 40
6.670719678495603
 40
7.197171283556107
 40
7.719519197739823
 40
8.238009855703538
 40
8.752925758229646
 40
9.26458722526091
 40
9.773366104900022
 40
10.27968179166144
 40
10.78399110675011
 40
11.28677798266386
 40
11.78854310450736
 40
12.28979373004815
 40
12.79103396429479
 40
13.29276363717158
 40
13.79548256323647
 40
14.2996735662107
 40
14.80579566659339
 40
15.31428044207289
 40
15.82552982264068
 40
16.33991528767094
 40
16.85777839646346
 40
17.37943255638927
 40
17.90516583095953
 40
18.43524017272019
 40
18.9698829528955
 40
19.50928609068579
 40
20.05360861473042
 40
20.60297948489974
 40
21.15750059069829
 40
21.71724987830997
 40
22.28228456493381
 40
22.85264440532352
 40
23.42835498116323
 40
24.0094296239422
 40
24.59585957833751
 40
25.18761402281074
 40
25.78464535179966
 40
26.38689076645386
 40
26.38689076645386
 40
26.38689076645386
 40
26.38689076645386
 10
103.0965562876615
 20
126.3115003228181
 30
0.0
 10
103.147922584241
 20
126.4979784648136
 30
0.0
 10
103.2556591591765
 20
126.8681155702954
 30
0.0
 10
103.4330519769544
 20
127.4163046878308
 30
0.0
 10
103.625638634251
 20
127.9548485337831
 30
0.0
 10
103.8333757921912
 20
128.4830583501687
 30
0.0
 10
104.0561996506899
 20
129.0002305362428
 30
0.0
 10
104.2940242392915
 20
129.5056550899649
 30
0.0
 10
104.5467372277546
 20
129.9986157984893
 30
0.0
 10
104.8141972378162
 20
130.4783981635641
 30
0.0
 10
105.0962352426378
 20
130.9443006300016
 30
0.0
 10
105.3926543546277
 20
131.3956410635088
 30
0.0
 10
105.7032285535824
 20
131.8317610973042
 30
0.0
 10
106.0277013132865
 20
132.2520304974129
 30
0.0
 10
106.3657840994047
 20
132.6558515261983
 30
0.0
 10
106.7171547041357
 20
133.0426633272876
 30
0.0
 10
107.0814554678533
 20
133.4119463062054
 30
0.0
 10
107.4582930921458
 20
133.7632284375647
 30
0.0
 10
107.8472447470684
 20
134.0960951209608
 30
0.0
 10
108.2478672275695
 20
134.410197522758
 30
0.0
 10
108.6597047618629
 20
134.705257613027
 30
0.0
 10
109.0822924916533
 20
134.9810665115012
 30
0.0
 10
109.5151582443307
 20
135.2374816545486
 30
0.0
 10
109.9578242228906
 20
135.4744238509726
 30
0.0
 10
110.4098085766143
 20
135.691874258107
 30
0.0
 10
110.8706292975376
 20
135.8898723509755
 30
0.0
 10
111.3398122765776
 20
136.0685144631786
 30
0.0
 10
111.8168968558892
 20
136.2279489431971
 30
0.0
 10
112.3014380749876
 20
136.3683705044546
 30
0.0
 10
112.7930050073553
 20
136.4900134080283
 30
0.0
 10
113.2911822175065
 20
136.5931462360226
 30
0.0
 10
113.7955717837385
 20
136.6780668687536
 30
0.0
 10
114.3057953608983
 20
136.7450975002008
 30
0.0
 10
114.8214963172777
 20
136.7945797070893
 30
0.0
 10
115.3423419483285
 20
136.8268695728484
 30
0.0
 10
115.8680242677293
 20
136.8423328890503
 30
0.0
 10
116.398256552019
 20
136.8413405967271
 30
0.0
 10
116.9327679658554
 20
136.8242648881796
 30
0.0
 10
117.4712988407586
 20
136.791477166323
 30
0.0
 10
118.0135995024292
 20
136.7433464890528
 30
0.0
 10
118.5594302430629
 20
136.6802380737911
 30
0.0
 10
119.1085613965086
 20
136.6025118322409
 30
0.0
 10
119.6607735057552
 20
136.5105209351088
 30
0.0
 10
120.2158575843377
 20
136.4046104068006
 30
0.0
 10
120.7736154626033
 20
136.2851157561048
 30
0.0
 10
121.3338598028873
 20
136.1523617327937
 30
0.0
 10
121.8964099010849
 20
136.0066623275191
 30
0.0
 10
122.4610870242409
 20
135.8483214685667
 30
0.0
 10
123.0277097983168
 20
135.6776343777143
 30
0.0
 10
123.5960984195593
 20
135.4948863055708
 30
0.0
 10
123.974444438849
 20
135.3657563606856
 30
0.0
 10
124.1638748636496
 20
135.2992869699147
 30
0.0
  0
ELLIPSE
  5
49A
330
504
100
AcDbEntity
  8
0
 62
     7
370
    40
390
F
100
AcDbEllipse
 10
58.974819
 20
69.999786
 30
0.0
 11
42.73481750488282
 21
-47.10303115844725
 31
0.0
210
0.0
220
0.0
230
0.9999999999999999
 40
0.644323
 41
4.117367841030059
 42
4.640642699088075
  0
SPLINE
  5
49B
330
504
100
AcDbEntity
  8
0
 62
     7
370
    40
390
F
100
AcDbSpline
210
0.0
220
0.0
230
1.0
 70
     8
 71
     3
 72
    56
 73
    52
 74
     0
 42
0.0
 43
0.0
 40
0.0
 40
0.0
 40
0.0
 40
0.0
 40
0.580227377704541
 40
1.15636022656914
 40
1.728256181396087
 40
2.295788233824106
 40
2.858849568816564
 40
3.417353956971635
 40
3.97122363958179
 40
4.520409036727507
 40
5.064899114958954
 40
5.604724254995771
 40
6.13995830729103
 40
6.670719678556438
 40
7.197171283600125
 40
7.719519197771398
 40
8.238009855726203
 40
8.75292575824576
 40
9.264587225275388
 40
9.773366104923648
 40
10.27968179170432
 40
10.7839911068178
 40
11.28677798275438
 40
11.78854310461265
 40
12.28979373015724
 40
12.7910339643995
 40
13.29276363727014
 40
13.79548256332852
 40
14.29967356629619
 40
14.80579566667284
 40
15.31428044214619
 40
15.82552982270838
 40
16.3399152877329
 40
16.85777839651984
 40
17.3794325564404
 40
17.90516583100574
 40
18.43524017276173
 40
18.96988295293201
 40
19.50928609071719
 40
20.05360861475588
 40
20.60297948491953
 40
21.15750059071243
 40
21.71724987831897
 40
22.28228456493828
 40
22.85264440532339
 40
23.42835498115813
 40
24.0094296239294
 40
24.59585957830544
 40
25.18761402275208
 40
25.78464535171939
 40
26.38689076636319
 40
26.38689076636319
 40
26.38689076636319
 40
26.38689076636319
 10
556.2060522896754
 20
537.4007934839171
 30
0.0
 10
556.257418586262
 20
537.5872716259341
 30
0.0
 10
556.3651551612116
 20
537.9574087314559
 30
0.0
 10
556.5425479790109
 20
538.5055978490427
 30
0.0
 10
556.7351346363268
 20
539.0441416950287
 30
0.0
 10
556.9428717942809
 20
539.5723515114269
 30
0.0
 10
557.1656956527894
 20
540.0895236974976
 30
0.0
 10
557.4035202413946
 20
540.5949482512091
 30
0.0
 10
557.6562332298571
 20
541.0879089597202
 30
0.0
 10
557.9236932399161
 20
541.5676913247788
 30
0.0
 10
558.2057312447332
 20
542.0335937911976
 30
0.0
 10
558.5021503567181
 20
542.4849342246835
 30
0.0
 10
558.8127245556674
 20
542.9210542584574
 30
0.0
 10
559.1371973153668
 20
543.3413236585454
 30
0.0
 10
559.4752801014807
 20
543.745144687313
 30
0.0
 10
559.8266507062085
 20
544.1319564883879
 30
0.0
 10
560.1909514699237
 20
544.5012394672952
 30
0.0
 10
560.567789094215
 20
544.8525215986474
 30
0.0
 10
560.956740749141
 20
545.18538828204
 30
0.0
 10
561.3573632296535
 20
545.4994906838369
 30
0.0
 10
561.7692007639656
 20
545.7945507741103
 30
0.0
 10
562.1917884937784
 20
546.0703596725912
 30
0.0
 10
562.6246542464769
 20
546.3267748156437
 30
0.0
 10
563.0673202250516
 20
546.5637170120692
 30
0.0
 10
563.5193045787826
 20
546.7811674191996
 30
0.0
 10
563.980125299707
 20
546.97916551206
 30
0.0
 10
564.4493082787448
 20
547.1578076242531
 30
0.0
 10
564.926392858053
 20
547.3172421042614
 30
0.0
 10
565.4109340771473
 20
547.4576636655097
 30
0.0
 10
565.9025010095108
 20
547.579306569075
 30
0.0
 10
566.4006782196574
 20
547.6824393970619
 30
0.0
 10
566.9050677858844
 20
547.7673600297867
 30
0.0
 10
567.4152913630394
 20
547.8343906612281
 30
0.0
 10
567.9309923194137
 20
547.8838728681119
 30
0.0
 10
568.4518379504594
 20
547.9161627338663
 30
0.0
 10
568.9775202698554
 20
547.9316260500636
 30
0.0
 10
569.5077525541403
 20
547.9306337577358
 30
0.0
 10
570.0422639679716
 20
547.9135580491844
 30
0.0
 10
570.5807948428692
 20
547.8807703273246
 30
0.0
 10
571.1230955045339
 20
547.8326396500514
 30
0.0
 10
571.6689262451616
 20
547.7695312347878
 30
0.0
 10
572.2180573986016
 20
547.6918049932356
 30
0.0
 10
572.7702695078427
 20
547.5998140961023
 30
0.0
 10
573.3253535864202
 20
547.4939035677929
 30
0.0
 10
573.8831114646807
 20
547.3744089170962
 30
0.0
 10
574.4433558049587
 20
547.2416548937847
 30
0.0
 10
575.0059059031457
 20
547.0959554885112
 30
0.0
 10
575.5705830262842
 20
546.9376146295625
 30
0.0
 10
576.1372058003384
 20
546.7669275387161
 30
0.0
 10
576.705594421562
 20
546.5841794665779
 30
0.0
 10
577.0839404408416
 20
546.455049521696
 30
0.0
 10
577.273370865639
 20
546.3885801309262
 30
0.0
  0
ELLIPSE
  5
49C
330
504
100
AcDbEntity
  8
0
 62
     7
370
    40
390
F
100
AcDbEllipse
 10
7.648973
 20
73.763649
 30
0.0
 11
1.948600172996521
 21
-2.147779703140259
 31
0.0
210
0.0
220
0.0
230
1.0
 40
0.6443230000000001
 41
0.9757751874402651
 42
3.141655129495978
  0
ELLIPSE
  5
49D
330
504
100
AcDbEntity
  8
0
 62
     7
370
    40
390
F
100
AcDbEllipse
 10
7.648973
 20
73.763649
 30
0.0
 11
1.948600172996521
 21
-2.147779703140259
 31
0.0
210
0.0
220
0.0
230
1.0
 40
0.6443230000000001
 41
3.141655129495978
 42
3.29551403410761
  0
LINE
  5
49E
330
504
100
AcDbEntity
  8
0
 62
     7
 48
0.014306
370
    13
390
F
100
AcDbLine
 10
5.511244
 20
75.693542
 30
0.0
 11
5.935054
 21
76.078049
 31
0.0
  0
LINE
  5
49F
330
504
100
AcDbEntity
  8
0
 62
     7
 48
0.158266
370
    40
390
F
100
AcDbLine
 10
5.511244
 20
75.693542
 30
0.0
 11
1.948781
 21
70.460388
 31
0.0
  0
LINE
  5
4A0
330
504
100
AcDbEntity
  8
0
 62
     7
 48
0.202082
370
    40
390
F
100
AcDbLine
 10
1.948781
 20
70.460388
 30
0.0
 11
7.935377
 21
75.8918
 31
0.0
  0
LINE
  5
4A1
330
504
100
AcDbEntity
  8
0
 62
     7
 48
0.014897
370
    40
390
F
100
AcDbLine
 10
1.506492
 20
70.85968
 30
0.0
 11
1.948781
 21
70.460388
 31
0.0
  0
LINE
  5
4A2
330
504
100
AcDbEntity
  8
0
 62
     7
 48
0.158266
370
    40
390
F
100
AcDbLine
 10
5.068955
 20
76.092834
 30
0.0
 11
1.506492
 21
70.85968
 31
0.0
  0
ELLIPSE
  5
4A3
330
504
100
AcDbEntity
  8
0
 62
     7
370
    40
390
F
100
AcDbEllipse
 10
7.648973
 20
73.763649
 30
0.0
 11
2.351758718490601
 21
-2.592147827148438
 31
0.0
210
0.0
220
0.0
230
1.0
 40
0.644323
 41
3.141655129495977
 42
3.29551403410761
  0
ELLIPSE
  5
4A4
330
504
100
AcDbEntity
  8
0
 62
     7
370
    40
390
F
100
AcDbEllipse
 10
7.648973
 20
73.763649
 30
0.0
 11
2.351758718490601
 21
-2.592147827148438
 31
0.0
210
0.0
220
0.0
230
1.0
 40
0.644323
 41
0.9757751874402656
 42
3.141655129495977
  0
LINE
  5
4A5
330
504
100
AcDbEntity
  8
0
 62
     7
370
    13
390
F
100
AcDbLine
 10
10.350333
 20
73.565552
 30
0.0
 11
616.384277
 21
623.397461
 31
0.0
  0
SPLINE
  5
4A6
330
504
100
AcDbEntity
  8
0
 62
     7
370
    40
390
F
100
AcDbSpline
210
0.0
220
0.0
230
1.0
 70
     8
 71
     3
 72
    23
 73
    19
 74
     0
 42
0.0
 43
0.0
 40
0.0
 40
0.0
 40
0.0
 40
0.0
 40
0.689707578434074
 40
1.377287627384776
 40
2.062642491410986
 40
2.745657263746528
 40
3.426201578342977
 40
4.104131478127581
 40
4.77929137513026
 40
5.451516120615564
 40
6.120633205994293
 40
6.786465118107692
 40
7.448831875458905
 40
8.107553775096108
 40
8.762453310085595
 40
9.41334481430078
 40
10.06002519566802
 40
10.70228028850275
 40
10.70228028850275
 40
10.70228028850275
 40
10.70228028850275
 10
555.9893110363518
 20
527.0202753659378
 30
0.0
 10
555.9473545181781
 20
527.2463301007704
 30
0.0
 10
555.8693698370117
 20
527.6987956763045
 30
0.0
 10
555.7700478807735
 20
528.3792120718153
 30
0.0
 10
555.6885647545389
 20
529.0597429384168
 30
0.0
 10
555.6249283112888
 20
529.7398202029078
 30
0.0
 10
555.5791527752849
 20
530.418852331972
 30
0.0
 10
555.5512563274224
 20
531.0962340413587
 30
0.0
 10
555.5412610365
 20
531.7713437489155
 30
0.0
 10
555.5491922620548
 20
532.4435443264927
 30
0.0
 10
555.5750783034895
 20
533.1121830085863
 30
0.0
 10
555.6189500859952
 20
533.7765915319422
 30
0.0
 10
555.6808409786933
 20
534.4360863157884
 30
0.0
 10
555.7607865572903
 20
535.0899680101701
 30
0.0
 10
555.8588241145189
 20
535.7375177194909
 30
0.0
 10
555.9749886786026
 20
536.3779850064354
 30
0.0
 10
556.1093121006543
 20
537.0105934476926
 30
0.0
 10
556.2113370136199
 20
537.4280068593758
 30
0.0
 10
556.2654278346472
 20
537.6351635856852
 30
0.0
  0
SPLINE
  5
4A7
330
504
100
AcDbEntity
  8
0
 62
     7
370
    40
390
F
100
AcDbSpline
210
0.0
220
0.0
230
1.0
 70
     8
 71
     3
 72
    56
 73
    52
 74
     0
 42
0.0
 43
0.0
 40
0.0
 40
0.0
 40
0.0
 40
0.0
 40
0.5959352352499613
 40
1.187643742854035
 40
1.774961581562726
 40
2.357739909591614
 40
2.935850462805464
 40
3.509184502075917
 40
4.077641484116698
 40
4.641150906435923
 40
5.199681746210501
 40
5.753246312839227
 40
6.301903191032585
 40
6.845759080479594
 40
7.384969326698462
 40
7.919736934843915
 40
8.45030986699039
 40
8.976977079363033
 40
9.500075646090016
 40
10.02000311815335
 40
10.53721002149343
 40
11.05218844200128
 40
11.56546023318
 40
12.07756508488761
 40
12.58904872044361
 40
13.10045369277283
 40
13.61232730360727
 40
14.12521042008514
 40
14.63962314700209
 40
15.15605921087888
 40
15.67498211103802
 40
16.19682298481449
 40
16.72198013749358
 40
17.25082014442062
 40
17.7836803944387
 40
18.32087020256244
 40
18.86266191887911
 40
19.409287435969
 40
19.96094086240046
 40
20.51778171972628
 40
21.0799384043145
 40
21.64751184824367
 40
22.22057932204009
 40
22.79919833034864
 40
23.38341055936533
 40
23.97324353933937
 40
24.56869909934017
 40
25.16975505583974
 40
25.77637008738034
 40
26.38848555264325
 40
27.00602716351793
 40
27.00602716351793
 40
27.00602716351793
 40
27.00602716351793
 10
556.2654278346472
 20
537.6351635856852
 30
0.0
 10
556.3156173234215
 20
537.8273790113745
 30
0.0
 10
556.4212097201356
 20
538.2089663606595
 30
0.0
 10
556.5960218173872
 20
538.7743047861566
 30
0.0
 10
556.7866805894623
 20
539.3298612820417
 30
0.0
 10
556.9931500460565
 20
539.8748998430488
 30
0.0
 10
557.2153732249152
 20
540.4086664874758
 30
0.0
 10
557.4532701007016
 20
540.9303978562788
 30
0.0
 10
557.706732804379
 20
541.4393215896125
 30
0.0
 10
557.9756224882534
 20
541.9346647595104
 30
0.0
 10
558.2597703238778
 20
542.4156656846337
 30
0.0
 10
558.5589766135375
 20
542.8815807667713
 30
0.0
 10
558.873009168841
 20
543.331689775614
 30
0.0
 10
559.2016015764682
 20
543.7653011594717
 30
0.0
 10
559.5444513246105
 20
544.181757355042
 30
0.0
 10
559.9012177385765
 20
544.5804401307547
 30
0.0
 10
560.2715199198055
 20
544.9607760370353
 30
0.0
 10
560.6549376315402
 20
545.322245212465
 30
0.0
 10
561.0510193087553
 20
545.664392553746
 30
0.0
 10
561.459291656018
 20
545.9868373312295
 30
0.0
 10
561.879267332102
 20
546.2892770903672
 30
0.0
 10
562.310447851335
 20
546.5714854447995
 30
0.0
 10
562.7523253889915
 20
546.8333091485215
 30
0.0
 10
563.2043844494
 20
547.0746650550973
 30
0.0
 10
563.6661040504094
 20
547.2955372575897
 30
0.0
 10
564.1369655186804
 20
547.4959764913381
 30
0.0
 10
564.6164607359448
 20
547.6760966567902
 30
0.0
 10
565.1040977000766
 20
547.8360693351206
 30
0.0
 10
565.5994002817438
 20
547.9761161811953
 30
0.0
 10
566.1019084872922
 20
548.0965020251585
 30
0.0
 10
566.6111808658513
 20
548.1975289607992
 30
0.0
 10
567.1267969624068
 20
548.2795304461096
 30
0.0
 10
567.6483598293056
 20
548.3428654561112
 30
0.0
 10
568.1754986363615
 20
548.3879127016055
 30
0.0
 10
568.7078705032808
 20
548.4150648960062
 30
0.0
 10
569.2451578771054
 20
548.4247232007101
 30
0.0
 10
569.7870629468871
 20
548.4172921146895
 30
0.0
 10
570.3333018592526
 20
548.3931765006173
 30
0.0
 10
570.8836026020933
 20
548.3527795929677
 30
0.0
 10
571.4377049731524
 20
548.2965011175744
 30
0.0
 10
571.9953607246463
 20
548.2247354616914
 30
0.0
 10
572.5563338240349
 20
548.1378698794833
 30
0.0
 10
573.1204008303259
 20
548.0362827373959
 30
0.0
 10
573.6873513874415
 20
547.9203418013918
 30
0.0
 10
574.256988073966
 20
547.7904027346623
 30
0.0
 10
574.8291214072391
 20
547.646809019727
 30
0.0
 10
575.4035643094896
 20
547.4898927664608
 30
0.0
 10
575.9801282871638
 20
547.3199757136508
 30
0.0
 10
576.558622816873
 20
547.137369690937
 30
0.0
 10
577.1388598839642
 20
546.9423750659815
 30
0.0
 10
577.5250268211913
 20
546.8049159095326
 30
0.0
 10
577.7183633227851
 20
546.7342315383535
 30
0.0
  0
LINE
  5
4A8
330
504
100
AcDbEntity
  8
0
 62
     7
370
    13
390
F
100
AcDbLine
 10
577.718384
 20
546.734253
 30
0.0
 11
631.988342
 21
595.971313
 31
0.0
  0
ELLIPSE
  5
4A9
330
504
100
AcDbEntity
  8
0
 62
     7
370
    40
390
F
100
AcDbEllipse
 10
58.974819
 20
69.999786
 30
0.0
 11
42.33165740966797
 21
-46.65866088867188
 31
0.0
210
0.0
220
0.0
230
1.0
 40
0.6443230000000001
 41
4.117367841030059
 42
4.64064268724682
  0
LINE
  5
4AA
330
504
100
AcDbEntity
  8
0
 62
     7
370
    13
390
F
100
AcDbLine
 10
25.954376
 20
46.139408
 30
0.0
 11
102.879814
 21
115.930984
 31
0.0
  0
SPLINE
  5
4AB
330
504
100
AcDbEntity
  8
0
 62
     7
370
    40
390
F
100
AcDbSpline
210
0.0
220
0.0
230
1.0
 70
     8
 71
     3
 72
    23
 73
    19
 74
     0
 42
0.0
 43
0.0
 40
0.0
 40
0.0
 40
0.0
 40
0.0
 40
0.689707578412394
 40
1.377287627351425
 40
2.062642491381136
 40
2.745657263735175
 40
3.426201578361775
 40
4.104131478182279
 40
4.779291375220029
 40
5.451516120732801
 40
6.120633206126094
 40
6.786465118238826
 40
7.448831875575085
 40
8.10755377518949
 40
8.762453310157083
 40
9.413344814351037
 40
10.06002519569596
 40
10.70228028850693
 40
10.70228028850693
 40
10.70228028850693
 40
10.70228028850693
 10
102.8798150343623
 20
115.9309822049262
 30
0.0
 10
102.83785851619
 20
116.1570369397517
 30
0.0
 10
102.7598738350253
 20
116.6095025152748
 30
0.0
 10
102.6605518787889
 20
117.2899189107759
 30
0.0
 10
102.5790687525542
 20
117.9704497773808
 30
0.0
 10
102.5154323093033
 20
118.6505270418893
 30
0.0
 10
102.4696567732983
 20
119.3295591709816
 30
0.0
 10
102.4417603254345
 20
120.006940880402
 30
0.0
 10
102.4317650345121
 20
120.6820505879915
 30
0.0
 10
102.4396962600679
 20
121.3542511655944
 30
0.0
 10
102.4655823015048
 20
122.0228898477018
 30
0.0
 10
102.5094540840137
 20
122.6872983710573
 30
0.0
 10
102.5713449767151
 20
123.3467931548901
 30
0.0
 10
102.6512905553143
 20
124.0006748492517
 30
0.0
 10
102.7493281125403
 20
124.6482245585507
 30
0.0
 10
102.8654926766198
 20
125.2886918454736
 30
0.0
 10
102.9998160986666
 20
125.9213002867088
 30
0.0
 10
103.1018410116288
 20
126.3387136983771
 30
0.0
 10
103.1559318326543
 20
126.5458704246788
 30
0.0
  0
SPLINE
  5
4AC
330
504
100
AcDbEntity
  8
0
 62
     7
370
    40
390
F
100
AcDbSpline
210
0.0
220
0.0
230
1.0
 70
     8
 71
     3
 72
    56
 73
    52
 74
     0
 42
0.0
 43
0.0
 40
0.0
 40
0.0
 40
0.0
 40
0.0
 40
0.595935235264786
 40
1.187643742882825
 40
1.774961581605305
 40
2.357739909648723
 40
2.935850462878052
 40
3.509184502164217
 40
4.077641484215539
 40
4.64115090653717
 40
5.199681746306834
 40
5.753246312925707
 40
6.30190319110846
 40
6.845759080548101
 40
7.384969326766052
 40
7.919736934918248
 40
8.450309867077733
 40
8.976977079465618
 40
9.500075646213734
 40
10.02000311830736
 40
10.53721002168494
 40
11.05218844223156
 40
11.56546023344446
 40
12.07756508517741
 40
12.58904872075049
 40
13.10045369309432
 40
13.61232730393571
 40
14.12521042040696
 40
14.6396231473047
 40
15.15605921115464
 40
15.6749821112875
 40
16.19682298504539
 40
16.72198013771967
 40
17.25082014465559
 40
17.78368039469049
 40
18.32087020282295
 40
18.86266191912537
 40
19.40928743617436
 40
19.96094086254262
 40
20.51778171979366
 40
21.07993840430861
 40
21.6475118481787
 40
22.22057932193962
 40
22.79919833023949
 40
23.38341055926741
 40
23.97324353925759
 40
24.56869909927377
 40
25.16975505578852
 40
25.77637008734476
 40
26.38848555262456
 40
27.00602716351713
 40
27.00602716351713
 40
27.00602716351713
 40
27.00602716351713
 10
103.1559318326543
 20
126.5458704246788
 30
0.0
 10
103.2061213214302
 20
126.7380858503729
 30
0.0
 10
103.3117137181478
 20
127.1196731996668
 30
0.0
 10
103.4865258154056
 20
127.6850116251768
 30
0.0
 10
103.6771845874879
 20
128.2405681210744
 30
0.0
 10
103.8836540440896
 20
128.7856066820943
 30
0.0
 10
104.1058772229563
 20
129.3193733265345
 30
0.0
 10
104.3437740987509
 20
129.8411046953491
 30
0.0
 10
104.5972368024345
 20
130.3500284286903
 30
0.0
 10
104.8661264863115
 20
130.8453715985897
 30
0.0
 10
105.1502743219353
 20
131.3263725237086
 30
0.0
 10
105.4494806115929
 20
131.7922876058376
 30
0.0
 10
105.763513166894
 20
132.2423966146707
 30
0.0
 10
106.0921055745212
 20
132.6760079985206
 30
0.0
 10
106.434955322667
 20
133.0924641940873
 30
0.0
 10
106.7917217366407
 20
133.4911469698015
 30
0.0
 10
107.1620239178808
 20
133.8714828760876
 30
0.0
 10
107.5454416296301
 20
134.2329520515256
 30
0.0
 10
107.9415233068663
 20
134.5750993928164
 30
0.0
 10
108.3497956541575
 20
134.8975441703117
 30
0.0
 10
108.7697713302757
 20
135.1999839294628
 30
0.0
 10
109.2009518495446
 20
135.4821922839074
 30
0.0
 10
109.6428293872339
 20
135.7440159876383
 30
0.0
 10
110.09488844767
 20
135.9853718942166
 30
0.0
 10
110.5566080487022
 20
136.2062440967058
 30
0.0
 10
111.0274695169906
 20
136.4066833304463
 30
0.0
 10
111.506964734264
 20
136.5868034958884
 30
0.0
 10
111.9946016983933
 20
136.7467761742065
 30
0.0
 10
112.4899042800461
 20
136.8868230202665
 30
0.0
 10
112.9924124855737
 20
137.0072088642139
 30
0.0
 10
113.5016848641116
 20
137.1082357998386
 30
0.0
 10
114.0173009606525
 20
137.1902372851344
 30
0.0
 10
114.538863827548
 20
137.2535722951248
 30
0.0
 10
115.0660026346115
 20
137.2986195406102
 30
0.0
 10
115.5983745015427
 20
137.3257717350032
 30
0.0
 10
116.1356618753712
 20
137.3354300397002
 30
0.0
 10
116.6775669451374
 20
137.3279989536753
 30
0.0
 10
117.2238058574634
 20
137.3038833396026
 30
0.0
 10
117.7741066002443
 20
137.2634864319554
 30
0.0
 10
118.3282089712332
 20
137.2072079565667
 30
0.0
 10
118.8858647226579
 20
137.1354423006891
 30
0.0
 10
119.4468378219909
 20
137.0485767184862
 30
0.0
 10
120.0109048282476
 20
136.9469895764028
 30
0.0
 10
120.5778553853526
 20
136.8310486404016
 30
0.0
 10
121.1474920718837
 20
136.7011095736732
 30
0.0
 10
121.719625405171
 20
136.557515858736
 30
0.0
 10
122.2940683074367
 20
136.4005996054663
 30
0.0
 10
122.870632285126
 20
136.2306825526534
 30
0.0
 10
123.4491268148507
 20
136.0480765299358
 30
0.0
 10
124.0293638819582
 20
135.8530819049759
 30
0.0
 10
124.4155308191962
 20
135.7156227485229
 30
0.0
 10
124.6088673207957
 20
135.6449383773418
 30
0.0
  0
LINE
  5
4AD
330
504
100
AcDbEntity
  8
0
 62
     7
370
    13
390
F
100
AcDbLine
 10
124.608864
 20
135.644943
 30
0.0
 11
555.989319
 21
527.020264
 31
0.0
  0
SPLINE
  5
4AE
330
504
100
AcDbEntity
  8
0
 62
     7
370
    40
390
F
100
AcDbSpline
210
0.0
220
0.0
230
1.0
 70
     8
 71
     3
 72
    38
 73
    34
 74
     0
 42
0.0
 43
0.0
 40
0.0
 40
0.0
 40
0.0
 40
0.0
 40
0.5248143828847456
 40
1.05411957818527
 40
1.587821712403275
 40
2.125809286640906
 40
2.667953712008197
 40
3.214109807896307
 40
3.764116269494641
 40
4.317796110702978
 40
4.874957088320873
 40
5.435392113129492
 40
5.998879653199404
 40
6.565184134472322
 40
7.134056343389534
 40
7.705233531953787
 40
8.278431823568972
 40
8.853343609188562
 40
9.429644761431309
 40
10.00699572834566
 40
10.58504231045348
 40
11.16341648472841
 40
11.74173727727665
 40
12.31961168600835
 40
12.89663565408387
 40
13.47239509439315
 40
14.04646696477182
 40
14.61842039308711
 40
15.18781785072179
 40
15.75421637235438
 40
16.317178581235
 40
16.87633598668541
 40
17.43112440280308
 40
17.43112440280308
 40
17.43112440280308
 40
17.43112440280308
 10
577.718364112091
 20
546.7342312497808
 30
0.0
 10
577.8826672226038
 20
546.6741615640756
 30
0.0
 10
578.2120461224011
 20
546.5517843296423
 30
0.0
 10
578.7063256209906
 20
546.362501369452
 30
0.0
 10
579.2028508923676
 20
546.166876153505
 30
0.0
 10
579.7015169242442
 20
545.965072690349
 30
0.0
 10
580.2022038994926
 20
545.7572552143997
 30
0.0
 10
580.7047784962447
 20
545.5435882507045
 30
0.0
 10
581.2090938476819
 20
545.324237139728
 30
0.0
 10
581.7149898742015
 20
545.09936840095
 30
0.0
 10
582.2222935251834
 20
544.8691501025121
 30
0.0
 10
582.7308190579546
 20
544.63375219142
 30
0.0
 10
583.2403683198569
 20
544.3933467929403
 30
0.0
 10
583.7507310499253
 20
544.1481084867928
 30
0.0
 10
584.261685086605
 20
543.8982145617283
 30
0.0
 10
584.7729942662884
 20
543.6438465601518
 30
0.0
 10
585.2844052120807
 20
543.3851917967205
 30
0.0
 10
585.7956464306666
 20
543.1224441822696
 30
0.0
 10
586.3064302605393
 20
542.8558042157279
 30
0.0
 10
586.8164555011849
 20
542.585477787554
 30
0.0
 10
587.3254082000092
 20
542.3116760416194
 30
0.0
 10
587.8329623575385
 20
542.0346152195307
 30
0.0
 10
588.3387806826795
 20
541.7545164803079
 30
0.0
 10
588.8425153936865
 20
541.4716056855841
 30
0.0
 10
589.3438090678126
 20
541.1861131562757
 30
0.0
 10
589.8422955406779
 20
540.8982734027298
 30
0.0
 10
590.33760085532
 20
540.608324832112
 30
0.0
 10
590.8293442654606
 20
540.3165094356217
 30
0.0
 10
591.3171392786126
 20
540.023072462839
 30
0.0
 10
591.8005975716278
 20
539.7282603806121
 30
0.0
 10
592.2793503086449
 20
539.4323078863113
 30
0.0
 10
592.7529939003359
 20
539.135470106839
 30
0.0
 10
593.0663930532662
 20
538.9363282283082
 30
0.0
 10
593.2221610813917
 20
538.8366514612262
 30
0.0
  0
ARC
  5
4AF
330
504
100
AcDbEntity
  8
0
 62
     7
370
    40
390
F
100
AcDbCircle
 10
630.077759
 20
573.594788
 30
0.0
 40
1.360283
100
AcDbArc
 50
131.567161
 51
164.990336
  0
SPLINE
  5
4B0
330
504
100
AcDbEntity
  8
0
 62
     7
370
    40
390
F
100
AcDbSpline
210
0.0
220
0.0
230
1.0
 70
     8
 71
     3
 72
    32
 73
    28
 74
     0
 42
0.0
 43
0.0
 40
0.0
 40
0.0
 40
0.0
 40
0.0
 40
0.0825740239989467
 40
0.1654522379751994
 40
0.2487697946509263
 40
0.332655644560684
 40
0.4172313016200263
 40
0.5026100288978297
 40
0.5888954372447475
 40
0.676180559163731
 40
0.7645474525950091
 40
0.8540670109247099
 40
0.9447989450732416
 40
1.036791904289102
 40
1.130083703314183
 40
1.224701626042563
 40
1.320662779150459
 40
1.417974472936185
 40
1.516634610489717
 40
1.616632069994708
 40
1.717946924674615
 40
1.82055032103216
 40
1.924405136294681
 40
2.029466536466804
 40
2.135682434087979
 40
2.242993933437095
 40
2.351335758841655
 40
2.351335758841655
 40
2.351335758841655
 40
2.351335758841655
 10
628.7642505907377
 20
573.9470044067625
 30
0.0
 10
628.7572963647253
 20
573.9203632666885
 30
0.0
 10
628.7450495262377
 20
573.8665592025204
 30
0.0
 10
628.7317323011908
 20
573.7846550346751
 30
0.0
 10
628.723479115114
 20
573.7016515788739
 30
0.0
 10
628.7203084804014
 20
573.6177329943368
 30
0.0
 10
628.722229294154
 20
573.533090719555
 30
0.0
 10
628.7292406210232
 20
573.4479161462841
 30
0.0
 10
628.7413312629973
 20
573.36240228615
 30
0.0
 10
628.7584793619617
 20
573.2767429378113
 30
0.0
 10
628.7806526937694
 20
573.1911323784147
 30
0.0
 10
628.8078087546436
 20
573.1057647774037
 30
0.0
 10
628.8398948906589
 20
573.0208336648748
 30
0.0
 10
628.876848403381
 20
572.9365313881394
 30
0.0
 10
628.9185966528705
 20
572.8530485725661
 30
0.0
 10
628.9650571556853
 20
572.7705735814255
 30
0.0
 10
629.0161376819158
 20
572.6892919762969
 30
0.0
 10
629.0717363532793
 20
572.6093859789783
 30
0.0
 10
629.1317417442306
 20
572.5310339351528
 30
0.0
 10
629.1960329571477
 20
572.4544098228778
 30
0.0
 10
629.2644795888838
 20
572.3796828565905
 30
0.0
 10
629.3369424471673
 20
572.3070176662145
 30
0.0
 10
629.4132732626026
 20
572.236573580225
 30
0.0
 10
629.4933152874734
 20
572.1685039773657
 30
0.0
 10
629.5769029065593
 20
572.1029563251277
 30
0.0
 10
629.6638648473152
 20
572.0400699428415
 30
0.0
 10
629.7236914332933
 20
572.0001934059379
 30
0.0
 10
629.7541141965074
 20
571.9807257223613
 30
0.0
  0
LINE
  5
4B1
330
504
100
AcDbEntity
  8
0
 62
     7
 48
0.229426
370
    40
390
F
100
AcDbLine
 10
629.174927
 20
574.612915
 30
0.0
 11
635.971558
 21
580.779236
 31
0.0
  0
SPLINE
  5
4B2
330
504
100
AcDbEntity
  8
0
 62
     7
370
    40
390
F
100
AcDbSpline
210
0.0
220
0.0
230
1.0
 70
     8
 71
     3
 72
    42
 73
    38
 74
     0
 42
0.0
 43
0.0
 40
0.0
 40
0.0
 40
0.0
 40
0.0
 40
0.0863575307533229
 40
0.1738492151435126
 40
0.2625512485858072
 40
0.3525279749223143
 40
0.4438315772979824
 40
0.5365019538973405
 40
0.6305667508707948
 40
0.726041525301396
 40
0.82293001282749
 40
0.9212244771091708
 40
1.020906121281828
 40
1.121945544596145
 40
1.224303230392093
 40
1.327930054377021
 40
1.432767992560839
 40
1.538750766377998
 40
1.645803560448508
 40
1.753843497925816
 40
1.862780298984247
 40
1.972516962671359
 40
2.082950467211282
 40
2.193972484800588
 40
2.305470107688481
 40
2.417326582907668
 40
2.529422053440965
 40
2.641634303883218
 40
2.753839508824005
 40
2.86591298172855
 40
2.977729626154402
 40
3.089164005164711
 40
3.200091537335901
 40
3.310389429677757
 40
3.419937528277849
 40
3.528619187717447
 40
3.636322156693987
 40
3.636322156693987
 40
3.636322156693987
 40
3.636322156693987
 10
635.9715467690851
 20
580.779240510536
 30
0.0
 10
635.9928713586999
 20
580.7985875128591
 30
0.0
 10
636.0368827806539
 20
580.8363227923068
 30
0.0
 10
636.1063529441367
 20
580.8896224212317
 30
0.0
 10
636.1795342199449
 20
580.9398557477965
 30
0.0
 10
636.2562809640089
 20
580.9869283160575
 30
0.0
 10
636.3364374667449
 20
581.0307507629843
 30
0.0
 10
636.4198425365609
 20
581.0712426145772
 30
0.0
 10
636.5063287472906
 20
581.1083312825604
 30
0.0
 10
636.5957231324791
 20
581.1419523696961
 30
0.0
 10
636.6878474736894
 20
581.1720496121552
 30
0.0
 10
636.7825186934065
 20
581.1985749168068
 30
0.0
 10
636.8795492153695
 20
581.2214883665454
 30
0.0
 10
636.9787473310312
 20
581.2407582314756
 30
0.0
 10
637.0799175659297
 20
581.2563609612858
 30
0.0
 10
637.1828610998444
 20
581.268281225163
 30
0.0
 10
637.2873762658414
 20
581.276511762655
 30
0.0
 10
637.3932587731042
 20
581.2810522053152
 30
0.0
 10
637.5003016427684
 20
581.2819100598102
 30
0.0
 10
637.6082953214725
 20
581.2791003387651
 30
0.0
 10
637.7170280546407
 20
581.2726453801724
 30
0.0
 10
637.8262863227984
 20
581.2625746311923
 30
0.0
 10
637.9358552792484
 20
581.2489244431779
 30
0.0
 10
638.0455191923855
 20
581.2317378653751
 30
0.0
 10
638.155061892111
 20
581.2110644419868
 30
0.0
 10
638.2642672208325
 20
581.1869600128421
 30
0.0
 10
638.3729194890232
 20
581.159486518465
 30
0.0
 10
638.4808039361303
 20
581.1287118126702
 30
0.0
 10
638.5877071944622
 20
581.0947094759316
 30
0.0
 10
638.693417671439
 20
581.0575586929002
 30
0.0
 10
638.7977257071291
 20
581.0173441500162
 30
0.0
 10
638.9004236135668
 20
580.9741552720039
 30
0.0
 10
639.0013061802605
 20
580.9280865003119
 30
0.0
 10
639.1001714160417
 20
580.8792368134839
 30
0.0
 10
639.1968204954989
 20
580.82770979427
 30
0.0
 10
639.2910602197331
 20
580.7736120780506
 30
0.0
 10
639.352448688006
 20
580.7357254053333
 30
0.0
 10
639.3826909865498
 20
580.7163732020329
 30
0.0
  0
SPLINE
  5
4B3
330
504
100
AcDbEntity
  8
0
 62
     7
370
    40
390
F
100
AcDbSpline
210
0.0
220
0.0
230
1.0
 70
     8
 71
     3
 72
    38
 73
    34
 74
     0
 42
0.0
 43
0.0
 40
0.0
 40
0.0
 40
0.0
 40
0.0
 40
0.3057953968612963
 40
0.6195835373838656
 40
0.9415949687942842
 40
1.272032862090908
 40
1.611074430081297
 40
1.958872169197143
 40
2.315554931296895
 40
2.681228835520752
 40
3.05597803267406
 40
3.439865335925135
 40
3.832932732135589
 40
4.235201788106069
 40
4.64667396562299
 40
5.067330638233052
 40
5.497127331364127
 40
5.935991018808582
 40
6.383824640673425
 40
6.840507347942695
 40
7.305894489943185
 40
7.779817609545665
 40
8.26208445324603
 40
8.752479002454702
 40
9.25076153152207
 40
9.756668697233229
 40
10.26991366372778
 40
10.79018626602101
 40
11.31715321454181
 40
11.85045834233099
 40
12.38973242642014
 40
12.93465522173089
 40
13.48469565372447
 40
13.48469565372447
 40
13.48469565372447
 40
13.48469565372447
 10
603.511894938663
 20
530.2288174278963
 30
0.0
 10
603.452956500096
 20
530.3119884940932
 30
0.0
 10
603.3313427849575
 20
530.4789354089095
 30
0.0
 10
603.1404217936262
 20
530.7280929529494
 30
0.0
 10
602.9387281057392
 20
530.9792328857728
 30
0.0
 10
602.7262869786099
 20
531.2324379699584
 30
0.0
 10
602.5031279499287
 20
531.4877776222637
 30
0.0
 10
602.2692834098041
 20
531.7453112136341
 30
0.0
 10
602.0247900646998
 20
532.0050872519107
 30
0.0
 10
601.7696895652089
 20
532.2671436963917
 30
0.0
 10
601.5040293353834
 20
532.531507942224
 30
0.0
 10
601.2278633147416
 20
532.798196882762
 30
0.0
 10
600.9412526907372
 20
533.0672169349883
 30
0.0
 10
600.6442666068608
 20
533.3385640701188
 30
0.0
 10
600.3369828749533
 20
533.6122237565197
 30
0.0
 10
600.0194902528045
 20
533.8881697163434
 30
0.0
 10
599.6918910755239
 20
534.1663616838728
 30
0.0
 10
599.3543030280205
 20
534.4467445477386
 30
0.0
 10
599.0068596914429
 20
534.7292492722052
 30
0.0
 10
598.6497098262126
 20
535.0137938171155
 30
0.0
 10
598.2830178490833
 20
535.3002832053999
 30
0.0
 10
597.9069642982026
 20
535.588609522425
 30
0.0
 10
597.5217462585367
 20
535.8786519496466
 30
0.0
 10
597.1275777370915
 20
536.1702768241279
 30
0.0
 10
596.7246899910607
 20
536.4633377306913
 30
0.0
 10
596.313331808491
 20
536.7576756295051
 30
0.0
 10
595.893769743016
 20
537.0531190217832
 30
0.0
 10
595.4662883018622
 20
537.3494841604029
 30
0.0
 10
595.0311900959913
 20
537.6465752948832
 30
0.0
 10
594.5887932904678
 20
537.9441867790813
 30
0.0
 10
594.139411880156
 20
538.2421163216206
 30
0.0
 10
593.6834070310739
 20
538.5401296492245
 30
0.0
 10
593.3765960431738
 20
538.7378277301937
 30
0.0
 10
593.2221610813023
 20
538.8366514612835
 30
0.0
  0
ARC
  5
4B4
330
504
100
AcDbEntity
  8
0
 62
     7
370
    40
390
F
100
AcDbCircle
 10
639.122803
 20
579.205872
 30
0.0
 40
1.325334
100
AcDbArc
 50
311.039285
 51
344.422987
  0
SPLINE
  5
4B5
330
504
100
AcDbEntity
  8
0
 62
     7
370
    40
390
F
100
AcDbSpline
210
0.0
220
0.0
230
1.0
 70
     8
 71
     3
 72
    32
 73
    28
 74
     0
 42
0.0
 43
0.0
 40
0.0
 40
0.0
 40
0.0
 40
0.0
 40
0.0780682967158447
 40
0.1561605703146093
 40
0.2344748088654829
 40
0.3132061939959133
 40
0.3925438963516038
 40
0.4726683054538056
 40
0.5537479242662534
 40
0.6359369143052489
 40
0.7193734018568861
 40
0.8041782830999198
 40
0.8904544914123046
 40
0.9782866732302564
 40
1.067741208955135
 40
1.158866512757148
 40
1.25169354786493
 40
1.34623650012647
 40
1.442493560614859
 40
1.540447776554799
 40
1.640067800563382
 40
1.741308344839637
 40
1.844111400835788
 40
1.948407383246518
 40
2.054116183387687
 40
2.161148208835896
 40
2.269405400668361
 40
2.269405400668361
 40
2.269405400668361
 40
2.269405400668361
 10
640.3986934880078
 20
578.8501669558415
 30
0.0
 10
640.4052683088183
 20
578.875355514752
 30
0.0
 10
640.4167415005877
 20
578.9261608913268
 30
0.0
 10
640.4288538149943
 20
579.0034362993583
 30
0.0
 10
640.4358314440402
 20
579.0815610003144
 30
0.0
 10
640.4376663401863
 20
579.1603904492765
 30
0.0
 10
640.4343608267567
 20
579.2397741845415
 30
0.0
 10
640.4259277893248
 20
579.3195633829447
 30
0.0
 10
640.4123909117158
 20
579.3996088182129
 30
0.0
 10
640.3937848963255
 20
579.4797614486401
 30
0.0
 10
640.3701549620905
 20
579.5598723524255
 30
0.0
 10
640.3415565687174
 20
579.6397929100362
 30
0.0
 10
640.3080551177582
 20
579.7193749090845
 30
0.0
 10
640.2697257029884
 20
579.7984706573036
 30
0.0
 10
640.2266528871872
 20
579.8769330978184
 30
0.0
 10
640.1789305046063
 20
579.9546159414955
 30
0.0
 10
640.1266614807994
 20
580.0313738209043
 30
0.0
 10
640.0699576638794
 20
580.107062468928
 30
0.0
 10
640.0089396617599
 20
580.1815389237704
 30
0.0
 10
639.9437367125597
 20
580.2546617215905
 30
0.0
 10
639.8744866648301
 20
580.3262910273878
 30
0.0
 10
639.8013352350172
 20
580.3962881954183
 30
0.0
 10
639.724436230344
 20
580.4645162905101
 30
0.0
 10
639.6439509608088
 20
580.5308405095162
 30
0.0
 10
639.5600484265302
 20
580.5951280972432
 30
0.0
 10
639.4729027300843
 20
580.6572500532043
 30
0.0
 10
639.4130891537003
 20
580.6969212576047
 30
0.0
 10
639.3826909865496
 20
580.716373202033
 30
0.0
  0
LINE
  5
4B6
330
504
100
AcDbEntity
  8
0
 62
     7
 48
0.229426
370
    40
390
F
100
AcDbLine
 10
633.19696
 20
572.039185
 30
0.0
 11
639.993591
 21
578.205505
 31
0.0
  0
SPLINE
  5
4B7
330
504
100
AcDbEntity
  8
0
 62
     7
370
    40
390
F
100
AcDbSpline
210
0.0
220
0.0
230
1.0
 70
     8
 71
     3
 72
    42
 73
    38
 74
     0
 42
0.0
 43
0.0
 40
0.0
 40
0.0
 40
0.0
 40
0.0
 40
0.0865654556708178
 40
0.1746557899683955
 40
0.2643098696086583
 40
0.3555511086192895
 40
0.4483882585823509
 40
0.5428163110415076
 40
0.6388174699053178
 40
0.7363621598848347
 40
0.8354100443659613
 40
0.9359110324278133
 40
1.037806259913108
 40
1.141029033594969
 40
1.245505730706458
 40
1.351156648668777
 40
1.457896986597454
 40
1.565637684802658
 40
1.674285287959988
 40
1.783742524149408
 40
1.893909015957584
 40
2.00468196745289
 40
2.115956825543917
 40
2.227627914616783
 40
2.339589043608751
 40
2.451734084812995
 40
2.563957523776357
 40
2.67615497963427
 40
2.788223695154821
 40
2.900062995161286
 40
3.011574411680429
 40
3.122661393881959
 40
3.233230131516836
 40
3.343190082032724
 40
3.452454390047077
 40
3.560940303426136
 40
3.668569584769983
 40
3.668569584769983
 40
3.668569584769983
 40
3.668569584769983
 10
633.1969464240461
 20
572.0391755680134
 30
0.0
 10
633.1755711633573
 20
572.019782593721
 30
0.0
 10
633.1314171722654
 20
571.9818048446454
 30
0.0
 10
633.0617662138438
 20
571.9277892363618
 30
0.0
 10
632.988281080362
 20
571.8763567167845
 30
0.0
 10
632.9111096927862
 20
571.8276115005596
 30
0.0
 10
632.8304106060502
 20
571.7816563180056
 30
0.0
 10
632.7463489559063
 20
571.7385889548257
 30
0.0
 10
632.6590970550022
 20
571.6985029511557
 30
0.0
 10
632.5688337031822
 20
571.6614871261679
 30
0.0
 10
632.4757438431063
 20
571.627625399695
 30
0.0
 10
632.3800181125072
 20
571.5969965101069
 30
0.0
 10
632.2818524164243
 20
571.5696737429682
 30
0.0
 10
632.1814474869794
 20
571.5457246387407
 30
0.0
 10
632.0790084369527
 20
571.5252107035217
 30
0.0
 10
631.9747442577184
 20
571.5081870605003
 30
0.0
 10
631.8688672375014
 20
571.4947022618709
 30
0.0
 10
631.7615926066997
 20
571.4847990780319
 30
0.0
 10
631.6531385543923
 20
571.4785132734739
 30
0.0
 10
631.5437260163243
 20
571.4758736233455
 30
0.0
 10
631.4335782040412
 20
571.4769017399797
 30
0.0
 10
631.3229200712232
 20
571.48161193043
 30
0.0
 10
631.2119777805405
 20
571.4900110477782
 30
0.0
 10
631.1009781680907
 20
571.5020983499128
 30
0.0
 10
630.9901482066319
 20
571.5178653638172
 30
0.0
 10
630.879714467655
 20
571.5372957573946
 30
0.0
 10
630.7699025828338
 20
571.5603652202899
 30
0.0
 10
630.6609367046294
 20
571.5870413527805
 30
0.0
 10
630.5530389685753
 20
571.617283571381
 30
0.0
 10
630.4464290457657
 20
571.6510429728971
 30
0.0
 10
630.3413239263563
 20
571.6882621998477
 30
0.0
 10
630.2379378013559
 20
571.7288759838978
 30
0.0
 10
630.1364815348759
 20
571.7728106619363
 30
0.0
 10
630.037161824748
 20
571.8199845040376
 30
0.0
 10
629.9401813811847
 20
571.8703073972338
 30
0.0
 10
629.8457358298491
 20
571.9236826674812
 30
0.0
 10
629.784336588277
 20
571.9613862575088
 30
0.0
 10
629.7541141965073
 20
571.9807257223615
 30
0.0
  0
SPLINE
  5
4B8
330
504
100
AcDbEntity
  8
0
 62
     7
370
    40
390
F
100
AcDbSpline
210
0.0
220
0.0
230
1.0
 70
     8
 71
     3
 72
    38
 73
    34
 74
     0
 42
0.0
 43
0.0
 40
0.0
 40
0.0
 40
0.0
 40
0.0
 40
0.3057953968710486
 40
0.6195835374074204
 40
0.9415949688382561
 40
1.2720328621626
 40
1.611074430187547
 40
1.958872169343646
 40
2.315554931487093
 40
2.681228835755761
 40
3.055978032952233
 40
3.439865336242742
 40
3.832932732487139
 40
4.23520178848571
 40
4.646673966025819
 40
5.067330638657094
 40
5.497127331804393
 40
5.935991019252188
 40
6.38382464110282
 40
6.840507348339327
 40
7.305894490289963
 40
7.779817609829275
 40
8.262084453458504
 40
8.75247900259439
 40
9.250761531593783
 40
9.756668697247989
 40
10.26991366370104
 40
10.79018626597115
 40
11.31715321448693
 40
11.85045834228498
 40
12.38973242638909
 40
12.93465522171553
 40
13.48469565372497
 40
13.48469565372497
 40
13.48469565372497
 40
13.48469565372497
 10
150.4023989366734
 20
119.1395242668847
 30
0.0
 10
150.3434604981045
 20
119.2226953330841
 30
0.0
 10
150.2218467829614
 20
119.3896422479069
 30
0.0
 10
150.0309257916202
 20
119.6387997919578
 30
0.0
 10
149.8292321037185
 20
119.8899397247957
 30
0.0
 10
149.6167909765691
 20
120.1431448090004
 30
0.0
 10
149.3936319478628
 20
120.3984844613291
 30
0.0
 10
149.1597874077092
 20
120.6560180527266
 30
0.0
 10
148.9152940625731
 20
120.9157940910322
 30
0.0
 10
148.6601935630495
 20
121.1778505355426
 30
0.0
 10
148.3945333331926
 20
121.4422147814035
 30
0.0
 10
148.1183673125208
 20
121.7089037219664
 30
0.0
 10
147.8317566884898
 20
121.9779237742138
 30
0.0
 10
147.53477060459
 20
122.2492709093606
 30
0.0
 10
147.2274868726613
 20
122.5229305957743
 30
0.0
 10
146.9099942504939
 20
122.7988765556073
 30
0.0
 10
146.5823950732008
 20
123.0770685231428
 30
0.0
 10
146.2448070256942
 20
123.3574513870077
 30
0.0
 10
145.8973636891279
 20
123.6399561114653
 30
0.0
 10
145.5402138239234
 20
123.924500656356
 30
0.0
 10
145.173521846833
 20
124.2109900446111
 30
0.0
 10
144.7974682960012
 20
124.4993163615993
 30
0.0
 10
144.41225025639
 20
124.7893587887787
 30
0.0
 10
144.0180817349998
 20
125.0809836632156
 30
0.0
 10
143.61519398902
 20
125.3740445697371
 30
0.0
 10
143.2038358064924
 20
125.6683824685146
 30
0.0
 10
142.7842737410479
 20
125.9638258607656
 30
0.0
 10
142.356792299911
 20
126.2601909993689
 30
0.0
 10
141.9216940940441
 20
126.5572821338434
 30
0.0
 10
141.4792972885152
 20
126.8548936180448
 30
0.0
 10
141.0299158781926
 20
127.1528231605919
 30
0.0
 10
140.5739110290977
 20
127.4508364882042
 30
0.0
 10
140.2671000411888
 20
127.6485345691793
 30
0.0
 10
140.1126650793128
 20
127.747358300272
 30
0.0
  0
SPLINE
  5
4B9
330
504
100
AcDbEntity
  8
0
 62
     7
370
    40
390
F
100
AcDbSpline
210
0.0
220
0.0
230
1.0
 70
     8
 71
     3
 72
    38
 73
    34
 74
     0
 42
0.0
 43
0.0
 40
0.0
 40
0.0
 40
0.0
 40
0.0
 40
0.5762102504960732
 40
1.151891838600995
 40
1.727006688952524
 40
2.301515375013315
 40
2.875378088500918
 40
3.448555586961417
 40
4.021010114388946
 40
4.592706289318773
 40
5.163611954350969
 40
5.73369898058885
 40
6.302944020023904
 40
6.871329198480677
 40
7.438842741353058
 40
8.00547921856878
 40
8.571232012869475
 40
9.136090858591439
 40
9.7000489610401
 40
10.26310370397608
 40
10.82525685956161
 40
11.38651465784116
 40
11.94688770832713
 40
12.50639076713173
 40
13.06504234416314
 40
13.62286414617579
 40
14.17988035293114
 40
14.73611672536285
 40
15.29159954641452
 40
15.84635439711287
 40
16.40041439410859
 40
16.9538805240081
 40
17.50665669224152
 40
17.50665669224152
 40
17.50665669224152
 40
17.50665669224152
 10
581.7828420225209
 20
510.5148606841695
 30
0.0
 10
581.5942257723565
 20
510.4785714427704
 30
0.0
 10
581.2165223642529
 20
510.4094225357331
 30
0.0
 10
580.6484180986686
 20
510.3161895327017
 30
0.0
 10
580.0792222041548
 20
510.233743248268
 30
0.0
 10
579.5091456811906
 20
510.1623327497506
 30
0.0
 10
578.9384166508087
 20
510.1022072894863
 30
0.0
 10
578.367275767848
 20
510.0536144739421
 30
0.0
 10
577.7959769458078
 20
510.0167994462523
 30
0.0
 10
577.2247866387057
 20
509.9920037815252
 30
0.0
 10
576.6539834852256
 20
509.9794644440541
 30
0.0
 10
576.083857830404
 20
509.9794127134724
 30
0.0
 10
575.5147112529525
 20
509.9920731086145
 30
0.0
 10
574.9468560611924
 20
510.0176622930133
 30
0.0
 10
574.3806148706843
 20
510.0563879974052
 30
0.0
 10
573.8163227981254
 20
510.108447560225
 30
0.0
 10
573.2543305669898
 20
510.1740264149009
 30
0.0
 10
572.695005141465
 20
510.2532960982546
 30
0.0
 10
572.1387273640378
 20
510.3464120954822
 30
0.0
 10
571.5858886064105
 20
510.4535126331927
 30
0.0
 10
571.0368895734657
 20
510.5747171908046
 30
0.0
 10
570.4921391821485
 20
510.7101250493609
 30
0.0
 10
569.9520533904589
 20
510.8598138567327
 30
0.0
 10
569.417053976701
 20
511.0238382234904
 30
0.0
 10
568.8875672701313
 20
511.2022283495198
 30
0.0
 10
568.3640228281276
 20
511.3949886891088
 30
0.0
 10
567.8468520801921
 20
511.6020966458582
 30
0.0
 10
567.3364868668551
 20
511.823501346271
 30
0.0
 10
566.8333581471563
 20
512.0591223272461
 30
0.0
 10
566.3378909988498
 20
512.3088502112344
 30
0.0
 10
565.8504846917734
 20
512.5725559470227
 30
0.0
 10
565.371560356288
 20
512.8500678547339
 30
0.0
 10
565.0580314361454
 20
513.0442484899086
 30
0.0
 10
564.9028175811779
 20
513.1435706387203
 30
0.0
  0
ELLIPSE
  5
4BA
330
504
100
AcDbEntity
  8
0
 62
     7
370
    40
390
F
100
AcDbEllipse
 10
522.142761
 20
492.886169
 30
0.0
 11
-23.78635978698731
 21
26.21772384643555
 31
0.0
210
0.0
220
0.0
230
1.0
 40
0.6443229999999998
 41
1.593032855476486
 42
2.345094749710479
  0
LINE
  5
4BB
330
504
100
AcDbEntity
  8
0
 62
     7
 48
0.420614
370
    40
390
F
100
AcDbLine
 10
514.237244
 20
452.292603
 30
0.0
 11
526.697754
 21
463.597534
 31
0.0
  0
ELLIPSE
  5
4BC
330
504
100
AcDbEntity
  8
0
 62
     7
370
    40
390
F
100
AcDbEllipse
 10
509.682251
 20
481.581207
 30
0.0
 11
23.78635978698731
 21
-26.21772384643555
 31
0.0
210
0.0
220
0.0
230
1.0
 40
0.6443229999999998
 41
4.734625509066309
 42
5.486687403300277
  0
ELLIPSE
  5
4BD
330
504
100
AcDbEntity
  8
0
 62
     7
370
    40
390
F
100
AcDbEllipse
 10
208.194519
 20
208.052673
 30
0.0
 11
-23.78635978698731
 21
26.21772384643555
 31
0.0
210
0.0
220
0.0
230
1.0
 40
0.6443229999999998
 41
1.593032855476499
 42
2.34509474971048
  0
LINE
  5
4BE
330
504
100
AcDbEntity
  8
0
 62
     7
 48
0.420615
370
    40
390
F
100
AcDbLine
 10
200.289001
 20
167.459091
 30
0.0
 11
212.749527
 21
178.764053
 31
0.0
  0
ELLIPSE
  5
4BF
330
504
100
AcDbEntity
  8
0
 62
     7
370
    40
390
F
100
AcDbEllipse
 10
195.734009
 20
196.747726
 30
0.0
 11
23.78635978698731
 21
-26.21772384643555
 31
0.0
210
0.0
220
0.0
230
1.0
 40
0.6443229999999998
 41
4.734625509066266
 42
5.486687403300271
  0
ELLIPSE
  5
4C0
330
504
100
AcDbEntity
  8
0
 62
     7
370
    40
390
F
100
AcDbEllipse
 10
44.50872
 20
59.546669
 30
0.0
 11
23.78635978698731
 21
-26.21772384643555
 31
0.0
210
0.0
220
0.0
230
1.0
 40
0.6443229999999998
 41
5.48668740329713
 42
5.580670213275352
  0
ELLIPSE
  5
4C1
330
504
100
AcDbEntity
  8
0
 62
     7
370
    40
390
F
100
AcDbEllipse
 10
44.50872
 20
59.546669
 30
0.0
 11
24.18951988220215
 21
-26.66209220886231
 31
0.0
210
0.0
220
0.0
230
1.0
 40
0.6443230000000001
 41
5.480115586081483
 42
5.580670234348778
  0
LINE
  5
4C2
330
504
100
AcDbEntity
  8
0
 62
     7
 48
0.011424
370
    40
390
F
100
AcDbLine
 10
48.948231
 20
29.815914
 30
0.0
 11
49.063713
 21
30.258043
 31
0.0
  0
SPLINE
  5
4C3
330
504
100
AcDbEntity
  8
0
 62
     7
370
    40
390
F
100
AcDbSpline
210
0.0
220
0.0
230
1.0
 70
     8
 71
     3
 72
    38
 73
    34
 74
     0
 42
0.0
 43
0.0
 40
0.0
 40
0.0
 40
0.0
 40
0.0
 40
0.5762102504863682
 40
1.15189183859133
 40
1.727006688958105
 40
2.301515375050799
 40
2.875378088585241
 40
3.448555587103659
 40
4.021010114594239
 40
4.592706289586004
 40
5.163611954672958
 40
5.733698980952859
 40
6.302944020413872
 40
6.871329198879883
 40
7.438842741747317
 40
8.005479218951235
 40
8.571232013237488
 40
9.136090858941355
 40
9.700048961367411
 40
10.26310370427665
 40
10.82525685983199
 40
11.3865146580788
 40
11.9468877085307
 40
12.50639076730162
 40
13.06504234430116
 40
13.62286414628491
 40
14.17988035301559
 40
14.73611672542707
 40
15.29159954646281
 40
15.84635439714859
 40
16.40041439413297
 40
16.95388052402126
 40
17.50665669224342
 40
17.50665669224342
 40
17.50665669224342
 40
17.50665669224342
 10
128.6733460205314
 20
99.42556752315802
 30
0.0
 10
128.4847297703703
 20
99.38927828175935
 30
0.0
 10
128.10702636227
 20
99.32012937472211
 30
0.0
 10
127.538922096684
 20
99.22689637168938
 30
0.0
 10
126.9697262021547
 20
99.14445008725298
 30
0.0
 10
126.3996496791594
 20
99.07303958873246
 30
0.0
 10
125.8289206487318
 20
99.01291412846575
 30
0.0
 10
125.2577797657152
 20
98.96432131292012
 30
0.0
 10
124.6864809436137
 20
98.92750628523089
 30
0.0
 10
124.1152906364517
 20
98.90271062050654
 30
0.0
 10
123.5444874829185
 20
98.89017128304056
 30
0.0
 10
122.974361828056
 20
98.890119552466
 30
0.0
 10
122.4052152505788
 20
98.90277994761644
 30
0.0
 10
121.8373600588091
 20
98.92836913202429
 30
0.0
 10
121.2711188683041
 20
98.96709483642502
 30
0.0
 10
120.7068267957564
 20
99.01915439925334
 30
0.0
 10
120.1448345646365
 20
99.08473325393626
 30
0.0
 10
119.5855091391311
 20
99.16400293729524
 30
0.0
 10
119.0292313617271
 20
99.25711893452598
 30
0.0
 10
118.4763926041271
 20
99.36421947223776
 30
0.0
 10
117.9273935712127
 20
99.48542402984853
 30
0.0
 10
117.3826431799282
 20
99.62083188840177
 30
0.0
 10
116.8425573882721
 20
99.77052069576942
 30
0.0
 10
116.3075579745473
 20
99.93454506252192
 30
0.0
 10
115.7780712680089
 20
100.1129351885457
 30
0.0
 10
115.2545268260337
 20
100.3056955281293
 30
0.0
 10
114.7373560781228
 20
100.5128034848741
 30
0.0
 10
114.2269908648061
 20
100.7342081852827
 30
0.0
 10
113.7238621451239
 20
100.9698291662545
 30
0.0
 10
113.2283949968301
 20
101.2195570502387
 30
0.0
 10
112.7409886897644
 20
101.4832627860222
 30
0.0
 10
112.262064354289
 20
101.7607746937282
 30
0.0
 10
111.9485354341528
 20
101.9549553288991
 30
0.0
 10
111.7933215791885
 20
102.0542774777088
 30
0.0
  0
ELLIPSE
  5
4C4
330
504
100
AcDbEntity
  8
0
 62
     7
370
    40
390
F
100
AcDbEllipse
 10
44.50872
 20
59.546669
 30
0.0
 11
23.78635978698731
 21
-26.21772384643555
 31
0.0
210
0.0
220
0.0
230
1.0
 40
0.6443229999999998
 41
5.039976152291048
 42
5.18133676007238
  0
ARC
  5
4C5
330
504
100
AcDbEntity
  8
0
 62
     7
370
    40
390
F
100
AcDbCircle
 10
36.755032
 20
133.565506
 30
0.0
 40
99.598686
100
AcDbArc
 50
271.976354
 51
273.575929
  0
LINE
  5
4C6
330
504
100
AcDbEntity
  8
0
 62
     7
 48
0.152951
370
    40
390
F
100
AcDbLine
 10
42.967121
 20
34.160725
 30
0.0
 11
47.498215
 21
38.271618
 31
0.0
  0
ELLIPSE
  5
4C7
330
504
100
AcDbEntity
  8
0
 62
     7
370
    40
390
F
100
AcDbEllipse
 10
50.172588
 20
64.685287
 30
0.0
 11
23.78635978698731
 21
-26.21772384643555
 31
0.0
210
0.0
220
0.0
230
1.0
 40
0.6443229999999998
 41
5.23811996880058
 42
5.309708430115391
  0
ARC
  5
4C8
330
504
100
AcDbEntity
  8
0
 62
     7
370
    40
390
F
100
AcDbCircle
 10
39.871922
 20
136.6138
 30
0.0
 40
99.819932
100
AcDbArc
 50
275.582939
 51
277.214569
  0
LINE
  5
4C9
330
504
100
AcDbEntity
  8
0
 62
     7
 48
0.057357
370
    40
390
F
100
AcDbLine
 10
52.407856
 20
37.584167
 30
0.0
 11
54.107014
 21
39.125755
 31
0.0
  0
ELLIPSE
  5
4CA
330
504
100
AcDbEntity
  8
0
 62
     7
370
    40
390
F
100
AcDbEllipse
 10
53.004524
 20
67.254593
 30
0.0
 11
23.78635978698731
 21
-26.21772384643555
 31
0.0
210
0.0
220
0.0
230
1.0
 40
0.6443229999999998
 41
5.367715452953449
 42
5.426622106305259
  0
LINE
  5
4CB
330
504
100
AcDbEntity
  8
0
 62
     7
 48
0.248545
370
    40
390
F
100
AcDbLine
 10
48.458427
 20
31.820446
 30
0.0
 11
55.821457
 21
38.500648
 31
0.0
  0
ARC
  5
4CC
330
504
100
AcDbEntity
  8
0
 62
     7
370
    40
390
F
100
AcDbCircle
 10
95.213676
 20
49.03159
 30
0.0
 40
49.822391
100
AcDbArc
 50
200.209241
 51
202.136215
  0
SPLINE
  5
4CD
330
504
100
AcDbEntity
  8
0
 62
     7
370
    40
390
F
100
AcDbSpline
210
0.0
220
0.0
230
1.0
 70
     8
 71
     3
 72
    38
 73
    34
 74
     0
 42
0.0
 43
0.0
 40
0.0
 40
0.0
 40
0.0
 40
0.0
 40
0.3097236921615632
 40
0.6274938874218299
 40
0.9535739415784557
 40
1.288196855077306
 40
1.631566977050813
 40
1.983861516494517
 40
2.345231861824313
 40
2.715804716046285
 40
3.095683058763887
 40
3.484946948704688
 40
3.883654181766896
 40
4.291840820079877
 40
4.709520791595907
 40
5.136681166206167
 40
5.573281917904295
 40
6.019256791646845
 40
6.47451333601993
 40
6.938932918472176
 40
7.41237073444258
 40
7.894655820110808
 40
8.385591077489586
 40
8.884953319568625
 40
9.392493342225112
 40
9.907936028628862
 40
10.43098049089921
 40
10.96130026145216
 40
11.49854467267074
 40
12.0423434462616
 40
12.59230886357442
 40
13.1480363106461
 40
13.70910481011963
 40
13.70910481011963
 40
13.70910481011963
 40
13.70910481011963
 10
150.3945844549044
 20
118.5141199600114
 30
0.0
 10
150.3370469631484
 20
118.5998489504807
 30
0.0
 10
150.218046671716
 20
118.7718883251088
 30
0.0
 10
150.0304553616007
 20
119.0285315859552
 30
0.0
 10
149.8315781355661
 20
119.2870782341923
 30
0.0
 10
149.6214463924976
 20
119.5476188483847
 30
0.0
 10
149.4000952577187
 20
119.8102299000462
 30
0.0
 10
149.1675619196014
 20
120.0749776639401
 30
0.0
 10
148.9238872331619
 20
120.3419172353867
 30
0.0
 10
148.6691163826543
 20
120.6110928925105
 30
0.0
 10
148.4032997750463
 20
120.8825380651998
 30
0.0
 10
148.126493836979
 20
121.1562753934627
 30
0.0
 10
147.83876180878
 20
121.4323167446483
 30
0.0
 10
147.5401746963316
 20
121.7106630272445
 30
0.0
 10
147.2308134962151
 20
121.9913029241133
 30
0.0
 10
146.9107710898486
 20
122.2742110319048
 30
0.0
 10
146.5801546704947
 20
122.5593473547118
 30
0.0
 10
146.2390864576874
 20
122.8466574382979
 30
0.0
 10
145.8877042167206
 20
123.1360725205472
 30
0.0
 10
145.5261619373501
 20
123.4275095332227
 30
0.0
 10
145.1546304561491
 20
123.7208711198975
 30
0.0
 10
144.7732980261345
 20
124.0160456798155
 30
0.0
 10
144.3823708320656
 20
124.3129074402711
 30
0.0
 10
143.9820734518857
 20
124.6113165623613
 30
0.0
 10
143.5726492638658
 20
124.9111192830504
 30
0.0
 10
143.1543608026175
 20
125.2121481016559
 30
0.0
 10
142.7274900531976
 20
125.5142220009114
 30
0.0
 10
142.2923384076837
 20
125.8171469830777
 30
0.0
 10
141.8492252537736
 20
126.1207172608902
 30
0.0
 10
141.3984858123827
 20
126.4247166296116
 30
0.0
 10
140.9404695895732
 20
126.7289199415314
 30
0.0
 10
140.4755391667174
 20
127.0330939496801
 30
0.0
 10
140.1626423578442
 20
127.2347836413531
 30
0.0
 10
140.0051109849859
 20
127.3355887818528
 30
0.0
  0
SPLINE
  5
4CE
330
504
100
AcDbEntity
  8
0
 62
     7
370
    40
390
F
100
AcDbSpline
210
0.0
220
0.0
230
1.0
 70
     8
 71
     3
 72
    38
 73
    34
 74
     0
 42
0.0
 43
0.0
 40
0.0
 40
0.0
 40
0.0
 40
0.0
 40
0.5335666263575303
 40
1.071806575667048
 40
1.614625901964421
 40
2.161912688399001
 40
2.713537622563695
 40
3.26935452110872
 40
3.829200811117042
 40
4.392897975455734
 40
4.960251969027073
 40
5.531053612543619
 40
6.105078970144057
 40
6.682089716864197
 40
7.261832332655175
 40
7.844031543051921
 40
8.428390860343816
 40
9.014594585699893
 40
9.602308622157654
 40
10.19118133188563
 40
10.78084444176877
 40
11.37091399995839
 40
11.9609913854685
 40
12.55066437230908
 40
13.13950824902392
 40
13.72708699385191
 40
14.31295450504568
 40
14.89665589263665
 40
15.47772995003914
 40
16.05571483105856
 40
16.63015089587419
 40
17.20058166799849
 40
17.76655476980701
 40
17.76655476980701
 40
17.76655476980701
 40
17.76655476980701
 10
124.1638748636491
 20
135.2992869699143
 30
0.0
 10
124.3317003090072
 20
135.2403985673752
 30
0.0
 10
124.6681548634254
 20
135.1202171998463
 30
0.0
 10
125.173043025786
 20
134.9337564286846
 30
0.0
 10
125.6802624103688
 20
134.7404933669634
 30
0.0
 10
126.1897034081257
 20
134.5406061512481
 30
0.0
 10
126.7012417065889
 20
134.3342722861169
 30
0.0
 10
127.2147397248684
 20
134.1216687293518
 30
0.0
 10
127.7300464740495
 20
133.9029724971819
 30
0.0
 10
128.2469978501181
 20
133.6783610904478
 30
0.0
 10
128.765416816739
 20
133.4480129303062
 30
0.0
 10
129.2851136260578
 20
133.2121077497819
 30
0.0
 10
129.805886041621
 20
132.970826959198
 30
0.0
 10
130.3275192135995
 20
132.7243541280757
 30
0.0
 10
130.8497835230939
 20
132.4728765074368
 30
0.0
 10
131.3724322124306
 20
132.2165859244924
 30
0.0
 10
131.8952004129599
 20
131.9556803787215
 30
0.0
 10
132.4178061487055
 20
131.6903640020183
 30
0.0
 10
132.9399513966433
 20
131.4208468611848
 30
0.0
 10
133.4613228307873
 20
131.1473449122926
 30
0.0
 10
133.9815926104751
 20
130.8700799078696
 30
0.0
 10
134.5004192186624
 20
130.5892792650134
 30
0.0
 10
135.0174483514749
 20
130.305175895119
 30
0.0
 10
135.5323138613593
 20
130.0180079987467
 30
0.0
 10
136.0446387546566
 20
129.7280188275461
 30
0.0
 10
136.5540362477531
 20
129.4354564209101
 30
0.0
 10
137.060110874538
 20
129.1405733046085
 30
0.0
 10
137.5624600081198
 20
128.8436260213244
 30
0.0
 10
138.0606765358026
 20
128.544873711545
 30
0.0
 10
138.5543518787225
 20
128.2445761710912
 30
0.0
 10
139.0430786434409
 20
127.9429926341594
 30
0.0
 10
139.5264523307843
 20
127.640380746467
 30
0.0
 10
139.8462025753785
 20
127.4372750952926
 30
0.0
 10
140.0051109849859
 20
127.3355887818529
 30
0.0
  0
ELLIPSE
  5
4CF
330
504
100
AcDbEntity
  8
0
 62
     7
370
    40
390
F
100
AcDbEllipse
 10
522.142761
 20
492.886169
 30
0.0
 11
-24.18951988220215
 21
26.66209220886231
 31
0.0
210
0.0
220
0.0
230
1.0
 40
0.6443230000000001
 41
1.599604672692134
 42
2.328922066623521
  0
LINE
  5
4D0
330
504
100
AcDbEntity
  8
0
 62
     7
 48
0.410945
370
    40
390
F
100
AcDbLine
 10
505.667664
 20
476.538788
 30
0.0
 11
493.493591
 21
465.493713
 31
0.0
  0
ELLIPSE
  5
4D1
330
504
100
AcDbEntity
  8
0
 62
     7
370
    40
390
F
100
AcDbEllipse
 10
208.194519
 20
208.052673
 30
0.0
 11
-24.18951988220215
 21
26.66209220886231
 31
0.0
210
0.0
220
0.0
230
1.0
 40
0.6443230000000001
 41
1.599604672692147
 42
2.328922066623518
  0
LINE
  5
4D2
330
504
100
AcDbEntity
  8
0
 62
     7
 48
0.410946
370
    40
390
F
100
AcDbLine
 10
191.719421
 20
191.705292
 30
0.0
 11
179.545334
 21
180.660202
 31
0.0
  0
ARC
  5
4D3
330
504
100
AcDbEntity
  8
0
 62
     7
370
    40
390
F
100
AcDbCircle
 10
96.922005
 20
49.115067
 30
0.0
 40
51.710215
100
AcDbArc
 50
200.048936
 51
201.914206
  0
ELLIPSE
  5
4D4
330
504
100
AcDbEntity
  8
0
 62
     7
370
    40
390
F
100
AcDbEllipse
 10
53.004524
 20
67.254593
 30
0.0
 11
24.18951988220215
 21
-26.66209220886231
 31
0.0
210
0.0
220
0.0
230
1.0
 40
0.6443230000000001
 41
5.363336711323803
 42
5.412263149395327
  0
LINE
  5
4D5
330
504
100
AcDbEntity
  8
0
 62
     7
 48
0.057357
370
    40
390
F
100
AcDbLine
 10
52.296711
 20
37.158653
 30
0.0
 11
53.995872
 21
38.700241
 31
0.0
  0
ARC
  5
4D6
330
504
100
AcDbEntity
  8
0
 62
     7
370
    40
390
F
100
AcDbCircle
 10
39.759068
 20
137.943344
 30
0.0
 40
101.561547
100
AcDbArc
 50
275.488697
 51
277.091182
  0
ELLIPSE
  5
4D7
330
504
100
AcDbEntity
  8
0
 62
     7
370
    40
390
F
100
AcDbEllipse
 10
50.172588
 20
64.685287
 30
0.0
 11
24.18951988220215
 21
-26.66209220886231
 31
0.0
210
0.0
220
0.0
230
1.0
 40
0.6443230000000001
 41
5.235984287349781
 42
5.306347509046955
  0
LINE
  5
4D8
330
504
100
AcDbEntity
  8
0
 62
     7
 48
0.152951
370
    40
390
F
100
AcDbLine
 10
42.8587
 20
33.745644
 30
0.0
 11
47.389797
 21
37.856537
 31
0.0
  0
ARC
  5
4D9
330
504
100
AcDbEntity
  8
0
 62
     7
370
    40
390
F
100
AcDbCircle
 10
36.648907
 20
134.814423
 30
0.0
 40
101.259368
100
AcDbArc
 50
271.942968
 51
273.515906
  0
ELLIPSE
  5
4DA
330
504
100
AcDbEntity
  8
0
 62
     7
370
    40
390
F
100
AcDbEllipse
 10
44.50872
 20
59.546669
 30
0.0
 11
24.18951988220215
 21
-26.66209220886231
 31
0.0
210
0.0
220
0.0
230
1.0
 40
0.6443230000000001
 41
5.041156073929783
 42
5.180156838433645
  0
ARC
  5
4DB
330
504
100
AcDbEntity
  8
0
 62
     7
370
    40
390
F
100
AcDbCircle
 10
175.490204
 20
65.38549
 30
0.0
 40
142.454651
100
AcDbArc
 50
190.928516
 51
191.82756
  0
ELLIPSE
  5
4DC
330
504
100
AcDbEntity
  8
0
 62
     7
370
    40
390
F
100
AcDbEllipse
 10
50.172588
 20
64.685287
 30
0.0
 11
24.18951988220215
 21
-26.66209220886231
 31
0.0
210
0.0
220
0.0
230
1.0
 40
0.6443230000000001
 41
4.914965403316472
 42
4.978568936702464
  0
ARC
  5
4DD
330
504
100
AcDbEntity
  8
0
 62
     7
370
    40
390
F
100
AcDbCircle
 10
202.088593
 20
72.532318
 30
0.0
 40
166.33302
100
AcDbArc
 50
189.030707
 51
189.858376
  0
ELLIPSE
  5
4DE
330
504
100
AcDbEntity
  8
0
 62
     7
370
    40
390
F
100
AcDbEllipse
 10
53.004524
 20
67.254593
 30
0.0
 11
24.18951988220215
 21
-26.66209220886231
 31
0.0
210
0.0
220
0.0
230
1.0
 40
0.6443230000000001
 41
4.800134621515922
 42
4.851241114467889
  0
LINE
  5
4DF
330
504
100
AcDbEntity
  8
0
 62
     7
 48
0.248545
370
    40
390
F
100
AcDbLine
 10
30.648386
 20
42.712009
 30
0.0
 11
38.011417
 21
49.392208
 31
0.0
  0
ARC
  5
4E0
330
504
100
AcDbEntity
  8
0
 62
     7
370
    40
390
F
100
AcDbCircle
 10
43.149445
 20
117.063141
 30
0.0
 40
75.394707
100
AcDbArc
 50
258.434425
 51
260.455819
  0
ELLIPSE
  5
4E1
330
504
100
AcDbEntity
  8
0
 62
     7
370
    40
390
F
100
AcDbEllipse
 10
44.50872
 20
59.546669
 30
0.0
 11
24.18951988220215
 21
-26.66209220886231
 31
0.0
210
0.0
220
0.0
230
1.0
 40
0.6443230000000001
 41
4.640642699088074
 42
4.741197326281944
  0
LINE
  5
4E2
330
504
100
AcDbEntity
  8
0
 62
     7
 48
0.010666
370
    13
390
F
100
AcDbLine
 10
629.067078
 20
574.200134
 30
0.0
 11
629.174927
 21
574.612915
 31
0.0
  0
LINE
  5
4E3
330
504
100
AcDbEntity
  8
0
 62
     7
 48
0.010666
370
    13
390
F
100
AcDbLine
 10
635.863708
 20
580.366455
 30
0.0
 11
635.971558
 21
580.779236
 31
0.0
  0
ELLIPSE
  5
4E4
330
504
100
AcDbEntity
  8
0
 62
     7
370
    40
390
F
100
AcDbEllipse
 10
44.50872
 20
59.546669
 30
0.0
 11
23.78635978698731
 21
-26.21772384643555
 31
0.0
210
0.0
220
0.0
230
1.0
 40
0.6443229999999998
 41
4.640642699088075
 42
4.734625509066298
  0
LINE
  5
4E5
330
504
100
AcDbEntity
  8
0
 62
     7
 48
0.011424
370
    40
390
F
100
AcDbLine
 10
28.149096
 20
43.641415
 30
0.0
 11
28.033611
 21
43.199287
 31
0.0
  0
SPLINE
  5
4E6
330
504
100
AcDbEntity
  8
0
 62
     7
370
    40
390
F
100
AcDbSpline
210
0.0
220
0.0
230
1.0
 70
     8
 71
     3
 72
    38
 73
    34
 74
     0
 42
0.0
 43
0.0
 40
0.0
 40
0.0
 40
0.0
 40
0.0
 40
0.5248143828702212
 40
1.054119578167919
 40
1.58782171240194
 40
2.125809286676038
 40
2.667953712098693
 40
3.214109808055669
 40
3.764116269729758
 40
4.317796111012521
 40
4.874957088695698
 40
5.435392113554112
 40
5.998879653653805
 40
6.565184134935855
 40
7.134056343844846
 40
7.705233532392773
 40
8.278431823989349
 40
8.853343609587519
 40
9.429644761805353
 40
10.00699572869136
 40
10.58504231076806
 40
11.16341648500976
 40
11.7417372775237
 40
12.31961168622109
 40
12.89663565426364
 40
13.4723950945419
 40
14.04646696489227
 40
14.61842039318266
 40
15.18781785079538
 40
15.75421637240848
 40
16.31717858127061
 40
16.87633598670291
 40
17.43112440280269
 40
17.43112440280269
 40
17.43112440280269
 40
17.43112440280269
 10
124.6088681101015
 20
135.6449380887693
 30
0.0
 10
124.7731712206098
 20
135.5848684030657
 30
0.0
 10
125.1025501204017
 20
135.4624911686342
 30
0.0
 10
125.5968296189902
 20
135.2732082084431
 30
0.0
 10
126.0933548903816
 20
135.0775829924877
 30
0.0
 10
126.5920209222904
 20
134.8757795293148
 30
0.0
 10
127.0927078975868
 20
134.6679620533419
 30
0.0
 10
127.5952824943991
 20
134.4542950896174
 30
0.0
 10
128.0995978459023
 20
134.2349439786103
 30
0.0
 10
128.6054938724874
 20
134.0100752398025
 30
0.0
 10
129.1127975235267
 20
133.7798569413382
 30
0.0
 10
129.621323056342
 20
133.5444590302264
 30
0.0
 10
130.1308723182709
 20
133.304053631734
 30
0.0
 10
130.6412350483481
 20
133.0588153255808
 30
0.0
 10
131.1521890850219
 20
132.8089214005162
 30
0.0
 10
131.663498264691
 20
132.5545533989432
 30
0.0
 10
132.1749092104655
 20
132.2958986355183
 30
0.0
 10
132.6861504290311
 20
132.0331510210752
 30
0.0
 10
133.196934258881
 20
131.7665110545437
 30
0.0
 10
133.7069594995011
 20
131.4961846263817
 30
0.0
 10
134.2159121982975
 20
131.2223828804604
 30
0.0
 10
134.7234663557972
 20
130.9453220583864
 30
0.0
 10
135.2292846809079
 20
130.6652233191787
 30
0.0
 10
135.7330193918846
 20
130.3823125244701
 30
0.0
 10
136.2343130659812
 20
130.0968199951762
 30
0.0
 10
136.7327995388191
 20
129.8089802416444
 30
0.0
 10
137.2281048534363
 20
129.5190316710394
 30
0.0
 10
137.7198482635546
 20
129.2272162745608
 30
0.0
 10
138.2076432766872
 20
128.9337793017887
 30
0.0
 10
138.6911015696851
 20
128.6389672195718
 30
0.0
 10
139.1698543066861
 20
128.3430147252806
 30
0.0
 10
139.6434978983615
 20
128.0461769458176
 30
0.0
 10
139.9568970512819
 20
127.8470350672936
 30
0.0
 10
140.1126650794024
 20
127.7473583002147
 30
0.0
  0
LINE
  5
4E7
330
504
100
AcDbEntity
  8
0
 62
     7
 48
0.420614
370
    40
390
F
100
AcDbLine
 10
191.8349
 20
192.147415
 30
0.0
 11
179.37439
 21
180.842468
 31
0.0
  0
LINE
  5
4E8
330
504
100
AcDbEntity
  8
0
 62
     7
 48
0.420614
370
    40
390
F
100
AcDbLine
 10
505.783142
 20
476.980927
 30
0.0
 11
493.322632
 21
465.675964
 31
0.0
  0
SPLINE
  5
4E9
330
504
100
AcDbEntity
  8
0
 62
     7
370
    40
390
F
100
AcDbSpline
210
0.0
220
0.0
230
1.0
 70
     8
 71
     3
 72
    38
 73
    34
 74
     0
 42
0.0
 43
0.0
 40
0.0
 40
0.0
 40
0.0
 40
0.0
 40
0.5439580814370152
 40
1.088259914563256
 40
1.632876992985214
 40
2.177779882979725
 40
2.722939246333909
 40
3.268326822755615
 40
3.813916367531332
 40
4.359684539627415
 40
4.905611734939638
 40
5.451682858923203
 40
5.997888032388444
 40
6.544223223841858
 40
7.090690801404667
 40
7.637299708294549
 40
8.18405825621242
 40
8.730971654860905
 40
9.278048642163832
 40
9.825302074921996
 40
10.37274903411929
 40
10.9204107810919
 40
11.46831255715365
 40
12.01648322021816
 40
12.56495471311769
 40
13.11376135970464
 40
13.66293898639758
 40
14.21252386860095
 40
14.76255150332743
 40
15.31305521136458
 40
15.86407425379023
 40
16.41571389349324
 40
16.96788063819275
 40
16.96788063819275
 40
16.96788063819275
 40
16.96788063819275
 10
555.9893111959491
 20
527.0202745060542
 30
0.0
 10
556.0224009448336
 20
526.8419924803268
 30
0.0
 10
556.0925055858593
 20
526.4860535959264
 30
0.0
 10
556.209489247459
 20
525.9544331249313
 30
0.0
 10
556.3384155385259
 20
525.425259675375
 30
0.0
 10
556.479366855354
 20
524.8988636330366
 30
0.0
 10
556.6324220503743
 20
524.3755900286485
 30
0.0
 10
556.7976565206608
 20
523.8557921633094
 30
0.0
 10
556.9751409560859
 20
523.3398324726447
 30
0.0
 10
557.164940455333
 20
522.8280814140769
 30
0.0
 10
557.3671135535335
 20
522.3209168473956
 30
0.0
 10
557.5817112847656
 20
521.8187232447287
 30
0.0
 10
557.8087762511597
 20
521.3218909085349
 30
0.0
 10
558.0483416968689
 20
520.8308151425342
 30
0.0
 10
558.3004305866993
 20
520.3458954981373
 30
0.0
 10
558.5650533312383
 20
519.8675371157128
 30
0.0
 10
558.8422052481097
 20
519.3961529132555
 30
0.0
 10
559.1318644165927
 20
518.9321633799866
 30
0.0
 10
559.4339904316262
 20
518.475993600606
 30
0.0
 10
559.7485245741503
 20
518.0280698576239
 30
0.0
 10
560.075388896102
 20
517.5888179540609
 30
0.0
 10
560.4144853268248
 20
517.1586616168302
 30
0.0
 10
560.7656948153232
 20
516.7380208588477
 30
0.0
 10
561.1288765229831
 20
516.3273103085812
 30
0.0
 10
561.5038670638907
 20
515.926937508787
 30
0.0
 10
561.8904798002565
 20
515.5373011845245
 30
0.0
 10
562.288504175072
 20
515.1587894964168
 30
0.0
 10
562.6977051537157
 20
514.791778235541
 30
0.0
 10
563.1178225110633
 20
514.4366291413127
 30
0.0
 10
563.5485734755391
 20
514.0936856748524
 30
0.0
 10
563.9896693808266
 20
513.7632588772992
 30
0.0
 10
564.4407749029535
 20
513.4456610158788
 30
0.0
 10
564.7477747746435
 20
513.2427833327541
 30
0.0
 10
564.9028175812674
 20
513.143570638663
 30
0.0
  0
SPLINE
  5
4EA
330
504
100
AcDbEntity
  8
0
 62
     7
370
    40
390
F
100
AcDbSpline
210
0.0
220
0.0
230
1.0
 70
     8
 71
     3
 72
    38
 73
    34
 74
     0
 42
0.0
 43
0.0
 40
0.0
 40
0.0
 40
0.0
 40
0.0
 40
0.5439580813669438
 40
1.088259914431112
 40
1.632876992803262
 40
2.177779882761256
 40
2.722939246090827
 40
3.268326822496262
 40
3.813916367259501
 40
4.359684539341852
 40
4.905611734634063
 40
5.451682858587408
 40
5.99788803200976
 40
6.544223223407259
 40
7.090690800903581
 40
7.637299707722122
 40
8.18405825558178
 40
8.730971654205796
 40
9.278048641528674
 40
9.825302074352724
 40
10.37274903365651
 40
10.92041078076511
 40
11.4683125569781
 40
12.01648322019299
 40
12.56495471322653
 40
13.11376135991703
 40
13.66293898667304
 40
14.21252386889407
 40
14.762551503595
 40
15.31305521157365
 40
15.86407425392754
 40
16.41571389355797
 40
16.96788063818488
 40
16.96788063818488
 40
16.96788063818488
 40
16.96788063818488
 10
102.8798151939596
 20
115.9309813450428
 30
0.0
 10
102.9129049428399
 20
115.7526993193383
 30
0.0
 10
102.9830095838566
 20
115.396760434981
 30
0.0
 10
103.0999932454418
 20
114.8651399640447
 30
0.0
 10
103.2289195364944
 20
114.335966514536
 30
0.0
 10
103.3698708533098
 20
113.8095704722324
 30
0.0
 10
103.5229260483185
 20
113.2862968678678
 30
0.0
 10
103.6881605185942
 20
112.7664990025441
 30
0.0
 10
103.8656449540081
 20
112.2505393118906
 30
0.0
 10
104.0554444532423
 20
111.7387882533342
 30
0.0
 10
104.2576175514269
 20
111.2316236866695
 30
0.0
 10
104.4722152826385
 20
110.7294300840277
 30
0.0
 10
104.6992802490058
 20
110.2325977478691
 30
0.0
 10
104.9388456946822
 20
109.7415219819136
 30
0.0
 10
105.190934584473
 20
109.2566023375688
 30
0.0
 10
105.455557328968
 20
108.7782439551948
 30
0.0
 10
105.7327092457998
 20
108.3068597527738
 30
0.0
 10
106.0223684142605
 20
107.8428702195155
 30
0.0
 10
106.3244944292971
 20
107.3867004401125
 30
0.0
 10
106.6390285718524
 20
106.9387766970739
 30
0.0
 10
106.9658928938618
 20
106.4995247934256
 30
0.0
 10
107.3049893246627
 20
106.0693684560894
 30
0.0
 10
107.6561988132518
 20
105.6487276979926
 30
0.0
 10
108.0193805210046
 20
105.2380171476145
 30
0.0
 10
108.3943710619974
 20
104.8376443477228
 30
0.0
 10
108.7809837984311
 20
104.4480080233864
 30
0.0
 10
109.1790081732895
 20
104.0694963352345
 30
0.0
 10
109.5882091519468
 20
103.7024850743464
 30
0.0
 10
110.0083265092796
 20
103.3473359801347
 30
0.0
 10
110.4390774737181
 20
103.0043925137111
 30
0.0
 10
110.880173378955
 20
102.673965716203
 30
0.0
 10
111.3312789010246
 20
102.3563678548269
 30
0.0
 10
111.6382787726745
 20
102.1534901717296
 30
0.0
 10
111.7933215792781
 20
102.0542774776515
 30
0.0
  0
ARC
  5
4EB
330
504
100
AcDbEntity
  8
0
 62
     7
370
    40
390
F
100
AcDbCircle
 10
43.196747
 20
115.69355
 30
0.0
 40
73.606707
100
AcDbArc
 50
258.203673
 51
260.273658
  0
LINE
  5
4EC
330
504
100
AcDbEntity
  8
0
 62
     7
 48
0.248545
370
    40
390
F
100
AcDbLine
 10
30.761442
 20
43.144836
 30
0.0
 11
38.12447
 21
49.825039
 31
0.0
  0
ELLIPSE
  5
4ED
330
504
100
AcDbEntity
  8
0
 62
     7
370
    40
390
F
100
AcDbEllipse
 10
53.004524
 20
67.254593
 30
0.0
 11
23.78635978698731
 21
-26.21772384643555
 31
0.0
210
0.0
220
0.0
230
1.0
 40
0.6443229999999998
 41
4.794690806058171
 42
4.85359745940998
  0
LINE
  5
4EE
330
504
100
AcDbEntity
  8
0
 62
     7
 48
0.057357
370
    40
390
F
100
AcDbLine
 10
37.928501
 20
46.849583
 30
0.0
 11
39.627663
 21
48.391167
 31
0.0
  0
ARC
  5
4EF
330
504
100
AcDbEntity
  8
0
 62
     7
370
    40
390
F
100
AcDbCircle
 10
200.122528
 20
72.446541
 30
0.0
 40
164.20141
100
AcDbArc
 50
188.968279
 51
189.808529
  0
ELLIPSE
  5
4F0
330
504
100
AcDbEntity
  8
0
 62
     7
370
    40
390
F
100
AcDbEllipse
 10
50.172588
 20
64.685287
 30
0.0
 11
23.78635978698731
 21
-26.21772384643555
 31
0.0
210
0.0
220
0.0
230
1.0
 40
0.6443229999999998
 41
4.911604482248037
 42
4.983192943562846
  0
LINE
  5
4F1
330
504
100
AcDbEntity
  8
0
 62
     7
 48
0.152951
370
    40
390
F
100
AcDbLine
 10
35.727444
 20
38.79343
 30
0.0
 11
40.258537
 21
42.904324
 31
0.0
  0
ARC
  5
4F2
330
504
100
AcDbEntity
  8
0
 62
     7
370
    40
390
F
100
AcDbCircle
 10
173.609024
 20
65.332375
 30
0.0
 40
140.412394
100
AcDbArc
 50
190.894843
 51
191.807835
  0
LINE
  5
4F3
330
504
100
AcDbEntity
  8
0
 62
     7
 48
0.011424
370
    40
390
F
100
AcDbLine
 10
191.719421
 20
191.705292
 30
0.0
 11
191.8349
 21
192.147415
 31
0.0
  0
LINE
  5
4F4
330
504
100
AcDbEntity
  8
0
 62
     7
 48
0.011424
370
    40
390
F
100
AcDbLine
 10
505.667664
 20
476.538788
 30
0.0
 11
505.783142
 21
476.980927
 31
0.0
  0
LINE
  5
4F5
330
504
100
AcDbEntity
  8
0
 62
     7
 48
0.011184
370
    40
390
F
100
AcDbLine
 10
48.345371
 20
31.387615
 30
0.0
 11
48.458427
 21
31.820446
 31
0.0
  0
LINE
  5
4F6
330
504
100
AcDbEntity
  8
0
 62
     7
 48
0.010995
370
    40
390
F
100
AcDbLine
 10
53.995872
 20
38.700241
 30
0.0
 11
54.107014
 21
39.125755
 31
0.0
  0
LINE
  5
4F7
330
504
100
AcDbEntity
  8
0
 62
     7
 48
0.010995
370
    40
390
F
100
AcDbLine
 10
52.296711
 20
37.158653
 30
0.0
 11
52.407856
 21
37.584167
 31
0.0
  0
LINE
  5
4F8
330
504
100
AcDbEntity
  8
0
 62
     7
 48
0.01085
370
    40
390
F
100
AcDbLine
 10
49.473373
 20
36.84745
 30
0.0
 11
49.583054
 21
37.267372
 31
0.0
  0
LINE
  5
4F9
330
504
100
AcDbEntity
  8
0
 62
     7
 48
0.010725
370
    40
390
F
100
AcDbLine
 10
47.389797
 20
37.856537
 30
0.0
 11
47.498215
 21
38.271618
 31
0.0
  0
LINE
  5
4FA
330
504
100
AcDbEntity
  8
0
 62
     7
 48
0.010725
370
    40
390
F
100
AcDbLine
 10
42.8587
 20
33.745644
 30
0.0
 11
42.967121
 21
34.160725
 31
0.0
  0
LINE
  5
4FB
330
504
100
AcDbEntity
  8
0
 62
     7
 48
0.010666
370
    40
390
F
100
AcDbLine
 10
40.082073
 20
33.613281
 30
0.0
 11
40.189892
 21
34.026062
 31
0.0
  0
LINE
  5
4FC
330
504
100
AcDbEntity
  8
0
 62
     7
 48
0.010666
370
    40
390
F
100
AcDbLine
 10
36.16785
 20
36.599789
 30
0.0
 11
36.060032
 21
36.187004
 31
0.0
  0
LINE
  5
4FD
330
504
100
AcDbEntity
  8
0
 62
     7
 48
0.010725
370
    40
390
F
100
AcDbLine
 10
35.727444
 20
38.79343
 30
0.0
 11
35.619026
 21
38.378349
 31
0.0
  0
LINE
  5
4FE
330
504
100
AcDbEntity
  8
0
 62
     7
 48
0.01085
370
    40
390
F
100
AcDbLine
 10
38.321339
 20
44.473804
 30
0.0
 11
38.211655
 21
44.053883
 31
0.0
  0
LINE
  5
4FF
330
504
100
AcDbEntity
  8
0
 62
     7
 48
0.010995
370
    40
390
F
100
AcDbLine
 10
37.928501
 20
46.849583
 30
0.0
 11
37.81736
 21
46.424068
 31
0.0
  0
LINE
  5
500
330
504
100
AcDbEntity
  8
0
 62
     7
 48
0.011184
370
    40
390
F
100
AcDbLine
 10
38.011417
 20
49.392208
 30
0.0
 11
38.12447
 21
49.825039
 31
0.0
  0
LINE
  5
501
330
504
100
AcDbEntity
  8
0
 62
     7
 48
0.011184
370
    40
390
F
100
AcDbLine
 10
30.761442
 20
43.144836
 30
0.0
 11
30.648386
 21
42.712009
 31
0.0
  0
LINE
  5
502
330
504
100
AcDbEntity
  8
0
 62
     7
370
    40
390
F
100
AcDbLine
 10
5.29711
 20
76.355698
 30
0.0
 11
611.331055
 21
626.187622
 31
0.0
  0
ENDBLK
  5
6AF
330
504
100
AcDbEntity
  8
0
100
AcDbBlockEnd
  0
BLOCK
  5
6B0
330
574
100
AcDbEntity
  8
0
100
AcDbBlockBegin
  2
*D87
 70
     1
 10
0.0
 20
0.0
 30
0.0
  3
*D87
  1

  0
POINT
  5
56B
330
574
100
AcDbEntity
  8
DEFPOINTS
  6
ByBlock
 62
     0
380
     1
100
AcDbPoint
 10
424.096264
 20
954.7397100000001
 30
0.0
  0
POINT
  5
56C
330
574
100
AcDbEntity
  8
DEFPOINTS
  6
ByBlock
 62
     0
380
     1
100
AcDbPoint
 10
1494.096264
 20
954.7397100000001
 30
0.0
  0
LINE
  5
56D
330
574
100
AcDbEntity
  8
0
  6
ByBlock
 62
     0
370
    -2
380
     1
100
AcDbLine
 10
424.096264
 20
955.3647100000001
 30
0.0
 11
424.096264
 21
1058.133789507115
 31
0.0
  0
LINE
  5
56E
330
574
100
AcDbEntity
  8
0
  6
ByBlock
 62
     0
370
    -2
380
     1
100
AcDbLine
 10
1494.096264
 20
955.3647100000001
 30
0.0
 11
1494.096264
 21
1058.133789507115
 31
0.0
  0
LINE
  5
56F
330
574
100
AcDbEntity
  8
0
  6
ByBlock
 62
     0
370
    -2
380
     1
100
AcDbLine
 10
426.596264
 20
1056.883789507115
 30
0.0
 11
1491.596264
 21
1056.883789507115
 31
0.0
  0
SOLID
  5
570
330
574
100
AcDbEntity
  8
0
  6
ByBlock
 62
     0
380
     1
100
AcDbTrace
 10
424.096264
 20
1056.883789507115
 30
0.0
 11
426.596264
 21
1056.467122840449
 31
0.0
 12
426.596264
 22
1057.300456173782
 32
0.0
 13
426.596264
 23
1057.300456173782
 33
0.0
  0
SOLID
  5
571
330
574
100
AcDbEntity
  8
0
  6
ByBlock
 62
     0
380
     1
100
AcDbTrace
 10
1494.096264
 20
1056.883789507115
 30
0.0
 11
1491.596264
 21
1056.467122840449
 31
0.0
 12
1491.596264
 22
1057.300456173782
 32
0.0
 13
1491.596264
 23
1057.300456173782
 33
0.0
  0
MTEXT
  5
572
330
574
100
AcDbEntity
  8
0
  6
ByBlock
 62
     0
370
    -2
380
     1
100
AcDbMText
 10
959.096264
 20
1058.758789507115
 30
0.0
 40
2.5
 41
0.0
 71
     5
 72
     1
  1
\A1;1070
 73
     1
 44
1.0
  0
ENDBLK
  5
6B1
330
574
100
AcDbEntity
  8
0
100
AcDbBlockEnd
  0
BLOCK
  5
6B2
330
5C2
100
AcDbEntity
  8
0
100
AcDbBlockBegin
  2
*D88
 70
     1
 10
0.0
 20
0.0
 30
0.0
  3
*D88
  1

  0
POINT
  5
5B9
330
5C2
100
AcDbEntity
  8
DEFPOINTS
  6
ByBlock
 62
     0
380
     1
100
AcDbPoint
 10
424.096264
 20
826.7891615000001
 30
0.0
  0
POINT
  5
5BA
330
5C2
100
AcDbEntity
  8
DEFPOINTS
  6
ByBlock
 62
     0
380
     1
100
AcDbPoint
 10
1494.096264
 20
826.7891615000001
 30
0.0
  0
LINE
  5
5BB
330
5C2
100
AcDbEntity
  8
0
  6
ByBlock
 62
     0
370
    -2
380
     1
100
AcDbLine
 10
424.096264
 20
826.1641615000001
 30
0.0
 11
424.096264
 21
763.9172058675606
 31
0.0
  0
LINE
  5
5BC
330
5C2
100
AcDbEntity
  8
0
  6
ByBlock
 62
     0
370
    -2
380
     1
100
AcDbLine
 10
1494.096264
 20
826.1641615000001
 30
0.0
 11
1494.096264
 21
763.9172058675606
 31
0.0
  0
LINE
  5
5BD
330
5C2
100
AcDbEntity
  8
0
  6
ByBlock
 62
     0
370
    -2
380
     1
100
AcDbLine
 10
426.596264
 20
765.1672058675606
 30
0.0
 11
1491.596264
 21
765.1672058675606
 31
0.0
  0
SOLID
  5
5BE
330
5C2
100
AcDbEntity
  8
0
  6
ByBlock
 62
     0
380
     1
100
AcDbTrace
 10
424.096264
 20
765.1672058675606
 30
0.0
 11
426.596264
 21
764.750539200894
 31
0.0
 12
426.596264
 22
765.5838725342272
 32
0.0
 13
426.596264
 23
765.5838725342272
 33
0.0
  0
SOLID
  5
5BF
330
5C2
100
AcDbEntity
  8
0
  6
ByBlock
 62
     0
380
     1
100
AcDbTrace
 10
1494.096264
 20
765.1672058675606
 30
0.0
 11
1491.596264
 21
764.750539200894
 31
0.0
 12
1491.596264
 22
765.5838725342272
 32
0.0
 13
1491.596264
 23
765.5838725342272
 33
0.0
  0
MTEXT
  5
5C0
330
5C2
100
AcDbEntity
  8
0
  6
ByBlock
 62
     0
370
    -2
380
     1
100
AcDbMText
 10
959.096264
 20
767.0422058675606
 30
0.0
 40
2.5
 41
0.0
 71
     5
 72
     1
  1
\A1;1070
 73
     1
 44
1.0
  0
ENDBLK
  5
6B3
330
5C2
100
AcDbEntity
  8
0
100
AcDbBlockEnd
  0
BLOCK
  5
6B4
330
5CD
100
AcDbEntity
  8
0
100
AcDbBlockBegin
  2
*D89
 70
     1
 10
0.0
 20
0.0
 30
0.0
  3
*D89
  1

  0
POINT
  5
5C4
330
5CD
100
AcDbEntity
  8
DEFPOINTS
  6
ByBlock
 62
     7
380
     1
100
AcDbPoint
 10
424.096264
 20
826.7891615000001
 30
0.0
  0
POINT
  5
5C5
330
5CD
100
AcDbEntity
  8
DEFPOINTS
  6
ByBlock
 62
     7
380
     1
100
AcDbPoint
 10
1494.096264
 20
826.7891615000001
 30
0.0
  0
LINE
  5
5C6
330
5CD
100
AcDbEntity
  8
0
  6
ByBlock
 62
     7
370
    -2
380
     1
100
AcDbLine
 10
424.096264
 20
826.1641615000001
 30
0.0
 11
424.096264
 21
763.9172058675606
 31
0.0
  0
LINE
  5
5C7
330
5CD
100
AcDbEntity
  8
0
  6
ByBlock
 62
     7
370
    -2
380
     1
100
AcDbLine
 10
1494.096264
 20
826.1641615000001
 30
0.0
 11
1494.096264
 21
763.9172058675606
 31
0.0
  0
LINE
  5
5C8
330
5CD
100
AcDbEntity
  8
0
  6
ByBlock
 62
     7
370
    -2
380
     1
100
AcDbLine
 10
434.096264
 20
765.1672058675606
 30
0.0
 11
1484.096264
 21
765.1672058675606
 31
0.0
  0
SOLID
  5
5C9
330
5CD
100
AcDbEntity
  8
0
  6
ByBlock
 62
     7
380
     1
100
AcDbTrace
 10
424.096264
 20
765.1672058675606
 30
0.0
 11
434.096264
 21
763.500539200894
 31
0.0
 12
434.096264
 22
766.8338725342272
 32
0.0
 13
434.096264
 23
766.8338725342272
 33
0.0
  0
SOLID
  5
5CA
330
5CD
100
AcDbEntity
  8
0
  6
ByBlock
 62
     7
380
     1
100
AcDbTrace
 10
1494.096264
 20
765.1672058675606
 30
0.0
 11
1484.096264
 21
763.500539200894
 31
0.0
 12
1484.096264
 22
766.8338725342272
 32
0.0
 13
1484.096264
 23
766.8338725342272
 33
0.0
  0
MTEXT
  5
5CB
330
5CD
100
AcDbEntity
  8
0
  6
ByBlock
 62
     0
370
    -2
380
     1
100
AcDbMText
 10
959.096264
 20
777.1672058675606
 30
0.0
 40
14.0
 41
0.0
 71
     5
 72
     1
  1
\A1;1070
 73
     1
 44
1.0
  0
ENDBLK
  5
6B5
330
5CD
100
AcDbEntity
  8
0
100
AcDbBlockEnd
  0
BLOCK
  5
6B6
330
5D8
100
AcDbEntity
  8
0
100
AcDbBlockBegin
  2
*D90
 70
     1
 10
0.0
 20
0.0
 30
0.0
  3
*D90
  1

  0
POINT
  5
5CF
330
5D8
100
AcDbEntity
  8
DEFPOINTS
  6
ByBlock
 62
     7
380
     1
100
AcDbPoint
 10
424.096264
 20
826.7891615000001
 30
0.0
  0
POINT
  5
5D0
330
5D8
100
AcDbEntity
  8
DEFPOINTS
  6
ByBlock
 62
     7
380
     1
100
AcDbPoint
 10
1494.096264
 20
826.7891615000001
 30
0.0
  0
LINE
  5
5D1
330
5D8
100
AcDbEntity
  8
0
  6
ByBlock
 62
     7
370
    -2
380
     1
100
AcDbLine
 10
424.096264
 20
826.1641615000001
 30
0.0
 11
424.096264
 21
763.9172058675606
 31
0.0
  0
LINE
  5
5D2
330
5D8
100
AcDbEntity
  8
0
  6
ByBlock
 62
     7
370
    -2
380
     1
100
AcDbLine
 10
1494.096264
 20
826.1641615000001
 30
0.0
 11
1494.096264
 21
763.9172058675606
 31
0.0
  0
LINE
  5
5D3
330
5D8
100
AcDbEntity
  8
0
  6
ByBlock
 62
     7
370
    -2
380
     1
100
AcDbLine
 10
434.096264
 20
765.1672058675606
 30
0.0
 11
1484.096264
 21
765.1672058675606
 31
0.0
  0
SOLID
  5
5D4
330
5D8
100
AcDbEntity
  8
0
  6
ByBlock
 62
     7
380
     1
100
AcDbTrace
 10
424.096264
 20
765.1672058675606
 30
0.0
 11
434.096264
 21
763.500539200894
 31
0.0
 12
434.096264
 22
766.8338725342272
 32
0.0
 13
434.096264
 23
766.8338725342272
 33
0.0
  0
SOLID
  5
5D5
330
5D8
100
AcDbEntity
  8
0
  6
ByBlock
 62
     7
380
     1
100
AcDbTrace
 10
1494.096264
 20
765.1672058675606
 30
0.0
 11
1484.096264
 21
763.500539200894
 31
0.0
 12
1484.096264
 22
766.8338725342272
 32
0.0
 13
1484.096264
 23
766.8338725342272
 33
0.0
  0
MTEXT
  5
5D6
330
5D8
100
AcDbEntity
  8
0
  6
ByBlock
 62
     0
370
    -2
380
     1
100
AcDbMText
 10
959.096264
 20
777.1672058675606
 30
0.0
 40
14.0
 41
0.0
 71
     5
 72
     1
  1
\A1;1070
 73
     1
 44
1.0
  0
ENDBLK
  5
6B7
330
5D8
100
AcDbEntity
  8
0
100
AcDbBlockEnd
  0
BLOCK
  5
6B8
330
5E4
100
AcDbEntity
  8
0
100
AcDbBlockBegin
  2
*D91
 70
     1
 10
0.0
 20
0.0
 30
0.0
  3
*D91
  1

  0
POINT
  5
5DB
330
5E4
100
AcDbEntity
  8
DEFPOINTS
  6
ByBlock
 62
     0
380
     1
100
AcDbPoint
 10
1347.541189126259
 20
904.2841990000001
 30
0.0
  0
POINT
  5
5DC
330
5E4
100
AcDbEntity
  8
DEFPOINTS
  6
ByBlock
 62
     0
380
     1
100
AcDbPoint
 10
1340.719252726469
 20
806.384197
 30
0.0
  0
LINE
  5
5DD
330
5E4
100
AcDbEntity
  8
0
  6
ByBlock
 62
     0
370
    -2
380
     1
100
AcDbLine
 10
1348.166189126259
 20
904.2841990000001
 30
0.0
 11
1527.56768975831
 21
904.2841990000001
 31
0.0
  0
LINE
  5
5DE
330
5E4
100
AcDbEntity
  8
0
  6
ByBlock
 62
     0
370
    -2
380
     1
100
AcDbLine
 10
1341.344252726469
 20
806.384197
 30
0.0
 11
1527.56768975831
 21
806.384197
 31
0.0
  0
LINE
  5
5DF
330
5E4
100
AcDbEntity
  8
0
  6
ByBlock
 62
     0
370
    -2
380
     1
100
AcDbLine
 10
1526.31768975831
 20
901.7841990000001
 30
0.0
 11
1526.31768975831
 21
808.884197
 31
0.0
  0
SOLID
  5
5E0
330
5E4
100
AcDbEntity
  8
0
  6
ByBlock
 62
     0
380
     1
100
AcDbTrace
 10
1526.31768975831
 20
904.2841990000001
 30
0.0
 11
1525.901023091644
 21
901.7841990000001
 31
0.0
 12
1526.734356424977
 22
901.7841990000001
 32
0.0
 13
1526.734356424977
 23
901.7841990000001
 33
0.0
  0
SOLID
  5
5E1
330
5E4
100
AcDbEntity
  8
0
  6
ByBlock
 62
     0
380
     1
100
AcDbTrace
 10
1526.31768975831
 20
806.384197
 30
0.0
 11
1525.901023091644
 21
808.884197
 31
0.0
 12
1526.734356424977
 22
808.884197
 32
0.0
 13
1526.734356424977
 23
808.884197
 33
0.0
  0
MTEXT
  5
5E2
330
5E4
100
AcDbEntity
  8
0
  6
ByBlock
 62
     0
370
    -2
380
     1
100
AcDbMText
 10
1524.234356424977
 20
855.334198
 30
0.0
 40
2.5
 41
0.0
 71
     5
 72
     1
  1
\A1;97,9
 11
6.123031769111886E-17
 21
1.0
 31
0.0
 73
     1
 44
1.0
  0
ENDBLK
  5
6B9
330
5E4
100
AcDbEntity
  8
0
100
AcDbBlockEnd
  0
BLOCK
  5
6BA
330
5EF
100
AcDbEntity
  8
0
100
AcDbBlockBegin
  2
*D92
 70
     1
 10
0.0
 20
0.0
 30
0.0
  3
*D92
  1

  0
POINT
  5
5E6
330
5EF
100
AcDbEntity
  8
DEFPOINTS
  6
ByBlock
 62
     7
380
     1
100
AcDbPoint
 10
1347.541189126259
 20
904.2841990000001
 30
0.0
  0
POINT
  5
5E7
330
5EF
100
AcDbEntity
  8
DEFPOINTS
  6
ByBlock
 62
     7
380
     1
100
AcDbPoint
 10
1340.719252726469
 20
806.384197
 30
0.0
  0
LINE
  5
5E8
330
5EF
100
AcDbEntity
  8
0
  6
ByBlock
 62
     7
370
    -2
380
     1
100
AcDbLine
 10
1348.166189126259
 20
904.2841990000001
 30
0.0
 11
1527.56768975831
 21
904.2841990000001
 31
0.0
  0
LINE
  5
5E9
330
5EF
100
AcDbEntity
  8
0
  6
ByBlock
 62
     7
370
    -2
380
     1
100
AcDbLine
 10
1341.344252726469
 20
806.384197
 30
0.0
 11
1527.56768975831
 21
806.384197
 31
0.0
  0
LINE
  5
5EA
330
5EF
100
AcDbEntity
  8
0
  6
ByBlock
 62
     7
370
    -2
380
     1
100
AcDbLine
 10
1526.31768975831
 20
894.2841990000001
 30
0.0
 11
1526.31768975831
 21
816.384197
 31
0.0
  0
SOLID
  5
5EB
330
5EF
100
AcDbEntity
  8
0
  6
ByBlock
 62
     7
380
     1
100
AcDbTrace
 10
1526.31768975831
 20
904.2841990000001
 30
0.0
 11
1524.651023091644
 21
894.2841990000001
 31
0.0
 12
1527.984356424977
 22
894.2841990000001
 32
0.0
 13
1527.984356424977
 23
894.2841990000001
 33
0.0
  0
SOLID
  5
5EC
330
5EF
100
AcDbEntity
  8
0
  6
ByBlock
 62
     7
380
     1
100
AcDbTrace
 10
1526.31768975831
 20
806.384197
 30
0.0
 11
1524.651023091644
 21
816.384197
 31
0.0
 12
1527.984356424977
 22
816.384197
 32
0.0
 13
1527.984356424977
 23
816.384197
 33
0.0
  0
MTEXT
  5
5ED
330
5EF
100
AcDbEntity
  8
0
  6
ByBlock
 62
     0
370
    -2
380
     1
100
AcDbMText
 10
1514.31768975831
 20
855.334198
 30
0.0
 40
14.0
 41
0.0
 71
     5
 72
     1
  1
\A1;98
 11
6.123031769111886E-17
 21
1.0
 31
0.0
 73
     1
 44
1.0
  0
ENDBLK
  5
6BB
330
5EF
100
AcDbEntity
  8
0
100
AcDbBlockEnd
  0
BLOCK
  5
6BC
330
5FA
100
AcDbEntity
  8
0
100
AcDbBlockBegin
  2
*D93
 70
     1
 10
0.0
 20
0.0
 30
0.0
  3
*D93
  1

  0
POINT
  5
5F1
330
5FA
100
AcDbEntity
  8
DEFPOINTS
  6
ByBlock
 62
     7
380
     1
100
AcDbPoint
 10
1347.541189126259
 20
904.2841990000001
 30
0.0
  0
POINT
  5
5F2
330
5FA
100
AcDbEntity
  8
DEFPOINTS
  6
ByBlock
 62
     7
380
     1
100
AcDbPoint
 10
1340.719252726469
 20
806.384197
 30
0.0
  0
LINE
  5
5F3
330
5FA
100
AcDbEntity
  8
0
  6
ByBlock
 62
     7
370
    -2
380
     1
100
AcDbLine
 10
1348.166189126259
 20
904.2841990000001
 30
0.0
 11
1527.56768975831
 21
904.2841990000001
 31
0.0
  0
LINE
  5
5F4
330
5FA
100
AcDbEntity
  8
0
  6
ByBlock
 62
     7
370
    -2
380
     1
100
AcDbLine
 10
1341.344252726469
 20
806.384197
 30
0.0
 11
1527.56768975831
 21
806.384197
 31
0.0
  0
LINE
  5
5F5
330
5FA
100
AcDbEntity
  8
0
  6
ByBlock
 62
     7
370
    -2
380
     1
100
AcDbLine
 10
1526.31768975831
 20
894.2841990000001
 30
0.0
 11
1526.31768975831
 21
816.384197
 31
0.0
  0
SOLID
  5
5F6
330
5FA
100
AcDbEntity
  8
0
  6
ByBlock
 62
     7
380
     1
100
AcDbTrace
 10
1526.31768975831
 20
904.2841990000001
 30
0.0
 11
1524.651023091644
 21
894.2841990000001
 31
0.0
 12
1527.984356424977
 22
894.2841990000001
 32
0.0
 13
1527.984356424977
 23
894.2841990000001
 33
0.0
  0
SOLID
  5
5F7
330
5FA
100
AcDbEntity
  8
0
  6
ByBlock
 62
     7
380
     1
100
AcDbTrace
 10
1526.31768975831
 20
806.384197
 30
0.0
 11
1524.651023091644
 21
816.384197
 31
0.0
 12
1527.984356424977
 22
816.384197
 32
0.0
 13
1527.984356424977
 23
816.384197
 33
0.0
  0
MTEXT
  5
5F8
330
5FA
100
AcDbEntity
  8
0
  6
ByBlock
 62
     0
370
    -2
380
     1
100
AcDbMText
 10
1514.31768975831
 20
855.334198
 30
0.0
 40
14.0
 41
0.0
 71
     5
 72
     1
  1
\A1;98
 11
6.123031769111886E-17
 21
1.0
 31
0.0
 73
     1
 44
1.0
  0
ENDBLK
  5
6BD
330
5FA
100
AcDbEntity
  8
0
100
AcDbBlockEnd
  0
ENDSEC
  0
SECTION
  2
ENTITIES
  0
LINE
  5
575
330
1F
100
AcDbEntity
  8
0
 62
     7
 48
0.014555
370
    60
100
AcDbLine
 10
1494.096264
 20
904.2841990000001
 30
0.0
 11
1494.096264
 21
903.7020190000001
 31
0.0
  0
LINE
  5
576
330
1F
100
AcDbEntity
  8
0
 62
     7
 48
0.058464
370
    60
100
AcDbLine
 10
1494.096264
 20
901.363476
 30
0.0
 11
1494.096264
 21
903.7020190000001
 31
0.0
  0
LINE
  5
577
330
1F
100
AcDbEntity
  8
0
 62
     7
 48
0.131089
370
    60
100
AcDbLine
 10
1494.096264
 20
896.119923
 30
0.0
 11
1494.096264
 21
901.363476
 31
0.0
  0
LINE
  5
578
330
1F
100
AcDbEntity
  8
0
 62
     7
370
    60
100
AcDbLine
 10
1494.096264
 20
871.638546
 30
0.0
 11
1494.096264
 21
896.119923
 31
0.0
  0
LINE
  5
579
330
1F
100
AcDbEntity
  8
0
 62
     7
370
    60
100
AcDbLine
 10
1494.096264
 20
839.02985
 30
0.0
 11
1494.096264
 21
871.638546
 31
0.0
  0
LINE
  5
57A
330
1F
100
AcDbEntity
  8
0
 62
     7
370
    60
100
AcDbLine
 10
1494.096264
 20
814.5484730000001
 30
0.0
 11
1494.096264
 21
839.02985
 31
0.0
  0
LINE
  5
57B
330
1F
100
AcDbEntity
  8
0
 62
     7
 48
0.131089
370
    60
100
AcDbLine
 10
1494.096264
 20
809.30492
 30
0.0
 11
1494.096264
 21
814.5484730000001
 31
0.0
  0
LINE
  5
57C
330
1F
100
AcDbEntity
  8
0
 62
     7
 48
0.058464
370
    60
100
AcDbLine
 10
1494.096264
 20
809.30492
 30
0.0
 11
1494.096264
 21
806.966377
 31
0.0
  0
LINE
  5
57D
330
1F
100
AcDbEntity
  8
0
 62
     7
 48
0.014555
370
    60
100
AcDbLine
 10
1494.096264
 20
806.384197
 30
0.0
 11
1494.096264
 21
806.966377
 31
0.0
  0
LINE
  5
57E
330
1F
100
AcDbEntity
  8
0
 62
     7
370
    60
100
AcDbLine
 10
424.096264
 20
904.2841990000001
 30
0.0
 11
1494.096264
 21
904.2841990000001
 31
0.0
  0
LINE
  5
57F
330
1F
100
AcDbEntity
  8
0
 62
     7
 48
0.014555
370
    60
100
AcDbLine
 10
424.096264
 20
904.2841990000001
 30
0.0
 11
424.096264
 21
903.7020190000001
 31
0.0
  0
LINE
  5
581
330
1F
100
AcDbEntity
  8
0
 62
     7
 48
0.058464
370
    60
100
AcDbLine
 10
424.096264
 20
901.363476
 30
0.0
 11
424.096264
 21
903.7020190000001
 31
0.0
  0
LINE
  5
582
330
1F
100
AcDbEntity
  8
0
 62
     7
370
    60
100
AcDbLine
 10
424.096264
 20
901.363476
 30
0.0
 11
1494.096264
 21
901.363476
 31
0.0
  0
LINE
  5
583
330
1F
100
AcDbEntity
  8
0
 62
     7
 48
0.131089
370
    60
100
AcDbLine
 10
424.096264
 20
896.119923
 30
0.0
 11
424.096264
 21
901.363476
 31
0.0
  0
LINE
  5
584
330
1F
100
AcDbEntity
  8
0
 62
     7
370
    60
100
AcDbLine
 10
424.096264
 20
896.119923
 30
0.0
 11
1494.096264
 21
896.119923
 31
0.0
  0
LINE
  5
585
330
1F
100
AcDbEntity
  8
0
 62
     7
370
    60
100
AcDbLine
 10
598.048
 20
871.638546
 30
0.0
 11
1360.144543
 21
871.638546
 31
0.0
  0
CIRCLE
  5
586
330
1F
100
AcDbEntity
  8
0
 62
     7
370
    60
100
AcDbCircle
 10
1379.096264
 20
855.334198
 30
0.0
 40
25.0
  0
LINE
  5
587
330
1F
100
AcDbEntity
  8
0
 62
     7
370
    60
100
AcDbLine
 10
1398.048046
 20
871.638546
 30
0.0
 11
1494.096264
 21
871.638546
 31
0.0
  0
LINE
  5
588
330
1F
100
AcDbEntity
  8
0
 62
     7
370
    60
100
AcDbLine
 10
424.096264
 20
871.638546
 30
0.0
 11
424.096264
 21
896.119923
 31
0.0
  0
LINE
  5
589
330
1F
100
AcDbEntity
  8
0
 62
     7
370
    60
100
AcDbLine
 10
424.096264
 20
871.638546
 30
0.0
 11
560.144528
 21
871.638546
 31
0.0
  0
ARC
  5
58A
330
1F
100
AcDbEntity
  8
0
 62
     7
370
    60
100
AcDbCircle
 10
579.096264
 20
855.334198
 30
0.0
 40
25.0
100
AcDbArc
 50
0.0
 51
180.000009
  0
LINE
  5
58B
330
1F
100
AcDbEntity
  8
0
 62
     7
370
    60
100
AcDbLine
 10
1398.048046
 20
839.02985
 30
0.0
 11
1494.096264
 21
839.02985
 31
0.0
  0
ARC
  5
58C
330
1F
100
AcDbEntity
  8
0
 62
     7
370
    60
100
AcDbCircle
 10
1471.096264
 20
855.334198
 30
0.0
 40
2.5
100
AcDbArc
 50
90.000003
 51
269.999997
  0
LINE
  5
58D
330
1F
100
AcDbEntity
  8
0
 62
     7
 48
0.3
370
    60
100
AcDbLine
 10
1471.096264
 20
857.834198
 30
0.0
 11
1483.096264
 21
857.834198
 31
0.0
  0
ARC
  5
58E
330
1F
100
AcDbEntity
  8
0
 62
     7
370
    60
100
AcDbCircle
 10
1483.096264
 20
855.334198
 30
0.0
 40
2.5
100
AcDbArc
 50
269.999997
 51
90.000003
  0
LINE
  5
58F
330
1F
100
AcDbEntity
  8
0
 62
     7
 48
0.3
370
    60
100
AcDbLine
 10
1471.096264
 20
852.834198
 30
0.0
 11
1483.096264
 21
852.834198
 31
0.0
  0
LINE
  5
590
330
1F
100
AcDbEntity
  8
0
 62
     7
370
    60
100
AcDbLine
 10
598.048
 20
839.02985
 30
0.0
 11
1360.144543
 21
839.02985
 31
0.0
  0
ARC
  5
591
330
1F
100
AcDbEntity
  8
0
 62
     7
370
    60
100
AcDbCircle
 10
579.096264
 20
855.334198
 30
0.0
 40
25.0
100
AcDbArc
 50
180.000005
 51
0.0
  0
LINE
  5
592
330
1F
100
AcDbEntity
  8
0
 62
     7
370
    60
100
AcDbLine
 10
424.096264
 20
839.02985
 30
0.0
 11
560.144528
 21
839.02985
 31
0.0
  0
LINE
  5
593
330
1F
100
AcDbEntity
  8
0
 62
     7
370
    60
100
AcDbLine
 10
424.096264
 20
814.5484730000001
 30
0.0
 11
424.096264
 21
839.02985
 31
0.0
  0
LINE
  5
594
330
1F
100
AcDbEntity
  8
0
 62
     7
370
    60
100
AcDbLine
 10
424.096264
 20
814.5484730000001
 30
0.0
 11
1494.096264
 21
814.5484730000001
 31
0.0
  0
LINE
  5
595
330
1F
100
AcDbEntity
  8
0
 62
     7
 48
0.131089
370
    60
100
AcDbLine
 10
424.096264
 20
809.30492
 30
0.0
 11
424.096264
 21
814.5484730000001
 31
0.0
  0
LINE
  5
596
330
1F
100
AcDbEntity
  8
0
 62
     7
370
    60
100
AcDbLine
 10
424.096264
 20
809.30492
 30
0.0
 11
1494.096264
 21
809.30492
 31
0.0
  0
LINE
  5
597
330
1F
100
AcDbEntity
  8
0
 62
     7
 48
0.058464
370
    60
100
AcDbLine
 10
424.096264
 20
809.30492
 30
0.0
 11
424.096264
 21
806.966377
 31
0.0
  0
LINE
  5
599
330
1F
100
AcDbEntity
  8
0
 62
     7
 48
0.014555
370
    60
100
AcDbLine
 10
424.096264
 20
806.384197
 30
0.0
 11
424.096264
 21
806.966377
 31
0.0
  0
LINE
  5
59A
330
1F
100
AcDbEntity
  8
0
 62
     7
370
    60
100
AcDbLine
 10
424.096264
 20
806.384197
 30
0.0
 11
1494.096264
 21
806.384197
 31
0.0
  0
LINE
  5
59B
330
1F
100
AcDbEntity
  8
0
 62
     7
 48
0.082609
370
    60
100
AcDbLine
 10
424.096264
 20
868.334198
 30
0.0
 11
424.096264
 21
871.638546
 31
0.0
  0
LINE
  5
59C
330
1F
100
AcDbEntity
  8
0
 62
     7
370
    60
100
AcDbLine
 10
1267.396252
 20
868.334198
 30
0.0
 11
1267.396252
 21
842.334198
 31
0.0
  0
LINE
  5
59D
330
1F
100
AcDbEntity
  8
0
 62
     7
370
    60
100
AcDbLine
 10
1267.396252
 20
842.334198
 30
0.0
 11
1245.396252
 21
842.334198
 31
0.0
  0
LINE
  5
59E
330
1F
100
AcDbEntity
  8
0
 62
     7
370
    60
100
AcDbLine
 10
1245.396252
 20
842.334198
 30
0.0
 11
1245.396252
 21
868.334198
 31
0.0
  0
LINE
  5
59F
330
1F
100
AcDbEntity
  8
0
 62
     7
370
    60
100
AcDbLine
 10
1245.396252
 20
868.334198
 30
0.0
 11
1267.396252
 21
868.334198
 31
0.0
  0
LINE
  5
5A0
330
1F
100
AcDbEntity
  8
0
 62
     7
370
    60
100
AcDbLine
 10
713.096264
 20
868.334198
 30
0.0
 11
713.096264
 21
842.334198
 31
0.0
  0
LINE
  5
5A1
330
1F
100
AcDbEntity
  8
0
 62
     7
370
    60
100
AcDbLine
 10
713.096264
 20
842.334198
 30
0.0
 11
691.096264
 21
842.334198
 31
0.0
  0
LINE
  5
5A2
330
1F
100
AcDbEntity
  8
0
 62
     7
370
    60
100
AcDbLine
 10
691.096264
 20
842.334198
 30
0.0
 11
691.096264
 21
868.334198
 31
0.0
  0
LINE
  5
5A3
330
1F
100
AcDbEntity
  8
0
 62
     7
370
    60
100
AcDbLine
 10
691.096264
 20
868.334198
 30
0.0
 11
713.096264
 21
868.334198
 31
0.0
  0
LINE
  5
5A4
330
1F
100
AcDbEntity
  8
0
 62
     7
 48
0.070711
370
    60
100
AcDbLine
 10
424.096264
 20
868.334198
 30
0.0
 11
426.096264
 21
866.334198
 31
0.0
  0
LINE
  5
5A5
330
1F
100
AcDbEntity
  8
0
 62
     7
 48
0.325
370
    60
100
AcDbLine
 10
426.096264
 20
866.334198
 30
0.0
 11
439.096264
 21
866.334198
 31
0.0
  0
LINE
  5
5A6
330
1F
100
AcDbEntity
  8
0
 62
     7
 48
0.05
370
    60
100
AcDbLine
 10
439.096264
 20
864.334198
 30
0.0
 11
439.096264
 21
866.334198
 31
0.0
  0
LINE
  5
5A7
330
1F
100
AcDbEntity
  8
0
 62
     7
 48
0.075
370
    60
100
AcDbLine
 10
436.096264
 20
864.334198
 30
0.0
 11
439.096264
 21
864.334198
 31
0.0
  0
LINE
  5
5A8
330
1F
100
AcDbEntity
  8
0
 62
     7
 48
0.070711
370
    60
100
AcDbLine
 10
434.096264
 20
862.334198
 30
0.0
 11
436.096264
 21
864.334198
 31
0.0
  0
LINE
  5
5A9
330
1F
100
AcDbEntity
  8
0
 62
     7
 48
0.0625
370
    60
100
AcDbLine
 10
434.096264
 20
859.834198
 30
0.0
 11
434.096264
 21
862.334198
 31
0.0
  0
LINE
  5
5AA
330
1F
100
AcDbEntity
  8
0
 62
     7
 48
0.2
370
    60
100
AcDbLine
 10
426.096264
 20
859.834198
 30
0.0
 11
434.096264
 21
859.834198
 31
0.0
  0
LINE
  5
5AB
330
1F
100
AcDbEntity
  8
0
 62
     7
 48
0.070711
370
    60
100
AcDbLine
 10
424.096264
 20
857.834198
 30
0.0
 11
426.096264
 21
859.834198
 31
0.0
  0
LINE
  5
5AC
330
1F
100
AcDbEntity
  8
0
 62
     7
 48
0.0625
370
    60
100
AcDbLine
 10
424.096264
 20
855.334198
 30
0.0
 11
424.096264
 21
857.834198
 31
0.0
  0
LINE
  5
5AD
330
1F
100
AcDbEntity
  8
0
 62
     7
 48
0.0625
370
    60
100
AcDbLine
 10
424.096264
 20
852.834198
 30
0.0
 11
424.096264
 21
855.334198
 31
0.0
  0
LINE
  5
5AE
330
1F
100
AcDbEntity
  8
0
 62
     7
 48
0.070711
370
    60
100
AcDbLine
 10
426.096264
 20
850.834198
 30
0.0
 11
424.096264
 21
852.834198
 31
0.0
  0
LINE
  5
5AF
330
1F
100
AcDbEntity
  8
0
 62
     7
 48
0.2
370
    60
100
AcDbLine
 10
426.096264
 20
850.834198
 30
0.0
 11
434.096264
 21
850.834198
 31
0.0
  0
LINE
  5
5B0
330
1F
100
AcDbEntity
  8
0
 62
     7
 48
0.0625
370
    60
100
AcDbLine
 10
434.096264
 20
848.334198
 30
0.0
 11
434.096264
 21
850.834198
 31
0.0
  0
LINE
  5
5B1
330
1F
100
AcDbEntity
  8
0
 62
     7
 48
0.070711
370
    60
100
AcDbLine
 10
434.096264
 20
848.334198
 30
0.0
 11
436.096264
 21
846.334198
 31
0.0
  0
LINE
  5
5B2
330
1F
100
AcDbEntity
  8
0
 62
     7
 48
0.075
370
    60
100
AcDbLine
 10
436.096264
 20
846.334198
 30
0.0
 11
439.096264
 21
846.334198
 31
0.0
  0
LINE
  5
5B3
330
1F
100
AcDbEntity
  8
0
 62
     7
 48
0.05
370
    60
100
AcDbLine
 10
439.096264
 20
844.334198
 30
0.0
 11
439.096264
 21
846.334198
 31
0.0
  0
LINE
  5
5B4
330
1F
100
AcDbEntity
  8
0
 62
     7
 48
0.325
370
    60
100
AcDbLine
 10
426.096264
 20
844.334198
 30
0.0
 11
439.096264
 21
844.334198
 31
0.0
  0
LINE
  5
5B5
330
1F
100
AcDbEntity
  8
0
 62
     7
 48
0.070711
370
    60
100
AcDbLine
 10
424.096264
 20
842.334198
 30
0.0
 11
426.096264
 21
844.334198
 31
0.0
  0
LINE
  5
5B6
330
1F
100
AcDbEntity
  8
0
 62
     7
 48
0.082609
370
    60
100
AcDbLine
 10
424.096264
 20
839.02985
 30
0.0
 11
424.096264
 21
842.334198
 31
0.0
  0
DIMENSION
  5
5B7
330
1F
100
AcDbEntity
  8
0
370
    40
100
AcDbDimension
  2
*D90
 10
1494.096264
 20
765.1672058675606
 30
0.0
 11
959.096264
 21
777.1672058675606
 31
0.0
 70
    32
 71
     5
 41
2.5
 42
1070.0
  3
ISO-25
100
AcDbAlignedDimension
 13
424.096264
 23
826.7891615000001
 33
0.0
 14
1494.096264
 24
826.7891615000001
 34
0.0
100
AcDbRotatedDimension
1001
ACAD
1000
DSTYLE
1002
{
1070
    41
1040
10.0
1070
   140
1040
14.0
1070
   147
1040
5.0
1070
   176
1070
     7
1070
   177
1070
     7
1070
   271
1070
     0
1002
}
  0
DIMENSION
  5
5D9
330
1F
100
AcDbEntity
  8
0
370
    40
100
AcDbDimension
  2
*D93
 10
1526.31768975831
 20
806.384197
 30
0.0
 11
1514.31768975831
 21
855.334198
 31
0.0
 70
    32
 71
     5
 41
2.5
 42
97.90000200000009
  3
ISO-25
100
AcDbAlignedDimension
 13
1347.541189126259
 23
904.2841990000001
 33
0.0
 14
1340.719252726469
 24
806.384197
 34
0.0
 50
90.0
100
AcDbRotatedDimension
1001
ACAD
1000
DSTYLE
1002
{
1070
    41
1040
10.0
1070
   140
1040
14.0
1070
   147
1040
5.0
1070
   176
1070
     7
1070
   177
1070
     7
1070
   271
1070
     0
1002
}
  0
VIEWPORT
  5
BB
330
73
100
AcDbEntity
 67
     1
  8
0
100
AcDbViewport
 10
7.8
 20
4.5
 30
0.0
 40
15.64
 41
9.0
 68
     1
 69
     1
 12
6.0
 22
4.5
 13
0.0
 23
0.0
 14
0.5
 24
0.5
 15
0.5
 25
0.5
 16
0.0
 26
0.0
 36
1.0
 17
0.0
 27
0.0
 37
0.0
 42
50.0
 43
0.0
 44
0.0
 45
12.0
 50
0.0
 51
0.0
 72
   100
 90
   557152
  1

281
     0
 71
     1
 74
     0
110
0.0
120
0.0
130
0.0
111
1.0
121
0.0
131
0.0
112
0.0
122
1.0
132
0.0
 79
     0
146
0.0
  0
ENDSEC
  0
SECTION
  2
OBJECTS
  0
DICTIONARY
  5
C
330
0
100
AcDbDictionary
281
     1
  3
ACAD_COLOR
350
6C
  3
ACAD_GROUP
350
D
  3
ACAD_LAYOUT
350
1A
  3
ACAD_MATERIAL
350
6B
  3
ACAD_MLEADERSTYLE
350
6BF
  3
ACAD_MLINESTYLE
350
17
  3
ACAD_PLOTSETTINGS
350
19
  3
ACAD_PLOTSTYLENAME
350
E
  3
ACAD_SCALELIST
350
99
  3
ACAD_TABLESTYLE
350
92
  3
ACDBHEADERROUNDTRIPXREC
350
6C0
  3
AcDbVariableDictionary
350
59
  3
DWGPROPS
350
6C3
  0
DICTIONARY
  5
6C
102
{ACAD_REACTORS
330
C
102
}
330
C
100
AcDbDictionary
281
     1
  0
DICTIONARY
  5
D
102
{ACAD_REACTORS
330
C
102
}
330
C
100
AcDbDictionary
281
     1
  0
DICTIONARY
  5
1A
102
{ACAD_REACTORS
330
C
102
}
330
C
100
AcDbDictionary
281
     1
  3
Layout1
350
74
  3
Layout2
350
601
  3
Model
350
22
  0
DICTIONARY
  5
6B
102
{ACAD_REACTORS
330
C
102
}
330
C
100
AcDbDictionary
281
     1
  0
DICTIONARY
  5
6BF
102
{ACAD_REACTORS
330
C
102
}
330
C
100
AcDbDictionary
281
     1
  0
DICTIONARY
  5
17
102
{ACAD_REACTORS
330
C
102
}
330
C
100
AcDbDictionary
281
     1
  3
Standard
350
18
  0
DICTIONARY
  5
19
102
{ACAD_REACTORS
330
C
102
}
330
C
100
AcDbDictionary
281
     1
  0
ACDBDICTIONARYWDFLT
  5
E
102
{ACAD_REACTORS
330
C
102
}
330
C
100
AcDbDictionary
281
     1
  3
Normal
350
F
100
AcDbDictionaryWithDefault
340
F
  0
DICTIONARY
  5
99
102
{ACAD_REACTORS
330
C
102
}
330
C
100
AcDbDictionary
281
     1
  3
A0
350
D5
  3
A1
350
D6
  3
A2
350
D7
  3
A3
350
D8
  3
A4
350
D9
  3
A5
350
DA
  3
A6
350
DB
  3
A7
350
DC
  3
A8
350
DD
  3
A9
350
DE
  3
B0
350
DF
  3
B1
350
E0
  3
B2
350
E1
  3
B3
350
E2
  3
B4
350
E3
  3
B5
350
E4
  3
B6
350
E5
  3
B7
350
E6
  3
B8
350
E7
  3
B9
350
E8
  3
C0
350
E9
  3
C1
350
EA
  3
C2
350
EB
  3
C3
350
EC
  3
C4
350
ED
  3
C5
350
EE
  3
C6
350
EF
  3
C7
350
F0
  3
C8
350
F1
  3
C9
350
F2
  3
D0
350
F3
  3
D1
350
F4
  3
D2
350
F5
  0
DICTIONARY
  5
92
102
{ACAD_REACTORS
330
C
102
}
330
C
100
AcDbDictionary
281
     1
  0
DICTIONARY
  5
6C0
102
{ACAD_REACTORS
330
C
102
}
330
C
100
AcDbDictionary
281
     1
  3
COLORDICT
350
6C1
  3
MATERIALDICT
350
6C2
  0
DICTIONARY
  5
59
102
{ACAD_REACTORS
330
C
102
}
330
C
100
AcDbDictionary
281
     1
  3
CTABLESTYLE
350
98
  3
DIMASSOC
350
5A
  3
HIDETEXT
350
5E
  0
XRECORD
  5
6C3
102
{ACAD_REACTORS
330
C
102
}
330
C
100
AcDbXrecord
280
     1
  1
DWGPROPS COOKIE
  2

  3

  4

  6

  7

  8
BelottiMc
  9

300
=
301
=
302
=
303
=
304
=
305
=
306
=
307
=
308
=
309
=
 40
0.0
 41
2455245.646519398
 42
2455245.646519398
  1

 90
        0
  0
LAYOUT
  5
74
102
{ACAD_REACTORS
330
1A
102
}
330
1A
100
AcDbPlotSettings
  1

  2
ProgeSOFT PDF Wizard
  4
A4
  6

 40
5.926666666666667
 41
6.011333333333321
 42
6.095999999999985
 43
5.926666666666667
 44
210.0
 45
297.0
 46
88.56200000000001
 47
136.531
 48
0.0
 49
0.0
140
0.0
141
0.0
142
1.0
143
1.0
 70
   692
 72
     1
 73
     0
 74
     0
  7

 75
    16
147
1.0
148
4.426666666666668
149
1.5
100
AcDbLayout
  1
Layout1
 70
     1
 71
     1
 10
0.0
 20
0.0
 11
0.0
 21
0.0
 12
0.0
 22
0.0
 32
0.0
 14
0.0
 24
0.0
 34
0.0
 15
0.0
 25
0.0
 35
0.0
146
0.0
 13
0.0
 23
0.0
 33
0.0
 16
1.0
 26
0.0
 36
0.0
 17
0.0
 27
1.0
 37
0.0
 76
     0
330
D1
331
6BE
1001
PROGE_PRINT_SETTINGS
1070
    73
1070
     1
  0
LAYOUT
  5
601
102
{ACAD_REACTORS
330
1A
102
}
330
1A
100
AcDbPlotSettings
  1

  2
ProgeSOFT PDF Wizard
  4
A4
  6

 40
5.926666666666667
 41
6.011333333333321
 42
6.095999999999985
 43
5.926666666666667
 44
210.0
 45
297.0
 46
88.562
 47
136.531
 48
0.0
 49
0.0
140
0.0
141
0.0
142
1.0
143
1.0
 70
   692
 72
     1
 73
     0
 74
     0
  7

 75
    16
147
1.0
148
0.0
149
0.0
100
AcDbLayout
  1
Layout2
 70
     1
 71
     2
 10
0.0
 20
0.0
 11
12.0
 21
9.0
 12
0.0
 22
0.0
 32
0.0
 14
0.0
 24
0.0
 34
0.0
 15
12.0
 25
9.0
 35
0.0
146
0.0
 13
0.0
 23
0.0
 33
0.0
 16
1.0
 26
0.0
 36
0.0
 17
0.0
 27
1.0
 37
0.0
 76
     0
330
73
331
BB
1001
PROGE_PRINT_SETTINGS
1070
    73
1070
     1
  0
LAYOUT
  5
22
102
{ACAD_REACTORS
330
1A
102
}
330
1A
100
AcDbPlotSettings
  1

  2
\\prn100b\W366
  4
A4
  6

 40
4.233333333333333
 41
4.233333333333307
 42
4.233333333333335
 43
4.233333333333333
 44
210.0
 45
296.9
 46
0.0
 47
9.861111111113132
 48
0.0
 49
0.0
140
0.0
141
0.0
142
1.0
143
0.044657624875951
 70
 11956
 72
     1
 73
     1
 74
     1
  7

 75
     0
147
22.39259259259259
148
0.0
149
0.0
100
AcDbLayout
  1
Model
 70
     1
 71
     0
 10
0.0
 20
0.0
 11
0.0
 21
0.0
 12
0.0
 22
0.0
 32
0.0
 14
424.096264
 24
763.500539200894
 34
0.0
 15
1527.984356424977
 25
904.2841990000001
 35
0.0
146
0.0
 13
0.0
 23
0.0
 33
0.0
 16
1.0
 26
0.0
 36
0.0
 17
0.0
 27
1.0
 37
0.0
 76
     0
330
1F
331
97
1001
PROGE_PRINT_SETTINGS
1070
    73
1070
     2
1070
   311
1000
\\prn100b\W366
1004
303030303030303035323030343930303433303034463030343830303230303034313030363630303639303036333030363930303646303032303030343130303530303033363030333130303330303034453030323030303530303034333030344330303230303033363030303030303030303030303030303030303030
1004
303030303030303030303443303035303030353430303331303033413030303030303030303030303030303030303030303030303030303030303030303030303030303030303030303030303030303030303030303030303030303030303030303030303030303030303030303030303030303030303030303030303030
1004
303030303030303030303030303030303030303030303030303030303030303030303030303030303030303030303030303030303030303030303030303030303030303030303030303030303030303030303030303030303030303030303030303030303030303030303030303030303030303030303030303030303030
1004
303030303030303030303030303030303030303030303030303030303030303030303030303030303030303030303030303030303030303030303030303030303030303030303030303030303030303030303030303030303030303030303030303030303030303030303030303030303030303030303030303030303030
1004
303030303030303030303030303030303030303030303030303030303030303030303030303030303030303030303030303030303030303030303030303030303030303030303030303030303030303030303030303030303030303030303030303030303030303030303030303030303030303030303030373430413030
1004
303030303030303030303030303030303030303130303030303037343041303030303531304430303030303130303030303030363030303030304230303930303030423330443030303030323030303030303030303030303030303030303030303030303030303030303030303030303030303030303030303030303030
1004
303030303030303030303030303030303030303030303030303030303030303030303030303030303030303036343030303030303035303030303030303030303030303030303030303030303030303030303030303130303030303030303030303030303030303030303030303630303030303030303030303030303030
1004
303030303030303030303030303030303030303030303030303030303030313830303030303030303030313032373130323731303237303030303130323730303030303030303030303030303030303130303030303030303030303030303030303030303030303030303030303030303030303030303030303030303030
1004
303030303030303030303030303030303030303030303030303030303030303030303030303030303030303030303030303030303030303030303030303030303030303030303030303030303030303030303030303030303030303030303030303030303030303030303030303030303030303030303030303030303030
1004
303030303030303030303030303030303030303030303030303030303030303030303030303030303030303030303030303030303030303030303030303030303030303030303030303030303030303030303030303030303030303030303030303030303030303030303030303030303030303030303030303030303030
1004
303030303030303030303030303030303030303030303030303030303030303030303030303030303030303030303030303030303030303030303030303030303030303030303030303030303030303030303030303030303030303030303030303030303030303030303030303030303030303030303030303030303030
1004
303030303030303030303030303030303030303030303030303030303030303030303030303030303030303030303030303030303030303030303030303030303030303030303030303030303030303030303030303030303030303030303030303030303030303030303030303030303030303030303030303030303030
1004
303030303030303030303030303030303030303030303030303030303030303030303030303030303030303030303030303030303030303030303030303030303030303030303030303030303030303030303030303030303030303030303030303030303030303030303030303030303030303030303030303030303030
1004
303030303030303030303030303030303030303030303030303030303030303030303030303030303030303030303030303030303030303030303030303030303030303030303030303030303030303030303030303030303030303030303030303030303030303030303030303030303030303030303030303030303030
1004
303030303030303030303030303030303030303030303030303030303030303030303030303030303030303030303030303030303030303030303030303030303030303030303030303030303030303030303030303030303030303030303030303030303030303030303030303030303030303030303030303030303030
1004
303030303030303030303030303030303030303030303030303030303030303030303030303030303030303030303030303030303030303030303030303030303030303030303030303030303030303030303030303030303030303030303030303030303030303030303030303030303030303030303030303030303030
1004
303030303030303030303030303030303030303030303030303030303030303030303030303030303030303030303030303030303030303030303030303030303030303030303030303030303030303030303030303030303030303030303030303030303030303030303030303030303030303030303030303030303030
1004
303030303030303030303030303030303030303030303030303030303030303030303030303030303030303030303030303030303030303030303030303030303030303030303030303030303030303030303030303030303030303030303030303030303030303030303030303030303030303030303030303030303030
1004
303030303030303030303030303030303030303030303030303030303030303030303030303030303030303030303030303030303030303030303030303030303030303030303030303030303030303030303030303030303030303030303030303030303030303030303030303030303030303030303030303030303030
1004
303030303030303030303030303030303030303030303030303030303030303030303030303030303030303030303030303030303030303030303030303030303030303030303030303030303030303030303030303030303030303030303030303030303030303030303030303030303030303030303030303030303030
1004
303030303030303030303030303030303030303030303030303030303030303030303030303030303030303030303030303030303030303030303030303030303030303030303030303030303030303030303030303030303030303030303030303030303030303030303030303030303030303030303030303030303030
1004
303030303030303030303030303030303030303030303030303030303030303030303030303030303030303030303030303030303030303030303030303030303030303030303030303030303030303030303030303030303030303030303030303030303030303030303030303030303030303030303030303030303030
1004
303030303030303030303030303030303030303030303030303030303030303030303030303030303030303030303030303030303030303030303030303030303030303030303030303030303030303030303030303030303030303030303030303030303030303030303030303030303030303030303030303030303030
1004
303030303030303030303030303030303030303030303030303030303030303030303030303030303030303030303030303030303030303030303030303030303030303030303030303030303030303030303030303030303030303030303030303030303030303030303030303030303030303030303030303030303030
1004
303030303030303030303030303030303030303030303030303030303030303030303030303030303030303030303030303130303030303030313030303030303030303030303030303030303030303030303030303030303030303030303030303130303030303030303030303030303031303030303030303030303030
1004
303030303030303030303030303030303030303030303030303030303030303030303030303030303030303030303030303030303030303030303030303030303030303030303030303036343030303030303030303030303030303030303030303030303030303030303034303030303030303630303030303030303030
1004
303030303031303030303030303030303030303030303030303030303030303030303030303030303030303030303030303030303031303030303030303130303030303030303030303030303030303030303030303130303030303030303030303030303030303030303030303030303030303030303030303030303030
1004
303030303030363430303030303030303030303030303030303030303030303030303030303030313030303030303030303030303030303130303030303030303030303030303030303030303030303030303030303030303030303030303030303030303030303030303030303030303030303030303030303030303030
1004
303030303030303030303030303030303030303030303030303030303030303030303030303030303030303030303030303030303030303030303030303030303030303030303030303030303030303030303030303030303030303030303030303030303030303045373033303030304537303330303030453730333030
1004
303045373033303030303030303030303030303030303030303030303030303030303030303030303030303030303030303030363030303030303334303830303030393930423030303030303030303030303434303036353030363630303631303037353030364330303734303030303030303030303030303030303030
1004
303030303030303030303030303030303030303030343030303030303030303030303030303030303030303030303030303030303030303030303030303030303030303030303030303030303030303030303030303030303030303030303030303030303030303030303030303030303030303030303030303030303030
1004
303030303030303030303030303030303030303030303030303030303030303030303030303030303030303030303030303030303030303030303030303030303030303030303030303030303030303030303030303030303030303030303030303030303030303030303030303030303030303030303030303030303030
1004
303030303030303030303030303030303030303030303030303030303030303030303030303030303030303030303030303030303030303030303030303030303030303030303030303030303030303030303030303030303030303030303030303030303030303030303030303030303030303030303030303030303030
1004
303030303030303030303030303030303030303030303030303030303030303030303030303030303030303030303030303030303030303030303030303030303030303030303030303030303030303030303030303030303030303030303030303030303030303030303030303030303030303030303030303030303030
1004
303030303030303030303030303030303030303030303030303030303030303030303030303030303030303030303030303030303030303030303030303030303030303030303030303030303030303030303030303030303030303030303030303030303030303030303030303030303030303030303030303030303030
1004
303030303030303030303030303030303030303030303030303030303030303030303030303030303030303030303030303030303030303030303030303030303030303030303030303030303030303030303030303030303030303030303030303030303030303030303030303030303030303030303030303030303030
1004
303030303030303030303030303030303030303030303030303030303030303030303030303030303030303030303030303030303030303030303030303030303030303030303030303030303030303030303030303030303030303030303030303030303030303030303030303030303030303030303030303030303030
1004
303030303030303030303030303030303030303030303030303030303030303030303030303030303030303030303030303030303030303030303030303030303030303030303030303030303030303030303030303030303030303030303030303030303030303030303030303030303030303030303030303030303030
1004
30303030303030303030303030303030303030303030303030303030303030303030303030303030303030303030303030303030303030303030303030303030303030303030303030303030303030303030303030313030303030303030303030303030303030303030303030303030303030303030303030303030
  0
MLINESTYLE
  5
18
102
{ACAD_REACTORS
330
17
102
}
330
17
100
AcDbMlineStyle
  2
STANDARD
 70
     0
  3

 62
   256
 51
90.0
 52
90.0
 71
     2
 49
0.5
 62
   256
  6
BYLAYER
 49
-0.5
 62
   256
  6
BYLAYER
  0
ACDBPLACEHOLDER
  5
F
102
{ACAD_REACTORS
330
E
102
}
330
E
  0
SCALE
  5
D5
102
{ACAD_REACTORS
330
99
102
}
330
99
100
AcDbScale
 70
     0
300
1:1
140
1.0
141
1.0
290
     1
  0
SCALE
  5
D6
102
{ACAD_REACTORS
330
99
102
}
330
99
100
AcDbScale
 70
     0
300
1:2
140
1.0
141
2.0
290
     0
  0
SCALE
  5
D7
102
{ACAD_REACTORS
330
99
102
}
330
99
100
AcDbScale
 70
     0
300
1:4
140
1.0
141
4.0
290
     0
  0
SCALE
  5
D8
102
{ACAD_REACTORS
330
99
102
}
330
99
100
AcDbScale
 70
     0
300
1:5
140
1.0
141
5.0
290
     0
  0
SCALE
  5
D9
102
{ACAD_REACTORS
330
99
102
}
330
99
100
AcDbScale
 70
     0
300
1:8
140
1.0
141
8.0
290
     0
  0
SCALE
  5
DA
102
{ACAD_REACTORS
330
99
102
}
330
99
100
AcDbScale
 70
     0
300
1:10
140
1.0
141
10.0
290
     0
  0
SCALE
  5
DB
102
{ACAD_REACTORS
330
99
102
}
330
99
100
AcDbScale
 70
     0
300
1:16
140
1.0
141
16.0
290
     0
  0
SCALE
  5
DC
102
{ACAD_REACTORS
330
99
102
}
330
99
100
AcDbScale
 70
     0
300
1:20
140
1.0
141
20.0
290
     0
  0
SCALE
  5
DD
102
{ACAD_REACTORS
330
99
102
}
330
99
100
AcDbScale
 70
     0
300
1:30
140
1.0
141
30.0
290
     0
  0
SCALE
  5
DE
102
{ACAD_REACTORS
330
99
102
}
330
99
100
AcDbScale
 70
     0
300
1:40
140
1.0
141
40.0
290
     0
  0
SCALE
  5
DF
102
{ACAD_REACTORS
330
99
102
}
330
99
100
AcDbScale
 70
     0
300
1:50
140
1.0
141
50.0
290
     0
  0
SCALE
  5
E0
102
{ACAD_REACTORS
330
99
102
}
330
99
100
AcDbScale
 70
     0
300
1:100
140
1.0
141
100.0
290
     0
  0
SCALE
  5
E1
102
{ACAD_REACTORS
330
99
102
}
330
99
100
AcDbScale
 70
     0
300
2:1
140
2.0
141
1.0
290
     0
  0
SCALE
  5
E2
102
{ACAD_REACTORS
330
99
102
}
330
99
100
AcDbScale
 70
     0
300
4:1
140
4.0
141
1.0
290
     0
  0
SCALE
  5
E3
102
{ACAD_REACTORS
330
99
102
}
330
99
100
AcDbScale
 70
     0
300
8:1
140
8.0
141
1.0
290
     0
  0
SCALE
  5
E4
102
{ACAD_REACTORS
330
99
102
}
330
99
100
AcDbScale
 70
     0
300
10:1
140
10.0
141
1.0
290
     0
  0
SCALE
  5
E5
102
{ACAD_REACTORS
330
99
102
}
330
99
100
AcDbScale
 70
     0
300
100:1
140
100.0
141
1.0
290
     0
  0
SCALE
  5
E6
102
{ACAD_REACTORS
330
99
102
}
330
99
100
AcDbScale
 70
     0
300
1/128" = 1'-0"
140
0.0078125
141
12.0
290
     0
  0
SCALE
  5
E7
102
{ACAD_REACTORS
330
99
102
}
330
99
100
AcDbScale
 70
     0
300
1/64" = 1'-0"
140
0.015625
141
12.0
290
     0
  0
SCALE
  5
E8
102
{ACAD_REACTORS
330
99
102
}
330
99
100
AcDbScale
 70
     0
300
1/32" = 1'-0"
140
0.03125
141
12.0
290
     0
  0
SCALE
  5
E9
102
{ACAD_REACTORS
330
99
102
}
330
99
100
AcDbScale
 70
     0
300
1/16" = 1'-0"
140
0.0625
141
12.0
290
     0
  0
SCALE
  5
EA
102
{ACAD_REACTORS
330
99
102
}
330
99
100
AcDbScale
 70
     0
300
3/32" = 1'-0"
140
0.09375
141
12.0
290
     0
  0
SCALE
  5
EB
102
{ACAD_REACTORS
330
99
102
}
330
99
100
AcDbScale
 70
     0
300
1/8" = 1'-0"
140
0.125
141
12.0
290
     0
  0
SCALE
  5
EC
102
{ACAD_REACTORS
330
99
102
}
330
99
100
AcDbScale
 70
     0
300
3/16" = 1'-0"
140
0.1875
141
12.0
290
     0
  0
SCALE
  5
ED
102
{ACAD_REACTORS
330
99
102
}
330
99
100
AcDbScale
 70
     0
300
1/4" = 1'-0"
140
0.25
141
12.0
290
     0
  0
SCALE
  5
EE
102
{ACAD_REACTORS
330
99
102
}
330
99
100
AcDbScale
 70
     0
300
3/8" = 1'-0"
140
0.375
141
12.0
290
     0
  0
SCALE
  5
EF
102
{ACAD_REACTORS
330
99
102
}
330
99
100
AcDbScale
 70
     0
300
1/2" = 1'-0"
140
0.5
141
12.0
290
     0
  0
SCALE
  5
F0
102
{ACAD_REACTORS
330
99
102
}
330
99
100
AcDbScale
 70
     0
300
3/4" = 1'-0"
140
0.75
141
12.0
290
     0
  0
SCALE
  5
F1
102
{ACAD_REACTORS
330
99
102
}
330
99
100
AcDbScale
 70
     0
300
1" = 1'-0"
140
1.0
141
12.0
290
     0
  0
SCALE
  5
F2
102
{ACAD_REACTORS
330
99
102
}
330
99
100
AcDbScale
 70
     0
300
1-1/2" = 1'-0"
140
1.5
141
12.0
290
     0
  0
SCALE
  5
F3
102
{ACAD_REACTORS
330
99
102
}
330
99
100
AcDbScale
 70
     0
300
3" = 1'-0"
140
3.0
141
12.0
290
     0
  0
SCALE
  5
F4
102
{ACAD_REACTORS
330
99
102
}
330
99
100
AcDbScale
 70
     0
300
6" = 1'-0"
140
6.0
141
12.0
290
     0
  0
SCALE
  5
F5
102
{ACAD_REACTORS
330
99
102
}
330
99
100
AcDbScale
 70
     0
300
1'-0" = 1'-0"
140
12.0
141
12.0
290
     0
  0
XRECORD
  5
6C1
102
{ACAD_REACTORS
330
6C0
102
}
330
6C0
100
AcDbXrecord
280
     1
340
6C
  0
XRECORD
  5
6C2
102
{ACAD_REACTORS
330
6C0
102
}
330
6C0
100
AcDbXrecord
280
     1
340
6B
  0
DICTIONARYVAR
  5
98
102
{ACAD_REACTORS
330
59
102
}
330
59
100
DictionaryVariables
280
     0
  1
Standard
  0
DICTIONARYVAR
  5
5A
102
{ACAD_REACTORS
330
59
102
}
330
59
100
DictionaryVariables
280
     0
  1
2
  0
DICTIONARYVAR
  5
5E
102
{ACAD_REACTORS
330
59
102
}
330
59
100
DictionaryVariables
280
     0
  1
1
  0
ENDSEC
  0
EOF
