  0
SECTION
  2
HEADER
  9
$ACADVER
  1
AC1021
  9
$ACADMAINTVER
 70
    25
  9
$DWGCODEPAGE
  3
ANSI_1252
  9
$LASTSAVEDBY
  1
IseniRM
  9
$INSBASE
 10
0.0
 20
0.0
 30
0.0
  9
$EXTMIN
 10
1.000000000000000E+20
 20
1.000000000000000E+20
 30
1.000000000000000E+20
  9
$EXTMAX
 10
-1.000000000000000E+20
 20
-1.000000000000000E+20
 30
-1.000000000000000E+20
  9
$LIMMIN
 10
0.0
 20
0.0
  9
$LIMMAX
 10
12.0
 20
9.0
  9
$ORTHOMODE
 70
     0
  9
$REGENMODE
 70
     1
  9
$FILLMODE
 70
     1
  9
$QTEXTMODE
 70
     0
  9
$MIRRTEXT
 70
     1
  9
$LTSCALE
 40
1.0
  9
$ATTMODE
 70
     1
  9
$TEXTSIZE
 40
2.5
  9
$TRACEWID
 40
0.05
  9
$TEXTSTYLE
  7
STANDARD
  9
$CLAYER
  8
0
  9
$CELTYPE
  6
BYBLOCK
  9
$CECOLOR
 62
   256
  9
$CELTSCALE
 40
1.0
  9
$DISPSILH
 70
     0
  9
$DIMSCALE
 40
1.0
  9
$DIMASZ
 40
10.0
  9
$DIMEXO
 40
0.0625
  9
$DIMDLI
 40
0.38
  9
$DIMRND
 40
0.0
  9
$DIMDLE
 40
0.0
  9
$DIMEXE
 40
0.18
  9
$DIMTP
 40
0.0
  9
$DIMTM
 40
0.0
  9
$DIMTXT
 40
25.0
  9
$DIMCEN
 40
0.09
  9
$DIMTSZ
 40
0.0
  9
$DIMTOL
 70
     0
  9
$DIMLIM
 70
     0
  9
$DIMTIH
 70
     1
  9
$DIMTOH
 70
     1
  9
$DIMSE1
 70
     0
  9
$DIMSE2
 70
     0
  9
$DIMTAD
 70
     0
  9
$DIMZIN
 70
     0
  9
$DIMBLK
  1

  9
$DIMASO
 70
     1
  9
$DIMSHO
 70
     1
  9
$DIMPOST
  1

  9
$DIMAPOST
  1

  9
$DIMALT
 70
     0
  9
$DIMALTD
 70
     2
  9
$DIMALTF
 40
25.4
  9
$DIMLFAC
 40
1.0005
  9
$DIMTOFL
 70
     0
  9
$DIMTVP
 40
0.0
  9
$DIMTIX
 70
     0
  9
$DIMSOXD
 70
     0
  9
$DIMSAH
 70
     0
  9
$DIMBLK1
  1

  9
$DIMBLK2
  1

  9
$DIMSTYLE
  2
ISO-25
  9
$DIMCLRD
 70
     0
  9
$DIMCLRE
 70
     0
  9
$DIMCLRT
 70
     0
  9
$DIMTFAC
 40
1.0
  9
$DIMGAP
 40
0.09
  9
$DIMJUST
 70
     0
  9
$DIMSD1
 70
     0
  9
$DIMSD2
 70
     0
  9
$DIMTOLJ
 70
     1
  9
$DIMTZIN
 70
     0
  9
$DIMALTZ
 70
     0
  9
$DIMALTTZ
 70
     0
  9
$DIMUPT
 70
     0
  9
$DIMDEC
 70
     4
  9
$DIMTDEC
 70
     4
  9
$DIMALTU
 70
     2
  9
$DIMALTTD
 70
     2
  9
$DIMTXSTY
  7
STANDARD
  9
$DIMAUNIT
 70
     0
  9
$DIMADEC
 70
     0
  9
$DIMALTRND
 40
0.0
  9
$DIMAZIN
 70
     0
  9
$DIMDSEP
 70
    46
  9
$DIMATFIT
 70
     3
  9
$DIMFRAC
 70
     0
  9
$DIMLDRBLK
  1

  9
$DIMLUNIT
 70
     2
  9
$DIMLWD
 70
    -2
  9
$DIMLWE
 70
    -2
  9
$DIMTMOVE
 70
     2
  9
$DIMFXL
 40
1.0
  9
$DIMFXLON
 70
     0
  9
$DIMJOGANG
 40
0.7853981633974483
  9
$DIMTFILL
 70
     0
  9
$DIMTFILLCLR
 70
     0
  9
$DIMARCSYM
 70
     0
  9
$DIMLTYPE
  6

  9
$DIMLTEX1
  6

  9
$DIMLTEX2
  6

  9
$LUNITS
 70
     2
  9
$LUPREC
 70
     4
  9
$SKETCHINC
 40
0.1
  9
$FILLETRAD
 40
0.5
  9
$AUNITS
 70
     0
  9
$AUPREC
 70
     0
  9
$MENU
  1
.
  9
$ELEVATION
 40
0.0
  9
$PELEVATION
 40
0.0
  9
$THICKNESS
 40
0.0
  9
$LIMCHECK
 70
     0
  9
$CHAMFERA
 40
0.0
  9
$CHAMFERB
 40
0.0
  9
$CHAMFERC
 40
0.0
  9
$CHAMFERD
 40
0.0
  9
$SKPOLY
 70
     0
  9
$TDCREATE
 40
2447893.083333333
  9
$TDUCREATE
 40
0.0
  9
$TDUPDATE
 40
2457196.616980382
  9
$TDUUPDATE
 40
2457196.533647049
  9
$TDINDWG
 40
0.0071884954
  9
$TDUSRTIMER
 40
2457196.533329294
  9
$USRTIMER
 70
     1
  9
$ANGBASE
 50
0.0
  9
$ANGDIR
 70
     0
  9
$PDMODE
 70
     0
  9
$PDSIZE
 40
0.0
  9
$PLINEWID
 40
0.0
  9
$SPLFRAME
 70
     0
  9
$SPLINETYPE
 70
     6
  9
$SPLINESEGS
 70
     8
  9
$HANDSEED
  5
10357
  9
$SURFTAB1
 70
     6
  9
$SURFTAB2
 70
     6
  9
$SURFTYPE
 70
     6
  9
$SURFU
 70
     6
  9
$SURFV
 70
     6
  9
$UCSBASE
  2

  9
$UCSNAME
  2

  9
$UCSORG
 10
0.0
 20
0.0
 30
0.0
  9
$UCSXDIR
 10
1.0
 20
0.0
 30
0.0
  9
$UCSYDIR
 10
0.0
 20
1.0
 30
0.0
  9
$UCSORTHOREF
  2

  9
$UCSORTHOVIEW
 70
     0
  9
$UCSORGTOP
 10
0.0
 20
0.0
 30
0.0
  9
$UCSORGBOTTOM
 10
0.0
 20
0.0
 30
0.0
  9
$UCSORGLEFT
 10
0.0
 20
0.0
 30
0.0
  9
$UCSORGRIGHT
 10
0.0
 20
0.0
 30
0.0
  9
$UCSORGFRONT
 10
0.0
 20
0.0
 30
0.0
  9
$UCSORGBACK
 10
0.0
 20
0.0
 30
0.0
  9
$PUCSBASE
  2

  9
$PUCSNAME
  2

  9
$PUCSORG
 10
0.0
 20
0.0
 30
0.0
  9
$PUCSXDIR
 10
1.0
 20
0.0
 30
0.0
  9
$PUCSYDIR
 10
0.0
 20
1.0
 30
0.0
  9
$PUCSORTHOREF
  2

  9
$PUCSORTHOVIEW
 70
     0
  9
$PUCSORGTOP
 10
0.0
 20
0.0
 30
0.0
  9
$PUCSORGBOTTOM
 10
0.0
 20
0.0
 30
0.0
  9
$PUCSORGLEFT
 10
0.0
 20
0.0
 30
0.0
  9
$PUCSORGRIGHT
 10
0.0
 20
0.0
 30
0.0
  9
$PUCSORGFRONT
 10
0.0
 20
0.0
 30
0.0
  9
$PUCSORGBACK
 10
0.0
 20
0.0
 30
0.0
  9
$USERI1
 70
     0
  9
$USERI2
 70
     0
  9
$USERI3
 70
     0
  9
$USERI4
 70
     0
  9
$USERI5
 70
     0
  9
$USERR1
 40
0.0
  9
$USERR2
 40
0.0
  9
$USERR3
 40
0.0
  9
$USERR4
 40
0.0
  9
$USERR5
 40
0.0
  9
$WORLDVIEW
 70
     1
  9
$SHADEDGE
 70
     3
  9
$SHADEDIF
 70
    70
  9
$TILEMODE
 70
     1
  9
$MAXACTVP
 70
    64
  9
$PINSBASE
 10
0.0
 20
0.0
 30
0.0
  9
$PLIMCHECK
 70
     0
  9
$PEXTMIN
 10
1.000000000000000E+20
 20
1.000000000000000E+20
 30
1.000000000000000E+20
  9
$PEXTMAX
 10
-1.000000000000000E+20
 20
-1.000000000000000E+20
 30
-1.000000000000000E+20
  9
$PLIMMIN
 10
0.0
 20
0.0
  9
$PLIMMAX
 10
0.0
 20
0.0
  9
$UNITMODE
 70
     0
  9
$VISRETAIN
 70
     1
  9
$PLINEGEN
 70
     0
  9
$PSLTSCALE
 70
     1
  9
$TREEDEPTH
 70
  3020
  9
$CMLSTYLE
  2

  9
$CMLJUST
 70
     0
  9
$CMLSCALE
 40
1.0
  9
$PROXYGRAPHICS
 70
     1
  9
$MEASUREMENT
 70
     1
  9
$CELWEIGHT
370
    -1
  9
$ENDCAPS
280
     0
  9
$JOINSTYLE
280
     0
  9
$LWDISPLAY
290
     0
  9
$INSUNITS
 70
     4
  9
$HYPERLINKBASE
  1

  9
$STYLESHEET
  1

  9
$XEDIT
290
     1
  9
$CEPSNTYPE
380
     0
  9
$PSTYLEMODE
290
     1
  9
$FINGERPRINTGUID
  2
{4B16B341-54AE-4106-BDB2-A474359BDC78}
  9
$VERSIONGUID
  2
{FAEB1C32-E019-11D5-929B-00C0DF256EC4}
  9
$EXTNAMES
290
     1
  9
$PSVPSCALE
 40
0.0
  9
$OLESTARTUP
290
     0
  9
$SORTENTS
280
   127
  9
$INDEXCTL
280
     0
  9
$HIDETEXT
280
     1
  9
$XCLIPFRAME
290
     0
  9
$HALOGAP
280
     0
  9
$OBSCOLOR
 70
   257
  9
$OBSLTYPE
280
     0
  9
$INTERSECTIONDISPLAY
280
     0
  9
$INTERSECTIONCOLOR
 70
   257
  9
$DIMASSOC
280
     2
  9
$PROJECTNAME
  1

  9
$CAMERADISPLAY
290
     0
  9
$LENSLENGTH
 40
50.0
  9
$CAMERAHEIGHT
 40
0.0
  9
$STEPSPERSEC
 40
2.0
  9
$STEPSIZE
 40
6.0
  9
$3DDWFPREC
 40
2.0
  9
$PSOLWIDTH
 40
0.25
  9
$PSOLHEIGHT
 40
4.0
  9
$LOFTANG1
 40
1.570796326794897
  9
$LOFTANG2
 40
1.570796326794897
  9
$LOFTMAG1
 40
0.0
  9
$LOFTMAG2
 40
0.0
  9
$LOFTPARAM
 70
     7
  9
$LOFTNORMALS
280
     1
  9
$LATITUDE
 40
37.795
  9
$LONGITUDE
 40
-122.394
  9
$NORTHDIRECTION
 40
0.0
  9
$TIMEZONE
 70
 -8000
  9
$LIGHTGLYPHDISPLAY
280
     1
  9
$TILEMODELIGHTSYNCH
280
     1
  9
$SOLIDHIST
280
     0
  9
$SHOWHIST
280
     1
  9
$DWFFRAME
280
     2
  9
$DGNFRAME
280
     2
  9
$REALWORLDSCALE
290
     1
  9
$INTERFERECOLOR
 62
   256
  9
$CSHADOW
280
     0
  9
$SHADOWPLANELOCATION
 40
0.0
  0
ENDSEC
  0
SECTION
  2
CLASSES
  0
CLASS
  1
SCALE
  2
AcDbScale
  3
ObjectDBX Classes
 90
     1153
 91
        5
280
     0
281
     0
  0
CLASS
  1
VISUALSTYLE
  2
AcDbVisualStyle
  3
ObjectDBX Classes
 90
     4095
 91
        5
280
     0
281
     0
  0
CLASS
  1
MATERIAL
  2
AcDbMaterial
  3
ObjectDBX Classes
 90
     1153
 91
        5
280
     0
281
     0
  0
CLASS
  1
TABLESTYLE
  2
AcDbTableStyle
  3
ObjectDBX Classes
 90
     4095
 91
        5
280
     0
281
     0
  0
CLASS
  1
MLEADERSTYLE
  2
AcDbMLeaderStyle
  3
ACDB_MLEADERSTYLE_CLASS
 90
     4095
 91
        5
280
     0
281
     0
  0
CLASS
  1
SUN
  2
AcDbSun
  3
SCENEOE
 90
     1153
 91
        5
280
     0
281
     0
  0
CLASS
  1
RASTERVARIABLES
  2
AcDbRasterVariables
  3
ISM
 90
        0
 91
        5
280
     0
281
     0
  0
CLASS
  1
DIMASSOC
  2
AcDbDimAssoc
  3
"AcDbDimAssoc|Product Desc:     AcDim ARX App For Dimension|Company:          Autodesk, Inc.|WEB Address:      www.autodesk.com"
 90
        0
 91
        5
280
     0
281
     0
  0
CLASS
  1
ACDBDICTIONARYWDFLT
  2
AcDbDictionaryWithDefault
  3
ObjectDBX Classes
 90
        0
 91
        5
280
     0
281
     0
  0
CLASS
  1
XRECORD
  2
AcDbXrecord
  3
ObjectDBX Classes
 90
        0
 91
        1
280
     0
281
     0
  0
CLASS
  1
LWPOLYLINE
  2
AcDbPolyline
  3
ObjectDBX Classes
 90
        0
 91
        1
280
     0
281
     1
  0
CLASS
  1
HATCH
  2
AcDbHatch
  3
ObjectDBX Classes
 90
        0
 91
        1
280
     0
281
     1
  0
CLASS
  1
DICTIONARYVAR
  2
AcDbDictionaryVar
  3
ObjectDBX Classes
 90
        0
 91
        5
280
     0
281
     0
  0
CLASS
  1
CELLSTYLEMAP
  2
AcDbCellStyleMap
  3
ObjectDBX Classes
 90
     1152
 91
        5
280
     0
281
     0
  0
ENDSEC
  0
SECTION
  2
TABLES
  0
TABLE
  2
VPORT
  5
8
330
0
100
AcDbSymbolTable
 70
     1
  0
VPORT
  5
2E
330
8
100
AcDbSymbolTableRecord
100
AcDbViewportTableRecord
  2
*ACTIVE
 70
     0
 10
0.0
 20
0.0
 11
1.0
 21
1.0
 12
721.2637779022144
 22
82.60897698577153
 13
0.0
 23
0.0
 14
10.0
 24
10.0
 15
10.0
 25
10.0
 16
0.0
 26
0.0
 36
1.0
 17
0.0
 27
0.0
 37
0.0
 40
1187.918093902229
 41
1.952029520295203
 42
50.0
 43
0.0
 44
0.0
 50
0.0
 51
0.0
 71
    16
 72
   100
 73
     1
 74
     3
 75
     0
 76
     0
 77
     0
 78
     0
281
     0
 65
     1
110
0.0
120
0.0
130
0.0
111
1.0
121
0.0
131
0.0
112
0.0
122
1.0
132
0.0
 79
     0
146
0.0
348
10029
 60
     3
 61
     5
292
     1
282
     1
141
0.0
142
0.0
 63
   250
361
10046
  0
ENDTAB
  0
TABLE
  2
LTYPE
  5
5
330
0
100
AcDbSymbolTable
 70
     1
  0
LTYPE
  5
14
330
5
100
AcDbSymbolTableRecord
100
AcDbLinetypeTableRecord
  2
BYBLOCK
 70
     0
  3

 72
    65
 73
     0
 40
0.0
  0
LTYPE
  5
15
330
5
100
AcDbSymbolTableRecord
100
AcDbLinetypeTableRecord
  2
BYLAYER
 70
     0
  3

 72
    65
 73
     0
 40
0.0
  0
LTYPE
  5
16
330
5
100
AcDbSymbolTableRecord
100
AcDbLinetypeTableRecord
  2
CONTINUOUS
 70
     0
  3
Solid line
 72
    65
 73
     0
 40
0.0
  0
ENDTAB
  0
TABLE
  2
LAYER
  5
2
330
0
100
AcDbSymbolTable
 70
     4
  0
LAYER
  5
50
330
2
100
AcDbSymbolTableRecord
100
AcDbLayerTableRecord
  2
0
 70
     0
 62
     7
  6
CONTINUOUS
370
    -3
390
1005A
347
10040
  0
LAYER
  5
51
330
2
100
AcDbSymbolTableRecord
100
AcDbLayerTableRecord
  2
2
 70
     0
 62
     7
  6
CONTINUOUS
370
    -3
390
1005A
347
10040
  0
LAYER
  5
52
330
2
100
AcDbSymbolTableRecord
100
AcDbLayerTableRecord
  2
3
 70
     0
 62
     7
  6
CONTINUOUS
370
    -3
390
1005A
347
10040
  0
LAYER
  5
53
330
2
100
AcDbSymbolTableRecord
100
AcDbLayerTableRecord
  2
DEFPOINTS
 70
     0
 62
     7
  6
CONTINUOUS
290
     0
370
    -3
390
1005A
347
10040
  0
ENDTAB
  0
TABLE
  2
STYLE
  5
3
330
0
100
AcDbSymbolTable
 70
     1
  0
STYLE
  5
11
330
3
100
AcDbSymbolTableRecord
100
AcDbTextStyleTableRecord
  2
STANDARD
 70
     0
 40
0.0
 41
1.0
 50
0.0
 71
     0
 42
2.5
  3
txt
  4

  0
ENDTAB
  0
TABLE
  2
VIEW
  5
6
330
0
100
AcDbSymbolTable
 70
     0
  0
ENDTAB
  0
TABLE
  2
UCS
  5
7
330
0
100
AcDbSymbolTable
 70
     0
  0
ENDTAB
  0
TABLE
  2
APPID
  5
9
330
0
100
AcDbSymbolTable
 70
     2
  0
APPID
  5
12
330
9
100
AcDbSymbolTableRecord
100
AcDbRegAppTableRecord
  2
ACAD
 70
     0
  0
APPID
  5
1012B
330
9
100
AcDbSymbolTableRecord
100
AcDbRegAppTableRecord
  2
ACAD_MLEADERVER
 70
     0
  0
ENDTAB
  0
TABLE
  2
DIMSTYLE
  5
A
330
0
100
AcDbSymbolTable
 70
     1
100
AcDbDimStyleTable
  0
DIMSTYLE
105
27
102
{ACAD_REACTORS
330
1017E
330
1023B
330
102AB
330
102EF
330
10301
330
10338
102
}
330
A
100
AcDbSymbolTableRecord
100
AcDbDimStyleTableRecord
  2
ISO-25
 70
     0
 41
2.5
 42
0.625
 43
3.75
 44
1.25
 73
     0
 74
     0
 77
     1
 78
     8
140
2.5
141
2.5
143
0.03937007874016
147
0.625
171
     3
172
     1
178
     0
271
     2
272
     2
274
     3
283
     0
284
     8
340
11
  0
ENDTAB
  0
TABLE
  2
BLOCK_RECORD
  5
1
330
0
100
AcDbSymbolTable
 70
    20
  0
BLOCK_RECORD
  5
1F
330
1
100
AcDbSymbolTableRecord
100
AcDbBlockTableRecord
  2
*MODEL_SPACE
340
10022
 70
     0
280
     1
281
     0
  0
BLOCK_RECORD
  5
1B
330
1
100
AcDbSymbolTableRecord
100
AcDbBlockTableRecord
  2
*PAPER_SPACE
340
10023
 70
     0
280
     1
281
     0
  0
BLOCK_RECORD
  5
1004B
330
1
100
AcDbSymbolTableRecord
100
AcDbBlockTableRecord
  2
*D0
340
0
 70
     0
280
     1
281
     0
  0
BLOCK_RECORD
  5
1005E
330
1
100
AcDbSymbolTableRecord
100
AcDbBlockTableRecord
  2
*D1
340
0
 70
     0
280
     1
281
     0
  0
BLOCK_RECORD
  5
1006F
330
1
100
AcDbSymbolTableRecord
100
AcDbBlockTableRecord
  2
*D2
340
0
 70
     0
280
     1
281
     0
  0
BLOCK_RECORD
  5
10083
330
1
100
AcDbSymbolTableRecord
100
AcDbBlockTableRecord
  2
*D3
340
0
 70
     0
280
     1
281
     0
  0
BLOCK_RECORD
  5
10093
330
1
100
AcDbSymbolTableRecord
100
AcDbBlockTableRecord
  2
*D4
340
0
 70
     0
280
     1
281
     0
  0
BLOCK_RECORD
  5
100A2
330
1
100
AcDbSymbolTableRecord
100
AcDbBlockTableRecord
  2
*D5
340
0
 70
     0
280
     1
281
     0
  0
BLOCK_RECORD
  5
100B5
330
1
100
AcDbSymbolTableRecord
100
AcDbBlockTableRecord
  2
*D6
340
0
 70
     0
280
     1
281
     0
  0
BLOCK_RECORD
  5
100D6
330
1
100
AcDbSymbolTableRecord
100
AcDbBlockTableRecord
  2
*D7
340
0
 70
     0
280
     1
281
     0
  0
BLOCK_RECORD
  5
100E3
330
1
100
AcDbSymbolTableRecord
100
AcDbBlockTableRecord
  2
vista
340
0
 70
     4
280
     1
281
     0
  0
BLOCK_RECORD
  5
10119
330
1
100
AcDbSymbolTableRecord
100
AcDbBlockTableRecord
  2
*D9
340
0
 70
     0
280
     1
281
     0
  0
BLOCK_RECORD
  5
10181
330
1
100
AcDbSymbolTableRecord
100
AcDbBlockTableRecord
  2
*D10
340
0
 70
     0
280
     1
281
     0
  0
BLOCK_RECORD
  5
1022B
330
1
100
AcDbSymbolTableRecord
100
AcDbBlockTableRecord
  2
*D11
340
0
 70
     0
280
     1
281
     0
  0
BLOCK_RECORD
  5
1023E
330
1
100
AcDbSymbolTableRecord
100
AcDbBlockTableRecord
  2
*D12
340
0
 70
     0
280
     1
281
     0
  0
BLOCK_RECORD
  5
1024E
330
1
100
AcDbSymbolTableRecord
100
AcDbBlockTableRecord
  2
*D13
340
0
 70
     0
280
     1
281
     0
  0
BLOCK_RECORD
  5
1025E
330
1
100
AcDbSymbolTableRecord
100
AcDbBlockTableRecord
  2
*D14
340
0
 70
     0
280
     1
281
     0
  0
BLOCK_RECORD
  5
102AC
330
1
100
AcDbSymbolTableRecord
100
AcDbBlockTableRecord
  2
*D16
340
0
 70
     0
280
     1
281
     0
  0
BLOCK_RECORD
  5
102F2
330
1
100
AcDbSymbolTableRecord
100
AcDbBlockTableRecord
  2
*D17
340
0
 70
     0
280
     1
281
     0
  0
BLOCK_RECORD
  5
1033B
330
1
100
AcDbSymbolTableRecord
100
AcDbBlockTableRecord
  2
*D18
340
0
 70
     0
280
     1
281
     0
  0
BLOCK_RECORD
  5
10348
330
1
100
AcDbSymbolTableRecord
100
AcDbBlockTableRecord
  2
*D19
340
0
 70
     0
280
     1
281
     0
  0
ENDTAB
  0
ENDSEC
  0
SECTION
  2
BLOCKS
  0
BLOCK
  5
20
330
1F
100
AcDbEntity
  8
0
100
AcDbBlockBegin
  2
*MODEL_SPACE
 70
     0
 10
0.0
 20
0.0
 30
0.0
  3
*MODEL_SPACE
  1
*MODEL_SPACE
  0
ENDBLK
  5
21
330
1F
100
AcDbEntity
  8
0
100
AcDbBlockEnd
  0
BLOCK
  5
1C
330
1B
100
AcDbEntity
 67
     1
  8
0
100
AcDbBlockBegin
  2
*PAPER_SPACE
 70
     0
 10
0.0
 20
0.0
 30
0.0
  3
*PAPER_SPACE
  1
*PAPER_SPACE
  0
ENDBLK
  5
1D
330
1B
100
AcDbEntity
 67
     1
  8
0
100
AcDbBlockEnd
  0
BLOCK
  5
1004C
330
1004B
100
AcDbEntity
  8
0
100
AcDbBlockBegin
  2
*D0
 70
     1
 10
0.0
 20
0.0
 30
0.0
  3
*D0
  1
*D0
  0
LINE
  5
1004E
330
1004B
100
AcDbEntity
  8
0
  6
ByBlock
 62
     0
370
    -2
100
AcDbLine
 10
4251.845412
 20
12338.694259
 30
0.0
 11
4251.845412
 21
11189.91012057004
 31
0.0
  0
LINE
  5
1004F
330
1004B
100
AcDbEntity
  8
0
  6
ByBlock
 62
     0
370
    -2
100
AcDbLine
 10
9714.016678
 20
12338.694259
 30
0.0
 11
9714.016678
 21
11189.91012057004
 31
0.0
  0
LINE
  5
10050
330
1004B
100
AcDbEntity
  8
0
  6
ByBlock
 62
     0
370
    -2
100
AcDbLine
 10
4252.025412
 20
11190.09012057004
 30
0.0
 11
6982.181044999999
 21
11190.09012057004
 31
0.0
  0
LINE
  5
10051
330
1004B
100
AcDbEntity
  8
0
  6
ByBlock
 62
     0
370
    -2
100
AcDbLine
 10
9713.836678
 20
11190.09012057004
 30
0.0
 11
6983.681044999999
 21
11190.09012057004
 31
0.0
  0
SOLID
  5
10052
330
1004B
100
AcDbEntity
  8
0
 62
     0
100
AcDbTrace
 10
4252.025412
 20
11190.12012057004
 30
0.0
 11
4252.025412
 21
11190.06012057004
 31
0.0
 12
4251.845412
 22
11190.09012057004
 32
0.0
 13
4251.845412
 23
11190.09012057004
 33
0.0
  0
SOLID
  5
10053
330
1004B
100
AcDbEntity
  8
0
 62
     0
100
AcDbTrace
 10
9713.836678
 20
11190.06012057004
 30
0.0
 11
9713.836678
 21
11190.12012057004
 31
0.0
 12
9714.016678
 22
11190.09012057004
 32
0.0
 13
9714.016678
 23
11190.09012057004
 33
0.0
  0
MTEXT
  5
10054
330
1004B
100
AcDbEntity
  8
0
  6
ByBlock
 62
     0
100
AcDbMText
 10
6982.931044999999
 20
11190.09012057004
 30
0.0
 40
0.18
 41
0.0
 46
0.0
 71
     5
 72
     1
  1
\A1;5462.1713
 73
     1
 44
1.0
  0
POINT
  5
10055
330
1004B
100
AcDbEntity
  8
DEFPOINTS
 62
     0
100
AcDbPoint
 10
4251.845412
 20
12338.756759
 30
0.0
  0
POINT
  5
10056
330
1004B
100
AcDbEntity
  8
DEFPOINTS
 62
     0
100
AcDbPoint
 10
9714.016678
 20
12338.756759
 30
0.0
  0
POINT
  5
10057
330
1004B
100
AcDbEntity
  8
DEFPOINTS
 62
     0
100
AcDbPoint
 10
9714.016678
 20
11190.09012057004
 30
0.0
  0
ENDBLK
  5
1004D
330
1004B
100
AcDbEntity
  8
0
100
AcDbBlockEnd
  0
BLOCK
  5
1005F
330
1005E
100
AcDbEntity
  8
0
100
AcDbBlockBegin
  2
*D1
 70
     1
 10
0.0
 20
0.0
 30
0.0
  3
*D1
  1
*D1
  0
LINE
  5
10061
330
1005E
100
AcDbEntity
  8
0
  6
ByBlock
 62
     0
370
    -2
100
AcDbLine
 10
4251.845412
 20
12338.694259
 30
0.0
 11
4251.845412
 21
11250.06581241749
 31
0.0
  0
LINE
  5
10062
330
1005E
100
AcDbEntity
  8
0
  6
ByBlock
 62
     0
370
    -2
100
AcDbLine
 10
9714.016678
 20
12338.694259
 30
0.0
 11
9714.016678
 21
11250.06581241749
 31
0.0
  0
LINE
  5
10063
330
1005E
100
AcDbEntity
  8
0
  6
ByBlock
 62
     0
370
    -2
100
AcDbLine
 10
4261.845412
 20
11250.24581241749
 30
0.0
 11
6884.924378333333
 21
11250.24581241749
 31
0.0
  0
LINE
  5
10064
330
1005E
100
AcDbEntity
  8
0
  6
ByBlock
 62
     0
370
    -2
100
AcDbLine
 10
9704.016678
 20
11250.24581241749
 30
0.0
 11
7080.937711666667
 21
11250.24581241749
 31
0.0
  0
SOLID
  5
10065
330
1005E
100
AcDbEntity
  8
0
 62
     0
100
AcDbTrace
 10
4261.845412
 20
11251.91247908415
 30
0.0
 11
4261.845412
 21
11248.57914575082
 31
0.0
 12
4251.845412
 22
11250.24581241749
 32
0.0
 13
4251.845412
 23
11250.24581241749
 33
0.0
  0
SOLID
  5
10066
330
1005E
100
AcDbEntity
  8
0
 62
     0
100
AcDbTrace
 10
9704.016678
 20
11248.57914575082
 30
0.0
 11
9704.016678
 21
11251.91247908415
 31
0.0
 12
9714.016678
 22
11250.24581241749
 32
0.0
 13
9714.016678
 23
11250.24581241749
 33
0.0
  0
MTEXT
  5
10067
330
1005E
100
AcDbEntity
  8
0
  6
ByBlock
 62
     0
100
AcDbMText
 10
6982.931044999999
 20
11250.24581241749
 30
0.0
 40
25.0
 41
0.0
 46
0.0
 71
     5
 72
     1
  1
\A1;5464.9024
 73
     1
 44
1.0
  0
POINT
  5
10068
330
1005E
100
AcDbEntity
  8
DEFPOINTS
 62
     0
100
AcDbPoint
 10
4251.845412
 20
12338.756759
 30
0.0
  0
POINT
  5
10069
330
1005E
100
AcDbEntity
  8
DEFPOINTS
 62
     0
100
AcDbPoint
 10
9714.016678
 20
12338.756759
 30
0.0
  0
POINT
  5
1006A
330
1005E
100
AcDbEntity
  8
DEFPOINTS
 62
     0
100
AcDbPoint
 10
9714.016678
 20
11250.24581241749
 30
0.0
  0
ENDBLK
  5
10060
330
1005E
100
AcDbEntity
  8
0
100
AcDbBlockEnd
  0
BLOCK
  5
10070
330
1006F
100
AcDbEntity
  8
0
100
AcDbBlockBegin
  2
*D2
 70
     1
 10
0.0
 20
0.0
 30
0.0
  3
*D2
  1
*D2
  0
LINE
  5
10072
330
1006F
100
AcDbEntity
  8
0
  6
ByBlock
 62
     0
370
    -2
100
AcDbLine
 10
0.0
 20
-11.41651873010073
 30
0.0
 11
0.0
 21
-159.0769741804522
 31
0.0
  0
LINE
  5
10073
330
1006F
100
AcDbEntity
  8
0
  6
ByBlock
 62
     0
370
    -2
100
AcDbLine
 10
679.6480257785911
 20
-11.41651873010073
 30
0.0
 11
679.6480257785911
 21
-159.0769741804522
 31
0.0
  0
LINE
  5
10074
330
1006F
100
AcDbEntity
  8
0
  6
ByBlock
 62
     0
370
    -2
100
AcDbLine
 10
10.0
 20
-158.8969741804522
 30
0.0
 11
669.6480257785911
 21
-158.8969741804522
 31
0.0
  0
SOLID
  5
10075
330
1006F
100
AcDbEntity
  8
0
 62
     0
100
AcDbTrace
 10
10.0
 20
-157.2303075137855
 30
0.0
 11
10.0
 21
-160.5636408471188
 31
0.0
 12
0.0
 22
-158.8969741804522
 32
0.0
 13
0.0
 23
-158.8969741804522
 33
0.0
  0
SOLID
  5
10076
330
1006F
100
AcDbEntity
  8
0
 62
     0
100
AcDbTrace
 10
669.6480257785911
 20
-160.5636408471188
 30
0.0
 11
669.6480257785911
 21
-157.2303075137855
 31
0.0
 12
679.6480257785911
 22
-158.8969741804522
 32
0.0
 13
679.6480257785911
 23
-158.8969741804522
 33
0.0
  0
MTEXT
  5
10077
330
1006F
100
AcDbEntity
  8
0
  6
ByBlock
 62
     0
100
AcDbMText
 10
339.8240128892955
 20
-171.3969741804522
 30
0.0
 40
15.0
 41
0.0
 46
0.0
 71
     5
 72
     1
  1
\A1;680
 73
     1
 44
1.0
  0
POINT
  5
10078
330
1006F
100
AcDbEntity
  8
DEFPOINTS
 62
     0
100
AcDbPoint
 10
0.0
 20
-11.35401873010073
 30
0.0
  0
POINT
  5
10079
330
1006F
100
AcDbEntity
  8
DEFPOINTS
 62
     0
100
AcDbPoint
 10
679.6480257785911
 20
-11.35401873010073
 30
0.0
  0
POINT
  5
1007A
330
1006F
100
AcDbEntity
  8
DEFPOINTS
 62
     0
100
AcDbPoint
 10
679.6480257785911
 20
-158.8969741804522
 30
0.0
  0
ENDBLK
  5
10071
330
1006F
100
AcDbEntity
  8
0
100
AcDbBlockEnd
  0
BLOCK
  5
10084
330
10083
100
AcDbEntity
  8
0
100
AcDbBlockBegin
  2
*D3
 70
     1
 10
0.0
 20
0.0
 30
0.0
  3
*D3
  1
*D3
  0
LINE
  5
10086
330
10083
100
AcDbEntity
  8
0
  6
ByBlock
 62
     0
370
    -2
100
AcDbLine
 10
115.9361006697163
 20
81.25663148398917
 30
0.0
 11
115.9361006697163
 21
139.7998029461077
 31
0.0
  0
LINE
  5
10087
330
10083
100
AcDbEntity
  8
0
  6
ByBlock
 62
     0
370
    -2
100
AcDbLine
 10
563.7088944117108
 20
81.25663148398917
 30
0.0
 11
563.7088944117108
 21
139.7998029461077
 31
0.0
  0
LINE
  5
10088
330
10083
100
AcDbEntity
  8
0
  6
ByBlock
 62
     0
370
    -2
100
AcDbLine
 10
125.9361006697163
 20
139.6198029461077
 30
0.0
 11
553.7088944117108
 21
139.6198029461077
 31
0.0
  0
SOLID
  5
10089
330
10083
100
AcDbEntity
  8
0
 62
     0
100
AcDbTrace
 10
125.9361006697163
 20
141.2864696127744
 30
0.0
 11
125.9361006697163
 21
137.9531362794411
 31
0.0
 12
115.9361006697163
 22
139.6198029461077
 32
0.0
 13
115.9361006697163
 23
139.6198029461077
 33
0.0
  0
SOLID
  5
1008A
330
10083
100
AcDbEntity
  8
0
 62
     0
100
AcDbTrace
 10
553.7088944117108
 20
137.9531362794411
 30
0.0
 11
553.7088944117108
 21
141.2864696127744
 31
0.0
 12
563.7088944117108
 22
139.6198029461077
 32
0.0
 13
563.7088944117108
 23
139.6198029461077
 33
0.0
  0
MTEXT
  5
1008B
330
10083
100
AcDbEntity
  8
0
  6
ByBlock
 62
     0
100
AcDbMText
 10
339.8224975407136
 20
152.1198029461077
 30
0.0
 40
15.0
 41
0.0
 46
0.0
 71
     5
 72
     1
  1
\A1;450
 73
     1
 44
1.0
  0
POINT
  5
1008C
330
10083
100
AcDbEntity
  8
DEFPOINTS
 62
     0
100
AcDbPoint
 10
115.9361006697163
 20
76.25663148398917
 30
0.0
  0
POINT
  5
1008D
330
10083
100
AcDbEntity
  8
DEFPOINTS
 62
     0
100
AcDbPoint
 10
563.7088944117108
 20
76.25663148398917
 30
0.0
  0
POINT
  5
1008E
330
10083
100
AcDbEntity
  8
DEFPOINTS
 62
     0
100
AcDbPoint
 10
563.7088944117108
 20
139.6198029461077
 30
0.0
  0
ENDBLK
  5
10085
330
10083
100
AcDbEntity
  8
0
100
AcDbBlockEnd
  0
BLOCK
  5
10094
330
10093
100
AcDbEntity
  8
0
100
AcDbBlockBegin
  2
*D4
 70
     1
 10
0.0
 20
0.0
 30
0.0
  3
*D4
  1
*D4
  0
LINE
  5
10096
330
10093
100
AcDbEntity
  8
0
  6
ByBlock
 62
     0
370
    -2
100
AcDbLine
 10
1363.673094719122
 20
1404.498183447393
 30
0.0
 11
1363.673094719122
 21
1385.085915757463
 31
0.0
  0
LINE
  5
10097
330
10093
100
AcDbEntity
  8
0
  6
ByBlock
 62
     0
370
    -2
100
AcDbLine
 10
1491.616458327539
 20
1404.499058177493
 30
0.0
 11
1491.616458327539
 21
1385.085915757463
 31
0.0
  0
LINE
  5
10098
330
10093
100
AcDbEntity
  8
0
  6
ByBlock
 62
     0
370
    -2
100
AcDbLine
 10
1373.673094719122
 20
1385.265915757463
 30
0.0
 11
1481.616458327539
 21
1385.265915757463
 31
0.0
  0
SOLID
  5
10099
330
10093
100
AcDbEntity
  8
0
 62
     0
100
AcDbTrace
 10
1373.673094719122
 20
1386.93258242413
 30
0.0
 11
1373.673094719122
 21
1383.599249090796
 31
0.0
 12
1363.673094719122
 22
1385.265915757463
 32
0.0
 13
1363.673094719122
 23
1385.265915757463
 33
0.0
  0
SOLID
  5
1009A
330
10093
100
AcDbEntity
  8
0
 62
     0
100
AcDbTrace
 10
1481.616458327539
 20
1383.599249090796
 30
0.0
 11
1481.616458327539
 21
1386.93258242413
 31
0.0
 12
1491.616458327539
 22
1385.265915757463
 32
0.0
 13
1491.616458327539
 23
1385.265915757463
 33
0.0
  0
MTEXT
  5
1009B
330
10093
100
AcDbEntity
  8
0
  6
ByBlock
 62
     0
100
AcDbMText
 10
1427.64477652333
 20
1347.450915757463
 30
0.0
 40
25.0
 41
0.0
 46
0.0
 71
     5
 72
     1
  1
\A1;128.0073
 73
     1
 44
1.0
  0
POINT
  5
1009C
330
10093
100
AcDbEntity
  8
DEFPOINTS
 62
     0
100
AcDbPoint
 10
1363.673094719122
 20
1404.560683447393
 30
0.0
  0
POINT
  5
1009D
330
10093
100
AcDbEntity
  8
DEFPOINTS
 62
     0
100
AcDbPoint
 10
1491.616458327539
 20
1404.561558177493
 30
0.0
  0
POINT
  5
1009E
330
10093
100
AcDbEntity
  8
DEFPOINTS
 62
     0
100
AcDbPoint
 10
1491.616458327539
 20
1385.265915757463
 30
0.0
  0
ENDBLK
  5
10095
330
10093
100
AcDbEntity
  8
0
100
AcDbBlockEnd
  0
BLOCK
  5
100A3
330
100A2
100
AcDbEntity
  8
0
100
AcDbBlockBegin
  2
*D5
 70
     1
 10
0.0
 20
0.0
 30
0.0
  3
*D5
  1
*D5
  0
LINE
  5
100A5
330
100A2
100
AcDbEntity
  8
0
  6
ByBlock
 62
     0
370
    -2
100
AcDbLine
 10
1505.962733893584
 20
1588.973014783623
 30
0.0
 11
1605.812926059329
 21
1588.973014783623
 31
0.0
  0
LINE
  5
100A6
330
100A2
100
AcDbEntity
  8
0
  6
ByBlock
 62
     0
370
    -2
100
AcDbLine
 10
1505.962733893584
 20
1470.794916932239
 30
0.0
 11
1605.812926059329
 21
1470.794916932239
 31
0.0
  0
LINE
  5
100A7
330
100A2
100
AcDbEntity
  8
0
  6
ByBlock
 62
     0
370
    -2
100
AcDbLine
 10
1605.632926059329
 20
1578.973014783623
 30
0.0
 11
1605.632926059329
 21
1549.883965857931
 31
0.0
  0
LINE
  5
100A8
330
100A2
100
AcDbEntity
  8
0
  6
ByBlock
 62
     0
370
    -2
100
AcDbLine
 10
1605.632926059329
 20
1480.794916932239
 30
0.0
 11
1605.632926059329
 21
1509.883965857931
 31
0.0
  0
SOLID
  5
100A9
330
100A2
100
AcDbEntity
  8
0
 62
     0
100
AcDbTrace
 10
1607.299592725996
 20
1578.973014783623
 30
0.0
 11
1603.966259392663
 21
1578.973014783623
 31
0.0
 12
1605.632926059329
 22
1588.973014783623
 32
0.0
 13
1605.632926059329
 23
1588.973014783623
 33
0.0
  0
SOLID
  5
100AA
330
100A2
100
AcDbEntity
  8
0
 62
     0
100
AcDbTrace
 10
1603.966259392663
 20
1480.794916932239
 30
0.0
 11
1607.299592725996
 21
1480.794916932239
 31
0.0
 12
1605.632926059329
 22
1470.794916932239
 32
0.0
 13
1605.632926059329
 23
1470.794916932239
 33
0.0
  0
MTEXT
  5
100AB
330
100A2
100
AcDbEntity
  8
0
  6
ByBlock
 62
     0
100
AcDbMText
 10
1605.632926059329
 20
1529.883965857931
 30
0.0
 40
15.0
 41
0.0
 46
0.0
 71
     5
 72
     1
  1
\A1;112
 11
6.123233995736766E-17
 21
1.0
 31
0.0
 73
     1
 44
1.0
  0
POINT
  5
100AC
330
100A2
100
AcDbEntity
  8
DEFPOINTS
 62
     0
100
AcDbPoint
 10
1505.900233893584
 20
1588.973014783623
 30
0.0
  0
POINT
  5
100AD
330
100A2
100
AcDbEntity
  8
DEFPOINTS
 62
     0
100
AcDbPoint
 10
1505.900233893584
 20
1470.794916932239
 30
0.0
  0
POINT
  5
100B1
330
100A2
100
AcDbEntity
  8
DEFPOINTS
 62
     0
100
AcDbPoint
 10
1605.632926059329
 20
1470.794916932239
 30
0.0
  0
ENDBLK
  5
100A4
330
100A2
100
AcDbEntity
  8
0
100
AcDbBlockEnd
  0
BLOCK
  5
100B6
330
100B5
100
AcDbEntity
  8
0
100
AcDbBlockBegin
  2
*D6
 70
     1
 10
0.0
 20
0.0
 30
0.0
  3
*D6
  1
*D6
  0
LINE
  5
100B8
330
100B5
100
AcDbEntity
  8
0
  6
ByBlock
 62
     0
370
    -2
100
AcDbLine
 10
1428.429334870085
 20
-14.01341830654155
 30
0.0
 11
1428.429334870085
 21
-162.7283136164937
 31
0.0
  0
LINE
  5
100B9
330
100B5
100
AcDbEntity
  8
0
  6
ByBlock
 62
     0
370
    -2
100
AcDbLine
 10
1563.359439160455
 20
-14.01341830654155
 30
0.0
 11
1563.359439160455
 21
-162.7283136164937
 31
0.0
  0
LINE
  5
100BA
330
100B5
100
AcDbEntity
  8
0
  6
ByBlock
 62
     0
370
    -2
100
AcDbLine
 10
1438.429334870085
 20
-162.5483136164937
 30
0.0
 11
1553.359439160455
 21
-162.5483136164937
 31
0.0
  0
SOLID
  5
100BB
330
100B5
100
AcDbEntity
  8
0
 62
     0
100
AcDbTrace
 10
1438.429334870085
 20
-160.881646949827
 30
0.0
 11
1438.429334870085
 21
-164.2149802831603
 31
0.0
 12
1428.429334870085
 22
-162.5483136164937
 32
0.0
 13
1428.429334870085
 23
-162.5483136164937
 33
0.0
  0
SOLID
  5
100BC
330
100B5
100
AcDbEntity
  8
0
 62
     0
100
AcDbTrace
 10
1553.359439160455
 20
-164.2149802831603
 30
0.0
 11
1553.359439160455
 21
-160.881646949827
 31
0.0
 12
1563.359439160455
 22
-162.5483136164937
 32
0.0
 13
1563.359439160455
 23
-162.5483136164937
 33
0.0
  0
MTEXT
  5
100BD
330
100B5
100
AcDbEntity
  8
0
  6
ByBlock
 62
     0
100
AcDbMText
 10
1495.89438701527
 20
-175.0483136164937
 30
0.0
 40
15.0
 41
0.0
 46
0.0
 71
     5
 72
     1
  1
\A1;135
 73
     1
 44
1.0
  0
POINT
  5
100BE
330
100B5
100
AcDbEntity
  8
DEFPOINTS
 62
     0
100
AcDbPoint
 10
1428.429334870085
 20
-13.95091830654155
 30
0.0
  0
POINT
  5
100BF
330
100B5
100
AcDbEntity
  8
DEFPOINTS
 62
     0
100
AcDbPoint
 10
1563.359439160455
 20
-13.95091830654155
 30
0.0
  0
POINT
  5
100C0
330
100B5
100
AcDbEntity
  8
DEFPOINTS
 62
     0
100
AcDbPoint
 10
1563.359439160455
 20
-162.5483136164937
 30
0.0
  0
ENDBLK
  5
100B7
330
100B5
100
AcDbEntity
  8
0
100
AcDbBlockEnd
  0
BLOCK
  5
100D7
330
100D6
100
AcDbEntity
  8
0
100
AcDbBlockBegin
  2
*D7
 70
     1
 10
0.0
 20
0.0
 30
0.0
  3
*D7
  1
*D7
  0
LINE
  5
100D9
330
100D6
100
AcDbEntity
  8
0
  6
ByBlock
 62
     0
370
    -2
100
AcDbLine
 10
1140.795092966148
 20
1586.760565562671
 30
0.0
 11
1606.681250113371
 21
1586.760565562671
 31
0.0
  0
LINE
  5
100DA
330
100D6
100
AcDbEntity
  8
0
  6
ByBlock
 62
     0
370
    -2
100
AcDbLine
 10
1140.795092966148
 20
1474.734330386093
 30
0.0
 11
1606.681250113371
 21
1474.734330386093
 31
0.0
  0
LINE
  5
100DB
330
100D6
100
AcDbEntity
  8
0
  6
ByBlock
 62
     0
370
    -2
100
AcDbLine
 10
1606.501250113371
 20
1576.760565562671
 30
0.0
 11
1606.501250113371
 21
1543.337447974382
 31
0.0
  0
LINE
  5
100DC
330
100D6
100
AcDbEntity
  8
0
  6
ByBlock
 62
     0
370
    -2
100
AcDbLine
 10
1606.501250113371
 20
1484.734330386093
 30
0.0
 11
1606.501250113371
 21
1518.157447974382
 31
0.0
  0
SOLID
  5
100DD
330
100D6
100
AcDbEntity
  8
0
 62
     0
100
AcDbTrace
 10
1608.167916780038
 20
1576.760565562671
 30
0.0
 11
1604.834583446704
 21
1576.760565562671
 31
0.0
 12
1606.501250113371
 22
1586.760565562671
 32
0.0
 13
1606.501250113371
 23
1586.760565562671
 33
0.0
  0
SOLID
  5
100DE
330
100D6
100
AcDbEntity
  8
0
 62
     0
100
AcDbTrace
 10
1604.834583446704
 20
1484.734330386093
 30
0.0
 11
1608.167916780038
 21
1484.734330386093
 31
0.0
 12
1606.501250113371
 22
1474.734330386093
 32
0.0
 13
1606.501250113371
 23
1474.734330386093
 33
0.0
  0
MTEXT
  5
100DF
330
100D6
100
AcDbEntity
  8
0
  6
ByBlock
 62
     0
100
AcDbMText
 10
1606.501250113371
 20
1530.747447974382
 30
0.0
 40
25.0
 41
0.0
 46
0.0
 71
     5
 72
     1
  1
\A1;112.0822
 73
     1
 44
1.0
  0
POINT
  5
100E0
330
100D6
100
AcDbEntity
  8
DEFPOINTS
 62
     0
100
AcDbPoint
 10
1140.732592966148
 20
1586.760565562671
 30
0.0
  0
POINT
  5
100E1
330
100D6
100
AcDbEntity
  8
DEFPOINTS
 62
     0
100
AcDbPoint
 10
1140.732592966148
 20
1474.734330386093
 30
0.0
  0
POINT
  5
100E2
330
100D6
100
AcDbEntity
  8
DEFPOINTS
 62
     0
100
AcDbPoint
 10
1606.501250113371
 20
1474.734330386093
 30
0.0
  0
ENDBLK
  5
100D8
330
100D6
100
AcDbEntity
  8
0
100
AcDbBlockEnd
  0
BLOCK
  5
10113
330
100E3
100
AcDbEntity
  8
0
100
AcDbBlockBegin
  2
vista
 70
     0
 10
0.0
 20
0.0
 30
0.0
  3
vista
  1
vista
  0
LWPOLYLINE
  5
100E4
330
100E3
100
AcDbEntity
  8
2
 62
     7
100
AcDbPolyline
 90
        2
 70
     0
 43
0.0
 10
1367.601788183328
 20
1520.717197425446
 10
1372.730803605046
 20
1489.136294416812
  0
LWPOLYLINE
  5
100E5
330
100E3
100
AcDbEntity
  8
2
 62
     7
100
AcDbPolyline
 90
        2
 70
     0
 43
0.0
 10
1482.285690004863
 20
1520.717197425446
 10
1477.156752797921
 20
1489.136294416812
  0
LWPOLYLINE
  5
100E6
330
100E3
100
AcDbEntity
  8
2
 62
     7
100
AcDbPolyline
 90
        2
 70
     0
 43
0.0
 10
1424.943778004634
 20
1468.825845202493
 10
1424.943778004634
 20
1520.717197425446
  0
LWPOLYLINE
  5
100E7
330
100E3
100
AcDbEntity
  8
2
 62
     7
100
AcDbPolyline
 90
        2
 70
     0
 43
0.0
 10
1408.077482061702
 20
1468.825845202493
 10
1408.077482061702
 20
1520.717197425446
  0
LWPOLYLINE
  5
100E8
330
100E3
100
AcDbEntity
  8
2
 62
     7
100
AcDbPolyline
 90
        2
 70
     0
 43
0.0
 10
1391.211248060672
 20
1468.825845202493
 10
1391.211248060672
 20
1520.717197425446
  0
LWPOLYLINE
  5
100E9
330
100E3
100
AcDbEntity
  8
2
 62
     7
100
AcDbPolyline
 90
        2
 70
     0
 43
0.0
 10
1374.34495211774
 20
1483.651301765565
 10
1374.34495211774
 20
1520.717197425446
  0
LWPOLYLINE
  5
100EA
330
100E3
100
AcDbEntity
  8
2
 62
     7
100
AcDbPolyline
 90
        2
 70
     0
 43
0.0
 10
1441.810058855789
 20
1468.825845202493
 10
1441.810058855789
 20
1520.717197425446
  0
SPLINE
  5
100EB
330
100E3
100
AcDbEntity
  8
2
 62
     7
100
AcDbSpline
210
0.0
220
0.0
230
1.0
 70
     8
 71
     3
 72
     8
 73
     4
 74
     0
 42
0.000000001
 43
0.0000001
 40
0.0
 40
0.0
 40
0.0
 40
0.0
 40
1.0
 40
1.0
 40
1.0
 40
1.0
 10
1452.151125182413
 20
1468.825830373182
 30
0.0
 10
1464.639123589321
 20
1468.825830373182
 30
0.0
 10
1475.259043177038
 20
1477.451719368493
 30
0.0
 10
1477.156713428067
 20
1489.136288117635
 30
0.0
  0
LWPOLYLINE
  5
100EC
330
100E3
100
AcDbEntity
  8
2
 62
     7
100
AcDbPolyline
 90
        2
 70
     0
 43
0.0
 10
1458.67624587546
 20
1468.825845202493
 10
1458.67624587546
 20
1520.717197425446
  0
LWPOLYLINE
  5
100ED
330
100E3
100
AcDbEntity
  8
2
 62
     7
100
AcDbPolyline
 90
        2
 70
     0
 43
0.0
 10
1475.542541818392
 20
1483.651331161723
 10
1475.542541818392
 20
1520.717197425446
  0
LWPOLYLINE
  5
100EE
330
100E3
100
AcDbEntity
  8
2
 62
     7
100
AcDbPolyline
 90
        2
 70
     0
 43
0.0
 10
1373.883846749202
 20
1484.792424242978
 10
1476.003631176524
 20
1484.792424242978
  0
SPLINE
  5
100EF
330
100E3
100
AcDbEntity
  8
2
 62
     7
100
AcDbSpline
210
0.0
220
0.0
230
1.0
 70
     8
 71
     3
 72
     8
 73
     4
 74
     0
 42
0.000000001
 43
0.0000001
 40
0.0
 40
0.0
 40
0.0
 40
0.0
 40
1.0
 40
1.0
 40
1.0
 40
1.0
 10
1372.730779851901
 20
1489.136293366949
 30
0.0
 10
1374.628447740739
 20
1477.451721993149
 30
0.0
 10
1385.248368772017
 20
1468.825830373182
 30
0.0
 10
1397.736369409883
 20
1468.825830373182
 30
0.0
  0
LWPOLYLINE
  5
100F0
330
100E3
100
AcDbEntity
  8
2
 62
     7
100
AcDbPolyline
 90
        2
 70
     0
 43
0.0
 10
1370.843140514641
 20
1500.759003283463
 10
1479.044400271617
 20
1500.759003283463
  0
LWPOLYLINE
  5
100F1
330
100E3
100
AcDbEntity
  8
2
 62
     7
100
AcDbPolyline
 90
        2
 70
     0
 43
0.0
 10
1397.736368622486
 20
1468.825845202493
 10
1452.151125182413
 20
1468.825845202493
  0
LWPOLYLINE
  5
100F2
330
100E3
100
AcDbEntity
  8
2
 62
     7
100
AcDbPolyline
 90
        2
 70
     0
 43
0.0
 10
1357.478718247944
 20
1544.667080684252
 10
1492.408822538315
 20
1544.667080684252
  0
LWPOLYLINE
  5
100F3
330
100E3
100
AcDbEntity
  8
2
 62
     7
100
AcDbPolyline
 90
        2
 70
     0
 43
0.0
 10
1357.478718247944
 20
1520.717197425446
 10
1492.408822538315
 20
1520.717197425446
  0
SPLINE
  5
100F4
330
100E3
100
AcDbEntity
  8
2
 62
     7
100
AcDbSpline
210
0.0
220
0.0
230
1.0
 70
     8
 71
     3
 72
     8
 73
     4
 74
     0
 42
0.000000001
 43
0.0000001
 40
0.0
 40
0.0
 40
0.0
 40
0.0
 40
1.0
 40
1.0
 40
1.0
 40
1.0
 10
1479.759092641528
 20
1564.625289655547
 30
0.0
 10
1479.759092641528
 20
1567.801239867406
 30
0.0
 10
1478.426360236164
 20
1570.847111295528
 30
0.0
 10
1476.054081281738
 20
1573.09284727277
 30
0.0
  0
SPLINE
  5
100F5
330
100E3
100
AcDbEntity
  8
2
 62
     7
100
AcDbSpline
210
0.0
220
0.0
230
1.0
 70
     8
 71
     3
 72
     8
 73
     4
 74
     0
 42
0.000000001
 43
0.0000001
 40
0.0
 40
0.0
 40
0.0
 40
0.0
 40
1.0
 40
1.0
 40
1.0
 40
1.0
 10
1476.054081281738
 20
1573.09284727277
 30
0.0
 10
1473.681802589778
 20
1575.338583118779
 30
0.0
 10
1470.46430169688
 20
1576.600224198376
 30
0.0
 10
1467.109393059529
 20
1576.60022393591
 30
0.0
  0
LWPOLYLINE
  5
100F6
330
100E3
100
AcDbEntity
  8
2
 62
     7
100
AcDbPolyline
 90
        2
 70
     0
 43
0.0
 10
1357.478718247944
 20
1544.667080684252
 10
1357.478718247944
 20
1520.717197425446
  0
LWPOLYLINE
  5
100F7
330
100E3
100
AcDbEntity
  8
2
 62
     7
100
AcDbPolyline
 90
        2
 70
     0
 43
0.0
 10
1368.250077258408
 20
1516.72558193025
 10
1481.637416677724
 20
1516.72558193025
  0
SPLINE
  5
100F8
330
100E3
100
AcDbEntity
  8
2
 62
     7
100
AcDbSpline
210
0.0
220
0.0
230
1.0
 70
     8
 71
     3
 72
     8
 73
     4
 74
     0
 42
0.000000001
 43
0.0000001
 40
0.0
 40
0.0
 40
0.0
 40
0.0
 40
1.0
 40
1.0
 40
1.0
 40
1.0
 10
1408.077513163886
 20
1558.323047346821
 30
0.0
 10
1408.077506602244
 20
1552.738904212672
 30
0.0
 10
1411.159240554955
 20
1547.560516763564
 30
0.0
 10
1416.204395563818
 20
1544.667050894396
 30
0.0
  0
SPLINE
  5
100F9
330
100E3
100
AcDbEntity
  8
2
 62
     7
100
AcDbSpline
210
0.0
220
0.0
230
1.0
 70
     8
 71
     3
 72
     8
 73
     4
 74
     0
 42
0.000000001
 43
0.0000001
 40
0.0
 40
0.0
 40
0.0
 40
0.0
 40
1.0
 40
1.0
 40
1.0
 40
1.0
 10
1435.35321520014
 20
1561.357758733772
 30
0.0
 10
1435.35321520014
 20
1564.878315767738
 30
0.0
 10
1433.36918770014
 20
1568.131444803363
 30
0.0
 10
1430.148496668003
 20
1569.891723189113
 30
0.0
  0
SPLINE
  5
100FA
330
100E3
100
AcDbEntity
  8
2
 62
     7
100
AcDbSpline
210
0.0
220
0.0
230
1.0
 70
     8
 71
     3
 72
     8
 73
     4
 74
     0
 42
0.000000001
 43
0.0000001
 40
0.0
 40
0.0
 40
0.0
 40
0.0
 40
1.0
 40
1.0
 40
1.0
 40
1.0
 10
1430.148496668003
 20
1569.891723189113
 30
0.0
 10
1426.927805504634
 20
1571.652001706096
 30
0.0
 10
1422.959750504634
 20
1571.652001706096
 30
0.0
 10
1419.739059734964
 20
1569.891723189113
 30
0.0
  0
SPLINE
  5
100FB
330
100E3
100
AcDbEntity
  8
2
 62
     7
100
AcDbSpline
210
0.0
220
0.0
230
1.0
 70
     8
 71
     3
 72
     8
 73
     4
 74
     0
 42
0.000000001
 43
0.0000001
 40
0.0
 40
0.0
 40
0.0
 40
0.0
 40
1.0
 40
1.0
 40
1.0
 40
1.0
 10
1419.739059734964
 20
1569.891723189113
 30
0.0
 10
1416.518368702827
 20
1568.131444803363
 30
0.0
 10
1414.534341202827
 20
1564.878315767738
 30
0.0
 10
1414.534341202827
 20
1561.357758733772
 30
0.0
  0
SPLINE
  5
100FC
330
100E3
100
AcDbEntity
  8
2
 62
     7
100
AcDbSpline
210
0.0
220
0.0
230
1.0
 70
     8
 71
     3
 72
     8
 73
     4
 74
     0
 42
0.000000001
 43
0.0000001
 40
0.0
 40
0.0
 40
0.0
 40
0.0
 40
1.0
 40
1.0
 40
1.0
 40
1.0
 10
1414.534341202827
 20
1561.357758733772
 30
0.0
 10
1414.534341202827
 20
1557.837201831039
 30
0.0
 10
1416.518368702827
 20
1554.584072795414
 30
0.0
 10
1419.739059734964
 20
1552.823794278431
 30
0.0
  0
SPLINE
  5
100FD
330
100E3
100
AcDbEntity
  8
2
 62
     7
100
AcDbSpline
210
0.0
220
0.0
230
1.0
 70
     8
 71
     3
 72
     8
 73
     4
 74
     0
 42
0.000000001
 43
0.0000001
 40
0.0
 40
0.0
 40
0.0
 40
0.0
 40
1.0
 40
1.0
 40
1.0
 40
1.0
 10
1419.739059734964
 20
1552.823794278431
 30
0.0
 10
1422.959750898333
 20
1551.063515761448
 30
0.0
 10
1426.927805898333
 20
1551.063515761448
 30
0.0
 10
1430.148496668003
 20
1552.823794278431
 30
0.0
  0
SPLINE
  5
100FE
330
100E3
100
AcDbEntity
  8
2
 62
     7
100
AcDbSpline
210
0.0
220
0.0
230
1.0
 70
     8
 71
     3
 72
     8
 73
     4
 74
     0
 42
0.000000001
 43
0.0000001
 40
0.0
 40
0.0
 40
0.0
 40
0.0
 40
1.0
 40
1.0
 40
1.0
 40
1.0
 10
1430.148496668003
 20
1552.823794278431
 30
0.0
 10
1433.36918770014
 20
1554.584072795414
 30
0.0
 10
1435.35321520014
 20
1557.837201831039
 30
0.0
 10
1435.35321520014
 20
1561.357758733772
 30
0.0
  0
LWPOLYLINE
  5
100FF
330
100E3
100
AcDbEntity
  8
2
 62
     7
100
AcDbPolyline
 90
        2
 70
     0
 43
0.0
 10
1382.778100089206
 20
1576.600238371524
 10
1467.109393846926
 20
1576.600238371524
  0
SPLINE
  5
10100
330
100E3
100
AcDbEntity
  8
2
 62
     7
100
AcDbSpline
210
0.0
220
0.0
230
1.0
 70
     8
 71
     3
 72
     8
 73
     4
 74
     0
 42
0.000000001
 43
0.0000001
 40
0.0
 40
0.0
 40
0.0
 40
0.0
 40
1.0
 40
1.0
 40
1.0
 40
1.0
 10
1382.778099301809
 20
1576.60022393591
 30
0.0
 10
1379.423190401992
 20
1576.60022393591
 30
0.0
 10
1376.205690296491
 20
1575.338582462615
 30
0.0
 10
1373.833411604531
 20
1573.092846091674
 30
0.0
  0
SPLINE
  5
10101
330
100E3
100
AcDbEntity
  8
2
 62
     7
100
AcDbSpline
210
0.0
220
0.0
230
1.0
 70
     8
 71
     3
 72
     8
 73
     4
 74
     0
 42
0.000000001
 43
0.0000001
 40
0.0
 40
0.0
 40
0.0
 40
0.0
 40
1.0
 40
1.0
 40
1.0
 40
1.0
 10
1373.833411604531
 20
1573.092846091674
 30
0.0
 10
1371.461132912571
 20
1570.847110114433
 30
0.0
 10
1370.128401032139
 20
1567.801238686311
 30
0.0
 10
1370.128401294604
 20
1564.625288605684
 30
0.0
  0
LWPOLYLINE
  5
10102
330
100E3
100
AcDbEntity
  8
2
 62
     7
100
AcDbPolyline
 90
        2
 70
     0
 43
0.0
 10
1394.038737010524
 20
1586.978515115291
 10
1455.848756925609
 20
1586.978515115291
  0
SPLINE
  5
10103
330
100E3
100
AcDbEntity
  8
2
 62
     7
100
AcDbSpline
210
0.0
220
0.0
230
1.0
 70
     8
 71
     3
 72
     8
 73
     4
 74
     0
 42
0.000000001
 43
0.0000001
 40
0.0
 40
0.0
 40
0.0
 40
0.0
 40
1.0
 40
1.0
 40
1.0
 40
1.0
 10
1394.038736748058
 20
1586.978500285979
 30
0.0
 10
1392.920433693964
 20
1586.978500285979
 30
0.0
 10
1391.84793379003
 20
1586.557952822004
 30
0.0
 10
1391.057174138555
 20
1585.809374425389
 30
0.0
  0
SPLINE
  5
10104
330
100E3
100
AcDbEntity
  8
2
 62
     7
100
AcDbSpline
210
0.0
220
0.0
230
1.0
 70
     8
 71
     3
 72
     8
 73
     4
 74
     0
 42
0.000000001
 43
0.0000001
 40
0.0
 40
0.0
 40
0.0
 40
0.0
 40
1.0
 40
1.0
 40
1.0
 40
1.0
 10
1391.057174138555
 20
1585.809374425389
 30
0.0
 10
1390.266414749545
 20
1585.060795635076
 30
0.0
 10
1389.822170701912
 20
1584.045504984058
 30
0.0
 10
1389.822170701912
 20
1582.986855000926
 30
0.0
  0
LWPOLYLINE
  5
10105
330
100E3
100
AcDbEntity
  8
2
 62
     7
100
AcDbPolyline
 90
        4
 70
     1
 43
0.0
 10
1435.35321520014
 20
1561.357758733772
 10
1435.35321520014
 20
1561.357758733772
 10
1435.35321520014
 20
1561.357758733772
 10
1435.35321520014
 20
1561.357758733772
  0
LWPOLYLINE
  5
10106
330
100E3
100
AcDbEntity
  8
2
 62
     7
100
AcDbPolyline
 90
        2
 70
     0
 43
0.0
 10
1370.128385809129
 20
1544.667080684252
 10
1370.128385809129
 20
1564.625289655547
  0
LWPOLYLINE
  5
10107
330
100E3
100
AcDbEntity
  8
2
 62
     7
100
AcDbPolyline
 90
        2
 70
     0
 43
0.0
 10
1389.822170701912
 20
1576.600238371524
 10
1389.822170701912
 20
1582.986855394625
  0
LWPOLYLINE
  5
10108
330
100E3
100
AcDbEntity
  8
2
 62
     7
100
AcDbPolyline
 90
        2
 70
     0
 43
0.0
 10
1408.077482061702
 20
1558.323029367921
 10
1408.077482061702
 20
1576.600238371524
  0
LWPOLYLINE
  5
10109
330
100E3
100
AcDbEntity
  8
2
 62
     7
100
AcDbPolyline
 90
        2
 70
     0
 43
0.0
 10
1422.4137916843
 20
1586.978515115291
 10
1422.4137916843
 20
1598.953463831267
  0
SPLINE
  5
1010A
330
100E3
100
AcDbEntity
  8
2
 62
     7
100
AcDbSpline
210
0.0
220
0.0
230
1.0
 70
     8
 71
     3
 72
     8
 73
     4
 74
     0
 42
0.000000001
 43
0.0000001
 40
0.0
 40
0.0
 40
0.0
 40
0.0
 40
1.0
 40
1.0
 40
1.0
 40
1.0
 10
1433.683161626546
 20
1544.667051288095
 30
0.0
 10
1438.728316635409
 20
1547.560517550961
 30
0.0
 10
1441.810050194421
 20
1552.738905393767
 30
0.0
 10
1441.810043107848
 20
1558.323048396684
 30
0.0
  0
LWPOLYLINE
  5
1010B
330
100E3
100
AcDbEntity
  8
2
 62
     7
100
AcDbPolyline
 90
        2
 70
     0
 43
0.0
 10
1427.473749233191
 20
1586.978515115291
 10
1427.473749233191
 20
1598.953463831267
  0
SPLINE
  5
1010C
330
100E3
100
AcDbEntity
  8
2
 62
     7
100
AcDbSpline
210
0.0
220
0.0
230
1.0
 70
     8
 71
     3
 72
     8
 73
     4
 74
     0
 42
0.000000001
 43
0.0000001
 40
0.0
 40
0.0
 40
0.0
 40
0.0
 40
1.0
 40
1.0
 40
1.0
 40
1.0
 10
1460.065322840522
 20
1582.986855394625
 30
0.0
 10
1460.065322840522
 20
1584.045505508989
 30
0.0
 10
1459.621078792889
 20
1585.060796028774
 30
0.0
 10
1458.830319535112
 20
1585.809374425389
 30
0.0
  0
SPLINE
  5
1010D
330
100E3
100
AcDbEntity
  8
2
 62
     7
100
AcDbSpline
210
0.0
220
0.0
230
1.0
 70
     8
 71
     3
 72
     8
 73
     4
 74
     0
 42
0.000000001
 43
0.0000001
 40
0.0
 40
0.0
 40
0.0
 40
0.0
 40
1.0
 40
1.0
 40
1.0
 40
1.0
 10
1458.830319535112
 20
1585.809374425389
 30
0.0
 10
1458.039559752404
 20
1586.557953084469
 30
0.0
 10
1456.96705984847
 20
1586.978500285979
 30
0.0
 10
1455.848756925609
 20
1586.978500285979
 30
0.0
  0
LWPOLYLINE
  5
1010E
330
100E3
100
AcDbEntity
  8
2
 62
     7
100
AcDbPolyline
 90
        2
 70
     0
 43
0.0
 10
1441.810058855789
 20
1558.323029367921
 10
1441.810058855789
 20
1576.600238371524
  0
LWPOLYLINE
  5
1010F
330
100E3
100
AcDbEntity
  8
2
 62
     7
100
AcDbPolyline
 90
        2
 70
     0
 43
0.0
 10
1460.065260373687
 20
1576.600238371524
 10
1460.065260373687
 20
1582.986855394625
  0
LWPOLYLINE
  5
10110
330
100E3
100
AcDbEntity
  8
2
 62
     7
100
AcDbPolyline
 90
        2
 70
     0
 43
0.0
 10
1422.4137916843
 20
1598.953463831267
 10
1427.473749233191
 20
1598.953463831267
  0
LWPOLYLINE
  5
10111
330
100E3
100
AcDbEntity
  8
2
 62
     7
100
AcDbPolyline
 90
        2
 70
     0
 43
0.0
 10
1492.408822538315
 20
1544.667080684252
 10
1492.408822538315
 20
1520.717197425446
  0
LWPOLYLINE
  5
10112
330
100E3
100
AcDbEntity
  8
2
 62
     7
100
AcDbPolyline
 90
        2
 70
     0
 43
0.0
 10
1479.759170725071
 20
1544.667080684252
 10
1479.759170725071
 20
1564.625289655547
  0
ENDBLK
  5
10114
330
100E3
100
AcDbEntity
  8
0
100
AcDbBlockEnd
  0
BLOCK
  5
1011A
330
10119
100
AcDbEntity
  8
0
100
AcDbBlockBegin
  2
*D9
 70
     1
 10
0.0
 20
0.0
 30
0.0
  3
*D9
  1
*D9
  0
LINE
  5
1011C
330
10119
100
AcDbEntity
  8
0
  6
ByBlock
 62
     0
370
    -2
100
AcDbLine
 10
1496.76166825478
 20
40.12210140865614
 30
0.0
 11
1666.3646014315
 21
40.12210140865614
 31
0.0
  0
LINE
  5
1011D
330
10119
100
AcDbEntity
  8
0
  6
ByBlock
 62
     0
370
    -2
100
AcDbLine
 10
1496.761699291347
 20
-72.02280562721921
 30
0.0
 11
1666.3646014315
 21
-72.02280562721923
 31
0.0
  0
LINE
  5
1011E
330
10119
100
AcDbEntity
  8
0
  6
ByBlock
 62
     0
370
    -2
100
AcDbLine
 10
1666.1846014315
 20
30.12210140865614
 30
0.0
 11
1666.1846014315
 21
4.049647890718461
 31
0.0
  0
LINE
  5
1011F
330
10119
100
AcDbEntity
  8
0
  6
ByBlock
 62
     0
370
    -2
100
AcDbLine
 10
1666.1846014315
 20
-62.02280562721923
 30
0.0
 11
1666.1846014315
 21
-35.95035210928154
 31
0.0
  0
SOLID
  5
10120
330
10119
100
AcDbEntity
  8
0
 62
     0
100
AcDbTrace
 10
1667.851268098167
 20
30.12210140865614
 30
0.0
 11
1664.517934764833
 21
30.12210140865614
 31
0.0
 12
1666.1846014315
 22
40.12210140865614
 32
0.0
 13
1666.1846014315
 23
40.12210140865614
 33
0.0
  0
SOLID
  5
10121
330
10119
100
AcDbEntity
  8
0
 62
     0
100
AcDbTrace
 10
1664.517934764833
 20
-62.02280562721923
 30
0.0
 11
1667.851268098167
 21
-62.02280562721923
 31
0.0
 12
1666.1846014315
 22
-72.02280562721923
 32
0.0
 13
1666.1846014315
 23
-72.02280562721923
 33
0.0
  0
MTEXT
  5
10122
330
10119
100
AcDbEntity
  8
0
  6
ByBlock
 62
     0
100
AcDbMText
 10
1666.1846014315
 20
-15.95035210928155
 30
0.0
 40
15.0
 41
0.0
 46
0.0
 71
     5
 72
     1
  1
\A1;112
 11
6.123233995736766E-17
 21
1.0
 31
0.0
 73
     1
 44
1.0
  0
POINT
  5
10123
330
10119
100
AcDbEntity
  8
DEFPOINTS
 62
     0
100
AcDbPoint
 10
1496.69916825478
 20
40.12210140865614
 30
0.0
  0
POINT
  5
10124
330
10119
100
AcDbEntity
  8
DEFPOINTS
 62
     0
100
AcDbPoint
 10
1496.699199291347
 20
-72.02280562721921
 30
0.0
  0
POINT
  5
10126
330
10119
100
AcDbEntity
  8
DEFPOINTS
 62
     0
100
AcDbPoint
 10
1666.1846014315
 20
-72.02280562721923
 30
0.0
  0
ENDBLK
  5
1011B
330
10119
100
AcDbEntity
  8
0
100
AcDbBlockEnd
  0
BLOCK
  5
10182
330
10181
100
AcDbEntity
  8
0
100
AcDbBlockBegin
  2
*D10
 70
     1
 10
0.0
 20
0.0
 30
0.0
  3
*D10
  1
*D10
  0
LINE
  5
10184
330
10181
100
AcDbEntity
  8
0
  6
ByBlock
 62
     0
370
    -2
100
AcDbLine
 10
-0.0000000000000088
 20
-48.15762183073113
 30
0.0
 11
0.0
 21
-248.2187806854086
 31
0.0
  0
LINE
  5
10185
330
10181
100
AcDbEntity
  8
0
  6
ByBlock
 62
     0
370
    -2
100
AcDbLine
 10
1289.648025778591
 20
-11.41651873010062
 30
0.0
 11
1289.648025778591
 21
-248.2187806854086
 31
0.0
  0
LINE
  5
10186
330
10181
100
AcDbEntity
  8
0
  6
ByBlock
 62
     0
370
    -2
100
AcDbLine
 10
10.0
 20
-248.0387806854086
 30
0.0
 11
1279.648025778591
 21
-248.0387806854086
 31
0.0
  0
SOLID
  5
10187
330
10181
100
AcDbEntity
  8
0
 62
     0
100
AcDbTrace
 10
10.0
 20
-246.3721140187419
 30
0.0
 11
10.0
 21
-249.7054473520752
 31
0.0
 12
0.0
 22
-248.0387806854086
 32
0.0
 13
0.0
 23
-248.0387806854086
 33
0.0
  0
SOLID
  5
10188
330
10181
100
AcDbEntity
  8
0
 62
     0
100
AcDbTrace
 10
1279.648025778591
 20
-249.7054473520752
 30
0.0
 11
1279.648025778591
 21
-246.3721140187419
 31
0.0
 12
1289.648025778591
 22
-248.0387806854086
 32
0.0
 13
1289.648025778591
 23
-248.0387806854086
 33
0.0
  0
MTEXT
  5
10189
330
10181
100
AcDbEntity
  8
0
  6
ByBlock
 62
     0
100
AcDbMText
 10
644.8240128892955
 20
-260.5387806854085
 30
0.0
 40
15.0
 41
0.0
 46
0.0
 71
     5
 72
     1
  1
\A1;1290
 73
     1
 44
1.0
  0
POINT
  5
1018A
330
10181
100
AcDbEntity
  8
DEFPOINTS
 62
     0
100
AcDbPoint
 10
-0.0000000000000088
 20
-48.09512183073113
 30
0.0
  0
POINT
  5
1018B
330
10181
100
AcDbEntity
  8
DEFPOINTS
 62
     0
100
AcDbPoint
 10
1289.648025778591
 20
-11.35401873010062
 30
0.0
  0
POINT
  5
1018C
330
10181
100
AcDbEntity
  8
DEFPOINTS
 62
     0
100
AcDbPoint
 10
1289.648025778591
 20
-248.0387806854086
 30
0.0
  0
ENDBLK
  5
10183
330
10181
100
AcDbEntity
  8
0
100
AcDbBlockEnd
  0
BLOCK
  5
1022C
330
1022B
100
AcDbEntity
  8
0
100
AcDbBlockBegin
  2
*D11
 70
     1
 10
0.0
 20
0.0
 30
0.0
  3
*D11
  1
*D11
  0
LINE
  5
1022E
330
1022B
100
AcDbEntity
  8
0
  6
ByBlock
 62
     0
370
    -2
100
AcDbLine
 10
115.9361006697163
 20
103.2360105288199
 30
0.0
 11
115.9361006697163
 21
155.0408147569433
 31
0.0
  0
LINE
  5
1022F
330
1022B
100
AcDbEntity
  8
0
  6
ByBlock
 62
     0
370
    -2
100
AcDbLine
 10
1173.708894411711
 20
103.2318344702653
 30
0.0
 11
1173.708894411711
 21
155.0408147569433
 31
0.0
  0
LINE
  5
10230
330
1022B
100
AcDbEntity
  8
0
  6
ByBlock
 62
     0
370
    -2
100
AcDbLine
 10
125.9361006697163
 20
154.8608147569433
 30
0.0
 11
557.2324975407134
 21
154.8608147569433
 31
0.0
  0
LINE
  5
10231
330
1022B
100
AcDbEntity
  8
0
  6
ByBlock
 62
     0
370
    -2
100
AcDbLine
 10
1163.708894411711
 20
154.8608147569433
 30
0.0
 11
732.4124975407135
 21
154.8608147569433
 31
0.0
  0
SOLID
  5
10232
330
1022B
100
AcDbEntity
  8
0
 62
     0
100
AcDbTrace
 10
125.9361006697163
 20
156.52748142361
 30
0.0
 11
125.9361006697163
 21
153.1941480902767
 31
0.0
 12
115.9361006697163
 22
154.8608147569433
 32
0.0
 13
115.9361006697163
 23
154.8608147569433
 33
0.0
  0
SOLID
  5
10233
330
1022B
100
AcDbEntity
  8
0
 62
     0
100
AcDbTrace
 10
1163.708894411711
 20
153.1941480902767
 30
0.0
 11
1163.708894411711
 21
156.52748142361
 31
0.0
 12
1173.708894411711
 22
154.8608147569433
 32
0.0
 13
1173.708894411711
 23
154.8608147569433
 33
0.0
  0
MTEXT
  5
10234
330
1022B
100
AcDbEntity
  8
0
  6
ByBlock
 62
     0
100
AcDbMText
 10
644.8224975407136
 20
154.8608147569433
 30
0.0
 40
25.0
 41
0.0
 46
0.0
 71
     5
 72
     1
  1
\A1;1058.3017
 73
     1
 44
1.0
  0
POINT
  5
10235
330
1022B
100
AcDbEntity
  8
DEFPOINTS
 62
     0
100
AcDbPoint
 10
115.9361006697163
 20
103.1735105288199
 30
0.0
  0
POINT
  5
10236
330
1022B
100
AcDbEntity
  8
DEFPOINTS
 62
     0
100
AcDbPoint
 10
1173.708894411711
 20
103.1693344702653
 30
0.0
  0
POINT
  5
10237
330
1022B
100
AcDbEntity
  8
DEFPOINTS
 62
     0
100
AcDbPoint
 10
1173.708894411711
 20
154.8608147569433
 30
0.0
  0
ENDBLK
  5
1022D
330
1022B
100
AcDbEntity
  8
0
100
AcDbBlockEnd
  0
BLOCK
  5
1023F
330
1023E
100
AcDbEntity
  8
0
100
AcDbBlockBegin
  2
*D12
 70
     1
 10
0.0
 20
0.0
 30
0.0
  3
*D12
  1
*D12
  0
LINE
  5
10241
330
1023E
100
AcDbEntity
  8
0
  6
ByBlock
 62
     0
370
    -2
100
AcDbLine
 10
244.9361006697163
 20
76.31913148398918
 30
0.0
 11
244.9361006697163
 21
140.0126718959891
 31
0.0
  0
LINE
  5
10242
330
1023E
100
AcDbEntity
  8
0
  6
ByBlock
 62
     0
370
    -2
100
AcDbLine
 10
1044.708894411711
 20
76.2172829752974
 30
0.0
 11
1044.708894411711
 21
140.0126718959891
 31
0.0
  0
LINE
  5
10243
330
1023E
100
AcDbEntity
  8
0
  6
ByBlock
 62
     0
370
    -2
100
AcDbLine
 10
254.9361006697163
 20
139.8326718959891
 30
0.0
 11
1034.708894411711
 21
139.8326718959891
 31
0.0
  0
SOLID
  5
10244
330
1023E
100
AcDbEntity
  8
0
 62
     0
100
AcDbTrace
 10
254.9361006697163
 20
141.4993385626558
 30
0.0
 11
254.9361006697163
 21
138.1660052293225
 31
0.0
 12
244.9361006697163
 22
139.8326718959891
 32
0.0
 13
244.9361006697163
 23
139.8326718959891
 33
0.0
  0
SOLID
  5
10245
330
1023E
100
AcDbEntity
  8
0
 62
     0
100
AcDbTrace
 10
1034.708894411711
 20
138.1660052293225
 30
0.0
 11
1034.708894411711
 21
141.4993385626558
 31
0.0
 12
1044.708894411711
 22
139.8326718959891
 32
0.0
 13
1044.708894411711
 23
139.8326718959891
 33
0.0
  0
MTEXT
  5
10246
330
1023E
100
AcDbEntity
  8
0
  6
ByBlock
 62
     0
100
AcDbMText
 10
644.8224975407136
 20
152.3326718959891
 30
0.0
 40
15.0
 41
0.0
 46
0.0
 71
     5
 72
     1
  1
\A1;800
 73
     1
 44
1.0
  0
POINT
  5
10247
330
1023E
100
AcDbEntity
  8
DEFPOINTS
 62
     0
100
AcDbPoint
 10
244.9361006697163
 20
76.25663148398918
 30
0.0
  0
POINT
  5
10248
330
1023E
100
AcDbEntity
  8
DEFPOINTS
 62
     0
100
AcDbPoint
 10
1044.708894411711
 20
76.1547829752974
 30
0.0
  0
POINT
  5
10249
330
1023E
100
AcDbEntity
  8
DEFPOINTS
 62
     0
100
AcDbPoint
 10
1044.708894411711
 20
139.8326718959891
 30
0.0
  0
ENDBLK
  5
10240
330
1023E
100
AcDbEntity
  8
0
100
AcDbBlockEnd
  0
BLOCK
  5
1024F
330
1024E
100
AcDbEntity
  8
0
100
AcDbBlockBegin
  2
*D13
 70
     1
 10
0.0
 20
0.0
 30
0.0
  3
*D13
  1
*D13
  0
LINE
  5
10251
330
1024E
100
AcDbEntity
  8
0
  6
ByBlock
 62
     0
370
    -2
100
AcDbLine
 10
68.48645681976222
 20
-11.29151873010062
 30
0.0
 11
68.48645681976222
 21
201.7318112396917
 31
0.0
  0
LINE
  5
10252
330
1024E
100
AcDbEntity
  8
0
  6
ByBlock
 62
     0
370
    -2
100
AcDbLine
 10
1189.178088365965
 20
-17.20809188798088
 30
0.0
 11
1189.178088365965
 21
201.7318112396917
 31
0.0
  0
LINE
  5
10253
330
1024E
100
AcDbEntity
  8
0
  6
ByBlock
 62
     0
370
    -2
100
AcDbLine
 10
78.48645681976222
 20
201.5518112396917
 30
0.0
 11
543.3256059261971
 21
201.5518112396917
 31
0.0
  0
LINE
  5
10254
330
1024E
100
AcDbEntity
  8
0
  6
ByBlock
 62
     0
370
    -2
100
AcDbLine
 10
1179.178088365965
 20
201.5518112396917
 30
0.0
 11
714.3389392595304
 21
201.5518112396917
 31
0.0
  0
SOLID
  5
10255
330
1024E
100
AcDbEntity
  8
0
 62
     0
100
AcDbTrace
 10
78.48645681976222
 20
203.2184779063583
 30
0.0
 11
78.48645681976222
 21
199.885144573025
 31
0.0
 12
68.48645681976222
 22
201.5518112396917
 32
0.0
 13
68.48645681976222
 23
201.5518112396917
 33
0.0
  0
SOLID
  5
10256
330
1024E
100
AcDbEntity
  8
0
 62
     0
100
AcDbTrace
 10
1179.178088365965
 20
199.885144573025
 30
0.0
 11
1179.178088365965
 21
203.2184779063583
 31
0.0
 12
1189.178088365965
 22
201.5518112396917
 32
0.0
 13
1189.178088365965
 23
201.5518112396917
 33
0.0
  0
MTEXT
  5
10257
330
1024E
100
AcDbEntity
  8
0
  6
ByBlock
 62
     0
100
AcDbMText
 10
628.8322725928638
 20
201.5518112396917
 30
0.0
 40
25.0
 41
0.0
 46
0.0
 71
     5
 72
     1
  1
\A1;1121.2520
 73
     1
 44
1.0
  0
POINT
  5
10258
330
1024E
100
AcDbEntity
  8
DEFPOINTS
 62
     0
100
AcDbPoint
 10
68.48645681976222
 20
-11.35401873010062
 30
0.0
  0
POINT
  5
10259
330
1024E
100
AcDbEntity
  8
DEFPOINTS
 62
     0
100
AcDbPoint
 10
1189.178088365965
 20
-17.27059188798088
 30
0.0
  0
POINT
  5
1025A
330
1024E
100
AcDbEntity
  8
DEFPOINTS
 62
     0
100
AcDbPoint
 10
1189.178088365965
 20
201.5518112396917
 30
0.0
  0
ENDBLK
  5
10250
330
1024E
100
AcDbEntity
  8
0
100
AcDbBlockEnd
  0
BLOCK
  5
1025F
330
1025E
100
AcDbEntity
  8
0
100
AcDbBlockBegin
  2
*D14
 70
     1
 10
0.0
 20
0.0
 30
0.0
  3
*D14
  1
*D14
  0
LINE
  5
10261
330
1025E
100
AcDbEntity
  8
0
  6
ByBlock
 62
     0
370
    -2
100
AcDbLine
 10
68.48645681976222
 20
-11.29151873010062
 30
0.0
 11
68.48645681976222
 21
182.0939032666954
 31
0.0
  0
LINE
  5
10262
330
1025E
100
AcDbEntity
  8
0
  6
ByBlock
 62
     0
370
    -2
100
AcDbLine
 10
323.8322876486732
 20
-11.29151873010062
 30
0.0
 11
323.8322876486732
 21
182.0939032666954
 31
0.0
  0
LINE
  5
10263
330
1025E
100
AcDbEntity
  8
0
  6
ByBlock
 62
     0
370
    -2
100
AcDbLine
 10
78.48645681976222
 20
181.9139032666954
 30
0.0
 11
108.5693722342177
 21
181.9139032666954
 31
0.0
  0
LINE
  5
10264
330
1025E
100
AcDbEntity
  8
0
  6
ByBlock
 62
     0
370
    -2
100
AcDbLine
 10
313.8322876486732
 20
181.9139032666954
 30
0.0
 11
283.7493722342176
 21
181.9139032666954
 31
0.0
  0
SOLID
  5
10265
330
1025E
100
AcDbEntity
  8
0
 62
     0
100
AcDbTrace
 10
78.48645681976222
 20
183.5805699333621
 30
0.0
 11
78.48645681976222
 21
180.2472366000288
 31
0.0
 12
68.48645681976222
 22
181.9139032666954
 32
0.0
 13
68.48645681976222
 23
181.9139032666954
 33
0.0
  0
SOLID
  5
10266
330
1025E
100
AcDbEntity
  8
0
 62
     0
100
AcDbTrace
 10
313.8322876486732
 20
180.2472366000288
 30
0.0
 11
313.8322876486732
 21
183.5805699333621
 31
0.0
 12
323.8322876486732
 22
181.9139032666954
 32
0.0
 13
323.8322876486732
 23
181.9139032666954
 33
0.0
  0
MTEXT
  5
10267
330
1025E
100
AcDbEntity
  8
0
  6
ByBlock
 62
     0
100
AcDbMText
 10
196.1593722342177
 20
181.9139032666954
 30
0.0
 40
25.0
 41
0.0
 46
0.0
 71
     5
 72
     1
  1
\A1;255.4735
 73
     1
 44
1.0
  0
POINT
  5
10268
330
1025E
100
AcDbEntity
  8
DEFPOINTS
 62
     0
100
AcDbPoint
 10
68.48645681976222
 20
-11.35401873010062
 30
0.0
  0
POINT
  5
10269
330
1025E
100
AcDbEntity
  8
DEFPOINTS
 62
     0
100
AcDbPoint
 10
323.8322876486732
 20
-11.35401873010062
 30
0.0
  0
POINT
  5
1026A
330
1025E
100
AcDbEntity
  8
DEFPOINTS
 62
     0
100
AcDbPoint
 10
323.8322876486732
 20
181.9139032666954
 30
0.0
  0
ENDBLK
  5
10260
330
1025E
100
AcDbEntity
  8
0
100
AcDbBlockEnd
  0
BLOCK
  5
102AD
330
102AC
100
AcDbEntity
  8
0
100
AcDbBlockBegin
  2
*D16
 70
     1
 10
0.0
 20
0.0
 30
0.0
  3
*D16
  1
*D9
  0
LINE
  5
102AE
330
102AC
100
AcDbEntity
  8
0
  6
ByBlock
 62
     0
370
    -2
100
AcDbLine
 10
97.52752872012206
 20
194.587711386199
 30
0.0
 11
267.1304618968424
 21
194.587711386199
 31
0.0
  0
LINE
  5
102AF
330
102AC
100
AcDbEntity
  8
0
  6
ByBlock
 62
     0
370
    -2
100
AcDbLine
 10
97.5275597566897
 20
82.44280435032368
 30
0.0
 11
267.1304618968424
 21
82.44280435032367
 31
0.0
  0
LINE
  5
102B0
330
102AC
100
AcDbEntity
  8
0
  6
ByBlock
 62
     0
370
    -2
100
AcDbLine
 10
266.9504618968424
 20
184.587711386199
 30
0.0
 11
266.9504618968424
 21
158.5152578682614
 31
0.0
  0
LINE
  5
102B1
330
102AC
100
AcDbEntity
  8
0
  6
ByBlock
 62
     0
370
    -2
100
AcDbLine
 10
266.9504618968424
 20
92.44280435032367
 30
0.0
 11
266.9504618968424
 21
118.5152578682614
 31
0.0
  0
SOLID
  5
102B2
330
102AC
100
AcDbEntity
  8
0
 62
     0
100
AcDbTrace
 10
268.6171285635091
 20
184.587711386199
 30
0.0
 11
265.2837952301757
 21
184.587711386199
 31
0.0
 12
266.9504618968424
 22
194.587711386199
 32
0.0
 13
266.9504618968424
 23
194.587711386199
 33
0.0
  0
SOLID
  5
102B3
330
102AC
100
AcDbEntity
  8
0
 62
     0
100
AcDbTrace
 10
265.2837952301757
 20
92.44280435032367
 30
0.0
 11
268.6171285635091
 21
92.44280435032367
 31
0.0
 12
266.9504618968424
 22
82.44280435032367
 32
0.0
 13
266.9504618968424
 23
82.44280435032367
 33
0.0
  0
MTEXT
  5
102B4
330
102AC
100
AcDbEntity
  8
0
  6
ByBlock
 62
     0
100
AcDbMText
 10
266.9504618968424
 20
138.5152578682614
 30
0.0
 40
15.0
 41
0.0
 46
0.0
 71
     5
 72
     1
  1
\A1;112
 11
6.123233995736766E-17
 21
1.0
 31
0.0
 73
     1
 44
1.0
  0
POINT
  5
102B5
330
102AC
100
AcDbEntity
  8
DEFPOINTS
 62
     0
100
AcDbPoint
 10
97.46502872012206
 20
194.587711386199
 30
0.0
  0
POINT
  5
102B6
330
102AC
100
AcDbEntity
  8
DEFPOINTS
 62
     0
100
AcDbPoint
 10
97.4650597566897
 20
82.44280435032368
 30
0.0
  0
POINT
  5
102B7
330
102AC
100
AcDbEntity
  8
DEFPOINTS
 62
     0
100
AcDbPoint
 10
266.9504618968424
 20
82.44280435032367
 30
0.0
  0
ENDBLK
  5
102B8
330
102AC
100
AcDbEntity
  8
0
100
AcDbBlockEnd
  0
BLOCK
  5
102F3
330
102F2
100
AcDbEntity
  8
0
100
AcDbBlockBegin
  2
*D17
 70
     1
 10
0.0
 20
0.0
 30
0.0
  3
*D17
  1
*D17
  0
LINE
  5
102F4
330
102F2
100
AcDbEntity
  8
0
  6
ByBlock
 62
     0
370
    -2
100
AcDbLine
 10
0.0
 20
142.9991595322206
 30
0.0
 11
0.0
 21
19.82
 31
0.0
  0
LINE
  5
102F5
330
102F2
100
AcDbEntity
  8
0
  6
ByBlock
 62
     0
370
    -2
100
AcDbLine
 10
194.930104290371
 20
142.9991595322206
 30
0.0
 11
194.930104290371
 21
19.82
 31
0.0
  0
LINE
  5
102F6
330
102F2
100
AcDbEntity
  8
0
  6
ByBlock
 62
     0
370
    -2
100
AcDbLine
 10
10.0
 20
20.0
 30
0.0
 11
184.930104290371
 21
20.0
 31
0.0
  0
SOLID
  5
102F7
330
102F2
100
AcDbEntity
  8
0
 62
     0
100
AcDbTrace
 10
10.0
 20
21.66666666666667
 30
0.0
 11
10.0
 21
18.33333333333333
 31
0.0
 12
0.0
 22
20.0
 32
0.0
 13
0.0
 23
20.0
 33
0.0
  0
SOLID
  5
102F8
330
102F2
100
AcDbEntity
  8
0
 62
     0
100
AcDbTrace
 10
184.930104290371
 20
18.33333333333333
 30
0.0
 11
184.930104290371
 21
21.66666666666667
 31
0.0
 12
194.930104290371
 22
20.0
 32
0.0
 13
194.930104290371
 23
20.0
 33
0.0
  0
MTEXT
  5
102F9
330
102F2
100
AcDbEntity
  8
0
  6
ByBlock
 62
     0
100
AcDbMText
 10
97.4650521451855
 20
7.5
 30
0.0
 40
15.0
 41
0.0
 46
0.0
 71
     5
 72
     1
  1
\A1;195
 73
     1
 44
1.0
  0
POINT
  5
102FA
330
102F2
100
AcDbEntity
  8
DEFPOINTS
 62
     0
100
AcDbPoint
 10
0.0
 20
143.0616595322206
 30
0.0
  0
POINT
  5
102FB
330
102F2
100
AcDbEntity
  8
DEFPOINTS
 62
     0
100
AcDbPoint
 10
194.930104290371
 20
143.0616595322206
 30
0.0
  0
POINT
  5
102FC
330
102F2
100
AcDbEntity
  8
DEFPOINTS
 62
     0
100
AcDbPoint
 10
194.930104290371
 20
20.0
 30
0.0
  0
ENDBLK
  5
102FD
330
102F2
100
AcDbEntity
  8
0
100
AcDbBlockEnd
  0
BLOCK
  5
1033C
330
1033B
100
AcDbEntity
  8
0
100
AcDbBlockBegin
  2
*D18
 70
     1
 10
0.0
 20
0.0
 30
0.0
  3
*D18
  1
*D18
  0
LINE
  5
1033E
330
1033B
100
AcDbEntity
  8
0
  6
ByBlock
 62
     0
370
    -2
100
AcDbLine
 10
1477.041123723141
 20
39.7591849782286
 30
0.0
 11
1646.644056899861
 21
39.75918497822859
 31
0.0
  0
LINE
  5
1033F
330
1033B
100
AcDbEntity
  8
0
  6
ByBlock
 62
     0
370
    -2
100
AcDbLine
 10
1477.041154759709
 20
-72.38572205764675
 30
0.0
 11
1646.644056899861
 21
-72.38572205764676
 31
0.0
  0
LINE
  5
10340
330
1033B
100
AcDbEntity
  8
0
  6
ByBlock
 62
     0
370
    -2
100
AcDbLine
 10
1646.464056899861
 20
29.75918497822859
 30
0.0
 11
1646.464056899861
 21
3.686731460290957
 31
0.0
  0
LINE
  5
10341
330
1033B
100
AcDbEntity
  8
0
  6
ByBlock
 62
     0
370
    -2
100
AcDbLine
 10
1646.464056899861
 20
-62.38572205764676
 30
0.0
 11
1646.464056899861
 21
-36.31326853970904
 31
0.0
  0
SOLID
  5
10342
330
1033B
100
AcDbEntity
  8
0
 62
     0
100
AcDbTrace
 10
1648.130723566528
 20
29.75918497822859
 30
0.0
 11
1644.797390233195
 21
29.75918497822859
 31
0.0
 12
1646.464056899861
 22
39.75918497822859
 32
0.0
 13
1646.464056899861
 23
39.75918497822859
 33
0.0
  0
SOLID
  5
10343
330
1033B
100
AcDbEntity
  8
0
 62
     0
100
AcDbTrace
 10
1644.797390233195
 20
-62.38572205764676
 30
0.0
 11
1648.130723566528
 21
-62.38572205764676
 31
0.0
 12
1646.464056899861
 22
-72.38572205764676
 32
0.0
 13
1646.464056899861
 23
-72.38572205764676
 33
0.0
  0
MTEXT
  5
10344
330
1033B
100
AcDbEntity
  8
0
  6
ByBlock
 62
     0
100
AcDbMText
 10
1646.464056899861
 20
-16.31326853970909
 30
0.0
 40
15.0
 41
0.0
 46
0.0
 71
     5
 72
     1
  1
\A1;112
 11
6.123233995736766E-17
 21
1.0
 31
0.0
 73
     1
 44
1.0
  0
POINT
  5
10345
330
1033B
100
AcDbEntity
  8
DEFPOINTS
 62
     0
100
AcDbPoint
 10
1476.978623723141
 20
39.7591849782286
 30
0.0
  0
POINT
  5
10346
330
1033B
100
AcDbEntity
  8
DEFPOINTS
 62
     0
100
AcDbPoint
 10
1476.978654759709
 20
-72.38572205764675
 30
0.0
  0
POINT
  5
10347
330
1033B
100
AcDbEntity
  8
DEFPOINTS
 62
     0
100
AcDbPoint
 10
1646.464056899861
 20
-72.38572205764676
 30
0.0
  0
ENDBLK
  5
1033D
330
1033B
100
AcDbEntity
  8
0
100
AcDbBlockEnd
  0
BLOCK
  5
10349
330
10348
100
AcDbEntity
  8
0
100
AcDbBlockBegin
  2
*D19
 70
     1
 10
0.0
 20
0.0
 30
0.0
  3
*D19
  1
*D19
  0
LINE
  5
1034B
330
10348
100
AcDbEntity
  8
0
  6
ByBlock
 62
     0
370
    -2
100
AcDbLine
 10
1379.513595003019
 20
-11.8293668757498
 30
0.0
 11
1379.513595003019
 21
-135.0085264079704
 31
0.0
  0
LINE
  5
1034C
330
10348
100
AcDbEntity
  8
0
  6
ByBlock
 62
     0
370
    -2
100
AcDbLine
 10
1574.44369929339
 20
-11.8293668757498
 30
0.0
 11
1574.44369929339
 21
-135.0085264079704
 31
0.0
  0
LINE
  5
1034D
330
10348
100
AcDbEntity
  8
0
  6
ByBlock
 62
     0
370
    -2
100
AcDbLine
 10
1389.513595003019
 20
-134.8285264079704
 30
0.0
 11
1564.44369929339
 21
-134.8285264079704
 31
0.0
  0
SOLID
  5
1034E
330
10348
100
AcDbEntity
  8
0
 62
     0
100
AcDbTrace
 10
1389.513595003019
 20
-133.1618597413038
 30
0.0
 11
1389.513595003019
 21
-136.4951930746371
 31
0.0
 12
1379.513595003019
 22
-134.8285264079704
 32
0.0
 13
1379.513595003019
 23
-134.8285264079704
 33
0.0
  0
SOLID
  5
1034F
330
10348
100
AcDbEntity
  8
0
 62
     0
100
AcDbTrace
 10
1564.44369929339
 20
-136.4951930746371
 30
0.0
 11
1564.44369929339
 21
-133.1618597413038
 31
0.0
 12
1574.44369929339
 22
-134.8285264079704
 32
0.0
 13
1574.44369929339
 23
-134.8285264079704
 33
0.0
  0
MTEXT
  5
10350
330
10348
100
AcDbEntity
  8
0
  6
ByBlock
 62
     0
100
AcDbMText
 10
1476.978647148204
 20
-147.3285264079704
 30
0.0
 40
15.0
 41
0.0
 46
0.0
 71
     5
 72
     1
  1
\A1;195
 73
     1
 44
1.0
  0
POINT
  5
10351
330
10348
100
AcDbEntity
  8
DEFPOINTS
 62
     0
100
AcDbPoint
 10
1379.513595003019
 20
-11.7668668757498
 30
0.0
  0
POINT
  5
10352
330
10348
100
AcDbEntity
  8
DEFPOINTS
 62
     0
100
AcDbPoint
 10
1574.44369929339
 20
-11.7668668757498
 30
0.0
  0
POINT
  5
10353
330
10348
100
AcDbEntity
  8
DEFPOINTS
 62
     0
100
AcDbPoint
 10
1574.44369929339
 20
-134.8285264079704
 30
0.0
  0
ENDBLK
  5
1034A
330
10348
100
AcDbEntity
  8
0
100
AcDbBlockEnd
  0
ENDSEC
  0
SECTION
  2
ENTITIES
  0
LWPOLYLINE
  5
110
102
{ACAD_REACTORS
330
1023D
102
}
330
1F
100
AcDbEntity
  8
0
 62
     7
100
AcDbPolyline
 90
        2
 70
     0
 43
0.0
 10
244.9361006697163
 20
103.1735105288199
 10
244.9361006697163
 20
49.33975243915847
  0
LWPOLYLINE
  5
111
102
{ACAD_REACTORS
330
1023D
102
}
330
1F
100
AcDbEntity
  8
0
 62
     7
100
AcDbPolyline
 90
        2
 70
     0
 43
0.0
 10
1044.708894411711
 20
103.1693344702653
 10
1044.708894411711
 20
49.14023148032948
  0
LWPOLYLINE
  5
114
330
1F
100
AcDbEntity
  8
2
 62
     7
100
AcDbPolyline
 90
        2
 70
     0
 43
0.0
 10
0.0
 20
-22.70803746020124
 10
1289.648025778591
 20
-22.70803746020124
  0
LWPOLYLINE
  5
115
330
1F
100
AcDbEntity
  8
2
 62
     7
100
AcDbPolyline
 90
        2
 70
     0
 43
0.0
 10
0.0
 20
0.0
 10
1289.648025778591
 20
0.0
  0
LWPOLYLINE
  5
116
330
1F
100
AcDbEntity
  8
2
 62
     7
100
AcDbPolyline
 90
        2
 70
     0
 43
0.0
 10
23.98757697346764
 20
30.27736432570919
 10
1265.660462989936
 20
30.27735063860928
  0
LWPOLYLINE
  5
117
330
1F
100
AcDbEntity
  8
2
 62
     7
100
AcDbPolyline
 90
        2
 70
     0
 43
0.0
 10
38.17024676303754
 20
-71.90872697529721
 10
1251.504638589332
 20
-71.90872697529721
  0
LWPOLYLINE
  5
118
330
1F
100
AcDbEntity
  8
2
 62
     7
100
AcDbPolyline
 90
        2
 70
     0
 43
0.0
 10
1221.161583765782
 20
-4.42478463677935
 10
1226.952228969808
 20
-4.42478463677935
  0
LWPOLYLINE
  5
119
330
1F
100
AcDbEntity
  8
2
 62
     7
100
AcDbPolyline
 90
        2
 70
     0
 43
0.0
 10
1226.952228969808
 20
-9.703783033851778
 10
1221.161583765782
 20
-9.703783033851778
  0
LWPOLYLINE
  5
11A
330
1F
100
AcDbEntity
  8
2
 62
     7
100
AcDbPolyline
 90
        2
 70
     0
 43
0.0
 10
15.55455193412627
 20
-56.77004462580044
 10
1274.096266799913
 20
-56.77004462580044
  0
LWPOLYLINE
  5
11B
330
1F
100
AcDbEntity
  8
2
 62
     7
100
AcDbPolyline
 90
        2
 70
     0
 43
0.0
 10
12.67149676852705
 20
-41.63136227630366
 10
1276.976536287475
 20
-41.63136227630366
  0
LWPOLYLINE
  5
11C
330
1F
100
AcDbEntity
  8
2
 62
     7
100
AcDbPolyline
 90
        2
 70
     0
 43
0.0
 10
10.21285903019179
 20
-26.49268030009148
 10
1279.43518361757
 20
-26.49268030009148
  0
LWPOLYLINE
  5
11D
330
1F
100
AcDbEntity
  8
2
 62
     7
100
AcDbPolyline
 90
        2
 70
     0
 43
0.0
 10
281.1715609149132
 20
35.78938683989008
 10
1008.476435249771
 20
35.78938683989008
  0
LWPOLYLINE
  5
11E
330
1F
100
AcDbEntity
  8
2
 62
     7
100
AcDbPolyline
 90
        2
 70
     0
 43
0.0
 10
9.598199377859146
 20
-22.70803746020124
 10
14.46125129368693
 20
-52.65141216468442
  0
LWPOLYLINE
  5
11F
330
1F
100
AcDbEntity
  8
2
 62
     7
100
AcDbPolyline
 90
        2
 70
     0
 43
0.0
 10
163.9151084062214
 20
-71.90872697529721
 10
163.9151084062214
 20
-22.70803746020124
  0
LWPOLYLINE
  5
120
330
1F
100
AcDbEntity
  8
2
 62
     7
100
AcDbPolyline
 90
        2
 70
     0
 43
0.0
 10
147.9233907557182
 20
-71.90872697529721
 10
147.9233907557182
 20
-22.70803746020124
  0
LWPOLYLINE
  5
121
330
1F
100
AcDbEntity
  8
2
 62
     7
100
AcDbPolyline
 90
        2
 70
     0
 43
0.0
 10
131.9316726075022
 20
-71.90872697529721
 10
131.9316726075022
 20
-22.70803746020124
  0
LWPOLYLINE
  5
122
330
1F
100
AcDbEntity
  8
2
 62
     7
100
AcDbPolyline
 90
        2
 70
     0
 43
0.0
 10
115.9399545837146
 20
-71.90872697529721
 10
115.9399545837146
 20
-22.70803746020124
  0
LWPOLYLINE
  5
123
330
1F
100
AcDbEntity
  8
2
 62
     7
100
AcDbPolyline
 90
        2
 70
     0
 43
0.0
 10
99.94823693321132
 20
-71.90872697529721
 10
99.94823693321132
 20
-22.70803746020124
  0
LWPOLYLINE
  5
124
330
1F
100
AcDbEntity
  8
2
 62
     7
100
AcDbPolyline
 90
        2
 70
     0
 43
0.0
 10
83.95651890942372
 20
-71.90872697529721
 10
83.95651890942372
 20
-22.70803746020124
  0
LWPOLYLINE
  5
125
330
1F
100
AcDbEntity
  8
2
 62
     7
100
AcDbPolyline
 90
        2
 70
     0
 43
0.0
 10
67.96480113449206
 20
-71.90872697529721
 10
67.96480113449206
 20
-22.70803746020124
  0
LWPOLYLINE
  5
126
330
1F
100
AcDbEntity
  8
2
 62
     7
100
AcDbPolyline
 90
        2
 70
     0
 43
0.0
 10
51.97308348398929
 20
-71.90872697529721
 10
51.97308348398929
 20
-22.70803746020124
  0
SPLINE
  5
127
330
1F
100
AcDbEntity
  8
2
 62
     7
100
AcDbSpline
210
0.0
220
0.0
230
1.0
 70
     8
 71
     3
 72
     8
 73
     4
 74
     0
 42
0.000000001
 43
0.0000001
 40
0.0
 40
0.0
 40
0.0
 40
0.0
 40
1.0
 40
1.0
 40
1.0
 40
1.0
 10
14.46124357914005
 20
-52.65141316010977
 30
0.0
 10
16.26051399817015
 20
-63.73011787008249
 30
0.0
 10
26.32977245745633
 20
-71.90874103568149
 30
0.0
 10
38.17024676303754
 20
-71.90874103568149
 30
0.0
  0
LWPOLYLINE
  5
128
330
1F
100
AcDbEntity
  8
2
 62
     7
100
AcDbPolyline
 90
        2
 70
     0
 43
0.0
 10
35.98136533577326
 20
-71.90872697529721
 10
35.98136533577326
 20
-22.70803746020124
  0
SPLINE
  5
129
330
1F
100
AcDbEntity
  8
2
 62
     7
100
AcDbSpline
210
0.0
220
0.0
230
1.0
 70
     8
 71
     3
 72
     8
 73
     4
 74
     0
 42
0.000000001
 43
0.0000001
 40
0.0
 40
0.0
 40
0.0
 40
0.0
 40
1.0
 40
1.0
 40
1.0
 40
1.0
 10
23.98757622689845
 20
30.27735063860928
 30
0.0
 10
20.80662556633115
 20
30.27735063860928
 30
0.0
 10
17.75595867520587
 20
29.0811276120769
 30
0.0
 10
15.50668702653229
 20
26.95183683074106
 30
0.0
  0
SPLINE
  5
12A
330
1F
100
AcDbEntity
  8
2
 62
     7
100
AcDbSpline
210
0.0
220
0.0
230
1.0
 70
     8
 71
     3
 72
     8
 73
     4
 74
     0
 42
0.000000001
 43
0.0000001
 40
0.0
 40
0.0
 40
0.0
 40
0.0
 40
1.0
 40
1.0
 40
1.0
 40
1.0
 10
15.50668702653229
 20
26.95183683074106
 30
0.0
 10
13.25741550228713
 20
24.82254642268981
 30
0.0
 10
11.99378811344923
 20
21.93460906861856
 30
0.0
 10
11.99378848673359
 20
18.92333788106134
 30
0.0
  0
LWPOLYLINE
  5
12B
330
1F
100
AcDbEntity
  8
2
 62
     7
100
AcDbPolyline
 90
        2
 70
     0
 43
0.0
 10
19.98964731198521
 20
-64.01432477218668
 10
19.98964731198521
 20
-22.70803746020124
  0
LWPOLYLINE
  5
12C
330
1F
100
AcDbEntity
  8
2
 62
     7
100
AcDbPolyline
 90
        2
 70
     0
 43
0.0
 10
196.9648011344921
 20
40.11750820128077
 10
292.9151084062214
 20
40.11750820128077
  0
LWPOLYLINE
  5
12D
102
{ACAD_REACTORS
102
}
330
1F
100
AcDbEntity
  8
2
 62
     7
100
AcDbPolyline
 90
        2
 70
     0
 43
0.0
 10
0.0
 20
0.0
 10
0.0
 20
-22.70803746020124
  0
SPLINE
  5
12E
330
1F
100
AcDbEntity
  8
2
 62
     7
100
AcDbSpline
210
0.0
220
0.0
230
1.0
 70
     8
 71
     3
 72
     8
 73
     4
 74
     0
 42
0.000000001
 43
0.0000001
 40
0.0
 40
0.0
 40
0.0
 40
0.0
 40
1.0
 40
1.0
 40
1.0
 40
1.0
 10
196.9648008856357
 20
40.1174941408965
 30
0.0
 10
195.9044839158278
 20
40.1174941408965
 30
0.0
 10
194.8875951180235
 20
39.71875284172006
 30
0.0
 10
194.137837694419
 20
39.00898962122596
 30
0.0
  0
SPLINE
  5
12F
330
1F
100
AcDbEntity
  8
2
 62
     7
100
AcDbSpline
210
0.0
220
0.0
230
1.0
 70
     8
 71
     3
 72
     8
 73
     4
 74
     0
 42
0.000000001
 43
0.0000001
 40
0.0
 40
0.0
 40
0.0
 40
0.0
 40
1.0
 40
1.0
 40
1.0
 40
1.0
 10
194.137837694419
 20
39.00898962122596
 30
0.0
 10
193.3880807685268
 20
38.2992260274475
 30
0.0
 10
192.9668715974381
 20
37.33658007685267
 30
0.0
 10
192.9668715974381
 20
36.33282305580974
 30
0.0
  0
LWPOLYLINE
  5
130
330
1F
100
AcDbEntity
  8
2
 62
     7
100
AcDbPolyline
 90
        2
 70
     0
 43
0.0
 10
11.99378848673359
 20
0.0
 10
11.99378848673359
 20
18.9233388764867
  0
LWPOLYLINE
  5
131
330
1F
100
AcDbEntity
  8
2
 62
     7
100
AcDbPolyline
 90
        2
 70
     0
 43
0.0
 10
192.9668715974381
 20
30.27736432570919
 10
192.9668715974381
 20
36.33282342909411
  0
LWPOLYLINE
  5
132
330
1F
100
AcDbEntity
  8
2
 62
     7
100
AcDbPolyline
 90
        2
 70
     0
 43
0.0
 10
62.69579680878314
 20
-9.703783033851778
 10
68.48645681976222
 20
-9.703783033851778
  0
LWPOLYLINE
  5
133
330
1F
100
AcDbEntity
  8
2
 62
     7
100
AcDbPolyline
 90
        2
 70
     0
 43
0.0
 10
62.69579680878314
 20
-4.42478463677935
 10
62.69579680878314
 20
-9.703783033851778
  0
LWPOLYLINE
  5
134
330
1F
100
AcDbEntity
  8
2
 62
     7
100
AcDbPolyline
 90
        2
 70
     0
 43
0.0
 10
68.48645681976222
 20
-4.42478463677935
 10
62.69579680878314
 20
-4.42478463677935
  0
LWPOLYLINE
  5
135
102
{ACAD_REACTORS
102
}
330
1F
100
AcDbEntity
  8
2
 62
     7
100
AcDbPolyline
 90
        2
 70
     0
 43
0.0
 10
68.48645681976222
 20
-22.70803746020124
 10
68.48645681976222
 20
0.0
  0
SPLINE
  5
136
330
1F
100
AcDbEntity
  8
2
 62
     7
100
AcDbSpline
210
0.0
220
0.0
230
1.0
 70
     8
 71
     3
 72
     8
 73
     4
 74
     0
 42
0.000000001
 43
0.0000001
 40
0.0
 40
0.0
 40
0.0
 40
0.0
 40
1.0
 40
1.0
 40
1.0
 40
1.0
 10
87.78117561207682
 20
-9.898105010064
 30
0.0
 10
87.78117561207682
 20
-8.781003249771175
 30
0.0
 10
87.1516270082343
 20
-7.748758397072152
 30
0.0
 10
86.12967510338513
 20
-7.190207641354164
 30
0.0
  0
SPLINE
  5
137
330
1F
100
AcDbEntity
  8
2
 62
     7
100
AcDbSpline
210
0.0
220
0.0
230
1.0
 70
     8
 71
     3
 72
     8
 73
     4
 74
     0
 42
0.000000001
 43
0.0000001
 40
0.0
 40
0.0
 40
0.0
 40
0.0
 40
1.0
 40
1.0
 40
1.0
 40
1.0
 10
86.12967510338513
 20
-7.190207641354164
 30
0.0
 10
85.10772307410798
 20
-6.631656636779553
 30
0.0
 10
83.84862636413527
 20
-6.631656636779553
 30
0.0
 10
82.82667445928655
 20
-7.190207641354164
 30
0.0
  0
SPLINE
  5
138
330
1F
100
AcDbEntity
  8
2
 62
     7
100
AcDbSpline
210
0.0
220
0.0
230
1.0
 70
     8
 71
     3
 72
     8
 73
     4
 74
     0
 42
0.000000001
 43
0.0000001
 40
0.0
 40
0.0
 40
0.0
 40
0.0
 40
1.0
 40
1.0
 40
1.0
 40
1.0
 10
82.82667445928655
 20
-7.190207641354164
 30
0.0
 10
81.80472243000895
 20
-7.748758397072152
 30
0.0
 10
81.17517419945125
 20
-8.781003249771175
 30
0.0
 10
81.17517419945125
 20
-9.898105010064
 30
0.0
  0
SPLINE
  5
139
330
1F
100
AcDbEntity
  8
2
 62
     7
100
AcDbSpline
210
0.0
220
0.0
230
1.0
 70
     8
 71
     3
 72
     8
 73
     4
 74
     0
 42
0.000000001
 43
0.0000001
 40
0.0
 40
0.0
 40
0.0
 40
0.0
 40
1.0
 40
1.0
 40
1.0
 40
1.0
 10
81.17517419945125
 20
-9.898105010064
 30
0.0
 10
81.17517419945125
 20
-11.01520701921322
 30
0.0
 10
81.80472243000895
 20
-12.04745174748405
 30
0.0
 10
82.82667445928655
 20
-12.60600275205843
 30
0.0
  0
SPLINE
  5
13A
330
1F
100
AcDbEntity
  8
2
 62
     7
100
AcDbSpline
210
0.0
220
0.0
230
1.0
 70
     8
 71
     3
 72
     8
 73
     4
 74
     0
 42
0.000000001
 43
0.0000001
 40
0.0
 40
0.0
 40
0.0
 40
0.0
 40
1.0
 40
1.0
 40
1.0
 40
1.0
 10
82.82667445928655
 20
-12.60600275205843
 30
0.0
 10
83.84862636413527
 20
-13.16455350777687
 30
0.0
 10
85.10772307410798
 20
-13.16455350777687
 30
0.0
 10
86.12967510338513
 20
-12.60600275205843
 30
0.0
  0
SPLINE
  5
13B
330
1F
100
AcDbEntity
  8
2
 62
     7
100
AcDbSpline
210
0.0
220
0.0
230
1.0
 70
     8
 71
     3
 72
     8
 73
     4
 74
     0
 42
0.000000001
 43
0.0000001
 40
0.0
 40
0.0
 40
0.0
 40
0.0
 40
1.0
 40
1.0
 40
1.0
 40
1.0
 10
86.12967510338513
 20
-12.60600275205843
 30
0.0
 10
87.1516270082343
 20
-12.04745174748405
 30
0.0
 10
87.78117561207682
 20
-11.01520701921322
 30
0.0
 10
87.78117561207682
 20
-9.898105010064
 30
0.0
  0
LWPOLYLINE
  5
13C
330
1F
100
AcDbEntity
  8
2
 62
     7
100
AcDbPolyline
 90
        2
 70
     0
 43
0.0
 10
235.3449242671545
 20
51.47153365050326
 10
254.5349856468438
 20
51.47153365050326
  0
LWPOLYLINE
  5
13D
330
1F
100
AcDbEntity
  8
2
 62
     7
100
AcDbPolyline
 90
        2
 70
     0
 43
0.0
 10
232.9461662214089
 20
40.11750820128077
 10
232.9461662214089
 20
49.20068914181161
  0
LWPOLYLINE
  5
13E
330
1F
100
AcDbEntity
  8
2
 62
     7
100
AcDbPolyline
 90
        4
 70
     1
 43
0.0
 10
87.78117561207682
 20
-9.898105010064
 10
87.78117561207682
 20
-9.898105010064
 10
87.78117561207682
 20
-9.898105010064
 10
87.78117561207682
 20
-9.898105010064
  0
SPLINE
  5
13F
330
1F
100
AcDbEntity
  8
2
 62
     7
100
AcDbSpline
210
0.0
220
0.0
230
1.0
 70
     8
 71
     3
 72
     8
 73
     4
 74
     0
 42
0.000000001
 43
0.0000001
 40
0.0
 40
0.0
 40
0.0
 40
0.0
 40
1.0
 40
1.0
 40
1.0
 40
1.0
 10
235.3449240182981
 20
51.47149171820683
 30
0.0
 10
234.7087339359559
 20
51.47149171820683
 30
0.0
 10
234.0986003586459
 20
51.23224718755728
 30
0.0
 10
233.6487462031109
 20
50.80638925526091
 30
0.0
  0
SPLINE
  5
140
330
1F
100
AcDbEntity
  8
2
 62
     7
100
AcDbSpline
210
0.0
220
0.0
230
1.0
 70
     8
 71
     3
 72
     8
 73
     4
 74
     0
 42
0.000000001
 43
0.0000001
 40
0.0
 40
0.0
 40
0.0
 40
0.0
 40
1.0
 40
1.0
 40
1.0
 40
1.0
 10
233.6487462031109
 20
50.80638925526091
 30
0.0
 10
233.1988919231471
 20
50.38053094967972
 30
0.0
 10
232.9461662214089
 20
49.80294367795068
 30
0.0
 10
232.9461662214089
 20
49.20068914181161
 30
0.0
  0
SPLINE
  5
141
330
1F
100
AcDbEntity
  8
2
 62
     7
100
AcDbSpline
210
0.0
220
0.0
230
1.0
 70
     8
 71
     3
 72
     8
 73
     4
 74
     0
 42
0.000000001
 43
0.0000001
 40
0.0
 40
0.0
 40
0.0
 40
0.0
 40
1.0
 40
1.0
 40
1.0
 40
1.0
 10
247.3913075498626
 20
47.11192972003664
 30
0.0
 10
247.3913075498626
 20
47.94099741628543
 30
0.0
 10
246.9240823494965
 20
48.70708740713644
 30
0.0
 10
246.1656311290026
 20
49.12162113083264
 30
0.0
  0
SPLINE
  5
142
330
1F
100
AcDbEntity
  8
2
 62
     7
100
AcDbSpline
210
0.0
220
0.0
230
1.0
 70
     8
 71
     3
 72
     8
 73
     4
 74
     0
 42
0.000000001
 43
0.0000001
 40
0.0
 40
0.0
 40
0.0
 40
0.0
 40
1.0
 40
1.0
 40
1.0
 40
1.0
 10
246.1656311290026
 20
49.12162113083264
 30
0.0
 10
245.407180157365
 20
49.53615497895703
 30
0.0
 10
244.4727298810612
 20
49.53615497895703
 30
0.0
 10
243.7142785361389
 20
49.12162113083264
 30
0.0
  0
SPLINE
  5
143
330
1F
100
AcDbEntity
  8
2
 62
     7
100
AcDbSpline
210
0.0
220
0.0
230
1.0
 70
     8
 71
     3
 72
     8
 73
     4
 74
     0
 42
0.000000001
 43
0.0000001
 40
0.0
 40
0.0
 40
0.0
 40
0.0
 40
1.0
 40
1.0
 40
1.0
 40
1.0
 10
243.7142785361389
 20
49.12162113083264
 30
0.0
 10
242.9558271912169
 20
48.70708740713644
 30
0.0
 10
242.4886021152788
 20
47.94099741628543
 30
0.0
 10
242.4886024885636
 20
47.11192972003664
 30
0.0
  0
SPLINE
  5
144
330
1F
100
AcDbEntity
  8
2
 62
     7
100
AcDbSpline
210
0.0
220
0.0
230
1.0
 70
     8
 71
     3
 72
     8
 73
     4
 74
     0
 42
0.000000001
 43
0.0000001
 40
0.0
 40
0.0
 40
0.0
 40
0.0
 40
1.0
 40
1.0
 40
1.0
 40
1.0
 10
242.4886024885636
 20
47.11192972003664
 30
0.0
 10
242.4886024885636
 20
46.28286214821605
 30
0.0
 10
242.9558276889293
 20
45.51677215736504
 30
0.0
 10
243.7142785361389
 20
45.10223830924065
 30
0.0
  0
SPLINE
  5
145
330
1F
100
AcDbEntity
  8
2
 62
     7
100
AcDbSpline
210
0.0
220
0.0
230
1.0
 70
     8
 71
     3
 72
     8
 73
     4
 74
     0
 42
0.000000001
 43
0.0000001
 40
0.0
 40
0.0
 40
0.0
 40
0.0
 40
1.0
 40
1.0
 40
1.0
 40
1.0
 10
243.7142785361389
 20
45.10223830924065
 30
0.0
 10
244.4727298810612
 20
44.68770446111625
 30
0.0
 10
245.407180157365
 20
44.68770446111625
 30
0.0
 10
246.1656311290026
 20
45.10223830924065
 30
0.0
  0
SPLINE
  5
146
330
1F
100
AcDbEntity
  8
2
 62
     7
100
AcDbSpline
210
0.0
220
0.0
230
1.0
 70
     8
 71
     3
 72
     8
 73
     4
 74
     0
 42
0.000000001
 43
0.0000001
 40
0.0
 40
0.0
 40
0.0
 40
0.0
 40
1.0
 40
1.0
 40
1.0
 40
1.0
 10
246.1656311290026
 20
45.10223830924065
 30
0.0
 10
246.9240823494965
 20
45.51677215736504
 30
0.0
 10
247.3913075498626
 20
46.28286214821605
 30
0.0
 10
247.3913075498626
 20
47.11192972003664
 30
0.0
  0
LWPOLYLINE
  5
147
330
1F
100
AcDbEntity
  8
2
 62
     7
100
AcDbPolyline
 90
        4
 70
     0
 43
0.0
 10
100.469892618481
 20
-4.42478463677935
 10
106.2605530027449
 20
-4.42478463677935
 10
106.2605530027449
 20
-9.703783033851778
 10
100.469892618481
 20
-9.703783033851778
  0
LWPOLYLINE
  5
148
330
1F
100
AcDbEntity
  8
2
 62
     7
100
AcDbPolyline
 90
        2
 70
     0
 43
0.0
 10
100.469892618481
 20
-22.70803746020124
 10
100.469892618481
 20
0.0
  0
LWPOLYLINE
  5
149
330
1F
100
AcDbEntity
  8
2
 62
     7
100
AcDbPolyline
 90
        4
 70
     1
 43
0.0
 10
247.3913075498626
 20
47.11192972003664
 10
247.3913075498626
 20
47.11192972003664
 10
247.3913075498626
 20
47.11192972003664
 10
247.3913075498626
 20
47.11192972003664
  0
SPLINE
  5
14A
330
1F
100
AcDbEntity
  8
2
 62
     7
100
AcDbSpline
210
0.0
220
0.0
230
1.0
 70
     8
 71
     3
 72
     8
 73
     4
 74
     0
 42
0.000000001
 43
0.0000001
 40
0.0
 40
0.0
 40
0.0
 40
0.0
 40
1.0
 40
1.0
 40
1.0
 40
1.0
 10
296.9130380677034
 20
36.33282342909411
 30
0.0
 10
296.9130380677034
 20
37.33658057456546
 30
0.0
 10
296.4918287721866
 20
38.29922640073187
 30
0.0
 10
295.7420714730101
 20
39.00898987008259
 30
0.0
  0
SPLINE
  5
14B
330
1F
100
AcDbEntity
  8
2
 62
     7
100
AcDbSpline
210
0.0
220
0.0
230
1.0
 70
     8
 71
     3
 72
     8
 73
     4
 74
     0
 42
0.000000001
 43
0.0000001
 40
0.0
 40
0.0
 40
0.0
 40
0.0
 40
1.0
 40
1.0
 40
1.0
 40
1.0
 10
295.7420714730101
 20
39.00898987008259
 30
0.0
 10
294.9923141738336
 20
39.71875309057623
 30
0.0
 10
293.9754250027445
 20
40.1174941408965
 30
0.0
 10
292.9151080329366
 20
40.1174941408965
 30
0.0
  0
LWPOLYLINE
  5
14C
330
1F
100
AcDbEntity
  8
2
 62
     7
100
AcDbPolyline
 90
        2
 70
     0
 43
0.0
 10
256.933743443733
 20
40.11750820128077
 10
256.933743443733
 20
49.20068914181161
  0
SPLINE
  5
14D
330
1F
100
AcDbEntity
  8
2
 62
     7
100
AcDbSpline
210
0.0
220
0.0
230
1.0
 70
     8
 71
     3
 72
     8
 73
     4
 74
     0
 42
0.000000001
 43
0.0000001
 40
0.0
 40
0.0
 40
0.0
 40
0.0
 40
1.0
 40
1.0
 40
1.0
 40
1.0
 10
256.933743443733
 20
49.20068914181161
 30
0.0
 10
256.933743443733
 20
49.80294367795068
 30
0.0
 10
256.6810177419943
 20
50.38053094967972
 30
0.0
 10
256.231163462031
 20
50.80638925526091
 30
0.0
  0
SPLINE
  5
14E
330
1F
100
AcDbEntity
  8
2
 62
     7
100
AcDbSpline
210
0.0
220
0.0
230
1.0
 70
     8
 71
     3
 72
     8
 73
     4
 74
     0
 42
0.000000001
 43
0.0000001
 40
0.0
 40
0.0
 40
0.0
 40
0.0
 40
1.0
 40
1.0
 40
1.0
 40
1.0
 10
256.231163462031
 20
50.80638925526091
 30
0.0
 10
255.7813090576396
 20
51.23224718755728
 30
0.0
 10
255.1711757291855
 20
51.47149171820683
 30
0.0
 10
254.5349856468438
 20
51.47149171820683
 30
0.0
  0
LWPOLYLINE
  5
14F
330
1F
100
AcDbEntity
  8
2
 62
     7
100
AcDbPolyline
 90
        2
 70
     0
 43
0.0
 10
296.9130380677034
 20
35.78938683989008
 10
296.9130380677034
 20
36.33282342909411
  0
LWPOLYLINE
  5
150
330
1F
100
AcDbEntity
  8
2
 62
     7
100
AcDbPolyline
 90
        2
 70
     0
 43
0.0
 10
281.1715609149132
 20
30.27736432570919
 10
281.1715609149132
 20
35.78938683989008
  0
LWPOLYLINE
  5
151
330
1F
100
AcDbEntity
  8
2
 62
     7
100
AcDbPolyline
 90
        2
 70
     0
 43
0.0
 10
339.8240052991764
 20
-71.90872697529721
 10
339.8240052991764
 20
-22.70803746020124
  0
LWPOLYLINE
  5
152
330
1F
100
AcDbEntity
  8
2
 62
     7
100
AcDbPolyline
 90
        2
 70
     0
 43
0.0
 10
323.8322876486732
 20
-71.90872697529721
 10
323.8322876486732
 20
-22.70803746020124
  0
LWPOLYLINE
  5
153
330
1F
100
AcDbEntity
  8
2
 62
     7
100
AcDbPolyline
 90
        2
 70
     0
 43
0.0
 10
307.8405696248856
 20
-71.90872697529721
 10
307.8405696248856
 20
-22.70803746020124
  0
LWPOLYLINE
  5
154
330
1F
100
AcDbEntity
  8
2
 62
     7
100
AcDbPolyline
 90
        2
 70
     0
 43
0.0
 10
291.8488518499541
 20
-71.90872697529721
 10
291.8488518499541
 20
-22.70803746020124
  0
LWPOLYLINE
  5
155
330
1F
100
AcDbEntity
  8
2
 62
     7
100
AcDbPolyline
 90
        2
 70
     0
 43
0.0
 10
275.8571338261663
 20
-71.90872697529721
 10
275.8571338261663
 20
-22.70803746020124
  0
LWPOLYLINE
  5
156
330
1F
100
AcDbEntity
  8
2
 62
     7
100
AcDbPolyline
 90
        2
 70
     0
 43
0.0
 10
259.8654158023787
 20
-71.90872697529721
 10
259.8654158023787
 20
-22.70803746020124
  0
LWPOLYLINE
  5
157
330
1F
100
AcDbEntity
  8
2
 62
     7
100
AcDbPolyline
 90
        2
 70
     0
 43
0.0
 10
243.8736980274475
 20
-71.90872697529721
 10
243.8736980274475
 20
-22.70803746020124
  0
LWPOLYLINE
  5
158
330
1F
100
AcDbEntity
  8
2
 62
     7
100
AcDbPolyline
 90
        2
 70
     0
 43
0.0
 10
227.8819803769443
 20
-71.90872697529721
 10
227.8819803769443
 20
-22.70803746020124
  0
LWPOLYLINE
  5
159
330
1F
100
AcDbEntity
  8
2
 62
     7
100
AcDbPolyline
 90
        2
 70
     0
 43
0.0
 10
211.8902623531562
 20
-71.90872697529721
 10
211.8902623531562
 20
-22.70803746020124
  0
LWPOLYLINE
  5
15A
330
1F
100
AcDbEntity
  8
2
 62
     7
100
AcDbPolyline
 90
        2
 70
     0
 43
0.0
 10
195.8985590118937
 20
-71.90872697529721
 10
195.8985590118937
 20
-22.70803746020124
  0
LWPOLYLINE
  5
15B
330
1F
100
AcDbEntity
  8
2
 62
     7
100
AcDbPolyline
 90
        2
 70
     0
 43
0.0
 10
179.9068413613904
 20
-71.90872697529721
 10
179.9068413613904
 20
-22.70803746020124
  0
LWPOLYLINE
  5
15C
330
1F
100
AcDbEntity
  8
2
 62
     7
100
AcDbPolyline
 90
        2
 70
     0
 43
0.0
 10
355.8157233229642
 20
-71.90872697529721
 10
355.8157233229642
 20
-22.70803746020124
  0
LWPOLYLINE
  5
15D
330
1F
100
AcDbEntity
  8
2
 62
     7
100
AcDbPolyline
 90
        2
 70
     0
 43
0.0
 10
371.80744147118
 20
-71.90872697529721
 10
371.80744147118
 20
-22.70803746020124
  0
LWPOLYLINE
  5
15E
330
1F
100
AcDbEntity
  8
2
 62
     7
100
AcDbPolyline
 90
        2
 70
     0
 43
0.0
 10
387.7991591216833
 20
-71.90872697529721
 10
387.7991591216833
 20
-22.70803746020124
  0
LWPOLYLINE
  5
15F
330
1F
100
AcDbEntity
  8
2
 62
     7
100
AcDbPolyline
 90
        2
 70
     0
 43
0.0
 10
403.7908771454711
 20
-71.90872697529721
 10
403.7908771454711
 20
-22.70803746020124
  0
LWPOLYLINE
  5
160
330
1F
100
AcDbEntity
  8
2
 62
     7
100
AcDbPolyline
 90
        2
 70
     0
 43
0.0
 10
419.782609727356
 20
-71.90872697529721
 10
419.782609727356
 20
-22.70803746020124
  0
LWPOLYLINE
  5
161
330
1F
100
AcDbEntity
  8
2
 62
     7
100
AcDbPolyline
 90
        2
 70
     0
 43
0.0
 10
435.7742981372369
 20
-71.90872697529721
 10
435.7742981372369
 20
-22.70803746020124
  0
LWPOLYLINE
  5
162
330
1F
100
AcDbEntity
  8
2
 62
     7
100
AcDbPolyline
 90
        2
 70
     0
 43
0.0
 10
451.766045526075
 20
-71.90872697529721
 10
451.766045526075
 20
-22.70803746020124
  0
LWPOLYLINE
  5
163
330
1F
100
AcDbEntity
  8
2
 62
     7
100
AcDbPolyline
 90
        2
 70
     0
 43
0.0
 10
467.7577339359559
 20
-71.90872697529721
 10
467.7577339359559
 20
-22.70803746020124
  0
LWPOLYLINE
  5
164
330
1F
100
AcDbEntity
  8
2
 62
     7
100
AcDbPolyline
 90
        2
 70
     0
 43
0.0
 10
483.749481324794
 20
-71.90872697529721
 10
483.749481324794
 20
-22.70803746020124
  0
LWPOLYLINE
  5
165
330
1F
100
AcDbEntity
  8
2
 62
     7
100
AcDbPolyline
 90
        2
 70
     0
 43
0.0
 10
499.741169610247
 20
-71.90872697529721
 10
499.741169610247
 20
-22.70803746020124
  0
LWPOLYLINE
  5
166
330
1F
100
AcDbEntity
  8
2
 62
     7
100
AcDbPolyline
 90
        2
 70
     0
 43
0.0
 10
1125.732917372369
 20
-71.90872697529721
 10
1125.732917372369
 20
-22.70803746020124
  0
LWPOLYLINE
  5
167
330
1F
100
AcDbEntity
  8
2
 62
     7
100
AcDbPolyline
 90
        2
 70
     0
 43
0.0
 10
1141.724605408966
 20
-71.90872697529721
 10
1141.724605408966
 20
-22.70803746020124
  0
LWPOLYLINE
  5
168
330
1F
100
AcDbEntity
  8
2
 62
     7
100
AcDbPolyline
 90
        2
 70
     0
 43
0.0
 10
1157.716352797804
 20
-71.90872697529721
 10
1157.716352797804
 20
-22.70803746020124
  0
LWPOLYLINE
  5
169
330
1F
100
AcDbEntity
  8
2
 62
     7
100
AcDbPolyline
 90
        2
 70
     0
 43
0.0
 10
1173.708041207685
 20
-71.90872697529721
 10
1173.708041207685
 20
-22.70803746020124
  0
LWPOLYLINE
  5
16A
330
1F
100
AcDbEntity
  8
2
 62
     7
100
AcDbPolyline
 90
        2
 70
     0
 43
0.0
 10
1189.699788596523
 20
-71.90872697529721
 10
1189.699788596523
 20
-22.70803746020124
  0
LWPOLYLINE
  5
16B
330
1F
100
AcDbEntity
  8
2
 62
     7
100
AcDbPolyline
 90
        2
 70
     0
 43
0.0
 10
1205.691477006404
 20
-71.90872697529721
 10
1205.691477006404
 20
-22.70803746020124
  0
LWPOLYLINE
  5
16C
330
1F
100
AcDbEntity
  8
2
 62
     7
100
AcDbPolyline
 90
        2
 70
     0
 43
0.0
 10
1221.683209588289
 20
-71.90872697529721
 10
1221.683209588289
 20
-22.70803746020124
  0
SPLINE
  5
16D
330
1F
100
AcDbEntity
  8
2
 62
     7
100
AcDbSpline
210
0.0
220
0.0
230
1.0
 70
     8
 71
     3
 72
     8
 73
     4
 74
     0
 42
0.000000001
 43
0.0000001
 40
0.0
 40
0.0
 40
0.0
 40
0.0
 40
1.0
 40
1.0
 40
1.0
 40
1.0
 10
461.1270059432754
 20
-9.898105010064
 30
0.0
 10
461.1270059432754
 20
-8.781003249771175
 30
0.0
 10
460.4974578371452
 20
-7.748758397072152
 30
0.0
 10
459.4755058078681
 20
-7.190207641354164
 30
0.0
  0
SPLINE
  5
16E
330
1F
100
AcDbEntity
  8
2
 62
     7
100
AcDbSpline
210
0.0
220
0.0
230
1.0
 70
     8
 71
     3
 72
     8
 73
     4
 74
     0
 42
0.000000001
 43
0.0000001
 40
0.0
 40
0.0
 40
0.0
 40
0.0
 40
1.0
 40
1.0
 40
1.0
 40
1.0
 10
459.4755058078681
 20
-7.190207641354164
 30
0.0
 10
458.4535539030192
 20
-6.631656636779553
 30
0.0
 10
457.1944571930467
 20
-6.631656636779553
 30
0.0
 10
456.1725051637695
 20
-7.190207641354164
 30
0.0
  0
SPLINE
  5
16F
330
1F
100
AcDbEntity
  8
2
 62
     7
100
AcDbSpline
210
0.0
220
0.0
230
1.0
 70
     8
 71
     3
 72
     8
 73
     4
 74
     0
 42
0.000000001
 43
0.0000001
 40
0.0
 40
0.0
 40
0.0
 40
0.0
 40
1.0
 40
1.0
 40
1.0
 40
1.0
 10
456.1725051637695
 20
-7.190207641354164
 30
0.0
 10
455.1505531344922
 20
-7.748758397072152
 30
0.0
 10
454.5210046550778
 20
-8.781003249771175
 30
0.0
 10
454.5210046550778
 20
-9.898105010064
 30
0.0
  0
SPLINE
  5
170
330
1F
100
AcDbEntity
  8
2
 62
     7
100
AcDbSpline
210
0.0
220
0.0
230
1.0
 70
     8
 71
     3
 72
     8
 73
     4
 74
     0
 42
0.000000001
 43
0.0000001
 40
0.0
 40
0.0
 40
0.0
 40
0.0
 40
1.0
 40
1.0
 40
1.0
 40
1.0
 10
454.5210046550778
 20
-9.898105010064
 30
0.0
 10
454.5210046550778
 20
-11.01520701921322
 30
0.0
 10
455.1505531344922
 20
-12.04745174748405
 30
0.0
 10
456.1725051637695
 20
-12.60600275205843
 30
0.0
  0
SPLINE
  5
171
330
1F
100
AcDbEntity
  8
2
 62
     7
100
AcDbSpline
210
0.0
220
0.0
230
1.0
 70
     8
 71
     3
 72
     8
 73
     4
 74
     0
 42
0.000000001
 43
0.0000001
 40
0.0
 40
0.0
 40
0.0
 40
0.0
 40
1.0
 40
1.0
 40
1.0
 40
1.0
 10
456.1725051637695
 20
-12.60600275205843
 30
0.0
 10
457.1944571930467
 20
-13.16455350777687
 30
0.0
 10
458.4535539030192
 20
-13.16455350777687
 30
0.0
 10
459.4755058078681
 20
-12.60600275205843
 30
0.0
  0
SPLINE
  5
172
330
1F
100
AcDbEntity
  8
2
 62
     7
100
AcDbSpline
210
0.0
220
0.0
230
1.0
 70
     8
 71
     3
 72
     8
 73
     4
 74
     0
 42
0.000000001
 43
0.0000001
 40
0.0
 40
0.0
 40
0.0
 40
0.0
 40
1.0
 40
1.0
 40
1.0
 40
1.0
 10
459.4755058078681
 20
-12.60600275205843
 30
0.0
 10
460.4974578371452
 20
-12.04745174748405
 30
0.0
 10
461.1270059432754
 20
-11.01520701921322
 30
0.0
 10
461.1270059432754
 20
-9.898105010064
 30
0.0
  0
LWPOLYLINE
  5
173
102
{ACAD_REACTORS
102
}
330
1F
100
AcDbEntity
  8
2
 62
     7
100
AcDbPolyline
 90
        2
 70
     0
 43
0.0
 10
441.8322876486732
 20
-22.70803746020124
 10
441.8322876486732
 20
0.0
  0
LWPOLYLINE
  5
174
330
1F
100
AcDbEntity
  8
2
 62
     7
100
AcDbPolyline
 90
        4
 70
     0
 43
0.0
 10
441.8322876486732
 20
-4.42478463677935
 10
436.0416420713632
 20
-4.42478463677935
 10
436.0416420713632
 20
-9.703783033851778
 10
441.8322876486732
 20
-9.703783033851778
  0
LWPOLYLINE
  5
175
330
1F
100
AcDbEntity
  8
2
 62
     7
100
AcDbPolyline
 90
        4
 70
     1
 43
0.0
 10
461.1270059432754
 20
-9.898105010064
 10
461.1270059432754
 20
-9.898105010064
 10
461.1270059432754
 20
-9.898105010064
 10
461.1270059432754
 20
-9.898105010064
  0
LWPOLYLINE
  5
176
330
1F
100
AcDbEntity
  8
2
 62
     7
100
AcDbPolyline
 90
        2
 70
     0
 43
0.0
 10
473.8157233229642
 20
-22.70803746020124
 10
473.8157233229642
 20
0.0
  0
LWPOLYLINE
  5
177
330
1F
100
AcDbEntity
  8
2
 62
     7
100
AcDbPolyline
 90
        2
 70
     0
 43
0.0
 10
479.6063689002744
 20
-9.703783033851778
 10
473.8157233229642
 20
-9.703783033851778
  0
SPLINE
  5
178
330
1F
100
AcDbEntity
  8
2
 62
     7
100
AcDbSpline
210
0.0
220
0.0
230
1.0
 70
     8
 71
     3
 72
     8
 73
     4
 74
     0
 42
0.000000001
 43
0.0000001
 40
0.0
 40
0.0
 40
0.0
 40
0.0
 40
1.0
 40
1.0
 40
1.0
 40
1.0
 10
1047.159393800549
 20
47.11192972003664
 30
0.0
 10
1047.159393800549
 20
47.94099741628543
 30
0.0
 10
1046.692168475755
 20
48.70708740713644
 30
0.0
 10
1045.933717628545
 20
49.12162113083264
 30
0.0
  0
SPLINE
  5
179
330
1F
100
AcDbEntity
  8
2
 62
     7
100
AcDbSpline
210
0.0
220
0.0
230
1.0
 70
     8
 71
     3
 72
     8
 73
     4
 74
     0
 42
0.000000001
 43
0.0000001
 40
0.0
 40
0.0
 40
0.0
 40
0.0
 40
1.0
 40
1.0
 40
1.0
 40
1.0
 10
1045.933717628545
 20
49.12162113083264
 30
0.0
 10
1045.175266408051
 20
49.53615497895703
 30
0.0
 10
1044.240816007319
 20
49.53615497895703
 30
0.0
 10
1043.48236516011
 20
49.12162113083264
 30
0.0
  0
SPLINE
  5
17A
330
1F
100
AcDbEntity
  8
2
 62
     7
100
AcDbSpline
210
0.0
220
0.0
230
1.0
 70
     8
 71
     3
 72
     8
 73
     4
 74
     0
 42
0.000000001
 43
0.0000001
 40
0.0
 40
0.0
 40
0.0
 40
0.0
 40
1.0
 40
1.0
 40
1.0
 40
1.0
 10
1043.48236516011
 20
49.12162113083264
 30
0.0
 10
1042.723913939616
 20
48.70708740713644
 30
0.0
 10
1042.256688614822
 20
47.94099741628543
 30
0.0
 10
1042.256688614822
 20
47.11192972003664
 30
0.0
  0
SPLINE
  5
17B
330
1F
100
AcDbEntity
  8
2
 62
     7
100
AcDbSpline
210
0.0
220
0.0
230
1.0
 70
     8
 71
     3
 72
     8
 73
     4
 74
     0
 42
0.000000001
 43
0.0000001
 40
0.0
 40
0.0
 40
0.0
 40
0.0
 40
1.0
 40
1.0
 40
1.0
 40
1.0
 10
1042.256688614822
 20
47.11192972003664
 30
0.0
 10
1042.256688614822
 20
46.28286214821605
 30
0.0
 10
1042.723913939616
 20
45.51677215736504
 30
0.0
 10
1043.48236516011
 20
45.10223830924065
 30
0.0
  0
SPLINE
  5
17C
330
1F
100
AcDbEntity
  8
2
 62
     7
100
AcDbSpline
210
0.0
220
0.0
230
1.0
 70
     8
 71
     3
 72
     8
 73
     4
 74
     0
 42
0.000000001
 43
0.0000001
 40
0.0
 40
0.0
 40
0.0
 40
0.0
 40
1.0
 40
1.0
 40
1.0
 40
1.0
 10
1043.48236516011
 20
45.10223830924065
 30
0.0
 10
1044.240816007319
 20
44.68770446111625
 30
0.0
 10
1045.175266408051
 20
44.68770446111625
 30
0.0
 10
1045.933717628545
 20
45.10223830924065
 30
0.0
  0
SPLINE
  5
17D
330
1F
100
AcDbEntity
  8
2
 62
     7
100
AcDbSpline
210
0.0
220
0.0
230
1.0
 70
     8
 71
     3
 72
     8
 73
     4
 74
     0
 42
0.000000001
 43
0.0000001
 40
0.0
 40
0.0
 40
0.0
 40
0.0
 40
1.0
 40
1.0
 40
1.0
 40
1.0
 10
1045.933717628545
 20
45.10223830924065
 30
0.0
 10
1046.692168973468
 20
45.51677215736504
 30
0.0
 10
1047.159394049405
 20
46.28286214821605
 30
0.0
 10
1047.159394049405
 20
47.11192972003664
 30
0.0
  0
LWPOLYLINE
  5
17E
330
1F
100
AcDbEntity
  8
2
 62
     7
100
AcDbPolyline
 90
        2
 70
     0
 43
0.0
 10
479.6063689002744
 20
-4.42478463677935
 10
479.6063689002744
 20
-9.703783033851778
  0
LWPOLYLINE
  5
17F
330
1F
100
AcDbEntity
  8
2
 62
     7
100
AcDbPolyline
 90
        2
 70
     0
 43
0.0
 10
473.8157233229642
 20
-4.42478463677935
 10
479.6063689002744
 20
-4.42478463677935
  0
LWPOLYLINE
  5
180
330
1F
100
AcDbEntity
  8
2
 62
     7
100
AcDbPolyline
 90
        4
 70
     1
 43
0.0
 10
1047.159394049405
 20
47.11192972003664
 10
1047.159394049405
 20
47.11192972003664
 10
1047.159394049405
 20
47.11192972003664
 10
1047.159394049405
 20
47.11192972003664
  0
LWPOLYLINE
  5
181
330
1F
100
AcDbEntity
  8
2
 62
     7
100
AcDbPolyline
 90
        2
 70
     0
 43
0.0
 10
1054.303101511436
 20
51.47153365050326
 10
1035.113025449222
 20
51.47153365050326
  0
SPLINE
  5
182
330
1F
100
AcDbEntity
  8
2
 62
     7
100
AcDbSpline
210
0.0
220
0.0
230
1.0
 70
     8
 71
     3
 72
     8
 73
     4
 74
     0
 42
0.000000001
 43
0.0000001
 40
0.0
 40
0.0
 40
0.0
 40
0.0
 40
1.0
 40
1.0
 40
1.0
 40
1.0
 10
996.7329169990851
 20
40.1174941408965
 30
0.0
 10
995.6726001537054
 20
40.1174941408965
 30
0.0
 10
994.6557113559011
 20
39.71875284172006
 30
0.0
 10
993.9059539322964
 20
39.00898962122596
 30
0.0
  0
SPLINE
  5
183
330
1F
100
AcDbEntity
  8
2
 62
     7
100
AcDbSpline
210
0.0
220
0.0
230
1.0
 70
     8
 71
     3
 72
     8
 73
     4
 74
     0
 42
0.000000001
 43
0.0000001
 40
0.0
 40
0.0
 40
0.0
 40
0.0
 40
1.0
 40
1.0
 40
1.0
 40
1.0
 10
993.9059539322964
 20
39.00898962122596
 30
0.0
 10
993.1561970064042
 20
38.2992260274475
 30
0.0
 10
992.7349878353157
 20
37.33658007685267
 30
0.0
 10
992.7349878353157
 20
36.33282305580974
 30
0.0
  0
LWPOLYLINE
  5
184
330
1F
100
AcDbEntity
  8
2
 62
     7
100
AcDbPolyline
 90
        2
 70
     0
 43
0.0
 10
1092.683209588289
 20
40.11750820128077
 10
996.7329173723695
 20
40.11750820128077
  0
LWPOLYLINE
  5
185
330
1F
100
AcDbEntity
  8
2
 62
     7
100
AcDbPolyline
 90
        2
 70
     0
 43
0.0
 10
1032.714282459287
 20
40.11750820128077
 10
1032.714282459287
 20
49.20068914181161
  0
SPLINE
  5
186
330
1F
100
AcDbEntity
  8
2
 62
     7
100
AcDbSpline
210
0.0
220
0.0
230
1.0
 70
     8
 71
     3
 72
     8
 73
     4
 74
     0
 42
0.000000001
 43
0.0000001
 40
0.0
 40
0.0
 40
0.0
 40
0.0
 40
1.0
 40
1.0
 40
1.0
 40
1.0
 10
1035.113025075938
 20
51.47149171820683
 30
0.0
 10
1033.788228047576
 20
51.47149171820683
 30
0.0
 10
1032.714267652333
 20
50.45481867886542
 30
0.0
 10
1032.714267652333
 20
49.20068914181161
 30
0.0
  0
LWPOLYLINE
  5
187
330
1F
100
AcDbEntity
  8
2
 62
     7
100
AcDbPolyline
 90
        2
 70
     0
 43
0.0
 10
992.7349730283622
 20
35.78938683989008
 10
992.7349730283622
 20
36.33282342909411
  0
LWPOLYLINE
  5
188
330
1F
100
AcDbEntity
  8
2
 62
     7
100
AcDbPolyline
 90
        2
 70
     0
 43
0.0
 10
1008.476435249771
 20
30.27736432570919
 10
1008.476435249771
 20
35.78938683989008
  0
LWPOLYLINE
  5
189
330
1F
100
AcDbEntity
  8
2
 62
     7
100
AcDbPolyline
 90
        2
 70
     0
 43
0.0
 10
1056.701844501372
 20
40.11750820128077
 10
1056.701844501372
 20
49.20068914181161
  0
LWPOLYLINE
  5
18A
102
{ACAD_REACTORS
102
}
330
1F
100
AcDbEntity
  8
2
 62
     7
100
AcDbPolyline
 90
        2
 70
     0
 43
0.0
 10
1189.178088365965
 20
-22.70803746020124
 10
1189.178088365965
 20
0.0
  0
LWPOLYLINE
  5
18B
330
1F
100
AcDbEntity
  8
2
 62
     7
100
AcDbPolyline
 90
        2
 70
     0
 43
0.0
 10
1183.38744316194
 20
-9.703783033851778
 10
1189.178088365965
 20
-9.703783033851778
  0
SPLINE
  5
18C
330
1F
100
AcDbEntity
  8
2
 62
     7
100
AcDbSpline
210
0.0
220
0.0
230
1.0
 70
     8
 71
     3
 72
     8
 73
     4
 74
     0
 42
0.000000001
 43
0.0000001
 40
0.0
 40
0.0
 40
0.0
 40
0.0
 40
1.0
 40
1.0
 40
1.0
 40
1.0
 10
1096.681139125343
 20
36.33282342909411
 30
0.0
 10
1096.681139125343
 20
37.33658057456546
 30
0.0
 10
1096.259929954254
 20
38.29922640073187
 30
0.0
 10
1095.510172530649
 20
39.00898962122596
 30
0.0
  0
SPLINE
  5
18D
330
1F
100
AcDbEntity
  8
2
 62
     7
100
AcDbSpline
210
0.0
220
0.0
230
1.0
 70
     8
 71
     3
 72
     8
 73
     4
 74
     0
 42
0.000000001
 43
0.0000001
 40
0.0
 40
0.0
 40
0.0
 40
0.0
 40
1.0
 40
1.0
 40
1.0
 40
1.0
 10
1095.510172530649
 20
39.00898962122596
 30
0.0
 10
1094.760415604758
 20
39.71875309057623
 30
0.0
 10
1093.743526309241
 20
40.1174941408965
 30
0.0
 10
1092.683209588289
 20
40.1174941408965
 30
0.0
  0
LWPOLYLINE
  5
18E
330
1F
100
AcDbEntity
  8
2
 62
     7
100
AcDbPolyline
 90
        2
 70
     0
 43
0.0
 10
1183.38744316194
 20
-4.42478463677935
 10
1183.38744316194
 20
-9.703783033851778
  0
LWPOLYLINE
  5
18F
330
1F
100
AcDbEntity
  8
2
 62
     7
100
AcDbPolyline
 90
        2
 70
     0
 43
0.0
 10
1189.178088365965
 20
-4.42478463677935
 10
1183.38744316194
 20
-4.42478463677935
  0
SPLINE
  5
190
330
1F
100
AcDbEntity
  8
2
 62
     7
100
AcDbSpline
210
0.0
220
0.0
230
1.0
 70
     8
 71
     3
 72
     8
 73
     4
 74
     0
 42
0.000000001
 43
0.0000001
 40
0.0
 40
0.0
 40
0.0
 40
0.0
 40
1.0
 40
1.0
 40
1.0
 40
1.0
 10
1208.472836398902
 20
-9.898105010064
 30
0.0
 10
1208.473181438243
 20
-8.780785500457569
 30
0.0
 10
1207.84370873559
 20
-7.748200087831492
 30
0.0
 10
1206.821615231473
 20
-7.189446140896507
 30
0.0
  0
SPLINE
  5
191
330
1F
100
AcDbEntity
  8
2
 62
     7
100
AcDbSpline
210
0.0
220
0.0
230
1.0
 70
     8
 71
     3
 72
     8
 73
     4
 74
     0
 42
0.000000001
 43
0.0000001
 40
0.0
 40
0.0
 40
0.0
 40
0.0
 40
1.0
 40
1.0
 40
1.0
 40
1.0
 10
1206.821615231473
 20
-7.189446140896507
 30
0.0
 10
1205.7995214785
 20
-6.630691945105127
 30
0.0
 10
1204.540150653248
 20
-6.630691945105127
 30
0.0
 10
1203.518057024703
 20
-7.189446140896507
 30
0.0
  0
SPLINE
  5
192
330
1F
100
AcDbEntity
  8
2
 62
     7
100
AcDbSpline
210
0.0
220
0.0
230
1.0
 70
     8
 71
     3
 72
     8
 73
     4
 74
     0
 42
0.000000001
 43
0.0000001
 40
0.0
 40
0.0
 40
0.0
 40
0.0
 40
1.0
 40
1.0
 40
1.0
 40
1.0
 10
1203.518057024703
 20
-7.189446140896507
 30
0.0
 10
1202.495963645014
 20
-7.748200087831492
 30
0.0
 10
1201.866490817932
 20
-8.780785500457569
 30
0.0
 10
1201.866835857273
 20
-9.898105010064
 30
0.0
  0
SPLINE
  5
193
330
1F
100
AcDbEntity
  8
2
 62
     7
100
AcDbSpline
210
0.0
220
0.0
230
1.0
 70
     8
 71
     3
 72
     8
 73
     4
 74
     0
 42
0.000000001
 43
0.0000001
 40
0.0
 40
0.0
 40
0.0
 40
0.0
 40
1.0
 40
1.0
 40
1.0
 40
1.0
 10
1201.866835857273
 20
-9.898105010064
 30
0.0
 10
1201.866490817932
 20
-11.01542476852705
 30
0.0
 10
1202.495963645014
 20
-12.04801018115268
 30
0.0
 10
1203.518057024703
 20
-12.60676425251586
 30
0.0
  0
SPLINE
  5
194
330
1F
100
AcDbEntity
  8
2
 62
     7
100
AcDbSpline
210
0.0
220
0.0
230
1.0
 70
     8
 71
     3
 72
     8
 73
     4
 74
     0
 42
0.000000001
 43
0.0000001
 40
0.0
 40
0.0
 40
0.0
 40
0.0
 40
1.0
 40
1.0
 40
1.0
 40
1.0
 10
1203.518057024703
 20
-12.60676425251586
 30
0.0
 10
1204.540150653248
 20
-13.16551819945107
 30
0.0
 10
1205.7995214785
 20
-13.16551819945107
 30
0.0
 10
1206.821615231473
 20
-12.60676425251586
 30
0.0
  0
SPLINE
  5
195
330
1F
100
AcDbEntity
  8
2
 62
     7
100
AcDbSpline
210
0.0
220
0.0
230
1.0
 70
     8
 71
     3
 72
     8
 73
     4
 74
     0
 42
0.000000001
 43
0.0000001
 40
0.0
 40
0.0
 40
0.0
 40
0.0
 40
1.0
 40
1.0
 40
1.0
 40
1.0
 10
1206.821615231473
 20
-12.60676425251586
 30
0.0
 10
1207.84370873559
 20
-12.04801018115268
 30
0.0
 10
1208.473181438243
 20
-11.01542476852705
 30
0.0
 10
1208.472836398902
 20
-9.898105010064
 30
0.0
  0
LWPOLYLINE
  5
196
330
1F
100
AcDbEntity
  8
2
 62
     7
100
AcDbPolyline
 90
        2
 70
     0
 43
0.0
 10
1096.681153932296
 20
30.27736432570919
 10
1096.681153932296
 20
36.33282342909411
  0
SPLINE
  5
197
330
1F
100
AcDbEntity
  8
2
 62
     7
100
AcDbSpline
210
0.0
220
0.0
230
1.0
 70
     8
 71
     3
 72
     8
 73
     4
 74
     0
 42
0.000000001
 43
0.0000001
 40
0.0
 40
0.0
 40
0.0
 40
0.0
 40
1.0
 40
1.0
 40
1.0
 40
1.0
 10
1056.701859308326
 20
49.20068914181161
 30
0.0
 10
1056.701859308326
 20
49.80294367795068
 30
0.0
 10
1056.449133482159
 20
50.38053094967972
 30
0.0
 10
1055.999279326624
 20
50.80638925526091
 30
0.0
  0
SPLINE
  5
198
330
1F
100
AcDbEntity
  8
2
 62
     7
100
AcDbSpline
210
0.0
220
0.0
230
1.0
 70
     8
 71
     3
 72
     8
 73
     4
 74
     0
 42
0.000000001
 43
0.0000001
 40
0.0
 40
0.0
 40
0.0
 40
0.0
 40
1.0
 40
1.0
 40
1.0
 40
1.0
 10
1055.999279326624
 20
50.80638925526091
 30
0.0
 10
1055.549425171089
 20
51.23224718755728
 30
0.0
 10
1054.939291593779
 20
51.47149171820683
 30
0.0
 10
1054.303101511436
 20
51.47149171820683
 30
0.0
  0
LWPOLYLINE
  5
199
330
1F
100
AcDbEntity
  8
2
 62
     7
100
AcDbPolyline
 90
        2
 70
     0
 43
0.0
 10
1221.161583765782
 20
-22.70803746020124
 10
1221.161583765782
 20
0.0
  0
LWPOLYLINE
  5
19A
330
1F
100
AcDbEntity
  8
2
 62
     7
100
AcDbPolyline
 90
        4
 70
     1
 43
0.0
 10
1208.472836398902
 20
-9.898105010064
 10
1208.472836398902
 20
-9.898105010064
 10
1208.472836398902
 20
-9.898105010064
 10
1208.472836398902
 20
-9.898105010064
  0
LWPOLYLINE
  5
19B
330
1F
100
AcDbEntity
  8
2
 62
     7
100
AcDbPolyline
 90
        2
 70
     0
 43
0.0
 10
1280.049840958829
 20
-22.70803746020124
 10
1275.186788918573
 20
-52.65141216468442
  0
LWPOLYLINE
  5
19C
330
1F
100
AcDbEntity
  8
2
 62
     7
100
AcDbPolyline
 90
        2
 70
     0
 43
0.0
 10
1237.674898371455
 20
-71.90872697529721
 10
1237.674898371455
 20
-22.70803746020124
  0
LWPOLYLINE
  5
19D
330
1F
100
AcDbEntity
  8
2
 62
     7
100
AcDbPolyline
 90
        2
 70
     0
 43
0.0
 10
1253.666645635865
 20
-71.90872697529721
 10
1253.666645635865
 20
-22.70803746020124
  0
LWPOLYLINE
  5
19E
330
1F
100
AcDbEntity
  8
2
 62
     7
100
AcDbPolyline
 90
        2
 70
     0
 43
0.0
 10
1269.658333672461
 20
-64.01432477218668
 10
1269.658333672461
 20
-22.70803746020124
  0
SPLINE
  5
1A6
330
1F
100
AcDbEntity
  8
2
 62
     7
100
AcDbSpline
210
0.0
220
0.0
230
1.0
 70
     8
 71
     3
 72
     8
 73
     4
 74
     0
 42
0.000000001
 43
0.0000001
 40
0.0
 40
0.0
 40
0.0
 40
0.0
 40
1.0
 40
1.0
 40
1.0
 40
1.0
 10
1251.477750148216
 20
-71.90874103568149
 30
0.0
 10
1263.318222338518
 20
-71.90874078682532
 30
0.0
 10
1273.387479429094
 20
-63.7301199853614
 30
0.0
 10
1275.186751838975
 20
-52.65141813723699
 30
0.0
  0
SPLINE
  5
1B0
330
1F
100
AcDbEntity
  8
2
 62
     7
100
AcDbSpline
210
0.0
220
0.0
230
1.0
 70
     8
 71
     3
 72
     8
 73
     4
 74
     0
 42
0.000000001
 43
0.0000001
 40
0.0
 40
0.0
 40
0.0
 40
0.0
 40
1.0
 40
1.0
 40
1.0
 40
1.0
 10
1277.654252223239
 20
18.9233388764867
 30
0.0
 10
1277.654252223239
 20
21.93461018847211
 30
0.0
 10
1276.39062421226
 20
24.82254754254336
 30
0.0
 10
1274.141352563586
 20
26.95183795059461
 30
0.0
  0
SPLINE
  5
1B1
330
1F
100
AcDbEntity
  8
2
 62
     7
100
AcDbSpline
210
0.0
220
0.0
230
1.0
 70
     8
 71
     3
 72
     8
 73
     4
 74
     0
 42
0.000000001
 43
0.0000001
 40
0.0
 40
0.0
 40
0.0
 40
0.0
 40
1.0
 40
1.0
 40
1.0
 40
1.0
 10
1274.141352563586
 20
26.95183795059461
 30
0.0
 10
1271.892080790485
 20
29.08112786093329
 30
0.0
 10
1268.841413774931
 20
30.27735063860928
 30
0.0
 10
1265.660462989936
 20
30.27735063860928
 30
0.0
  0
LWPOLYLINE
  5
1B2
330
1F
100
AcDbEntity
  8
2
 62
     7
100
AcDbPolyline
 90
        2
 70
     0
 43
0.0
 10
1226.952228969808
 20
-4.42478463677935
 10
1226.952228969808
 20
-9.703783033851778
  0
LWPOLYLINE
  5
1B3
330
1F
100
AcDbEntity
  8
2
 62
     7
100
AcDbPolyline
 90
        2
 70
     0
 43
0.0
 10
1277.654207677951
 20
0.0
 10
1277.654207677951
 20
18.9233388764867
  0
LWPOLYLINE
  5
1B6
102
{ACAD_REACTORS
330
10180
102
}
330
1F
100
AcDbEntity
  8
2
 62
     7
100
AcDbPolyline
 90
        2
 70
     0
 43
0.0
 10
1289.648025778591
 20
0.0
 10
1289.648025778591
 20
-22.70803746020124
  0
DIMENSION
  5
1017E
102
{ACAD_REACTORS
330
10180
102
}
102
{ACAD_XDICTIONARY
360
1017F
102
}
330
1F
100
AcDbEntity
  8
0
  6
ByBlock
100
AcDbDimension
  2
*D10
 10
1289.648025778591
 20
-248.0387806854086
 30
0.0
 11
644.8240128892955
 21
-260.5387806854085
 31
0.0
 70
    32
  1
1290
 71
     5
 42
1290.29284979148
 73
     0
 74
     0
 75
     0
  3
ISO-25
100
AcDbAlignedDimension
 13
-0.0000000000000088
 23
-48.09512183073113
 33
0.0
 14
1289.648025778591
 24
-11.35401873010062
 34
0.0
100
AcDbRotatedDimension
1001
ACAD
1000
DSTYLE
1002
{
1070
   171
1070
     2
1070
   143
1040
25.4
1070
   274
1070
     2
1070
    41
1040
10.0
1070
   141
1040
0.09
1070
   271
1070
     4
1070
    43
1040
0.38
1070
    44
1040
0.18
1070
    42
1040
0.0625
1070
   147
1040
5.0
1070
   144
1040
1.0005
1070
    77
1070
     2
1070
   272
1070
     4
1070
    73
1070
     1
1070
   279
1070
     2
1070
   172
1070
     0
1070
    74
1070
     1
1070
   283
1070
     1
1070
   140
1040
15.0
1070
   284
1070
     0
1070
    78
1070
     0
1002
}
  0
LWPOLYLINE
  5
10203
330
1F
100
AcDbEntity
  8
2
 62
     7
100
AcDbPolyline
 90
        2
 70
     0
 43
0.0
 10
516.710631877351
 20
-71.90872697529721
 10
516.710631877351
 20
-22.70803746020124
  0
LWPOLYLINE
  5
10204
330
1F
100
AcDbEntity
  8
2
 62
     7
100
AcDbPolyline
 90
        2
 70
     0
 43
0.0
 10
533.6800941444551
 20
-71.9087269752972
 10
533.6800941444551
 20
-22.70803746020123
  0
LWPOLYLINE
  5
10205
330
1F
100
AcDbEntity
  8
2
 62
     7
100
AcDbPolyline
 90
        2
 70
     0
 43
0.0
 10
550.649556411559
 20
-71.9087269752972
 10
550.649556411559
 20
-22.70803746020123
  0
LWPOLYLINE
  5
10206
330
1F
100
AcDbEntity
  8
2
 62
     7
100
AcDbPolyline
 90
        2
 70
     0
 43
0.0
 10
567.6190186786631
 20
-71.9087269752972
 10
567.6190186786631
 20
-22.70803746020122
  0
LWPOLYLINE
  5
10207
330
1F
100
AcDbEntity
  8
2
 62
     7
100
AcDbPolyline
 90
        2
 70
     0
 43
0.0
 10
584.5884809457671
 20
-71.9087269752972
 10
584.5884809457671
 20
-22.70803746020122
  0
LWPOLYLINE
  5
10208
330
1F
100
AcDbEntity
  8
2
 62
     7
100
AcDbPolyline
 90
        2
 70
     0
 43
0.0
 10
601.5579432128711
 20
-71.90872697529718
 10
601.5579432128711
 20
-22.70803746020121
  0
LWPOLYLINE
  5
10209
330
1F
100
AcDbEntity
  8
2
 62
     7
100
AcDbPolyline
 90
        2
 70
     0
 43
0.0
 10
618.5274054799752
 20
-71.90872697529718
 10
618.5274054799752
 20
-22.70803746020121
  0
LWPOLYLINE
  5
1020A
330
1F
100
AcDbEntity
  8
2
 62
     7
100
AcDbPolyline
 90
        2
 70
     0
 43
0.0
 10
635.4968677470791
 20
-71.90872697529718
 10
635.4968677470791
 20
-22.70803746020121
  0
LWPOLYLINE
  5
1020B
330
1F
100
AcDbEntity
  8
2
 62
     7
100
AcDbPolyline
 90
        2
 70
     0
 43
0.0
 10
652.4663300141832
 20
-71.90872697529717
 10
652.4663300141832
 20
-22.7080374602012
  0
LWPOLYLINE
  5
1020C
330
1F
100
AcDbEntity
  8
2
 62
     7
100
AcDbPolyline
 90
        2
 70
     0
 43
0.0
 10
669.4357922812871
 20
-71.90872697529717
 10
669.4357922812871
 20
-22.7080374602012
  0
LWPOLYLINE
  5
1020D
330
1F
100
AcDbEntity
  8
2
 62
     7
100
AcDbPolyline
 90
        2
 70
     0
 43
0.0
 10
686.4052545483912
 20
-71.90872697529717
 10
686.4052545483912
 20
-22.70803746020119
  0
LWPOLYLINE
  5
1020E
330
1F
100
AcDbEntity
  8
2
 62
     7
100
AcDbPolyline
 90
        2
 70
     0
 43
0.0
 10
703.3747168154953
 20
-71.90872697529716
 10
703.3747168154953
 20
-22.70803746020119
  0
LWPOLYLINE
  5
1020F
330
1F
100
AcDbEntity
  8
2
 62
     7
100
AcDbPolyline
 90
        2
 70
     0
 43
0.0
 10
720.3441790825992
 20
-71.90872697529716
 10
720.3441790825992
 20
-22.70803746020119
  0
LWPOLYLINE
  5
10210
330
1F
100
AcDbEntity
  8
2
 62
     7
100
AcDbPolyline
 90
        2
 70
     0
 43
0.0
 10
737.3136413497033
 20
-71.90872697529716
 10
737.3136413497033
 20
-22.70803746020118
  0
LWPOLYLINE
  5
10211
330
1F
100
AcDbEntity
  8
2
 62
     7
100
AcDbPolyline
 90
        2
 70
     0
 43
0.0
 10
754.2831036168072
 20
-71.90872697529716
 10
754.2831036168072
 20
-22.70803746020118
  0
LWPOLYLINE
  5
10212
330
1F
100
AcDbEntity
  8
2
 62
     7
100
AcDbPolyline
 90
        2
 70
     0
 43
0.0
 10
771.2525658839113
 20
-71.90872697529714
 10
771.2525658839113
 20
-22.70803746020117
  0
LWPOLYLINE
  5
10213
330
1F
100
AcDbEntity
  8
2
 62
     7
100
AcDbPolyline
 90
        2
 70
     0
 43
0.0
 10
788.2220281510154
 20
-71.90872697529714
 10
788.2220281510154
 20
-22.70803746020117
  0
LWPOLYLINE
  5
10214
330
1F
100
AcDbEntity
  8
2
 62
     7
100
AcDbPolyline
 90
        2
 70
     0
 43
0.0
 10
805.1914904181193
 20
-71.90872697529714
 10
805.1914904181193
 20
-22.70803746020117
  0
LWPOLYLINE
  5
10215
330
1F
100
AcDbEntity
  8
2
 62
     7
100
AcDbPolyline
 90
        2
 70
     0
 43
0.0
 10
822.1609526852234
 20
-71.90872697529713
 10
822.1609526852234
 20
-22.70803746020116
  0
LWPOLYLINE
  5
10216
330
1F
100
AcDbEntity
  8
2
 62
     7
100
AcDbPolyline
 90
        2
 70
     0
 43
0.0
 10
839.1304149523273
 20
-71.90872697529713
 10
839.1304149523273
 20
-22.70803746020116
  0
LWPOLYLINE
  5
10217
330
1F
100
AcDbEntity
  8
2
 62
     7
100
AcDbPolyline
 90
        2
 70
     0
 43
0.0
 10
856.0998772194314
 20
-71.90872697529713
 10
856.0998772194314
 20
-22.70803746020115
  0
LWPOLYLINE
  5
10218
330
1F
100
AcDbEntity
  8
2
 62
     7
100
AcDbPolyline
 90
        2
 70
     0
 43
0.0
 10
873.0693394865355
 20
-71.90872697529713
 10
873.0693394865355
 20
-22.70803746020115
  0
LWPOLYLINE
  5
10219
330
1F
100
AcDbEntity
  8
2
 62
     7
100
AcDbPolyline
 90
        2
 70
     0
 43
0.0
 10
890.0388017536394
 20
-71.90872697529711
 10
890.0388017536394
 20
-22.70803746020114
  0
LWPOLYLINE
  5
1021A
330
1F
100
AcDbEntity
  8
2
 62
     7
100
AcDbPolyline
 90
        2
 70
     0
 43
0.0
 10
907.0082640207434
 20
-71.90872697529711
 10
907.0082640207434
 20
-22.70803746020114
  0
LWPOLYLINE
  5
1021B
330
1F
100
AcDbEntity
  8
2
 62
     7
100
AcDbPolyline
 90
        2
 70
     0
 43
0.0
 10
923.9777262878474
 20
-71.90872697529711
 10
923.9777262878474
 20
-22.70803746020114
  0
LWPOLYLINE
  5
1021C
330
1F
100
AcDbEntity
  8
2
 62
     7
100
AcDbPolyline
 90
        2
 70
     0
 43
0.0
 10
940.9471885549515
 20
-71.9087269752971
 10
940.9471885549515
 20
-22.70803746020113
  0
LWPOLYLINE
  5
1021D
330
1F
100
AcDbEntity
  8
2
 62
     7
100
AcDbPolyline
 90
        2
 70
     0
 43
0.0
 10
957.9166508220555
 20
-71.9087269752971
 10
957.9166508220555
 20
-22.70803746020113
  0
LWPOLYLINE
  5
1021E
330
1F
100
AcDbEntity
  8
2
 62
     7
100
AcDbPolyline
 90
        2
 70
     0
 43
0.0
 10
974.8861130891595
 20
-71.9087269752971
 10
974.8861130891595
 20
-22.70803746020112
  0
LWPOLYLINE
  5
1021F
330
1F
100
AcDbEntity
  8
2
 62
     7
100
AcDbPolyline
 90
        2
 70
     0
 43
0.0
 10
991.8555753562634
 20
-71.9087269752971
 10
991.8555753562634
 20
-22.70803746020112
  0
LWPOLYLINE
  5
10220
330
1F
100
AcDbEntity
  8
2
 62
     7
100
AcDbPolyline
 90
        2
 70
     0
 43
0.0
 10
1008.825037623368
 20
-71.90872697529709
 10
1008.825037623368
 20
-22.70803746020112
  0
LWPOLYLINE
  5
10221
330
1F
100
AcDbEntity
  8
2
 62
     7
100
AcDbPolyline
 90
        2
 70
     0
 43
0.0
 10
1025.794499890472
 20
-71.90872697529709
 10
1025.794499890472
 20
-22.70803746020111
  0
LWPOLYLINE
  5
10222
330
1F
100
AcDbEntity
  8
2
 62
     7
100
AcDbPolyline
 90
        2
 70
     0
 43
0.0
 10
1042.763962157576
 20
-71.90872697529709
 10
1042.763962157576
 20
-22.70803746020111
  0
LWPOLYLINE
  5
10223
330
1F
100
AcDbEntity
  8
2
 62
     7
100
AcDbPolyline
 90
        2
 70
     0
 43
0.0
 10
1059.73342442468
 20
-71.90872697529707
 10
1059.73342442468
 20
-22.7080374602011
  0
LWPOLYLINE
  5
10224
330
1F
100
AcDbEntity
  8
2
 62
     7
100
AcDbPolyline
 90
        2
 70
     0
 43
0.0
 10
1076.702886691784
 20
-71.90872697529707
 10
1076.702886691784
 20
-22.7080374602011
  0
LWPOLYLINE
  5
10225
330
1F
100
AcDbEntity
  8
2
 62
     7
100
AcDbPolyline
 90
        2
 70
     0
 43
0.0
 10
1093.672348958888
 20
-71.90872697529707
 10
1093.672348958888
 20
-22.70803746020109
  0
LWPOLYLINE
  5
10226
330
1F
100
AcDbEntity
  8
2
 62
     7
100
AcDbPolyline
 90
        2
 70
     0
 43
0.0
 10
1110.641811225992
 20
-71.90872697529706
 10
1110.641811225992
 20
-22.70803746020109
  0
DIMENSION
  5
1023B
102
{ACAD_REACTORS
330
1023D
102
}
102
{ACAD_XDICTIONARY
360
1023C
102
}
330
1F
100
AcDbEntity
  8
0
  6
ByBlock
100
AcDbDimension
  2
*D12
 10
1044.708894411711
 20
139.8326718959891
 30
0.0
 11
644.8224975407136
 21
152.3326718959891
 31
0.0
 70
    32
  1
800
 71
     5
 42
800.1726801388654
 73
     0
 74
     0
 75
     0
  3
ISO-25
100
AcDbAlignedDimension
 13
244.9361006697163
 23
76.25663148398918
 33
0.0
 14
1044.708894411711
 24
76.1547829752974
 34
0.0
100
AcDbRotatedDimension
1001
ACAD
1000
DSTYLE
1002
{
1070
   171
1070
     2
1070
   143
1040
25.4
1070
   274
1070
     2
1070
    41
1040
10.0
1070
   141
1040
0.09
1070
   271
1070
     4
1070
    43
1040
0.38
1070
    44
1040
0.18
1070
    42
1040
0.0625
1070
   147
1040
5.0
1070
   144
1040
1.0005
1070
    77
1070
     2
1070
   272
1070
     4
1070
    73
1070
     1
1070
   279
1070
     2
1070
   172
1070
     0
1070
    74
1070
     1
1070
   283
1070
     1
1070
   140
1040
15.0
1070
   284
1070
     0
1070
    78
1070
     0
1002
}
  0
SPLINE
  5
10278
330
1F
100
AcDbEntity
  8
2
 62
     7
100
AcDbSpline
210
0.0
220
0.0
230
1.0
 70
     8
 71
     3
 72
     8
 73
     4
 74
     0
 42
0.000000001
 43
0.0000001
 40
0.0
 40
0.0
 40
0.0
 40
0.0
 40
1.0
 40
1.0
 40
1.0
 40
1.0
 10
834.1270059432754
 20
-9.89810501006391
 30
0.0
 10
834.1270059432754
 20
-8.781003249771084
 30
0.0
 10
833.4974578371452
 20
-7.74875839707206
 30
0.0
 10
832.4755058078681
 20
-7.190207641354072
 30
0.0
  0
SPLINE
  5
10279
330
1F
100
AcDbEntity
  8
2
 62
     7
100
AcDbSpline
210
0.0
220
0.0
230
1.0
 70
     8
 71
     3
 72
     8
 73
     4
 74
     0
 42
0.000000001
 43
0.0000001
 40
0.0
 40
0.0
 40
0.0
 40
0.0
 40
1.0
 40
1.0
 40
1.0
 40
1.0
 10
832.4755058078681
 20
-7.190207641354072
 30
0.0
 10
831.4535539030192
 20
-6.631656636779462
 30
0.0
 10
830.1944571930467
 20
-6.631656636779462
 30
0.0
 10
829.1725051637695
 20
-7.190207641354072
 30
0.0
  0
SPLINE
  5
1027A
330
1F
100
AcDbEntity
  8
2
 62
     7
100
AcDbSpline
210
0.0
220
0.0
230
1.0
 70
     8
 71
     3
 72
     8
 73
     4
 74
     0
 42
0.000000001
 43
0.0000001
 40
0.0
 40
0.0
 40
0.0
 40
0.0
 40
1.0
 40
1.0
 40
1.0
 40
1.0
 10
829.1725051637695
 20
-7.190207641354072
 30
0.0
 10
828.1505531344922
 20
-7.74875839707206
 30
0.0
 10
827.5210046550778
 20
-8.781003249771084
 30
0.0
 10
827.5210046550778
 20
-9.89810501006391
 30
0.0
  0
SPLINE
  5
1027B
330
1F
100
AcDbEntity
  8
2
 62
     7
100
AcDbSpline
210
0.0
220
0.0
230
1.0
 70
     8
 71
     3
 72
     8
 73
     4
 74
     0
 42
0.000000001
 43
0.0000001
 40
0.0
 40
0.0
 40
0.0
 40
0.0
 40
1.0
 40
1.0
 40
1.0
 40
1.0
 10
827.5210046550778
 20
-9.89810501006391
 30
0.0
 10
827.5210046550778
 20
-11.01520701921313
 30
0.0
 10
828.1505531344922
 20
-12.04745174748396
 30
0.0
 10
829.1725051637695
 20
-12.60600275205834
 30
0.0
  0
SPLINE
  5
1027C
330
1F
100
AcDbEntity
  8
2
 62
     7
100
AcDbSpline
210
0.0
220
0.0
230
1.0
 70
     8
 71
     3
 72
     8
 73
     4
 74
     0
 42
0.000000001
 43
0.0000001
 40
0.0
 40
0.0
 40
0.0
 40
0.0
 40
1.0
 40
1.0
 40
1.0
 40
1.0
 10
829.1725051637695
 20
-12.60600275205834
 30
0.0
 10
830.1944571930467
 20
-13.16455350777678
 30
0.0
 10
831.4535539030192
 20
-13.16455350777678
 30
0.0
 10
832.4755058078681
 20
-12.60600275205834
 30
0.0
  0
SPLINE
  5
1027D
330
1F
100
AcDbEntity
  8
2
 62
     7
100
AcDbSpline
210
0.0
220
0.0
230
1.0
 70
     8
 71
     3
 72
     8
 73
     4
 74
     0
 42
0.000000001
 43
0.0000001
 40
0.0
 40
0.0
 40
0.0
 40
0.0
 40
1.0
 40
1.0
 40
1.0
 40
1.0
 10
832.4755058078681
 20
-12.60600275205834
 30
0.0
 10
833.4974578371452
 20
-12.04745174748396
 30
0.0
 10
834.1270059432754
 20
-11.01520701921313
 30
0.0
 10
834.1270059432754
 20
-9.89810501006391
 30
0.0
  0
LWPOLYLINE
  5
1027E
102
{ACAD_REACTORS
102
}
330
1F
100
AcDbEntity
  8
2
 62
     7
100
AcDbPolyline
 90
        2
 70
     0
 43
0.0
 10
814.8322876486732
 20
-22.70803746020115
 10
814.8322876486732
 20
0.0000000000000914
  0
LWPOLYLINE
  5
1027F
330
1F
100
AcDbEntity
  8
2
 62
     7
100
AcDbPolyline
 90
        4
 70
     0
 43
0.0
 10
814.8322876486732
 20
-4.424784636779258
 10
809.0416420713632
 20
-4.424784636779258
 10
809.0416420713632
 20
-9.703783033851687
 10
814.8322876486732
 20
-9.703783033851687
  0
LWPOLYLINE
  5
10280
330
1F
100
AcDbEntity
  8
2
 62
     7
100
AcDbPolyline
 90
        4
 70
     1
 43
0.0
 10
834.1270059432754
 20
-9.89810501006391
 10
834.1270059432754
 20
-9.89810501006391
 10
834.1270059432754
 20
-9.89810501006391
 10
834.1270059432754
 20
-9.89810501006391
  0
LWPOLYLINE
  5
10281
330
1F
100
AcDbEntity
  8
2
 62
     7
100
AcDbPolyline
 90
        2
 70
     0
 43
0.0
 10
846.8157233229642
 20
-22.70803746020115
 10
846.8157233229642
 20
0.0000000000000914
  0
LWPOLYLINE
  5
10282
330
1F
100
AcDbEntity
  8
2
 62
     7
100
AcDbPolyline
 90
        2
 70
     0
 43
0.0
 10
852.6063689002744
 20
-9.703783033851687
 10
846.8157233229642
 20
-9.703783033851687
  0
LWPOLYLINE
  5
10283
330
1F
100
AcDbEntity
  8
2
 62
     7
100
AcDbPolyline
 90
        2
 70
     0
 43
0.0
 10
852.6063689002744
 20
-4.424784636779258
 10
852.6063689002744
 20
-9.703783033851687
  0
LWPOLYLINE
  5
10284
330
1F
100
AcDbEntity
  8
2
 62
     7
100
AcDbPolyline
 90
        2
 70
     0
 43
0.0
 10
846.8157233229642
 20
-4.424784636779258
 10
852.6063689002744
 20
-4.424784636779258
  0
DIMENSION
  5
10301
330
1F
100
AcDbEntity
  8
0
  6
ByBlock
100
AcDbDimension
  2
*D18
 10
1646.464056899861
 20
-72.38572205764676
 30
0.0
 11
1646.464056899861
 21
-16.31326853970909
 31
0.0
 70
    32
  1
112
 71
     5
 42
112.2009794893933
 73
     0
 74
     0
 75
     0
 53
90.0
  3
ISO-25
100
AcDbAlignedDimension
 13
1476.978623723141
 23
39.7591849782286
 33
0.0
 14
1476.978654759709
 24
-72.38572205764675
 34
0.0
 50
90.0
100
AcDbRotatedDimension
1001
ACAD
1000
DSTYLE
1002
{
1070
   171
1070
     2
1070
   143
1040
25.4
1070
   274
1070
     2
1070
    41
1040
10.0
1070
   141
1040
0.09
1070
   271
1070
     4
1070
    43
1040
0.38
1070
    44
1040
0.18
1070
    42
1040
0.0625
1070
   147
1040
5.0
1070
   144
1040
1.0005
1070
    77
1070
     3
1070
   272
1070
     4
1070
    73
1070
     1
1070
   279
1070
     2
1070
   172
1070
     0
1070
    74
1070
     1
1070
   283
1070
     1
1070
   140
1040
15.0
1070
   284
1070
     0
1070
    78
1070
     0
1002
}
  0
LINE
  5
10302
330
1F
100
AcDbEntity
  8
2
 62
     7
100
AcDbLine
 10
1389.636664938403
 20
-23.13291316806433
 30
0.0
 11
1394.765680360121
 21
-53.10800754914092
 31
0.0
  0
LINE
  5
10303
330
1F
100
AcDbEntity
  8
2
 62
     7
100
AcDbLine
 10
1564.320566759938
 20
-23.13291316806433
 30
0.0
 11
1559.191629552996
 21
-53.10800754914092
 31
0.0
  0
LINE
  5
10304
330
1F
100
AcDbEntity
  8
2
 62
     7
100
AcDbLine
 10
1476.978654759709
 20
-72.38572205764697
 30
0.0
 11
1476.978654759709
 21
-23.13291316806433
 31
0.0
  0
LINE
  5
10305
330
1F
100
AcDbEntity
  8
2
 62
     7
100
AcDbLine
 10
1460.112358816777
 20
-72.38572205764697
 30
0.0
 11
1460.112358816777
 21
-23.13291316806433
 31
0.0
  0
LINE
  5
10306
330
1F
100
AcDbEntity
  8
2
 62
     7
100
AcDbLine
 10
1396.379828872815
 20
-58.31410226896858
 30
0.0
 11
1396.379828872815
 21
-23.13291316806433
 31
0.0
  0
LINE
  5
10307
330
1F
100
AcDbEntity
  8
2
 62
     7
100
AcDbLine
 10
1493.844935610864
 20
-72.38572205764697
 30
0.0
 11
1493.844935610864
 21
-23.13291316806433
 31
0.0
  0
SPLINE
  5
10308
330
1F
100
AcDbEntity
  8
2
 62
     7
100
AcDbSpline
210
0.0
220
0.0
230
1.0
 70
     8
 71
     3
 72
     8
 73
     4
 74
     0
 42
0.000000001
 43
0.0000001
 40
0.0
 40
0.0
 40
0.0
 40
0.0
 40
1.0
 40
1.0
 40
1.0
 40
1.0
 10
1534.186001937488
 20
-72.38573613292513
 30
0.0
 10
1546.674000344396
 20
-72.38573613292513
 30
0.0
 10
1557.293919932113
 20
-64.1984516627995
 30
0.0
 10
1559.191590183142
 20
-53.10801352802062
 30
0.0
  0
LINE
  5
10309
330
1F
100
AcDbEntity
  8
2
 62
     7
100
AcDbLine
 10
1557.577418573467
 20
-58.31407436753037
 30
0.0
 11
1557.577418573467
 21
-23.13291316806433
 31
0.0
  0
LINE
  5
1030A
330
1F
100
AcDbEntity
  8
2
 62
     7
100
AcDbLine
 10
1396.379828872815
 20
-57.23100296837313
 30
0.0
 11
1557.577418573467
 21
-57.23100296837313
 31
0.0
  0
SPLINE
  5
1030B
330
1F
100
AcDbEntity
  8
2
 62
     7
100
AcDbSpline
210
0.0
220
0.0
230
1.0
 70
     8
 71
     3
 72
     8
 73
     4
 74
     0
 42
0.000000001
 43
0.0000001
 40
0.0
 40
0.0
 40
0.0
 40
0.0
 40
1.0
 40
1.0
 40
1.0
 40
1.0
 10
1394.765656606976
 20
-53.10800854562083
 30
0.0
 10
1396.663324495814
 20
-64.19844917160052
 30
0.0
 10
1407.283245527092
 20
-72.38573613292513
 30
0.0
 10
1419.771246164958
 20
-72.38573613292513
 30
0.0
  0
LINE
  5
1030C
330
1F
100
AcDbEntity
  8
2
 62
     7
100
AcDbLine
 10
1392.878050579462
 20
-42.07628387909929
 30
0.0
 11
1561.079230548297
 21
-42.07628387909929
 31
0.0
  0
LINE
  5
1030D
330
1F
100
AcDbEntity
  8
2
 62
     7
100
AcDbLine
 10
1419.74288669141
 20
-72.38572205764697
 30
0.0
 11
1504.186001937488
 21
-72.38572205764697
 31
0.0
  0
LINE
  5
1030E
330
1F
100
AcDbEntity
  8
2
 62
     7
100
AcDbLine
 10
1379.513595003019
 20
-0.4008205834352623
 30
0.0
 11
1574.44369929339
 21
-0.4008205834352623
 31
0.0
  0
LINE
  5
1030F
330
1F
100
AcDbEntity
  8
2
 62
     7
100
AcDbLine
 10
1379.513595003019
 20
-23.13291316806433
 30
0.0
 11
1574.44369929339
 21
-23.13291316806433
 31
0.0
  0
SPLINE
  5
10310
330
1F
100
AcDbEntity
  8
2
 62
     7
100
AcDbSpline
210
0.0
220
0.0
230
1.0
 70
     8
 71
     3
 72
     8
 73
     4
 74
     0
 42
0.000000001
 43
0.0000001
 40
0.0
 40
0.0
 40
0.0
 40
0.0
 40
1.0
 40
1.0
 40
1.0
 40
1.0
 10
1561.793969396603
 20
18.54256420287876
 30
0.0
 10
1561.793969396603
 20
21.55702542091441
 30
0.0
 10
1560.461236991239
 20
24.44802203065748
 30
0.0
 10
1558.088958036813
 20
26.57956804295506
 30
0.0
  0
SPLINE
  5
10311
330
1F
100
AcDbEntity
  8
2
 62
     7
100
AcDbSpline
210
0.0
220
0.0
230
1.0
 70
     8
 71
     3
 72
     8
 73
     4
 74
     0
 42
0.000000001
 43
0.0000001
 40
0.0
 40
0.0
 40
0.0
 40
0.0
 40
1.0
 40
1.0
 40
1.0
 40
1.0
 10
1558.088958036813
 20
26.57956804295506
 30
0.0
 10
1555.716679344853
 20
28.71111393069233
 30
0.0
 10
1552.499178451955
 20
29.90860376895395
 30
0.0
 10
1549.144269814604
 20
29.90860351983358
 30
0.0
  0
LINE
  5
10312
102
{ACAD_REACTORS
330
1033A
102
}
330
1F
100
AcDbEntity
  8
2
 62
     7
100
AcDbLine
 10
1379.513595003019
 20
-0.4008205834352623
 30
0.0
 11
1379.513595003019
 21
-23.13291316806433
 31
0.0
  0
LINE
  5
10313
330
1F
100
AcDbEntity
  8
2
 62
     7
100
AcDbLine
 10
1390.284938277098
 20
-26.92156516350477
 30
0.0
 11
1563.672303307068
 21
-26.92156516350477
 31
0.0
  0
SPLINE
  5
10314
330
1F
100
AcDbEntity
  8
2
 62
     7
100
AcDbSpline
210
0.0
220
0.0
230
1.0
 70
     8
 71
     3
 72
     8
 73
     4
 74
     0
 42
0.000000001
 43
0.0000001
 40
0.0
 40
0.0
 40
0.0
 40
0.0
 40
1.0
 40
1.0
 40
1.0
 40
1.0
 10
1460.112389918961
 20
12.56077489290166
 30
0.0
 10
1460.112383357319
 20
7.260571240150028
 30
0.0
 10
1463.19411731003
 20
2.34549162743744
 30
0.0
 10
1468.239272318893
 20
-0.400848858552564
 30
0.0
  0
SPLINE
  5
10315
330
1F
100
AcDbEntity
  8
2
 62
     7
100
AcDbSpline
210
0.0
220
0.0
230
1.0
 70
     8
 71
     3
 72
     8
 73
     4
 74
     0
 42
0.000000001
 43
0.0000001
 40
0.0
 40
0.0
 40
0.0
 40
0.0
 40
1.0
 40
1.0
 40
1.0
 40
1.0
 10
1487.388091955215
 20
15.44117892119399
 30
0.0
 10
1487.388091955215
 20
18.78272458055173
 30
0.0
 10
1485.404064455215
 20
21.87044027538215
 30
0.0
 10
1482.183373423078
 20
23.54121298050083
 30
0.0
  0
SPLINE
  5
10316
330
1F
100
AcDbEntity
  8
2
 62
     7
100
AcDbSpline
210
0.0
220
0.0
230
1.0
 70
     8
 71
     3
 72
     8
 73
     4
 74
     0
 42
0.000000001
 43
0.0000001
 40
0.0
 40
0.0
 40
0.0
 40
0.0
 40
1.0
 40
1.0
 40
1.0
 40
1.0
 10
1482.183373423078
 20
23.54121298050083
 30
0.0
 10
1478.962682259709
 20
25.21198581017958
 30
0.0
 10
1474.994627259709
 20
25.21198581017958
 30
0.0
 10
1471.773936490039
 20
23.54121298050083
 30
0.0
  0
SPLINE
  5
10317
330
1F
100
AcDbEntity
  8
2
 62
     7
100
AcDbSpline
210
0.0
220
0.0
230
1.0
 70
     8
 71
     3
 72
     8
 73
     4
 74
     0
 42
0.000000001
 43
0.0000001
 40
0.0
 40
0.0
 40
0.0
 40
0.0
 40
1.0
 40
1.0
 40
1.0
 40
1.0
 10
1471.773936490039
 20
23.54121298050083
 30
0.0
 10
1468.553245457902
 20
21.87044027538215
 30
0.0
 10
1466.569217957902
 20
18.78272458055173
 30
0.0
 10
1466.569217957902
 20
15.44117892119399
 30
0.0
  0
SPLINE
  5
10318
330
1F
100
AcDbEntity
  8
2
 62
     7
100
AcDbSpline
210
0.0
220
0.0
230
1.0
 70
     8
 71
     3
 72
     8
 73
     4
 74
     0
 42
0.000000001
 43
0.0000001
 40
0.0
 40
0.0
 40
0.0
 40
0.0
 40
1.0
 40
1.0
 40
1.0
 40
1.0
 10
1466.569217957902
 20
15.44117892119399
 30
0.0
 10
1466.569217957902
 20
12.09963338639656
 30
0.0
 10
1468.553245457902
 20
9.01191769156614
 30
0.0
 10
1471.773936490039
 20
7.341144861887386
 30
0.0
  0
SPLINE
  5
10319
330
1F
100
AcDbEntity
  8
2
 62
     7
100
AcDbSpline
210
0.0
220
0.0
230
1.0
 70
     8
 71
     3
 72
     8
 73
     4
 74
     0
 42
0.000000001
 43
0.0000001
 40
0.0
 40
0.0
 40
0.0
 40
0.0
 40
1.0
 40
1.0
 40
1.0
 40
1.0
 10
1471.773936490039
 20
7.341144861887386
 30
0.0
 10
1474.994627653408
 20
5.670372032208405
 30
0.0
 10
1478.962682653408
 20
5.670372032208405
 30
0.0
 10
1482.183373423078
 20
7.341144861887386
 30
0.0
  0
SPLINE
  5
1031A
330
1F
100
AcDbEntity
  8
2
 62
     7
100
AcDbSpline
210
0.0
220
0.0
230
1.0
 70
     8
 71
     3
 72
     8
 73
     4
 74
     0
 42
0.000000001
 43
0.0000001
 40
0.0
 40
0.0
 40
0.0
 40
0.0
 40
1.0
 40
1.0
 40
1.0
 40
1.0
 10
1482.183373423078
 20
7.341144861887386
 30
0.0
 10
1485.404064455215
 20
9.01191769156614
 30
0.0
 10
1487.388091955215
 20
12.09963338639656
 30
0.0
 10
1487.388091955215
 20
15.44117892119399
 30
0.0
  0
SPLINE
  5
1031B
330
1F
100
AcDbEntity
  8
2
 62
     7
100
AcDbSpline
210
0.0
220
0.0
230
1.0
 70
     8
 71
     3
 72
     8
 73
     4
 74
     0
 42
0.000000001
 43
0.0000001
 40
0.0
 40
0.0
 40
0.0
 40
0.0
 40
1.0
 40
1.0
 40
1.0
 40
1.0
 10
1404.812976056884
 20
29.90860351983358
 30
0.0
 10
1401.458067157067
 20
29.90860351983358
 30
0.0
 10
1398.240567051566
 20
28.71111330789265
 30
0.0
 10
1395.868288359606
 20
26.57956692191462
 30
0.0
  0
SPLINE
  5
1031C
330
1F
100
AcDbEntity
  8
2
 62
     7
100
AcDbSpline
210
0.0
220
0.0
230
1.0
 70
     8
 71
     3
 72
     8
 73
     4
 74
     0
 42
0.000000001
 43
0.0000001
 40
0.0
 40
0.0
 40
0.0
 40
0.0
 40
1.0
 40
1.0
 40
1.0
 40
1.0
 10
1395.868288359606
 20
26.57956692191462
 30
0.0
 10
1393.496009667646
 20
24.44802090961818
 30
0.0
 10
1392.163277787214
 20
21.55702429987534
 30
0.0
 10
1392.163278049679
 20
18.54256320639885
 30
0.0
  0
LINE
  5
1031D
330
1F
100
AcDbEntity
  8
2
 62
     7
100
AcDbLine
 10
1446.073613765599
 20
39.75918497822906
 30
0.0
 11
1507.883633680684
 21
39.75918497822906
 31
0.0
  0
SPLINE
  5
1031E
330
1F
100
AcDbEntity
  8
2
 62
     7
100
AcDbSpline
210
0.0
220
0.0
230
1.0
 70
     8
 71
     3
 72
     8
 73
     4
 74
     0
 42
0.000000001
 43
0.0000001
 40
0.0
 40
0.0
 40
0.0
 40
0.0
 40
1.0
 40
1.0
 40
1.0
 40
1.0
 10
1446.073613503133
 20
39.75917090294976
 30
0.0
 10
1444.955310449039
 20
39.75917090294976
 30
0.0
 10
1443.882810545105
 20
39.36000720832951
 30
0.0
 10
1443.09205089363
 20
38.64949212001713
 30
0.0
  0
SPLINE
  5
1031F
330
1F
100
AcDbEntity
  8
2
 62
     7
100
AcDbSpline
210
0.0
220
0.0
230
1.0
 70
     8
 71
     3
 72
     8
 73
     4
 74
     0
 42
0.000000001
 43
0.0000001
 40
0.0
 40
0.0
 40
0.0
 40
0.0
 40
1.0
 40
1.0
 40
1.0
 40
1.0
 10
1443.09205089363
 20
38.64949212001713
 30
0.0
 10
1442.30129150462
 20
37.93897665802498
 30
0.0
 10
1441.857047456987
 20
36.97531095536371
 30
0.0
 10
1441.857047456987
 20
35.97049063239112
 30
0.0
  0
LINE
  5
10320
330
1F
100
AcDbEntity
  8
2
 62
     7
100
AcDbLine
 10
1487.388091955215
 20
15.44117892119399
 30
0.0
 11
1487.388091955215
 21
15.44117892119399
 31
0.0
  0
LINE
  5
10321
330
1F
100
AcDbEntity
  8
2
 62
     7
100
AcDbLine
 10
1487.388091955215
 20
15.44117892119399
 30
0.0
 11
1487.388091955215
 21
15.44117892119399
 31
0.0
  0
LINE
  5
10322
330
1F
100
AcDbEntity
  8
2
 62
     7
100
AcDbLine
 10
1487.388091955215
 20
15.44117892119399
 30
0.0
 11
1487.388091955215
 21
15.44117892119399
 31
0.0
  0
LINE
  5
10323
330
1F
100
AcDbEntity
  8
2
 62
     7
100
AcDbLine
 10
1487.388091955215
 20
15.44117892119399
 30
0.0
 11
1487.388091955215
 21
15.44117892119399
 31
0.0
  0
LINE
  5
10324
330
1F
100
AcDbEntity
  8
2
 62
     7
100
AcDbLine
 10
1392.163262564204
 20
-0.4008205834352623
 30
0.0
 11
1392.163262564204
 21
18.54256420287876
 31
0.0
  0
LINE
  5
10325
330
1F
100
AcDbEntity
  8
2
 62
     7
100
AcDbLine
 10
1441.857047456987
 20
29.90861722143333
 30
0.0
 11
1441.857047456987
 21
35.97049100607157
 31
0.0
  0
LINE
  5
10326
330
1F
100
AcDbEntity
  8
2
 62
     7
100
AcDbLine
 10
1460.112358816777
 20
12.56075782818286
 30
0.0
 11
1460.112358816777
 21
29.90861722143333
 31
0.0
  0
LINE
  5
10327
330
1F
100
AcDbEntity
  8
2
 62
     7
100
AcDbLine
 10
1474.448668439375
 20
39.75918497822906
 30
0.0
 11
1474.448668439375
 21
51.12523799678272
 31
0.0
  0
SPLINE
  5
10328
330
1F
100
AcDbEntity
  8
2
 62
     7
100
AcDbSpline
210
0.0
220
0.0
230
1.0
 70
     8
 71
     3
 72
     8
 73
     4
 74
     0
 42
0.000000001
 43
0.0000001
 40
0.0
 40
0.0
 40
0.0
 40
0.0
 40
1.0
 40
1.0
 40
1.0
 40
1.0
 10
1485.718038381621
 20
-0.4008484848721139
 30
0.0
 10
1490.763193390484
 20
2.345492374797203
 30
0.0
 10
1493.844926949496
 20
7.260572361189332
 30
0.0
 10
1493.844919862923
 20
12.5607758893818
 30
0.0
  0
LINE
  5
10329
330
1F
100
AcDbEntity
  8
2
 62
     7
100
AcDbLine
 10
1479.508625988266
 20
39.75918497822906
 30
0.0
 11
1479.508625988266
 21
51.12523799678272
 31
0.0
  0
SPLINE
  5
1032A
330
1F
100
AcDbEntity
  8
2
 62
     7
100
AcDbSpline
210
0.0
220
0.0
230
1.0
 70
     8
 71
     3
 72
     8
 73
     4
 74
     0
 42
0.000000001
 43
0.0000001
 40
0.0
 40
0.0
 40
0.0
 40
0.0
 40
1.0
 40
1.0
 40
1.0
 40
1.0
 10
1542.100199595597
 20
35.97049100607157
 30
0.0
 10
1542.100199595597
 20
36.97531145360333
 30
0.0
 10
1541.655955547964
 20
37.9389770317043
 30
0.0
 10
1540.865196290187
 20
38.64949212001713
 30
0.0
  0
SPLINE
  5
1032B
330
1F
100
AcDbEntity
  8
2
 62
     7
100
AcDbSpline
210
0.0
220
0.0
230
1.0
 70
     8
 71
     3
 72
     8
 73
     4
 74
     0
 42
0.000000001
 43
0.0000001
 40
0.0
 40
0.0
 40
0.0
 40
0.0
 40
1.0
 40
1.0
 40
1.0
 40
1.0
 10
1540.865196290187
 20
38.64949212001713
 30
0.0
 10
1540.074436507479
 20
39.36000745744897
 30
0.0
 10
1539.001936603545
 20
39.75917090294976
 30
0.0
 10
1537.883633680684
 20
39.75917090294976
 30
0.0
  0
LINE
  5
1032C
330
1F
100
AcDbEntity
  8
2
 62
     7
100
AcDbLine
 10
1493.844935610864
 20
12.56075782818286
 30
0.0
 11
1493.844935610864
 21
29.90861722143333
 31
0.0
  0
LINE
  5
1032D
330
1F
100
AcDbEntity
  8
2
 62
     7
100
AcDbLine
 10
1542.100137128762
 20
29.90861722143333
 30
0.0
 11
1542.100137128762
 21
35.97049100607157
 31
0.0
  0
LINE
  5
1032E
330
1F
100
AcDbEntity
  8
2
 62
     7
100
AcDbLine
 10
1474.448668439375
 20
51.12523799678272
 30
0.0
 11
1479.508625988266
 21
51.12523799678272
 31
0.0
  0
LINE
  5
1032F
102
{ACAD_REACTORS
330
1033A
102
}
330
1F
100
AcDbEntity
  8
2
 62
     7
100
AcDbLine
 10
1574.44369929339
 20
-0.4008205834352623
 30
0.0
 11
1574.44369929339
 21
-23.13291316806433
 31
0.0
  0
LINE
  5
10330
330
1F
100
AcDbEntity
  8
2
 62
     7
100
AcDbLine
 10
1561.794047480146
 20
-0.4008205834352623
 30
0.0
 11
1561.794047480146
 21
18.54256420287876
 31
0.0
  0
LINE
  5
10331
330
1F
100
AcDbEntity
  8
0
  6
ByBlock
100
AcDbLine
 10
1404.812976056884
 20
29.90860351983358
 30
0.0
 11
1549.144269814604
 21
29.90860351983358
 31
0.0
  0
LINE
  5
10332
330
1F
100
AcDbEntity
  8
2
 62
     7
100
AcDbLine
 10
1443.24607048535
 20
-72.38572205764697
 30
0.0
 11
1443.24607048535
 21
-23.13291316806433
 31
0.0
  0
LINE
  5
10333
330
1F
100
AcDbEntity
  8
2
 62
     7
100
AcDbLine
 10
1510.711235610864
 20
-72.38572205764697
 30
0.0
 11
1510.711235610864
 21
-23.13291316806433
 31
0.0
  0
LINE
  5
10334
330
1F
100
AcDbEntity
  8
2
 62
     7
100
AcDbLine
 10
1527.577535610864
 20
-72.38572205764697
 30
0.0
 11
1527.577535610864
 21
-23.13291316806433
 31
0.0
  0
LINE
  5
10335
330
1F
100
AcDbEntity
  8
2
 62
     7
100
AcDbLine
 10
1426.37977048535
 20
-72.38572205764697
 30
0.0
 11
1426.37977048535
 21
-23.13291316806433
 31
0.0
  0
LINE
  5
10336
330
1F
100
AcDbEntity
  8
2
 62
     7
100
AcDbLine
 10
1409.51347048535
 20
-70.43633477960712
 30
0.0
 11
1409.51347048535
 21
-23.13291316806433
 31
0.0
  0
LINE
  5
10337
330
1F
100
AcDbEntity
  8
2
 62
     7
100
AcDbLine
 10
1544.443835610864
 20
-70.43631154482762
 30
0.0
 11
1544.443835610864
 21
-23.13291316806433
 31
0.0
  0
DIMENSION
  5
10338
102
{ACAD_REACTORS
330
1033A
102
}
102
{ACAD_XDICTIONARY
360
10339
102
}
330
1F
100
AcDbEntity
  8
0
  6
ByBlock
100
AcDbDimension
  2
*D19
 10
1574.44369929339
 20
-134.8285264079704
 30
0.0
 11
1476.978647148204
 21
-147.3285264079704
 31
0.0
 70
    32
  1
195
 71
     5
 42
195.0275693425162
 73
     0
 74
     0
 75
     0
  3
ISO-25
100
AcDbAlignedDimension
 13
1379.513595003019
 23
-11.7668668757498
 33
0.0
 14
1574.44369929339
 24
-11.7668668757498
 34
0.0
100
AcDbRotatedDimension
1001
ACAD
1000
DSTYLE
1002
{
1070
   171
1070
     2
1070
   143
1040
25.4
1070
   274
1070
     2
1070
    41
1040
10.0
1070
   141
1040
0.09
1070
   271
1070
     4
1070
    43
1040
0.38
1070
    44
1040
0.18
1070
    42
1040
0.0625
1070
   147
1040
5.0
1070
   144
1040
1.0005
1070
    77
1070
     2
1070
   272
1070
     4
1070
    73
1070
     1
1070
   279
1070
     2
1070
   172
1070
     0
1070
    74
1070
     1
1070
   283
1070
     1
1070
   140
1040
15.0
1070
   284
1070
     0
1070
    78
1070
     0
1002
}
  0
ENDSEC
  0
SECTION
  2
OBJECTS
  0
DICTIONARY
  5
C
330
0
100
AcDbDictionary
281
     1
  3
ACAD_DETAILVIEWSTYLE
350
10130
  3
ACAD_GROUP
350
D
  3
ACAD_IMAGE_VARS
350
10047
  3
ACAD_LAYOUT
350
10021
  3
ACAD_MATERIAL
350
1003D
  3
ACAD_MLEADERSTYLE
350
10043
  3
ACAD_MLINESTYLE
350
17
  3
ACAD_PLOTSETTINGS
350
10058
  3
ACAD_PLOTSTYLENAME
350
10059
  3
ACAD_SCALELIST
350
FFFF
  3
ACAD_SECTIONVIEWSTYLE
350
10131
  3
ACAD_TABLESTYLE
350
10041
  3
ACAD_VISUALSTYLE
350
10024
  3
ACDB_RECOMPOSE_DATA
350
10356
  3
AcDbVariableDictionary
350
10127
  3
AcStStandard
350
1006B
  3
APPDATA
350
10045
  0
SUN
  5
10046
330
2E
100
AcDbSun
 90
        1
290
     0
 63
     7
421
 16777215
 40
1.0
291
     1
 91
  2455826
 92
 54000000
292
     0
 70
     2
 71
   256
280
     1
  0
DICTIONARY
  5
1017F
330
1017E
100
AcDbDictionary
280
     1
281
     1
  3
ACAD_DIMASSOC
360
10180
  0
DICTIONARY
  5
1023C
330
1023B
100
AcDbDictionary
280
     1
281
     1
  3
ACAD_DIMASSOC
360
1023D
  0
DICTIONARY
  5
10339
330
10338
100
AcDbDictionary
280
     1
281
     1
  3
ACAD_DIMASSOC
360
1033A
  0
DICTIONARY
  5
10130
102
{ACAD_REACTORS
330
C
102
}
330
C
100
AcDbDictionary
281
     1
  0
DICTIONARY
  5
D
330
C
100
AcDbDictionary
281
     1
  0
RASTERVARIABLES
  5
10047
102
{ACAD_REACTORS
330
C
102
}
330
C
100
AcDbRasterVariables
 90
        0
 70
     1
 71
     1
 72
     0
  0
DICTIONARY
  5
10021
102
{ACAD_REACTORS
330
C
102
}
330
C
100
AcDbDictionary
281
     1
  3
Foglio 1
350
10023
  3
Model
350
10022
  0
DICTIONARY
  5
1003D
102
{ACAD_REACTORS
330
C
102
}
330
C
100
AcDbDictionary
281
     1
  3
ByBlock
350
1003F
  3
ByLayer
350
1003E
  3
Global
350
10040
  0
DICTIONARY
  5
10043
102
{ACAD_REACTORS
330
C
102
}
330
C
100
AcDbDictionary
281
     1
  3
Standard
350
10044
  0
DICTIONARY
  5
17
330
C
100
AcDbDictionary
281
     1
  3
Standard
350
10132
  0
DICTIONARY
  5
10058
102
{ACAD_REACTORS
330
C
102
}
330
C
100
AcDbDictionary
281
     1
  0
ACDBDICTIONARYWDFLT
  5
10059
102
{ACAD_REACTORS
330
C
102
}
330
C
100
AcDbDictionary
281
     1
  3
Normal
350
1005A
100
AcDbDictionaryWithDefault
340
1005A
  0
DICTIONARY
  5
FFFF
102
{ACAD_REACTORS
330
C
102
}
330
C
100
AcDbDictionary
281
     1
  3
A0
350
10000
  3
A1
350
10001
  3
A2
350
10002
  3
A3
350
10003
  3
A4
350
10004
  3
A5
350
10005
  3
A6
350
10006
  3
A7
350
10007
  3
A8
350
10008
  3
A9
350
10009
  3
B0
350
1000A
  3
B1
350
1000B
  3
B2
350
1000C
  3
B3
350
1000D
  3
B4
350
1000E
  3
B5
350
1000F
  3
B6
350
10010
  3
B7
350
10011
  3
B8
350
10012
  3
B9
350
10013
  3
C0
350
10014
  3
C1
350
10015
  3
C2
350
10016
  3
C3
350
10017
  3
C4
350
10018
  3
C5
350
10019
  3
C6
350
1001A
  3
C7
350
1001B
  3
C8
350
1001C
  3
C9
350
1001D
  3
D0
350
1001E
  3
D1
350
1001F
  3
D2
350
10020
  0
DICTIONARY
  5
10131
102
{ACAD_REACTORS
330
C
102
}
330
C
100
AcDbDictionary
281
     1
  0
DICTIONARY
  5
10041
102
{ACAD_REACTORS
330
C
102
}
330
C
100
AcDbDictionary
281
     1
  3
Standard
350
10042
  0
DICTIONARY
  5
10024
102
{ACAD_REACTORS
330
C
102
}
330
C
100
AcDbDictionary
281
     1
  3
2dWireframe
350
10029
  3
Basic
350
1002C
  3
Brighten
350
10030
  3
ColorChange
350
10034
  3
Conceptual
350
1002E
  3
Dim
350
1002F
  3
EdgeColorOff
350
10037
  3
Facepattern
350
10033
  3
Flat
350
10025
  3
FlatWithEdges
350
10026
  3
Gouraud
350
10027
  3
GouraudWithEdges
350
10028
  3
Hidden
350
1002B
  3
JitterOff
350
10035
  3
Linepattern
350
10032
  3
OverhangOff
350
10036
  3
Realistic
350
1002D
  3
Shaded
350
1003C
  3
Shaded with edges
350
1003B
  3
Shades of Gray
350
10038
  3
Sketchy
350
10039
  3
Thicken
350
10031
  3
Wireframe
350
1002A
  3
X-Ray
350
1003A
  0
XRECORD
  5
10356
102
{ACAD_REACTORS
330
C
102
}
330
C
100
AcDbXrecord
280
     1
 90
        1
330
10042
  0
DICTIONARY
  5
10127
102
{ACAD_REACTORS
330
C
102
}
330
C
100
AcDbDictionary
281
     1
  3
CANNOSCALE
350
10128
  3
CMLEADERSTYLE
350
1012E
  3
CTABLESTYLE
350
1012D
  3
MSLTSCALE
350
1012F
  3
XCLIPFRAME
350
1017A
  0
DICTIONARY
  5
1006B
102
{ACAD_REACTORS
330
C
102
}
330
C
100
AcDbDictionary
281
     1
  0
DICTIONARY
  5
10045
102
{ACAD_REACTORS
330
C
102
}
330
C
100
AcDbDictionary
281
     1
  0
DIMASSOC
  5
10180
102
{ACAD_REACTORS
330
1017F
102
}
330
1017F
100
AcDbDimAssoc
330
1017E
 90
        2
 70
     0
 71
     1
  1
AcDbOsnapPointRef
 72
     2
331
1B6
 73
     2
 91
        1
 40
0.5
 10
0.0
 20
0.0
 30
0.0
 75
     0
  0
DIMASSOC
  5
1023D
102
{ACAD_REACTORS
330
1023C
102
}
330
1023C
100
AcDbDimAssoc
330
1023B
 90
        3
 70
     0
 71
     1
  1
AcDbOsnapPointRef
 72
     2
331
110
 73
     2
 91
        1
 40
0.5000000000000001
 10
0.0
 20
0.0
 30
0.0
 75
     0
  1
AcDbOsnapPointRef
 72
     2
331
111
 73
     2
 91
        1
 40
0.4999999999999999
 10
0.0
 20
0.0
 30
0.0
 75
     0
  0
DIMASSOC
  5
1033A
102
{ACAD_REACTORS
330
10339
102
}
330
10339
100
AcDbDimAssoc
330
10338
 90
        3
 70
     0
 71
     1
  1
AcDbOsnapPointRef
 72
     2
331
10312
 73
     0
 91
        0
 40
0.5
 10
0.0
 20
0.0
 30
0.0
 75
     0
  1
AcDbOsnapPointRef
 72
     2
331
1032F
 73
     0
 91
        0
 40
0.5
 10
0.0
 20
0.0
 30
0.0
 75
     0
  0
LAYOUT
  5
10023
102
{ACAD_REACTORS
330
10021
102
}
330
10021
100
AcDbPlotSettings
  1

  2
none_device
  4

  6

 40
0.0
 41
0.0
 42
0.0
 43
0.0
 44
0.0
 45
0.0
 46
0.0
 47
0.0
 48
0.0
 49
0.0
140
0.0
141
0.0
142
1.0
143
1.0
 70
   688
 72
     1
 73
     0
 74
     5
  7

 75
    16
 76
     0
 77
     2
 78
   300
147
1.0
148
0.0
149
0.0
100
AcDbLayout
  1
Foglio 1
 70
     1
 71
     1
 10
0.0
 20
0.0
 11
0.0
 21
0.0
 12
0.0
 22
0.0
 32
0.0
 14
1.000000000000000E+20
 24
1.000000000000000E+20
 34
1.000000000000000E+20
 15
-1.000000000000000E+20
 25
-1.000000000000000E+20
 35
-1.000000000000000E+20
146
0.0
 13
0.0
 23
0.0
 33
0.0
 16
1.0
 26
0.0
 36
0.0
 17
0.0
 27
1.0
 37
0.0
 76
     0
330
1B
  0
LAYOUT
  5
10022
102
{ACAD_REACTORS
330
10021
102
}
330
10021
100
AcDbPlotSettings
  1

  2
none_device
  4
Letter_(8.50_x_11.00_Inches)
  6

 40
6.35
 41
6.35
 42
6.35
 43
6.35
 44
215.9
 45
279.4
 46
0.0
 47
0.0
 48
0.0
 49
0.0
140
0.0
141
0.0
142
1.0
143
52.855
 70
  1712
 72
     0
 73
     0
 74
     0
  7

 75
     0
 76
     0
 77
     2
 78
   300
147
0.0189196859332135
148
36.06799999999968
149
558.8
100
AcDbLayout
  1
Model
 70
     1
 71
     0
 10
0.0
 20
0.0
 11
12.0
 21
9.0
 12
0.0
 22
0.0
 32
0.0
 14
1.000000000000000E+20
 24
1.000000000000000E+20
 34
1.000000000000000E+20
 15
-1.000000000000000E+20
 25
-1.000000000000000E+20
 35
-1.000000000000000E+20
146
0.0
 13
0.0
 23
0.0
 33
0.0
 16
1.0
 26
0.0
 36
0.0
 17
0.0
 27
1.0
 37
0.0
 76
     0
330
1F
331
2E
  0
MATERIAL
  5
1003F
102
{ACAD_REACTORS
330
1003D
102
}
330
1003D
100
AcDbMaterial
  1
ByBlock
 72
     1
 94
      127
  0
MATERIAL
  5
1003E
102
{ACAD_REACTORS
330
1003D
102
}
330
1003D
100
AcDbMaterial
  1
ByLayer
 72
     1
 94
      127
  0
MATERIAL
  5
10040
102
{ACAD_REACTORS
330
1003D
102
}
330
1003D
100
AcDbMaterial
  1
Global
 72
     1
 94
      127
  0
MLEADERSTYLE
  5
10044
102
{ACAD_REACTORS
330
10043
102
}
330
10043
100
AcDbMLeaderStyle
170
     2
171
     1
172
     0
 90
        2
 40
0.0
 41
0.0
173
     1
 91
-1056964608
340
14
 92
       -2
290
     1
 42
2.0
291
     1
 43
8.0
  3
Standard
341
0
 44
4.0
300

342
11
174
     1
178
     6
175
     1
176
     0
 93
-1056964608
 45
4.0
292
     0
297
     0
 46
4.0
343
0
 94
-1056964608
 47
1.0
 49
1.0
140
1.0
293
     1
141
0.0
294
     1
177
     0
142
1.0
295
     0
296
     0
143
3.75
1001
ACAD_MLEADERVER
1070
     2
  0
MLINESTYLE
  5
10132
102
{ACAD_REACTORS
330
17
102
}
330
17
100
AcDbMlineStyle
  2
Standard
 70
     0
  3

 62
   256
 51
90.0
 52
90.0
 71
     2
 49
0.5
 62
   256
  6
BYLAYER
 49
-0.5
 62
   256
  6
BYLAYER
  0
ACDBPLACEHOLDER
  5
1005A
102
{ACAD_REACTORS
330
10059
102
}
330
10059
  0
SCALE
  5
10000
102
{ACAD_REACTORS
330
FFFF
102
}
330
FFFF
100
AcDbScale
 70
     0
300
1:1
140
1.0
141
1.0
290
     1
  0
SCALE
  5
10001
102
{ACAD_REACTORS
330
FFFF
102
}
330
FFFF
100
AcDbScale
 70
     0
300
1:2
140
1.0
141
2.0
290
     0
  0
SCALE
  5
10002
102
{ACAD_REACTORS
330
FFFF
102
}
330
FFFF
100
AcDbScale
 70
     0
300
1:4
140
1.0
141
4.0
290
     0
  0
SCALE
  5
10003
102
{ACAD_REACTORS
330
FFFF
102
}
330
FFFF
100
AcDbScale
 70
     0
300
1:5
140
1.0
141
5.0
290
     0
  0
SCALE
  5
10004
102
{ACAD_REACTORS
330
FFFF
102
}
330
FFFF
100
AcDbScale
 70
     0
300
1:8
140
1.0
141
8.0
290
     0
  0
SCALE
  5
10005
102
{ACAD_REACTORS
330
FFFF
102
}
330
FFFF
100
AcDbScale
 70
     0
300
1:10
140
1.0
141
10.0
290
     0
  0
SCALE
  5
10006
102
{ACAD_REACTORS
330
FFFF
102
}
330
FFFF
100
AcDbScale
 70
     0
300
1:16
140
1.0
141
16.0
290
     0
  0
SCALE
  5
10007
102
{ACAD_REACTORS
330
FFFF
102
}
330
FFFF
100
AcDbScale
 70
     0
300
1:20
140
1.0
141
20.0
290
     0
  0
SCALE
  5
10008
102
{ACAD_REACTORS
330
FFFF
102
}
330
FFFF
100
AcDbScale
 70
     0
300
1:30
140
1.0
141
30.0
290
     0
  0
SCALE
  5
10009
102
{ACAD_REACTORS
330
FFFF
102
}
330
FFFF
100
AcDbScale
 70
     0
300
1:40
140
1.0
141
40.0
290
     0
  0
SCALE
  5
1000A
102
{ACAD_REACTORS
330
FFFF
102
}
330
FFFF
100
AcDbScale
 70
     0
300
1:50
140
1.0
141
50.0
290
     0
  0
SCALE
  5
1000B
102
{ACAD_REACTORS
330
FFFF
102
}
330
FFFF
100
AcDbScale
 70
     0
300
1:100
140
1.0
141
100.0
290
     0
  0
SCALE
  5
1000C
102
{ACAD_REACTORS
330
FFFF
102
}
330
FFFF
100
AcDbScale
 70
     0
300
2:1
140
2.0
141
1.0
290
     0
  0
SCALE
  5
1000D
102
{ACAD_REACTORS
330
FFFF
102
}
330
FFFF
100
AcDbScale
 70
     0
300
4:1
140
4.0
141
1.0
290
     0
  0
SCALE
  5
1000E
102
{ACAD_REACTORS
330
FFFF
102
}
330
FFFF
100
AcDbScale
 70
     0
300
8:1
140
8.0
141
1.0
290
     0
  0
SCALE
  5
1000F
102
{ACAD_REACTORS
330
FFFF
102
}
330
FFFF
100
AcDbScale
 70
     0
300
10:1
140
10.0
141
1.0
290
     0
  0
SCALE
  5
10010
102
{ACAD_REACTORS
330
FFFF
102
}
330
FFFF
100
AcDbScale
 70
     0
300
100:1
140
100.0
141
1.0
290
     0
  0
SCALE
  5
10011
102
{ACAD_REACTORS
330
FFFF
102
}
330
FFFF
100
AcDbScale
 70
     0
300
1/128" = 1'-0"
140
0.0078125
141
12.0
290
     0
  0
SCALE
  5
10012
102
{ACAD_REACTORS
330
FFFF
102
}
330
FFFF
100
AcDbScale
 70
     0
300
1/64" = 1'-0"
140
0.015625
141
12.0
290
     0
  0
SCALE
  5
10013
102
{ACAD_REACTORS
330
FFFF
102
}
330
FFFF
100
AcDbScale
 70
     0
300
1/32" = 1'-0"
140
0.03125
141
12.0
290
     0
  0
SCALE
  5
10014
102
{ACAD_REACTORS
330
FFFF
102
}
330
FFFF
100
AcDbScale
 70
     0
300
1/16" = 1'-0"
140
0.0625
141
12.0
290
     0
  0
SCALE
  5
10015
102
{ACAD_REACTORS
330
FFFF
102
}
330
FFFF
100
AcDbScale
 70
     0
300
3/32" = 1'-0"
140
0.09375
141
12.0
290
     0
  0
SCALE
  5
10016
102
{ACAD_REACTORS
330
FFFF
102
}
330
FFFF
100
AcDbScale
 70
     0
300
1/8" = 1'-0"
140
0.125
141
12.0
290
     0
  0
SCALE
  5
10017
102
{ACAD_REACTORS
330
FFFF
102
}
330
FFFF
100
AcDbScale
 70
     0
300
3/16" = 1'-0"
140
0.1875
141
12.0
290
     0
  0
SCALE
  5
10018
102
{ACAD_REACTORS
330
FFFF
102
}
330
FFFF
100
AcDbScale
 70
     0
300
1/4" = 1'-0"
140
0.25
141
12.0
290
     0
  0
SCALE
  5
10019
102
{ACAD_REACTORS
330
FFFF
102
}
330
FFFF
100
AcDbScale
 70
     0
300
3/8" = 1'-0"
140
0.375
141
12.0
290
     0
  0
SCALE
  5
1001A
102
{ACAD_REACTORS
330
FFFF
102
}
330
FFFF
100
AcDbScale
 70
     0
300
1/2" = 1'-0"
140
0.5
141
12.0
290
     0
  0
SCALE
  5
1001B
102
{ACAD_REACTORS
330
FFFF
102
}
330
FFFF
100
AcDbScale
 70
     0
300
3/4" = 1'-0"
140
0.75
141
12.0
290
     0
  0
SCALE
  5
1001C
102
{ACAD_REACTORS
330
FFFF
102
}
330
FFFF
100
AcDbScale
 70
     0
300
1" = 1'-0"
140
1.0
141
12.0
290
     0
  0
SCALE
  5
1001D
102
{ACAD_REACTORS
330
FFFF
102
}
330
FFFF
100
AcDbScale
 70
     0
300
1-1/2" = 1'-0"
140
1.5
141
12.0
290
     0
  0
SCALE
  5
1001E
102
{ACAD_REACTORS
330
FFFF
102
}
330
FFFF
100
AcDbScale
 70
     0
300
3" = 1'-0"
140
3.0
141
12.0
290
     0
  0
SCALE
  5
1001F
102
{ACAD_REACTORS
330
FFFF
102
}
330
FFFF
100
AcDbScale
 70
     0
300
6" = 1'-0"
140
6.0
141
12.0
290
     0
  0
SCALE
  5
10020
102
{ACAD_REACTORS
330
FFFF
102
}
330
FFFF
100
AcDbScale
 70
     0
300
1'-0" = 1'-0"
140
12.0
141
12.0
290
     0
  0
TABLESTYLE
  5
10042
102
{ACAD_REACTORS
330
10041
102
}
102
{ACAD_XDICTIONARY
360
10354
102
}
330
10041
100
AcDbTableStyle
  3
Standard
 70
     0
 71
     0
 40
0.06
 41
0.06
280
     0
281
     0
  7
STANDARD
140
4.5
170
     2
 62
     0
 63
   257
283
     0
 90
        4
 91
        0
  1

274
    -2
284
     1
 64
     0
275
    -2
285
     1
 65
     0
276
    -2
286
     1
 66
     0
277
    -2
287
     1
 67
     0
278
    -2
288
     1
 68
     0
279
    -2
289
     1
 69
     0
  7
STANDARD
140
6.0
170
     5
 62
     0
 63
   257
283
     0
 90
        4
 91
        0
  1

274
    -2
284
     1
 64
     0
275
    -2
285
     1
 65
     0
276
    -2
286
     1
 66
     0
277
    -2
287
     1
 67
     0
278
    -2
288
     1
 68
     0
279
    -2
289
     1
 69
     0
  7
STANDARD
140
4.5
170
     5
 62
     0
 63
   257
283
     0
 90
        4
 91
        0
  1

274
    -2
284
     1
 64
     0
275
    -2
285
     1
 65
     0
276
    -2
286
     1
 66
     0
277
    -2
287
     1
 67
     0
278
    -2
288
     1
 68
     0
279
    -2
289
     1
 69
     0
  0
VISUALSTYLE
  5
10029
102
{ACAD_REACTORS
330
10024
102
}
330
10024
100
AcDbVisualStyle
  2
2dWireframe
 70
     4
 71
     0
 72
     2
 73
     0
 90
        0
 40
0.6
 41
30.0
 62
     5
 63
     7
421
 16777215
 74
     1
 91
        4
 64
     7
 65
   257
 75
     1
175
     1
 42
1.0
 92
        0
 66
   257
 43
1.0
 76
     1
 77
     6
 78
     2
 67
     7
 79
     5
170
     0
171
     0
290
     0
174
     0
 93
        1
 44
0.0
173
     0
291
     0
 45
0.0
  0
VISUALSTYLE
  5
1002C
102
{ACAD_REACTORS
330
10024
102
}
330
10024
100
AcDbVisualStyle
  2
Basic
 70
     7
 71
     1
 72
     0
 73
     1
 90
        0
 40
0.6
 41
30.0
 62
     5
 63
     7
421
 16777215
 74
     0
 91
        4
 64
     7
 65
   257
 75
     1
175
     1
 42
1.0
 92
        8
 66
     7
 43
1.0
 76
     1
 77
     6
 78
     2
 67
     7
 79
     5
170
     0
171
     0
290
     0
174
     0
 93
        1
 44
0.0
173
     0
291
     1
 45
0.0
  0
VISUALSTYLE
  5
10030
102
{ACAD_REACTORS
330
10024
102
}
330
10024
100
AcDbVisualStyle
  2
Brighten
 70
    12
 71
     2
 72
     2
 73
     0
 90
        0
 40
0.6
 41
30.0
 62
     5
 63
     7
421
 16777215
 74
     1
 91
        4
 64
     7
 65
   257
 75
     1
175
     1
 42
1.0
 92
        8
 66
     7
 43
1.0
 76
     1
 77
     6
 78
     2
 67
     7
 79
     5
170
     0
171
     0
290
     0
174
     0
 93
        1
 44
50.0
173
     0
291
     1
 45
0.0
  0
VISUALSTYLE
  5
10034
102
{ACAD_REACTORS
330
10024
102
}
330
10024
100
AcDbVisualStyle
  2
ColorChange
 70
    16
 71
     2
 72
     2
 73
     3
 90
        0
 40
0.6
 41
30.0
 62
     5
 63
     8
421
  8421504
 74
     1
 91
        4
 64
     7
 65
   257
 75
     1
175
     1
 42
1.0
 92
        8
 66
     8
424
  8421504
 43
1.0
 76
     1
 77
     6
 78
     2
 67
     7
 79
     5
170
     0
171
     0
290
     0
174
     0
 93
        1
 44
0.0
173
     0
291
     1
 45
0.0
  0
VISUALSTYLE
  5
1002E
102
{ACAD_REACTORS
330
10024
102
}
330
10024
100
AcDbVisualStyle
  2
Conceptual
 70
     9
 71
     3
 72
     2
 73
     0
 90
        0
 40
0.6
 41
30.0
 62
     5
 63
     7
421
 16777215
 74
     2
 91
        2
 64
     7
 65
   257
 75
     1
175
     1
 42
179.0
 92
        8
 66
     7
 43
1.0
 76
     1
 77
     6
 78
     2
 67
     7
 79
     3
170
     0
171
     0
290
     0
174
     0
 93
        1
 44
0.0
173
     0
291
     0
 45
0.0
  0
VISUALSTYLE
  5
1002F
102
{ACAD_REACTORS
330
10024
102
}
330
10024
100
AcDbVisualStyle
  2
Dim
 70
    11
 71
     2
 72
     2
 73
     0
 90
        0
 40
0.6
 41
30.0
 62
     5
 63
     7
421
 16777215
 74
     1
 91
        4
 64
     7
 65
   257
 75
     1
175
     1
 42
1.0
 92
        8
 66
     7
 43
1.0
 76
     1
 77
     6
 78
     2
 67
     7
 79
     5
170
     0
171
     0
290
     0
174
     0
 93
        1
 44
-50.0
173
     0
291
     1
 45
0.0
  0
VISUALSTYLE
  5
10037
102
{ACAD_REACTORS
330
10024
102
}
330
10024
100
AcDbVisualStyle
  2
EdgeColorOff
 70
    22
 71
     2
 72
     2
 73
     0
 90
        0
 40
0.6
 41
30.0
 62
     5
 63
     7
421
 16777215
 74
     1
 91
        4
 64
     7
 65
   257
 75
     1
175
     1
 42
1.0
 92
        8
 66
     7
 43
1.0
 76
     1
 77
     6
 78
     2
 67
     7
 79
     5
170
     0
171
     0
290
     0
174
     0
 93
        1
 44
0.0
173
     0
291
     1
 45
0.0
  0
VISUALSTYLE
  5
10033
102
{ACAD_REACTORS
330
10024
102
}
330
10024
100
AcDbVisualStyle
  2
Facepattern
 70
    15
 71
     2
 72
     2
 73
     0
 90
        0
 40
0.6
 41
30.0
 62
     5
 63
     7
421
 16777215
 74
     1
 91
        4
 64
     7
 65
   257
 75
     1
175
     1
 42
1.0
 92
        8
 66
     7
 43
1.0
 76
     1
 77
     6
 78
     2
 67
     7
 79
     5
170
     0
171
     0
290
     0
174
     0
 93
        1
 44
0.0
173
     0
291
     1
 45
0.0
  0
VISUALSTYLE
  5
10025
102
{ACAD_REACTORS
330
10024
102
}
330
10024
100
AcDbVisualStyle
  2
Flat
 70
     0
 71
     2
 72
     1
 73
     1
 90
        2
 40
0.6
 41
30.0
 62
     5
 63
     7
421
 16777215
 74
     0
 91
        0
 64
     7
 65
   257
 75
     1
175
     1
 42
1.0
 92
        8
 66
     7
 43
1.0
 76
     1
 77
     6
 78
     2
 67
     7
 79
     5
170
     0
171
     0
290
     0
174
     0
 93
       13
 44
0.0
173
     0
291
     1
 45
0.0
  0
VISUALSTYLE
  5
10026
102
{ACAD_REACTORS
330
10024
102
}
330
10024
100
AcDbVisualStyle
  2
FlatWithEdges
 70
     1
 71
     2
 72
     1
 73
     1
 90
        2
 40
0.6
 41
30.0
 62
     5
 63
     7
421
 16777215
 74
     1
 91
        0
 64
     7
 65
   257
 75
     1
175
     1
 42
1.0
 92
        0
 66
   257
 43
1.0
 76
     1
 77
     6
 78
     2
 67
     7
 79
     5
170
     0
171
     0
290
     0
174
     0
 93
       13
 44
0.0
173
     0
291
     1
 45
0.0
  0
VISUALSTYLE
  5
10027
102
{ACAD_REACTORS
330
10024
102
}
330
10024
100
AcDbVisualStyle
  2
Gouraud
 70
     2
 71
     2
 72
     2
 73
     1
 90
        2
 40
0.6
 41
30.0
 62
     5
 63
     7
421
 16777215
 74
     0
 91
        0
 64
     7
 65
   257
 75
     1
175
     1
 42
1.0
 92
        0
 66
     7
 43
1.0
 76
     1
 77
     6
 78
     2
 67
     7
 79
     5
170
     0
171
     0
290
     0
174
     0
 93
       13
 44
0.0
173
     0
291
     1
 45
0.0
  0
VISUALSTYLE
  5
10028
102
{ACAD_REACTORS
330
10024
102
}
330
10024
100
AcDbVisualStyle
  2
GouraudWithEdges
 70
     3
 71
     2
 72
     2
 73
     1
 90
        2
 40
0.6
 41
30.0
 62
     5
 63
     7
421
 16777215
 74
     1
 91
        0
 64
     7
 65
   257
 75
     1
175
     1
 42
1.0
 92
        0
 66
   257
 43
1.0
 76
     1
 77
     6
 78
     2
 67
     7
 79
     5
170
     0
171
     0
290
     0
174
     0
 93
       13
 44
0.0
173
     0
291
     1
 45
0.0
  0
VISUALSTYLE
  5
1002B
102
{ACAD_REACTORS
330
10024
102
}
330
10024
100
AcDbVisualStyle
  2
Hidden
 70
     6
 71
     1
 72
     2
 73
     2
 90
        0
 40
0.6
 41
30.0
 62
     5
 63
     7
421
 16777215
 74
     2
 91
        2
 64
     7
 65
   257
 75
     2
175
     1
 42
40.0
 92
        0
 66
   257
 43
1.0
 76
     1
 77
     6
 78
     2
 67
     7
 79
     3
170
     0
171
     0
290
     0
174
     0
 93
        1
 44
0.0
173
     0
291
     0
 45
0.0
  0
VISUALSTYLE
  5
10035
102
{ACAD_REACTORS
330
10024
102
}
330
10024
100
AcDbVisualStyle
  2
JitterOff
 70
    20
 71
     2
 72
     2
 73
     0
 90
        0
 40
0.6
 41
30.0
 62
     5
 63
     7
421
 16777215
 74
     1
 91
        4
 64
     7
 65
   257
 75
     1
175
     1
 42
1.0
 92
       10
 66
     7
 43
1.0
 76
     1
 77
     6
 78
     2
 67
     7
 79
     5
170
     0
171
     0
290
     0
174
     0
 93
        1
 44
0.0
173
     0
291
     1
 45
0.0
  0
VISUALSTYLE
  5
10032
102
{ACAD_REACTORS
330
10024
102
}
330
10024
100
AcDbVisualStyle
  2
Linepattern
 70
    14
 71
     2
 72
     2
 73
     0
 90
        0
 40
0.6
 41
30.0
 62
     5
 63
     7
421
 16777215
 74
     1
 91
        4
 64
     7
 65
   257
 75
     7
175
     7
 42
1.0
 92
        8
 66
     7
 43
1.0
 76
     1
 77
     6
 78
     2
 67
     7
 79
     5
170
     0
171
     0
290
     0
174
     0
 93
        1
 44
0.0
173
     0
291
     1
 45
0.0
  0
VISUALSTYLE
  5
10036
102
{ACAD_REACTORS
330
10024
102
}
330
10024
100
AcDbVisualStyle
  2
OverhangOff
 70
    21
 71
     2
 72
     2
 73
     0
 90
        0
 40
0.6
 41
30.0
 62
     5
 63
     7
421
 16777215
 74
     1
 91
        4
 64
     7
 65
   257
 75
     1
175
     1
 42
1.0
 92
        9
 66
     7
 43
1.0
 76
     1
 77
     6
 78
     2
 67
     7
 79
     5
170
     0
171
     0
290
     0
174
     0
 93
        1
 44
0.0
173
     0
291
     1
 45
0.0
  0
VISUALSTYLE
  5
1002D
102
{ACAD_REACTORS
330
10024
102
}
330
10024
100
AcDbVisualStyle
  2
Realistic
 70
     8
 71
     2
 72
     3
 73
     0
 90
        2
 40
0.6
 41
30.0
 62
     5
 63
     7
421
 16777215
 74
     0
 91
        0
 64
     7
 65
   257
 75
     1
175
     1
 42
1.0
 92
        8
 66
   257
 43
1.0
 76
     1
 77
     6
 78
     2
 67
     7
 79
     3
170
     0
171
     0
290
     0
174
     0
 93
       13
 44
0.0
173
     0
291
     0
 45
0.0
  0
VISUALSTYLE
  5
1003C
102
{ACAD_REACTORS
330
10024
102
}
330
10024
100
AcDbVisualStyle
  2
Shaded
 70
    27
 71
     2
 72
     2
 73
     1
 90
        2
 40
0.6
 41
30.0
 62
     5
 63
     7
421
 16777215
 74
     0
 91
        4
 64
     7
 65
   257
 75
     1
175
     1
 42
1.0
 92
        8
 66
   257
 43
1.0
 76
     1
 77
     6
 78
     2
 67
     8
425
  7895160
 79
     3
170
     0
171
     0
290
     0
174
     0
 93
        5
 44
0.0
173
     0
291
     0
 45
0.0
  0
VISUALSTYLE
  5
1003B
102
{ACAD_REACTORS
330
10024
102
}
330
10024
100
AcDbVisualStyle
  2
Shaded with edges
 70
    26
 71
     2
 72
     2
 73
     1
 90
        2
 40
0.6
 41
30.0
 62
     5
 63
     7
421
 16777215
 74
     1
 91
       10
 64
     7
 65
   257
 75
     2
175
     1
 42
1.0
 92
        8
 66
   257
 43
1.0
 76
     1
 77
     6
 78
     2
 67
     7
 79
     3
170
     0
171
     0
290
     0
174
     0
 93
        5
 44
0.0
173
     0
291
     0
 45
0.0
  0
VISUALSTYLE
  5
10038
102
{ACAD_REACTORS
330
10024
102
}
330
10024
100
AcDbVisualStyle
  2
Shades of Gray
 70
    23
 71
     2
 72
     2
 73
     3
 90
        0
 40
0.6
 41
30.0
 62
     5
 63
     7
421
 16777215
 74
     2
 91
        2
 64
     7
 65
     7
 75
     1
175
     1
 42
40.0
 92
        8
 66
     7
 43
1.0
 76
     1
 77
     6
 78
     2
 67
     7
 79
     3
170
     0
171
     0
290
     0
174
     0
 93
        1
 44
0.0
173
     0
291
     0
 45
0.0
  0
VISUALSTYLE
  5
10039
102
{ACAD_REACTORS
330
10024
102
}
330
10024
100
AcDbVisualStyle
  2
Sketchy
 70
    24
 71
     1
 72
     2
 73
     2
 90
        0
 40
0.6
 41
30.0
 62
     5
 63
     7
421
 16777215
 74
     2
 91
        2
 64
     7
 65
     7
 75
     1
175
     1
 42
40.0
 92
       11
 66
     7
 43
1.0
 76
     1
 77
     6
 78
     2
 67
     7
 79
     6
170
     0
171
     0
290
     0
174
     0
 93
        1
 44
0.0
173
     0
291
     0
 45
0.0
  0
VISUALSTYLE
  5
10031
102
{ACAD_REACTORS
330
10024
102
}
330
10024
100
AcDbVisualStyle
  2
Thicken
 70
    13
 71
     2
 72
     2
 73
     0
 90
        0
 40
0.6
 41
30.0
 62
     5
 63
     7
421
 16777215
 74
     1
 91
        4
 64
     7
 65
   257
 75
     1
175
     1
 42
1.0
 92
       12
 66
     7
 43
1.0
 76
     1
 77
     6
 78
     2
 67
     7
 79
     5
170
     0
171
     0
290
     0
174
     0
 93
        1
 44
0.0
173
     0
291
     1
 45
0.0
  0
VISUALSTYLE
  5
1002A
102
{ACAD_REACTORS
330
10024
102
}
330
10024
100
AcDbVisualStyle
  2
Wireframe
 70
     5
 71
     0
 72
     2
 73
     0
 90
        0
 40
0.6
 41
30.0
 62
     5
 63
     7
421
 16777215
 74
     1
 91
        4
 64
     7
 65
   257
 75
     1
175
     1
 42
1.0
 92
        0
 66
   257
 43
1.0
 76
     1
 77
     6
 78
     2
 67
     7
 79
     3
170
     0
171
     0
290
     0
174
     0
 93
        1
 44
0.0
173
     0
291
     0
 45
0.0
  0
VISUALSTYLE
  5
1003A
102
{ACAD_REACTORS
330
10024
102
}
330
10024
100
AcDbVisualStyle
  2
X-Ray
 70
    25
 71
     2
 72
     2
 73
     1
 90
        1
 40
0.5
 41
30.0
 62
     5
 63
     7
421
 16777215
 74
     1
 91
        0
 64
     7
 65
   257
 75
     1
175
     1
 42
1.0
 92
        8
 66
     7
 43
1.0
 76
     1
 77
     6
 78
     2
 67
     7
 79
     3
170
     0
171
     0
290
     0
174
     0
 93
       13
 44
0.0
173
     0
291
     0
 45
0.0
  0
DICTIONARYVAR
  5
10128
102
{ACAD_REACTORS
330
10127
102
}
330
10127
100
DictionaryVariables
280
     0
  1
1:1
  0
DICTIONARYVAR
  5
1012E
102
{ACAD_REACTORS
330
10127
102
}
330
10127
100
DictionaryVariables
280
     0
  1
Standard
  0
DICTIONARYVAR
  5
1012D
102
{ACAD_REACTORS
330
10127
102
}
330
10127
100
DictionaryVariables
280
     0
  1
Standard
  0
DICTIONARYVAR
  5
1012F
102
{ACAD_REACTORS
330
10127
102
}
330
10127
100
DictionaryVariables
280
     0
  1
0
  0
DICTIONARYVAR
  5
1017A
102
{ACAD_REACTORS
330
10127
102
}
330
10127
100
DictionaryVariables
280
     0
  1
0
  0
DICTIONARY
  5
10354
330
10042
100
AcDbDictionary
280
     1
281
     1
  3
ACAD_ROUNDTRIP_2008_TABLESTYLE_CELLSTYLEMAP
360
10355
  0
CELLSTYLEMAP
  5
10355
102
{ACAD_REACTORS
330
10354
102
}
330
10354
100
AcDbCellStyleMap
 90
        3
300
CELLSTYLE
  1
TABLEFORMAT_BEGIN
 90
        5
170
     1
 91
        0
 92
    32768
 62
   257
 93
        1
300
CONTENTFORMAT
  1
CONTENTFORMAT_BEGIN
 90
        0
 91
        0
 92
        4
 93
        0
300

 40
0.0
140
1.0
 94
        5
 62
     0
340
11
144
6.0
309
CONTENTFORMAT_END
171
     1
301
MARGIN
  1
CELLMARGIN_BEGIN
 40
1.5
 40
1.5
 40
1.5
 40
1.5
 40
1.5
 40
1.5
309
CELLMARGIN_END
 94
        6
 95
        1
302
GRIDFORMAT
  1
GRIDFORMAT_BEGIN
 90
        0
 91
        1
 62
     0
 92
       -2
340
14
 93
        0
 40
0.045
309
GRIDFORMAT_END
 95
        2
302
GRIDFORMAT
  1
GRIDFORMAT_BEGIN
 90
        0
 91
        1
 62
     0
 92
       -2
340
14
 93
        0
 40
0.045
309
GRIDFORMAT_END
 95
        4
302
GRIDFORMAT
  1
GRIDFORMAT_BEGIN
 90
        0
 91
        1
 62
     0
 92
       -2
340
14
 93
        0
 40
0.045
309
GRIDFORMAT_END
 95
        8
302
GRIDFORMAT
  1
GRIDFORMAT_BEGIN
 90
        0
 91
        1
 62
     0
 92
       -2
340
14
 93
        0
 40
0.045
309
GRIDFORMAT_END
 95
       16
302
GRIDFORMAT
  1
GRIDFORMAT_BEGIN
 90
        0
 91
        1
 62
     0
 92
       -2
340
14
 93
        0
 40
0.045
309
GRIDFORMAT_END
 95
       32
302
GRIDFORMAT
  1
GRIDFORMAT_BEGIN
 90
        0
 91
        1
 62
     0
 92
       -2
340
14
 93
        0
 40
0.045
309
GRIDFORMAT_END
309
TABLEFORMAT_END
  1
CELLSTYLE_BEGIN
 90
        1
 91
        1
300
_TITLE
309
CELLSTYLE_END
300
CELLSTYLE
  1
TABLEFORMAT_BEGIN
 90
        5
170
     1
 91
        0
 92
        0
 62
   257
 93
        1
300
CONTENTFORMAT
  1
CONTENTFORMAT_BEGIN
 90
        0
 91
        0
 92
        4
 93
        0
300

 40
0.0
140
1.0
 94
        5
 62
     0
340
11
144
4.5
309
CONTENTFORMAT_END
171
     1
301
MARGIN
  1
CELLMARGIN_BEGIN
 40
1.5
 40
1.5
 40
1.5
 40
1.5
 40
1.5
 40
1.5
309
CELLMARGIN_END
 94
        6
 95
        1
302
GRIDFORMAT
  1
GRIDFORMAT_BEGIN
 90
        0
 91
        1
 62
     0
 92
       -2
340
14
 93
        0
 40
0.045
309
GRIDFORMAT_END
 95
        2
302
GRIDFORMAT
  1
GRIDFORMAT_BEGIN
 90
        0
 91
        1
 62
     0
 92
       -2
340
14
 93
        0
 40
0.045
309
GRIDFORMAT_END
 95
        4
302
GRIDFORMAT
  1
GRIDFORMAT_BEGIN
 90
        0
 91
        1
 62
     0
 92
       -2
340
14
 93
        0
 40
0.045
309
GRIDFORMAT_END
 95
        8
302
GRIDFORMAT
  1
GRIDFORMAT_BEGIN
 90
        0
 91
        1
 62
     0
 92
       -2
340
14
 93
        0
 40
0.045
309
GRIDFORMAT_END
 95
       16
302
GRIDFORMAT
  1
GRIDFORMAT_BEGIN
 90
        0
 91
        1
 62
     0
 92
       -2
340
14
 93
        0
 40
0.045
309
GRIDFORMAT_END
 95
       32
302
GRIDFORMAT
  1
GRIDFORMAT_BEGIN
 90
        0
 91
        1
 62
     0
 92
       -2
340
14
 93
        0
 40
0.045
309
GRIDFORMAT_END
309
TABLEFORMAT_END
  1
CELLSTYLE_BEGIN
 90
        2
 91
        1
300
_HEADER
309
CELLSTYLE_END
300
CELLSTYLE
  1
TABLEFORMAT_BEGIN
 90
        5
170
     1
 91
        0
 92
        0
 62
   257
 93
        1
300
CONTENTFORMAT
  1
CONTENTFORMAT_BEGIN
 90
        0
 91
        0
 92
        4
 93
        0
300

 40
0.0
140
1.0
 94
        2
 62
     0
340
11
144
4.5
309
CONTENTFORMAT_END
171
     1
301
MARGIN
  1
CELLMARGIN_BEGIN
 40
1.5
 40
1.5
 40
1.5
 40
1.5
 40
1.5
 40
1.5
309
CELLMARGIN_END
 94
        6
 95
        1
302
GRIDFORMAT
  1
GRIDFORMAT_BEGIN
 90
        0
 91
        1
 62
     0
 92
       -2
340
14
 93
        0
 40
0.045
309
GRIDFORMAT_END
 95
        2
302
GRIDFORMAT
  1
GRIDFORMAT_BEGIN
 90
        0
 91
        1
 62
     0
 92
       -2
340
14
 93
        0
 40
0.045
309
GRIDFORMAT_END
 95
        4
302
GRIDFORMAT
  1
GRIDFORMAT_BEGIN
 90
        0
 91
        1
 62
     0
 92
       -2
340
14
 93
        0
 40
0.045
309
GRIDFORMAT_END
 95
        8
302
GRIDFORMAT
  1
GRIDFORMAT_BEGIN
 90
        0
 91
        1
 62
     0
 92
       -2
340
14
 93
        0
 40
0.045
309
GRIDFORMAT_END
 95
       16
302
GRIDFORMAT
  1
GRIDFORMAT_BEGIN
 90
        0
 91
        1
 62
     0
 92
       -2
340
14
 93
        0
 40
0.045
309
GRIDFORMAT_END
 95
       32
302
GRIDFORMAT
  1
GRIDFORMAT_BEGIN
 90
        0
 91
        1
 62
     0
 92
       -2
340
14
 93
        0
 40
0.045
309
GRIDFORMAT_END
309
TABLEFORMAT_END
  1
CELLSTYLE_BEGIN
 90
        3
 91
        2
300
_DATA
309
CELLSTYLE_END
  0
ENDSEC
  0
EOF
