  0
SECTION
  2
HEADER
  9
$ACADVER
  1
AC1021
  9
$ACADMAINTVER
 70
    25
  9
$DWGCODEPAGE
  3
ANSI_1252
  9
$LASTSAVEDBY
  1
IseniRM
  9
$INSBASE
 10
0.0
 20
0.0
 30
0.0
  9
$EXTMIN
 10
0.0
 20
-182.5483136164937
 30
0.0
  9
$EXTMAX
 10
1073.6846014315
 20
159.6198029461077
 30
0.0
  9
$LIMMIN
 10
0.0
 20
0.0
  9
$LIMMAX
 10
12.0
 20
9.0
  9
$ORTHOMODE
 70
     0
  9
$REGENMODE
 70
     1
  9
$FILLMODE
 70
     1
  9
$QTEXTMODE
 70
     0
  9
$MIRRTEXT
 70
     1
  9
$LTSCALE
 40
1.0
  9
$ATTMODE
 70
     1
  9
$TEXTSIZE
 40
2.5
  9
$TRACEWID
 40
0.05
  9
$TEXTSTYLE
  7
STANDARD
  9
$CLAYER
  8
0
  9
$CELTYPE
  6
BYBLOCK
  9
$CECOLOR
 62
   256
  9
$CELTSCALE
 40
1.0
  9
$DISPSILH
 70
     0
  9
$DIMSCALE
 40
1.0
  9
$DIMASZ
 40
10.0
  9
$DIMEXO
 40
0.0625
  9
$DIMDLI
 40
0.38
  9
$DIMRND
 40
0.0
  9
$DIMDLE
 40
0.0
  9
$DIMEXE
 40
0.18
  9
$DIMTP
 40
0.0
  9
$DIMTM
 40
0.0
  9
$DIMTXT
 40
25.0
  9
$DIMCEN
 40
0.09
  9
$DIMTSZ
 40
0.0
  9
$DIMTOL
 70
     0
  9
$DIMLIM
 70
     0
  9
$DIMTIH
 70
     1
  9
$DIMTOH
 70
     1
  9
$DIMSE1
 70
     0
  9
$DIMSE2
 70
     0
  9
$DIMTAD
 70
     0
  9
$DIMZIN
 70
     0
  9
$DIMBLK
  1

  9
$DIMASO
 70
     1
  9
$DIMSHO
 70
     1
  9
$DIMPOST
  1

  9
$DIMAPOST
  1

  9
$DIMALT
 70
     0
  9
$DIMALTD
 70
     2
  9
$DIMALTF
 40
25.4
  9
$DIMLFAC
 40
1.0005
  9
$DIMTOFL
 70
     0
  9
$DIMTVP
 40
0.0
  9
$DIMTIX
 70
     0
  9
$DIMSOXD
 70
     0
  9
$DIMSAH
 70
     0
  9
$DIMBLK1
  1

  9
$DIMBLK2
  1

  9
$DIMSTYLE
  2
ISO-25
  9
$DIMCLRD
 70
     0
  9
$DIMCLRE
 70
     0
  9
$DIMCLRT
 70
     0
  9
$DIMTFAC
 40
1.0
  9
$DIMGAP
 40
0.09
  9
$DIMJUST
 70
     0
  9
$DIMSD1
 70
     0
  9
$DIMSD2
 70
     0
  9
$DIMTOLJ
 70
     1
  9
$DIMTZIN
 70
     0
  9
$DIMALTZ
 70
     0
  9
$DIMALTTZ
 70
     0
  9
$DIMUPT
 70
     0
  9
$DIMDEC
 70
     4
  9
$DIMTDEC
 70
     4
  9
$DIMALTU
 70
     2
  9
$DIMALTTD
 70
     2
  9
$DIMTXSTY
  7
STANDARD
  9
$DIMAUNIT
 70
     0
  9
$DIMADEC
 70
     0
  9
$DIMALTRND
 40
0.0
  9
$DIMAZIN
 70
     0
  9
$DIMDSEP
 70
    46
  9
$DIMATFIT
 70
     3
  9
$DIMFRAC
 70
     0
  9
$DIMLDRBLK
  1

  9
$DIMLUNIT
 70
     2
  9
$DIMLWD
 70
    -2
  9
$DIMLWE
 70
    -2
  9
$DIMTMOVE
 70
     2
  9
$DIMFXL
 40
1.0
  9
$DIMFXLON
 70
     0
  9
$DIMJOGANG
 40
0.7853981633974483
  9
$DIMTFILL
 70
     0
  9
$DIMTFILLCLR
 70
     0
  9
$DIMARCSYM
 70
     0
  9
$DIMLTYPE
  6

  9
$DIMLTEX1
  6

  9
$DIMLTEX2
  6

  9
$LUNITS
 70
     2
  9
$LUPREC
 70
     4
  9
$SKETCHINC
 40
0.1
  9
$FILLETRAD
 40
0.5
  9
$AUNITS
 70
     0
  9
$AUPREC
 70
     0
  9
$MENU
  1
.
  9
$ELEVATION
 40
0.0
  9
$PELEVATION
 40
0.0
  9
$THICKNESS
 40
0.0
  9
$LIMCHECK
 70
     0
  9
$CHAMFERA
 40
0.0
  9
$CHAMFERB
 40
0.0
  9
$CHAMFERC
 40
0.0
  9
$CHAMFERD
 40
0.0
  9
$SKPOLY
 70
     0
  9
$TDCREATE
 40
2447893.083333333
  9
$TDUCREATE
 40
0.0
  9
$TDUPDATE
 40
2457196.398221227
  9
$TDUUPDATE
 40
2457196.314887893
  9
$TDINDWG
 40
0.0066835648
  9
$TDUSRTIMER
 40
2457196.314446065
  9
$USRTIMER
 70
     1
  9
$ANGBASE
 50
0.0
  9
$ANGDIR
 70
     0
  9
$PDMODE
 70
     0
  9
$PDSIZE
 40
0.0
  9
$PLINEWID
 40
0.0
  9
$SPLFRAME
 70
     0
  9
$SPLINETYPE
 70
     6
  9
$SPLINESEGS
 70
     8
  9
$HANDSEED
  5
1017B
  9
$SURFTAB1
 70
     6
  9
$SURFTAB2
 70
     6
  9
$SURFTYPE
 70
     6
  9
$SURFU
 70
     6
  9
$SURFV
 70
     6
  9
$UCSBASE
  2

  9
$UCSNAME
  2

  9
$UCSORG
 10
0.0
 20
0.0
 30
0.0
  9
$UCSXDIR
 10
1.0
 20
0.0
 30
0.0
  9
$UCSYDIR
 10
0.0
 20
1.0
 30
0.0
  9
$UCSORTHOREF
  2

  9
$UCSORTHOVIEW
 70
     0
  9
$UCSORGTOP
 10
0.0
 20
0.0
 30
0.0
  9
$UCSORGBOTTOM
 10
0.0
 20
0.0
 30
0.0
  9
$UCSORGLEFT
 10
0.0
 20
0.0
 30
0.0
  9
$UCSORGRIGHT
 10
0.0
 20
0.0
 30
0.0
  9
$UCSORGFRONT
 10
0.0
 20
0.0
 30
0.0
  9
$UCSORGBACK
 10
0.0
 20
0.0
 30
0.0
  9
$PUCSBASE
  2

  9
$PUCSNAME
  2

  9
$PUCSORG
 10
0.0
 20
0.0
 30
0.0
  9
$PUCSXDIR
 10
1.0
 20
0.0
 30
0.0
  9
$PUCSYDIR
 10
0.0
 20
1.0
 30
0.0
  9
$PUCSORTHOREF
  2

  9
$PUCSORTHOVIEW
 70
     0
  9
$PUCSORGTOP
 10
0.0
 20
0.0
 30
0.0
  9
$PUCSORGBOTTOM
 10
0.0
 20
0.0
 30
0.0
  9
$PUCSORGLEFT
 10
0.0
 20
0.0
 30
0.0
  9
$PUCSORGRIGHT
 10
0.0
 20
0.0
 30
0.0
  9
$PUCSORGFRONT
 10
0.0
 20
0.0
 30
0.0
  9
$PUCSORGBACK
 10
0.0
 20
0.0
 30
0.0
  9
$USERI1
 70
     0
  9
$USERI2
 70
     0
  9
$USERI3
 70
     0
  9
$USERI4
 70
     0
  9
$USERI5
 70
     0
  9
$USERR1
 40
0.0
  9
$USERR2
 40
0.0
  9
$USERR3
 40
0.0
  9
$USERR4
 40
0.0
  9
$USERR5
 40
0.0
  9
$WORLDVIEW
 70
     1
  9
$SHADEDGE
 70
     3
  9
$SHADEDIF
 70
    70
  9
$TILEMODE
 70
     1
  9
$MAXACTVP
 70
    64
  9
$PINSBASE
 10
0.0
 20
0.0
 30
0.0
  9
$PLIMCHECK
 70
     0
  9
$PEXTMIN
 10
1.000000000000000E+20
 20
1.000000000000000E+20
 30
1.000000000000000E+20
  9
$PEXTMAX
 10
-1.000000000000000E+20
 20
-1.000000000000000E+20
 30
-1.000000000000000E+20
  9
$PLIMMIN
 10
0.0
 20
0.0
  9
$PLIMMAX
 10
0.0
 20
0.0
  9
$UNITMODE
 70
     0
  9
$VISRETAIN
 70
     1
  9
$PLINEGEN
 70
     0
  9
$PSLTSCALE
 70
     1
  9
$TREEDEPTH
 70
  3020
  9
$CMLSTYLE
  2

  9
$CMLJUST
 70
     0
  9
$CMLSCALE
 40
1.0
  9
$PROXYGRAPHICS
 70
     1
  9
$MEASUREMENT
 70
     1
  9
$CELWEIGHT
370
    -1
  9
$ENDCAPS
280
     0
  9
$JOINSTYLE
280
     0
  9
$LWDISPLAY
290
     0
  9
$INSUNITS
 70
     4
  9
$HYPERLINKBASE
  1

  9
$STYLESHEET
  1

  9
$XEDIT
290
     1
  9
$CEPSNTYPE
380
     0
  9
$PSTYLEMODE
290
     1
  9
$FINGERPRINTGUID
  2
{4B16B341-54AE-4106-BDB2-A474359BDC78}
  9
$VERSIONGUID
  2
{FAEB1C32-E019-11D5-929B-00C0DF256EC4}
  9
$EXTNAMES
290
     1
  9
$PSVPSCALE
 40
0.0
  9
$OLESTARTUP
290
     0
  9
$SORTENTS
280
   127
  9
$INDEXCTL
280
     0
  9
$HIDETEXT
280
     1
  9
$XCLIPFRAME
290
     0
  9
$HALOGAP
280
     0
  9
$OBSCOLOR
 70
   257
  9
$OBSLTYPE
280
     0
  9
$INTERSECTIONDISPLAY
280
     0
  9
$INTERSECTIONCOLOR
 70
   257
  9
$DIMASSOC
280
     2
  9
$PROJECTNAME
  1

  9
$CAMERADISPLAY
290
     0
  9
$LENSLENGTH
 40
50.0
  9
$CAMERAHEIGHT
 40
0.0
  9
$STEPSPERSEC
 40
2.0
  9
$STEPSIZE
 40
6.0
  9
$3DDWFPREC
 40
2.0
  9
$PSOLWIDTH
 40
0.25
  9
$PSOLHEIGHT
 40
4.0
  9
$LOFTANG1
 40
1.570796326794897
  9
$LOFTANG2
 40
1.570796326794897
  9
$LOFTMAG1
 40
0.0
  9
$LOFTMAG2
 40
0.0
  9
$LOFTPARAM
 70
     7
  9
$LOFTNORMALS
280
     1
  9
$LATITUDE
 40
37.795
  9
$LONGITUDE
 40
-122.394
  9
$NORTHDIRECTION
 40
0.0
  9
$TIMEZONE
 70
 -8000
  9
$LIGHTGLYPHDISPLAY
280
     1
  9
$TILEMODELIGHTSYNCH
280
     1
  9
$SOLIDHIST
280
     0
  9
$SHOWHIST
280
     1
  9
$DWFFRAME
280
     2
  9
$DGNFRAME
280
     2
  9
$REALWORLDSCALE
290
     1
  9
$INTERFERECOLOR
 62
   256
  9
$CSHADOW
280
     0
  9
$SHADOWPLANELOCATION
 40
0.0
  0
ENDSEC
  0
SECTION
  2
CLASSES
  0
CLASS
  1
SCALE
  2
AcDbScale
  3
ObjectDBX Classes
 90
     1153
 91
        4
280
     0
281
     0
  0
CLASS
  1
VISUALSTYLE
  2
AcDbVisualStyle
  3
ObjectDBX Classes
 90
     4095
 91
        4
280
     0
281
     0
  0
CLASS
  1
MATERIAL
  2
AcDbMaterial
  3
ObjectDBX Classes
 90
     1153
 91
        4
280
     0
281
     0
  0
CLASS
  1
TABLESTYLE
  2
AcDbTableStyle
  3
ObjectDBX Classes
 90
     4095
 91
        4
280
     0
281
     0
  0
CLASS
  1
MLEADERSTYLE
  2
AcDbMLeaderStyle
  3
ACDB_MLEADERSTYLE_CLASS
 90
     4095
 91
        4
280
     0
281
     0
  0
CLASS
  1
SUN
  2
AcDbSun
  3
SCENEOE
 90
     1153
 91
        4
280
     0
281
     0
  0
CLASS
  1
RASTERVARIABLES
  2
AcDbRasterVariables
  3
ISM
 90
        0
 91
        4
280
     0
281
     0
  0
CLASS
  1
DIMASSOC
  2
AcDbDimAssoc
  3
"AcDbDimAssoc|Product Desc:     AcDim ARX App For Dimension|Company:          Autodesk, Inc.|WEB Address:      www.autodesk.com"
 90
        0
 91
        4
280
     0
281
     0
  0
CLASS
  1
ACDBDICTIONARYWDFLT
  2
AcDbDictionaryWithDefault
  3
ObjectDBX Classes
 90
        0
 91
        4
280
     0
281
     0
  0
CLASS
  1
XRECORD
  2
AcDbXrecord
  3
ObjectDBX Classes
 90
        0
 91
        1
280
     0
281
     0
  0
CLASS
  1
LWPOLYLINE
  2
AcDbPolyline
  3
ObjectDBX Classes
 90
        0
 91
        1
280
     0
281
     1
  0
CLASS
  1
HATCH
  2
AcDbHatch
  3
ObjectDBX Classes
 90
        0
 91
        1
280
     0
281
     1
  0
CLASS
  1
DICTIONARYVAR
  2
AcDbDictionaryVar
  3
ObjectDBX Classes
 90
        0
 91
        4
280
     0
281
     0
  0
CLASS
  1
CELLSTYLEMAP
  2
AcDbCellStyleMap
  3
ObjectDBX Classes
 90
     1152
 91
        4
280
     0
281
     0
  0
ENDSEC
  0
SECTION
  2
TABLES
  0
TABLE
  2
VPORT
  5
8
330
0
100
AcDbSymbolTable
 70
     1
  0
VPORT
  5
2E
330
8
100
AcDbSymbolTableRecord
100
AcDbViewportTableRecord
  2
*ACTIVE
 70
     0
 10
0.0
 20
0.0
 11
1.0
 21
1.0
 12
528.1809229878886
 22
1.450665332000284
 13
0.0
 23
0.0
 14
10.0
 24
10.0
 15
10.0
 25
10.0
 16
0.0
 26
0.0
 36
1.0
 17
0.0
 27
0.0
 37
0.0
 40
654.3061922972693
 41
1.952029520295203
 42
50.0
 43
0.0
 44
0.0
 50
0.0
 51
0.0
 71
    16
 72
   100
 73
     1
 74
     3
 75
     0
 76
     0
 77
     0
 78
     0
281
     0
 65
     1
110
0.0
120
0.0
130
0.0
111
1.0
121
0.0
131
0.0
112
0.0
122
1.0
132
0.0
 79
     0
146
0.0
348
10029
 60
     3
 61
     5
292
     1
282
     1
141
0.0
142
0.0
 63
   250
361
10046
  0
ENDTAB
  0
TABLE
  2
LTYPE
  5
5
330
0
100
AcDbSymbolTable
 70
     1
  0
LTYPE
  5
14
330
5
100
AcDbSymbolTableRecord
100
AcDbLinetypeTableRecord
  2
BYBLOCK
 70
     0
  3

 72
    65
 73
     0
 40
0.0
  0
LTYPE
  5
15
330
5
100
AcDbSymbolTableRecord
100
AcDbLinetypeTableRecord
  2
BYLAYER
 70
     0
  3

 72
    65
 73
     0
 40
0.0
  0
LTYPE
  5
16
330
5
100
AcDbSymbolTableRecord
100
AcDbLinetypeTableRecord
  2
CONTINUOUS
 70
     0
  3
Solid line
 72
    65
 73
     0
 40
0.0
  0
ENDTAB
  0
TABLE
  2
LAYER
  5
2
330
0
100
AcDbSymbolTable
 70
     4
  0
LAYER
  5
50
330
2
100
AcDbSymbolTableRecord
100
AcDbLayerTableRecord
  2
0
 70
     0
 62
     7
  6
CONTINUOUS
370
    -3
390
1005A
347
10040
  0
LAYER
  5
51
330
2
100
AcDbSymbolTableRecord
100
AcDbLayerTableRecord
  2
2
 70
     0
 62
     7
  6
CONTINUOUS
370
    -3
390
1005A
347
10040
  0
LAYER
  5
52
330
2
100
AcDbSymbolTableRecord
100
AcDbLayerTableRecord
  2
3
 70
     0
 62
     7
  6
CONTINUOUS
370
    -3
390
1005A
347
10040
  0
LAYER
  5
53
330
2
100
AcDbSymbolTableRecord
100
AcDbLayerTableRecord
  2
DEFPOINTS
 70
     0
 62
     7
  6
CONTINUOUS
290
     0
370
    -3
390
1005A
347
10040
  0
ENDTAB
  0
TABLE
  2
STYLE
  5
3
330
0
100
AcDbSymbolTable
 70
     1
  0
STYLE
  5
11
330
3
100
AcDbSymbolTableRecord
100
AcDbTextStyleTableRecord
  2
STANDARD
 70
     0
 40
0.0
 41
1.0
 50
0.0
 71
     0
 42
2.5
  3
txt
  4

  0
ENDTAB
  0
TABLE
  2
VIEW
  5
6
330
0
100
AcDbSymbolTable
 70
     0
  0
ENDTAB
  0
TABLE
  2
UCS
  5
7
330
0
100
AcDbSymbolTable
 70
     0
  0
ENDTAB
  0
TABLE
  2
APPID
  5
9
330
0
100
AcDbSymbolTable
 70
     2
  0
APPID
  5
12
330
9
100
AcDbSymbolTableRecord
100
AcDbRegAppTableRecord
  2
ACAD
 70
     0
  0
APPID
  5
1012B
330
9
100
AcDbSymbolTableRecord
100
AcDbRegAppTableRecord
  2
ACAD_MLEADERVER
 70
     0
  0
ENDTAB
  0
TABLE
  2
DIMSTYLE
  5
A
330
0
100
AcDbSymbolTable
 70
     1
100
AcDbDimStyleTable
  0
DIMSTYLE
105
27
102
{ACAD_REACTORS
330
1006C
330
10080
330
100B2
330
10116
102
}
330
A
100
AcDbSymbolTableRecord
100
AcDbDimStyleTableRecord
  2
ISO-25
 70
     0
 41
2.5
 42
0.625
 43
3.75
 44
1.25
 73
     0
 74
     0
 77
     1
 78
     8
140
2.5
141
2.5
143
0.03937007874016
147
0.625
171
     3
172
     1
178
     0
271
     2
272
     2
274
     3
283
     0
284
     8
340
11
  0
ENDTAB
  0
TABLE
  2
BLOCK_RECORD
  5
1
330
0
100
AcDbSymbolTable
 70
    10
  0
BLOCK_RECORD
  5
1F
330
1
100
AcDbSymbolTableRecord
100
AcDbBlockTableRecord
  2
*MODEL_SPACE
340
10022
 70
     0
280
     1
281
     0
  0
BLOCK_RECORD
  5
1B
330
1
100
AcDbSymbolTableRecord
100
AcDbBlockTableRecord
  2
*PAPER_SPACE
340
10023
 70
     0
280
     1
281
     0
  0
BLOCK_RECORD
  5
1004B
330
1
100
AcDbSymbolTableRecord
100
AcDbBlockTableRecord
  2
*D0
340
0
 70
     0
280
     1
281
     0
  0
BLOCK_RECORD
  5
1005E
330
1
100
AcDbSymbolTableRecord
100
AcDbBlockTableRecord
  2
*D1
340
0
 70
     0
280
     1
281
     0
  0
BLOCK_RECORD
  5
1006F
330
1
100
AcDbSymbolTableRecord
100
AcDbBlockTableRecord
  2
*D2
340
0
 70
     0
280
     1
281
     0
  0
BLOCK_RECORD
  5
10083
330
1
100
AcDbSymbolTableRecord
100
AcDbBlockTableRecord
  2
*D3
340
0
 70
     0
280
     1
281
     0
  0
BLOCK_RECORD
  5
10093
330
1
100
AcDbSymbolTableRecord
100
AcDbBlockTableRecord
  2
*D4
340
0
 70
     0
280
     1
281
     0
  0
BLOCK_RECORD
  5
100A2
330
1
100
AcDbSymbolTableRecord
100
AcDbBlockTableRecord
  2
*D5
340
0
 70
     0
280
     1
281
     0
  0
BLOCK_RECORD
  5
100B5
330
1
100
AcDbSymbolTableRecord
100
AcDbBlockTableRecord
  2
*D6
340
0
 70
     0
280
     1
281
     0
  0
BLOCK_RECORD
  5
100D6
330
1
100
AcDbSymbolTableRecord
100
AcDbBlockTableRecord
  2
*D7
340
0
 70
     0
280
     1
281
     0
  0
BLOCK_RECORD
  5
100E3
330
1
100
AcDbSymbolTableRecord
100
AcDbBlockTableRecord
  2
vista
340
0
102
{BLKREFS
331
0
102
}
 70
     4
280
     1
281
     0
  0
BLOCK_RECORD
  5
10119
330
1
100
AcDbSymbolTableRecord
100
AcDbBlockTableRecord
  2
*D9
340
0
 70
     0
280
     1
281
     0
  0
ENDTAB
  0
ENDSEC
  0
SECTION
  2
BLOCKS
  0
BLOCK
  5
20
330
1F
100
AcDbEntity
  8
0
100
AcDbBlockBegin
  2
*MODEL_SPACE
 70
     0
 10
0.0
 20
0.0
 30
0.0
  3
*MODEL_SPACE
  1
*MODEL_SPACE
  0
ENDBLK
  5
21
330
1F
100
AcDbEntity
  8
0
100
AcDbBlockEnd
  0
BLOCK
  5
1C
330
1B
100
AcDbEntity
 67
     1
  8
0
100
AcDbBlockBegin
  2
*PAPER_SPACE
 70
     0
 10
0.0
 20
0.0
 30
0.0
  3
*PAPER_SPACE
  1
*PAPER_SPACE
  0
ENDBLK
  5
1D
330
1B
100
AcDbEntity
 67
     1
  8
0
100
AcDbBlockEnd
  0
BLOCK
  5
1004C
330
1004B
100
AcDbEntity
  8
0
100
AcDbBlockBegin
  2
*D0
 70
     1
 10
0.0
 20
0.0
 30
0.0
  3
*D0
  1
*D0
  0
LINE
  5
1004E
330
1004B
100
AcDbEntity
  8
0
  6
ByBlock
 62
     0
370
    -2
100
AcDbLine
 10
4251.845412
 20
12338.694259
 30
0.0
 11
4251.845412
 21
11189.91012057004
 31
0.0
  0
LINE
  5
1004F
330
1004B
100
AcDbEntity
  8
0
  6
ByBlock
 62
     0
370
    -2
100
AcDbLine
 10
9714.016678
 20
12338.694259
 30
0.0
 11
9714.016678
 21
11189.91012057004
 31
0.0
  0
LINE
  5
10050
330
1004B
100
AcDbEntity
  8
0
  6
ByBlock
 62
     0
370
    -2
100
AcDbLine
 10
4252.025412
 20
11190.09012057004
 30
0.0
 11
6982.181044999999
 21
11190.09012057004
 31
0.0
  0
LINE
  5
10051
330
1004B
100
AcDbEntity
  8
0
  6
ByBlock
 62
     0
370
    -2
100
AcDbLine
 10
9713.836678
 20
11190.09012057004
 30
0.0
 11
6983.681044999999
 21
11190.09012057004
 31
0.0
  0
SOLID
  5
10052
330
1004B
100
AcDbEntity
  8
0
 62
     0
100
AcDbTrace
 10
4252.025412
 20
11190.12012057004
 30
0.0
 11
4252.025412
 21
11190.06012057004
 31
0.0
 12
4251.845412
 22
11190.09012057004
 32
0.0
 13
4251.845412
 23
11190.09012057004
 33
0.0
  0
SOLID
  5
10053
330
1004B
100
AcDbEntity
  8
0
 62
     0
100
AcDbTrace
 10
9713.836678
 20
11190.06012057004
 30
0.0
 11
9713.836678
 21
11190.12012057004
 31
0.0
 12
9714.016678
 22
11190.09012057004
 32
0.0
 13
9714.016678
 23
11190.09012057004
 33
0.0
  0
MTEXT
  5
10054
330
1004B
100
AcDbEntity
  8
0
  6
ByBlock
 62
     0
100
AcDbMText
 10
6982.931044999999
 20
11190.09012057004
 30
0.0
 40
0.18
 41
0.0
 46
0.0
 71
     5
 72
     1
  1
\A1;5462.1713
 73
     1
 44
1.0
  0
POINT
  5
10055
330
1004B
100
AcDbEntity
  8
DEFPOINTS
 62
     0
100
AcDbPoint
 10
4251.845412
 20
12338.756759
 30
0.0
  0
POINT
  5
10056
330
1004B
100
AcDbEntity
  8
DEFPOINTS
 62
     0
100
AcDbPoint
 10
9714.016678
 20
12338.756759
 30
0.0
  0
POINT
  5
10057
330
1004B
100
AcDbEntity
  8
DEFPOINTS
 62
     0
100
AcDbPoint
 10
9714.016678
 20
11190.09012057004
 30
0.0
  0
ENDBLK
  5
1004D
330
1004B
100
AcDbEntity
  8
0
100
AcDbBlockEnd
  0
BLOCK
  5
1005F
330
1005E
100
AcDbEntity
  8
0
100
AcDbBlockBegin
  2
*D1
 70
     1
 10
0.0
 20
0.0
 30
0.0
  3
*D1
  1
*D1
  0
LINE
  5
10061
330
1005E
100
AcDbEntity
  8
0
  6
ByBlock
 62
     0
370
    -2
100
AcDbLine
 10
4251.845412
 20
12338.694259
 30
0.0
 11
4251.845412
 21
11250.06581241749
 31
0.0
  0
LINE
  5
10062
330
1005E
100
AcDbEntity
  8
0
  6
ByBlock
 62
     0
370
    -2
100
AcDbLine
 10
9714.016678
 20
12338.694259
 30
0.0
 11
9714.016678
 21
11250.06581241749
 31
0.0
  0
LINE
  5
10063
330
1005E
100
AcDbEntity
  8
0
  6
ByBlock
 62
     0
370
    -2
100
AcDbLine
 10
4261.845412
 20
11250.24581241749
 30
0.0
 11
6884.924378333333
 21
11250.24581241749
 31
0.0
  0
LINE
  5
10064
330
1005E
100
AcDbEntity
  8
0
  6
ByBlock
 62
     0
370
    -2
100
AcDbLine
 10
9704.016678
 20
11250.24581241749
 30
0.0
 11
7080.937711666667
 21
11250.24581241749
 31
0.0
  0
SOLID
  5
10065
330
1005E
100
AcDbEntity
  8
0
 62
     0
100
AcDbTrace
 10
4261.845412
 20
11251.91247908415
 30
0.0
 11
4261.845412
 21
11248.57914575082
 31
0.0
 12
4251.845412
 22
11250.24581241749
 32
0.0
 13
4251.845412
 23
11250.24581241749
 33
0.0
  0
SOLID
  5
10066
330
1005E
100
AcDbEntity
  8
0
 62
     0
100
AcDbTrace
 10
9704.016678
 20
11248.57914575082
 30
0.0
 11
9704.016678
 21
11251.91247908415
 31
0.0
 12
9714.016678
 22
11250.24581241749
 32
0.0
 13
9714.016678
 23
11250.24581241749
 33
0.0
  0
MTEXT
  5
10067
330
1005E
100
AcDbEntity
  8
0
  6
ByBlock
 62
     0
100
AcDbMText
 10
6982.931044999999
 20
11250.24581241749
 30
0.0
 40
25.0
 41
0.0
 46
0.0
 71
     5
 72
     1
  1
\A1;5464.9024
 73
     1
 44
1.0
  0
POINT
  5
10068
330
1005E
100
AcDbEntity
  8
DEFPOINTS
 62
     0
100
AcDbPoint
 10
4251.845412
 20
12338.756759
 30
0.0
  0
POINT
  5
10069
330
1005E
100
AcDbEntity
  8
DEFPOINTS
 62
     0
100
AcDbPoint
 10
9714.016678
 20
12338.756759
 30
0.0
  0
POINT
  5
1006A
330
1005E
100
AcDbEntity
  8
DEFPOINTS
 62
     0
100
AcDbPoint
 10
9714.016678
 20
11250.24581241749
 30
0.0
  0
ENDBLK
  5
10060
330
1005E
100
AcDbEntity
  8
0
100
AcDbBlockEnd
  0
BLOCK
  5
10070
330
1006F
100
AcDbEntity
  8
0
100
AcDbBlockBegin
  2
*D2
 70
     1
 10
0.0
 20
0.0
 30
0.0
  3
*D2
  1
*D2
  0
LINE
  5
10072
330
1006F
100
AcDbEntity
  8
0
  6
ByBlock
 62
     0
370
    -2
100
AcDbLine
 10
0.0
 20
-11.41651873010073
 30
0.0
 11
0.0
 21
-159.0769741804522
 31
0.0
  0
LINE
  5
10073
330
1006F
100
AcDbEntity
  8
0
  6
ByBlock
 62
     0
370
    -2
100
AcDbLine
 10
679.6480257785911
 20
-11.41651873010073
 30
0.0
 11
679.6480257785911
 21
-159.0769741804522
 31
0.0
  0
LINE
  5
10074
330
1006F
100
AcDbEntity
  8
0
  6
ByBlock
 62
     0
370
    -2
100
AcDbLine
 10
10.0
 20
-158.8969741804522
 30
0.0
 11
669.6480257785911
 21
-158.8969741804522
 31
0.0
  0
SOLID
  5
10075
330
1006F
100
AcDbEntity
  8
0
 62
     0
100
AcDbTrace
 10
10.0
 20
-157.2303075137855
 30
0.0
 11
10.0
 21
-160.5636408471188
 31
0.0
 12
0.0
 22
-158.8969741804522
 32
0.0
 13
0.0
 23
-158.8969741804522
 33
0.0
  0
SOLID
  5
10076
330
1006F
100
AcDbEntity
  8
0
 62
     0
100
AcDbTrace
 10
669.6480257785911
 20
-160.5636408471188
 30
0.0
 11
669.6480257785911
 21
-157.2303075137855
 31
0.0
 12
679.6480257785911
 22
-158.8969741804522
 32
0.0
 13
679.6480257785911
 23
-158.8969741804522
 33
0.0
  0
MTEXT
  5
10077
330
1006F
100
AcDbEntity
  8
0
  6
ByBlock
 62
     0
100
AcDbMText
 10
339.8240128892955
 20
-171.3969741804522
 30
0.0
 40
15.0
 41
0.0
 46
0.0
 71
     5
 72
     1
  1
\A1;680
 73
     1
 44
1.0
  0
POINT
  5
10078
330
1006F
100
AcDbEntity
  8
DEFPOINTS
 62
     0
100
AcDbPoint
 10
0.0
 20
-11.35401873010073
 30
0.0
  0
POINT
  5
10079
330
1006F
100
AcDbEntity
  8
DEFPOINTS
 62
     0
100
AcDbPoint
 10
679.6480257785911
 20
-11.35401873010073
 30
0.0
  0
POINT
  5
1007A
330
1006F
100
AcDbEntity
  8
DEFPOINTS
 62
     0
100
AcDbPoint
 10
679.6480257785911
 20
-158.8969741804522
 30
0.0
  0
ENDBLK
  5
10071
330
1006F
100
AcDbEntity
  8
0
100
AcDbBlockEnd
  0
BLOCK
  5
10084
330
10083
100
AcDbEntity
  8
0
100
AcDbBlockBegin
  2
*D3
 70
     1
 10
0.0
 20
0.0
 30
0.0
  3
*D3
  1
*D3
  0
LINE
  5
10086
330
10083
100
AcDbEntity
  8
0
  6
ByBlock
 62
     0
370
    -2
100
AcDbLine
 10
115.9361006697163
 20
81.25663148398917
 30
0.0
 11
115.9361006697163
 21
139.7998029461077
 31
0.0
  0
LINE
  5
10087
330
10083
100
AcDbEntity
  8
0
  6
ByBlock
 62
     0
370
    -2
100
AcDbLine
 10
563.7088944117108
 20
81.25663148398917
 30
0.0
 11
563.7088944117108
 21
139.7998029461077
 31
0.0
  0
LINE
  5
10088
330
10083
100
AcDbEntity
  8
0
  6
ByBlock
 62
     0
370
    -2
100
AcDbLine
 10
125.9361006697163
 20
139.6198029461077
 30
0.0
 11
553.7088944117108
 21
139.6198029461077
 31
0.0
  0
SOLID
  5
10089
330
10083
100
AcDbEntity
  8
0
 62
     0
100
AcDbTrace
 10
125.9361006697163
 20
141.2864696127744
 30
0.0
 11
125.9361006697163
 21
137.9531362794411
 31
0.0
 12
115.9361006697163
 22
139.6198029461077
 32
0.0
 13
115.9361006697163
 23
139.6198029461077
 33
0.0
  0
SOLID
  5
1008A
330
10083
100
AcDbEntity
  8
0
 62
     0
100
AcDbTrace
 10
553.7088944117108
 20
137.9531362794411
 30
0.0
 11
553.7088944117108
 21
141.2864696127744
 31
0.0
 12
563.7088944117108
 22
139.6198029461077
 32
0.0
 13
563.7088944117108
 23
139.6198029461077
 33
0.0
  0
MTEXT
  5
1008B
330
10083
100
AcDbEntity
  8
0
  6
ByBlock
 62
     0
100
AcDbMText
 10
339.8224975407136
 20
152.1198029461077
 30
0.0
 40
15.0
 41
0.0
 46
0.0
 71
     5
 72
     1
  1
\A1;450
 73
     1
 44
1.0
  0
POINT
  5
1008C
330
10083
100
AcDbEntity
  8
DEFPOINTS
 62
     0
100
AcDbPoint
 10
115.9361006697163
 20
76.25663148398917
 30
0.0
  0
POINT
  5
1008D
330
10083
100
AcDbEntity
  8
DEFPOINTS
 62
     0
100
AcDbPoint
 10
563.7088944117108
 20
76.25663148398917
 30
0.0
  0
POINT
  5
1008E
330
10083
100
AcDbEntity
  8
DEFPOINTS
 62
     0
100
AcDbPoint
 10
563.7088944117108
 20
139.6198029461077
 30
0.0
  0
ENDBLK
  5
10085
330
10083
100
AcDbEntity
  8
0
100
AcDbBlockEnd
  0
BLOCK
  5
10094
330
10093
100
AcDbEntity
  8
0
100
AcDbBlockBegin
  2
*D4
 70
     1
 10
0.0
 20
0.0
 30
0.0
  3
*D4
  1
*D4
  0
LINE
  5
10096
330
10093
100
AcDbEntity
  8
0
  6
ByBlock
 62
     0
370
    -2
100
AcDbLine
 10
1363.673094719122
 20
1404.498183447393
 30
0.0
 11
1363.673094719122
 21
1385.085915757463
 31
0.0
  0
LINE
  5
10097
330
10093
100
AcDbEntity
  8
0
  6
ByBlock
 62
     0
370
    -2
100
AcDbLine
 10
1491.616458327539
 20
1404.499058177493
 30
0.0
 11
1491.616458327539
 21
1385.085915757463
 31
0.0
  0
LINE
  5
10098
330
10093
100
AcDbEntity
  8
0
  6
ByBlock
 62
     0
370
    -2
100
AcDbLine
 10
1373.673094719122
 20
1385.265915757463
 30
0.0
 11
1481.616458327539
 21
1385.265915757463
 31
0.0
  0
SOLID
  5
10099
330
10093
100
AcDbEntity
  8
0
 62
     0
100
AcDbTrace
 10
1373.673094719122
 20
1386.93258242413
 30
0.0
 11
1373.673094719122
 21
1383.599249090796
 31
0.0
 12
1363.673094719122
 22
1385.265915757463
 32
0.0
 13
1363.673094719122
 23
1385.265915757463
 33
0.0
  0
SOLID
  5
1009A
330
10093
100
AcDbEntity
  8
0
 62
     0
100
AcDbTrace
 10
1481.616458327539
 20
1383.599249090796
 30
0.0
 11
1481.616458327539
 21
1386.93258242413
 31
0.0
 12
1491.616458327539
 22
1385.265915757463
 32
0.0
 13
1491.616458327539
 23
1385.265915757463
 33
0.0
  0
MTEXT
  5
1009B
330
10093
100
AcDbEntity
  8
0
  6
ByBlock
 62
     0
100
AcDbMText
 10
1427.64477652333
 20
1347.450915757463
 30
0.0
 40
25.0
 41
0.0
 46
0.0
 71
     5
 72
     1
  1
\A1;128.0073
 73
     1
 44
1.0
  0
POINT
  5
1009C
330
10093
100
AcDbEntity
  8
DEFPOINTS
 62
     0
100
AcDbPoint
 10
1363.673094719122
 20
1404.560683447393
 30
0.0
  0
POINT
  5
1009D
330
10093
100
AcDbEntity
  8
DEFPOINTS
 62
     0
100
AcDbPoint
 10
1491.616458327539
 20
1404.561558177493
 30
0.0
  0
POINT
  5
1009E
330
10093
100
AcDbEntity
  8
DEFPOINTS
 62
     0
100
AcDbPoint
 10
1491.616458327539
 20
1385.265915757463
 30
0.0
  0
ENDBLK
  5
10095
330
10093
100
AcDbEntity
  8
0
100
AcDbBlockEnd
  0
BLOCK
  5
100A3
330
100A2
100
AcDbEntity
  8
0
100
AcDbBlockBegin
  2
*D5
 70
     1
 10
0.0
 20
0.0
 30
0.0
  3
*D5
  1
*D5
  0
LINE
  5
100A5
330
100A2
100
AcDbEntity
  8
0
  6
ByBlock
 62
     0
370
    -2
100
AcDbLine
 10
1505.962733893584
 20
1588.973014783623
 30
0.0
 11
1605.812926059329
 21
1588.973014783623
 31
0.0
  0
LINE
  5
100A6
330
100A2
100
AcDbEntity
  8
0
  6
ByBlock
 62
     0
370
    -2
100
AcDbLine
 10
1505.962733893584
 20
1470.794916932239
 30
0.0
 11
1605.812926059329
 21
1470.794916932239
 31
0.0
  0
LINE
  5
100A7
330
100A2
100
AcDbEntity
  8
0
  6
ByBlock
 62
     0
370
    -2
100
AcDbLine
 10
1605.632926059329
 20
1578.973014783623
 30
0.0
 11
1605.632926059329
 21
1549.883965857931
 31
0.0
  0
LINE
  5
100A8
330
100A2
100
AcDbEntity
  8
0
  6
ByBlock
 62
     0
370
    -2
100
AcDbLine
 10
1605.632926059329
 20
1480.794916932239
 30
0.0
 11
1605.632926059329
 21
1509.883965857931
 31
0.0
  0
SOLID
  5
100A9
330
100A2
100
AcDbEntity
  8
0
 62
     0
100
AcDbTrace
 10
1607.299592725996
 20
1578.973014783623
 30
0.0
 11
1603.966259392663
 21
1578.973014783623
 31
0.0
 12
1605.632926059329
 22
1588.973014783623
 32
0.0
 13
1605.632926059329
 23
1588.973014783623
 33
0.0
  0
SOLID
  5
100AA
330
100A2
100
AcDbEntity
  8
0
 62
     0
100
AcDbTrace
 10
1603.966259392663
 20
1480.794916932239
 30
0.0
 11
1607.299592725996
 21
1480.794916932239
 31
0.0
 12
1605.632926059329
 22
1470.794916932239
 32
0.0
 13
1605.632926059329
 23
1470.794916932239
 33
0.0
  0
MTEXT
  5
100AB
330
100A2
100
AcDbEntity
  8
0
  6
ByBlock
 62
     0
100
AcDbMText
 10
1605.632926059329
 20
1529.883965857931
 30
0.0
 40
15.0
 41
0.0
 46
0.0
 71
     5
 72
     1
  1
\A1;112
 11
6.123233995736766E-17
 21
1.0
 31
0.0
 73
     1
 44
1.0
  0
POINT
  5
100AC
330
100A2
100
AcDbEntity
  8
DEFPOINTS
 62
     0
100
AcDbPoint
 10
1505.900233893584
 20
1588.973014783623
 30
0.0
  0
POINT
  5
100AD
330
100A2
100
AcDbEntity
  8
DEFPOINTS
 62
     0
100
AcDbPoint
 10
1505.900233893584
 20
1470.794916932239
 30
0.0
  0
POINT
  5
100B1
330
100A2
100
AcDbEntity
  8
DEFPOINTS
 62
     0
100
AcDbPoint
 10
1605.632926059329
 20
1470.794916932239
 30
0.0
  0
ENDBLK
  5
100A4
330
100A2
100
AcDbEntity
  8
0
100
AcDbBlockEnd
  0
BLOCK
  5
100B6
330
100B5
100
AcDbEntity
  8
0
100
AcDbBlockBegin
  2
*D6
 70
     1
 10
0.0
 20
0.0
 30
0.0
  3
*D6
  1
*D6
  0
LINE
  5
100B8
330
100B5
100
AcDbEntity
  8
0
  6
ByBlock
 62
     0
370
    -2
100
AcDbLine
 10
828.4293348700846
 20
-14.01341830654155
 30
0.0
 11
828.4293348700846
 21
-162.7283136164937
 31
0.0
  0
LINE
  5
100B9
330
100B5
100
AcDbEntity
  8
0
  6
ByBlock
 62
     0
370
    -2
100
AcDbLine
 10
963.3594391604554
 20
-14.01341830654155
 30
0.0
 11
963.3594391604554
 21
-162.7283136164937
 31
0.0
  0
LINE
  5
100BA
330
100B5
100
AcDbEntity
  8
0
  6
ByBlock
 62
     0
370
    -2
100
AcDbLine
 10
838.4293348700846
 20
-162.5483136164937
 30
0.0
 11
953.3594391604554
 21
-162.5483136164937
 31
0.0
  0
SOLID
  5
100BB
330
100B5
100
AcDbEntity
  8
0
 62
     0
100
AcDbTrace
 10
838.4293348700846
 20
-160.8816469498271
 30
0.0
 11
838.4293348700846
 21
-164.2149802831604
 31
0.0
 12
828.4293348700846
 22
-162.5483136164937
 32
0.0
 13
828.4293348700846
 23
-162.5483136164937
 33
0.0
  0
SOLID
  5
100BC
330
100B5
100
AcDbEntity
  8
0
 62
     0
100
AcDbTrace
 10
953.3594391604554
 20
-164.2149802831604
 30
0.0
 11
953.3594391604554
 21
-160.8816469498271
 31
0.0
 12
963.3594391604554
 22
-162.5483136164937
 32
0.0
 13
963.3594391604554
 23
-162.5483136164937
 33
0.0
  0
MTEXT
  5
100BD
330
100B5
100
AcDbEntity
  8
0
  6
ByBlock
 62
     0
100
AcDbMText
 10
895.89438701527
 20
-175.0483136164937
 30
0.0
 40
15.0
 41
0.0
 46
0.0
 71
     5
 72
     1
  1
\A1;135
 73
     1
 44
1.0
  0
POINT
  5
100BE
330
100B5
100
AcDbEntity
  8
DEFPOINTS
 62
     0
100
AcDbPoint
 10
828.4293348700846
 20
-13.95091830654155
 30
0.0
  0
POINT
  5
100BF
330
100B5
100
AcDbEntity
  8
DEFPOINTS
 62
     0
100
AcDbPoint
 10
963.3594391604554
 20
-13.95091830654155
 30
0.0
  0
POINT
  5
100C0
330
100B5
100
AcDbEntity
  8
DEFPOINTS
 62
     0
100
AcDbPoint
 10
963.3594391604554
 20
-162.5483136164937
 30
0.0
  0
ENDBLK
  5
100B7
330
100B5
100
AcDbEntity
  8
0
100
AcDbBlockEnd
  0
BLOCK
  5
100D7
330
100D6
100
AcDbEntity
  8
0
100
AcDbBlockBegin
  2
*D7
 70
     1
 10
0.0
 20
0.0
 30
0.0
  3
*D7
  1
*D7
  0
LINE
  5
100D9
330
100D6
100
AcDbEntity
  8
0
  6
ByBlock
 62
     0
370
    -2
100
AcDbLine
 10
1140.795092966148
 20
1586.760565562671
 30
0.0
 11
1606.681250113371
 21
1586.760565562671
 31
0.0
  0
LINE
  5
100DA
330
100D6
100
AcDbEntity
  8
0
  6
ByBlock
 62
     0
370
    -2
100
AcDbLine
 10
1140.795092966148
 20
1474.734330386093
 30
0.0
 11
1606.681250113371
 21
1474.734330386093
 31
0.0
  0
LINE
  5
100DB
330
100D6
100
AcDbEntity
  8
0
  6
ByBlock
 62
     0
370
    -2
100
AcDbLine
 10
1606.501250113371
 20
1576.760565562671
 30
0.0
 11
1606.501250113371
 21
1543.337447974382
 31
0.0
  0
LINE
  5
100DC
330
100D6
100
AcDbEntity
  8
0
  6
ByBlock
 62
     0
370
    -2
100
AcDbLine
 10
1606.501250113371
 20
1484.734330386093
 30
0.0
 11
1606.501250113371
 21
1518.157447974382
 31
0.0
  0
SOLID
  5
100DD
330
100D6
100
AcDbEntity
  8
0
 62
     0
100
AcDbTrace
 10
1608.167916780038
 20
1576.760565562671
 30
0.0
 11
1604.834583446704
 21
1576.760565562671
 31
0.0
 12
1606.501250113371
 22
1586.760565562671
 32
0.0
 13
1606.501250113371
 23
1586.760565562671
 33
0.0
  0
SOLID
  5
100DE
330
100D6
100
AcDbEntity
  8
0
 62
     0
100
AcDbTrace
 10
1604.834583446704
 20
1484.734330386093
 30
0.0
 11
1608.167916780038
 21
1484.734330386093
 31
0.0
 12
1606.501250113371
 22
1474.734330386093
 32
0.0
 13
1606.501250113371
 23
1474.734330386093
 33
0.0
  0
MTEXT
  5
100DF
330
100D6
100
AcDbEntity
  8
0
  6
ByBlock
 62
     0
100
AcDbMText
 10
1606.501250113371
 20
1530.747447974382
 30
0.0
 40
25.0
 41
0.0
 46
0.0
 71
     5
 72
     1
  1
\A1;112.0822
 73
     1
 44
1.0
  0
POINT
  5
100E0
330
100D6
100
AcDbEntity
  8
DEFPOINTS
 62
     0
100
AcDbPoint
 10
1140.732592966148
 20
1586.760565562671
 30
0.0
  0
POINT
  5
100E1
330
100D6
100
AcDbEntity
  8
DEFPOINTS
 62
     0
100
AcDbPoint
 10
1140.732592966148
 20
1474.734330386093
 30
0.0
  0
POINT
  5
100E2
330
100D6
100
AcDbEntity
  8
DEFPOINTS
 62
     0
100
AcDbPoint
 10
1606.501250113371
 20
1474.734330386093
 30
0.0
  0
ENDBLK
  5
100D8
330
100D6
100
AcDbEntity
  8
0
100
AcDbBlockEnd
  0
BLOCK
  5
10113
330
100E3
100
AcDbEntity
  8
0
100
AcDbBlockBegin
  2
vista
 70
     0
 10
0.0
 20
0.0
 30
0.0
  3
vista
  1
vista
  0
LWPOLYLINE
  5
100E4
330
100E3
100
AcDbEntity
  8
2
 62
     7
100
AcDbPolyline
 90
        2
 70
     0
 43
0.0
 10
1367.601788183328
 20
1520.717197425446
 10
1372.730803605046
 20
1489.136294416812
  0
LWPOLYLINE
  5
100E5
330
100E3
100
AcDbEntity
  8
2
 62
     7
100
AcDbPolyline
 90
        2
 70
     0
 43
0.0
 10
1482.285690004863
 20
1520.717197425446
 10
1477.156752797921
 20
1489.136294416812
  0
LWPOLYLINE
  5
100E6
330
100E3
100
AcDbEntity
  8
2
 62
     7
100
AcDbPolyline
 90
        2
 70
     0
 43
0.0
 10
1424.943778004634
 20
1468.825845202493
 10
1424.943778004634
 20
1520.717197425446
  0
LWPOLYLINE
  5
100E7
330
100E3
100
AcDbEntity
  8
2
 62
     7
100
AcDbPolyline
 90
        2
 70
     0
 43
0.0
 10
1408.077482061702
 20
1468.825845202493
 10
1408.077482061702
 20
1520.717197425446
  0
LWPOLYLINE
  5
100E8
330
100E3
100
AcDbEntity
  8
2
 62
     7
100
AcDbPolyline
 90
        2
 70
     0
 43
0.0
 10
1391.211248060672
 20
1468.825845202493
 10
1391.211248060672
 20
1520.717197425446
  0
LWPOLYLINE
  5
100E9
330
100E3
100
AcDbEntity
  8
2
 62
     7
100
AcDbPolyline
 90
        2
 70
     0
 43
0.0
 10
1374.34495211774
 20
1483.651301765565
 10
1374.34495211774
 20
1520.717197425446
  0
LWPOLYLINE
  5
100EA
330
100E3
100
AcDbEntity
  8
2
 62
     7
100
AcDbPolyline
 90
        2
 70
     0
 43
0.0
 10
1441.810058855789
 20
1468.825845202493
 10
1441.810058855789
 20
1520.717197425446
  0
SPLINE
  5
100EB
330
100E3
100
AcDbEntity
  8
2
 62
     7
100
AcDbSpline
210
0.0
220
0.0
230
1.0
 70
     8
 71
     3
 72
     8
 73
     4
 74
     0
 42
0.000000001
 43
0.0000001
 40
0.0
 40
0.0
 40
0.0
 40
0.0
 40
1.0
 40
1.0
 40
1.0
 40
1.0
 10
1452.151125182413
 20
1468.825830373182
 30
0.0
 10
1464.639123589321
 20
1468.825830373182
 30
0.0
 10
1475.259043177038
 20
1477.451719368493
 30
0.0
 10
1477.156713428067
 20
1489.136288117635
 30
0.0
  0
LWPOLYLINE
  5
100EC
330
100E3
100
AcDbEntity
  8
2
 62
     7
100
AcDbPolyline
 90
        2
 70
     0
 43
0.0
 10
1458.67624587546
 20
1468.825845202493
 10
1458.67624587546
 20
1520.717197425446
  0
LWPOLYLINE
  5
100ED
330
100E3
100
AcDbEntity
  8
2
 62
     7
100
AcDbPolyline
 90
        2
 70
     0
 43
0.0
 10
1475.542541818392
 20
1483.651331161723
 10
1475.542541818392
 20
1520.717197425446
  0
LWPOLYLINE
  5
100EE
330
100E3
100
AcDbEntity
  8
2
 62
     7
100
AcDbPolyline
 90
        2
 70
     0
 43
0.0
 10
1373.883846749202
 20
1484.792424242978
 10
1476.003631176524
 20
1484.792424242978
  0
SPLINE
  5
100EF
330
100E3
100
AcDbEntity
  8
2
 62
     7
100
AcDbSpline
210
0.0
220
0.0
230
1.0
 70
     8
 71
     3
 72
     8
 73
     4
 74
     0
 42
0.000000001
 43
0.0000001
 40
0.0
 40
0.0
 40
0.0
 40
0.0
 40
1.0
 40
1.0
 40
1.0
 40
1.0
 10
1372.730779851901
 20
1489.136293366949
 30
0.0
 10
1374.628447740739
 20
1477.451721993149
 30
0.0
 10
1385.248368772017
 20
1468.825830373182
 30
0.0
 10
1397.736369409883
 20
1468.825830373182
 30
0.0
  0
LWPOLYLINE
  5
100F0
330
100E3
100
AcDbEntity
  8
2
 62
     7
100
AcDbPolyline
 90
        2
 70
     0
 43
0.0
 10
1370.843140514641
 20
1500.759003283463
 10
1479.044400271617
 20
1500.759003283463
  0
LWPOLYLINE
  5
100F1
330
100E3
100
AcDbEntity
  8
2
 62
     7
100
AcDbPolyline
 90
        2
 70
     0
 43
0.0
 10
1397.736368622486
 20
1468.825845202493
 10
1452.151125182413
 20
1468.825845202493
  0
LWPOLYLINE
  5
100F2
330
100E3
100
AcDbEntity
  8
2
 62
     7
100
AcDbPolyline
 90
        2
 70
     0
 43
0.0
 10
1357.478718247944
 20
1544.667080684252
 10
1492.408822538315
 20
1544.667080684252
  0
LWPOLYLINE
  5
100F3
330
100E3
100
AcDbEntity
  8
2
 62
     7
100
AcDbPolyline
 90
        2
 70
     0
 43
0.0
 10
1357.478718247944
 20
1520.717197425446
 10
1492.408822538315
 20
1520.717197425446
  0
SPLINE
  5
100F4
330
100E3
100
AcDbEntity
  8
2
 62
     7
100
AcDbSpline
210
0.0
220
0.0
230
1.0
 70
     8
 71
     3
 72
     8
 73
     4
 74
     0
 42
0.000000001
 43
0.0000001
 40
0.0
 40
0.0
 40
0.0
 40
0.0
 40
1.0
 40
1.0
 40
1.0
 40
1.0
 10
1479.759092641528
 20
1564.625289655547
 30
0.0
 10
1479.759092641528
 20
1567.801239867406
 30
0.0
 10
1478.426360236164
 20
1570.847111295528
 30
0.0
 10
1476.054081281738
 20
1573.09284727277
 30
0.0
  0
SPLINE
  5
100F5
330
100E3
100
AcDbEntity
  8
2
 62
     7
100
AcDbSpline
210
0.0
220
0.0
230
1.0
 70
     8
 71
     3
 72
     8
 73
     4
 74
     0
 42
0.000000001
 43
0.0000001
 40
0.0
 40
0.0
 40
0.0
 40
0.0
 40
1.0
 40
1.0
 40
1.0
 40
1.0
 10
1476.054081281738
 20
1573.09284727277
 30
0.0
 10
1473.681802589778
 20
1575.338583118779
 30
0.0
 10
1470.46430169688
 20
1576.600224198376
 30
0.0
 10
1467.109393059529
 20
1576.60022393591
 30
0.0
  0
LWPOLYLINE
  5
100F6
330
100E3
100
AcDbEntity
  8
2
 62
     7
100
AcDbPolyline
 90
        2
 70
     0
 43
0.0
 10
1357.478718247944
 20
1544.667080684252
 10
1357.478718247944
 20
1520.717197425446
  0
LWPOLYLINE
  5
100F7
330
100E3
100
AcDbEntity
  8
2
 62
     7
100
AcDbPolyline
 90
        2
 70
     0
 43
0.0
 10
1368.250077258408
 20
1516.72558193025
 10
1481.637416677724
 20
1516.72558193025
  0
SPLINE
  5
100F8
330
100E3
100
AcDbEntity
  8
2
 62
     7
100
AcDbSpline
210
0.0
220
0.0
230
1.0
 70
     8
 71
     3
 72
     8
 73
     4
 74
     0
 42
0.000000001
 43
0.0000001
 40
0.0
 40
0.0
 40
0.0
 40
0.0
 40
1.0
 40
1.0
 40
1.0
 40
1.0
 10
1408.077513163886
 20
1558.323047346821
 30
0.0
 10
1408.077506602244
 20
1552.738904212672
 30
0.0
 10
1411.159240554955
 20
1547.560516763564
 30
0.0
 10
1416.204395563818
 20
1544.667050894396
 30
0.0
  0
SPLINE
  5
100F9
330
100E3
100
AcDbEntity
  8
2
 62
     7
100
AcDbSpline
210
0.0
220
0.0
230
1.0
 70
     8
 71
     3
 72
     8
 73
     4
 74
     0
 42
0.000000001
 43
0.0000001
 40
0.0
 40
0.0
 40
0.0
 40
0.0
 40
1.0
 40
1.0
 40
1.0
 40
1.0
 10
1435.35321520014
 20
1561.357758733772
 30
0.0
 10
1435.35321520014
 20
1564.878315767738
 30
0.0
 10
1433.36918770014
 20
1568.131444803363
 30
0.0
 10
1430.148496668003
 20
1569.891723189113
 30
0.0
  0
SPLINE
  5
100FA
330
100E3
100
AcDbEntity
  8
2
 62
     7
100
AcDbSpline
210
0.0
220
0.0
230
1.0
 70
     8
 71
     3
 72
     8
 73
     4
 74
     0
 42
0.000000001
 43
0.0000001
 40
0.0
 40
0.0
 40
0.0
 40
0.0
 40
1.0
 40
1.0
 40
1.0
 40
1.0
 10
1430.148496668003
 20
1569.891723189113
 30
0.0
 10
1426.927805504634
 20
1571.652001706096
 30
0.0
 10
1422.959750504634
 20
1571.652001706096
 30
0.0
 10
1419.739059734964
 20
1569.891723189113
 30
0.0
  0
SPLINE
  5
100FB
330
100E3
100
AcDbEntity
  8
2
 62
     7
100
AcDbSpline
210
0.0
220
0.0
230
1.0
 70
     8
 71
     3
 72
     8
 73
     4
 74
     0
 42
0.000000001
 43
0.0000001
 40
0.0
 40
0.0
 40
0.0
 40
0.0
 40
1.0
 40
1.0
 40
1.0
 40
1.0
 10
1419.739059734964
 20
1569.891723189113
 30
0.0
 10
1416.518368702827
 20
1568.131444803363
 30
0.0
 10
1414.534341202827
 20
1564.878315767738
 30
0.0
 10
1414.534341202827
 20
1561.357758733772
 30
0.0
  0
SPLINE
  5
100FC
330
100E3
100
AcDbEntity
  8
2
 62
     7
100
AcDbSpline
210
0.0
220
0.0
230
1.0
 70
     8
 71
     3
 72
     8
 73
     4
 74
     0
 42
0.000000001
 43
0.0000001
 40
0.0
 40
0.0
 40
0.0
 40
0.0
 40
1.0
 40
1.0
 40
1.0
 40
1.0
 10
1414.534341202827
 20
1561.357758733772
 30
0.0
 10
1414.534341202827
 20
1557.837201831039
 30
0.0
 10
1416.518368702827
 20
1554.584072795414
 30
0.0
 10
1419.739059734964
 20
1552.823794278431
 30
0.0
  0
SPLINE
  5
100FD
330
100E3
100
AcDbEntity
  8
2
 62
     7
100
AcDbSpline
210
0.0
220
0.0
230
1.0
 70
     8
 71
     3
 72
     8
 73
     4
 74
     0
 42
0.000000001
 43
0.0000001
 40
0.0
 40
0.0
 40
0.0
 40
0.0
 40
1.0
 40
1.0
 40
1.0
 40
1.0
 10
1419.739059734964
 20
1552.823794278431
 30
0.0
 10
1422.959750898333
 20
1551.063515761448
 30
0.0
 10
1426.927805898333
 20
1551.063515761448
 30
0.0
 10
1430.148496668003
 20
1552.823794278431
 30
0.0
  0
SPLINE
  5
100FE
330
100E3
100
AcDbEntity
  8
2
 62
     7
100
AcDbSpline
210
0.0
220
0.0
230
1.0
 70
     8
 71
     3
 72
     8
 73
     4
 74
     0
 42
0.000000001
 43
0.0000001
 40
0.0
 40
0.0
 40
0.0
 40
0.0
 40
1.0
 40
1.0
 40
1.0
 40
1.0
 10
1430.148496668003
 20
1552.823794278431
 30
0.0
 10
1433.36918770014
 20
1554.584072795414
 30
0.0
 10
1435.35321520014
 20
1557.837201831039
 30
0.0
 10
1435.35321520014
 20
1561.357758733772
 30
0.0
  0
LWPOLYLINE
  5
100FF
330
100E3
100
AcDbEntity
  8
2
 62
     7
100
AcDbPolyline
 90
        2
 70
     0
 43
0.0
 10
1382.778100089206
 20
1576.600238371524
 10
1467.109393846926
 20
1576.600238371524
  0
SPLINE
  5
10100
330
100E3
100
AcDbEntity
  8
2
 62
     7
100
AcDbSpline
210
0.0
220
0.0
230
1.0
 70
     8
 71
     3
 72
     8
 73
     4
 74
     0
 42
0.000000001
 43
0.0000001
 40
0.0
 40
0.0
 40
0.0
 40
0.0
 40
1.0
 40
1.0
 40
1.0
 40
1.0
 10
1382.778099301809
 20
1576.60022393591
 30
0.0
 10
1379.423190401992
 20
1576.60022393591
 30
0.0
 10
1376.205690296491
 20
1575.338582462615
 30
0.0
 10
1373.833411604531
 20
1573.092846091674
 30
0.0
  0
SPLINE
  5
10101
330
100E3
100
AcDbEntity
  8
2
 62
     7
100
AcDbSpline
210
0.0
220
0.0
230
1.0
 70
     8
 71
     3
 72
     8
 73
     4
 74
     0
 42
0.000000001
 43
0.0000001
 40
0.0
 40
0.0
 40
0.0
 40
0.0
 40
1.0
 40
1.0
 40
1.0
 40
1.0
 10
1373.833411604531
 20
1573.092846091674
 30
0.0
 10
1371.461132912571
 20
1570.847110114433
 30
0.0
 10
1370.128401032139
 20
1567.801238686311
 30
0.0
 10
1370.128401294604
 20
1564.625288605684
 30
0.0
  0
LWPOLYLINE
  5
10102
330
100E3
100
AcDbEntity
  8
2
 62
     7
100
AcDbPolyline
 90
        2
 70
     0
 43
0.0
 10
1394.038737010524
 20
1586.978515115291
 10
1455.848756925609
 20
1586.978515115291
  0
SPLINE
  5
10103
330
100E3
100
AcDbEntity
  8
2
 62
     7
100
AcDbSpline
210
0.0
220
0.0
230
1.0
 70
     8
 71
     3
 72
     8
 73
     4
 74
     0
 42
0.000000001
 43
0.0000001
 40
0.0
 40
0.0
 40
0.0
 40
0.0
 40
1.0
 40
1.0
 40
1.0
 40
1.0
 10
1394.038736748058
 20
1586.978500285979
 30
0.0
 10
1392.920433693964
 20
1586.978500285979
 30
0.0
 10
1391.84793379003
 20
1586.557952822004
 30
0.0
 10
1391.057174138555
 20
1585.809374425389
 30
0.0
  0
SPLINE
  5
10104
330
100E3
100
AcDbEntity
  8
2
 62
     7
100
AcDbSpline
210
0.0
220
0.0
230
1.0
 70
     8
 71
     3
 72
     8
 73
     4
 74
     0
 42
0.000000001
 43
0.0000001
 40
0.0
 40
0.0
 40
0.0
 40
0.0
 40
1.0
 40
1.0
 40
1.0
 40
1.0
 10
1391.057174138555
 20
1585.809374425389
 30
0.0
 10
1390.266414749545
 20
1585.060795635076
 30
0.0
 10
1389.822170701912
 20
1584.045504984058
 30
0.0
 10
1389.822170701912
 20
1582.986855000926
 30
0.0
  0
LWPOLYLINE
  5
10105
330
100E3
100
AcDbEntity
  8
2
 62
     7
100
AcDbPolyline
 90
        4
 70
     1
 43
0.0
 10
1435.35321520014
 20
1561.357758733772
 10
1435.35321520014
 20
1561.357758733772
 10
1435.35321520014
 20
1561.357758733772
 10
1435.35321520014
 20
1561.357758733772
  0
LWPOLYLINE
  5
10106
330
100E3
100
AcDbEntity
  8
2
 62
     7
100
AcDbPolyline
 90
        2
 70
     0
 43
0.0
 10
1370.128385809129
 20
1544.667080684252
 10
1370.128385809129
 20
1564.625289655547
  0
LWPOLYLINE
  5
10107
330
100E3
100
AcDbEntity
  8
2
 62
     7
100
AcDbPolyline
 90
        2
 70
     0
 43
0.0
 10
1389.822170701912
 20
1576.600238371524
 10
1389.822170701912
 20
1582.986855394625
  0
LWPOLYLINE
  5
10108
330
100E3
100
AcDbEntity
  8
2
 62
     7
100
AcDbPolyline
 90
        2
 70
     0
 43
0.0
 10
1408.077482061702
 20
1558.323029367921
 10
1408.077482061702
 20
1576.600238371524
  0
LWPOLYLINE
  5
10109
330
100E3
100
AcDbEntity
  8
2
 62
     7
100
AcDbPolyline
 90
        2
 70
     0
 43
0.0
 10
1422.4137916843
 20
1586.978515115291
 10
1422.4137916843
 20
1598.953463831267
  0
SPLINE
  5
1010A
330
100E3
100
AcDbEntity
  8
2
 62
     7
100
AcDbSpline
210
0.0
220
0.0
230
1.0
 70
     8
 71
     3
 72
     8
 73
     4
 74
     0
 42
0.000000001
 43
0.0000001
 40
0.0
 40
0.0
 40
0.0
 40
0.0
 40
1.0
 40
1.0
 40
1.0
 40
1.0
 10
1433.683161626546
 20
1544.667051288095
 30
0.0
 10
1438.728316635409
 20
1547.560517550961
 30
0.0
 10
1441.810050194421
 20
1552.738905393767
 30
0.0
 10
1441.810043107848
 20
1558.323048396684
 30
0.0
  0
LWPOLYLINE
  5
1010B
330
100E3
100
AcDbEntity
  8
2
 62
     7
100
AcDbPolyline
 90
        2
 70
     0
 43
0.0
 10
1427.473749233191
 20
1586.978515115291
 10
1427.473749233191
 20
1598.953463831267
  0
SPLINE
  5
1010C
330
100E3
100
AcDbEntity
  8
2
 62
     7
100
AcDbSpline
210
0.0
220
0.0
230
1.0
 70
     8
 71
     3
 72
     8
 73
     4
 74
     0
 42
0.000000001
 43
0.0000001
 40
0.0
 40
0.0
 40
0.0
 40
0.0
 40
1.0
 40
1.0
 40
1.0
 40
1.0
 10
1460.065322840522
 20
1582.986855394625
 30
0.0
 10
1460.065322840522
 20
1584.045505508989
 30
0.0
 10
1459.621078792889
 20
1585.060796028774
 30
0.0
 10
1458.830319535112
 20
1585.809374425389
 30
0.0
  0
SPLINE
  5
1010D
330
100E3
100
AcDbEntity
  8
2
 62
     7
100
AcDbSpline
210
0.0
220
0.0
230
1.0
 70
     8
 71
     3
 72
     8
 73
     4
 74
     0
 42
0.000000001
 43
0.0000001
 40
0.0
 40
0.0
 40
0.0
 40
0.0
 40
1.0
 40
1.0
 40
1.0
 40
1.0
 10
1458.830319535112
 20
1585.809374425389
 30
0.0
 10
1458.039559752404
 20
1586.557953084469
 30
0.0
 10
1456.96705984847
 20
1586.978500285979
 30
0.0
 10
1455.848756925609
 20
1586.978500285979
 30
0.0
  0
LWPOLYLINE
  5
1010E
330
100E3
100
AcDbEntity
  8
2
 62
     7
100
AcDbPolyline
 90
        2
 70
     0
 43
0.0
 10
1441.810058855789
 20
1558.323029367921
 10
1441.810058855789
 20
1576.600238371524
  0
LWPOLYLINE
  5
1010F
330
100E3
100
AcDbEntity
  8
2
 62
     7
100
AcDbPolyline
 90
        2
 70
     0
 43
0.0
 10
1460.065260373687
 20
1576.600238371524
 10
1460.065260373687
 20
1582.986855394625
  0
LWPOLYLINE
  5
10110
330
100E3
100
AcDbEntity
  8
2
 62
     7
100
AcDbPolyline
 90
        2
 70
     0
 43
0.0
 10
1422.4137916843
 20
1598.953463831267
 10
1427.473749233191
 20
1598.953463831267
  0
LWPOLYLINE
  5
10111
330
100E3
100
AcDbEntity
  8
2
 62
     7
100
AcDbPolyline
 90
        2
 70
     0
 43
0.0
 10
1492.408822538315
 20
1544.667080684252
 10
1492.408822538315
 20
1520.717197425446
  0
LWPOLYLINE
  5
10112
330
100E3
100
AcDbEntity
  8
2
 62
     7
100
AcDbPolyline
 90
        2
 70
     0
 43
0.0
 10
1479.759170725071
 20
1544.667080684252
 10
1479.759170725071
 20
1564.625289655547
  0
ENDBLK
  5
10114
330
100E3
100
AcDbEntity
  8
0
100
AcDbBlockEnd
  0
BLOCK
  5
1011A
330
10119
100
AcDbEntity
  8
0
100
AcDbBlockBegin
  2
*D9
 70
     1
 10
0.0
 20
0.0
 30
0.0
  3
*D9
  1
*D9
  0
LINE
  5
1011C
330
10119
100
AcDbEntity
  8
0
  6
ByBlock
 62
     0
370
    -2
100
AcDbLine
 10
896.7616682547796
 20
40.12210140865614
 30
0.0
 11
1066.3646014315
 21
40.12210140865612
 31
0.0
  0
LINE
  5
1011D
330
10119
100
AcDbEntity
  8
0
  6
ByBlock
 62
     0
370
    -2
100
AcDbLine
 10
896.7616992913472
 20
-72.02280562721921
 30
0.0
 11
1066.3646014315
 21
-72.02280562721923
 31
0.0
  0
LINE
  5
1011E
330
10119
100
AcDbEntity
  8
0
  6
ByBlock
 62
     0
370
    -2
100
AcDbLine
 10
1066.1846014315
 20
30.12210140865612
 30
0.0
 11
1066.1846014315
 21
4.049647890718461
 31
0.0
  0
LINE
  5
1011F
330
10119
100
AcDbEntity
  8
0
  6
ByBlock
 62
     0
370
    -2
100
AcDbLine
 10
1066.1846014315
 20
-62.02280562721923
 30
0.0
 11
1066.1846014315
 21
-35.95035210928154
 31
0.0
  0
SOLID
  5
10120
330
10119
100
AcDbEntity
  8
0
 62
     0
100
AcDbTrace
 10
1067.851268098167
 20
30.12210140865612
 30
0.0
 11
1064.517934764833
 21
30.12210140865612
 31
0.0
 12
1066.1846014315
 22
40.12210140865612
 32
0.0
 13
1066.1846014315
 23
40.12210140865612
 33
0.0
  0
SOLID
  5
10121
330
10119
100
AcDbEntity
  8
0
 62
     0
100
AcDbTrace
 10
1064.517934764833
 20
-62.02280562721923
 30
0.0
 11
1067.851268098167
 21
-62.02280562721923
 31
0.0
 12
1066.1846014315
 22
-72.02280562721923
 32
0.0
 13
1066.1846014315
 23
-72.02280562721923
 33
0.0
  0
MTEXT
  5
10122
330
10119
100
AcDbEntity
  8
0
  6
ByBlock
 62
     0
100
AcDbMText
 10
1066.1846014315
 20
-15.95035210928155
 30
0.0
 40
15.0
 41
0.0
 46
0.0
 71
     5
 72
     1
  1
\A1;112
 11
6.123233995736766E-17
 21
1.0
 31
0.0
 73
     1
 44
1.0
  0
POINT
  5
10123
330
10119
100
AcDbEntity
  8
DEFPOINTS
 62
     0
100
AcDbPoint
 10
896.6991682547796
 20
40.12210140865614
 30
0.0
  0
POINT
  5
10124
330
10119
100
AcDbEntity
  8
DEFPOINTS
 62
     0
100
AcDbPoint
 10
896.6991992913472
 20
-72.02280562721921
 30
0.0
  0
POINT
  5
10126
330
10119
100
AcDbEntity
  8
DEFPOINTS
 62
     0
100
AcDbPoint
 10
1066.1846014315
 20
-72.02280562721923
 30
0.0
  0
ENDBLK
  5
1011B
330
10119
100
AcDbEntity
  8
0
100
AcDbBlockEnd
  0
ENDSEC
  0
SECTION
  2
ENTITIES
  0
LWPOLYLINE
  5
110
102
{ACAD_REACTORS
330
10082
102
}
330
1F
100
AcDbEntity
  8
0
 62
     7
100
AcDbPolyline
 90
        2
 70
     0
 43
0.0
 10
115.9361006697163
 20
103.1735105288199
 10
115.9361006697163
 20
49.33975243915847
  0
LWPOLYLINE
  5
111
102
{ACAD_REACTORS
330
10082
102
}
330
1F
100
AcDbEntity
  8
0
 62
     7
100
AcDbPolyline
 90
        2
 70
     0
 43
0.0
 10
563.7088944117108
 20
103.1693344702653
 10
563.7088944117108
 20
49.14023148032948
  0
LWPOLYLINE
  5
114
330
1F
100
AcDbEntity
  8
2
 62
     7
100
AcDbPolyline
 90
        2
 70
     0
 43
0.0
 10
0.0
 20
-22.70803746020124
 10
679.6480257785911
 20
-22.70803746020124
  0
LWPOLYLINE
  5
115
330
1F
100
AcDbEntity
  8
2
 62
     7
100
AcDbPolyline
 90
        2
 70
     0
 43
0.0
 10
0.0
 20
0.0
 10
679.6480257785911
 20
0.0
  0
LWPOLYLINE
  5
116
330
1F
100
AcDbEntity
  8
2
 62
     7
100
AcDbPolyline
 90
        2
 70
     0
 43
0.0
 10
23.98757697346764
 20
30.27736432570919
 10
655.6604637365051
 20
30.27736432570919
  0
LWPOLYLINE
  5
117
330
1F
100
AcDbEntity
  8
2
 62
     7
100
AcDbPolyline
 90
        2
 70
     0
 43
0.0
 10
38.17024676303754
 20
-71.90872697529721
 10
641.4777494016466
 20
-71.90872697529721
  0
LWPOLYLINE
  5
118
330
1F
100
AcDbEntity
  8
2
 62
     7
100
AcDbPolyline
 90
        2
 70
     0
 43
0.0
 10
611.1615837657823
 20
-4.42478463677935
 10
616.952228969808
 20
-4.42478463677935
  0
LWPOLYLINE
  5
119
330
1F
100
AcDbEntity
  8
2
 62
     7
100
AcDbPolyline
 90
        2
 70
     0
 43
0.0
 10
616.952228969808
 20
-9.703783033851778
 10
611.1615837657823
 20
-9.703783033851778
  0
LWPOLYLINE
  5
11A
330
1F
100
AcDbEntity
  8
2
 62
     7
100
AcDbPolyline
 90
        2
 70
     0
 43
0.0
 10
15.55455193412627
 20
-56.77004462580044
 10
664.093473968893
 20
-56.77004462580044
  0
LWPOLYLINE
  5
11B
330
1F
100
AcDbEntity
  8
2
 62
     7
100
AcDbPolyline
 90
        2
 70
     0
 43
0.0
 10
12.67149676852705
 20
-41.63136227630366
 10
666.976499147301
 20
-41.63136227630366
  0
LWPOLYLINE
  5
11C
330
1F
100
AcDbEntity
  8
2
 62
     7
100
AcDbPolyline
 90
        2
 70
     0
 43
0.0
 10
10.21285903019179
 20
-26.49268030009148
 10
669.4351813064959
 20
-26.49268030009148
  0
LWPOLYLINE
  5
11D
330
1F
100
AcDbEntity
  8
2
 62
     7
100
AcDbPolyline
 90
        2
 70
     0
 43
0.0
 10
152.1715609149132
 20
35.78938683989008
 10
527.4764352497712
 20
35.78938683989008
  0
LWPOLYLINE
  5
11E
330
1F
100
AcDbEntity
  8
2
 62
     7
100
AcDbPolyline
 90
        2
 70
     0
 43
0.0
 10
9.598199377859146
 20
-22.70803746020124
 10
14.46125129368693
 20
-52.65141216468442
  0
LWPOLYLINE
  5
11F
330
1F
100
AcDbEntity
  8
2
 62
     7
100
AcDbPolyline
 90
        2
 70
     0
 43
0.0
 10
163.9151084062214
 20
-71.90872697529721
 10
163.9151084062214
 20
-22.70803746020124
  0
LWPOLYLINE
  5
120
330
1F
100
AcDbEntity
  8
2
 62
     7
100
AcDbPolyline
 90
        2
 70
     0
 43
0.0
 10
147.9233907557182
 20
-71.90872697529721
 10
147.9233907557182
 20
-22.70803746020124
  0
LWPOLYLINE
  5
121
330
1F
100
AcDbEntity
  8
2
 62
     7
100
AcDbPolyline
 90
        2
 70
     0
 43
0.0
 10
131.9316726075022
 20
-71.90872697529721
 10
131.9316726075022
 20
-22.70803746020124
  0
LWPOLYLINE
  5
122
330
1F
100
AcDbEntity
  8
2
 62
     7
100
AcDbPolyline
 90
        2
 70
     0
 43
0.0
 10
115.9399545837146
 20
-71.90872697529721
 10
115.9399545837146
 20
-22.70803746020124
  0
LWPOLYLINE
  5
123
330
1F
100
AcDbEntity
  8
2
 62
     7
100
AcDbPolyline
 90
        2
 70
     0
 43
0.0
 10
99.94823693321132
 20
-71.90872697529721
 10
99.94823693321132
 20
-22.70803746020124
  0
LWPOLYLINE
  5
124
330
1F
100
AcDbEntity
  8
2
 62
     7
100
AcDbPolyline
 90
        2
 70
     0
 43
0.0
 10
83.95651890942372
 20
-71.90872697529721
 10
83.95651890942372
 20
-22.70803746020124
  0
LWPOLYLINE
  5
125
330
1F
100
AcDbEntity
  8
2
 62
     7
100
AcDbPolyline
 90
        2
 70
     0
 43
0.0
 10
67.96480113449206
 20
-71.90872697529721
 10
67.96480113449206
 20
-22.70803746020124
  0
LWPOLYLINE
  5
126
330
1F
100
AcDbEntity
  8
2
 62
     7
100
AcDbPolyline
 90
        2
 70
     0
 43
0.0
 10
51.97308348398929
 20
-71.90872697529721
 10
51.97308348398929
 20
-22.70803746020124
  0
SPLINE
  5
127
330
1F
100
AcDbEntity
  8
2
 62
     7
100
AcDbSpline
210
0.0
220
0.0
230
1.0
 70
     8
 71
     3
 72
     8
 73
     4
 74
     0
 42
0.000000001
 43
0.0000001
 40
0.0
 40
0.0
 40
0.0
 40
0.0
 40
1.0
 40
1.0
 40
1.0
 40
1.0
 10
14.46124357914005
 20
-52.65141316010977
 30
0.0
 10
16.26051399817015
 20
-63.73011787008249
 30
0.0
 10
26.32977245745633
 20
-71.90874103568149
 30
0.0
 10
38.17024676303754
 20
-71.90874103568149
 30
0.0
  0
LWPOLYLINE
  5
128
330
1F
100
AcDbEntity
  8
2
 62
     7
100
AcDbPolyline
 90
        2
 70
     0
 43
0.0
 10
35.98136533577326
 20
-71.90872697529721
 10
35.98136533577326
 20
-22.70803746020124
  0
SPLINE
  5
129
330
1F
100
AcDbEntity
  8
2
 62
     7
100
AcDbSpline
210
0.0
220
0.0
230
1.0
 70
     8
 71
     3
 72
     8
 73
     4
 74
     0
 42
0.000000001
 43
0.0000001
 40
0.0
 40
0.0
 40
0.0
 40
0.0
 40
1.0
 40
1.0
 40
1.0
 40
1.0
 10
23.98757622689845
 20
30.27735063860928
 30
0.0
 10
20.80662556633115
 20
30.27735063860928
 30
0.0
 10
17.75595867520587
 20
29.0811276120769
 30
0.0
 10
15.50668702653229
 20
26.95183683074106
 30
0.0
  0
SPLINE
  5
12A
330
1F
100
AcDbEntity
  8
2
 62
     7
100
AcDbSpline
210
0.0
220
0.0
230
1.0
 70
     8
 71
     3
 72
     8
 73
     4
 74
     0
 42
0.000000001
 43
0.0000001
 40
0.0
 40
0.0
 40
0.0
 40
0.0
 40
1.0
 40
1.0
 40
1.0
 40
1.0
 10
15.50668702653229
 20
26.95183683074106
 30
0.0
 10
13.25741550228713
 20
24.82254642268981
 30
0.0
 10
11.99378811344923
 20
21.93460906861856
 30
0.0
 10
11.99378848673359
 20
18.92333788106134
 30
0.0
  0
LWPOLYLINE
  5
12B
330
1F
100
AcDbEntity
  8
2
 62
     7
100
AcDbPolyline
 90
        2
 70
     0
 43
0.0
 10
19.98964731198521
 20
-64.01432477218668
 10
19.98964731198521
 20
-22.70803746020124
  0
LWPOLYLINE
  5
12C
330
1F
100
AcDbEntity
  8
2
 62
     7
100
AcDbPolyline
 90
        2
 70
     0
 43
0.0
 10
67.96480113449206
 20
40.11750820128077
 10
163.9151084062214
 20
40.11750820128077
  0
LWPOLYLINE
  5
12D
102
{ACAD_REACTORS
330
1006E
102
}
330
1F
100
AcDbEntity
  8
2
 62
     7
100
AcDbPolyline
 90
        2
 70
     0
 43
0.0
 10
0.0
 20
0.0
 10
0.0
 20
-22.70803746020124
  0
SPLINE
  5
12E
330
1F
100
AcDbEntity
  8
2
 62
     7
100
AcDbSpline
210
0.0
220
0.0
230
1.0
 70
     8
 71
     3
 72
     8
 73
     4
 74
     0
 42
0.000000001
 43
0.0000001
 40
0.0
 40
0.0
 40
0.0
 40
0.0
 40
1.0
 40
1.0
 40
1.0
 40
1.0
 10
67.96480088563567
 20
40.1174941408965
 30
0.0
 10
66.90448391582777
 20
40.1174941408965
 30
0.0
 10
65.88759511802346
 20
39.71875284172006
 30
0.0
 10
65.13783769441898
 20
39.00898962122596
 30
0.0
  0
SPLINE
  5
12F
330
1F
100
AcDbEntity
  8
2
 62
     7
100
AcDbSpline
210
0.0
220
0.0
230
1.0
 70
     8
 71
     3
 72
     8
 73
     4
 74
     0
 42
0.000000001
 43
0.0000001
 40
0.0
 40
0.0
 40
0.0
 40
0.0
 40
1.0
 40
1.0
 40
1.0
 40
1.0
 10
65.13783769441898
 20
39.00898962122596
 30
0.0
 10
64.38808076852683
 20
38.2992260274475
 30
0.0
 10
63.96687159743806
 20
37.33658007685267
 30
0.0
 10
63.96687159743806
 20
36.33282305580974
 30
0.0
  0
LWPOLYLINE
  5
130
330
1F
100
AcDbEntity
  8
2
 62
     7
100
AcDbPolyline
 90
        2
 70
     0
 43
0.0
 10
11.99378848673359
 20
0.0
 10
11.99378848673359
 20
18.9233388764867
  0
LWPOLYLINE
  5
131
330
1F
100
AcDbEntity
  8
2
 62
     7
100
AcDbPolyline
 90
        2
 70
     0
 43
0.0
 10
63.96687159743806
 20
30.27736432570919
 10
63.96687159743806
 20
36.33282342909411
  0
LWPOLYLINE
  5
132
330
1F
100
AcDbEntity
  8
2
 62
     7
100
AcDbPolyline
 90
        2
 70
     0
 43
0.0
 10
62.69579680878314
 20
-9.703783033851778
 10
68.48645681976222
 20
-9.703783033851778
  0
LWPOLYLINE
  5
133
330
1F
100
AcDbEntity
  8
2
 62
     7
100
AcDbPolyline
 90
        2
 70
     0
 43
0.0
 10
62.69579680878314
 20
-4.42478463677935
 10
62.69579680878314
 20
-9.703783033851778
  0
LWPOLYLINE
  5
134
330
1F
100
AcDbEntity
  8
2
 62
     7
100
AcDbPolyline
 90
        2
 70
     0
 43
0.0
 10
68.48645681976222
 20
-4.42478463677935
 10
62.69579680878314
 20
-4.42478463677935
  0
LWPOLYLINE
  5
135
330
1F
100
AcDbEntity
  8
2
 62
     7
100
AcDbPolyline
 90
        2
 70
     0
 43
0.0
 10
68.48645681976222
 20
-22.70803746020124
 10
68.48645681976222
 20
0.0
  0
SPLINE
  5
136
330
1F
100
AcDbEntity
  8
2
 62
     7
100
AcDbSpline
210
0.0
220
0.0
230
1.0
 70
     8
 71
     3
 72
     8
 73
     4
 74
     0
 42
0.000000001
 43
0.0000001
 40
0.0
 40
0.0
 40
0.0
 40
0.0
 40
1.0
 40
1.0
 40
1.0
 40
1.0
 10
87.78117561207682
 20
-9.898105010064
 30
0.0
 10
87.78117561207682
 20
-8.781003249771175
 30
0.0
 10
87.1516270082343
 20
-7.748758397072152
 30
0.0
 10
86.12967510338513
 20
-7.190207641354164
 30
0.0
  0
SPLINE
  5
137
330
1F
100
AcDbEntity
  8
2
 62
     7
100
AcDbSpline
210
0.0
220
0.0
230
1.0
 70
     8
 71
     3
 72
     8
 73
     4
 74
     0
 42
0.000000001
 43
0.0000001
 40
0.0
 40
0.0
 40
0.0
 40
0.0
 40
1.0
 40
1.0
 40
1.0
 40
1.0
 10
86.12967510338513
 20
-7.190207641354164
 30
0.0
 10
85.10772307410798
 20
-6.631656636779553
 30
0.0
 10
83.84862636413527
 20
-6.631656636779553
 30
0.0
 10
82.82667445928655
 20
-7.190207641354164
 30
0.0
  0
SPLINE
  5
138
330
1F
100
AcDbEntity
  8
2
 62
     7
100
AcDbSpline
210
0.0
220
0.0
230
1.0
 70
     8
 71
     3
 72
     8
 73
     4
 74
     0
 42
0.000000001
 43
0.0000001
 40
0.0
 40
0.0
 40
0.0
 40
0.0
 40
1.0
 40
1.0
 40
1.0
 40
1.0
 10
82.82667445928655
 20
-7.190207641354164
 30
0.0
 10
81.80472243000895
 20
-7.748758397072152
 30
0.0
 10
81.17517419945125
 20
-8.781003249771175
 30
0.0
 10
81.17517419945125
 20
-9.898105010064
 30
0.0
  0
SPLINE
  5
139
330
1F
100
AcDbEntity
  8
2
 62
     7
100
AcDbSpline
210
0.0
220
0.0
230
1.0
 70
     8
 71
     3
 72
     8
 73
     4
 74
     0
 42
0.000000001
 43
0.0000001
 40
0.0
 40
0.0
 40
0.0
 40
0.0
 40
1.0
 40
1.0
 40
1.0
 40
1.0
 10
81.17517419945125
 20
-9.898105010064
 30
0.0
 10
81.17517419945125
 20
-11.01520701921322
 30
0.0
 10
81.80472243000895
 20
-12.04745174748405
 30
0.0
 10
82.82667445928655
 20
-12.60600275205843
 30
0.0
  0
SPLINE
  5
13A
330
1F
100
AcDbEntity
  8
2
 62
     7
100
AcDbSpline
210
0.0
220
0.0
230
1.0
 70
     8
 71
     3
 72
     8
 73
     4
 74
     0
 42
0.000000001
 43
0.0000001
 40
0.0
 40
0.0
 40
0.0
 40
0.0
 40
1.0
 40
1.0
 40
1.0
 40
1.0
 10
82.82667445928655
 20
-12.60600275205843
 30
0.0
 10
83.84862636413527
 20
-13.16455350777687
 30
0.0
 10
85.10772307410798
 20
-13.16455350777687
 30
0.0
 10
86.12967510338513
 20
-12.60600275205843
 30
0.0
  0
SPLINE
  5
13B
330
1F
100
AcDbEntity
  8
2
 62
     7
100
AcDbSpline
210
0.0
220
0.0
230
1.0
 70
     8
 71
     3
 72
     8
 73
     4
 74
     0
 42
0.000000001
 43
0.0000001
 40
0.0
 40
0.0
 40
0.0
 40
0.0
 40
1.0
 40
1.0
 40
1.0
 40
1.0
 10
86.12967510338513
 20
-12.60600275205843
 30
0.0
 10
87.1516270082343
 20
-12.04745174748405
 30
0.0
 10
87.78117561207682
 20
-11.01520701921322
 30
0.0
 10
87.78117561207682
 20
-9.898105010064
 30
0.0
  0
LWPOLYLINE
  5
13C
330
1F
100
AcDbEntity
  8
2
 62
     7
100
AcDbPolyline
 90
        2
 70
     0
 43
0.0
 10
106.3449242671545
 20
51.47153365050326
 10
125.5349856468438
 20
51.47153365050326
  0
LWPOLYLINE
  5
13D
330
1F
100
AcDbEntity
  8
2
 62
     7
100
AcDbPolyline
 90
        2
 70
     0
 43
0.0
 10
103.9461662214089
 20
40.11750820128077
 10
103.9461662214089
 20
49.20068914181161
  0
LWPOLYLINE
  5
13E
330
1F
100
AcDbEntity
  8
2
 62
     7
100
AcDbPolyline
 90
        4
 70
     1
 43
0.0
 10
87.78117561207682
 20
-9.898105010064
 10
87.78117561207682
 20
-9.898105010064
 10
87.78117561207682
 20
-9.898105010064
 10
87.78117561207682
 20
-9.898105010064
  0
SPLINE
  5
13F
330
1F
100
AcDbEntity
  8
2
 62
     7
100
AcDbSpline
210
0.0
220
0.0
230
1.0
 70
     8
 71
     3
 72
     8
 73
     4
 74
     0
 42
0.000000001
 43
0.0000001
 40
0.0
 40
0.0
 40
0.0
 40
0.0
 40
1.0
 40
1.0
 40
1.0
 40
1.0
 10
106.3449240182981
 20
51.47149171820683
 30
0.0
 10
105.7087339359559
 20
51.47149171820683
 30
0.0
 10
105.0986003586459
 20
51.23224718755728
 30
0.0
 10
104.6487462031109
 20
50.80638925526091
 30
0.0
  0
SPLINE
  5
140
330
1F
100
AcDbEntity
  8
2
 62
     7
100
AcDbSpline
210
0.0
220
0.0
230
1.0
 70
     8
 71
     3
 72
     8
 73
     4
 74
     0
 42
0.000000001
 43
0.0000001
 40
0.0
 40
0.0
 40
0.0
 40
0.0
 40
1.0
 40
1.0
 40
1.0
 40
1.0
 10
104.6487462031109
 20
50.80638925526091
 30
0.0
 10
104.1988919231471
 20
50.38053094967972
 30
0.0
 10
103.9461662214089
 20
49.80294367795068
 30
0.0
 10
103.9461662214089
 20
49.20068914181161
 30
0.0
  0
SPLINE
  5
141
330
1F
100
AcDbEntity
  8
2
 62
     7
100
AcDbSpline
210
0.0
220
0.0
230
1.0
 70
     8
 71
     3
 72
     8
 73
     4
 74
     0
 42
0.000000001
 43
0.0000001
 40
0.0
 40
0.0
 40
0.0
 40
0.0
 40
1.0
 40
1.0
 40
1.0
 40
1.0
 10
118.3913075498626
 20
47.11192972003664
 30
0.0
 10
118.3913075498626
 20
47.94099741628543
 30
0.0
 10
117.9240823494965
 20
48.70708740713644
 30
0.0
 10
117.1656311290026
 20
49.12162113083264
 30
0.0
  0
SPLINE
  5
142
330
1F
100
AcDbEntity
  8
2
 62
     7
100
AcDbSpline
210
0.0
220
0.0
230
1.0
 70
     8
 71
     3
 72
     8
 73
     4
 74
     0
 42
0.000000001
 43
0.0000001
 40
0.0
 40
0.0
 40
0.0
 40
0.0
 40
1.0
 40
1.0
 40
1.0
 40
1.0
 10
117.1656311290026
 20
49.12162113083264
 30
0.0
 10
116.407180157365
 20
49.53615497895703
 30
0.0
 10
115.4727298810612
 20
49.53615497895703
 30
0.0
 10
114.7142785361389
 20
49.12162113083264
 30
0.0
  0
SPLINE
  5
143
330
1F
100
AcDbEntity
  8
2
 62
     7
100
AcDbSpline
210
0.0
220
0.0
230
1.0
 70
     8
 71
     3
 72
     8
 73
     4
 74
     0
 42
0.000000001
 43
0.0000001
 40
0.0
 40
0.0
 40
0.0
 40
0.0
 40
1.0
 40
1.0
 40
1.0
 40
1.0
 10
114.7142785361389
 20
49.12162113083264
 30
0.0
 10
113.9558271912169
 20
48.70708740713644
 30
0.0
 10
113.4886021152788
 20
47.94099741628543
 30
0.0
 10
113.4886024885636
 20
47.11192972003664
 30
0.0
  0
SPLINE
  5
144
330
1F
100
AcDbEntity
  8
2
 62
     7
100
AcDbSpline
210
0.0
220
0.0
230
1.0
 70
     8
 71
     3
 72
     8
 73
     4
 74
     0
 42
0.000000001
 43
0.0000001
 40
0.0
 40
0.0
 40
0.0
 40
0.0
 40
1.0
 40
1.0
 40
1.0
 40
1.0
 10
113.4886024885636
 20
47.11192972003664
 30
0.0
 10
113.4886024885636
 20
46.28286214821605
 30
0.0
 10
113.9558276889293
 20
45.51677215736504
 30
0.0
 10
114.7142785361389
 20
45.10223830924065
 30
0.0
  0
SPLINE
  5
145
330
1F
100
AcDbEntity
  8
2
 62
     7
100
AcDbSpline
210
0.0
220
0.0
230
1.0
 70
     8
 71
     3
 72
     8
 73
     4
 74
     0
 42
0.000000001
 43
0.0000001
 40
0.0
 40
0.0
 40
0.0
 40
0.0
 40
1.0
 40
1.0
 40
1.0
 40
1.0
 10
114.7142785361389
 20
45.10223830924065
 30
0.0
 10
115.4727298810612
 20
44.68770446111625
 30
0.0
 10
116.407180157365
 20
44.68770446111625
 30
0.0
 10
117.1656311290026
 20
45.10223830924065
 30
0.0
  0
SPLINE
  5
146
330
1F
100
AcDbEntity
  8
2
 62
     7
100
AcDbSpline
210
0.0
220
0.0
230
1.0
 70
     8
 71
     3
 72
     8
 73
     4
 74
     0
 42
0.000000001
 43
0.0000001
 40
0.0
 40
0.0
 40
0.0
 40
0.0
 40
1.0
 40
1.0
 40
1.0
 40
1.0
 10
117.1656311290026
 20
45.10223830924065
 30
0.0
 10
117.9240823494965
 20
45.51677215736504
 30
0.0
 10
118.3913075498626
 20
46.28286214821605
 30
0.0
 10
118.3913075498626
 20
47.11192972003664
 30
0.0
  0
LWPOLYLINE
  5
147
330
1F
100
AcDbEntity
  8
2
 62
     7
100
AcDbPolyline
 90
        4
 70
     0
 43
0.0
 10
100.469892618481
 20
-4.42478463677935
 10
106.2605530027449
 20
-4.42478463677935
 10
106.2605530027449
 20
-9.703783033851778
 10
100.469892618481
 20
-9.703783033851778
  0
LWPOLYLINE
  5
148
330
1F
100
AcDbEntity
  8
2
 62
     7
100
AcDbPolyline
 90
        2
 70
     0
 43
0.0
 10
100.469892618481
 20
-22.70803746020124
 10
100.469892618481
 20
0.0
  0
LWPOLYLINE
  5
149
330
1F
100
AcDbEntity
  8
2
 62
     7
100
AcDbPolyline
 90
        4
 70
     1
 43
0.0
 10
118.3913075498626
 20
47.11192972003664
 10
118.3913075498626
 20
47.11192972003664
 10
118.3913075498626
 20
47.11192972003664
 10
118.3913075498626
 20
47.11192972003664
  0
SPLINE
  5
14A
330
1F
100
AcDbEntity
  8
2
 62
     7
100
AcDbSpline
210
0.0
220
0.0
230
1.0
 70
     8
 71
     3
 72
     8
 73
     4
 74
     0
 42
0.000000001
 43
0.0000001
 40
0.0
 40
0.0
 40
0.0
 40
0.0
 40
1.0
 40
1.0
 40
1.0
 40
1.0
 10
167.9130380677034
 20
36.33282342909411
 30
0.0
 10
167.9130380677034
 20
37.33658057456546
 30
0.0
 10
167.4918287721866
 20
38.29922640073187
 30
0.0
 10
166.7420714730101
 20
39.00898987008259
 30
0.0
  0
SPLINE
  5
14B
330
1F
100
AcDbEntity
  8
2
 62
     7
100
AcDbSpline
210
0.0
220
0.0
230
1.0
 70
     8
 71
     3
 72
     8
 73
     4
 74
     0
 42
0.000000001
 43
0.0000001
 40
0.0
 40
0.0
 40
0.0
 40
0.0
 40
1.0
 40
1.0
 40
1.0
 40
1.0
 10
166.7420714730101
 20
39.00898987008259
 30
0.0
 10
165.9923141738336
 20
39.71875309057623
 30
0.0
 10
164.9754250027445
 20
40.1174941408965
 30
0.0
 10
163.9151080329366
 20
40.1174941408965
 30
0.0
  0
LWPOLYLINE
  5
14C
330
1F
100
AcDbEntity
  8
2
 62
     7
100
AcDbPolyline
 90
        2
 70
     0
 43
0.0
 10
127.933743443733
 20
40.11750820128077
 10
127.933743443733
 20
49.20068914181161
  0
SPLINE
  5
14D
330
1F
100
AcDbEntity
  8
2
 62
     7
100
AcDbSpline
210
0.0
220
0.0
230
1.0
 70
     8
 71
     3
 72
     8
 73
     4
 74
     0
 42
0.000000001
 43
0.0000001
 40
0.0
 40
0.0
 40
0.0
 40
0.0
 40
1.0
 40
1.0
 40
1.0
 40
1.0
 10
127.933743443733
 20
49.20068914181161
 30
0.0
 10
127.933743443733
 20
49.80294367795068
 30
0.0
 10
127.6810177419943
 20
50.38053094967972
 30
0.0
 10
127.231163462031
 20
50.80638925526091
 30
0.0
  0
SPLINE
  5
14E
330
1F
100
AcDbEntity
  8
2
 62
     7
100
AcDbSpline
210
0.0
220
0.0
230
1.0
 70
     8
 71
     3
 72
     8
 73
     4
 74
     0
 42
0.000000001
 43
0.0000001
 40
0.0
 40
0.0
 40
0.0
 40
0.0
 40
1.0
 40
1.0
 40
1.0
 40
1.0
 10
127.231163462031
 20
50.80638925526091
 30
0.0
 10
126.7813090576396
 20
51.23224718755728
 30
0.0
 10
126.1711757291855
 20
51.47149171820683
 30
0.0
 10
125.5349856468438
 20
51.47149171820683
 30
0.0
  0
LWPOLYLINE
  5
14F
330
1F
100
AcDbEntity
  8
2
 62
     7
100
AcDbPolyline
 90
        2
 70
     0
 43
0.0
 10
167.9130380677034
 20
35.78938683989008
 10
167.9130380677034
 20
36.33282342909411
  0
LWPOLYLINE
  5
150
330
1F
100
AcDbEntity
  8
2
 62
     7
100
AcDbPolyline
 90
        2
 70
     0
 43
0.0
 10
152.1715609149132
 20
30.27736432570919
 10
152.1715609149132
 20
35.78938683989008
  0
LWPOLYLINE
  5
151
330
1F
100
AcDbEntity
  8
2
 62
     7
100
AcDbPolyline
 90
        2
 70
     0
 43
0.0
 10
339.8240052991764
 20
-71.90872697529721
 10
339.8240052991764
 20
-22.70803746020124
  0
LWPOLYLINE
  5
152
330
1F
100
AcDbEntity
  8
2
 62
     7
100
AcDbPolyline
 90
        2
 70
     0
 43
0.0
 10
323.8322876486732
 20
-71.90872697529721
 10
323.8322876486732
 20
-22.70803746020124
  0
LWPOLYLINE
  5
153
330
1F
100
AcDbEntity
  8
2
 62
     7
100
AcDbPolyline
 90
        2
 70
     0
 43
0.0
 10
307.8405696248856
 20
-71.90872697529721
 10
307.8405696248856
 20
-22.70803746020124
  0
LWPOLYLINE
  5
154
330
1F
100
AcDbEntity
  8
2
 62
     7
100
AcDbPolyline
 90
        2
 70
     0
 43
0.0
 10
291.8488518499541
 20
-71.90872697529721
 10
291.8488518499541
 20
-22.70803746020124
  0
LWPOLYLINE
  5
155
330
1F
100
AcDbEntity
  8
2
 62
     7
100
AcDbPolyline
 90
        2
 70
     0
 43
0.0
 10
275.8571338261663
 20
-71.90872697529721
 10
275.8571338261663
 20
-22.70803746020124
  0
LWPOLYLINE
  5
156
330
1F
100
AcDbEntity
  8
2
 62
     7
100
AcDbPolyline
 90
        2
 70
     0
 43
0.0
 10
259.8654158023787
 20
-71.90872697529721
 10
259.8654158023787
 20
-22.70803746020124
  0
LWPOLYLINE
  5
157
330
1F
100
AcDbEntity
  8
2
 62
     7
100
AcDbPolyline
 90
        2
 70
     0
 43
0.0
 10
243.8736980274475
 20
-71.90872697529721
 10
243.8736980274475
 20
-22.70803746020124
  0
LWPOLYLINE
  5
158
330
1F
100
AcDbEntity
  8
2
 62
     7
100
AcDbPolyline
 90
        2
 70
     0
 43
0.0
 10
227.8819803769443
 20
-71.90872697529721
 10
227.8819803769443
 20
-22.70803746020124
  0
LWPOLYLINE
  5
159
330
1F
100
AcDbEntity
  8
2
 62
     7
100
AcDbPolyline
 90
        2
 70
     0
 43
0.0
 10
211.8902623531562
 20
-71.90872697529721
 10
211.8902623531562
 20
-22.70803746020124
  0
LWPOLYLINE
  5
15A
330
1F
100
AcDbEntity
  8
2
 62
     7
100
AcDbPolyline
 90
        2
 70
     0
 43
0.0
 10
195.8985590118937
 20
-71.90872697529721
 10
195.8985590118937
 20
-22.70803746020124
  0
LWPOLYLINE
  5
15B
330
1F
100
AcDbEntity
  8
2
 62
     7
100
AcDbPolyline
 90
        2
 70
     0
 43
0.0
 10
179.9068413613904
 20
-71.90872697529721
 10
179.9068413613904
 20
-22.70803746020124
  0
LWPOLYLINE
  5
15C
330
1F
100
AcDbEntity
  8
2
 62
     7
100
AcDbPolyline
 90
        2
 70
     0
 43
0.0
 10
355.8157233229642
 20
-71.90872697529721
 10
355.8157233229642
 20
-22.70803746020124
  0
LWPOLYLINE
  5
15D
330
1F
100
AcDbEntity
  8
2
 62
     7
100
AcDbPolyline
 90
        2
 70
     0
 43
0.0
 10
371.80744147118
 20
-71.90872697529721
 10
371.80744147118
 20
-22.70803746020124
  0
LWPOLYLINE
  5
15E
330
1F
100
AcDbEntity
  8
2
 62
     7
100
AcDbPolyline
 90
        2
 70
     0
 43
0.0
 10
387.7991591216833
 20
-71.90872697529721
 10
387.7991591216833
 20
-22.70803746020124
  0
LWPOLYLINE
  5
15F
330
1F
100
AcDbEntity
  8
2
 62
     7
100
AcDbPolyline
 90
        2
 70
     0
 43
0.0
 10
403.7908771454711
 20
-71.90872697529721
 10
403.7908771454711
 20
-22.70803746020124
  0
LWPOLYLINE
  5
160
330
1F
100
AcDbEntity
  8
2
 62
     7
100
AcDbPolyline
 90
        2
 70
     0
 43
0.0
 10
419.782609727356
 20
-71.90872697529721
 10
419.782609727356
 20
-22.70803746020124
  0
LWPOLYLINE
  5
161
330
1F
100
AcDbEntity
  8
2
 62
     7
100
AcDbPolyline
 90
        2
 70
     0
 43
0.0
 10
435.7742981372369
 20
-71.90872697529721
 10
435.7742981372369
 20
-22.70803746020124
  0
LWPOLYLINE
  5
162
330
1F
100
AcDbEntity
  8
2
 62
     7
100
AcDbPolyline
 90
        2
 70
     0
 43
0.0
 10
451.766045526075
 20
-71.90872697529721
 10
451.766045526075
 20
-22.70803746020124
  0
LWPOLYLINE
  5
163
330
1F
100
AcDbEntity
  8
2
 62
     7
100
AcDbPolyline
 90
        2
 70
     0
 43
0.0
 10
467.7577339359559
 20
-71.90872697529721
 10
467.7577339359559
 20
-22.70803746020124
  0
LWPOLYLINE
  5
164
330
1F
100
AcDbEntity
  8
2
 62
     7
100
AcDbPolyline
 90
        2
 70
     0
 43
0.0
 10
483.749481324794
 20
-71.90872697529721
 10
483.749481324794
 20
-22.70803746020124
  0
LWPOLYLINE
  5
165
330
1F
100
AcDbEntity
  8
2
 62
     7
100
AcDbPolyline
 90
        2
 70
     0
 43
0.0
 10
499.741169610247
 20
-71.90872697529721
 10
499.741169610247
 20
-22.70803746020124
  0
LWPOLYLINE
  5
166
330
1F
100
AcDbEntity
  8
2
 62
     7
100
AcDbPolyline
 90
        2
 70
     0
 43
0.0
 10
515.7329173723695
 20
-71.90872697529721
 10
515.7329173723695
 20
-22.70803746020124
  0
LWPOLYLINE
  5
167
330
1F
100
AcDbEntity
  8
2
 62
     7
100
AcDbPolyline
 90
        2
 70
     0
 43
0.0
 10
531.724605408966
 20
-71.90872697529721
 10
531.724605408966
 20
-22.70803746020124
  0
LWPOLYLINE
  5
168
330
1F
100
AcDbEntity
  8
2
 62
     7
100
AcDbPolyline
 90
        2
 70
     0
 43
0.0
 10
547.7163527978041
 20
-71.90872697529721
 10
547.7163527978041
 20
-22.70803746020124
  0
LWPOLYLINE
  5
169
330
1F
100
AcDbEntity
  8
2
 62
     7
100
AcDbPolyline
 90
        2
 70
     0
 43
0.0
 10
563.7080412076853
 20
-71.90872697529721
 10
563.7080412076853
 20
-22.70803746020124
  0
LWPOLYLINE
  5
16A
330
1F
100
AcDbEntity
  8
2
 62
     7
100
AcDbPolyline
 90
        2
 70
     0
 43
0.0
 10
579.6997885965234
 20
-71.90872697529721
 10
579.6997885965234
 20
-22.70803746020124
  0
LWPOLYLINE
  5
16B
330
1F
100
AcDbEntity
  8
2
 62
     7
100
AcDbPolyline
 90
        2
 70
     0
 43
0.0
 10
595.6914770064043
 20
-71.90872697529721
 10
595.6914770064043
 20
-22.70803746020124
  0
LWPOLYLINE
  5
16C
330
1F
100
AcDbEntity
  8
2
 62
     7
100
AcDbPolyline
 90
        2
 70
     0
 43
0.0
 10
611.683209588289
 20
-71.90872697529721
 10
611.683209588289
 20
-22.70803746020124
  0
SPLINE
  5
16D
330
1F
100
AcDbEntity
  8
2
 62
     7
100
AcDbSpline
210
0.0
220
0.0
230
1.0
 70
     8
 71
     3
 72
     8
 73
     4
 74
     0
 42
0.000000001
 43
0.0000001
 40
0.0
 40
0.0
 40
0.0
 40
0.0
 40
1.0
 40
1.0
 40
1.0
 40
1.0
 10
343.1270059432754
 20
-9.898105010064
 30
0.0
 10
343.1270059432754
 20
-8.781003249771175
 30
0.0
 10
342.4974578371452
 20
-7.748758397072152
 30
0.0
 10
341.4755058078681
 20
-7.190207641354164
 30
0.0
  0
SPLINE
  5
16E
330
1F
100
AcDbEntity
  8
2
 62
     7
100
AcDbSpline
210
0.0
220
0.0
230
1.0
 70
     8
 71
     3
 72
     8
 73
     4
 74
     0
 42
0.000000001
 43
0.0000001
 40
0.0
 40
0.0
 40
0.0
 40
0.0
 40
1.0
 40
1.0
 40
1.0
 40
1.0
 10
341.4755058078681
 20
-7.190207641354164
 30
0.0
 10
340.4535539030192
 20
-6.631656636779553
 30
0.0
 10
339.1944571930467
 20
-6.631656636779553
 30
0.0
 10
338.1725051637695
 20
-7.190207641354164
 30
0.0
  0
SPLINE
  5
16F
330
1F
100
AcDbEntity
  8
2
 62
     7
100
AcDbSpline
210
0.0
220
0.0
230
1.0
 70
     8
 71
     3
 72
     8
 73
     4
 74
     0
 42
0.000000001
 43
0.0000001
 40
0.0
 40
0.0
 40
0.0
 40
0.0
 40
1.0
 40
1.0
 40
1.0
 40
1.0
 10
338.1725051637695
 20
-7.190207641354164
 30
0.0
 10
337.1505531344922
 20
-7.748758397072152
 30
0.0
 10
336.5210046550778
 20
-8.781003249771175
 30
0.0
 10
336.5210046550778
 20
-9.898105010064
 30
0.0
  0
SPLINE
  5
170
330
1F
100
AcDbEntity
  8
2
 62
     7
100
AcDbSpline
210
0.0
220
0.0
230
1.0
 70
     8
 71
     3
 72
     8
 73
     4
 74
     0
 42
0.000000001
 43
0.0000001
 40
0.0
 40
0.0
 40
0.0
 40
0.0
 40
1.0
 40
1.0
 40
1.0
 40
1.0
 10
336.5210046550778
 20
-9.898105010064
 30
0.0
 10
336.5210046550778
 20
-11.01520701921322
 30
0.0
 10
337.1505531344922
 20
-12.04745174748405
 30
0.0
 10
338.1725051637695
 20
-12.60600275205843
 30
0.0
  0
SPLINE
  5
171
330
1F
100
AcDbEntity
  8
2
 62
     7
100
AcDbSpline
210
0.0
220
0.0
230
1.0
 70
     8
 71
     3
 72
     8
 73
     4
 74
     0
 42
0.000000001
 43
0.0000001
 40
0.0
 40
0.0
 40
0.0
 40
0.0
 40
1.0
 40
1.0
 40
1.0
 40
1.0
 10
338.1725051637695
 20
-12.60600275205843
 30
0.0
 10
339.1944571930467
 20
-13.16455350777687
 30
0.0
 10
340.4535539030192
 20
-13.16455350777687
 30
0.0
 10
341.4755058078681
 20
-12.60600275205843
 30
0.0
  0
SPLINE
  5
172
330
1F
100
AcDbEntity
  8
2
 62
     7
100
AcDbSpline
210
0.0
220
0.0
230
1.0
 70
     8
 71
     3
 72
     8
 73
     4
 74
     0
 42
0.000000001
 43
0.0000001
 40
0.0
 40
0.0
 40
0.0
 40
0.0
 40
1.0
 40
1.0
 40
1.0
 40
1.0
 10
341.4755058078681
 20
-12.60600275205843
 30
0.0
 10
342.4974578371452
 20
-12.04745174748405
 30
0.0
 10
343.1270059432754
 20
-11.01520701921322
 30
0.0
 10
343.1270059432754
 20
-9.898105010064
 30
0.0
  0
LWPOLYLINE
  5
173
330
1F
100
AcDbEntity
  8
2
 62
     7
100
AcDbPolyline
 90
        2
 70
     0
 43
0.0
 10
323.8322876486732
 20
-22.70803746020124
 10
323.8322876486732
 20
0.0
  0
LWPOLYLINE
  5
174
330
1F
100
AcDbEntity
  8
2
 62
     7
100
AcDbPolyline
 90
        4
 70
     0
 43
0.0
 10
323.8322876486732
 20
-4.42478463677935
 10
318.0416420713632
 20
-4.42478463677935
 10
318.0416420713632
 20
-9.703783033851778
 10
323.8322876486732
 20
-9.703783033851778
  0
LWPOLYLINE
  5
175
330
1F
100
AcDbEntity
  8
2
 62
     7
100
AcDbPolyline
 90
        4
 70
     1
 43
0.0
 10
343.1270059432754
 20
-9.898105010064
 10
343.1270059432754
 20
-9.898105010064
 10
343.1270059432754
 20
-9.898105010064
 10
343.1270059432754
 20
-9.898105010064
  0
LWPOLYLINE
  5
176
330
1F
100
AcDbEntity
  8
2
 62
     7
100
AcDbPolyline
 90
        2
 70
     0
 43
0.0
 10
355.8157233229642
 20
-22.70803746020124
 10
355.8157233229642
 20
0.0
  0
LWPOLYLINE
  5
177
330
1F
100
AcDbEntity
  8
2
 62
     7
100
AcDbPolyline
 90
        2
 70
     0
 43
0.0
 10
361.6063689002744
 20
-9.703783033851778
 10
355.8157233229642
 20
-9.703783033851778
  0
SPLINE
  5
178
330
1F
100
AcDbEntity
  8
2
 62
     7
100
AcDbSpline
210
0.0
220
0.0
230
1.0
 70
     8
 71
     3
 72
     8
 73
     4
 74
     0
 42
0.000000001
 43
0.0000001
 40
0.0
 40
0.0
 40
0.0
 40
0.0
 40
1.0
 40
1.0
 40
1.0
 40
1.0
 10
566.1593938005487
 20
47.11192972003664
 30
0.0
 10
566.1593938005487
 20
47.94099741628543
 30
0.0
 10
565.6921684757547
 20
48.70708740713644
 30
0.0
 10
564.9337176285451
 20
49.12162113083264
 30
0.0
  0
SPLINE
  5
179
330
1F
100
AcDbEntity
  8
2
 62
     7
100
AcDbSpline
210
0.0
220
0.0
230
1.0
 70
     8
 71
     3
 72
     8
 73
     4
 74
     0
 42
0.000000001
 43
0.0000001
 40
0.0
 40
0.0
 40
0.0
 40
0.0
 40
1.0
 40
1.0
 40
1.0
 40
1.0
 10
564.9337176285451
 20
49.12162113083264
 30
0.0
 10
564.1752664080511
 20
49.53615497895703
 30
0.0
 10
563.2408160073192
 20
49.53615497895703
 30
0.0
 10
562.4823651601098
 20
49.12162113083264
 30
0.0
  0
SPLINE
  5
17A
330
1F
100
AcDbEntity
  8
2
 62
     7
100
AcDbSpline
210
0.0
220
0.0
230
1.0
 70
     8
 71
     3
 72
     8
 73
     4
 74
     0
 42
0.000000001
 43
0.0000001
 40
0.0
 40
0.0
 40
0.0
 40
0.0
 40
1.0
 40
1.0
 40
1.0
 40
1.0
 10
562.4823651601098
 20
49.12162113083264
 30
0.0
 10
561.7239139396158
 20
48.70708740713644
 30
0.0
 10
561.2566886148215
 20
47.94099741628543
 30
0.0
 10
561.2566886148215
 20
47.11192972003664
 30
0.0
  0
SPLINE
  5
17B
330
1F
100
AcDbEntity
  8
2
 62
     7
100
AcDbSpline
210
0.0
220
0.0
230
1.0
 70
     8
 71
     3
 72
     8
 73
     4
 74
     0
 42
0.000000001
 43
0.0000001
 40
0.0
 40
0.0
 40
0.0
 40
0.0
 40
1.0
 40
1.0
 40
1.0
 40
1.0
 10
561.2566886148215
 20
47.11192972003664
 30
0.0
 10
561.2566886148215
 20
46.28286214821605
 30
0.0
 10
561.7239139396158
 20
45.51677215736504
 30
0.0
 10
562.4823651601098
 20
45.10223830924065
 30
0.0
  0
SPLINE
  5
17C
330
1F
100
AcDbEntity
  8
2
 62
     7
100
AcDbSpline
210
0.0
220
0.0
230
1.0
 70
     8
 71
     3
 72
     8
 73
     4
 74
     0
 42
0.000000001
 43
0.0000001
 40
0.0
 40
0.0
 40
0.0
 40
0.0
 40
1.0
 40
1.0
 40
1.0
 40
1.0
 10
562.4823651601098
 20
45.10223830924065
 30
0.0
 10
563.2408160073192
 20
44.68770446111625
 30
0.0
 10
564.1752664080511
 20
44.68770446111625
 30
0.0
 10
564.9337176285451
 20
45.10223830924065
 30
0.0
  0
SPLINE
  5
17D
330
1F
100
AcDbEntity
  8
2
 62
     7
100
AcDbSpline
210
0.0
220
0.0
230
1.0
 70
     8
 71
     3
 72
     8
 73
     4
 74
     0
 42
0.000000001
 43
0.0000001
 40
0.0
 40
0.0
 40
0.0
 40
0.0
 40
1.0
 40
1.0
 40
1.0
 40
1.0
 10
564.9337176285451
 20
45.10223830924065
 30
0.0
 10
565.6921689734677
 20
45.51677215736504
 30
0.0
 10
566.1593940494054
 20
46.28286214821605
 30
0.0
 10
566.1593940494054
 20
47.11192972003664
 30
0.0
  0
LWPOLYLINE
  5
17E
330
1F
100
AcDbEntity
  8
2
 62
     7
100
AcDbPolyline
 90
        2
 70
     0
 43
0.0
 10
361.6063689002744
 20
-4.42478463677935
 10
361.6063689002744
 20
-9.703783033851778
  0
LWPOLYLINE
  5
17F
330
1F
100
AcDbEntity
  8
2
 62
     7
100
AcDbPolyline
 90
        2
 70
     0
 43
0.0
 10
355.8157233229642
 20
-4.42478463677935
 10
361.6063689002744
 20
-4.42478463677935
  0
LWPOLYLINE
  5
180
330
1F
100
AcDbEntity
  8
2
 62
     7
100
AcDbPolyline
 90
        4
 70
     1
 43
0.0
 10
566.1593940494054
 20
47.11192972003664
 10
566.1593940494054
 20
47.11192972003664
 10
566.1593940494054
 20
47.11192972003664
 10
566.1593940494054
 20
47.11192972003664
  0
LWPOLYLINE
  5
181
330
1F
100
AcDbEntity
  8
2
 62
     7
100
AcDbPolyline
 90
        2
 70
     0
 43
0.0
 10
573.3031015114364
 20
51.47153365050326
 10
554.1130254492223
 20
51.47153365050326
  0
SPLINE
  5
182
330
1F
100
AcDbEntity
  8
2
 62
     7
100
AcDbSpline
210
0.0
220
0.0
230
1.0
 70
     8
 71
     3
 72
     8
 73
     4
 74
     0
 42
0.000000001
 43
0.0000001
 40
0.0
 40
0.0
 40
0.0
 40
0.0
 40
1.0
 40
1.0
 40
1.0
 40
1.0
 10
515.7329169990851
 20
40.1174941408965
 30
0.0
 10
514.6726001537054
 20
40.1174941408965
 30
0.0
 10
513.6557113559011
 20
39.71875284172006
 30
0.0
 10
512.9059539322964
 20
39.00898962122596
 30
0.0
  0
SPLINE
  5
183
330
1F
100
AcDbEntity
  8
2
 62
     7
100
AcDbSpline
210
0.0
220
0.0
230
1.0
 70
     8
 71
     3
 72
     8
 73
     4
 74
     0
 42
0.000000001
 43
0.0000001
 40
0.0
 40
0.0
 40
0.0
 40
0.0
 40
1.0
 40
1.0
 40
1.0
 40
1.0
 10
512.9059539322964
 20
39.00898962122596
 30
0.0
 10
512.1561970064042
 20
38.2992260274475
 30
0.0
 10
511.7349878353157
 20
37.33658007685267
 30
0.0
 10
511.7349878353157
 20
36.33282305580974
 30
0.0
  0
LWPOLYLINE
  5
184
330
1F
100
AcDbEntity
  8
2
 62
     7
100
AcDbPolyline
 90
        2
 70
     0
 43
0.0
 10
611.683209588289
 20
40.11750820128077
 10
515.7329173723695
 20
40.11750820128077
  0
LWPOLYLINE
  5
185
330
1F
100
AcDbEntity
  8
2
 62
     7
100
AcDbPolyline
 90
        2
 70
     0
 43
0.0
 10
551.7142824592866
 20
40.11750820128077
 10
551.7142824592866
 20
49.20068914181161
  0
SPLINE
  5
186
330
1F
100
AcDbEntity
  8
2
 62
     7
100
AcDbSpline
210
0.0
220
0.0
230
1.0
 70
     8
 71
     3
 72
     8
 73
     4
 74
     0
 42
0.000000001
 43
0.0000001
 40
0.0
 40
0.0
 40
0.0
 40
0.0
 40
1.0
 40
1.0
 40
1.0
 40
1.0
 10
554.1130250759377
 20
51.47149171820683
 30
0.0
 10
552.7882280475756
 20
51.47149171820683
 30
0.0
 10
551.7142676523331
 20
50.45481867886542
 30
0.0
 10
551.7142676523331
 20
49.20068914181161
 30
0.0
  0
LWPOLYLINE
  5
187
330
1F
100
AcDbEntity
  8
2
 62
     7
100
AcDbPolyline
 90
        2
 70
     0
 43
0.0
 10
511.7349730283622
 20
35.78938683989008
 10
511.7349730283622
 20
36.33282342909411
  0
LWPOLYLINE
  5
188
330
1F
100
AcDbEntity
  8
2
 62
     7
100
AcDbPolyline
 90
        2
 70
     0
 43
0.0
 10
527.4764352497712
 20
30.27736432570919
 10
527.4764352497712
 20
35.78938683989008
  0
LWPOLYLINE
  5
189
330
1F
100
AcDbEntity
  8
2
 62
     7
100
AcDbPolyline
 90
        2
 70
     0
 43
0.0
 10
575.7018445013723
 20
40.11750820128077
 10
575.7018445013723
 20
49.20068914181161
  0
LWPOLYLINE
  5
18A
330
1F
100
AcDbEntity
  8
2
 62
     7
100
AcDbPolyline
 90
        2
 70
     0
 43
0.0
 10
579.1780883659653
 20
-22.70803746020124
 10
579.1780883659653
 20
0.0
  0
LWPOLYLINE
  5
18B
330
1F
100
AcDbEntity
  8
2
 62
     7
100
AcDbPolyline
 90
        2
 70
     0
 43
0.0
 10
573.3874431619397
 20
-9.703783033851778
 10
579.1780883659653
 20
-9.703783033851778
  0
SPLINE
  5
18C
330
1F
100
AcDbEntity
  8
2
 62
     7
100
AcDbSpline
210
0.0
220
0.0
230
1.0
 70
     8
 71
     3
 72
     8
 73
     4
 74
     0
 42
0.000000001
 43
0.0000001
 40
0.0
 40
0.0
 40
0.0
 40
0.0
 40
1.0
 40
1.0
 40
1.0
 40
1.0
 10
615.6811391253432
 20
36.33282342909411
 30
0.0
 10
615.6811391253432
 20
37.33658057456546
 30
0.0
 10
615.2599299542542
 20
38.29922640073187
 30
0.0
 10
614.5101725306495
 20
39.00898962122596
 30
0.0
  0
SPLINE
  5
18D
330
1F
100
AcDbEntity
  8
2
 62
     7
100
AcDbSpline
210
0.0
220
0.0
230
1.0
 70
     8
 71
     3
 72
     8
 73
     4
 74
     0
 42
0.000000001
 43
0.0000001
 40
0.0
 40
0.0
 40
0.0
 40
0.0
 40
1.0
 40
1.0
 40
1.0
 40
1.0
 10
614.5101725306495
 20
39.00898962122596
 30
0.0
 10
613.7604156047576
 20
39.71875309057623
 30
0.0
 10
612.7435263092407
 20
40.1174941408965
 30
0.0
 10
611.683209588289
 20
40.1174941408965
 30
0.0
  0
LWPOLYLINE
  5
18E
330
1F
100
AcDbEntity
  8
2
 62
     7
100
AcDbPolyline
 90
        2
 70
     0
 43
0.0
 10
573.3874431619397
 20
-4.42478463677935
 10
573.3874431619397
 20
-9.703783033851778
  0
LWPOLYLINE
  5
18F
330
1F
100
AcDbEntity
  8
2
 62
     7
100
AcDbPolyline
 90
        2
 70
     0
 43
0.0
 10
579.1780883659653
 20
-4.42478463677935
 10
573.3874431619397
 20
-4.42478463677935
  0
SPLINE
  5
190
330
1F
100
AcDbEntity
  8
2
 62
     7
100
AcDbSpline
210
0.0
220
0.0
230
1.0
 70
     8
 71
     3
 72
     8
 73
     4
 74
     0
 42
0.000000001
 43
0.0000001
 40
0.0
 40
0.0
 40
0.0
 40
0.0
 40
1.0
 40
1.0
 40
1.0
 40
1.0
 10
598.472836398902
 20
-9.898105010064
 30
0.0
 10
598.4731814382433
 20
-8.780785500457569
 30
0.0
 10
597.8437087355901
 20
-7.748200087831492
 30
0.0
 10
596.8216152314731
 20
-7.189446140896507
 30
0.0
  0
SPLINE
  5
191
330
1F
100
AcDbEntity
  8
2
 62
     7
100
AcDbSpline
210
0.0
220
0.0
230
1.0
 70
     8
 71
     3
 72
     8
 73
     4
 74
     0
 42
0.000000001
 43
0.0000001
 40
0.0
 40
0.0
 40
0.0
 40
0.0
 40
1.0
 40
1.0
 40
1.0
 40
1.0
 10
596.8216152314731
 20
-7.189446140896507
 30
0.0
 10
595.7995214784996
 20
-6.630691945105127
 30
0.0
 10
594.540150653248
 20
-6.630691945105127
 30
0.0
 10
593.5180570247028
 20
-7.189446140896507
 30
0.0
  0
SPLINE
  5
192
330
1F
100
AcDbEntity
  8
2
 62
     7
100
AcDbSpline
210
0.0
220
0.0
230
1.0
 70
     8
 71
     3
 72
     8
 73
     4
 74
     0
 42
0.000000001
 43
0.0000001
 40
0.0
 40
0.0
 40
0.0
 40
0.0
 40
1.0
 40
1.0
 40
1.0
 40
1.0
 10
593.5180570247028
 20
-7.189446140896507
 30
0.0
 10
592.4959636450137
 20
-7.748200087831492
 30
0.0
 10
591.8664908179323
 20
-8.780785500457569
 30
0.0
 10
591.8668358572734
 20
-9.898105010064
 30
0.0
  0
SPLINE
  5
193
330
1F
100
AcDbEntity
  8
2
 62
     7
100
AcDbSpline
210
0.0
220
0.0
230
1.0
 70
     8
 71
     3
 72
     8
 73
     4
 74
     0
 42
0.000000001
 43
0.0000001
 40
0.0
 40
0.0
 40
0.0
 40
0.0
 40
1.0
 40
1.0
 40
1.0
 40
1.0
 10
591.8668358572734
 20
-9.898105010064
 30
0.0
 10
591.8664908179323
 20
-11.01542476852705
 30
0.0
 10
592.4959636450137
 20
-12.04801018115268
 30
0.0
 10
593.5180570247028
 20
-12.60676425251586
 30
0.0
  0
SPLINE
  5
194
330
1F
100
AcDbEntity
  8
2
 62
     7
100
AcDbSpline
210
0.0
220
0.0
230
1.0
 70
     8
 71
     3
 72
     8
 73
     4
 74
     0
 42
0.000000001
 43
0.0000001
 40
0.0
 40
0.0
 40
0.0
 40
0.0
 40
1.0
 40
1.0
 40
1.0
 40
1.0
 10
593.5180570247028
 20
-12.60676425251586
 30
0.0
 10
594.540150653248
 20
-13.16551819945107
 30
0.0
 10
595.7995214784996
 20
-13.16551819945107
 30
0.0
 10
596.8216152314731
 20
-12.60676425251586
 30
0.0
  0
SPLINE
  5
195
330
1F
100
AcDbEntity
  8
2
 62
     7
100
AcDbSpline
210
0.0
220
0.0
230
1.0
 70
     8
 71
     3
 72
     8
 73
     4
 74
     0
 42
0.000000001
 43
0.0000001
 40
0.0
 40
0.0
 40
0.0
 40
0.0
 40
1.0
 40
1.0
 40
1.0
 40
1.0
 10
596.8216152314731
 20
-12.60676425251586
 30
0.0
 10
597.8437087355901
 20
-12.04801018115268
 30
0.0
 10
598.4731814382433
 20
-11.01542476852705
 30
0.0
 10
598.472836398902
 20
-9.898105010064
 30
0.0
  0
LWPOLYLINE
  5
196
330
1F
100
AcDbEntity
  8
2
 62
     7
100
AcDbPolyline
 90
        2
 70
     0
 43
0.0
 10
615.6811539322964
 20
30.27736432570919
 10
615.6811539322964
 20
36.33282342909411
  0
SPLINE
  5
197
330
1F
100
AcDbEntity
  8
2
 62
     7
100
AcDbSpline
210
0.0
220
0.0
230
1.0
 70
     8
 71
     3
 72
     8
 73
     4
 74
     0
 42
0.000000001
 43
0.0000001
 40
0.0
 40
0.0
 40
0.0
 40
0.0
 40
1.0
 40
1.0
 40
1.0
 40
1.0
 10
575.7018593083258
 20
49.20068914181161
 30
0.0
 10
575.7018593083258
 20
49.80294367795068
 30
0.0
 10
575.4491334821594
 20
50.38053094967972
 30
0.0
 10
574.999279326624
 20
50.80638925526091
 30
0.0
  0
SPLINE
  5
198
330
1F
100
AcDbEntity
  8
2
 62
     7
100
AcDbSpline
210
0.0
220
0.0
230
1.0
 70
     8
 71
     3
 72
     8
 73
     4
 74
     0
 42
0.000000001
 43
0.0000001
 40
0.0
 40
0.0
 40
0.0
 40
0.0
 40
1.0
 40
1.0
 40
1.0
 40
1.0
 10
574.999279326624
 20
50.80638925526091
 30
0.0
 10
574.5494251710888
 20
51.23224718755728
 30
0.0
 10
573.9392915937785
 20
51.47149171820683
 30
0.0
 10
573.3031015114364
 20
51.47149171820683
 30
0.0
  0
LWPOLYLINE
  5
199
330
1F
100
AcDbEntity
  8
2
 62
     7
100
AcDbPolyline
 90
        2
 70
     0
 43
0.0
 10
611.1615837657823
 20
-22.70803746020124
 10
611.1615837657823
 20
0.0
  0
LWPOLYLINE
  5
19A
330
1F
100
AcDbEntity
  8
2
 62
     7
100
AcDbPolyline
 90
        4
 70
     1
 43
0.0
 10
598.472836398902
 20
-9.898105010064
 10
598.472836398902
 20
-9.898105010064
 10
598.472836398902
 20
-9.898105010064
 10
598.472836398902
 20
-9.898105010064
  0
LWPOLYLINE
  5
19B
330
1F
100
AcDbEntity
  8
2
 62
     7
100
AcDbPolyline
 90
        2
 70
     0
 43
0.0
 10
670.0498409588288
 20
-22.70803746020124
 10
665.1867889185728
 20
-52.65141216468442
  0
LWPOLYLINE
  5
19C
330
1F
100
AcDbEntity
  8
2
 62
     7
100
AcDbPolyline
 90
        2
 70
     0
 43
0.0
 10
627.6748983714547
 20
-71.90872697529721
 10
627.6748983714547
 20
-22.70803746020124
  0
LWPOLYLINE
  5
19D
330
1F
100
AcDbEntity
  8
2
 62
     7
100
AcDbPolyline
 90
        2
 70
     0
 43
0.0
 10
643.6666456358646
 20
-71.90872697529721
 10
643.6666456358646
 20
-22.70803746020124
  0
LWPOLYLINE
  5
19E
330
1F
100
AcDbEntity
  8
2
 62
     7
100
AcDbPolyline
 90
        2
 70
     0
 43
0.0
 10
659.6583336724611
 20
-64.01432477218668
 10
659.6583336724611
 20
-22.70803746020124
  0
SPLINE
  5
1A6
330
1F
100
AcDbEntity
  8
2
 62
     7
100
AcDbSpline
210
0.0
220
0.0
230
1.0
 70
     8
 71
     3
 72
     8
 73
     4
 74
     0
 42
0.000000001
 43
0.0000001
 40
0.0
 40
0.0
 40
0.0
 40
0.0
 40
1.0
 40
1.0
 40
1.0
 40
1.0
 10
641.4777501482158
 20
-71.90874103568149
 30
0.0
 10
653.3182223385179
 20
-71.90874078682532
 30
0.0
 10
663.3874794290944
 20
-63.7301199853614
 30
0.0
 10
665.1867518389752
 20
-52.65141813723699
 30
0.0
  0
SPLINE
  5
1B0
330
1F
100
AcDbEntity
  8
2
 62
     7
100
AcDbSpline
210
0.0
220
0.0
230
1.0
 70
     8
 71
     3
 72
     8
 73
     4
 74
     0
 42
0.000000001
 43
0.0000001
 40
0.0
 40
0.0
 40
0.0
 40
0.0
 40
1.0
 40
1.0
 40
1.0
 40
1.0
 10
667.6542522232387
 20
18.9233388764867
 30
0.0
 10
667.6542522232387
 20
21.93461018847211
 30
0.0
 10
666.3906242122598
 20
24.82254754254336
 30
0.0
 10
664.1413525635865
 20
26.95183795059461
 30
0.0
  0
SPLINE
  5
1B1
330
1F
100
AcDbEntity
  8
2
 62
     7
100
AcDbSpline
210
0.0
220
0.0
230
1.0
 70
     8
 71
     3
 72
     8
 73
     4
 74
     0
 42
0.000000001
 43
0.0000001
 40
0.0
 40
0.0
 40
0.0
 40
0.0
 40
1.0
 40
1.0
 40
1.0
 40
1.0
 10
664.1413525635865
 20
26.95183795059461
 30
0.0
 10
661.8920807904849
 20
29.08112786093329
 30
0.0
 10
658.8414137749314
 20
30.27735063860928
 30
0.0
 10
655.6604629899359
 20
30.27735063860928
 30
0.0
  0
LWPOLYLINE
  5
1B2
330
1F
100
AcDbEntity
  8
2
 62
     7
100
AcDbPolyline
 90
        2
 70
     0
 43
0.0
 10
616.952228969808
 20
-4.42478463677935
 10
616.952228969808
 20
-9.703783033851778
  0
LWPOLYLINE
  5
1B3
330
1F
100
AcDbEntity
  8
2
 62
     7
100
AcDbPolyline
 90
        2
 70
     0
 43
0.0
 10
667.6542076779506
 20
0.0
 10
667.6542076779506
 20
18.9233388764867
  0
LWPOLYLINE
  5
1B6
102
{ACAD_REACTORS
330
1006E
102
}
330
1F
100
AcDbEntity
  8
2
 62
     7
100
AcDbPolyline
 90
        2
 70
     0
 43
0.0
 10
679.6480257785911
 20
0.0
 10
679.6480257785911
 20
-22.70803746020124
  0
DIMENSION
  5
1006C
102
{ACAD_REACTORS
330
1006E
102
}
102
{ACAD_XDICTIONARY
360
1006D
102
}
330
1F
100
AcDbEntity
  8
0
  6
ByBlock
100
AcDbDimension
  2
*D2
 10
679.6480257785911
 20
-158.8969741804522
 30
0.0
 11
339.8240128892955
 21
-171.3969741804522
 31
0.0
 70
    32
  1
680
 71
     5
 42
679.6480257785911
 73
     0
 74
     0
 75
     0
  3
ISO-25
100
AcDbAlignedDimension
 13
0.0
 23
-11.35401873010073
 33
0.0
 14
679.6480257785911
 24
-11.35401873010073
 34
0.0
100
AcDbRotatedDimension
1001
ACAD
1000
DSTYLE
1002
{
1070
   146
1040
1.0
1070
   277
1070
     2
1070
   171
1070
     2
1070
   143
1040
25.4
1070
   274
1070
     2
1070
    41
1040
10.0
1070
   141
1040
0.09
1070
   271
1070
     4
1070
    43
1040
0.38
1070
    44
1040
0.18
1070
    42
1040
0.0625
1070
   147
1040
5.0
1070
   144
1040
1.0
1070
    77
1070
     2
1070
   272
1070
     4
1070
    73
1070
     1
1070
   279
1070
     2
1070
   172
1070
     0
1070
    74
1070
     1
1070
   283
1070
     1
1070
   140
1040
15.0
1070
   284
1070
     3
1070
    78
1070
     4
1002
}
  0
DIMENSION
  5
10080
102
{ACAD_REACTORS
330
10082
102
}
102
{ACAD_XDICTIONARY
360
10081
102
}
330
1F
100
AcDbEntity
  8
0
  6
ByBlock
100
AcDbDimension
  2
*D3
 10
563.7088944117108
 20
139.6198029461077
 30
0.0
 11
339.8224975407136
 21
152.1198029461077
 31
0.0
 70
    32
  1
450
 71
     5
 42
447.9966801388655
 73
     0
 74
     0
 75
     0
  3
ISO-25
100
AcDbAlignedDimension
 13
115.9361006697163
 23
76.25663148398917
 33
0.0
 14
563.7088944117108
 24
76.25663148398917
 34
0.0
100
AcDbRotatedDimension
1001
ACAD
1000
DSTYLE
1002
{
1070
   171
1070
     2
1070
   143
1040
25.4
1070
   274
1070
     2
1070
    41
1040
10.0
1070
   141
1040
0.09
1070
   271
1070
     4
1070
    43
1040
0.38
1070
    44
1040
0.18
1070
    42
1040
5.0
1070
   147
1040
5.0
1070
   144
1040
1.0005
1070
    77
1070
     1
1070
   272
1070
     4
1070
    73
1070
     1
1070
   279
1070
     2
1070
   172
1070
     0
1070
    74
1070
     1
1070
   283
1070
     1
1070
   140
1040
15.0
1070
   284
1070
     0
1070
    78
1070
     0
1002
}
  0
DIMENSION
  5
100B2
330
1F
100
AcDbEntity
  8
0
  6
ByBlock
100
AcDbDimension
  2
*D6
 10
963.3594391604554
 20
-162.5483136164937
 30
0.0
 11
895.89438701527
 21
-175.0483136164937
 31
0.0
 70
    32
  1
135
 71
     5
 42
134.9975693425159
 73
     0
 74
     0
 75
     0
  3
ISO-25
100
AcDbAlignedDimension
 13
828.4293348700846
 23
-13.95091830654155
 33
0.0
 14
963.3594391604554
 24
-13.95091830654155
 34
0.0
100
AcDbRotatedDimension
1001
ACAD
1000
DSTYLE
1002
{
1070
   171
1070
     2
1070
   143
1040
25.4
1070
   274
1070
     2
1070
    41
1040
10.0
1070
   141
1040
0.09
1070
   271
1070
     4
1070
    43
1040
0.38
1070
    44
1040
0.18
1070
    42
1040
0.0625
1070
   147
1040
5.0
1070
   144
1040
1.0005
1070
    77
1070
     2
1070
   272
1070
     4
1070
    73
1070
     1
1070
   279
1070
     2
1070
   172
1070
     0
1070
    74
1070
     1
1070
   283
1070
     1
1070
   140
1040
15.0
1070
   284
1070
     0
1070
    78
1070
     0
1002
}
  0
DIMENSION
  5
10116
330
1F
100
AcDbEntity
  8
0
  6
ByBlock
100
AcDbDimension
  2
*D9
 10
1066.1846014315
 20
-72.02280562721923
 30
0.0
 11
1066.1846014315
 21
-15.95035210928155
 31
0.0
 70
    32
  1
112
 71
     5
 42
112.2009794893933
 73
     0
 74
     0
 75
     0
 53
90.0
  3
ISO-25
100
AcDbAlignedDimension
 13
896.6991682547796
 23
40.12210140865614
 33
0.0
 14
896.6991992913472
 24
-72.02280562721921
 34
0.0
 50
90.0
100
AcDbRotatedDimension
1001
ACAD
1000
DSTYLE
1002
{
1070
   171
1070
     2
1070
   143
1040
25.4
1070
   274
1070
     2
1070
    41
1040
10.0
1070
   141
1040
0.09
1070
   271
1070
     4
1070
    43
1040
0.38
1070
    44
1040
0.18
1070
    42
1040
0.0625
1070
   147
1040
5.0
1070
   144
1040
1.0005
1070
    77
1070
     3
1070
   272
1070
     4
1070
    73
1070
     1
1070
   279
1070
     2
1070
   172
1070
     0
1070
    74
1070
     1
1070
   283
1070
     1
1070
   140
1040
15.0
1070
   284
1070
     0
1070
    78
1070
     0
1002
}
  0
LINE
  5
10133
330
1F
100
AcDbEntity
  8
2
 62
     7
100
AcDbLine
 10
839.3572094700414
 20
-22.7699967376368
 30
0.0
 11
844.4862248917595
 21
-52.74509111871339
 31
0.0
  0
LINE
  5
10134
330
1F
100
AcDbEntity
  8
2
 62
     7
100
AcDbLine
 10
954.0411112915765
 20
-22.7699967376368
 30
0.0
 11
948.9121740846344
 21
-52.74509111871339
 31
0.0
  0
LINE
  5
10135
330
1F
100
AcDbEntity
  8
2
 62
     7
100
AcDbLine
 10
896.6991992913474
 20
-72.02280562721944
 30
0.0
 11
896.6991992913474
 21
-22.7699967376368
 31
0.0
  0
LINE
  5
10136
330
1F
100
AcDbEntity
  8
2
 62
     7
100
AcDbLine
 10
879.8329033484156
 20
-72.02280562721944
 30
0.0
 11
879.8329033484156
 21
-22.7699967376368
 31
0.0
  0
LINE
  5
10137
330
1F
100
AcDbEntity
  8
2
 62
     7
100
AcDbLine
 10
862.9666693473855
 20
-72.02280562721944
 30
0.0
 11
862.9666693473855
 21
-22.7699967376368
 31
0.0
  0
LINE
  5
10138
330
1F
100
AcDbEntity
  8
2
 62
     7
100
AcDbLine
 10
846.1003734044534
 20
-57.95118583854105
 30
0.0
 11
846.1003734044534
 21
-22.7699967376368
 31
0.0
  0
LINE
  5
10139
330
1F
100
AcDbEntity
  8
2
 62
     7
100
AcDbLine
 10
913.5654801425026
 20
-72.02280562721944
 30
0.0
 11
913.5654801425026
 21
-22.7699967376368
 31
0.0
  0
SPLINE
  5
10162
330
1F
100
AcDbEntity
  8
2
 62
     7
100
AcDbSpline
210
0.0
220
0.0
230
1.0
 70
     8
 71
     3
 72
     8
 73
     4
 74
     0
 42
0.000000001
 43
0.0000001
 40
0.0
 40
0.0
 40
0.0
 40
0.0
 40
1.0
 40
1.0
 40
1.0
 40
1.0
 10
923.9065464691264
 20
-72.0228197024976
 30
0.0
 10
936.3945448760344
 20
-72.0228197024976
 30
0.0
 10
947.0144644637514
 20
-63.83553523237197
 30
0.0
 10
948.9121347147804
 20
-52.74509709759309
 30
0.0
  0
LINE
  5
1013B
330
1F
100
AcDbEntity
  8
2
 62
     7
100
AcDbLine
 10
930.4316671621734
 20
-72.02280562721944
 30
0.0
 11
930.4316671621734
 21
-22.7699967376368
 31
0.0
  0
LINE
  5
1013C
330
1F
100
AcDbEntity
  8
2
 62
     7
100
AcDbLine
 10
947.2979631051055
 20
-57.95115793710283
 30
0.0
 11
947.2979631051055
 21
-22.7699967376368
 31
0.0
  0
LINE
  5
1013D
330
1F
100
AcDbEntity
  8
2
 62
     7
100
AcDbLine
 10
845.6392680359154
 20
-56.8680865379456
 30
0.0
 11
947.7590524632376
 21
-56.8680865379456
 31
0.0
  0
SPLINE
  5
10163
330
1F
100
AcDbEntity
  8
2
 62
     7
100
AcDbSpline
210
0.0
220
0.0
230
1.0
 70
     8
 71
     3
 72
     8
 73
     4
 74
     0
 42
0.000000001
 43
0.0000001
 40
0.0
 40
0.0
 40
0.0
 40
0.0
 40
1.0
 40
1.0
 40
1.0
 40
1.0
 10
844.4862011386144
 20
-52.7450921151933
 30
0.0
 10
846.3838690274524
 20
-63.83553274117298
 30
0.0
 10
857.0037900587306
 20
-72.0228197024976
 30
0.0
 10
869.4917906965966
 20
-72.0228197024976
 30
0.0
  0
LINE
  5
1013F
330
1F
100
AcDbEntity
  8
2
 62
     7
100
AcDbLine
 10
842.5985618013544
 20
-41.71336744867176
 30
0.0
 11
950.7998215583304
 21
-41.71336744867176
 31
0.0
  0
LINE
  5
10140
330
1F
100
AcDbEntity
  8
2
 62
     7
100
AcDbLine
 10
869.4917899091995
 20
-72.02280562721944
 30
0.0
 11
923.9065464691264
 21
-72.02280562721944
 31
0.0
  0
LINE
  5
10141
330
1F
100
AcDbEntity
  8
2
 62
     7
100
AcDbLine
 10
829.2341395346575
 20
-0.0379041530077302
 30
0.0
 11
964.1642438250285
 21
-0.0379041530077302
 31
0.0
  0
LINE
  5
10142
330
1F
100
AcDbEntity
  8
2
 62
     7
100
AcDbLine
 10
829.2341395346575
 20
-22.7699967376368
 30
0.0
 11
964.1642438250285
 21
-22.7699967376368
 31
0.0
  0
SPLINE
  5
10164
330
1F
100
AcDbEntity
  8
2
 62
     7
100
AcDbSpline
210
0.0
220
0.0
230
1.0
 70
     8
 71
     3
 72
     8
 73
     4
 74
     0
 42
0.000000001
 43
0.0000001
 40
0.0
 40
0.0
 40
0.0
 40
0.0
 40
1.0
 40
1.0
 40
1.0
 40
1.0
 10
951.5145139282415
 20
18.9054806333063
 30
0.0
 10
951.5145139282415
 20
21.91994185134195
 30
0.0
 10
950.1817815228776
 20
24.81093846108502
 30
0.0
 10
947.8095025684515
 20
26.94248447338259
 30
0.0
  0
SPLINE
  5
10165
330
1F
100
AcDbEntity
  8
2
 62
     7
100
AcDbSpline
210
0.0
220
0.0
230
1.0
 70
     8
 71
     3
 72
     8
 73
     4
 74
     0
 42
0.000000001
 43
0.0000001
 40
0.0
 40
0.0
 40
0.0
 40
0.0
 40
1.0
 40
1.0
 40
1.0
 40
1.0
 10
947.8095025684515
 20
26.94248447338259
 30
0.0
 10
945.4372238764915
 20
29.07403036111987
 30
0.0
 10
942.2197229835936
 20
30.27152019938148
 30
0.0
 10
938.8648143462426
 20
30.27151995026111
 30
0.0
  0
LINE
  5
10145
330
1F
100
AcDbEntity
  8
2
 62
     7
100
AcDbLine
 10
829.2341395346575
 20
-0.0379041530077302
 30
0.0
 11
829.2341395346575
 21
-22.7699967376368
 31
0.0
  0
LINE
  5
10146
330
1F
100
AcDbEntity
  8
2
 62
     7
100
AcDbLine
 10
840.0054985451216
 20
-26.55864873307723
 30
0.0
 11
953.3928379644376
 21
-26.55864873307723
 31
0.0
  0
SPLINE
  5
10166
330
1F
100
AcDbEntity
  8
2
 62
     7
100
AcDbSpline
210
0.0
220
0.0
230
1.0
 70
     8
 71
     3
 72
     8
 73
     4
 74
     0
 42
0.000000001
 43
0.0000001
 40
0.0
 40
0.0
 40
0.0
 40
0.0
 40
1.0
 40
1.0
 40
1.0
 40
1.0
 10
879.8329344505994
 20
12.92369132332919
 30
0.0
 10
879.8329278889576
 20
7.62348767057756
 30
0.0
 10
882.9146618416685
 20
2.708408057864972
 30
0.0
 10
887.9598168505315
 20
-0.0379324281250319
 30
0.0
  0
SPLINE
  5
10167
330
1F
100
AcDbEntity
  8
2
 62
     7
100
AcDbSpline
210
0.0
220
0.0
230
1.0
 70
     8
 71
     3
 72
     8
 73
     4
 74
     0
 42
0.000000001
 43
0.0000001
 40
0.0
 40
0.0
 40
0.0
 40
0.0
 40
1.0
 40
1.0
 40
1.0
 40
1.0
 10
907.1086364868536
 20
15.80409535162153
 30
0.0
 10
907.1086364868536
 20
19.14564101097926
 30
0.0
 10
905.1246089868534
 20
22.23335670580968
 30
0.0
 10
901.9039179547165
 20
23.90412941092836
 30
0.0
  0
SPLINE
  5
10168
330
1F
100
AcDbEntity
  8
2
 62
     7
100
AcDbSpline
210
0.0
220
0.0
230
1.0
 70
     8
 71
     3
 72
     8
 73
     4
 74
     0
 42
0.000000001
 43
0.0000001
 40
0.0
 40
0.0
 40
0.0
 40
0.0
 40
1.0
 40
1.0
 40
1.0
 40
1.0
 10
901.9039179547165
 20
23.90412941092836
 30
0.0
 10
898.6832267913476
 20
25.57490224060712
 30
0.0
 10
894.7151717913475
 20
25.57490224060712
 30
0.0
 10
891.4944810216775
 20
23.90412941092836
 30
0.0
  0
SPLINE
  5
10169
330
1F
100
AcDbEntity
  8
2
 62
     7
100
AcDbSpline
210
0.0
220
0.0
230
1.0
 70
     8
 71
     3
 72
     8
 73
     4
 74
     0
 42
0.000000001
 43
0.0000001
 40
0.0
 40
0.0
 40
0.0
 40
0.0
 40
1.0
 40
1.0
 40
1.0
 40
1.0
 10
891.4944810216775
 20
23.90412941092836
 30
0.0
 10
888.2737899895405
 20
22.23335670580968
 30
0.0
 10
886.2897624895404
 20
19.14564101097926
 30
0.0
 10
886.2897624895404
 20
15.80409535162153
 30
0.0
  0
SPLINE
  5
1016A
330
1F
100
AcDbEntity
  8
2
 62
     7
100
AcDbSpline
210
0.0
220
0.0
230
1.0
 70
     8
 71
     3
 72
     8
 73
     4
 74
     0
 42
0.000000001
 43
0.0000001
 40
0.0
 40
0.0
 40
0.0
 40
0.0
 40
1.0
 40
1.0
 40
1.0
 40
1.0
 10
886.2897624895404
 20
15.80409535162153
 30
0.0
 10
886.2897624895404
 20
12.46254981682409
 30
0.0
 10
888.2737899895405
 20
9.374834121993672
 30
0.0
 10
891.4944810216775
 20
7.704061292314918
 30
0.0
  0
SPLINE
  5
1016B
330
1F
100
AcDbEntity
  8
2
 62
     7
100
AcDbSpline
210
0.0
220
0.0
230
1.0
 70
     8
 71
     3
 72
     8
 73
     4
 74
     0
 42
0.000000001
 43
0.0000001
 40
0.0
 40
0.0
 40
0.0
 40
0.0
 40
1.0
 40
1.0
 40
1.0
 40
1.0
 10
891.4944810216775
 20
7.704061292314918
 30
0.0
 10
894.7151721850464
 20
6.033288462635937
 30
0.0
 10
898.6832271850465
 20
6.033288462635937
 30
0.0
 10
901.9039179547165
 20
7.704061292314918
 30
0.0
  0
SPLINE
  5
1016C
330
1F
100
AcDbEntity
  8
2
 62
     7
100
AcDbSpline
210
0.0
220
0.0
230
1.0
 70
     8
 71
     3
 72
     8
 73
     4
 74
     0
 42
0.000000001
 43
0.0000001
 40
0.0
 40
0.0
 40
0.0
 40
0.0
 40
1.0
 40
1.0
 40
1.0
 40
1.0
 10
901.9039179547165
 20
7.704061292314918
 30
0.0
 10
905.1246089868534
 20
9.374834121993672
 30
0.0
 10
907.1086364868536
 20
12.46254981682409
 30
0.0
 10
907.1086364868536
 20
15.80409535162153
 30
0.0
  0
LINE
  5
1014E
330
1F
100
AcDbEntity
  8
2
 62
     7
100
AcDbLine
 10
854.5335213759195
 20
30.27153365186086
 30
0.0
 11
938.8648151336395
 21
30.27153365186086
 31
0.0
  0
SPLINE
  5
1016D
330
1F
100
AcDbEntity
  8
2
 62
     7
100
AcDbSpline
210
0.0
220
0.0
230
1.0
 70
     8
 71
     3
 72
     8
 73
     4
 74
     0
 42
0.000000001
 43
0.0000001
 40
0.0
 40
0.0
 40
0.0
 40
0.0
 40
1.0
 40
1.0
 40
1.0
 40
1.0
 10
854.5335205885226
 20
30.27151995026111
 30
0.0
 10
851.1786116887056
 20
30.27151995026111
 30
0.0
 10
847.9611115832045
 20
29.07402973832018
 30
0.0
 10
845.5888328912445
 20
26.94248335234215
 30
0.0
  0
SPLINE
  5
1016E
330
1F
100
AcDbEntity
  8
2
 62
     7
100
AcDbSpline
210
0.0
220
0.0
230
1.0
 70
     8
 71
     3
 72
     8
 73
     4
 74
     0
 42
0.000000001
 43
0.0000001
 40
0.0
 40
0.0
 40
0.0
 40
0.0
 40
1.0
 40
1.0
 40
1.0
 40
1.0
 10
845.5888328912445
 20
26.94248335234215
 30
0.0
 10
843.2165541992845
 20
24.81093734004571
 30
0.0
 10
841.8838223188525
 20
21.91994073030287
 30
0.0
 10
841.8838225813174
 20
18.90547963682639
 30
0.0
  0
LINE
  5
10151
330
1F
100
AcDbEntity
  8
2
 62
     7
100
AcDbLine
 10
865.7941582972376
 20
40.12210140865659
 30
0.0
 11
927.6041782123225
 21
40.12210140865659
 31
0.0
  0
SPLINE
  5
1016F
330
1F
100
AcDbEntity
  8
2
 62
     7
100
AcDbSpline
210
0.0
220
0.0
230
1.0
 70
     8
 71
     3
 72
     8
 73
     4
 74
     0
 42
0.000000001
 43
0.0000001
 40
0.0
 40
0.0
 40
0.0
 40
0.0
 40
1.0
 40
1.0
 40
1.0
 40
1.0
 10
865.7941580347715
 20
40.12208733337729
 30
0.0
 10
864.6758549806775
 20
40.12208733337729
 30
0.0
 10
863.6033550767436
 20
39.72292363875704
 30
0.0
 10
862.8125954252685
 20
39.01240855044466
 30
0.0
  0
SPLINE
  5
10170
330
1F
100
AcDbEntity
  8
2
 62
     7
100
AcDbSpline
210
0.0
220
0.0
230
1.0
 70
     8
 71
     3
 72
     8
 73
     4
 74
     0
 42
0.000000001
 43
0.0000001
 40
0.0
 40
0.0
 40
0.0
 40
0.0
 40
1.0
 40
1.0
 40
1.0
 40
1.0
 10
862.8125954252685
 20
39.01240855044466
 30
0.0
 10
862.0218360362585
 20
38.30189308845252
 30
0.0
 10
861.5775919886255
 20
37.33822738579124
 30
0.0
 10
861.5775919886255
 20
36.33340706281865
 30
0.0
  0
LINE
  5
10154
330
1F
100
AcDbEntity
  8
2
 62
     7
100
AcDbLine
 10
907.1086364868536
 20
15.80409535162153
 30
0.0
 11
907.1086364868536
 21
15.80409535162153
 31
0.0
  0
LINE
  5
10171
330
1F
100
AcDbEntity
  8
2
 62
     7
100
AcDbLine
 10
907.1086364868536
 20
15.80409535162153
 30
0.0
 11
907.1086364868536
 21
15.80409535162153
 31
0.0
  0
LINE
  5
10172
330
1F
100
AcDbEntity
  8
2
 62
     7
100
AcDbLine
 10
907.1086364868536
 20
15.80409535162153
 30
0.0
 11
907.1086364868536
 21
15.80409535162153
 31
0.0
  0
LINE
  5
10173
330
1F
100
AcDbEntity
  8
2
 62
     7
100
AcDbLine
 10
907.1086364868536
 20
15.80409535162153
 30
0.0
 11
907.1086364868536
 21
15.80409535162153
 31
0.0
  0
LINE
  5
10155
330
1F
100
AcDbEntity
  8
2
 62
     7
100
AcDbLine
 10
841.8838070958425
 20
-0.0379041530077302
 30
0.0
 11
841.8838070958425
 21
18.9054806333063
 31
0.0
  0
LINE
  5
10156
330
1F
100
AcDbEntity
  8
2
 62
     7
100
AcDbLine
 10
861.5775919886255
 20
30.27153365186086
 30
0.0
 11
861.5775919886255
 21
36.3334074364991
 31
0.0
  0
LINE
  5
10157
330
1F
100
AcDbEntity
  8
2
 62
     7
100
AcDbLine
 10
879.8329033484156
 20
12.92367425861039
 30
0.0
 11
879.8329033484156
 21
30.27153365186086
 31
0.0
  0
LINE
  5
10158
330
1F
100
AcDbEntity
  8
2
 62
     7
100
AcDbLine
 10
894.1692129710134
 20
40.12210140865659
 30
0.0
 11
894.1692129710134
 21
51.48815442721025
 31
0.0
  0
SPLINE
  5
10174
330
1F
100
AcDbEntity
  8
2
 62
     7
100
AcDbSpline
210
0.0
220
0.0
230
1.0
 70
     8
 71
     3
 72
     8
 73
     4
 74
     0
 42
0.000000001
 43
0.0000001
 40
0.0
 40
0.0
 40
0.0
 40
0.0
 40
1.0
 40
1.0
 40
1.0
 40
1.0
 10
905.4385829132596
 20
-0.0379320544445818
 30
0.0
 10
910.4837379221226
 20
2.708408805224735
 30
0.0
 10
913.5654714811344
 20
7.623488791616865
 30
0.0
 10
913.5654643945616
 20
12.92369231980933
 30
0.0
  0
LINE
  5
1015A
330
1F
100
AcDbEntity
  8
2
 62
     7
100
AcDbLine
 10
899.2291705199045
 20
40.12210140865659
 30
0.0
 11
899.2291705199045
 21
51.48815442721025
 31
0.0
  0
SPLINE
  5
10175
330
1F
100
AcDbEntity
  8
2
 62
     7
100
AcDbSpline
210
0.0
220
0.0
230
1.0
 70
     8
 71
     3
 72
     8
 73
     4
 74
     0
 42
0.000000001
 43
0.0000001
 40
0.0
 40
0.0
 40
0.0
 40
0.0
 40
1.0
 40
1.0
 40
1.0
 40
1.0
 10
931.8207441272355
 20
36.3334074364991
 30
0.0
 10
931.8207441272355
 20
37.33822788403086
 30
0.0
 10
931.3765000796025
 20
38.30189346213183
 30
0.0
 10
930.5857408218255
 20
39.01240855044466
 30
0.0
  0
SPLINE
  5
10176
330
1F
100
AcDbEntity
  8
2
 62
     7
100
AcDbSpline
210
0.0
220
0.0
230
1.0
 70
     8
 71
     3
 72
     8
 73
     4
 74
     0
 42
0.000000001
 43
0.0000001
 40
0.0
 40
0.0
 40
0.0
 40
0.0
 40
1.0
 40
1.0
 40
1.0
 40
1.0
 10
930.5857408218255
 20
39.01240855044466
 30
0.0
 10
929.7949810391176
 20
39.7229238878765
 30
0.0
 10
928.7224811351834
 20
40.12208733337729
 30
0.0
 10
927.6041782123225
 20
40.12208733337729
 30
0.0
  0
LINE
  5
1015D
330
1F
100
AcDbEntity
  8
2
 62
     7
100
AcDbLine
 10
913.5654801425026
 20
12.92367425861039
 30
0.0
 11
913.5654801425026
 21
30.27153365186086
 31
0.0
  0
LINE
  5
1015E
330
1F
100
AcDbEntity
  8
2
 62
     7
100
AcDbLine
 10
931.8206816604004
 20
30.27153365186086
 30
0.0
 11
931.8206816604004
 21
36.3334074364991
 31
0.0
  0
LINE
  5
1015F
330
1F
100
AcDbEntity
  8
2
 62
     7
100
AcDbLine
 10
894.1692129710134
 20
51.48815442721025
 30
0.0
 11
899.2291705199045
 21
51.48815442721025
 31
0.0
  0
LINE
  5
10160
330
1F
100
AcDbEntity
  8
2
 62
     7
100
AcDbLine
 10
964.1642438250285
 20
-0.0379041530077302
 30
0.0
 11
964.1642438250285
 21
-22.7699967376368
 31
0.0
  0
LINE
  5
10161
330
1F
100
AcDbEntity
  8
2
 62
     7
100
AcDbLine
 10
951.5145920117845
 20
-0.0379041530077302
 30
0.0
 11
951.5145920117845
 21
18.9054806333063
 31
0.0
  0
ENDSEC
  0
SECTION
  2
OBJECTS
  0
DICTIONARY
  5
C
330
0
100
AcDbDictionary
281
     1
  3
ACAD_DETAILVIEWSTYLE
350
10130
  3
ACAD_GROUP
350
D
  3
ACAD_IMAGE_VARS
350
10047
  3
ACAD_LAYOUT
350
10021
  3
ACAD_MATERIAL
350
1003D
  3
ACAD_MLEADERSTYLE
350
10043
  3
ACAD_MLINESTYLE
350
17
  3
ACAD_PLOTSETTINGS
350
10058
  3
ACAD_PLOTSTYLENAME
350
10059
  3
ACAD_SCALELIST
350
FFFF
  3
ACAD_SECTIONVIEWSTYLE
350
10131
  3
ACAD_TABLESTYLE
350
10041
  3
ACAD_VISUALSTYLE
350
10024
  3
ACDB_RECOMPOSE_DATA
350
10179
  3
AcDbVariableDictionary
350
10127
  3
AcStStandard
350
1006B
  3
APPDATA
350
10045
  0
SUN
  5
10046
330
2E
100
AcDbSun
 90
        1
290
     0
 63
     7
421
 16777215
 40
1.0
291
     1
 91
  2455826
 92
 54000000
292
     0
 70
     2
 71
   256
280
     1
  0
DICTIONARY
  5
1006D
330
1006C
100
AcDbDictionary
280
     1
281
     1
  3
ACAD_DIMASSOC
360
1006E
  0
DICTIONARY
  5
10081
330
10080
100
AcDbDictionary
280
     1
281
     1
  3
ACAD_DIMASSOC
360
10082
  0
DICTIONARY
  5
10130
102
{ACAD_REACTORS
330
C
102
}
330
C
100
AcDbDictionary
281
     1
  0
DICTIONARY
  5
D
330
C
100
AcDbDictionary
281
     1
  0
RASTERVARIABLES
  5
10047
102
{ACAD_REACTORS
330
C
102
}
330
C
100
AcDbRasterVariables
 90
        0
 70
     1
 71
     1
 72
     0
  0
DICTIONARY
  5
10021
102
{ACAD_REACTORS
330
C
102
}
330
C
100
AcDbDictionary
281
     1
  3
Foglio 1
350
10023
  3
Model
350
10022
  0
DICTIONARY
  5
1003D
102
{ACAD_REACTORS
330
C
102
}
330
C
100
AcDbDictionary
281
     1
  3
ByBlock
350
1003F
  3
ByLayer
350
1003E
  3
Global
350
10040
  0
DICTIONARY
  5
10043
102
{ACAD_REACTORS
330
C
102
}
330
C
100
AcDbDictionary
281
     1
  3
Standard
350
10044
  0
DICTIONARY
  5
17
330
C
100
AcDbDictionary
281
     1
  3
Standard
350
10132
  0
DICTIONARY
  5
10058
102
{ACAD_REACTORS
330
C
102
}
330
C
100
AcDbDictionary
281
     1
  0
ACDBDICTIONARYWDFLT
  5
10059
102
{ACAD_REACTORS
330
C
102
}
330
C
100
AcDbDictionary
281
     1
  3
Normal
350
1005A
100
AcDbDictionaryWithDefault
340
1005A
  0
DICTIONARY
  5
FFFF
102
{ACAD_REACTORS
330
C
102
}
330
C
100
AcDbDictionary
281
     1
  3
A0
350
10000
  3
A1
350
10001
  3
A2
350
10002
  3
A3
350
10003
  3
A4
350
10004
  3
A5
350
10005
  3
A6
350
10006
  3
A7
350
10007
  3
A8
350
10008
  3
A9
350
10009
  3
B0
350
1000A
  3
B1
350
1000B
  3
B2
350
1000C
  3
B3
350
1000D
  3
B4
350
1000E
  3
B5
350
1000F
  3
B6
350
10010
  3
B7
350
10011
  3
B8
350
10012
  3
B9
350
10013
  3
C0
350
10014
  3
C1
350
10015
  3
C2
350
10016
  3
C3
350
10017
  3
C4
350
10018
  3
C5
350
10019
  3
C6
350
1001A
  3
C7
350
1001B
  3
C8
350
1001C
  3
C9
350
1001D
  3
D0
350
1001E
  3
D1
350
1001F
  3
D2
350
10020
  0
DICTIONARY
  5
10131
102
{ACAD_REACTORS
330
C
102
}
330
C
100
AcDbDictionary
281
     1
  0
DICTIONARY
  5
10041
102
{ACAD_REACTORS
330
C
102
}
330
C
100
AcDbDictionary
281
     1
  3
Standard
350
10042
  0
DICTIONARY
  5
10024
102
{ACAD_REACTORS
330
C
102
}
330
C
100
AcDbDictionary
281
     1
  3
2dWireframe
350
10029
  3
Basic
350
1002C
  3
Brighten
350
10030
  3
ColorChange
350
10034
  3
Conceptual
350
1002E
  3
Dim
350
1002F
  3
EdgeColorOff
350
10037
  3
Facepattern
350
10033
  3
Flat
350
10025
  3
FlatWithEdges
350
10026
  3
Gouraud
350
10027
  3
GouraudWithEdges
350
10028
  3
Hidden
350
1002B
  3
JitterOff
350
10035
  3
Linepattern
350
10032
  3
OverhangOff
350
10036
  3
Realistic
350
1002D
  3
Shaded
350
1003C
  3
Shaded with edges
350
1003B
  3
Shades of Gray
350
10038
  3
Sketchy
350
10039
  3
Thicken
350
10031
  3
Wireframe
350
1002A
  3
X-Ray
350
1003A
  0
XRECORD
  5
10179
102
{ACAD_REACTORS
330
C
102
}
330
C
100
AcDbXrecord
280
     1
 90
        1
330
10042
  0
DICTIONARY
  5
10127
102
{ACAD_REACTORS
330
C
102
}
330
C
100
AcDbDictionary
281
     1
  3
CANNOSCALE
350
10128
  3
CMLEADERSTYLE
350
1012E
  3
CTABLESTYLE
350
1012D
  3
MSLTSCALE
350
1012F
  3
XCLIPFRAME
350
1017A
  0
DICTIONARY
  5
1006B
102
{ACAD_REACTORS
330
C
102
}
330
C
100
AcDbDictionary
281
     1
  0
DICTIONARY
  5
10045
102
{ACAD_REACTORS
330
C
102
}
330
C
100
AcDbDictionary
281
     1
  0
DIMASSOC
  5
1006E
102
{ACAD_REACTORS
330
1006D
102
}
330
1006D
100
AcDbDimAssoc
330
1006C
 90
        3
 70
     0
 71
     1
  1
AcDbOsnapPointRef
 72
     2
331
12D
 73
     2
 91
        1
 40
0.5
 10
0.0
 20
0.0
 30
0.0
 75
     0
  1
AcDbOsnapPointRef
 72
     2
331
1B6
 73
     2
 91
        1
 40
0.5
 10
0.0
 20
0.0
 30
0.0
 75
     0
  0
DIMASSOC
  5
10082
102
{ACAD_REACTORS
330
10081
102
}
330
10081
100
AcDbDimAssoc
330
10080
 90
        3
 70
     0
 71
     1
  1
AcDbOsnapPointRef
 72
     2
331
110
 73
     2
 91
        1
 40
0.5
 10
0.0
 20
0.0
 30
0.0
 75
     0
  1
AcDbOsnapPointRef
 72
     8
331
111
 73
     2
 91
        1
 40
0.498114932452039
 10
0.0
 20
0.0
 30
0.0
 75
     1
  1
AcDbOsnapPointRef
 72
     2
331
110
 73
     2
 91
        1
 40
0.5
 10
0.0
 20
0.0
 30
0.0
 75
     0
  0
LAYOUT
  5
10023
102
{ACAD_REACTORS
330
10021
102
}
330
10021
100
AcDbPlotSettings
  1

  2
none_device
  4

  6

 40
0.0
 41
0.0
 42
0.0
 43
0.0
 44
0.0
 45
0.0
 46
0.0
 47
0.0
 48
0.0
 49
0.0
140
0.0
141
0.0
142
1.0
143
1.0
 70
   688
 72
     1
 73
     0
 74
     5
  7

 75
    16
 76
     0
 77
     2
 78
   300
147
1.0
148
0.0
149
0.0
100
AcDbLayout
  1
Foglio 1
 70
     1
 71
     1
 10
0.0
 20
0.0
 11
0.0
 21
0.0
 12
0.0
 22
0.0
 32
0.0
 14
1.000000000000000E+20
 24
1.000000000000000E+20
 34
1.000000000000000E+20
 15
-1.000000000000000E+20
 25
-1.000000000000000E+20
 35
-1.000000000000000E+20
146
0.0
 13
0.0
 23
0.0
 33
0.0
 16
1.0
 26
0.0
 36
0.0
 17
0.0
 27
1.0
 37
0.0
 76
     0
330
1B
  0
LAYOUT
  5
10022
102
{ACAD_REACTORS
330
10021
102
}
330
10021
100
AcDbPlotSettings
  1

  2
none_device
  4
Letter_(8.50_x_11.00_Inches)
  6

 40
6.35
 41
6.35
 42
6.35
 43
6.35
 44
215.9
 45
279.4
 46
0.0
 47
0.0
 48
0.0
 49
0.0
140
0.0
141
0.0
142
1.0
143
52.855
 70
  1712
 72
     0
 73
     0
 74
     0
  7

 75
     0
 76
     0
 77
     2
 78
   300
147
0.0189196859332135
148
36.06799999999968
149
558.8
100
AcDbLayout
  1
Model
 70
     1
 71
     0
 10
0.0
 20
0.0
 11
12.0
 21
9.0
 12
0.0
 22
0.0
 32
0.0
 14
0.0
 24
-182.5483136164937
 34
0.0
 15
1073.6846014315
 25
159.6198029461077
 35
0.0
146
0.0
 13
0.0
 23
0.0
 33
0.0
 16
1.0
 26
0.0
 36
0.0
 17
0.0
 27
1.0
 37
0.0
 76
     0
330
1F
331
2E
  0
MATERIAL
  5
1003F
102
{ACAD_REACTORS
330
1003D
102
}
330
1003D
100
AcDbMaterial
  1
ByBlock
 72
     1
 94
      127
  0
MATERIAL
  5
1003E
102
{ACAD_REACTORS
330
1003D
102
}
330
1003D
100
AcDbMaterial
  1
ByLayer
 72
     1
 94
      127
  0
MATERIAL
  5
10040
102
{ACAD_REACTORS
330
1003D
102
}
330
1003D
100
AcDbMaterial
  1
Global
 72
     1
 94
      127
  0
MLEADERSTYLE
  5
10044
102
{ACAD_REACTORS
330
10043
102
}
330
10043
100
AcDbMLeaderStyle
170
     2
171
     1
172
     0
 90
        2
 40
0.0
 41
0.0
173
     1
 91
-1056964608
340
14
 92
       -2
290
     1
 42
2.0
291
     1
 43
8.0
  3
Standard
341
0
 44
4.0
300

342
11
174
     1
178
     6
175
     1
176
     0
 93
-1056964608
 45
4.0
292
     0
297
     0
 46
4.0
343
0
 94
-1056964608
 47
1.0
 49
1.0
140
1.0
293
     1
141
0.0
294
     1
177
     0
142
1.0
295
     0
296
     0
143
3.75
1001
ACAD_MLEADERVER
1070
     2
  0
MLINESTYLE
  5
10132
102
{ACAD_REACTORS
330
17
102
}
330
17
100
AcDbMlineStyle
  2
Standard
 70
     0
  3

 62
   256
 51
90.0
 52
90.0
 71
     2
 49
0.5
 62
   256
  6
BYLAYER
 49
-0.5
 62
   256
  6
BYLAYER
  0
ACDBPLACEHOLDER
  5
1005A
102
{ACAD_REACTORS
330
10059
102
}
330
10059
  0
SCALE
  5
10000
102
{ACAD_REACTORS
330
FFFF
102
}
330
FFFF
100
AcDbScale
 70
     0
300
1:1
140
1.0
141
1.0
290
     1
  0
SCALE
  5
10001
102
{ACAD_REACTORS
330
FFFF
102
}
330
FFFF
100
AcDbScale
 70
     0
300
1:2
140
1.0
141
2.0
290
     0
  0
SCALE
  5
10002
102
{ACAD_REACTORS
330
FFFF
102
}
330
FFFF
100
AcDbScale
 70
     0
300
1:4
140
1.0
141
4.0
290
     0
  0
SCALE
  5
10003
102
{ACAD_REACTORS
330
FFFF
102
}
330
FFFF
100
AcDbScale
 70
     0
300
1:5
140
1.0
141
5.0
290
     0
  0
SCALE
  5
10004
102
{ACAD_REACTORS
330
FFFF
102
}
330
FFFF
100
AcDbScale
 70
     0
300
1:8
140
1.0
141
8.0
290
     0
  0
SCALE
  5
10005
102
{ACAD_REACTORS
330
FFFF
102
}
330
FFFF
100
AcDbScale
 70
     0
300
1:10
140
1.0
141
10.0
290
     0
  0
SCALE
  5
10006
102
{ACAD_REACTORS
330
FFFF
102
}
330
FFFF
100
AcDbScale
 70
     0
300
1:16
140
1.0
141
16.0
290
     0
  0
SCALE
  5
10007
102
{ACAD_REACTORS
330
FFFF
102
}
330
FFFF
100
AcDbScale
 70
     0
300
1:20
140
1.0
141
20.0
290
     0
  0
SCALE
  5
10008
102
{ACAD_REACTORS
330
FFFF
102
}
330
FFFF
100
AcDbScale
 70
     0
300
1:30
140
1.0
141
30.0
290
     0
  0
SCALE
  5
10009
102
{ACAD_REACTORS
330
FFFF
102
}
330
FFFF
100
AcDbScale
 70
     0
300
1:40
140
1.0
141
40.0
290
     0
  0
SCALE
  5
1000A
102
{ACAD_REACTORS
330
FFFF
102
}
330
FFFF
100
AcDbScale
 70
     0
300
1:50
140
1.0
141
50.0
290
     0
  0
SCALE
  5
1000B
102
{ACAD_REACTORS
330
FFFF
102
}
330
FFFF
100
AcDbScale
 70
     0
300
1:100
140
1.0
141
100.0
290
     0
  0
SCALE
  5
1000C
102
{ACAD_REACTORS
330
FFFF
102
}
330
FFFF
100
AcDbScale
 70
     0
300
2:1
140
2.0
141
1.0
290
     0
  0
SCALE
  5
1000D
102
{ACAD_REACTORS
330
FFFF
102
}
330
FFFF
100
AcDbScale
 70
     0
300
4:1
140
4.0
141
1.0
290
     0
  0
SCALE
  5
1000E
102
{ACAD_REACTORS
330
FFFF
102
}
330
FFFF
100
AcDbScale
 70
     0
300
8:1
140
8.0
141
1.0
290
     0
  0
SCALE
  5
1000F
102
{ACAD_REACTORS
330
FFFF
102
}
330
FFFF
100
AcDbScale
 70
     0
300
10:1
140
10.0
141
1.0
290
     0
  0
SCALE
  5
10010
102
{ACAD_REACTORS
330
FFFF
102
}
330
FFFF
100
AcDbScale
 70
     0
300
100:1
140
100.0
141
1.0
290
     0
  0
SCALE
  5
10011
102
{ACAD_REACTORS
330
FFFF
102
}
330
FFFF
100
AcDbScale
 70
     0
300
1/128" = 1'-0"
140
0.0078125
141
12.0
290
     0
  0
SCALE
  5
10012
102
{ACAD_REACTORS
330
FFFF
102
}
330
FFFF
100
AcDbScale
 70
     0
300
1/64" = 1'-0"
140
0.015625
141
12.0
290
     0
  0
SCALE
  5
10013
102
{ACAD_REACTORS
330
FFFF
102
}
330
FFFF
100
AcDbScale
 70
     0
300
1/32" = 1'-0"
140
0.03125
141
12.0
290
     0
  0
SCALE
  5
10014
102
{ACAD_REACTORS
330
FFFF
102
}
330
FFFF
100
AcDbScale
 70
     0
300
1/16" = 1'-0"
140
0.0625
141
12.0
290
     0
  0
SCALE
  5
10015
102
{ACAD_REACTORS
330
FFFF
102
}
330
FFFF
100
AcDbScale
 70
     0
300
3/32" = 1'-0"
140
0.09375
141
12.0
290
     0
  0
SCALE
  5
10016
102
{ACAD_REACTORS
330
FFFF
102
}
330
FFFF
100
AcDbScale
 70
     0
300
1/8" = 1'-0"
140
0.125
141
12.0
290
     0
  0
SCALE
  5
10017
102
{ACAD_REACTORS
330
FFFF
102
}
330
FFFF
100
AcDbScale
 70
     0
300
3/16" = 1'-0"
140
0.1875
141
12.0
290
     0
  0
SCALE
  5
10018
102
{ACAD_REACTORS
330
FFFF
102
}
330
FFFF
100
AcDbScale
 70
     0
300
1/4" = 1'-0"
140
0.25
141
12.0
290
     0
  0
SCALE
  5
10019
102
{ACAD_REACTORS
330
FFFF
102
}
330
FFFF
100
AcDbScale
 70
     0
300
3/8" = 1'-0"
140
0.375
141
12.0
290
     0
  0
SCALE
  5
1001A
102
{ACAD_REACTORS
330
FFFF
102
}
330
FFFF
100
AcDbScale
 70
     0
300
1/2" = 1'-0"
140
0.5
141
12.0
290
     0
  0
SCALE
  5
1001B
102
{ACAD_REACTORS
330
FFFF
102
}
330
FFFF
100
AcDbScale
 70
     0
300
3/4" = 1'-0"
140
0.75
141
12.0
290
     0
  0
SCALE
  5
1001C
102
{ACAD_REACTORS
330
FFFF
102
}
330
FFFF
100
AcDbScale
 70
     0
300
1" = 1'-0"
140
1.0
141
12.0
290
     0
  0
SCALE
  5
1001D
102
{ACAD_REACTORS
330
FFFF
102
}
330
FFFF
100
AcDbScale
 70
     0
300
1-1/2" = 1'-0"
140
1.5
141
12.0
290
     0
  0
SCALE
  5
1001E
102
{ACAD_REACTORS
330
FFFF
102
}
330
FFFF
100
AcDbScale
 70
     0
300
3" = 1'-0"
140
3.0
141
12.0
290
     0
  0
SCALE
  5
1001F
102
{ACAD_REACTORS
330
FFFF
102
}
330
FFFF
100
AcDbScale
 70
     0
300
6" = 1'-0"
140
6.0
141
12.0
290
     0
  0
SCALE
  5
10020
102
{ACAD_REACTORS
330
FFFF
102
}
330
FFFF
100
AcDbScale
 70
     0
300
1'-0" = 1'-0"
140
12.0
141
12.0
290
     0
  0
TABLESTYLE
  5
10042
102
{ACAD_REACTORS
330
10041
102
}
102
{ACAD_XDICTIONARY
360
10177
102
}
330
10041
100
AcDbTableStyle
  3
Standard
 70
     0
 71
     0
 40
0.06
 41
0.06
280
     0
281
     0
  7
STANDARD
140
4.5
170
     2
 62
     0
 63
   257
283
     0
 90
        4
 91
        0
  1

274
    -2
284
     1
 64
     0
275
    -2
285
     1
 65
     0
276
    -2
286
     1
 66
     0
277
    -2
287
     1
 67
     0
278
    -2
288
     1
 68
     0
279
    -2
289
     1
 69
     0
  7
STANDARD
140
6.0
170
     5
 62
     0
 63
   257
283
     0
 90
        4
 91
        0
  1

274
    -2
284
     1
 64
     0
275
    -2
285
     1
 65
     0
276
    -2
286
     1
 66
     0
277
    -2
287
     1
 67
     0
278
    -2
288
     1
 68
     0
279
    -2
289
     1
 69
     0
  7
STANDARD
140
4.5
170
     5
 62
     0
 63
   257
283
     0
 90
        4
 91
        0
  1

274
    -2
284
     1
 64
     0
275
    -2
285
     1
 65
     0
276
    -2
286
     1
 66
     0
277
    -2
287
     1
 67
     0
278
    -2
288
     1
 68
     0
279
    -2
289
     1
 69
     0
  0
VISUALSTYLE
  5
10029
102
{ACAD_REACTORS
330
10024
102
}
330
10024
100
AcDbVisualStyle
  2
2dWireframe
 70
     4
 71
     0
 72
     2
 73
     0
 90
        0
 40
0.6
 41
30.0
 62
     5
 63
     7
421
 16777215
 74
     1
 91
        4
 64
     7
 65
   257
 75
     1
175
     1
 42
1.0
 92
        0
 66
   257
 43
1.0
 76
     1
 77
     6
 78
     2
 67
     7
 79
     5
170
     0
171
     0
290
     0
174
     0
 93
        1
 44
0.0
173
     0
291
     0
 45
0.0
  0
VISUALSTYLE
  5
1002C
102
{ACAD_REACTORS
330
10024
102
}
330
10024
100
AcDbVisualStyle
  2
Basic
 70
     7
 71
     1
 72
     0
 73
     1
 90
        0
 40
0.6
 41
30.0
 62
     5
 63
     7
421
 16777215
 74
     0
 91
        4
 64
     7
 65
   257
 75
     1
175
     1
 42
1.0
 92
        8
 66
     7
 43
1.0
 76
     1
 77
     6
 78
     2
 67
     7
 79
     5
170
     0
171
     0
290
     0
174
     0
 93
        1
 44
0.0
173
     0
291
     1
 45
0.0
  0
VISUALSTYLE
  5
10030
102
{ACAD_REACTORS
330
10024
102
}
330
10024
100
AcDbVisualStyle
  2
Brighten
 70
    12
 71
     2
 72
     2
 73
     0
 90
        0
 40
0.6
 41
30.0
 62
     5
 63
     7
421
 16777215
 74
     1
 91
        4
 64
     7
 65
   257
 75
     1
175
     1
 42
1.0
 92
        8
 66
     7
 43
1.0
 76
     1
 77
     6
 78
     2
 67
     7
 79
     5
170
     0
171
     0
290
     0
174
     0
 93
        1
 44
50.0
173
     0
291
     1
 45
0.0
  0
VISUALSTYLE
  5
10034
102
{ACAD_REACTORS
330
10024
102
}
330
10024
100
AcDbVisualStyle
  2
ColorChange
 70
    16
 71
     2
 72
     2
 73
     3
 90
        0
 40
0.6
 41
30.0
 62
     5
 63
     8
421
  8421504
 74
     1
 91
        4
 64
     7
 65
   257
 75
     1
175
     1
 42
1.0
 92
        8
 66
     8
424
  8421504
 43
1.0
 76
     1
 77
     6
 78
     2
 67
     7
 79
     5
170
     0
171
     0
290
     0
174
     0
 93
        1
 44
0.0
173
     0
291
     1
 45
0.0
  0
VISUALSTYLE
  5
1002E
102
{ACAD_REACTORS
330
10024
102
}
330
10024
100
AcDbVisualStyle
  2
Conceptual
 70
     9
 71
     3
 72
     2
 73
     0
 90
        0
 40
0.6
 41
30.0
 62
     5
 63
     7
421
 16777215
 74
     2
 91
        2
 64
     7
 65
   257
 75
     1
175
     1
 42
179.0
 92
        8
 66
     7
 43
1.0
 76
     1
 77
     6
 78
     2
 67
     7
 79
     3
170
     0
171
     0
290
     0
174
     0
 93
        1
 44
0.0
173
     0
291
     0
 45
0.0
  0
VISUALSTYLE
  5
1002F
102
{ACAD_REACTORS
330
10024
102
}
330
10024
100
AcDbVisualStyle
  2
Dim
 70
    11
 71
     2
 72
     2
 73
     0
 90
        0
 40
0.6
 41
30.0
 62
     5
 63
     7
421
 16777215
 74
     1
 91
        4
 64
     7
 65
   257
 75
     1
175
     1
 42
1.0
 92
        8
 66
     7
 43
1.0
 76
     1
 77
     6
 78
     2
 67
     7
 79
     5
170
     0
171
     0
290
     0
174
     0
 93
        1
 44
-50.0
173
     0
291
     1
 45
0.0
  0
VISUALSTYLE
  5
10037
102
{ACAD_REACTORS
330
10024
102
}
330
10024
100
AcDbVisualStyle
  2
EdgeColorOff
 70
    22
 71
     2
 72
     2
 73
     0
 90
        0
 40
0.6
 41
30.0
 62
     5
 63
     7
421
 16777215
 74
     1
 91
        4
 64
     7
 65
   257
 75
     1
175
     1
 42
1.0
 92
        8
 66
     7
 43
1.0
 76
     1
 77
     6
 78
     2
 67
     7
 79
     5
170
     0
171
     0
290
     0
174
     0
 93
        1
 44
0.0
173
     0
291
     1
 45
0.0
  0
VISUALSTYLE
  5
10033
102
{ACAD_REACTORS
330
10024
102
}
330
10024
100
AcDbVisualStyle
  2
Facepattern
 70
    15
 71
     2
 72
     2
 73
     0
 90
        0
 40
0.6
 41
30.0
 62
     5
 63
     7
421
 16777215
 74
     1
 91
        4
 64
     7
 65
   257
 75
     1
175
     1
 42
1.0
 92
        8
 66
     7
 43
1.0
 76
     1
 77
     6
 78
     2
 67
     7
 79
     5
170
     0
171
     0
290
     0
174
     0
 93
        1
 44
0.0
173
     0
291
     1
 45
0.0
  0
VISUALSTYLE
  5
10025
102
{ACAD_REACTORS
330
10024
102
}
330
10024
100
AcDbVisualStyle
  2
Flat
 70
     0
 71
     2
 72
     1
 73
     1
 90
        2
 40
0.6
 41
30.0
 62
     5
 63
     7
421
 16777215
 74
     0
 91
        0
 64
     7
 65
   257
 75
     1
175
     1
 42
1.0
 92
        8
 66
     7
 43
1.0
 76
     1
 77
     6
 78
     2
 67
     7
 79
     5
170
     0
171
     0
290
     0
174
     0
 93
       13
 44
0.0
173
     0
291
     1
 45
0.0
  0
VISUALSTYLE
  5
10026
102
{ACAD_REACTORS
330
10024
102
}
330
10024
100
AcDbVisualStyle
  2
FlatWithEdges
 70
     1
 71
     2
 72
     1
 73
     1
 90
        2
 40
0.6
 41
30.0
 62
     5
 63
     7
421
 16777215
 74
     1
 91
        0
 64
     7
 65
   257
 75
     1
175
     1
 42
1.0
 92
        0
 66
   257
 43
1.0
 76
     1
 77
     6
 78
     2
 67
     7
 79
     5
170
     0
171
     0
290
     0
174
     0
 93
       13
 44
0.0
173
     0
291
     1
 45
0.0
  0
VISUALSTYLE
  5
10027
102
{ACAD_REACTORS
330
10024
102
}
330
10024
100
AcDbVisualStyle
  2
Gouraud
 70
     2
 71
     2
 72
     2
 73
     1
 90
        2
 40
0.6
 41
30.0
 62
     5
 63
     7
421
 16777215
 74
     0
 91
        0
 64
     7
 65
   257
 75
     1
175
     1
 42
1.0
 92
        0
 66
     7
 43
1.0
 76
     1
 77
     6
 78
     2
 67
     7
 79
     5
170
     0
171
     0
290
     0
174
     0
 93
       13
 44
0.0
173
     0
291
     1
 45
0.0
  0
VISUALSTYLE
  5
10028
102
{ACAD_REACTORS
330
10024
102
}
330
10024
100
AcDbVisualStyle
  2
GouraudWithEdges
 70
     3
 71
     2
 72
     2
 73
     1
 90
        2
 40
0.6
 41
30.0
 62
     5
 63
     7
421
 16777215
 74
     1
 91
        0
 64
     7
 65
   257
 75
     1
175
     1
 42
1.0
 92
        0
 66
   257
 43
1.0
 76
     1
 77
     6
 78
     2
 67
     7
 79
     5
170
     0
171
     0
290
     0
174
     0
 93
       13
 44
0.0
173
     0
291
     1
 45
0.0
  0
VISUALSTYLE
  5
1002B
102
{ACAD_REACTORS
330
10024
102
}
330
10024
100
AcDbVisualStyle
  2
Hidden
 70
     6
 71
     1
 72
     2
 73
     2
 90
        0
 40
0.6
 41
30.0
 62
     5
 63
     7
421
 16777215
 74
     2
 91
        2
 64
     7
 65
   257
 75
     2
175
     1
 42
40.0
 92
        0
 66
   257
 43
1.0
 76
     1
 77
     6
 78
     2
 67
     7
 79
     3
170
     0
171
     0
290
     0
174
     0
 93
        1
 44
0.0
173
     0
291
     0
 45
0.0
  0
VISUALSTYLE
  5
10035
102
{ACAD_REACTORS
330
10024
102
}
330
10024
100
AcDbVisualStyle
  2
JitterOff
 70
    20
 71
     2
 72
     2
 73
     0
 90
        0
 40
0.6
 41
30.0
 62
     5
 63
     7
421
 16777215
 74
     1
 91
        4
 64
     7
 65
   257
 75
     1
175
     1
 42
1.0
 92
       10
 66
     7
 43
1.0
 76
     1
 77
     6
 78
     2
 67
     7
 79
     5
170
     0
171
     0
290
     0
174
     0
 93
        1
 44
0.0
173
     0
291
     1
 45
0.0
  0
VISUALSTYLE
  5
10032
102
{ACAD_REACTORS
330
10024
102
}
330
10024
100
AcDbVisualStyle
  2
Linepattern
 70
    14
 71
     2
 72
     2
 73
     0
 90
        0
 40
0.6
 41
30.0
 62
     5
 63
     7
421
 16777215
 74
     1
 91
        4
 64
     7
 65
   257
 75
     7
175
     7
 42
1.0
 92
        8
 66
     7
 43
1.0
 76
     1
 77
     6
 78
     2
 67
     7
 79
     5
170
     0
171
     0
290
     0
174
     0
 93
        1
 44
0.0
173
     0
291
     1
 45
0.0
  0
VISUALSTYLE
  5
10036
102
{ACAD_REACTORS
330
10024
102
}
330
10024
100
AcDbVisualStyle
  2
OverhangOff
 70
    21
 71
     2
 72
     2
 73
     0
 90
        0
 40
0.6
 41
30.0
 62
     5
 63
     7
421
 16777215
 74
     1
 91
        4
 64
     7
 65
   257
 75
     1
175
     1
 42
1.0
 92
        9
 66
     7
 43
1.0
 76
     1
 77
     6
 78
     2
 67
     7
 79
     5
170
     0
171
     0
290
     0
174
     0
 93
        1
 44
0.0
173
     0
291
     1
 45
0.0
  0
VISUALSTYLE
  5
1002D
102
{ACAD_REACTORS
330
10024
102
}
330
10024
100
AcDbVisualStyle
  2
Realistic
 70
     8
 71
     2
 72
     3
 73
     0
 90
        2
 40
0.6
 41
30.0
 62
     5
 63
     7
421
 16777215
 74
     0
 91
        0
 64
     7
 65
   257
 75
     1
175
     1
 42
1.0
 92
        8
 66
   257
 43
1.0
 76
     1
 77
     6
 78
     2
 67
     7
 79
     3
170
     0
171
     0
290
     0
174
     0
 93
       13
 44
0.0
173
     0
291
     0
 45
0.0
  0
VISUALSTYLE
  5
1003C
102
{ACAD_REACTORS
330
10024
102
}
330
10024
100
AcDbVisualStyle
  2
Shaded
 70
    27
 71
     2
 72
     2
 73
     1
 90
        2
 40
0.6
 41
30.0
 62
     5
 63
     7
421
 16777215
 74
     0
 91
        4
 64
     7
 65
   257
 75
     1
175
     1
 42
1.0
 92
        8
 66
   257
 43
1.0
 76
     1
 77
     6
 78
     2
 67
     8
425
  7895160
 79
     3
170
     0
171
     0
290
     0
174
     0
 93
        5
 44
0.0
173
     0
291
     0
 45
0.0
  0
VISUALSTYLE
  5
1003B
102
{ACAD_REACTORS
330
10024
102
}
330
10024
100
AcDbVisualStyle
  2
Shaded with edges
 70
    26
 71
     2
 72
     2
 73
     1
 90
        2
 40
0.6
 41
30.0
 62
     5
 63
     7
421
 16777215
 74
     1
 91
       10
 64
     7
 65
   257
 75
     2
175
     1
 42
1.0
 92
        8
 66
   257
 43
1.0
 76
     1
 77
     6
 78
     2
 67
     7
 79
     3
170
     0
171
     0
290
     0
174
     0
 93
        5
 44
0.0
173
     0
291
     0
 45
0.0
  0
VISUALSTYLE
  5
10038
102
{ACAD_REACTORS
330
10024
102
}
330
10024
100
AcDbVisualStyle
  2
Shades of Gray
 70
    23
 71
     2
 72
     2
 73
     3
 90
        0
 40
0.6
 41
30.0
 62
     5
 63
     7
421
 16777215
 74
     2
 91
        2
 64
     7
 65
     7
 75
     1
175
     1
 42
40.0
 92
        8
 66
     7
 43
1.0
 76
     1
 77
     6
 78
     2
 67
     7
 79
     3
170
     0
171
     0
290
     0
174
     0
 93
        1
 44
0.0
173
     0
291
     0
 45
0.0
  0
VISUALSTYLE
  5
10039
102
{ACAD_REACTORS
330
10024
102
}
330
10024
100
AcDbVisualStyle
  2
Sketchy
 70
    24
 71
     1
 72
     2
 73
     2
 90
        0
 40
0.6
 41
30.0
 62
     5
 63
     7
421
 16777215
 74
     2
 91
        2
 64
     7
 65
     7
 75
     1
175
     1
 42
40.0
 92
       11
 66
     7
 43
1.0
 76
     1
 77
     6
 78
     2
 67
     7
 79
     6
170
     0
171
     0
290
     0
174
     0
 93
        1
 44
0.0
173
     0
291
     0
 45
0.0
  0
VISUALSTYLE
  5
10031
102
{ACAD_REACTORS
330
10024
102
}
330
10024
100
AcDbVisualStyle
  2
Thicken
 70
    13
 71
     2
 72
     2
 73
     0
 90
        0
 40
0.6
 41
30.0
 62
     5
 63
     7
421
 16777215
 74
     1
 91
        4
 64
     7
 65
   257
 75
     1
175
     1
 42
1.0
 92
       12
 66
     7
 43
1.0
 76
     1
 77
     6
 78
     2
 67
     7
 79
     5
170
     0
171
     0
290
     0
174
     0
 93
        1
 44
0.0
173
     0
291
     1
 45
0.0
  0
VISUALSTYLE
  5
1002A
102
{ACAD_REACTORS
330
10024
102
}
330
10024
100
AcDbVisualStyle
  2
Wireframe
 70
     5
 71
     0
 72
     2
 73
     0
 90
        0
 40
0.6
 41
30.0
 62
     5
 63
     7
421
 16777215
 74
     1
 91
        4
 64
     7
 65
   257
 75
     1
175
     1
 42
1.0
 92
        0
 66
   257
 43
1.0
 76
     1
 77
     6
 78
     2
 67
     7
 79
     3
170
     0
171
     0
290
     0
174
     0
 93
        1
 44
0.0
173
     0
291
     0
 45
0.0
  0
VISUALSTYLE
  5
1003A
102
{ACAD_REACTORS
330
10024
102
}
330
10024
100
AcDbVisualStyle
  2
X-Ray
 70
    25
 71
     2
 72
     2
 73
     1
 90
        1
 40
0.5
 41
30.0
 62
     5
 63
     7
421
 16777215
 74
     1
 91
        0
 64
     7
 65
   257
 75
     1
175
     1
 42
1.0
 92
        8
 66
     7
 43
1.0
 76
     1
 77
     6
 78
     2
 67
     7
 79
     3
170
     0
171
     0
290
     0
174
     0
 93
       13
 44
0.0
173
     0
291
     0
 45
0.0
  0
DICTIONARYVAR
  5
10128
102
{ACAD_REACTORS
330
10127
102
}
330
10127
100
DictionaryVariables
280
     0
  1
1:1
  0
DICTIONARYVAR
  5
1012E
102
{ACAD_REACTORS
330
10127
102
}
330
10127
100
DictionaryVariables
280
     0
  1
Standard
  0
DICTIONARYVAR
  5
1012D
102
{ACAD_REACTORS
330
10127
102
}
330
10127
100
DictionaryVariables
280
     0
  1
Standard
  0
DICTIONARYVAR
  5
1012F
102
{ACAD_REACTORS
330
10127
102
}
330
10127
100
DictionaryVariables
280
     0
  1
0
  0
DICTIONARYVAR
  5
1017A
102
{ACAD_REACTORS
330
10127
102
}
330
10127
100
DictionaryVariables
280
     0
  1
0
  0
DICTIONARY
  5
10177
330
10042
100
AcDbDictionary
280
     1
281
     1
  3
ACAD_ROUNDTRIP_2008_TABLESTYLE_CELLSTYLEMAP
360
10178
  0
CELLSTYLEMAP
  5
10178
102
{ACAD_REACTORS
330
10177
102
}
330
10177
100
AcDbCellStyleMap
 90
        3
300
CELLSTYLE
  1
TABLEFORMAT_BEGIN
 90
        5
170
     1
 91
        0
 92
    32768
 62
   257
 93
        1
300
CONTENTFORMAT
  1
CONTENTFORMAT_BEGIN
 90
        0
 91
        0
 92
        4
 93
        0
300

 40
0.0
140
1.0
 94
        5
 62
     0
340
11
144
6.0
309
CONTENTFORMAT_END
171
     1
301
MARGIN
  1
CELLMARGIN_BEGIN
 40
1.5
 40
1.5
 40
1.5
 40
1.5
 40
1.5
 40
1.5
309
CELLMARGIN_END
 94
        6
 95
        1
302
GRIDFORMAT
  1
GRIDFORMAT_BEGIN
 90
        0
 91
        1
 62
     0
 92
       -2
340
14
 93
        0
 40
0.045
309
GRIDFORMAT_END
 95
        2
302
GRIDFORMAT
  1
GRIDFORMAT_BEGIN
 90
        0
 91
        1
 62
     0
 92
       -2
340
14
 93
        0
 40
0.045
309
GRIDFORMAT_END
 95
        4
302
GRIDFORMAT
  1
GRIDFORMAT_BEGIN
 90
        0
 91
        1
 62
     0
 92
       -2
340
14
 93
        0
 40
0.045
309
GRIDFORMAT_END
 95
        8
302
GRIDFORMAT
  1
GRIDFORMAT_BEGIN
 90
        0
 91
        1
 62
     0
 92
       -2
340
14
 93
        0
 40
0.045
309
GRIDFORMAT_END
 95
       16
302
GRIDFORMAT
  1
GRIDFORMAT_BEGIN
 90
        0
 91
        1
 62
     0
 92
       -2
340
14
 93
        0
 40
0.045
309
GRIDFORMAT_END
 95
       32
302
GRIDFORMAT
  1
GRIDFORMAT_BEGIN
 90
        0
 91
        1
 62
     0
 92
       -2
340
14
 93
        0
 40
0.045
309
GRIDFORMAT_END
309
TABLEFORMAT_END
  1
CELLSTYLE_BEGIN
 90
        1
 91
        1
300
_TITLE
309
CELLSTYLE_END
300
CELLSTYLE
  1
TABLEFORMAT_BEGIN
 90
        5
170
     1
 91
        0
 92
        0
 62
   257
 93
        1
300
CONTENTFORMAT
  1
CONTENTFORMAT_BEGIN
 90
        0
 91
        0
 92
        4
 93
        0
300

 40
0.0
140
1.0
 94
        5
 62
     0
340
11
144
4.5
309
CONTENTFORMAT_END
171
     1
301
MARGIN
  1
CELLMARGIN_BEGIN
 40
1.5
 40
1.5
 40
1.5
 40
1.5
 40
1.5
 40
1.5
309
CELLMARGIN_END
 94
        6
 95
        1
302
GRIDFORMAT
  1
GRIDFORMAT_BEGIN
 90
        0
 91
        1
 62
     0
 92
       -2
340
14
 93
        0
 40
0.045
309
GRIDFORMAT_END
 95
        2
302
GRIDFORMAT
  1
GRIDFORMAT_BEGIN
 90
        0
 91
        1
 62
     0
 92
       -2
340
14
 93
        0
 40
0.045
309
GRIDFORMAT_END
 95
        4
302
GRIDFORMAT
  1
GRIDFORMAT_BEGIN
 90
        0
 91
        1
 62
     0
 92
       -2
340
14
 93
        0
 40
0.045
309
GRIDFORMAT_END
 95
        8
302
GRIDFORMAT
  1
GRIDFORMAT_BEGIN
 90
        0
 91
        1
 62
     0
 92
       -2
340
14
 93
        0
 40
0.045
309
GRIDFORMAT_END
 95
       16
302
GRIDFORMAT
  1
GRIDFORMAT_BEGIN
 90
        0
 91
        1
 62
     0
 92
       -2
340
14
 93
        0
 40
0.045
309
GRIDFORMAT_END
 95
       32
302
GRIDFORMAT
  1
GRIDFORMAT_BEGIN
 90
        0
 91
        1
 62
     0
 92
       -2
340
14
 93
        0
 40
0.045
309
GRIDFORMAT_END
309
TABLEFORMAT_END
  1
CELLSTYLE_BEGIN
 90
        2
 91
        1
300
_HEADER
309
CELLSTYLE_END
300
CELLSTYLE
  1
TABLEFORMAT_BEGIN
 90
        5
170
     1
 91
        0
 92
        0
 62
   257
 93
        1
300
CONTENTFORMAT
  1
CONTENTFORMAT_BEGIN
 90
        0
 91
        0
 92
        4
 93
        0
300

 40
0.0
140
1.0
 94
        2
 62
     0
340
11
144
4.5
309
CONTENTFORMAT_END
171
     1
301
MARGIN
  1
CELLMARGIN_BEGIN
 40
1.5
 40
1.5
 40
1.5
 40
1.5
 40
1.5
 40
1.5
309
CELLMARGIN_END
 94
        6
 95
        1
302
GRIDFORMAT
  1
GRIDFORMAT_BEGIN
 90
        0
 91
        1
 62
     0
 92
       -2
340
14
 93
        0
 40
0.045
309
GRIDFORMAT_END
 95
        2
302
GRIDFORMAT
  1
GRIDFORMAT_BEGIN
 90
        0
 91
        1
 62
     0
 92
       -2
340
14
 93
        0
 40
0.045
309
GRIDFORMAT_END
 95
        4
302
GRIDFORMAT
  1
GRIDFORMAT_BEGIN
 90
        0
 91
        1
 62
     0
 92
       -2
340
14
 93
        0
 40
0.045
309
GRIDFORMAT_END
 95
        8
302
GRIDFORMAT
  1
GRIDFORMAT_BEGIN
 90
        0
 91
        1
 62
     0
 92
       -2
340
14
 93
        0
 40
0.045
309
GRIDFORMAT_END
 95
       16
302
GRIDFORMAT
  1
GRIDFORMAT_BEGIN
 90
        0
 91
        1
 62
     0
 92
       -2
340
14
 93
        0
 40
0.045
309
GRIDFORMAT_END
 95
       32
302
GRIDFORMAT
  1
GRIDFORMAT_BEGIN
 90
        0
 91
        1
 62
     0
 92
       -2
340
14
 93
        0
 40
0.045
309
GRIDFORMAT_END
309
TABLEFORMAT_END
  1
CELLSTYLE_BEGIN
 90
        3
 91
        2
300
_DATA
309
CELLSTYLE_END
  0
ENDSEC
  0
EOF
