  0
SECTION
  2
HEADER
  9
$ACADVER
  1
AC1015
  9
$ACADMAINTVER
 70
     6
  9
$DWGCODEPAGE
  3
ANSI_1252
  9
$INSBASE
 10
0.0
 20
0.0
 30
0.0
  9
$EXTMIN
 10
-15.75055630281315
 20
0.0
 30
0.0
  9
$EXTMAX
 10
528.7782929813478
 20
688.7536710984001
 30
0.0
  9
$LIMMIN
 10
0.0
 20
0.0
  9
$LIMMAX
 10
0.0
 20
0.0
  9
$ORTHOMODE
 70
     0
  9
$REGENMODE
 70
     1
  9
$FILLMODE
 70
     1
  9
$QTEXTMODE
 70
     0
  9
$MIRRTEXT
 70
     0
  9
$LTSCALE
 40
1.0
  9
$ATTMODE
 70
     1
  9
$TEXTSIZE
 40
2.5
  9
$TRACEWID
 40
1.0
  9
$TEXTSTYLE
  7
Standard
  9
$CLAYER
  8
0
  9
$CELTYPE
  6
ByLayer
  9
$CECOLOR
 62
   256
  9
$CELTSCALE
 40
1.0
  9
$DISPSILH
 70
     0
  9
$DIMSCALE
 40
1.0
  9
$DIMASZ
 40
2.5
  9
$DIMEXO
 40
0.625
  9
$DIMDLI
 40
3.75
  9
$DIMRND
 40
0.0
  9
$DIMDLE
 40
0.0
  9
$DIMEXE
 40
1.25
  9
$DIMTP
 40
0.0
  9
$DIMTM
 40
0.0
  9
$DIMTXT
 40
2.5
  9
$DIMCEN
 40
2.5
  9
$DIMTSZ
 40
0.0
  9
$DIMTOL
 70
     0
  9
$DIMLIM
 70
     0
  9
$DIMTIH
 70
     0
  9
$DIMTOH
 70
     0
  9
$DIMSE1
 70
     0
  9
$DIMSE2
 70
     0
  9
$DIMTAD
 70
     1
  9
$DIMZIN
 70
     8
  9
$DIMBLK
  1

  9
$DIMASO
 70
     1
  9
$DIMSHO
 70
     1
  9
$DIMPOST
  1

  9
$DIMAPOST
  1

  9
$DIMALT
 70
     0
  9
$DIMALTD
 70
     3
  9
$DIMALTF
 40
0.03937007874016
  9
$DIMLFAC
 40
1.0
  9
$DIMTOFL
 70
     1
  9
$DIMTVP
 40
0.0
  9
$DIMTIX
 70
     0
  9
$DIMSOXD
 70
     0
  9
$DIMSAH
 70
     0
  9
$DIMBLK1
  1

  9
$DIMBLK2
  1

  9
$DIMSTYLE
  2
ISO-25
  9
$DIMCLRD
 70
     0
  9
$DIMCLRE
 70
     0
  9
$DIMCLRT
 70
     0
  9
$DIMTFAC
 40
1.0
  9
$DIMGAP
 40
0.625
  9
$DIMJUST
 70
     0
  9
$DIMSD1
 70
     0
  9
$DIMSD2
 70
     0
  9
$DIMTOLJ
 70
     0
  9
$DIMTZIN
 70
     8
  9
$DIMALTZ
 70
     0
  9
$DIMALTTZ
 70
     0
  9
$DIMUPT
 70
     0
  9
$DIMDEC
 70
     2
  9
$DIMTDEC
 70
     2
  9
$DIMALTU
 70
     2
  9
$DIMALTTD
 70
     3
  9
$DIMTXSTY
  7
Standard
  9
$DIMAUNIT
 70
     0
  9
$DIMADEC
 70
     0
  9
$DIMALTRND
 40
0.0
  9
$DIMAZIN
 70
     0
  9
$DIMDSEP
 70
    44
  9
$DIMATFIT
 70
     3
  9
$DIMFRAC
 70
     0
  9
$DIMLDRBLK
  1

  9
$DIMLUNIT
 70
     2
  9
$DIMLWD
 70
    -2
  9
$DIMLWE
 70
    -2
  9
$DIMTMOVE
 70
     0
  9
$LUNITS
 70
     2
  9
$LUPREC
 70
     4
  9
$SKETCHINC
 40
1.0
  9
$FILLETRAD
 40
0.0
  9
$AUNITS
 70
     0
  9
$AUPREC
 70
     0
  9
$MENU
  1
.
  9
$ELEVATION
 40
0.0
  9
$PELEVATION
 40
0.0
  9
$THICKNESS
 40
0.0
  9
$LIMCHECK
 70
     0
  9
$CHAMFERA
 40
0.0
  9
$CHAMFERB
 40
0.0
  9
$CHAMFERC
 40
0.0
  9
$CHAMFERD
 40
0.0
  9
$SKPOLY
 70
     0
  9
$TDCREATE
 40
2455239.706020775
  9
$TDUCREATE
 40
2455239.664354109
  9
$TDUPDATE
 40
2455239.706020799
  9
$TDUUPDATE
 40
2455239.664354132
  9
$TDINDWG
 40
0.0329099537
  9
$TDUSRTIMER
 40
0.032907581
  9
$USRTIMER
 70
     1
  9
$ANGBASE
 50
0.0
  9
$ANGDIR
 70
     0
  9
$PDMODE
 70
     0
  9
$PDSIZE
 40
0.0
  9
$PLINEWID
 40
0.0
  9
$SPLFRAME
 70
     0
  9
$SPLINETYPE
 70
     6
  9
$SPLINESEGS
 70
     8
  9
$HANDSEED
  5
372
  9
$SURFTAB1
 70
     6
  9
$SURFTAB2
 70
     6
  9
$SURFTYPE
 70
     6
  9
$SURFU
 70
     6
  9
$SURFV
 70
     6
  9
$UCSBASE
  2

  9
$UCSNAME
  2

  9
$UCSORG
 10
0.0
 20
0.0
 30
0.0
  9
$UCSXDIR
 10
1.0
 20
0.0
 30
0.0
  9
$UCSYDIR
 10
0.0
 20
1.0
 30
0.0
  9
$UCSORTHOREF
  2

  9
$UCSORTHOVIEW
 70
     0
  9
$UCSORGTOP
 10
0.0
 20
0.0
 30
0.0
  9
$UCSORGBOTTOM
 10
0.0
 20
0.0
 30
0.0
  9
$UCSORGLEFT
 10
0.0
 20
0.0
 30
0.0
  9
$UCSORGRIGHT
 10
0.0
 20
0.0
 30
0.0
  9
$UCSORGFRONT
 10
0.0
 20
0.0
 30
0.0
  9
$UCSORGBACK
 10
0.0
 20
0.0
 30
0.0
  9
$PUCSBASE
  2

  9
$PUCSNAME
  2

  9
$PUCSORG
 10
0.0
 20
0.0
 30
0.0
  9
$PUCSXDIR
 10
1.0
 20
0.0
 30
0.0
  9
$PUCSYDIR
 10
0.0
 20
1.0
 30
0.0
  9
$PUCSORTHOREF
  2

  9
$PUCSORTHOVIEW
 70
     0
  9
$PUCSORGTOP
 10
0.0
 20
0.0
 30
0.0
  9
$PUCSORGBOTTOM
 10
0.0
 20
0.0
 30
0.0
  9
$PUCSORGLEFT
 10
0.0
 20
0.0
 30
0.0
  9
$PUCSORGRIGHT
 10
0.0
 20
0.0
 30
0.0
  9
$PUCSORGFRONT
 10
0.0
 20
0.0
 30
0.0
  9
$PUCSORGBACK
 10
0.0
 20
0.0
 30
0.0
  9
$USERI1
 70
     0
  9
$USERI2
 70
     0
  9
$USERI3
 70
     0
  9
$USERI4
 70
     0
  9
$USERI5
 70
     0
  9
$USERR1
 40
0.0
  9
$USERR2
 40
0.0
  9
$USERR3
 40
0.0
  9
$USERR4
 40
0.0
  9
$USERR5
 40
0.0
  9
$WORLDVIEW
 70
     1
  9
$SHADEDGE
 70
     3
  9
$SHADEDIF
 70
    70
  9
$TILEMODE
 70
     1
  9
$MAXACTVP
 70
    64
  9
$PINSBASE
 10
0.0
 20
0.0
 30
0.0
  9
$PLIMCHECK
 70
     0
  9
$PEXTMIN
 10
0.0
 20
0.0
 30
0.0
  9
$PEXTMAX
 10
12.0
 20
9.0
 30
0.0
  9
$PLIMMIN
 10
0.0
 20
0.0
  9
$PLIMMAX
 10
12.0
 20
9.0
  9
$UNITMODE
 70
     0
  9
$VISRETAIN
 70
     1
  9
$PLINEGEN
 70
     0
  9
$PSLTSCALE
 70
     1
  9
$TREEDEPTH
 70
  3020
  9
$CMLSTYLE
  2
Standard
  9
$CMLJUST
 70
     0
  9
$CMLSCALE
 40
20.0
  9
$PROXYGRAPHICS
 70
     1
  9
$MEASUREMENT
 70
     1
  9
$CELWEIGHT
370
    -1
  9
$ENDCAPS
280
     0
  9
$JOINSTYLE
280
     0
  9
$LWDISPLAY
290
     0
  9
$INSUNITS
 70
     4
  9
$HYPERLINKBASE
  1

  9
$STYLESHEET
  1

  9
$XEDIT
290
     1
  9
$CEPSNTYPE
380
     0
  9
$PSTYLEMODE
290
     1
  9
$FINGERPRINTGUID
  2
{5559452E-1E62-4159-8551-BF76FFF3E7E8}
  9
$VERSIONGUID
  2
{3CEB9EF8-4431-4551-B596-6734A9F966A9}
  9
$EXTNAMES
290
     1
  9
$PSVPSCALE
 40
0.0
  9
$OLESTARTUP
290
     0
  0
ENDSEC
  0
SECTION
  2
CLASSES
  0
CLASS
  1
ACDBDICTIONARYWDFLT
  2
AcDbDictionaryWithDefault
  3
ObjectDBX Classes
 90
        0
280
     0
281
     0
  0
CLASS
  1
ACDBPLACEHOLDER
  2
AcDbPlaceHolder
  3
ObjectDBX Classes
 90
        0
280
     0
281
     0
  0
CLASS
  1
LAYOUT
  2
AcDbLayout
  3
ObjectDBX Classes
 90
        0
280
     0
281
     0
  0
CLASS
  1
DICTIONARYVAR
  2
AcDbDictionaryVar
  3
ObjectDBX Classes
 90
        0
280
     0
281
     0
  0
CLASS
  1
TABLESTYLE
  2
AcDbTableStyle
  3
ObjectDBX Classes
 90
     4095
280
     0
281
     0
  0
CLASS
  1
SCALE
  2
AcDbScale
  3
ObjectDBX Classes
 90
     1153
280
     0
281
     0
  0
ENDSEC
  0
SECTION
  2
TABLES
  0
TABLE
  2
VPORT
  5
8
330
0
100
AcDbSymbolTable
 70
     2
  0
VPORT
  5
97
330
8
100
AcDbSymbolTableRecord
100
AcDbViewportTableRecord
  2
*Active
 70
     0
 10
0.0
 20
0.0
 11
1.0
 21
1.0
 12
217.6358436842197
 22
273.7817372583412
 13
0.0
 23
0.0
 14
10.0
 24
10.0
 15
10.0
 25
10.0
 16
0.0
 26
0.0
 36
1.0
 17
0.0
 27
0.0
 37
0.0
 40
928.9046102474491
 41
1.664827586206897
 42
50.0
 43
0.0
 44
0.0
 50
0.0
 51
0.0
 71
     0
 72
  1000
 73
     1
 74
     3
 75
     0
 76
     0
 77
     0
 78
     0
281
     0
 65
     1
110
0.0
120
0.0
130
0.0
111
1.0
121
0.0
131
0.0
112
0.0
122
1.0
132
0.0
 79
     0
146
0.0
  0
ENDTAB
  0
TABLE
  2
LTYPE
  5
5
330
0
100
AcDbSymbolTable
 70
     8
  0
LTYPE
  5
14
330
5
100
AcDbSymbolTableRecord
100
AcDbLinetypeTableRecord
  2
ByBlock
 70
     0
  3

 72
    65
 73
     0
 40
0.0
  0
LTYPE
  5
15
330
5
100
AcDbSymbolTableRecord
100
AcDbLinetypeTableRecord
  2
ByLayer
 70
     0
  3

 72
    65
 73
     0
 40
0.0
  0
LTYPE
  5
16
330
5
100
AcDbSymbolTableRecord
100
AcDbLinetypeTableRecord
  2
Continuous
 70
     0
  3
Solid line
 72
    65
 73
     0
 40
0.0
  0
LTYPE
  5
33D
330
5
100
AcDbSymbolTableRecord
100
AcDbLinetypeTableRecord
  2
DASHED
 70
     0
  3
__ __ __ __ __ __ __ __ __ __ __ __ __ __ __ __
 72
    65
 73
     2
 40
15.0
 49
12.0
 74
     0
 49
-3.0
 74
     0
  0
LTYPE
  5
33E
330
5
100
AcDbSymbolTableRecord
100
AcDbLinetypeTableRecord
  2
DASHDOT
 70
     0
  3
 __ . __ . __ . __ . __ . __ . __ . 
 72
    65
 73
     4
 40
18.5
 49
12.0
 74
     0
 49
-3.0
 74
     0
 49
0.5
 74
     0
 49
-3.0
 74
     0
  0
LTYPE
  5
33F
330
5
100
AcDbSymbolTableRecord
100
AcDbLinetypeTableRecord
  2
DOT
 70
     0
  3
 . . . . . . . . . . . . . . . .
 72
    65
 73
     2
 40
3.5
 49
0.5
 74
     0
 49
-3.0
 74
     0
  0
LTYPE
  5
340
330
5
100
AcDbSymbolTableRecord
100
AcDbLinetypeTableRecord
  2
DASHSPACE
 70
     0
  3
__    __    __    __    __   
 72
    65
 73
     2
 40
30.0
 49
12.0
 74
     0
 49
-18.0
 74
     0
  0
LTYPE
  5
341
330
5
100
AcDbSymbolTableRecord
100
AcDbLinetypeTableRecord
  2
DASHDOT2
 70
     0
  3
__ . . __ . . __ . . __ 
 72
    65
 73
     6
 40
22.0
 49
12.0
 74
     0
 49
-3.0
 74
     0
 49
0.5
 74
     0
 49
-3.0
 74
     0
 49
0.5
 74
     0
 49
-3.0
 74
     0
  0
LTYPE
  5
342
330
5
100
AcDbSymbolTableRecord
100
AcDbLinetypeTableRecord
  2
PHANTOM
 70
     0
  3
____________    ____    ____   _
 72
    65
 73
     6
 40
20.0
 49
10.0
 74
     0
 49
-2.0
 74
     0
 49
2.0
 74
     0
 49
-2.0
 74
     0
 49
2.0
 74
     0
 49
-2.0
 74
     0
  0
LTYPE
  5
343
330
5
100
AcDbSymbolTableRecord
100
AcDbLinetypeTableRecord
  2
AXES
 70
     0
  3
________  __  ________  __  _____
 72
    65
 73
     4
 40
24.0
 49
15.0
 74
     0
 49
-3.0
 74
     0
 49
3.0
 74
     0
 49
-3.0
 74
     0
  0
ENDTAB
  0
TABLE
  2
LAYER
  5
2
330
0
100
AcDbSymbolTable
 70
     4
  0
LAYER
  5
10
330
2
100
AcDbSymbolTableRecord
100
AcDbLayerTableRecord
  2
0
 70
     0
 62
     7
  6
Continuous
370
    -3
390
F
  0
LAYER
  5
101
330
2
100
AcDbSymbolTableRecord
100
AcDbLayerTableRecord
  2
2
 70
     0
 62
     7
  6
Continuous
370
    13
390
F
  0
LAYER
  5
102
330
2
100
AcDbSymbolTableRecord
100
AcDbLayerTableRecord
  2
3
 70
     0
 62
     7
  6
Continuous
370
    13
390
F
  0
LAYER
  5
103
330
2
100
AcDbSymbolTableRecord
100
AcDbLayerTableRecord
  2
DEFPOINTS
 70
     0
 62
     7
  6
Continuous
290
     0
370
    -3
390
F
  0
ENDTAB
  0
TABLE
  2
STYLE
  5
3
330
0
100
AcDbSymbolTable
 70
     2
  0
STYLE
  5
11
330
3
100
AcDbSymbolTableRecord
100
AcDbTextStyleTableRecord
  2
Standard
 70
     0
 40
0.0
 41
1.0
 50
0.0
 71
     0
 42
2.5
  3
txt
  4

  0
STYLE
  5
F9
330
3
100
AcDbSymbolTableRecord
100
AcDbTextStyleTableRecord
  2
GDT
 70
     0
 40
0.0
 41
1.0
 50
0.0
 71
     0
 42
0.2
  3
amgdt.shx
  4

  0
ENDTAB
  0
TABLE
  2
VIEW
  5
6
330
0
100
AcDbSymbolTable
 70
     0
  0
ENDTAB
  0
TABLE
  2
UCS
  5
7
330
0
100
AcDbSymbolTable
 70
     0
  0
ENDTAB
  0
TABLE
  2
APPID
  5
9
330
0
100
AcDbSymbolTable
 70
     3
  0
APPID
  5
12
330
9
100
AcDbSymbolTableRecord
100
AcDbRegAppTableRecord
  2
ACAD
 70
     0
  0
APPID
  5
33B
330
9
100
AcDbSymbolTableRecord
100
AcDbRegAppTableRecord
  2
PROGE_PRINT_SETTINGS
 70
     0
  0
APPID
  5
33C
330
9
100
AcDbSymbolTableRecord
100
AcDbRegAppTableRecord
  2
Conv5506CA
 70
     0
  0
ENDTAB
  0
TABLE
  2
DIMSTYLE
  5
A
330
0
100
AcDbSymbolTable
 70
     2
100
AcDbDimStyleTable
  0
DIMSTYLE
105
27
330
A
100
AcDbSymbolTableRecord
100
AcDbDimStyleTableRecord
  2
Standard
 70
     0
278
     0
340
11
  0
DIMSTYLE
105
29
102
{ACAD_REACTORS
330
2D5
330
2F7
102
}
330
A
100
AcDbSymbolTableRecord
100
AcDbDimStyleTableRecord
  2
ISO-25
 70
     0
 41
2.5
 42
0.625
 43
3.75
 44
1.25
 73
     0
 74
     0
 77
     1
 78
     8
140
2.5
141
2.5
143
0.03937007874016
147
0.625
171
     3
172
     1
271
     2
272
     2
274
     3
278
    44
283
     0
284
     8
340
11
  0
ENDTAB
  0
TABLE
  2
BLOCK_RECORD
  5
1
330
0
100
AcDbSymbolTable
 70
    19
  0
BLOCK_RECORD
  5
1F
330
1
100
AcDbSymbolTableRecord
100
AcDbBlockTableRecord
  2
*Model_Space
340
22
  0
BLOCK_RECORD
  5
73
330
1
100
AcDbSymbolTableRecord
100
AcDbBlockTableRecord
  2
*Paper_Space
340
345
  0
BLOCK_RECORD
  5
D1
330
1
100
AcDbSymbolTableRecord
100
AcDbBlockTableRecord
  2
*Paper_Space0
340
74
  0
BLOCK_RECORD
  5
108
330
1
100
AcDbSymbolTableRecord
100
AcDbBlockTableRecord
  2
Block0
340
0
  0
BLOCK_RECORD
  5
111
330
1
100
AcDbSymbolTableRecord
100
AcDbBlockTableRecord
  2
*D2
340
0
  0
BLOCK_RECORD
  5
11B
330
1
100
AcDbSymbolTableRecord
100
AcDbBlockTableRecord
  2
*D3
340
0
  0
BLOCK_RECORD
  5
126
330
1
100
AcDbSymbolTableRecord
100
AcDbBlockTableRecord
  2
*D4
340
0
  0
BLOCK_RECORD
  5
131
330
1
100
AcDbSymbolTableRecord
100
AcDbBlockTableRecord
  2
*D5
340
0
  0
BLOCK_RECORD
  5
1F9
330
1
100
AcDbSymbolTableRecord
100
AcDbBlockTableRecord
  2
*D6
340
0
  0
BLOCK_RECORD
  5
206
330
1
100
AcDbSymbolTableRecord
100
AcDbBlockTableRecord
  2
*D7
340
0
  0
BLOCK_RECORD
  5
2C7
330
1
100
AcDbSymbolTableRecord
100
AcDbBlockTableRecord
  2
*D8
340
0
  0
BLOCK_RECORD
  5
2D4
330
1
100
AcDbSymbolTableRecord
100
AcDbBlockTableRecord
  2
*D9
340
0
  0
BLOCK_RECORD
  5
2E0
330
1
100
AcDbSymbolTableRecord
100
AcDbBlockTableRecord
  2
*D10
340
0
  0
BLOCK_RECORD
  5
2EB
330
1
100
AcDbSymbolTableRecord
100
AcDbBlockTableRecord
  2
*D11
340
0
  0
BLOCK_RECORD
  5
2F6
330
1
100
AcDbSymbolTableRecord
100
AcDbBlockTableRecord
  2
*D12
340
0
  0
BLOCK_RECORD
  5
302
330
1
100
AcDbSymbolTableRecord
100
AcDbBlockTableRecord
  2
*D13
340
0
  0
BLOCK_RECORD
  5
30D
330
1
100
AcDbSymbolTableRecord
100
AcDbBlockTableRecord
  2
*D14
340
0
  0
BLOCK_RECORD
  5
318
330
1
100
AcDbSymbolTableRecord
100
AcDbBlockTableRecord
  2
*D15
340
0
  0
BLOCK_RECORD
  5
323
330
1
100
AcDbSymbolTableRecord
100
AcDbBlockTableRecord
  2
*D16
340
0
  0
BLOCK_RECORD
  5
32E
330
1
100
AcDbSymbolTableRecord
100
AcDbBlockTableRecord
  2
*D17
340
0
  0
BLOCK_RECORD
  5
339
330
1
100
AcDbSymbolTableRecord
100
AcDbBlockTableRecord
  2
*D18
340
0
  0
ENDTAB
  0
ENDSEC
  0
SECTION
  2
BLOCKS
  0
BLOCK
  5
20
330
1F
100
AcDbEntity
  8
0
100
AcDbBlockBegin
  2
*Model_Space
 70
     0
 10
0.0
 20
0.0
 30
0.0
  3
*Model_Space
  1

  0
ENDBLK
  5
21
330
1F
100
AcDbEntity
  8
0
100
AcDbBlockEnd
  0
BLOCK
  5
75
330
73
100
AcDbEntity
 67
     1
  8
0
100
AcDbBlockBegin
  2
*Paper_Space
 70
     0
 10
0.0
 20
0.0
 30
0.0
  3
*Paper_Space
  1

  0
ENDBLK
  5
76
330
73
100
AcDbEntity
 67
     1
  8
0
100
AcDbBlockEnd
  0
BLOCK
  5
346
330
D1
100
AcDbEntity
  8
0
100
AcDbBlockBegin
  2
*Paper_Space0
 70
     0
 10
0.0
 20
0.0
 30
0.0
  3
*Paper_Space0
  1

  0
VIEWPORT
  5
36C
330
D1
100
AcDbEntity
  8
0
100
AcDbViewport
 10
7.8
 20
4.5
 30
0.0
 40
15.64
 41
9.0
 68
     1
 69
     1
 12
6.0
 22
4.5
 13
0.0
 23
0.0
 14
0.5
 24
0.5
 15
0.5
 25
0.5
 16
0.0
 26
0.0
 36
1.0
 17
0.0
 27
0.0
 37
0.0
 42
50.0
 43
0.0
 44
0.0
 45
12.0
 50
0.0
 51
0.0
 72
   100
 90
   557152
  1

281
     0
 71
     1
 74
     0
110
0.0
120
0.0
130
0.0
111
1.0
121
0.0
131
0.0
112
0.0
122
1.0
132
0.0
 79
     0
146
0.0
  0
ENDBLK
  5
347
330
D1
100
AcDbEntity
  8
0
100
AcDbBlockEnd
  0
BLOCK
  5
348
330
108
100
AcDbEntity
  8
0
100
AcDbBlockBegin
  2
Block0
 70
     0
 10
0.0
 20
0.0
 30
0.0
  3
Block0
  1

  0
TEXT
  5
105
330
108
100
AcDbEntity
  8
0
 62
     7
370
    13
390
F
100
AcDbText
 10
27.454029
 20
396.083923
 30
0.0
 40
14.0
  1
      HERCULES
 41
0.6174961343825666
 72
     5
 11
197.471298
 21
396.083923
 31
0.0
100
AcDbText
  0
TEXT
  5
106
330
108
100
AcDbEntity
  8
0
 62
     7
370
    13
390
F
100
AcDbText
 10
27.454029
 20
371.896606
 30
0.0
 40
14.0
  1
 OTTICA TRASPARENTE
 41
0.8524792352216748
 72
     5
 11
258.191742
 21
371.896606
 31
0.0
100
AcDbText
  0
ENDBLK
  5
349
330
108
100
AcDbEntity
  8
0
100
AcDbBlockEnd
  0
BLOCK
  5
34A
330
111
100
AcDbEntity
  8
0
100
AcDbBlockBegin
  2
*D2
 70
     1
 10
0.0
 20
0.0
 30
0.0
  3
*D2
  1

  0
TEXT
  5
10A
330
111
100
AcDbEntity
  8
2
 62
    34
370
    13
390
F
100
AcDbText
 10
17.184576
 20
193.822163
 30
0.0
 40
2.5
  1
530
 50
90.0
 41
1.200922880000003
 72
     5
 11
17.184576
 21
201.327931
 31
0.0
100
AcDbText
  0
LINE
  5
10B
330
111
100
AcDbEntity
  8
2
 62
    34
 48
0.262821
370
    13
390
F
100
AcDbLine
 10
27.697432
 20
78.77264
 30
0.0
 11
17.184576
 21
78.77264
 31
0.0
  0
LINE
  5
10C
330
111
100
AcDbEntity
  8
2
 62
    34
370
    13
390
F
100
AcDbLine
 10
146.499987
 20
341.742008
 30
0.0
 11
17.184576
 21
341.742008
 31
0.0
  0
LWPOLYLINE
  5
10D
330
111
100
AcDbEntity
  8
2
 62
    34
370
    13
390
F
100
AcDbPolyline
 90
        3
 70
     0
 43
0.0
 10
19.702215
 20
339.810154
 10
19.184576
 20
341.742008
 10
18.666939
 20
339.810154
  0
LWPOLYLINE
  5
10E
330
111
100
AcDbEntity
  8
2
 62
    34
370
    13
390
F
100
AcDbPolyline
 90
        3
 70
     0
 43
0.0
 10
18.666939
 20
80.704495
 10
19.184576
 20
78.77264
 10
19.702215
 20
80.704495
  0
LINE
  5
10F
330
111
100
AcDbEntity
  8
2
 62
    34
370
    13
390
F
100
AcDbLine
 10
19.184576
 20
78.77264
 30
0.0
 11
19.184576
 21
341.742008
 31
0.0
  0
ENDBLK
  5
34B
330
111
100
AcDbEntity
  8
0
100
AcDbBlockEnd
  0
BLOCK
  5
34C
330
11B
100
AcDbEntity
  8
0
100
AcDbBlockBegin
  2
*D3
 70
     1
 10
0.0
 20
0.0
 30
0.0
  3
*D3
  1

  0
TEXT
  5
113
330
11B
100
AcDbEntity
  8
2
 62
    34
370
    13
390
F
100
AcDbText
 10
146.497103
 20
56.877979
 30
0.0
 40
2.5
  1
470
 41
1.200922879999998
 72
     5
 11
154.002871
 21
56.877979
 31
0.0
100
AcDbText
  0
TEXT
  5
114
330
11B
100
AcDbEntity
  8
2
 62
    34
370
    13
390
F
100
AcDbText
 10
142.997103
 20
56.877979
 30
0.0
 40
2.5
  1
%%c
 41
1.5
 72
     5
 11
145.497103
 21
56.877979
 31
0.0
100
AcDbText
  0
LINE
  5
115
330
11B
100
AcDbEntity
  8
2
 62
    34
370
    13
390
F
100
AcDbLine
 10
29.697432
 20
76.77264
 30
0.0
 11
29.697432
 21
52.877979
 31
0.0
  0
LINE
  5
116
330
11B
100
AcDbEntity
  8
2
 62
    34
370
    13
390
F
100
AcDbLine
 10
267.302553
 20
76.77264
 30
0.0
 11
267.302553
 21
52.877979
 31
0.0
  0
LWPOLYLINE
  5
117
330
11B
100
AcDbEntity
  8
2
 62
    34
370
    13
390
F
100
AcDbPolyline
 90
        3
 70
     0
 43
0.0
 10
265.370699
 20
54.36034
 10
267.302553
 20
54.877979
 10
265.370699
 20
55.395615
  0
LWPOLYLINE
  5
118
330
11B
100
AcDbEntity
  8
2
 62
    34
370
    13
390
F
100
AcDbPolyline
 90
        3
 70
     0
 43
0.0
 10
31.629282
 20
55.395615
 10
29.697432
 20
54.877979
 10
31.629282
 20
54.36034
  0
LINE
  5
119
330
11B
100
AcDbEntity
  8
2
 62
    34
370
    13
390
F
100
AcDbLine
 10
29.697432
 20
54.877979
 30
0.0
 11
267.302553
 21
54.877979
 31
0.0
  0
ENDBLK
  5
34D
330
11B
100
AcDbEntity
  8
0
100
AcDbBlockEnd
  0
BLOCK
  5
34E
330
126
100
AcDbEntity
  8
0
100
AcDbBlockBegin
  2
*D4
 70
     1
 10
0.0
 20
0.0
 30
0.0
  3
*D4
  1

  0
POINT
  5
11D
330
126
100
AcDbEntity
  8
DEFPOINTS
  6
ByBlock
 62
     0
380
     1
100
AcDbPoint
 10
43.87338229598095
 20
341.742008
 30
0.0
  0
POINT
  5
11E
330
126
100
AcDbEntity
  8
DEFPOINTS
  6
ByBlock
 62
     0
380
     1
100
AcDbPoint
 10
22.441004
 20
78.77264
 30
0.0
  0
LINE
  5
11F
330
126
100
AcDbEntity
  8
0
  6
ByBlock
 62
     0
370
    -2
380
     1
100
AcDbLine
 10
43.24838229598095
 20
341.742008
 30
0.0
 11
-7.909221551988693
 21
341.742008
 31
0.0
  0
LINE
  5
120
330
126
100
AcDbEntity
  8
0
  6
ByBlock
 62
     0
370
    -2
380
     1
100
AcDbLine
 10
21.816004
 20
78.77263999999997
 30
0.0
 11
-7.909221551988693
 21
78.77263999999997
 31
0.0
  0
LINE
  5
121
330
126
100
AcDbEntity
  8
0
  6
ByBlock
 62
     0
370
    -2
380
     1
100
AcDbLine
 10
-6.659221551988693
 20
339.242008
 30
0.0
 11
-6.659221551988693
 21
81.27263999999997
 31
0.0
  0
SOLID
  5
122
330
126
100
AcDbEntity
  8
0
  6
ByBlock
 62
     0
380
     1
100
AcDbTrace
 10
-6.659221551988693
 20
341.742008
 30
0.0
 11
-7.075888218655358
 21
339.242008
 31
0.0
 12
-6.242554885322029
 22
339.242008
 32
0.0
 13
-6.242554885322029
 23
339.242008
 33
0.0
  0
SOLID
  5
123
330
126
100
AcDbEntity
  8
0
  6
ByBlock
 62
     0
380
     1
100
AcDbTrace
 10
-6.659221551988693
 20
78.77263999999997
 30
0.0
 11
-7.075888218655358
 21
81.27263999999997
 31
0.0
 12
-6.242554885322029
 22
81.27263999999997
 32
0.0
 13
-6.242554885322029
 23
81.27263999999997
 33
0.0
  0
MTEXT
  5
124
330
126
100
AcDbEntity
  8
0
  6
ByBlock
 62
     0
370
    -2
380
     1
100
AcDbMText
 10
-8.659825750763304
 20
210.257324
 30
0.0
 40
2.5
 41
0.0
 71
     5
 72
     1
  1
\A1;262,97
 11
6.123031769111886E-17
 21
1.0
 31
0.0
 73
     1
 44
1.0
  0
ENDBLK
  5
34F
330
126
100
AcDbEntity
  8
0
100
AcDbBlockEnd
  0
BLOCK
  5
350
330
131
100
AcDbEntity
  8
0
100
AcDbBlockBegin
  2
*D5
 70
     1
 10
0.0
 20
0.0
 30
0.0
  3
*D5
  1

  0
POINT
  5
128
330
131
100
AcDbEntity
  8
DEFPOINTS
  6
ByBlock
 62
     0
380
     1
100
AcDbPoint
 10
29.7195265
 20
80.0379145
 30
0.0
  0
POINT
  5
129
330
131
100
AcDbEntity
  8
DEFPOINTS
  6
ByBlock
 62
     0
380
     1
100
AcDbPoint
 10
267.302523
 20
79.49518599999999
 30
0.0
  0
LINE
  5
12A
330
131
100
AcDbEntity
  8
0
  6
ByBlock
 62
     0
370
    -2
380
     1
100
AcDbLine
 10
29.7195265
 20
79.4129145
 30
0.0
 11
29.7195265
 21
44.40982551647349
 31
0.0
  0
LINE
  5
12B
330
131
100
AcDbEntity
  8
0
  6
ByBlock
 62
     0
370
    -2
380
     1
100
AcDbLine
 10
267.302523
 20
78.87018599999999
 30
0.0
 11
267.302523
 21
44.40982551647349
 31
0.0
  0
LINE
  5
12C
330
131
100
AcDbEntity
  8
0
  6
ByBlock
 62
     0
370
    -2
380
     1
100
AcDbLine
 10
32.2195265
 20
45.65982551647349
 30
0.0
 11
264.802523
 21
45.65982551647349
 31
0.0
  0
SOLID
  5
12D
330
131
100
AcDbEntity
  8
0
  6
ByBlock
 62
     0
380
     1
100
AcDbTrace
 10
29.7195265
 20
45.65982551647349
 30
0.0
 11
32.2195265
 21
45.24315884980683
 31
0.0
 12
32.2195265
 22
46.07649218314015
 32
0.0
 13
32.2195265
 23
46.07649218314015
 33
0.0
  0
SOLID
  5
12E
330
131
100
AcDbEntity
  8
0
  6
ByBlock
 62
     0
380
     1
100
AcDbTrace
 10
267.302523
 20
45.65982551647349
 30
0.0
 11
264.802523
 21
45.24315884980683
 31
0.0
 12
264.802523
 22
46.07649218314015
 32
0.0
 13
264.802523
 23
46.07649218314015
 33
0.0
  0
MTEXT
  5
12F
330
131
100
AcDbEntity
  8
0
  6
ByBlock
 62
     0
370
    -2
380
     1
100
AcDbMText
 10
148.51102475
 20
47.65982551647349
 30
0.0
 40
2.5
 41
0.0
 71
     5
 72
     1
  1
\A1;237,58
 73
     1
 44
1.0
  0
ENDBLK
  5
351
330
131
100
AcDbEntity
  8
0
100
AcDbBlockEnd
  0
BLOCK
  5
352
330
1F9
100
AcDbEntity
  8
0
100
AcDbBlockBegin
  2
*D6
 70
     1
 10
0.0
 20
0.0
 30
0.0
  3
*D6
  1

  0
POINT
  5
1EF
330
1F9
100
AcDbEntity
  8
DEFPOINTS
  6
ByBlock
 62
     0
380
     1
100
AcDbPoint
 10
58.74745800420001
 20
158.7583847022
 30
0.0
  0
POINT
  5
1F0
330
1F9
100
AcDbEntity
  8
DEFPOINTS
  6
ByBlock
 62
     0
380
     1
100
AcDbPoint
 10
293.7626742834
 20
688.7468489694
 30
0.0
  0
LINE
  5
1F1
330
1F9
100
AcDbEntity
  8
0
  6
ByBlock
 62
     0
370
    -2
380
     1
100
AcDbLine
 10
58.68495800420634
 20
158.7583857332484
 30
0.0
 11
37.76659741631864
 21
158.7587308187404
 31
0.0
  0
LINE
  5
1F2
330
1F9
100
AcDbEntity
  8
0
  6
ByBlock
 62
     0
370
    -2
380
     1
100
AcDbLine
 10
293.7001742834063
 20
688.7468500004484
 30
0.0
 11
37.77092827770278
 21
688.7510720076846
 31
0.0
  0
LINE
  5
1F3
330
1F9
100
AcDbEntity
  8
0
  6
ByBlock
 62
     0
370
    -2
380
     1
100
AcDbLine
 10
37.94659888718022
 20
158.9387278493149
 30
0.0
 11
37.94854979708666
 21
397.6827598202186
 31
0.0
  0
LINE
  5
1F4
330
1F9
100
AcDbEntity
  8
0
  6
ByBlock
 62
     0
370
    -2
380
     1
100
AcDbLine
 10
37.9509268068047
 20
688.5710690382712
 30
0.0
 11
37.94855813207241
 21
398.7027598201845
 31
0.0
  0
SOLID
  5
1F5
330
1F9
100
AcDbEntity
  8
0
  6
ByBlock
 62
     0
380
     1
100
AcDbTrace
 10
37.94659741630038
 20
158.7587278493209
 30
0.0
 11
37.97659888717922
 21
158.9387276041683
 31
0.0
 12
37.91659888718122
 22
158.9387280944615
 32
0.0
 13
37.91659888718122
 23
158.9387280944615
 33
0.0
  0
SOLID
  5
1F6
330
1F9
100
AcDbEntity
  8
0
  6
ByBlock
 62
     0
380
     1
100
AcDbTrace
 10
37.95092827768455
 20
688.7510690382652
 30
0.0
 11
37.9809268068037
 21
688.5710687931246
 31
0.0
 12
37.9209268068057
 22
688.5710692834178
 32
0.0
 13
37.9209268068057
 23
688.5710692834178
 33
0.0
  0
MTEXT
  5
1F7
330
1F9
100
AcDbEntity
  8
0
  6
ByBlock
 62
     0
370
    -2
380
     1
100
AcDbMText
 10
37.94855396457953
 20
398.1927598202015
 30
0.0
 40
0.18
 41
0.0
 71
     5
 72
     1
  1
530,00
 73
     1
 44
1.0
  0
ENDBLK
  5
353
330
1F9
100
AcDbEntity
  8
0
100
AcDbBlockEnd
  0
BLOCK
  5
354
330
206
100
AcDbEntity
  8
0
100
AcDbBlockBegin
  2
*D7
 70
     1
 10
0.0
 20
0.0
 30
0.0
  3
*D7
  1

  0
POINT
  5
1FC
330
206
100
AcDbEntity
  8
DEFPOINTS
  6
ByBlock
 62
     0
380
     1
100
AcDbPoint
 10
58.74745800420001
 20
158.7583847022
 30
0.0
  0
POINT
  5
1FD
330
206
100
AcDbEntity
  8
DEFPOINTS
  6
ByBlock
 62
     0
380
     1
100
AcDbPoint
 10
528.7778905626001
 20
158.7583847022
 30
0.0
  0
LINE
  5
1FE
330
206
100
AcDbEntity
  8
0
  6
ByBlock
 62
     0
370
    -2
380
     1
100
AcDbLine
 10
58.74745852452629
 20
158.6958847022
 30
0.0
 11
58.74786042294772
 21
110.4210768612
 31
0.0
  0
LINE
  5
1FF
330
206
100
AcDbEntity
  8
0
  6
ByBlock
 62
     0
370
    -2
380
     1
100
AcDbLine
 10
528.7778910829264
 20
158.6958847022
 30
0.0
 11
528.7782929813478
 21
110.4210768612
 31
0.0
  0
LINE
  5
200
330
206
100
AcDbEntity
  8
0
  6
ByBlock
 62
     0
370
    -2
380
     1
100
AcDbLine
 10
58.92785892440803
 20
110.6010768612
 30
0.0
 11
293.1626742834
 21
110.6010768612
 31
0.0
  0
LINE
  5
201
330
206
100
AcDbEntity
  8
0
  6
ByBlock
 62
     0
370
    -2
380
     1
100
AcDbLine
 10
528.5982914828081
 20
110.6010768612
 30
0.0
 11
294.3626742834
 21
110.6010768612
 31
0.0
  0
SOLID
  5
202
330
206
100
AcDbEntity
  8
0
  6
ByBlock
 62
     0
380
     1
100
AcDbTrace
 10
58.74785892440803
 20
110.6010768612
 30
0.0
 11
58.92785892440803
 21
110.5710768612
 31
0.0
 12
58.92785892440803
 22
110.6310768612
 32
0.0
 13
58.92785892440803
 23
110.6310768612
 33
0.0
  0
SOLID
  5
203
330
206
100
AcDbEntity
  8
0
  6
ByBlock
 62
     0
380
     1
100
AcDbTrace
 10
528.7782914828081
 20
110.6010768612
 30
0.0
 11
528.5982914828081
 21
110.5710768612
 31
0.0
 12
528.5982914828081
 22
110.6310768612
 32
0.0
 13
528.5982914828081
 23
110.6310768612
 33
0.0
  0
MTEXT
  5
204
330
206
100
AcDbEntity
  8
0
  6
ByBlock
 62
     0
370
    -2
380
     1
100
AcDbMText
 10
293.7626742834
 20
110.6010768612
 30
0.0
 40
0.18
 41
0.0
 71
     5
 72
     1
  1
%%c470,00
 73
     1
 44
1.0
  0
ENDBLK
  5
355
330
206
100
AcDbEntity
  8
0
100
AcDbBlockEnd
  0
BLOCK
  5
356
330
2C7
100
AcDbEntity
  8
0
100
AcDbBlockBegin
  2
*D8
 70
     1
 10
0.0
 20
0.0
 30
0.0
  3
*D8
  1

  0
POINT
  5
2BD
330
2C7
100
AcDbEntity
  8
DEFPOINTS
  6
ByBlock
 62
     0
380
     1
100
AcDbPoint
 10
86.79032485790952
 20
688.7468429232
 30
0.0
  0
POINT
  5
2BE
330
2C7
100
AcDbEntity
  8
DEFPOINTS
  6
ByBlock
 62
     0
380
     1
100
AcDbPoint
 10
44.3927941128
 20
158.758378656
 30
0.0
  0
LINE
  5
2BF
330
2C7
100
AcDbEntity
  8
0
  6
ByBlock
 62
     0
370
    -2
380
     1
100
AcDbLine
 10
86.72782485790952
 20
688.7468429232
 30
0.0
 11
-13.35327207414404
 21
688.7468429232
 31
0.0
  0
LINE
  5
2C0
330
2C7
100
AcDbEntity
  8
0
  6
ByBlock
 62
     0
370
    -2
380
     1
100
AcDbLine
 10
44.3302941128
 20
158.758378656
 30
0.0
 11
-13.35327207414404
 21
158.758378656
 31
0.0
  0
LINE
  5
2C1
330
2C7
100
AcDbEntity
  8
0
  6
ByBlock
 62
     0
370
    -2
380
     1
100
AcDbLine
 10
-13.17327207414404
 20
688.5668429232
 30
0.0
 11
-13.17327207414404
 21
424.4726107896
 31
0.0
  0
LINE
  5
2C2
330
2C7
100
AcDbEntity
  8
0
  6
ByBlock
 62
     0
370
    -2
380
     1
100
AcDbLine
 10
-13.17327207414404
 20
158.9383786559999
 30
0.0
 11
-13.17327207414404
 21
423.0326107896
 31
0.0
  0
SOLID
  5
2C3
330
2C7
100
AcDbEntity
  8
0
  6
ByBlock
 62
     0
380
     1
100
AcDbTrace
 10
-13.17327207414404
 20
688.7468429232
 30
0.0
 11
-13.20327207414404
 21
688.5668429232
 31
0.0
 12
-13.14327207414404
 22
688.5668429232
 32
0.0
 13
-13.14327207414404
 23
688.5668429232
 33
0.0
  0
SOLID
  5
2C4
330
2C7
100
AcDbEntity
  8
0
  6
ByBlock
 62
     0
380
     1
100
AcDbTrace
 10
-13.17327207414404
 20
158.758378656
 30
0.0
 11
-13.20327207414404
 21
158.9383786559999
 31
0.0
 12
-13.14327207414404
 22
158.9383786559999
 32
0.0
 13
-13.14327207414404
 23
158.9383786559999
 33
0.0
  0
MTEXT
  5
2C5
330
2C7
100
AcDbEntity
  8
0
  6
ByBlock
 62
     0
370
    -2
380
     1
100
AcDbMText
 10
-13.17327207414404
 20
423.7526107896
 30
0.0
 40
0.18
 41
0.0
 71
     5
 72
     1
  1
\A1;529.9885
 73
     1
 44
1.0
  0
ENDBLK
  5
357
330
2C7
100
AcDbEntity
  8
0
100
AcDbBlockEnd
  0
BLOCK
  5
358
330
2D4
100
AcDbEntity
  8
0
100
AcDbBlockBegin
  2
*D9
 70
     1
 10
0.0
 20
0.0
 30
0.0
  3
*D9
  1

  0
POINT
  5
2CA
330
2D4
100
AcDbEntity
  8
DEFPOINTS
  6
ByBlock
 62
     0
380
     1
100
AcDbPoint
 10
58.79116732230001
 20
161.3084128833
 30
0.0
  0
POINT
  5
2CB
330
2D4
100
AcDbEntity
  8
DEFPOINTS
  6
ByBlock
 62
     0
380
     1
100
AcDbPoint
 10
528.7778509986001
 20
160.2145978644
 30
0.0
  0
LINE
  5
2CC
330
2D4
100
AcDbEntity
  8
0
  6
ByBlock
 62
     0
370
    -2
380
     1
100
AcDbLine
 10
58.79116732230001
 20
161.2459128833
 30
0.0
 11
58.79116732230001
 21
91.84281234590067
 31
0.0
  0
LINE
  5
2CD
330
2D4
100
AcDbEntity
  8
0
  6
ByBlock
 62
     0
370
    -2
380
     1
100
AcDbLine
 10
528.7778509986001
 20
160.1520978644
 30
0.0
 11
528.7778509986001
 21
91.84281234590067
 31
0.0
  0
LINE
  5
2CE
330
2D4
100
AcDbEntity
  8
0
  6
ByBlock
 62
     0
370
    -2
380
     1
100
AcDbLine
 10
58.9711673223
 20
92.02281234590068
 30
0.0
 11
293.0645091604501
 21
92.02281234590068
 31
0.0
  0
LINE
  5
2CF
330
2D4
100
AcDbEntity
  8
0
  6
ByBlock
 62
     0
370
    -2
380
     1
100
AcDbLine
 10
528.5978509986002
 20
92.02281234590068
 30
0.0
 11
294.5045091604501
 21
92.02281234590068
 31
0.0
  0
SOLID
  5
2D0
330
2D4
100
AcDbEntity
  8
0
  6
ByBlock
 62
     0
380
     1
100
AcDbTrace
 10
58.79116732230001
 20
92.02281234590068
 30
0.0
 11
58.9711673223
 21
91.99281234590067
 31
0.0
 12
58.9711673223
 22
92.05281234590068
 32
0.0
 13
58.9711673223
 23
92.05281234590068
 33
0.0
  0
SOLID
  5
2D1
330
2D4
100
AcDbEntity
  8
0
  6
ByBlock
 62
     0
380
     1
100
AcDbTrace
 10
528.7778509986001
 20
92.02281234590068
 30
0.0
 11
528.5978509986002
 21
91.99281234590067
 31
0.0
 12
528.5978509986002
 22
92.05281234590068
 32
0.0
 13
528.5978509986002
 23
92.05281234590068
 33
0.0
  0
MTEXT
  5
2D2
330
2D4
100
AcDbEntity
  8
0
  6
ByBlock
 62
     0
370
    -2
380
     1
100
AcDbMText
 10
293.7845091604501
 20
92.02281234590068
 30
0.0
 40
0.18
 41
0.0
 71
     5
 72
     1
  1
\A1;469.9867
 73
     1
 44
1.0
  0
ENDBLK
  5
359
330
2D4
100
AcDbEntity
  8
0
100
AcDbBlockEnd
  0
BLOCK
  5
35A
330
2E0
100
AcDbEntity
  8
0
100
AcDbBlockBegin
  2
*D10
 70
     1
 10
0.0
 20
0.0
 30
0.0
  3
*D10
  1

  0
POINT
  5
2D7
330
2E0
100
AcDbEntity
  8
DEFPOINTS
  6
ByBlock
 62
     0
380
     1
100
AcDbPoint
 10
294.2572539564
 20
688.7536710984001
 30
0.0
  0
POINT
  5
2D8
330
2E0
100
AcDbEntity
  8
DEFPOINTS
  6
ByBlock
 62
     0
380
     1
100
AcDbPoint
 10
294.2572539564
 20
158.758378656
 30
0.0
  0
LINE
  5
2D9
330
2E0
100
AcDbEntity
  8
0
  6
ByBlock
 62
     0
370
    -2
380
     1
100
AcDbLine
 10
293.6322539564
 20
688.7536710984001
 30
0.0
 11
1.999443697186848
 21
688.7536710984001
 31
0.0
  0
LINE
  5
2DA
330
2E0
100
AcDbEntity
  8
0
  6
ByBlock
 62
     0
370
    -2
380
     1
100
AcDbLine
 10
293.6322539564
 20
158.758378656
 30
0.0
 11
1.999443697186848
 21
158.758378656
 31
0.0
  0
LINE
  5
2DB
330
2E0
100
AcDbEntity
  8
0
  6
ByBlock
 62
     0
370
    -2
380
     1
100
AcDbLine
 10
3.249443697186848
 20
686.2536710984001
 30
0.0
 11
3.249443697186848
 21
161.258378656
 31
0.0
  0
SOLID
  5
2DC
330
2E0
100
AcDbEntity
  8
0
  6
ByBlock
 62
     0
380
     1
100
AcDbTrace
 10
3.249443697186848
 20
688.7536710984001
 30
0.0
 11
2.832777030520162
 21
686.2536710984001
 31
0.0
 12
3.666110363853534
 22
686.2536710984001
 32
0.0
 13
3.666110363853534
 23
686.2536710984001
 33
0.0
  0
SOLID
  5
2DD
330
2E0
100
AcDbEntity
  8
0
  6
ByBlock
 62
     0
380
     1
100
AcDbTrace
 10
3.249443697186848
 20
158.758378656
 30
0.0
 11
2.832777030520162
 21
161.258378656
 31
0.0
 12
3.666110363853534
 22
161.258378656
 32
0.0
 13
3.666110363853534
 23
161.258378656
 33
0.0
  0
MTEXT
  5
2DE
330
2E0
100
AcDbEntity
  8
0
  6
ByBlock
 62
     0
370
    -2
380
     1
100
AcDbMText
 10
1.374443697186848
 20
423.7560248772
 30
0.0
 40
2.5
 41
0.0
 71
     5
 72
     1
  1
\A1;530
 11
6.123031769111886E-17
 21
1.0
 31
0.0
 73
     1
 44
1.0
  0
ENDBLK
  5
35B
330
2E0
100
AcDbEntity
  8
0
100
AcDbBlockEnd
  0
BLOCK
  5
35C
330
2EB
100
AcDbEntity
  8
0
100
AcDbBlockBegin
  2
*D11
 70
     1
 10
0.0
 20
0.0
 30
0.0
  3
*D11
  1

  0
POINT
  5
2E2
330
2EB
100
AcDbEntity
  8
DEFPOINTS
  6
ByBlock
 62
     7
380
     1
100
AcDbPoint
 10
294.2572539564
 20
688.7536710984001
 30
0.0
  0
POINT
  5
2E3
330
2EB
100
AcDbEntity
  8
DEFPOINTS
  6
ByBlock
 62
     7
380
     1
100
AcDbPoint
 10
294.2572539564
 20
158.758378656
 30
0.0
  0
LINE
  5
2E4
330
2EB
100
AcDbEntity
  8
0
  6
ByBlock
 62
     7
370
    -2
380
     1
100
AcDbLine
 10
293.6322539564
 20
688.7536710984001
 30
0.0
 11
1.999443697186848
 21
688.7536710984001
 31
0.0
  0
LINE
  5
2E5
330
2EB
100
AcDbEntity
  8
0
  6
ByBlock
 62
     7
370
    -2
380
     1
100
AcDbLine
 10
293.6322539564
 20
158.758378656
 30
0.0
 11
1.999443697186848
 21
158.758378656
 31
0.0
  0
LINE
  5
2E6
330
2EB
100
AcDbEntity
  8
0
  6
ByBlock
 62
     7
370
    -2
380
     1
100
AcDbLine
 10
3.249443697186848
 20
678.7536710984001
 30
0.0
 11
3.249443697186848
 21
168.758378656
 31
0.0
  0
SOLID
  5
2E7
330
2EB
100
AcDbEntity
  8
0
  6
ByBlock
 62
     7
380
     1
100
AcDbTrace
 10
3.249443697186848
 20
688.7536710984001
 30
0.0
 11
1.582777030520162
 21
678.7536710984001
 31
0.0
 12
4.916110363853534
 22
678.7536710984001
 32
0.0
 13
4.916110363853534
 23
678.7536710984001
 33
0.0
  0
SOLID
  5
2E8
330
2EB
100
AcDbEntity
  8
0
  6
ByBlock
 62
     7
380
     1
100
AcDbTrace
 10
3.249443697186848
 20
158.758378656
 30
0.0
 11
1.582777030520162
 21
168.758378656
 31
0.0
 12
4.916110363853534
 22
168.758378656
 32
0.0
 13
4.916110363853534
 23
168.758378656
 33
0.0
  0
MTEXT
  5
2E9
330
2EB
100
AcDbEntity
  8
0
  6
ByBlock
 62
     0
370
    -2
380
     1
100
AcDbMText
 10
-8.750556302813152
 20
423.7560248772
 30
0.0
 40
14.0
 41
0.0
 71
     5
 72
     1
  1
\A1;530
 11
6.123031769111886E-17
 21
1.0
 31
0.0
 73
     1
 44
1.0
  0
ENDBLK
  5
35D
330
2EB
100
AcDbEntity
  8
0
100
AcDbBlockEnd
  0
BLOCK
  5
35E
330
2F6
100
AcDbEntity
  8
0
100
AcDbBlockBegin
  2
*D12
 70
     1
 10
0.0
 20
0.0
 30
0.0
  3
*D12
  1

  0
POINT
  5
2ED
330
2F6
100
AcDbEntity
  8
DEFPOINTS
  6
ByBlock
 62
     7
380
     1
100
AcDbPoint
 10
294.2572539564
 20
688.7536710984001
 30
0.0
  0
POINT
  5
2EE
330
2F6
100
AcDbEntity
  8
DEFPOINTS
  6
ByBlock
 62
     7
380
     1
100
AcDbPoint
 10
294.2572539564
 20
158.758378656
 30
0.0
  0
LINE
  5
2EF
330
2F6
100
AcDbEntity
  8
0
  6
ByBlock
 62
     7
370
    -2
380
     1
100
AcDbLine
 10
293.6322539564
 20
688.7536710984001
 30
0.0
 11
1.999443697186848
 21
688.7536710984001
 31
0.0
  0
LINE
  5
2F0
330
2F6
100
AcDbEntity
  8
0
  6
ByBlock
 62
     7
370
    -2
380
     1
100
AcDbLine
 10
293.6322539564
 20
158.758378656
 30
0.0
 11
1.999443697186848
 21
158.758378656
 31
0.0
  0
LINE
  5
2F1
330
2F6
100
AcDbEntity
  8
0
  6
ByBlock
 62
     7
370
    -2
380
     1
100
AcDbLine
 10
3.249443697186848
 20
678.7536710984001
 30
0.0
 11
3.249443697186848
 21
168.758378656
 31
0.0
  0
SOLID
  5
2F2
330
2F6
100
AcDbEntity
  8
0
  6
ByBlock
 62
     7
380
     1
100
AcDbTrace
 10
3.249443697186848
 20
688.7536710984001
 30
0.0
 11
1.582777030520162
 21
678.7536710984001
 31
0.0
 12
4.916110363853534
 22
678.7536710984001
 32
0.0
 13
4.916110363853534
 23
678.7536710984001
 33
0.0
  0
SOLID
  5
2F3
330
2F6
100
AcDbEntity
  8
0
  6
ByBlock
 62
     7
380
     1
100
AcDbTrace
 10
3.249443697186848
 20
158.758378656
 30
0.0
 11
1.582777030520162
 21
168.758378656
 31
0.0
 12
4.916110363853534
 22
168.758378656
 32
0.0
 13
4.916110363853534
 23
168.758378656
 33
0.0
  0
MTEXT
  5
2F4
330
2F6
100
AcDbEntity
  8
0
  6
ByBlock
 62
     0
370
    -2
380
     1
100
AcDbMText
 10
-8.750556302813152
 20
423.7560248772
 30
0.0
 40
14.0
 41
0.0
 71
     5
 72
     1
  1
\A1;530
 11
6.123031769111886E-17
 21
1.0
 31
0.0
 73
     1
 44
1.0
  0
ENDBLK
  5
35F
330
2F6
100
AcDbEntity
  8
0
100
AcDbBlockEnd
  0
BLOCK
  5
360
330
302
100
AcDbEntity
  8
0
100
AcDbBlockBegin
  2
*D13
 70
     1
 10
0.0
 20
0.0
 30
0.0
  3
*D13
  1

  0
POINT
  5
2F9
330
302
100
AcDbEntity
  8
DEFPOINTS
  6
ByBlock
 62
     0
380
     1
100
AcDbPoint
 10
58.79116732230001
 20
161.3084128833
 30
0.0
  0
POINT
  5
2FA
330
302
100
AcDbEntity
  8
DEFPOINTS
  6
ByBlock
 62
     0
380
     1
100
AcDbPoint
 10
528.7778509986001
 20
158.758378656
 30
0.0
  0
LINE
  5
2FB
330
302
100
AcDbEntity
  8
0
  6
ByBlock
 62
     0
370
    -2
380
     1
100
AcDbLine
 10
58.79116732230001
 20
160.6834128833
 30
0.0
 11
58.79116732230001
 21
128.0797613872429
 31
0.0
  0
LINE
  5
2FC
330
302
100
AcDbEntity
  8
0
  6
ByBlock
 62
     0
370
    -2
380
     1
100
AcDbLine
 10
528.7778509986001
 20
158.133378656
 30
0.0
 11
528.7778509986001
 21
128.0797613872429
 31
0.0
  0
LINE
  5
2FD
330
302
100
AcDbEntity
  8
0
  6
ByBlock
 62
     0
370
    -2
380
     1
100
AcDbLine
 10
61.29116732230001
 20
129.3297613872429
 30
0.0
 11
526.2778509986001
 21
129.3297613872429
 31
0.0
  0
SOLID
  5
2FE
330
302
100
AcDbEntity
  8
0
  6
ByBlock
 62
     0
380
     1
100
AcDbTrace
 10
58.79116732230001
 20
129.3297613872429
 30
0.0
 11
61.29116732230001
 21
128.9130947205763
 31
0.0
 12
61.29116732230001
 22
129.7464280539096
 32
0.0
 13
61.29116732230001
 23
129.7464280539096
 33
0.0
  0
SOLID
  5
2FF
330
302
100
AcDbEntity
  8
0
  6
ByBlock
 62
     0
380
     1
100
AcDbTrace
 10
528.7778509986001
 20
129.3297613872429
 30
0.0
 11
526.2778509986001
 21
128.9130947205763
 31
0.0
 12
526.2778509986001
 22
129.7464280539096
 32
0.0
 13
526.2778509986001
 23
129.7464280539096
 33
0.0
  0
MTEXT
  5
300
330
302
100
AcDbEntity
  8
0
  6
ByBlock
 62
     0
370
    -2
380
     1
100
AcDbMText
 10
293.7845091604501
 20
131.4130947205762
 30
0.0
 40
2.5
 41
0.0
 71
     5
 72
     1
  1
\A1;469,99
 73
     1
 44
1.0
  0
ENDBLK
  5
361
330
302
100
AcDbEntity
  8
0
100
AcDbBlockEnd
  0
BLOCK
  5
362
330
30D
100
AcDbEntity
  8
0
100
AcDbBlockBegin
  2
*D14
 70
     1
 10
0.0
 20
0.0
 30
0.0
  3
*D14
  1

  0
POINT
  5
304
330
30D
100
AcDbEntity
  8
DEFPOINTS
  6
ByBlock
 62
     7
380
     1
100
AcDbPoint
 10
58.79116732230001
 20
161.3084128833
 30
0.0
  0
POINT
  5
305
330
30D
100
AcDbEntity
  8
DEFPOINTS
  6
ByBlock
 62
     7
380
     1
100
AcDbPoint
 10
528.7778509986001
 20
158.758378656
 30
0.0
  0
LINE
  5
306
330
30D
100
AcDbEntity
  8
0
  6
ByBlock
 62
     7
370
    -2
380
     1
100
AcDbLine
 10
58.79116732230001
 20
160.6834128833
 30
0.0
 11
58.79116732230001
 21
128.0797613872429
 31
0.0
  0
LINE
  5
307
330
30D
100
AcDbEntity
  8
0
  6
ByBlock
 62
     7
370
    -2
380
     1
100
AcDbLine
 10
528.7778509986001
 20
158.133378656
 30
0.0
 11
528.7778509986001
 21
128.0797613872429
 31
0.0
  0
LINE
  5
308
330
30D
100
AcDbEntity
  8
0
  6
ByBlock
 62
     7
370
    -2
380
     1
100
AcDbLine
 10
68.7911673223
 20
129.3297613872429
 30
0.0
 11
518.7778509986001
 21
129.3297613872429
 31
0.0
  0
SOLID
  5
309
330
30D
100
AcDbEntity
  8
0
  6
ByBlock
 62
     7
380
     1
100
AcDbTrace
 10
58.79116732230001
 20
129.3297613872429
 30
0.0
 11
68.7911673223
 21
127.6630947205762
 31
0.0
 12
68.7911673223
 22
130.9964280539096
 32
0.0
 13
68.7911673223
 23
130.9964280539096
 33
0.0
  0
SOLID
  5
30A
330
30D
100
AcDbEntity
  8
0
  6
ByBlock
 62
     7
380
     1
100
AcDbTrace
 10
528.7778509986001
 20
129.3297613872429
 30
0.0
 11
518.7778509986001
 21
127.6630947205762
 31
0.0
 12
518.7778509986001
 22
130.9964280539096
 32
0.0
 13
518.7778509986001
 23
130.9964280539096
 33
0.0
  0
MTEXT
  5
30B
330
30D
100
AcDbEntity
  8
0
  6
ByBlock
 62
     0
370
    -2
380
     1
100
AcDbMText
 10
293.7845091604501
 20
141.3297613872429
 30
0.0
 40
14.0
 41
0.0
 71
     5
 72
     1
  1
\A1;470
 73
     1
 44
1.0
  0
ENDBLK
  5
363
330
30D
100
AcDbEntity
  8
0
100
AcDbBlockEnd
  0
BLOCK
  5
364
330
318
100
AcDbEntity
  8
0
100
AcDbBlockBegin
  2
*D15
 70
     1
 10
0.0
 20
0.0
 30
0.0
  3
*D15
  1

  0
POINT
  5
30F
330
318
100
AcDbEntity
  8
DEFPOINTS
  6
ByBlock
 62
     7
380
     1
100
AcDbPoint
 10
58.79116732230001
 20
161.3084128833
 30
0.0
  0
POINT
  5
310
330
318
100
AcDbEntity
  8
DEFPOINTS
  6
ByBlock
 62
     7
380
     1
100
AcDbPoint
 10
528.7778509986001
 20
158.758378656
 30
0.0
  0
LINE
  5
311
330
318
100
AcDbEntity
  8
0
  6
ByBlock
 62
     7
370
    -2
380
     1
100
AcDbLine
 10
58.79116732230001
 20
160.6834128833
 30
0.0
 11
58.79116732230001
 21
128.0797613872429
 31
0.0
  0
LINE
  5
312
330
318
100
AcDbEntity
  8
0
  6
ByBlock
 62
     7
370
    -2
380
     1
100
AcDbLine
 10
528.7778509986001
 20
158.133378656
 30
0.0
 11
528.7778509986001
 21
128.0797613872429
 31
0.0
  0
LINE
  5
313
330
318
100
AcDbEntity
  8
0
  6
ByBlock
 62
     7
370
    -2
380
     1
100
AcDbLine
 10
68.7911673223
 20
129.3297613872429
 30
0.0
 11
518.7778509986001
 21
129.3297613872429
 31
0.0
  0
SOLID
  5
314
330
318
100
AcDbEntity
  8
0
  6
ByBlock
 62
     7
380
     1
100
AcDbTrace
 10
58.79116732230001
 20
129.3297613872429
 30
0.0
 11
68.7911673223
 21
127.6630947205762
 31
0.0
 12
68.7911673223
 22
130.9964280539096
 32
0.0
 13
68.7911673223
 23
130.9964280539096
 33
0.0
  0
SOLID
  5
315
330
318
100
AcDbEntity
  8
0
  6
ByBlock
 62
     7
380
     1
100
AcDbTrace
 10
528.7778509986001
 20
129.3297613872429
 30
0.0
 11
518.7778509986001
 21
127.6630947205762
 31
0.0
 12
518.7778509986001
 22
130.9964280539096
 32
0.0
 13
518.7778509986001
 23
130.9964280539096
 33
0.0
  0
MTEXT
  5
316
330
318
100
AcDbEntity
  8
0
  6
ByBlock
 62
     0
370
    -2
380
     1
100
AcDbMText
 10
293.7845091604501
 20
141.3297613872429
 30
0.0
 40
14.0
 41
0.0
 71
     5
 72
     1
  1
Ø470
 73
     1
 44
1.0
  0
ENDBLK
  5
365
330
318
100
AcDbEntity
  8
0
100
AcDbBlockEnd
  0
BLOCK
  5
366
330
323
100
AcDbEntity
  8
0
100
AcDbBlockBegin
  2
*D16
 70
     1
 10
0.0
 20
0.0
 30
0.0
  3
*D16
  1

  0
POINT
  5
31A
330
323
100
AcDbEntity
  8
DEFPOINTS
  6
ByBlock
 62
     7
380
     1
100
AcDbPoint
 10
58.79116732230001
 20
161.3084128833
 30
0.0
  0
POINT
  5
31B
330
323
100
AcDbEntity
  8
DEFPOINTS
  6
ByBlock
 62
     7
380
     1
100
AcDbPoint
 10
528.7778509986001
 20
158.758378656
 30
0.0
  0
LINE
  5
31C
330
323
100
AcDbEntity
  8
0
  6
ByBlock
 62
     7
370
    -2
380
     1
100
AcDbLine
 10
58.79116732230001
 20
160.6834128833
 30
0.0
 11
58.79116732230001
 21
128.0797613872429
 31
0.0
  0
LINE
  5
31D
330
323
100
AcDbEntity
  8
0
  6
ByBlock
 62
     7
370
    -2
380
     1
100
AcDbLine
 10
528.7778509986001
 20
158.133378656
 30
0.0
 11
528.7778509986001
 21
128.0797613872429
 31
0.0
  0
LINE
  5
31E
330
323
100
AcDbEntity
  8
0
  6
ByBlock
 62
     7
370
    -2
380
     1
100
AcDbLine
 10
68.7911673223
 20
129.3297613872429
 30
0.0
 11
518.7778509986001
 21
129.3297613872429
 31
0.0
  0
SOLID
  5
31F
330
323
100
AcDbEntity
  8
0
  6
ByBlock
 62
     7
380
     1
100
AcDbTrace
 10
58.79116732230001
 20
129.3297613872429
 30
0.0
 11
68.7911673223
 21
127.6630947205762
 31
0.0
 12
68.7911673223
 22
130.9964280539096
 32
0.0
 13
68.7911673223
 23
130.9964280539096
 33
0.0
  0
SOLID
  5
320
330
323
100
AcDbEntity
  8
0
  6
ByBlock
 62
     7
380
     1
100
AcDbTrace
 10
528.7778509986001
 20
129.3297613872429
 30
0.0
 11
518.7778509986001
 21
127.6630947205762
 31
0.0
 12
518.7778509986001
 22
130.9964280539096
 32
0.0
 13
518.7778509986001
 23
130.9964280539096
 33
0.0
  0
MTEXT
  5
321
330
323
100
AcDbEntity
  8
0
  6
ByBlock
 62
     0
370
    -2
380
     1
100
AcDbMText
 10
293.7845091604501
 20
141.3297613872429
 30
0.0
 40
14.0
 41
0.0
 71
     5
 72
     1
  1
Ø470
 73
     1
 44
1.0
  0
ENDBLK
  5
367
330
323
100
AcDbEntity
  8
0
100
AcDbBlockEnd
  0
BLOCK
  5
368
330
32E
100
AcDbEntity
  8
0
100
AcDbBlockBegin
  2
*D17
 70
     1
 10
0.0
 20
0.0
 30
0.0
  3
*D17
  1

  0
POINT
  5
325
330
32E
100
AcDbEntity
  8
DEFPOINTS
  6
ByBlock
 62
     7
380
     1
100
AcDbPoint
 10
58.79116732230001
 20
161.3084128833
 30
0.0
  0
POINT
  5
326
330
32E
100
AcDbEntity
  8
DEFPOINTS
  6
ByBlock
 62
     7
380
     1
100
AcDbPoint
 10
528.7778509986001
 20
158.758378656
 30
0.0
  0
LINE
  5
327
330
32E
100
AcDbEntity
  8
0
  6
ByBlock
 62
     7
370
    -2
380
     1
100
AcDbLine
 10
58.79116732230001
 20
160.6834128833
 30
0.0
 11
58.79116732230001
 21
59.90693376822409
 31
0.0
  0
LINE
  5
328
330
32E
100
AcDbEntity
  8
0
  6
ByBlock
 62
     7
370
    -2
380
     1
100
AcDbLine
 10
528.7778509986001
 20
158.133378656
 30
0.0
 11
528.7778509986001
 21
59.90693376822409
 31
0.0
  0
LINE
  5
329
330
32E
100
AcDbEntity
  8
0
  6
ByBlock
 62
     7
370
    -2
380
     1
100
AcDbLine
 10
68.7911673223
 20
61.15693376822409
 30
0.0
 11
518.7778509986001
 21
61.15693376822409
 31
0.0
  0
SOLID
  5
32A
330
32E
100
AcDbEntity
  8
0
  6
ByBlock
 62
     7
380
     1
100
AcDbTrace
 10
58.79116732230001
 20
61.15693376822409
 30
0.0
 11
68.7911673223
 21
59.49026710155742
 31
0.0
 12
68.7911673223
 22
62.82360043489076
 32
0.0
 13
68.7911673223
 23
62.82360043489076
 33
0.0
  0
SOLID
  5
32B
330
32E
100
AcDbEntity
  8
0
  6
ByBlock
 62
     7
380
     1
100
AcDbTrace
 10
528.7778509986001
 20
61.15693376822409
 30
0.0
 11
518.7778509986001
 21
59.49026710155742
 31
0.0
 12
518.7778509986001
 22
62.82360043489076
 32
0.0
 13
518.7778509986001
 23
62.82360043489076
 33
0.0
  0
MTEXT
  5
32C
330
32E
100
AcDbEntity
  8
0
  6
ByBlock
 62
     0
370
    -2
380
     1
100
AcDbMText
 10
293.7845091604501
 20
73.15693376822409
 30
0.0
 40
14.0
 41
0.0
 71
     5
 72
     1
  1
Ø470
 73
     1
 44
1.0
  0
ENDBLK
  5
369
330
32E
100
AcDbEntity
  8
0
100
AcDbBlockEnd
  0
BLOCK
  5
36A
330
339
100
AcDbEntity
  8
0
100
AcDbBlockBegin
  2
*D18
 70
     1
 10
0.0
 20
0.0
 30
0.0
  3
*D18
  1

  0
POINT
  5
330
330
339
100
AcDbEntity
  8
DEFPOINTS
  6
ByBlock
 62
     7
380
     1
100
AcDbPoint
 10
58.79116732230001
 20
161.3084128833
 30
0.0
  0
POINT
  5
331
330
339
100
AcDbEntity
  8
DEFPOINTS
  6
ByBlock
 62
     7
380
     1
100
AcDbPoint
 10
528.7778509986001
 20
158.758378656
 30
0.0
  0
LINE
  5
332
330
339
100
AcDbEntity
  8
0
  6
ByBlock
 62
     7
370
    -2
380
     1
100
AcDbLine
 10
58.79116732230001
 20
160.6834128833
 30
0.0
 11
58.79116732230001
 21
119.7076597498195
 31
0.0
  0
LINE
  5
333
330
339
100
AcDbEntity
  8
0
  6
ByBlock
 62
     7
370
    -2
380
     1
100
AcDbLine
 10
528.7778509986001
 20
158.133378656
 30
0.0
 11
528.7778509986001
 21
119.7076597498195
 31
0.0
  0
LINE
  5
334
330
339
100
AcDbEntity
  8
0
  6
ByBlock
 62
     7
370
    -2
380
     1
100
AcDbLine
 10
68.7911673223
 20
120.9576597498195
 30
0.0
 11
518.7778509986001
 21
120.9576597498195
 31
0.0
  0
SOLID
  5
335
330
339
100
AcDbEntity
  8
0
  6
ByBlock
 62
     7
380
     1
100
AcDbTrace
 10
58.79116732230001
 20
120.9576597498195
 30
0.0
 11
68.7911673223
 21
119.2909930831529
 31
0.0
 12
68.7911673223
 22
122.6243264164862
 32
0.0
 13
68.7911673223
 23
122.6243264164862
 33
0.0
  0
SOLID
  5
336
330
339
100
AcDbEntity
  8
0
  6
ByBlock
 62
     7
380
     1
100
AcDbTrace
 10
528.7778509986001
 20
120.9576597498195
 30
0.0
 11
518.7778509986001
 21
119.2909930831529
 31
0.0
 12
518.7778509986001
 22
122.6243264164862
 32
0.0
 13
518.7778509986001
 23
122.6243264164862
 33
0.0
  0
MTEXT
  5
337
330
339
100
AcDbEntity
  8
0
  6
ByBlock
 62
     0
370
    -2
380
     1
100
AcDbMText
 10
293.7845091604501
 20
132.9576597498195
 30
0.0
 40
14.0
 41
0.0
 71
     5
 72
     1
  1
Ø470
 73
     1
 44
1.0
  0
ENDBLK
  5
36B
330
339
100
AcDbEntity
  8
0
100
AcDbBlockEnd
  0
ENDSEC
  0
SECTION
  2
ENTITIES
  0
POINT
  5
207
330
1F
100
AcDbEntity
  8
2
 62
     7
370
    60
100
AcDbPoint
 10
293.7627039564
 20
688.7468429232
 30
0.0
  0
LINE
  5
208
330
1F
100
AcDbEntity
  8
2
 62
     7
 48
0.036127
370
    60
100
AcDbLine
 10
528.7778509986001
 20
161.6708170728
 30
0.0
 11
528.7778509986001
 21
158.758378656
 31
0.0
  0
LINE
  5
209
330
1F
100
AcDbEntity
  8
2
 62
     7
 48
0.049553
370
    60
100
AcDbLine
 10
58.7474896554
 20
162.753183612
 30
0.0
 11
58.7474896554
 21
158.758378656
 31
0.0
  0
LINE
  5
20A
330
1F
100
AcDbEntity
  8
3
 62
     7
 48
0.125
370
    60
100
AcDbLine
 10
304.6428039564
 20
660.5312429232
 30
0.0
 11
314.5338039564
 21
660.5312429232
 31
0.0
  0
LINE
  5
20B
330
1F
100
AcDbEntity
  8
3
 62
     7
 48
0.05
370
    60
100
AcDbLine
 10
303.6537039564
 20
659.5235429232
 30
0.0
 11
303.6537039564
 21
655.4927429232
 31
0.0
  0
LINE
  5
20C
330
1F
100
AcDbEntity
  8
3
 62
     7
 48
0.0375
370
    60
100
AcDbLine
 10
306.6210039564
 20
659.5235429232
 30
0.0
 11
306.6210039564
 21
656.5004429232
 31
0.0
  0
ELLIPSE
  5
20D
330
1F
100
AcDbEntity
  8
3
 62
     7
370
    60
100
AcDbEllipse
 10
307.6101039564
 20
659.5235429232
 30
0.0
 11
0.0
 21
1.007700000000001
 31
0.0
210
0.0
220
0.0
230
1.0
 40
0.9815421256326289
 41
0.0000000523598771
 42
1.570796413682847
  0
ELLIPSE
  5
20E
330
1F
100
AcDbEntity
  8
3
 62
     7
370
    60
100
AcDbEllipse
 10
305.6319039564
 20
659.5235429232
 30
0.0
 11
0.0
 21
1.007700000000001
 31
0.0
210
0.0
220
0.0
230
1.0
 40
0.9815421256326289
 41
-1.570796275175764
 42
0.0000000523598482
  0
ELLIPSE
  5
20F
330
1F
100
AcDbEntity
  8
3
 62
     7
370
    60
100
AcDbEllipse
 10
304.6428039564
 20
659.5235429232
 30
0.0
 11
0.0
 21
1.007700000000001
 31
0.0
210
0.0
220
0.0
230
1.0
 40
0.9815421256326289
 41
0.0000000523598771
 42
1.570796413682847
  0
ELLIPSE
  5
210
330
1F
100
AcDbEntity
  8
3
 62
     7
370
    60
100
AcDbEllipse
 10
304.6428039564
 20
656.5004429232
 30
0.0
 11
0.0
 21
1.007700000000012
 31
0.0
210
0.0
220
0.0
230
1.0
 40
0.9815421256326289
 41
1.570796169801418
 42
3.141592671043092
  0
ELLIPSE
  5
211
330
1F
100
AcDbEntity
  8
3
 62
     7
370
    60
100
AcDbEllipse
 10
305.6319039564
 20
656.5004429232
 30
0.0
 11
0.0
 21
1.0077
 31
0.0
210
0.0
220
0.0
230
1.0
 40
0.9815421256326289
 41
3.141592671043092
 42
4.712389032003823
  0
ELLIPSE
  5
212
330
1F
100
AcDbEntity
  8
3
 62
     7
370
    60
100
AcDbEllipse
 10
307.6101039564
 20
656.5004429232
 30
0.0
 11
0.0
 21
1.007700000000012
 31
0.0
210
0.0
220
0.0
230
1.0
 40
0.9815421256326289
 41
1.570796169801418
 42
3.141592671043092
  0
LINE
  5
213
330
1F
100
AcDbEntity
  8
3
 62
     7
 48
0.125
370
    60
100
AcDbLine
 10
304.6428039564
 20
653.9811929232001
 30
0.0
 11
314.5338039564
 21
653.9811929232001
 31
0.0
  0
LINE
  5
214
330
1F
100
AcDbEntity
  8
3
 62
     7
 48
0.125
370
    60
100
AcDbLine
 10
304.6428039564
 20
653.9811929232001
 30
0.0
 11
314.5338039564
 21
653.9811929232001
 31
0.0
  0
LINE
  5
215
330
1F
100
AcDbEntity
  8
3
 62
     7
 48
0.1625
370
    60
100
AcDbLine
 10
303.1591539564
 20
653.9811929232001
 30
0.0
 11
316.0174539564
 21
653.9811929232001
 31
0.0
  0
LINE
  5
216
330
1F
100
AcDbEntity
  8
3
 62
     7
 48
0.00625
370
    60
100
AcDbLine
 10
316.0174539564
 20
653.4773429232
 30
0.0
 11
316.0174539564
 21
652.9734929232001
 31
0.0
  0
LINE
  5
217
330
1F
100
AcDbEntity
  8
3
 62
     7
 48
0.00625
370
    60
100
AcDbLine
 10
303.1591539564
 20
653.4773429232
 30
0.0
 11
303.1591539564
 21
652.9734929232001
 31
0.0
  0
LINE
  5
218
330
1F
100
AcDbEntity
  8
2
 62
     7
 48
0.1625
370
    60
100
AcDbLine
 10
303.1591539564
 20
655.4927429232
 30
0.0
 11
316.0174539564
 21
655.4927429232
 31
0.0
  0
LINE
  5
219
330
1F
100
AcDbEntity
  8
3
 62
     7
 48
0.01875
370
    60
100
AcDbLine
 10
303.1591539564
 20
655.4927429232
 30
0.0
 11
303.1591539564
 21
653.9811929232001
 31
0.0
  0
LINE
  5
21A
330
1F
100
AcDbEntity
  8
3
 62
     7
 48
0.01875
370
    60
100
AcDbLine
 10
316.0174539564
 20
655.4927429232
 30
0.0
 11
316.0174539564
 21
653.9811929232001
 31
0.0
  0
ELLIPSE
  5
21B
330
1F
100
AcDbEntity
  8
2
 62
     7
370
    60
100
AcDbEllipse
 10
315.5229039564
 20
653.4773429232
 30
0.0
 11
0.0
 21
0.5038500000000007
 31
0.0
210
0.0
220
0.0
230
1.0
 40
0.9815421256326289
 41
-1.570796275175764
 42
0.0000000523598482
  0
ELLIPSE
  5
21C
330
1F
100
AcDbEntity
  8
2
 62
     7
370
    60
100
AcDbEllipse
 10
315.5229039564
 20
652.9734929232001
 30
0.0
 11
0.0
 21
0.5038500000000001
 31
0.0
210
0.0
220
0.0
230
1.0
 40
0.9815421256326289
 41
3.141592671043092
 42
4.712389032003823
  0
ELLIPSE
  5
21D
330
1F
100
AcDbEntity
  8
2
 62
     7
370
    60
100
AcDbEllipse
 10
303.6537039564
 20
652.9734929232001
 30
0.0
 11
0.0
 21
0.5038500000000062
 31
0.0
210
0.0
220
0.0
230
1.0
 40
0.9815421256326289
 41
1.570796169801418
 42
3.141592671042978
  0
ELLIPSE
  5
21E
330
1F
100
AcDbEntity
  8
2
 62
     7
370
    60
100
AcDbEllipse
 10
303.6537039564
 20
653.4773429232
 30
0.0
 11
0.0
 21
0.5038500000000007
 31
0.0
210
0.0
220
0.0
230
1.0
 40
0.9815421256326289
 41
0.0000000523598482
 42
1.570796413682847
  0
LINE
  5
21F
330
1F
100
AcDbEntity
  8
2
 62
     7
 48
0.118835
370
    60
100
AcDbLine
 10
274.9698039564
 20
670.1112210984
 30
0.0
 11
274.9698039564
 21
660.5312429232
 31
0.0
  0
LINE
  5
220
330
1F
100
AcDbEntity
  8
2
 62
     7
 48
0.106335
370
    60
100
AcDbLine
 10
280.9044039564
 20
669.1035210984
 30
0.0
 11
280.9044039564
 21
660.5312429232
 31
0.0
  0
LINE
  5
221
330
1F
100
AcDbEntity
  8
2
 62
     7
 48
0.106335
370
    60
100
AcDbLine
 10
306.6210039564
 20
669.1035210984
 30
0.0
 11
306.6210039564
 21
660.5312429232
 31
0.0
  0
LINE
  5
222
330
1F
100
AcDbEntity
  8
2
 62
     7
 48
0.118835
370
    60
100
AcDbLine
 10
312.5556039564
 20
670.1112210984
 30
0.0
 11
312.5556039564
 21
660.5312429232
 31
0.0
  0
ELLIPSE
  5
223
330
1F
100
AcDbEntity
  8
2
 62
     7
370
    60
100
AcDbEllipse
 10
293.2681539564
 20
670.1112210984
 30
0.0
 11
0.0
 21
18.64244999999995
 31
0.0
210
0.0
220
0.0
230
1.0
 40
0.9815421256326289
 41
-0.0270304202711236
 42
1.570796413682847
  0
ELLIPSE
  5
224
330
1F
100
AcDbEntity
  8
2
 62
     7
370
    60
100
AcDbEllipse
 10
294.2572539564
 20
670.1112210984
 30
0.0
 11
0.0
 21
18.64245000000003
 31
0.0
210
0.0
220
0.0
230
1.0
 40
0.9815421256326289
 41
-1.570796275175764
 42
0.0270302806447789
  0
ELLIPSE
  5
225
330
1F
100
AcDbEntity
  8
2
 62
     7
370
    60
100
AcDbEllipse
 10
293.2681539564
 20
669.1035210984
 30
0.0
 11
0.0
 21
13.60395000000002
 31
0.0
210
0.0
220
0.0
230
1.0
 40
0.9815421256326289
 41
-1.570796275175764
 42
-0.037045433678329
  0
ELLIPSE
  5
226
330
1F
100
AcDbEntity
  8
2
 62
     7
370
    60
100
AcDbEllipse
 10
294.2572539564
 20
669.1035210984
 30
0.0
 11
0.0
 21
13.60395000000002
 31
0.0
210
0.0
220
0.0
230
1.0
 40
0.9815421256326289
 41
0.0370452765986906
 42
1.570796413682847
  0
ELLIPSE
  5
227
330
1F
100
AcDbEntity
  8
3
 62
     7
370
    60
100
AcDbEllipse
 10
311.5665039564
 20
659.5235429232
 30
0.0
 11
0.0
 21
1.007700000000001
 31
0.0
210
0.0
220
0.0
230
1.0
 40
0.9815421256326289
 41
-1.570796275175764
 42
0.0000000523598482
  0
LINE
  5
228
330
1F
100
AcDbEntity
  8
3
 62
     7
 48
0.0375
370
    60
100
AcDbLine
 10
312.5556039564
 20
659.5235429232
 30
0.0
 11
312.5556039564
 21
656.5004429232
 31
0.0
  0
ELLIPSE
  5
229
330
1F
100
AcDbEntity
  8
3
 62
     7
370
    60
100
AcDbEllipse
 10
311.5665039564
 20
656.5004429232
 30
0.0
 11
0.0
 21
1.0077
 31
0.0
210
0.0
220
0.0
230
1.0
 40
0.9815421256326289
 41
3.141592671043092
 42
4.712389032003823
  0
ELLIPSE
  5
22A
330
1F
100
AcDbEntity
  8
3
 62
     7
370
    60
100
AcDbEllipse
 10
313.5447039564
 20
656.5004429232
 30
0.0
 11
0.0
 21
1.007700000000012
 31
0.0
210
0.0
220
0.0
230
1.0
 40
0.9815421256326289
 41
1.570796169801418
 42
3.141592671043092
  0
ELLIPSE
  5
22B
330
1F
100
AcDbEntity
  8
3
 62
     7
370
    60
100
AcDbEllipse
 10
313.5447039564
 20
659.5235429232
 30
0.0
 11
0.0
 21
1.007700000000001
 31
0.0
210
0.0
220
0.0
230
1.0
 40
0.9815421256326289
 41
0.0000000523598771
 42
1.570796413682847
  0
ELLIPSE
  5
22C
330
1F
100
AcDbEntity
  8
3
 62
     7
370
    60
100
AcDbEllipse
 10
314.5338039564
 20
659.5235429232
 30
0.0
 11
0.0
 21
1.007700000000001
 31
0.0
210
0.0
220
0.0
230
1.0
 40
0.9815421256326289
 41
-1.570796275175764
 42
0.0000000523598482
  0
ELLIPSE
  5
22D
330
1F
100
AcDbEntity
  8
3
 62
     7
370
    60
100
AcDbEllipse
 10
314.5338039564
 20
656.5004429232
 30
0.0
 11
0.0
 21
1.0077
 31
0.0
210
0.0
220
0.0
230
1.0
 40
0.9815421256326289
 41
3.141592671043092
 42
4.712389032003823
  0
LINE
  5
22E
330
1F
100
AcDbEntity
  8
3
 62
     7
 48
0.05
370
    60
100
AcDbLine
 10
315.5229039564
 20
659.5235429232
 30
0.0
 11
315.5229039564
 21
655.4927429232
 31
0.0
  0
ELLIPSE
  5
22F
330
1F
100
AcDbEntity
  8
2
 62
     7
370
    60
100
AcDbEllipse
 10
283.8717039564
 20
652.9734929232001
 30
0.0
 11
0.0
 21
0.5038500000000001
 31
0.0
210
0.0
220
0.0
230
1.0
 40
0.9815421256326289
 41
3.141592671043092
 42
4.712389032003823
  0
ELLIPSE
  5
230
330
1F
100
AcDbEntity
  8
2
 62
     7
370
    60
100
AcDbEllipse
 10
283.8717039564
 20
653.4773429232
 30
0.0
 11
0.0
 21
0.5038500000000007
 31
0.0
210
0.0
220
0.0
230
1.0
 40
0.9815421256326289
 41
-1.570796275175764
 42
0.0000000523598482
  0
ELLIPSE
  5
231
330
1F
100
AcDbEntity
  8
2
 62
     7
370
    60
100
AcDbEllipse
 10
283.8717039564
 20
653.4773429232
 30
0.0
 11
0.0
 21
0.5038500000000007
 31
0.0
210
0.0
220
0.0
230
1.0
 40
0.9815421256326289
 41
-1.570796275175764
 42
0.0000000523598482
  0
ELLIPSE
  5
232
330
1F
100
AcDbEntity
  8
2
 62
     7
370
    60
100
AcDbEllipse
 10
283.8717039564
 20
653.4773429232
 30
0.0
 11
0.0
 21
0.5038500000000007
 31
0.0
210
0.0
220
0.0
230
1.0
 40
0.9815421256326289
 41
-1.570796275175764
 42
0.0000000523598482
  0
ELLIPSE
  5
233
330
1F
100
AcDbEntity
  8
2
 62
     7
370
    60
100
AcDbEllipse
 10
283.8717039564
 20
653.4773429232
 30
0.0
 11
0.0
 21
0.5038500000000007
 31
0.0
210
0.0
220
0.0
230
1.0
 40
0.9815421256326289
 41
-1.570796275175764
 42
0.0000000523598482
  0
ELLIPSE
  5
234
330
1F
100
AcDbEntity
  8
2
 62
     7
370
    60
100
AcDbEllipse
 10
283.8717039564
 20
653.4773429232
 30
0.0
 11
0.0
 21
0.5038500000000007
 31
0.0
210
0.0
220
0.0
230
1.0
 40
0.9815421256326289
 41
-1.570796275175764
 42
0.0000000523598482
  0
ELLIPSE
  5
235
330
1F
100
AcDbEntity
  8
2
 62
     7
370
    60
100
AcDbEllipse
 10
283.8717039564
 20
652.9734929232001
 30
0.0
 11
0.0
 21
0.5038500000000001
 31
0.0
210
0.0
220
0.0
230
1.0
 40
0.9815421256326289
 41
3.141592671043092
 42
4.712389032003823
  0
LINE
  5
236
330
1F
100
AcDbEntity
  8
3
 62
     7
 48
0.01875
370
    60
100
AcDbLine
 10
284.3662539564
 20
655.4927429232
 30
0.0
 11
284.3662539564
 21
653.9811929232001
 31
0.0
  0
LINE
  5
237
330
1F
100
AcDbEntity
  8
3
 62
     7
 48
0.1625
370
    60
100
AcDbLine
 10
271.5079539564
 20
653.9811929232001
 30
0.0
 11
284.3662539564
 21
653.9811929232001
 31
0.0
  0
LINE
  5
238
330
1F
100
AcDbEntity
  8
2
 62
     7
 48
0.1625
370
    60
100
AcDbLine
 10
271.5079539564
 20
655.4927429232
 30
0.0
 11
284.3662539564
 21
655.4927429232
 31
0.0
  0
LINE
  5
239
330
1F
100
AcDbEntity
  8
3
 62
     7
 48
0.00625
370
    60
100
AcDbLine
 10
284.3662539564
 20
653.4773429232
 30
0.0
 11
284.3662539564
 21
652.9734929232001
 31
0.0
  0
ELLIPSE
  5
23A
330
1F
100
AcDbEntity
  8
2
 62
     7
370
    60
100
AcDbEllipse
 10
272.0025039564
 20
652.9734929232001
 30
0.0
 11
0.0
 21
0.5038500000000062
 31
0.0
210
0.0
220
0.0
230
1.0
 40
0.9815421256326289
 41
1.570796169801418
 42
3.141592671042978
  0
ELLIPSE
  5
23B
330
1F
100
AcDbEntity
  8
2
 62
     7
370
    60
100
AcDbEllipse
 10
272.0025039564
 20
653.4773429232
 30
0.0
 11
0.0
 21
0.5038500000000007
 31
0.0
210
0.0
220
0.0
230
1.0
 40
0.9815421256326289
 41
0.0000000523598482
 42
1.570796413682847
  0
LINE
  5
23C
330
1F
100
AcDbEntity
  8
3
 62
     7
 48
0.01875
370
    60
100
AcDbLine
 10
271.5079539564
 20
655.4927429232
 30
0.0
 11
271.5079539564
 21
653.9811929232001
 31
0.0
  0
LINE
  5
23D
330
1F
100
AcDbEntity
  8
3
 62
     7
 48
0.05
370
    60
100
AcDbLine
 10
283.8717039564
 20
659.5235429232
 30
0.0
 11
283.8717039564
 21
655.4927429232
 31
0.0
  0
LINE
  5
23E
330
1F
100
AcDbEntity
  8
3
 62
     7
 48
0.0375
370
    60
100
AcDbLine
 10
280.9044039564
 20
659.5235429232
 30
0.0
 11
280.9044039564
 21
656.5004429232
 31
0.0
  0
LINE
  5
23F
330
1F
100
AcDbEntity
  8
3
 62
     7
 48
0.0375
370
    60
100
AcDbLine
 10
274.9698039564
 20
659.5235429232
 30
0.0
 11
274.9698039564
 21
656.5004429232
 31
0.0
  0
LINE
  5
240
330
1F
100
AcDbEntity
  8
3
 62
     7
 48
0.05
370
    60
100
AcDbLine
 10
272.0025039564
 20
659.5235429232
 30
0.0
 11
272.0025039564
 21
655.4927429232
 31
0.0
  0
LINE
  5
241
330
1F
100
AcDbEntity
  8
3
 62
     7
 48
0.125
370
    60
100
AcDbLine
 10
272.9916039564
 20
660.5312429232
 30
0.0
 11
282.8826039564
 21
660.5312429232
 31
0.0
  0
ELLIPSE
  5
242
330
1F
100
AcDbEntity
  8
3
 62
     7
370
    60
100
AcDbEllipse
 10
279.9153039564
 20
659.5235429232
 30
0.0
 11
0.0
 21
1.007700000000001
 31
0.0
210
0.0
220
0.0
230
1.0
 40
0.9815421256326289
 41
-1.570796275175764
 42
0.0000000523598482
  0
ELLIPSE
  5
243
330
1F
100
AcDbEntity
  8
3
 62
     7
370
    60
100
AcDbEllipse
 10
281.8935039564
 20
659.5235429232
 30
0.0
 11
0.0
 21
1.007700000000001
 31
0.0
210
0.0
220
0.0
230
1.0
 40
0.9815421256326289
 41
0.0000000523598771
 42
1.570796413682847
  0
ELLIPSE
  5
244
330
1F
100
AcDbEntity
  8
3
 62
     7
370
    60
100
AcDbEllipse
 10
279.9153039564
 20
656.5004429232
 30
0.0
 11
0.0
 21
1.0077
 31
0.0
210
0.0
220
0.0
230
1.0
 40
0.9815421256326289
 41
3.141592671043092
 42
4.712389032003823
  0
ELLIPSE
  5
245
330
1F
100
AcDbEntity
  8
3
 62
     7
370
    60
100
AcDbEllipse
 10
281.8935039564
 20
656.5004429232
 30
0.0
 11
0.0
 21
1.007700000000012
 31
0.0
210
0.0
220
0.0
230
1.0
 40
0.9815421256326289
 41
1.570796169801418
 42
3.141592671043092
  0
ELLIPSE
  5
246
330
1F
100
AcDbEntity
  8
3
 62
     7
370
    60
100
AcDbEllipse
 10
281.8935039564
 20
656.5004429232
 30
0.0
 11
0.0
 21
1.007700000000012
 31
0.0
210
0.0
220
0.0
230
1.0
 40
0.9815421256326289
 41
1.570796169801418
 42
3.141592671043092
  0
ELLIPSE
  5
247
330
1F
100
AcDbEntity
  8
3
 62
     7
370
    60
100
AcDbEllipse
 10
273.9807039564
 20
656.5004429232
 30
0.0
 11
0.0
 21
1.0077
 31
0.0
210
0.0
220
0.0
230
1.0
 40
0.9815421256326289
 41
3.141592671043092
 42
4.712389032003823
  0
ELLIPSE
  5
248
330
1F
100
AcDbEntity
  8
3
 62
     7
370
    60
100
AcDbEllipse
 10
275.9589039564
 20
656.5004429232
 30
0.0
 11
0.0
 21
1.007700000000012
 31
0.0
210
0.0
220
0.0
230
1.0
 40
0.9815421256326289
 41
1.570796169801418
 42
3.141592671043092
  0
ELLIPSE
  5
249
330
1F
100
AcDbEntity
  8
3
 62
     7
370
    60
100
AcDbEllipse
 10
275.9589039564
 20
659.5235429232
 30
0.0
 11
0.0
 21
1.007700000000001
 31
0.0
210
0.0
220
0.0
230
1.0
 40
0.9815421256326289
 41
0.0000000523598771
 42
1.570796413682847
  0
ELLIPSE
  5
24A
330
1F
100
AcDbEntity
  8
3
 62
     7
370
    60
100
AcDbEllipse
 10
273.9807039564
 20
659.5235429232
 30
0.0
 11
0.0
 21
1.007700000000001
 31
0.0
210
0.0
220
0.0
230
1.0
 40
0.9815421256326289
 41
-1.570796275175764
 42
0.0000000523598482
  0
ELLIPSE
  5
24B
330
1F
100
AcDbEntity
  8
3
 62
     7
370
    60
100
AcDbEllipse
 10
272.9916039564
 20
659.5235429232
 30
0.0
 11
0.0
 21
1.007700000000001
 31
0.0
210
0.0
220
0.0
230
1.0
 40
0.9815421256326289
 41
0.0000000523598771
 42
1.570796413682847
  0
ELLIPSE
  5
24C
330
1F
100
AcDbEntity
  8
3
 62
     7
370
    60
100
AcDbEllipse
 10
282.8826039564
 20
659.5235429232
 30
0.0
 11
0.0
 21
1.007700000000001
 31
0.0
210
0.0
220
0.0
230
1.0
 40
0.9815421256326289
 41
-1.570796275175764
 42
0.0000000523598482
  0
LINE
  5
24D
330
1F
100
AcDbEntity
  8
3
 62
     7
 48
0.00625
370
    60
100
AcDbLine
 10
271.5079539564
 20
653.4773429232
 30
0.0
 11
271.5079539564
 21
652.9734929232001
 31
0.0
  0
ELLIPSE
  5
24E
330
1F
100
AcDbEntity
  8
3
 62
     7
370
    60
100
AcDbEllipse
 10
272.9916039564
 20
656.5004429232
 30
0.0
 11
0.0
 21
1.007700000000012
 31
0.0
210
0.0
220
0.0
230
1.0
 40
0.9815421256326289
 41
1.570796169801418
 42
3.141592671043092
  0
ELLIPSE
  5
24F
330
1F
100
AcDbEntity
  8
3
 62
     7
370
    60
100
AcDbEllipse
 10
282.8826039564
 20
656.5004429232
 30
0.0
 11
0.0
 21
1.0077
 31
0.0
210
0.0
220
0.0
230
1.0
 40
0.9815421256326289
 41
3.141592671043092
 42
4.712389032003823
  0
LINE
  5
250
330
1F
100
AcDbEntity
  8
2
 62
     7
 48
0.48125
370
    60
100
AcDbLine
 10
293.7627039564
 20
561.7766429232
 30
0.0
 11
331.8430539564
 21
561.7766429232
 31
0.0
  0
LINE
  5
251
330
1F
100
AcDbEntity
  8
2
 62
     7
 48
0.48125
370
    60
100
AcDbLine
 10
255.6823539564
 20
561.7766429232
 30
0.0
 11
293.7627039564
 21
561.7766429232
 31
0.0
  0
ELLIPSE
  5
252
330
1F
100
AcDbEntity
  8
2
 62
     7
370
    60
100
AcDbEllipse
 10
261.0998861058
 20
561.2727929232
 30
0.0
 11
0.0
 21
5.542350000000007
 31
0.0
210
0.0
220
0.0
230
1.0
 40
0.9815421256326289
 41
0.0000000523598744
 42
1.4797615238072
  0
LINE
  5
253
330
1F
100
AcDbEntity
  8
2
 62
     7
 48
0.412785
370
    60
100
AcDbLine
 10
261.0998861058
 20
566.8151429232
 30
0.0
 11
293.7627039564
 21
566.8151429232
 31
0.0
  0
LINE
  5
254
330
1F
100
AcDbEntity
  8
2
 62
     7
 48
0.412785
370
    60
100
AcDbLine
 10
293.7627039564
 20
566.8151429232
 30
0.0
 11
326.425521807
 21
566.8151429232
 31
0.0
  0
ELLIPSE
  5
255
330
1F
100
AcDbEntity
  8
2
 62
     7
370
    60
100
AcDbEllipse
 10
326.425521807
 20
561.2727929232
 30
0.0
 11
0.0
 21
5.542349999999985
 31
0.0
210
0.0
220
0.0
230
1.0
 40
0.981542125632629
 41
-1.479761523807206
 42
0.0000000523598693
  0
LINE
  5
256
330
1F
100
AcDbEntity
  8
2
 62
     7
 48
0.48125
370
    60
100
AcDbLine
 10
293.7627039564
 20
551.6996429232
 30
0.0
 11
331.8430539564
 21
551.6996429232
 31
0.0
  0
ELLIPSE
  5
257
330
1F
100
AcDbEntity
  8
2
 62
     7
370
    60
100
AcDbEllipse
 10
326.425521807
 20
551.1957929232
 30
0.0
 11
0.0
 21
5.542349999999985
 31
0.0
210
0.0
220
0.0
230
1.0
 40
0.981542125632629
 41
-1.479761523807206
 42
0.0000000523598693
  0
LINE
  5
258
330
1F
100
AcDbEntity
  8
2
 62
     7
 48
0.412785
370
    60
100
AcDbLine
 10
293.7627039564
 20
556.7381429232
 30
0.0
 11
326.425521807
 21
556.7381429232
 31
0.0
  0
LINE
  5
259
330
1F
100
AcDbEntity
  8
2
 62
     7
 48
0.48125
370
    60
100
AcDbLine
 10
255.6823539564
 20
551.6996429232
 30
0.0
 11
293.7627039564
 21
551.6996429232
 31
0.0
  0
LINE
  5
25A
330
1F
100
AcDbEntity
  8
2
 62
     7
 48
0.412785
370
    60
100
AcDbLine
 10
261.0998861058
 20
556.7381429232
 30
0.0
 11
293.7627039564
 21
556.7381429232
 31
0.0
  0
ELLIPSE
  5
25B
330
1F
100
AcDbEntity
  8
2
 62
     7
370
    60
100
AcDbEllipse
 10
261.0998861058
 20
551.1957929232
 30
0.0
 11
0.0
 21
5.542350000000007
 31
0.0
210
0.0
220
0.0
230
1.0
 40
0.9815421256326289
 41
0.0000000523598744
 42
1.4797615238072
  0
LINE
  5
25C
330
1F
100
AcDbEntity
  8
2
 62
     7
370
    60
100
AcDbLine
 10
293.7627039564
 20
648.4388429232
 30
0.0
 11
390.6944426322
 21
648.4388429232
 31
0.0
  0
LINE
  5
25D
330
1F
100
AcDbEntity
  8
2
 62
     7
370
    60
100
AcDbLine
 10
293.7627039564
 20
507.3608429232
 30
0.0
 11
408.0286871892001
 21
507.3608429232
 31
0.0
  0
LINE
  5
25E
330
1F
100
AcDbEntity
  8
2
 62
     7
370
    60
100
AcDbLine
 10
293.7627039564
 20
467.0528429232
 30
0.0
 11
414.4328426322
 21
467.0528429232
 31
0.0
  0
LINE
  5
25F
330
1F
100
AcDbEntity
  8
2
 62
     7
 48
0.35
370
    60
100
AcDbLine
 10
293.7627039564
 20
652.4696429232
 30
0.0
 11
321.4575039564
 21
652.4696429232
 31
0.0
  0
LINE
  5
260
330
1F
100
AcDbEntity
  8
2
 62
     7
 48
0.45
370
    60
100
AcDbLine
 10
414.4328426322
 20
503.3300429232
 30
0.0
 11
414.4328426322
 21
467.0528429232
 31
0.0
  0
ELLIPSE
  5
261
330
1F
100
AcDbEntity
  8
2
 62
     7
370
    60
100
AcDbEllipse
 10
390.6944426322
 20
628.2848429232
 30
0.0
 11
0.0
 21
20.15400000000003
 31
0.0
210
0.0
220
0.0
230
1.0
 40
0.981542125632629
 41
-1.570796275175764
 42
0.0000000523598742
  0
ELLIPSE
  5
262
330
1F
100
AcDbEntity
  8
2
 62
     7
370
    60
100
AcDbEllipse
 10
321.4575039564
 20
650.4542429232
 30
0.0
 11
0.0
 21
2.015400000000003
 31
0.0
210
0.0
220
0.0
230
1.0
 40
0.9815421256326289
 41
-1.570796275175764
 42
0.0000000523598913
  0
ELLIPSE
  5
263
330
1F
100
AcDbEntity
  8
2
 62
     7
370
    60
100
AcDbEllipse
 10
325.4139039564
 20
650.4542429232
 30
0.0
 11
0.0
 21
2.015400000000025
 31
0.0
210
0.0
220
0.0
230
1.0
 40
0.9815421256326289
 41
1.570796169801418
 42
3.141592671043092
  0
ELLIPSE
  5
264
330
1F
100
AcDbEntity
  8
2
 62
     7
370
    60
100
AcDbEllipse
 10
293.7627039564
 20
522.4763429232
 30
0.0
 11
0.0
 21
2.51925
 31
0.0
210
0.0
220
0.0
230
1.0
 40
0.981542125632629
 41
-1.5707963267949
 42
4.712388980384686
  0
LINE
  5
265
330
1F
100
AcDbEntity
  8
2
 62
     7
 48
0.075
370
    60
100
AcDbLine
 10
298.2136539564
 20
498.2915429232
 30
0.0
 11
304.1482539564
 21
498.2915429232
 31
0.0
  0
LINE
  5
266
330
1F
100
AcDbEntity
  8
2
 62
     7
 48
0.075
370
    60
100
AcDbLine
 10
298.2136539564
 20
492.2453429232
 30
0.0
 11
304.1482539564
 21
492.2453429232
 31
0.0
  0
LINE
  5
267
330
1F
100
AcDbEntity
  8
2
 62
     7
 48
0.01875
370
    60
100
AcDbLine
 10
290.7954039564
 20
490.7337929232
 30
0.0
 11
290.7954039564
 21
489.2222429232
 31
0.0
  0
LINE
  5
268
330
1F
100
AcDbEntity
  8
2
 62
     7
 48
0.01875
370
    60
100
AcDbLine
 10
296.7300039564
 20
490.7337929232
 30
0.0
 11
296.7300039564
 21
489.2222429232
 31
0.0
  0
ELLIPSE
  5
269
330
1F
100
AcDbEntity
  8
2
 62
     7
370
    60
100
AcDbEllipse
 10
293.7627039564
 20
489.2222429232
 30
0.0
 11
0.0
 21
3.023099999999979
 31
0.0
210
0.0
220
0.0
230
1.0
 40
0.9815421256326289
 41
1.570796169801418
 42
4.712389032003823
  0
ELLIPSE
  5
26A
330
1F
100
AcDbEntity
  8
2
 62
     7
370
    60
100
AcDbEllipse
 10
298.2136539564
 20
490.7337929232
 30
0.0
 11
0.0
 21
1.511550000000002
 31
0.0
210
0.0
220
0.0
230
1.0
 40
0.9815421256326289
 41
0.0000000523598676
 42
1.570796413682847
  0
LINE
  5
26B
330
1F
100
AcDbEntity
  8
2
 62
     7
 48
0.249551
370
    60
100
AcDbLine
 10
311.5665039564
 20
490.7337929232
 30
0.0
 11
311.5665039564
 21
470.6159895072
 31
0.0
  0
LINE
  5
26C
330
1F
100
AcDbEntity
  8
2
 62
     7
 48
0.249551
370
    60
100
AcDbLine
 10
305.6319039564
 20
490.7337929232
 30
0.0
 11
305.6319039564
 21
470.6159895072
 31
0.0
  0
ELLIPSE
  5
26D
330
1F
100
AcDbEntity
  8
2
 62
     7
370
    60
100
AcDbEllipse
 10
304.1482539564
 20
490.7337929232
 30
0.0
 11
0.0
 21
1.511550000000002
 31
0.0
210
0.0
220
0.0
230
1.0
 40
0.9815421256326289
 41
-1.570796275175764
 42
0.0000000523598676
  0
ELLIPSE
  5
26E
330
1F
100
AcDbEntity
  8
2
 62
     7
370
    60
100
AcDbEllipse
 10
304.1482539564
 20
490.7337929232
 30
0.0
 11
0.0
 21
7.55775000000001
 31
0.0
210
0.0
220
0.0
230
1.0
 40
0.9815421256326289
 41
-1.570796275175764
 42
0.0000000523598713
  0
LINE
  5
26F
330
1F
100
AcDbEntity
  8
2
 62
     7
 48
0.48125
370
    60
100
AcDbLine
 10
293.7627039564
 20
571.8536429232
 30
0.0
 11
331.8430539564
 21
571.8536429232
 31
0.0
  0
LINE
  5
270
330
1F
100
AcDbEntity
  8
2
 62
     7
 48
0.412785
370
    60
100
AcDbLine
 10
293.7627039564
 20
576.8921429232
 30
0.0
 11
326.425521807
 21
576.8921429232
 31
0.0
  0
ELLIPSE
  5
271
330
1F
100
AcDbEntity
  8
2
 62
     7
370
    60
100
AcDbEllipse
 10
326.425521807
 20
571.3497929232
 30
0.0
 11
0.0
 21
5.542349999999985
 31
0.0
210
0.0
220
0.0
230
1.0
 40
0.981542125632629
 41
-1.479761523807206
 42
0.0000000523598693
  0
LINE
  5
272
330
1F
100
AcDbEntity
  8
2
 62
     7
 48
0.48125
370
    60
100
AcDbLine
 10
293.7627039564
 20
581.9306429232
 30
0.0
 11
331.8430539564
 21
581.9306429232
 31
0.0
  0
LINE
  5
273
330
1F
100
AcDbEntity
  8
2
 62
     7
 48
0.412785
370
    60
100
AcDbLine
 10
293.7627039564
 20
586.9691429232
 30
0.0
 11
326.425521807
 21
586.9691429232
 31
0.0
  0
ELLIPSE
  5
274
330
1F
100
AcDbEntity
  8
2
 62
     7
370
    60
100
AcDbEllipse
 10
326.425521807
 20
581.4267929232
 30
0.0
 11
0.0
 21
5.542349999999985
 31
0.0
210
0.0
220
0.0
230
1.0
 40
0.981542125632629
 41
-1.479761523807206
 42
0.0000000523598693
  0
LINE
  5
275
330
1F
100
AcDbEntity
  8
2
 62
     7
 48
0.48125
370
    60
100
AcDbLine
 10
293.7627039564
 20
592.0076429232
 30
0.0
 11
331.8430539564
 21
592.0076429232
 31
0.0
  0
LINE
  5
276
330
1F
100
AcDbEntity
  8
2
 62
     7
 48
0.412785
370
    60
100
AcDbLine
 10
293.7627039564
 20
597.0461429232
 30
0.0
 11
326.425521807
 21
597.0461429232
 31
0.0
  0
ELLIPSE
  5
277
330
1F
100
AcDbEntity
  8
2
 62
     7
370
    60
100
AcDbEllipse
 10
326.425521807
 20
591.5037929232
 30
0.0
 11
0.0
 21
5.542349999999985
 31
0.0
210
0.0
220
0.0
230
1.0
 40
0.981542125632629
 41
-1.479761523807206
 42
0.0000000523598693
  0
LINE
  5
278
330
1F
100
AcDbEntity
  8
2
 62
     7
 48
0.412785
370
    60
100
AcDbLine
 10
293.7627039564
 20
607.1231429232
 30
0.0
 11
326.425521807
 21
607.1231429232
 31
0.0
  0
ELLIPSE
  5
279
330
1F
100
AcDbEntity
  8
2
 62
     7
370
    60
100
AcDbEllipse
 10
326.425521807
 20
601.5807929232
 30
0.0
 11
0.0
 21
5.542349999999985
 31
0.0
210
0.0
220
0.0
230
1.0
 40
0.981542125632629
 41
-1.479761523807206
 42
0.0000000523598693
  0
LINE
  5
27A
330
1F
100
AcDbEntity
  8
2
 62
     7
 48
0.48125
370
    60
100
AcDbLine
 10
293.7627039564
 20
602.0846429232
 30
0.0
 11
331.8430539564
 21
602.0846429232
 31
0.0
  0
LINE
  5
27B
330
1F
100
AcDbEntity
  8
2
 62
     7
 48
0.412785
370
    60
100
AcDbLine
 10
293.7627039564
 20
617.2001429232
 30
0.0
 11
326.425521807
 21
617.2001429232
 31
0.0
  0
ELLIPSE
  5
27C
330
1F
100
AcDbEntity
  8
2
 62
     7
370
    60
100
AcDbEllipse
 10
326.425521807
 20
611.6577929232001
 30
0.0
 11
0.0
 21
5.542349999999985
 31
0.0
210
0.0
220
0.0
230
1.0
 40
0.981542125632629
 41
-1.479761523807206
 42
0.0000000523598693
  0
LINE
  5
27D
330
1F
100
AcDbEntity
  8
2
 62
     7
 48
0.48125
370
    60
100
AcDbLine
 10
293.7627039564
 20
612.1616429232
 30
0.0
 11
331.8430539564
 21
612.1616429232
 31
0.0
  0
LINE
  5
27E
330
1F
100
AcDbEntity
  8
2
 62
     7
370
    60
100
AcDbLine
 10
177.0489039564
 20
628.2848429232
 30
0.0
 11
177.0489039564
 21
509.7032980044
 31
0.0
  0
LINE
  5
27F
330
1F
100
AcDbEntity
  8
2
 62
     7
370
    60
100
AcDbLine
 10
196.8309039564
 20
648.4388429232
 30
0.0
 11
293.7627039564
 21
648.4388429232
 31
0.0
  0
LINE
  5
280
330
1F
100
AcDbEntity
  8
2
 62
     7
370
    60
100
AcDbLine
 10
178.8453746352
 20
507.3608429232
 30
0.0
 11
293.7627039564
 21
507.3608429232
 31
0.0
  0
LINE
  5
281
330
1F
100
AcDbEntity
  8
2
 62
     7
370
    60
100
AcDbLine
 10
173.0925039564
 20
467.0528429232
 30
0.0
 11
293.7627039564
 21
467.0528429232
 31
0.0
  0
LINE
  5
282
330
1F
100
AcDbEntity
  8
2
 62
     7
 48
0.45
370
    60
100
AcDbLine
 10
173.0925039564
 20
503.3300429232
 30
0.0
 11
173.0925039564
 21
467.0528429232
 31
0.0
  0
ELLIPSE
  5
283
330
1F
100
AcDbEntity
  8
2
 62
     7
370
    60
100
AcDbEllipse
 10
196.8309039564
 20
628.2848429232
 30
0.0
 11
0.0
 21
20.15400000000003
 31
0.0
210
0.0
220
0.0
230
1.0
 40
0.981542125632629
 41
0.0000000523598735
 42
1.570796413682847
  0
LINE
  5
284
330
1F
100
AcDbEntity
  8
2
 62
     7
 48
0.35
370
    60
100
AcDbLine
 10
266.0679039564
 20
652.4696429232
 30
0.0
 11
293.7627039564
 21
652.4696429232
 31
0.0
  0
ELLIPSE
  5
285
330
1F
100
AcDbEntity
  8
2
 62
     7
370
    60
100
AcDbEllipse
 10
266.0679039564
 20
650.4542429232
 30
0.0
 11
0.0
 21
2.015400000000003
 31
0.0
210
0.0
220
0.0
230
1.0
 40
0.9815421256326289
 41
0.0000000523598627
 42
1.570796413682847
  0
ELLIPSE
  5
286
330
1F
100
AcDbEntity
  8
2
 62
     7
370
    60
100
AcDbEllipse
 10
262.1115039564
 20
650.4542429232
 30
0.0
 11
0.0
 21
2.015400000000001
 31
0.0
210
0.0
220
0.0
230
1.0
 40
0.9815421256326289
 41
3.141592671043078
 42
4.712389032003823
  0
LINE
  5
287
330
1F
100
AcDbEntity
  8
2
 62
     7
 48
0.48125
370
    60
100
AcDbLine
 10
255.6823539564
 20
571.8536429232
 30
0.0
 11
293.7627039564
 21
571.8536429232
 31
0.0
  0
LINE
  5
288
330
1F
100
AcDbEntity
  8
2
 62
     7
 48
0.412785
370
    60
100
AcDbLine
 10
261.0998861058
 20
576.8921429232
 30
0.0
 11
293.7627039564
 21
576.8921429232
 31
0.0
  0
ELLIPSE
  5
289
330
1F
100
AcDbEntity
  8
2
 62
     7
370
    60
100
AcDbEllipse
 10
261.0998861058
 20
571.3497929232
 30
0.0
 11
0.0
 21
5.542350000000007
 31
0.0
210
0.0
220
0.0
230
1.0
 40
0.9815421256326289
 41
0.0000000523598744
 42
1.4797615238072
  0
LINE
  5
28A
330
1F
100
AcDbEntity
  8
2
 62
     7
 48
0.48125
370
    60
100
AcDbLine
 10
255.6823539564
 20
581.9306429232
 30
0.0
 11
293.7627039564
 21
581.9306429232
 31
0.0
  0
LINE
  5
28B
330
1F
100
AcDbEntity
  8
2
 62
     7
 48
0.412785
370
    60
100
AcDbLine
 10
261.0998861058
 20
586.9691429232
 30
0.0
 11
293.7627039564
 21
586.9691429232
 31
0.0
  0
ELLIPSE
  5
28C
330
1F
100
AcDbEntity
  8
2
 62
     7
370
    60
100
AcDbEllipse
 10
261.0998861058
 20
581.4267929232
 30
0.0
 11
0.0
 21
5.542350000000007
 31
0.0
210
0.0
220
0.0
230
1.0
 40
0.9815421256326289
 41
0.0000000523598744
 42
1.4797615238072
  0
LINE
  5
28D
330
1F
100
AcDbEntity
  8
2
 62
     7
 48
0.48125
370
    60
100
AcDbLine
 10
255.6823539564
 20
592.0076429232
 30
0.0
 11
293.7627039564
 21
592.0076429232
 31
0.0
  0
LINE
  5
28E
330
1F
100
AcDbEntity
  8
2
 62
     7
 48
0.412785
370
    60
100
AcDbLine
 10
261.0998861058
 20
597.0461429232
 30
0.0
 11
293.7627039564
 21
597.0461429232
 31
0.0
  0
LINE
  5
28F
330
1F
100
AcDbEntity
  8
2
 62
     7
 48
0.48125
370
    60
100
AcDbLine
 10
255.6823539564
 20
602.0846429232
 30
0.0
 11
293.7627039564
 21
602.0846429232
 31
0.0
  0
ELLIPSE
  5
290
330
1F
100
AcDbEntity
  8
2
 62
     7
370
    60
100
AcDbEllipse
 10
261.0998861058
 20
591.5037929232
 30
0.0
 11
0.0
 21
5.542350000000007
 31
0.0
210
0.0
220
0.0
230
1.0
 40
0.9815421256326289
 41
0.0000000523598744
 42
1.4797615238072
  0
LINE
  5
291
330
1F
100
AcDbEntity
  8
2
 62
     7
 48
0.412785
370
    60
100
AcDbLine
 10
261.0998861058
 20
607.1231429232
 30
0.0
 11
293.7627039564
 21
607.1231429232
 31
0.0
  0
ELLIPSE
  5
292
330
1F
100
AcDbEntity
  8
2
 62
     7
370
    60
100
AcDbEllipse
 10
261.0998861058
 20
601.5807929232
 30
0.0
 11
0.0
 21
5.542350000000007
 31
0.0
210
0.0
220
0.0
230
1.0
 40
0.9815421256326289
 41
0.0000000523598744
 42
1.4797615238072
  0
LINE
  5
293
330
1F
100
AcDbEntity
  8
2
 62
     7
 48
0.412785
370
    60
100
AcDbLine
 10
261.0998861058
 20
617.2001429232
 30
0.0
 11
293.7627039564
 21
617.2001429232
 31
0.0
  0
ELLIPSE
  5
294
330
1F
100
AcDbEntity
  8
2
 62
     7
370
    60
100
AcDbEllipse
 10
261.0998861058
 20
611.6577929232001
 30
0.0
 11
0.0
 21
5.542350000000007
 31
0.0
210
0.0
220
0.0
230
1.0
 40
0.9815421256326289
 41
0.0000000523598744
 42
1.4797615238072
  0
LINE
  5
295
330
1F
100
AcDbEntity
  8
2
 62
     7
 48
0.48125
370
    60
100
AcDbLine
 10
255.6823539564
 20
612.1616429232
 30
0.0
 11
293.7627039564
 21
612.1616429232
 31
0.0
  0
LWPOLYLINE
  5
296
330
1F
100
AcDbEntity
  8
2
 62
     7
370
    60
100
AcDbPolyline
 90
       43
 70
     1
 43
0.0
 10
392.8409538228001
 20
524.9955929232
 10
392.7316859676001
 20
524.9853224448001
 10
392.6232608256
 20
524.9547548730001
 10
392.4078605622
 20
524.8296529488
 10
392.1957203724
 20
524.6100186876
 10
391.9952931048001
 20
524.2831792542
 10
391.8216704472
 20
523.843725315
 10
391.6942882146
 20
523.3014960528001
 10
391.6315041030001
 20
522.6863214030001
 10
391.6451477484
 20
522.0456841896
 10
391.6811292282
 20
521.7345306144
 10
391.73582448
 20
521.4353686692001
 10
391.8059734302
 20
521.1608107272
 10
391.8918193974
 20
520.9062415224
 10
391.9868422344
 20
520.6866677232001
 10
392.0934553452
 20
520.4916354498
 10
392.2021198494
 20
520.3344282036
 10
392.3182718406
 20
520.2026835209999
 10
392.4311637582001
 20
520.1050756836
 10
392.5481604408
 20
520.031515599
 10
392.6598456564
 20
519.9853246464
 10
392.7732202548
 20
519.9610310148
 10
392.8828520988
 20
519.9585702114001
 10
392.992119954
 20
519.9767148576
 10
393.2081235684
 20
520.0751228088
 10
393.4218324708
 20
520.2643124376001
 10
393.627211173
 20
520.5570754878
 10
393.8109780402
 20
520.9622111958
 10
393.9546586626
 20
521.4750398028
 10
394.038933939
 20
522.0721322838
 10
394.049438181
 20
522.7107399894
 10
394.0251696234
 20
523.0279841034
 10
393.9818252832001
 20
523.336308057
 10
393.9213339054
 20
523.6245223494001
 10
393.8439388086001
 20
523.8948983364
 10
393.755438097
 20
524.1327377058
 10
393.6538951128001
 20
524.346960618
 10
393.5483680338
 20
524.523418965
 10
393.4340280738001
 20
524.6744147484001
 10
393.3217395072
 20
524.789552535
 10
393.2042601438
 20
524.8801487958001
 10
393.091850907
 20
524.941161
 10
392.9772696066
 20
524.9796632016
  0
LWPOLYLINE
  5
297
330
1F
100
AcDbEntity
  8
2
 62
     7
370
    60
100
AcDbPolyline
 90
       89
 70
     1
 43
0.0
 10
392.8409538228001
 20
568.0747679232
 10
392.6167406784
 20
568.0646828616001
 10
392.3928895446001
 20
568.0342986912
 10
391.9456699578
 20
567.9123952068
 10
391.4984483928001
 20
567.7059839850001
 10
391.051228806
 20
567.4095911994001
 10
390.6059419206
 20
567.0166345536
 10
390.1664491830001
 20
566.5200420090001
 10
389.7381847086
 20
565.9137855042001
 10
389.3288773248
 20
565.1939309784
 10
388.9473399126001
 20
564.3594908856
 10
388.6032300444
 20
563.4138490824
 10
388.3070559186
 20
562.365002676
 10
388.0682337672
 20
561.2258038722
 10
387.895574493
 20
560.0141534538001
 10
387.7959642102001
 20
558.7521905898
 10
387.7737490242
 20
557.4653193972
 10
387.7922214558
 20
556.8212378652
 10
387.8303749992
 20
556.1807235911999
 10
387.8878476438001
 20
555.5490045227999
 10
387.9645167412
 20
554.9257098264001
 10
388.0589362272
 20
554.319455337
 10
388.1714661342
 20
553.7261155308
 10
388.2995704098001
 20
553.1569464168001
 10
388.4444577342001
 20
552.604692555
 10
388.601782002
 20
552.0822666132
 10
388.7741979576001
 20
551.5798314240001
 10
388.9559114532
 20
551.1112851858
 10
389.150544573
 20
550.6648821474
 10
389.3510925108001
 20
550.2546414312001
 10
389.5625086794
 20
549.8679587256
 10
389.7765795924
 20
549.5178716532
 10
389.9997067050001
 20
549.1919572884001
 10
390.2225924772001
 20
548.9015905488001
 10
390.4526017476
 20
548.6353360548001
 10
390.6800749656
 20
548.4024767388
 10
390.912982299
 20
548.1931754334
 10
391.1420262078
 20
548.0143187604001
 10
391.3750542114001
 20
547.8582804462001
 10
391.6036134612
 20
547.7293653852
 10
391.8348294336
 20
547.6224081072
 10
392.0618199708
 20
547.5396819834001
 10
392.290501869
 20
547.4779926048
 10
392.5159236936
 20
547.4381985318
 10
392.7419488692
 20
547.418886969
 10
392.966403354
 20
547.420055901
 10
393.1904958282
 20
547.441519911
 10
393.637715415
 20
547.5452807646001
 10
394.08493698
 20
547.7327472264
 10
394.532277237
 20
548.0087824566001
 10
394.9781694516
 20
548.3798437968
 10
395.4194722422
 20
548.8530012702
 10
395.8507554498
 20
549.4346557872001
 10
396.26501229
 20
550.1293561056001
 10
396.6535525302
 20
550.9386399756
 10
397.0067166198
 20
551.8602340260001
 10
397.3143623274
 20
552.8873080662
 10
397.5665867838
 20
554.0079934056
 10
397.754458416
 20
555.2054977314
 10
397.8706104072
 20
556.4584174956
 10
397.9100913228
 20
557.7420922638
 10
397.900311102
 20
558.387096849
 10
397.8708517476
 20
559.0295176914
 10
397.8218319516
 20
559.665172836
 10
397.7534930544
 20
560.2933851084001
 10
397.6670437362
 20
560.906346849
 10
397.5621200082001
 20
561.5072504514001
 10
397.4410185606001
 20
562.0855231272
 10
397.3028927238
 20
562.6476181872
 10
397.1516039442
 20
563.1810522438001
 10
396.9848634444
 20
563.6951122602001
 10
396.8079787350001
 20
564.1760209619999
 10
396.617814369
 20
564.6351552822
 10
396.4210091856
 20
565.0584960984
 10
396.2127324204001
 20
565.4585247827999
 10
396.0011975598001
 20
565.8218973720001
 10
395.7802425108001
 20
566.161159731
 10
395.5589274294
 20
566.4645640932
 10
395.3301248610001
 20
566.7437977632001
 10
395.1033756642
 20
566.9890195428001
 10
394.8707096712001
 20
567.2106208344001
 10
394.6417884108
 20
567.4010418726
 10
394.408639737
 20
567.5684591352
 10
394.1798371686
 20
567.7079530308
 10
393.9481385154
 20
567.825426666
 10
393.7207859676
 20
567.91805445
 10
393.4915007184001
 20
567.9893996100001
 10
393.2657168832001
 20
568.0384201842
 10
393.0392090268
 20
568.0668353088
  0
LWPOLYLINE
  5
298
330
1F
100
AcDbEntity
  8
2
 62
     7
370
    60
100
AcDbPolyline
 90
       57
 70
     0
 43
0.0
 10
392.8409538228001
 20
542.6303429232
 10
393.1551196776
 20
542.6404300002
 10
393.4689215436001
 20
542.6706912312
 10
394.0950792114
 20
542.7920404806001
 10
394.7191815294
 20
542.9954991413999
 10
395.3406291030001
 20
543.2833446156
 10
395.9577305712
 20
543.6586483728
 10
396.5680705518
 20
544.1246713301999
 10
397.1685076632
 20
544.6849847766
 10
397.754458416
 20
545.3424122874
 10
398.3208487272
 20
546.0989874012
 10
398.86139979
 20
546.9555082164
 10
399.369352095
 20
547.9109287404
 10
399.837582144
 20
548.9622359502
 10
400.2584798016001
 20
550.1042623602001
 10
400.6250461962001
 20
551.3292607728
 10
400.9301558514001
 20
552.6272025576001
 10
401.1678919710001
 20
553.9859126832001
 10
401.3330637582001
 20
555.3909346854
 10
401.422169799
 20
556.8264033354
 10
401.4327947112
 20
558.2752804416
 10
401.4084054834
 20
558.9990105816
 10
401.364455814
 20
559.7199131154
 10
401.3009476812001
 20
560.4342938148001
 10
401.2182411174001
 20
561.1425880062001
 10
401.1168188034
 20
561.8391324156
 10
400.9968033876
 20
562.5264523392001
 10
400.8595222422001
 20
563.1971653668
 10
400.7043720162
 20
563.8557638249999
 10
400.5338867838
 20
564.4934484774001
 10
400.346741151
 20
565.1164952796
 10
400.1461912350001
 20
565.7150630334
 10
399.9301895988
 20
566.2967175504
 10
399.7031970834
 20
566.8511863368
 10
399.4622008902001
 20
567.3870791814
 10
399.2126331564
 20
567.8936983410001
 10
398.9503851606
 20
568.3804496874001
 10
398.6821016766
 20
568.8367564014001
 10
398.4025899294
 20
569.2722742644
 10
398.1192127794
 20
569.6770391388
 10
397.8262987272
 20
570.0604004652
 10
397.5314519736
 20
570.4134400986
 10
397.2285163602
 20
570.7446448884001
 10
396.9253394064
 20
571.0465739778001
 10
396.6153989868001
 20
571.3266682236
 10
396.3065465772
 20
571.5788391024
 10
395.9922620304
 20
571.809237615
 10
395.680028877
 20
572.0133734502
 10
395.3634496182
 20
572.19604326
 10
395.0492837634001
 20
572.354171544
 10
394.7319804834
 20
572.4911441741999
 10
394.4172112776
 20
572.6051755062001
 10
394.100149338
 20
572.6983555098
 10
393.7852594620001
 20
572.7698860866
 10
393.4691628840001
 20
572.8209341531999
 10
393.1552403478
 20
572.8512578616001
 10
392.8409538228001
 20
572.8613429232
  0
LWPOLYLINE
  5
299
330
1F
100
AcDbEntity
  8
2
 62
     7
370
    60
100
AcDbPolyline
 90
       52
 70
     0
 43
0.0
 10
392.8409538228001
 20
572.8613429232
 10
392.6127565836
 20
572.8512578616001
 10
392.384921355
 20
572.8208736912
 10
391.9284042282
 20
572.6988472674001
 10
391.4691097086
 20
572.4914525304
 10
391.0053484134
 20
572.1923530626001
 10
390.5371203426
 20
571.793184954
 10
390.0663542412
 20
571.2844758246001
 10
389.5963161174001
 20
570.6568157718
 10
389.1326754924
 20
569.9018408856001
 10
388.6818318432
 20
569.0133981498001
 10
388.2523606668001
 20
567.9880472766
 10
387.852954174
 20
566.826644811
 10
387.4936319478001
 20
565.534299792
 10
387.1836935064001
 20
564.12134316
 10
386.9324344116001
 20
562.6031504016
 10
386.7478228530001
 20
561.0000790722
 10
386.6362602858001
 20
559.3367976678
 10
386.6017288266
 20
557.6412235092
 10
386.6140431216
 20
556.790607816
 10
386.6460405066001
 20
555.9430676232
 10
386.697596355
 20
555.1036454616
 10
386.7684693264001
 20
554.2726496874001
 10
386.8576960374
 20
553.459121385
 10
386.9655178284
 20
552.6588785994
 10
387.0897586794
 20
551.8847735364001
 10
387.23126526
 20
551.1283233774
 10
387.3867774966
 20
550.4050829796
 10
387.5581074204001
 20
549.7032481452001
 10
387.7403035968
 20
549.0402238686
 10
387.9367467696001
 20
548.4013702842001
 10
388.1406774294
 20
547.8050154396
 10
388.3570430544
 20
547.2348023484001
 10
388.5777547848
 20
546.7090570428
 10
388.8089707572
 20
546.2104349904
 10
389.0412747396001
 20
545.756464125
 10
389.2823916030001
 20
545.3299268844
 10
389.5218190836
 20
544.94662602
 10
389.7682493922
 20
544.5903899622
 10
390.0108142980001
 20
544.2748065378
 10
390.2589359676001
 20
543.9854253288
 10
390.5015008734
 20
543.7331315106001
 10
390.7482931926
 20
543.5059314378001
 10
390.9885653646
 20
543.3118826796
 10
391.23197694
 20
543.1415753334
 10
391.4689890384
 20
543.0002978088
 10
391.7080525302
 20
542.8816532262
 10
391.9413218742
 20
542.7882898212
 10
392.1759205686
 20
542.7165133656
 10
392.4061711794
 20
542.6671239732001
 10
392.6370251412
 20
542.6384629698
 10
392.8409538228001
 20
542.6303429232
  0
LINE
  5
29C
330
1F
100
AcDbEntity
  8
2
 62
     7
370
    60
100
AcDbLine
 10
410.4764426322
 20
628.2848429232
 30
0.0
 11
410.4764426322
 21
509.7032980044
 31
0.0
  0
ELLIPSE
  5
29D
330
1F
100
AcDbEntity
  8
2
 62
     7
370
    60
100
AcDbEllipse
 10
298.2136539564
 20
490.7337929232
 30
0.0
 11
0.0
 21
7.55775000000001
 31
0.0
210
0.0
220
0.0
230
1.0
 40
0.9815421256326289
 41
0.0000000523598713
 42
1.570796413682847
  0
ELLIPSE
  5
29E
330
1F
100
AcDbEntity
  8
2
 62
     7
370
    60
100
AcDbEllipse
 10
410.4764426322
 20
503.3300429232
 30
0.0
 11
0.0
 21
4.030800000000005
 31
0.0
210
0.0
220
0.0
230
1.0
 40
0.9815421256326289
 41
-1.570796275175764
 42
-0.4429111047211696
  0
ELLIPSE
  5
29F
330
1F
100
AcDbEntity
  8
2
 62
     7
370
    60
100
AcDbEllipse
 10
413.4437426322
 20
509.7032980044
 30
0.0
 11
0.0
 21
3.023099999999979
 31
0.0
210
0.0
220
0.0
230
1.0
 40
0.9815421256326289
 41
1.570796169801418
 42
2.698681513962038
  0
ELLIPSE
  5
2A0
330
1F
100
AcDbEntity
  8
2
 62
     7
370
    60
100
AcDbEllipse
 10
177.0489039564
 20
503.3300429232
 30
0.0
 11
0.0
 21
4.0308
 31
0.0
210
0.0
220
0.0
230
1.0
 40
0.9815421256326289
 41
0.4429110872678721
 42
1.570796413682847
  0
ELLIPSE
  5
2A1
330
1F
100
AcDbEntity
  8
2
 62
     7
370
    60
100
AcDbEllipse
 10
174.0816039564
 20
509.7032980044
 30
0.0
 11
0.0
 21
3.023100000000011
 31
0.0
210
0.0
220
0.0
230
1.0
 40
0.981542125632629
 41
3.584503810670838
 42
4.712389032003823
  0
LINE
  5
2A2
330
1F
100
AcDbEntity
  8
2
 62
     7
 48
0.029386
370
    60
100
AcDbLine
 10
311.8315273668
 20
469.6082895072
 30
0.0
 11
312.9941313324
 21
467.5566929232
 31
0.0
  0
LINE
  5
2A3
330
1F
100
AcDbEntity
  8
2
 62
     7
 48
0.029386
370
    60
100
AcDbLine
 10
305.366880546
 20
469.6082895072
 30
0.0
 11
304.2042172344
 21
467.5566929232
 31
0.0
  0
ELLIPSE
  5
2A4
330
1F
100
AcDbEntity
  8
2
 62
     7
370
    60
100
AcDbEllipse
 10
313.5447039564
 20
470.6159895072
 30
0.0
 11
0.0
 21
2.015400000000025
 31
0.0
210
0.0
220
0.0
230
1.0
 40
0.9815421256326289
 41
1.570796169801418
 42
2.094395084939906
  0
ELLIPSE
  5
2A5
330
1F
100
AcDbEntity
  8
2
 62
     7
370
    60
100
AcDbEllipse
 10
303.6537039564
 20
470.6159895072
 30
0.0
 11
0.0
 21
2.015399999999998
 31
0.0
210
0.0
220
0.0
230
1.0
 40
0.9815421256326289
 41
4.188790501492361
 42
4.712389032003823
  0
ELLIPSE
  5
2A6
330
1F
100
AcDbEntity
  8
2
 62
     7
370
    60
100
AcDbEllipse
 10
303.3476289396
 20
468.0605429232
 30
0.0
 11
0.0
 21
1.0077
 31
0.0
210
0.0
220
0.0
230
1.0
 40
0.9815421256326289
 41
3.141592671043092
 42
4.188790501492393
  0
ELLIPSE
  5
2A7
330
1F
100
AcDbEntity
  8
2
 62
     7
370
    60
100
AcDbEllipse
 10
313.850717649
 20
468.0605429232
 30
0.0
 11
0.0
 21
1.007699999999982
 31
0.0
210
0.0
220
0.0
230
1.0
 40
0.9815421256326289
 41
2.094394875500386
 42
3.141592671043064
  0
ELLIPSE
  5
2A8
330
1F
100
AcDbEntity
  8
2
 62
     7
370
    60
100
AcDbEllipse
 10
-26.18296065
 20
149.5933612638
 30
0.0
 11
0.0
 21
555.5389093842
 31
0.0
210
0.0
220
0.0
230
1.0
 40
0.9815421256326289
 41
-1.537121333341684
 42
-1.164869080536046
  0
ELLIPSE
  5
2A9
330
1F
100
AcDbEntity
  8
2
 62
     7
370
    60
100
AcDbEllipse
 10
519.7812901722
 20
168.331528656
 30
0.0
 11
0.0
 21
1.007699999999949
 31
0.0
210
0.0
220
0.0
230
1.0
 40
0.9815421256326289
 41
1.604471372608002
 42
3.141592671043092
  0
LINE
  5
2AA
330
1F
100
AcDbEntity
  8
2
 62
     7
370
    60
100
AcDbLine
 10
293.7627039564
 20
167.323828656
 30
0.0
 11
525.2291876916
 21
167.323828656
 31
0.0
  0
ELLIPSE
  5
2AB
330
1F
100
AcDbEntity
  8
2
 62
     7
370
    60
100
AcDbEllipse
 10
525.2291876916
 20
163.796878656
 30
0.0
 11
0.0
 21
3.526949999999968
 31
0.0
210
0.0
220
0.0
230
1.0
 40
0.9815421256326289
 41
-1.553343086634835
 42
0.0000000523598647
  0
LINE
  5
2AC
330
1F
100
AcDbEntity
  8
2
 62
     7
 48
0.063273
370
    60
100
AcDbLine
 10
528.6905550108
 20
163.8584471106
 30
0.0
 11
528.7778509986001
 21
158.758378656
 31
0.0
  0
ELLIPSE
  5
2AD
330
1F
100
AcDbEntity
  8
2
 62
     7
370
    60
100
AcDbEllipse
 10
318.4181816508
 20
312.3714773892
 30
0.0
 11
0.0
 21
163.9071653748
 31
0.0
210
0.0
220
0.0
230
1.0
 40
0.9815421256326288
 41
-1.210081974435299
 42
-0.3371135738818243
  0
ELLIPSE
  5
2AE
330
1F
100
AcDbEntity
  8
2
 62
     7
370
    60
100
AcDbEllipse
 10
469.871826417
 20
370.5769468716001
 30
0.0
 11
0.0
 21
1.007700000000006
 31
0.0
210
0.0
220
0.0
230
1.0
 40
0.9815421256326289
 41
1.931508706932463
 42
3.141592671043092
  0
LINE
  5
2AF
330
1F
100
AcDbEntity
  8
2
 62
     7
370
    60
100
AcDbLine
 10
293.7627039564
 20
369.5692468716001
 30
0.0
 11
473.8814716482
 21
369.5692468716001
 31
0.0
  0
ELLIPSE
  5
2B0
330
1F
100
AcDbEntity
  8
2
 62
     7
370
    60
100
AcDbEllipse
 10
473.8814716482
 20
368.5615468716001
 30
0.0
 11
0.0
 21
1.007700000000015
 31
0.0
210
0.0
220
0.0
230
1.0
 40
0.9815421256326289
 41
-1.164869080536055
 42
0.0000000523598482
  0
ELLIPSE
  5
2B1
330
1F
100
AcDbEntity
  8
2
 62
     7
370
    60
100
AcDbEllipse
 10
613.70836065
 20
149.5933612638
 30
0.0
 11
0.0
 21
555.5389093842
 31
0.0
210
0.0
220
0.0
230
1.0
 40
0.9815421256326289
 41
1.164869220162378
 42
1.537121228621921
  0
ELLIPSE
  5
2B2
330
1F
100
AcDbEntity
  8
2
 62
     7
370
    60
100
AcDbEllipse
 10
67.7440485036
 20
168.331528656
 30
0.0
 11
0.0
 21
1.0077
 31
0.0
210
0.0
220
0.0
230
1.0
 40
0.9815421256326289
 41
3.141592671043078
 42
4.678713952024879
  0
LINE
  5
2B3
330
1F
100
AcDbEntity
  8
2
 62
     7
370
    60
100
AcDbLine
 10
62.2961509842
 20
167.323828656
 30
0.0
 11
293.7627039564
 21
167.323828656
 31
0.0
  0
ELLIPSE
  5
2B4
330
1F
100
AcDbEntity
  8
2
 62
     7
370
    60
100
AcDbEllipse
 10
62.2961509842
 20
163.796878656
 30
0.0
 11
0.0
 21
3.526950000000005
 31
0.0
210
0.0
220
0.0
230
1.0
 40
0.9815421256326289
 41
0.000000052359874
 42
1.553343226261166
  0
LINE
  5
2B5
330
1F
100
AcDbEntity
  8
2
 62
     7
 48
0.063273
370
    60
100
AcDbLine
 10
58.83484498920001
 20
163.8584471106
 30
0.0
 11
58.7474896554
 21
158.758378656
 31
0.0
  0
ELLIPSE
  5
2B6
330
1F
100
AcDbEntity
  8
2
 62
     7
370
    60
100
AcDbEllipse
 10
269.1071649378001
 20
312.3714773892
 30
0.0
 11
0.0
 21
163.9071653748
 31
0.0
210
0.0
220
0.0
230
1.0
 40
0.9815421256326288
 41
0.3371134342554774
 42
1.210081974435292
  0
ELLIPSE
  5
2B7
330
1F
100
AcDbEntity
  8
2
 62
     7
370
    60
100
AcDbEllipse
 10
117.653514237
 20
370.5769468716001
 30
0.0
 11
0.0
 21
1.0077
 31
0.0
210
0.0
220
0.0
230
1.0
 40
0.9815421256326289
 41
3.141592671043078
 42
4.351676635153733
  0
LINE
  5
2B8
330
1F
100
AcDbEntity
  8
2
 62
     7
370
    60
100
AcDbLine
 10
113.6438670276
 20
369.5692468716001
 30
0.0
 11
293.7627039564
 21
369.5692468716001
 31
0.0
  0
ELLIPSE
  5
2B9
330
1F
100
AcDbEntity
  8
2
 62
     7
370
    60
100
AcDbEllipse
 10
113.6438670276
 20
368.5615468716001
 30
0.0
 11
0.0
 21
1.007700000000001
 31
0.0
210
0.0
220
0.0
230
1.0
 40
0.9815421256326289
 41
0.0000000523598771
 42
1.164869220162376
  0
LINE
  5
2BA
330
1F
100
AcDbEntity
  8
2
 62
     7
370
    60
100
AcDbLine
 10
58.7474896554
 20
158.758378656
 30
0.0
 11
528.7778509986001
 21
158.758378656
 31
0.0
  0
DIMENSION
  5
2D5
330
1F
100
AcDbEntity
  8
0
370
    40
100
AcDbDimension
  2
*D12
 10
3.249443697186848
 20
158.758378656
 30
0.0
 11
-8.750556302813152
 21
423.7560248772
 31
0.0
 70
    32
 71
     5
 41
2.5
 42
529.9952924424001
  3
ISO-25
100
AcDbAlignedDimension
 13
294.2572539564
 23
688.7536710984001
 33
0.0
 14
294.2572539564
 24
158.758378656
 34
0.0
 50
90.0
100
AcDbRotatedDimension
1001
ACAD
1000
DSTYLE
1002
{
1070
    41
1040
10.0
1070
   140
1040
14.0
1070
   147
1040
5.0
1070
   176
1070
     7
1070
   177
1070
     7
1070
   271
1070
     0
1002
}
  0
DIMENSION
  5
2F7
330
1F
100
AcDbEntity
  8
0
100
AcDbDimension
  2
*D18
 10
528.7778509986001
 20
120.9576597498195
 30
0.0
 11
293.7845091604501
 21
132.9576597498195
 31
0.0
 70
   160
  1
Ø470
 71
     5
 41
2.5
 42
469.9866836763001
  3
ISO-25
100
AcDbAlignedDimension
 13
58.79116732230001
 23
161.3084128833
 33
0.0
 14
528.7778509986001
 24
158.758378656
 34
0.0
100
AcDbRotatedDimension
1001
ACAD
1000
DSTYLE
1002
{
1070
    41
1040
10.0
1070
   140
1040
14.0
1070
   147
1040
5.0
1070
   176
1070
     7
1070
   177
1070
     7
1070
   271
1070
     0
1002
}
  0
VIEWPORT
  5
BB
330
73
100
AcDbEntity
 67
     1
  8
0
100
AcDbViewport
 10
7.8
 20
4.5
 30
0.0
 40
15.64
 41
9.0
 68
     1
 69
     1
 12
6.0
 22
4.5
 13
0.0
 23
0.0
 14
0.5
 24
0.5
 15
0.5
 25
0.5
 16
0.0
 26
0.0
 36
1.0
 17
0.0
 27
0.0
 37
0.0
 42
50.0
 43
0.0
 44
0.0
 45
12.0
 50
0.0
 51
0.0
 72
   100
 90
   557152
  1

281
     0
 71
     1
 74
     0
110
0.0
120
0.0
130
0.0
111
1.0
121
0.0
131
0.0
112
0.0
122
1.0
132
0.0
 79
     0
146
0.0
  0
ENDSEC
  0
SECTION
  2
OBJECTS
  0
DICTIONARY
  5
C
330
0
100
AcDbDictionary
281
     1
  3
ACAD_COLOR
350
6C
  3
ACAD_GROUP
350
D
  3
ACAD_LAYOUT
350
1A
  3
ACAD_MATERIAL
350
6B
  3
ACAD_MLEADERSTYLE
350
36D
  3
ACAD_MLINESTYLE
350
17
  3
ACAD_PLOTSETTINGS
350
19
  3
ACAD_PLOTSTYLENAME
350
E
  3
ACAD_SCALELIST
350
99
  3
ACAD_TABLESTYLE
350
92
  3
ACDBHEADERROUNDTRIPXREC
350
36E
  3
AcDbVariableDictionary
350
59
  3
DWGPROPS
350
371
  0
DICTIONARY
  5
6C
102
{ACAD_REACTORS
330
C
102
}
330
C
100
AcDbDictionary
281
     1
  0
DICTIONARY
  5
D
102
{ACAD_REACTORS
330
C
102
}
330
C
100
AcDbDictionary
281
     1
  0
DICTIONARY
  5
1A
102
{ACAD_REACTORS
330
C
102
}
330
C
100
AcDbDictionary
281
     1
  3
Layout1
350
74
  3
Layout2
350
345
  3
Model
350
22
  0
DICTIONARY
  5
6B
102
{ACAD_REACTORS
330
C
102
}
330
C
100
AcDbDictionary
281
     1
  0
DICTIONARY
  5
36D
102
{ACAD_REACTORS
330
C
102
}
330
C
100
AcDbDictionary
281
     1
  0
DICTIONARY
  5
17
102
{ACAD_REACTORS
330
C
102
}
330
C
100
AcDbDictionary
281
     1
  3
Standard
350
18
  0
DICTIONARY
  5
19
102
{ACAD_REACTORS
330
C
102
}
330
C
100
AcDbDictionary
281
     1
  0
ACDBDICTIONARYWDFLT
  5
E
102
{ACAD_REACTORS
330
C
102
}
330
C
100
AcDbDictionary
281
     1
  3
Normal
350
F
100
AcDbDictionaryWithDefault
340
F
  0
DICTIONARY
  5
99
102
{ACAD_REACTORS
330
C
102
}
330
C
100
AcDbDictionary
281
     1
  3
A0
350
D5
  3
A1
350
D6
  3
A2
350
D7
  3
A3
350
D8
  3
A4
350
D9
  3
A5
350
DA
  3
A6
350
DB
  3
A7
350
DC
  3
A8
350
DD
  3
A9
350
DE
  3
B0
350
DF
  3
B1
350
E0
  3
B2
350
E1
  3
B3
350
E2
  3
B4
350
E3
  3
B5
350
E4
  3
B6
350
E5
  3
B7
350
E6
  3
B8
350
E7
  3
B9
350
E8
  3
C0
350
E9
  3
C1
350
EA
  3
C2
350
EB
  3
C3
350
EC
  3
C4
350
ED
  3
C5
350
EE
  3
C6
350
EF
  3
C7
350
F0
  3
C8
350
F1
  3
C9
350
F2
  3
D0
350
F3
  3
D1
350
F4
  3
D2
350
F5
  0
DICTIONARY
  5
92
102
{ACAD_REACTORS
330
C
102
}
330
C
100
AcDbDictionary
281
     1
  0
DICTIONARY
  5
36E
102
{ACAD_REACTORS
330
C
102
}
330
C
100
AcDbDictionary
281
     1
  3
COLORDICT
350
36F
  3
MATERIALDICT
350
370
  0
DICTIONARY
  5
59
102
{ACAD_REACTORS
330
C
102
}
330
C
100
AcDbDictionary
281
     1
  3
CTABLESTYLE
350
98
  3
DIMASSOC
350
5A
  3
HIDETEXT
350
5E
  0
XRECORD
  5
371
102
{ACAD_REACTORS
330
C
102
}
330
C
100
AcDbXrecord
280
     1
  1
DWGPROPS COOKIE
  2

  3

  4

  6

  7

  8
BelottiMc
  9

300
=
301
=
302
=
303
=
304
=
305
=
306
=
307
=
308
=
309
=
 40
0.0
 41
2455239.664354109
 42
2455239.664354132
  1

 90
        0
  0
LAYOUT
  5
74
102
{ACAD_REACTORS
330
1A
102
}
330
1A
100
AcDbPlotSettings
  1

  2
ProgeSOFT PDF Wizard
  4
A4
  6

 40
5.926666666666667
 41
6.011333333333317
 42
6.095999999999985
 43
5.926666666666667
 44
210.0
 45
297.0
 46
88.56200000000001
 47
136.531
 48
0.0
 49
0.0
140
0.0
141
0.0
142
1.0
143
1.0
 70
   692
 72
     1
 73
     0
 74
     0
  7

 75
    16
147
1.0
148
4.426666666666668
149
1.5
100
AcDbLayout
  1
Layout1
 70
     1
 71
     1
 10
0.0
 20
0.0
 11
0.0
 21
0.0
 12
0.0
 22
0.0
 32
0.0
 14
0.0
 24
0.0
 34
0.0
 15
0.0
 25
0.0
 35
0.0
146
0.0
 13
0.0
 23
0.0
 33
0.0
 16
1.0
 26
0.0
 36
0.0
 17
0.0
 27
1.0
 37
0.0
 76
     0
330
D1
331
36C
1001
PROGE_PRINT_SETTINGS
1070
    73
1070
     1
  0
LAYOUT
  5
345
102
{ACAD_REACTORS
330
1A
102
}
330
1A
100
AcDbPlotSettings
  1

  2
ProgeSOFT PDF Wizard
  4
A4
  6

 40
5.926666666666667
 41
6.011333333333317
 42
6.095999999999985
 43
5.926666666666667
 44
210.0
 45
297.0
 46
88.562
 47
136.531
 48
0.0
 49
0.0
140
0.0
141
0.0
142
1.0
143
1.0
 70
   692
 72
     1
 73
     0
 74
     0
  7

 75
    16
147
1.0
148
0.0
149
0.0
100
AcDbLayout
  1
Layout2
 70
     1
 71
     2
 10
0.0
 20
0.0
 11
12.0
 21
9.0
 12
0.0
 22
0.0
 32
0.0
 14
0.0
 24
0.0
 34
0.0
 15
12.0
 25
9.0
 35
0.0
146
0.0
 13
0.0
 23
0.0
 33
0.0
 16
1.0
 26
0.0
 36
0.0
 17
0.0
 27
1.0
 37
0.0
 76
     0
330
73
331
BB
1001
PROGE_PRINT_SETTINGS
1070
    73
1070
     1
  0
LAYOUT
  5
22
102
{ACAD_REACTORS
330
1A
102
}
330
1A
100
AcDbPlotSettings
  1

  2
ProgeSOFT PDF Wizard
  4
A4
  6

 40
5.926666666666667
 41
6.011333333333317
 42
6.095999999999985
 43
5.926666666666667
 44
210.0
 45
297.0
 46
-0.0000000000000115
 47
83.07219027892846
 48
0.0
 49
0.0
140
0.0
141
0.0
142
1.0
143
7.811328671100657
 70
 11956
 72
     1
 73
     0
 74
     0
  7

 75
     0
147
0.1280191939304347
148
555.5971663631396
149
190.6705678653834
100
AcDbLayout
  1
Model
 70
     1
 71
     0
 10
0.0
 20
0.0
 11
0.0
 21
0.0
 12
0.0
 22
0.0
 32
0.0
 14
-15.75055630281315
 24
0.0
 34
0.0
 15
528.7782929813478
 25
688.7536710984001
 35
0.0
146
0.0
 13
0.0
 23
0.0
 33
0.0
 16
1.0
 26
0.0
 36
0.0
 17
0.0
 27
1.0
 37
0.0
 76
     0
330
1F
331
97
1001
PROGE_PRINT_SETTINGS
1070
    73
1070
     1
  0
MLINESTYLE
  5
18
102
{ACAD_REACTORS
330
17
102
}
330
17
100
AcDbMlineStyle
  2
STANDARD
 70
     0
  3

 62
   256
 51
90.0
 52
90.0
 71
     2
 49
0.5
 62
   256
  6
BYLAYER
 49
-0.5
 62
   256
  6
BYLAYER
  0
ACDBPLACEHOLDER
  5
F
102
{ACAD_REACTORS
330
E
102
}
330
E
  0
SCALE
  5
D5
102
{ACAD_REACTORS
330
99
102
}
330
99
100
AcDbScale
 70
     0
300
1:1
140
1.0
141
1.0
290
     1
  0
SCALE
  5
D6
102
{ACAD_REACTORS
330
99
102
}
330
99
100
AcDbScale
 70
     0
300
1:2
140
1.0
141
2.0
290
     0
  0
SCALE
  5
D7
102
{ACAD_REACTORS
330
99
102
}
330
99
100
AcDbScale
 70
     0
300
1:4
140
1.0
141
4.0
290
     0
  0
SCALE
  5
D8
102
{ACAD_REACTORS
330
99
102
}
330
99
100
AcDbScale
 70
     0
300
1:5
140
1.0
141
5.0
290
     0
  0
SCALE
  5
D9
102
{ACAD_REACTORS
330
99
102
}
330
99
100
AcDbScale
 70
     0
300
1:8
140
1.0
141
8.0
290
     0
  0
SCALE
  5
DA
102
{ACAD_REACTORS
330
99
102
}
330
99
100
AcDbScale
 70
     0
300
1:10
140
1.0
141
10.0
290
     0
  0
SCALE
  5
DB
102
{ACAD_REACTORS
330
99
102
}
330
99
100
AcDbScale
 70
     0
300
1:16
140
1.0
141
16.0
290
     0
  0
SCALE
  5
DC
102
{ACAD_REACTORS
330
99
102
}
330
99
100
AcDbScale
 70
     0
300
1:20
140
1.0
141
20.0
290
     0
  0
SCALE
  5
DD
102
{ACAD_REACTORS
330
99
102
}
330
99
100
AcDbScale
 70
     0
300
1:30
140
1.0
141
30.0
290
     0
  0
SCALE
  5
DE
102
{ACAD_REACTORS
330
99
102
}
330
99
100
AcDbScale
 70
     0
300
1:40
140
1.0
141
40.0
290
     0
  0
SCALE
  5
DF
102
{ACAD_REACTORS
330
99
102
}
330
99
100
AcDbScale
 70
     0
300
1:50
140
1.0
141
50.0
290
     0
  0
SCALE
  5
E0
102
{ACAD_REACTORS
330
99
102
}
330
99
100
AcDbScale
 70
     0
300
1:100
140
1.0
141
100.0
290
     0
  0
SCALE
  5
E1
102
{ACAD_REACTORS
330
99
102
}
330
99
100
AcDbScale
 70
     0
300
2:1
140
2.0
141
1.0
290
     0
  0
SCALE
  5
E2
102
{ACAD_REACTORS
330
99
102
}
330
99
100
AcDbScale
 70
     0
300
4:1
140
4.0
141
1.0
290
     0
  0
SCALE
  5
E3
102
{ACAD_REACTORS
330
99
102
}
330
99
100
AcDbScale
 70
     0
300
8:1
140
8.0
141
1.0
290
     0
  0
SCALE
  5
E4
102
{ACAD_REACTORS
330
99
102
}
330
99
100
AcDbScale
 70
     0
300
10:1
140
10.0
141
1.0
290
     0
  0
SCALE
  5
E5
102
{ACAD_REACTORS
330
99
102
}
330
99
100
AcDbScale
 70
     0
300
100:1
140
100.0
141
1.0
290
     0
  0
SCALE
  5
E6
102
{ACAD_REACTORS
330
99
102
}
330
99
100
AcDbScale
 70
     0
300
1/128" = 1'-0"
140
0.0078125
141
12.0
290
     0
  0
SCALE
  5
E7
102
{ACAD_REACTORS
330
99
102
}
330
99
100
AcDbScale
 70
     0
300
1/64" = 1'-0"
140
0.015625
141
12.0
290
     0
  0
SCALE
  5
E8
102
{ACAD_REACTORS
330
99
102
}
330
99
100
AcDbScale
 70
     0
300
1/32" = 1'-0"
140
0.03125
141
12.0
290
     0
  0
SCALE
  5
E9
102
{ACAD_REACTORS
330
99
102
}
330
99
100
AcDbScale
 70
     0
300
1/16" = 1'-0"
140
0.0625
141
12.0
290
     0
  0
SCALE
  5
EA
102
{ACAD_REACTORS
330
99
102
}
330
99
100
AcDbScale
 70
     0
300
3/32" = 1'-0"
140
0.09375
141
12.0
290
     0
  0
SCALE
  5
EB
102
{ACAD_REACTORS
330
99
102
}
330
99
100
AcDbScale
 70
     0
300
1/8" = 1'-0"
140
0.125
141
12.0
290
     0
  0
SCALE
  5
EC
102
{ACAD_REACTORS
330
99
102
}
330
99
100
AcDbScale
 70
     0
300
3/16" = 1'-0"
140
0.1875
141
12.0
290
     0
  0
SCALE
  5
ED
102
{ACAD_REACTORS
330
99
102
}
330
99
100
AcDbScale
 70
     0
300
1/4" = 1'-0"
140
0.25
141
12.0
290
     0
  0
SCALE
  5
EE
102
{ACAD_REACTORS
330
99
102
}
330
99
100
AcDbScale
 70
     0
300
3/8" = 1'-0"
140
0.375
141
12.0
290
     0
  0
SCALE
  5
EF
102
{ACAD_REACTORS
330
99
102
}
330
99
100
AcDbScale
 70
     0
300
1/2" = 1'-0"
140
0.5
141
12.0
290
     0
  0
SCALE
  5
F0
102
{ACAD_REACTORS
330
99
102
}
330
99
100
AcDbScale
 70
     0
300
3/4" = 1'-0"
140
0.75
141
12.0
290
     0
  0
SCALE
  5
F1
102
{ACAD_REACTORS
330
99
102
}
330
99
100
AcDbScale
 70
     0
300
1" = 1'-0"
140
1.0
141
12.0
290
     0
  0
SCALE
  5
F2
102
{ACAD_REACTORS
330
99
102
}
330
99
100
AcDbScale
 70
     0
300
1-1/2" = 1'-0"
140
1.5
141
12.0
290
     0
  0
SCALE
  5
F3
102
{ACAD_REACTORS
330
99
102
}
330
99
100
AcDbScale
 70
     0
300
3" = 1'-0"
140
3.0
141
12.0
290
     0
  0
SCALE
  5
F4
102
{ACAD_REACTORS
330
99
102
}
330
99
100
AcDbScale
 70
     0
300
6" = 1'-0"
140
6.0
141
12.0
290
     0
  0
SCALE
  5
F5
102
{ACAD_REACTORS
330
99
102
}
330
99
100
AcDbScale
 70
     0
300
1'-0" = 1'-0"
140
12.0
141
12.0
290
     0
  0
XRECORD
  5
36F
102
{ACAD_REACTORS
330
36E
102
}
330
36E
100
AcDbXrecord
280
     1
340
6C
  0
XRECORD
  5
370
102
{ACAD_REACTORS
330
36E
102
}
330
36E
100
AcDbXrecord
280
     1
340
6B
  0
DICTIONARYVAR
  5
98
102
{ACAD_REACTORS
330
59
102
}
330
59
100
DictionaryVariables
280
     0
  1
Standard
  0
DICTIONARYVAR
  5
5A
102
{ACAD_REACTORS
330
59
102
}
330
59
100
DictionaryVariables
280
     0
  1
2
  0
DICTIONARYVAR
  5
5E
102
{ACAD_REACTORS
330
59
102
}
330
59
100
DictionaryVariables
280
     0
  1
1
  0
ENDSEC
  0
EOF
