  0
SECTION
  2
HEADER
  9
$ACADVER
  1
AC1015
  9
$ACADMAINTVER
 70
     6
  9
$DWGCODEPAGE
  3
ANSI_1252
  9
$INSBASE
 10
0.0
 20
0.0
 30
0.0
  9
$EXTMIN
 10
4.338115461204553
 20
99.39778818318457
 30
0.0
  9
$EXTMAX
 10
539.9733880174533
 20
613.7144920000001
 30
0.0
  9
$LIMMIN
 10
0.0
 20
0.0
  9
$LIMMAX
 10
0.0
 20
0.0
  9
$ORTHOMODE
 70
     0
  9
$REGENMODE
 70
     1
  9
$FILLMODE
 70
     1
  9
$QTEXTMODE
 70
     0
  9
$MIRRTEXT
 70
     0
  9
$LTSCALE
 40
1.0
  9
$ATTMODE
 70
     1
  9
$TEXTSIZE
 40
2.5
  9
$TRACEWID
 40
1.0
  9
$TEXTSTYLE
  7
Standard
  9
$CLAYER
  8
0
  9
$CELTYPE
  6
ByLayer
  9
$CECOLOR
 62
   256
  9
$CELTSCALE
 40
1.0
  9
$DISPSILH
 70
     0
  9
$DIMSCALE
 40
1.0
  9
$DIMASZ
 40
2.5
  9
$DIMEXO
 40
0.625
  9
$DIMDLI
 40
3.75
  9
$DIMRND
 40
0.0
  9
$DIMDLE
 40
0.0
  9
$DIMEXE
 40
1.25
  9
$DIMTP
 40
0.0
  9
$DIMTM
 40
0.0
  9
$DIMTXT
 40
2.5
  9
$DIMCEN
 40
2.5
  9
$DIMTSZ
 40
0.0
  9
$DIMTOL
 70
     0
  9
$DIMLIM
 70
     0
  9
$DIMTIH
 70
     0
  9
$DIMTOH
 70
     0
  9
$DIMSE1
 70
     0
  9
$DIMSE2
 70
     0
  9
$DIMTAD
 70
     1
  9
$DIMZIN
 70
     8
  9
$DIMBLK
  1

  9
$DIMASO
 70
     1
  9
$DIMSHO
 70
     1
  9
$DIMPOST
  1

  9
$DIMAPOST
  1

  9
$DIMALT
 70
     0
  9
$DIMALTD
 70
     3
  9
$DIMALTF
 40
0.03937007874016
  9
$DIMLFAC
 40
1.0
  9
$DIMTOFL
 70
     1
  9
$DIMTVP
 40
0.0
  9
$DIMTIX
 70
     0
  9
$DIMSOXD
 70
     0
  9
$DIMSAH
 70
     0
  9
$DIMBLK1
  1

  9
$DIMBLK2
  1

  9
$DIMSTYLE
  2
ISO-25
  9
$DIMCLRD
 70
     0
  9
$DIMCLRE
 70
     0
  9
$DIMCLRT
 70
     0
  9
$DIMTFAC
 40
1.0
  9
$DIMGAP
 40
0.625
  9
$DIMJUST
 70
     0
  9
$DIMSD1
 70
     0
  9
$DIMSD2
 70
     0
  9
$DIMTOLJ
 70
     0
  9
$DIMTZIN
 70
     8
  9
$DIMALTZ
 70
     0
  9
$DIMALTTZ
 70
     0
  9
$DIMUPT
 70
     0
  9
$DIMDEC
 70
     2
  9
$DIMTDEC
 70
     2
  9
$DIMALTU
 70
     2
  9
$DIMALTTD
 70
     3
  9
$DIMTXSTY
  7
Standard
  9
$DIMAUNIT
 70
     0
  9
$DIMADEC
 70
     0
  9
$DIMALTRND
 40
0.0
  9
$DIMAZIN
 70
     0
  9
$DIMDSEP
 70
    44
  9
$DIMATFIT
 70
     3
  9
$DIMFRAC
 70
     0
  9
$DIMLDRBLK
  1

  9
$DIMLUNIT
 70
     2
  9
$DIMLWD
 70
    -2
  9
$DIMLWE
 70
    -2
  9
$DIMTMOVE
 70
     0
  9
$LUNITS
 70
     2
  9
$LUPREC
 70
     4
  9
$SKETCHINC
 40
1.0
  9
$FILLETRAD
 40
0.0
  9
$AUNITS
 70
     0
  9
$AUPREC
 70
     0
  9
$MENU
  1
.
  9
$ELEVATION
 40
0.0
  9
$PELEVATION
 40
0.0
  9
$THICKNESS
 40
0.0
  9
$LIMCHECK
 70
     0
  9
$CHAMFERA
 40
0.0
  9
$CHAMFERB
 40
0.0
  9
$CHAMFERC
 40
0.0
  9
$CHAMFERD
 40
0.0
  9
$SKPOLY
 70
     0
  9
$TDCREATE
 40
2455239.637902326
  9
$TDUCREATE
 40
2455239.59623566
  9
$TDUPDATE
 40
2455239.637902326
  9
$TDUUPDATE
 40
2455239.59623566
  9
$TDINDWG
 40
0.0369956019
  9
$TDUSRTIMER
 40
0.0369932407
  9
$USRTIMER
 70
     1
  9
$ANGBASE
 50
0.0
  9
$ANGDIR
 70
     0
  9
$PDMODE
 70
     0
  9
$PDSIZE
 40
0.0
  9
$PLINEWID
 40
0.0
  9
$SPLFRAME
 70
     0
  9
$SPLINETYPE
 70
     6
  9
$SPLINESEGS
 70
     8
  9
$HANDSEED
  5
610
  9
$SURFTAB1
 70
     6
  9
$SURFTAB2
 70
     6
  9
$SURFTYPE
 70
     6
  9
$SURFU
 70
     6
  9
$SURFV
 70
     6
  9
$UCSBASE
  2

  9
$UCSNAME
  2

  9
$UCSORG
 10
0.0
 20
0.0
 30
0.0
  9
$UCSXDIR
 10
1.0
 20
0.0
 30
0.0
  9
$UCSYDIR
 10
0.0
 20
1.0
 30
0.0
  9
$UCSORTHOREF
  2

  9
$UCSORTHOVIEW
 70
     0
  9
$UCSORGTOP
 10
0.0
 20
0.0
 30
0.0
  9
$UCSORGBOTTOM
 10
0.0
 20
0.0
 30
0.0
  9
$UCSORGLEFT
 10
0.0
 20
0.0
 30
0.0
  9
$UCSORGRIGHT
 10
0.0
 20
0.0
 30
0.0
  9
$UCSORGFRONT
 10
0.0
 20
0.0
 30
0.0
  9
$UCSORGBACK
 10
0.0
 20
0.0
 30
0.0
  9
$PUCSBASE
  2

  9
$PUCSNAME
  2

  9
$PUCSORG
 10
0.0
 20
0.0
 30
0.0
  9
$PUCSXDIR
 10
1.0
 20
0.0
 30
0.0
  9
$PUCSYDIR
 10
0.0
 20
1.0
 30
0.0
  9
$PUCSORTHOREF
  2

  9
$PUCSORTHOVIEW
 70
     0
  9
$PUCSORGTOP
 10
0.0
 20
0.0
 30
0.0
  9
$PUCSORGBOTTOM
 10
0.0
 20
0.0
 30
0.0
  9
$PUCSORGLEFT
 10
0.0
 20
0.0
 30
0.0
  9
$PUCSORGRIGHT
 10
0.0
 20
0.0
 30
0.0
  9
$PUCSORGFRONT
 10
0.0
 20
0.0
 30
0.0
  9
$PUCSORGBACK
 10
0.0
 20
0.0
 30
0.0
  9
$USERI1
 70
     0
  9
$USERI2
 70
     0
  9
$USERI3
 70
     0
  9
$USERI4
 70
     0
  9
$USERI5
 70
     0
  9
$USERR1
 40
0.0
  9
$USERR2
 40
0.0
  9
$USERR3
 40
0.0
  9
$USERR4
 40
0.0
  9
$USERR5
 40
0.0
  9
$WORLDVIEW
 70
     1
  9
$SHADEDGE
 70
     3
  9
$SHADEDIF
 70
    70
  9
$TILEMODE
 70
     1
  9
$MAXACTVP
 70
    64
  9
$PINSBASE
 10
0.0
 20
0.0
 30
0.0
  9
$PLIMCHECK
 70
     0
  9
$PEXTMIN
 10
0.0
 20
0.0
 30
0.0
  9
$PEXTMAX
 10
12.0
 20
9.0
 30
0.0
  9
$PLIMMIN
 10
0.0
 20
0.0
  9
$PLIMMAX
 10
12.0
 20
9.0
  9
$UNITMODE
 70
     0
  9
$VISRETAIN
 70
     1
  9
$PLINEGEN
 70
     0
  9
$PSLTSCALE
 70
     1
  9
$TREEDEPTH
 70
  3020
  9
$CMLSTYLE
  2
Standard
  9
$CMLJUST
 70
     0
  9
$CMLSCALE
 40
20.0
  9
$PROXYGRAPHICS
 70
     1
  9
$MEASUREMENT
 70
     1
  9
$CELWEIGHT
370
    -1
  9
$ENDCAPS
280
     0
  9
$JOINSTYLE
280
     0
  9
$LWDISPLAY
290
     0
  9
$INSUNITS
 70
     4
  9
$HYPERLINKBASE
  1

  9
$STYLESHEET
  1

  9
$XEDIT
290
     1
  9
$CEPSNTYPE
380
     0
  9
$PSTYLEMODE
290
     1
  9
$FINGERPRINTGUID
  2
{5559452E-1E62-4159-8551-BF76FFF3E7E8}
  9
$VERSIONGUID
  2
{3CEB9EF8-4431-4551-B596-6734A9F966A9}
  9
$EXTNAMES
290
     1
  9
$PSVPSCALE
 40
0.0
  9
$OLESTARTUP
290
     0
  0
ENDSEC
  0
SECTION
  2
CLASSES
  0
CLASS
  1
ACDBDICTIONARYWDFLT
  2
AcDbDictionaryWithDefault
  3
ObjectDBX Classes
 90
        0
280
     0
281
     0
  0
CLASS
  1
ACDBPLACEHOLDER
  2
AcDbPlaceHolder
  3
ObjectDBX Classes
 90
        0
280
     0
281
     0
  0
CLASS
  1
LAYOUT
  2
AcDbLayout
  3
ObjectDBX Classes
 90
        0
280
     0
281
     0
  0
CLASS
  1
DICTIONARYVAR
  2
AcDbDictionaryVar
  3
ObjectDBX Classes
 90
        0
280
     0
281
     0
  0
CLASS
  1
TABLESTYLE
  2
AcDbTableStyle
  3
ObjectDBX Classes
 90
     4095
280
     0
281
     0
  0
CLASS
  1
SCALE
  2
AcDbScale
  3
ObjectDBX Classes
 90
     1153
280
     0
281
     0
  0
ENDSEC
  0
SECTION
  2
TABLES
  0
TABLE
  2
VPORT
  5
8
330
0
100
AcDbSymbolTable
 70
     2
  0
VPORT
  5
97
330
8
100
AcDbSymbolTableRecord
100
AcDbViewportTableRecord
  2
*Active
 70
     0
 10
0.0
 20
0.0
 11
1.0
 21
1.0
 12
169.0391467682142
 22
287.1617158171625
 13
0.0
 23
0.0
 14
10.0
 24
10.0
 15
10.0
 25
10.0
 16
0.0
 26
0.0
 36
1.0
 17
0.0
 27
0.0
 37
0.0
 40
1101.456269400089
 41
1.664827586206897
 42
50.0
 43
0.0
 44
0.0
 50
0.0
 51
0.0
 71
     0
 72
  1000
 73
     1
 74
     3
 75
     0
 76
     0
 77
     0
 78
     0
281
     0
 65
     1
110
0.0
120
0.0
130
0.0
111
1.0
121
0.0
131
0.0
112
0.0
122
1.0
132
0.0
 79
     0
146
0.0
  0
ENDTAB
  0
TABLE
  2
LTYPE
  5
5
330
0
100
AcDbSymbolTable
 70
     8
  0
LTYPE
  5
14
330
5
100
AcDbSymbolTableRecord
100
AcDbLinetypeTableRecord
  2
ByBlock
 70
     0
  3

 72
    65
 73
     0
 40
0.0
  0
LTYPE
  5
15
330
5
100
AcDbSymbolTableRecord
100
AcDbLinetypeTableRecord
  2
ByLayer
 70
     0
  3

 72
    65
 73
     0
 40
0.0
  0
LTYPE
  5
16
330
5
100
AcDbSymbolTableRecord
100
AcDbLinetypeTableRecord
  2
Continuous
 70
     0
  3
Solid line
 72
    65
 73
     0
 40
0.0
  0
LTYPE
  5
5D7
330
5
100
AcDbSymbolTableRecord
100
AcDbLinetypeTableRecord
  2
DASHED
 70
     0
  3
__ __ __ __ __ __ __ __ __ __ __ __ __ __ __ __
 72
    65
 73
     2
 40
15.0
 49
12.0
 74
     0
 49
-3.0
 74
     0
  0
LTYPE
  5
5D8
330
5
100
AcDbSymbolTableRecord
100
AcDbLinetypeTableRecord
  2
DASHDOT
 70
     0
  3
 __ . __ . __ . __ . __ . __ . __ . 
 72
    65
 73
     4
 40
18.5
 49
12.0
 74
     0
 49
-3.0
 74
     0
 49
0.5
 74
     0
 49
-3.0
 74
     0
  0
LTYPE
  5
5D9
330
5
100
AcDbSymbolTableRecord
100
AcDbLinetypeTableRecord
  2
DOT
 70
     0
  3
 . . . . . . . . . . . . . . . .
 72
    65
 73
     2
 40
3.5
 49
0.5
 74
     0
 49
-3.0
 74
     0
  0
LTYPE
  5
5DA
330
5
100
AcDbSymbolTableRecord
100
AcDbLinetypeTableRecord
  2
DASHSPACE
 70
     0
  3
__    __    __    __    __   
 72
    65
 73
     2
 40
30.0
 49
12.0
 74
     0
 49
-18.0
 74
     0
  0
LTYPE
  5
5DB
330
5
100
AcDbSymbolTableRecord
100
AcDbLinetypeTableRecord
  2
DASHDOT2
 70
     0
  3
__ . . __ . . __ . . __ 
 72
    65
 73
     6
 40
22.0
 49
12.0
 74
     0
 49
-3.0
 74
     0
 49
0.5
 74
     0
 49
-3.0
 74
     0
 49
0.5
 74
     0
 49
-3.0
 74
     0
  0
LTYPE
  5
5DC
330
5
100
AcDbSymbolTableRecord
100
AcDbLinetypeTableRecord
  2
PHANTOM
 70
     0
  3
____________    ____    ____   _
 72
    65
 73
     6
 40
20.0
 49
10.0
 74
     0
 49
-2.0
 74
     0
 49
2.0
 74
     0
 49
-2.0
 74
     0
 49
2.0
 74
     0
 49
-2.0
 74
     0
  0
LTYPE
  5
5DD
330
5
100
AcDbSymbolTableRecord
100
AcDbLinetypeTableRecord
  2
AXES
 70
     0
  3
________  __  ________  __  _____
 72
    65
 73
     4
 40
24.0
 49
15.0
 74
     0
 49
-3.0
 74
     0
 49
3.0
 74
     0
 49
-3.0
 74
     0
  0
ENDTAB
  0
TABLE
  2
LAYER
  5
2
330
0
100
AcDbSymbolTable
 70
     2
  0
LAYER
  5
10
330
2
100
AcDbSymbolTableRecord
100
AcDbLayerTableRecord
  2
0
 70
     0
 62
     7
  6
Continuous
370
    -3
390
F
  0
LAYER
  5
101
330
2
100
AcDbSymbolTableRecord
100
AcDbLayerTableRecord
  2
DEFPOINTS
 70
     0
 62
     7
  6
Continuous
290
     0
370
    -3
390
F
  0
ENDTAB
  0
TABLE
  2
STYLE
  5
3
330
0
100
AcDbSymbolTable
 70
     2
  0
STYLE
  5
11
330
3
100
AcDbSymbolTableRecord
100
AcDbTextStyleTableRecord
  2
Standard
 70
     0
 40
0.0
 41
1.0
 50
0.0
 71
     0
 42
2.5
  3
txt
  4

  0
STYLE
  5
F9
330
3
100
AcDbSymbolTableRecord
100
AcDbTextStyleTableRecord
  2
GDT
 70
     0
 40
0.0
 41
1.0
 50
0.0
 71
     0
 42
0.2
  3
amgdt.shx
  4

  0
ENDTAB
  0
TABLE
  2
VIEW
  5
6
330
0
100
AcDbSymbolTable
 70
     0
  0
ENDTAB
  0
TABLE
  2
UCS
  5
7
330
0
100
AcDbSymbolTable
 70
     0
  0
ENDTAB
  0
TABLE
  2
APPID
  5
9
330
0
100
AcDbSymbolTable
 70
     3
  0
APPID
  5
12
330
9
100
AcDbSymbolTableRecord
100
AcDbRegAppTableRecord
  2
ACAD
 70
     0
  0
APPID
  5
5D5
330
9
100
AcDbSymbolTableRecord
100
AcDbRegAppTableRecord
  2
PROGE_PRINT_SETTINGS
 70
     0
  0
APPID
  5
5D6
330
9
100
AcDbSymbolTableRecord
100
AcDbRegAppTableRecord
  2
Conv5506CA
 70
     0
  0
ENDTAB
  0
TABLE
  2
DIMSTYLE
  5
A
330
0
100
AcDbSymbolTable
 70
     2
100
AcDbDimStyleTable
  0
DIMSTYLE
105
27
330
A
100
AcDbSymbolTableRecord
100
AcDbDimStyleTableRecord
  2
Standard
 70
     0
278
     0
340
11
  0
DIMSTYLE
105
29
102
{ACAD_REACTORS
330
57A
330
5A7
102
}
330
A
100
AcDbSymbolTableRecord
100
AcDbDimStyleTableRecord
  2
ISO-25
 70
     0
 41
2.5
 42
0.625
 43
3.75
 44
1.25
 73
     0
 74
     0
 77
     1
 78
     8
140
2.5
141
2.5
143
0.03937007874016
147
0.625
171
     3
172
     1
271
     2
272
     2
274
     3
278
    44
283
     0
284
     8
340
11
  0
ENDTAB
  0
TABLE
  2
BLOCK_RECORD
  5
1
330
0
100
AcDbSymbolTable
 70
    21
  0
BLOCK_RECORD
  5
1F
330
1
100
AcDbSymbolTableRecord
100
AcDbBlockTableRecord
  2
*Model_Space
340
22
  0
BLOCK_RECORD
  5
73
330
1
100
AcDbSymbolTableRecord
100
AcDbBlockTableRecord
  2
*Paper_Space
340
5DF
  0
BLOCK_RECORD
  5
D1
330
1
100
AcDbSymbolTableRecord
100
AcDbBlockTableRecord
  2
*Paper_Space0
340
74
  0
BLOCK_RECORD
  5
105
330
1
100
AcDbSymbolTableRecord
100
AcDbBlockTableRecord
  2
Block0
340
0
  0
BLOCK_RECORD
  5
10F
330
1
100
AcDbSymbolTableRecord
100
AcDbBlockTableRecord
  2
*D2
340
0
  0
BLOCK_RECORD
  5
118
330
1
100
AcDbSymbolTableRecord
100
AcDbBlockTableRecord
  2
*D3
340
0
  0
BLOCK_RECORD
  5
123
330
1
100
AcDbSymbolTableRecord
100
AcDbBlockTableRecord
  2
*D4
340
0
  0
BLOCK_RECORD
  5
222
330
1
100
AcDbSymbolTableRecord
100
AcDbBlockTableRecord
  2
*D5
340
0
  0
BLOCK_RECORD
  5
31C
330
1
100
AcDbSymbolTableRecord
100
AcDbBlockTableRecord
  2
*D6
340
0
  0
BLOCK_RECORD
  5
328
330
1
100
AcDbSymbolTableRecord
100
AcDbBlockTableRecord
  2
*D7
340
0
  0
BLOCK_RECORD
  5
334
330
1
100
AcDbSymbolTableRecord
100
AcDbBlockTableRecord
  2
*D8
340
0
  0
BLOCK_RECORD
  5
33F
330
1
100
AcDbSymbolTableRecord
100
AcDbBlockTableRecord
  2
*D9
340
0
  0
BLOCK_RECORD
  5
561
330
1
100
AcDbSymbolTableRecord
100
AcDbBlockTableRecord
  2
*D10
340
0
  0
BLOCK_RECORD
  5
56D
330
1
100
AcDbSymbolTableRecord
100
AcDbBlockTableRecord
  2
*D11
340
0
  0
BLOCK_RECORD
  5
578
330
1
100
AcDbSymbolTableRecord
100
AcDbBlockTableRecord
  2
*D12
340
0
  0
BLOCK_RECORD
  5
585
330
1
100
AcDbSymbolTableRecord
100
AcDbBlockTableRecord
  2
*D13
340
0
  0
BLOCK_RECORD
  5
590
330
1
100
AcDbSymbolTableRecord
100
AcDbBlockTableRecord
  2
*D14
340
0
  0
BLOCK_RECORD
  5
59B
330
1
100
AcDbSymbolTableRecord
100
AcDbBlockTableRecord
  2
*D15
340
0
  0
BLOCK_RECORD
  5
5A6
330
1
100
AcDbSymbolTableRecord
100
AcDbBlockTableRecord
  2
*D16
340
0
  0
BLOCK_RECORD
  5
5B2
330
1
100
AcDbSymbolTableRecord
100
AcDbBlockTableRecord
  2
*D17
340
0
  0
BLOCK_RECORD
  5
5BD
330
1
100
AcDbSymbolTableRecord
100
AcDbBlockTableRecord
  2
*D18
340
0
  0
BLOCK_RECORD
  5
5C8
330
1
100
AcDbSymbolTableRecord
100
AcDbBlockTableRecord
  2
*D19
340
0
  0
BLOCK_RECORD
  5
5D3
330
1
100
AcDbSymbolTableRecord
100
AcDbBlockTableRecord
  2
*D20
340
0
  0
ENDTAB
  0
ENDSEC
  0
SECTION
  2
BLOCKS
  0
BLOCK
  5
20
330
1F
100
AcDbEntity
  8
0
100
AcDbBlockBegin
  2
*Model_Space
 70
     0
 10
0.0
 20
0.0
 30
0.0
  3
*Model_Space
  1

  0
ENDBLK
  5
21
330
1F
100
AcDbEntity
  8
0
100
AcDbBlockEnd
  0
BLOCK
  5
75
330
73
100
AcDbEntity
 67
     1
  8
0
100
AcDbBlockBegin
  2
*Paper_Space
 70
     0
 10
0.0
 20
0.0
 30
0.0
  3
*Paper_Space
  1

  0
ENDBLK
  5
76
330
73
100
AcDbEntity
 67
     1
  8
0
100
AcDbBlockEnd
  0
BLOCK
  5
5E0
330
D1
100
AcDbEntity
  8
0
100
AcDbBlockBegin
  2
*Paper_Space0
 70
     0
 10
0.0
 20
0.0
 30
0.0
  3
*Paper_Space0
  1

  0
VIEWPORT
  5
60A
330
D1
100
AcDbEntity
  8
0
100
AcDbViewport
 10
7.8
 20
4.5
 30
0.0
 40
15.64
 41
9.0
 68
     1
 69
     1
 12
6.0
 22
4.5
 13
0.0
 23
0.0
 14
0.5
 24
0.5
 15
0.5
 25
0.5
 16
0.0
 26
0.0
 36
1.0
 17
0.0
 27
0.0
 37
0.0
 42
50.0
 43
0.0
 44
0.0
 45
12.0
 50
0.0
 51
0.0
 72
   100
 90
   557152
  1

281
     0
 71
     1
 74
     0
110
0.0
120
0.0
130
0.0
111
1.0
121
0.0
131
0.0
112
0.0
122
1.0
132
0.0
 79
     0
146
0.0
  0
ENDBLK
  5
5E1
330
D1
100
AcDbEntity
  8
0
100
AcDbBlockEnd
  0
BLOCK
  5
5E2
330
105
100
AcDbEntity
  8
0
100
AcDbBlockBegin
  2
Block0
 70
     0
 10
0.0
 20
0.0
 30
0.0
  3
Block0
  1

  0
TEXT
  5
103
330
105
100
AcDbEntity
  8
0
 62
     7
370
    13
390
F
100
AcDbText
 10
-278.482788
 20
312.916748
 30
0.0
 40
28.0
  1
HERCULES OTTICA RIGATA
 41
0.9087414387755102
 72
     5
 11
255.857178
 21
312.916748
 31
0.0
100
AcDbText
  0
ENDBLK
  5
5E3
330
105
100
AcDbEntity
  8
0
100
AcDbBlockEnd
  0
BLOCK
  5
5E4
330
10F
100
AcDbEntity
  8
0
100
AcDbBlockBegin
  2
*D2
 70
     1
 10
0.0
 20
0.0
 30
0.0
  3
*D2
  1

  0
TEXT
  5
107
330
10F
100
AcDbEntity
  8
0
 62
     7
370
    13
390
F
100
AcDbText
 10
149.48266
 20
32.785027
 30
0.0
 40
3.5
  1
470
 41
1.200922171428569
 72
     5
 11
159.990729
 21
32.785027
 31
0.0
100
AcDbText
  0
TEXT
  5
108
330
10F
100
AcDbEntity
  8
0
 62
     7
370
    13
390
F
100
AcDbText
 10
144.98266
 20
32.785027
 30
0.0
 40
3.5
  1
%%c
 41
1.5
 72
     5
 11
148.48266
 21
32.785027
 31
0.0
100
AcDbText
  0
LINE
  5
109
330
10F
100
AcDbEntity
  8
0
 62
     7
370
    13
390
F
100
AcDbLine
 10
34.986694
 20
66.457253
 30
0.0
 11
34.986694
 21
28.785027
 31
0.0
  0
LINE
  5
10A
330
10F
100
AcDbEntity
  8
0
 62
     7
370
    13
390
F
100
AcDbLine
 10
269.986694
 20
66.457253
 30
0.0
 11
269.986694
 21
28.785027
 31
0.0
  0
LWPOLYLINE
  5
10B
330
10F
100
AcDbEntity
  8
0
 62
     7
370
    13
390
F
100
AcDbPolyline
 90
        3
 70
     0
 43
0.0
 10
268.05484
 20
30.267387
 10
269.986694
 20
30.785027
 10
268.05484
 20
31.302666
  0
LWPOLYLINE
  5
10C
330
10F
100
AcDbEntity
  8
0
 62
     7
370
    13
390
F
100
AcDbPolyline
 90
        3
 70
     0
 43
0.0
 10
36.918549
 20
31.302666
 10
34.986694
 20
30.785027
 10
36.918549
 20
30.267387
  0
LINE
  5
10D
330
10F
100
AcDbEntity
  8
0
 62
     7
370
    13
390
F
100
AcDbLine
 10
34.986694
 20
30.785027
 30
0.0
 11
269.986694
 21
30.785027
 31
0.0
  0
ENDBLK
  5
5E5
330
10F
100
AcDbEntity
  8
0
100
AcDbBlockEnd
  0
BLOCK
  5
5E6
330
118
100
AcDbEntity
  8
0
100
AcDbBlockBegin
  2
*D3
 70
     1
 10
0.0
 20
0.0
 30
0.0
  3
*D3
  1

  0
TEXT
  5
111
330
118
100
AcDbEntity
  8
0
 62
    34
370
    13
390
F
100
AcDbText
 10
23.724518
 20
182.403212
 30
0.0
 40
3.5
  1
475
 50
90.0
 41
1.125864535714286
 72
     5
 11
23.724518
 21
192.911281
 31
0.0
100
AcDbText
  0
LINE
  5
112
330
118
100
AcDbEntity
  8
0
 62
    34
 48
0.231554
370
    13
390
F
100
AcDbLine
 10
32.986694
 20
68.457253
 30
0.0
 11
23.724518
 21
68.457253
 31
0.0
  0
LINE
  5
113
330
118
100
AcDbEntity
  8
0
 62
    34
370
    13
390
F
100
AcDbLine
 10
150.486694
 20
306.857246
 30
0.0
 11
23.724518
 21
306.857246
 31
0.0
  0
LWPOLYLINE
  5
114
330
118
100
AcDbEntity
  8
0
 62
    34
370
    13
390
F
100
AcDbPolyline
 90
        3
 70
     0
 43
0.0
 10
26.242149
 20
304.925392
 10
25.724518
 20
306.857246
 10
25.206879
 20
304.925392
  0
LWPOLYLINE
  5
115
330
118
100
AcDbEntity
  8
0
 62
    34
370
    13
390
F
100
AcDbPolyline
 90
        3
 70
     0
 43
0.0
 10
25.206879
 20
70.389091
 10
25.724518
 20
68.457253
 10
26.242149
 20
70.389091
  0
LINE
  5
116
330
118
100
AcDbEntity
  8
0
 62
    34
370
    13
390
F
100
AcDbLine
 10
25.724518
 20
68.457253
 30
0.0
 11
25.724518
 21
306.857246
 31
0.0
  0
ENDBLK
  5
5E7
330
118
100
AcDbEntity
  8
0
100
AcDbBlockEnd
  0
BLOCK
  5
5E8
330
123
100
AcDbEntity
  8
0
100
AcDbBlockBegin
  2
*D4
 70
     1
 10
0.0
 20
0.0
 30
0.0
  3
*D4
  1

  0
POINT
  5
11A
330
123
100
AcDbEntity
  8
DEFPOINTS
  6
ByBlock
 62
     0
380
     1
100
AcDbPoint
 10
35.486694
 20
70.70724899999999
 30
0.0
  0
POINT
  5
11B
330
123
100
AcDbEntity
  8
DEFPOINTS
  6
ByBlock
 62
     0
380
     1
100
AcDbPoint
 10
269.986694
 20
70.70724899999999
 30
0.0
  0
LINE
  5
11C
330
123
100
AcDbEntity
  8
0
  6
ByBlock
 62
     0
370
    -2
380
     1
100
AcDbLine
 10
35.486694
 20
70.08224899999999
 30
0.0
 11
35.486694
 21
13.59414224379634
 31
0.0
  0
LINE
  5
11D
330
123
100
AcDbEntity
  8
0
  6
ByBlock
 62
     0
370
    -2
380
     1
100
AcDbLine
 10
269.986694
 20
70.08224899999999
 30
0.0
 11
269.986694
 21
13.59414224379634
 31
0.0
  0
LINE
  5
11E
330
123
100
AcDbEntity
  8
0
  6
ByBlock
 62
     0
370
    -2
380
     1
100
AcDbLine
 10
37.986694
 20
14.84414224379634
 30
0.0
 11
267.486694
 21
14.84414224379634
 31
0.0
  0
SOLID
  5
11F
330
123
100
AcDbEntity
  8
0
  6
ByBlock
 62
     0
380
     1
100
AcDbTrace
 10
35.486694
 20
14.84414224379634
 30
0.0
 11
37.986694
 21
14.42747557712968
 31
0.0
 12
37.986694
 22
15.26080891046301
 32
0.0
 13
37.986694
 23
15.26080891046301
 33
0.0
  0
SOLID
  5
120
330
123
100
AcDbEntity
  8
0
  6
ByBlock
 62
     0
380
     1
100
AcDbTrace
 10
269.986694
 20
14.84414224379634
 30
0.0
 11
267.486694
 21
14.42747557712968
 31
0.0
 12
267.486694
 22
15.26080891046301
 32
0.0
 13
267.486694
 23
15.26080891046301
 33
0.0
  0
MTEXT
  5
121
330
123
100
AcDbEntity
  8
0
  6
ByBlock
 62
     0
370
    -2
380
     1
100
AcDbMText
 10
152.736694
 20
16.84414224379634
 30
0.0
 40
2.5
 41
0.0
 71
     5
 72
     1
  1
\A1;234,5
 73
     1
 44
1.0
  0
ENDBLK
  5
5E9
330
123
100
AcDbEntity
  8
0
100
AcDbBlockEnd
  0
BLOCK
  5
5EA
330
222
100
AcDbEntity
  8
0
100
AcDbBlockBegin
  2
*D5
 70
     1
 10
0.0
 20
0.0
 30
0.0
  3
*D5
  1

  0
POINT
  5
218
330
222
100
AcDbEntity
  8
DEFPOINTS
  6
ByBlock
 62
     0
380
     1
100
AcDbPoint
 10
69.973388
 20
136.914492
 30
0.0
  0
POINT
  5
219
330
222
100
AcDbEntity
  8
DEFPOINTS
  6
ByBlock
 62
     0
380
     1
100
AcDbPoint
 10
539.973388
 20
136.914492
 30
0.0
  0
LINE
  5
21A
330
222
100
AcDbEntity
  8
0
  6
ByBlock
 62
     0
370
    -2
380
     1
100
AcDbLine
 10
69.97338852032628
 20
136.851992
 30
0.0
 11
69.97401675771849
 21
61.39004
 31
0.0
  0
LINE
  5
21B
330
222
100
AcDbEntity
  8
0
  6
ByBlock
 62
     0
370
    -2
380
     1
100
AcDbLine
 10
539.9733885203264
 20
136.851992
 30
0.0
 11
539.9740167577185
 21
61.39004
 31
0.0
  0
LINE
  5
21C
330
222
100
AcDbEntity
  8
0
  6
ByBlock
 62
     0
370
    -2
380
     1
100
AcDbLine
 10
70.15401525917879
 20
61.57004000000001
 30
0.0
 11
304.238388
 21
61.57004000000001
 31
0.0
  0
LINE
  5
21D
330
222
100
AcDbEntity
  8
0
  6
ByBlock
 62
     0
370
    -2
380
     1
100
AcDbLine
 10
539.7940152591788
 20
61.57004000000001
 30
0.0
 11
305.708388
 21
61.57004000000001
 31
0.0
  0
SOLID
  5
21E
330
222
100
AcDbEntity
  8
0
  6
ByBlock
 62
     0
380
     1
100
AcDbTrace
 10
69.97401525917878
 20
61.57004000000001
 30
0.0
 11
70.15401525917879
 21
61.54004
 31
0.0
 12
70.15401525917879
 22
61.60004000000001
 32
0.0
 13
70.15401525917879
 23
61.60004000000001
 33
0.0
  0
SOLID
  5
21F
330
222
100
AcDbEntity
  8
0
  6
ByBlock
 62
     0
380
     1
100
AcDbTrace
 10
539.9740152591787
 20
61.57004000000001
 30
0.0
 11
539.7940152591788
 21
61.54004
 31
0.0
 12
539.7940152591788
 22
61.60004000000001
 32
0.0
 13
539.7940152591788
 23
61.60004000000001
 33
0.0
  0
MTEXT
  5
220
330
222
100
AcDbEntity
  8
0
  6
ByBlock
 62
     0
370
    -2
380
     1
100
AcDbMText
 10
304.973388
 20
61.57004000000001
 30
0.0
 40
0.18
 41
0.0
 71
     5
 72
     1
  1
%%c\A1;940.0000
 73
     1
 44
1.0
  0
ENDBLK
  5
5EB
330
222
100
AcDbEntity
  8
0
100
AcDbBlockEnd
  0
BLOCK
  5
5EC
330
31C
100
AcDbEntity
  8
0
100
AcDbBlockBegin
  2
*D6
 70
     1
 10
0.0
 20
0.0
 30
0.0
  3
*D6
  1

  0
POINT
  5
312
330
31C
100
AcDbEntity
  8
DEFPOINTS
  6
ByBlock
 62
     0
380
     1
100
AcDbPoint
 10
69.973388
 20
136.914492
 30
0.0
  0
POINT
  5
313
330
31C
100
AcDbEntity
  8
DEFPOINTS
  6
ByBlock
 62
     0
380
     1
100
AcDbPoint
 10
539.973388
 20
136.914492
 30
0.0
  0
LINE
  5
314
330
31C
100
AcDbEntity
  8
0
  6
ByBlock
 62
     0
370
    -2
380
     1
100
AcDbLine
 10
69.97338852032628
 20
136.851992
 30
0.0
 11
69.97401675771849
 21
61.39004
 31
0.0
  0
LINE
  5
315
330
31C
100
AcDbEntity
  8
0
  6
ByBlock
 62
     0
370
    -2
380
     1
100
AcDbLine
 10
539.9733885203264
 20
136.851992
 30
0.0
 11
539.9740167577185
 21
61.39004
 31
0.0
  0
LINE
  5
316
330
31C
100
AcDbEntity
  8
0
  6
ByBlock
 62
     0
370
    -2
380
     1
100
AcDbLine
 10
70.15401525917879
 20
61.57004000000001
 30
0.0
 11
304.238388
 21
61.57004000000001
 31
0.0
  0
LINE
  5
317
330
31C
100
AcDbEntity
  8
0
  6
ByBlock
 62
     0
370
    -2
380
     1
100
AcDbLine
 10
539.7940152591788
 20
61.57004000000001
 30
0.0
 11
305.708388
 21
61.57004000000001
 31
0.0
  0
SOLID
  5
318
330
31C
100
AcDbEntity
  8
0
  6
ByBlock
 62
     0
380
     1
100
AcDbTrace
 10
69.97401525917878
 20
61.57004000000001
 30
0.0
 11
70.15401525917879
 21
61.54004
 31
0.0
 12
70.15401525917879
 22
61.60004000000001
 32
0.0
 13
70.15401525917879
 23
61.60004000000001
 33
0.0
  0
SOLID
  5
319
330
31C
100
AcDbEntity
  8
0
  6
ByBlock
 62
     0
380
     1
100
AcDbTrace
 10
539.9740152591787
 20
61.57004000000001
 30
0.0
 11
539.7940152591788
 21
61.54004
 31
0.0
 12
539.7940152591788
 22
61.60004000000001
 32
0.0
 13
539.7940152591788
 23
61.60004000000001
 33
0.0
  0
MTEXT
  5
31A
330
31C
100
AcDbEntity
  8
0
  6
ByBlock
 62
     0
370
    -2
380
     1
100
AcDbMText
 10
304.973388
 20
61.57004000000001
 30
0.0
 40
0.18
 41
0.0
 71
     5
 72
     1
  1
%%c\A1;940.0000
 73
     1
 44
1.0
  0
ENDBLK
  5
5ED
330
31C
100
AcDbEntity
  8
0
100
AcDbBlockEnd
  0
BLOCK
  5
5EE
330
328
100
AcDbEntity
  8
0
100
AcDbBlockBegin
  2
*D7
 70
     1
 10
0.0
 20
0.0
 30
0.0
  3
*D7
  1

  0
POINT
  5
31F
330
328
100
AcDbEntity
  8
DEFPOINTS
  6
ByBlock
 62
     0
380
     1
100
AcDbPoint
 10
304.973388
 20
613.714492
 30
0.0
  0
POINT
  5
320
330
328
100
AcDbEntity
  8
DEFPOINTS
  6
ByBlock
 62
     0
380
     1
100
AcDbPoint
 10
304.973388
 20
61.57004000000001
 30
0.0
  0
LINE
  5
321
330
328
100
AcDbEntity
  8
0
  6
ByBlock
 62
     0
370
    -2
380
     1
100
AcDbLine
 10
304.348388
 20
613.714492
 30
0.0
 11
14.94733837642252
 21
613.714492
 31
0.0
  0
LINE
  5
322
330
328
100
AcDbEntity
  8
0
  6
ByBlock
 62
     0
370
    -2
380
     1
100
AcDbLine
 10
304.348388
 20
61.57003999999995
 30
0.0
 11
14.94733837642252
 21
61.57003999999995
 31
0.0
  0
LINE
  5
323
330
328
100
AcDbEntity
  8
0
  6
ByBlock
 62
     0
370
    -2
380
     1
100
AcDbLine
 10
16.19733837642252
 20
611.214492
 30
0.0
 11
16.19733837642252
 21
64.07003999999995
 31
0.0
  0
SOLID
  5
324
330
328
100
AcDbEntity
  8
0
  6
ByBlock
 62
     0
380
     1
100
AcDbTrace
 10
16.19733837642252
 20
613.714492
 30
0.0
 11
15.78067170975584
 21
611.214492
 31
0.0
 12
16.61400504308921
 22
611.214492
 32
0.0
 13
16.61400504308921
 23
611.214492
 33
0.0
  0
SOLID
  5
325
330
328
100
AcDbEntity
  8
0
  6
ByBlock
 62
     0
380
     1
100
AcDbTrace
 10
16.19733837642252
 20
61.57003999999995
 30
0.0
 11
15.78067170975584
 21
64.07003999999995
 31
0.0
 12
16.61400504308921
 22
64.07003999999995
 32
0.0
 13
16.61400504308921
 23
64.07003999999995
 33
0.0
  0
MTEXT
  5
326
330
328
100
AcDbEntity
  8
0
  6
ByBlock
 62
     0
370
    -2
380
     1
100
AcDbMText
 10
14.11400504308915
 20
337.6422659999999
 30
0.0
 40
2.5
 41
0.0
 71
     5
 72
     1
  1
\A1;552,14
 11
6.123031769111886E-17
 21
1.0
 31
0.0
 73
     1
 44
1.0
  0
ENDBLK
  5
5EF
330
328
100
AcDbEntity
  8
0
100
AcDbBlockEnd
  0
BLOCK
  5
5F0
330
334
100
AcDbEntity
  8
0
100
AcDbBlockBegin
  2
*D8
 70
     1
 10
0.0
 20
0.0
 30
0.0
  3
*D8
  1

  0
POINT
  5
32B
330
334
100
AcDbEntity
  8
DEFPOINTS
  6
ByBlock
 62
     0
380
     1
100
AcDbPoint
 10
304.9733870313423
 20
613.714492
 30
0.0
  0
POINT
  5
32C
330
334
100
AcDbEntity
  8
DEFPOINTS
  6
ByBlock
 62
     0
380
     1
100
AcDbPoint
 10
304.238388
 20
61.57004000000001
 30
0.0
  0
LINE
  5
32D
330
334
100
AcDbEntity
  8
0
  6
ByBlock
 62
     0
370
    -2
380
     1
100
AcDbLine
 10
304.3483870313423
 20
613.714492
 30
0.0
 11
23.54907003250986
 21
613.714492
 31
0.0
  0
LINE
  5
32E
330
334
100
AcDbEntity
  8
0
  6
ByBlock
 62
     0
370
    -2
380
     1
100
AcDbLine
 10
303.613388
 20
61.57003999999995
 30
0.0
 11
23.54907003250986
 21
61.57003999999995
 31
0.0
  0
LINE
  5
32F
330
334
100
AcDbEntity
  8
0
  6
ByBlock
 62
     0
370
    -2
380
     1
100
AcDbLine
 10
24.79907003250986
 20
611.214492
 30
0.0
 11
24.79907003250986
 21
64.07003999999995
 31
0.0
  0
SOLID
  5
330
330
334
100
AcDbEntity
  8
0
  6
ByBlock
 62
     0
380
     1
100
AcDbTrace
 10
24.79907003250986
 20
613.714492
 30
0.0
 11
24.38240336584317
 21
611.214492
 31
0.0
 12
25.21573669917655
 22
611.214492
 32
0.0
 13
25.21573669917655
 23
611.214492
 33
0.0
  0
SOLID
  5
331
330
334
100
AcDbEntity
  8
0
  6
ByBlock
 62
     0
380
     1
100
AcDbTrace
 10
24.79907003250986
 20
61.57003999999995
 30
0.0
 11
24.38240336584317
 21
64.07003999999995
 31
0.0
 12
25.21573669917655
 22
64.07003999999995
 32
0.0
 13
25.21573669917655
 23
64.07003999999995
 33
0.0
  0
MTEXT
  5
332
330
334
100
AcDbEntity
  8
0
  6
ByBlock
 62
     0
370
    -2
380
     1
100
AcDbMText
 10
22.71573669917649
 20
337.6422659999999
 30
0.0
 40
2.5
 41
0.0
 71
     5
 72
     1
  1
\A1;552,14
 11
6.123031769111886E-17
 21
1.0
 31
0.0
 73
     1
 44
1.0
  0
ENDBLK
  5
5F1
330
334
100
AcDbEntity
  8
0
100
AcDbBlockEnd
  0
BLOCK
  5
5F2
330
33F
100
AcDbEntity
  8
0
100
AcDbBlockBegin
  2
*D9
 70
     1
 10
0.0
 20
0.0
 30
0.0
  3
*D9
  1

  0
POINT
  5
336
330
33F
100
AcDbEntity
  8
DEFPOINTS
  6
ByBlock
 62
     7
380
     1
100
AcDbPoint
 10
304.9733870313423
 20
613.714492
 30
0.0
  0
POINT
  5
337
330
33F
100
AcDbEntity
  8
DEFPOINTS
  6
ByBlock
 62
     7
380
     1
100
AcDbPoint
 10
304.238388
 20
61.57004000000001
 30
0.0
  0
LINE
  5
338
330
33F
100
AcDbEntity
  8
0
  6
ByBlock
 62
     7
370
    -2
380
     1
100
AcDbLine
 10
304.3483870313423
 20
613.714492
 30
0.0
 11
23.54907003250986
 21
613.714492
 31
0.0
  0
LINE
  5
339
330
33F
100
AcDbEntity
  8
0
  6
ByBlock
 62
     7
370
    -2
380
     1
100
AcDbLine
 10
303.613388
 20
61.57003999999995
 30
0.0
 11
23.54907003250986
 21
61.57003999999995
 31
0.0
  0
LINE
  5
33A
330
33F
100
AcDbEntity
  8
0
  6
ByBlock
 62
     7
370
    -2
380
     1
100
AcDbLine
 10
24.79907003250986
 20
603.714492
 30
0.0
 11
24.79907003250986
 21
71.57003999999995
 31
0.0
  0
SOLID
  5
33B
330
33F
100
AcDbEntity
  8
0
  6
ByBlock
 62
     7
380
     1
100
AcDbTrace
 10
24.79907003250986
 20
613.714492
 30
0.0
 11
23.13240336584317
 21
603.714492
 31
0.0
 12
26.46573669917655
 22
603.714492
 32
0.0
 13
26.46573669917655
 23
603.714492
 33
0.0
  0
SOLID
  5
33C
330
33F
100
AcDbEntity
  8
0
  6
ByBlock
 62
     7
380
     1
100
AcDbTrace
 10
24.79907003250986
 20
61.57003999999995
 30
0.0
 11
23.13240336584317
 21
71.57003999999995
 31
0.0
 12
26.46573669917655
 22
71.57003999999995
 32
0.0
 13
26.46573669917655
 23
71.57003999999995
 33
0.0
  0
MTEXT
  5
33D
330
33F
100
AcDbEntity
  8
0
  6
ByBlock
 62
     0
370
    -2
380
     1
100
AcDbMText
 10
12.79907003250986
 20
337.6422659999999
 30
0.0
 40
14.0
 41
0.0
 71
     5
 72
     1
  1
\A1;552
 11
6.123031769111886E-17
 21
1.0
 31
0.0
 73
     1
 44
1.0
  0
ENDBLK
  5
5F3
330
33F
100
AcDbEntity
  8
0
100
AcDbBlockEnd
  0
BLOCK
  5
5F4
330
561
100
AcDbEntity
  8
0
100
AcDbBlockBegin
  2
*D10
 70
     1
 10
0.0
 20
0.0
 30
0.0
  3
*D10
  1

  0
POINT
  5
558
330
561
100
AcDbEntity
  8
DEFPOINTS
  6
ByBlock
 62
     7
380
     1
100
AcDbPoint
 10
304.9733870313423
 20
613.714492
 30
0.0
  0
POINT
  5
559
330
561
100
AcDbEntity
  8
DEFPOINTS
  6
ByBlock
 62
     7
380
     1
100
AcDbPoint
 10
304.238388
 20
61.57004000000001
 30
0.0
  0
LINE
  5
55A
330
561
100
AcDbEntity
  8
0
  6
ByBlock
 62
     7
370
    -2
380
     1
100
AcDbLine
 10
304.3483870313423
 20
613.714492
 30
0.0
 11
23.54907003250986
 21
613.714492
 31
0.0
  0
LINE
  5
55B
330
561
100
AcDbEntity
  8
0
  6
ByBlock
 62
     7
370
    -2
380
     1
100
AcDbLine
 10
303.613388
 20
61.57003999999995
 30
0.0
 11
23.54907003250986
 21
61.57003999999995
 31
0.0
  0
LINE
  5
55C
330
561
100
AcDbEntity
  8
0
  6
ByBlock
 62
     7
370
    -2
380
     1
100
AcDbLine
 10
24.79907003250986
 20
603.714492
 30
0.0
 11
24.79907003250986
 21
71.57003999999995
 31
0.0
  0
SOLID
  5
55D
330
561
100
AcDbEntity
  8
0
  6
ByBlock
 62
     7
380
     1
100
AcDbTrace
 10
24.79907003250986
 20
613.714492
 30
0.0
 11
23.13240336584317
 21
603.714492
 31
0.0
 12
26.46573669917655
 22
603.714492
 32
0.0
 13
26.46573669917655
 23
603.714492
 33
0.0
  0
SOLID
  5
55E
330
561
100
AcDbEntity
  8
0
  6
ByBlock
 62
     7
380
     1
100
AcDbTrace
 10
24.79907003250986
 20
61.57003999999995
 30
0.0
 11
23.13240336584317
 21
71.57003999999995
 31
0.0
 12
26.46573669917655
 22
71.57003999999995
 32
0.0
 13
26.46573669917655
 23
71.57003999999995
 33
0.0
  0
MTEXT
  5
55F
330
561
100
AcDbEntity
  8
0
  6
ByBlock
 62
     0
370
    -2
380
     1
100
AcDbMText
 10
12.79907003250986
 20
337.6422659999999
 30
0.0
 40
14.0
 41
0.0
 71
     5
 72
     1
  1
\A1;552
 11
6.123031769111886E-17
 21
1.0
 31
0.0
 73
     1
 44
1.0
  0
ENDBLK
  5
5F5
330
561
100
AcDbEntity
  8
0
100
AcDbBlockEnd
  0
BLOCK
  5
5F6
330
56D
100
AcDbEntity
  8
0
100
AcDbBlockBegin
  2
*D11
 70
     1
 10
0.0
 20
0.0
 30
0.0
  3
*D11
  1

  0
POINT
  5
564
330
56D
100
AcDbEntity
  8
DEFPOINTS
  6
ByBlock
 62
     0
380
     1
100
AcDbPoint
 10
69.97359604133972
 20
111.9252032592525
 30
0.0
  0
POINT
  5
565
330
56D
100
AcDbEntity
  8
DEFPOINTS
  6
ByBlock
 62
     0
380
     1
100
AcDbPoint
 10
539.9735960087644
 20
111.9291161129018
 30
0.0
  0
LINE
  5
566
330
56D
100
AcDbEntity
  8
0
  6
ByBlock
 62
     0
370
    -2
380
     1
100
AcDbLine
 10
69.97359604133972
 20
111.3002032592525
 30
0.0
 11
69.97359604133972
 21
0.2378771693473283
 31
0.0
  0
LINE
  5
567
330
56D
100
AcDbEntity
  8
0
  6
ByBlock
 62
     0
370
    -2
380
     1
100
AcDbLine
 10
539.9735960087644
 20
111.3041161129018
 30
0.0
 11
539.9735960087644
 21
0.2378771693473283
 31
0.0
  0
LINE
  5
568
330
56D
100
AcDbEntity
  8
0
  6
ByBlock
 62
     0
370
    -2
380
     1
100
AcDbLine
 10
72.47359604133972
 20
1.487877169347328
 30
0.0
 11
537.4735960087644
 21
1.487877169347328
 31
0.0
  0
SOLID
  5
569
330
56D
100
AcDbEntity
  8
0
  6
ByBlock
 62
     0
380
     1
100
AcDbTrace
 10
69.97359604133972
 20
1.487877169347328
 30
0.0
 11
72.47359604133972
 21
1.071210502680657
 31
0.0
 12
72.47359604133972
 22
1.904543836014
 32
0.0
 13
72.47359604133972
 23
1.904543836014
 33
0.0
  0
SOLID
  5
56A
330
56D
100
AcDbEntity
  8
0
  6
ByBlock
 62
     0
380
     1
100
AcDbTrace
 10
539.9735960087644
 20
1.487877169347328
 30
0.0
 11
537.4735960087644
 21
1.071210502680657
 31
0.0
 12
537.4735960087644
 22
1.904543836014
 32
0.0
 13
537.4735960087644
 23
1.904543836014
 33
0.0
  0
MTEXT
  5
56B
330
56D
100
AcDbEntity
  8
0
  6
ByBlock
 62
     0
370
    -2
380
     1
100
AcDbMText
 10
304.9735960250521
 20
3.362877169347328
 30
0.0
 40
2.5
 41
0.0
 71
     5
 72
     1
  1
\A1;470
 73
     1
 44
1.0
  0
ENDBLK
  5
5F7
330
56D
100
AcDbEntity
  8
0
100
AcDbBlockEnd
  0
BLOCK
  5
5F8
330
578
100
AcDbEntity
  8
0
100
AcDbBlockBegin
  2
*D12
 70
     1
 10
0.0
 20
0.0
 30
0.0
  3
*D12
  1

  0
POINT
  5
56F
330
578
100
AcDbEntity
  8
DEFPOINTS
  6
ByBlock
 62
     7
380
     1
100
AcDbPoint
 10
304.9733870313423
 20
613.714492
 30
0.0
  0
POINT
  5
570
330
578
100
AcDbEntity
  8
DEFPOINTS
  6
ByBlock
 62
     7
380
     1
100
AcDbPoint
 10
304.238388
 20
137.914506
 30
0.0
  0
LINE
  5
571
330
578
100
AcDbEntity
  8
0
  6
ByBlock
 62
     7
370
    -2
380
     1
100
AcDbLine
 10
304.3483870313423
 20
613.714492
 30
0.0
 11
23.54907003250986
 21
613.714492
 31
0.0
  0
LINE
  5
572
330
578
100
AcDbEntity
  8
0
  6
ByBlock
 62
     7
370
    -2
380
     1
100
AcDbLine
 10
303.613388
 20
137.914506
 30
0.0
 11
23.54907003250986
 21
137.914506
 31
0.0
  0
LINE
  5
573
330
578
100
AcDbEntity
  8
0
  6
ByBlock
 62
     7
370
    -2
380
     1
100
AcDbLine
 10
24.79907003250986
 20
603.714492
 30
0.0
 11
24.79907003250986
 21
147.914506
 31
0.0
  0
SOLID
  5
574
330
578
100
AcDbEntity
  8
0
  6
ByBlock
 62
     7
380
     1
100
AcDbTrace
 10
24.79907003250986
 20
613.714492
 30
0.0
 11
23.13240336584317
 21
603.714492
 31
0.0
 12
26.46573669917655
 22
603.714492
 32
0.0
 13
26.46573669917655
 23
603.714492
 33
0.0
  0
SOLID
  5
575
330
578
100
AcDbEntity
  8
0
  6
ByBlock
 62
     7
380
     1
100
AcDbTrace
 10
24.79907003250986
 20
137.914506
 30
0.0
 11
23.13240336584317
 21
147.914506
 31
0.0
 12
26.46573669917655
 22
147.914506
 32
0.0
 13
26.46573669917655
 23
147.914506
 33
0.0
  0
MTEXT
  5
576
330
578
100
AcDbEntity
  8
0
  6
ByBlock
 62
     0
370
    -2
380
     1
100
AcDbMText
 10
12.79907003250986
 20
375.814499
 30
0.0
 40
14.0
 41
0.0
 71
     5
 72
     1
  1
\A1;476
 11
6.123031769111886E-17
 21
1.0
 31
0.0
 73
     1
 44
1.0
  0
ENDBLK
  5
5F9
330
578
100
AcDbEntity
  8
0
100
AcDbBlockEnd
  0
BLOCK
  5
5FA
330
585
100
AcDbEntity
  8
0
100
AcDbBlockBegin
  2
*D13
 70
     1
 10
0.0
 20
0.0
 30
0.0
  3
*D13
  1

  0
POINT
  5
57C
330
585
100
AcDbEntity
  8
DEFPOINTS
  6
ByBlock
 62
     0
380
     1
100
AcDbPoint
 10
304.973388
 20
613.714492
 30
0.0
  0
POINT
  5
57D
330
585
100
AcDbEntity
  8
DEFPOINTS
  6
ByBlock
 62
     0
380
     1
100
AcDbPoint
 10
304.973388
 20
136.914506
 30
0.0
  0
LINE
  5
57E
330
585
100
AcDbEntity
  8
0
  6
ByBlock
 62
     0
370
    -2
380
     1
100
AcDbLine
 10
304.348388
 20
613.714492
 30
0.0
 11
22.08811546120455
 21
613.714492
 31
0.0
  0
LINE
  5
57F
330
585
100
AcDbEntity
  8
0
  6
ByBlock
 62
     0
370
    -2
380
     1
100
AcDbLine
 10
304.348388
 20
136.914506
 30
0.0
 11
22.08811546120455
 21
136.914506
 31
0.0
  0
LINE
  5
580
330
585
100
AcDbEntity
  8
0
  6
ByBlock
 62
     0
370
    -2
380
     1
100
AcDbLine
 10
23.33811546120455
 20
611.214492
 30
0.0
 11
23.33811546120455
 21
139.414506
 31
0.0
  0
SOLID
  5
581
330
585
100
AcDbEntity
  8
0
  6
ByBlock
 62
     0
380
     1
100
AcDbTrace
 10
23.33811546120455
 20
613.714492
 30
0.0
 11
22.92144879453787
 21
611.214492
 31
0.0
 12
23.75478212787124
 22
611.214492
 32
0.0
 13
23.75478212787124
 23
611.214492
 33
0.0
  0
SOLID
  5
582
330
585
100
AcDbEntity
  8
0
  6
ByBlock
 62
     0
380
     1
100
AcDbTrace
 10
23.33811546120455
 20
136.914506
 30
0.0
 11
22.92144879453787
 21
139.414506
 31
0.0
 12
23.75478212787124
 22
139.414506
 32
0.0
 13
23.75478212787124
 23
139.414506
 33
0.0
  0
MTEXT
  5
583
330
585
100
AcDbEntity
  8
0
  6
ByBlock
 62
     0
370
    -2
380
     1
100
AcDbMText
 10
21.25478212787118
 20
375.314499
 30
0.0
 40
2.5
 41
0.0
 71
     5
 72
     1
  1
\A1;476,8
 11
6.123031769111886E-17
 21
1.0
 31
0.0
 73
     1
 44
1.0
  0
ENDBLK
  5
5FB
330
585
100
AcDbEntity
  8
0
100
AcDbBlockEnd
  0
BLOCK
  5
5FC
330
590
100
AcDbEntity
  8
0
100
AcDbBlockBegin
  2
*D14
 70
     1
 10
0.0
 20
0.0
 30
0.0
  3
*D14
  1

  0
POINT
  5
587
330
590
100
AcDbEntity
  8
DEFPOINTS
  6
ByBlock
 62
     7
380
     1
100
AcDbPoint
 10
304.973388
 20
613.714492
 30
0.0
  0
POINT
  5
588
330
590
100
AcDbEntity
  8
DEFPOINTS
  6
ByBlock
 62
     7
380
     1
100
AcDbPoint
 10
304.973388
 20
136.914506
 30
0.0
  0
LINE
  5
589
330
590
100
AcDbEntity
  8
0
  6
ByBlock
 62
     7
370
    -2
380
     1
100
AcDbLine
 10
304.348388
 20
613.714492
 30
0.0
 11
22.08811546120455
 21
613.714492
 31
0.0
  0
LINE
  5
58A
330
590
100
AcDbEntity
  8
0
  6
ByBlock
 62
     7
370
    -2
380
     1
100
AcDbLine
 10
304.348388
 20
136.914506
 30
0.0
 11
22.08811546120455
 21
136.914506
 31
0.0
  0
LINE
  5
58B
330
590
100
AcDbEntity
  8
0
  6
ByBlock
 62
     7
370
    -2
380
     1
100
AcDbLine
 10
23.33811546120455
 20
603.714492
 30
0.0
 11
23.33811546120455
 21
146.914506
 31
0.0
  0
SOLID
  5
58C
330
590
100
AcDbEntity
  8
0
  6
ByBlock
 62
     7
380
     1
100
AcDbTrace
 10
23.33811546120455
 20
613.714492
 30
0.0
 11
21.67144879453787
 21
603.714492
 31
0.0
 12
25.00478212787124
 22
603.714492
 32
0.0
 13
25.00478212787124
 23
603.714492
 33
0.0
  0
SOLID
  5
58D
330
590
100
AcDbEntity
  8
0
  6
ByBlock
 62
     7
380
     1
100
AcDbTrace
 10
23.33811546120455
 20
136.914506
 30
0.0
 11
21.67144879453787
 21
146.914506
 31
0.0
 12
25.00478212787124
 22
146.914506
 32
0.0
 13
25.00478212787124
 23
146.914506
 33
0.0
  0
MTEXT
  5
58E
330
590
100
AcDbEntity
  8
0
  6
ByBlock
 62
     0
370
    -2
380
     1
100
AcDbMText
 10
11.33811546120455
 20
375.314499
 30
0.0
 40
14.0
 41
0.0
 71
     5
 72
     1
  1
\A1;477
 11
6.123031769111886E-17
 21
1.0
 31
0.0
 73
     1
 44
1.0
  0
ENDBLK
  5
5FD
330
590
100
AcDbEntity
  8
0
100
AcDbBlockEnd
  0
BLOCK
  5
5FE
330
59B
100
AcDbEntity
  8
0
100
AcDbBlockBegin
  2
*D15
 70
     1
 10
0.0
 20
0.0
 30
0.0
  3
*D15
  1

  0
POINT
  5
592
330
59B
100
AcDbEntity
  8
DEFPOINTS
  6
ByBlock
 62
     7
380
     1
100
AcDbPoint
 10
304.973388
 20
613.714492
 30
0.0
  0
POINT
  5
593
330
59B
100
AcDbEntity
  8
DEFPOINTS
  6
ByBlock
 62
     7
380
     1
100
AcDbPoint
 10
304.973388
 20
136.914506
 30
0.0
  0
LINE
  5
594
330
59B
100
AcDbEntity
  8
0
  6
ByBlock
 62
     7
370
    -2
380
     1
100
AcDbLine
 10
304.348388
 20
613.714492
 30
0.0
 11
22.08811546120455
 21
613.714492
 31
0.0
  0
LINE
  5
595
330
59B
100
AcDbEntity
  8
0
  6
ByBlock
 62
     7
370
    -2
380
     1
100
AcDbLine
 10
304.348388
 20
136.914506
 30
0.0
 11
22.08811546120455
 21
136.914506
 31
0.0
  0
LINE
  5
596
330
59B
100
AcDbEntity
  8
0
  6
ByBlock
 62
     7
370
    -2
380
     1
100
AcDbLine
 10
23.33811546120455
 20
603.714492
 30
0.0
 11
23.33811546120455
 21
146.914506
 31
0.0
  0
SOLID
  5
597
330
59B
100
AcDbEntity
  8
0
  6
ByBlock
 62
     7
380
     1
100
AcDbTrace
 10
23.33811546120455
 20
613.714492
 30
0.0
 11
21.67144879453787
 21
603.714492
 31
0.0
 12
25.00478212787124
 22
603.714492
 32
0.0
 13
25.00478212787124
 23
603.714492
 33
0.0
  0
SOLID
  5
598
330
59B
100
AcDbEntity
  8
0
  6
ByBlock
 62
     7
380
     1
100
AcDbTrace
 10
23.33811546120455
 20
136.914506
 30
0.0
 11
21.67144879453787
 21
146.914506
 31
0.0
 12
25.00478212787124
 22
146.914506
 32
0.0
 13
25.00478212787124
 23
146.914506
 33
0.0
  0
MTEXT
  5
599
330
59B
100
AcDbEntity
  8
0
  6
ByBlock
 62
     0
370
    -2
380
     1
100
AcDbMText
 10
11.33811546120455
 20
375.314499
 30
0.0
 40
14.0
 41
0.0
 71
     5
 72
     1
  1
\A1;477
 11
6.123031769111886E-17
 21
1.0
 31
0.0
 73
     1
 44
1.0
  0
ENDBLK
  5
5FF
330
59B
100
AcDbEntity
  8
0
100
AcDbBlockEnd
  0
BLOCK
  5
600
330
5A6
100
AcDbEntity
  8
0
100
AcDbBlockBegin
  2
*D16
 70
     1
 10
0.0
 20
0.0
 30
0.0
  3
*D16
  1

  0
POINT
  5
59D
330
5A6
100
AcDbEntity
  8
DEFPOINTS
  6
ByBlock
 62
     7
380
     1
100
AcDbPoint
 10
304.973388
 20
613.714492
 30
0.0
  0
POINT
  5
59E
330
5A6
100
AcDbEntity
  8
DEFPOINTS
  6
ByBlock
 62
     7
380
     1
100
AcDbPoint
 10
304.973388
 20
136.914506
 30
0.0
  0
LINE
  5
59F
330
5A6
100
AcDbEntity
  8
0
  6
ByBlock
 62
     7
370
    -2
380
     1
100
AcDbLine
 10
304.348388
 20
613.714492
 30
0.0
 11
22.08811546120455
 21
613.714492
 31
0.0
  0
LINE
  5
5A0
330
5A6
100
AcDbEntity
  8
0
  6
ByBlock
 62
     7
370
    -2
380
     1
100
AcDbLine
 10
304.348388
 20
136.914506
 30
0.0
 11
22.08811546120455
 21
136.914506
 31
0.0
  0
LINE
  5
5A1
330
5A6
100
AcDbEntity
  8
0
  6
ByBlock
 62
     7
370
    -2
380
     1
100
AcDbLine
 10
23.33811546120455
 20
603.714492
 30
0.0
 11
23.33811546120455
 21
146.914506
 31
0.0
  0
SOLID
  5
5A2
330
5A6
100
AcDbEntity
  8
0
  6
ByBlock
 62
     7
380
     1
100
AcDbTrace
 10
23.33811546120455
 20
613.714492
 30
0.0
 11
21.67144879453787
 21
603.714492
 31
0.0
 12
25.00478212787124
 22
603.714492
 32
0.0
 13
25.00478212787124
 23
603.714492
 33
0.0
  0
SOLID
  5
5A3
330
5A6
100
AcDbEntity
  8
0
  6
ByBlock
 62
     7
380
     1
100
AcDbTrace
 10
23.33811546120455
 20
136.914506
 30
0.0
 11
21.67144879453787
 21
146.914506
 31
0.0
 12
25.00478212787124
 22
146.914506
 32
0.0
 13
25.00478212787124
 23
146.914506
 33
0.0
  0
MTEXT
  5
5A4
330
5A6
100
AcDbEntity
  8
0
  6
ByBlock
 62
     0
370
    -2
380
     1
100
AcDbMText
 10
11.33811546120455
 20
375.314499
 30
0.0
 40
14.0
 41
0.0
 71
     5
 72
     1
  1
\A1;477
 11
6.123031769111886E-17
 21
1.0
 31
0.0
 73
     1
 44
1.0
  0
ENDBLK
  5
601
330
5A6
100
AcDbEntity
  8
0
100
AcDbBlockEnd
  0
BLOCK
  5
602
330
5B2
100
AcDbEntity
  8
0
100
AcDbBlockBegin
  2
*D17
 70
     1
 10
0.0
 20
0.0
 30
0.0
  3
*D17
  1

  0
POINT
  5
5A9
330
5B2
100
AcDbEntity
  8
DEFPOINTS
  6
ByBlock
 62
     0
380
     1
100
AcDbPoint
 10
69.973388
 20
136.914506
 30
0.0
  0
POINT
  5
5AA
330
5B2
100
AcDbEntity
  8
DEFPOINTS
  6
ByBlock
 62
     0
380
     1
100
AcDbPoint
 10
539.973388
 20
136.914506
 30
0.0
  0
LINE
  5
5AB
330
5B2
100
AcDbEntity
  8
0
  6
ByBlock
 62
     0
370
    -2
380
     1
100
AcDbLine
 10
69.973388
 20
136.289506
 30
0.0
 11
69.973388
 21
99.81445484985124
 31
0.0
  0
LINE
  5
5AC
330
5B2
100
AcDbEntity
  8
0
  6
ByBlock
 62
     0
370
    -2
380
     1
100
AcDbLine
 10
539.973388
 20
136.289506
 30
0.0
 11
539.973388
 21
99.81445484985124
 31
0.0
  0
LINE
  5
5AD
330
5B2
100
AcDbEntity
  8
0
  6
ByBlock
 62
     0
370
    -2
380
     1
100
AcDbLine
 10
72.473388
 20
101.0644548498512
 30
0.0
 11
537.473388
 21
101.0644548498512
 31
0.0
  0
SOLID
  5
5AE
330
5B2
100
AcDbEntity
  8
0
  6
ByBlock
 62
     0
380
     1
100
AcDbTrace
 10
69.973388
 20
101.0644548498512
 30
0.0
 11
72.473388
 21
100.6477881831846
 31
0.0
 12
72.473388
 22
101.4811215165179
 32
0.0
 13
72.473388
 23
101.4811215165179
 33
0.0
  0
SOLID
  5
5AF
330
5B2
100
AcDbEntity
  8
0
  6
ByBlock
 62
     0
380
     1
100
AcDbTrace
 10
539.973388
 20
101.0644548498512
 30
0.0
 11
537.473388
 21
100.6477881831846
 31
0.0
 12
537.473388
 22
101.4811215165179
 32
0.0
 13
537.473388
 23
101.4811215165179
 33
0.0
  0
MTEXT
  5
5B0
330
5B2
100
AcDbEntity
  8
0
  6
ByBlock
 62
     0
370
    -2
380
     1
100
AcDbMText
 10
304.973388
 20
102.9394548498512
 30
0.0
 40
2.5
 41
0.0
 71
     5
 72
     1
  1
\A1;470
 73
     1
 44
1.0
  0
ENDBLK
  5
603
330
5B2
100
AcDbEntity
  8
0
100
AcDbBlockEnd
  0
BLOCK
  5
604
330
5BD
100
AcDbEntity
  8
0
100
AcDbBlockBegin
  2
*D18
 70
     1
 10
0.0
 20
0.0
 30
0.0
  3
*D18
  1

  0
POINT
  5
5B4
330
5BD
100
AcDbEntity
  8
DEFPOINTS
  6
ByBlock
 62
     7
380
     1
100
AcDbPoint
 10
69.973388
 20
136.914506
 30
0.0
  0
POINT
  5
5B5
330
5BD
100
AcDbEntity
  8
DEFPOINTS
  6
ByBlock
 62
     7
380
     1
100
AcDbPoint
 10
539.973388
 20
136.914506
 30
0.0
  0
LINE
  5
5B6
330
5BD
100
AcDbEntity
  8
0
  6
ByBlock
 62
     7
370
    -2
380
     1
100
AcDbLine
 10
69.973388
 20
136.289506
 30
0.0
 11
69.973388
 21
99.81445484985124
 31
0.0
  0
LINE
  5
5B7
330
5BD
100
AcDbEntity
  8
0
  6
ByBlock
 62
     7
370
    -2
380
     1
100
AcDbLine
 10
539.973388
 20
136.289506
 30
0.0
 11
539.973388
 21
99.81445484985124
 31
0.0
  0
LINE
  5
5B8
330
5BD
100
AcDbEntity
  8
0
  6
ByBlock
 62
     7
370
    -2
380
     1
100
AcDbLine
 10
79.973388
 20
101.0644548498512
 30
0.0
 11
529.973388
 21
101.0644548498512
 31
0.0
  0
SOLID
  5
5B9
330
5BD
100
AcDbEntity
  8
0
  6
ByBlock
 62
     7
380
     1
100
AcDbTrace
 10
69.973388
 20
101.0644548498512
 30
0.0
 11
79.973388
 21
99.39778818318457
 31
0.0
 12
79.973388
 22
102.7311215165179
 32
0.0
 13
79.973388
 23
102.7311215165179
 33
0.0
  0
SOLID
  5
5BA
330
5BD
100
AcDbEntity
  8
0
  6
ByBlock
 62
     7
380
     1
100
AcDbTrace
 10
539.973388
 20
101.0644548498512
 30
0.0
 11
529.973388
 21
99.39778818318457
 31
0.0
 12
529.973388
 22
102.7311215165179
 32
0.0
 13
529.973388
 23
102.7311215165179
 33
0.0
  0
MTEXT
  5
5BB
330
5BD
100
AcDbEntity
  8
0
  6
ByBlock
 62
     0
370
    -2
380
     1
100
AcDbMText
 10
304.973388
 20
113.0644548498512
 30
0.0
 40
14.0
 41
0.0
 71
     5
 72
     1
  1
\A1;470
 73
     1
 44
1.0
  0
ENDBLK
  5
605
330
5BD
100
AcDbEntity
  8
0
100
AcDbBlockEnd
  0
BLOCK
  5
606
330
5C8
100
AcDbEntity
  8
0
100
AcDbBlockBegin
  2
*D19
 70
     1
 10
0.0
 20
0.0
 30
0.0
  3
*D19
  1

  0
POINT
  5
5BF
330
5C8
100
AcDbEntity
  8
DEFPOINTS
  6
ByBlock
 62
     7
380
     1
100
AcDbPoint
 10
69.973388
 20
136.914506
 30
0.0
  0
POINT
  5
5C0
330
5C8
100
AcDbEntity
  8
DEFPOINTS
  6
ByBlock
 62
     7
380
     1
100
AcDbPoint
 10
539.973388
 20
136.914506
 30
0.0
  0
LINE
  5
5C1
330
5C8
100
AcDbEntity
  8
0
  6
ByBlock
 62
     7
370
    -2
380
     1
100
AcDbLine
 10
69.973388
 20
136.289506
 30
0.0
 11
69.973388
 21
99.81445484985124
 31
0.0
  0
LINE
  5
5C2
330
5C8
100
AcDbEntity
  8
0
  6
ByBlock
 62
     7
370
    -2
380
     1
100
AcDbLine
 10
539.973388
 20
136.289506
 30
0.0
 11
539.973388
 21
99.81445484985124
 31
0.0
  0
LINE
  5
5C3
330
5C8
100
AcDbEntity
  8
0
  6
ByBlock
 62
     7
370
    -2
380
     1
100
AcDbLine
 10
79.973388
 20
101.0644548498512
 30
0.0
 11
529.973388
 21
101.0644548498512
 31
0.0
  0
SOLID
  5
5C4
330
5C8
100
AcDbEntity
  8
0
  6
ByBlock
 62
     7
380
     1
100
AcDbTrace
 10
69.973388
 20
101.0644548498512
 30
0.0
 11
79.973388
 21
99.39778818318457
 31
0.0
 12
79.973388
 22
102.7311215165179
 32
0.0
 13
79.973388
 23
102.7311215165179
 33
0.0
  0
SOLID
  5
5C5
330
5C8
100
AcDbEntity
  8
0
  6
ByBlock
 62
     7
380
     1
100
AcDbTrace
 10
539.973388
 20
101.0644548498512
 30
0.0
 11
529.973388
 21
99.39778818318457
 31
0.0
 12
529.973388
 22
102.7311215165179
 32
0.0
 13
529.973388
 23
102.7311215165179
 33
0.0
  0
MTEXT
  5
5C6
330
5C8
100
AcDbEntity
  8
0
  6
ByBlock
 62
     0
370
    -2
380
     1
100
AcDbMText
 10
304.973388
 20
113.0644548498512
 30
0.0
 40
14.0
 41
0.0
 71
     5
 72
     1
  1
Ø470
 73
     1
 44
1.0
  0
ENDBLK
  5
607
330
5C8
100
AcDbEntity
  8
0
100
AcDbBlockEnd
  0
BLOCK
  5
608
330
5D3
100
AcDbEntity
  8
0
100
AcDbBlockBegin
  2
*D20
 70
     1
 10
0.0
 20
0.0
 30
0.0
  3
*D20
  1

  0
POINT
  5
5CA
330
5D3
100
AcDbEntity
  8
DEFPOINTS
  6
ByBlock
 62
     7
380
     1
100
AcDbPoint
 10
69.973388
 20
136.914506
 30
0.0
  0
POINT
  5
5CB
330
5D3
100
AcDbEntity
  8
DEFPOINTS
  6
ByBlock
 62
     7
380
     1
100
AcDbPoint
 10
539.973388
 20
136.914506
 30
0.0
  0
LINE
  5
5CC
330
5D3
100
AcDbEntity
  8
0
  6
ByBlock
 62
     7
370
    -2
380
     1
100
AcDbLine
 10
69.973388
 20
136.289506
 30
0.0
 11
69.973388
 21
99.81445484985124
 31
0.0
  0
LINE
  5
5CD
330
5D3
100
AcDbEntity
  8
0
  6
ByBlock
 62
     7
370
    -2
380
     1
100
AcDbLine
 10
539.973388
 20
136.289506
 30
0.0
 11
539.973388
 21
99.81445484985124
 31
0.0
  0
LINE
  5
5CE
330
5D3
100
AcDbEntity
  8
0
  6
ByBlock
 62
     7
370
    -2
380
     1
100
AcDbLine
 10
79.973388
 20
101.0644548498512
 30
0.0
 11
529.973388
 21
101.0644548498512
 31
0.0
  0
SOLID
  5
5CF
330
5D3
100
AcDbEntity
  8
0
  6
ByBlock
 62
     7
380
     1
100
AcDbTrace
 10
69.973388
 20
101.0644548498512
 30
0.0
 11
79.973388
 21
99.39778818318457
 31
0.0
 12
79.973388
 22
102.7311215165179
 32
0.0
 13
79.973388
 23
102.7311215165179
 33
0.0
  0
SOLID
  5
5D0
330
5D3
100
AcDbEntity
  8
0
  6
ByBlock
 62
     7
380
     1
100
AcDbTrace
 10
539.973388
 20
101.0644548498512
 30
0.0
 11
529.973388
 21
99.39778818318457
 31
0.0
 12
529.973388
 22
102.7311215165179
 32
0.0
 13
529.973388
 23
102.7311215165179
 33
0.0
  0
MTEXT
  5
5D1
330
5D3
100
AcDbEntity
  8
0
  6
ByBlock
 62
     0
370
    -2
380
     1
100
AcDbMText
 10
304.973388
 20
113.0644548498512
 30
0.0
 40
14.0
 41
0.0
 71
     5
 72
     1
  1
Ø470
 73
     1
 44
1.0
  0
ENDBLK
  5
609
330
5D3
100
AcDbEntity
  8
0
100
AcDbBlockEnd
  0
ENDSEC
  0
SECTION
  2
ENTITIES
  0
POINT
  5
223
330
1F
100
AcDbEntity
  8
0
 62
     7
370
    60
100
AcDbPoint
 10
304.973388
 20
381.914494
 30
0.0
  0
POINT
  5
224
330
1F
100
AcDbEntity
  8
0
 62
     7
370
    60
100
AcDbPoint
 10
304.973388
 20
381.914494
 30
0.0
  0
POINT
  5
225
330
1F
100
AcDbEntity
  8
0
 62
     7
370
    60
100
AcDbPoint
 10
184.26892
 20
369.319972
 30
0.0
  0
POINT
  5
226
330
1F
100
AcDbEntity
  8
0
 62
     7
370
    60
100
AcDbPoint
 10
181.599442
 20
371.573706
 30
0.0
  0
POINT
  5
227
330
1F
100
AcDbEntity
  8
0
 62
     7
370
    60
100
AcDbPoint
 10
179.55159
 20
369.444858
 30
0.0
  0
POINT
  5
228
330
1F
100
AcDbEntity
  8
0
 62
     7
370
    60
100
AcDbPoint
 10
523.080216
 20
151.239594
 30
0.0
  0
POINT
  5
229
330
1F
100
AcDbEntity
  8
0
 62
     7
370
    60
100
AcDbPoint
 10
430.395188
 20
369.444858
 30
0.0
  0
POINT
  5
22A
330
1F
100
AcDbEntity
  8
0
 62
     7
370
    60
100
AcDbPoint
 10
428.347336
 20
371.573706
 30
0.0
  0
POINT
  5
22B
330
1F
100
AcDbEntity
  8
0
 62
     7
370
    60
100
AcDbPoint
 10
425.677856
 20
369.319972
 30
0.0
  0
POINT
  5
22C
330
1F
100
AcDbEntity
  8
0
 62
     7
370
    60
100
AcDbPoint
 10
304.973388
 20
399.714492
 30
0.0
  0
POINT
  5
22D
330
1F
100
AcDbEntity
  8
0
 62
     7
370
    60
100
AcDbPoint
 10
69.973388
 20
136.914506
 30
0.0
  0
POINT
  5
22E
330
1F
100
AcDbEntity
  8
0
 62
     7
370
    60
100
AcDbPoint
 10
539.973388
 20
136.914506
 30
0.0
  0
POINT
  5
22F
330
1F
100
AcDbEntity
  8
0
 62
     7
370
    60
100
AcDbPoint
 10
323.473388
 20
595.214492
 30
0.0
  0
POINT
  5
230
330
1F
100
AcDbEntity
  8
0
 62
     7
370
    60
100
AcDbPoint
 10
304.973388
 20
613.714492
 30
0.0
  0
POINT
  5
231
330
1F
100
AcDbEntity
  8
0
 62
     7
370
    60
100
AcDbPoint
 10
304.973388
 20
613.714492
 30
0.0
  0
LINE
  5
232
330
1F
100
AcDbEntity
  8
0
 62
     7
370
    60
100
AcDbLine
 10
206.973388
 20
579.714492
 30
0.0
 11
402.973388
 21
579.714492
 31
0.0
  0
LINE
  5
233
330
1F
100
AcDbEntity
  8
0
 62
     7
370
    60
100
AcDbLine
 10
183.973388
 20
399.714492
 30
0.0
 11
311.973388
 21
399.714492
 31
0.0
  0
LINE
  5
234
330
1F
100
AcDbEntity
  8
0
 62
     7
370
    60
100
AcDbLine
 10
184.973388
 20
439.714492
 30
0.0
 11
424.973388
 21
439.714492
 31
0.0
  0
LINE
  5
235
330
1F
100
AcDbEntity
  8
0
 62
     7
370
    60
100
AcDbLine
 10
422.973388
 20
440.714492
 30
0.0
 11
422.973388
 21
559.714492
 31
0.0
  0
LINE
  5
236
330
1F
100
AcDbEntity
  8
0
 62
     7
370
    60
100
AcDbLine
 10
186.973388
 20
440.714492
 30
0.0
 11
186.973388
 21
559.714492
 31
0.0
  0
LINE
  5
237
330
1F
100
AcDbEntity
  8
0
 62
     7
 48
0.4875
370
    60
100
AcDbLine
 10
183.973388
 20
399.714492
 30
0.0
 11
183.973388
 21
438.714492
 31
0.0
  0
LINE
  5
238
330
1F
100
AcDbEntity
  8
0
 62
     7
 48
0.4875
370
    60
100
AcDbLine
 10
425.973388
 20
399.714492
 30
0.0
 11
425.973388
 21
438.714492
 31
0.0
  0
ARC
  5
239
330
1F
100
AcDbEntity
  8
0
 62
     7
370
    60
100
AcDbCircle
 10
402.973388
 20
559.714492
 30
0.0
 40
20.0
100
AcDbArc
 50
0.0
 51
90.000003
  0
ARC
  5
23A
330
1F
100
AcDbEntity
  8
0
 62
     7
370
    60
100
AcDbCircle
 10
206.973388
 20
559.714492
 30
0.0
 40
20.00000000000003
100
AcDbArc
 50
90.00000299999998
 51
180.0000049999999
  0
ARC
  5
23B
330
1F
100
AcDbEntity
  8
0
 62
     7
370
    60
100
AcDbCircle
 10
185.973388
 20
440.714492
 30
0.0
 40
1.0
100
AcDbArc
 50
270.0000009999998
 51
359.9999999999998
  0
ARC
  5
23C
330
1F
100
AcDbEntity
  8
0
 62
     7
370
    60
100
AcDbCircle
 10
184.973388
 20
438.714492
 30
0.0
 40
1.000000000000001
100
AcDbArc
 50
90.00000299999932
 51
180.0000049999993
  0
ARC
  5
23D
330
1F
100
AcDbEntity
  8
0
 62
     7
370
    60
100
AcDbCircle
 10
423.973388
 20
440.714492
 30
0.0
 40
1.000000000000004
100
AcDbArc
 50
180.0000050000005
 51
270.0000010000005
  0
ARC
  5
23E
330
1F
100
AcDbEntity
  8
0
 62
     7
370
    60
100
AcDbCircle
 10
424.973388
 20
438.714492
 30
0.0
 40
1.0
100
AcDbArc
 50
0.0
 51
90.000003
  0
ARC
  5
23F
330
1F
100
AcDbEntity
  8
0
 62
     7
370
    60
100
AcDbCircle
 10
424.973388
 20
438.714492
 30
0.0
 40
1.0
100
AcDbArc
 50
0.0
 51
90.000003
  0
ARC
  5
240
330
1F
100
AcDbEntity
  8
0
 62
     7
370
    60
100
AcDbCircle
 10
184.973388
 20
438.714492
 30
0.0
 40
1.000000000000001
100
AcDbArc
 50
90.00000299999932
 51
180.0000049999993
  0
LINE
  5
241
330
1F
100
AcDbEntity
  8
0
 62
     7
370
    60
100
AcDbLine
 10
276.973388
 20
583.714492
 30
0.0
 11
332.973388
 21
583.714492
 31
0.0
  0
LINE
  5
242
330
1F
100
AcDbEntity
  8
0
 62
     7
 48
0.14375
370
    60
100
AcDbLine
 10
323.473388
 20
583.714492
 30
0.0
 11
323.473388
 21
595.214492
 31
0.0
  0
LINE
  5
243
330
1F
100
AcDbEntity
  8
0
 62
     7
 48
0.14375
370
    60
100
AcDbLine
 10
318.473388
 20
583.714492
 30
0.0
 11
318.473388
 21
595.214492
 31
0.0
  0
LINE
  5
244
330
1F
100
AcDbEntity
  8
0
 62
     7
 48
0.14375
370
    60
100
AcDbLine
 10
291.473388
 20
583.714492
 30
0.0
 11
291.473388
 21
595.214492
 31
0.0
  0
LINE
  5
245
330
1F
100
AcDbEntity
  8
0
 62
     7
 48
0.14375
370
    60
100
AcDbLine
 10
286.473388
 20
583.714492
 30
0.0
 11
286.473388
 21
595.214492
 31
0.0
  0
ARC
  5
246
330
1F
100
AcDbEntity
  8
0
 62
     7
370
    60
100
AcDbCircle
 10
304.973388
 20
595.214492
 30
0.0
 40
13.5
100
AcDbArc
 50
0.0
 51
90.000003
  0
ARC
  5
247
330
1F
100
AcDbEntity
  8
0
 62
     7
370
    60
100
AcDbCircle
 10
304.973388
 20
595.214492
 30
0.0
 40
13.50000000000002
100
AcDbArc
 50
90.00000300000012
 51
180.0000050000001
  0
ARC
  5
248
330
1F
100
AcDbEntity
  8
0
 62
     7
370
    60
100
AcDbCircle
 10
304.973388
 20
595.214492
 30
0.0
 40
18.5
100
AcDbArc
 50
0.0
 51
90.000003
  0
ARC
  5
249
330
1F
100
AcDbEntity
  8
0
 62
     7
370
    60
100
AcDbCircle
 10
304.973388
 20
595.214492
 30
0.0
 40
18.50000000000002
100
AcDbArc
 50
90.00000299999999
 51
180.0000049999999
  0
LINE
  5
24B
330
1F
100
AcDbEntity
  8
0
 62
     7
 48
0.0125
370
    60
100
AcDbLine
 10
539.973388
 20
136.914506
 30
0.0
 11
539.973388
 21
137.914506
 31
0.0
  0
LINE
  5
24C
330
1F
100
AcDbEntity
  8
0
 62
     7
 48
0.0125
370
    60
100
AcDbLine
 10
69.973388
 20
136.914506
 30
0.0
 11
69.973388
 21
137.914506
 31
0.0
  0
LINE
  5
24E
330
1F
100
AcDbEntity
  8
0
 62
     7
370
    60
100
AcDbLine
 10
73.973388
 20
146.91449
 30
0.0
 11
535.973388
 21
146.91449
 31
0.0
  0
LINE
  5
24F
330
1F
100
AcDbEntity
  8
0
 62
     7
 48
0.0625
370
    60
100
AcDbLine
 10
538.973388
 20
138.914506
 30
0.0
 11
538.973388
 21
143.91449
 31
0.0
  0
LINE
  5
250
330
1F
100
AcDbEntity
  8
0
 62
     7
 48
0.0625
370
    60
100
AcDbLine
 10
70.973388
 20
138.914506
 30
0.0
 11
70.973388
 21
143.91449
 31
0.0
  0
ARC
  5
251
330
1F
100
AcDbEntity
  8
0
 62
     7
370
    60
100
AcDbCircle
 10
539.973388
 20
138.914506
 30
0.0
 40
1.000000000000004
100
AcDbArc
 50
180.0000050000005
 51
270.0000010000005
  0
ARC
  5
253
330
1F
100
AcDbEntity
  8
0
 62
     7
370
    60
100
AcDbCircle
 10
69.973388
 20
138.914506
 30
0.0
 40
1.0
100
AcDbArc
 50
270.0000009999998
 51
359.9999999999998
  0
ARC
  5
254
330
1F
100
AcDbEntity
  8
0
 62
     7
370
    60
100
AcDbCircle
 10
535.973388
 20
143.91449
 30
0.0
 40
3.0
100
AcDbArc
 50
0.0
 51
90.000003
  0
ARC
  5
255
330
1F
100
AcDbEntity
  8
0
 62
     7
370
    60
100
AcDbCircle
 10
73.973388
 20
143.91449
 30
0.0
 40
3.000000000000004
100
AcDbArc
 50
90.00000300000013
 51
180.0000050000001
  0
ARC
  5
257
330
1F
100
AcDbEntity
  8
0
 62
     7
370
    60
100
AcDbCircle
 10
389.87339
 20
147.41449
 30
0.0
 40
311.0
100
AcDbArc
 50
133.544569
 51
164.04937
  0
ARC
  5
258
330
1F
100
AcDbEntity
  8
0
 62
     7
370
    60
100
AcDbCircle
 10
389.87339
 20
147.41449
 30
0.0
 40
311.0
100
AcDbArc
 50
164.04937
 51
180.092117
  0
LINE
  5
259
330
1F
100
AcDbEntity
  8
0
 62
     7
370
    60
100
AcDbLine
 10
176.308624
 20
373.114492
 30
0.0
 11
434.0372
 21
373.114492
 31
0.0
  0
ARC
  5
25A
330
1F
100
AcDbEntity
  8
0
 62
     7
370
    60
100
AcDbCircle
 10
176.308624
 20
372.114492
 30
0.0
 40
1.000000000000001
100
AcDbArc
 50
90.00000299999932
 51
133.5445689999993
  0
ARC
  5
25B
330
1F
100
AcDbEntity
  8
0
 62
     7
370
    60
100
AcDbCircle
 10
220.073388
 20
147.41449
 30
0.0
 40
310.9999999999999
100
AcDbArc
 50
15.950629
 51
28.78426100000001
  0
ARC
  5
25C
330
1F
100
AcDbEntity
  8
0
 62
     7
370
    60
100
AcDbCircle
 10
220.073388
 20
147.41449
 30
0.0
 40
311.0000000000001
100
AcDbArc
 50
359.907884
 51
15.95062899999999
  0
LINE
  5
25D
330
1F
100
AcDbEntity
  8
0
 62
     7
370
    60
100
AcDbLine
 10
184.12339
 20
381.914494
 30
0.0
 11
425.823388
 21
381.914494
 31
0.0
  0
LINE
  5
25E
330
1F
100
AcDbEntity
  8
0
 62
     7
 48
0.150472
370
    60
100
AcDbLine
 10
425.823388
 20
381.914494
 30
0.0
 11
434.0372
 21
373.114492
 31
0.0
  0
LINE
  5
25F
330
1F
100
AcDbEntity
  8
0
 62
     7
 48
0.150472
370
    60
100
AcDbLine
 10
175.909576
 20
373.114492
 30
0.0
 11
184.12339
 21
381.914494
 31
0.0
  0
ARC
  5
260
330
1F
100
AcDbEntity
  8
0
 62
     7
370
    60
100
AcDbCircle
 10
304.973388
 20
190.91449
 30
0.0
 40
226.0
100
AcDbArc
 50
112.49786
 51
122.343332
  0
ARC
  5
261
330
1F
100
AcDbEntity
  8
0
 62
     7
370
    60
100
AcDbCircle
 10
304.973388
 20
190.91449
 30
0.0
 40
226.0
100
AcDbArc
 50
57.656665
 51
67.502139
  0
LINE
  5
262
330
1F
100
AcDbEntity
  8
0
 62
     7
370
    60
100
AcDbLine
 10
304.973444
 20
152.890976
 30
0.0
 11
304.973444
 21
366.01794
 31
0.0
  0
ARC
  5
263
330
1F
100
AcDbEntity
  8
0
 62
     7
370
    60
100
AcDbCircle
 10
-3274.940186
 20
127.957504
 30
0.0
 40
3600.0
100
AcDbArc
 50
0.4522740000000002
 51
3.787507000000002
  0
ARC
  5
264
330
1F
100
AcDbEntity
  8
0
 62
     7
370
    60
100
AcDbCircle
 10
-3251.650146
 20
-5.281326
 30
0.0
 40
3600.0
100
AcDbArc
 50
2.598863
 51
5.91348
  0
ARC
  5
265
330
1F
100
AcDbEntity
  8
0
 62
     7
370
    60
100
AcDbCircle
 10
-1134.266968
 20
95.20552
 30
0.0
 40
1500.0
100
AcDbArc
 50
2.429017
 51
10.450727
  0
ARC
  5
266
330
1F
100
AcDbEntity
  8
0
 62
     7
370
    60
100
AcDbCircle
 10
-1011.361816
 20
51.85115
 30
0.0
 40
1400.0
100
AcDbArc
 50
4.395210000000001
 51
13.035528
  0
ARC
  5
267
330
1F
100
AcDbEntity
  8
0
 62
     7
370
    60
100
AcDbCircle
 10
-570.278442
 20
39.464004
 30
0.0
 40
1000.0
100
AcDbArc
 50
6.741082
 51
19.219121
  0
ARC
  5
268
330
1F
100
AcDbEntity
  8
0
 62
     7
370
    60
100
AcDbCircle
 10
432.419906
 20
157.370972
 30
0.0
 40
9.625907999999999
100
AcDbArc
 50
183.1213059999999
 51
9.047733999999943
  0
ARC
  5
269
330
1F
100
AcDbEntity
  8
0
 62
     7
370
    60
100
AcDbCircle
 10
374.544296
 20
157.963196
 30
0.0
 40
10.19161599999998
100
AcDbArc
 50
175.41438
 51
354.3066919999999
  0
ARC
  5
26A
330
1F
100
AcDbEntity
  8
0
 62
     7
370
    60
100
AcDbCircle
 10
354.526276
 20
157.704026
 30
0.0
 40
9.882235999999988
100
AcDbArc
 50
178.550215
 51
359.4774729999999
  0
ARC
  5
26B
330
1F
100
AcDbEntity
  8
0
 62
     7
370
    60
100
AcDbCircle
 10
334.751854
 20
157.720336
 30
0.0
 40
9.89617599999998
100
AcDbArc
 50
178.21417
 51
356.980602
  0
ARC
  5
26C
330
1F
100
AcDbEntity
  8
0
 62
     7
370
    60
100
AcDbCircle
 10
314.904814
 20
157.870346
 30
0.0
 40
9.979827999999989
100
AcDbArc
 50
174.0900879999999
 51
3.065616999999908
  0
ARC
  5
26D
330
1F
100
AcDbEntity
  8
0
 62
     7
370
    60
100
AcDbCircle
 10
394.22358
 20
157.830582
 30
0.0
 40
9.790656000000004
100
AcDbArc
 50
172.3076000000001
 51
355.3108120000001
  0
ARC
  5
26E
330
1F
100
AcDbEntity
  8
0
 62
     7
370
    60
100
AcDbCircle
 10
413.291916
 20
157.229354
 30
0.0
 40
9.282871999999971
100
AcDbArc
 50
178.7651889999999
 51
8.069607999999882
  0
ARC
  5
26F
330
1F
100
AcDbEntity
  8
0
 62
     7
370
    60
100
AcDbCircle
 10
-1085.58142
 20
-19.61235
 30
0.0
 40
1500.0
100
AcDbArc
 50
6.762940999999999
 51
14.98126
  0
ARC
  5
270
330
1F
100
AcDbEntity
  8
0
 62
     7
370
    60
100
AcDbCircle
 10
220.073388
 20
147.41449
 30
0.0
 40
311.0
100
AcDbArc
 50
28.784261
 51
46.529065
  0
ARC
  5
271
330
1F
100
AcDbEntity
  8
0
 62
     7
370
    60
100
AcDbCircle
 10
311.069998
 20
366.01794
 30
0.0
 40
6.096554000000013
100
AcDbArc
 50
3.798058000000098
 51
180.0000050000001
  0
ARC
  5
272
330
1F
100
AcDbEntity
  8
0
 62
     7
370
    60
100
AcDbCircle
 10
335.05462
 20
366.221406
 30
0.0
 40
5.893087999999977
100
AcDbArc
 50
10.45072699999976
 51
185.9134729999997
  0
ARC
  5
273
330
1F
100
AcDbEntity
  8
0
 62
     7
370
    60
100
AcDbCircle
 10
323.144452
 20
366.154034
 30
0.0
 40
5.960457999999995
100
AcDbArc
 50
5.931973000000204
 51
183.7875090000002
  0
ARC
  5
274
330
1F
100
AcDbEntity
  8
0
 62
     7
370
    60
100
AcDbCircle
 10
346.917438
 20
366.321918
 30
0.0
 40
5.792574000000003
100
AcDbArc
 50
13.0355280000001
 51
190.372617
  0
ARC
  5
275
330
1F
100
AcDbEntity
  8
0
 62
     7
370
    60
100
AcDbCircle
 10
358.259388
 20
366.757522
 30
0.0
 40
5.356967999999983
100
AcDbArc
 50
14.98125999999985
 51
192.9485269999998
  0
ARC
  5
276
330
1F
100
AcDbEntity
  8
0
 62
     7
370
    60
100
AcDbCircle
 10
369.105446
 20
366.94365
 30
0.0
 40
5.17084199999999
100
AcDbArc
 50
19.21912100000037
 51
194.8813750000003
  0
ARC
  5
277
330
1F
100
AcDbEntity
  8
0
 62
     7
370
    60
100
AcDbCircle
 10
379.811088
 20
367.114494
 30
0.0
 40
5.000000000000021
100
AcDbArc
 50
21.550656
 51
199.02741
  0
ARC
  5
278
330
1F
100
AcDbEntity
  8
0
 62
     7
370
    60
100
AcDbCircle
 10
389.402756
 20
367.514492
 30
0.0
 40
4.599999999999993
100
AcDbArc
 50
24.50812099999992
 51
173.7373639999999
  0
ARC
  5
279
330
1F
100
AcDbEntity
  8
0
 62
     7
370
    60
100
AcDbCircle
 10
398.297692
 20
367.814494
 30
0.0
 40
4.299999999999971
100
AcDbArc
 50
27.35111499999991
 51
171.8117149999999
  0
ARC
  5
27A
330
1F
100
AcDbEntity
  8
0
 62
     7
370
    60
100
AcDbCircle
 10
406.59227
 20
368.114492
 30
0.0
 40
4.000000000000006
100
AcDbArc
 50
30.250457
 51
170.623959
  0
ARC
  5
27B
330
1F
100
AcDbEntity
  8
0
 62
     7
370
    60
100
AcDbCircle
 10
414.38971
 20
368.314494
 30
0.0
 40
3.799999999999979
100
AcDbArc
 50
33.41135900000013
 51
168.5567600000001
  0
ARC
  5
27C
330
1F
100
AcDbEntity
  8
0
 62
     7
370
    60
100
AcDbCircle
 10
421.787002
 20
368.514492
 30
0.0
 40
3.599999999999984
100
AcDbArc
 50
36.82988100000016
 51
167.0932420000002
  0
ARC
  5
27D
330
1F
100
AcDbEntity
  8
0
 62
     7
370
    60
100
AcDbCircle
 10
451.040222
 20
156.91449
 30
0.0
 40
8.999999999999998
100
AcDbArc
 50
174.0023750000001
 51
10.39929700000006
  0
ARC
  5
27E
330
1F
100
AcDbEntity
  8
0
 62
     7
370
    60
100
AcDbCircle
 10
-425.323914
 20
-3.917312
 30
0.0
 40
900.0
100
AcDbArc
 50
10.138383
 51
24.508121
  0
ARC
  5
27F
330
1F
100
AcDbEntity
  8
0
 62
     7
370
    60
100
AcDbCircle
 10
468.498078
 20
155.91449
 30
0.0
 40
7.999999999999973
100
AcDbArc
 50
190.1383829999999
 51
360.0
  0
ARC
  5
280
330
1F
100
AcDbEntity
  8
0
 62
     7
370
    60
100
AcDbCircle
 10
483.990006
 20
155.41449
 30
0.0
 40
7.49999999999999
100
AcDbArc
 50
172.4202979999999
 51
359.9999999999999
  0
ARC
  5
281
330
1F
100
AcDbEntity
  8
0
 62
     7
370
    60
100
AcDbCircle
 10
498.481384
 20
154.91449
 30
0.0
 40
7.000000000000006
100
AcDbArc
 50
210.3499100000001
 51
355.588282
  0
ARC
  5
282
330
1F
100
AcDbEntity
  8
0
 62
     7
370
    60
100
AcDbCircle
 10
-308.449158
 20
2.236404
 30
0.0
 40
800.0
100
AcDbArc
 50
11.110935
 51
27.351115
  0
ARC
  5
283
330
1F
100
AcDbEntity
  8
0
 62
     7
370
    60
100
AcDbCircle
 10
-194.63446
 20
17.483016
 30
0.0
 40
700.0
100
AcDbArc
 50
11.02737
 51
30.250457
  0
ARC
  5
284
330
1F
100
AcDbEntity
  8
0
 62
     7
370
    60
100
AcDbCircle
 10
-83.281524
 20
40.01921
 30
0.0
 40
600.0
100
AcDbArc
 50
10.744984
 51
33.411359
  0
ARC
  5
285
330
1F
100
AcDbEntity
  8
0
 62
     7
370
    60
100
AcDbCircle
 10
220.073388
 20
147.41449
 30
0.0
 40
307.0
100
AcDbArc
 50
15.950629
 51
28.784261
  0
ARC
  5
286
330
1F
100
AcDbEntity
  8
0
 62
     7
370
    60
100
AcDbCircle
 10
222.342048
 20
158.05745
 30
0.0
 40
299.9999999999999
100
AcDbArc
 50
27.211196
 51
45.38747300000001
  0
ARC
  5
287
330
1F
100
AcDbEntity
  8
0
 62
     7
370
    60
100
AcDbCircle
 10
427.082238
 20
370.364348
 30
0.0
 40
1.750143999999986
100
AcDbArc
 50
43.70966799999983
 51
216.6364959999999
  0
ARC
  5
288
330
1F
100
AcDbEntity
  8
0
 62
     7
370
    60
100
AcDbCircle
 10
431.827392
 20
370.3955
 30
0.0
 40
1.718991999999996
100
AcDbArc
 50
45.38747300000117
 51
223.0912740000012
  0
ARC
  5
289
330
1F
100
AcDbEntity
  8
0
 62
     7
370
    60
100
AcDbCircle
 10
434.72496
 20
371.21292
 30
0.0
 40
0.9015740000000151
100
AcDbArc
 50
46.19511900000089
 51
225.1040190000009
  0
ARC
  5
28A
330
1F
100
AcDbEntity
  8
0
 62
     7
370
    60
100
AcDbCircle
 10
228.502288
 20
143.612106
 30
0.0
 40
299.9999999999999
100
AcDbArc
 50
1.067106999999998
 51
17.091333
  0
ARC
  5
28B
330
1F
100
AcDbEntity
  8
0
 62
     7
370
    60
100
AcDbCircle
 10
-545.631652
 20
1.627456
 30
0.0
 40
1000.0
100
AcDbArc
 50
8.98799
 51
21.550656
  0
ARC
  5
28C
330
1F
100
AcDbEntity
  8
0
 62
     7
370
    60
100
AcDbCircle
 10
144.43396
 20
119.192642
 30
0.0
 40
380.0
100
AcDbArc
 50
4.837733000000001
 51
41.190027
  0
ARC
  5
28D
330
1F
100
AcDbEntity
  8
0
 62
     7
370
    60
100
AcDbCircle
 10
69.765106
 20
94.00737
 30
0.0
 40
450.0
100
AcDbArc
 50
7.268767
 51
37.93821500000001
  0
ARC
  5
28E
330
1F
100
AcDbEntity
  8
0
 62
     7
370
    60
100
AcDbCircle
 10
510.989746
 20
152.79123
 30
0.0
 40
4.876732000000003
100
AcDbArc
 50
190.7449859999999
 51
7.588760999999894
  0
ARC
  5
28F
330
1F
100
AcDbEntity
  8
0
 62
     7
370
    60
100
AcDbCircle
 10
525.71402
 20
150.620148
 30
0.0
 40
2.705661999999957
100
AcDbArc
 50
166.765325
 51
0.0000000000000369
  0
ARC
  5
290
330
1F
100
AcDbEntity
  8
0
 62
     7
370
    60
100
AcDbCircle
 10
529.759064
 20
149.223526
 30
0.0
 40
1.309033999999972
100
AcDbArc
 50
181.0670990000002
 51
0.0000000000002404
  0
ARC
  5
291
330
1F
100
AcDbEntity
  8
0
 62
     7
370
    60
100
AcDbCircle
 10
519.588196
 20
151.381836
 30
0.0
 40
3.467341999999986
100
AcDbArc
 50
187.2687609999999
 51
359.9999999999999
  0
ARC
  5
292
330
1F
100
AcDbEntity
  8
0
 62
     7
370
    60
100
AcDbCircle
 10
3861.596924
 20
-5.281326
 30
0.0
 40
3600.0
100
AcDbArc
 50
174.086523
 51
177.401132
  0
ARC
  5
293
330
1F
100
AcDbEntity
  8
0
 62
     7
370
    60
100
AcDbCircle
 10
1744.213746
 20
95.20552
 30
0.0
 40
1500.0
100
AcDbArc
 50
169.54927
 51
177.570985
  0
ARC
  5
294
330
1F
100
AcDbEntity
  8
0
 62
     7
370
    60
100
AcDbCircle
 10
1621.308594
 20
51.85115
 30
0.0
 40
1400.0
100
AcDbArc
 50
166.964466
 51
175.604792
  0
ARC
  5
295
330
1F
100
AcDbEntity
  8
0
 62
     7
370
    60
100
AcDbCircle
 10
1695.528198
 20
-19.61235
 30
0.0
 40
1500.0
100
AcDbArc
 50
165.018736
 51
173.237052
  0
ARC
  5
296
330
1F
100
AcDbEntity
  8
0
 62
     7
370
    60
100
AcDbCircle
 10
1180.22522
 20
39.464004
 30
0.0
 40
1000.0
100
AcDbArc
 50
160.780877
 51
173.258922
  0
ARC
  5
297
330
1F
100
AcDbEntity
  8
0
 62
     7
370
    60
100
AcDbCircle
 10
1155.57843
 20
1.627456
 30
0.0
 40
1000.0
100
AcDbArc
 50
158.449352
 51
171.012008
  0
ARC
  5
298
330
1F
100
AcDbEntity
  8
0
 62
     7
370
    60
100
AcDbCircle
 10
1035.27069
 20
-3.917312
 30
0.0
 40
900.0
100
AcDbArc
 50
155.491879
 51
169.861614
  0
ARC
  5
299
330
1F
100
AcDbEntity
  8
0
 62
     7
370
    60
100
AcDbCircle
 10
918.395936
 20
2.236404
 30
0.0
 40
800.0
100
AcDbArc
 50
152.648881
 51
168.889063
  0
ARC
  5
29A
330
1F
100
AcDbEntity
  8
0
 62
     7
370
    60
100
AcDbCircle
 10
804.581238
 20
17.483016
 30
0.0
 40
700.0
100
AcDbArc
 50
149.749548
 51
168.972624
  0
ARC
  5
29B
330
1F
100
AcDbEntity
  8
0
 62
     7
370
    60
100
AcDbCircle
 10
693.228302
 20
40.01921
 30
0.0
 40
600.0
100
AcDbArc
 50
146.588644
 51
169.255011
  0
ARC
  5
29C
330
1F
100
AcDbEntity
  8
0
 62
     7
370
    60
100
AcDbCircle
 10
540.181672
 20
94.00737
 30
0.0
 40
450.0
100
AcDbArc
 50
142.061789
 51
172.731236
  0
ARC
  5
29D
330
1F
100
AcDbEntity
  8
0
 62
     7
370
    60
100
AcDbCircle
 10
465.512818
 20
119.192642
 30
0.0
 40
380.0
100
AcDbArc
 50
138.809976
 51
175.162264
  0
ARC
  5
29E
330
1F
100
AcDbEntity
  8
0
 62
     7
370
    60
100
AcDbCircle
 10
389.87339
 20
147.41449
 30
0.0
 40
307.0
100
AcDbArc
 50
151.215744
 51
164.04937
  0
ARC
  5
29F
330
1F
100
AcDbEntity
  8
0
 62
     7
370
    60
100
AcDbCircle
 10
381.444488
 20
143.612106
 30
0.0
 40
300.0
100
AcDbArc
 50
162.908659
 51
178.932897
  0
ARC
  5
2A0
330
1F
100
AcDbEntity
  8
0
 62
     7
370
    60
100
AcDbCircle
 10
387.604728
 20
158.05745
 30
0.0
 40
300.0
100
AcDbArc
 50
134.612522
 51
152.788805
  0
ARC
  5
2A1
330
1F
100
AcDbEntity
  8
0
 62
     7
370
    60
100
AcDbCircle
 10
295.041962
 20
157.870346
 30
0.0
 40
9.979828000000015
100
AcDbArc
 50
176.934384
 51
5.909908000000031
  0
ARC
  5
2A2
330
1F
100
AcDbEntity
  8
0
 62
     7
370
    60
100
AcDbCircle
 10
275.194924
 20
157.720336
 30
0.0
 40
9.89617600000001
100
AcDbArc
 50
183.0193859999999
 51
1.785831999999947
  0
ARC
  5
2A3
330
1F
100
AcDbEntity
  8
0
 62
     7
370
    60
100
AcDbCircle
 10
255.420502
 20
157.704026
 30
0.0
 40
9.882236000000004
100
AcDbArc
 50
180.5225279999999
 51
1.4497849999999
  0
ARC
  5
2A4
330
1F
100
AcDbEntity
  8
0
 62
     7
370
    60
100
AcDbCircle
 10
235.402482
 20
157.963196
 30
0.0
 40
10.19161599999999
100
AcDbArc
 50
185.6933229999999
 51
4.585617999999893
  0
ARC
  5
2A5
330
1F
100
AcDbEntity
  8
0
 62
     7
370
    60
100
AcDbCircle
 10
215.723198
 20
157.830582
 30
0.0
 40
9.79065600000001
100
AcDbArc
 50
184.6891759999999
 51
7.692406999999955
  0
ARC
  5
2A6
330
1F
100
AcDbEntity
  8
0
 62
     7
370
    60
100
AcDbCircle
 10
196.654862
 20
157.229354
 30
0.0
 40
9.282871999999994
100
AcDbArc
 50
171.930397
 51
1.234817000000014
  0
ARC
  5
2A7
330
1F
100
AcDbEntity
  8
0
 62
     7
370
    60
100
AcDbCircle
 10
177.52687
 20
157.370972
 30
0.0
 40
9.625908000000003
100
AcDbArc
 50
170.952272
 51
356.8786959999999
  0
ARC
  5
2A8
330
1F
100
AcDbEntity
  8
0
 62
     7
370
    60
100
AcDbCircle
 10
158.906556
 20
156.91449
 30
0.0
 40
8.999999999999993
100
AcDbArc
 50
169.6007
 51
5.997626000000062
  0
ARC
  5
2A9
330
1F
100
AcDbEntity
  8
0
 62
     7
370
    60
100
AcDbCircle
 10
141.4487
 20
155.91449
 30
0.0
 40
8.000000000000002
100
AcDbArc
 50
180.0000049999999
 51
349.8616049999999
  0
ARC
  5
2AA
330
1F
100
AcDbEntity
  8
0
 62
     7
370
    60
100
AcDbCircle
 10
125.956772
 20
155.41449
 30
0.0
 40
7.5
100
AcDbArc
 50
180.000005
 51
7.579698000000116
  0
ARC
  5
2AB
330
1F
100
AcDbEntity
  8
0
 62
     7
370
    60
100
AcDbCircle
 10
111.465394
 20
154.91449
 30
0.0
 40
7.000000000000004
100
AcDbArc
 50
184.4117199999999
 51
329.650093
  0
ARC
  5
2AC
330
1F
100
AcDbEntity
  8
0
 62
     7
370
    60
100
AcDbCircle
 10
98.957032
 20
152.79123
 30
0.0
 40
4.876732000000003
100
AcDbArc
 50
172.4112409999998
 51
349.2550019999999
  0
ARC
  5
2AD
330
1F
100
AcDbEntity
  8
0
 62
     7
370
    60
100
AcDbCircle
 10
90.358582
 20
151.381836
 30
0.0
 40
3.467342000000001
100
AcDbArc
 50
180.0000049999998
 51
352.7312399999999
  0
ARC
  5
2AE
330
1F
100
AcDbEntity
  8
0
 62
     7
370
    60
100
AcDbCircle
 10
80.187714
 20
149.223526
 30
0.0
 40
1.309034000000002
100
AcDbArc
 50
180.0000050000006
 51
358.9328890000006
  0
ARC
  5
2AF
330
1F
100
AcDbEntity
  8
0
 62
     7
370
    60
100
AcDbCircle
 10
84.232758
 20
150.620148
 30
0.0
 40
2.705662
100
AcDbArc
 50
180.0000049999999
 51
13.23466999999993
  0
ARC
  5
2B0
330
1F
100
AcDbEntity
  8
0
 62
     7
370
    60
100
AcDbCircle
 10
298.87678
 20
366.01794
 30
0.0
 40
6.096554000000026
100
AcDbArc
 50
0.0
 51
176.201942
  0
ARC
  5
2B1
330
1F
100
AcDbEntity
  8
0
 62
     7
370
    60
100
AcDbCircle
 10
286.802326
 20
366.154034
 30
0.0
 40
5.960457999999996
100
AcDbArc
 50
356.2125059999998
 51
174.0680269999998
  0
ARC
  5
2B2
330
1F
100
AcDbEntity
  8
0
 62
     7
370
    60
100
AcDbCircle
 10
274.892156
 20
366.221406
 30
0.0
 40
5.89308799999999
100
AcDbArc
 50
354.0865140000002
 51
169.5492700000002
  0
ARC
  5
2B3
330
1F
100
AcDbEntity
  8
0
 62
     7
370
    60
100
AcDbCircle
 10
251.68739
 20
366.757522
 30
0.0
 40
5.356968000000005
100
AcDbArc
 50
347.0514739999999
 51
165.0187359999999
  0
ARC
  5
2B4
330
1F
100
AcDbEntity
  8
0
 62
     7
370
    60
100
AcDbCircle
 10
240.841332
 20
366.94365
 30
0.0
 40
5.170842000000007
100
AcDbArc
 50
345.118612
 51
160.7808769999999
  0
ARC
  5
2B5
330
1F
100
AcDbEntity
  8
0
 62
     7
370
    60
100
AcDbCircle
 10
230.135688
 20
367.114494
 30
0.0
 40
4.999999999999998
100
AcDbArc
 50
340.9726059999999
 51
158.4493520000001
  0
ARC
  5
2B6
330
1F
100
AcDbEntity
  8
0
 62
     7
370
    60
100
AcDbCircle
 10
220.544022
 20
367.514492
 30
0.0
 40
4.599999999999994
100
AcDbArc
 50
6.262634000000303
 51
155.4918790000003
  0
ARC
  5
2B7
330
1F
100
AcDbEntity
  8
0
 62
     7
370
    60
100
AcDbCircle
 10
211.649086
 20
367.814494
 30
0.0
 40
4.299999999999986
100
AcDbArc
 50
8.188291999999759
 51
152.6488809999998
  0
ARC
  5
2B8
330
1F
100
AcDbEntity
  8
0
 62
     7
370
    60
100
AcDbCircle
 10
203.354508
 20
368.114492
 30
0.0
 40
4.0
100
AcDbArc
 50
9.376035999999923
 51
149.7495479999999
  0
ARC
  5
2B9
330
1F
100
AcDbEntity
  8
0
 62
     7
370
    60
100
AcDbCircle
 10
195.557068
 20
368.314494
 30
0.0
 40
3.799999999999995
100
AcDbArc
 50
11.44323499999976
 51
146.5886439999998
  0
ARC
  5
2BA
330
1F
100
AcDbEntity
  8
0
 62
     7
370
    60
100
AcDbCircle
 10
188.159774
 20
368.514492
 30
0.0
 40
3.59999999999999
100
AcDbArc
 50
12.9067519999996
 51
143.1701239999996
  0
ARC
  5
2BB
330
1F
100
AcDbEntity
  8
0
 62
     7
370
    60
100
AcDbCircle
 10
182.86454
 20
370.364348
 30
0.0
 40
1.750144000000013
100
AcDbArc
 50
333.3425749999992
 51
136.2903319999992
  0
ARC
  5
2BC
330
1F
100
AcDbEntity
  8
0
 62
     7
370
    60
100
AcDbCircle
 10
178.119384
 20
370.3955
 30
0.0
 40
1.718992000000022
100
AcDbArc
 50
316.9087309999996
 51
134.6125219999997
  0
ARC
  5
2BD
330
1F
100
AcDbEntity
  8
0
 62
     7
370
    60
100
AcDbCircle
 10
175.221818
 20
371.21292
 30
0.0
 40
0.9015740000000009
100
AcDbArc
 50
314.8959809999997
 51
133.8048809999997
  0
ARC
  5
2BE
330
1F
100
AcDbEntity
  8
0
 62
     7
370
    60
100
AcDbCircle
 10
263.029338
 20
366.321918
 30
0.0
 40
5.792573999999996
100
AcDbArc
 50
349.6273839999998
 51
166.9644659999998
  0
ARC
  5
2BF
330
1F
100
AcDbEntity
  8
0
 62
     7
370
    60
100
AcDbCircle
 10
304.973388
 20
392.257688
 30
0.0
 40
10.34319600000002
100
AcDbArc
 50
175.7775960000002
 51
0.0000100000001413
  0
ARC
  5
2C0
330
1F
100
AcDbEntity
  8
0
 62
     7
370
    60
100
AcDbCircle
 10
325.6105
 20
392.144424
 30
0.0
 40
10.22992999999999
100
AcDbArc
 50
184.1965009999999
 51
11.49711599999989
  0
ARC
  5
2C1
330
1F
100
AcDbEntity
  8
0
 62
     7
370
    60
100
AcDbCircle
 10
346.358418
 20
391.991832
 30
0.0
 40
10.07733999999999
100
AcDbArc
 50
191.334527
 51
16.03704199999993
  0
ARC
  5
2C2
330
1F
100
AcDbEntity
  8
0
 62
     7
370
    60
100
AcDbCircle
 10
366.23745
 20
390.563618
 30
0.0
 40
8.649125999999995
100
AcDbArc
 50
195.776335
 51
23.09952400000004
  0
ARC
  5
2C3
330
1F
100
AcDbEntity
  8
0
 62
     7
370
    60
100
AcDbCircle
 10
383.907372
 20
388.902394
 30
0.0
 40
6.987901999999997
100
AcDbArc
 50
202.6181350000001
 51
29.18240300000018
  0
ARC
  5
2C4
330
1F
100
AcDbEntity
  8
0
 62
     7
370
    60
100
AcDbCircle
 10
399.027778
 20
387.480588
 30
0.0
 40
5.566095999999991
100
AcDbArc
 50
208.56973
 51
21.81285100000002
  0
ARC
  5
2C5
330
1F
100
AcDbEntity
  8
0
 62
     7
370
    60
100
AcDbCircle
 10
411.438912
 20
385.092834
 30
0.0
 40
3.178342000000008
100
AcDbArc
 50
214.8962480000005
 51
44.88122100000049
  0
ARC
  5
2C6
330
1F
100
AcDbEntity
  8
0
 62
     7
370
    60
100
AcDbCircle
 10
419.714302
 20
383.628548
 30
0.0
 40
1.714055999999999
100
AcDbArc
 50
223.8489170000006
 51
59.23065600000059
  0
ARC
  5
2C7
330
1F
100
AcDbEntity
  8
0
 62
     7
370
    60
100
AcDbCircle
 10
284.336278
 20
392.144424
 30
0.0
 40
10.22992999999998
100
AcDbArc
 50
168.5028850000001
 51
355.8034870000001
  0
ARC
  5
2C8
330
1F
100
AcDbEntity
  8
0
 62
     7
370
    60
100
AcDbCircle
 10
263.58836
 20
391.991832
 30
0.0
 40
10.07733999999998
100
AcDbArc
 50
163.9629530000001
 51
348.6654750000001
  0
ARC
  5
2C9
330
1F
100
AcDbEntity
  8
0
 62
     7
370
    60
100
AcDbCircle
 10
243.709328
 20
390.563618
 30
0.0
 40
8.649126000000006
100
AcDbArc
 50
156.90047
 51
344.223667
  0
ARC
  5
2CA
330
1F
100
AcDbEntity
  8
0
 62
     7
370
    60
100
AcDbCircle
 10
226.039406
 20
388.902394
 30
0.0
 40
6.987902
100
AcDbArc
 50
150.8176
 51
337.3818660000001
  0
ARC
  5
2CB
330
1F
100
AcDbEntity
  8
0
 62
     7
370
    60
100
AcDbCircle
 10
210.918998
 20
387.480588
 30
0.0
 40
5.566095999999999
100
AcDbArc
 50
144.2305640000001
 51
331.4302850000001
  0
ARC
  5
2CC
330
1F
100
AcDbEntity
  8
0
 62
     7
370
    60
100
AcDbCircle
 10
3884.886962
 20
127.957504
 30
0.0
 40
3600.0
100
AcDbArc
 50
175.670731
 51
175.777596
  0
ARC
  5
2CD
330
1F
100
AcDbEntity
  8
0
 62
     7
370
    60
100
AcDbCircle
 10
-3274.940186
 20
127.957504
 30
0.0
 40
3600.0
100
AcDbArc
 50
4.196502000000001
 51
4.342440000000001
  0
ARC
  5
2CE
330
1F
100
AcDbEntity
  8
0
 62
     7
370
    60
100
AcDbCircle
 10
-1134.266968
 20
95.20552
 30
0.0
 40
1500.0
100
AcDbArc
 50
11.334533
 51
11.712796
  0
ARC
  5
2CF
330
1F
100
AcDbEntity
  8
0
 62
     7
370
    60
100
AcDbCircle
 10
-1085.58142
 20
-19.61235
 30
0.0
 40
1500.0
100
AcDbArc
 50
15.776344
 51
16.233421
  0
ARC
  5
2D0
330
1F
100
AcDbEntity
  8
0
 62
     7
370
    60
100
AcDbCircle
 10
-545.631652
 20
1.627456
 30
0.0
 40
1000.0
100
AcDbArc
 50
23.099524
 51
23.458645
  0
ARC
  5
2D1
330
1F
100
AcDbEntity
  8
0
 62
     7
370
    60
100
AcDbCircle
 10
-308.449158
 20
2.236404
 30
0.0
 40
800.0
100
AcDbArc
 50
29.182403
 51
29.791659
  0
ARC
  5
2D2
330
1F
100
AcDbEntity
  8
0
 62
     7
370
    60
100
AcDbCircle
 10
-83.281524
 20
40.01921
 30
0.0
 40
600.0
100
AcDbArc
 50
34.896253
 51
36.409828
  0
ARC
  5
2D3
330
1F
100
AcDbEntity
  8
0
 62
     7
370
    60
100
AcDbCircle
 10
144.43396
 20
119.192642
 30
0.0
 40
380.0
100
AcDbArc
 50
44.881221
 51
45.681507
  0
ARC
  5
2D4
330
1F
100
AcDbEntity
  8
0
 62
     7
370
    60
100
AcDbCircle
 10
1744.213746
 20
95.20552
 30
0.0
 40
1500.0
100
AcDbArc
 50
168.2872
 51
168.66547
  0
ARC
  5
2D5
330
1F
100
AcDbEntity
  8
0
 62
     7
370
    60
100
AcDbCircle
 10
1695.528198
 20
-19.61235
 30
0.0
 40
1500.0
100
AcDbArc
 50
163.766572
 51
164.223661
  0
ARC
  5
2D6
330
1F
100
AcDbEntity
  8
0
 62
     7
370
    60
100
AcDbCircle
 10
1155.57843
 20
1.627456
 30
0.0
 40
1000.0
100
AcDbArc
 50
156.541351
 51
157.38186
  0
ARC
  5
2D7
330
1F
100
AcDbEntity
  8
0
 62
     7
370
    60
100
AcDbCircle
 10
918.395936
 20
2.236404
 30
0.0
 40
800.0
100
AcDbArc
 50
150.208345
 51
151.430266
  0
ARC
  5
2D8
330
1F
100
AcDbEntity
  8
0
 62
     7
370
    60
100
AcDbCircle
 10
693.228302
 20
40.01921
 30
0.0
 40
600.0
100
AcDbArc
 50
143.590164
 51
145.103747
  0
ARC
  5
2D9
330
1F
100
AcDbEntity
  8
0
 62
     7
370
    60
100
AcDbCircle
 10
465.512818
 20
119.192642
 30
0.0
 40
380.0
100
AcDbArc
 50
134.318498
 51
135.118779
  0
ARC
  5
2DA
330
1F
100
AcDbEntity
  8
0
 62
     7
370
    60
100
AcDbCircle
 10
190.232476
 20
383.628548
 30
0.0
 40
1.714055999999992
100
AcDbArc
 50
120.7693440000002
 51
316.1510710000002
  0
ARC
  5
2DB
330
1F
100
AcDbEntity
  8
0
 62
     7
370
    60
100
AcDbCircle
 10
693.228302
 20
40.01921
 30
0.0
 40
600.0
100
AcDbArc
 50
143.590164
 51
145.103747
  0
ARC
  5
2DC
330
1F
100
AcDbEntity
  8
0
 62
     7
370
    60
100
AcDbCircle
 10
465.512818
 20
119.192642
 30
0.0
 40
380.0
100
AcDbArc
 50
134.318498
 51
135.118779
  0
ARC
  5
2DD
330
1F
100
AcDbEntity
  8
0
 62
     7
370
    60
100
AcDbCircle
 10
304.973388
 20
190.91449
 30
0.0
 40
226.0
100
AcDbArc
 50
112.49786
 51
122.343332
  0
ARC
  5
2DE
330
1F
100
AcDbEntity
  8
0
 62
     7
370
    60
100
AcDbCircle
 10
465.512818
 20
119.192642
 30
0.0
 40
380.0
100
AcDbArc
 50
135.118779
 51
136.151078
  0
ARC
  5
2DF
330
1F
100
AcDbEntity
  8
0
 62
     7
370
    60
100
AcDbCircle
 10
693.228302
 20
40.01921
 30
0.0
 40
600.0
100
AcDbArc
 50
143.590164
 51
145.103747
  0
ARC
  5
2E0
330
1F
100
AcDbEntity
  8
0
 62
     7
370
    60
100
AcDbCircle
 10
198.507866
 20
385.092834
 30
0.0
 40
3.178341999999998
100
AcDbArc
 50
135.1187789999997
 51
325.1037549999998
  0
LINE
  5
2E1
330
1F
100
AcDbEntity
  8
0
 62
     7
 48
0.036924
370
    60
100
AcDbLine
 10
179.55159
 20
369.444858
 30
0.0
 11
181.599442
 21
371.573706
 31
0.0
  0
ARC
  5
2E2
330
1F
100
AcDbEntity
  8
0
 62
     7
370
    60
100
AcDbCircle
 10
3884.886962
 20
127.957504
 30
0.0
 40
3600.0
100
AcDbArc
 50
176.201942
 51
179.547724
  0
ARC
  5
2E3
330
1F
100
AcDbEntity
  8
0
 62
     7
370
    60
100
AcDbCircle
 10
-545.631652
 20
1.627456
 30
0.0
 40
1000.0
100
AcDbArc
 50
22.618134
 51
23.099524
  0
ARC
  5
2E4
330
1F
100
AcDbEntity
  8
0
 62
     7
370
    60
100
AcDbCircle
 10
-308.449158
 20
2.236404
 30
0.0
 40
800.0
100
AcDbArc
 50
28.569728
 51
29.182403
  0
ARC
  5
2E5
330
1F
100
AcDbEntity
  8
0
 62
     7
370
    60
100
AcDbCircle
 10
144.43396
 20
119.192642
 30
0.0
 40
380.0
100
AcDbArc
 50
43.84892
 51
44.881221
  0
LINE
  5
2E6
330
1F
100
AcDbEntity
  8
0
 62
     7
 48
0.036924
370
    60
100
AcDbLine
 10
428.347336
 20
371.573706
 30
0.0
 11
430.395188
 21
369.444858
 31
0.0
  0
LINE
  5
2E7
330
1F
100
AcDbEntity
  8
0
 62
     7
370
    60
100
AcDbLine
 10
279.973388
 20
504.714492
 30
0.0
 11
329.973388
 21
504.714492
 31
0.0
  0
LINE
  5
2E8
330
1F
100
AcDbEntity
  8
0
 62
     7
 48
0.4875
370
    60
100
AcDbLine
 10
285.473388
 20
509.714492
 30
0.0
 11
324.473388
 21
509.714492
 31
0.0
  0
LINE
  5
2E9
330
1F
100
AcDbEntity
  8
0
 62
     7
370
    60
100
AcDbLine
 10
279.973388
 20
514.714492
 30
0.0
 11
329.973388
 21
514.714492
 31
0.0
  0
LINE
  5
2EA
330
1F
100
AcDbEntity
  8
0
 62
     7
 48
0.4875
370
    60
100
AcDbLine
 10
285.473388
 20
519.714492
 30
0.0
 11
324.473388
 21
519.714492
 31
0.0
  0
LINE
  5
2EB
330
1F
100
AcDbEntity
  8
0
 62
     7
370
    60
100
AcDbLine
 10
279.973388
 20
524.714492
 30
0.0
 11
329.973388
 21
524.714492
 31
0.0
  0
LINE
  5
2EC
330
1F
100
AcDbEntity
  8
0
 62
     7
 48
0.4875
370
    60
100
AcDbLine
 10
285.473388
 20
529.714492
 30
0.0
 11
324.473388
 21
529.714492
 31
0.0
  0
LINE
  5
2ED
330
1F
100
AcDbEntity
  8
0
 62
     7
370
    60
100
AcDbLine
 10
279.973388
 20
534.714492
 30
0.0
 11
329.973388
 21
534.714492
 31
0.0
  0
LINE
  5
2EE
330
1F
100
AcDbEntity
  8
0
 62
     7
 48
0.4875
370
    60
100
AcDbLine
 10
285.473388
 20
539.714492
 30
0.0
 11
324.473388
 21
539.714492
 31
0.0
  0
LINE
  5
2EF
330
1F
100
AcDbEntity
  8
0
 62
     7
370
    60
100
AcDbLine
 10
279.973388
 20
544.714492
 30
0.0
 11
329.973388
 21
544.714492
 31
0.0
  0
ARC
  5
2F0
330
1F
100
AcDbEntity
  8
0
 62
     7
370
    60
100
AcDbCircle
 10
285.473388
 20
504.214492
 30
0.0
 40
5.500000000000007
100
AcDbArc
 50
90.00000300000006
 51
174.78409
  0
ARC
  5
2F1
330
1F
100
AcDbEntity
  8
0
 62
     7
370
    60
100
AcDbCircle
 10
324.473388
 20
504.214492
 30
0.0
 40
5.500000000000001
100
AcDbArc
 50
5.215909000000157
 51
90.00000300000016
  0
ARC
  5
2F2
330
1F
100
AcDbEntity
  8
0
 62
     7
370
    60
100
AcDbCircle
 10
324.473388
 20
514.214492
 30
0.0
 40
5.499999999999996
100
AcDbArc
 50
5.215908999999567
 51
90.00000299999958
  0
ARC
  5
2F3
330
1F
100
AcDbEntity
  8
0
 62
     7
370
    60
100
AcDbCircle
 10
285.473388
 20
514.214492
 30
0.0
 40
5.500000000000007
100
AcDbArc
 50
90.00000300000006
 51
174.78409
  0
ARC
  5
2F4
330
1F
100
AcDbEntity
  8
0
 62
     7
370
    60
100
AcDbCircle
 10
285.473388
 20
524.214492
 30
0.0
 40
5.500000000000007
100
AcDbArc
 50
90.00000300000006
 51
174.78409
  0
ARC
  5
2F5
330
1F
100
AcDbEntity
  8
0
 62
     7
370
    60
100
AcDbCircle
 10
324.473388
 20
524.214492
 30
0.0
 40
5.499999999999996
100
AcDbArc
 50
5.215908999999567
 51
90.00000299999958
  0
ARC
  5
2F6
330
1F
100
AcDbEntity
  8
0
 62
     7
370
    60
100
AcDbCircle
 10
324.473388
 20
534.214492
 30
0.0
 40
5.499999999999996
100
AcDbArc
 50
5.215908999999567
 51
90.00000299999958
  0
ARC
  5
2F7
330
1F
100
AcDbEntity
  8
0
 62
     7
370
    60
100
AcDbCircle
 10
285.473388
 20
534.214492
 30
0.0
 40
5.500000000000007
100
AcDbArc
 50
90.00000300000006
 51
174.78409
  0
LINE
  5
2F8
330
1F
100
AcDbEntity
  8
0
 62
     7
 48
0.4875
370
    60
100
AcDbLine
 10
285.473388
 20
549.714492
 30
0.0
 11
324.473388
 21
549.714492
 31
0.0
  0
ARC
  5
2F9
330
1F
100
AcDbEntity
  8
0
 62
     7
370
    60
100
AcDbCircle
 10
324.473388
 20
544.214492
 30
0.0
 40
5.499999999999996
100
AcDbArc
 50
5.215908999999567
 51
90.00000299999958
  0
ARC
  5
2FA
330
1F
100
AcDbEntity
  8
0
 62
     7
370
    60
100
AcDbCircle
 10
285.473388
 20
544.214492
 30
0.0
 40
5.500000000000007
100
AcDbArc
 50
90.00000300000006
 51
174.78409
  0
LWPOLYLINE
  5
2FB
330
1F
100
AcDbEntity
  8
0
 62
     7
370
    60
100
AcDbPolyline
 90
      119
 70
     1
 43
0.0
 10
407.30986
 20
469.140594
 10
407.67575
 20
469.150612
 10
408.041168
 20
469.180642
 10
408.770028
 20
469.300842
 10
409.495132
 20
469.501808
 10
410.214836
 20
469.784722
 10
410.92704
 20
470.151184
 10
411.629052
 20
470.60302
 10
412.317482
 20
471.141998
 10
412.988258
 20
471.769584
 10
413.63662
 20
472.486656
 10
414.257172
 20
473.293228
 10
414.844018
 20
474.188202
 10
415.390884
 20
475.169158
 10
415.891296
 20
476.232178
 10
416.338798
 20
477.37175
 10
416.727172
 20
478.58068
 10
417.050636
 20
479.850196
 10
417.304116
 20
481.169982
 10
417.48339
 20
482.528396
 10
417.585328
 20
483.912734
 10
417.607994
 20
485.309502
 10
417.589348
 20
486.008126
 10
417.550736
 20
486.704804
 10
417.492348
 20
487.39708
 10
417.414254
 20
488.084724
 10
417.317008
 20
488.763824
 10
417.200532
 20
489.4357
 10
417.065934
 20
490.095116
 10
416.912812
 20
490.744874
 10
416.742928
 20
491.378616
 10
416.555428
 20
492.000466
 10
416.352806
 20
492.603188
 10
416.133636
 20
493.192008
 10
415.901214
 20
493.759118
 10
415.653442
 20
494.310586
 10
415.394416
 20
494.83831
 10
415.121338
 20
495.348946
 10
414.83905
 20
495.834374
 10
414.544068
 20
496.301528
 10
414.241898
 20
496.7426
 10
413.928414
 20
497.164498
 10
413.609658
 20
497.559936
 10
413.28096
 20
497.935554
 10
412.948738
 20
498.28482
 10
412.60791
 20
498.613838
 10
412.265076
 20
498.916984
 10
411.914932
 20
499.199638
 10
411.56401
 20
499.457206
 10
411.207024
 20
499.694198
 10
410.850182
 20
499.907058
 10
410.48845
 20
500.09935
 10
410.127488
 20
500.268562
 10
409.762734
 20
500.417298
 10
409.399078
 20
500.543952
 10
409.032684
 20
500.650246
 10
408.66745
 20
500.735352
 10
408.30046
 20
500.800224
 10
407.934502
 20
500.844574
 10
407.56775
 20
500.868798
 10
407.201736
 20
500.872902
 10
406.835862
 20
500.856964
 10
406.106002
 20
500.765022
 10
405.37941
 20
500.592606
 10
404.657592
 20
500.338714
 10
403.942466
 20
500.001876
 10
403.236518
 20
499.580314
 10
402.542878
 20
499.072204
 10
401.865372
 20
498.47596
 10
401.208534
 20
497.790452
 10
400.577538
 20
497.015336
 10
399.978126
 20
496.15129
 10
399.41645
 20
495.200242
 10
398.898942
 20
494.165574
 10
398.432076
 20
493.05223
 10
398.022194
 20
491.866798
 10
397.675254
 20
490.617516
 10
397.396598
 20
489.31417
 10
397.19078
 20
487.967956
 10
397.061326
 20
486.59124
 10
397.010604
 20
485.19728
 10
397.015168
 20
484.498078
 10
397.039726
 20
483.799866
 10
397.084182
 20
483.10456
 10
397.148476
 20
482.412948
 10
397.232178
 20
481.728454
 10
397.335304
 20
481.050278
 10
397.456954
 20
480.383216
 10
397.597404
 20
479.724976
 10
397.755134
 20
479.08155
 10
397.930816
 20
478.44925
 10
398.122222
 20
477.835038
 10
398.330574
 20
477.234054
 10
398.552856
 20
476.65393
 10
398.790924
 20
476.088868
 10
399.040954
 20
475.546898
 10
399.305512
 20
475.021538
 10
399.579994
 20
474.520942
 10
399.867652
 20
474.038224
 10
400.1632
 20
473.581352
 10
400.470558
 20
473.143364
 10
400.783836
 20
472.731758
 10
401.107544
 20
472.339768
 10
401.435372
 20
471.974228
 10
401.772254
 20
471.6288
 10
402.111664
 20
471.309456
 10
402.458824
 20
471.010528
 10
402.807168
 20
470.736992
 10
403.162002
 20
470.484024
 10
403.516984
 20
470.255532
 10
403.877258
 20
470.047622
 10
404.236954
 20
469.863166
 10
404.600814
 20
469.699234
 10
404.963668
 20
469.557708
 10
405.329612
 20
469.436592
 10
405.694404
 20
469.33696
 10
406.061286
 20
469.257606
 10
406.427078
 20
469.198982
 10
406.793992
 20
469.160508
  0
LWPOLYLINE
  5
2FC
330
1F
100
AcDbEntity
  8
0
 62
     7
370
    60
100
AcDbPolyline
 90
      106
 70
     1
 43
0.0
 10
407.30986
 20
472.140594
 10
407.83117
 20
472.17698
 10
408.367974
 20
472.292434
 10
408.91298
 20
472.489098
 10
409.461724
 20
472.76934
 10
410.01233
 20
473.13697
 10
410.564384
 20
473.597656
 10
410.975234
 20
474.004882
 10
411.516212
 20
474.63527
 10
412.03759
 20
475.361222
 10
412.532296
 20
476.182442
 10
412.992584
 20
477.096612
 10
413.410354
 20
478.099198
 10
413.590408
 20
478.601212
 10
413.929954
 20
479.718208
 10
414.20671
 20
480.898796
 10
414.414986
 20
482.13263
 10
414.54988
 20
483.407058
 10
414.60762
 20
484.707482
 10
414.606766
 20
485.362816
 10
414.585892
 20
486.01783
 10
414.545052
 20
486.67028
 10
414.484062
 20
487.321212
 10
414.40377
 20
487.962304
 10
414.303284
 20
488.600586
 10
414.184944
 20
489.222168
 10
414.046478
 20
489.839562
 10
413.892288
 20
490.434226
 10
413.718162
 20
491.02324
 10
413.590416
 20
491.413192
 10
413.392616
 20
491.962052
 10
413.175292
 20
492.503304
 10
412.949386
 20
493.01091
 10
412.704292
 20
493.509552
 10
412.454948
 20
493.9701
 10
412.186974
 20
494.420174
 10
411.91906
 20
494.829674
 10
411.633384
 20
495.226998
 10
411.351868
 20
495.582954
 10
411.053756
 20
495.925004
 10
410.975234
 20
496.009514
 10
410.683876
 20
496.304024
 10
410.377502
 20
496.583168
 10
410.081124
 20
496.82502
 10
409.77121
 20
497.049392
 10
409.47879
 20
497.23516
 10
409.175308
 20
497.40203
 10
408.88755
 20
497.53643
 10
408.5914
 20
497.651024
 10
408.308006
 20
497.73848
 10
408.019004
 20
497.805504
 10
407.740982
 20
497.848876
 10
407.46038
 20
497.871452
 10
407.30986
 20
497.874618
 10
406.778336
 20
497.83561
 10
406.236916
 20
497.717492
 10
405.691376
 20
497.518768
 10
405.14396
 20
497.236954
 10
404.594338
 20
496.867492
 10
404.041542
 20
496.403762
 10
403.644486
 20
496.009514
 10
403.104812
 20
495.380898
 10
402.58384
 20
494.655746
 10
402.088974
 20
493.834626
 10
401.62835
 20
492.920318
 10
401.210358
 20
491.917816
 10
401.029304
 20
491.413192
 10
400.689834
 20
490.29647
 10
400.413094
 20
489.115982
 10
400.204796
 20
487.882126
 10
400.069878
 20
486.607628
 10
400.012108
 20
485.307152
 10
400.012954
 20
484.65181
 10
400.033814
 20
483.996796
 10
400.074646
 20
483.344368
 10
400.13562
 20
482.693466
 10
400.215904
 20
482.052414
 10
400.316376
 20
481.414176
 10
400.4347
 20
480.792618
 10
400.573158
 20
480.175248
 10
400.727348
 20
479.580544
 10
400.901474
 20
478.991494
 10
401.02932
 20
478.601212
 10
401.227188
 20
478.052154
 10
401.444572
 20
477.510704
 10
401.670478
 20
477.00309
 10
401.915574
 20
476.504456
 10
402.16481
 20
476.044128
 10
402.43267
 20
475.5943
 10
402.7005
 20
475.184982
 10
402.986076
 20
474.787834
 10
403.267768
 20
474.431664
 10
403.566056
 20
474.08934
 10
403.644494
 20
474.004882
 10
403.936608
 20
473.709466
 10
404.24382
 20
473.429596
 10
404.539314
 20
473.188674
 10
404.848274
 20
472.965202
 10
405.140792
 20
472.779502
 10
405.444366
 20
472.612626
 10
405.73291
 20
472.477814
 10
406.02987
 20
472.362816
 10
406.313538
 20
472.275192
 10
406.602814
 20
472.208122
 10
406.879326
 20
472.165184
 10
407.15844
 20
472.14325
  0
CIRCLE
  5
2FD
330
1F
100
AcDbEntity
  8
0
 62
     7
370
    60
100
AcDbCircle
 10
304.973388
 20
454.714492
 30
0.0
 40
2.5
  0
LWPOLYLINE
  5
2FE
330
1F
100
AcDbEntity
  8
0
 62
     7
370
    60
100
AcDbPolyline
 90
       34
 70
     1
 43
0.0
 10
407.411088
 20
453.216034
 10
407.509614
 20
453.23291
 10
407.698394
 20
453.327378
 10
407.873032
 20
453.507618
 10
408.022354
 20
453.780762
 10
408.127648
 20
454.144084
 10
408.16864
 20
454.575286
 10
408.132278
 20
455.030986
 10
408.085136
 20
455.249942
 10
408.020012
 20
455.456478
 10
407.941314
 20
455.63993
 10
407.8489
 20
455.803288
 10
407.751174
 20
455.935516
 10
407.644958
 20
456.044246
 10
407.540696
 20
456.122212
 10
407.43261
 20
456.176892
 10
407.329758
 20
456.20613
 10
407.22879
 20
456.213894
 10
407.129852
 20
456.201122
 10
406.939918
 20
456.114944
 10
406.763488
 20
455.943768
 10
406.610848
 20
455.680168
 10
406.50013
 20
455.32534
 10
406.451836
 20
454.899346
 10
406.480156
 20
454.443702
 10
406.523568
 20
454.222474
 10
406.585282
 20
454.012696
 10
406.6613
 20
453.824718
 10
406.751542
 20
453.65625
 10
406.847954
 20
453.518494
 10
406.953384
 20
453.404088
 10
407.057442
 20
453.320794
 10
407.165748
 20
453.260914
 10
407.268936
 20
453.227074
  0
ARC
  5
2FF
330
1F
100
AcDbEntity
  8
0
 62
     7
370
    60
100
AcDbCircle
 10
336.973388
 20
581.714492
 30
0.0
 40
2.000000000000008
100
AcDbArc
 50
180.0000050000005
 51
270.0000010000005
  0
ARC
  5
300
330
1F
100
AcDbEntity
  8
0
 62
     7
370
    60
100
AcDbCircle
 10
332.973388
 20
581.714492
 30
0.0
 40
2.0
100
AcDbArc
 50
0.0
 51
90.000003
  0
ARC
  5
301
330
1F
100
AcDbEntity
  8
0
 62
     7
370
    60
100
AcDbCircle
 10
276.973388
 20
581.714492
 30
0.0
 40
2.000000000000003
100
AcDbArc
 50
90.00000299999932
 51
180.0000049999993
  0
ARC
  5
302
330
1F
100
AcDbEntity
  8
0
 62
     7
370
    60
100
AcDbCircle
 10
272.973388
 20
581.714492
 30
0.0
 40
2.0
100
AcDbArc
 50
270.0000009999998
 51
359.9999999999998
  0
LINE
  5
303
330
1F
100
AcDbEntity
  8
0
 62
     7
 48
0.23125
370
    60
100
AcDbLine
 10
322.973388
 20
404.714492
 30
0.0
 11
322.973388
 21
423.214492
 31
0.0
  0
LINE
  5
304
330
1F
100
AcDbEntity
  8
0
 62
     7
 48
0.23125
370
    60
100
AcDbLine
 10
316.973388
 20
404.714492
 30
0.0
 11
316.973388
 21
423.214492
 31
0.0
  0
LINE
  5
305
330
1F
100
AcDbEntity
  8
0
 62
     7
 48
0.075
370
    60
100
AcDbLine
 10
309.473388
 20
430.714492
 30
0.0
 11
315.473388
 21
430.714492
 31
0.0
  0
LINE
  5
306
330
1F
100
AcDbEntity
  8
0
 62
     7
 48
0.075
370
    60
100
AcDbLine
 10
309.473388
 20
424.714492
 30
0.0
 11
315.473388
 21
424.714492
 31
0.0
  0
ARC
  5
307
330
1F
100
AcDbEntity
  8
0
 62
     7
370
    60
100
AcDbCircle
 10
327.973388
 20
404.714492
 30
0.0
 40
5.000000000000019
100
AcDbArc
 50
180.0000049999998
 51
270.0000009999998
  0
ARC
  5
308
330
1F
100
AcDbEntity
  8
0
 62
     7
370
    60
100
AcDbCircle
 10
311.973388
 20
404.714492
 30
0.0
 40
5.000000000000001
100
AcDbArc
 50
270.0000010000001
 51
0.0000100000000904
  0
LINE
  5
309
330
1F
100
AcDbEntity
  8
0
 62
     7
370
    60
100
AcDbLine
 10
327.973388
 20
399.714492
 30
0.0
 11
425.973388
 21
399.714492
 31
0.0
  0
ARC
  5
30A
330
1F
100
AcDbEntity
  8
0
 62
     7
370
    60
100
AcDbCircle
 10
315.473388
 20
423.214492
 30
0.0
 40
7.5
100
AcDbArc
 50
0.0
 51
90.000003
  0
ARC
  5
30B
330
1F
100
AcDbEntity
  8
0
 62
     7
370
    60
100
AcDbCircle
 10
315.473388
 20
423.214492
 30
0.0
 40
1.5
100
AcDbArc
 50
0.0
 51
90.000003
  0
ARC
  5
30C
330
1F
100
AcDbEntity
  8
0
 62
     7
370
    60
100
AcDbCircle
 10
309.473388
 20
423.214492
 30
0.0
 40
7.500000000000011
100
AcDbArc
 50
90.00000299999986
 51
180.0000049999998
  0
LINE
  5
30D
330
1F
100
AcDbEntity
  8
0
 62
     7
 48
0.01187
370
    60
100
AcDbLine
 10
301.973388
 20
422.264904
 30
0.0
 11
301.973388
 21
423.214492
 31
0.0
  0
LINE
  5
30E
330
1F
100
AcDbEntity
  8
0
 62
     7
 48
0.015644
370
    60
100
AcDbLine
 10
307.973388
 20
421.962944
 30
0.0
 11
307.973388
 21
423.214492
 31
0.0
  0
ARC
  5
30F
330
1F
100
AcDbEntity
  8
0
 62
     7
370
    60
100
AcDbCircle
 10
309.473388
 20
423.214492
 30
0.0
 40
1.500000000000002
100
AcDbArc
 50
90.00000299999986
 51
180.0000049999998
  0
CIRCLE
  5
310
330
1F
100
AcDbEntity
  8
0
 62
     7
370
    60
100
AcDbCircle
 10
304.883094
 20
420.319752
 30
0.0
 40
3.5
  0
LINE
  5
579
330
1F
100
AcDbEntity
  8
0
370
    60
100
AcDbLine
 10
69.973388
 20
136.914506
 30
0.0
 11
539.973388
 21
136.914506
 31
0.0
  0
DIMENSION
  5
57A
330
1F
100
AcDbEntity
  8
0
370
    40
100
AcDbDimension
  2
*D16
 10
23.33811546120455
 20
136.914506
 30
0.0
 11
11.33811546120455
 21
375.314499
 31
0.0
 70
    32
 71
     5
 41
2.5
 42
476.799986
  3
ISO-25
100
AcDbAlignedDimension
 13
304.973388
 23
613.714492
 33
0.0
 14
304.973388
 24
136.914506
 34
0.0
 50
90.0
100
AcDbRotatedDimension
1001
ACAD
1000
DSTYLE
1002
{
1070
    41
1040
10.0
1070
   140
1040
14.0
1070
   147
1040
5.0
1070
   176
1070
     7
1070
   177
1070
     7
1070
   271
1070
     0
1002
}
  0
DIMENSION
  5
5A7
330
1F
100
AcDbEntity
  8
0
370
    40
100
AcDbDimension
  2
*D20
 10
539.973388
 20
101.0644548498512
 30
0.0
 11
304.973388
 21
113.0644548498512
 31
0.0
 70
    32
  1
Ø470
 71
     5
 41
2.5
 42
469.9999999999999
  3
ISO-25
100
AcDbAlignedDimension
 13
69.973388
 23
136.914506
 33
0.0
 14
539.973388
 24
136.914506
 34
0.0
100
AcDbRotatedDimension
1001
ACAD
1000
DSTYLE
1002
{
1070
    41
1040
10.0
1070
   140
1040
14.0
1070
   147
1040
5.0
1070
   176
1070
     7
1070
   177
1070
     7
1070
   271
1070
     0
1002
}
  0
VIEWPORT
  5
BB
330
73
100
AcDbEntity
 67
     1
  8
0
100
AcDbViewport
 10
7.8
 20
4.5
 30
0.0
 40
15.64
 41
9.0
 68
     1
 69
     1
 12
6.0
 22
4.5
 13
0.0
 23
0.0
 14
0.5
 24
0.5
 15
0.5
 25
0.5
 16
0.0
 26
0.0
 36
1.0
 17
0.0
 27
0.0
 37
0.0
 42
50.0
 43
0.0
 44
0.0
 45
12.0
 50
0.0
 51
0.0
 72
   100
 90
   557152
  1

281
     0
 71
     1
 74
     0
110
0.0
120
0.0
130
0.0
111
1.0
121
0.0
131
0.0
112
0.0
122
1.0
132
0.0
 79
     0
146
0.0
  0
ENDSEC
  0
SECTION
  2
OBJECTS
  0
DICTIONARY
  5
C
330
0
100
AcDbDictionary
281
     1
  3
ACAD_COLOR
350
6C
  3
ACAD_GROUP
350
D
  3
ACAD_LAYOUT
350
1A
  3
ACAD_MATERIAL
350
6B
  3
ACAD_MLEADERSTYLE
350
60B
  3
ACAD_MLINESTYLE
350
17
  3
ACAD_PLOTSETTINGS
350
19
  3
ACAD_PLOTSTYLENAME
350
E
  3
ACAD_SCALELIST
350
99
  3
ACAD_TABLESTYLE
350
92
  3
ACDBHEADERROUNDTRIPXREC
350
60C
  3
AcDbVariableDictionary
350
59
  3
DWGPROPS
350
60F
  0
DICTIONARY
  5
6C
102
{ACAD_REACTORS
330
C
102
}
330
C
100
AcDbDictionary
281
     1
  0
DICTIONARY
  5
D
102
{ACAD_REACTORS
330
C
102
}
330
C
100
AcDbDictionary
281
     1
  0
DICTIONARY
  5
1A
102
{ACAD_REACTORS
330
C
102
}
330
C
100
AcDbDictionary
281
     1
  3
Layout1
350
74
  3
Layout2
350
5DF
  3
Model
350
22
  0
DICTIONARY
  5
6B
102
{ACAD_REACTORS
330
C
102
}
330
C
100
AcDbDictionary
281
     1
  0
DICTIONARY
  5
60B
102
{ACAD_REACTORS
330
C
102
}
330
C
100
AcDbDictionary
281
     1
  0
DICTIONARY
  5
17
102
{ACAD_REACTORS
330
C
102
}
330
C
100
AcDbDictionary
281
     1
  3
Standard
350
18
  0
DICTIONARY
  5
19
102
{ACAD_REACTORS
330
C
102
}
330
C
100
AcDbDictionary
281
     1
  0
ACDBDICTIONARYWDFLT
  5
E
102
{ACAD_REACTORS
330
C
102
}
330
C
100
AcDbDictionary
281
     1
  3
Normal
350
F
100
AcDbDictionaryWithDefault
340
F
  0
DICTIONARY
  5
99
102
{ACAD_REACTORS
330
C
102
}
330
C
100
AcDbDictionary
281
     1
  3
A0
350
D5
  3
A1
350
D6
  3
A2
350
D7
  3
A3
350
D8
  3
A4
350
D9
  3
A5
350
DA
  3
A6
350
DB
  3
A7
350
DC
  3
A8
350
DD
  3
A9
350
DE
  3
B0
350
DF
  3
B1
350
E0
  3
B2
350
E1
  3
B3
350
E2
  3
B4
350
E3
  3
B5
350
E4
  3
B6
350
E5
  3
B7
350
E6
  3
B8
350
E7
  3
B9
350
E8
  3
C0
350
E9
  3
C1
350
EA
  3
C2
350
EB
  3
C3
350
EC
  3
C4
350
ED
  3
C5
350
EE
  3
C6
350
EF
  3
C7
350
F0
  3
C8
350
F1
  3
C9
350
F2
  3
D0
350
F3
  3
D1
350
F4
  3
D2
350
F5
  0
DICTIONARY
  5
92
102
{ACAD_REACTORS
330
C
102
}
330
C
100
AcDbDictionary
281
     1
  0
DICTIONARY
  5
60C
102
{ACAD_REACTORS
330
C
102
}
330
C
100
AcDbDictionary
281
     1
  3
COLORDICT
350
60D
  3
MATERIALDICT
350
60E
  0
DICTIONARY
  5
59
102
{ACAD_REACTORS
330
C
102
}
330
C
100
AcDbDictionary
281
     1
  3
CTABLESTYLE
350
98
  3
DIMASSOC
350
5A
  3
HIDETEXT
350
5E
  0
XRECORD
  5
60F
102
{ACAD_REACTORS
330
C
102
}
330
C
100
AcDbXrecord
280
     1
  1
DWGPROPS COOKIE
  2

  3

  4

  6

  7

  8
BelottiMc
  9

300
=
301
=
302
=
303
=
304
=
305
=
306
=
307
=
308
=
309
=
 40
0.0
 41
2455239.59623566
 42
2455239.59623566
  1

 90
        0
  0
LAYOUT
  5
74
102
{ACAD_REACTORS
330
1A
102
}
330
1A
100
AcDbPlotSettings
  1

  2
ProgeSOFT PDF Wizard
  4
A4
  6

 40
5.926666666666667
 41
6.011333333333321
 42
6.095999999999985
 43
5.926666666666667
 44
210.0
 45
297.0
 46
88.56200000000001
 47
136.531
 48
0.0
 49
0.0
140
0.0
141
0.0
142
1.0
143
1.0
 70
   692
 72
     1
 73
     0
 74
     0
  7

 75
    16
147
1.0
148
4.426666666666668
149
1.5
100
AcDbLayout
  1
Layout1
 70
     1
 71
     1
 10
0.0
 20
0.0
 11
0.0
 21
0.0
 12
0.0
 22
0.0
 32
0.0
 14
0.0
 24
0.0
 34
0.0
 15
0.0
 25
0.0
 35
0.0
146
0.0
 13
0.0
 23
0.0
 33
0.0
 16
1.0
 26
0.0
 36
0.0
 17
0.0
 27
1.0
 37
0.0
 76
     0
330
D1
331
60A
1001
PROGE_PRINT_SETTINGS
1070
    73
1070
     1
  0
LAYOUT
  5
5DF
102
{ACAD_REACTORS
330
1A
102
}
330
1A
100
AcDbPlotSettings
  1

  2
ProgeSOFT PDF Wizard
  4
A4
  6

 40
5.926666666666667
 41
6.011333333333321
 42
6.095999999999985
 43
5.926666666666667
 44
210.0
 45
297.0
 46
88.562
 47
136.531
 48
0.0
 49
0.0
140
0.0
141
0.0
142
1.0
143
1.0
 70
   692
 72
     1
 73
     0
 74
     0
  7

 75
    16
147
1.0
148
0.0
149
0.0
100
AcDbLayout
  1
Layout2
 70
     1
 71
     2
 10
0.0
 20
0.0
 11
12.0
 21
9.0
 12
0.0
 22
0.0
 32
0.0
 14
0.0
 24
0.0
 34
0.0
 15
12.0
 25
9.0
 35
0.0
146
0.0
 13
0.0
 23
0.0
 33
0.0
 16
1.0
 26
0.0
 36
0.0
 17
0.0
 27
1.0
 37
0.0
 76
     0
330
73
331
BB
1001
PROGE_PRINT_SETTINGS
1070
    73
1070
     1
  0
LAYOUT
  5
22
102
{ACAD_REACTORS
330
1A
102
}
330
1A
100
AcDbPlotSettings
  1

  2
\\prn100b\W366
  4
A4
  6

 40
4.233333333333333
 41
4.233333333333307
 42
4.233333333333335
 43
4.233333333333333
 44
210.0
 45
296.9
 46
0.0
 47
9.861111111111313
 48
0.0
 49
0.0
140
0.0
141
0.0
142
1.0
143
0.044657624875951
 70
 11956
 72
     1
 73
     1
 74
     1
  7

 75
     0
147
22.39259259259259
148
0.0
149
0.0
100
AcDbLayout
  1
Model
 70
     1
 71
     0
 10
0.0
 20
0.0
 11
0.0
 21
0.0
 12
0.0
 22
0.0
 32
0.0
 14
4.338115461204553
 24
99.39778818318457
 34
0.0
 15
539.9733880174533
 25
613.7144920000001
 35
0.0
146
0.0
 13
0.0
 23
0.0
 33
0.0
 16
1.0
 26
0.0
 36
0.0
 17
0.0
 27
1.0
 37
0.0
 76
     0
330
1F
331
97
1001
PROGE_PRINT_SETTINGS
1070
    73
1070
     2
1070
   311
1000
ProgeSOFT PDF Wizard
1004
303130303030303033433030334330304538303345383033303730303030303030303030303030303030303030303030303030303030303030303030303030303030303030303030303030303030303030303030303030303030303030303030303030303030303030303030303030303030303030303030303030303030
1004
303030303030303030303030303030303030303030303030303030303030303030303030303030303030303030303030303030303030303030303030303030303030303030303030303030303030303030303030303030303030303030303030303030303030303030303030303030303030303030303030303030303030
1004
303030303030303030303030303030303030303030303030303030303030303030303030303030303030303030303030303030303030303030303030303030303030303030303030303030303030303030303030303030303030303030303030303030303030303030303030303030303030303030303030303030303030
1004
303030303030303030303030303030303030303030303030303030303030303030303030303030303030303030303030303030303030303030303030303030303030303030303030303030303030303030303030303030303030303030303030303030303030303030303030303030303030303030303030303030303030
1004
303030303030303030303030303030303030303030303030303030303030303030303030303030303030303030303030303030303030303030303030303030303030303030303030303030303030303030303030303030303030303030303030303030303030303030303030303030303030303030303030303030303030
1004
303030303030303030303030303030303030303030303030303030303030303030303030303030303030303030303030303030303030303030303030303030303030303030303030303030303030303030303030303030303030303030303030303030303030303030303030303030303030303030303030303030303030
1004
303030303030303030303030303030303030303030303030303030303030303030303030303030303030303030303030303030303030303030303030303030303030303030303030303030303030303030303030303030303030303030303030303030303030303030303030303030303030303030303030303030303030
1004
303030303030303030303030303030303030303030303030303030303030303030303030303030303030303030303030303030303030303030303030303030303030303030303030303030303030303030303030303030303030303030303030303030303030303030303030303030303030303030303030303030303030
1004
303030303030303030303030303030303030303030303030303030303030303030303030303030303030303030303030303030303030303030303030303030303030303030303030303030303030303030303030303030303030303030303030303030303030303030303030303030303030303030303030303030303030
1004
303030303030303030303030303030303030303030303030303030303030303030303030303030303030303030303030303030303030303030303030303030303030303030303030303030303030303030303030303030303030303030303030303030303030303030303030303030303030303030303030303030303030
1004
303030303030303030303030303030303030303030303030303030303030303030303030303030303030303030303030303030303030303030303030343435303433343130303030303030303030303030303030303030303030303030303030303030303737373737373245334236383734373437303341324632463342
1004
363636393643363533413246324633423644363136393643373436463341334236383734373437303733334132463246334236363734373033413246324630303030303030303030303030303030303030303030303030303030303030303030303030303030303030303030303030303030303030303030303030303030
1004
303030303030303030303030303030303030303030303030303030303030303030303030303030303030303030303030303030303030303030303030303030303030303030303030303030303030303030303030303030303030303030303030303030303030303030303030303030303030303030303030303030303030
1004
303030303030303030303030303030303030303030303030303030303030303030303030303030303030303030303030303030303030303030303030303030303030303030303030303030303030303030303030303030303030303030303030303030303030303030303030303030303030303030303030303030303030
1004
303030303030303030303030303030303030303030303030303030303030303030303030303030303030303030303030303030303030303030303030303030303030303030303030303030303030303030303030303030303030303030303030303030303030303030303030303030303030303030303030303030303030
1004
303030303030303030303030303030303030303030303030303030303030303030303030303030303030303030303030303030303030303030303030303030303030303030303030303030303030303030303030303030303030303030303030303030303030303030303030303030303030303030303030303030303030
1004
303030303030303030303030303030303030303030303030303030303030303030303030303030303030303030303030303030303030303030303030303030303030303030303030303030303030303030303030303030303030303030303030303030303030303030303030303030303030303030303030303030303030
1004
303030303030303030303030303030303030303030303030303030303030303030303030303030303030303030303030303030303030303030303030303030303030303030303030303030303030303030303030303030303030303030303030303030303030303030303030303030303030303030303030303030303030
1004
303030303030303030303030303030303030303030303030303030303030303030303030303030303030303030303030303030303030303030303030303030303030303030303030303030303030303030303030303030303030303030303030303030303030303030303030303030303030303030303030303030303030
1004
303030303030303030303030303030303030303030303030303030303030303030303030303030303030303030303030303030303030303030303030303030303030303030303030303030303030303030303030303030303030303030303030303030303030303030303030303030303030303030303030303030303030
1004
303030303030303030303030303030303030303030303030303030303030303030303030303030303030303030303030303030303030303030303030303030303030303030303030303030303030303030303030303030303030303030303030303030303030303030303030303030303030303030303030303030303030
1004
303030303030303030303030303030303030303030303030303030303030303030303030303030303030303030303030303030303030303030303030303030303030303030303030303030303030303030303030303030303030303030303030303030303030303030303030303030303030303030303030303030303030
1004
303030303030303030303030303030303030303030303030303030303030303030303030303030303030303030303030303030303030303030303030303030303030303030303030303030303030303030303030303030303030303030303030303030303030303030303030303030303030303030303030303030303030
1004
303030303030303030303030303030303030303030303030303030303030303030303030303030303030303030303030303030303030303030303030303030303030303030303030303030303030303030303030303030303030303030303030303030303030303030303030303030303030303030303030303030303030
1004
303030303030303030303030303030303030303030303030303030303030303030303030303030303030303030303030303030303030303030303030303030303030303030303030303030303030303030303030303030303030303030303030303030303030303030303030303030303030303030303030303030303030
1004
303030303030303030303030303030303030303030303030303030303030303030303030303030303030303030303030303030303030303030303030303030303030303030303030303030303030303030303030303030303030303030303030303030303030303030303030303030303030303030303030303030303030
1004
303030303030303030303030303030303030303030303030303030303030303030303030303030303030303030303030303030303030303030303030303030303030303030303030303030303030303030303030303030303030303030303030303030303030303030303030303030303030303030303030303030303030
1004
303030303030303030303030303030303030303030303030303030303030303030303030303030303030303030303030303030303030303030303030303030303030303030303030303030303030303030303030303030303030303030303030303030303030303030303030303030303030303030303030303030303030
1004
303030303030303030303030303030303030303030303030303030303030303030303030303030303030303030303030303030303030303030303030303030303030303030303030303030303030303030303030303030303030303030303030303030303030303030303030303030303030303030303030303030303030
1004
303030303030303030303030303030303030303030303030303030303030303030303030303030303030303030303030303030303030303030303030303030303030303030303030303030303030303030303030303030303030303030303030303030303030303030303030303030303030303030303030303030303030
1004
303030303030303030303030303030303030303030303030303030303030303030303030303030303030303030303030303030303030303030303030303030303030303030303030303030303030303030303030303030303030303030303030303030303030303030303030303030303030303030303030303030303030
1004
303030303030303030303030303030303030303030303030303030303030303030303030303030303030303030303030303030303030303030303030303030303030303030303030303030303030303030303030303030303030303030303030303030303030303030303030303030303030303030303030303030303030
1004
303030303030303030303030303030303030303030303030303030303030303030303030303030303030303030303030303030303030303030303030303030303030303030303030303030303030303030303030303030303030303030303030303030303030303030303030303030303030303030303030303030303030
1004
303030303030303030303030303030303030303030303030303030303030303030303030303030303030303030303030303030303030303030303030303030303030303030303030303030303030303030303030303030303030303030303030303030303030303030303030303030303030303030303030303030303030
1004
303030303030303030303030303030303030303030303030303030303030303030303030303030303030303030303030303030303030303030303030303030303030303030303030303030303030303030303030303030303030303030303030303030303030303030303030303030303030303030303030303030303030
1004
303030303030303030303030303030303030303030303030303030303030303030303030303030303030303030303030303030303030303030303030303030303030303030303030303030303030303030303030303030303030303030303030303030303030303030303030303030303030303030303030303030303030
1004
303030303030303030303030303030303030303030303030303030303030303030303030303030303030303030303030303030303030303030303030303030303030303030303030303030303030303030303030303030303030303030303030303030303030303030303030303030303030303030303030303030303030
1004
303030303030303030303030303030303030303030303030303030303030303030303030303030303030303030303030303030303030303030303030303030303030303030303030303030303030303030303030303030303030303030303030303030303030303030303030303030303030303030303030303030303030
1004
303030303030303030303030303030303030303030303030303030303030303030303030303030303030303030303030303030303030303030303030303030303030303030303030303030303030303030303030303030303030303030303030303030303030303030303030303030303030303030303030303030303030
1004
303030303030303030303030303030303030303030303030303030303030303030303030303030303030303030303030303030303030303030303030303030303030303030303030303030303030303030303030303030303030303030303030303030303030303030303030303030303030303030303030303030303030
1004
303030303030303030303030303030303030303030303030303030303030303030303030303030303030303030303030303030303030303030303030303030303030303030303030303030303030303030303030303030303030303030303030303030303030303030303030303030303030303030303030303030303030
1004
303030303030303030303030303030303030303030303030303030303030303030303030303030303030303030303030303030303030303030303030303030303030303030303030303030303030303030303030303030303030303030303030303030303030303030303030303030303030303030303030303030303030
1004
303030303030303030303030303030303030303030303030303030303030303030303030303030303030303030303030303030303030303030303030303030303030303030303030303030303030303030303030303030303030303030303030303030303030303030303030303030303030303030303030303030303030
1004
303030303030303030303030303030303030303030303030303030303030303030303030303030303030303030303030303030303030303030303030303030303030303030303030303030303030303030303030303030303030303030303030303030303030303030303030303030303030303030303030303030303030
1004
303030303030303030303030303030303030303030303030303030303030303030303030303030303030303030303030303030303030303030303030303030303030303030303030303030303030303030303030303030303030303030303030303030303030303030303038303030303030303030303030303030303030
1004
3030303030303030303030303030303030303030303030303030
1070
   311
1000
\\prn100b\W366
1004
303030303030303035323030343930303433303034463030343830303230303034313030363630303639303036333030363930303646303032303030343130303530303033363030333130303330303034453030323030303530303034333030344330303230303033363030303030303030303030303030303030303030
1004
303030303030303030303443303035303030353430303331303033413030303030303030303030303030303030303030303030303030303030303030303030303030303030303030303030303030303030303030303030303030303030303030303030303030303030303030303030303030303030303030303030303030
1004
303030303030303030303030303030303030303030303030303030303030303030303030303030303030303030303030303030303030303030303030303030303030303030303030303030303030303030303030303030303030303030303030303030303030303030303030303030303030303030303030303030303030
1004
303030303030303030303030303030303030303030303030303030303030303030303030303030303030303030303030303030303030303030303030303030303030303030303030303030303030303030303030303030303030303030303030303030303030303030303030303030303030303030303030303030303030
1004
303030303030303030303030303030303030303030303030303030303030303030303030303030303030303030303030303030303030303030303030303030303030303030303030303030303030303030303030303030303030303030303030303030303030303030303030303030303030303030303030373430413030
1004
303030303030303030303030303030303030303130303030303037343041303030303531304430303030303130303030303030363030303030304230303930303030423330443030303030323030303030303030303030303030303030303030303030303030303030303030303030303030303030303030303030303030
1004
303030303030303030303030303030303030303030303030303030303030303030303030303030303030303036343030303030303035303030303030303030303030303030303030303030303030303030303030303130303030303030303030303030303030303030303030303630303030303030303030303030303030
1004
303030303030303030303030303030303030303030303030303030303030313830303030303030303030313032373130323731303237303030303130323730303030303030303030303030303030303130303030303030303030303030303030303030303030303030303030303030303030303030303030303030303030
1004
303030303030303030303030303030303030303030303030303030303030303030303030303030303030303030303030303030303030303030303030303030303030303030303030303030303030303030303030303030303030303030303030303030303030303030303030303030303030303030303030303030303030
1004
303030303030303030303030303030303030303030303030303030303030303030303030303030303030303030303030303030303030303030303030303030303030303030303030303030303030303030303030303030303030303030303030303030303030303030303030303030303030303030303030303030303030
1004
303030303030303030303030303030303030303030303030303030303030303030303030303030303030303030303030303030303030303030303030303030303030303030303030303030303030303030303030303030303030303030303030303030303030303030303030303030303030303030303030303030303030
1004
303030303030303030303030303030303030303030303030303030303030303030303030303030303030303030303030303030303030303030303030303030303030303030303030303030303030303030303030303030303030303030303030303030303030303030303030303030303030303030303030303030303030
1004
303030303030303030303030303030303030303030303030303030303030303030303030303030303030303030303030303030303030303030303030303030303030303030303030303030303030303030303030303030303030303030303030303030303030303030303030303030303030303030303030303030303030
1004
303030303030303030303030303030303030303030303030303030303030303030303030303030303030303030303030303030303030303030303030303030303030303030303030303030303030303030303030303030303030303030303030303030303030303030303030303030303030303030303030303030303030
1004
303030303030303030303030303030303030303030303030303030303030303030303030303030303030303030303030303030303030303030303030303030303030303030303030303030303030303030303030303030303030303030303030303030303030303030303030303030303030303030303030303030303030
1004
303030303030303030303030303030303030303030303030303030303030303030303030303030303030303030303030303030303030303030303030303030303030303030303030303030303030303030303030303030303030303030303030303030303030303030303030303030303030303030303030303030303030
1004
303030303030303030303030303030303030303030303030303030303030303030303030303030303030303030303030303030303030303030303030303030303030303030303030303030303030303030303030303030303030303030303030303030303030303030303030303030303030303030303030303030303030
1004
303030303030303030303030303030303030303030303030303030303030303030303030303030303030303030303030303030303030303030303030303030303030303030303030303030303030303030303030303030303030303030303030303030303030303030303030303030303030303030303030303030303030
1004
303030303030303030303030303030303030303030303030303030303030303030303030303030303030303030303030303030303030303030303030303030303030303030303030303030303030303030303030303030303030303030303030303030303030303030303030303030303030303030303030303030303030
1004
303030303030303030303030303030303030303030303030303030303030303030303030303030303030303030303030303030303030303030303030303030303030303030303030303030303030303030303030303030303030303030303030303030303030303030303030303030303030303030303030303030303030
1004
303030303030303030303030303030303030303030303030303030303030303030303030303030303030303030303030303030303030303030303030303030303030303030303030303030303030303030303030303030303030303030303030303030303030303030303030303030303030303030303030303030303030
1004
303030303030303030303030303030303030303030303030303030303030303030303030303030303030303030303030303030303030303030303030303030303030303030303030303030303030303030303030303030303030303030303030303030303030303030303030303030303030303030303030303030303030
1004
303030303030303030303030303030303030303030303030303030303030303030303030303030303030303030303030303030303030303030303030303030303030303030303030303030303030303030303030303030303030303030303030303030303030303030303030303030303030303030303030303030303030
1004
303030303030303030303030303030303030303030303030303030303030303030303030303030303030303030303030303030303030303030303030303030303030303030303030303030303030303030303030303030303030303030303030303030303030303030303030303030303030303030303030303030303030
1004
303030303030303030303030303030303030303030303030303030303030303030303030303030303030303030303030303130303030303030313030303030303030303030303030303030303030303030303030303030303030303030303030303130303030303030303030303030303031303030303030303030303030
1004
303030303030303030303030303030303030303030303030303030303030303030303030303030303030303030303030303030303030303030303030303030303030303030303030303036343030303030303030303030303030303030303030303030303030303030303034303030303030303630303030303030303030
1004
303030303031303030303030303030303030303030303030303030303030303030303030303030303030303030303030303030303031303030303030303130303030303030303030303030303030303030303030303130303030303030303030303030303030303030303030303030303030303030303030303030303030
1004
303030303030363430303030303030303030303030303030303030303030303030303030303030313030303030303030303030303030303130303030303030303030303030303030303030303030303030303030303030303030303030303030303030303030303030303030303030303030303030303030303030303030
1004
303030303030303030303030303030303030303030303030303030303030303030303030303030303030303030303030303030303030303030303030303030303030303030303030303030303030303030303030303030303030303030303030303030303030303045373033303030304537303330303030453730333030
1004
303045373033303030303030303030303030303030303030303030303030303030303030303030303030303030303030303030363030303030303334303830303030393930423030303030303030303030303434303036353030363630303631303037353030364330303734303030303030303030303030303030303030
1004
303030303030303030303030303030303030303030343030303030303030303030303030303030303030303030303030303030303030303030303030303030303030303030303030303030303030303030303030303030303030303030303030303030303030303030303030303030303030303030303030303030303030
1004
303030303030303030303030303030303030303030303030303030303030303030303030303030303030303030303030303030303030303030303030303030303030303030303030303030303030303030303030303030303030303030303030303030303030303030303030303030303030303030303030303030303030
1004
303030303030303030303030303030303030303030303030303030303030303030303030303030303030303030303030303030303030303030303030303030303030303030303030303030303030303030303030303030303030303030303030303030303030303030303030303030303030303030303030303030303030
1004
303030303030303030303030303030303030303030303030303030303030303030303030303030303030303030303030303030303030303030303030303030303030303030303030303030303030303030303030303030303030303030303030303030303030303030303030303030303030303030303030303030303030
1004
303030303030303030303030303030303030303030303030303030303030303030303030303030303030303030303030303030303030303030303030303030303030303030303030303030303030303030303030303030303030303030303030303030303030303030303030303030303030303030303030303030303030
1004
303030303030303030303030303030303030303030303030303030303030303030303030303030303030303030303030303030303030303030303030303030303030303030303030303030303030303030303030303030303030303030303030303030303030303030303030303030303030303030303030303030303030
1004
303030303030303030303030303030303030303030303030303030303030303030303030303030303030303030303030303030303030303030303030303030303030303030303030303030303030303030303030303030303030303030303030303030303030303030303030303030303030303030303030303030303030
1004
303030303030303030303030303030303030303030303030303030303030303030303030303030303030303030303030303030303030303030303030303030303030303030303030303030303030303030303030303030303030303030303030303030303030303030303030303030303030303030303030303030303030
1004
30303030303030303030303030303030303030303030303030303030303030303030303030303030303030303030303030303030303030303030303030303030303030303030303030303030303030303030303030313030303030303030303030303030303030303030303030303030303030303030303030303030
  0
MLINESTYLE
  5
18
102
{ACAD_REACTORS
330
17
102
}
330
17
100
AcDbMlineStyle
  2
STANDARD
 70
     0
  3

 62
   256
 51
90.0
 52
90.0
 71
     2
 49
0.5
 62
   256
  6
BYLAYER
 49
-0.5
 62
   256
  6
BYLAYER
  0
ACDBPLACEHOLDER
  5
F
102
{ACAD_REACTORS
330
E
102
}
330
E
  0
SCALE
  5
D5
102
{ACAD_REACTORS
330
99
102
}
330
99
100
AcDbScale
 70
     0
300
1:1
140
1.0
141
1.0
290
     1
  0
SCALE
  5
D6
102
{ACAD_REACTORS
330
99
102
}
330
99
100
AcDbScale
 70
     0
300
1:2
140
1.0
141
2.0
290
     0
  0
SCALE
  5
D7
102
{ACAD_REACTORS
330
99
102
}
330
99
100
AcDbScale
 70
     0
300
1:4
140
1.0
141
4.0
290
     0
  0
SCALE
  5
D8
102
{ACAD_REACTORS
330
99
102
}
330
99
100
AcDbScale
 70
     0
300
1:5
140
1.0
141
5.0
290
     0
  0
SCALE
  5
D9
102
{ACAD_REACTORS
330
99
102
}
330
99
100
AcDbScale
 70
     0
300
1:8
140
1.0
141
8.0
290
     0
  0
SCALE
  5
DA
102
{ACAD_REACTORS
330
99
102
}
330
99
100
AcDbScale
 70
     0
300
1:10
140
1.0
141
10.0
290
     0
  0
SCALE
  5
DB
102
{ACAD_REACTORS
330
99
102
}
330
99
100
AcDbScale
 70
     0
300
1:16
140
1.0
141
16.0
290
     0
  0
SCALE
  5
DC
102
{ACAD_REACTORS
330
99
102
}
330
99
100
AcDbScale
 70
     0
300
1:20
140
1.0
141
20.0
290
     0
  0
SCALE
  5
DD
102
{ACAD_REACTORS
330
99
102
}
330
99
100
AcDbScale
 70
     0
300
1:30
140
1.0
141
30.0
290
     0
  0
SCALE
  5
DE
102
{ACAD_REACTORS
330
99
102
}
330
99
100
AcDbScale
 70
     0
300
1:40
140
1.0
141
40.0
290
     0
  0
SCALE
  5
DF
102
{ACAD_REACTORS
330
99
102
}
330
99
100
AcDbScale
 70
     0
300
1:50
140
1.0
141
50.0
290
     0
  0
SCALE
  5
E0
102
{ACAD_REACTORS
330
99
102
}
330
99
100
AcDbScale
 70
     0
300
1:100
140
1.0
141
100.0
290
     0
  0
SCALE
  5
E1
102
{ACAD_REACTORS
330
99
102
}
330
99
100
AcDbScale
 70
     0
300
2:1
140
2.0
141
1.0
290
     0
  0
SCALE
  5
E2
102
{ACAD_REACTORS
330
99
102
}
330
99
100
AcDbScale
 70
     0
300
4:1
140
4.0
141
1.0
290
     0
  0
SCALE
  5
E3
102
{ACAD_REACTORS
330
99
102
}
330
99
100
AcDbScale
 70
     0
300
8:1
140
8.0
141
1.0
290
     0
  0
SCALE
  5
E4
102
{ACAD_REACTORS
330
99
102
}
330
99
100
AcDbScale
 70
     0
300
10:1
140
10.0
141
1.0
290
     0
  0
SCALE
  5
E5
102
{ACAD_REACTORS
330
99
102
}
330
99
100
AcDbScale
 70
     0
300
100:1
140
100.0
141
1.0
290
     0
  0
SCALE
  5
E6
102
{ACAD_REACTORS
330
99
102
}
330
99
100
AcDbScale
 70
     0
300
1/128" = 1'-0"
140
0.0078125
141
12.0
290
     0
  0
SCALE
  5
E7
102
{ACAD_REACTORS
330
99
102
}
330
99
100
AcDbScale
 70
     0
300
1/64" = 1'-0"
140
0.015625
141
12.0
290
     0
  0
SCALE
  5
E8
102
{ACAD_REACTORS
330
99
102
}
330
99
100
AcDbScale
 70
     0
300
1/32" = 1'-0"
140
0.03125
141
12.0
290
     0
  0
SCALE
  5
E9
102
{ACAD_REACTORS
330
99
102
}
330
99
100
AcDbScale
 70
     0
300
1/16" = 1'-0"
140
0.0625
141
12.0
290
     0
  0
SCALE
  5
EA
102
{ACAD_REACTORS
330
99
102
}
330
99
100
AcDbScale
 70
     0
300
3/32" = 1'-0"
140
0.09375
141
12.0
290
     0
  0
SCALE
  5
EB
102
{ACAD_REACTORS
330
99
102
}
330
99
100
AcDbScale
 70
     0
300
1/8" = 1'-0"
140
0.125
141
12.0
290
     0
  0
SCALE
  5
EC
102
{ACAD_REACTORS
330
99
102
}
330
99
100
AcDbScale
 70
     0
300
3/16" = 1'-0"
140
0.1875
141
12.0
290
     0
  0
SCALE
  5
ED
102
{ACAD_REACTORS
330
99
102
}
330
99
100
AcDbScale
 70
     0
300
1/4" = 1'-0"
140
0.25
141
12.0
290
     0
  0
SCALE
  5
EE
102
{ACAD_REACTORS
330
99
102
}
330
99
100
AcDbScale
 70
     0
300
3/8" = 1'-0"
140
0.375
141
12.0
290
     0
  0
SCALE
  5
EF
102
{ACAD_REACTORS
330
99
102
}
330
99
100
AcDbScale
 70
     0
300
1/2" = 1'-0"
140
0.5
141
12.0
290
     0
  0
SCALE
  5
F0
102
{ACAD_REACTORS
330
99
102
}
330
99
100
AcDbScale
 70
     0
300
3/4" = 1'-0"
140
0.75
141
12.0
290
     0
  0
SCALE
  5
F1
102
{ACAD_REACTORS
330
99
102
}
330
99
100
AcDbScale
 70
     0
300
1" = 1'-0"
140
1.0
141
12.0
290
     0
  0
SCALE
  5
F2
102
{ACAD_REACTORS
330
99
102
}
330
99
100
AcDbScale
 70
     0
300
1-1/2" = 1'-0"
140
1.5
141
12.0
290
     0
  0
SCALE
  5
F3
102
{ACAD_REACTORS
330
99
102
}
330
99
100
AcDbScale
 70
     0
300
3" = 1'-0"
140
3.0
141
12.0
290
     0
  0
SCALE
  5
F4
102
{ACAD_REACTORS
330
99
102
}
330
99
100
AcDbScale
 70
     0
300
6" = 1'-0"
140
6.0
141
12.0
290
     0
  0
SCALE
  5
F5
102
{ACAD_REACTORS
330
99
102
}
330
99
100
AcDbScale
 70
     0
300
1'-0" = 1'-0"
140
12.0
141
12.0
290
     0
  0
XRECORD
  5
60D
102
{ACAD_REACTORS
330
60C
102
}
330
60C
100
AcDbXrecord
280
     1
340
6C
  0
XRECORD
  5
60E
102
{ACAD_REACTORS
330
60C
102
}
330
60C
100
AcDbXrecord
280
     1
340
6B
  0
DICTIONARYVAR
  5
98
102
{ACAD_REACTORS
330
59
102
}
330
59
100
DictionaryVariables
280
     0
  1
Standard
  0
DICTIONARYVAR
  5
5A
102
{ACAD_REACTORS
330
59
102
}
330
59
100
DictionaryVariables
280
     0
  1
2
  0
DICTIONARYVAR
  5
5E
102
{ACAD_REACTORS
330
59
102
}
330
59
100
DictionaryVariables
280
     0
  1
1
  0
ENDSEC
  0
EOF
