  0
SECTION
  2
HEADER
  9
$ACADVER
  1
AC1015
  9
$ACADMAINTVER
 70
     6
  9
$DWGCODEPAGE
  3
ANSI_1252
  9
$INSBASE
 10
0.0
 20
0.0
 30
0.0
  9
$EXTMIN
 10
76.41436799999995
 20
235.3230279999998
 30
0.0
  9
$EXTMAX
 10
687.156434
 20
738.237841981003
 30
0.0
  9
$LIMMIN
 10
0.0
 20
0.0
  9
$LIMMAX
 10
0.0
 20
0.0
  9
$ORTHOMODE
 70
     0
  9
$REGENMODE
 70
     1
  9
$FILLMODE
 70
     1
  9
$QTEXTMODE
 70
     0
  9
$MIRRTEXT
 70
     0
  9
$LTSCALE
 40
1.0
  9
$ATTMODE
 70
     1
  9
$TEXTSIZE
 40
2.5
  9
$TRACEWID
 40
1.0
  9
$TEXTSTYLE
  7
Standard
  9
$CLAYER
  8
0
  9
$CELTYPE
  6
ByLayer
  9
$CECOLOR
 62
   256
  9
$CELTSCALE
 40
1.0
  9
$DISPSILH
 70
     0
  9
$DIMSCALE
 40
1.0
  9
$DIMASZ
 40
2.5
  9
$DIMEXO
 40
0.625
  9
$DIMDLI
 40
3.75
  9
$DIMRND
 40
0.0
  9
$DIMDLE
 40
0.0
  9
$DIMEXE
 40
1.25
  9
$DIMTP
 40
0.0
  9
$DIMTM
 40
0.0
  9
$DIMTXT
 40
2.5
  9
$DIMCEN
 40
2.5
  9
$DIMTSZ
 40
0.0
  9
$DIMTOL
 70
     0
  9
$DIMLIM
 70
     0
  9
$DIMTIH
 70
     0
  9
$DIMTOH
 70
     0
  9
$DIMSE1
 70
     0
  9
$DIMSE2
 70
     0
  9
$DIMTAD
 70
     1
  9
$DIMZIN
 70
     8
  9
$DIMBLK
  1

  9
$DIMASO
 70
     1
  9
$DIMSHO
 70
     1
  9
$DIMPOST
  1

  9
$DIMAPOST
  1

  9
$DIMALT
 70
     0
  9
$DIMALTD
 70
     3
  9
$DIMALTF
 40
0.03937007874016
  9
$DIMLFAC
 40
1.0
  9
$DIMTOFL
 70
     1
  9
$DIMTVP
 40
0.0
  9
$DIMTIX
 70
     0
  9
$DIMSOXD
 70
     0
  9
$DIMSAH
 70
     0
  9
$DIMBLK1
  1

  9
$DIMBLK2
  1

  9
$DIMSTYLE
  2
ISO-25
  9
$DIMCLRD
 70
     0
  9
$DIMCLRE
 70
     0
  9
$DIMCLRT
 70
     0
  9
$DIMTFAC
 40
1.0
  9
$DIMGAP
 40
0.625
  9
$DIMJUST
 70
     0
  9
$DIMSD1
 70
     0
  9
$DIMSD2
 70
     0
  9
$DIMTOLJ
 70
     0
  9
$DIMTZIN
 70
     8
  9
$DIMALTZ
 70
     0
  9
$DIMALTTZ
 70
     0
  9
$DIMUPT
 70
     0
  9
$DIMDEC
 70
     2
  9
$DIMTDEC
 70
     2
  9
$DIMALTU
 70
     2
  9
$DIMALTTD
 70
     3
  9
$DIMTXSTY
  7
Standard
  9
$DIMAUNIT
 70
     0
  9
$DIMADEC
 70
     0
  9
$DIMALTRND
 40
0.0
  9
$DIMAZIN
 70
     0
  9
$DIMDSEP
 70
    44
  9
$DIMATFIT
 70
     3
  9
$DIMFRAC
 70
     0
  9
$DIMLDRBLK
  1

  9
$DIMLUNIT
 70
     2
  9
$DIMLWD
 70
    -2
  9
$DIMLWE
 70
    -2
  9
$DIMTMOVE
 70
     0
  9
$LUNITS
 70
     2
  9
$LUPREC
 70
     4
  9
$SKETCHINC
 40
1.0
  9
$FILLETRAD
 40
0.0
  9
$AUNITS
 70
     0
  9
$AUPREC
 70
     0
  9
$MENU
  1
.
  9
$ELEVATION
 40
0.0
  9
$PELEVATION
 40
0.0
  9
$THICKNESS
 40
0.0
  9
$LIMCHECK
 70
     0
  9
$CHAMFERA
 40
0.0
  9
$CHAMFERB
 40
0.0
  9
$CHAMFERC
 40
0.0
  9
$CHAMFERD
 40
0.0
  9
$SKPOLY
 70
     0
  9
$TDCREATE
 40
2455231.47637382
  9
$TDUCREATE
 40
2455231.434707153
  9
$TDUPDATE
 40
2455231.476373808
  9
$TDUUPDATE
 40
2455231.434707141
  9
$TDINDWG
 40
0.0338821759
  9
$TDUSRTIMER
 40
0.0338798148
  9
$USRTIMER
 70
     1
  9
$ANGBASE
 50
0.0
  9
$ANGDIR
 70
     0
  9
$PDMODE
 70
     0
  9
$PDSIZE
 40
0.0
  9
$PLINEWID
 40
0.0
  9
$SPLFRAME
 70
     0
  9
$SPLINETYPE
 70
     6
  9
$SPLINESEGS
 70
     8
  9
$HANDSEED
  5
429
  9
$SURFTAB1
 70
     6
  9
$SURFTAB2
 70
     6
  9
$SURFTYPE
 70
     6
  9
$SURFU
 70
     6
  9
$SURFV
 70
     6
  9
$UCSBASE
  2

  9
$UCSNAME
  2

  9
$UCSORG
 10
0.0
 20
0.0
 30
0.0
  9
$UCSXDIR
 10
1.0
 20
0.0
 30
0.0
  9
$UCSYDIR
 10
0.0
 20
1.0
 30
0.0
  9
$UCSORTHOREF
  2

  9
$UCSORTHOVIEW
 70
     0
  9
$UCSORGTOP
 10
0.0
 20
0.0
 30
0.0
  9
$UCSORGBOTTOM
 10
0.0
 20
0.0
 30
0.0
  9
$UCSORGLEFT
 10
0.0
 20
0.0
 30
0.0
  9
$UCSORGRIGHT
 10
0.0
 20
0.0
 30
0.0
  9
$UCSORGFRONT
 10
0.0
 20
0.0
 30
0.0
  9
$UCSORGBACK
 10
0.0
 20
0.0
 30
0.0
  9
$PUCSBASE
  2

  9
$PUCSNAME
  2

  9
$PUCSORG
 10
0.0
 20
0.0
 30
0.0
  9
$PUCSXDIR
 10
1.0
 20
0.0
 30
0.0
  9
$PUCSYDIR
 10
0.0
 20
1.0
 30
0.0
  9
$PUCSORTHOREF
  2

  9
$PUCSORTHOVIEW
 70
     0
  9
$PUCSORGTOP
 10
0.0
 20
0.0
 30
0.0
  9
$PUCSORGBOTTOM
 10
0.0
 20
0.0
 30
0.0
  9
$PUCSORGLEFT
 10
0.0
 20
0.0
 30
0.0
  9
$PUCSORGRIGHT
 10
0.0
 20
0.0
 30
0.0
  9
$PUCSORGFRONT
 10
0.0
 20
0.0
 30
0.0
  9
$PUCSORGBACK
 10
0.0
 20
0.0
 30
0.0
  9
$USERI1
 70
     0
  9
$USERI2
 70
     0
  9
$USERI3
 70
     0
  9
$USERI4
 70
     0
  9
$USERI5
 70
     0
  9
$USERR1
 40
0.0
  9
$USERR2
 40
0.0
  9
$USERR3
 40
0.0
  9
$USERR4
 40
0.0
  9
$USERR5
 40
0.0
  9
$WORLDVIEW
 70
     1
  9
$SHADEDGE
 70
     3
  9
$SHADEDIF
 70
    70
  9
$TILEMODE
 70
     1
  9
$MAXACTVP
 70
    64
  9
$PINSBASE
 10
0.0
 20
0.0
 30
0.0
  9
$PLIMCHECK
 70
     0
  9
$PEXTMIN
 10
0.0
 20
0.0
 30
0.0
  9
$PEXTMAX
 10
12.0
 20
9.0
 30
0.0
  9
$PLIMMIN
 10
0.0
 20
0.0
  9
$PLIMMAX
 10
12.0
 20
9.0
  9
$UNITMODE
 70
     0
  9
$VISRETAIN
 70
     1
  9
$PLINEGEN
 70
     0
  9
$PSLTSCALE
 70
     1
  9
$TREEDEPTH
 70
  3020
  9
$CMLSTYLE
  2
Standard
  9
$CMLJUST
 70
     0
  9
$CMLSCALE
 40
20.0
  9
$PROXYGRAPHICS
 70
     1
  9
$MEASUREMENT
 70
     1
  9
$CELWEIGHT
370
    -1
  9
$ENDCAPS
280
     0
  9
$JOINSTYLE
280
     0
  9
$LWDISPLAY
290
     0
  9
$INSUNITS
 70
     4
  9
$HYPERLINKBASE
  1

  9
$STYLESHEET
  1

  9
$XEDIT
290
     1
  9
$CEPSNTYPE
380
     0
  9
$PSTYLEMODE
290
     1
  9
$FINGERPRINTGUID
  2
{5559452E-1E62-4159-8551-BF76FFF3E7E8}
  9
$VERSIONGUID
  2
{3CEB9EF8-4431-4551-B596-6734A9F966A9}
  9
$EXTNAMES
290
     1
  9
$PSVPSCALE
 40
0.0
  9
$OLESTARTUP
290
     0
  0
ENDSEC
  0
SECTION
  2
CLASSES
  0
CLASS
  1
ACDBDICTIONARYWDFLT
  2
AcDbDictionaryWithDefault
  3
ObjectDBX Classes
 90
        0
280
     0
281
     0
  0
CLASS
  1
ACDBPLACEHOLDER
  2
AcDbPlaceHolder
  3
ObjectDBX Classes
 90
        0
280
     0
281
     0
  0
CLASS
  1
LAYOUT
  2
AcDbLayout
  3
ObjectDBX Classes
 90
        0
280
     0
281
     0
  0
CLASS
  1
DICTIONARYVAR
  2
AcDbDictionaryVar
  3
ObjectDBX Classes
 90
        0
280
     0
281
     0
  0
CLASS
  1
TABLESTYLE
  2
AcDbTableStyle
  3
ObjectDBX Classes
 90
     4095
280
     0
281
     0
  0
CLASS
  1
SCALE
  2
AcDbScale
  3
ObjectDBX Classes
 90
     1153
280
     0
281
     0
  0
ENDSEC
  0
SECTION
  2
TABLES
  0
TABLE
  2
VPORT
  5
8
330
0
100
AcDbSymbolTable
 70
     2
  0
VPORT
  5
97
330
8
100
AcDbSymbolTableRecord
100
AcDbViewportTableRecord
  2
*Active
 70
     0
 10
0.0
 20
0.0
 11
1.0
 21
1.0
 12
375.3518440319985
 22
433.9930862799836
 13
0.0
 23
0.0
 14
10.0
 24
10.0
 15
10.0
 25
10.0
 16
0.0
 26
0.0
 36
1.0
 17
0.0
 27
0.0
 37
0.0
 40
843.3366756083542
 41
1.664827586206896
 42
50.0
 43
0.0
 44
0.0
 50
0.0
 51
0.0
 71
     0
 72
  1000
 73
     1
 74
     3
 75
     0
 76
     0
 77
     0
 78
     0
281
     0
 65
     1
110
0.0
120
0.0
130
0.0
111
1.0
121
0.0
131
0.0
112
0.0
122
1.0
132
0.0
 79
     0
146
0.0
  0
ENDTAB
  0
TABLE
  2
LTYPE
  5
5
330
0
100
AcDbSymbolTable
 70
     2
  0
LTYPE
  5
14
330
5
100
AcDbSymbolTableRecord
100
AcDbLinetypeTableRecord
  2
ByBlock
 70
     0
  3

 72
    65
 73
     0
 40
0.0
  0
LTYPE
  5
15
330
5
100
AcDbSymbolTableRecord
100
AcDbLinetypeTableRecord
  2
ByLayer
 70
     0
  3

 72
    65
 73
     0
 40
0.0
  0
LTYPE
  5
16
330
5
100
AcDbSymbolTableRecord
100
AcDbLinetypeTableRecord
  2
Continuous
 70
     0
  3
Solid line
 72
    65
 73
     0
 40
0.0
  0
LTYPE
  5
396
330
5
100
AcDbSymbolTableRecord
100
AcDbLinetypeTableRecord
  2
DASHDOT
 70
     0
  3
 __ . __ . __ . __ . __ . __ . __ . 
 72
    65
 73
     4
 40
18.5
 49
12.0
 74
     0
 49
-3.0
 74
     0
 49
0.5
 74
     0
 49
-3.0
 74
     0
  0
ENDTAB
  0
TABLE
  2
LAYER
  5
2
330
0
100
AcDbSymbolTable
 70
     2
  0
LAYER
  5
10
330
2
100
AcDbSymbolTableRecord
100
AcDbLayerTableRecord
  2
0
 70
     0
 62
     7
  6
Continuous
370
    -3
390
F
  0
LAYER
  5
FB
330
2
100
AcDbSymbolTableRecord
100
AcDbLayerTableRecord
  2
DEFPOINTS
 70
     0
 62
     7
  6
Continuous
290
     0
370
    -3
390
F
  0
ENDTAB
  0
TABLE
  2
STYLE
  5
3
330
0
100
AcDbSymbolTable
 70
     2
  0
STYLE
  5
11
330
3
100
AcDbSymbolTableRecord
100
AcDbTextStyleTableRecord
  2
Standard
 70
     0
 40
0.0
 41
1.0
 50
0.0
 71
     0
 42
2.5
  3
txt
  4

  0
STYLE
  5
F9
330
3
100
AcDbSymbolTableRecord
100
AcDbTextStyleTableRecord
  2
GDT
 70
     0
 40
0.0
 41
1.0
 50
0.0
 71
     0
 42
0.2
  3
gdt.shx
  4

  0
ENDTAB
  0
TABLE
  2
VIEW
  5
6
330
0
100
AcDbSymbolTable
 70
     0
  0
ENDTAB
  0
TABLE
  2
UCS
  5
7
330
0
100
AcDbSymbolTable
 70
     0
  0
ENDTAB
  0
TABLE
  2
APPID
  5
9
330
0
100
AcDbSymbolTable
 70
     3
  0
APPID
  5
12
330
9
100
AcDbSymbolTableRecord
100
AcDbRegAppTableRecord
  2
ACAD
 70
     0
  0
APPID
  5
394
330
9
100
AcDbSymbolTableRecord
100
AcDbRegAppTableRecord
  2
PROGE_PRINT_SETTINGS
 70
     0
  0
APPID
  5
395
330
9
100
AcDbSymbolTableRecord
100
AcDbRegAppTableRecord
  2
Conv5506CA
 70
     0
  0
ENDTAB
  0
TABLE
  2
DIMSTYLE
  5
A
330
0
100
AcDbSymbolTable
 70
     2
100
AcDbDimStyleTable
  0
DIMSTYLE
105
27
330
A
100
AcDbSymbolTableRecord
100
AcDbDimStyleTableRecord
  2
Standard
 70
     0
278
     0
340
11
  0
DIMSTYLE
105
29
102
{ACAD_REACTORS
330
354
102
}
330
A
100
AcDbSymbolTableRecord
100
AcDbDimStyleTableRecord
  2
ISO-25
 70
     0
 41
2.5
 42
0.625
 43
3.75
 44
1.25
 73
     0
 74
     0
 77
     1
 78
     8
140
2.5
141
2.5
143
0.03937007874016
147
0.625
171
     3
172
     1
271
     2
272
     2
274
     3
278
    44
283
     0
284
     8
340
11
  0
ENDTAB
  0
TABLE
  2
BLOCK_RECORD
  5
1
330
0
100
AcDbSymbolTable
 70
    69
  0
BLOCK_RECORD
  5
1F
330
1
100
AcDbSymbolTableRecord
100
AcDbBlockTableRecord
  2
*Model_Space
340
22
  0
BLOCK_RECORD
  5
73
330
1
100
AcDbSymbolTableRecord
100
AcDbBlockTableRecord
  2
*Paper_Space
340
398
  0
BLOCK_RECORD
  5
D1
330
1
100
AcDbSymbolTableRecord
100
AcDbBlockTableRecord
  2
*Paper_Space0
340
74
  0
BLOCK_RECORD
  5
1E3
330
1
100
AcDbSymbolTableRecord
100
AcDbBlockTableRecord
  2
BLOCK336
340
0
  0
BLOCK_RECORD
  5
1E7
330
1
100
AcDbSymbolTableRecord
100
AcDbBlockTableRecord
  2
BLOCK337
340
0
  0
BLOCK_RECORD
  5
1EB
330
1
100
AcDbSymbolTableRecord
100
AcDbBlockTableRecord
  2
BLOCK338
340
0
  0
BLOCK_RECORD
  5
1EF
330
1
100
AcDbSymbolTableRecord
100
AcDbBlockTableRecord
  2
BLOCK339
340
0
  0
BLOCK_RECORD
  5
1F3
330
1
100
AcDbSymbolTableRecord
100
AcDbBlockTableRecord
  2
BLOCK340
340
0
  0
BLOCK_RECORD
  5
1F7
330
1
100
AcDbSymbolTableRecord
100
AcDbBlockTableRecord
  2
BLOCK341
340
0
  0
BLOCK_RECORD
  5
1FB
330
1
100
AcDbSymbolTableRecord
100
AcDbBlockTableRecord
  2
BLOCK342
340
0
  0
BLOCK_RECORD
  5
1FF
330
1
100
AcDbSymbolTableRecord
100
AcDbBlockTableRecord
  2
BLOCK343
340
0
  0
BLOCK_RECORD
  5
203
330
1
100
AcDbSymbolTableRecord
100
AcDbBlockTableRecord
  2
BLOCK344
340
0
  0
BLOCK_RECORD
  5
207
330
1
100
AcDbSymbolTableRecord
100
AcDbBlockTableRecord
  2
BLOCK345
340
0
  0
BLOCK_RECORD
  5
20B
330
1
100
AcDbSymbolTableRecord
100
AcDbBlockTableRecord
  2
BLOCK346
340
0
  0
BLOCK_RECORD
  5
20F
330
1
100
AcDbSymbolTableRecord
100
AcDbBlockTableRecord
  2
BLOCK347
340
0
  0
BLOCK_RECORD
  5
213
330
1
100
AcDbSymbolTableRecord
100
AcDbBlockTableRecord
  2
BLOCK348
340
0
  0
BLOCK_RECORD
  5
217
330
1
100
AcDbSymbolTableRecord
100
AcDbBlockTableRecord
  2
BLOCK349
340
0
  0
BLOCK_RECORD
  5
21B
330
1
100
AcDbSymbolTableRecord
100
AcDbBlockTableRecord
  2
BLOCK350
340
0
  0
BLOCK_RECORD
  5
21F
330
1
100
AcDbSymbolTableRecord
100
AcDbBlockTableRecord
  2
BLOCK351
340
0
  0
BLOCK_RECORD
  5
223
330
1
100
AcDbSymbolTableRecord
100
AcDbBlockTableRecord
  2
BLOCK352
340
0
  0
BLOCK_RECORD
  5
227
330
1
100
AcDbSymbolTableRecord
100
AcDbBlockTableRecord
  2
BLOCK353
340
0
  0
BLOCK_RECORD
  5
22B
330
1
100
AcDbSymbolTableRecord
100
AcDbBlockTableRecord
  2
BLOCK354
340
0
  0
BLOCK_RECORD
  5
22F
330
1
100
AcDbSymbolTableRecord
100
AcDbBlockTableRecord
  2
BLOCK355
340
0
  0
BLOCK_RECORD
  5
233
330
1
100
AcDbSymbolTableRecord
100
AcDbBlockTableRecord
  2
BLOCK356
340
0
  0
BLOCK_RECORD
  5
237
330
1
100
AcDbSymbolTableRecord
100
AcDbBlockTableRecord
  2
BLOCK357
340
0
  0
BLOCK_RECORD
  5
23B
330
1
100
AcDbSymbolTableRecord
100
AcDbBlockTableRecord
  2
BLOCK358
340
0
  0
BLOCK_RECORD
  5
23F
330
1
100
AcDbSymbolTableRecord
100
AcDbBlockTableRecord
  2
BLOCK359
340
0
  0
BLOCK_RECORD
  5
243
330
1
100
AcDbSymbolTableRecord
100
AcDbBlockTableRecord
  2
BLOCK360
340
0
  0
BLOCK_RECORD
  5
247
330
1
100
AcDbSymbolTableRecord
100
AcDbBlockTableRecord
  2
BLOCK361
340
0
  0
BLOCK_RECORD
  5
24B
330
1
100
AcDbSymbolTableRecord
100
AcDbBlockTableRecord
  2
BLOCK362
340
0
  0
BLOCK_RECORD
  5
24F
330
1
100
AcDbSymbolTableRecord
100
AcDbBlockTableRecord
  2
BLOCK363
340
0
  0
BLOCK_RECORD
  5
253
330
1
100
AcDbSymbolTableRecord
100
AcDbBlockTableRecord
  2
BLOCK364
340
0
  0
BLOCK_RECORD
  5
257
330
1
100
AcDbSymbolTableRecord
100
AcDbBlockTableRecord
  2
BLOCK365
340
0
  0
BLOCK_RECORD
  5
25B
330
1
100
AcDbSymbolTableRecord
100
AcDbBlockTableRecord
  2
BLOCK366
340
0
  0
BLOCK_RECORD
  5
25F
330
1
100
AcDbSymbolTableRecord
100
AcDbBlockTableRecord
  2
BLOCK367
340
0
  0
BLOCK_RECORD
  5
263
330
1
100
AcDbSymbolTableRecord
100
AcDbBlockTableRecord
  2
BLOCK368
340
0
  0
BLOCK_RECORD
  5
267
330
1
100
AcDbSymbolTableRecord
100
AcDbBlockTableRecord
  2
BLOCK369
340
0
  0
BLOCK_RECORD
  5
26B
330
1
100
AcDbSymbolTableRecord
100
AcDbBlockTableRecord
  2
BLOCK370
340
0
  0
BLOCK_RECORD
  5
26F
330
1
100
AcDbSymbolTableRecord
100
AcDbBlockTableRecord
  2
BLOCK371
340
0
  0
BLOCK_RECORD
  5
273
330
1
100
AcDbSymbolTableRecord
100
AcDbBlockTableRecord
  2
BLOCK372
340
0
  0
BLOCK_RECORD
  5
277
330
1
100
AcDbSymbolTableRecord
100
AcDbBlockTableRecord
  2
BLOCK373
340
0
  0
BLOCK_RECORD
  5
27B
330
1
100
AcDbSymbolTableRecord
100
AcDbBlockTableRecord
  2
BLOCK374
340
0
  0
BLOCK_RECORD
  5
27F
330
1
100
AcDbSymbolTableRecord
100
AcDbBlockTableRecord
  2
BLOCK375
340
0
  0
BLOCK_RECORD
  5
283
330
1
100
AcDbSymbolTableRecord
100
AcDbBlockTableRecord
  2
BLOCK376
340
0
  0
BLOCK_RECORD
  5
287
330
1
100
AcDbSymbolTableRecord
100
AcDbBlockTableRecord
  2
BLOCK377
340
0
  0
BLOCK_RECORD
  5
28B
330
1
100
AcDbSymbolTableRecord
100
AcDbBlockTableRecord
  2
BLOCK378
340
0
  0
BLOCK_RECORD
  5
28F
330
1
100
AcDbSymbolTableRecord
100
AcDbBlockTableRecord
  2
BLOCK379
340
0
  0
BLOCK_RECORD
  5
293
330
1
100
AcDbSymbolTableRecord
100
AcDbBlockTableRecord
  2
BLOCK380
340
0
  0
BLOCK_RECORD
  5
299
330
1
100
AcDbSymbolTableRecord
100
AcDbBlockTableRecord
  2
BLOCK381
340
0
  0
BLOCK_RECORD
  5
29F
330
1
100
AcDbSymbolTableRecord
100
AcDbBlockTableRecord
  2
BLOCK382
340
0
  0
BLOCK_RECORD
  5
2AA
330
1
100
AcDbSymbolTableRecord
100
AcDbBlockTableRecord
  2
BLOCK383
340
0
  0
BLOCK_RECORD
  5
2B8
330
1
100
AcDbSymbolTableRecord
100
AcDbBlockTableRecord
  2
BLOCK384
340
0
  0
BLOCK_RECORD
  5
2C3
330
1
100
AcDbSymbolTableRecord
100
AcDbBlockTableRecord
  2
BLOCK385
340
0
  0
BLOCK_RECORD
  5
2C8
330
1
100
AcDbSymbolTableRecord
100
AcDbBlockTableRecord
  2
BLOCK386
340
0
  0
BLOCK_RECORD
  5
2CD
330
1
100
AcDbSymbolTableRecord
100
AcDbBlockTableRecord
  2
BLOCK387
340
0
  0
BLOCK_RECORD
  5
2D3
330
1
100
AcDbSymbolTableRecord
100
AcDbBlockTableRecord
  2
BLOCK388
340
0
  0
BLOCK_RECORD
  5
2D9
330
1
100
AcDbSymbolTableRecord
100
AcDbBlockTableRecord
  2
BLOCK389
340
0
  0
BLOCK_RECORD
  5
2E7
330
1
100
AcDbSymbolTableRecord
100
AcDbBlockTableRecord
  2
BLOCK390
340
0
  0
BLOCK_RECORD
  5
2F8
330
1
100
AcDbSymbolTableRecord
100
AcDbBlockTableRecord
  2
BLOCK391
340
0
  0
BLOCK_RECORD
  5
303
330
1
100
AcDbSymbolTableRecord
100
AcDbBlockTableRecord
  2
*D57
340
0
  0
BLOCK_RECORD
  5
312
330
1
100
AcDbSymbolTableRecord
100
AcDbBlockTableRecord
  2
Vetro diametro 463 Halle
340
0
102
{BLKREFS
331
313
102
}
  0
BLOCK_RECORD
  5
31F
330
1
100
AcDbSymbolTableRecord
100
AcDbBlockTableRecord
  2
*D59
340
0
  0
BLOCK_RECORD
  5
32A
330
1
100
AcDbSymbolTableRecord
100
AcDbBlockTableRecord
  2
*D60
340
0
  0
BLOCK_RECORD
  5
335
330
1
100
AcDbSymbolTableRecord
100
AcDbBlockTableRecord
  2
*D61
340
0
  0
BLOCK_RECORD
  5
340
330
1
100
AcDbSymbolTableRecord
100
AcDbBlockTableRecord
  2
*D62
340
0
  0
BLOCK_RECORD
  5
34B
330
1
100
AcDbSymbolTableRecord
100
AcDbBlockTableRecord
  2
*D63
340
0
  0
BLOCK_RECORD
  5
360
330
1
100
AcDbSymbolTableRecord
100
AcDbBlockTableRecord
  2
*D64
340
0
  0
BLOCK_RECORD
  5
36C
330
1
100
AcDbSymbolTableRecord
100
AcDbBlockTableRecord
  2
*D65
340
0
  0
BLOCK_RECORD
  5
378
330
1
100
AcDbSymbolTableRecord
100
AcDbBlockTableRecord
  2
*D66
340
0
  0
BLOCK_RECORD
  5
385
330
1
100
AcDbSymbolTableRecord
100
AcDbBlockTableRecord
  2
*D67
340
0
  0
BLOCK_RECORD
  5
392
330
1
100
AcDbSymbolTableRecord
100
AcDbBlockTableRecord
  2
*D68
340
0
  0
ENDTAB
  0
ENDSEC
  0
SECTION
  2
BLOCKS
  0
BLOCK
  5
20
330
1F
100
AcDbEntity
  8
0
100
AcDbBlockBegin
  2
*Model_Space
 70
     0
 10
0.0
 20
0.0
 30
0.0
  3
*Model_Space
  1

  0
ENDBLK
  5
21
330
1F
100
AcDbEntity
  8
0
100
AcDbBlockEnd
  0
BLOCK
  5
75
330
73
100
AcDbEntity
 67
     1
  8
0
100
AcDbBlockBegin
  2
*Paper_Space
 70
     0
 10
0.0
 20
0.0
 30
0.0
  3
*Paper_Space
  1

  0
ENDBLK
  5
76
330
73
100
AcDbEntity
 67
     1
  8
0
100
AcDbBlockEnd
  0
BLOCK
  5
399
330
D1
100
AcDbEntity
  8
0
100
AcDbBlockBegin
  2
*Paper_Space0
 70
     0
 10
0.0
 20
0.0
 30
0.0
  3
*Paper_Space0
  1

  0
VIEWPORT
  5
423
330
D1
100
AcDbEntity
  8
0
100
AcDbViewport
 10
7.8
 20
4.5
 30
0.0
 40
15.64
 41
9.0
 68
     1
 69
     1
 12
6.0
 22
4.5
 13
0.0
 23
0.0
 14
0.5
 24
0.5
 15
0.5
 25
0.5
 16
0.0
 26
0.0
 36
1.0
 17
0.0
 27
0.0
 37
0.0
 42
50.0
 43
0.0
 44
0.0
 45
12.0
 50
0.0
 51
0.0
 72
   100
 90
   557152
  1

281
     0
 71
     1
 74
     0
110
0.0
120
0.0
130
0.0
111
1.0
121
0.0
131
0.0
112
0.0
122
1.0
132
0.0
 79
     0
146
0.0
  0
ENDBLK
  5
39A
330
D1
100
AcDbEntity
  8
0
100
AcDbBlockEnd
  0
BLOCK
  5
39B
330
1E3
100
AcDbEntity
  8
0
100
AcDbBlockBegin
  2
BLOCK336
 70
     0
 10
0.0
 20
0.0
 30
0.0
  3
BLOCK336
  1

  0
LINE
  5
FD
330
1E3
100
AcDbEntity
  8
0
 62
     7
370
    80
390
F
100
AcDbLine
 10
403.907471
 20
9.767743
 30
0.0
 11
403.907471
 21
103.267746
 31
0.0
  0
LINE
  5
FE
330
1E3
100
AcDbEntity
  8
0
 62
     7
370
    80
390
F
100
AcDbLine
 10
403.907471
 20
9.767743
 30
0.0
 11
403.907471
 21
114.567749
 31
0.0
  0
LINE
  5
FF
330
1E3
100
AcDbEntity
  8
0
 62
     7
370
    80
390
F
100
AcDbLine
 10
403.907471
 20
9.767743
 30
0.0
 11
583.907471
 21
9.767743
 31
0.0
  0
LINE
  5
100
330
1E3
100
AcDbEntity
  8
0
 62
     7
 48
0.031752
370
    40
390
F
100
AcDbLine
 10
427.596741
 20
18.856651
 30
0.0
 11
428.866821
 21
18.856651
 31
0.0
  0
LINE
  5
101
330
1E3
100
AcDbEntity
  8
0
 62
     7
 48
0.0325
370
    40
390
F
100
AcDbLine
 10
427.596741
 20
20.156651
 30
0.0
 11
427.596741
 21
18.856651
 31
0.0
  0
LINE
  5
102
330
1E3
100
AcDbEntity
  8
0
 62
     7
 48
0.05
370
    40
390
F
100
AcDbLine
 10
429.596741
 20
20.156651
 30
0.0
 11
427.596741
 21
20.156651
 31
0.0
  0
LINE
  5
103
330
1E3
100
AcDbEntity
  8
0
 62
     7
 48
0.014375
370
    40
390
F
100
AcDbLine
 10
429.596741
 20
20.731651
 30
0.0
 11
429.596741
 21
20.156651
 31
0.0
  0
LINE
  5
104
330
1E3
100
AcDbEntity
  8
0
 62
     7
 48
0.05
370
    40
390
F
100
AcDbLine
 10
427.596741
 20
20.731651
 30
0.0
 11
429.596741
 21
20.731651
 31
0.0
  0
LINE
  5
105
330
1E3
100
AcDbEntity
  8
0
 62
     7
 48
0.079375
370
    40
390
F
100
AcDbLine
 10
427.596741
 20
23.906651
 30
0.0
 11
427.596741
 21
20.731651
 31
0.0
  0
LINE
  5
106
330
1E3
100
AcDbEntity
  8
0
 62
     7
 48
0.031734
370
    40
390
F
100
AcDbLine
 10
428.866089
 20
23.906651
 30
0.0
 11
427.596741
 21
23.906651
 31
0.0
  0
LINE
  5
107
330
1E3
100
AcDbEntity
  8
0
 62
     7
 48
0.014347
370
    40
390
F
100
AcDbLine
 10
429.43634
 20
23.842058
 30
0.0
 11
428.866089
 21
23.906651
 31
0.0
  0
LINE
  5
108
330
1E3
100
AcDbEntity
  8
0
 62
     7
 48
0.014206
370
    40
390
F
100
AcDbLine
 10
429.972351
 20
23.653435
 30
0.0
 11
429.43634
 21
23.842058
 31
0.0
  0
LINE
  5
109
330
1E3
100
AcDbEntity
  8
0
 62
     7
 48
0.014205
370
    40
390
F
100
AcDbLine
 10
430.452576
 20
23.349705
 30
0.0
 11
429.972351
 21
23.653435
 31
0.0
  0
LINE
  5
10A
330
1E3
100
AcDbEntity
  8
0
 62
     7
 48
0.014206
370
    40
390
F
100
AcDbLine
 10
430.852722
 20
22.946251
 30
0.0
 11
430.452576
 21
23.349705
 31
0.0
  0
LINE
  5
10B
330
1E3
100
AcDbEntity
  8
0
 62
     7
 48
0.009994
370
    40
390
F
100
AcDbLine
 10
431.063599
 20
22.606651
 30
0.0
 11
430.852722
 21
22.946251
 31
0.0
  0
LINE
  5
10C
330
1E3
100
AcDbEntity
  8
0
 62
     7
 48
0.051047
370
    40
390
F
100
AcDbLine
 10
429.021729
 20
22.606651
 30
0.0
 11
431.063599
 21
22.606651
 31
0.0
  0
LINE
  5
10D
330
1E3
100
AcDbEntity
  8
0
 62
     7
 48
0.014375
370
    40
390
F
100
AcDbLine
 10
429.021729
 20
22.031651
 30
0.0
 11
429.021729
 21
22.606651
 31
0.0
  0
LINE
  5
10E
330
1E3
100
AcDbEntity
  8
0
 62
     7
 48
0.05718
370
    40
390
F
100
AcDbLine
 10
431.308929
 20
22.031651
 30
0.0
 11
429.021729
 21
22.031651
 31
0.0
  0
LINE
  5
10F
330
1E3
100
AcDbEntity
  8
0
 62
     7
 48
0.004256
370
    40
390
F
100
AcDbLine
 10
431.34964
 20
21.86635
 30
0.0
 11
431.308929
 21
22.031651
 31
0.0
  0
LINE
  5
110
330
1E3
100
AcDbEntity
  8
0
 62
     7
 48
0.006094
370
    40
390
F
100
AcDbLine
 10
431.384827
 20
21.625135
 30
0.0
 11
431.34964
 21
21.86635
 31
0.0
  0
LINE
  5
111
330
1E3
100
AcDbEntity
  8
0
 62
     7
 48
0.006032
370
    40
390
F
100
AcDbLine
 10
431.396484
 20
21.384151
 30
0.0
 11
431.384827
 21
21.625135
 31
0.0
  0
LINE
  5
112
330
1E3
100
AcDbEntity
  8
0
 62
     7
 48
0.012435
370
    40
390
F
100
AcDbLine
 10
431.347717
 20
20.889143
 30
0.0
 11
431.396484
 21
21.384151
 31
0.0
  0
LINE
  5
113
330
1E3
100
AcDbEntity
  8
0
 62
     7
 48
0.012372
370
    40
390
F
100
AcDbLine
 10
431.204071
 20
20.415562
 30
0.0
 11
431.347717
 21
20.889143
 31
0.0
  0
LINE
  5
114
330
1E3
100
AcDbEntity
  8
0
 62
     7
 48
0.012372
370
    40
390
F
100
AcDbLine
 10
430.970764
 20
19.979107
 30
0.0
 11
431.204071
 21
20.415562
 31
0.0
  0
LINE
  5
115
330
1E3
100
AcDbEntity
  8
0
 62
     7
 48
0.012372
370
    40
390
F
100
AcDbLine
 10
430.65683
 20
19.59655
 30
0.0
 11
430.970764
 21
19.979107
 31
0.0
  0
LINE
  5
116
330
1E3
100
AcDbEntity
  8
0
 62
     7
 48
0.012373
370
    40
390
F
100
AcDbLine
 10
430.274261
 20
19.282593
 30
0.0
 11
430.65683
 21
19.59655
 31
0.0
  0
LINE
  5
117
330
1E3
100
AcDbEntity
  8
0
 62
     7
 48
0.012372
370
    40
390
F
100
AcDbLine
 10
429.83783
 20
19.049303
 30
0.0
 11
430.274261
 21
19.282593
 31
0.0
  0
LINE
  5
118
330
1E3
100
AcDbEntity
  8
0
 62
     7
 48
0.012373
370
    40
390
F
100
AcDbLine
 10
429.364227
 20
18.905643
 30
0.0
 11
429.83783
 21
19.049303
 31
0.0
  0
LINE
  5
119
330
1E3
100
AcDbEntity
  8
0
 62
     7
 48
0.012495
370
    40
390
F
100
AcDbLine
 10
428.866821
 20
18.856651
 30
0.0
 11
429.364227
 21
18.905643
 31
0.0
  0
LINE
  5
11A
330
1E3
100
AcDbEntity
  8
0
 62
     7
 48
0.0325
370
    40
390
F
100
AcDbLine
 10
423.221741
 20
20.156651
 30
0.0
 11
423.221741
 21
18.856651
 31
0.0
  0
LINE
  5
11B
330
1E3
100
AcDbEntity
  8
0
 62
     7
 48
0.059375
370
    40
390
F
100
AcDbLine
 10
425.596741
 20
20.156651
 30
0.0
 11
423.221741
 21
20.156651
 31
0.0
  0
LINE
  5
11C
330
1E3
100
AcDbEntity
  8
0
 62
     7
 48
0.014375
370
    40
390
F
100
AcDbLine
 10
425.596741
 20
20.731651
 30
0.0
 11
425.596741
 21
20.156651
 31
0.0
  0
LINE
  5
11D
330
1E3
100
AcDbEntity
  8
0
 62
     7
 48
0.059375
370
    40
390
F
100
AcDbLine
 10
423.221741
 20
20.731651
 30
0.0
 11
425.596741
 21
20.731651
 31
0.0
  0
LINE
  5
11E
330
1E3
100
AcDbEntity
  8
0
 62
     7
 48
0.079375
370
    40
390
F
100
AcDbLine
 10
423.221741
 20
23.906651
 30
0.0
 11
423.221741
 21
20.731651
 31
0.0
  0
LINE
  5
11F
330
1E3
100
AcDbEntity
  8
0
 62
     7
 48
0.095
370
    40
390
F
100
AcDbLine
 10
427.021729
 20
23.906651
 30
0.0
 11
423.221741
 21
23.906651
 31
0.0
  0
LINE
  5
120
330
1E3
100
AcDbEntity
  8
0
 62
     7
 48
0.0325
370
    40
390
F
100
AcDbLine
 10
427.021729
 20
22.606651
 30
0.0
 11
427.021729
 21
23.906651
 31
0.0
  0
LINE
  5
121
330
1E3
100
AcDbEntity
  8
0
 62
     7
 48
0.059375
370
    40
390
F
100
AcDbLine
 10
424.646729
 20
22.606651
 30
0.0
 11
427.021729
 21
22.606651
 31
0.0
  0
LINE
  5
122
330
1E3
100
AcDbEntity
  8
0
 62
     7
 48
0.014375
370
    40
390
F
100
AcDbLine
 10
424.646729
 20
22.031651
 30
0.0
 11
424.646729
 21
22.606651
 31
0.0
  0
LINE
  5
123
330
1E3
100
AcDbEntity
  8
0
 62
     7
 48
0.059375
370
    40
390
F
100
AcDbLine
 10
427.021729
 20
22.031651
 30
0.0
 11
424.646729
 21
22.031651
 31
0.0
  0
LINE
  5
124
330
1E3
100
AcDbEntity
  8
0
 62
     7
 48
0.079375
370
    40
390
F
100
AcDbLine
 10
427.021729
 20
18.856651
 30
0.0
 11
427.021729
 21
22.031651
 31
0.0
  0
LINE
  5
125
330
1E3
100
AcDbEntity
  8
0
 62
     7
 48
0.095
370
    40
390
F
100
AcDbLine
 10
423.221741
 20
18.856651
 30
0.0
 11
427.021729
 21
18.856651
 31
0.0
  0
LINE
  5
126
330
1E3
100
AcDbEntity
  8
0
 62
     7
 48
0.079375
370
    40
390
F
100
AcDbLine
 10
421.346741
 20
22.031651
 30
0.0
 11
421.346741
 21
18.856651
 31
0.0
  0
LINE
  5
127
330
1E3
100
AcDbEntity
  8
0
 62
     7
 48
0.0325
370
    40
390
F
100
AcDbLine
 10
422.646729
 20
22.031651
 30
0.0
 11
421.346741
 21
22.031651
 31
0.0
  0
LINE
  5
128
330
1E3
100
AcDbEntity
  8
0
 62
     7
 48
0.079375
370
    40
390
F
100
AcDbLine
 10
422.646729
 20
18.856651
 30
0.0
 11
422.646729
 21
22.031651
 31
0.0
  0
LINE
  5
129
330
1E3
100
AcDbEntity
  8
0
 62
     7
 48
0.0325
370
    40
390
F
100
AcDbLine
 10
421.346741
 20
18.856651
 30
0.0
 11
422.646729
 21
18.856651
 31
0.0
  0
LINE
  5
12A
330
1E3
100
AcDbEntity
  8
0
 62
     7
 48
0.086272
370
    40
390
F
100
AcDbLine
 10
418.006805
 20
22.240501
 30
0.0
 11
417.330017
 21
18.856651
 31
0.0
  0
LINE
  5
12B
330
1E3
100
AcDbEntity
  8
0
 62
     7
 48
0.086869
370
    40
390
F
100
AcDbLine
 10
418.796387
 20
18.856651
 30
0.0
 11
418.006805
 21
22.240501
 31
0.0
  0
LINE
  5
12C
330
1E3
100
AcDbEntity
  8
0
 62
     7
 48
0.034209
370
    40
390
F
100
AcDbLine
 10
420.164734
 20
18.856651
 30
0.0
 11
418.796387
 21
18.856651
 31
0.0
  0
LINE
  5
12D
330
1E3
100
AcDbEntity
  8
0
 62
     7
 48
0.095607
370
    40
390
F
100
AcDbLine
 10
420.914734
 20
22.606651
 30
0.0
 11
420.164734
 21
18.856651
 31
0.0
  0
LINE
  5
12E
330
1E3
100
AcDbEntity
  8
0
 62
     7
 48
0.0433
370
    40
390
F
100
AcDbLine
 10
422.646729
 20
22.606651
 30
0.0
 11
420.914734
 21
22.606651
 31
0.0
  0
LINE
  5
12F
330
1E3
100
AcDbEntity
  8
0
 62
     7
 48
0.0325
370
    40
390
F
100
AcDbLine
 10
422.646729
 20
23.906651
 30
0.0
 11
422.646729
 21
22.606651
 31
0.0
  0
LINE
  5
130
330
1E3
100
AcDbEntity
  8
0
 62
     7
 48
0.069943
370
    40
390
F
100
AcDbLine
 10
419.848999
 20
23.906651
 30
0.0
 11
422.646729
 21
23.906651
 31
0.0
  0
LINE
  5
131
330
1E3
100
AcDbEntity
  8
0
 62
     7
 48
0.068485
370
    40
390
F
100
AcDbLine
 10
419.311768
 20
21.220436
 30
0.0
 11
419.848999
 21
23.906651
 31
0.0
  0
LINE
  5
132
330
1E3
100
AcDbEntity
  8
0
 62
     7
 48
0.068959
370
    40
390
F
100
AcDbLine
 10
418.684967
 20
23.906651
 30
0.0
 11
419.311768
 21
21.220436
 31
0.0
  0
LINE
  5
133
330
1E3
100
AcDbEntity
  8
0
 62
     7
 48
0.033466
370
    40
390
F
100
AcDbLine
 10
417.346313
 20
23.906651
 30
0.0
 11
418.684967
 21
23.906651
 31
0.0
  0
LINE
  5
134
330
1E3
100
AcDbEntity
  8
0
 62
     7
 48
0.072875
370
    40
390
F
100
AcDbLine
 10
416.774628
 20
21.048248
 30
0.0
 11
417.346313
 21
23.906651
 31
0.0
  0
LINE
  5
135
330
1E3
100
AcDbEntity
  8
0
 62
     7
 48
0.07338
370
    40
390
F
100
AcDbLine
 10
416.107666
 20
23.906651
 30
0.0
 11
416.774628
 21
21.048248
 31
0.0
  0
LINE
  5
136
330
1E3
100
AcDbEntity
  8
0
 62
     7
 48
0.062773
370
    40
390
F
100
AcDbLine
 10
413.596741
 20
23.906651
 30
0.0
 11
416.107666
 21
23.906651
 31
0.0
  0
LINE
  5
137
330
1E3
100
AcDbEntity
  8
0
 62
     7
 48
0.0325
370
    40
390
F
100
AcDbLine
 10
413.596741
 20
22.606651
 30
0.0
 11
413.596741
 21
23.906651
 31
0.0
  0
LINE
  5
138
330
1E3
100
AcDbEntity
  8
0
 62
     7
 48
0.036983
370
    40
390
F
100
AcDbLine
 10
415.07608
 20
22.606651
 30
0.0
 11
413.596741
 21
22.606651
 31
0.0
  0
LINE
  5
139
330
1E3
100
AcDbEntity
  8
0
 62
     7
 48
0.096268
370
    40
390
F
100
AcDbLine
 10
415.95108
 20
18.856651
 30
0.0
 11
415.07608
 21
22.606651
 31
0.0
  0
LINE
  5
13A
330
1E3
100
AcDbEntity
  8
0
 62
     7
 48
0.034473
370
    40
390
F
100
AcDbLine
 10
417.330017
 20
18.856651
 30
0.0
 11
415.95108
 21
18.856651
 31
0.0
  0
LINE
  5
13B
330
1E3
100
AcDbEntity
  8
0
 62
     7
 48
0.12625
370
    40
390
F
100
AcDbLine
 10
410.971741
 20
23.906651
 30
0.0
 11
410.971741
 21
18.856651
 31
0.0
  0
LINE
  5
13C
330
1E3
100
AcDbEntity
  8
0
 62
     7
 48
0.05125
370
    40
390
F
100
AcDbLine
 10
413.021729
 20
23.906651
 30
0.0
 11
410.971741
 21
23.906651
 31
0.0
  0
LINE
  5
13D
330
1E3
100
AcDbEntity
  8
0
 62
     7
 48
0.0325
370
    40
390
F
100
AcDbLine
 10
413.021729
 20
22.606651
 30
0.0
 11
413.021729
 21
23.906651
 31
0.0
  0
LINE
  5
13E
330
1E3
100
AcDbEntity
  8
0
 62
     7
 48
0.015625
370
    40
390
F
100
AcDbLine
 10
412.396729
 20
22.606651
 30
0.0
 11
413.021729
 21
22.606651
 31
0.0
  0
LINE
  5
13F
330
1E3
100
AcDbEntity
  8
0
 62
     7
 48
0.014375
370
    40
390
F
100
AcDbLine
 10
412.396729
 20
22.031651
 30
0.0
 11
412.396729
 21
22.606651
 31
0.0
  0
LINE
  5
140
330
1E3
100
AcDbEntity
  8
0
 62
     7
 48
0.059375
370
    40
390
F
100
AcDbLine
 10
414.771729
 20
22.031651
 30
0.0
 11
412.396729
 21
22.031651
 31
0.0
  0
LINE
  5
141
330
1E3
100
AcDbEntity
  8
0
 62
     7
 48
0.0325
370
    40
390
F
100
AcDbLine
 10
414.771729
 20
20.731651
 30
0.0
 11
414.771729
 21
22.031651
 31
0.0
  0
LINE
  5
142
330
1E3
100
AcDbEntity
  8
0
 62
     7
 48
0.059375
370
    40
390
F
100
AcDbLine
 10
412.396729
 20
20.731651
 30
0.0
 11
414.771729
 21
20.731651
 31
0.0
  0
LINE
  5
143
330
1E3
100
AcDbEntity
  8
0
 62
     7
 48
0.014375
370
    40
390
F
100
AcDbLine
 10
412.396729
 20
20.156651
 30
0.0
 11
412.396729
 21
20.731651
 31
0.0
  0
LINE
  5
144
330
1E3
100
AcDbEntity
  8
0
 62
     7
 48
0.059375
370
    40
390
F
100
AcDbLine
 10
414.771729
 20
20.156651
 30
0.0
 11
412.396729
 21
20.156651
 31
0.0
  0
LINE
  5
145
330
1E3
100
AcDbEntity
  8
0
 62
     7
 48
0.0325
370
    40
390
F
100
AcDbLine
 10
414.771729
 20
18.856651
 30
0.0
 11
414.771729
 21
20.156651
 31
0.0
  0
LINE
  5
146
330
1E3
100
AcDbEntity
  8
0
 62
     7
 48
0.095
370
    40
390
F
100
AcDbLine
 10
410.971741
 20
18.856651
 30
0.0
 11
414.771729
 21
18.856651
 31
0.0
  0
LINE
  5
147
330
1E3
100
AcDbEntity
  8
0
 62
     7
 48
0.031752
370
    40
390
F
100
AcDbLine
 10
410.396729
 20
18.856651
 30
0.0
 11
409.126648
 21
18.856651
 31
0.0
  0
LINE
  5
148
330
1E3
100
AcDbEntity
  8
0
 62
     7
 48
0.079375
370
    40
390
F
100
AcDbLine
 10
410.396729
 20
22.031651
 30
0.0
 11
410.396729
 21
18.856651
 31
0.0
  0
LINE
  5
149
330
1E3
100
AcDbEntity
  8
0
 62
     7
 48
0.035625
370
    40
390
F
100
AcDbLine
 10
408.971741
 20
22.031651
 30
0.0
 11
410.396729
 21
22.031651
 31
0.0
  0
LINE
  5
14A
330
1E3
100
AcDbEntity
  8
0
 62
     7
 48
0.046875
370
    40
390
F
100
AcDbLine
 10
408.971741
 20
20.156651
 30
0.0
 11
408.971741
 21
22.031651
 31
0.0
  0
LINE
  5
14B
330
1E3
100
AcDbEntity
  8
0
 62
     7
 48
0.014375
370
    40
390
F
100
AcDbLine
 10
408.396729
 20
20.156651
 30
0.0
 11
408.971741
 21
20.156651
 31
0.0
  0
LINE
  5
14C
330
1E3
100
AcDbEntity
  8
0
 62
     7
 48
0.06125
370
    40
390
F
100
AcDbLine
 10
408.396729
 20
22.606651
 30
0.0
 11
408.396729
 21
20.156651
 31
0.0
  0
LINE
  5
14D
330
1E3
100
AcDbEntity
  8
0
 62
     7
 48
0.05
370
    40
390
F
100
AcDbLine
 10
410.396729
 20
22.606651
 30
0.0
 11
408.396729
 21
22.606651
 31
0.0
  0
LINE
  5
14E
330
1E3
100
AcDbEntity
  8
0
 62
     7
 48
0.0325
370
    40
390
F
100
AcDbLine
 10
410.396729
 20
23.906651
 30
0.0
 11
410.396729
 21
22.606651
 31
0.0
  0
LINE
  5
14F
330
1E3
100
AcDbEntity
  8
0
 62
     7
 48
0.031752
370
    40
390
F
100
AcDbLine
 10
409.126648
 20
23.906651
 30
0.0
 11
410.396729
 21
23.906651
 31
0.0
  0
LINE
  5
150
330
1E3
100
AcDbEntity
  8
0
 62
     7
 48
0.012496
370
    40
390
F
100
AcDbLine
 10
408.629211
 20
23.85766
 30
0.0
 11
409.126648
 21
23.906651
 31
0.0
  0
LINE
  5
151
330
1E3
100
AcDbEntity
  8
0
 62
     7
 48
0.012372
370
    40
390
F
100
AcDbLine
 10
408.15564
 20
23.714001
 30
0.0
 11
408.629211
 21
23.85766
 31
0.0
  0
LINE
  5
152
330
1E3
100
AcDbEntity
  8
0
 62
     7
 48
0.012372
370
    40
390
F
100
AcDbLine
 10
407.719177
 20
23.480709
 30
0.0
 11
408.15564
 21
23.714001
 31
0.0
  0
LINE
  5
153
330
1E3
100
AcDbEntity
  8
0
 62
     7
 48
0.012373
370
    40
390
F
100
AcDbLine
 10
407.336609
 20
23.166754
 30
0.0
 11
407.719177
 21
23.480709
 31
0.0
  0
LINE
  5
154
330
1E3
100
AcDbEntity
  8
0
 62
     7
 48
0.012372
370
    40
390
F
100
AcDbLine
 10
407.022644
 20
22.784199
 30
0.0
 11
407.336609
 21
23.166754
 31
0.0
  0
LINE
  5
155
330
1E3
100
AcDbEntity
  8
0
 62
     7
 48
0.012372
370
    40
390
F
100
AcDbLine
 10
406.789368
 20
22.347742
 30
0.0
 11
407.022644
 21
22.784199
 31
0.0
  0
LINE
  5
156
330
1E3
100
AcDbEntity
  8
0
 62
     7
 48
0.012372
370
    40
390
F
100
AcDbLine
 10
406.645691
 20
21.874161
 30
0.0
 11
406.789368
 21
22.347742
 31
0.0
  0
LINE
  5
157
330
1E3
100
AcDbEntity
  8
0
 62
     7
 48
0.012372
370
    40
390
F
100
AcDbLine
 10
406.597198
 20
21.381653
 30
0.0
 11
406.645691
 21
21.874161
 31
0.0
  0
LINE
  5
158
330
1E3
100
AcDbEntity
  8
0
 62
     7
 48
0.012372
370
    40
390
F
100
AcDbLine
 10
406.645691
 20
20.889143
 30
0.0
 11
406.597198
 21
21.381653
 31
0.0
  0
LINE
  5
159
330
1E3
100
AcDbEntity
  8
0
 62
     7
 48
0.012372
370
    40
390
F
100
AcDbLine
 10
406.789368
 20
20.415562
 30
0.0
 11
406.645691
 21
20.889143
 31
0.0
  0
LINE
  5
15A
330
1E3
100
AcDbEntity
  8
0
 62
     7
 48
0.012372
370
    40
390
F
100
AcDbLine
 10
407.022644
 20
19.979107
 30
0.0
 11
406.789368
 21
20.415562
 31
0.0
  0
LINE
  5
15B
330
1E3
100
AcDbEntity
  8
0
 62
     7
 48
0.012372
370
    40
390
F
100
AcDbLine
 10
407.336609
 20
19.59655
 30
0.0
 11
407.022644
 21
19.979107
 31
0.0
  0
LINE
  5
15C
330
1E3
100
AcDbEntity
  8
0
 62
     7
 48
0.012373
370
    40
390
F
100
AcDbLine
 10
407.719177
 20
19.282593
 30
0.0
 11
407.336609
 21
19.59655
 31
0.0
  0
LINE
  5
15D
330
1E3
100
AcDbEntity
  8
0
 62
     7
 48
0.012372
370
    40
390
F
100
AcDbLine
 10
408.15564
 20
19.049303
 30
0.0
 11
407.719177
 21
19.282593
 31
0.0
  0
LINE
  5
15E
330
1E3
100
AcDbEntity
  8
0
 62
     7
 48
0.012372
370
    40
390
F
100
AcDbLine
 10
408.629211
 20
18.905643
 30
0.0
 11
408.15564
 21
19.049303
 31
0.0
  0
LINE
  5
15F
330
1E3
100
AcDbEntity
  8
0
 62
     7
 48
0.012496
370
    40
390
F
100
AcDbLine
 10
409.126648
 20
18.856651
 30
0.0
 11
408.629211
 21
18.905643
 31
0.0
  0
LINE
  5
160
330
1E3
100
AcDbEntity
  8
0
 62
     7
370
    60
390
F
100
AcDbLine
 10
543.907471
 20
9.767743
 30
0.0
 11
543.907471
 21
32.767742
 31
0.0
  0
LINE
  5
161
330
1E3
100
AcDbEntity
  8
0
 62
     7
370
    60
390
F
100
AcDbLine
 10
403.907471
 20
32.767742
 30
0.0
 11
583.907471
 21
32.767742
 31
0.0
  0
LINE
  5
162
330
1E3
100
AcDbEntity
  8
0
 62
     7
370
    60
390
F
100
AcDbLine
 10
543.907471
 20
57.767742
 30
0.0
 11
583.907471
 21
57.767742
 31
0.0
  0
LINE
  5
163
330
1E3
100
AcDbEntity
  8
0
 62
     7
370
    40
390
F
100
AcDbLine
 10
440.907471
 20
57.767742
 30
0.0
 11
440.907471
 21
114.567749
 31
0.0
  0
LINE
  5
164
330
1E3
100
AcDbEntity
  8
0
 62
     7
370
    60
390
F
100
AcDbLine
 10
433.907471
 20
32.767742
 30
0.0
 11
433.907471
 21
114.567749
 31
0.0
  0
LINE
  5
165
330
1E3
100
AcDbEntity
  8
0
 62
     7
370
    40
390
F
100
AcDbLine
 10
543.907471
 20
57.767742
 30
0.0
 11
543.907471
 21
114.567749
 31
0.0
  0
LINE
  5
166
330
1E3
100
AcDbEntity
  8
0
 62
     7
 48
0.1
370
    40
390
F
100
AcDbLine
 10
563.907471
 20
41.101078
 30
0.0
 11
563.907471
 21
45.101074
 31
0.0
  0
LINE
  5
167
330
1E3
100
AcDbEntity
  8
0
 62
     7
 48
0.1
370
    40
390
F
100
AcDbLine
 10
563.907471
 20
49.43441
 30
0.0
 11
563.907471
 21
53.43441
 31
0.0
  0
LINE
  5
168
330
1E3
100
AcDbEntity
  8
0
 62
     7
370
    40
390
F
100
AcDbLine
 10
563.907471
 20
57.767742
 30
0.0
 11
563.907471
 21
114.567749
 31
0.0
  0
LINE
  5
169
330
1E3
100
AcDbEntity
  8
0
 62
     7
370
    40
390
F
100
AcDbLine
 10
543.907471
 20
41.101078
 30
0.0
 11
583.907471
 21
41.101078
 31
0.0
  0
LINE
  5
16A
330
1E3
100
AcDbEntity
  8
0
 62
     7
370
    40
390
F
100
AcDbLine
 10
543.907471
 20
49.43441
 30
0.0
 11
583.907471
 21
49.43441
 31
0.0
  0
LINE
  5
16B
330
1E3
100
AcDbEntity
  8
0
 62
     7
370
    40
390
F
100
AcDbLine
 10
440.907471
 20
102.767746
 30
0.0
 11
583.907471
 21
102.767746
 31
0.0
  0
LINE
  5
16C
330
1E3
100
AcDbEntity
  8
0
 62
     7
 48
0.1
370
    40
390
F
100
AcDbLine
 10
563.907471
 20
32.767742
 30
0.0
 11
563.907471
 21
36.767742
 31
0.0
  0
LINE
  5
16D
330
1E3
100
AcDbEntity
  8
0
 62
     7
370
    60
390
F
100
AcDbLine
 10
543.907471
 20
32.767742
 30
0.0
 11
543.907471
 21
57.767742
 31
0.0
  0
LINE
  5
16E
330
1E3
100
AcDbEntity
  8
0
 62
     7
370
    40
390
F
100
AcDbLine
 10
451.574158
 20
57.767742
 30
0.0
 11
451.574158
 21
114.567749
 31
0.0
  0
LINE
  5
16F
330
1E3
100
AcDbEntity
  8
0
 62
     7
370
    40
390
F
100
AcDbLine
 10
466.907471
 20
57.767742
 30
0.0
 11
466.907471
 21
114.567749
 31
0.0
  0
LINE
  5
170
330
1E3
100
AcDbEntity
  8
0
 62
     7
370
    60
390
F
100
AcDbLine
 10
403.907471
 20
114.567749
 30
0.0
 11
433.907471
 21
114.567749
 31
0.0
  0
LINE
  5
171
330
1E3
100
AcDbEntity
  8
0
 62
     7
370
    60
390
F
100
AcDbLine
 10
433.907471
 20
114.567749
 30
0.0
 11
583.907471
 21
114.567749
 31
0.0
  0
LINE
  5
172
330
1E3
100
AcDbEntity
  8
0
 62
     7
370
    40
390
F
100
AcDbLine
 10
403.907471
 20
101.767746
 30
0.0
 11
433.907471
 21
101.767746
 31
0.0
  0
LINE
  5
173
330
1E3
100
AcDbEntity
  8
0
 62
     7
370
    40
390
F
100
AcDbLine
 10
403.907471
 20
97.767746
 30
0.0
 11
433.907471
 21
97.767746
 31
0.0
  0
LINE
  5
174
330
1E3
100
AcDbEntity
  8
0
 62
     7
370
    40
390
F
100
AcDbLine
 10
403.907471
 20
93.767746
 30
0.0
 11
433.907471
 21
93.767746
 31
0.0
  0
LINE
  5
175
330
1E3
100
AcDbEntity
  8
0
 62
     7
370
    40
390
F
100
AcDbLine
 10
403.907471
 20
85.767746
 30
0.0
 11
433.907471
 21
85.767746
 31
0.0
  0
LINE
  5
176
330
1E3
100
AcDbEntity
  8
0
 62
     7
370
    40
390
F
100
AcDbLine
 10
403.907471
 20
81.767746
 30
0.0
 11
433.907471
 21
81.767746
 31
0.0
  0
LINE
  5
177
330
1E3
100
AcDbEntity
  8
0
 62
     7
370
    40
390
F
100
AcDbLine
 10
403.907471
 20
77.767746
 30
0.0
 11
433.907471
 21
77.767746
 31
0.0
  0
LINE
  5
178
330
1E3
100
AcDbEntity
  8
0
 62
     7
370
    40
390
F
100
AcDbLine
 10
403.907471
 20
73.767746
 30
0.0
 11
433.907471
 21
73.767746
 31
0.0
  0
LINE
  5
179
330
1E3
100
AcDbEntity
  8
0
 62
     7
370
    40
390
F
100
AcDbLine
 10
403.907471
 20
69.767746
 30
0.0
 11
433.907471
 21
69.767746
 31
0.0
  0
LINE
  5
17A
330
1E3
100
AcDbEntity
  8
0
 62
     7
370
    40
390
F
100
AcDbLine
 10
403.907471
 20
65.767746
 30
0.0
 11
433.907471
 21
65.767746
 31
0.0
  0
LINE
  5
17B
330
1E3
100
AcDbEntity
  8
0
 62
     7
370
    40
390
F
100
AcDbLine
 10
403.907471
 20
61.767742
 30
0.0
 11
433.907471
 21
61.767742
 31
0.0
  0
LINE
  5
17C
330
1E3
100
AcDbEntity
  8
0
 62
     7
370
    60
390
F
100
AcDbLine
 10
433.907471
 20
9.767743
 30
0.0
 11
433.907471
 21
32.767742
 31
0.0
  0
LINE
  5
17D
330
1E3
100
AcDbEntity
  8
0
 62
     7
 48
0.193066
370
    40
390
F
100
AcDbLine
 10
410.525269
 20
36.850243
 30
0.0
 11
418.111511
 21
35.405243
 31
0.0
  0
LINE
  5
17E
330
1E3
100
AcDbEntity
  8
0
 62
     7
 48
0.193066
370
    40
390
F
100
AcDbLine
 10
410.525269
 20
41.185242
 30
0.0
 11
418.111511
 21
42.630241
 31
0.0
  0
LINE
  5
17F
330
1E3
100
AcDbEntity
  8
0
 62
     7
 48
0.108375
370
    40
390
F
100
AcDbLine
 10
410.525269
 20
36.850243
 30
0.0
 11
410.525269
 21
41.185242
 31
0.0
  0
CIRCLE
  5
180
330
1E3
100
AcDbEntity
  8
0
 62
     7
370
    40
390
F
100
AcDbCircle
 10
423.530273
 20
39.017742
 30
0.0
 40
2.1675
  0
CIRCLE
  5
181
330
1E3
100
AcDbEntity
  8
0
 62
     7
370
    40
390
F
100
AcDbCircle
 10
423.530273
 20
39.017742
 30
0.0
 40
3.6125
  0
LINE
  5
182
330
1E3
100
AcDbEntity
  8
0
  6
DASHDOT
 62
     7
 48
0.213802
370
    40
390
F
100
AcDbLine
 10
423.530273
 20
34.810898
 30
0.0
 11
423.530273
 21
43.362968
 31
0.0
  0
LINE
  5
183
330
1E3
100
AcDbEntity
  8
0
 62
     7
 48
0.180625
370
    40
390
F
100
AcDbLine
 10
418.111511
 20
35.405243
 30
0.0
 11
418.111511
 21
42.630241
 31
0.0
  0
LINE
  5
184
330
1E3
100
AcDbEntity
  8
0
  6
DASHDOT
 62
     7
370
    40
390
F
100
AcDbLine
 10
407.793762
 20
39.017742
 30
0.0
 11
429.266357
 21
39.017742
 31
0.0
  0
LINE
  5
185
330
1E3
100
AcDbEntity
  8
0
 62
     7
370
    60
390
F
100
AcDbLine
 10
403.907471
 20
57.767742
 30
0.0
 11
543.907471
 21
57.767742
 31
0.0
  0
LINE
  5
186
330
1E3
100
AcDbEntity
  8
0
 62
     7
370
    60
390
F
100
AcDbLine
 10
403.907471
 20
45.267742
 30
0.0
 11
543.907471
 21
45.267742
 31
0.0
  0
LINE
  5
187
330
1E3
100
AcDbEntity
  8
0
 62
     7
370
    40
390
F
100
AcDbLine
 10
418.907471
 20
57.767742
 30
0.0
 11
418.907471
 21
107.767746
 31
0.0
  0
LINE
  5
188
330
1E3
100
AcDbEntity
  8
0
 62
     7
370
    40
390
F
100
AcDbLine
 10
403.907471
 20
89.767746
 30
0.0
 11
433.907471
 21
89.767746
 31
0.0
  0
LINE
  5
189
330
1E3
100
AcDbEntity
  8
0
 62
     7
370
    40
390
F
100
AcDbLine
 10
440.907471
 20
62.767742
 30
0.0
 11
583.907471
 21
62.767742
 31
0.0
  0
LINE
  5
18A
330
1E3
100
AcDbEntity
  8
0
 62
     7
370
    40
390
F
100
AcDbLine
 10
440.907471
 20
67.767746
 30
0.0
 11
583.907471
 21
67.767746
 31
0.0
  0
LINE
  5
18B
330
1E3
100
AcDbEntity
  8
0
 62
     7
370
    40
390
F
100
AcDbLine
 10
440.907471
 20
72.767746
 30
0.0
 11
583.907471
 21
72.767746
 31
0.0
  0
LINE
  5
18C
330
1E3
100
AcDbEntity
  8
0
 62
     7
370
    40
390
F
100
AcDbLine
 10
440.907471
 20
77.767746
 30
0.0
 11
583.907471
 21
77.767746
 31
0.0
  0
LINE
  5
18D
330
1E3
100
AcDbEntity
  8
0
 62
     7
370
    40
390
F
100
AcDbLine
 10
440.907471
 20
82.767746
 30
0.0
 11
583.907471
 21
82.767746
 31
0.0
  0
LINE
  5
18E
330
1E3
100
AcDbEntity
  8
0
 62
     7
370
    40
390
F
100
AcDbLine
 10
440.907471
 20
87.767746
 30
0.0
 11
583.907471
 21
87.767746
 31
0.0
  0
LINE
  5
18F
330
1E3
100
AcDbEntity
  8
0
 62
     7
370
    40
390
F
100
AcDbLine
 10
440.907471
 20
92.767746
 30
0.0
 11
583.907471
 21
92.767746
 31
0.0
  0
LINE
  5
190
330
1E3
100
AcDbEntity
  8
0
 62
     7
370
    40
390
F
100
AcDbLine
 10
440.907471
 20
97.767746
 30
0.0
 11
583.907471
 21
97.767746
 31
0.0
  0
LINE
  5
191
330
1E3
100
AcDbEntity
  8
0
 62
     7
370
    40
390
F
100
AcDbLine
 10
440.907471
 20
107.767746
 30
0.0
 11
583.907471
 21
107.767746
 31
0.0
  0
LINE
  5
192
330
1E3
100
AcDbEntity
  8
0
 62
     7
370
    40
390
F
100
AcDbLine
 10
403.907471
 20
107.767746
 30
0.0
 11
433.907471
 21
107.767746
 31
0.0
  0
LINE
  5
193
330
1E3
100
AcDbEntity
  8
0
 62
     7
370
    80
390
F
100
AcDbLine
 10
583.907471
 20
114.567749
 30
0.0
 11
583.907471
 21
9.767743
 31
0.0
  0
TEXT
  5
194
330
1E3
100
AcDbEntity
  8
0
 62
     7
370
    40
390
F
100
AcDbText
 10
565.541748
 20
58.886082
 30
0.0
 40
2.5
  1
LEGRENZI
 41
1.013888290909089
 72
     5
 11
584.1297
 21
58.886082
 31
0.0
100
AcDbText
  0
TEXT
  5
195
330
1E3
100
AcDbEntity
  8
0
 62
     7
370
    15
390
F
100
AcDbText
 10
420.313965
 20
58.667709
 30
0.0
 40
2.0
  1
%%p 0.75
 41
1.130840379310347
 72
     5
 11
431.245422
 21
58.667709
 31
0.0
100
AcDbText
  0
TEXT
  5
196
330
1E3
100
AcDbEntity
  8
0
 62
     7
370
    15
390
F
100
AcDbText
 10
421.239227
 20
62.638592
 30
0.0
 40
2.0
  1
%%p 0.5
 41
1.177332391304345
 72
     5
 11
430.265442
 21
62.638592
 31
0.0
100
AcDbText
  0
TEXT
  5
197
330
1E3
100
AcDbEntity
  8
0
 62
     7
370
    15
390
F
100
AcDbText
 10
421.239227
 20
66.638596
 30
0.0
 40
2.0
  1
%%p 0.5
 41
1.177332391304345
 72
     5
 11
430.265442
 21
66.638596
 31
0.0
100
AcDbText
  0
TEXT
  5
198
330
1E3
100
AcDbEntity
  8
0
 62
     7
370
    15
390
F
100
AcDbText
 10
420.286621
 20
70.638596
 30
0.0
 40
2.0
  1
%%p 0.35
 41
1.130840482758617
 72
     5
 11
431.218079
 21
70.638596
 31
0.0
100
AcDbText
  0
TEXT
  5
199
330
1E3
100
AcDbEntity
  8
0
 62
     7
370
    15
390
F
100
AcDbText
 10
420.286621
 20
74.638596
 30
0.0
 40
2.0
  1
%%p 0.25
 41
1.130840482758617
 72
     5
 11
431.218079
 21
74.638596
 31
0.0
100
AcDbText
  0
TEXT
  5
19A
330
1E3
100
AcDbEntity
  8
0
 62
     7
370
    15
390
F
100
AcDbText
 10
420.986633
 20
78.638626
 30
0.0
 40
2.0
  1
%%p 0.15
 41
1.214606444444447
 72
     5
 11
431.918091
 21
78.638626
 31
0.0
100
AcDbText
  0
TEXT
  5
19B
330
1E3
100
AcDbEntity
  8
0
 62
     7
370
    15
390
F
100
AcDbText
 10
421.239227
 20
82.638626
 30
0.0
 40
2.0
  1
%%p 0.1
 41
1.289459285714283
 72
     5
 11
430.265442
 21
82.638626
 31
0.0
100
AcDbText
  0
TEXT
  5
19C
330
1E3
100
AcDbEntity
  8
0
 62
     7
370
    15
390
F
100
AcDbText
 10
421.239227
 20
86.638626
 30
0.0
 40
2.0
  1
%%p 0.1
 41
1.289459285714283
 72
     5
 11
430.265442
 21
86.638626
 31
0.0
100
AcDbText
  0
TEXT
  5
19D
330
1E3
100
AcDbEntity
  8
0
 62
     7
370
    15
390
F
100
AcDbText
 10
421.239227
 20
90.638626
 30
0.0
 40
2.0
  1
%%p 0.1
 41
1.289459285714283
 72
     5
 11
430.265442
 21
90.638626
 31
0.0
100
AcDbText
  0
TEXT
  5
19E
330
1E3
100
AcDbEntity
  8
0
 62
     7
370
    15
390
F
100
AcDbText
 10
420.286621
 20
94.638626
 30
0.0
 40
2.0
  1
%%p 0.03
 41
1.171227642857139
 72
     5
 11
431.218079
 21
94.638626
 31
0.0
100
AcDbText
  0
TEXT
  5
19F
330
1E3
100
AcDbEntity
  8
0
 62
     7
370
    15
390
F
100
AcDbText
 10
420.034027
 20
98.638626
 30
0.0
 40
2.0
  1
%%p 0.025
 41
1.132650088235295
 72
     5
 11
432.870728
 21
98.638626
 31
0.0
100
AcDbText
  0
TEXT
  5
1A0
330
1E3
100
AcDbEntity
  8
0
 62
     7
370
    40
390
F
100
AcDbText
 10
565.237488
 20
50.442558
 30
0.0
 40
2.5
  1
TUBACHER
 41
1.026954156521742
 72
     5
 11
584.920776
 21
50.442558
 31
0.0
100
AcDbText
  0
TEXT
  5
1A1
330
1E3
100
AcDbEntity
  8
0
 62
     7
370
    40
390
F
100
AcDbText
 10
564.958374
 20
42.173847
 30
0.0
 40
2.5
  1
LEGRENZI
 41
1.013888290909089
 72
     5
 11
583.546326
 21
42.173847
 31
0.0
100
AcDbText
  0
TEXT
  5
1A2
330
1E3
100
AcDbEntity
  8
0
 62
     7
370
    15
390
F
100
AcDbText
 10
559.35791
 20
47.157547
 30
0.0
 40
1.5
  1
/Approved
 41
0.8433133846153851
 72
     5
 11
570.320984
 21
47.157547
 31
0.0
100
AcDbText
  0
TEXT
  5
1A3
330
1E3
100
AcDbEntity
  8
0
 62
     7
370
    15
390
F
100
AcDbText
 10
544.907471
 20
47.18441
 30
0.0
 40
1.5
  1
APPROVATO
 41
1.045211185185188
 72
     5
 11
559.017822
 21
47.18441
 31
0.0
100
AcDbText
  0
TEXT
  5
1A4
330
1E3
100
AcDbEntity
  8
0
 62
     7
370
    15
390
F
100
AcDbText
 10
467.000214
 20
20.242884
 30
0.0
 40
3.0
  1
VETRO HERCULES
 41
1.044474999999999
 72
     5
 11
510.868164
 21
20.242884
 31
0.0
100
AcDbText
  0
TEXT
  5
1A5
330
1E3
100
AcDbEntity
  8
0
 62
     7
370
    15
390
F
100
AcDbText
 10
426.522644
 20
103.958832
 30
0.0
 40
2.0
  1
/Tol.
 41
1.128365714285711
 72
     5
 11
434.421204
 21
103.958832
 31
0.0
100
AcDbText
  0
TEXT
  5
1A6
330
1E3
100
AcDbEntity
  8
0
 62
     7
370
    15
390
F
100
AcDbText
 10
420.337067
 20
103.91201
 30
0.0
 40
2.0
  1
TOL.
 41
1.0364735
 72
     5
 11
426.555908
 21
103.91201
 31
0.0
100
AcDbText
  0
TEXT
  5
1A7
330
1E3
100
AcDbEntity
  8
0
 62
     7
370
    15
390
F
100
AcDbText
 10
411.522644
 20
103.958832
 30
0.0
 40
2.0
  1
/Dim.
 41
1.184783999999996
 72
     5
 11
419.421204
 21
103.958832
 31
0.0
100
AcDbText
  0
TEXT
  5
1A8
330
1E3
100
AcDbEntity
  8
0
 62
     7
370
    15
390
F
100
AcDbText
 10
405.337067
 20
103.91201
 30
0.0
 40
2.0
  1
DIM.
 41
1.1660326875
 72
     5
 11
411.555908
 21
103.91201
 31
0.0
100
AcDbText
  0
TEXT
  5
1A9
330
1E3
100
AcDbEntity
  8
0
 62
     7
370
    15
390
F
100
AcDbText
 10
468.589478
 20
59.486027
 30
0.0
 40
1.8
  1
INSERITE NOTE
 41
0.8890109259259278
 72
     5
 11
487.792114
 21
59.486027
 31
0.0
100
AcDbText
  0
TEXT
  5
1AA
330
1E3
100
AcDbEntity
  8
0
 62
     7
370
    15
390
F
100
AcDbText
 10
545.328674
 20
59.485649
 30
0.0
 40
2.0
  1
21.09.2005
 41
1.086474600000004
 72
     5
 11
561.625793
 21
59.485649
 31
0.0
100
AcDbText
  0
TEXT
  5
1AB
330
1E3
100
AcDbEntity
  8
0
 62
     7
370
    15
390
F
100
AcDbText
 10
406.898285
 20
94.638626
 30
0.0
 40
2.0
  1
10÷18
 41
1.177332391304353
 72
     5
 11
415.9245
 21
94.638626
 31
0.0
100
AcDbText
  0
TEXT
  5
1AC
330
1E3
100
AcDbEntity
  8
0
 62
     7
370
    15
390
F
100
AcDbText
 10
408.550964
 20
98.638626
 30
0.0
 40
2.0
  1
0÷10
 41
1.186828666666666
 72
     5
 11
415.671936
 21
98.638626
 31
0.0
100
AcDbText
  0
TEXT
  5
1AD
330
1E3
100
AcDbEntity
  8
0
 62
     7
370
    15
390
F
100
AcDbText
 10
406.898285
 20
90.638626
 30
0.0
 40
2.0
  1
18÷30
 41
1.083145800000004
 72
     5
 11
415.9245
 21
90.638626
 31
0.0
100
AcDbText
  0
TEXT
  5
1AE
330
1E3
100
AcDbEntity
  8
0
 62
     7
370
    15
390
F
100
AcDbText
 10
406.898285
 20
86.638626
 30
0.0
 40
2.0
  1
30÷50
 41
1.04148634615385
 72
     5
 11
415.9245
 21
86.638626
 31
0.0
100
AcDbText
  0
TEXT
  5
1AF
330
1E3
100
AcDbEntity
  8
0
 62
     7
370
    15
390
F
100
AcDbText
 10
406.898285
 20
82.638626
 30
0.0
 40
2.0
  1
50÷80
 41
1.04148634615385
 72
     5
 11
415.9245
 21
82.638626
 31
0.0
100
AcDbText
  0
TEXT
  5
1B0
330
1E3
100
AcDbEntity
  8
0
 62
     7
370
    15
390
F
100
AcDbText
 10
406.645691
 20
78.638626
 30
0.0
 40
2.0
  1
80÷120
 41
1.093145700000002
 72
     5
 11
417.577148
 21
78.638626
 31
0.0
100
AcDbText
  0
TEXT
  5
1B1
330
1E3
100
AcDbEntity
  8
0
 62
     7
370
    15
390
F
100
AcDbText
 10
404.993042
 20
74.638596
 30
0.0
 40
2.0
  1
120÷180
 41
1.132650000000001
 72
     5
 11
417.829742
 21
74.638596
 31
0.0
100
AcDbText
  0
TEXT
  5
1B2
330
1E3
100
AcDbEntity
  8
0
 62
     7
370
    15
390
F
100
AcDbText
 10
404.993042
 20
70.638596
 30
0.0
 40
2.0
  1
180÷250
 41
1.069725000000001
 72
     5
 11
417.829742
 21
70.638596
 31
0.0
100
AcDbText
  0
TEXT
  5
1B3
330
1E3
100
AcDbEntity
  8
0
 62
     7
370
    15
390
F
100
AcDbText
 10
404.993042
 20
66.638596
 30
0.0
 40
2.0
  1
250÷320
 41
1.013423684210527
 72
     5
 11
417.829742
 21
66.638596
 31
0.0
100
AcDbText
  0
TEXT
  5
1B4
330
1E3
100
AcDbEntity
  8
0
 62
     7
370
    15
390
F
100
AcDbText
 10
404.993042
 20
62.638592
 30
0.0
 40
2.0
  1
320÷400
 41
1.040813513513514
 72
     5
 11
417.829742
 21
62.638592
 31
0.0
100
AcDbText
  0
TEXT
  5
1B5
330
1E3
100
AcDbEntity
  8
0
 62
     7
370
    15
390
F
100
AcDbText
 10
405.020386
 20
58.667709
 30
0.0
 40
2.0
  1
400÷500
 41
1.069725000000001
 72
     5
 11
417.857086
 21
58.667709
 31
0.0
100
AcDbText
  0
TEXT
  5
1B6
330
1E3
100
AcDbEntity
  8
0
 62
     7
370
    15
390
F
100
AcDbText
 10
444.393982
 20
59.463085
 30
0.0
 40
2.0
  1
A
 41
0.8847884999999848
 72
     5
 11
445.5737
 21
59.463085
 31
0.0
100
AcDbText
  0
TEXT
  5
1B7
330
1E3
100
AcDbEntity
  8
0
 62
     7
370
    15
390
F
100
AcDbText
 10
554.108276
 20
30.517742
 30
0.0
 40
1.5
  1
/Code
 41
0.8462787142857127
 72
     5
 11
560.032227
 21
30.517742
 31
0.0
100
AcDbText
  0
TEXT
  5
1B8
330
1E3
100
AcDbEntity
  8
0
 62
     7
370
    15
390
F
100
AcDbText
 10
434.907471
 20
30.517742
 30
0.0
 40
1.5
  1
DESCRIZIONE
 41
1.154178866666666
 72
     5
 11
452.220154
 21
30.517742
 31
0.0
100
AcDbText
  0
TEXT
  5
1B9
330
1E3
100
AcDbEntity
  8
0
 62
     7
370
    15
390
F
100
AcDbText
 10
452.379059
 20
30.456188
 30
0.0
 40
1.5
  1
/Description
 41
0.9511226451612923
 72
     5
 11
467.12146
 21
30.456188
 31
0.0
100
AcDbText
  0
TEXT
  5
1BA
330
1E3
100
AcDbEntity
  8
0
 62
     7
370
    15
390
F
100
AcDbText
 10
404.907471
 20
55.517742
 30
0.0
 40
1.5
  1
SCALA
 41
1.100821285714289
 72
     5
 11
412.61322
 21
55.517742
 31
0.0
100
AcDbText
  0
TEXT
  5
1BB
330
1E3
100
AcDbEntity
  8
0
 62
     7
370
    15
390
F
100
AcDbText
 10
412.308319
 20
55.517742
 30
0.0
 40
1.5
  1
/Scale
 41
0.9269310967741939
 72
     5
 11
419.492035
 21
55.517742
 31
0.0
100
AcDbText
  0
TEXT
  5
1BC
330
1E3
100
AcDbEntity
  8
0
 62
     7
370
    15
390
F
100
AcDbText
 10
405.216797
 20
49.058128
 30
0.0
 40
4.0
  1
1:2
 41
1.785768150000001
 72
     5
 11
417.121918
 21
49.058128
 31
0.0
100
AcDbText
  0
TEXT
  5
1BD
330
1E3
100
AcDbEntity
  8
0
 62
     7
370
    15
390
F
100
AcDbText
 10
434.907471
 20
43.017742
 30
0.0
 40
1.5
  1
MATERIALE
 41
1.128830560000001
 72
     5
 11
449.017853
 21
43.017742
 31
0.0
100
AcDbText
  0
TEXT
  5
1BE
330
1E3
100
AcDbEntity
  8
0
 62
     7
370
    15
390
F
100
AcDbText
 10
449.26358
 20
42.956188
 30
0.0
 40
1.5
  1
/Material
 41
0.9744928000000022
 72
     5
 11
460.226624
 21
42.956188
 31
0.0
100
AcDbText
  0
TEXT
  5
1BF
330
1E3
100
AcDbEntity
  8
0
 62
     7
370
    15
390
F
100
AcDbText
 10
474.512634
 20
38.253147
 30
0.0
 40
2.5
  1
VETRO FLOAT
 41
1.040579527272729
 72
     5
 11
503.128571
 21
38.253147
 31
0.0
100
AcDbText
  0
TEXT
  5
1C0
330
1E3
100
AcDbEntity
  8
0
 62
     7
370
    15
390
F
100
AcDbText
 10
473.296356
 20
34.232822
 30
0.0
 40
2.5
  1
GLASS PLANE
 41
0.8417884875000006
 72
     5
 11
495.744049
 21
34.232822
 31
0.0
100
AcDbText
  0
TEXT
  5
1C1
330
1E3
100
AcDbEntity
  8
0
 62
     7
370
    15
390
F
100
AcDbText
 10
434.907471
 20
55.517742
 30
0.0
 40
1.5
  1
FINITURA
 41
1.191353904761908
 72
     5
 11
447.416687
 21
55.517742
 31
0.0
100
AcDbText
  0
TEXT
  5
1C2
330
1E3
100
AcDbEntity
  8
0
 62
     7
370
    15
390
F
100
AcDbText
 10
447.840149
 20
55.460308
 30
0.0
 40
1.5
  1
/Finishing
 41
1.062855565217393
 72
     5
 11
460.062988
 21
55.460308
 31
0.0
100
AcDbText
  0
TEXT
  5
1C3
330
1E3
100
AcDbEntity
  8
0
 62
     7
370
    15
390
F
100
AcDbText
 10
472.567932
 20
15.203146
 30
0.0
 40
2.8
  1
GLASS HERCULES
 41
0.8411782317073178
 72
     5
 11
504.757019
 21
15.203146
 31
0.0
100
AcDbText
  0
TEXT
  5
1C4
330
1E3
100
AcDbEntity
  8
0
 62
     7
370
    15
390
F
100
AcDbText
 10
550.193298
 20
18.081972
 30
0.0
 40
5.0
  1
56323835
 41
0.9059007913043468
 72
     5
 11
584.919495
 21
18.081972
 31
0.0
100
AcDbText
  0
TEXT
  5
1C5
330
1E3
100
AcDbEntity
  8
0
 62
     7
370
    15
390
F
100
AcDbText
 10
544.907471
 20
30.517742
 30
0.0
 40
1.5
  1
CODICE
 41
1.163368250000005
 72
     5
 11
554.214417
 21
30.517742
 31
0.0
100
AcDbText
  0
TEXT
  5
1C6
330
1E3
100
AcDbEntity
  8
0
 62
     7
370
    15
390
F
100
AcDbText
 10
544.907471
 20
39.18441
 30
0.0
 40
1.5
  1
VISTO
 41
1.100821285714281
 72
     5
 11
552.61322
 21
39.18441
 31
0.0
100
AcDbText
  0
TEXT
  5
1C7
330
1E3
100
AcDbEntity
  8
0
 62
     7
370
    15
390
F
100
AcDbText
 10
552.708435
 20
39.18441
 30
0.0
 40
1.5
  1
/Checked
 41
0.8437606086956551
 72
     5
 11
562.411682
 21
39.18441
 31
0.0
100
AcDbText
  0
TEXT
  5
1C8
330
1E3
100
AcDbEntity
  8
0
 62
     7
370
    15
390
F
100
AcDbText
 10
544.907471
 20
112.317749
 30
0.0
 40
1.5
  1
DATA
 41
1.109929818181813
 72
     5
 11
551.012085
 21
112.317749
 31
0.0
100
AcDbText
  0
TEXT
  5
1C9
330
1E3
100
AcDbEntity
  8
0
 62
     7
370
    15
390
F
100
AcDbText
 10
545.051758
 20
109.339195
 30
0.0
 40
1.5
  1
Date
 41
0.8480223636363668
 72
     5
 11
549.715881
 21
109.339195
 31
0.0
100
AcDbText
  0
TEXT
  5
1CA
330
1E3
100
AcDbEntity
  8
0
 62
     7
370
    15
390
F
100
AcDbText
 10
564.907471
 20
112.317749
 30
0.0
 40
1.5
  1
DISEGNATO
 41
1.128828080000003
 72
     5
 11
579.017822
 21
112.317749
 31
0.0
100
AcDbText
  0
TEXT
  5
1CB
330
1E3
100
AcDbEntity
  8
0
 62
     7
370
    15
390
F
100
AcDbText
 10
565.051758
 20
109.339195
 30
0.0
 40
1.5
  1
Drawn
 41
0.8462785714285863
 72
     5
 11
570.975708
 21
109.339195
 31
0.0
100
AcDbText
  0
TEXT
  5
1CC
330
1E3
100
AcDbEntity
  8
0
 62
     7
370
    15
390
F
100
AcDbText
 10
467.907471
 20
112.317749
 30
0.0
 40
1.5
  1
DESCRIZIONE
 41
1.154178866666666
 72
     5
 11
485.220154
 21
112.317749
 31
0.0
100
AcDbText
  0
TEXT
  5
1CD
330
1E3
100
AcDbEntity
  8
0
 62
     7
370
    15
390
F
100
AcDbText
 10
467.858521
 20
109.339195
 30
0.0
 40
1.5
  1
Description
 41
0.9630453571428582
 72
     5
 11
481.341156
 21
109.339195
 31
0.0
100
AcDbText
  0
TEXT
  5
1CE
330
1E3
100
AcDbEntity
  8
0
 62
     7
370
    15
390
F
100
AcDbText
 10
452.907471
 20
112.317749
 30
0.0
 40
1.5
  1
RIF.TO
 41
1.329559285714286
 72
     5
 11
462.214386
 21
112.317749
 31
0.0
100
AcDbText
  0
TEXT
  5
1CF
330
1E3
100
AcDbEntity
  8
0
 62
     7
370
    15
390
F
100
AcDbText
 10
453.058533
 20
109.339195
 30
0.0
 40
1.5
  1
Ref.ce
 41
0.9578288000000006
 72
     5
 11
460.242249
 21
109.339195
 31
0.0
100
AcDbText
  0
TEXT
  5
1D0
330
1E3
100
AcDbEntity
  8
0
 62
     7
370
    15
390
F
100
AcDbText
 10
442.007477
 20
112.317749
 30
0.0
 40
1.5
  1
IND.
 41
1.526153500000007
 72
     5
 11
448.112091
 21
112.317749
 31
0.0
100
AcDbText
  0
TEXT
  5
1D1
330
1E3
100
AcDbEntity
  8
0
 62
     7
370
    15
390
F
100
AcDbText
 10
442.558533
 20
109.339195
 30
0.0
 40
1.5
  1
Ind.
 41
1.16603074999999
 72
     5
 11
447.222656
 21
109.339195
 31
0.0
100
AcDbText
  0
TEXT
  5
1D2
330
1E3
100
AcDbEntity
  8
0
 62
     7
370
    40
390
F
100
AcDbText
 10
429.009003
 20
109.43866
 30
0.0
 40
3.15
  1
A
 41
1.301153333333327
 72
     5
 11
431.741425
 21
109.43866
 31
0.0
100
AcDbText
  0
TEXT
  5
1D3
330
1E3
100
AcDbEntity
  8
0
 62
     7
370
    15
390
F
100
AcDbText
 10
405.642395
 20
111.910385
 30
0.0
 40
1.5
  1
TOLL. GENERALI
 41
1.164007894736842
 72
     5
 11
427.758545
 21
111.910385
 31
0.0
100
AcDbText
  0
TEXT
  5
1D4
330
1E3
100
AcDbEntity
  8
0
 62
     7
370
    15
390
F
100
AcDbText
 10
405.793488
 20
108.931831
 30
0.0
 40
1.5
  1
General Toll.
 41
1.016012507936506
 72
     5
 11
421.795685
 21
108.931831
 31
0.0
100
AcDbText
  0
TEXT
  5
1D5
330
1E3
100
AcDbEntity
  8
0
 62
     7
370
    15
390
F
100
AcDbText
 10
472.571167
 20
46.732822
 30
0.0
 40
2.5
  1
TRANSPARENT
 41
0.8417884875000006
 72
     5
 11
495.01886
 21
46.732822
 31
0.0
100
AcDbText
  0
TEXT
  5
1D6
330
1E3
100
AcDbEntity
  8
0
 62
     7
370
    15
390
F
100
AcDbText
 10
438.591705
 20
66.384514
 30
0.0
 40
2.0
  1
MODIFICHE
 50
90.0
 41
1.1758646875
 72
     5
 11
438.591705
 21
85.198349
 31
0.0
100
AcDbText
  0
TEXT
  5
1D7
330
1E3
100
AcDbEntity
  8
0
 62
     7
370
    15
390
F
100
AcDbText
 10
438.591705
 20
84.652283
 30
0.0
 40
2.0
  1
/Modifications
 50
90.0
 41
0.986398285714286
 72
     5
 11
438.591705
 21
107.668243
 31
0.0
100
AcDbText
  0
TEXT
  5
1D8
330
1E3
100
AcDbEntity
  8
0
 62
     7
370
    15
390
F
100
AcDbText
 10
544.907471
 20
55.517742
 30
0.0
 40
1.5
  1
DISEGNATO
 41
1.128828080000003
 72
     5
 11
559.017822
 21
55.517742
 31
0.0
100
AcDbText
  0
TEXT
  5
1D9
330
1E3
100
AcDbEntity
  8
0
 62
     7
370
    15
390
F
100
AcDbText
 10
559.452759
 20
55.627167
 30
0.0
 40
1.5
  1
/Drawn
 41
0.8451430588235299
 72
     5
 11
566.636475
 21
55.627167
 31
0.0
100
AcDbText
  0
TEXT
  5
1DA
330
1E3
100
AcDbEntity
  8
0
 62
     7
370
    15
390
F
100
AcDbText
 10
546.433044
 20
42.675522
 30
0.0
 40
2.0
  1
25.10.2000
 41
1.111167272727269
 72
     5
 11
562.730164
 21
42.675522
 31
0.0
100
AcDbText
  0
TEXT
  5
1DB
330
1E3
100
AcDbEntity
  8
0
 62
     7
370
    15
390
F
100
AcDbText
 10
546.433044
 20
51.008854
 30
0.0
 40
2.0
  1
15.09.2000
 41
1.111167272727269
 72
     5
 11
562.730164
 21
51.008854
 31
0.0
100
AcDbText
  0
TEXT
  5
1DC
330
1E3
100
AcDbEntity
  8
0
 62
     7
370
    15
390
F
100
AcDbText
 10
474.512634
 20
50.753143
 30
0.0
 40
2.5
  1
TRASPARENTE
 41
1.073097637500001
 72
     5
 11
503.128571
 21
50.753143
 31
0.0
100
AcDbText
  0
TEXT
  5
1DD
330
1E3
100
AcDbEntity
  8
0
 62
     7
370
    15
390
F
100
AcDbText
 10
453.703125
 20
59.521137
 30
0.0
 40
1.8
  1
05/486
 41
0.9462915151515163
 72
     5
 11
463.071411
 21
59.521137
 31
0.0
100
AcDbText
  0
TEXT
  5
1DE
330
1E3
100
AcDbEntity
  8
0
 62
     7
370
    15
390
F
100
AcDbText
 10
444.422516
 20
64.415619
 30
0.0
 40
1.8
  1
B
 41
1.301142500000007
 72
     5
 11
445.983887
 21
64.415619
 31
0.0
100
AcDbText
  0
TEXT
  5
1DF
330
1E3
100
AcDbEntity
  8
0
 62
     7
370
    15
390
F
100
AcDbText
 10
468.796326
 20
64.749283
 30
0.0
 40
1.8
  1
VARIATE NOTE
 41
0.8922191428571431
 72
     5
 11
487.532928
 21
64.749283
 31
0.0
100
AcDbText
  0
TEXT
  5
1E0
330
1E3
100
AcDbEntity
  8
0
 62
     7
370
    15
390
F
100
AcDbText
 10
545.472656
 20
64.070648
 30
0.0
 40
1.8
  1
16.11.2005
 41
1.239192936507937
 72
     5
 11
561.086487
 21
64.070648
 31
0.0
100
AcDbText
  0
TEXT
  5
1E1
330
1E3
100
AcDbEntity
  8
0
 62
     7
370
    15
390
F
100
AcDbText
 10
564.790161
 20
63.432919
 30
0.0
 40
2.5
  1
LEGRENZI
 41
0.9462924000000014
 72
     5
 11
582.138855
 21
63.432919
 31
0.0
100
AcDbText
  0
ENDBLK
  5
39C
330
1E3
100
AcDbEntity
  8
0
100
AcDbBlockEnd
  0
BLOCK
  5
39D
330
1E7
100
AcDbEntity
  8
0
100
AcDbBlockBegin
  2
BLOCK337
 70
     0
 10
0.0
 20
0.0
 30
0.0
  3
BLOCK337
  1

  0
TEXT
  5
1E5
330
1E7
100
AcDbEntity
  8
0
 62
     7
370
    15
390
F
100
AcDbText
 10
355.235779
 20
282.641663
 30
0.0
 40
2.5
  1
NOTE:
 41
1.084292600000003
 72
     5
 11
366.078705
 21
282.641663
 31
0.0
100
AcDbText
  0
ENDBLK
  5
39E
330
1E7
100
AcDbEntity
  8
0
100
AcDbBlockEnd
  0
BLOCK
  5
39F
330
1EB
100
AcDbEntity
  8
0
100
AcDbBlockBegin
  2
BLOCK338
 70
     0
 10
0.0
 20
0.0
 30
0.0
  3
BLOCK338
  1

  0
TEXT
  5
1E9
330
1EB
100
AcDbEntity
  8
0
 62
     7
370
    15
390
F
100
AcDbText
 10
354.558533
 20
273.120392
 30
0.0
 40
2.5
  1
VETRO SODO- CALCICO PRIVO DI PIOMBO
 41
0.8929479176470589
 72
     5
 11
430.459106
 21
273.120392
 31
0.0
100
AcDbText
  0
ENDBLK
  5
3A0
330
1EB
100
AcDbEntity
  8
0
100
AcDbBlockEnd
  0
BLOCK
  5
3A1
330
1EF
100
AcDbEntity
  8
0
100
AcDbBlockBegin
  2
BLOCK339
 70
     0
 10
0.0
 20
0.0
 30
0.0
  3
BLOCK339
  1

  0
TEXT
  5
1ED
330
1EF
100
AcDbEntity
  8
0
 62
     7
370
    15
390
F
100
AcDbText
 10
355.692444
 20
266.981781
 30
0.0
 40
2.5
  1
GLASS CALCIUM SODIC WITHOUT LEAD
 41
0.8954168516129026
 72
     5
 11
425.08725
 21
266.981781
 31
0.0
100
AcDbText
  0
ENDBLK
  5
3A2
330
1EF
100
AcDbEntity
  8
0
100
AcDbBlockEnd
  0
BLOCK
  5
3A3
330
1F3
100
AcDbEntity
  8
0
100
AcDbBlockBegin
  2
BLOCK340
 70
     0
 10
0.0
 20
0.0
 30
0.0
  3
BLOCK340
  1

  0
TEXT
  5
1F1
330
1F3
100
AcDbEntity
  8
0
 62
     7
370
    15
390
F
100
AcDbText
 10
353.864044
 20
254.539886
 30
0.0
 40
2.5
  1
EFFETTUARE MOLATURA OPACA PRIVA DI SEGHETTATURE SUL BORDO
 41
0.8777003573964497
 72
     5
 11
477.473511
 21
254.539886
 31
0.0
100
AcDbText
  0
ENDBLK
  5
3A4
330
1F3
100
AcDbEntity
  8
0
100
AcDbBlockEnd
  0
BLOCK
  5
3A5
330
1F7
100
AcDbEntity
  8
0
100
AcDbBlockBegin
  2
BLOCK341
 70
     0
 10
0.0
 20
0.0
 30
0.0
  3
BLOCK341
  1

  0
TEXT
  5
1F5
330
1F7
100
AcDbEntity
  8
0
 62
     7
370
    15
390
F
100
AcDbText
 10
355.28714
 20
247.888306
 30
0.0
 40
2.5
  1
GRINDING OPAQUE ON ALL PERIMETER
 41
0.9051496434782602
 72
     5
 11
424.681946
 21
247.888306
 31
0.0
100
AcDbText
  0
ENDBLK
  5
3A6
330
1F7
100
AcDbEntity
  8
0
100
AcDbBlockEnd
  0
BLOCK
  5
3A7
330
1FB
100
AcDbEntity
  8
0
100
AcDbBlockBegin
  2
BLOCK342
 70
     0
 10
0.0
 20
0.0
 30
0.0
  3
BLOCK342
  1

  0
TEXT
  5
1F9
330
1FB
100
AcDbEntity
  8
0
 62
     7
370
    15
390
F
100
AcDbText
 10
355.043701
 20
236.903503
 30
0.0
 40
2.5
  1
ESEGUIRE TRATTAMENTO DI TEMPRA SECONDO LA EN 60598-2-5 CON RAFFREDDAMENTO UNIFORME SU TUTTO IL VETRO
 41
0.8806457218274111
 72
     5
 11
571.90271
 21
236.903503
 31
0.0
100
AcDbText
  0
ENDBLK
  5
3A8
330
1FB
100
AcDbEntity
  8
0
100
AcDbBlockEnd
  0
BLOCK
  5
3A9
330
1FF
100
AcDbEntity
  8
0
100
AcDbBlockBegin
  2
BLOCK343
 70
     0
 10
0.0
 20
0.0
 30
0.0
  3
BLOCK343
  1

  0
TEXT
  5
1FD
330
1FF
100
AcDbEntity
  8
0
 62
     7
370
    15
390
F
100
AcDbText
 10
356.236633
 20
229.657303
 30
0.0
 40
2.5
  1
GLASS TEMPERED IN ACCORDANCE WITH EN 60598-2-5 with uniform cooling
 41
0.9128507434554974
 72
     5
 11
501.532043
 21
229.657303
 31
0.0
100
AcDbText
  0
ENDBLK
  5
3AA
330
1FF
100
AcDbEntity
  8
0
100
AcDbBlockEnd
  0
BLOCK
  5
3AB
330
203
100
AcDbEntity
  8
0
100
AcDbBlockBegin
  2
BLOCK344
 70
     0
 10
0.0
 20
0.0
 30
0.0
  3
BLOCK344
  1

  0
TEXT
  5
201
330
203
100
AcDbEntity
  8
0
 62
     7
370
    15
390
F
100
AcDbText
 10
356.236633
 20
219.407578
 30
0.0
 40
2.5
  1
DOPO TRATTAMENTO DI TEMPRA LA DUREZZA SUPERFICIALE DEVE ESSERE COSTANTE DAL CENTRO AL BORDO DEL VETRO
 41
0.8731996863787378
 72
     5
 11
575.264221
 21
219.407578
 31
0.0
100
AcDbText
  0
ENDBLK
  5
3AC
330
203
100
AcDbEntity
  8
0
100
AcDbBlockEnd
  0
BLOCK
  5
3AD
330
207
100
AcDbEntity
  8
0
100
AcDbBlockBegin
  2
BLOCK345
 70
     0
 10
0.0
 20
0.0
 30
0.0
  3
BLOCK345
  1

  0
TEXT
  5
205
330
207
100
AcDbEntity
  8
0
 62
     7
370
    15
390
F
100
AcDbText
 10
357.041351
 20
211.859558
 30
0.0
 40
2.5
  1
AFTER TEMPERING THE HARDNESS ON SURFACE MUST BE CONSTANT ON ALL GLASS
 41
0.8758981404878048
 72
     5
 11
506.67395
 21
211.859558
 31
0.0
100
AcDbText
  0
ENDBLK
  5
3AE
330
207
100
AcDbEntity
  8
0
100
AcDbBlockEnd
  0
BLOCK
  5
3AF
330
20B
100
AcDbEntity
  8
0
100
AcDbBlockBegin
  2
BLOCK346
 70
     0
 10
0.0
 20
0.0
 30
0.0
  3
BLOCK346
  1

  0
TEXT
  5
209
330
20B
100
AcDbEntity
  8
0
 62
     7
370
    15
390
F
100
AcDbText
 10
356.859283
 20
204.066757
 30
0.0
 40
2.5
  1
TOLLERANZA DI PLANARITA' DOPO TEMPRA: +/- 0,3mm
 41
0.9230817962264151
 72
     5
 11
458.782898
 21
204.066757
 31
0.0
100
AcDbText
  0
ENDBLK
  5
3B0
330
20B
100
AcDbEntity
  8
0
100
AcDbBlockEnd
  0
BLOCK
  5
3B1
330
20F
100
AcDbEntity
  8
0
100
AcDbBlockBegin
  2
BLOCK347
 70
     0
 10
0.0
 20
0.0
 30
0.0
  3
BLOCK347
  1

  0
TEXT
  5
20D
330
20F
100
AcDbEntity
  8
0
 62
     7
370
    15
390
F
100
AcDbText
 10
358.443268
 20
195.78775
 30
0.0
 40
2.5
  1
PLANARITY TOLERANCE AFTER TEMPERING: +/- 0,3mm
 41
0.9137863053435114
 72
     5
 11
458.198273
 21
195.78775
 31
0.0
100
AcDbText
  0
ENDBLK
  5
3B2
330
20F
100
AcDbEntity
  8
0
100
AcDbBlockEnd
  0
BLOCK
  5
3B3
330
213
100
AcDbEntity
  8
0
100
AcDbBlockBegin
  2
BLOCK348
 70
     0
 10
0.0
 20
0.0
 30
0.0
  3
BLOCK348
  1

  0
TEXT
  5
211
330
213
100
AcDbEntity
  8
0
 62
     7
370
    15
390
F
100
AcDbText
 10
358.051453
 20
383.934448
 30
0.0
 40
2.5
  1
RADIUS OF GRINDING R1,5 +/- 0,2mm
 41
0.9489067624309396
 72
     5
 11
429.614838
 21
383.934448
 31
0.0
100
AcDbText
  0
ENDBLK
  5
3B4
330
213
100
AcDbEntity
  8
0
100
AcDbBlockEnd
  0
BLOCK
  5
3B5
330
217
100
AcDbEntity
  8
0
100
AcDbBlockBegin
  2
BLOCK349
 70
     0
 10
0.0
 20
0.0
 30
0.0
  3
BLOCK349
  1

  0
TEXT
  5
215
330
217
100
AcDbEntity
  8
0
 62
     7
370
    15
390
F
100
AcDbText
 10
585.632568
 20
42.333332
 30
0.0
 40
2.0
  1
F
 41
1.301148000000012
 72
     5
 11
587.367432
 21
42.333332
 31
0.0
100
AcDbText
  0
ENDBLK
  5
3B6
330
217
100
AcDbEntity
  8
0
100
AcDbBlockEnd
  0
BLOCK
  5
3B7
330
21B
100
AcDbEntity
  8
0
100
AcDbBlockBegin
  2
BLOCK350
 70
     0
 10
0.0
 20
0.0
 30
0.0
  3
BLOCK350
  1

  0
TEXT
  5
219
330
21B
100
AcDbEntity
  8
0
 62
     7
370
    15
390
F
100
AcDbText
 10
47.401794
 20
411.5
 30
0.0
 40
2.0
  1
1
 41
2.602306499999997
 72
     5
 11
49.136665
 21
411.5
 31
0.0
100
AcDbText
  0
ENDBLK
  5
3B8
330
21B
100
AcDbEntity
  8
0
100
AcDbBlockEnd
  0
BLOCK
  5
3B9
330
21F
100
AcDbEntity
  8
0
100
AcDbBlockBegin
  2
BLOCK351
 70
     0
 10
0.0
 20
0.0
 30
0.0
  3
BLOCK351
  1

  0
TEXT
  5
21D
330
21F
100
AcDbEntity
  8
0
 62
     7
370
    15
390
F
100
AcDbText
 10
103.801796
 20
411.5
 30
0.0
 40
2.0
  1
2
 41
1.301153249999999
 72
     5
 11
105.536667
 21
411.5
 31
0.0
100
AcDbText
  0
ENDBLK
  5
3BA
330
21F
100
AcDbEntity
  8
0
100
AcDbBlockEnd
  0
BLOCK
  5
3BB
330
223
100
AcDbEntity
  8
0
100
AcDbBlockBegin
  2
BLOCK352
 70
     0
 10
0.0
 20
0.0
 30
0.0
  3
BLOCK352
  1

  0
TEXT
  5
221
330
223
100
AcDbEntity
  8
0
 62
     7
370
    15
390
F
100
AcDbText
 10
160.201797
 20
411.5
 30
0.0
 40
2.0
  1
3
 41
1.301147999999991
 72
     5
 11
161.936661
 21
411.5
 31
0.0
100
AcDbText
  0
ENDBLK
  5
3BC
330
223
100
AcDbEntity
  8
0
100
AcDbBlockEnd
  0
BLOCK
  5
3BD
330
227
100
AcDbEntity
  8
0
100
AcDbBlockBegin
  2
BLOCK353
 70
     0
 10
0.0
 20
0.0
 30
0.0
  3
BLOCK353
  1

  0
TEXT
  5
225
330
227
100
AcDbEntity
  8
0
 62
     7
370
    15
390
F
100
AcDbText
 10
216.601807
 20
411.5
 30
0.0
 40
2.0
  1
4
 41
1.301147249999993
 72
     5
 11
218.33667
 21
411.5
 31
0.0
100
AcDbText
  0
ENDBLK
  5
3BE
330
227
100
AcDbEntity
  8
0
100
AcDbBlockEnd
  0
BLOCK
  5
3BF
330
22B
100
AcDbEntity
  8
0
100
AcDbBlockBegin
  2
BLOCK354
 70
     0
 10
0.0
 20
0.0
 30
0.0
  3
BLOCK354
  1

  0
TEXT
  5
229
330
22B
100
AcDbEntity
  8
0
 62
     7
370
    15
390
F
100
AcDbText
 10
273.001801
 20
411.5
 30
0.0
 40
2.0
  1
5
 41
1.301147250000014
 72
     5
 11
274.736664
 21
411.5
 31
0.0
100
AcDbText
  0
ENDBLK
  5
3C0
330
22B
100
AcDbEntity
  8
0
100
AcDbBlockEnd
  0
BLOCK
  5
3C1
330
22F
100
AcDbEntity
  8
0
100
AcDbBlockBegin
  2
BLOCK355
 70
     0
 10
0.0
 20
0.0
 30
0.0
  3
BLOCK355
  1

  0
TEXT
  5
22D
330
22F
100
AcDbEntity
  8
0
 62
     7
370
    15
390
F
100
AcDbText
 10
329.401794
 20
411.5
 30
0.0
 40
2.0
  1
6
 41
1.301148000000012
 72
     5
 11
331.136658
 21
411.5
 31
0.0
100
AcDbText
  0
ENDBLK
  5
3C2
330
22F
100
AcDbEntity
  8
0
100
AcDbBlockEnd
  0
BLOCK
  5
3C3
330
233
100
AcDbEntity
  8
0
100
AcDbBlockBegin
  2
BLOCK356
 70
     0
 10
0.0
 20
0.0
 30
0.0
  3
BLOCK356
  1

  0
TEXT
  5
231
330
233
100
AcDbEntity
  8
0
 62
     7
370
    15
390
F
100
AcDbText
 10
385.801788
 20
411.5
 30
0.0
 40
2.0
  1
7
 41
1.301148000000012
 72
     5
 11
387.536652
 21
411.5
 31
0.0
100
AcDbText
  0
ENDBLK
  5
3C4
330
233
100
AcDbEntity
  8
0
100
AcDbBlockEnd
  0
BLOCK
  5
3C5
330
237
100
AcDbEntity
  8
0
100
AcDbBlockBegin
  2
BLOCK357
 70
     0
 10
0.0
 20
0.0
 30
0.0
  3
BLOCK357
  1

  0
TEXT
  5
235
330
237
100
AcDbEntity
  8
0
 62
     7
370
    15
390
F
100
AcDbText
 10
442.201813
 20
411.5
 30
0.0
 40
2.0
  1
8
 41
1.301147249999971
 72
     5
 11
443.936676
 21
411.5
 31
0.0
100
AcDbText
  0
ENDBLK
  5
3C6
330
237
100
AcDbEntity
  8
0
100
AcDbBlockEnd
  0
BLOCK
  5
3C7
330
23B
100
AcDbEntity
  8
0
100
AcDbBlockBegin
  2
BLOCK358
 70
     0
 10
0.0
 20
0.0
 30
0.0
  3
BLOCK358
  1

  0
TEXT
  5
239
330
23B
100
AcDbEntity
  8
0
 62
     7
370
    15
390
F
100
AcDbText
 10
498.601807
 20
411.5
 30
0.0
 40
2.0
  1
9
 41
1.301147250000014
 72
     5
 11
500.33667
 21
411.5
 31
0.0
100
AcDbText
  0
ENDBLK
  5
3C8
330
23B
100
AcDbEntity
  8
0
100
AcDbBlockEnd
  0
BLOCK
  5
3C9
330
23F
100
AcDbEntity
  8
0
100
AcDbBlockBegin
  2
BLOCK359
 70
     0
 10
0.0
 20
0.0
 30
0.0
  3
BLOCK359
  1

  0
TEXT
  5
23D
330
23F
100
AcDbEntity
  8
0
 62
     7
370
    15
390
F
100
AcDbText
 10
553.934326
 20
411.5
 30
0.0
 40
2.0
  1
10
 41
1.658464714285693
 72
     5
 11
557.804077
 21
411.5
 31
0.0
100
AcDbText
  0
ENDBLK
  5
3CA
330
23F
100
AcDbEntity
  8
0
100
AcDbBlockEnd
  0
BLOCK
  5
3CB
330
243
100
AcDbEntity
  8
0
100
AcDbBlockBegin
  2
BLOCK360
 70
     0
 10
0.0
 20
0.0
 30
0.0
  3
BLOCK360
  1

  0
TEXT
  5
241
330
243
100
AcDbEntity
  8
0
 62
     7
370
    15
390
F
100
AcDbText
 10
585.632568
 20
109.0
 30
0.0
 40
2.0
  1
E
 41
1.301148000000012
 72
     5
 11
587.367432
 21
109.0
 31
0.0
100
AcDbText
  0
ENDBLK
  5
3CC
330
243
100
AcDbEntity
  8
0
100
AcDbBlockEnd
  0
BLOCK
  5
3CD
330
247
100
AcDbEntity
  8
0
100
AcDbBlockBegin
  2
BLOCK361
 70
     0
 10
0.0
 20
0.0
 30
0.0
  3
BLOCK361
  1

  0
TEXT
  5
245
330
247
100
AcDbEntity
  8
0
 62
     7
370
    15
390
F
100
AcDbText
 10
585.632568
 20
175.666672
 30
0.0
 40
2.0
  1
D
 41
1.301148000000012
 72
     5
 11
587.367432
 21
175.666672
 31
0.0
100
AcDbText
  0
ENDBLK
  5
3CE
330
247
100
AcDbEntity
  8
0
100
AcDbBlockEnd
  0
BLOCK
  5
3CF
330
24B
100
AcDbEntity
  8
0
100
AcDbBlockBegin
  2
BLOCK362
 70
     0
 10
0.0
 20
0.0
 30
0.0
  3
BLOCK362
  1

  0
TEXT
  5
249
330
24B
100
AcDbEntity
  8
0
 62
     7
370
    15
390
F
100
AcDbText
 10
585.632568
 20
242.333328
 30
0.0
 40
2.0
  1
C
 41
1.301148000000012
 72
     5
 11
587.367432
 21
242.333328
 31
0.0
100
AcDbText
  0
ENDBLK
  5
3D0
330
24B
100
AcDbEntity
  8
0
100
AcDbBlockEnd
  0
BLOCK
  5
3D1
330
24F
100
AcDbEntity
  8
0
100
AcDbBlockBegin
  2
BLOCK363
 70
     0
 10
0.0
 20
0.0
 30
0.0
  3
BLOCK363
  1

  0
TEXT
  5
24D
330
24F
100
AcDbEntity
  8
0
 62
     7
370
    15
390
F
100
AcDbText
 10
585.632568
 20
309.0
 30
0.0
 40
2.0
  1
B
 41
1.301148000000012
 72
     5
 11
587.367432
 21
309.0
 31
0.0
100
AcDbText
  0
ENDBLK
  5
3D2
330
24F
100
AcDbEntity
  8
0
100
AcDbBlockEnd
  0
BLOCK
  5
3D3
330
253
100
AcDbEntity
  8
0
100
AcDbBlockBegin
  2
BLOCK364
 70
     0
 10
0.0
 20
0.0
 30
0.0
  3
BLOCK364
  1

  0
TEXT
  5
251
330
253
100
AcDbEntity
  8
0
 62
     7
370
    15
390
F
100
AcDbText
 10
585.632568
 20
375.666656
 30
0.0
 40
2.0
  1
A
 41
1.301148000000012
 72
     5
 11
587.367432
 21
375.666656
 31
0.0
100
AcDbText
  0
ENDBLK
  5
3D4
330
253
100
AcDbEntity
  8
0
100
AcDbBlockEnd
  0
BLOCK
  5
3D5
330
257
100
AcDbEntity
  8
0
100
AcDbBlockBegin
  2
BLOCK365
 70
     0
 10
0.0
 20
0.0
 30
0.0
  3
BLOCK365
  1

  0
TEXT
  5
255
330
257
100
AcDbEntity
  8
0
 62
     7
370
    15
390
F
100
AcDbText
 10
16.632565
 20
375.666656
 30
0.0
 40
2.0
  1
A
 41
1.301152500000001
 72
     5
 11
18.367435
 21
375.666656
 31
0.0
100
AcDbText
  0
ENDBLK
  5
3D6
330
257
100
AcDbEntity
  8
0
100
AcDbBlockEnd
  0
BLOCK
  5
3D7
330
25B
100
AcDbEntity
  8
0
100
AcDbBlockBegin
  2
BLOCK366
 70
     0
 10
0.0
 20
0.0
 30
0.0
  3
BLOCK366
  1

  0
TEXT
  5
259
330
25B
100
AcDbEntity
  8
0
 62
     7
370
    15
390
F
100
AcDbText
 10
16.632565
 20
309.0
 30
0.0
 40
2.0
  1
B
 41
1.301152500000001
 72
     5
 11
18.367435
 21
309.0
 31
0.0
100
AcDbText
  0
ENDBLK
  5
3D8
330
25B
100
AcDbEntity
  8
0
100
AcDbBlockEnd
  0
BLOCK
  5
3D9
330
25F
100
AcDbEntity
  8
0
100
AcDbBlockBegin
  2
BLOCK367
 70
     0
 10
0.0
 20
0.0
 30
0.0
  3
BLOCK367
  1

  0
TEXT
  5
25D
330
25F
100
AcDbEntity
  8
0
 62
     7
370
    15
390
F
100
AcDbText
 10
16.632565
 20
242.333328
 30
0.0
 40
2.0
  1
C
 41
1.301152500000001
 72
     5
 11
18.367435
 21
242.333328
 31
0.0
100
AcDbText
  0
ENDBLK
  5
3DA
330
25F
100
AcDbEntity
  8
0
100
AcDbBlockEnd
  0
BLOCK
  5
3DB
330
263
100
AcDbEntity
  8
0
100
AcDbBlockBegin
  2
BLOCK368
 70
     0
 10
0.0
 20
0.0
 30
0.0
  3
BLOCK368
  1

  0
TEXT
  5
261
330
263
100
AcDbEntity
  8
0
 62
     7
370
    15
390
F
100
AcDbText
 10
16.632565
 20
175.666672
 30
0.0
 40
2.0
  1
D
 41
1.301152500000001
 72
     5
 11
18.367435
 21
175.666672
 31
0.0
100
AcDbText
  0
ENDBLK
  5
3DC
330
263
100
AcDbEntity
  8
0
100
AcDbBlockEnd
  0
BLOCK
  5
3DD
330
267
100
AcDbEntity
  8
0
100
AcDbBlockBegin
  2
BLOCK369
 70
     0
 10
0.0
 20
0.0
 30
0.0
  3
BLOCK369
  1

  0
TEXT
  5
265
330
267
100
AcDbEntity
  8
0
 62
     7
370
    15
390
F
100
AcDbText
 10
16.632565
 20
109.0
 30
0.0
 40
2.0
  1
E
 41
1.301152500000001
 72
     5
 11
18.367435
 21
109.0
 31
0.0
100
AcDbText
  0
ENDBLK
  5
3DE
330
267
100
AcDbEntity
  8
0
100
AcDbBlockEnd
  0
BLOCK
  5
3DF
330
26B
100
AcDbEntity
  8
0
100
AcDbBlockBegin
  2
BLOCK370
 70
     0
 10
0.0
 20
0.0
 30
0.0
  3
BLOCK370
  1

  0
TEXT
  5
269
330
26B
100
AcDbEntity
  8
0
 62
     7
370
    15
390
F
100
AcDbText
 10
16.632565
 20
42.333332
 30
0.0
 40
2.0
  1
F
 41
1.301152500000001
 72
     5
 11
18.367435
 21
42.333332
 31
0.0
100
AcDbText
  0
ENDBLK
  5
3E0
330
26B
100
AcDbEntity
  8
0
100
AcDbBlockEnd
  0
BLOCK
  5
3E1
330
26F
100
AcDbEntity
  8
0
100
AcDbBlockBegin
  2
BLOCK371
 70
     0
 10
0.0
 20
0.0
 30
0.0
  3
BLOCK371
  1

  0
TEXT
  5
26D
330
26F
100
AcDbEntity
  8
0
 62
     7
370
    15
390
F
100
AcDbText
 10
553.934326
 20
6.5
 30
0.0
 40
2.0
  1
10
 41
1.658464714285693
 72
     5
 11
557.804077
 21
6.5
 31
0.0
100
AcDbText
  0
ENDBLK
  5
3E2
330
26F
100
AcDbEntity
  8
0
100
AcDbBlockEnd
  0
BLOCK
  5
3E3
330
273
100
AcDbEntity
  8
0
100
AcDbBlockBegin
  2
BLOCK372
 70
     0
 10
0.0
 20
0.0
 30
0.0
  3
BLOCK372
  1

  0
TEXT
  5
271
330
273
100
AcDbEntity
  8
0
 62
     7
370
    15
390
F
100
AcDbText
 10
498.601807
 20
6.5
 30
0.0
 40
2.0
  1
9
 41
1.301147250000014
 72
     5
 11
500.33667
 21
6.5
 31
0.0
100
AcDbText
  0
ENDBLK
  5
3E4
330
273
100
AcDbEntity
  8
0
100
AcDbBlockEnd
  0
BLOCK
  5
3E5
330
277
100
AcDbEntity
  8
0
100
AcDbBlockBegin
  2
BLOCK373
 70
     0
 10
0.0
 20
0.0
 30
0.0
  3
BLOCK373
  1

  0
TEXT
  5
275
330
277
100
AcDbEntity
  8
0
 62
     7
370
    15
390
F
100
AcDbText
 10
442.201813
 20
6.5
 30
0.0
 40
2.0
  1
8
 41
1.301147249999971
 72
     5
 11
443.936676
 21
6.5
 31
0.0
100
AcDbText
  0
ENDBLK
  5
3E6
330
277
100
AcDbEntity
  8
0
100
AcDbBlockEnd
  0
BLOCK
  5
3E7
330
27B
100
AcDbEntity
  8
0
100
AcDbBlockBegin
  2
BLOCK374
 70
     0
 10
0.0
 20
0.0
 30
0.0
  3
BLOCK374
  1

  0
TEXT
  5
279
330
27B
100
AcDbEntity
  8
0
 62
     7
370
    15
390
F
100
AcDbText
 10
385.801788
 20
6.5
 30
0.0
 40
2.0
  1
7
 41
1.301148000000012
 72
     5
 11
387.536652
 21
6.5
 31
0.0
100
AcDbText
  0
ENDBLK
  5
3E8
330
27B
100
AcDbEntity
  8
0
100
AcDbBlockEnd
  0
BLOCK
  5
3E9
330
27F
100
AcDbEntity
  8
0
100
AcDbBlockBegin
  2
BLOCK375
 70
     0
 10
0.0
 20
0.0
 30
0.0
  3
BLOCK375
  1

  0
TEXT
  5
27D
330
27F
100
AcDbEntity
  8
0
 62
     7
370
    15
390
F
100
AcDbText
 10
329.401794
 20
6.5
 30
0.0
 40
2.0
  1
6
 41
1.301148000000012
 72
     5
 11
331.136658
 21
6.5
 31
0.0
100
AcDbText
  0
ENDBLK
  5
3EA
330
27F
100
AcDbEntity
  8
0
100
AcDbBlockEnd
  0
BLOCK
  5
3EB
330
283
100
AcDbEntity
  8
0
100
AcDbBlockBegin
  2
BLOCK376
 70
     0
 10
0.0
 20
0.0
 30
0.0
  3
BLOCK376
  1

  0
TEXT
  5
281
330
283
100
AcDbEntity
  8
0
 62
     7
370
    15
390
F
100
AcDbText
 10
273.001801
 20
6.5
 30
0.0
 40
2.0
  1
5
 41
1.301147250000014
 72
     5
 11
274.736664
 21
6.5
 31
0.0
100
AcDbText
  0
ENDBLK
  5
3EC
330
283
100
AcDbEntity
  8
0
100
AcDbBlockEnd
  0
BLOCK
  5
3ED
330
287
100
AcDbEntity
  8
0
100
AcDbBlockBegin
  2
BLOCK377
 70
     0
 10
0.0
 20
0.0
 30
0.0
  3
BLOCK377
  1

  0
TEXT
  5
285
330
287
100
AcDbEntity
  8
0
 62
     7
370
    15
390
F
100
AcDbText
 10
216.601807
 20
6.5
 30
0.0
 40
2.0
  1
4
 41
1.301147249999993
 72
     5
 11
218.33667
 21
6.5
 31
0.0
100
AcDbText
  0
ENDBLK
  5
3EE
330
287
100
AcDbEntity
  8
0
100
AcDbBlockEnd
  0
BLOCK
  5
3EF
330
28B
100
AcDbEntity
  8
0
100
AcDbBlockBegin
  2
BLOCK378
 70
     0
 10
0.0
 20
0.0
 30
0.0
  3
BLOCK378
  1

  0
TEXT
  5
289
330
28B
100
AcDbEntity
  8
0
 62
     7
370
    15
390
F
100
AcDbText
 10
160.201797
 20
6.5
 30
0.0
 40
2.0
  1
3
 41
1.301147999999991
 72
     5
 11
161.936661
 21
6.5
 31
0.0
100
AcDbText
  0
ENDBLK
  5
3F0
330
28B
100
AcDbEntity
  8
0
100
AcDbBlockEnd
  0
BLOCK
  5
3F1
330
28F
100
AcDbEntity
  8
0
100
AcDbBlockBegin
  2
BLOCK379
 70
     0
 10
0.0
 20
0.0
 30
0.0
  3
BLOCK379
  1

  0
TEXT
  5
28D
330
28F
100
AcDbEntity
  8
0
 62
     7
370
    15
390
F
100
AcDbText
 10
103.801796
 20
6.5
 30
0.0
 40
2.0
  1
2
 41
1.301153249999999
 72
     5
 11
105.536667
 21
6.5
 31
0.0
100
AcDbText
  0
ENDBLK
  5
3F2
330
28F
100
AcDbEntity
  8
0
100
AcDbBlockEnd
  0
BLOCK
  5
3F3
330
293
100
AcDbEntity
  8
0
100
AcDbBlockBegin
  2
BLOCK380
 70
     0
 10
0.0
 20
0.0
 30
0.0
  3
BLOCK380
  1

  0
TEXT
  5
291
330
293
100
AcDbEntity
  8
0
 62
     7
370
    15
390
F
100
AcDbText
 10
47.401794
 20
6.5
 30
0.0
 40
2.0
  1
1
 41
2.602306499999997
 72
     5
 11
49.136665
 21
6.5
 31
0.0
100
AcDbText
  0
ENDBLK
  5
3F4
330
293
100
AcDbEntity
  8
0
100
AcDbBlockEnd
  0
BLOCK
  5
3F5
330
299
100
AcDbEntity
  8
0
100
AcDbBlockBegin
  2
BLOCK381
 70
     0
 10
0.0
 20
0.0
 30
0.0
  3
BLOCK381
  1

  0
TEXT
  5
295
330
299
100
AcDbEntity
  8
0
 62
     7
370
    15
390
F
100
AcDbText
 10
6.543763
 20
147.493759
 30
0.0
 40
2.0
  1
GEWISS SpA reserve all rights in this document and in the information
 50
90.00000287182327
 41
0.9401000261780119
 72
     5
 11
6.543757
 21
267.199829
 31
0.0
100
AcDbText
  0
TEXT
  5
296
330
299
100
AcDbEntity
  8
0
 62
     7
370
    15
390
F
100
AcDbText
 10
9.999094
 20
147.493759
 30
0.0
 40
2.0
  1
contained therein. Reproduction, use or disclosure to third parties
 50
90.00000246462413
 41
0.9527569180327877
 72
     5
 11
9.999089
 21
263.730103
 31
0.0
100
AcDbText
  0
TEXT
  5
297
330
299
100
AcDbEntity
  8
0
 62
     7
370
    15
390
F
100
AcDbText
 10
13.454425
 20
147.493759
 30
0.0
 40
2.0
  1
without written authorization is stricty forbidden
 50
90.0000026420769
 41
0.9638171777777785
 72
     5
 11
13.454421
 21
234.237305
 31
0.0
100
AcDbText
  0
ENDBLK
  5
3F6
330
299
100
AcDbEntity
  8
0
100
AcDbBlockEnd
  0
BLOCK
  5
3F7
330
29F
100
AcDbEntity
  8
0
100
AcDbBlockBegin
  2
BLOCK382
 70
     0
 10
0.0
 20
0.0
 30
0.0
  3
BLOCK382
  1

  0
TEXT
  5
29B
330
29F
100
AcDbEntity
  8
0
 62
     7
370
    15
390
F
100
AcDbText
 10
6.701831
 20
9.96806
 30
0.0
 40
2.0
  1
GEWISS SpA si riserva tutti i diritti sul presente documento
 50
90.00000275216357
 41
0.954974770642203
 72
     5
 11
6.701826
 21
114.06031
 31
0.0
100
AcDbText
  0
TEXT
  5
29C
330
29F
100
AcDbEntity
  8
0
 62
     7
370
    15
390
F
100
AcDbText
 10
10.157163
 20
9.96806
 30
0.0
 40
2.0
  1
e con quanto rappresentato.E'vietato riprodurlo,utilizzarlo
 50
90.00000279881041
 41
0.9686818201892755
 72
     5
 11
10.157158
 21
112.325439
 31
0.0
100
AcDbText
  0
TEXT
  5
29D
330
29F
100
AcDbEntity
  8
0
 62
     7
370
    15
390
F
100
AcDbText
 10
13.612494
 20
9.968061
 30
0.0
 40
2.0
  1
renderlo accessibile a terzi senza autorizzazione scritta
 50
90.0000028970143
 41
0.9569771322580658
 72
     5
 11
13.612489
 21
108.855698
 31
0.0
100
AcDbText
  0
ENDBLK
  5
3F8
330
29F
100
AcDbEntity
  8
0
100
AcDbBlockEnd
  0
BLOCK
  5
3F9
330
2AA
100
AcDbEntity
  8
0
100
AcDbBlockBegin
  2
BLOCK383
 70
     0
 10
0.0
 20
0.0
 30
0.0
  3
BLOCK383
  1

  0
SOLID
  5
2A1
330
2AA
100
AcDbEntity
  8
0
 62
     7
370
    15
390
F
100
AcDbTrace
 10
-137.39534
 20
209.636292
 30
0.0
 11
-138.430618
 21
213.5
 31
0.0
 12
-137.39534
 22
209.636292
 32
0.0
 13
-139.465897
 23
209.636292
 33
0.0
  0
SOLID
  5
2A2
330
2AA
100
AcDbEntity
  8
0
 62
     7
370
    15
390
F
100
AcDbTrace
 10
-139.465897
 20
3.863703
 30
0.0
 11
-138.430618
 21
0.0
 31
0.0
 12
-139.465897
 22
3.863703
 32
0.0
 13
-137.39534
 23
3.863703
 33
0.0
  0
TEXT
  5
2A3
330
2AA
100
AcDbEntity
  8
0
 62
     7
370
    15
390
F
100
AcDbText
 10
-142.430618
 20
77.810722
 30
0.0
 40
6.0
  1
213.5
 50
90.0
 41
1.401048136363636
 72
     5
 11
-142.430618
 21
108.633781
 31
0.0
100
AcDbText
  0
TEXT
  5
2A4
330
2AA
100
AcDbEntity
  8
0
 62
     7
370
    15
390
F
100
AcDbText
 10
-143.330612
 20
112.23378
 30
0.0
 40
4.2
  1
%%p2
 50
90.0
 41
1.160921285714287
 72
     5
 11
-143.330612
 21
120.360229
 31
0.0
100
AcDbText
  0
LINE
  5
2A5
330
2AA
100
AcDbEntity
  8
0
 62
     7
370
    15
390
F
100
AcDbLine
 10
-6.55
 20
213.5
 30
0.0
 11
-142.430618
 21
213.5
 31
0.0
  0
LINE
  5
2A6
330
2AA
100
AcDbEntity
  8
0
 62
     7
370
    15
390
F
100
AcDbLine
 10
-138.430618
 20
3.863703
 30
0.0
 11
-138.430618
 21
209.636292
 31
0.0
  0
LWPOLYLINE
  5
2A7
330
2AA
100
AcDbEntity
  8
0
 62
     7
370
    15
390
F
100
AcDbPolyline
 90
        3
 70
     1
 43
0.0
 10
-137.39534
 20
209.636292
 10
-138.430618
 20
213.5
 10
-139.465897
 20
209.636292
  0
LWPOLYLINE
  5
2A8
330
2AA
100
AcDbEntity
  8
0
 62
     7
370
    15
390
F
100
AcDbPolyline
 90
        3
 70
     1
 43
0.0
 10
-139.465897
 20
3.863703
 10
-138.430618
 20
0.0
 10
-137.39534
 20
3.863703
  0
ENDBLK
  5
3FA
330
2AA
100
AcDbEntity
  8
0
100
AcDbBlockEnd
  0
BLOCK
  5
3FB
330
2B8
100
AcDbEntity
  8
0
100
AcDbBlockBegin
  2
BLOCK384
 70
     0
 10
0.0
 20
0.0
 30
0.0
  3
BLOCK384
  1

  0
SOLID
  5
2AC
330
2B8
100
AcDbEntity
  8
0
 62
     7
370
    15
390
F
100
AcDbTrace
 10
-3.512952
 20
206.945984
 30
0.0
 11
-2.066833
 21
210.67543
 31
0.0
 12
-3.512952
 22
206.945984
 32
0.0
 13
-5.183929
 23
208.168701
 33
0.0
  0
SOLID
  5
2AD
330
2B8
100
AcDbEntity
  8
0
 62
     7
370
    15
390
F
100
AcDbTrace
 10
3.512952
 20
220.054016
 30
0.0
 11
2.066833
 21
216.32457
 31
0.0
 12
3.512952
 22
220.054016
 32
0.0
 13
5.183929
 23
218.831299
 33
0.0
  0
TEXT
  5
2AE
330
2B8
100
AcDbEntity
  8
0
 62
     7
370
    15
390
F
100
AcDbText
 10
35.481014
 20
273.842865
 30
0.0
 40
6.0
  1
7
 50
53.80599354277908
 41
1.301158932313798
 72
     5
 11
38.554462
 21
278.043121
 31
0.0
100
AcDbText
  0
TEXT
  5
2AF
330
2B8
100
AcDbEntity
  8
0
 62
     7
370
    15
390
F
100
AcDbText
 10
36.806648
 20
283.782898
 30
0.0
 40
4.2
  1
+0.2
 50
53.80579797848212
 41
1.436377899589514
 72
     5
 11
46.900414
 21
297.577209
 31
0.0
100
AcDbText
  0
TEXT
  5
2B0
330
2B8
100
AcDbEntity
  8
0
 62
     7
370
    15
390
F
100
AcDbText
 10
43.101406
 20
279.176819
 30
0.0
 40
4.2
  1
 0
 50
53.80586342354975
 41
0.7739491816506046
 72
     5
 11
47.900272
 21
285.735046
 31
0.0
100
AcDbText
  0
TEXT
  5
2B1
330
2B8
100
AcDbEntity
  8
0
 62
     7
370
    15
390
F
100
AcDbText
 10
30.756826
 20
267.386749
 30
0.0
 40
6.0
  1
%%c
 50
53.80570192974268
 41
1.499996127012773
 72
     5
 11
34.299969
 21
272.228851
 31
0.0
100
AcDbText
  0
LINE
  5
2B2
330
2B8
100
AcDbEntity
  8
0
 62
     7
 48
0.153407
370
    15
390
F
100
AcDbLine
 10
-7.972068
 20
202.605225
 30
0.0
 11
-4.34844
 21
207.557343
 31
0.0
  0
LINE
  5
2B3
330
2B8
100
AcDbEntity
  8
0
 62
     7
 48
0.175
370
    15
390
F
100
AcDbLine
 10
-2.066832
 20
210.67543
 30
0.0
 11
2.066831
 21
216.32457
 31
0.0
  0
LINE
  5
2B4
330
2B8
100
AcDbEntity
  8
0
 62
     7
370
    15
390
F
100
AcDbLine
 10
4.348439
 20
219.442657
 30
0.0
 11
56.423256
 21
290.60907
 31
0.0
  0
LWPOLYLINE
  5
2B5
330
2B8
100
AcDbEntity
  8
0
 62
     7
370
    15
390
F
100
AcDbPolyline
 90
        3
 70
     1
 43
0.0
 10
-3.512952
 20
206.945984
 10
-2.066833
 20
210.67543
 10
-5.183929
 20
208.168701
  0
LWPOLYLINE
  5
2B6
330
2B8
100
AcDbEntity
  8
0
 62
     7
370
    15
390
F
100
AcDbPolyline
 90
        3
 70
     1
 43
0.0
 10
3.512952
 20
220.054016
 10
2.066833
 20
216.32457
 10
5.183929
 20
218.831299
  0
ENDBLK
  5
3FC
330
2B8
100
AcDbEntity
  8
0
100
AcDbBlockEnd
  0
BLOCK
  5
3FD
330
2C3
100
AcDbEntity
  8
0
100
AcDbBlockBegin
  2
BLOCK385
 70
     0
 10
0.0
 20
0.0
 30
0.0
  3
BLOCK385
  1

  0
SOLID
  5
2BA
330
2C3
100
AcDbEntity
  8
0
 62
     7
370
    15
390
F
100
AcDbTrace
 10
-183.022018
 20
-135.359879
 30
0.0
 11
-185.498581
 21
-138.501007
 31
0.0
 12
-183.022018
 22
-135.359879
 32
0.0
 13
-181.783249
 23
-137.018997
 33
0.0
  0
SOLID
  5
2BB
330
2C3
100
AcDbEntity
  8
0
 62
     7
370
    15
390
F
100
AcDbTrace
 10
183.022018
 20
135.359879
 30
0.0
 11
185.498581
 21
138.501007
 31
0.0
 12
183.022018
 22
135.359879
 32
0.0
 13
181.783249
 23
137.018997
 33
0.0
  0
TEXT
  5
2BC
330
2C3
100
AcDbEntity
  8
0
 62
     7
370
    15
390
F
100
AcDbText
 10
32.825603
 20
29.500923
 30
0.0
 40
6.0
  1
463
 50
36.74654924494256
 41
1.12586475902262
 72
     5
 11
47.259907
 21
40.278175
 31
0.0
100
AcDbText
  0
TEXT
  5
2BD
330
2C3
100
AcDbEntity
  8
0
 62
     7
370
    15
390
F
100
AcDbText
 10
49.606102
 20
43.15313
 30
0.0
 40
4.2
  1
%%p0.8
 50
36.74656265058691
 41
1.436379008541592
 72
     5
 11
63.302475
 21
53.379417
 31
0.0
100
AcDbText
  0
TEXT
  5
2BE
330
2C3
100
AcDbEntity
  8
0
 62
     7
370
    15
390
F
100
AcDbText
 10
26.415285
 20
24.71471
 30
0.0
 40
6.0
  1
%%c
 50
36.74654163284156
 41
1.499999826453531
 72
     5
 11
31.223024
 21
28.304367
 31
0.0
100
AcDbText
  0
LINE
  5
2BF
330
2C3
100
AcDbEntity
  8
0
 62
     7
370
    15
390
F
100
AcDbLine
 10
-182.402634
 20
-136.189438
 30
0.0
 11
182.402634
 21
136.189438
 31
0.0
  0
LWPOLYLINE
  5
2C0
330
2C3
100
AcDbEntity
  8
0
 62
     7
370
    15
390
F
100
AcDbPolyline
 90
        3
 70
     1
 43
0.0
 10
-183.022018
 20
-135.359879
 10
-185.498581
 20
-138.501007
 10
-181.783249
 20
-137.018997
  0
LWPOLYLINE
  5
2C1
330
2C3
100
AcDbEntity
  8
0
 62
     7
370
    15
390
F
100
AcDbPolyline
 90
        3
 70
     1
 43
0.0
 10
183.022018
 20
135.359879
 10
185.498581
 20
138.501007
 10
181.783249
 20
137.018997
  0
ENDBLK
  5
3FE
330
2C3
100
AcDbEntity
  8
0
100
AcDbBlockEnd
  0
BLOCK
  5
3FF
330
2C8
100
AcDbEntity
  8
0
100
AcDbBlockBegin
  2
BLOCK386
 70
     0
 10
0.0
 20
0.0
 30
0.0
  3
BLOCK386
  1

  0
LINE
  5
2C5
330
2C8
100
AcDbEntity
  8
0
  6
DASHDOT
 62
     7
 48
0.2275
370
    15
390
F
100
AcDbLine
 10
4.55
 20
213.5
 30
0.0
 11
-4.55
 21
213.5
 31
0.0
  0
LINE
  5
2C6
330
2C8
100
AcDbEntity
  8
0
  6
DASHDOT
 62
     7
 48
0.2275
370
    15
390
F
100
AcDbLine
 10
0.0
 20
218.050003
 30
0.0
 11
0.0
 21
208.949997
 31
0.0
  0
ENDBLK
  5
400
330
2C8
100
AcDbEntity
  8
0
100
AcDbBlockEnd
  0
BLOCK
  5
401
330
2CD
100
AcDbEntity
  8
0
100
AcDbBlockBegin
  2
BLOCK387
 70
     0
 10
0.0
 20
0.0
 30
0.0
  3
BLOCK387
  1

  0
LINE
  5
2CA
330
2CD
100
AcDbEntity
  8
0
  6
DASHDOT
 62
     7
370
    15
390
F
100
AcDbLine
 10
300.950012
 20
0.0
 30
0.0
 11
-300.950012
 21
0.0
 31
0.0
  0
LINE
  5
2CB
330
2CD
100
AcDbEntity
  8
0
  6
DASHDOT
 62
     7
370
    15
390
F
100
AcDbLine
 10
0.0
 20
300.950012
 30
0.0
 11
0.0
 21
-300.950012
 31
0.0
  0
ENDBLK
  5
402
330
2CD
100
AcDbEntity
  8
0
100
AcDbBlockEnd
  0
BLOCK
  5
403
330
2D3
100
AcDbEntity
  8
0
100
AcDbBlockBegin
  2
BLOCK388
 70
     0
 10
0.0
 20
0.0
 30
0.0
  3
BLOCK388
  1

  0
CIRCLE
  5
2CF
330
2D3
100
AcDbEntity
  8
0
 62
     7
370
    40
390
F
100
AcDbCircle
 10
0.0
 20
213.5
 30
0.0
 40
3.5
  0
CIRCLE
  5
2D0
330
2D3
100
AcDbEntity
  8
0
 62
     7
370
    15
390
F
100
AcDbCircle
 10
0.0
 20
0.0
 30
0.0
 40
230.0
  0
CIRCLE
  5
2D1
330
2D3
100
AcDbEntity
  8
0
 62
     7
370
    40
390
F
100
AcDbCircle
 10
0.0
 20
0.0
 30
0.0
 40
231.5
  0
ENDBLK
  5
404
330
2D3
100
AcDbEntity
  8
0
100
AcDbBlockEnd
  0
BLOCK
  5
405
330
2D9
100
AcDbEntity
  8
0
100
AcDbBlockBegin
  2
BLOCK389
 70
     0
 10
0.0
 20
0.0
 30
0.0
  3
BLOCK389
  1

  0
TEXT
  5
2D5
330
2D9
100
AcDbEntity
  8
0
 62
     7
370
    15
390
F
100
AcDbText
 10
51.148499
 20
314.465179
 30
0.0
 40
5.0
  1
RAGGIO DI MOLATURA R 1,5 +/- 0,2mm
 41
0.9362790031746031
 72
     5
 11
198.612442
 21
314.465179
 31
0.0
100
AcDbText
  0
LWPOLYLINE
  5
2D6
330
2D9
100
AcDbEntity
  8
0
 62
     7
370
    15
390
F
100
AcDbPolyline
 90
        3
 70
     0
 43
0.0
 10
3.799503
 20
230.749191
 10
45.148499
 20
312.764893
 10
198.612442
 20
312.764893
  0
LWPOLYLINE
  5
2D7
330
2D9
100
AcDbEntity
  8
0
 62
     7
370
    15
390
F
100
AcDbPolyline
 90
        3
 70
     0
 43
0.0
 10
4.643188
 20
234.803436
 10
3.799503
 20
230.749191
 10
6.557281
 20
233.83844
  0
ENDBLK
  5
406
330
2D9
100
AcDbEntity
  8
0
100
AcDbBlockEnd
  0
BLOCK
  5
407
330
2E7
100
AcDbEntity
  8
0
100
AcDbBlockBegin
  2
BLOCK390
 70
     0
 10
0.0
 20
0.0
 30
0.0
  3
BLOCK390
  1

  0
SOLID
  5
2DB
330
2E7
100
AcDbEntity
  8
0
 62
     7
370
    15
390
F
100
AcDbTrace
 10
-3.863703
 20
278.391144
 30
0.0
 11
0.0
 21
279.426422
 31
0.0
 12
-3.863703
 22
278.391144
 32
0.0
 13
-3.863703
 23
280.4617
 33
0.0
  0
SOLID
  5
2DC
330
2E7
100
AcDbEntity
  8
0
 62
     7
370
    15
390
F
100
AcDbTrace
 10
7.863703
 20
280.4617
 30
0.0
 11
4.0
 21
279.426422
 31
0.0
 12
7.863703
 22
280.4617
 32
0.0
 13
7.863703
 23
278.391144
 33
0.0
  0
TEXT
  5
2DD
330
2E7
100
AcDbEntity
  8
0
 62
     7
370
    15
390
F
100
AcDbText
 10
-56.716827
 20
283.426422
 30
0.0
 40
6.0
  1
4
 41
1.301153000000001
 72
     5
 11
-51.512215
 21
283.426422
 31
0.0
100
AcDbText
  0
TEXT
  5
2DE
330
2E7
100
AcDbEntity
  8
0
 62
     7
370
    15
390
F
100
AcDbText
 10
-47.912216
 20
284.326416
 30
0.0
 40
4.2
  1
%%p0.3
 41
1.436379075630252
 72
     5
 11
-30.819305
 21
284.326416
 31
0.0
100
AcDbText
  0
LINE
  5
2DF
330
2E7
100
AcDbEntity
  8
0
 62
     7
370
    15
390
F
100
AcDbLine
 10
0.0
 20
232.0
 30
0.0
 11
0.0
 21
283.426422
 31
0.0
  0
LINE
  5
2E0
330
2E7
100
AcDbEntity
  8
0
 62
     7
370
    15
390
F
100
AcDbLine
 10
4.0
 20
232.0
 30
0.0
 11
4.0
 21
283.426422
 31
0.0
  0
LINE
  5
2E1
330
2E7
100
AcDbEntity
  8
0
 62
     7
370
    15
390
F
100
AcDbLine
 10
-56.716827
 20
279.426422
 30
0.0
 11
-3.863703
 21
279.426422
 31
0.0
  0
LINE
  5
2E2
330
2E7
100
AcDbEntity
  8
0
 62
     7
 48
0.1
370
    15
390
F
100
AcDbLine
 10
0.0
 20
279.426422
 30
0.0
 11
4.0
 21
279.426422
 31
0.0
  0
LINE
  5
2E3
330
2E7
100
AcDbEntity
  8
0
 62
     7
 48
0.153407
370
    15
390
F
100
AcDbLine
 10
7.863703
 20
279.426422
 30
0.0
 11
14.0
 21
279.426422
 31
0.0
  0
LWPOLYLINE
  5
2E4
330
2E7
100
AcDbEntity
  8
0
 62
     7
370
    15
390
F
100
AcDbPolyline
 90
        3
 70
     1
 43
0.0
 10
-3.863703
 20
278.391144
 10
0.0
 20
279.426422
 10
-3.863703
 20
280.4617
  0
LWPOLYLINE
  5
2E5
330
2E7
100
AcDbEntity
  8
0
 62
     7
370
    15
390
F
100
AcDbPolyline
 90
        3
 70
     1
 43
0.0
 10
7.863703
 20
280.4617
 10
4.0
 20
279.426422
 10
7.863703
 20
278.391144
  0
ENDBLK
  5
408
330
2E7
100
AcDbEntity
  8
0
100
AcDbBlockEnd
  0
BLOCK
  5
409
330
2F8
100
AcDbEntity
  8
0
100
AcDbBlockBegin
  2
BLOCK391
 70
     0
 10
0.0
 20
0.0
 30
0.0
  3
BLOCK391
  1

  0
LINE
  5
2E9
330
2F8
100
AcDbEntity
  8
0
 62
     7
370
    40
390
F
100
AcDbLine
 10
4.0
 20
-230.0
 30
0.0
 11
4.0
 21
0.0
 31
0.0
  0
LINE
  5
2EA
330
2F8
100
AcDbEntity
  8
0
 62
     7
370
    40
390
F
100
AcDbLine
 10
4.0
 20
0.0
 30
0.0
 11
4.0
 21
230.0
 31
0.0
  0
LINE
  5
2EB
330
2F8
100
AcDbEntity
  8
0
 62
     7
370
    15
390
F
100
AcDbLine
 10
2.5
 20
-231.5
 30
0.0
 11
2.5
 21
0.0
 31
0.0
  0
LINE
  5
2EC
330
2F8
100
AcDbEntity
  8
0
 62
     7
370
    15
390
F
100
AcDbLine
 10
2.5
 20
0.0
 30
0.0
 11
2.5
 21
231.5
 31
0.0
  0
LINE
  5
2ED
330
2F8
100
AcDbEntity
  8
0
 62
     7
370
    40
390
F
100
AcDbLine
 10
0.0
 20
-230.0
 30
0.0
 11
0.0
 21
0.0
 31
0.0
  0
LINE
  5
2EE
330
2F8
100
AcDbEntity
  8
0
 62
     7
370
    40
390
F
100
AcDbLine
 10
0.0
 20
0.0
 30
0.0
 11
0.0
 21
230.0
 31
0.0
  0
LINE
  5
2EF
330
2F8
100
AcDbEntity
  8
0
 62
     7
370
    15
390
F
100
AcDbLine
 10
1.5
 20
0.0
 30
0.0
 11
1.5
 21
231.5
 31
0.0
  0
LINE
  5
2F0
330
2F8
100
AcDbEntity
  8
0
 62
     7
370
    15
390
F
100
AcDbLine
 10
1.5
 20
-231.5
 30
0.0
 11
1.5
 21
0.0
 31
0.0
  0
ARC
  5
2F1
330
2F8
100
AcDbEntity
  8
0
 62
     7
370
    40
390
F
100
AcDbCircle
 10
2.5
 20
-230.0
 30
0.0
 40
1.5
100
AcDbArc
 50
269.999997
 51
0.0
  0
ARC
  5
2F2
330
2F8
100
AcDbEntity
  8
0
 62
     7
370
    40
390
F
100
AcDbCircle
 10
2.5
 20
230.0
 30
0.0
 40
1.5
100
AcDbArc
 50
0.0
 51
90.000003
  0
LINE
  5
2F3
330
2F8
100
AcDbEntity
  8
0
 62
     7
 48
0.025
370
    40
390
F
100
AcDbLine
 10
1.5
 20
231.5
 30
0.0
 11
2.5
 21
231.5
 31
0.0
  0
LINE
  5
2F4
330
2F8
100
AcDbEntity
  8
0
 62
     7
 48
0.025
370
    40
390
F
100
AcDbLine
 10
1.5
 20
-231.5
 30
0.0
 11
2.5
 21
-231.5
 31
0.0
  0
ARC
  5
2F5
330
2F8
100
AcDbEntity
  8
0
 62
     7
370
    40
390
F
100
AcDbCircle
 10
1.5
 20
-230.0
 30
0.0
 40
1.5
100
AcDbArc
 50
180.000005
 51
269.999997
  0
ARC
  5
2F6
330
2F8
100
AcDbEntity
  8
0
 62
     7
370
    40
390
F
100
AcDbCircle
 10
1.5
 20
230.0
 30
0.0
 40
1.5
100
AcDbArc
 50
90.000003
 51
179.999995
  0
ENDBLK
  5
40A
330
2F8
100
AcDbEntity
  8
0
100
AcDbBlockEnd
  0
BLOCK
  5
40B
330
303
100
AcDbEntity
  8
0
100
AcDbBlockBegin
  2
*D57
 70
     1
 10
0.0
 20
0.0
 30
0.0
  3
*D57
  1

  0
POINT
  5
2FA
330
303
100
AcDbEntity
  8
DEFPOINTS
  6
ByBlock
 62
     0
380
     1
100
AcDbPoint
 10
63.60104332614419
 20
161.0662975546373
 30
0.0
  0
POINT
  5
2FB
330
303
100
AcDbEntity
  8
DEFPOINTS
  6
ByBlock
 62
     0
380
     1
100
AcDbPoint
 10
239.1676385683364
 20
311.7520586257395
 30
0.0
  0
LINE
  5
2FC
330
303
100
AcDbEntity
  8
0
  6
ByBlock
 62
     0
370
    -2
380
     1
100
AcDbLine
 10
64.00809946569834
 20
160.5920293823431
 30
0.0
 11
64.4151556052525
 21
160.1177612100489
 31
0.0
  0
LINE
  5
2FD
330
303
100
AcDbEntity
  8
0
  6
ByBlock
 62
     0
370
    -2
380
     1
100
AcDbLine
 10
239.5746947078906
 20
311.2777904534453
 30
0.0
 11
239.9817508474447
 21
310.8035222811511
 31
0.0
  0
LINE
  5
2FE
330
303
100
AcDbEntity
  8
0
  6
ByBlock
 62
     0
370
    -2
380
     1
100
AcDbLine
 10
65.49811601532099
 20
162.6945221128539
 30
0.0
 11
237.2705658791596
 21
310.1238340675229
 31
0.0
  0
SOLID
  5
2FF
330
303
100
AcDbEntity
  8
0
  6
ByBlock
 62
     0
380
     1
100
AcDbTrace
 10
63.60104332614421
 20
161.0662975546373
 30
0.0
 11
65.76948677502375
 21
162.3783433313244
 31
0.0
 12
65.22674525561823
 22
163.0107008943833
 32
0.0
 13
65.22674525561823
 23
163.0107008943833
 33
0.0
  0
SOLID
  5
300
330
303
100
AcDbEntity
  8
0
  6
ByBlock
 62
     0
380
     1
100
AcDbTrace
 10
239.1676385683364
 20
311.7520586257395
 30
0.0
 11
237.5419366388624
 21
309.8076552859935
 31
0.0
 12
236.9991951194569
 22
310.4400128490524
 32
0.0
 13
236.9991951194569
 23
310.4400128490524
 33
0.0
  0
MTEXT
  5
301
330
303
100
AcDbEntity
  8
0
  6
ByBlock
 62
     0
370
    -2
380
     1
100
AcDbMText
 10
150.081761300667
 20
237.9268362415298
 30
0.0
 40
2.499999999999996
 41
0.0
 71
     5
 72
     1
  1
\A1;231,37
 11
0.7588290756707146
 21
0.6512898232866298
 31
0.0
 73
     1
 44
1.0
  0
ENDBLK
  5
40C
330
303
100
AcDbEntity
  8
0
100
AcDbBlockEnd
  0
BLOCK
  5
40D
330
312
100
AcDbEntity
  8
0
100
AcDbBlockBegin
  2
Vetro diametro 463 Halle
 70
     0
 10
0.0
 20
0.0
 30
0.0
  3
Vetro diametro 463 Halle
  1

  0
CIRCLE
  5
305
330
312
100
AcDbEntity
  8
0
 62
     7
370
    60
390
F
100
AcDbCircle
 10
153.957184
 20
340.161514
 30
0.0
 40
1.75
  0
CIRCLE
  5
306
330
312
100
AcDbEntity
  8
0
 62
     7
370
    60
390
F
100
AcDbCircle
 10
153.957184
 20
233.411514
 30
0.0
 40
115.75
  0
LINE
  5
307
330
312
100
AcDbEntity
  8
0
 62
     7
370
    60
390
F
100
AcDbLine
 10
333.578217
 20
118.411514
 30
0.0
 11
333.578217
 21
233.411514
 31
0.0
  0
LINE
  5
308
330
312
100
AcDbEntity
  8
0
 62
     7
370
    60
390
F
100
AcDbLine
 10
333.578217
 20
233.411514
 30
0.0
 11
333.578217
 21
348.411514
 31
0.0
  0
LINE
  5
309
330
312
100
AcDbEntity
  8
0
 62
     7
370
    60
390
F
100
AcDbLine
 10
331.578217
 20
118.411514
 30
0.0
 11
331.578217
 21
233.411514
 31
0.0
  0
LINE
  5
30A
330
312
100
AcDbEntity
  8
0
 62
     7
370
    60
390
F
100
AcDbLine
 10
331.578217
 20
233.411514
 30
0.0
 11
331.578217
 21
348.411514
 31
0.0
  0
ARC
  5
30B
330
312
100
AcDbEntity
  8
0
 62
     7
370
    60
390
F
100
AcDbCircle
 10
332.828217
 20
118.411514
 30
0.0
 40
0.750000000000001
100
AcDbArc
 50
269.999996999998
 51
359.999999999998
  0
ARC
  5
30C
330
312
100
AcDbEntity
  8
0
 62
     7
370
    60
390
F
100
AcDbCircle
 10
332.828217
 20
348.411514
 30
0.0
 40
0.75
100
AcDbArc
 50
0.0
 51
90.00000300000004
  0
LINE
  5
30D
330
312
100
AcDbEntity
  8
0
 62
     7
 48
0.025
370
    60
390
F
100
AcDbLine
 10
332.328217
 20
349.161514
 30
0.0
 11
332.828217
 21
349.161514
 31
0.0
  0
LINE
  5
30E
330
312
100
AcDbEntity
  8
0
 62
     7
 48
0.025
370
    60
390
F
100
AcDbLine
 10
332.328217
 20
117.661514
 30
0.0
 11
332.828217
 21
117.661514
 31
0.0
  0
ARC
  5
30F
330
312
100
AcDbEntity
  8
0
 62
     7
370
    60
390
F
100
AcDbCircle
 10
332.328217
 20
118.411514
 30
0.0
 40
0.7500000000000029
100
AcDbArc
 50
180.0000050000005
 51
269.9999970000005
  0
ARC
  5
310
330
312
100
AcDbEntity
  8
0
 62
     7
370
    60
390
F
100
AcDbCircle
 10
332.328217
 20
348.411514
 30
0.0
 40
0.750000000000001
100
AcDbArc
 50
90.00000300000205
 51
179.999995000002
  0
ENDBLK
  5
40E
330
312
100
AcDbEntity
  8
0
100
AcDbBlockEnd
  0
BLOCK
  5
40F
330
31F
100
AcDbEntity
  8
0
100
AcDbBlockBegin
  2
*D59
 70
     1
 10
0.0
 20
0.0
 30
0.0
  3
*D59
  1

  0
POINT
  5
316
330
31F
100
AcDbEntity
  8
DEFPOINTS
  6
ByBlock
 62
     0
380
     1
100
AcDbPoint
 10
148.9195744704794
 20
298.5586359543117
 30
0.0
  0
POINT
  5
317
330
31F
100
AcDbEntity
  8
DEFPOINTS
  6
ByBlock
 62
     0
380
     1
100
AcDbPoint
 10
470.8716189310971
 20
631.252904752917
 30
0.0
  0
LINE
  5
318
330
31F
100
AcDbEntity
  8
0
  6
ByBlock
 62
     0
370
    -2
380
     1
100
AcDbLine
 10
148.4704412836482
 20
298.9932672698964
 30
0.0
 11
137.0173786578272
 21
310.0765268073509
 31
0.0
  0
LINE
  5
319
330
31F
100
AcDbEntity
  8
0
  6
ByBlock
 62
     0
370
    -2
380
     1
100
AcDbLine
 10
470.4224857442659
 20
631.6875360685016
 30
0.0
 11
458.9694231184448
 21
642.7707956059561
 31
0.0
  0
LINE
  5
31A
330
31F
100
AcDbEntity
  8
0
  6
ByBlock
 62
     0
370
    -2
380
     1
100
AcDbLine
 10
139.6541702938282
 20
311.0037969235063
 30
0.0
 11
458.1291642297685
 21
640.1050002274619
 31
0.0
  0
SOLID
  5
31B
330
31F
100
AcDbEntity
  8
0
  6
ByBlock
 62
     0
380
     1
100
AcDbTrace
 10
137.9156450314895
 20
309.2072641761816
 30
0.0
 11
139.9535924183823
 21
310.7140427131166
 31
0.0
 12
139.3547481692741
 22
311.2935511338961
 32
0.0
 13
139.3547481692741
 23
311.2935511338961
 33
0.0
  0
SOLID
  5
31C
330
31F
100
AcDbEntity
  8
0
  6
ByBlock
 62
     0
380
     1
100
AcDbTrace
 10
459.8676894921072
 20
641.9015329747867
 30
0.0
 11
458.4285863543227
 21
639.8152460170721
 31
0.0
 12
457.8297421052145
 22
640.3947544378517
 32
0.0
 13
457.8297421052145
 23
640.3947544378517
 33
0.0
  0
MTEXT
  5
31D
330
31F
100
AcDbEntity
  8
0
  6
ByBlock
 62
     0
370
    -2
380
     1
100
AcDbMText
 10
297.3945566390277
 20
477.003169627433
 30
0.0
 40
2.5
 41
0.0
 71
     5
 72
     1
  1
\A1;462,97
 11
0.6954101049354622
 21
0.7186130989299108
 31
0.0
 73
     1
 44
1.0
  0
ENDBLK
  5
410
330
31F
100
AcDbEntity
  8
0
100
AcDbBlockEnd
  0
BLOCK
  5
411
330
32A
100
AcDbEntity
  8
0
100
AcDbBlockBegin
  2
*D60
 70
     1
 10
0.0
 20
0.0
 30
0.0
  3
*D60
  1

  0
POINT
  5
321
330
32A
100
AcDbEntity
  8
DEFPOINTS
  6
ByBlock
 62
     0
380
     1
100
AcDbPoint
 10
148.9195744704794
 20
298.5586359543117
 30
0.0
  0
POINT
  5
322
330
32A
100
AcDbEntity
  8
DEFPOINTS
  6
ByBlock
 62
     0
380
     1
100
AcDbPoint
 10
470.8716189310971
 20
631.252904752917
 30
0.0
  0
LINE
  5
323
330
32A
100
AcDbEntity
  8
0
  6
ByBlock
 62
     0
370
    -2
380
     1
100
AcDbLine
 10
148.4704412836482
 20
298.9932672698964
 30
0.0
 11
147.9953136103447
 21
299.4530537469892
 31
0.0
  0
LINE
  5
324
330
32A
100
AcDbEntity
  8
0
  6
ByBlock
 62
     0
370
    -2
380
     1
100
AcDbLine
 10
470.4224857442659
 20
631.6875360685016
 30
0.0
 11
469.9473580709624
 21
632.1473225455944
 31
0.0
  0
LINE
  5
325
330
32A
100
AcDbEntity
  8
0
  6
ByBlock
 62
     0
370
    -2
380
     1
100
AcDbLine
 10
150.6321052463458
 20
300.3803238631447
 30
0.0
 11
469.1070991822861
 21
629.4815271671002
 31
0.0
  0
SOLID
  5
326
330
32A
100
AcDbEntity
  8
0
  6
ByBlock
 62
     0
380
     1
100
AcDbTrace
 10
148.8935799840071
 20
298.5837911158199
 30
0.0
 11
150.9315273708999
 21
300.0905696527549
 31
0.0
 12
150.3326831217916
 22
300.6700780735345
 32
0.0
 13
150.3326831217916
 23
300.6700780735345
 33
0.0
  0
SOLID
  5
327
330
32A
100
AcDbEntity
  8
0
  6
ByBlock
 62
     0
380
     1
100
AcDbTrace
 10
470.8456244446248
 20
631.2780599144251
 30
0.0
 11
469.4065213068403
 21
629.1917729567106
 31
0.0
 12
468.807677057732
 22
629.77128137749
 32
0.0
 13
468.807677057732
 23
629.77128137749
 33
0.0
  0
MTEXT
  5
328
330
32A
100
AcDbEntity
  8
0
  6
ByBlock
 62
     0
370
    -2
380
     1
100
AcDbMText
 10
308.3724915915453
 20
466.3796965670714
 30
0.0
 40
2.5
 41
0.0
 71
     5
 72
     1
  1
\A1;462,97
 11
0.6954101049354622
 21
0.7186130989299108
 31
0.0
 73
     1
 44
1.0
  0
ENDBLK
  5
412
330
32A
100
AcDbEntity
  8
0
100
AcDbBlockEnd
  0
BLOCK
  5
413
330
335
100
AcDbEntity
  8
0
100
AcDbBlockBegin
  2
*D61
 70
     1
 10
0.0
 20
0.0
 30
0.0
  3
*D61
  1

  0
POINT
  5
32C
330
335
100
AcDbEntity
  8
DEFPOINTS
  6
ByBlock
 62
     0
380
     1
100
AcDbPoint
 10
148.9195744704794
 20
298.5586359543117
 30
0.0
  0
POINT
  5
32D
330
335
100
AcDbEntity
  8
DEFPOINTS
  6
ByBlock
 62
     0
380
     1
100
AcDbPoint
 10
470.8716189310971
 20
631.252904752917
 30
0.0
  0
LINE
  5
32E
330
335
100
AcDbEntity
  8
0
  6
ByBlock
 62
     0
370
    -2
380
     1
100
AcDbLine
 10
148.4704412836482
 20
298.9932672698964
 30
0.0
 11
147.9953136103447
 21
299.4530537469892
 31
0.0
  0
LINE
  5
32F
330
335
100
AcDbEntity
  8
0
  6
ByBlock
 62
     0
370
    -2
380
     1
100
AcDbLine
 10
470.4224857442659
 20
631.6875360685016
 30
0.0
 11
469.9473580709624
 21
632.1473225455944
 31
0.0
  0
LINE
  5
330
330
335
100
AcDbEntity
  8
0
  6
ByBlock
 62
     0
370
    -2
380
     1
100
AcDbLine
 10
150.6321052463458
 20
300.3803238631447
 30
0.0
 11
469.1070991822861
 21
629.4815271671002
 31
0.0
  0
SOLID
  5
331
330
335
100
AcDbEntity
  8
0
  6
ByBlock
 62
     0
380
     1
100
AcDbTrace
 10
148.8935799840071
 20
298.5837911158199
 30
0.0
 11
150.9315273708999
 21
300.0905696527549
 31
0.0
 12
150.3326831217916
 22
300.6700780735345
 32
0.0
 13
150.3326831217916
 23
300.6700780735345
 33
0.0
  0
SOLID
  5
332
330
335
100
AcDbEntity
  8
0
  6
ByBlock
 62
     0
380
     1
100
AcDbTrace
 10
470.8456244446248
 20
631.2780599144251
 30
0.0
 11
469.4065213068403
 21
629.1917729567106
 31
0.0
 12
468.807677057732
 22
629.77128137749
 32
0.0
 13
468.807677057732
 23
629.77128137749
 33
0.0
  0
MTEXT
  5
333
330
335
100
AcDbEntity
  8
0
  6
ByBlock
 62
     0
370
    -2
380
     1
100
AcDbMText
 10
308.3724915915453
 20
466.3796965670714
 30
0.0
 40
2.5
 41
0.0
 71
     5
 72
     1
  1
\A1;462,97
 11
0.6954101049354622
 21
0.7186130989299108
 31
0.0
 73
     1
 44
1.0
  0
ENDBLK
  5
414
330
335
100
AcDbEntity
  8
0
100
AcDbBlockEnd
  0
BLOCK
  5
415
330
340
100
AcDbEntity
  8
0
100
AcDbBlockBegin
  2
*D62
 70
     1
 10
0.0
 20
0.0
 30
0.0
  3
*D62
  1

  0
POINT
  5
337
330
340
100
AcDbEntity
  8
DEFPOINTS
  6
ByBlock
 62
     0
380
     1
100
AcDbPoint
 10
148.9195744704794
 20
298.5586359543117
 30
0.0
  0
POINT
  5
338
330
340
100
AcDbEntity
  8
DEFPOINTS
  6
ByBlock
 62
     0
380
     1
100
AcDbPoint
 10
470.8716189310971
 20
631.252904752917
 30
0.0
  0
LINE
  5
339
330
340
100
AcDbEntity
  8
0
  6
ByBlock
 62
     0
370
    -2
380
     1
100
AcDbLine
 10
148.4704412836482
 20
298.9932672698964
 30
0.0
 11
147.9953136103447
 21
299.4530537469892
 31
0.0
  0
LINE
  5
33A
330
340
100
AcDbEntity
  8
0
  6
ByBlock
 62
     0
370
    -2
380
     1
100
AcDbLine
 10
470.4224857442659
 20
631.6875360685016
 30
0.0
 11
469.9473580709624
 21
632.1473225455944
 31
0.0
  0
LINE
  5
33B
330
340
100
AcDbEntity
  8
0
  6
ByBlock
 62
     0
370
    -2
380
     1
100
AcDbLine
 10
150.6321052463458
 20
300.3803238631447
 30
0.0
 11
469.1070991822861
 21
629.4815271671002
 31
0.0
  0
SOLID
  5
33C
330
340
100
AcDbEntity
  8
0
  6
ByBlock
 62
     0
380
     1
100
AcDbTrace
 10
148.8935799840071
 20
298.5837911158199
 30
0.0
 11
150.9315273708999
 21
300.0905696527549
 31
0.0
 12
150.3326831217916
 22
300.6700780735345
 32
0.0
 13
150.3326831217916
 23
300.6700780735345
 33
0.0
  0
SOLID
  5
33D
330
340
100
AcDbEntity
  8
0
  6
ByBlock
 62
     0
380
     1
100
AcDbTrace
 10
470.8456244446248
 20
631.2780599144251
 30
0.0
 11
469.4065213068403
 21
629.1917729567106
 31
0.0
 12
468.807677057732
 22
629.77128137749
 32
0.0
 13
468.807677057732
 23
629.77128137749
 33
0.0
  0
MTEXT
  5
33E
330
340
100
AcDbEntity
  8
0
  6
ByBlock
 62
     0
370
    -2
380
     1
100
AcDbMText
 10
308.3724915915453
 20
466.3796965670714
 30
0.0
 40
2.5
 41
0.0
 71
     5
 72
     1
  1
\A1;462,97
 11
0.6954101049354622
 21
0.7186130989299108
 31
0.0
 73
     1
 44
1.0
  0
ENDBLK
  5
416
330
340
100
AcDbEntity
  8
0
100
AcDbBlockEnd
  0
BLOCK
  5
417
330
34B
100
AcDbEntity
  8
0
100
AcDbBlockBegin
  2
*D63
 70
     1
 10
0.0
 20
0.0
 30
0.0
  3
*D63
  1

  0
POINT
  5
342
330
34B
100
AcDbEntity
  8
DEFPOINTS
  6
ByBlock
 62
     7
380
     1
100
AcDbPoint
 10
148.9195744704794
 20
298.5586359543117
 30
0.0
  0
POINT
  5
343
330
34B
100
AcDbEntity
  8
DEFPOINTS
  6
ByBlock
 62
     7
380
     1
100
AcDbPoint
 10
470.8716189310971
 20
631.252904752917
 30
0.0
  0
LINE
  5
344
330
34B
100
AcDbEntity
  8
0
  6
ByBlock
 62
     7
370
    -2
380
     1
100
AcDbLine
 10
148.4704412836482
 20
298.9932672698964
 30
0.0
 11
147.9953136103447
 21
299.4530537469892
 31
0.0
  0
LINE
  5
345
330
34B
100
AcDbEntity
  8
0
  6
ByBlock
 62
     7
370
    -2
380
     1
100
AcDbLine
 10
470.4224857442659
 20
631.6875360685016
 30
0.0
 11
469.9473580709624
 21
632.1473225455944
 31
0.0
  0
LINE
  5
346
330
34B
100
AcDbEntity
  8
0
  6
ByBlock
 62
     7
370
    -2
380
     1
100
AcDbLine
 10
155.8476810333617
 20
305.769922105119
 30
0.0
 11
463.8915233952702
 21
624.091928925126
 31
0.0
  0
SOLID
  5
347
330
34B
100
AcDbEntity
  8
0
  6
ByBlock
 62
     7
380
     1
100
AcDbTrace
 10
148.8935799840071
 20
298.5837911158199
 30
0.0
 11
157.0453695315782
 21
304.6109052635599
 31
0.0
 12
154.6499925351452
 22
306.9289389466781
 32
0.0
 13
154.6499925351452
 23
306.9289389466781
 33
0.0
  0
SOLID
  5
348
330
34B
100
AcDbEntity
  8
0
  6
ByBlock
 62
     7
380
     1
100
AcDbTrace
 10
470.8456244446248
 20
631.2780599144251
 30
0.0
 11
465.0892118934867
 21
622.9329120835669
 31
0.0
 12
462.6938348970536
 22
625.250945766685
 32
0.0
 13
462.6938348970536
 23
625.250945766685
 33
0.0
  0
MTEXT
  5
349
330
34B
100
AcDbEntity
  8
0
  6
ByBlock
 62
     0
370
    -2
380
     1
100
AcDbMText
 10
301.246245027157
 20
473.2758467743481
 30
0.0
 40
14.0
 41
0.0
 71
     5
 72
     1
  1
\A1;463
 11
0.6954101049354622
 21
0.7186130989299108
 31
0.0
 73
     1
 44
1.0
  0
ENDBLK
  5
418
330
34B
100
AcDbEntity
  8
0
100
AcDbBlockEnd
  0
BLOCK
  5
419
330
360
100
AcDbEntity
  8
0
100
AcDbBlockBegin
  2
*D64
 70
     1
 10
0.0
 20
0.0
 30
0.0
  3
*D64
  1

  0
POINT
  5
356
330
360
100
AcDbEntity
  8
DEFPOINTS
  6
ByBlock
 62
     0
380
     1
100
AcDbPoint
 10
663.156434
 20
669.5252607249236
 30
0.0
  0
POINT
  5
357
330
360
100
AcDbEntity
  8
DEFPOINTS
  6
ByBlock
 62
     0
380
     1
100
AcDbPoint
 10
667.156434
 20
669.5252607249236
 30
0.0
  0
LINE
  5
358
330
360
100
AcDbEntity
  8
0
  6
ByBlock
 62
     0
370
    -2
380
     1
100
AcDbLine
 10
663.156434
 20
670.1502607249236
 30
0.0
 11
663.156434
 21
725.3152919643102
 31
0.0
  0
LINE
  5
359
330
360
100
AcDbEntity
  8
0
  6
ByBlock
 62
     0
370
    -2
380
     1
100
AcDbLine
 10
667.156434
 20
670.1502607249236
 30
0.0
 11
667.156434
 21
725.3152919643102
 31
0.0
  0
LINE
  5
35A
330
360
100
AcDbEntity
  8
0
  6
ByBlock
 62
     0
370
    -2
380
     1
100
AcDbLine
 10
660.656434
 20
724.0652919643102
 30
0.0
 11
658.156434
 21
724.0652919643102
 31
0.0
  0
LINE
  5
35B
330
360
100
AcDbEntity
  8
0
  6
ByBlock
 62
     0
370
    -2
380
     1
100
AcDbLine
 10
669.656434
 20
724.0652919643102
 30
0.0
 11
672.156434
 21
724.0652919643102
 31
0.0
  0
SOLID
  5
35C
330
360
100
AcDbEntity
  8
0
  6
ByBlock
 62
     0
380
     1
100
AcDbTrace
 10
663.156434
 20
724.0652919643102
 30
0.0
 11
660.656434
 21
723.6486252976435
 31
0.0
 12
660.656434
 22
724.4819586309768
 32
0.0
 13
660.656434
 23
724.4819586309768
 33
0.0
  0
SOLID
  5
35D
330
360
100
AcDbEntity
  8
0
  6
ByBlock
 62
     0
380
     1
100
AcDbTrace
 10
667.156434
 20
724.0652919643102
 30
0.0
 11
669.656434
 21
723.6486252976435
 31
0.0
 12
669.656434
 22
724.4819586309768
 32
0.0
 13
669.656434
 23
724.4819586309768
 33
0.0
  0
MTEXT
  5
35E
330
360
100
AcDbEntity
  8
0
  6
ByBlock
 62
     0
370
    -2
380
     1
100
AcDbMText
 10
665.156434
 20
725.9402919643102
 30
0.0
 40
2.5
 41
0.0
 71
     5
 72
     1
  1
\A1;4
 73
     1
 44
1.0
  0
ENDBLK
  5
41A
330
360
100
AcDbEntity
  8
0
100
AcDbBlockEnd
  0
BLOCK
  5
41B
330
36C
100
AcDbEntity
  8
0
100
AcDbBlockBegin
  2
*D65
 70
     1
 10
0.0
 20
0.0
 30
0.0
  3
*D65
  1

  0
POINT
  5
362
330
36C
100
AcDbEntity
  8
DEFPOINTS
  6
ByBlock
 62
     0
380
     1
100
AcDbPoint
 10
663.156434
 20
669.5252607249236
 30
0.0
  0
POINT
  5
363
330
36C
100
AcDbEntity
  8
DEFPOINTS
  6
ByBlock
 62
     0
380
     1
100
AcDbPoint
 10
667.156434
 20
669.5252607249236
 30
0.0
  0
LINE
  5
364
330
36C
100
AcDbEntity
  8
0
  6
ByBlock
 62
     0
370
    -2
380
     1
100
AcDbLine
 10
663.156434
 20
670.1502607249236
 30
0.0
 11
663.156434
 21
720.487841981003
 31
0.0
  0
LINE
  5
365
330
36C
100
AcDbEntity
  8
0
  6
ByBlock
 62
     0
370
    -2
380
     1
100
AcDbLine
 10
667.156434
 20
670.1502607249236
 30
0.0
 11
667.156434
 21
720.487841981003
 31
0.0
  0
LINE
  5
366
330
36C
100
AcDbEntity
  8
0
  6
ByBlock
 62
     0
370
    -2
380
     1
100
AcDbLine
 10
660.656434
 20
719.237841981003
 30
0.0
 11
658.156434
 21
719.237841981003
 31
0.0
  0
LINE
  5
367
330
36C
100
AcDbEntity
  8
0
  6
ByBlock
 62
     0
370
    -2
380
     1
100
AcDbLine
 10
669.656434
 20
719.237841981003
 30
0.0
 11
672.156434
 21
719.237841981003
 31
0.0
  0
SOLID
  5
368
330
36C
100
AcDbEntity
  8
0
  6
ByBlock
 62
     0
380
     1
100
AcDbTrace
 10
663.156434
 20
719.237841981003
 30
0.0
 11
660.656434
 21
718.8211753143364
 31
0.0
 12
660.656434
 22
719.6545086476697
 32
0.0
 13
660.656434
 23
719.6545086476697
 33
0.0
  0
SOLID
  5
369
330
36C
100
AcDbEntity
  8
0
  6
ByBlock
 62
     0
380
     1
100
AcDbTrace
 10
667.156434
 20
719.237841981003
 30
0.0
 11
669.656434
 21
718.8211753143364
 31
0.0
 12
669.656434
 22
719.6545086476697
 32
0.0
 13
669.656434
 23
719.6545086476697
 33
0.0
  0
MTEXT
  5
36A
330
36C
100
AcDbEntity
  8
0
  6
ByBlock
 62
     0
370
    -2
380
     1
100
AcDbMText
 10
665.156434
 20
721.112841981003
 30
0.0
 40
2.5
 41
0.0
 71
     5
 72
     1
  1
\A1;4
 73
     1
 44
1.0
  0
ENDBLK
  5
41C
330
36C
100
AcDbEntity
  8
0
100
AcDbBlockEnd
  0
BLOCK
  5
41D
330
378
100
AcDbEntity
  8
0
100
AcDbBlockBegin
  2
*D66
 70
     1
 10
0.0
 20
0.0
 30
0.0
  3
*D66
  1

  0
POINT
  5
36E
330
378
100
AcDbEntity
  8
DEFPOINTS
  6
ByBlock
 62
     0
380
     1
100
AcDbPoint
 10
663.156434
 20
669.5252607249236
 30
0.0
  0
POINT
  5
36F
330
378
100
AcDbEntity
  8
DEFPOINTS
  6
ByBlock
 62
     0
380
     1
100
AcDbPoint
 10
667.156434
 20
669.5252607249236
 30
0.0
  0
LINE
  5
370
330
378
100
AcDbEntity
  8
0
  6
ByBlock
 62
     0
370
    -2
380
     1
100
AcDbLine
 10
663.156434
 20
670.1502607249236
 30
0.0
 11
663.156434
 21
720.487841981003
 31
0.0
  0
LINE
  5
371
330
378
100
AcDbEntity
  8
0
  6
ByBlock
 62
     0
370
    -2
380
     1
100
AcDbLine
 10
667.156434
 20
670.1502607249236
 30
0.0
 11
667.156434
 21
720.487841981003
 31
0.0
  0
LINE
  5
372
330
378
100
AcDbEntity
  8
0
  6
ByBlock
 62
     0
370
    -2
380
     1
100
AcDbLine
 10
660.656434
 20
719.237841981003
 30
0.0
 11
658.156434
 21
719.237841981003
 31
0.0
  0
LINE
  5
373
330
378
100
AcDbEntity
  8
0
  6
ByBlock
 62
     0
370
    -2
380
     1
100
AcDbLine
 10
669.656434
 20
719.237841981003
 30
0.0
 11
672.156434
 21
719.237841981003
 31
0.0
  0
SOLID
  5
374
330
378
100
AcDbEntity
  8
0
  6
ByBlock
 62
     0
380
     1
100
AcDbTrace
 10
663.156434
 20
719.237841981003
 30
0.0
 11
660.656434
 21
718.8211753143364
 31
0.0
 12
660.656434
 22
719.6545086476697
 32
0.0
 13
660.656434
 23
719.6545086476697
 33
0.0
  0
SOLID
  5
375
330
378
100
AcDbEntity
  8
0
  6
ByBlock
 62
     0
380
     1
100
AcDbTrace
 10
667.156434
 20
719.237841981003
 30
0.0
 11
669.656434
 21
718.8211753143364
 31
0.0
 12
669.656434
 22
719.6545086476697
 32
0.0
 13
669.656434
 23
719.6545086476697
 33
0.0
  0
MTEXT
  5
376
330
378
100
AcDbEntity
  8
0
  6
ByBlock
 62
     0
370
    -2
380
     1
100
AcDbMText
 10
665.156434
 20
721.112841981003
 30
0.0
 40
2.5
 41
0.0
 71
     5
 72
     1
  1
\A1;4
 73
     1
 44
1.0
  0
ENDBLK
  5
41E
330
378
100
AcDbEntity
  8
0
100
AcDbBlockEnd
  0
BLOCK
  5
41F
330
385
100
AcDbEntity
  8
0
100
AcDbBlockBegin
  2
*D67
 70
     1
 10
0.0
 20
0.0
 30
0.0
  3
*D67
  1

  0
POINT
  5
37A
330
385
100
AcDbEntity
  8
DEFPOINTS
  6
ByBlock
 62
     0
380
     1
100
AcDbPoint
 10
663.156434
 20
669.5252607249236
 30
0.0
  0
POINT
  5
37B
330
385
100
AcDbEntity
  8
DEFPOINTS
  6
ByBlock
 62
     0
380
     1
100
AcDbPoint
 10
667.156434
 20
669.5252607249236
 30
0.0
  0
LINE
  5
37C
330
385
100
AcDbEntity
  8
0
  6
ByBlock
 62
     0
370
    -2
380
     1
100
AcDbLine
 10
663.156434
 20
670.1502607249236
 30
0.0
 11
663.156434
 21
720.487841981003
 31
0.0
  0
LINE
  5
37D
330
385
100
AcDbEntity
  8
0
  6
ByBlock
 62
     0
370
    -2
380
     1
100
AcDbLine
 10
667.156434
 20
670.1502607249236
 30
0.0
 11
667.156434
 21
720.487841981003
 31
0.0
  0
LINE
  5
37E
330
385
100
AcDbEntity
  8
0
  6
ByBlock
 62
     0
370
    -2
380
     1
100
AcDbLine
 10
669.656434
 20
719.237841981003
 30
0.0
 11
672.156434
 21
719.237841981003
 31
0.0
  0
LINE
  5
37F
330
385
100
AcDbEntity
  8
0
  6
ByBlock
 62
     0
370
    -2
380
     1
100
AcDbLine
 10
660.656434
 20
719.237841981003
 30
0.0
 11
657.7397673333334
 21
719.237841981003
 31
0.0
  0
SOLID
  5
380
330
385
100
AcDbEntity
  8
0
  6
ByBlock
 62
     0
380
     1
100
AcDbTrace
 10
663.156434
 20
719.237841981003
 30
0.0
 11
660.656434
 21
718.8211753143364
 31
0.0
 12
660.656434
 22
719.6545086476697
 32
0.0
 13
660.656434
 23
719.6545086476697
 33
0.0
  0
SOLID
  5
381
330
385
100
AcDbEntity
  8
0
  6
ByBlock
 62
     0
380
     1
100
AcDbTrace
 10
667.156434
 20
719.237841981003
 30
0.0
 11
669.656434
 21
718.8211753143364
 31
0.0
 12
669.656434
 22
719.6545086476697
 32
0.0
 13
669.656434
 23
719.6545086476697
 33
0.0
  0
LINE
  5
382
330
385
100
AcDbEntity
  8
0
  6
ByBlock
 62
     0
370
    -2
380
     1
100
AcDbLine
 10
663.156434
 20
719.237841981003
 30
0.0
 11
667.156434
 21
719.237841981003
 31
0.0
  0
MTEXT
  5
383
330
385
100
AcDbEntity
  8
0
  6
ByBlock
 62
     0
370
    -2
380
     1
100
AcDbMText
 10
659.1981006666667
 20
721.112841981003
 30
0.0
 40
2.5
 41
0.0
 71
     5
 72
     1
  1
\A1;4
 73
     1
 44
1.0
  0
ENDBLK
  5
420
330
385
100
AcDbEntity
  8
0
100
AcDbBlockEnd
  0
BLOCK
  5
421
330
392
100
AcDbEntity
  8
0
100
AcDbBlockBegin
  2
*D68
 70
     1
 10
0.0
 20
0.0
 30
0.0
  3
*D68
  1

  0
POINT
  5
387
330
392
100
AcDbEntity
  8
DEFPOINTS
  6
ByBlock
 62
     7
380
     1
100
AcDbPoint
 10
663.156434
 20
669.5252607249236
 30
0.0
  0
POINT
  5
388
330
392
100
AcDbEntity
  8
DEFPOINTS
  6
ByBlock
 62
     7
380
     1
100
AcDbPoint
 10
667.156434
 20
669.5252607249236
 30
0.0
  0
LINE
  5
389
330
392
100
AcDbEntity
  8
0
  6
ByBlock
 62
     7
370
    -2
380
     1
100
AcDbLine
 10
663.156434
 20
670.1502607249236
 30
0.0
 11
663.156434
 21
720.487841981003
 31
0.0
  0
LINE
  5
38A
330
392
100
AcDbEntity
  8
0
  6
ByBlock
 62
     7
370
    -2
380
     1
100
AcDbLine
 10
667.156434
 20
670.1502607249236
 30
0.0
 11
667.156434
 21
720.487841981003
 31
0.0
  0
LINE
  5
38B
330
392
100
AcDbEntity
  8
0
  6
ByBlock
 62
     7
370
    -2
380
     1
100
AcDbLine
 10
677.156434
 20
719.237841981003
 30
0.0
 11
687.156434
 21
719.237841981003
 31
0.0
  0
LINE
  5
38C
330
392
100
AcDbEntity
  8
0
  6
ByBlock
 62
     7
370
    -2
380
     1
100
AcDbLine
 10
653.156434
 20
719.237841981003
 30
0.0
 11
633.8231006666666
 21
719.237841981003
 31
0.0
  0
SOLID
  5
38D
330
392
100
AcDbEntity
  8
0
  6
ByBlock
 62
     7
380
     1
100
AcDbTrace
 10
663.156434
 20
719.237841981003
 30
0.0
 11
653.156434
 21
717.5711753143364
 31
0.0
 12
653.156434
 22
720.9045086476697
 32
0.0
 13
653.156434
 23
720.9045086476697
 33
0.0
  0
SOLID
  5
38E
330
392
100
AcDbEntity
  8
0
  6
ByBlock
 62
     7
380
     1
100
AcDbTrace
 10
667.156434
 20
719.237841981003
 30
0.0
 11
677.156434
 21
717.5711753143364
 31
0.0
 12
677.156434
 22
720.9045086476697
 32
0.0
 13
677.156434
 23
720.9045086476697
 33
0.0
  0
LINE
  5
38F
330
392
100
AcDbEntity
  8
0
  6
ByBlock
 62
     7
370
    -2
380
     1
100
AcDbLine
 10
663.156434
 20
719.237841981003
 30
0.0
 11
667.156434
 21
719.237841981003
 31
0.0
  0
MTEXT
  5
390
330
392
100
AcDbEntity
  8
0
  6
ByBlock
 62
     0
370
    -2
380
     1
100
AcDbMText
 10
643.4897673333332
 20
731.237841981003
 30
0.0
 40
14.0
 41
0.0
 71
     5
 72
     1
  1
\A1;4
 73
     1
 44
1.0
  0
ENDBLK
  5
422
330
392
100
AcDbEntity
  8
0
100
AcDbBlockEnd
  0
ENDSEC
  0
SECTION
  2
ENTITIES
  0
INSERT
  5
313
330
1F
100
AcDbEntity
  8
0
370
    60
100
AcDbBlockReference
  2
Vetro diametro 463 Halle
 10
0.0
 20
0.0
 30
0.0
 41
2.0
 42
2.0
 43
2.0
  0
POINT
  5
34C
330
1F
100
AcDbEntity
  8
0
 62
     7
100
AcDbPoint
 10
148.9195744704794
 20
298.5586359543117
 30
0.0
  0
POINT
  5
34D
330
1F
100
AcDbEntity
  8
0
 62
     7
100
AcDbPoint
 10
470.8716189310971
 20
631.252904752917
 30
0.0
  0
LINE
  5
34E
330
1F
100
AcDbEntity
  8
0
 62
     7
370
    25
100
AcDbLine
 10
148.4704412836482
 20
298.9932672698964
 30
0.0
 11
147.9953136103447
 21
299.4530537469892
 31
0.0
  0
LINE
  5
34F
330
1F
100
AcDbEntity
  8
0
 62
     7
370
    25
100
AcDbLine
 10
470.4224857442659
 20
631.6875360685016
 30
0.0
 11
469.9473580709624
 21
632.1473225455944
 31
0.0
  0
LINE
  5
350
330
1F
100
AcDbEntity
  8
0
 62
     7
370
    25
100
AcDbLine
 10
155.8476810333617
 20
305.769922105119
 30
0.0
 11
463.8915233952702
 21
624.091928925126
 31
0.0
  0
SOLID
  5
351
330
1F
100
AcDbEntity
  8
0
 62
     7
100
AcDbTrace
 10
148.8935799840071
 20
298.5837911158199
 30
0.0
 11
157.0453695315782
 21
304.6109052635599
 31
0.0
 12
154.6499925351452
 22
306.9289389466781
 32
0.0
 13
154.6499925351452
 23
306.9289389466781
 33
0.0
  0
SOLID
  5
352
330
1F
100
AcDbEntity
  8
0
 62
     7
100
AcDbTrace
 10
470.8456244446248
 20
631.2780599144251
 30
0.0
 11
465.0892118934867
 21
622.9329120835669
 31
0.0
 12
462.6938348970536
 22
625.250945766685
 32
0.0
 13
462.6938348970536
 23
625.250945766685
 33
0.0
  0
MTEXT
  5
353
330
1F
100
AcDbEntity
  8
0
370
    25
100
AcDbMText
 10
301.246245027157
 20
473.2758467743481
 30
0.0
 40
14.0
 41
0.0
 71
     5
 72
     1
  1
\A1;Ø463
 11
0.6954101049354622
 21
0.7186130989299108
 31
0.0
 73
     1
 44
1.0
  0
DIMENSION
  5
354
330
1F
100
AcDbEntity
  8
0
370
    25
100
AcDbDimension
  2
*D68
 10
667.156434
 20
719.237841981003
 30
0.0
 11
643.4897673333332
 21
731.237841981003
 31
0.0
 70
   160
 71
     5
 41
2.5
 42
4.0
  3
ISO-25
100
AcDbAlignedDimension
 13
663.156434
 23
669.5252607249236
 33
0.0
 14
667.156434
 24
669.5252607249236
 34
0.0
100
AcDbRotatedDimension
1001
ACAD
1000
DSTYLE
1002
{
1070
    41
1040
10.0
1070
   140
1040
14.0
1070
   147
1040
5.0
1070
   176
1070
     7
1070
   177
1070
     7
1070
   271
1070
     0
1002
}
  0
VIEWPORT
  5
BB
330
73
100
AcDbEntity
 67
     1
  8
0
100
AcDbViewport
 10
7.8
 20
4.5
 30
0.0
 40
15.64
 41
9.0
 68
     1
 69
     1
 12
6.0
 22
4.5
 13
0.0
 23
0.0
 14
0.5
 24
0.5
 15
0.5
 25
0.5
 16
0.0
 26
0.0
 36
1.0
 17
0.0
 27
0.0
 37
0.0
 42
50.0
 43
0.0
 44
0.0
 45
12.0
 50
0.0
 51
0.0
 72
   100
 90
   557152
  1

281
     0
 71
     1
 74
     0
110
0.0
120
0.0
130
0.0
111
1.0
121
0.0
131
0.0
112
0.0
122
1.0
132
0.0
 79
     0
146
0.0
  0
ENDSEC
  0
SECTION
  2
OBJECTS
  0
DICTIONARY
  5
C
330
0
100
AcDbDictionary
281
     1
  3
ACAD_COLOR
350
6C
  3
ACAD_GROUP
350
D
  3
ACAD_LAYOUT
350
1A
  3
ACAD_MATERIAL
350
6B
  3
ACAD_MLEADERSTYLE
350
424
  3
ACAD_MLINESTYLE
350
17
  3
ACAD_PLOTSETTINGS
350
19
  3
ACAD_PLOTSTYLENAME
350
E
  3
ACAD_SCALELIST
350
99
  3
ACAD_TABLESTYLE
350
92
  3
ACDBHEADERROUNDTRIPXREC
350
425
  3
AcDbVariableDictionary
350
59
  3
DWGPROPS
350
428
  0
DICTIONARY
  5
6C
102
{ACAD_REACTORS
330
C
102
}
330
C
100
AcDbDictionary
281
     1
  0
DICTIONARY
  5
D
102
{ACAD_REACTORS
330
C
102
}
330
C
100
AcDbDictionary
281
     1
  0
DICTIONARY
  5
1A
102
{ACAD_REACTORS
330
C
102
}
330
C
100
AcDbDictionary
281
     1
  3
Layout1
350
74
  3
Layout2
350
398
  3
Model
350
22
  0
DICTIONARY
  5
6B
102
{ACAD_REACTORS
330
C
102
}
330
C
100
AcDbDictionary
281
     1
  0
DICTIONARY
  5
424
102
{ACAD_REACTORS
330
C
102
}
330
C
100
AcDbDictionary
281
     1
  0
DICTIONARY
  5
17
102
{ACAD_REACTORS
330
C
102
}
330
C
100
AcDbDictionary
281
     1
  3
Standard
350
18
  0
DICTIONARY
  5
19
102
{ACAD_REACTORS
330
C
102
}
330
C
100
AcDbDictionary
281
     1
  0
ACDBDICTIONARYWDFLT
  5
E
102
{ACAD_REACTORS
330
C
102
}
330
C
100
AcDbDictionary
281
     1
  3
Normal
350
F
100
AcDbDictionaryWithDefault
340
F
  0
DICTIONARY
  5
99
102
{ACAD_REACTORS
330
C
102
}
330
C
100
AcDbDictionary
281
     1
  3
A0
350
D5
  3
A1
350
D6
  3
A2
350
D7
  3
A3
350
D8
  3
A4
350
D9
  3
A5
350
DA
  3
A6
350
DB
  3
A7
350
DC
  3
A8
350
DD
  3
A9
350
DE
  3
B0
350
DF
  3
B1
350
E0
  3
B2
350
E1
  3
B3
350
E2
  3
B4
350
E3
  3
B5
350
E4
  3
B6
350
E5
  3
B7
350
E6
  3
B8
350
E7
  3
B9
350
E8
  3
C0
350
E9
  3
C1
350
EA
  3
C2
350
EB
  3
C3
350
EC
  3
C4
350
ED
  3
C5
350
EE
  3
C6
350
EF
  3
C7
350
F0
  3
C8
350
F1
  3
C9
350
F2
  3
D0
350
F3
  3
D1
350
F4
  3
D2
350
F5
  0
DICTIONARY
  5
92
102
{ACAD_REACTORS
330
C
102
}
330
C
100
AcDbDictionary
281
     1
  0
DICTIONARY
  5
425
102
{ACAD_REACTORS
330
C
102
}
330
C
100
AcDbDictionary
281
     1
  3
COLORDICT
350
426
  3
MATERIALDICT
350
427
  0
DICTIONARY
  5
59
102
{ACAD_REACTORS
330
C
102
}
330
C
100
AcDbDictionary
281
     1
  3
CTABLESTYLE
350
98
  3
DIMASSOC
350
5A
  3
HIDETEXT
350
5E
  0
XRECORD
  5
428
102
{ACAD_REACTORS
330
C
102
}
330
C
100
AcDbXrecord
280
     1
  1
DWGPROPS COOKIE
  2

  3

  4

  6

  7

  8
BelottiMc
  9

300
=
301
=
302
=
303
=
304
=
305
=
306
=
307
=
308
=
309
=
 40
0.0
 41
2455231.434707153
 42
2455231.434707141
  1

 90
        0
  0
LAYOUT
  5
74
102
{ACAD_REACTORS
330
1A
102
}
330
1A
100
AcDbPlotSettings
  1

  2
ProgeSOFT PDF Wizard
  4
A4
  6

 40
5.926666666666667
 41
6.011333333333321
 42
6.095999999999985
 43
5.926666666666667
 44
210.0
 45
297.0
 46
88.56200000000001
 47
136.531
 48
0.0
 49
0.0
140
0.0
141
0.0
142
1.0
143
1.0
 70
   692
 72
     1
 73
     0
 74
     0
  7

 75
    16
147
1.0
148
4.426666666666668
149
1.5
100
AcDbLayout
  1
Layout1
 70
     1
 71
     1
 10
0.0
 20
0.0
 11
0.0
 21
0.0
 12
0.0
 22
0.0
 32
0.0
 14
0.0
 24
0.0
 34
0.0
 15
0.0
 25
0.0
 35
0.0
146
0.0
 13
0.0
 23
0.0
 33
0.0
 16
1.0
 26
0.0
 36
0.0
 17
0.0
 27
1.0
 37
0.0
 76
     0
330
D1
331
423
1001
PROGE_PRINT_SETTINGS
1070
    73
1070
     1
  0
LAYOUT
  5
398
102
{ACAD_REACTORS
330
1A
102
}
330
1A
100
AcDbPlotSettings
  1

  2
ProgeSOFT PDF Wizard
  4
A4
  6

 40
5.926666666666667
 41
6.011333333333321
 42
6.095999999999985
 43
5.926666666666667
 44
210.0
 45
297.0
 46
88.562
 47
136.531
 48
0.0
 49
0.0
140
0.0
141
0.0
142
1.0
143
1.0
 70
   692
 72
     1
 73
     0
 74
     0
  7

 75
    16
147
1.0
148
0.0
149
0.0
100
AcDbLayout
  1
Layout2
 70
     1
 71
     2
 10
0.0
 20
0.0
 11
12.0
 21
9.0
 12
0.0
 22
0.0
 32
0.0
 14
0.0
 24
0.0
 34
0.0
 15
12.0
 25
9.0
 35
0.0
146
0.0
 13
0.0
 23
0.0
 33
0.0
 16
1.0
 26
0.0
 36
0.0
 17
0.0
 27
1.0
 37
0.0
 76
     0
330
73
331
BB
1001
PROGE_PRINT_SETTINGS
1070
    73
1070
     1
  0
LAYOUT
  5
22
102
{ACAD_REACTORS
330
1A
102
}
330
1A
100
AcDbPlotSettings
  1

  2
\\prn100b\W366
  4
A4
  6

 40
4.233333333333333
 41
4.233333333333307
 42
4.233333333333335
 43
4.233333333333333
 44
210.0
 45
296.9
 46
0.0
 47
9.861111111111313
 48
0.0
 49
0.0
140
0.0
141
0.0
142
1.0
143
0.044657624875951
 70
 11956
 72
     1
 73
     1
 74
     1
  7

 75
     0
147
22.39259259259259
148
0.0
149
0.0
100
AcDbLayout
  1
Model
 70
     1
 71
     0
 10
0.0
 20
0.0
 11
0.0
 21
0.0
 12
0.0
 22
0.0
 32
0.0
 14
76.41436799999995
 24
235.3230279999998
 34
0.0
 15
687.156434
 25
738.237841981003
 35
0.0
146
0.0
 13
0.0
 23
0.0
 33
0.0
 16
1.0
 26
0.0
 36
0.0
 17
0.0
 27
1.0
 37
0.0
 76
     0
330
1F
331
97
1001
PROGE_PRINT_SETTINGS
1070
    73
1070
     2
1070
   311
1000
ProgeSOFT PDF Wizard
1004
303130303030303033433030334330304538303345383033303730303030303030303030303030303030303030303030303030303030303030303030303030303030303030303030303030303030303030303030303030303030303030303030303030303030303030303030303030303030303030303030303030303030
1004
303030303030303030303030303030303030303030303030303030303030303030303030303030303030303030303030303030303030303030303030303030303030303030303030303030303030303030303030303030303030303030303030303030303030303030303030303030303030303030303030303030303030
1004
303030303030303030303030303030303030303030303030303030303030303030303030303030303030303030303030303030303030303030303030303030303030303030303030303030303030303030303030303030303030303030303030303030303030303030303030303030303030303030303030303030303030
1004
303030303030303030303030303030303030303030303030303030303030303030303030303030303030303030303030303030303030303030303030303030303030303030303030303030303030303030303030303030303030303030303030303030303030303030303030303030303030303030303030303030303030
1004
303030303030303030303030303030303030303030303030303030303030303030303030303030303030303030303030303030303030303030303030303030303030303030303030303030303030303030303030303030303030303030303030303030303030303030303030303030303030303030303030303030303030
1004
303030303030303030303030303030303030303030303030303030303030303030303030303030303030303030303030303030303030303030303030303030303030303030303030303030303030303030303030303030303030303030303030303030303030303030303030303030303030303030303030303030303030
1004
303030303030303030303030303030303030303030303030303030303030303030303030303030303030303030303030303030303030303030303030303030303030303030303030303030303030303030303030303030303030303030303030303030303030303030303030303030303030303030303030303030303030
1004
303030303030303030303030303030303030303030303030303030303030303030303030303030303030303030303030303030303030303030303030303030303030303030303030303030303030303030303030303030303030303030303030303030303030303030303030303030303030303030303030303030303030
1004
303030303030303030303030303030303030303030303030303030303030303030303030303030303030303030303030303030303030303030303030303030303030303030303030303030303030303030303030303030303030303030303030303030303030303030303030303030303030303030303030303030303030
1004
303030303030303030303030303030303030303030303030303030303030303030303030303030303030303030303030303030303030303030303030303030303030303030303030303030303030303030303030303030303030303030303030303030303030303030303030303030303030303030303030303030303030
1004
303030303030303030303030303030303030303030303030303030303030303030303030303030303030303030303030303030303030303030303030343435303433343130303030303030303030303030303030303030303030303030303030303030303737373737373245334236383734373437303341324632463342
1004
363636393643363533413246324633423644363136393643373436463341334236383734373437303733334132463246334236363734373033413246324630303030303030303030303030303030303030303030303030303030303030303030303030303030303030303030303030303030303030303030303030303030
1004
303030303030303030303030303030303030303030303030303030303030303030303030303030303030303030303030303030303030303030303030303030303030303030303030303030303030303030303030303030303030303030303030303030303030303030303030303030303030303030303030303030303030
1004
303030303030303030303030303030303030303030303030303030303030303030303030303030303030303030303030303030303030303030303030303030303030303030303030303030303030303030303030303030303030303030303030303030303030303030303030303030303030303030303030303030303030
1004
303030303030303030303030303030303030303030303030303030303030303030303030303030303030303030303030303030303030303030303030303030303030303030303030303030303030303030303030303030303030303030303030303030303030303030303030303030303030303030303030303030303030
1004
303030303030303030303030303030303030303030303030303030303030303030303030303030303030303030303030303030303030303030303030303030303030303030303030303030303030303030303030303030303030303030303030303030303030303030303030303030303030303030303030303030303030
1004
303030303030303030303030303030303030303030303030303030303030303030303030303030303030303030303030303030303030303030303030303030303030303030303030303030303030303030303030303030303030303030303030303030303030303030303030303030303030303030303030303030303030
1004
303030303030303030303030303030303030303030303030303030303030303030303030303030303030303030303030303030303030303030303030303030303030303030303030303030303030303030303030303030303030303030303030303030303030303030303030303030303030303030303030303030303030
1004
303030303030303030303030303030303030303030303030303030303030303030303030303030303030303030303030303030303030303030303030303030303030303030303030303030303030303030303030303030303030303030303030303030303030303030303030303030303030303030303030303030303030
1004
303030303030303030303030303030303030303030303030303030303030303030303030303030303030303030303030303030303030303030303030303030303030303030303030303030303030303030303030303030303030303030303030303030303030303030303030303030303030303030303030303030303030
1004
303030303030303030303030303030303030303030303030303030303030303030303030303030303030303030303030303030303030303030303030303030303030303030303030303030303030303030303030303030303030303030303030303030303030303030303030303030303030303030303030303030303030
1004
303030303030303030303030303030303030303030303030303030303030303030303030303030303030303030303030303030303030303030303030303030303030303030303030303030303030303030303030303030303030303030303030303030303030303030303030303030303030303030303030303030303030
1004
303030303030303030303030303030303030303030303030303030303030303030303030303030303030303030303030303030303030303030303030303030303030303030303030303030303030303030303030303030303030303030303030303030303030303030303030303030303030303030303030303030303030
1004
303030303030303030303030303030303030303030303030303030303030303030303030303030303030303030303030303030303030303030303030303030303030303030303030303030303030303030303030303030303030303030303030303030303030303030303030303030303030303030303030303030303030
1004
303030303030303030303030303030303030303030303030303030303030303030303030303030303030303030303030303030303030303030303030303030303030303030303030303030303030303030303030303030303030303030303030303030303030303030303030303030303030303030303030303030303030
1004
303030303030303030303030303030303030303030303030303030303030303030303030303030303030303030303030303030303030303030303030303030303030303030303030303030303030303030303030303030303030303030303030303030303030303030303030303030303030303030303030303030303030
1004
303030303030303030303030303030303030303030303030303030303030303030303030303030303030303030303030303030303030303030303030303030303030303030303030303030303030303030303030303030303030303030303030303030303030303030303030303030303030303030303030303030303030
1004
303030303030303030303030303030303030303030303030303030303030303030303030303030303030303030303030303030303030303030303030303030303030303030303030303030303030303030303030303030303030303030303030303030303030303030303030303030303030303030303030303030303030
1004
303030303030303030303030303030303030303030303030303030303030303030303030303030303030303030303030303030303030303030303030303030303030303030303030303030303030303030303030303030303030303030303030303030303030303030303030303030303030303030303030303030303030
1004
303030303030303030303030303030303030303030303030303030303030303030303030303030303030303030303030303030303030303030303030303030303030303030303030303030303030303030303030303030303030303030303030303030303030303030303030303030303030303030303030303030303030
1004
303030303030303030303030303030303030303030303030303030303030303030303030303030303030303030303030303030303030303030303030303030303030303030303030303030303030303030303030303030303030303030303030303030303030303030303030303030303030303030303030303030303030
1004
303030303030303030303030303030303030303030303030303030303030303030303030303030303030303030303030303030303030303030303030303030303030303030303030303030303030303030303030303030303030303030303030303030303030303030303030303030303030303030303030303030303030
1004
303030303030303030303030303030303030303030303030303030303030303030303030303030303030303030303030303030303030303030303030303030303030303030303030303030303030303030303030303030303030303030303030303030303030303030303030303030303030303030303030303030303030
1004
303030303030303030303030303030303030303030303030303030303030303030303030303030303030303030303030303030303030303030303030303030303030303030303030303030303030303030303030303030303030303030303030303030303030303030303030303030303030303030303030303030303030
1004
303030303030303030303030303030303030303030303030303030303030303030303030303030303030303030303030303030303030303030303030303030303030303030303030303030303030303030303030303030303030303030303030303030303030303030303030303030303030303030303030303030303030
1004
303030303030303030303030303030303030303030303030303030303030303030303030303030303030303030303030303030303030303030303030303030303030303030303030303030303030303030303030303030303030303030303030303030303030303030303030303030303030303030303030303030303030
1004
303030303030303030303030303030303030303030303030303030303030303030303030303030303030303030303030303030303030303030303030303030303030303030303030303030303030303030303030303030303030303030303030303030303030303030303030303030303030303030303030303030303030
1004
303030303030303030303030303030303030303030303030303030303030303030303030303030303030303030303030303030303030303030303030303030303030303030303030303030303030303030303030303030303030303030303030303030303030303030303030303030303030303030303030303030303030
1004
303030303030303030303030303030303030303030303030303030303030303030303030303030303030303030303030303030303030303030303030303030303030303030303030303030303030303030303030303030303030303030303030303030303030303030303030303030303030303030303030303030303030
1004
303030303030303030303030303030303030303030303030303030303030303030303030303030303030303030303030303030303030303030303030303030303030303030303030303030303030303030303030303030303030303030303030303030303030303030303030303030303030303030303030303030303030
1004
303030303030303030303030303030303030303030303030303030303030303030303030303030303030303030303030303030303030303030303030303030303030303030303030303030303030303030303030303030303030303030303030303030303030303030303030303030303030303030303030303030303030
1004
303030303030303030303030303030303030303030303030303030303030303030303030303030303030303030303030303030303030303030303030303030303030303030303030303030303030303030303030303030303030303030303030303030303030303030303030303030303030303030303030303030303030
1004
303030303030303030303030303030303030303030303030303030303030303030303030303030303030303030303030303030303030303030303030303030303030303030303030303030303030303030303030303030303030303030303030303030303030303030303030303030303030303030303030303030303030
1004
303030303030303030303030303030303030303030303030303030303030303030303030303030303030303030303030303030303030303030303030303030303030303030303030303030303030303030303030303030303030303030303030303030303030303030303030303030303030303030303030303030303030
1004
303030303030303030303030303030303030303030303030303030303030303030303030303030303030303030303030303030303030303030303030303030303030303030303030303030303030303030303030303030303030303030303030303030303030303030303038303030303030303030303030303030303030
1004
3030303030303030303030303030303030303030303030303030
1070
   311
1000
\\prn100b\W366
1004
303030303030303035323030343930303433303034463030343830303230303034313030363630303639303036333030363930303646303032303030343130303530303033363030333130303330303034453030323030303530303034333030344330303230303033363030303030303030303030303030303030303030
1004
303030303030303030303443303035303030353430303331303033413030303030303030303030303030303030303030303030303030303030303030303030303030303030303030303030303030303030303030303030303030303030303030303030303030303030303030303030303030303030303030303030303030
1004
303030303030303030303030303030303030303030303030303030303030303030303030303030303030303030303030303030303030303030303030303030303030303030303030303030303030303030303030303030303030303030303030303030303030303030303030303030303030303030303030303030303030
1004
303030303030303030303030303030303030303030303030303030303030303030303030303030303030303030303030303030303030303030303030303030303030303030303030303030303030303030303030303030303030303030303030303030303030303030303030303030303030303030303030303030303030
1004
303030303030303030303030303030303030303030303030303030303030303030303030303030303030303030303030303030303030303030303030303030303030303030303030303030303030303030303030303030303030303030303030303030303030303030303030303030303030303030303030373430413030
1004
303030303030303030303030303030303030303130303030303037343041303030303531304430303030303130303030303030363030303030304230303930303030423330443030303030313030303030303030303030303030303030303030303030303030303030303030303030303030303030303030303030303030
1004
303030303030303030303030303030303030303030303030303030303030303030303030303030303030303036343030303030303035303030303030303030303030303030303030303030303030303030303030303130303030303030303030303030303030303030303030303630303030303030303030303030303030
1004
303030303030303030303030303030303030303030303030303030303030313830303030303030303030313032373130323731303237303030303130323730303030303030303030303030303030303130303030303030303030303030303030303030303030303030303030303030303030303030303030303030303030
1004
303030303030303030303030303030303030303030303030303030303030303030303030303030303030303030303030303030303030303030303030303030303030303030303030303030303030303030303030303030303030303030303030303030303030303030303030303030303030303030303030303030303030
1004
303030303030303030303030303030303030303030303030303030303030303030303030303030303030303030303030303030303030303030303030303030303030303030303030303030303030303030303030303030303030303030303030303030303030303030303030303030303030303030303030303030303030
1004
303030303030303030303030303030303030303030303030303030303030303030303030303030303030303030303030303030303030303030303030303030303030303030303030303030303030303030303030303030303030303030303030303030303030303030303030303030303030303030303030303030303030
1004
303030303030303030303030303030303030303030303030303030303030303030303030303030303030303030303030303030303030303030303030303030303030303030303030303030303030303030303030303030303030303030303030303030303030303030303030303030303030303030303030303030303030
1004
303030303030303030303030303030303030303030303030303030303030303030303030303030303030303030303030303030303030303030303030303030303030303030303030303030303030303030303030303030303030303030303030303030303030303030303030303030303030303030303030303030303030
1004
303030303030303030303030303030303030303030303030303030303030303030303030303030303030303030303030303030303030303030303030303030303030303030303030303030303030303030303030303030303030303030303030303030303030303030303030303030303030303030303030303030303030
1004
303030303030303030303030303030303030303030303030303030303030303030303030303030303030303030303030303030303030303030303030303030303030303030303030303030303030303030303030303030303030303030303030303030303030303030303030303030303030303030303030303030303030
1004
303030303030303030303030303030303030303030303030303030303030303030303030303030303030303030303030303030303030303030303030303030303030303030303030303030303030303030303030303030303030303030303030303030303030303030303030303030303030303030303030303030303030
1004
303030303030303030303030303030303030303030303030303030303030303030303030303030303030303030303030303030303030303030303030303030303030303030303030303030303030303030303030303030303030303030303030303030303030303030303030303030303030303030303030303030303030
1004
303030303030303030303030303030303030303030303030303030303030303030303030303030303030303030303030303030303030303030303030303030303030303030303030303030303030303030303030303030303030303030303030303030303030303030303030303030303030303030303030303030303030
1004
303030303030303030303030303030303030303030303030303030303030303030303030303030303030303030303030303030303030303030303030303030303030303030303030303030303030303030303030303030303030303030303030303030303030303030303030303030303030303030303030303030303030
1004
303030303030303030303030303030303030303030303030303030303030303030303030303030303030303030303030303030303030303030303030303030303030303030303030303030303030303030303030303030303030303030303030303030303030303030303030303030303030303030303030303030303030
1004
303030303030303030303030303030303030303030303030303030303030303030303030303030303030303030303030303030303030303030303030303030303030303030303030303030303030303030303030303030303030303030303030303030303030303030303030303030303030303030303030303030303030
1004
303030303030303030303030303030303030303030303030303030303030303030303030303030303030303030303030303030303030303030303030303030303030303030303030303030303030303030303030303030303030303030303030303030303030303030303030303030303030303030303030303030303030
1004
303030303030303030303030303030303030303030303030303030303030303030303030303030303030303030303030303030303030303030303030303030303030303030303030303030303030303030303030303030303030303030303030303030303030303030303030303030303030303030303030303030303030
1004
303030303030303030303030303030303030303030303030303030303030303030303030303030303030303030303030303030303030303030303030303030303030303030303030303030303030303030303030303030303030303030303030303030303030303030303030303030303030303030303030303030303030
1004
303030303030303030303030303030303030303030303030303030303030303030303030303030303030303030303030303130303030303030313030303030303030303030303030303030303030303030303030303030303030303030303030303130303030303030303030303030303031303030303030303030303030
1004
303030303030303030303030303030303030303030303030303030303030303030303030303030303030303030303030303030303030303030303030303030303030303030303030303036343030303030303030303030303030303030303030303030303030303030303034303030303030303630303030303030303030
1004
303030303031303030303030303030303030303030303030303030303030303030303030303030303030303030303030303030303031303030303030303130303030303030303030303030303030303030303030303130303030303030303030303030303030303030303030303030303030303030303030303030303030
1004
303030303030363430303030303030303030303030303030303030303030303030303030303030313030303030303030303030303030303130303030303030303030303030303030303030303030303030303030303030303030303030303030303030303030303030303030303030303030303030303030303030303030
1004
303030303030303030303030303030303030303030303030303030303030303030303030303030303030303030303030303030303030303030303030303030303030303030303030303030303030303030303030303030303030303030303030303030303030303045373033303030304537303330303030453730333030
1004
303045373033303030303030303030303030303030303030303030303030303030303030303030303030303030303030303030363030303030303334303830303030393930423030303030303030303030303434303036353030363630303631303037353030364330303734303030303030303030303030303030303030
1004
303030303030303030303030303030303030303030343030303030303030303030303030303030303030303030303030303030303030303030303030303030303030303030303030303030303030303030303030303030303030303030303030303030303030303030303030303030303030303030303030303030303030
1004
303030303030303030303030303030303030303030303030303030303030303030303030303030303030303030303030303030303030303030303030303030303030303030303030303030303030303030303030303030303030303030303030303030303030303030303030303030303030303030303030303030303030
1004
303030303030303030303030303030303030303030303030303030303030303030303030303030303030303030303030303030303030303030303030303030303030303030303030303030303030303030303030303030303030303030303030303030303030303030303030303030303030303030303030303030303030
1004
303030303030303030303030303030303030303030303030303030303030303030303030303030303030303030303030303030303030303030303030303030303030303030303030303030303030303030303030303030303030303030303030303030303030303030303030303030303030303030303030303030303030
1004
303030303030303030303030303030303030303030303030303030303030303030303030303030303030303030303030303030303030303030303030303030303030303030303030303030303030303030303030303030303030303030303030303030303030303030303030303030303030303030303030303030303030
1004
303030303030303030303030303030303030303030303030303030303030303030303030303030303030303030303030303030303030303030303030303030303030303030303030303030303030303030303030303030303030303030303030303030303030303030303030303030303030303030303030303030303030
1004
303030303030303030303030303030303030303030303030303030303030303030303030303030303030303030303030303030303030303030303030303030303030303030303030303030303030303030303030303030303030303030303030303030303030303030303030303030303030303030303030303030303030
1004
303030303030303030303030303030303030303030303030303030303030303030303030303030303030303030303030303030303030303030303030303030303030303030303030303030303030303030303030303030303030303030303030303030303030303030303030303030303030303030303030303030303030
1004
30303030303030303030303030303030303030303030303030303030303030303030303030303030303030303030303030303030303030303030303030303030303030303030303030303030303030303030303030313030303030303030303030303030303030303030303030303030303030303030303030303030
  0
MLINESTYLE
  5
18
102
{ACAD_REACTORS
330
17
102
}
330
17
100
AcDbMlineStyle
  2
STANDARD
 70
     0
  3

 62
   256
 51
90.0
 52
90.0
 71
     2
 49
0.5
 62
   256
  6
BYLAYER
 49
-0.5
 62
   256
  6
BYLAYER
  0
ACDBPLACEHOLDER
  5
F
102
{ACAD_REACTORS
330
E
102
}
330
E
  0
SCALE
  5
D5
102
{ACAD_REACTORS
330
99
102
}
330
99
100
AcDbScale
 70
     0
300
1:1
140
1.0
141
1.0
290
     1
  0
SCALE
  5
D6
102
{ACAD_REACTORS
330
99
102
}
330
99
100
AcDbScale
 70
     0
300
1:2
140
1.0
141
2.0
290
     0
  0
SCALE
  5
D7
102
{ACAD_REACTORS
330
99
102
}
330
99
100
AcDbScale
 70
     0
300
1:4
140
1.0
141
4.0
290
     0
  0
SCALE
  5
D8
102
{ACAD_REACTORS
330
99
102
}
330
99
100
AcDbScale
 70
     0
300
1:5
140
1.0
141
5.0
290
     0
  0
SCALE
  5
D9
102
{ACAD_REACTORS
330
99
102
}
330
99
100
AcDbScale
 70
     0
300
1:8
140
1.0
141
8.0
290
     0
  0
SCALE
  5
DA
102
{ACAD_REACTORS
330
99
102
}
330
99
100
AcDbScale
 70
     0
300
1:10
140
1.0
141
10.0
290
     0
  0
SCALE
  5
DB
102
{ACAD_REACTORS
330
99
102
}
330
99
100
AcDbScale
 70
     0
300
1:16
140
1.0
141
16.0
290
     0
  0
SCALE
  5
DC
102
{ACAD_REACTORS
330
99
102
}
330
99
100
AcDbScale
 70
     0
300
1:20
140
1.0
141
20.0
290
     0
  0
SCALE
  5
DD
102
{ACAD_REACTORS
330
99
102
}
330
99
100
AcDbScale
 70
     0
300
1:30
140
1.0
141
30.0
290
     0
  0
SCALE
  5
DE
102
{ACAD_REACTORS
330
99
102
}
330
99
100
AcDbScale
 70
     0
300
1:40
140
1.0
141
40.0
290
     0
  0
SCALE
  5
DF
102
{ACAD_REACTORS
330
99
102
}
330
99
100
AcDbScale
 70
     0
300
1:50
140
1.0
141
50.0
290
     0
  0
SCALE
  5
E0
102
{ACAD_REACTORS
330
99
102
}
330
99
100
AcDbScale
 70
     0
300
1:100
140
1.0
141
100.0
290
     0
  0
SCALE
  5
E1
102
{ACAD_REACTORS
330
99
102
}
330
99
100
AcDbScale
 70
     0
300
2:1
140
2.0
141
1.0
290
     0
  0
SCALE
  5
E2
102
{ACAD_REACTORS
330
99
102
}
330
99
100
AcDbScale
 70
     0
300
4:1
140
4.0
141
1.0
290
     0
  0
SCALE
  5
E3
102
{ACAD_REACTORS
330
99
102
}
330
99
100
AcDbScale
 70
     0
300
8:1
140
8.0
141
1.0
290
     0
  0
SCALE
  5
E4
102
{ACAD_REACTORS
330
99
102
}
330
99
100
AcDbScale
 70
     0
300
10:1
140
10.0
141
1.0
290
     0
  0
SCALE
  5
E5
102
{ACAD_REACTORS
330
99
102
}
330
99
100
AcDbScale
 70
     0
300
100:1
140
100.0
141
1.0
290
     0
  0
SCALE
  5
E6
102
{ACAD_REACTORS
330
99
102
}
330
99
100
AcDbScale
 70
     0
300
1/128" = 1'-0"
140
0.0078125
141
12.0
290
     0
  0
SCALE
  5
E7
102
{ACAD_REACTORS
330
99
102
}
330
99
100
AcDbScale
 70
     0
300
1/64" = 1'-0"
140
0.015625
141
12.0
290
     0
  0
SCALE
  5
E8
102
{ACAD_REACTORS
330
99
102
}
330
99
100
AcDbScale
 70
     0
300
1/32" = 1'-0"
140
0.03125
141
12.0
290
     0
  0
SCALE
  5
E9
102
{ACAD_REACTORS
330
99
102
}
330
99
100
AcDbScale
 70
     0
300
1/16" = 1'-0"
140
0.0625
141
12.0
290
     0
  0
SCALE
  5
EA
102
{ACAD_REACTORS
330
99
102
}
330
99
100
AcDbScale
 70
     0
300
3/32" = 1'-0"
140
0.09375
141
12.0
290
     0
  0
SCALE
  5
EB
102
{ACAD_REACTORS
330
99
102
}
330
99
100
AcDbScale
 70
     0
300
1/8" = 1'-0"
140
0.125
141
12.0
290
     0
  0
SCALE
  5
EC
102
{ACAD_REACTORS
330
99
102
}
330
99
100
AcDbScale
 70
     0
300
3/16" = 1'-0"
140
0.1875
141
12.0
290
     0
  0
SCALE
  5
ED
102
{ACAD_REACTORS
330
99
102
}
330
99
100
AcDbScale
 70
     0
300
1/4" = 1'-0"
140
0.25
141
12.0
290
     0
  0
SCALE
  5
EE
102
{ACAD_REACTORS
330
99
102
}
330
99
100
AcDbScale
 70
     0
300
3/8" = 1'-0"
140
0.375
141
12.0
290
     0
  0
SCALE
  5
EF
102
{ACAD_REACTORS
330
99
102
}
330
99
100
AcDbScale
 70
     0
300
1/2" = 1'-0"
140
0.5
141
12.0
290
     0
  0
SCALE
  5
F0
102
{ACAD_REACTORS
330
99
102
}
330
99
100
AcDbScale
 70
     0
300
3/4" = 1'-0"
140
0.75
141
12.0
290
     0
  0
SCALE
  5
F1
102
{ACAD_REACTORS
330
99
102
}
330
99
100
AcDbScale
 70
     0
300
1" = 1'-0"
140
1.0
141
12.0
290
     0
  0
SCALE
  5
F2
102
{ACAD_REACTORS
330
99
102
}
330
99
100
AcDbScale
 70
     0
300
1-1/2" = 1'-0"
140
1.5
141
12.0
290
     0
  0
SCALE
  5
F3
102
{ACAD_REACTORS
330
99
102
}
330
99
100
AcDbScale
 70
     0
300
3" = 1'-0"
140
3.0
141
12.0
290
     0
  0
SCALE
  5
F4
102
{ACAD_REACTORS
330
99
102
}
330
99
100
AcDbScale
 70
     0
300
6" = 1'-0"
140
6.0
141
12.0
290
     0
  0
SCALE
  5
F5
102
{ACAD_REACTORS
330
99
102
}
330
99
100
AcDbScale
 70
     0
300
1'-0" = 1'-0"
140
12.0
141
12.0
290
     0
  0
XRECORD
  5
426
102
{ACAD_REACTORS
330
425
102
}
330
425
100
AcDbXrecord
280
     1
340
6C
  0
XRECORD
  5
427
102
{ACAD_REACTORS
330
425
102
}
330
425
100
AcDbXrecord
280
     1
340
6B
  0
DICTIONARYVAR
  5
98
102
{ACAD_REACTORS
330
59
102
}
330
59
100
DictionaryVariables
280
     0
  1
Standard
  0
DICTIONARYVAR
  5
5A
102
{ACAD_REACTORS
330
59
102
}
330
59
100
DictionaryVariables
280
     0
  1
2
  0
DICTIONARYVAR
  5
5E
102
{ACAD_REACTORS
330
59
102
}
330
59
100
DictionaryVariables
280
     0
  1
1
  0
ENDSEC
  0
EOF
