  0
SECTION
  2
HEADER
  9
$ACADVER
  1
AC1015
  9
$ACADMAINTVER
 70
     6
  9
$DWGCODEPAGE
  3
ANSI_1252
  9
$INSBASE
 10
0.0
 20
0.0
 30
0.0
  9
$EXTMIN
 10
-7.562502131805627
 20
95.22088658354582
 30
0.0
  9
$EXTMAX
 10
533.0023
 20
706.691429
 30
0.0
  9
$LIMMIN
 10
0.0
 20
0.0
  9
$LIMMAX
 10
420.0
 20
297.0
  9
$ORTHOMODE
 70
     0
  9
$REGENMODE
 70
     1
  9
$FILLMODE
 70
     1
  9
$QTEXTMODE
 70
     0
  9
$MIRRTEXT
 70
     1
  9
$LTSCALE
 40
1.0
  9
$ATTMODE
 70
     1
  9
$TEXTSIZE
 40
2.5
  9
$TRACEWID
 40
1.0
  9
$TEXTSTYLE
  7
Standard
  9
$CLAYER
  8
0
  9
$CELTYPE
  6
ByLayer
  9
$CECOLOR
 62
   256
  9
$CELTSCALE
 40
1.0
  9
$DISPSILH
 70
     0
  9
$DIMSCALE
 40
1.0
  9
$DIMASZ
 40
2.5
  9
$DIMEXO
 40
0.625
  9
$DIMDLI
 40
3.75
  9
$DIMRND
 40
0.0
  9
$DIMDLE
 40
0.0
  9
$DIMEXE
 40
1.25
  9
$DIMTP
 40
0.0
  9
$DIMTM
 40
0.0
  9
$DIMTXT
 40
2.5
  9
$DIMCEN
 40
2.5
  9
$DIMTSZ
 40
0.0
  9
$DIMTOL
 70
     0
  9
$DIMLIM
 70
     0
  9
$DIMTIH
 70
     0
  9
$DIMTOH
 70
     0
  9
$DIMSE1
 70
     0
  9
$DIMSE2
 70
     0
  9
$DIMTAD
 70
     1
  9
$DIMZIN
 70
     8
  9
$DIMBLK
  1

  9
$DIMASO
 70
     1
  9
$DIMSHO
 70
     1
  9
$DIMPOST
  1

  9
$DIMAPOST
  1

  9
$DIMALT
 70
     0
  9
$DIMALTD
 70
     3
  9
$DIMALTF
 40
0.03937
  9
$DIMLFAC
 40
1.0
  9
$DIMTOFL
 70
     1
  9
$DIMTVP
 40
0.0
  9
$DIMTIX
 70
     0
  9
$DIMSOXD
 70
     0
  9
$DIMSAH
 70
     0
  9
$DIMBLK1
  1

  9
$DIMBLK2
  1

  9
$DIMSTYLE
  2
Standard
  9
$DIMCLRD
 70
     0
  9
$DIMCLRE
 70
     0
  9
$DIMCLRT
 70
     0
  9
$DIMTFAC
 40
1.0
  9
$DIMGAP
 40
0.625
  9
$DIMJUST
 70
     0
  9
$DIMSD1
 70
     0
  9
$DIMSD2
 70
     0
  9
$DIMTOLJ
 70
     0
  9
$DIMTZIN
 70
     8
  9
$DIMALTZ
 70
     0
  9
$DIMALTTZ
 70
     0
  9
$DIMUPT
 70
     0
  9
$DIMDEC
 70
     2
  9
$DIMTDEC
 70
     2
  9
$DIMALTU
 70
     2
  9
$DIMALTTD
 70
     3
  9
$DIMTXSTY
  7
Standard
  9
$DIMAUNIT
 70
     0
  9
$DIMADEC
 70
     0
  9
$DIMALTRND
 40
0.0
  9
$DIMAZIN
 70
     0
  9
$DIMDSEP
 70
    44
  9
$DIMATFIT
 70
     0
  9
$DIMFRAC
 70
     0
  9
$DIMLDRBLK
  1

  9
$DIMLUNIT
 70
     2
  9
$DIMLWD
 70
    -2
  9
$DIMLWE
 70
    -2
  9
$DIMTMOVE
 70
     0
  9
$LUNITS
 70
     2
  9
$LUPREC
 70
     4
  9
$SKETCHINC
 40
1.0
  9
$FILLETRAD
 40
2.5
  9
$AUNITS
 70
     0
  9
$AUPREC
 70
     0
  9
$MENU
  1
.
  9
$ELEVATION
 40
0.0
  9
$PELEVATION
 40
0.0
  9
$THICKNESS
 40
0.0
  9
$LIMCHECK
 70
     0
  9
$CHAMFERA
 40
2.5
  9
$CHAMFERB
 40
2.5
  9
$CHAMFERC
 40
0.0
  9
$CHAMFERD
 40
0.0
  9
$SKPOLY
 70
     0
  9
$TDCREATE
 40
2447893.041666644
  9
$TDUCREATE
 40
2447892.999999977
  9
$TDUPDATE
 40
2447893.041666667
  9
$TDUUPDATE
 40
2447893.0
  9
$TDINDWG
 40
0.0204281944
  9
$TDUSRTIMER
 40
0.0204166204
  9
$USRTIMER
 70
     1
  9
$ANGBASE
 50
0.0
  9
$ANGDIR
 70
     0
  9
$PDMODE
 70
     0
  9
$PDSIZE
 40
0.0
  9
$PLINEWID
 40
0.0
  9
$SPLFRAME
 70
     0
  9
$SPLINETYPE
 70
     6
  9
$SPLINESEGS
 70
     8
  9
$HANDSEED
  5
E5A
  9
$SURFTAB1
 70
     6
  9
$SURFTAB2
 70
     6
  9
$SURFTYPE
 70
     6
  9
$SURFU
 70
     6
  9
$SURFV
 70
     6
  9
$UCSBASE
  2

  9
$UCSNAME
  2

  9
$UCSORG
 10
0.0
 20
0.0
 30
0.0
  9
$UCSXDIR
 10
1.0
 20
0.0
 30
0.0
  9
$UCSYDIR
 10
0.0
 20
1.0
 30
0.0
  9
$UCSORTHOREF
  2

  9
$UCSORTHOVIEW
 70
     0
  9
$UCSORGTOP
 10
0.0
 20
0.0
 30
0.0
  9
$UCSORGBOTTOM
 10
0.0
 20
0.0
 30
0.0
  9
$UCSORGLEFT
 10
0.0
 20
0.0
 30
0.0
  9
$UCSORGRIGHT
 10
0.0
 20
0.0
 30
0.0
  9
$UCSORGFRONT
 10
0.0
 20
0.0
 30
0.0
  9
$UCSORGBACK
 10
0.0
 20
0.0
 30
0.0
  9
$PUCSBASE
  2

  9
$PUCSNAME
  2

  9
$PUCSORG
 10
0.0
 20
0.0
 30
0.0
  9
$PUCSXDIR
 10
1.0
 20
0.0
 30
0.0
  9
$PUCSYDIR
 10
0.0
 20
1.0
 30
0.0
  9
$PUCSORTHOREF
  2

  9
$PUCSORTHOVIEW
 70
     0
  9
$PUCSORGTOP
 10
0.0
 20
0.0
 30
0.0
  9
$PUCSORGBOTTOM
 10
0.0
 20
0.0
 30
0.0
  9
$PUCSORGLEFT
 10
0.0
 20
0.0
 30
0.0
  9
$PUCSORGRIGHT
 10
0.0
 20
0.0
 30
0.0
  9
$PUCSORGFRONT
 10
0.0
 20
0.0
 30
0.0
  9
$PUCSORGBACK
 10
0.0
 20
0.0
 30
0.0
  9
$USERI1
 70
     0
  9
$USERI2
 70
     0
  9
$USERI3
 70
     0
  9
$USERI4
 70
     0
  9
$USERI5
 70
     0
  9
$USERR1
 40
0.0
  9
$USERR2
 40
0.0
  9
$USERR3
 40
0.0
  9
$USERR4
 40
0.0
  9
$USERR5
 40
0.0
  9
$WORLDVIEW
 70
     1
  9
$SHADEDGE
 70
     3
  9
$SHADEDIF
 70
    70
  9
$TILEMODE
 70
     1
  9
$MAXACTVP
 70
    48
  9
$PINSBASE
 10
0.0
 20
0.0
 30
0.0
  9
$PLIMCHECK
 70
     0
  9
$PEXTMIN
 10
0.0
 20
0.0
 30
0.0
  9
$PEXTMAX
 10
197.908966
 20
887.136902
 30
2.0
  9
$PLIMMIN
 10
0.0
 20
0.0
  9
$PLIMMAX
 10
420.0
 20
297.0
  9
$UNITMODE
 70
     0
  9
$VISRETAIN
 70
     0
  9
$PLINEGEN
 70
     0
  9
$PSLTSCALE
 70
     1
  9
$TREEDEPTH
 70
  3020
  9
$CMLSTYLE
  2
Standard
  9
$CMLJUST
 70
     0
  9
$CMLSCALE
 40
20.0
  9
$PROXYGRAPHICS
 70
     1
  9
$MEASUREMENT
 70
     1
  9
$CELWEIGHT
370
    -1
  9
$ENDCAPS
280
     0
  9
$JOINSTYLE
280
     0
  9
$LWDISPLAY
290
     0
  9
$INSUNITS
 70
     0
  9
$HYPERLINKBASE
  1

  9
$STYLESHEET
  1

  9
$XEDIT
290
     1
  9
$CEPSNTYPE
380
     0
  9
$PSTYLEMODE
290
     0
  9
$FINGERPRINTGUID
  2

  9
$VERSIONGUID
  2

  9
$EXTNAMES
290
     0
  9
$PSVPSCALE
 40
0.0
  9
$OLESTARTUP
290
     0
  0
ENDSEC
  0
SECTION
  2
CLASSES
  0
CLASS
  1
ACDBDICTIONARYWDFLT
  2
AcDbDictionaryWithDefault
  3
ObjectDBX Classes
 90
        0
280
     0
281
     0
  0
CLASS
  1
ACDBPLACEHOLDER
  2
AcDbPlaceHolder
  3
ObjectDBX Classes
 90
        0
280
     0
281
     0
  0
CLASS
  1
LAYOUT
  2
AcDbLayout
  3
ObjectDBX Classes
 90
        0
280
     0
281
     0
  0
CLASS
  1
DICTIONARYVAR
  2
AcDbDictionaryVar
  3
ObjectDBX Classes
 90
        0
280
     0
281
     0
  0
CLASS
  1
TABLESTYLE
  2
AcDbTableStyle
  3
ObjectDBX Classes
 90
     4095
280
     0
281
     0
  0
CLASS
  1
SCALE
  2
AcDbScale
  3
ObjectDBX Classes
 90
     1153
280
     0
281
     0
  0
CLASS
  1
WIPEOUTVARIABLES
  2
AcDbWipeoutVariables
  3
WipeOut|AutoCAD Express Tool|expresstools@autodesk.com
 90
        0
280
     0
281
     0
  0
ENDSEC
  0
SECTION
  2
TABLES
  0
TABLE
  2
VPORT
  5
8
330
0
100
AcDbSymbolTable
 70
     2
  0
VPORT
  5
97
330
8
100
AcDbSymbolTableRecord
100
AcDbViewportTableRecord
  2
*ACTIVE
 70
     0
 10
0.0
 20
0.0
 11
1.0
 21
1.0
 12
252.8777025328864
 22
474.6026811241962
 13
0.0
 23
0.0
 14
1.0
 24
1.0
 15
0.5
 25
0.5
 16
0.0
 26
0.0
 36
1.0
 17
0.0
 27
0.0
 37
0.0
 40
860.8477368502679
 41
0.688564
 42
50.0
 43
0.0
 44
0.0
 50
0.0
 51
0.0
 71
     0
 72
   100
 73
     1
 74
     1
 75
     0
 76
     0
 77
     0
 78
     0
281
     0
 65
     1
110
0.0
120
0.0
130
0.0
111
1.0
121
0.0
131
0.0
112
0.0
122
1.0
132
0.0
 79
     0
146
0.0
  0
ENDTAB
  0
TABLE
  2
LTYPE
  5
5
330
0
100
AcDbSymbolTable
 70
     8
  0
LTYPE
  5
14
330
5
100
AcDbSymbolTableRecord
100
AcDbLinetypeTableRecord
  2
ByBlock
 70
     0
  3

 72
    65
 73
     0
 40
0.0
  0
LTYPE
  5
15
330
5
100
AcDbSymbolTableRecord
100
AcDbLinetypeTableRecord
  2
ByLayer
 70
     0
  3

 72
    65
 73
     0
 40
0.0
  0
LTYPE
  5
16
330
5
100
AcDbSymbolTableRecord
100
AcDbLinetypeTableRecord
  2
Continuous
 70
     0
  3
Solid line
 72
    65
 73
     0
 40
0.0
  0
LTYPE
  5
E2C
330
5
100
AcDbSymbolTableRecord
100
AcDbLinetypeTableRecord
  2
DASHED
 70
     0
  3
__ __ __ __ __ __ __ __ __ __ __ __ __ __ __ __
 72
    65
 73
     2
 40
15.0
 49
12.0
 74
     0
 49
-3.0
 74
     0
  0
LTYPE
  5
E2D
330
5
100
AcDbSymbolTableRecord
100
AcDbLinetypeTableRecord
  2
DASHDOT
 70
     0
  3
 __ . __ . __ . __ . __ . __ . __ . 
 72
    65
 73
     4
 40
18.5
 49
12.0
 74
     0
 49
-3.0
 74
     0
 49
0.5
 74
     0
 49
-3.0
 74
     0
  0
LTYPE
  5
E2E
330
5
100
AcDbSymbolTableRecord
100
AcDbLinetypeTableRecord
  2
DOT
 70
     0
  3
 . . . . . . . . . . . . . . . .
 72
    65
 73
     2
 40
3.5
 49
0.5
 74
     0
 49
-3.0
 74
     0
  0
LTYPE
  5
E2F
330
5
100
AcDbSymbolTableRecord
100
AcDbLinetypeTableRecord
  2
DASHSPACE
 70
     0
  3
__    __    __    __    __   
 72
    65
 73
     2
 40
30.0
 49
12.0
 74
     0
 49
-18.0
 74
     0
  0
LTYPE
  5
E30
330
5
100
AcDbSymbolTableRecord
100
AcDbLinetypeTableRecord
  2
DASHDOT2
 70
     0
  3
__ . . __ . . __ . . __ 
 72
    65
 73
     6
 40
22.0
 49
12.0
 74
     0
 49
-3.0
 74
     0
 49
0.5
 74
     0
 49
-3.0
 74
     0
 49
0.5
 74
     0
 49
-3.0
 74
     0
  0
LTYPE
  5
E31
330
5
100
AcDbSymbolTableRecord
100
AcDbLinetypeTableRecord
  2
PHANTOM
 70
     0
  3
____________    ____    ____   _
 72
    65
 73
     6
 40
20.0
 49
10.0
 74
     0
 49
-2.0
 74
     0
 49
2.0
 74
     0
 49
-2.0
 74
     0
 49
2.0
 74
     0
 49
-2.0
 74
     0
  0
LTYPE
  5
E32
330
5
100
AcDbSymbolTableRecord
100
AcDbLinetypeTableRecord
  2
AXES
 70
     0
  3
________  __  ________  __  _____
 72
    65
 73
     4
 40
24.0
 49
15.0
 74
     0
 49
-3.0
 74
     0
 49
3.0
 74
     0
 49
-3.0
 74
     0
  0
ENDTAB
  0
TABLE
  2
LAYER
  5
2
330
0
100
AcDbSymbolTable
 70
     2
  0
LAYER
  5
10
330
2
100
AcDbSymbolTableRecord
100
AcDbLayerTableRecord
  2
0
 70
     0
 62
     7
  6
Continuous
370
    13
390
F
  0
LAYER
  5
C93
330
2
100
AcDbSymbolTableRecord
100
AcDbLayerTableRecord
  2
DEFPOINTS
 70
     0
 62
     7
  6
Continuous
290
     0
370
    -3
390
F
  0
ENDTAB
  0
TABLE
  2
STYLE
  5
3
330
0
100
AcDbSymbolTable
 70
     2
  0
STYLE
  5
11
330
3
100
AcDbSymbolTableRecord
100
AcDbTextStyleTableRecord
  2
Standard
 70
     0
 40
0.0
 41
1.0
 50
0.0
 71
     0
 42
0.2
  3
isocp.shx
  4

  0
STYLE
  5
2B
330
3
100
AcDbSymbolTableRecord
100
AcDbTextStyleTableRecord
  2
GDT
 70
     0
 40
0.0
 41
1.0
 50
0.0
 71
     0
 42
0.2
  3
amgdt.shx
  4

  0
ENDTAB
  0
TABLE
  2
VIEW
  5
6
330
0
100
AcDbSymbolTable
 70
     0
  0
ENDTAB
  0
TABLE
  2
UCS
  5
7
330
0
100
AcDbSymbolTable
 70
     0
  0
ENDTAB
  0
TABLE
  2
APPID
  5
9
330
0
100
AcDbSymbolTable
 70
     3
  0
APPID
  5
12
330
9
100
AcDbSymbolTableRecord
100
AcDbRegAppTableRecord
  2
ACAD
 70
     0
  0
APPID
  5
E2A
330
9
100
AcDbSymbolTableRecord
100
AcDbRegAppTableRecord
  2
Conv5506CA
 70
     0
  0
APPID
  5
E2B
330
9
100
AcDbSymbolTableRecord
100
AcDbRegAppTableRecord
  2
PROGE_PRINT_SETTINGS
 70
     0
  0
ENDTAB
  0
TABLE
  2
DIMSTYLE
  5
A
330
0
100
AcDbSymbolTable
 70
     1
100
AcDbDimStyleTable
  0
DIMSTYLE
105
27
102
{ACAD_REACTORS
330
CDA
102
}
330
A
100
AcDbSymbolTableRecord
100
AcDbDimStyleTableRecord
  2
Standard
 70
     0
 41
2.5
 42
0.625
 43
3.75
 44
1.25
 73
     0
 74
     0
 77
     1
 78
     8
140
2.5
141
2.5
143
0.03937
147
0.625
171
     3
172
     1
271
     2
272
     2
274
     3
278
    44
283
     0
284
     8
289
     0
340
11
  0
ENDTAB
  0
TABLE
  2
BLOCK_RECORD
  5
1
330
0
100
AcDbSymbolTable
 70
    17
  0
BLOCK_RECORD
  5
1F
330
1
100
AcDbSymbolTableRecord
100
AcDbBlockTableRecord
  2
*Model_Space
340
22
  0
BLOCK_RECORD
  5
73
330
1
100
AcDbSymbolTableRecord
100
AcDbBlockTableRecord
  2
*Paper_Space
340
74
  0
BLOCK_RECORD
  5
4E
330
1
100
AcDbSymbolTableRecord
100
AcDbBlockTableRecord
  2
Block0
340
0
  0
BLOCK_RECORD
  5
2C
330
1
100
AcDbSymbolTableRecord
100
AcDbBlockTableRecord
  2
*D1
340
0
  0
BLOCK_RECORD
  5
2E
330
1
100
AcDbSymbolTableRecord
100
AcDbBlockTableRecord
  2
*D2
340
0
  0
BLOCK_RECORD
  5
4F
330
1
100
AcDbSymbolTableRecord
100
AcDbBlockTableRecord
  2
Block1
340
0
  0
BLOCK_RECORD
  5
50
330
1
100
AcDbSymbolTableRecord
100
AcDbBlockTableRecord
  2
Block2
340
0
  0
BLOCK_RECORD
  5
C9F
330
1
100
AcDbSymbolTableRecord
100
AcDbBlockTableRecord
  2
*D5
340
0
  0
BLOCK_RECORD
  5
CAA
330
1
100
AcDbSymbolTableRecord
100
AcDbBlockTableRecord
  2
*D6
340
0
  0
BLOCK_RECORD
  5
CB5
330
1
100
AcDbSymbolTableRecord
100
AcDbBlockTableRecord
  2
*D7
340
0
  0
BLOCK_RECORD
  5
CC0
330
1
100
AcDbSymbolTableRecord
100
AcDbBlockTableRecord
  2
*D8
340
0
  0
BLOCK_RECORD
  5
CCE
330
1
100
AcDbSymbolTableRecord
100
AcDbBlockTableRecord
  2
*D9
340
0
  0
BLOCK_RECORD
  5
CD9
330
1
100
AcDbSymbolTableRecord
100
AcDbBlockTableRecord
  2
*D10
340
0
  0
BLOCK_RECORD
  5
CE5
330
1
100
AcDbSymbolTableRecord
100
AcDbBlockTableRecord
  2
*D11
340
0
  0
BLOCK_RECORD
  5
CF0
330
1
100
AcDbSymbolTableRecord
100
AcDbBlockTableRecord
  2
*D12
340
0
  0
BLOCK_RECORD
  5
CFB
330
1
100
AcDbSymbolTableRecord
100
AcDbBlockTableRecord
  2
*D13
340
0
  0
BLOCK_RECORD
  5
D81
330
1
100
AcDbSymbolTableRecord
100
AcDbBlockTableRecord
  2
*D14
340
0
  0
BLOCK_RECORD
  5
DBB
330
1
100
AcDbSymbolTableRecord
100
AcDbBlockTableRecord
  2
*D15
340
0
  0
BLOCK_RECORD
  5
E28
330
1
100
AcDbSymbolTableRecord
100
AcDbBlockTableRecord
  2
*D16
340
0
  0
ENDTAB
  0
ENDSEC
  0
SECTION
  2
BLOCKS
  0
BLOCK
  5
20
330
1F
100
AcDbEntity
  8
0
100
AcDbBlockBegin
  2
*Model_Space
 70
     0
 10
0.0
 20
0.0
 30
0.0
  3
*Model_Space
  1

  0
ENDBLK
  5
21
330
1F
100
AcDbEntity
  8
0
100
AcDbBlockEnd
  0
BLOCK
  5
75
330
73
100
AcDbEntity
 67
     1
  8
0
100
AcDbBlockBegin
  2
*Paper_Space
 70
     0
 10
0.0
 20
0.0
 30
0.0
  3
*Paper_Space
  1

  0
ENDBLK
  5
76
330
73
100
AcDbEntity
 67
     1
  8
0
100
AcDbBlockEnd
  0
BLOCK
  5
E34
102
{ACAD_REACTORS
330
CDA
102
}
330
4E
100
AcDbEntity
  8
0
100
AcDbBlockBegin
  2
Block0
 70
     0
 10
0.0
 20
0.0
 30
0.0
  3
Block0
  1

  0
TEXT
  5
52
330
4E
100
AcDbEntity
  8
0
 62
     7
370
    13
390
F
100
AcDbText
 10
-156.993271
 20
867.710388
 30
0.0
 40
14.0
  1
HALLE OTTICA LISCIA
 41
1.323796425702811
 72
     5
 11
73.744446
 21
867.710388
 31
0.0
100
AcDbText
  0
ENDBLK
  5
E35
330
4E
100
AcDbEntity
  8
0
100
AcDbBlockEnd
  0
BLOCK
  5
E36
330
2C
100
AcDbEntity
  8
0
100
AcDbBlockBegin
  2
*D1
 70
     1
 10
0.0
 20
0.0
 30
0.0
  3
*D1
  1

  0
SOLID
  5
55
330
2C
100
AcDbEntity
  8
0
 62
     7
370
    13
390
F
100
AcDbTrace
 10
36.580822
 20
704.759605
 30
0.0
 11
36.063183
 21
706.691429
 31
0.0
 12
36.580822
 22
704.759605
 32
0.0
 13
35.545544
 23
704.759605
 33
0.0
  0
SOLID
  5
56
330
2C
100
AcDbEntity
  8
0
 62
     7
370
    13
390
F
100
AcDbTrace
 10
35.545544
 20
135.875328
 30
0.0
 11
36.063183
 21
133.943473
 31
0.0
 12
35.545544
 22
135.875328
 32
0.0
 13
36.580822
 23
135.875328
 33
0.0
  0
TEXT
  5
57
330
2C
100
AcDbEntity
  8
0
 62
     7
370
    13
390
F
100
AcDbText
 10
34.063183
 20
415.813987
 30
0.0
 40
3.0
  1
573
 50
90.0
 41
1.53965094017094
 72
     5
 11
34.063183
 21
424.820945
 31
0.0
100
AcDbText
  0
LINE
  5
58
330
2C
100
AcDbEntity
  8
0
 62
     7
370
    13
390
F
100
AcDbLine
 10
59.997692
 20
133.943473
 30
0.0
 11
34.063183
 21
133.943473
 31
0.0
  0
LINE
  5
D24
330
2C
100
AcDbEntity
  8
0
 62
     7
370
    13
390
F
100
AcDbLine
 10
295.999996
 20
706.691429
 30
0.0
 11
34.063183
 21
706.691429
 31
0.0
  0
LINE
  5
D25
330
2C
100
AcDbEntity
  8
0
 62
     7
370
    13
390
F
100
AcDbLine
 10
36.063183
 20
135.875328
 30
0.0
 11
36.063183
 21
704.759605
 31
0.0
  0
LINE
  5
5B
330
2C
100
AcDbEntity
  8
0
 62
     7
 48
0.049999
370
    13
390
F
100
AcDbLine
 10
36.580822
 20
704.759605
 30
0.0
 11
36.063183
 21
706.691429
 31
0.0
  0
LINE
  5
5C
330
2C
100
AcDbEntity
  8
0
 62
     7
 48
0.049999
370
    13
390
F
100
AcDbLine
 10
36.063183
 20
706.691429
 30
0.0
 11
35.545544
 21
704.759605
 31
0.0
  0
LINE
  5
5D
330
2C
100
AcDbEntity
  8
0
 62
     7
 48
0.025882
370
    13
390
F
100
AcDbLine
 10
35.545544
 20
704.759605
 30
0.0
 11
36.580822
 21
704.759605
 31
0.0
  0
LINE
  5
D26
330
2C
100
AcDbEntity
  8
0
 62
     7
 48
0.05
370
    13
390
F
100
AcDbLine
 10
35.545544
 20
135.875328
 30
0.0
 11
36.063183
 21
133.943473
 31
0.0
  0
LINE
  5
5F
330
2C
100
AcDbEntity
  8
0
 62
     7
 48
0.05
370
    13
390
F
100
AcDbLine
 10
36.063183
 20
133.943473
 30
0.0
 11
36.580822
 21
135.875328
 31
0.0
  0
LINE
  5
60
330
2C
100
AcDbEntity
  8
0
 62
     7
 48
0.025882
370
    13
390
F
100
AcDbLine
 10
36.580822
 20
135.875328
 30
0.0
 11
35.545544
 21
135.875328
 31
0.0
  0
ENDBLK
  5
E37
330
2C
100
AcDbEntity
  8
0
100
AcDbBlockEnd
  0
BLOCK
  5
E38
330
2E
100
AcDbEntity
  8
0
100
AcDbBlockBegin
  2
*D2
 70
     1
 10
0.0
 20
0.0
 30
0.0
  3
*D2
  1

  0
SOLID
  5
63
330
2E
100
AcDbEntity
  8
0
 62
     7
370
    13
390
F
100
AcDbTrace
 10
531.070446
 20
99.902153
 30
0.0
 11
533.0023
 21
100.419792
 31
0.0
 12
531.070446
 22
99.902153
 32
0.0
 13
531.070446
 23
100.937431
 33
0.0
  0
SOLID
  5
64
330
2E
100
AcDbEntity
  8
0
 62
     7
370
    13
390
F
100
AcDbTrace
 10
62.929546
 20
100.937431
 30
0.0
 11
60.997692
 21
100.419792
 31
0.0
 12
62.929546
 22
100.937431
 32
0.0
 13
62.929546
 23
99.902153
 33
0.0
  0
TEXT
  5
65
330
2E
100
AcDbEntity
  8
0
 62
     7
370
    13
390
F
100
AcDbText
 10
294.496532
 20
102.419792
 30
0.0
 40
3.0
  1
472
 41
1.464381881625127
 72
     5
 11
303.503452
 21
102.419792
 31
0.0
100
AcDbText
  0
TEXT
  5
66
330
2E
100
AcDbEntity
  8
0
 62
     7
370
    13
390
F
100
AcDbText
 10
290.496536
 20
102.419792
 30
0.0
 40
3.0
  1
%%c
 41
1.333333333333333
 72
     5
 11
293.496536
 21
102.419792
 31
0.0
100
AcDbText
  0
LINE
  5
67
330
2E
100
AcDbEntity
  8
0
 62
     7
370
    13
390
F
100
AcDbLine
 10
60.997692
 20
132.943473
 30
0.0
 11
60.997692
 21
98.419792
 31
0.0
  0
LINE
  5
68
330
2E
100
AcDbEntity
  8
0
 62
     7
370
    13
390
F
100
AcDbLine
 10
533.0023
 20
132.943473
 30
0.0
 11
533.0023
 21
98.419792
 31
0.0
  0
LINE
  5
69
330
2E
100
AcDbEntity
  8
0
 62
     7
370
    13
390
F
100
AcDbLine
 10
62.929546
 20
100.419792
 30
0.0
 11
531.070446
 21
100.419792
 31
0.0
  0
LINE
  5
6A
330
2E
100
AcDbEntity
  8
0
 62
     7
 48
0.05
370
    13
390
F
100
AcDbLine
 10
531.070446
 20
99.902153
 30
0.0
 11
533.0023
 21
100.419792
 31
0.0
  0
LINE
  5
D27
330
2E
100
AcDbEntity
  8
0
 62
     7
 48
0.05
370
    13
390
F
100
AcDbLine
 10
533.0023
 20
100.419792
 30
0.0
 11
531.070446
 21
100.937431
 31
0.0
  0
LINE
  5
D28
330
2E
100
AcDbEntity
  8
0
 62
     7
 48
0.025882
370
    13
390
F
100
AcDbLine
 10
531.070446
 20
100.937431
 30
0.0
 11
531.070446
 21
99.902153
 31
0.0
  0
LINE
  5
6D
330
2E
100
AcDbEntity
  8
0
 62
     7
 48
0.05
370
    13
390
F
100
AcDbLine
 10
62.929546
 20
100.937431
 30
0.0
 11
60.997692
 21
100.419792
 31
0.0
  0
LINE
  5
6E
330
2E
100
AcDbEntity
  8
0
 62
     7
 48
0.05
370
    13
390
F
100
AcDbLine
 10
60.997692
 20
100.419792
 30
0.0
 11
62.929546
 21
99.902153
 31
0.0
  0
LINE
  5
6F
330
2E
100
AcDbEntity
  8
0
 62
     7
 48
0.025882
370
    13
390
F
100
AcDbLine
 10
62.929546
 20
99.902153
 30
0.0
 11
62.929546
 21
100.937431
 31
0.0
  0
ENDBLK
  5
E39
330
2E
100
AcDbEntity
  8
0
100
AcDbBlockEnd
  0
BLOCK
  5
E3A
330
4F
100
AcDbEntity
  8
0
100
AcDbBlockBegin
  2
Block1
 70
     0
 10
0.0
 20
0.0
 30
0.0
  3
Block1
  1

  0
LINE
  5
72
330
4F
100
AcDbEntity
  8
0
  6
DASHDOT
 62
     7
370
    13
390
F
100
AcDbLine
 10
-30.09256
 20
801.864319
 30
0.0
 11
-67.088493
 21
801.864319
 31
0.0
  0
LINE
  5
D29
330
4F
100
AcDbEntity
  8
0
  6
DASHDOT
 62
     7
370
    13
390
F
100
AcDbLine
 10
-48.59053
 20
820.362244
 30
0.0
 11
-48.59053
 21
783.366333
 31
0.0
  0
ENDBLK
  5
E3B
330
4F
100
AcDbEntity
  8
0
100
AcDbBlockEnd
  0
BLOCK
  5
E3C
330
50
100
AcDbEntity
  8
0
100
AcDbBlockBegin
  2
Block2
 70
     0
 10
0.0
 20
0.0
 30
0.0
  3
Block2
  1

  0
LINE
  5
D2A
330
50
100
AcDbEntity
  8
0
 62
     7
370
    35
390
F
100
AcDbLine
 10
61.40947
 20
610.614319
 30
0.0
 11
-32.590096
 21
610.614319
 31
0.0
  0
LINE
  5
77
330
50
100
AcDbEntity
  8
0
 62
     7
 48
0.287486
370
    35
390
F
100
AcDbLine
 10
-35.59053
 20
610.614319
 30
0.0
 11
-47.089981
 21
610.614319
 31
0.0
  0
LINE
  5
78
330
50
100
AcDbEntity
  8
0
 62
     7
 48
0.287486
370
    35
390
F
100
AcDbLine
 10
-50.091091
 20
610.614319
 30
0.0
 11
-61.59053
 21
610.614319
 31
0.0
  0
LINE
  5
79
330
50
100
AcDbEntity
  8
0
 62
     7
370
    35
390
F
100
AcDbLine
 10
-64.590973
 20
610.614319
 30
0.0
 11
-158.59053
 21
610.614319
 31
0.0
  0
LINE
  5
7A
330
50
100
AcDbEntity
  8
0
 62
     7
 48
0.050069
370
    35
390
F
100
AcDbLine
 10
61.409458
 20
610.614319
 30
0.0
 11
61.304646
 21
608.614319
 31
0.0
  0
LINE
  5
7B
330
50
100
AcDbEntity
  8
0
 62
     7
 48
0.050069
370
    35
390
F
100
AcDbLine
 10
-158.590515
 20
610.614319
 30
0.0
 11
-158.485703
 21
608.614319
 31
0.0
  0
LINE
  5
7C
330
50
100
AcDbEntity
  8
0
 62
     7
 48
0.287486
370
    35
390
F
100
AcDbLine
 10
-50.091091
 20
606.614319
 30
0.0
 11
-61.59053
 21
606.614319
 31
0.0
  0
LINE
  5
7D
330
50
100
AcDbEntity
  8
0
 62
     7
370
    35
390
F
100
AcDbLine
 10
-64.590881
 20
606.614319
 30
0.0
 11
-158.380875
 21
606.614319
 31
0.0
  0
LINE
  5
7E
330
50
100
AcDbEntity
  8
0
 62
     7
370
    35
390
F
100
AcDbLine
 10
61.199818
 20
606.614319
 30
0.0
 11
-32.590191
 21
606.614319
 31
0.0
  0
LINE
  5
7F
330
50
100
AcDbEntity
  8
0
 62
     7
 48
0.287486
370
    35
390
F
100
AcDbLine
 10
-35.59053
 20
606.614319
 30
0.0
 11
-47.089981
 21
606.614319
 31
0.0
  0
LINE
  5
80
330
50
100
AcDbEntity
  8
0
 62
     7
370
    35
390
F
100
AcDbLine
 10
55.914593
 20
606.614319
 30
0.0
 11
33.240189
 21
581.533203
 31
0.0
  0
LINE
  5
81
330
50
100
AcDbEntity
  8
0
 62
     7
 48
0.094273
370
    13
390
F
100
AcDbLine
 10
29.469286
 20
581.533203
 30
0.0
 11
33.240189
 21
581.533203
 31
0.0
  0
ARC
  5
82
330
50
100
AcDbEntity
  8
0
 62
     7
370
    35
390
F
100
AcDbCircle
 10
25.089632
 20
576.370239
 30
0.0
 40
0.11564
100
AcDbArc
 50
276.577975
 51
327.157617
  0
LINE
  5
83
330
50
100
AcDbEntity
  8
0
 62
     7
370
    13
390
F
100
AcDbLine
 10
49.976662
 20
606.614319
 30
0.0
 11
25.102816
 21
576.25592
 31
0.0
  0
ARC
  5
84
330
50
100
AcDbEntity
  8
0
 62
     7
370
    35
390
F
100
AcDbCircle
 10
24.915012
 20
563.920227
 30
0.0
 40
12.337137
100
AcDbArc
 50
89.127767
 51
90.874881
  0
LINE
  5
85
330
50
100
AcDbEntity
  8
0
 62
     7
370
    13
390
F
100
AcDbLine
 10
24.726635
 20
576.25592
 30
0.0
 11
49.600479
 21
606.614319
 31
0.0
  0
LWPOLYLINE
  5
86
330
50
100
AcDbEntity
  8
0
 62
     7
370
    35
390
F
100
AcDbPolyline
 90
        7
 70
     0
 43
0.0
 10
24.726631
 20
576.25592
 10
24.691118
 20
576.265076
 10
24.643044
 20
576.310303
 10
24.590448
 20
576.414429
 10
24.53838
 20
576.626465
 10
24.509478
 20
576.997314
 10
24.510151
 20
577.125244
  0
LINE
  5
8F
330
50
100
AcDbEntity
  8
0
 62
     7
370
    13
390
F
100
AcDbLine
 10
24.510155
 20
577.125244
 30
0.0
 11
48.671734
 21
606.614319
 31
0.0
  0
ARC
  5
90
330
50
100
AcDbEntity
  8
0
 62
     7
370
    35
390
F
100
AcDbCircle
 10
26.627035
 20
580.257935
 30
0.0
 40
2.035226
100
AcDbArc
 50
141.185475
 51
178.912188
  0
LINE
  5
91
330
50
100
AcDbEntity
  8
0
 62
     7
370
    35
390
F
100
AcDbLine
 10
25.042912
 20
581.533203
 30
0.0
 11
45.594788
 21
606.614319
 31
0.0
  0
LINE
  5
D2B
330
50
100
AcDbEntity
  8
0
 62
     7
 48
0.079311
370
    35
390
F
100
AcDbLine
 10
24.510155
 20
577.125244
 30
0.0
 11
24.592619
 21
580.296631
 31
0.0
  0
LINE
  5
D2C
330
50
100
AcDbEntity
  8
0
 62
     7
 48
0.073738
370
    13
390
F
100
AcDbLine
 10
22.09341
 20
581.533203
 30
0.0
 11
25.042912
 21
581.533203
 31
0.0
  0
LWPOLYLINE
  5
94
330
50
100
AcDbEntity
  8
0
 62
     7
370
    35
390
F
100
AcDbPolyline
 90
        4
 70
     0
 43
0.0
 10
18.101343
 20
576.255981
 10
18.158972
 20
576.26886
 10
18.238964
 20
576.331116
 10
18.263083
 20
576.360901
  0
LINE
  5
D2D
330
50
100
AcDbEntity
  8
0
 62
     7
370
    13
390
F
100
AcDbLine
 10
40.583149
 20
606.614319
 30
0.0
 11
18.101315
 21
576.25592
 31
0.0
  0
ARC
  5
D2E
330
50
100
AcDbEntity
  8
0
 62
     7
370
    35
390
F
100
AcDbCircle
 10
17.846296
 20
553.532959
 30
0.0
 40
22.724422
100
AcDbArc
 50
89.357002
 51
90.644294
  0
LINE
  5
D2F
330
50
100
AcDbEntity
  8
0
 62
     7
370
    13
390
F
100
AcDbLine
 10
17.590765
 20
576.25592
 30
0.0
 11
40.072598
 21
606.614319
 31
0.0
  0
LWPOLYLINE
  5
D30
330
50
100
AcDbEntity
  8
0
 62
     7
370
    35
390
F
100
AcDbPolyline
 90
        6
 70
     0
 43
0.0
 10
17.590794
 20
576.255981
 10
17.519587
 20
576.276367
 10
17.437756
 20
576.3573
 10
17.361238
 20
576.514587
 10
17.305954
 20
576.746033
 10
17.280521
 20
577.125305
  0
LINE
  5
D31
330
50
100
AcDbEntity
  8
0
 62
     7
370
    13
390
F
100
AcDbLine
 10
17.280491
 20
577.125244
 30
0.0
 11
39.118553
 21
606.614319
 31
0.0
  0
LWPOLYLINE
  5
D32
330
50
100
AcDbEntity
  8
0
 62
     7
370
    35
390
F
100
AcDbPolyline
 90
        5
 70
     0
 43
0.0
 10
17.727352
 20
581.533203
 10
17.546522
 20
581.235229
 10
17.417156
 20
580.901245
 10
17.343666
 20
580.542908
 10
17.327063
 20
580.296631
  0
LINE
  5
D33
330
50
100
AcDbEntity
  8
0
 62
     7
370
    35
390
F
100
AcDbLine
 10
17.72529
 20
581.533203
 30
0.0
 11
36.300789
 21
606.614319
 31
0.0
  0
LINE
  5
D34
330
50
100
AcDbEntity
  8
0
 62
     7
 48
0.079292
370
    35
390
F
100
AcDbLine
 10
17.280491
 20
577.125244
 30
0.0
 11
17.325003
 21
580.296631
 31
0.0
  0
LINE
  5
D35
330
50
100
AcDbEntity
  8
0
 62
     7
 48
0.128432
370
    13
390
F
100
AcDbLine
 10
12.587996
 20
581.533203
 30
0.0
 11
17.725258
 21
581.533203
 31
0.0
  0
LWPOLYLINE
  5
D36
330
50
100
AcDbEntity
  8
0
 62
     7
370
    35
390
F
100
AcDbPolyline
 90
        4
 70
     0
 43
0.0
 10
9.073452
 20
576.255981
 10
9.169916
 20
576.280029
 10
9.256946
 20
576.345276
 10
9.331012
 20
576.439636
  0
LINE
  5
D37
330
50
100
AcDbEntity
  8
0
 62
     7
370
    13
390
F
100
AcDbLine
 10
28.480141
 20
606.614319
 30
0.0
 11
9.073417
 21
576.25592
 31
0.0
  0
ARC
  5
D38
330
50
100
AcDbEntity
  8
0
 62
     7
370
    35
390
F
100
AcDbCircle
 10
8.758933
 20
541.720947
 30
0.0
 40
34.536407
100
AcDbArc
 50
89.478265
 51
90.522471
  0
LINE
  5
D39
330
50
100
AcDbEntity
  8
0
 62
     7
370
    13
390
F
100
AcDbLine
 10
8.444008
 20
576.25592
 30
0.0
 11
27.850731
 21
606.614319
 31
0.0
  0
LWPOLYLINE
  5
D3A
330
50
100
AcDbEntity
  8
0
 62
     7
370
    35
390
F
100
AcDbPolyline
 90
        7
 70
     0
 43
0.0
 10
8.444042
 20
576.255981
 10
8.356063
 20
576.276367
 10
8.254269
 20
576.3573
 10
8.158046
 20
576.514587
 10
8.086475
 20
576.746033
 10
8.049805
 20
577.082703
 10
8.049404
 20
577.125305
  0
LINE
  5
C2
330
50
100
AcDbEntity
  8
0
 62
     7
370
    13
390
F
100
AcDbLine
 10
8.04937
 20
577.125244
 30
0.0
 11
26.900379
 21
606.614319
 31
0.0
  0
LWPOLYLINE
  5
C3
330
50
100
AcDbEntity
  8
0
 62
     7
370
    35
390
F
100
AcDbPolyline
 90
        5
 70
     0
 43
0.0
 10
8.393775
 20
581.533203
 10
8.238257
 20
581.235229
 10
8.128288
 20
580.901245
 10
8.06762
 20
580.542908
 10
8.05568
 20
580.296631
  0
LINE
  5
CA
330
50
100
AcDbEntity
  8
0
 62
     7
370
    35
390
F
100
AcDbLine
 10
8.392683
 20
581.533203
 30
0.0
 11
24.42741
 21
606.614319
 31
0.0
  0
LINE
  5
CB
330
50
100
AcDbEntity
  8
0
 62
     7
 48
0.079285
370
    35
390
F
100
AcDbLine
 10
8.04937
 20
577.125244
 30
0.0
 11
8.054576
 21
580.296631
 31
0.0
  0
LINE
  5
CC
330
50
100
AcDbEntity
  8
0
 62
     7
 48
0.178771
370
    13
390
F
100
AcDbLine
 10
1.241808
 20
581.533203
 30
0.0
 11
8.392632
 21
581.533203
 31
0.0
  0
LWPOLYLINE
  5
CD
330
50
100
AcDbEntity
  8
0
 62
     7
370
    35
390
F
100
AcDbPolyline
 90
        5
 70
     0
 43
0.0
 10
-1.706558
 20
576.255981
 10
-1.595867
 20
576.279602
 10
-1.496282
 20
576.343933
 10
-1.386995
 20
576.472717
 10
-1.342562
 20
576.549255
  0
LINE
  5
D4
330
50
100
AcDbEntity
  8
0
 62
     7
370
    13
390
F
100
AcDbLine
 10
14.035378
 20
606.614319
 30
0.0
 11
-1.706572
 21
576.25592
 31
0.0
  0
ARC
  5
D5
330
50
100
AcDbEntity
  8
0
 62
     7
370
    35
390
F
100
AcDbCircle
 10
-2.070965
 20
529.908997
 30
0.0
 40
46.348392
100
AcDbArc
 50
89.549531
 51
90.450904
  0
LINE
  5
D6
330
50
100
AcDbEntity
  8
0
 62
     7
370
    13
390
F
100
AcDbLine
 10
-2.435715
 20
576.25592
 30
0.0
 11
13.306234
 21
606.614319
 31
0.0
  0
LWPOLYLINE
  5
D7
330
50
100
AcDbEntity
  8
0
 62
     7
370
    35
390
F
100
AcDbPolyline
 90
        7
 70
     0
 43
0.0
 10
-2.435702
 20
576.255981
 10
-2.53778
 20
576.276306
 10
-2.656446
 20
576.357239
 10
-2.769449
 20
576.514526
 10
-2.855131
 20
576.746033
 10
-2.899662
 20
577.039978
 10
-2.902715
 20
577.125305
  0
LINE
  5
E0
330
50
100
AcDbEntity
  8
0
 62
     7
370
    13
390
F
100
AcDbLine
 10
-2.902726
 20
577.125244
 30
0.0
 11
12.38845
 21
606.614319
 31
0.0
  0
LWPOLYLINE
  5
E1
330
50
100
AcDbEntity
  8
0
 62
     7
370
    35
390
F
100
AcDbPolyline
 90
        5
 70
     0
 43
0.0
 10
-2.672772
 20
581.533203
 10
-2.798251
 20
581.235229
 10
-2.885479
 20
580.901245
 10
-2.931482
 20
580.542908
 10
-2.938396
 20
580.296631
  0
LINE
  5
E8
330
50
100
AcDbEntity
  8
0
 62
     7
370
    35
390
F
100
AcDbLine
 10
-2.67134
 20
581.533203
 30
0.0
 11
10.335418
 21
606.614319
 31
0.0
  0
LINE
  5
E9
330
50
100
AcDbEntity
  8
0
 62
     7
 48
0.079289
370
    35
390
F
100
AcDbLine
 10
-2.902726
 20
577.125244
 30
0.0
 11
-2.936983
 21
580.296631
 31
0.0
  0
LINE
  5
EA
330
50
100
AcDbEntity
  8
0
 62
     7
 48
0.223076
370
    13
390
F
100
AcDbLine
 10
-11.59439
 20
581.533203
 30
0.0
 11
-2.671368
 21
581.533203
 31
0.0
  0
LWPOLYLINE
  5
EB
330
50
100
AcDbEntity
  8
0
 62
     7
370
    35
390
F
100
AcDbPolyline
 90
        5
 70
     0
 43
0.0
 10
-13.911108
 20
576.25592
 10
-13.792436
 20
576.278198
 10
-13.653205
 20
576.365906
 10
-13.542471
 20
576.497192
 10
-13.442842
 20
576.695129
  0
LINE
  5
F2
330
50
100
AcDbEntity
  8
0
 62
     7
370
    13
390
F
100
AcDbLine
 10
-2.312241
 20
606.614319
 30
0.0
 11
-13.911106
 21
576.25592
 31
0.0
  0
ARC
  5
F3
330
50
100
AcDbEntity
  8
0
 62
     7
370
    35
390
F
100
AcDbCircle
 10
-14.314337
 20
519.521729
 30
0.0
 40
56.73568
100
AcDbArc
 50
89.592787
 51
90.407478
  0
LINE
  5
F4
330
50
100
AcDbEntity
  8
0
 62
     7
370
    13
390
F
100
AcDbLine
 10
-14.717828
 20
576.25592
 30
0.0
 11
-3.118963
 21
606.614319
 31
0.0
  0
LWPOLYLINE
  5
F5
330
50
100
AcDbEntity
  8
0
 62
     7
370
    35
390
F
100
AcDbPolyline
 90
        7
 70
     0
 43
0.0
 10
-14.717831
 20
576.25592
 10
-14.849503
 20
576.283752
 10
-14.964126
 20
576.358398
 10
-15.083674
 20
576.505249
 10
-15.181637
 20
576.730103
 10
-15.237527
 20
577.025085
 10
-15.243027
 20
577.125244
  0
LINE
  5
FE
330
50
100
AcDbEntity
  8
0
 62
     7
370
    13
390
F
100
AcDbLine
 10
-15.243023
 20
577.125244
 30
0.0
 11
-3.976294
 21
606.614319
 31
0.0
  0
LWPOLYLINE
  5
FF
330
50
100
AcDbEntity
  8
0
 62
     7
370
    35
390
F
100
AcDbPolyline
 90
        5
 70
     0
 43
0.0
 10
-15.132977
 20
581.533203
 10
-15.22825
 20
581.220032
 10
-15.290699
 20
580.867981
 10
-15.317991
 20
580.490479
 10
-15.318073
 20
580.296631
  0
LINE
  5
106
330
50
100
AcDbEntity
  8
0
 62
     7
370
    35
390
F
100
AcDbLine
 10
-15.130591
 20
581.533203
 30
0.0
 11
-5.547009
 21
606.614319
 31
0.0
  0
LINE
  5
107
330
50
100
AcDbEntity
  8
0
 62
     7
 48
0.079305
370
    35
390
F
100
AcDbLine
 10
-15.243023
 20
577.125244
 30
0.0
 11
-15.315702
 21
580.296631
 31
0.0
  0
LWPOLYLINE
  5
108
330
50
100
AcDbEntity
  8
0
 62
     7
370
    35
390
F
100
AcDbPolyline
 90
       35
 70
     0
 43
0.0
 10
-48.59053
 20
583.737549
 10
-49.453171
 20
583.760376
 10
-50.308578
 20
583.828125
 10
-51.154636
 20
583.939636
 10
-51.989235
 20
584.093201
 10
-52.810364
 20
584.286987
 10
-53.616135
 20
584.518616
 10
-54.404869
 20
584.785767
 10
-55.175137
 20
585.085876
 10
-55.925793
 20
585.41626
 10
-56.656033
 20
585.774475
 10
-57.365406
 20
586.15802
 10
-58.053848
 20
586.564697
 10
-58.721531
 20
586.992493
 10
-59.368721
 20
587.439514
 10
-59.99572
 20
587.903992
 10
-60.602863
 20
588.38446
 10
-61.190517
 20
588.879333
 10
-61.759071
 20
589.38739
 10
-62.308922
 20
589.90741
 10
-62.840477
 20
590.438171
 10
-63.850327
 20
591.528442
 10
-64.791824
 20
592.651245
 10
-65.667984
 20
593.801025
 10
-66.481384
 20
594.9729
 10
-67.234047
 20
596.162598
 10
-67.927887
 20
597.366516
 10
-68.564713
 20
598.581726
 10
-69.146111
 20
599.805786
 10
-69.673424
 20
601.036804
 10
-70.147682
 20
602.272949
 10
-70.569656
 20
603.512512
 10
-70.939835
 20
604.753723
 10
-71.258484
 20
605.994629
 10
-71.398529
 20
606.614319
  0
LWPOLYLINE
  5
12D
330
50
100
AcDbEntity
  8
0
 62
     7
370
    35
390
F
100
AcDbPolyline
 90
       35
 70
     0
 43
0.0
 10
-25.782534
 20
606.614319
 10
-26.07547
 20
605.37439
 10
-26.419859
 20
604.132996
 10
-26.815889
 20
602.892395
 10
-27.263931
 20
601.654358
 10
-27.764603
 20
600.420532
 10
-28.318808
 20
599.192749
 10
-28.927736
 20
597.972839
 10
-29.592855
 20
596.763
 10
-30.315872
 20
595.565796
 10
-31.09866
 20
594.38446
 10
-31.943167
 20
593.223083
 10
-32.851635
 20
592.086182
 10
-33.826916
 20
590.978882
 10
-34.340584
 20
590.438171
 10
-34.872139
 20
589.90741
 10
-35.421989
 20
589.38739
 10
-35.990543
 20
588.879333
 10
-36.578197
 20
588.38446
 10
-37.185341
 20
587.903992
 10
-37.812336
 20
587.439514
 10
-38.459526
 20
586.992493
 10
-39.127213
 20
586.564697
 10
-39.815655
 20
586.15802
 10
-40.525028
 20
585.774475
 10
-41.255268
 20
585.41626
 10
-42.005924
 20
585.085876
 10
-42.776192
 20
584.785767
 10
-43.564926
 20
584.518616
 10
-44.370697
 20
584.286987
 10
-45.191826
 20
584.093201
 10
-46.026424
 20
583.939636
 10
-46.872482
 20
583.828125
 10
-47.72789
 20
583.760376
 10
-48.59053
 20
583.737549
  0
LINE
  5
152
330
50
100
AcDbEntity
  8
0
 62
     7
370
    13
390
F
100
AcDbLine
 10
-82.050484
 20
581.533203
 30
0.0
 11
-15.130576
 21
581.533203
 31
0.0
  0
LINE
  5
153
330
50
100
AcDbEntity
  8
0
 62
     7
370
    35
390
F
100
AcDbLine
 10
-82.050468
 20
581.533203
 30
0.0
 11
-91.634048
 21
606.614319
 31
0.0
  0
LINE
  5
154
330
50
100
AcDbEntity
  8
0
 62
     7
 48
0.079305
370
    35
390
F
100
AcDbLine
 10
-81.938042
 20
577.125244
 30
0.0
 11
-81.865356
 21
580.296631
 31
0.0
  0
LWPOLYLINE
  5
155
330
50
100
AcDbEntity
  8
0
 62
     7
370
    35
390
F
100
AcDbPolyline
 90
        4
 70
     0
 43
0.0
 10
-82.04995
 20
581.533203
 10
-81.958313
 20
581.235229
 10
-81.882866
 20
580.783936
 10
-81.864838
 20
580.296631
  0
LINE
  5
15B
330
50
100
AcDbEntity
  8
0
 62
     7
370
    13
390
F
100
AcDbLine
 10
-93.204765
 20
606.614319
 30
0.0
 11
-81.938042
 21
577.125244
 31
0.0
  0
LWPOLYLINE
  5
15C
330
50
100
AcDbEntity
  8
0
 62
     7
370
    35
390
F
100
AcDbPolyline
 90
        7
 70
     0
 43
0.0
 10
-82.463234
 20
576.25592
 10
-82.31485
 20
576.291504
 10
-82.189415
 20
576.384705
 10
-82.0718
 20
576.550781
 10
-81.983498
 20
576.786987
 10
-81.93959
 20
577.082642
 10
-81.938034
 20
577.125244
  0
LINE
  5
165
330
50
100
AcDbEntity
  8
0
 62
     7
370
    13
390
F
100
AcDbLine
 10
-94.062096
 20
606.614319
 30
0.0
 11
-82.463234
 21
576.25592
 31
0.0
  0
ARC
  5
166
330
50
100
AcDbEntity
  8
0
 62
     7
370
    35
390
F
100
AcDbCircle
 10
-82.86673
 20
519.521729
 30
0.0
 40
56.73568
100
AcDbArc
 50
89.592513
 51
90.407205
  0
LINE
  5
167
330
50
100
AcDbEntity
  8
0
 62
     7
370
    13
390
F
100
AcDbLine
 10
-83.269958
 20
576.25592
 30
0.0
 11
-94.86882
 21
606.614319
 31
0.0
  0
LWPOLYLINE
  5
168
330
50
100
AcDbEntity
  8
0
 62
     7
370
    35
390
F
100
AcDbPolyline
 90
        5
 70
     0
 43
0.0
 10
-83.269951
 20
576.25592
 10
-83.388626
 20
576.278198
 10
-83.527855
 20
576.365906
 10
-83.638588
 20
576.497192
 10
-83.73822
 20
576.695129
  0
LINE
  5
16F
330
50
100
AcDbEntity
  8
0
 62
     7
 48
0.223075
370
    13
390
F
100
AcDbLine
 10
-94.509689
 20
581.533203
 30
0.0
 11
-85.58667
 21
581.533203
 31
0.0
  0
LINE
  5
170
330
50
100
AcDbEntity
  8
0
 62
     7
370
    35
390
F
100
AcDbLine
 10
-94.50972
 20
581.533203
 30
0.0
 11
-107.516479
 21
606.614319
 31
0.0
  0
LINE
  5
171
330
50
100
AcDbEntity
  8
0
 62
     7
 48
0.079289
370
    35
390
F
100
AcDbLine
 10
-94.278336
 20
577.125244
 30
0.0
 11
-94.24408
 21
580.296631
 31
0.0
  0
LWPOLYLINE
  5
172
330
50
100
AcDbEntity
  8
0
 62
     7
370
    35
390
F
100
AcDbPolyline
 90
        5
 70
     0
 43
0.0
 10
-94.506523
 20
581.533203
 10
-94.381042
 20
581.235229
 10
-94.293823
 20
580.901245
 10
-94.247818
 20
580.542908
 10
-94.240898
 20
580.296631
  0
LINE
  5
179
330
50
100
AcDbEntity
  8
0
 62
     7
370
    13
390
F
100
AcDbLine
 10
-109.569511
 20
606.614319
 30
0.0
 11
-94.278336
 21
577.125244
 31
0.0
  0
LWPOLYLINE
  5
17A
330
50
100
AcDbEntity
  8
0
 62
     7
370
    35
390
F
100
AcDbPolyline
 90
        7
 70
     0
 43
0.0
 10
-94.745361
 20
576.255981
 10
-94.64328
 20
576.276306
 10
-94.524612
 20
576.357239
 10
-94.411613
 20
576.514526
 10
-94.325928
 20
576.746033
 10
-94.281403
 20
577.039978
 10
-94.278343
 20
577.125305
  0
LINE
  5
183
330
50
100
AcDbEntity
  8
0
 62
     7
370
    13
390
F
100
AcDbLine
 10
-110.487297
 20
606.614319
 30
0.0
 11
-94.745346
 21
576.25592
 31
0.0
  0
ARC
  5
184
330
50
100
AcDbEntity
  8
0
 62
     7
370
    35
390
F
100
AcDbCircle
 10
-95.110107
 20
529.908997
 30
0.0
 40
46.348396
100
AcDbArc
 50
89.54908
 51
90.45046
  0
LINE
  5
185
330
50
100
AcDbEntity
  8
0
 62
     7
370
    13
390
F
100
AcDbLine
 10
-95.474487
 20
576.25592
 30
0.0
 11
-111.216438
 21
606.614319
 31
0.0
  0
LWPOLYLINE
  5
186
330
50
100
AcDbEntity
  8
0
 62
     7
370
    35
390
F
100
AcDbPolyline
 90
        4
 70
     0
 43
0.0
 10
-95.474503
 20
576.255981
 10
-95.606194
 20
576.289673
 10
-95.720482
 20
576.378357
 10
-95.838501
 20
576.549255
  0
LINE
  5
18C
330
50
100
AcDbEntity
  8
0
 62
     7
 48
0.178771
370
    13
390
F
100
AcDbLine
 10
-105.573692
 20
581.533203
 30
0.0
 11
-98.422867
 21
581.533203
 31
0.0
  0
LINE
  5
18D
330
50
100
AcDbEntity
  8
0
 62
     7
370
    35
390
F
100
AcDbLine
 10
-105.573746
 20
581.533203
 30
0.0
 11
-121.608467
 21
606.614319
 31
0.0
  0
LINE
  5
18E
330
50
100
AcDbEntity
  8
0
 62
     7
 48
0.079285
370
    35
390
F
100
AcDbLine
 10
-105.230431
 20
577.125244
 30
0.0
 11
-105.235634
 21
580.296631
 31
0.0
  0
LWPOLYLINE
  5
18F
330
50
100
AcDbEntity
  8
0
 62
     7
370
    35
390
F
100
AcDbPolyline
 90
        5
 70
     0
 43
0.0
 10
-105.572418
 20
581.533203
 10
-105.416908
 20
581.235229
 10
-105.306946
 20
580.901245
 10
-105.246284
 20
580.542908
 10
-105.234344
 20
580.296631
  0
LINE
  5
196
330
50
100
AcDbEntity
  8
0
 62
     7
370
    13
390
F
100
AcDbLine
 10
-124.081436
 20
606.614319
 30
0.0
 11
-105.230431
 21
577.125244
 31
0.0
  0
LWPOLYLINE
  5
197
330
50
100
AcDbEntity
  8
0
 62
     7
370
    35
390
F
100
AcDbPolyline
 90
        7
 70
     0
 43
0.0
 10
-105.625107
 20
576.255981
 10
-105.537125
 20
576.276367
 10
-105.435326
 20
576.3573
 10
-105.339104
 20
576.514587
 10
-105.26754
 20
576.746033
 10
-105.230865
 20
577.082703
 10
-105.230469
 20
577.125305
  0
LINE
  5
1A0
330
50
100
AcDbEntity
  8
0
 62
     7
370
    13
390
F
100
AcDbLine
 10
-125.031792
 20
606.614319
 30
0.0
 11
-105.625069
 21
576.25592
 31
0.0
  0
ARC
  5
1A1
330
50
100
AcDbEntity
  8
0
 62
     7
370
    35
390
F
100
AcDbCircle
 10
-105.940002
 20
541.720947
 30
0.0
 40
34.536411
100
AcDbArc
 50
89.47752
 51
90.521727
  0
LINE
  5
1A2
330
50
100
AcDbEntity
  8
0
 62
     7
370
    13
390
F
100
AcDbLine
 10
-106.254478
 20
576.25592
 30
0.0
 11
-125.661201
 21
606.614319
 31
0.0
  0
LWPOLYLINE
  5
1A3
330
50
100
AcDbEntity
  8
0
 62
     7
370
    35
390
F
100
AcDbPolyline
 90
        4
 70
     0
 43
0.0
 10
-106.254517
 20
576.255981
 10
-106.337631
 20
576.273804
 10
-106.414391
 20
576.323181
 10
-106.51207
 20
576.439636
  0
LINE
  5
1A9
330
50
100
AcDbEntity
  8
0
 62
     7
 48
0.128454
370
    13
390
F
100
AcDbLine
 10
-114.906319
 20
581.533203
 30
0.0
 11
-109.768158
 21
581.533203
 31
0.0
  0
LINE
  5
1AA
330
50
100
AcDbEntity
  8
0
 62
     7
370
    35
390
F
100
AcDbLine
 10
-114.906349
 20
581.533203
 30
0.0
 11
-133.481842
 21
606.614319
 31
0.0
  0
LINE
  5
1AB
330
50
100
AcDbEntity
  8
0
 62
     7
 48
0.079292
370
    35
390
F
100
AcDbLine
 10
-114.461555
 20
577.125244
 30
0.0
 11
-114.506065
 21
580.296631
 31
0.0
  0
LWPOLYLINE
  5
1AC
330
50
100
AcDbEntity
  8
0
 62
     7
370
    35
390
F
100
AcDbPolyline
 90
        5
 70
     0
 43
0.0
 10
-114.906914
 20
581.533203
 10
-114.726089
 20
581.235229
 10
-114.596725
 20
580.901245
 10
-114.523239
 20
580.542908
 10
-114.506638
 20
580.296631
  0
LINE
  5
1B3
330
50
100
AcDbEntity
  8
0
 62
     7
370
    13
390
F
100
AcDbLine
 10
-136.299622
 20
606.614319
 30
0.0
 11
-114.461555
 21
577.125244
 31
0.0
  0
LWPOLYLINE
  5
1B4
330
50
100
AcDbEntity
  8
0
 62
     7
370
    35
390
F
100
AcDbPolyline
 90
        6
 70
     0
 43
0.0
 10
-114.771858
 20
576.255981
 10
-114.700645
 20
576.276367
 10
-114.61882
 20
576.3573
 10
-114.542297
 20
576.514587
 10
-114.487015
 20
576.746033
 10
-114.461586
 20
577.125305
  0
LINE
  5
1BC
330
50
100
AcDbEntity
  8
0
 62
     7
370
    13
390
F
100
AcDbLine
 10
-137.253662
 20
606.614319
 30
0.0
 11
-114.771828
 21
576.25592
 31
0.0
  0
ARC
  5
1BD
330
50
100
AcDbEntity
  8
0
 62
     7
370
    35
390
F
100
AcDbCircle
 10
-115.027367
 20
553.532959
 30
0.0
 40
22.724426
100
AcDbArc
 50
89.35569
 51
90.642983
  0
LINE
  5
1BE
330
50
100
AcDbEntity
  8
0
 62
     7
370
    13
390
F
100
AcDbLine
 10
-115.282379
 20
576.25592
 30
0.0
 11
-137.764206
 21
606.614319
 31
0.0
  0
LWPOLYLINE
  5
1BF
330
50
100
AcDbEntity
  8
0
 62
     7
370
    35
390
F
100
AcDbPolyline
 90
        4
 70
     0
 43
0.0
 10
-115.282402
 20
576.255981
 10
-115.340034
 20
576.26886
 10
-115.420021
 20
576.331116
 10
-115.444145
 20
576.360901
  0
LINE
  5
1C5
330
50
100
AcDbEntity
  8
0
 62
     7
 48
0.073738
370
    13
390
F
100
AcDbLine
 10
-122.223969
 20
581.533203
 30
0.0
 11
-119.274467
 21
581.533203
 31
0.0
  0
LINE
  5
1C6
330
50
100
AcDbEntity
  8
0
 62
     7
370
    35
390
F
100
AcDbLine
 10
-122.223969
 20
581.533203
 30
0.0
 11
-142.775848
 21
606.614319
 31
0.0
  0
LINE
  5
1C7
330
50
100
AcDbEntity
  8
0
 62
     7
 48
0.079311
370
    35
390
F
100
AcDbLine
 10
-121.691216
 20
577.125244
 30
0.0
 11
-121.773682
 21
580.296631
 31
0.0
  0
ARC
  5
1C8
330
50
100
AcDbEntity
  8
0
 62
     7
370
    35
390
F
100
AcDbCircle
 10
-123.809174
 20
580.257996
 30
0.0
 40
2.035143
100
AcDbArc
 50
1.086976
 51
38.815252
  0
LINE
  5
1C9
330
50
100
AcDbEntity
  8
0
 62
     7
370
    13
390
F
100
AcDbLine
 10
-145.852798
 20
606.614319
 30
0.0
 11
-121.691216
 21
577.125244
 31
0.0
  0
LWPOLYLINE
  5
1CA
330
50
100
AcDbEntity
  8
0
 62
     7
370
    35
390
F
100
AcDbPolyline
 90
        7
 70
     0
 43
0.0
 10
-121.907692
 20
576.25592
 10
-121.866272
 20
576.268494
 10
-121.828667
 20
576.304199
 10
-121.780678
 20
576.390991
 10
-121.725388
 20
576.591431
 10
-121.692375
 20
576.925293
 10
-121.691216
 20
577.125244
  0
LINE
  5
1D3
330
50
100
AcDbEntity
  8
0
 62
     7
370
    13
390
F
100
AcDbLine
 10
-146.78154
 20
606.614319
 30
0.0
 11
-121.9077
 21
576.25592
 31
0.0
  0
ARC
  5
1D4
330
50
100
AcDbEntity
  8
0
 62
     7
370
    35
390
F
100
AcDbCircle
 10
-122.096077
 20
563.920227
 30
0.0
 40
12.33714
100
AcDbArc
 50
89.125096
 51
90.872211
  0
LINE
  5
1D5
330
50
100
AcDbEntity
  8
0
 62
     7
370
    13
390
F
100
AcDbLine
 10
-122.283875
 20
576.25592
 30
0.0
 11
-147.157715
 21
606.614319
 31
0.0
  0
ARC
  5
1D6
330
50
100
AcDbEntity
  8
0
 62
     7
370
    35
390
F
100
AcDbCircle
 10
-122.270691
 20
576.370239
 30
0.0
 40
0.11564
100
AcDbArc
 50
212.842387
 51
263.422013
  0
LINE
  5
1D7
330
50
100
AcDbEntity
  8
0
 62
     7
 48
0.094273
370
    13
390
F
100
AcDbLine
 10
-130.421249
 20
581.533203
 30
0.0
 11
-126.650345
 21
581.533203
 31
0.0
  0
LINE
  5
1D8
330
50
100
AcDbEntity
  8
0
 62
     7
 48
0.328294
370
    35
390
F
100
AcDbLine
 10
-129.907593
 20
580.296631
 30
0.0
 11
-129.220337
 21
567.182861
 31
0.0
  0
LINE
  5
1D9
330
50
100
AcDbEntity
  8
0
 62
     7
 48
0.328294
370
    35
390
F
100
AcDbLine
 10
32.726528
 20
580.296631
 30
0.0
 11
32.039268
 21
567.182861
 31
0.0
  0
ARC
  5
1DA
330
50
100
AcDbEntity
  8
0
 62
     7
370
    35
390
F
100
AcDbCircle
 10
-131.904846
 20
580.191956
 30
0.0
 40
1.999992
100
AcDbArc
 50
2.99992
 51
42.115024
  0
ARC
  5
1DB
330
50
100
AcDbEntity
  8
0
 62
     7
370
    35
390
F
100
AcDbCircle
 10
34.723782
 20
580.191956
 30
0.0
 40
1.999992
100
AcDbArc
 50
137.884976
 51
177.000077
  0
LINE
  5
1DC
330
50
100
AcDbEntity
  8
0
 62
     7
 48
0.106736
370
    13
390
F
100
AcDbLine
 10
28.457073
 20
580.296631
 30
0.0
 11
32.726528
 21
580.296631
 31
0.0
  0
LINE
  5
1DD
330
50
100
AcDbEntity
  8
0
 62
     7
 48
0.085374
370
    13
390
F
100
AcDbLine
 10
-121.773682
 20
580.296631
 30
0.0
 11
-118.358734
 21
580.296631
 31
0.0
  0
LINE
  5
1DE
330
50
100
AcDbEntity
  8
0
 62
     7
 48
0.138191
370
    13
390
F
100
AcDbLine
 10
-114.50605
 20
580.296631
 30
0.0
 11
-108.978409
 21
580.296631
 31
0.0
  0
LINE
  5
1DF
330
50
100
AcDbEntity
  8
0
 62
     7
 48
0.186349
370
    13
390
F
100
AcDbLine
 10
-105.235603
 20
580.296631
 30
0.0
 11
-97.781662
 21
580.296631
 31
0.0
  0
LINE
  5
1E0
330
50
100
AcDbEntity
  8
0
 62
     7
 48
0.228246
370
    13
390
F
100
AcDbLine
 10
-94.244057
 20
580.296631
 30
0.0
 11
-85.11422
 21
580.296631
 31
0.0
  0
LINE
  5
1E1
330
50
100
AcDbEntity
  8
0
 62
     7
370
    13
390
F
100
AcDbLine
 10
-81.865372
 20
580.296631
 30
0.0
 11
-15.315691
 21
580.296631
 31
0.0
  0
LINE
  5
1E2
330
50
100
AcDbEntity
  8
0
 62
     7
 48
0.228246
370
    13
390
F
100
AcDbLine
 10
-12.066839
 20
580.296631
 30
0.0
 11
-2.937003
 21
580.296631
 31
0.0
  0
LINE
  5
1E3
330
50
100
AcDbEntity
  8
0
 62
     7
 48
0.186349
370
    13
390
F
100
AcDbLine
 10
0.6006
 20
580.296631
 30
0.0
 11
8.054545
 21
580.296631
 31
0.0
  0
LINE
  5
1E4
330
50
100
AcDbEntity
  8
0
 62
     7
 48
0.138185
370
    13
390
F
100
AcDbLine
 10
11.797579
 20
580.296631
 30
0.0
 11
17.324986
 21
580.296631
 31
0.0
  0
LINE
  5
1E5
330
50
100
AcDbEntity
  8
0
 62
     7
 48
0.085374
370
    13
390
F
100
AcDbLine
 10
21.17767
 20
580.296631
 30
0.0
 11
24.592617
 21
580.296631
 31
0.0
  0
LINE
  5
1E6
330
50
100
AcDbEntity
  8
0
 62
     7
370
    13
390
F
100
AcDbLine
 10
-109.022598
 20
567.182861
 30
0.0
 11
32.039268
 21
567.182861
 31
0.0
  0
LINE
  5
1E7
330
50
100
AcDbEntity
  8
0
 62
     7
370
    13
390
F
100
AcDbLine
 10
-129.220337
 20
567.182861
 30
0.0
 11
-109.022598
 21
567.182861
 31
0.0
  0
LINE
  5
1E8
330
50
100
AcDbEntity
  8
0
 62
     7
 48
0.106736
370
    13
390
F
100
AcDbLine
 10
-129.907593
 20
580.296631
 30
0.0
 11
-125.638138
 21
580.296631
 31
0.0
  0
LINE
  5
1E9
330
50
100
AcDbEntity
  8
0
 62
     7
370
    35
390
F
100
AcDbLine
 10
-46.714451
 20
566.614319
 30
0.0
 11
31.44009
 21
566.614319
 31
0.0
  0
LINE
  5
1EA
330
50
100
AcDbEntity
  8
0
 62
     7
370
    35
390
F
100
AcDbLine
 10
-108.573563
 20
566.614319
 30
0.0
 11
-46.714451
 21
566.614319
 31
0.0
  0
LINE
  5
1EB
330
50
100
AcDbEntity
  8
0
 62
     7
370
    35
390
F
100
AcDbLine
 10
-128.621155
 20
566.614319
 30
0.0
 11
-108.573563
 21
566.614319
 31
0.0
  0
ARC
  5
1EC
330
50
100
AcDbEntity
  8
0
 62
     7
370
    35
390
F
100
AcDbCircle
 10
31.440107
 20
567.214294
 30
0.0
 40
0.59999
100
AcDbArc
 50
269.998468
 51
357.001534
  0
ARC
  5
1ED
330
50
100
AcDbEntity
  8
0
 62
     7
370
    35
390
F
100
AcDbCircle
 10
-128.62117
 20
567.214294
 30
0.0
 40
0.59999
100
AcDbArc
 50
182.998462
 51
270.001534
  0
LINE
  5
1EE
330
50
100
AcDbEntity
  8
0
 62
     7
 48
0.050069
370
    35
390
F
100
AcDbLine
 10
-158.380875
 20
606.614319
 30
0.0
 11
-158.485687
 21
608.614319
 31
0.0
  0
LINE
  5
1EF
330
50
100
AcDbEntity
  8
0
 62
     7
 48
0.050069
370
    35
390
F
100
AcDbLine
 10
61.199818
 20
606.614319
 30
0.0
 11
61.304634
 21
608.614319
 31
0.0
  0
LINE
  5
1F0
330
50
100
AcDbEntity
  8
0
 62
     7
370
    35
390
F
100
AcDbLine
 10
25.187368
 20
576.307129
 30
0.0
 11
50.019283
 21
606.614319
 31
0.0
  0
LINE
  5
1F1
330
50
100
AcDbEntity
  8
0
 62
     7
370
    35
390
F
100
AcDbLine
 10
18.263083
 20
576.360901
 30
0.0
 11
40.667198
 21
606.614319
 31
0.0
  0
LINE
  5
1F2
330
50
100
AcDbEntity
  8
0
 62
     7
370
    35
390
F
100
AcDbLine
 10
9.331012
 20
576.439636
 30
0.0
 11
28.620317
 21
606.614258
 31
0.0
  0
LINE
  5
1F3
330
50
100
AcDbEntity
  8
0
 62
     7
370
    35
390
F
100
AcDbLine
 10
-1.342562
 20
576.549255
 30
0.0
 11
14.24731
 21
606.614258
 31
0.0
  0
LINE
  5
1F4
330
50
100
AcDbEntity
  8
0
 62
     7
370
    35
390
F
100
AcDbLine
 10
-13.442842
 20
576.695129
 30
0.0
 11
-2.011771
 21
606.614319
 31
0.0
  0
LINE
  5
1F5
330
50
100
AcDbEntity
  8
0
 62
     7
370
    35
390
F
100
AcDbLine
 10
-95.169289
 20
606.614319
 30
0.0
 11
-83.73822
 21
576.695129
 31
0.0
  0
LINE
  5
1F6
330
50
100
AcDbEntity
  8
0
 62
     7
370
    35
390
F
100
AcDbLine
 10
-111.428368
 20
606.614258
 30
0.0
 11
-95.838501
 21
576.549255
 31
0.0
  0
LINE
  5
1F7
330
50
100
AcDbEntity
  8
0
 62
     7
370
    35
390
F
100
AcDbLine
 10
-125.801376
 20
606.614258
 30
0.0
 11
-106.51207
 21
576.439636
 31
0.0
  0
LINE
  5
1F8
330
50
100
AcDbEntity
  8
0
 62
     7
370
    35
390
F
100
AcDbLine
 10
-137.848251
 20
606.614319
 30
0.0
 11
-115.444145
 21
576.360901
 31
0.0
  0
LINE
  5
1F9
330
50
100
AcDbEntity
  8
0
 62
     7
370
    35
390
F
100
AcDbLine
 10
-147.200348
 20
606.614319
 30
0.0
 11
-122.368431
 21
576.307129
 31
0.0
  0
LINE
  5
1FA
330
50
100
AcDbEntity
  8
0
 62
     7
370
    35
390
F
100
AcDbLine
 10
-130.421249
 20
581.533203
 30
0.0
 11
-153.095657
 21
606.614319
 31
0.0
  0
LINE
  5
1FB
330
50
100
AcDbEntity
  8
0
 62
     7
 48
0.012498
370
    35
390
F
100
AcDbLine
 10
-52.59053
 20
610.614319
 30
0.0
 11
-52.59053
 21
611.114258
 31
0.0
  0
LINE
  5
1FC
330
50
100
AcDbEntity
  8
0
 62
     7
 48
0.132982
370
    35
390
F
100
AcDbLine
 10
-101.114807
 20
621.218445
 30
0.0
 11
-95.795532
 21
621.219055
 31
0.0
  0
LINE
  5
1FD
330
50
100
AcDbEntity
  8
0
 62
     7
 48
0.000311
370
    35
390
F
100
AcDbLine
 10
-95.795517
 20
621.220032
 30
0.0
 11
-95.795364
 21
621.232483
 31
0.0
  0
LINE
  5
1FE
330
50
100
AcDbEntity
  8
0
 62
     7
 48
0.013237
370
    35
390
F
100
AcDbLine
 10
-95.795364
 20
621.232483
 30
0.0
 11
-95.787544
 21
621.761902
 31
0.0
  0
ARC
  5
1FF
330
50
100
AcDbEntity
  8
0
 62
     7
370
    35
390
F
100
AcDbCircle
 10
-94.88192
 20
628.70575
 30
0.0
 40
7.002727
100
AcDbArc
 50
262.56938
 51
277.441741
  0
LINE
  5
200
330
50
100
AcDbEntity
  8
0
 62
     7
 48
0.013237
370
    35
390
F
100
AcDbLine
 10
-93.98275
 20
621.232483
 30
0.0
 11
-93.97493
 21
621.761902
 31
0.0
  0
LINE
  5
201
330
50
100
AcDbEntity
  8
0
 62
     7
 48
0.00031
370
    35
390
F
100
AcDbLine
 10
-93.982956
 20
621.220093
 30
0.0
 11
-93.98275
 21
621.232483
 31
0.0
  0
ARC
  5
202
330
50
100
AcDbEntity
  8
0
 62
     7
370
    35
390
F
100
AcDbCircle
 10
-99.041443
 20
-72585.140625
 30
0.0
 40
73206.359375
100
AcDbArc
 50
89.97303700000002
 51
89.996041
  0
ARC
  5
203
330
50
100
AcDbEntity
  8
0
 62
     7
370
    35
390
F
100
AcDbCircle
 10
1.886376
 20
-72601.664063
 30
0.0
 40
73222.882813
100
AcDbArc
 50
90.003978
 51
90.026975
  0
LINE
  5
204
330
50
100
AcDbEntity
  8
0
 62
     7
 48
0.00031
370
    35
390
F
100
AcDbLine
 10
-3.198101
 20
621.220093
 30
0.0
 11
-3.198312
 21
621.232483
 31
0.0
  0
LINE
  5
205
330
50
100
AcDbEntity
  8
0
 62
     7
 48
0.013237
370
    35
390
F
100
AcDbLine
 10
-3.198312
 20
621.232483
 30
0.0
 11
-3.206132
 21
621.761902
 31
0.0
  0
ARC
  5
206
330
50
100
AcDbEntity
  8
0
 62
     7
370
    35
390
F
100
AcDbCircle
 10
-2.299138
 20
628.70575
 30
0.0
 40
7.002727
100
AcDbArc
 50
262.558261
 51
277.430615
  0
LINE
  5
207
330
50
100
AcDbEntity
  8
0
 62
     7
 48
0.013237
370
    35
390
F
100
AcDbLine
 10
-1.385697
 20
621.232483
 30
0.0
 11
-1.393516
 21
621.761902
 31
0.0
  0
LINE
  5
208
330
50
100
AcDbEntity
  8
0
 62
     7
 48
0.000311
370
    35
390
F
100
AcDbLine
 10
-1.385543
 20
621.220032
 30
0.0
 11
-1.385697
 21
621.232483
 31
0.0
  0
LINE
  5
209
330
50
100
AcDbEntity
  8
0
 62
     7
 48
0.370311
370
    35
390
F
100
AcDbLine
 10
-1.385527
 20
621.219055
 30
0.0
 11
13.426918
 21
621.216187
 31
0.0
  0
LINE
  5
20A
330
50
100
AcDbEntity
  8
0
 62
     7
 48
0.000408
370
    35
390
F
100
AcDbLine
 10
13.426918
 20
621.216187
 30
0.0
 11
13.426559
 21
621.232483
 31
0.0
  0
LINE
  5
20B
330
50
100
AcDbEntity
  8
0
 62
     7
 48
0.013238
370
    35
390
F
100
AcDbLine
 10
13.426559
 20
621.232483
 30
0.0
 11
13.415947
 21
621.761902
 31
0.0
  0
ARC
  5
20C
330
50
100
AcDbEntity
  8
0
 62
     7
370
    35
390
F
100
AcDbCircle
 10
14.23603
 20
627.42926
 30
0.0
 40
5.726226
100
AcDbArc
 50
261.766293
 51
278.21528
  0
LINE
  5
20D
330
50
100
AcDbEntity
  8
0
 62
     7
 48
0.013238
370
    35
390
F
100
AcDbLine
 10
15.064864
 20
621.232483
 30
0.0
 11
15.054252
 21
621.761902
 31
0.0
  0
LINE
  5
20E
330
50
100
AcDbEntity
  8
0
 62
     7
 48
0.000418
370
    35
390
F
100
AcDbLine
 10
15.065166
 20
621.215759
 30
0.0
 11
15.064864
 21
621.232483
 31
0.0
  0
LINE
  5
20F
330
50
100
AcDbEntity
  8
0
 62
     7
 48
0.32756
370
    35
390
F
100
AcDbLine
 10
15.065166
 20
621.215759
 30
0.0
 11
28.167568
 21
621.21344
 31
0.0
  0
LINE
  5
210
330
50
100
AcDbEntity
  8
0
 62
     7
 48
0.000392
370
    35
390
F
100
AcDbLine
 10
28.167568
 20
621.21344
 30
0.0
 11
28.167156
 21
621.229126
 31
0.0
  0
LINE
  5
211
330
50
100
AcDbEntity
  8
0
 62
     7
 48
0.013027
370
    35
390
F
100
AcDbLine
 10
28.167156
 20
621.229126
 30
0.0
 11
28.154284
 21
621.750061
 31
0.0
  0
ARC
  5
212
330
50
100
AcDbEntity
  8
0
 62
     7
370
    35
390
F
100
AcDbCircle
 10
28.862537
 20
625.966064
 30
0.0
 40
4.274839
100
AcDbArc
 50
260.463783
 51
279.505893
  0
LINE
  5
213
330
50
100
AcDbEntity
  8
0
 62
     7
 48
0.013027
370
    35
390
F
100
AcDbLine
 10
29.581369
 20
621.229126
 30
0.0
 11
29.568497
 21
621.750061
 31
0.0
  0
LINE
  5
214
330
50
100
AcDbEntity
  8
0
 62
     7
 48
0.000392
370
    35
390
F
100
AcDbLine
 10
29.581728
 20
621.21344
 30
0.0
 11
29.581369
 21
621.229126
 31
0.0
  0
LINE
  5
215
330
50
100
AcDbEntity
  8
0
 62
     7
 48
0.274853
370
    35
390
F
100
AcDbLine
 10
29.581728
 20
621.21344
 30
0.0
 11
40.575844
 21
621.215759
 31
0.0
  0
LINE
  5
216
330
50
100
AcDbEntity
  8
0
 62
     7
 48
0.000418
370
    35
390
F
100
AcDbLine
 10
40.575844
 20
621.215759
 30
0.0
 11
40.575348
 21
621.232483
 31
0.0
  0
LINE
  5
217
330
50
100
AcDbEntity
  8
0
 62
     7
 48
0.013241
370
    35
390
F
100
AcDbLine
 10
40.575348
 20
621.232483
 30
0.0
 11
40.560192
 21
621.761902
 31
0.0
  0
ARC
  5
218
330
50
100
AcDbEntity
  8
0
 62
     7
370
    35
390
F
100
AcDbCircle
 10
41.135098
 20
624.526123
 30
0.0
 40
2.823039
100
AcDbArc
 50
258.251
 51
281.696185
  0
LINE
  5
219
330
50
100
AcDbEntity
  8
0
 62
     7
 48
0.013241
370
    35
390
F
100
AcDbLine
 10
41.7225
 20
621.232483
 30
0.0
 11
41.707344
 21
621.761902
 31
0.0
  0
LINE
  5
21A
330
50
100
AcDbEntity
  8
0
 62
     7
 48
0.000408
370
    35
390
F
100
AcDbLine
 10
41.722939
 20
621.216187
 30
0.0
 11
41.7225
 21
621.232483
 31
0.0
  0
LINE
  5
21B
330
50
100
AcDbEntity
  8
0
 62
     7
 48
0.213797
370
    35
390
F
100
AcDbLine
 10
41.722939
 20
621.216187
 30
0.0
 11
50.274799
 21
621.219055
 31
0.0
  0
LINE
  5
21C
330
50
100
AcDbEntity
  8
0
 62
     7
 48
0.000311
370
    35
390
F
100
AcDbLine
 10
50.274769
 20
621.220032
 30
0.0
 11
50.274361
 21
621.232483
 31
0.0
  0
LINE
  5
21D
330
50
100
AcDbEntity
  8
0
 62
     7
 48
0.013242
370
    35
390
F
100
AcDbLine
 10
50.274361
 20
621.232483
 30
0.0
 11
50.257591
 21
621.761902
 31
0.0
  0
ARC
  5
21E
330
50
100
AcDbEntity
  8
0
 62
     7
370
    35
390
F
100
AcDbCircle
 10
50.681679
 20
623.249634
 30
0.0
 40
1.546485
100
AcDbArc
 50
254.089229
 51
285.805991
  0
LINE
  5
21F
330
50
100
AcDbEntity
  8
0
 62
     7
 48
0.013242
370
    35
390
F
100
AcDbLine
 10
51.119598
 20
621.232483
 30
0.0
 11
51.102829
 21
621.761902
 31
0.0
  0
LINE
  5
220
330
50
100
AcDbEntity
  8
0
 62
     7
 48
0.00031
370
    35
390
F
100
AcDbLine
 10
51.119976
 20
621.220093
 30
0.0
 11
51.119598
 21
621.232483
 31
0.0
  0
LWPOLYLINE
  5
221
330
50
100
AcDbEntity
  8
0
 62
     7
370
    35
390
F
100
AcDbPolyline
 90
        4
 70
     0
 43
0.0
 10
51.120007
 20
621.219116
 10
59.64986
 20
621.212219
 10
60.819798
 20
621.213562
 10
60.966148
 20
621.218933
  0
LINE
  5
227
330
50
100
AcDbEntity
  8
0
 62
     7
 48
0.012498
370
    35
390
F
100
AcDbLine
 10
-44.59053
 20
610.614319
 30
0.0
 11
-44.59053
 21
611.114258
 31
0.0
  0
LINE
  5
228
330
50
100
AcDbEntity
  8
0
 62
     7
 48
0.000338
370
    35
390
F
100
AcDbLine
 10
10.696523
 20
775.614319
 30
0.0
 11
10.710036
 21
775.614258
 31
0.0
  0
LINE
  5
229
330
50
100
AcDbEntity
  8
0
 62
     7
 48
0.274996
370
    35
390
F
100
AcDbLine
 10
-48.590469
 20
782.614319
 30
0.0
 11
-37.590633
 21
782.614319
 31
0.0
  0
LINE
  5
22A
330
50
100
AcDbEntity
  8
0
 62
     7
 48
0.211451
370
    13
390
F
100
AcDbLine
 10
-40.132492
 20
780.614319
 30
0.0
 11
-48.59053
 21
780.614319
 31
0.0
  0
LWPOLYLINE
  5
22B
330
50
100
AcDbEntity
  8
0
 62
     7
370
    35
390
F
100
AcDbPolyline
 90
        9
 70
     0
 43
0.0
 10
-40.131321
 20
780.614319
 10
-40.15723
 20
780.994995
 10
-40.234077
 20
781.361755
 10
-40.359009
 20
781.70105
 10
-40.527355
 20
782.000427
 10
-40.732857
 20
782.249084
 10
-40.967949
 20
782.43811
 10
-41.224026
 20
782.560669
 10
-41.357033
 20
782.595642
  0
LINE
  5
236
330
50
100
AcDbEntity
  8
0
 62
     7
 48
0.035355
370
    13
390
F
100
AcDbLine
 10
-41.357742
 20
782.601563
 30
0.0
 11
-39.943527
 21
782.601563
 31
0.0
  0
LWPOLYLINE
  5
237
330
50
100
AcDbEntity
  8
0
 62
     7
370
    35
390
F
100
AcDbPolyline
 90
        4
 70
     0
 43
0.0
 10
-148.301071
 20
621.219116
 10
-156.821091
 20
621.212219
 10
-158.002289
 20
621.213623
 10
-158.147217
 20
621.218933
  0
LINE
  5
23D
330
50
100
AcDbEntity
  8
0
 62
     7
 48
0.00031
370
    35
390
F
100
AcDbLine
 10
-148.301041
 20
621.220093
 30
0.0
 11
-148.300659
 21
621.232483
 31
0.0
  0
LINE
  5
23E
330
50
100
AcDbEntity
  8
0
 62
     7
 48
0.013242
370
    35
390
F
100
AcDbLine
 10
-148.300659
 20
621.232483
 30
0.0
 11
-148.28389
 21
621.761902
 31
0.0
  0
ARC
  5
23F
330
50
100
AcDbEntity
  8
0
 62
     7
370
    35
390
F
100
AcDbCircle
 10
-147.862747
 20
623.249634
 30
0.0
 40
1.546485
100
AcDbArc
 50
254.194011
 51
285.910772
  0
LINE
  5
240
330
50
100
AcDbEntity
  8
0
 62
     7
 48
0.013242
370
    35
390
F
100
AcDbLine
 10
-147.455414
 20
621.232483
 30
0.0
 11
-147.438644
 21
621.761902
 31
0.0
  0
LINE
  5
241
330
50
100
AcDbEntity
  8
0
 62
     7
 48
0.000311
370
    35
390
F
100
AcDbLine
 10
-147.455826
 20
621.220032
 30
0.0
 11
-147.455414
 21
621.232483
 31
0.0
  0
LINE
  5
242
330
50
100
AcDbEntity
  8
0
 62
     7
 48
0.213796
370
    35
390
F
100
AcDbLine
 10
-147.455856
 20
621.219055
 30
0.0
 11
-138.904007
 21
621.216187
 31
0.0
  0
LINE
  5
243
330
50
100
AcDbEntity
  8
0
 62
     7
 48
0.000408
370
    35
390
F
100
AcDbLine
 10
-138.904007
 20
621.216187
 30
0.0
 11
-138.903564
 21
621.232483
 31
0.0
  0
LINE
  5
244
330
50
100
AcDbEntity
  8
0
 62
     7
 48
0.013241
370
    35
390
F
100
AcDbLine
 10
-138.903564
 20
621.232483
 30
0.0
 11
-138.888397
 21
621.761902
 31
0.0
  0
ARC
  5
245
330
50
100
AcDbEntity
  8
0
 62
     7
370
    35
390
F
100
AcDbCircle
 10
-138.316162
 20
624.526123
 30
0.0
 40
2.823039
100
AcDbArc
 50
258.303811
 51
281.748995
  0
LINE
  5
246
330
50
100
AcDbEntity
  8
0
 62
     7
 48
0.013241
370
    35
390
F
100
AcDbLine
 10
-137.756409
 20
621.232483
 30
0.0
 11
-137.741257
 21
621.761902
 31
0.0
  0
LINE
  5
247
330
50
100
AcDbEntity
  8
0
 62
     7
 48
0.000418
370
    35
390
F
100
AcDbLine
 10
-137.756912
 20
621.215759
 30
0.0
 11
-137.756409
 21
621.232483
 31
0.0
  0
LINE
  5
248
330
50
100
AcDbEntity
  8
0
 62
     7
 48
0.274853
370
    35
390
F
100
AcDbLine
 10
-137.756912
 20
621.215759
 30
0.0
 11
-126.762794
 21
621.213501
 31
0.0
  0
LINE
  5
249
330
50
100
AcDbEntity
  8
0
 62
     7
 48
0.000391
370
    35
390
F
100
AcDbLine
 10
-126.762794
 20
621.213501
 30
0.0
 11
-126.762428
 21
621.229126
 31
0.0
  0
LINE
  5
24A
330
50
100
AcDbEntity
  8
0
 62
     7
 48
0.013029
370
    35
390
F
100
AcDbLine
 10
-126.762428
 20
621.229126
 30
0.0
 11
-126.749557
 21
621.750122
 31
0.0
  0
ARC
  5
24B
330
50
100
AcDbEntity
  8
0
 62
     7
370
    35
390
F
100
AcDbCircle
 10
-126.043594
 20
625.966064
 30
0.0
 40
4.274839
100
AcDbArc
 50
260.494102
 51
279.536218
  0
LINE
  5
24C
330
50
100
AcDbEntity
  8
0
 62
     7
 48
0.013029
370
    35
390
F
100
AcDbLine
 10
-125.348213
 20
621.229126
 30
0.0
 11
-125.335342
 21
621.750122
 31
0.0
  0
LINE
  5
24D
330
50
100
AcDbEntity
  8
0
 62
     7
 48
0.000391
370
    35
390
F
100
AcDbLine
 10
-125.348633
 20
621.213501
 30
0.0
 11
-125.348213
 21
621.229126
 31
0.0
  0
LINE
  5
24E
330
50
100
AcDbEntity
  8
0
 62
     7
 48
0.32756
370
    35
390
F
100
AcDbLine
 10
-125.348633
 20
621.213501
 30
0.0
 11
-112.246223
 21
621.215759
 31
0.0
  0
LINE
  5
24F
330
50
100
AcDbEntity
  8
0
 62
     7
 48
0.000418
370
    35
390
F
100
AcDbLine
 10
-112.246223
 20
621.215759
 30
0.0
 11
-112.245926
 21
621.232483
 31
0.0
  0
LINE
  5
250
330
50
100
AcDbEntity
  8
0
 62
     7
 48
0.013238
370
    35
390
F
100
AcDbLine
 10
-112.245926
 20
621.232483
 30
0.0
 11
-112.235313
 21
621.761902
 31
0.0
  0
ARC
  5
251
330
50
100
AcDbEntity
  8
0
 62
     7
370
    35
390
F
100
AcDbCircle
 10
-111.417091
 20
627.42926
 30
0.0
 40
5.726226
100
AcDbArc
 50
261.784714
 51
278.233708
  0
LINE
  5
252
330
50
100
AcDbEntity
  8
0
 62
     7
 48
0.013238
370
    35
390
F
100
AcDbLine
 10
-110.60762
 20
621.232483
 30
0.0
 11
-110.597008
 21
621.761902
 31
0.0
  0
LINE
  5
253
330
50
100
AcDbEntity
  8
0
 62
     7
 48
0.000406
370
    35
390
F
100
AcDbLine
 10
-110.607979
 20
621.216248
 30
0.0
 11
-110.60762
 21
621.232483
 31
0.0
  0
LINE
  5
254
330
50
100
AcDbEntity
  8
0
 62
     7
 48
0.237329
370
    35
390
F
100
AcDbLine
 10
-110.607979
 20
621.216248
 30
0.0
 11
-101.114807
 21
621.218445
 31
0.0
  0
ELLIPSE
  5
255
330
50
100
AcDbEntity
  8
0
 62
     7
370
    35
390
F
100
AcDbEllipse
 10
16.706995
 20
752.330505
 30
0.0
 11
-0.4560804963111877
 21
-23.2801456451416
 31
0.0
210
0.0
220
0.0
230
1.0
 40
0.9013280000000001
 41
2.594463586807251
 42
3.159249305725098
  0
ARC
  5
256
330
50
100
AcDbEntity
  8
0
 62
     7
370
    35
390
F
100
AcDbCircle
 10
59.05965
 20
620.614258
 30
0.0
 40
2.000097
100
AcDbArc
 50
17.59859
 51
89.99998900000001
  0
LINE
  5
257
330
50
100
AcDbEntity
  8
0
 62
     7
 48
0.201077
370
    35
390
F
100
AcDbLine
 10
51.015949
 20
622.614319
 30
0.0
 11
59.059044
 21
622.614319
 31
0.0
  0
LINE
  5
258
330
50
100
AcDbEntity
  8
0
 62
     7
370
    35
390
F
100
AcDbLine
 10
37.506878
 20
755.185059
 30
0.0
 11
51.102829
 21
621.761902
 31
0.0
  0
LWPOLYLINE
  5
259
330
50
100
AcDbEntity
  8
0
 62
     7
370
    35
390
F
100
AcDbPolyline
 90
       36
 70
     0
 43
0.0
 10
16.792532
 20
775.614319
 10
17.660976
 20
775.59436
 10
18.528013
 20
775.534546
 10
19.392101
 20
775.434875
 10
20.251709
 20
775.295654
 10
21.105324
 20
775.117004
 10
21.951443
 20
774.89917
 10
22.788588
 20
774.6427
 10
23.615295
 20
774.3479
 10
24.430128
 20
774.01532
 10
25.23167
 20
773.645569
 10
26.018532
 20
773.239258
 10
26.789349
 20
772.797119
 10
27.542789
 20
772.319946
 10
28.27755
 20
771.808594
 10
28.992359
 20
771.263855
 10
29.68598
 20
770.686768
 10
30.357216
 20
770.078308
 10
31.004902
 20
769.439575
 10
31.627916
 20
768.771606
 10
32.225178
 20
768.075562
 10
32.795654
 20
767.352661
 10
33.338345
 20
766.604187
 10
33.85231
 20
765.831421
 10
34.336651
 20
765.035645
 10
34.790524
 20
764.218323
 10
35.213127
 20
763.380798
 10
35.603733
 20
762.524536
 10
35.961647
 20
761.651062
 10
36.286247
 20
760.761841
 10
36.576965
 20
759.858459
 10
36.833298
 20
758.942505
 10
37.054798
 20
758.015503
 10
37.241093
 20
757.079163
 10
37.391865
 20
756.135132
 10
37.506878
 20
755.185059
  0
LINE
  5
27F
330
50
100
AcDbEntity
  8
0
 62
     7
 48
0.021131
370
    13
390
F
100
AcDbLine
 10
36.66164
 20
755.185059
 30
0.0
 11
37.506878
 21
755.185059
 31
0.0
  0
LINE
  5
280
330
50
100
AcDbEntity
  8
0
 62
     7
370
    35
390
F
100
AcDbLine
 10
36.66164
 20
755.185059
 30
0.0
 11
50.257591
 21
621.761902
 31
0.0
  0
ELLIPSE
  5
281
330
50
100
AcDbEntity
  8
0
 62
     7
370
    35
390
F
100
AcDbEllipse
 10
48.550499
 20
620.614319
 30
0.0
 11
-8.742277660000001E-8
 21
2.0
 31
0.0
210
0.0
220
0.0
230
1.0
 40
0.9063080000000013
 41
5.026616096496582
 42
6.283185482025146
  0
LWPOLYLINE
  5
282
330
50
100
AcDbEntity
  8
0
 62
     7
370
    35
390
F
100
AcDbPolyline
 90
       36
 70
     0
 43
0.0
 10
15.947296
 20
775.614319
 10
16.815739
 20
775.59436
 10
17.682775
 20
775.534546
 10
18.546864
 20
775.434875
 10
19.406473
 20
775.295654
 10
20.260088
 20
775.117004
 10
21.106207
 20
774.89917
 10
21.94335
 20
774.6427
 10
22.77006
 20
774.3479
 10
23.584892
 20
774.01532
 10
24.386433
 20
773.645569
 10
25.173294
 20
773.239258
 10
25.944113
 20
772.797119
 10
26.697554
 20
772.319946
 10
27.432312
 20
771.808594
 10
28.147121
 20
771.263855
 10
28.840744
 20
770.686768
 10
29.511978
 20
770.078308
 10
30.159664
 20
769.439575
 10
30.782681
 20
768.771606
 10
31.379942
 20
768.075562
 10
31.950417
 20
767.352661
 10
32.493107
 20
766.604187
 10
33.007072
 20
765.831421
 10
33.491413
 20
765.035645
 10
33.945286
 20
764.218323
 10
34.367893
 20
763.380798
 10
34.758495
 20
762.524536
 10
35.116409
 20
761.651062
 10
35.44101
 20
760.761841
 10
35.731731
 20
759.858459
 10
35.98806
 20
758.942505
 10
36.209564
 20
758.015503
 10
36.395855
 20
757.079163
 10
36.546631
 20
756.135132
 10
36.66164
 20
755.185059
  0
LINE
  5
2A8
330
50
100
AcDbEntity
  8
0
 62
     7
 48
0.305774
370
    35
390
F
100
AcDbLine
 10
3.71632
 20
775.614319
 30
0.0
 11
15.947296
 21
775.614319
 31
0.0
  0
LWPOLYLINE
  5
2A9
330
50
100
AcDbEntity
  8
0
 62
     7
370
    35
390
F
100
AcDbPolyline
 90
       29
 70
     0
 43
0.0
 10
34.004353
 20
754.357422
 10
33.920506
 20
755.20575
 10
33.803879
 20
756.049622
 10
33.65469
 20
756.887451
 10
33.473213
 20
757.717529
 10
33.259792
 20
758.538452
 10
33.014816
 20
759.348511
 10
32.738747
 20
760.146362
 10
32.432095
 20
760.93042
 10
32.095425
 20
761.69928
 10
31.729357
 20
762.451477
 10
31.334562
 20
763.18573
 10
30.911764
 20
763.900696
 10
30.461731
 20
764.594971
 10
29.985285
 20
765.267456
 10
29.48329
 20
765.916748
 10
28.956652
 20
766.54187
 10
28.406328
 20
767.141541
 10
27.833309
 20
767.714783
 10
27.23863
 20
768.260498
 10
26.623365
 20
768.77771
 10
25.988626
 20
769.265564
 10
25.335556
 20
769.723022
 10
24.66534
 20
770.149353
 10
23.979189
 20
770.543823
 10
23.278349
 20
770.905579
 10
22.564096
 20
771.234131
 10
21.837734
 20
771.528687
 10
21.100595
 20
771.788879
  0
LINE
  5
2C8
330
50
100
AcDbEntity
  8
0
 62
     7
370
    35
390
F
100
AcDbLine
 10
44.305149
 20
624.44043
 30
0.0
 11
34.003815
 21
754.357422
 31
0.0
  0
LINE
  5
2C9
330
50
100
AcDbEntity
  8
0
 62
     7
 48
0.003473
370
    35
390
F
100
AcDbLine
 10
44.316132
 20
624.301941
 30
0.0
 11
44.305149
 21
624.44043
 31
0.0
  0
LWPOLYLINE
  5
2CA
330
50
100
AcDbEntity
  8
0
 62
     7
370
    35
390
F
100
AcDbPolyline
 90
       10
 70
     0
 43
0.0
 10
44.316132
 20
624.301941
 10
44.382484
 20
623.996704
 10
44.491306
 20
623.706665
 10
44.639912
 20
623.438965
 10
44.824646
 20
623.200256
 10
45.040962
 20
622.996399
 10
45.283524
 20
622.832336
 10
45.546352
 20
622.712219
 10
45.822975
 20
622.638916
 10
46.106583
 20
622.614319
  0
LINE
  5
2D6
330
50
100
AcDbEntity
  8
0
 62
     7
 48
0.172937
370
    35
390
F
100
AcDbLine
 10
41.628792
 20
622.614319
 30
0.0
 11
48.546284
 21
622.614319
 31
0.0
  0
LINE
  5
2D7
330
50
100
AcDbEntity
  8
0
 62
     7
370
    35
390
F
100
AcDbLine
 10
29.418858
 20
755.185059
 30
0.0
 11
41.707344
 21
621.761902
 31
0.0
  0
LWPOLYLINE
  5
2D8
330
50
100
AcDbEntity
  8
0
 62
     7
370
    35
390
F
100
AcDbPolyline
 90
       36
 70
     0
 43
0.0
 10
10.696523
 20
775.614319
 10
11.481451
 20
775.59436
 10
12.265109
 20
775.534546
 10
13.046102
 20
775.434875
 10
13.823046
 20
775.295654
 10
14.594571
 20
775.117004
 10
15.359323
 20
774.89917
 10
16.115963
 20
774.6427
 10
16.863169
 20
774.3479
 10
17.599644
 20
774.01532
 10
18.324104
 20
773.645569
 10
19.035297
 20
773.239258
 10
19.731989
 20
772.797119
 10
20.412973
 20
772.319946
 10
21.077074
 20
771.808594
 10
21.723143
 20
771.263855
 10
22.350063
 20
770.686768
 10
22.956749
 20
770.078308
 10
23.542149
 20
769.439575
 10
24.105251
 20
768.771606
 10
24.645079
 20
768.075562
 10
25.160692
 20
767.352661
 10
25.651196
 20
766.604187
 10
26.115734
 20
765.831421
 10
26.553497
 20
765.035645
 10
26.963722
 20
764.218323
 10
27.34569
 20
763.380798
 10
27.698729
 20
762.524536
 10
28.022224
 20
761.651062
 10
28.315611
 20
760.761841
 10
28.578371
 20
759.858459
 10
28.810053
 20
758.942505
 10
29.010254
 20
758.015503
 10
29.178633
 20
757.079163
 10
29.314907
 20
756.135132
 10
29.418858
 20
755.185059
  0
LINE
  5
2FE
330
50
100
AcDbEntity
  8
0
 62
     7
 48
0.028679
370
    13
390
F
100
AcDbLine
 10
28.271704
 20
755.185059
 30
0.0
 11
29.418858
 21
755.185059
 31
0.0
  0
LINE
  5
2FF
330
50
100
AcDbEntity
  8
0
 62
     7
370
    35
390
F
100
AcDbLine
 10
28.271704
 20
755.185059
 30
0.0
 11
40.560192
 21
621.761902
 31
0.0
  0
ELLIPSE
  5
300
330
50
100
AcDbEntity
  8
0
 62
     7
370
    35
390
F
100
AcDbEllipse
 10
39.017262
 20
620.614319
 30
0.0
 11
-8.742277660000001E-8
 21
2.0
 31
0.0
210
0.0
220
0.0
230
1.0
 40
0.8191520000000013
 41
5.026616096496582
 42
6.283185482025146
  0
LWPOLYLINE
  5
301
330
50
100
AcDbEntity
  8
0
 62
     7
370
    35
390
F
100
AcDbPolyline
 90
       36
 70
     0
 43
0.0
 10
9.54937
 20
775.614319
 10
10.334298
 20
775.59436
 10
11.117956
 20
775.534546
 10
11.898949
 20
775.434875
 10
12.675893
 20
775.295654
 10
13.447418
 20
775.117004
 10
14.21217
 20
774.89917
 10
14.96881
 20
774.6427
 10
15.716017
 20
774.3479
 10
16.45249
 20
774.01532
 10
17.176952
 20
773.645569
 10
17.888144
 20
773.239258
 10
18.584835
 20
772.797119
 10
19.265821
 20
772.319946
 10
19.929922
 20
771.808594
 10
20.575991
 20
771.263855
 10
21.202909
 20
770.686768
 10
21.809595
 20
770.078308
 10
22.394997
 20
769.439575
 10
22.958097
 20
768.771606
 10
23.497925
 20
768.075562
 10
24.013538
 20
767.352661
 10
24.504042
 20
766.604187
 10
24.968582
 20
765.831421
 10
25.406345
 20
765.035645
 10
25.81657
 20
764.218323
 10
26.198536
 20
763.380798
 10
26.551577
 20
762.524536
 10
26.875072
 20
761.651062
 10
27.168457
 20
760.761841
 10
27.431219
 20
759.858459
 10
27.662901
 20
758.942505
 10
27.8631
 20
758.015503
 10
28.031479
 20
757.079163
 10
28.167753
 20
756.135132
 10
28.271704
 20
755.185059
  0
LINE
  5
327
330
50
100
AcDbEntity
  8
0
 62
     7
 48
0.145825
370
    35
390
F
100
AcDbLine
 10
3.716384
 20
775.614319
 30
0.0
 11
9.54937
 21
775.614319
 31
0.0
  0
LWPOLYLINE
  5
328
330
50
100
AcDbEntity
  8
0
 62
     7
370
    35
390
F
100
AcDbPolyline
 90
       33
 70
     0
 43
0.0
 10
25.869957
 20
754.357422
 10
25.791912
 20
755.226807
 10
25.682753
 20
756.091431
 10
25.542692
 20
756.949585
 10
25.372005
 20
757.799622
 10
25.171024
 20
758.639709
 10
24.940142
 20
759.468323
 10
24.67981
 20
760.283813
 10
24.390533
 20
761.084534
 10
24.072874
 20
761.869019
 10
23.727446
 20
762.635742
 10
23.354914
 20
763.383179
 10
22.955992
 20
764.109985
 10
22.531445
 20
764.814697
 10
22.082081
 20
765.496094
 10
21.608759
 20
766.15271
 10
21.112377
 20
766.783447
 10
20.59388
 20
767.387085
 10
20.054247
 20
767.962402
 10
19.494505
 20
768.508362
 10
18.915714
 20
769.023987
 10
18.318972
 20
769.508179
 10
17.70541
 20
769.960083
 10
17.076197
 20
770.378845
 10
16.432528
 20
770.763611
 10
15.775635
 20
771.113708
 10
15.106774
 20
771.428406
 10
14.427234
 20
771.707092
 10
13.738323
 20
771.949341
 10
13.041381
 20
772.154541
 10
12.337767
 20
772.322327
 10
11.62886
 20
772.452393
 10
10.916066
 20
772.544495
  0
LINE
  5
34B
330
50
100
AcDbEntity
  8
0
 62
     7
370
    35
390
F
100
AcDbLine
 10
35.180199
 20
624.440002
 30
0.0
 11
25.869473
 21
754.357422
 31
0.0
  0
ELLIPSE
  5
34C
330
50
100
AcDbEntity
  8
0
 62
     7
370
    35
390
F
100
AcDbEllipse
 10
36.812271
 20
624.614319
 30
0.0
 11
-8.742277660000001E-8
 21
2.0
 31
0.0
210
0.0
220
0.0
230
1.0
 40
0.8191520000000013
 41
1.658062815666199
 42
3.141592741012573
  0
LINE
  5
34D
330
50
100
AcDbEntity
  8
0
 62
     7
 48
0.237842
370
    35
390
F
100
AcDbLine
 10
29.499775
 20
622.614319
 30
0.0
 11
39.013458
 21
622.614319
 31
0.0
  0
LINE
  5
34E
330
50
100
AcDbEntity
  8
0
 62
     7
370
    35
390
F
100
AcDbLine
 10
4.628509
 20
775.468323
 30
0.0
 11
-39.943527
 21
782.601563
 31
0.0
  0
LWPOLYLINE
  5
34F
330
50
100
AcDbEntity
  8
0
 62
     7
370
    35
390
F
100
AcDbPolyline
 90
       36
 70
     0
 43
0.0
 10
4.628509
 20
775.468323
 10
5.248523
 20
775.35199
 10
5.864928
 20
775.202026
 10
6.476799
 20
775.018616
 10
7.083226
 20
774.802063
 10
7.683303
 20
774.552673
 10
8.276142
 20
774.270813
 10
8.860863
 20
773.95697
 10
9.436603
 20
773.611511
 10
10.002512
 20
773.234985
 10
10.557755
 20
772.828003
 10
11.101513
 20
772.391113
 10
11.632987
 20
771.924988
 10
12.151395
 20
771.430298
 10
12.655972
 20
770.907837
 10
13.145977
 20
770.358337
 10
13.620687
 20
769.782593
 10
14.079401
 20
769.181458
 10
14.521444
 20
768.555847
 10
14.946162
 20
767.906738
 10
15.352927
 20
767.234924
 10
15.741136
 20
766.541565
 10
16.110214
 20
765.827576
 10
16.459612
 20
765.094055
 10
16.788809
 20
764.342041
 10
17.097317
 20
763.572693
 10
17.384676
 20
762.787109
 10
17.650457
 20
761.98645
 10
17.894264
 20
761.171875
 10
18.115734
 20
760.344666
 10
18.314539
 20
759.506042
 10
18.490383
 20
758.657166
 10
18.643009
 20
757.799377
 10
18.7722
 20
756.93396
 10
18.877768
 20
756.062134
 10
18.95957
 20
755.185364
  0
LINE
  5
375
330
50
100
AcDbEntity
  8
0
 62
     7
370
    35
390
F
100
AcDbLine
 10
18.95957
 20
755.185364
 30
0.0
 11
29.568497
 21
621.750061
 31
0.0
  0
LINE
  5
376
330
50
100
AcDbEntity
  8
0
 62
     7
370
    35
390
F
100
AcDbLine
 10
17.545357
 20
755.185364
 30
0.0
 11
28.154284
 21
621.750061
 31
0.0
  0
LINE
  5
377
330
50
100
AcDbEntity
  8
0
 62
     7
 48
0.035355
370
    13
390
F
100
AcDbLine
 10
18.95957
 20
755.185364
 30
0.0
 11
17.545357
 21
755.185364
 31
0.0
  0
LINE
  5
378
330
50
100
AcDbEntity
  8
0
 62
     7
370
    35
390
F
100
AcDbLine
 10
23.509886
 20
624.440002
 30
0.0
 11
15.472698
 21
754.357422
 31
0.0
  0
LWPOLYLINE
  5
379
330
50
100
AcDbEntity
  8
0
 62
     7
370
    35
390
F
100
AcDbPolyline
 90
       36
 70
     0
 43
0.0
 10
1.383841
 20
772.614319
 10
1.982877
 20
772.596313
 10
2.581009
 20
772.54248
 10
3.177108
 20
772.452759
 10
3.77006
 20
772.327454
 10
4.358763
 20
772.166687
 10
4.942132
 20
771.970764
 10
5.519098
 20
771.740112
 10
6.088609
 20
771.475159
 10
6.649634
 20
771.17627
 10
7.201158
 20
770.844055
 10
7.742189
 20
770.479187
 10
8.271758
 20
770.082214
 10
8.788916
 20
769.653931
 10
9.29274
 20
769.195007
 10
9.782332
 20
768.70636
 10
10.256822
 20
768.188843
 10
10.715363
 20
767.643372
 10
11.157139
 20
767.070862
 10
11.581366
 20
766.472412
 10
11.987287
 20
765.84906
 10
12.374178
 20
765.201904
 10
12.741348
 20
764.532043
 10
13.088141
 20
763.84082
 10
13.413934
 20
763.129333
 10
13.718141
 20
762.398865
 10
14.000214
 20
761.650818
 10
14.259642
 20
760.886414
 10
14.495954
 20
760.107178
 10
14.708721
 20
759.314392
 10
14.897553
 20
758.509583
 10
15.062105
 20
757.694214
 10
15.202075
 20
756.869751
 10
15.317204
 20
756.03772
 10
15.407284
 20
755.199768
 10
15.472148
 20
754.357422
  0
LINE
  5
39F
330
50
100
AcDbEntity
  8
0
 62
     7
 48
0.175002
370
    35
390
F
100
AcDbLine
 10
-40.132492
 20
773.614258
 30
0.0
 11
-40.132492
 21
780.614319
 31
0.0
  0
LINE
  5
3A0
330
50
100
AcDbEntity
  8
0
 62
     7
370
    35
390
F
100
AcDbLine
 10
3.214296
 20
775.468323
 30
0.0
 11
-41.357742
 21
782.601563
 31
0.0
  0
LWPOLYLINE
  5
3A1
330
50
100
AcDbEntity
  8
0
 62
     7
370
    35
390
F
100
AcDbPolyline
 90
       36
 70
     0
 43
0.0
 10
3.214295
 20
775.468323
 10
3.83431
 20
775.35199
 10
4.450714
 20
775.202026
 10
5.062586
 20
775.018616
 10
5.669012
 20
774.802063
 10
6.26909
 20
774.552673
 10
6.861928
 20
774.270813
 10
7.44665
 20
773.95697
 10
8.022389
 20
773.611511
 10
8.588298
 20
773.234985
 10
9.14354
 20
772.828003
 10
9.6873
 20
772.391113
 10
10.218774
 20
771.924988
 10
10.737182
 20
771.430298
 10
11.241758
 20
770.907837
 10
11.731763
 20
770.358337
 10
12.206473
 20
769.782593
 10
12.665188
 20
769.181458
 10
13.10723
 20
768.555847
 10
13.531948
 20
767.906738
 10
13.938713
 20
767.234924
 10
14.326922
 20
766.541565
 10
14.696
 20
765.827576
 10
15.045398
 20
765.094055
 10
15.374596
 20
764.342041
 10
15.683105
 20
763.572693
 10
15.970463
 20
762.787109
 10
16.236244
 20
761.98645
 10
16.480051
 20
761.171875
 10
16.701521
 20
760.344666
 10
16.900324
 20
759.506042
 10
17.07617
 20
758.657166
 10
17.228796
 20
757.799377
 10
17.357985
 20
756.93396
 10
17.463554
 20
756.062134
 10
17.545357
 20
755.185364
  0
LWPOLYLINE
  5
3C7
330
50
100
AcDbEntity
  8
0
 62
     7
370
    35
390
F
100
AcDbPolyline
 90
        9
 70
     0
 43
0.0
 10
26.821472
 20
622.614319
 10
27.043047
 20
622.589539
 10
27.259703
 20
622.515808
 10
27.46545
 20
622.39502
 10
27.654963
 20
622.230164
 10
27.82357
 20
622.025635
 10
27.967264
 20
621.786621
 10
28.082691
 20
621.518982
 10
28.167156
 20
621.229126
  0
LWPOLYLINE
  5
3D2
330
50
100
AcDbEntity
  8
0
 62
     7
370
    35
390
F
100
AcDbPolyline
 90
       11
 70
     0
 43
0.0
 10
23.509886
 20
624.440002
 10
23.5462
 20
624.132202
 10
23.615917
 20
623.836182
 10
23.71734
 20
623.559143
 10
23.847998
 20
623.307739
 10
24.004715
 20
623.088135
 10
24.183681
 20
622.90564
 10
24.380533
 20
622.764771
 10
24.590477
 20
622.668884
 10
24.808411
 20
622.620361
 10
24.918718
 20
622.614319
  0
LINE
  5
3DF
330
50
100
AcDbEntity
  8
0
 62
     7
 48
0.295488
370
    35
390
F
100
AcDbLine
 10
14.999279
 20
622.614319
 30
0.0
 11
26.8188
 21
622.614319
 31
0.0
  0
LINE
  5
3E0
330
50
100
AcDbEntity
  8
0
 62
     7
370
    35
390
F
100
AcDbLine
 10
6.449761
 20
755.185059
 30
0.0
 11
15.054252
 21
621.761902
 31
0.0
  0
LWPOLYLINE
  5
3E1
330
50
100
AcDbEntity
  8
0
 62
     7
370
    35
390
F
100
AcDbPolyline
 90
       36
 70
     0
 43
0.0
 10
-6.659759
 20
775.614319
 10
-6.110146
 20
775.59436
 10
-5.561423
 20
775.534546
 10
-5.014566
 20
775.434875
 10
-4.470544
 20
775.295654
 10
-3.930316
 20
775.117004
 10
-3.394831
 20
774.89917
 10
-2.865026
 20
774.6427
 10
-2.341826
 20
774.3479
 10
-1.826142
 20
774.01532
 10
-1.318869
 20
773.645569
 10
-0.820886
 20
773.239258
 10
-0.333058
 20
772.797119
 10
0.143773
 20
772.319946
 10
0.608782
 20
771.808594
 10
1.061164
 20
771.263855
 10
1.500138
 20
770.686768
 10
1.924943
 20
770.078308
 10
2.334845
 20
769.439575
 10
2.729134
 20
768.771606
 10
3.107125
 20
768.075562
 10
3.468161
 20
767.352661
 10
3.811615
 20
766.604187
 10
4.136889
 20
765.831421
 10
4.443415
 20
765.035645
 10
4.730657
 20
764.218323
 10
4.998113
 20
763.380798
 10
5.245314
 20
762.524536
 10
5.471828
 20
761.651062
 10
5.677259
 20
760.761841
 10
5.861247
 20
759.858459
 10
6.023472
 20
758.942505
 10
6.163653
 20
758.015503
 10
6.281553
 20
757.079163
 10
6.376974
 20
756.135132
 10
6.449761
 20
755.185059
  0
LINE
  5
407
330
50
100
AcDbEntity
  8
0
 62
     7
 48
0.040958
370
    13
390
F
100
AcDbLine
 10
4.811457
 20
755.185059
 30
0.0
 11
6.449761
 21
755.185059
 31
0.0
  0
LINE
  5
408
330
50
100
AcDbEntity
  8
0
 62
     7
370
    35
390
F
100
AcDbLine
 10
4.811457
 20
755.185059
 30
0.0
 11
13.415947
 21
621.761902
 31
0.0
  0
ELLIPSE
  5
409
330
50
100
AcDbEntity
  8
0
 62
     7
370
    35
390
F
100
AcDbEllipse
 10
12.335577
 20
620.614319
 30
0.0
 11
-8.742277660000001E-8
 21
2.0
 31
0.0
210
0.0
220
0.0
230
1.0
 40
0.5735760000000013
 41
5.026616096496582
 42
6.283185482025146
  0
LINE
  5
40A
330
50
100
AcDbEntity
  8
0
 62
     7
 48
0.344174
370
    35
390
F
100
AcDbLine
 10
-1.434019
 20
622.614319
 30
0.0
 11
12.332926
 21
622.614319
 31
0.0
  0
LINE
  5
40B
330
50
100
AcDbEntity
  8
0
 62
     7
370
    35
390
F
100
AcDbLine
 10
-7.733412
 20
755.185059
 30
0.0
 11
-1.393516
 21
621.761902
 31
0.0
  0
LWPOLYLINE
  5
40C
330
50
100
AcDbEntity
  8
0
 62
     7
370
    35
390
F
100
AcDbPolyline
 90
       31
 70
     0
 43
0.0
 10
-17.39267
 20
775.614319
 10
-16.987707
 20
775.59436
 10
-16.583401
 20
775.534546
 10
-16.18047
 20
775.434875
 10
-15.779628
 20
775.295654
 10
-15.381581
 20
775.117004
 10
-14.987029
 20
774.89917
 10
-14.596663
 20
774.6427
 10
-14.211163
 20
774.3479
 10
-13.8312
 20
774.01532
 10
-13.457435
 20
773.645569
 10
-13.090515
 20
773.239258
 10
-12.731077
 20
772.797119
 10
-12.379742
 20
772.319946
 10
-12.037118
 20
771.808594
 10
-11.703796
 20
771.263855
 10
-11.380356
 20
770.686768
 10
-11.067353
 20
770.078308
 10
-10.765332
 20
769.439575
 10
-10.474816
 20
768.771606
 10
-10.196307
 20
768.075562
 10
-9.930291
 20
767.352661
 10
-9.67723
 20
766.604187
 10
-9.437564
 20
765.831421
 10
-9.211712
 20
765.035645
 10
-9.000069
 20
764.218323
 10
-8.620863
 20
762.524536
 10
-8.302601
 20
760.761841
 10
-8.047506
 20
758.942505
 10
-7.857349
 20
757.079163
 10
-7.733412
 20
755.185059
  0
LINE
  5
42D
330
50
100
AcDbEntity
  8
0
 62
     7
 48
0.045315
370
    13
390
F
100
AcDbLine
 10
-9.546027
 20
755.185059
 30
0.0
 11
-7.733412
 21
755.185059
 31
0.0
  0
LINE
  5
42E
330
50
100
AcDbEntity
  8
0
 62
     7
370
    35
390
F
100
AcDbLine
 10
-9.546027
 20
755.185059
 30
0.0
 11
-3.206132
 21
621.761902
 31
0.0
  0
ELLIPSE
  5
42F
330
50
100
AcDbEntity
  8
0
 62
     7
370
    35
390
F
100
AcDbEllipse
 10
-4.002162
 20
620.614319
 30
0.0
 11
-8.742277660000001E-8
 21
2.0
 31
0.0
210
0.0
220
0.0
230
1.0
 40
0.422618
 41
5.026616096496582
 42
6.283185482025146
  0
LWPOLYLINE
  5
430
330
50
100
AcDbEntity
  8
0
 62
     7
370
    35
390
F
100
AcDbPolyline
 90
       31
 70
     0
 43
0.0
 10
-19.205284
 20
775.614319
 10
-18.800323
 20
775.59436
 10
-18.396017
 20
775.534546
 10
-17.993086
 20
775.434875
 10
-17.592243
 20
775.295654
 10
-17.194197
 20
775.117004
 10
-16.799644
 20
774.89917
 10
-16.409279
 20
774.6427
 10
-16.023779
 20
774.3479
 10
-15.643815
 20
774.01532
 10
-15.27005
 20
773.645569
 10
-14.903131
 20
773.239258
 10
-14.543693
 20
772.797119
 10
-14.192357
 20
772.319946
 10
-13.849733
 20
771.808594
 10
-13.516413
 20
771.263855
 10
-13.192971
 20
770.686768
 10
-12.879969
 20
770.078308
 10
-12.577949
 20
769.439575
 10
-12.287432
 20
768.771606
 10
-12.008924
 20
768.075562
 10
-11.742907
 20
767.352661
 10
-11.489845
 20
766.604187
 10
-11.25018
 20
765.831421
 10
-11.024328
 20
765.035645
 10
-10.812684
 20
764.218323
 10
-10.433478
 20
762.524536
 10
-10.115216
 20
760.761841
 10
-9.860123
 20
758.942505
 10
-9.669965
 20
757.079163
 10
-9.546027
 20
755.185059
  0
LINE
  5
451
330
50
100
AcDbEntity
  8
0
 62
     7
 48
0.229016
370
    35
390
F
100
AcDbLine
 10
-28.365923
 20
775.614319
 30
0.0
 11
-19.205284
 21
775.614319
 31
0.0
  0
LINE
  5
452
330
50
100
AcDbEntity
  8
0
 62
     7
 48
0.075
370
    35
390
F
100
AcDbLine
 10
-28.365923
 20
772.614319
 30
0.0
 11
-28.365923
 21
775.614319
 31
0.0
  0
LWPOLYLINE
  5
453
330
50
100
AcDbEntity
  8
0
 62
     7
370
    35
390
F
100
AcDbPolyline
 90
       29
 70
     0
 43
0.0
 10
-10.785141
 20
754.357422
 10
-10.877747
 20
756.03772
 10
-11.030213
 20
757.694153
 10
-11.241423
 20
759.314392
 10
-11.509825
 20
760.886414
 10
-11.833466
 20
762.398804
 10
-12.209998
 20
763.840759
 10
-12.636713
 20
765.201843
 10
-12.867947
 20
765.848999
 10
-13.110554
 20
766.472351
 10
-13.364101
 20
767.070801
 10
-13.628139
 20
767.64325
 10
-13.902194
 20
768.188782
 10
-14.185781
 20
768.706299
 10
-14.478396
 20
769.194946
 10
-14.779516
 20
769.653809
 10
-15.088606
 20
770.082153
 10
-15.405112
 20
770.479126
 10
-15.728469
 20
770.843994
 10
-16.058098
 20
771.176208
 10
-16.393404
 20
771.475037
 10
-16.733784
 20
771.740051
 10
-17.078617
 20
771.970703
 10
-17.427279
 20
772.166626
 10
-17.779129
 20
772.327393
 10
-18.133516
 20
772.452759
 10
-18.489786
 20
772.542419
 10
-18.847271
 20
772.596313
 10
-19.205297
 20
772.614319
  0
LINE
  5
472
330
50
100
AcDbEntity
  8
0
 62
     7
370
    35
390
F
100
AcDbLine
 10
-5.981801
 20
624.44043
 30
0.0
 11
-10.785391
 21
754.357422
 31
0.0
  0
LINE
  5
473
330
50
100
AcDbEntity
  8
0
 62
     7
 48
0.003465
370
    35
390
F
100
AcDbLine
 10
-5.976681
 20
624.301941
 30
0.0
 11
-5.981801
 21
624.44043
 31
0.0
  0
LWPOLYLINE
  5
474
330
50
100
AcDbEntity
  8
0
 62
     7
370
    35
390
F
100
AcDbPolyline
 90
        9
 70
     0
 43
0.0
 10
-5.976681
 20
624.301941
 10
-5.922779
 20
623.849304
 10
-5.825709
 20
623.439026
 10
-5.690834
 20
623.093689
 10
-5.583526
 20
622.909119
 10
-5.465338
 20
622.766602
 10
-5.339182
 20
622.669617
 10
-5.208143
 20
622.620483
 10
-5.141778
 20
622.614319
  0
LINE
  5
47F
330
50
100
AcDbEntity
  8
0
 62
     7
370
    35
390
F
100
AcDbLine
 10
-32.59053
 20
622.614319
 30
0.0
 11
-4.004134
 21
622.614319
 31
0.0
  0
LINE
  5
480
330
50
100
AcDbEntity
  8
0
 62
     7
370
    35
390
F
100
AcDbLine
 10
-93.176926
 20
622.614319
 30
0.0
 11
-64.59053
 21
622.614319
 31
0.0
  0
ELLIPSE
  5
481
330
50
100
AcDbEntity
  8
0
 62
     7
370
    35
390
F
100
AcDbEllipse
 10
-93.178894
 20
620.614319
 30
0.0
 11
2.384976130000000E-8
 21
-2.0
 31
0.0
210
0.0
220
0.0
230
1.0
 40
0.422618
 41
3.141592741012573
 42
4.398161888122559
  0
LINE
  5
482
330
50
100
AcDbEntity
  8
0
 62
     7
 48
0.003465
370
    35
390
F
100
AcDbLine
 10
-91.204376
 20
624.301941
 30
0.0
 11
-91.199257
 21
624.44043
 31
0.0
  0
LINE
  5
483
330
50
100
AcDbEntity
  8
0
 62
     7
370
    35
390
F
100
AcDbLine
 10
-91.199257
 20
624.44043
 30
0.0
 11
-86.395668
 21
754.357422
 31
0.0
  0
LWPOLYLINE
  5
484
330
50
100
AcDbEntity
  8
0
 62
     7
370
    35
390
F
100
AcDbPolyline
 90
       29
 70
     0
 43
0.0
 10
-86.39592
 20
754.357422
 10
-86.303314
 20
756.03772
 10
-86.150848
 20
757.694153
 10
-85.939636
 20
759.314392
 10
-85.671234
 20
760.886414
 10
-85.347595
 20
762.398804
 10
-84.971062
 20
763.840759
 10
-84.544342
 20
765.201843
 10
-84.31311
 20
765.848999
 10
-84.070503
 20
766.472351
 10
-83.816956
 20
767.070801
 10
-83.552917
 20
767.64325
 10
-83.278862
 20
768.188782
 10
-82.995277
 20
768.706299
 10
-82.70266
 20
769.194946
 10
-82.401543
 20
769.653809
 10
-82.092453
 20
770.082153
 10
-81.775948
 20
770.479126
 10
-81.452591
 20
770.843994
 10
-81.122963
 20
771.176208
 10
-80.787651
 20
771.475037
 10
-80.447273
 20
771.740051
 10
-80.10244
 20
771.970703
 10
-79.753777
 20
772.166626
 10
-79.401932
 20
772.327393
 10
-79.047539
 20
772.452759
 10
-78.691269
 20
772.542419
 10
-78.333786
 20
772.596313
 10
-77.975761
 20
772.614319
  0
LINE
  5
4A3
330
50
100
AcDbEntity
  8
0
 62
     7
 48
0.075
370
    35
390
F
100
AcDbLine
 10
-68.815132
 20
772.614319
 30
0.0
 11
-68.815132
 21
775.614319
 31
0.0
  0
LINE
  5
4A4
330
50
100
AcDbEntity
  8
0
 62
     7
 48
0.229016
370
    35
390
F
100
AcDbLine
 10
-68.815132
 20
775.614319
 30
0.0
 11
-77.975777
 21
775.614319
 31
0.0
  0
LWPOLYLINE
  5
4A5
330
50
100
AcDbEntity
  8
0
 62
     7
370
    35
390
F
100
AcDbPolyline
 90
       31
 70
     0
 43
0.0
 10
-77.975777
 20
775.614319
 10
-78.380737
 20
775.59436
 10
-78.785042
 20
775.534546
 10
-79.187973
 20
775.434875
 10
-79.588814
 20
775.295654
 10
-79.986862
 20
775.117004
 10
-80.381416
 20
774.89917
 10
-80.771782
 20
774.6427
 10
-81.15728
 20
774.3479
 10
-81.537239
 20
774.01532
 10
-81.911011
 20
773.645569
 10
-82.277924
 20
773.239258
 10
-82.637367
 20
772.797119
 10
-82.988701
 20
772.319946
 10
-83.331322
 20
771.808594
 10
-83.664642
 20
771.263855
 10
-83.988083
 20
770.686768
 10
-84.301086
 20
770.078308
 10
-84.603111
 20
769.439575
 10
-84.893623
 20
768.771606
 10
-85.172134
 20
768.075562
 10
-85.438148
 20
767.352661
 10
-85.691216
 20
766.604187
 10
-85.930878
 20
765.831421
 10
-86.156731
 20
765.035645
 10
-86.36837
 20
764.218323
 10
-86.747581
 20
762.524597
 10
-87.065842
 20
760.761841
 10
-87.320938
 20
758.942505
 10
-87.511093
 20
757.079163
 10
-87.635033
 20
755.185059
  0
LINE
  5
4C6
330
50
100
AcDbEntity
  8
0
 62
     7
370
    35
390
F
100
AcDbLine
 10
-87.635033
 20
755.185059
 30
0.0
 11
-93.97493
 21
621.761902
 31
0.0
  0
LWPOLYLINE
  5
4C7
330
50
100
AcDbEntity
  8
0
 62
     7
370
    35
390
F
100
AcDbPolyline
 90
        9
 70
     0
 43
0.0
 10
-91.204376
 20
624.301941
 10
-91.258286
 20
623.849304
 10
-91.355362
 20
623.438965
 10
-91.490242
 20
623.093628
 10
-91.597565
 20
622.909119
 10
-91.715767
 20
622.766602
 10
-91.841927
 20
622.669556
 10
-91.972954
 20
622.620483
 10
-92.039284
 20
622.614319
  0
LINE
  5
4D2
330
50
100
AcDbEntity
  8
0
 62
     7
 48
0.045315
370
    13
390
F
100
AcDbLine
 10
-87.635033
 20
755.185059
 30
0.0
 11
-89.447647
 21
755.185059
 31
0.0
  0
LINE
  5
4D3
330
50
100
AcDbEntity
  8
0
 62
     7
370
    35
390
F
100
AcDbLine
 10
-89.447647
 20
755.185059
 30
0.0
 11
-95.787544
 21
621.761902
 31
0.0
  0
LWPOLYLINE
  5
4D4
330
50
100
AcDbEntity
  8
0
 62
     7
370
    35
390
F
100
AcDbPolyline
 90
       31
 70
     0
 43
0.0
 10
-79.788391
 20
775.614319
 10
-80.193352
 20
775.59436
 10
-80.597656
 20
775.534546
 10
-81.000587
 20
775.434875
 10
-81.401428
 20
775.295654
 10
-81.799477
 20
775.117004
 10
-82.194031
 20
774.89917
 10
-82.584396
 20
774.6427
 10
-82.969894
 20
774.3479
 10
-83.349861
 20
774.01532
 10
-83.723625
 20
773.645569
 10
-84.090546
 20
773.239258
 10
-84.449982
 20
772.797119
 10
-84.801315
 20
772.319946
 10
-85.143944
 20
771.808594
 10
-85.477264
 20
771.263855
 10
-85.800705
 20
770.686768
 10
-86.113701
 20
770.078308
 10
-86.415726
 20
769.439575
 10
-86.706245
 20
768.771606
 10
-86.984749
 20
768.075562
 10
-87.250763
 20
767.352661
 10
-87.50383
 20
766.604187
 10
-87.743492
 20
765.831421
 10
-87.969345
 20
765.035645
 10
-88.180992
 20
764.218323
 10
-88.560196
 20
762.524597
 10
-88.878456
 20
760.761841
 10
-89.133553
 20
758.942505
 10
-89.323708
 20
757.079163
 10
-89.447647
 20
755.185059
  0
LINE
  5
4F5
330
50
100
AcDbEntity
  8
0
 62
     7
 48
0.344174
370
    35
390
F
100
AcDbLine
 10
-109.513985
 20
622.614319
 30
0.0
 11
-95.74704
 21
622.614319
 31
0.0
  0
ELLIPSE
  5
4F6
330
50
100
AcDbEntity
  8
0
 62
     7
370
    35
390
F
100
AcDbEllipse
 10
-109.51664
 20
620.614319
 30
0.0
 11
2.384976130000000E-8
 21
-2.0
 31
0.0
210
0.0
220
0.0
230
1.0
 40
0.5735759999999993
 41
3.141592741012573
 42
4.398161888122559
  0
LINE
  5
4F7
330
50
100
AcDbEntity
  8
0
 62
     7
 48
0.170991
370
    13
390
F
100
AcDbLine
 10
19.025379
 20
754.357422
 30
0.0
 11
25.865
 21
754.357422
 31
0.0
  0
LINE
  5
4F8
330
50
100
AcDbEntity
  8
0
 62
     7
 48
0.112596
370
    13
390
F
100
AcDbLine
 10
29.495047
 20
754.357422
 30
0.0
 11
33.998867
 21
754.357422
 31
0.0
  0
LINE
  5
4F9
330
50
100
AcDbEntity
  8
0
 62
     7
 48
0.135426
370
    13
390
F
100
AcDbLine
 10
37.59153
 20
754.357422
 30
0.0
 11
43.008556
 21
754.357422
 31
0.0
  0
ARC
  5
4FA
330
50
100
AcDbEntity
  8
0
 62
     7
370
    35
390
F
100
AcDbCircle
 10
23.084707
 20
752.614136
 30
0.0
 40
20.000784
100
AcDbArc
 50
5.000411
 51
75.73640200000001
  0
LINE
  5
4FB
330
50
100
AcDbEntity
  8
0
 62
     7
 48
0.035355
370
    13
390
F
100
AcDbLine
 10
-57.23753
 20
782.601563
 30
0.0
 11
-55.823315
 21
782.601563
 31
0.0
  0
LWPOLYLINE
  5
4FC
330
50
100
AcDbEntity
  8
0
 62
     7
370
    35
390
F
100
AcDbPolyline
 90
       10
 70
     0
 43
0.0
 10
-57.049736
 20
780.614319
 10
-57.013439
 20
781.064026
 10
-56.906338
 20
781.490662
 10
-56.79821
 20
781.751221
 10
-56.663551
 20
781.98584
 10
-56.505478
 20
782.189148
 10
-56.327633
 20
782.356506
 10
-56.134079
 20
782.484253
 10
-55.92923
 20
782.569519
 10
-55.824024
 20
782.595642
  0
LINE
  5
508
330
50
100
AcDbEntity
  8
0
 62
     7
 48
0.211451
370
    13
390
F
100
AcDbLine
 10
-48.59053
 20
780.614319
 30
0.0
 11
-57.048569
 21
780.614319
 31
0.0
  0
LINE
  5
509
330
50
100
AcDbEntity
  8
0
 62
     7
 48
0.274996
370
    35
390
F
100
AcDbLine
 10
-59.590424
 20
782.614319
 30
0.0
 11
-48.590588
 21
782.614319
 31
0.0
  0
LINE
  5
50A
330
50
100
AcDbEntity
  8
0
 62
     7
 48
0.035355
370
    13
390
F
100
AcDbLine
 10
4.628509
 20
775.468323
 30
0.0
 11
3.214296
 21
775.468323
 31
0.0
  0
LINE
  5
50B
330
50
100
AcDbEntity
  8
0
 62
     7
 48
0.003467
370
    35
390
F
100
AcDbLine
 10
-106.836823
 20
624.301941
 30
0.0
 11
-106.82988
 21
624.44043
 31
0.0
  0
LINE
  5
50C
330
50
100
AcDbEntity
  8
0
 62
     7
370
    35
390
F
100
AcDbLine
 10
-106.82988
 20
624.44043
 30
0.0
 11
-100.310455
 21
754.357422
 31
0.0
  0
LWPOLYLINE
  5
50D
330
50
100
AcDbEntity
  8
0
 62
     7
370
    35
390
F
100
AcDbPolyline
 90
       36
 70
     0
 43
0.0
 10
-100.310791
 20
754.357422
 10
-100.258179
 20
755.199768
 10
-100.185112
 20
756.03772
 10
-100.091721
 20
756.86969
 10
-99.97818
 20
757.694153
 10
-99.844704
 20
758.509583
 10
-99.691528
 20
759.314392
 10
-99.518944
 20
760.107117
 10
-99.327255
 20
760.886414
 10
-99.116814
 20
761.650757
 10
-98.888008
 20
762.398804
 10
-98.641251
 20
763.129272
 10
-98.376984
 20
763.840759
 10
-98.095673
 20
764.531982
 10
-97.797844
 20
765.201843
 10
-97.484016
 20
765.848999
 10
-97.154747
 20
766.472351
 10
-96.810631
 20
767.070801
 10
-96.452286
 20
767.64325
 10
-96.080338
 20
768.188782
 10
-95.69545
 20
768.706299
 10
-95.298317
 20
769.194946
 10
-94.889633
 20
769.653809
 10
-94.470139
 20
770.082153
 10
-94.040581
 20
770.479126
 10
-93.601723
 20
770.843994
 10
-93.15435
 20
771.176208
 10
-92.699272
 20
771.475037
 10
-92.237312
 20
771.740051
 10
-91.769302
 20
771.970703
 10
-91.296097
 20
772.166626
 10
-90.818573
 20
772.327393
 10
-90.337593
 20
772.452759
 10
-89.854065
 20
772.542419
 10
-89.368889
 20
772.596313
 10
-88.88298
 20
772.614319
  0
LINE
  5
533
330
50
100
AcDbEntity
  8
0
 62
     7
 48
0.31082
370
    35
390
F
100
AcDbLine
 10
-76.450195
 20
775.614319
 30
0.0
 11
-88.882996
 21
775.614319
 31
0.0
  0
LWPOLYLINE
  5
534
330
50
100
AcDbEntity
  8
0
 62
     7
370
    35
390
F
100
AcDbPolyline
 90
       36
 70
     0
 43
0.0
 10
-88.882996
 20
775.614319
 10
-89.43261
 20
775.59436
 10
-89.981331
 20
775.534546
 10
-90.528191
 20
775.434875
 10
-91.072212
 20
775.295654
 10
-91.612434
 20
775.117004
 10
-92.147926
 20
774.89917
 10
-92.677727
 20
774.6427
 10
-93.200928
 20
774.3479
 10
-93.716614
 20
774.01532
 10
-94.223885
 20
773.645569
 10
-94.72187
 20
773.239258
 10
-95.209694
 20
772.797119
 10
-95.686523
 20
772.319946
 10
-96.151535
 20
771.808594
 10
-96.60392
 20
771.263855
 10
-97.042892
 20
770.686768
 10
-97.467697
 20
770.078308
 10
-97.877602
 20
769.439575
 10
-98.271889
 20
768.771606
 10
-98.649879
 20
768.075562
 10
-99.010918
 20
767.352661
 10
-99.35437
 20
766.604187
 10
-99.679642
 20
765.831421
 10
-99.986168
 20
765.035645
 10
-100.273407
 20
764.218323
 10
-100.540863
 20
763.380798
 10
-100.788071
 20
762.524597
 10
-101.01458
 20
761.651062
 10
-101.220016
 20
760.761841
 10
-101.403999
 20
759.858459
 10
-101.566223
 20
758.942505
 10
-101.706406
 20
758.015503
 10
-101.82431
 20
757.079163
 10
-101.919731
 20
756.135132
 10
-101.992516
 20
755.185059
  0
LINE
  5
55A
330
50
100
AcDbEntity
  8
0
 62
     7
370
    35
390
F
100
AcDbLine
 10
-101.992516
 20
755.185059
 30
0.0
 11
-110.597008
 21
621.761902
 31
0.0
  0
LWPOLYLINE
  5
55B
330
50
100
AcDbEntity
  8
0
 62
     7
370
    35
390
F
100
AcDbPolyline
 90
        9
 70
     0
 43
0.0
 10
-106.836823
 20
624.301941
 10
-106.909988
 20
623.849304
 10
-107.04174
 20
623.438965
 10
-107.158653
 20
623.200256
 10
-107.295547
 20
622.996399
 10
-107.449059
 20
622.832336
 10
-107.615395
 20
622.712219
 10
-107.790466
 20
622.638916
 10
-107.969955
 20
622.614319
  0
LINE
  5
566
330
50
100
AcDbEntity
  8
0
 62
     7
 48
0.040958
370
    13
390
F
100
AcDbLine
 10
-101.992516
 20
755.185059
 30
0.0
 11
-103.630821
 21
755.185059
 31
0.0
  0
LINE
  5
567
330
50
100
AcDbEntity
  8
0
 62
     7
370
    35
390
F
100
AcDbLine
 10
-103.630821
 20
755.185059
 30
0.0
 11
-112.235313
 21
621.761902
 31
0.0
  0
LWPOLYLINE
  5
568
330
50
100
AcDbEntity
  8
0
 62
     7
370
    35
390
F
100
AcDbPolyline
 90
       36
 70
     0
 43
0.0
 10
-90.521301
 20
775.614319
 10
-91.070915
 20
775.59436
 10
-91.619637
 20
775.534546
 10
-92.166489
 20
775.434875
 10
-92.71051
 20
775.295654
 10
-93.25074
 20
775.117004
 10
-93.786224
 20
774.89917
 10
-94.316032
 20
774.6427
 10
-94.839233
 20
774.3479
 10
-95.354919
 20
774.01532
 10
-95.86219
 20
773.645569
 10
-96.360168
 20
773.239258
 10
-96.848
 20
772.797119
 10
-97.324829
 20
772.319946
 10
-97.789841
 20
771.808594
 10
-98.242226
 20
771.263855
 10
-98.681198
 20
770.686768
 10
-99.106003
 20
770.078308
 10
-99.5159
 20
769.439575
 10
-99.910194
 20
768.771606
 10
-100.288185
 20
768.075562
 10
-100.649216
 20
767.352661
 10
-100.992676
 20
766.604187
 10
-101.317947
 20
765.831421
 10
-101.624474
 20
765.035645
 10
-101.911713
 20
764.218323
 10
-102.179169
 20
763.380798
 10
-102.426369
 20
762.524597
 10
-102.652885
 20
761.651062
 10
-102.858315
 20
760.761841
 10
-103.042305
 20
759.858459
 10
-103.204529
 20
758.942505
 10
-103.344711
 20
758.015503
 10
-103.462608
 20
757.079163
 10
-103.558029
 20
756.135132
 10
-103.630821
 20
755.185059
  0
LINE
  5
58E
330
50
100
AcDbEntity
  8
0
 62
     7
 48
0.295488
370
    35
390
F
100
AcDbLine
 10
-123.999863
 20
622.614319
 30
0.0
 11
-112.180336
 21
622.614319
 31
0.0
  0
LWPOLYLINE
  5
58F
330
50
100
AcDbEntity
  8
0
 62
     7
370
    35
390
F
100
AcDbPolyline
 90
        9
 70
     0
 43
0.0
 10
-124.002533
 20
622.614319
 10
-124.224106
 20
622.589539
 10
-124.440765
 20
622.515808
 10
-124.646507
 20
622.39502
 10
-124.836021
 20
622.230164
 10
-125.004631
 20
622.025635
 10
-125.148323
 20
621.786621
 10
-125.263748
 20
621.518982
 10
-125.348213
 20
621.229126
  0
LINE
  5
59A
330
50
100
AcDbEntity
  8
0
 62
     7
370
    35
390
F
100
AcDbLine
 10
-114.726418
 20
755.185364
 30
0.0
 11
-125.335342
 21
621.750122
 31
0.0
  0
LWPOLYLINE
  5
59B
330
50
100
AcDbEntity
  8
0
 62
     7
370
    35
390
F
100
AcDbPolyline
 90
       36
 70
     0
 43
0.0
 10
-100.395355
 20
775.468323
 10
-101.015366
 20
775.35199
 10
-101.631775
 20
775.202026
 10
-102.243645
 20
775.018616
 10
-102.850067
 20
774.802063
 10
-103.45015
 20
774.552673
 10
-104.042984
 20
774.270874
 10
-104.627708
 20
773.95697
 10
-105.203445
 20
773.611511
 10
-105.769356
 20
773.234985
 10
-106.3246
 20
772.828003
 10
-106.868355
 20
772.391113
 10
-107.399834
 20
771.924988
 10
-107.918236
 20
771.430298
 10
-108.422813
 20
770.907837
 10
-108.912819
 20
770.358337
 10
-109.387527
 20
769.782593
 10
-109.846245
 20
769.181458
 10
-110.288292
 20
768.555847
 10
-110.713005
 20
767.906738
 10
-111.119774
 20
767.234924
 10
-111.50798
 20
766.541565
 10
-111.87706
 20
765.827576
 10
-112.226456
 20
765.094055
 10
-112.555656
 20
764.342041
 10
-112.864159
 20
763.572693
 10
-113.15152
 20
762.787109
 10
-113.417305
 20
761.98645
 10
-113.66111
 20
761.171875
 10
-113.882576
 20
760.344666
 10
-114.081383
 20
759.506042
 10
-114.257225
 20
758.657166
 10
-114.409851
 20
757.799377
 10
-114.53904
 20
756.93396
 10
-114.644615
 20
756.062134
 10
-114.726418
 20
755.185364
  0
LINE
  5
5C1
330
50
100
AcDbEntity
  8
0
 62
     7
370
    35
390
F
100
AcDbLine
 10
-100.395355
 20
775.468323
 30
0.0
 11
-55.823315
 21
782.601563
 31
0.0
  0
LINE
  5
5C2
330
50
100
AcDbEntity
  8
0
 62
     7
 48
0.175
370
    35
390
F
100
AcDbLine
 10
-57.048569
 20
773.614319
 30
0.0
 11
-57.048569
 21
780.614319
 31
0.0
  0
LWPOLYLINE
  5
5C3
330
50
100
AcDbEntity
  8
0
 62
     7
370
    35
390
F
100
AcDbPolyline
 90
       36
 70
     0
 43
0.0
 10
-98.564896
 20
772.614319
 10
-99.163933
 20
772.596313
 10
-99.76207
 20
772.54248
 10
-100.35817
 20
772.452759
 10
-100.951118
 20
772.327454
 10
-101.539818
 20
772.166687
 10
-102.123192
 20
771.970764
 10
-102.700157
 20
771.740112
 10
-103.269669
 20
771.475159
 10
-103.830688
 20
771.17627
 10
-104.382217
 20
770.844116
 10
-104.923248
 20
770.479187
 10
-105.452812
 20
770.082214
 10
-105.969971
 20
769.653931
 10
-106.473801
 20
769.195007
 10
-106.963387
 20
768.70636
 10
-107.437881
 20
768.188843
 10
-107.896423
 20
767.643372
 10
-108.338196
 20
767.070862
 10
-108.762421
 20
766.472412
 10
-109.168343
 20
765.84906
 10
-109.555237
 20
765.201904
 10
-109.922409
 20
764.532043
 10
-110.269196
 20
763.84082
 10
-110.594994
 20
763.129333
 10
-110.8992
 20
762.398865
 10
-111.181274
 20
761.650818
 10
-111.440697
 20
760.886414
 10
-111.67701
 20
760.107178
 10
-111.889778
 20
759.314392
 10
-112.078613
 20
758.509583
 10
-112.243164
 20
757.694214
 10
-112.383133
 20
756.869751
 10
-112.49826
 20
756.03772
 10
-112.588341
 20
755.199768
 10
-112.653206
 20
754.357422
  0
LINE
  5
5E9
330
50
100
AcDbEntity
  8
0
 62
     7
370
    35
390
F
100
AcDbLine
 10
-120.690948
 20
624.440002
 30
0.0
 11
-112.653755
 21
754.357422
 31
0.0
  0
LWPOLYLINE
  5
5EA
330
50
100
AcDbEntity
  8
0
 62
     7
370
    35
390
F
100
AcDbPolyline
 90
       11
 70
     0
 43
0.0
 10
-120.690948
 20
624.440002
 10
-120.727264
 20
624.132202
 10
-120.796982
 20
623.836182
 10
-120.898415
 20
623.559082
 10
-121.029076
 20
623.307678
 10
-121.185799
 20
623.088074
 10
-121.364761
 20
622.90564
 10
-121.561615
 20
622.764771
 10
-121.771553
 20
622.668884
 10
-121.989471
 20
622.620361
 10
-122.099777
 20
622.614319
  0
LINE
  5
5F7
330
50
100
AcDbEntity
  8
0
 62
     7
370
    35
390
F
100
AcDbLine
 10
-116.140625
 20
755.185364
 30
0.0
 11
-126.749557
 21
621.750122
 31
0.0
  0
LINE
  5
5F8
330
50
100
AcDbEntity
  8
0
 62
     7
 48
0.035355
370
    13
390
F
100
AcDbLine
 10
-116.140625
 20
755.185364
 30
0.0
 11
-114.726418
 21
755.185364
 31
0.0
  0
LWPOLYLINE
  5
5F9
330
50
100
AcDbEntity
  8
0
 62
     7
370
    35
390
F
100
AcDbPolyline
 90
       36
 70
     0
 43
0.0
 10
-101.80957
 20
775.468323
 10
-102.429581
 20
775.35199
 10
-103.045982
 20
775.202026
 10
-103.65786
 20
775.018616
 10
-104.264282
 20
774.802063
 10
-104.864365
 20
774.552673
 10
-105.457199
 20
774.270874
 10
-106.041924
 20
773.95697
 10
-106.617661
 20
773.611511
 10
-107.183571
 20
773.234985
 10
-107.738815
 20
772.828003
 10
-108.28257
 20
772.391113
 10
-108.814049
 20
771.924988
 10
-109.332451
 20
771.430298
 10
-109.837029
 20
770.907837
 10
-110.327034
 20
770.358337
 10
-110.801743
 20
769.782593
 10
-111.26046
 20
769.181458
 10
-111.702499
 20
768.555847
 10
-112.12722
 20
767.906738
 10
-112.533981
 20
767.234924
 10
-112.922195
 20
766.541565
 10
-113.291275
 20
765.827576
 10
-113.640671
 20
765.094055
 10
-113.969864
 20
764.342041
 10
-114.278374
 20
763.572693
 10
-114.565735
 20
762.787109
 10
-114.831512
 20
761.98645
 10
-115.075325
 20
761.171875
 10
-115.296791
 20
760.344666
 10
-115.495598
 20
759.506042
 10
-115.67144
 20
758.657166
 10
-115.824066
 20
757.799377
 10
-115.953255
 20
756.93396
 10
-116.058823
 20
756.062134
 10
-116.140625
 20
755.185364
  0
LINE
  5
61F
330
50
100
AcDbEntity
  8
0
 62
     7
370
    35
390
F
100
AcDbLine
 10
-101.80957
 20
775.468323
 30
0.0
 11
-57.23753
 21
782.601563
 31
0.0
  0
LINE
  5
620
330
50
100
AcDbEntity
  8
0
 62
     7
 48
0.237842
370
    35
390
F
100
AcDbLine
 10
-136.194519
 20
622.614319
 30
0.0
 11
-126.68084
 21
622.614319
 31
0.0
  0
ELLIPSE
  5
621
330
50
100
AcDbEntity
  8
0
 62
     7
370
    35
390
F
100
AcDbEllipse
 10
-136.198318
 20
620.614319
 30
0.0
 11
2.384976130000000E-8
 21
-2.0
 31
0.0
210
0.0
220
0.0
230
1.0
 40
0.8191520000000005
 41
3.141592741012573
 42
4.398161888122559
  0
LINE
  5
622
330
50
100
AcDbEntity
  8
0
 62
     7
370
    35
390
F
100
AcDbLine
 10
-132.361267
 20
624.440002
 30
0.0
 11
-123.050529
 21
754.357422
 31
0.0
  0
LWPOLYLINE
  5
623
330
50
100
AcDbEntity
  8
0
 62
     7
370
    35
390
F
100
AcDbPolyline
 90
       33
 70
     0
 43
0.0
 10
-123.051018
 20
754.357422
 10
-122.972969
 20
755.226807
 10
-122.8638
 20
756.091492
 10
-122.723732
 20
756.949707
 10
-122.553032
 20
757.799744
 10
-122.352036
 20
758.639893
 10
-122.121132
 20
759.468567
 10
-121.860779
 20
760.284058
 10
-121.57148
 20
761.084839
 10
-121.253799
 20
761.869324
 10
-120.90834
 20
762.636047
 10
-120.535782
 20
763.383545
 10
-120.136826
 20
764.110352
 10
-119.712242
 20
764.815125
 10
-119.262848
 20
765.49646
 10
-118.78949
 20
766.153137
 10
-118.293068
 20
766.783875
 10
-117.774529
 20
767.387512
 10
-117.234856
 20
767.96283
 10
-116.675072
 20
768.50885
 10
-116.096237
 20
769.024414
 10
-115.499458
 20
769.508606
 10
-114.885849
 20
769.96051
 10
-114.256592
 20
770.379211
 10
-113.612877
 20
770.763977
 10
-112.95594
 20
771.114075
 10
-112.287041
 20
771.428772
 10
-111.607452
 20
771.707458
 10
-110.918503
 20
771.949585
 10
-110.221519
 20
772.154785
 10
-109.517868
 20
772.32251
 10
-108.808922
 20
772.452576
 10
-108.096092
 20
772.544617
  0
LINE
  5
646
330
50
100
AcDbEntity
  8
0
 62
     7
 48
0.145842
370
    35
390
F
100
AcDbLine
 10
-100.896736
 20
775.614319
 30
0.0
 11
-106.730431
 21
775.614319
 31
0.0
  0
LWPOLYLINE
  5
647
330
50
100
AcDbEntity
  8
0
 62
     7
370
    35
390
F
100
AcDbPolyline
 90
       36
 70
     0
 43
0.0
 10
-106.730431
 20
775.614319
 10
-107.515358
 20
775.59436
 10
-108.299011
 20
775.534546
 10
-109.080009
 20
775.434875
 10
-109.856949
 20
775.295654
 10
-110.628479
 20
775.117004
 10
-111.393227
 20
774.89917
 10
-112.149864
 20
774.6427
 10
-112.897072
 20
774.3479
 10
-113.633545
 20
774.01532
 10
-114.358009
 20
773.645569
 10
-115.069199
 20
773.239258
 10
-115.765892
 20
772.797119
 10
-116.446877
 20
772.319946
 10
-117.110977
 20
771.808594
 10
-117.75705
 20
771.263855
 10
-118.383965
 20
770.686768
 10
-118.990654
 20
770.078308
 10
-119.576057
 20
769.439575
 10
-120.139153
 20
768.771606
 10
-120.678986
 20
768.075562
 10
-121.194595
 20
767.352661
 10
-121.685097
 20
766.604187
 10
-122.149635
 20
765.831421
 10
-122.587402
 20
765.035645
 10
-122.997627
 20
764.218323
 10
-123.379593
 20
763.380798
 10
-123.732635
 20
762.524597
 10
-124.056129
 20
761.651062
 10
-124.349518
 20
760.761841
 10
-124.612274
 20
759.858459
 10
-124.843956
 20
758.942505
 10
-125.044159
 20
758.015503
 10
-125.21254
 20
757.079163
 10
-125.348808
 20
756.135132
 10
-125.452759
 20
755.185059
  0
LINE
  5
66D
330
50
100
AcDbEntity
  8
0
 62
     7
370
    35
390
F
100
AcDbLine
 10
-125.452759
 20
755.185059
 30
0.0
 11
-137.741257
 21
621.761902
 31
0.0
  0
LWPOLYLINE
  5
66E
330
50
100
AcDbEntity
  8
0
 62
     7
370
    35
390
F
100
AcDbPolyline
 90
       11
 70
     0
 43
0.0
 10
-132.361267
 20
624.440002
 10
-132.403336
 20
624.132202
 10
-132.4841
 20
623.836182
 10
-132.601608
 20
623.559082
 10
-132.752975
 20
623.307678
 10
-132.934525
 20
623.088074
 10
-133.141846
 20
622.90564
 10
-133.369888
 20
622.764771
 10
-133.613098
 20
622.668884
 10
-133.865555
 20
622.620361
 10
-133.993332
 20
622.614319
  0
LINE
  5
67B
330
50
100
AcDbEntity
  8
0
 62
     7
 48
0.028679
370
    13
390
F
100
AcDbLine
 10
-125.452759
 20
755.185059
 30
0.0
 11
-126.599915
 21
755.185059
 31
0.0
  0
LINE
  5
67C
330
50
100
AcDbEntity
  8
0
 62
     7
370
    35
390
F
100
AcDbLine
 10
-126.599915
 20
755.185059
 30
0.0
 11
-138.888397
 21
621.761902
 31
0.0
  0
LINE
  5
67D
330
50
100
AcDbEntity
  8
0
 62
     7
 48
0.172937
370
    35
390
F
100
AcDbLine
 10
-145.727341
 20
622.614319
 30
0.0
 11
-138.80986
 21
622.614319
 31
0.0
  0
ELLIPSE
  5
67E
330
50
100
AcDbEntity
  8
0
 62
     7
370
    35
390
F
100
AcDbEllipse
 10
-145.731552
 20
620.614319
 30
0.0
 11
2.384976130000000E-8
 21
-2.0
 31
0.0
210
0.0
220
0.0
230
1.0
 40
0.9063080000000002
 41
3.141592741012573
 42
4.398161888122559
  0
LINE
  5
67F
330
50
100
AcDbEntity
  8
0
 62
     7
 48
0.003473
370
    35
390
F
100
AcDbLine
 10
-141.497192
 20
624.301941
 30
0.0
 11
-141.486206
 21
624.44043
 31
0.0
  0
LINE
  5
680
330
50
100
AcDbEntity
  8
0
 62
     7
370
    35
390
F
100
AcDbLine
 10
-141.486206
 20
624.44043
 30
0.0
 11
-131.184875
 21
754.357422
 31
0.0
  0
LWPOLYLINE
  5
681
330
50
100
AcDbEntity
  8
0
 62
     7
370
    35
390
F
100
AcDbPolyline
 90
       29
 70
     0
 43
0.0
 10
-131.18541
 20
754.357422
 10
-131.101563
 20
755.20575
 10
-130.98494
 20
756.049622
 10
-130.835754
 20
756.887451
 10
-130.654266
 20
757.717529
 10
-130.440857
 20
758.538452
 10
-130.195877
 20
759.348511
 10
-129.9198
 20
760.146362
 10
-129.613159
 20
760.93042
 10
-129.276489
 20
761.69928
 10
-128.910416
 20
762.451477
 10
-128.515625
 20
763.18573
 10
-128.092819
 20
763.900696
 10
-127.642792
 20
764.594971
 10
-127.166344
 20
765.267395
 10
-126.664352
 20
765.916748
 10
-126.137711
 20
766.54187
 10
-125.587387
 20
767.141541
 10
-125.014374
 20
767.714783
 10
-124.419693
 20
768.260498
 10
-123.804428
 20
768.77771
 10
-123.169685
 20
769.265503
 10
-122.516617
 20
769.723022
 10
-121.846405
 20
770.149353
 10
-121.160255
 20
770.543823
 10
-120.459412
 20
770.905579
 10
-119.745163
 20
771.234131
 10
-119.018799
 20
771.528687
 10
-118.281662
 20
771.788879
  0
LINE
  5
6A0
330
50
100
AcDbEntity
  8
0
 62
     7
 48
0.305792
370
    35
390
F
100
AcDbLine
 10
-100.89669
 20
775.614319
 30
0.0
 11
-113.128357
 21
775.614319
 31
0.0
  0
LWPOLYLINE
  5
6A1
330
50
100
AcDbEntity
  8
0
 62
     7
370
    35
390
F
100
AcDbPolyline
 90
       36
 70
     0
 43
0.0
 10
-113.128357
 20
775.614319
 10
-113.996796
 20
775.59436
 10
-114.863831
 20
775.534546
 10
-115.727921
 20
775.434875
 10
-116.587532
 20
775.295654
 10
-117.441147
 20
775.117004
 10
-118.287262
 20
774.89917
 10
-119.124405
 20
774.6427
 10
-119.951118
 20
774.3479
 10
-120.765953
 20
774.01532
 10
-121.56749
 20
773.645569
 10
-122.354355
 20
773.239258
 10
-123.125168
 20
772.797119
 10
-123.878609
 20
772.319946
 10
-124.613373
 20
771.808594
 10
-125.328178
 20
771.263855
 10
-126.021805
 20
770.686768
 10
-126.693039
 20
770.078308
 10
-127.340721
 20
769.439575
 10
-127.963737
 20
768.771606
 10
-128.561005
 20
768.075562
 10
-129.13147
 20
767.352661
 10
-129.674164
 20
766.604187
 10
-130.188126
 20
765.831421
 10
-130.67247
 20
765.035645
 10
-131.126343
 20
764.218323
 10
-131.54895
 20
763.380798
 10
-131.93956
 20
762.524597
 10
-132.29747
 20
761.651062
 10
-132.62207
 20
760.761841
 10
-132.912781
 20
759.858459
 10
-133.169113
 20
758.942505
 10
-133.390625
 20
758.015503
 10
-133.57692
 20
757.079163
 10
-133.727692
 20
756.135132
 10
-133.842697
 20
755.185059
  0
LINE
  5
6C7
330
50
100
AcDbEntity
  8
0
 62
     7
370
    35
390
F
100
AcDbLine
 10
-133.842697
 20
755.185059
 30
0.0
 11
-147.438644
 21
621.761902
 31
0.0
  0
LWPOLYLINE
  5
6C8
330
50
100
AcDbEntity
  8
0
 62
     7
370
    35
390
F
100
AcDbPolyline
 90
       10
 70
     0
 43
0.0
 10
-141.497192
 20
624.301941
 10
-141.563538
 20
623.996704
 10
-141.672363
 20
623.706665
 10
-141.820969
 20
623.438965
 10
-142.005707
 20
623.200256
 10
-142.222015
 20
622.996399
 10
-142.464584
 20
622.832336
 10
-142.727417
 20
622.712219
 10
-143.004028
 20
622.638916
 10
-143.287643
 20
622.614319
  0
LINE
  5
6D4
330
50
100
AcDbEntity
  8
0
 62
     7
 48
0.021131
370
    13
390
F
100
AcDbLine
 10
-133.842697
 20
755.185059
 30
0.0
 11
-134.687927
 21
755.185059
 31
0.0
  0
LINE
  5
6D5
330
50
100
AcDbEntity
  8
0
 62
     7
370
    35
390
F
100
AcDbLine
 10
-134.687927
 20
755.185059
 30
0.0
 11
-148.28389
 21
621.761902
 31
0.0
  0
LWPOLYLINE
  5
6D6
330
50
100
AcDbEntity
  8
0
 62
     7
370
    35
390
F
100
AcDbPolyline
 90
       36
 70
     0
 43
0.0
 10
-113.973587
 20
775.614319
 10
-114.842033
 20
775.59436
 10
-115.709068
 20
775.534546
 10
-116.573158
 20
775.434875
 10
-117.43277
 20
775.295654
 10
-118.286385
 20
775.117004
 10
-119.1325
 20
774.89917
 10
-119.969643
 20
774.6427
 10
-120.796356
 20
774.3479
 10
-121.611183
 20
774.01532
 10
-122.412727
 20
773.645569
 10
-123.199593
 20
773.239258
 10
-123.970406
 20
772.797119
 10
-124.723846
 20
772.319946
 10
-125.458611
 20
771.808594
 10
-126.173416
 20
771.263855
 10
-126.867035
 20
770.686768
 10
-127.538277
 20
770.078308
 10
-128.185959
 20
769.439575
 10
-128.808975
 20
768.771606
 10
-129.406235
 20
768.075562
 10
-129.976715
 20
767.352661
 10
-130.519409
 20
766.604187
 10
-131.033371
 20
765.831421
 10
-131.517715
 20
765.035645
 10
-131.971573
 20
764.218323
 10
-132.39418
 20
763.380798
 10
-132.78479
 20
762.524597
 10
-133.1427
 20
761.651062
 10
-133.4673
 20
760.761841
 10
-133.758026
 20
759.858459
 10
-134.014359
 20
758.942505
 10
-134.235855
 20
758.015503
 10
-134.42215
 20
757.079163
 10
-134.572922
 20
756.135132
 10
-134.687927
 20
755.185059
  0
LINE
  5
6FC
330
50
100
AcDbEntity
  8
0
 62
     7
 48
0.201077
370
    35
390
F
100
AcDbLine
 10
-156.240097
 20
622.614319
 30
0.0
 11
-148.197006
 21
622.614319
 31
0.0
  0
ARC
  5
6FD
330
50
100
AcDbEntity
  8
0
 62
     7
370
    35
390
F
100
AcDbCircle
 10
-156.240707
 20
620.614258
 30
0.0
 40
2.000097
100
AcDbArc
 50
90.000009
 51
162.401408
  0
LINE
  5
6FE
330
50
100
AcDbEntity
  8
0
 62
     7
 48
0.000338
370
    35
390
F
100
AcDbLine
 10
-107.891098
 20
775.614258
 30
0.0
 11
-107.877579
 21
775.614319
 31
0.0
  0
LINE
  5
6FF
330
50
100
AcDbEntity
  8
0
 62
     7
370
    35
390
F
100
AcDbLine
 10
-100.897583
 20
775.614258
 30
0.0
 11
-61.033306
 21
781.99408
 31
0.0
  0
LINE
  5
700
330
50
100
AcDbEntity
  8
0
 62
     7
370
    35
390
F
100
AcDbLine
 10
54.374855
 20
624.440002
 30
0.0
 11
49.202171
 21
683.564026
 31
0.0
  0
LINE
  5
701
330
50
100
AcDbEntity
  8
0
 62
     7
370
    35
390
F
100
AcDbLine
 10
49.202171
 20
683.564026
 30
0.0
 11
44.202171
 21
740.714294
 31
0.0
  0
LINE
  5
702
330
50
100
AcDbEntity
  8
0
 62
     7
 48
0.342381
370
    35
390
F
100
AcDbLine
 10
44.202171
 20
740.714294
 30
0.0
 11
43.008556
 21
754.357422
 31
0.0
  0
ARC
  5
703
330
50
100
AcDbEntity
  8
0
 62
     7
370
    35
390
F
100
AcDbCircle
 10
56.367245
 20
624.614319
 30
0.0
 40
2.0
100
AcDbArc
 50
184.999994
 51
269.999997
  0
LINE
  5
704
330
50
100
AcDbEntity
  8
0
 62
     7
 48
0.021131
370
    35
390
F
100
AcDbLine
 10
15.947296
 20
775.614319
 30
0.0
 11
16.792532
 21
775.614319
 31
0.0
  0
LINE
  5
705
330
50
100
AcDbEntity
  8
0
 62
     7
 48
0.088623
370
    13
390
F
100
AcDbLine
 10
50.829922
 20
624.440002
 30
0.0
 11
54.374855
 21
624.440002
 31
0.0
  0
LINE
  5
706
330
50
100
AcDbEntity
  8
0
 62
     7
 48
0.071004
370
    13
390
F
100
AcDbLine
 10
44.300804
 20
624.440002
 30
0.0
 11
41.460651
 21
624.440002
 31
0.0
  0
LINE
  5
707
330
50
100
AcDbEntity
  8
0
 62
     7
 48
0.028679
370
    35
390
F
100
AcDbLine
 10
9.54937
 20
775.614319
 30
0.0
 11
10.696523
 21
775.614319
 31
0.0
  0
LINE
  5
708
330
50
100
AcDbEntity
  8
0
 62
     7
 48
0.224143
370
    13
390
F
100
AcDbLine
 10
6.503132
 20
754.357422
 30
0.0
 11
15.468838
 21
754.357422
 31
0.0
  0
LINE
  5
709
330
50
100
AcDbEntity
  8
0
 62
     7
 48
0.038082
370
    35
390
F
100
AcDbLine
 10
-0.144306
 20
772.614319
 30
0.0
 11
1.378957
 21
772.614319
 31
0.0
  0
LINE
  5
70A
330
50
100
AcDbEntity
  8
0
 62
     7
370
    35
390
F
100
AcDbLine
 10
-40.27861
 20
772.614319
 30
0.0
 11
-19.20825
 21
772.614319
 31
0.0
  0
LINE
  5
70B
330
50
100
AcDbEntity
  8
0
 62
     7
 48
0.107268
370
    35
390
F
100
AcDbLine
 10
-12.593217
 20
772.614319
 30
0.0
 11
-8.302512
 21
772.614319
 31
0.0
  0
LINE
  5
70C
330
50
100
AcDbEntity
  8
0
 62
     7
 48
0.038083
370
    35
390
F
100
AcDbLine
 10
-98.560013
 20
772.614319
 30
0.0
 11
-97.036705
 21
772.614319
 31
0.0
  0
LINE
  5
70D
330
50
100
AcDbEntity
  8
0
 62
     7
 48
0.107268
370
    35
390
F
100
AcDbLine
 10
-88.878548
 20
772.614319
 30
0.0
 11
-84.587837
 21
772.614319
 31
0.0
  0
LINE
  5
70E
330
50
100
AcDbEntity
  8
0
 62
     7
370
    35
390
F
100
AcDbLine
 10
-77.972809
 20
772.614319
 30
0.0
 11
-56.902451
 21
772.614319
 31
0.0
  0
LWPOLYLINE
  5
70F
330
50
100
AcDbEntity
  8
0
 62
     7
370
    35
390
F
100
AcDbPolyline
 90
       36
 70
     0
 43
0.0
 10
-8.298063
 20
775.614319
 10
-7.74845
 20
775.59436
 10
-7.199727
 20
775.534546
 10
-6.65287
 20
775.434875
 10
-6.108848
 20
775.295654
 10
-5.56862
 20
775.117004
 10
-5.033135
 20
774.89917
 10
-4.50333
 20
774.6427
 10
-3.98013
 20
774.3479
 10
-3.464446
 20
774.01532
 10
-2.957173
 20
773.645569
 10
-2.459191
 20
773.239258
 10
-1.971362
 20
772.797119
 10
-1.494531
 20
772.319946
 10
-1.029522
 20
771.808594
 10
-0.57714
 20
771.263855
 10
-0.138166
 20
770.686768
 10
0.286639
 20
770.078308
 10
0.696541
 20
769.439575
 10
1.09083
 20
768.771606
 10
1.46882
 20
768.075562
 10
1.829857
 20
767.352661
 10
2.173311
 20
766.604187
 10
2.498585
 20
765.831421
 10
2.805111
 20
765.035645
 10
3.092353
 20
764.218323
 10
3.359809
 20
763.380798
 10
3.60701
 20
762.524536
 10
3.833524
 20
761.651062
 10
4.038955
 20
760.761841
 10
4.222943
 20
759.858459
 10
4.385168
 20
758.942505
 10
4.52535
 20
758.015503
 10
4.643249
 20
757.079163
 10
4.738669
 20
756.135132
 10
4.811457
 20
755.185059
  0
LINE
  5
735
330
50
100
AcDbEntity
  8
0
 62
     7
 48
0.040958
370
    35
390
F
100
AcDbLine
 10
-8.298063
 20
775.614319
 30
0.0
 11
-6.659759
 21
775.614319
 31
0.0
  0
LINE
  5
736
330
50
100
AcDbEntity
  8
0
 62
     7
 48
0.31082
370
    35
390
F
100
AcDbLine
 10
-20.73086
 20
775.614319
 30
0.0
 11
-8.298063
 21
775.614319
 31
0.0
  0
LWPOLYLINE
  5
737
330
50
100
AcDbEntity
  8
0
 62
     7
370
    35
390
F
100
AcDbPolyline
 90
       36
 70
     0
 43
0.0
 10
3.129735
 20
754.357422
 10
3.077119
 20
755.199768
 10
3.00405
 20
756.03772
 10
2.910661
 20
756.86969
 10
2.797123
 20
757.694153
 10
2.663645
 20
758.509583
 10
2.510471
 20
759.314392
 10
2.337883
 20
760.107117
 10
2.146195
 20
760.886414
 10
1.935758
 20
761.650757
 10
1.706952
 20
762.398804
 10
1.460191
 20
763.129272
 10
1.195922
 20
763.840759
 10
0.914618
 20
764.531982
 10
0.616785
 20
765.201843
 10
0.302956
 20
765.848999
 10
-0.02631
 20
766.472351
 10
-0.370424
 20
767.070801
 10
-0.728774
 20
767.64325
 10
-1.100722
 20
768.188782
 10
-1.485607
 20
768.706299
 10
-1.882742
 20
769.194946
 10
-2.291421
 20
769.653809
 10
-2.710917
 20
770.082153
 10
-3.140478
 20
770.479126
 10
-3.579338
 20
770.843994
 10
-4.026709
 20
771.176208
 10
-4.481786
 20
771.475037
 10
-4.943748
 20
771.740051
 10
-5.411756
 20
771.970703
 10
-5.884958
 20
772.166626
 10
-6.362487
 20
772.327393
 10
-6.843462
 20
772.452759
 10
-7.326991
 20
772.542419
 10
-7.812169
 20
772.596313
 10
-8.29808
 20
772.614319
  0
LINE
  5
75D
330
50
100
AcDbEntity
  8
0
 62
     7
 48
0.270509
370
    13
390
F
100
AcDbLine
 10
-7.694084
 20
754.357422
 30
0.0
 11
3.126264
 21
754.357422
 31
0.0
  0
LINE
  5
75E
330
50
100
AcDbEntity
  8
0
 62
     7
370
    35
390
F
100
AcDbLine
 10
9.648816
 20
624.44043
 30
0.0
 11
3.129395
 21
754.357422
 31
0.0
  0
LINE
  5
75F
330
50
100
AcDbEntity
  8
0
 62
     7
 48
0.279172
370
    13
390
F
100
AcDbLine
 10
9.646091
 20
624.440002
 30
0.0
 11
-1.520774
 21
624.440002
 31
0.0
  0
LINE
  5
760
330
50
100
AcDbEntity
  8
0
 62
     7
 48
0.045315
370
    35
390
F
100
AcDbLine
 10
-19.205284
 20
775.614319
 30
0.0
 11
-17.39267
 21
775.614319
 31
0.0
  0
LINE
  5
761
330
50
100
AcDbEntity
  8
0
 62
     7
 48
0.003456
370
    35
390
F
100
AcDbLine
 10
9.655766
 20
624.301941
 30
0.0
 11
9.648837
 21
624.440002
 31
0.0
  0
LWPOLYLINE
  5
762
330
50
100
AcDbEntity
  8
0
 62
     7
370
    35
390
F
100
AcDbPolyline
 90
        9
 70
     0
 43
0.0
 10
9.655766
 20
624.301941
 10
9.728925
 20
623.849304
 10
9.860679
 20
623.438965
 10
9.977591
 20
623.200256
 10
10.11449
 20
622.996399
 10
10.268001
 20
622.832336
 10
10.434338
 20
622.712219
 10
10.609405
 20
622.638916
 10
10.788893
 20
622.614319
  0
LWPOLYLINE
  5
76D
330
50
100
AcDbEntity
  8
0
 62
     7
370
    13
390
F
100
AcDbPolyline
 90
       15
 70
     0
 43
0.0
 10
-29.817745
 20
770.343323
 10
-30.268103
 20
770.635254
 10
-30.733332
 20
770.904053
 10
-31.212996
 20
771.149841
 10
-31.706537
 20
771.372925
 10
-32.213318
 20
771.573792
 10
-32.732632
 20
771.753052
 10
-33.263714
 20
771.911621
 10
-33.805779
 20
772.050293
 10
-34.358032
 20
772.170227
 10
-35.489891
 20
772.358337
 10
-36.653122
 20
772.486084
 10
-37.842075
 20
772.564148
 10
-39.051888
 20
772.603394
 10
-40.278622
 20
772.614319
  0
LWPOLYLINE
  5
77E
330
50
100
AcDbEntity
  8
0
 62
     7
370
    13
390
F
100
AcDbPolyline
 90
       19
 70
     0
 43
0.0
 10
-23.470625
 20
754.357422
 10
-23.5268
 20
755.528748
 10
-23.618332
 20
756.689758
 10
-23.745077
 20
757.83606
 10
-23.907196
 20
758.963318
 10
-24.105091
 20
760.067383
 10
-24.339344
 20
761.143921
 10
-24.610653
 20
762.188782
 10
-24.919758
 20
763.197998
 10
-25.267385
 20
764.167603
 10
-25.654182
 20
765.093628
 10
-26.080652
 20
765.972656
 10
-26.547115
 20
766.801147
 10
-27.053658
 20
767.576172
 10
-27.600107
 20
768.294983
 10
-28.186005
 20
768.955566
 10
-28.810604
 20
769.556274
 10
-29.472878
 20
770.096191
 10
-29.817745
 20
770.343323
  0
LINE
  5
793
330
50
100
AcDbEntity
  8
0
 62
     7
 48
0.317073
370
    13
390
F
100
AcDbLine
 10
-23.470617
 20
754.357422
 30
0.0
 11
-10.787698
 21
754.357422
 31
0.0
  0
LWPOLYLINE
  5
794
330
50
100
AcDbEntity
  8
0
 62
     7
370
    13
390
F
100
AcDbPolyline
 90
        7
 70
     0
 43
0.0
 10
-20.694925
 20
624.440002
 10
-21.15276
 20
650.423157
 10
-21.656965
 20
676.406555
 10
-22.203142
 20
702.390137
 10
-22.795044
 20
728.373779
 10
-23.117895
 20
741.365662
 10
-23.470055
 20
754.357422
  0
LINE
  5
79D
330
50
100
AcDbEntity
  8
0
 62
     7
 48
0.367778
370
    13
390
F
100
AcDbLine
 10
-20.694925
 20
624.440002
 30
0.0
 11
-5.983795
 21
624.440002
 31
0.0
  0
LWPOLYLINE
  5
79E
330
50
100
AcDbEntity
  8
0
 62
     7
370
    13
390
F
100
AcDbPolyline
 90
        8
 70
     0
 43
0.0
 10
-20.155144
 20
622.614319
 10
-20.239416
 20
622.638611
 10
-20.321636
 20
622.71106
 10
-20.399805
 20
622.829773
 10
-20.505337
 20
623.088135
 10
-20.591743
 20
623.42981
 10
-20.669224
 20
623.9823
 10
-20.694925
 20
624.440002
  0
LINE
  5
7A8
330
50
100
AcDbEntity
  8
0
 62
     7
 48
0.038204
370
    13
390
F
100
AcDbLine
 10
-32.59058
 20
624.494629
 30
0.0
 11
-31.062471
 21
624.508972
 31
0.0
  0
LWPOLYLINE
  5
7A9
330
50
100
AcDbEntity
  8
0
 62
     7
370
    13
390
F
100
AcDbPolyline
 90
        5
 70
     0
 43
0.0
 10
-31.062471
 20
624.508972
 10
-30.755653
 20
676.34491
 10
-30.47748
 20
715.228088
 10
-30.262138
 20
741.154175
 10
-30.137714
 20
754.119324
  0
LWPOLYLINE
  5
7B0
330
50
100
AcDbEntity
  8
0
 62
     7
370
    13
390
F
100
AcDbPolyline
 90
       30
 70
     0
 43
0.0
 10
-30.137728
 20
754.119324
 10
-30.14834
 20
755.481018
 10
-30.219137
 20
756.827576
 10
-30.351738
 20
758.151978
 10
-30.550022
 20
759.444702
 10
-30.675518
 20
760.075623
 10
-30.819693
 20
760.694214
 10
-30.983467
 20
761.298706
 10
-31.167807
 20
761.887512
 10
-31.373707
 20
762.45874
 10
-31.60216
 20
763.010742
 10
-31.854116
 20
763.541748
 10
-32.13047
 20
764.049927
 10
-32.431992
 20
764.533569
 10
-32.759304
 20
764.991028
 10
-33.112812
 20
765.420654
 10
-33.492668
 20
765.820862
 10
-33.898689
 20
766.190308
 10
-34.330273
 20
766.527832
 10
-34.786396
 20
766.833618
 10
-35.265877
 20
767.108093
 10
-35.767422
 20
767.352356
 10
-36.289635
 20
767.567749
 10
-36.831051
 20
767.755798
 10
-37.390152
 20
767.918518
 10
-37.965397
 20
768.057983
 10
-38.55526
 20
768.176392
 10
-39.158264
 20
768.276184
 10
-40.398201
 20
768.429626
 10
-41.675564
 20
768.537659
  0
ARC
  5
7D0
330
50
100
AcDbEntity
  8
0
 62
     7
370
    13
390
F
100
AcDbCircle
 10
-85.354828
 20
113.501366
 30
0.0
 40
656.491394
100
AcDbArc
 50
86.18503500000001
 51
86.789691
  0
LWPOLYLINE
  5
7D1
330
50
100
AcDbEntity
  8
0
 62
     7
370
    13
390
F
100
AcDbPolyline
 90
       10
 70
     0
 43
0.0
 10
-32.591385
 20
622.615906
 10
-32.331665
 20
622.656006
 10
-32.080666
 20
622.748779
 10
-31.84514
 20
622.891724
 10
-31.631422
 20
623.080994
 10
-31.445255
 20
623.311523
 10
-31.291653
 20
623.577026
 10
-31.17474
 20
623.870483
 10
-31.097666
 20
624.183899
 10
-31.0625
 20
624.508911
  0
LINE
  5
7DD
330
50
100
AcDbEntity
  8
0
 62
     7
 48
0.038205
370
    13
390
F
100
AcDbLine
 10
-66.118591
 20
624.508972
 30
0.0
 11
-64.590477
 21
624.494629
 31
0.0
  0
ARC
  5
7DE
330
50
100
AcDbEntity
  8
0
 62
     7
370
    13
390
F
100
AcDbCircle
 10
-11.826243
 20
113.501366
 30
0.0
 40
656.491394
100
AcDbArc
 50
93.210307
 51
93.814964
  0
LWPOLYLINE
  5
7DF
330
50
100
AcDbEntity
  8
0
 62
     7
370
    13
390
F
100
AcDbPolyline
 90
       30
 70
     0
 43
0.0
 10
-67.043327
 20
754.119324
 10
-67.032715
 20
755.481018
 10
-66.961922
 20
756.827576
 10
-66.829323
 20
758.151978
 10
-66.631035
 20
759.444702
 10
-66.505539
 20
760.075623
 10
-66.361366
 20
760.694214
 10
-66.197594
 20
761.298706
 10
-66.013252
 20
761.887512
 10
-65.80735
 20
762.45874
 10
-65.578896
 20
763.010742
 10
-65.326942
 20
763.541748
 10
-65.050591
 20
764.049927
 10
-64.749062
 20
764.533569
 10
-64.421753
 20
764.991028
 10
-64.068245
 20
765.420654
 10
-63.688393
 20
765.820862
 10
-63.282368
 20
766.190308
 10
-62.850784
 20
766.527832
 10
-62.394661
 20
766.833618
 10
-61.91518
 20
767.108093
 10
-61.413635
 20
767.352356
 10
-60.891422
 20
767.567749
 10
-60.350006
 20
767.755798
 10
-59.790905
 20
767.918518
 10
-59.215664
 20
768.057983
 10
-58.625797
 20
768.176392
 10
-58.022793
 20
768.276184
 10
-56.782856
 20
768.429626
 10
-55.505493
 20
768.537659
  0
LWPOLYLINE
  5
7FF
330
50
100
AcDbEntity
  8
0
 62
     7
370
    13
390
F
100
AcDbPolyline
 90
        5
 70
     0
 43
0.0
 10
-66.118591
 20
624.508911
 10
-66.425407
 20
676.34491
 10
-66.703583
 20
715.228088
 10
-66.918922
 20
741.154175
 10
-67.043343
 20
754.119324
  0
LWPOLYLINE
  5
806
330
50
100
AcDbEntity
  8
0
 62
     7
370
    13
390
F
100
AcDbPolyline
 90
       10
 70
     0
 43
0.0
 10
-64.589714
 20
622.615906
 10
-64.849434
 20
622.656006
 10
-65.100426
 20
622.748779
 10
-65.335953
 20
622.891724
 10
-65.549675
 20
623.080994
 10
-65.73584
 20
623.311523
 10
-65.889442
 20
623.577026
 10
-66.006348
 20
623.870483
 10
-66.083427
 20
624.18396
 10
-66.118591
 20
624.508972
  0
LINE
  5
812
330
50
100
AcDbEntity
  8
0
 62
     7
 48
0.367778
370
    13
390
F
100
AcDbLine
 10
-91.197266
 20
624.440002
 30
0.0
 11
-76.486137
 21
624.440002
 31
0.0
  0
LWPOLYLINE
  5
813
330
50
100
AcDbEntity
  8
0
 62
     7
370
    13
390
F
100
AcDbPolyline
 90
        8
 70
     0
 43
0.0
 10
-77.026009
 20
622.614319
 10
-76.941734
 20
622.638611
 10
-76.859512
 20
622.71106
 10
-76.781342
 20
622.829773
 10
-76.675812
 20
623.088135
 10
-76.589401
 20
623.42981
 10
-76.511917
 20
623.9823
 10
-76.486221
 20
624.440002
  0
LINE
  5
81D
330
50
100
AcDbEntity
  8
0
 62
     7
 48
0.317073
370
    13
390
F
100
AcDbLine
 10
-86.393364
 20
754.357422
 30
0.0
 11
-73.710442
 21
754.357422
 31
0.0
  0
LWPOLYLINE
  5
81E
330
50
100
AcDbEntity
  8
0
 62
     7
370
    13
390
F
100
AcDbPolyline
 90
        7
 70
     0
 43
0.0
 10
-76.486137
 20
624.440002
 10
-76.028297
 20
650.423157
 10
-75.524094
 20
676.406555
 10
-74.977921
 20
702.390137
 10
-74.386017
 20
728.373779
 10
-74.063164
 20
741.365662
 10
-73.711006
 20
754.357422
  0
LWPOLYLINE
  5
827
330
50
100
AcDbEntity
  8
0
 62
     7
370
    13
390
F
100
AcDbPolyline
 90
       19
 70
     0
 43
0.0
 10
-73.710434
 20
754.357422
 10
-73.654259
 20
755.528748
 10
-73.562729
 20
756.689758
 10
-73.435982
 20
757.83606
 10
-73.273865
 20
758.963318
 10
-73.075966
 20
760.067383
 10
-72.841713
 20
761.143921
 10
-72.570404
 20
762.188782
 10
-72.261299
 20
763.197998
 10
-71.913673
 20
764.167603
 10
-71.526878
 20
765.093689
 10
-71.100403
 20
765.972656
 10
-70.633942
 20
766.801147
 10
-70.127403
 20
767.576172
 10
-69.580948
 20
768.294983
 10
-68.995056
 20
768.955566
 10
-68.370453
 20
769.556274
 10
-67.708183
 20
770.096191
 10
-67.363312
 20
770.343323
  0
LWPOLYLINE
  5
83C
330
50
100
AcDbEntity
  8
0
 62
     7
370
    13
390
F
100
AcDbPolyline
 90
       15
 70
     0
 43
0.0
 10
-67.363312
 20
770.343323
 10
-66.912956
 20
770.635254
 10
-66.447723
 20
770.904053
 10
-65.968063
 20
771.149841
 10
-65.474518
 20
771.372925
 10
-64.967735
 20
771.573792
 10
-64.448425
 20
771.753052
 10
-63.917343
 20
771.911621
 10
-63.375278
 20
772.050293
 10
-62.823029
 20
772.170227
 10
-61.691166
 20
772.358337
 10
-60.527939
 20
772.486084
 10
-59.338982
 20
772.564148
 10
-58.129169
 20
772.603394
 10
-56.902439
 20
772.614319
  0
LINE
  5
84D
330
50
100
AcDbEntity
  8
0
 62
     7
 48
0.045315
370
    35
390
F
100
AcDbLine
 10
-77.975777
 20
775.614319
 30
0.0
 11
-79.788391
 21
775.614319
 31
0.0
  0
LINE
  5
84E
330
50
100
AcDbEntity
  8
0
 62
     7
 48
0.279172
370
    13
390
F
100
AcDbLine
 10
-106.827148
 20
624.440002
 30
0.0
 11
-95.660271
 21
624.440002
 31
0.0
  0
LINE
  5
84F
330
50
100
AcDbEntity
  8
0
 62
     7
 48
0.270509
370
    13
390
F
100
AcDbLine
 10
-100.30732
 20
754.357422
 30
0.0
 11
-89.486977
 21
754.357422
 31
0.0
  0
LINE
  5
850
330
50
100
AcDbEntity
  8
0
 62
     7
 48
0.035355
370
    13
390
F
100
AcDbLine
 10
-101.80957
 20
775.468323
 30
0.0
 11
-100.395355
 21
775.468323
 31
0.0
  0
LINE
  5
851
330
50
100
AcDbEntity
  8
0
 62
     7
 48
0.040958
370
    35
390
F
100
AcDbLine
 10
-88.882996
 20
775.614319
 30
0.0
 11
-90.521301
 21
775.614319
 31
0.0
  0
LINE
  5
852
330
50
100
AcDbEntity
  8
0
 62
     7
 48
0.224143
370
    13
390
F
100
AcDbLine
 10
-112.649895
 20
754.357422
 30
0.0
 11
-103.684189
 21
754.357422
 31
0.0
  0
LINE
  5
853
330
50
100
AcDbEntity
  8
0
 62
     7
 48
0.170991
370
    13
390
F
100
AcDbLine
 10
-123.046059
 20
754.357422
 30
0.0
 11
-116.206436
 21
754.357422
 31
0.0
  0
LINE
  5
854
330
50
100
AcDbEntity
  8
0
 62
     7
 48
0.028679
370
    35
390
F
100
AcDbLine
 10
-106.730431
 20
775.614319
 30
0.0
 11
-107.877579
 21
775.614319
 31
0.0
  0
LWPOLYLINE
  5
855
330
50
100
AcDbEntity
  8
0
 62
     7
370
    35
390
F
100
AcDbPolyline
 90
       36
 70
     0
 43
0.0
 10
-107.877579
 20
775.614319
 10
-108.662506
 20
775.59436
 10
-109.446167
 20
775.534546
 10
-110.227158
 20
775.434875
 10
-111.004105
 20
775.295654
 10
-111.775627
 20
775.117004
 10
-112.540382
 20
774.89917
 10
-113.29702
 20
774.6427
 10
-114.044228
 20
774.3479
 10
-114.780701
 20
774.01532
 10
-115.505165
 20
773.645569
 10
-116.216354
 20
773.239258
 10
-116.913048
 20
772.797119
 10
-117.594032
 20
772.319946
 10
-118.258133
 20
771.808594
 10
-118.904198
 20
771.263855
 10
-119.53112
 20
770.686768
 10
-120.137802
 20
770.078308
 10
-120.723206
 20
769.439575
 10
-121.286308
 20
768.771606
 10
-121.826134
 20
768.075562
 10
-122.341751
 20
767.352661
 10
-122.832253
 20
766.604187
 10
-123.296791
 20
765.831421
 10
-123.734558
 20
765.035645
 10
-124.144783
 20
764.218323
 10
-124.526749
 20
763.380798
 10
-124.879784
 20
762.524597
 10
-125.203285
 20
761.651062
 10
-125.496666
 20
760.761841
 10
-125.75943
 20
759.858459
 10
-125.991112
 20
758.942505
 10
-126.191315
 20
758.015503
 10
-126.359688
 20
757.079163
 10
-126.495964
 20
756.135132
 10
-126.599915
 20
755.185059
  0
LINE
  5
87B
330
50
100
AcDbEntity
  8
0
 62
     7
 48
0.112596
370
    13
390
F
100
AcDbLine
 10
-131.179932
 20
754.357422
 30
0.0
 11
-126.676102
 21
754.357422
 31
0.0
  0
LINE
  5
87C
330
50
100
AcDbEntity
  8
0
 62
     7
 48
0.071004
370
    13
390
F
100
AcDbLine
 10
-141.481857
 20
624.440002
 30
0.0
 11
-138.641708
 21
624.440002
 31
0.0
  0
LINE
  5
87D
330
50
100
AcDbEntity
  8
0
 62
     7
 48
0.021131
370
    35
390
F
100
AcDbLine
 10
-113.128357
 20
775.614319
 30
0.0
 11
-113.973587
 21
775.614319
 31
0.0
  0
ARC
  5
87E
330
50
100
AcDbEntity
  8
0
 62
     7
370
    35
390
F
100
AcDbCircle
 10
-153.548309
 20
624.614319
 30
0.0
 40
2.0
100
AcDbArc
 50
269.999997
 51
354.999999
  0
LINE
  5
87F
330
50
100
AcDbEntity
  8
0
 62
     7
 48
0.088623
370
    13
390
F
100
AcDbLine
 10
-151.555923
 20
624.440002
 30
0.0
 11
-148.010986
 21
624.440002
 31
0.0
  0
LINE
  5
880
330
50
100
AcDbEntity
  8
0
 62
     7
370
    35
390
F
100
AcDbLine
 10
-151.555923
 20
624.440002
 30
0.0
 11
-146.383224
 21
683.564026
 31
0.0
  0
LINE
  5
881
330
50
100
AcDbEntity
  8
0
 62
     7
370
    35
390
F
100
AcDbLine
 10
-146.383224
 20
683.564026
 30
0.0
 11
-141.383224
 21
740.714294
 31
0.0
  0
LINE
  5
882
330
50
100
AcDbEntity
  8
0
 62
     7
 48
0.342381
370
    35
390
F
100
AcDbLine
 10
-141.383224
 20
740.714294
 30
0.0
 11
-140.189606
 21
754.357422
 31
0.0
  0
LINE
  5
883
330
50
100
AcDbEntity
  8
0
 62
     7
 48
0.135426
370
    13
390
F
100
AcDbLine
 10
-140.189606
 20
754.357422
 30
0.0
 11
-134.772583
 21
754.357422
 31
0.0
  0
ARC
  5
884
330
50
100
AcDbEntity
  8
0
 62
     7
370
    35
390
F
100
AcDbCircle
 10
-120.265762
 20
752.614136
 30
0.0
 40
20.000784
100
AcDbArc
 50
104.263658
 51
174.999583
  0
LINE
  5
885
330
50
100
AcDbEntity
  8
0
 62
     7
 48
0.172413
370
    35
390
F
100
AcDbLine
 10
-55.194
 20
773.614319
 30
0.0
 11
-62.09053
 21
773.614319
 31
0.0
  0
LINE
  5
886
330
50
100
AcDbEntity
  8
0
 62
     7
 48
0.025
370
    35
390
F
100
AcDbLine
 10
-55.194
 20
772.614319
 30
0.0
 11
-55.194
 21
773.614319
 31
0.0
  0
LINE
  5
887
330
50
100
AcDbEntity
  8
0
 62
     7
 48
0.172412
370
    35
390
F
100
AcDbLine
 10
-35.09053
 20
773.614319
 30
0.0
 11
-41.98703
 21
773.614319
 31
0.0
  0
LINE
  5
888
330
50
100
AcDbEntity
  8
0
 62
     7
 48
0.025
370
    35
390
F
100
AcDbLine
 10
-41.98703
 20
772.614319
 30
0.0
 11
-41.98703
 21
773.614319
 31
0.0
  0
LINE
  5
889
330
50
100
AcDbEntity
  8
0
 62
     7
 48
0.16508
370
    35
390
F
100
AcDbLine
 10
-48.590649
 20
772.614319
 30
0.0
 11
-41.987465
 21
772.614319
 31
0.0
  0
LINE
  5
88A
330
50
100
AcDbEntity
  8
0
 62
     7
 48
0.165078
370
    35
390
F
100
AcDbLine
 10
-55.19352
 20
772.614319
 30
0.0
 11
-48.590408
 21
772.614319
 31
0.0
  0
LWPOLYLINE
  5
88B
330
50
100
AcDbEntity
  8
0
 62
     7
370
    13
390
F
100
AcDbPolyline
 90
        4
 70
     0
 43
0.0
 10
-31.0625
 20
624.508911
 10
-27.497055
 20
624.463013
 10
-21.01614
 20
624.439636
 10
-20.694843
 20
624.440002
  0
LWPOLYLINE
  5
891
330
50
100
AcDbEntity
  8
0
 62
     7
370
    13
390
F
100
AcDbPolyline
 90
        6
 70
     0
 43
0.0
 10
-30.137714
 20
754.119324
 10
-29.385525
 20
754.2052
 10
-28.121372
 20
754.296021
 10
-26.642502
 20
754.354004
 10
-24.653423
 20
754.374146
 10
-23.470057
 20
754.357422
  0
LWPOLYLINE
  5
899
330
50
100
AcDbEntity
  8
0
 62
     7
370
    13
390
F
100
AcDbPolyline
 90
        6
 70
     0
 43
0.0
 10
-67.043343
 20
754.119324
 10
-67.795532
 20
754.2052
 10
-69.059685
 20
754.296021
 10
-70.538559
 20
754.354004
 10
-72.527634
 20
754.374146
 10
-73.710999
 20
754.357422
  0
LWPOLYLINE
  5
8A1
330
50
100
AcDbEntity
  8
0
 62
     7
370
    13
390
F
100
AcDbPolyline
 90
        3
 70
     0
 43
0.0
 10
-76.486221
 20
624.440002
 10
-69.986061
 20
624.460571
 10
-66.118561
 20
624.508911
  0
LINE
  5
8A6
330
50
100
AcDbEntity
  8
0
 62
     7
 48
0.025
370
    35
390
F
100
AcDbLine
 10
-48.590408
 20
772.614319
 30
0.0
 11
-48.590408
 21
773.614319
 31
0.0
  0
LINE
  5
8A7
330
50
100
AcDbEntity
  8
0
 62
     7
 48
0.165076
370
    35
390
F
100
AcDbLine
 10
-55.193432
 20
773.614319
 30
0.0
 11
-48.590408
 21
773.614319
 31
0.0
  0
LINE
  5
8A8
330
50
100
AcDbEntity
  8
0
 62
     7
 48
0.165078
370
    35
390
F
100
AcDbLine
 10
-48.590649
 20
773.614319
 30
0.0
 11
-41.987545
 21
773.614319
 31
0.0
  0
LINE
  5
8A9
330
50
100
AcDbEntity
  8
0
 62
     7
 48
0.215709
370
    35
390
F
100
AcDbLine
 10
14.881532
 20
624.440002
 30
0.0
 11
23.509886
 21
624.440002
 31
0.0
  0
LINE
  5
8AA
330
50
100
AcDbEntity
  8
0
 62
     7
 48
0.145639
370
    35
390
F
100
AcDbLine
 10
29.354624
 20
624.440002
 30
0.0
 11
35.180199
 21
624.440002
 31
0.0
  0
LINE
  5
8AB
330
50
100
AcDbEntity
  8
0
 62
     7
 48
0.14564
370
    35
390
F
100
AcDbLine
 10
-132.361267
 20
624.440002
 30
0.0
 11
-126.535683
 21
624.440002
 31
0.0
  0
LINE
  5
8AC
330
50
100
AcDbEntity
  8
0
 62
     7
 48
0.215709
370
    35
390
F
100
AcDbLine
 10
-120.690948
 20
624.440002
 30
0.0
 11
-112.062592
 21
624.440002
 31
0.0
  0
LINE
  5
8AD
330
50
100
AcDbEntity
  8
0
 62
     7
 48
0.265277
370
    35
390
F
100
AcDbLine
 10
60.966148
 20
621.218933
 30
0.0
 11
61.33672
 21
610.614319
 31
0.0
  0
ARC
  5
8AE
330
50
100
AcDbEntity
  8
0
 62
     7
370
    35
390
F
100
AcDbCircle
 10
-37.5947
 20
780.616455
 30
0.0
 40
1.997857
100
AcDbArc
 50
43.594026
 51
90.008854
  0
LINE
  5
8AF
330
50
100
AcDbEntity
  8
0
 62
     7
 48
0.265277
370
    35
390
F
100
AcDbLine
 10
-158.147217
 20
621.218933
 30
0.0
 11
-158.517776
 21
610.614319
 31
0.0
  0
ARC
  5
8B0
330
50
100
AcDbEntity
  8
0
 62
     7
370
    35
390
F
100
AcDbCircle
 10
-59.586357
 20
780.616455
 30
0.0
 40
1.997861
100
AcDbArc
 50
89.991171
 51
136.452728
  0
LINE
  5
8B1
330
50
100
AcDbEntity
  8
0
 62
     7
 48
0.025
370
    35
390
F
100
AcDbLine
 10
-62.09053
 20
772.614319
 30
0.0
 11
-62.09053
 21
773.614319
 31
0.0
  0
LINE
  5
8B2
330
50
100
AcDbEntity
  8
0
 62
     7
 48
0.025
370
    35
390
F
100
AcDbLine
 10
-35.09053
 20
772.614319
 30
0.0
 11
-35.09053
 21
773.614319
 31
0.0
  0
LINE
  5
8B3
330
50
100
AcDbEntity
  8
0
 62
     7
 48
0.207798
370
    35
390
F
100
AcDbLine
 10
-48.590649
 20
772.614319
 30
0.0
 11
-40.278736
 21
772.614319
 31
0.0
  0
LINE
  5
8B4
330
50
100
AcDbEntity
  8
0
 62
     7
 48
0.207798
370
    35
390
F
100
AcDbLine
 10
-56.902325
 20
772.614319
 30
0.0
 11
-48.590408
 21
772.614319
 31
0.0
  0
LINE
  5
8B5
330
50
100
AcDbEntity
  8
0
 62
     7
 48
0.050325
370
    35
390
F
100
AcDbLine
 10
-44.59053
 20
658.676514
 30
0.0
 11
-44.59053
 21
656.663513
 31
0.0
  0
LINE
  5
8B6
330
50
100
AcDbEntity
  8
0
 62
     7
 48
0.024675
370
    35
390
F
100
AcDbLine
 10
-44.59053
 20
659.663513
 30
0.0
 11
-44.59053
 21
658.676514
 31
0.0
  0
LINE
  5
8B7
330
50
100
AcDbEntity
  8
0
 62
     7
 48
0.024675
370
    35
390
F
100
AcDbLine
 10
-52.59053
 20
659.663513
 30
0.0
 11
-52.59053
 21
658.676514
 31
0.0
  0
LINE
  5
8B8
330
50
100
AcDbEntity
  8
0
 62
     7
 48
0.050325
370
    35
390
F
100
AcDbLine
 10
-52.59053
 20
658.676514
 30
0.0
 11
-52.59053
 21
656.663513
 31
0.0
  0
LINE
  5
8B9
330
50
100
AcDbEntity
  8
0
 62
     7
 48
0.05
370
    35
390
F
100
AcDbLine
 10
-44.59053
 20
656.663513
 30
0.0
 11
-42.590542
 21
656.663513
 31
0.0
  0
LINE
  5
8BA
330
50
100
AcDbEntity
  8
0
 62
     7
 48
0.05
370
    35
390
F
100
AcDbLine
 10
-44.59053
 20
659.663513
 30
0.0
 11
-42.590538
 21
659.663513
 31
0.0
  0
LINE
  5
8BB
330
50
100
AcDbEntity
  8
0
 62
     7
 48
0.05
370
    35
390
F
100
AcDbLine
 10
-54.590542
 20
656.663513
 30
0.0
 11
-52.59053
 21
656.663513
 31
0.0
  0
LINE
  5
8BC
330
50
100
AcDbEntity
  8
0
 62
     7
 48
0.05
370
    35
390
F
100
AcDbLine
 10
-54.590538
 20
659.663513
 30
0.0
 11
-52.59053
 21
659.663513
 31
0.0
  0
LINE
  5
8BD
330
50
100
AcDbEntity
  8
0
 62
     7
 48
0.2
370
    35
390
F
100
AcDbLine
 10
-50.39053
 20
652.114319
 30
0.0
 11
-50.39053
 21
660.114319
 31
0.0
  0
LINE
  5
8BE
330
50
100
AcDbEntity
  8
0
 62
     7
 48
0.2
370
    35
390
F
100
AcDbLine
 10
-51.59053
 20
652.114319
 30
0.0
 11
-51.59053
 21
660.114319
 31
0.0
  0
LINE
  5
8BF
330
50
100
AcDbEntity
  8
0
 62
     7
 48
0.2
370
    35
390
F
100
AcDbLine
 10
-46.790531
 20
652.114319
 30
0.0
 11
-46.790531
 21
660.114319
 31
0.0
  0
LINE
  5
8C0
330
50
100
AcDbEntity
  8
0
 62
     7
 48
0.2
370
    35
390
F
100
AcDbLine
 10
-45.59053
 20
652.114319
 30
0.0
 11
-45.59053
 21
660.114319
 31
0.0
  0
LINE
  5
8C1
330
50
100
AcDbEntity
  8
0
 62
     7
 48
0.060001
370
    35
390
F
100
AcDbLine
 10
-64.59053
 20
600.714294
 30
0.0
 11
-64.59053
 21
603.114319
 31
0.0
  0
LINE
  5
8C2
330
50
100
AcDbEntity
  8
0
 62
     7
370
    35
390
F
100
AcDbLine
 10
-64.59053
 20
628.723999
 30
0.0
 11
-64.59053
 21
603.114319
 31
0.0
  0
LINE
  5
8C3
330
50
100
AcDbEntity
  8
0
 62
     7
 48
0.285544
370
    35
390
F
100
AcDbLine
 10
-64.59053
 20
628.723999
 30
0.0
 11
-64.59053
 21
640.145752
 31
0.0
  0
LINE
  5
8C4
330
50
100
AcDbEntity
  8
0
 62
     7
370
    35
390
F
100
AcDbLine
 10
-64.59053
 20
666.354309
 30
0.0
 11
-64.59053
 21
640.145752
 31
0.0
  0
LINE
  5
8C5
330
50
100
AcDbEntity
  8
0
 62
     7
 48
0.237723
370
    35
390
F
100
AcDbLine
 10
-61.59053
 20
628.723999
 30
0.0
 11
-61.59053
 21
638.23291
 31
0.0
  0
LINE
  5
8C6
330
50
100
AcDbEntity
  8
0
 62
     7
370
    35
390
F
100
AcDbLine
 10
-61.59053
 20
628.723999
 30
0.0
 11
-61.59053
 21
603.114319
 31
0.0
  0
LINE
  5
8C7
330
50
100
AcDbEntity
  8
0
 62
     7
 48
0.054752
370
    35
390
F
100
AcDbLine
 10
-61.59053
 20
600.924255
 30
0.0
 11
-61.59053
 21
603.114319
 31
0.0
  0
LINE
  5
8C8
330
50
100
AcDbEntity
  8
0
 62
     7
 48
0.045
370
    35
390
F
100
AcDbLine
 10
-63.990532
 20
600.114319
 30
0.0
 11
-62.190529
 21
600.114319
 31
0.0
  0
LINE
  5
8C9
330
50
100
AcDbEntity
  8
0
 62
     7
 48
0.075
370
    13
390
F
100
AcDbLine
 10
-63.990532
 20
600.114319
 30
0.0
 11
-63.990532
 21
603.114319
 31
0.0
  0
LINE
  5
8CA
330
50
100
AcDbEntity
  8
0
 62
     7
 48
0.045
370
    13
390
F
100
AcDbLine
 10
-63.990532
 20
603.114319
 30
0.0
 11
-62.190529
 21
603.114319
 31
0.0
  0
LINE
  5
8CB
330
50
100
AcDbEntity
  8
0
 62
     7
 48
0.075
370
    13
390
F
100
AcDbLine
 10
-62.190529
 20
600.114319
 30
0.0
 11
-62.190529
 21
603.114319
 31
0.0
  0
LINE
  5
8CC
330
50
100
AcDbEntity
  8
0
 62
     7
370
    13
390
F
100
AcDbLine
 10
-63.990528
 20
628.723999
 30
0.0
 11
-63.990532
 21
603.114319
 31
0.0
  0
LINE
  5
8CD
330
50
100
AcDbEntity
  8
0
 62
     7
 48
0.045
370
    13
390
F
100
AcDbLine
 10
-63.990528
 20
628.723999
 30
0.0
 11
-62.190529
 21
628.723999
 31
0.0
  0
LINE
  5
8CE
330
50
100
AcDbEntity
  8
0
 62
     7
370
    13
390
F
100
AcDbLine
 10
-62.190529
 20
628.723999
 30
0.0
 11
-62.190529
 21
603.114319
 31
0.0
  0
LINE
  5
8CF
330
50
100
AcDbEntity
  8
0
 62
     7
 48
0.293193
370
    13
390
F
100
AcDbLine
 10
-63.990528
 20
628.723999
 30
0.0
 11
-63.990528
 21
640.451721
 31
0.0
  0
LINE
  5
8D0
330
50
100
AcDbEntity
  8
0
 62
     7
 48
0.045
370
    13
390
F
100
AcDbLine
 10
-63.990528
 20
640.451721
 30
0.0
 11
-62.190529
 21
640.451721
 31
0.0
  0
LINE
  5
8D1
330
50
100
AcDbEntity
  8
0
 62
     7
 48
0.293193
370
    13
390
F
100
AcDbLine
 10
-62.190529
 20
628.723999
 30
0.0
 11
-62.190529
 21
640.451721
 31
0.0
  0
LWPOLYLINE
  5
8D2
330
50
100
AcDbEntity
  8
0
 62
     7
370
    35
390
F
100
AcDbPolyline
 90
        3
 70
     0
 43
0.0
 10
-62.190529
 20
643.118408
 10
-61.893398
 20
641.553101
 10
-61.709225
 20
640.32843
  0
LINE
  5
8D7
330
50
100
AcDbEntity
  8
0
 62
     7
 48
0.066667
370
    13
390
F
100
AcDbLine
 10
-62.190529
 20
643.118408
 30
0.0
 11
-62.190529
 21
640.451721
 31
0.0
  0
ELLIPSE
  5
8D8
330
50
100
AcDbEntity
  8
0
 62
     7
370
    13
390
F
100
AcDbEllipse
 10
-62.190529
 20
640.145752
 30
0.0
 11
0.600000023841858
 21
1.049073433000000E-7
 31
0.0
210
0.0
220
0.0
230
1.0
 40
0.5099009999999999
 41
0.6398718953132629
 42
1.570796370506287
  0
LWPOLYLINE
  5
8D9
330
50
100
AcDbEntity
  8
0
 62
     7
370
    35
390
F
100
AcDbPolyline
 90
        7
 70
     0
 43
0.0
 10
-62.190529
 20
600.114319
 10
-62.044796
 20
600.141235
 10
-61.904785
 20
600.221558
 10
-61.779324
 20
600.352234
 10
-61.676716
 20
600.528503
 10
-61.608505
 20
600.743896
 10
-61.59053
 20
600.924255
  0
LINE
  5
8E2
330
50
100
AcDbEntity
  8
0
 62
     7
 48
0.015
370
    13
390
F
100
AcDbLine
 10
-61.59053
 20
603.114319
 30
0.0
 11
-62.190529
 21
603.114319
 31
0.0
  0
ARC
  5
8E3
330
50
100
AcDbEntity
  8
0
 62
     7
370
    35
390
F
100
AcDbCircle
 10
-79.14373
 20
638.300232
 30
0.0
 40
17.55275
100
AcDbArc
 50
359.7801670000001
 51
6.635542
  0
LINE
  5
8E4
330
50
100
AcDbEntity
  8
0
 62
     7
 48
0.015
370
    13
390
F
100
AcDbLine
 10
-61.59053
 20
628.723999
 30
0.0
 11
-62.190529
 21
628.723999
 31
0.0
  0
LINE
  5
8E5
330
50
100
AcDbEntity
  8
0
 62
     7
 48
0.054752
370
    35
390
F
100
AcDbLine
 10
-50.09053
 20
600.924255
 30
0.0
 11
-50.09053
 21
603.114319
 31
0.0
  0
LINE
  5
8E6
330
50
100
AcDbEntity
  8
0
 62
     7
370
    35
390
F
100
AcDbLine
 10
-50.09053
 20
628.723999
 30
0.0
 11
-50.09053
 21
603.114319
 31
0.0
  0
LINE
  5
8E7
330
50
100
AcDbEntity
  8
0
 62
     7
 48
0.237723
370
    35
390
F
100
AcDbLine
 10
-50.09053
 20
628.723999
 30
0.0
 11
-50.09053
 21
638.23291
 31
0.0
  0
LINE
  5
8E8
330
50
100
AcDbEntity
  8
0
 62
     7
 48
0.054752
370
    35
390
F
100
AcDbLine
 10
-47.09053
 20
600.924255
 30
0.0
 11
-47.09053
 21
603.114319
 31
0.0
  0
LINE
  5
8E9
330
50
100
AcDbEntity
  8
0
 62
     7
370
    35
390
F
100
AcDbLine
 10
-47.09053
 20
603.114319
 30
0.0
 11
-47.09053
 21
628.723999
 31
0.0
  0
LINE
  5
8EA
330
50
100
AcDbEntity
  8
0
 62
     7
 48
0.237723
370
    35
390
F
100
AcDbLine
 10
-47.09053
 20
628.723999
 30
0.0
 11
-47.09053
 21
638.23291
 31
0.0
  0
LINE
  5
8EB
330
50
100
AcDbEntity
  8
0
 62
     7
 48
0.045
370
    35
390
F
100
AcDbLine
 10
-47.690529
 20
600.114319
 30
0.0
 11
-49.490532
 21
600.114319
 31
0.0
  0
LINE
  5
8EC
330
50
100
AcDbEntity
  8
0
 62
     7
 48
0.075
370
    13
390
F
100
AcDbLine
 10
-49.490532
 20
600.114319
 30
0.0
 11
-49.490532
 21
603.114319
 31
0.0
  0
LINE
  5
8ED
330
50
100
AcDbEntity
  8
0
 62
     7
 48
0.045
370
    13
390
F
100
AcDbLine
 10
-49.490532
 20
603.114319
 30
0.0
 11
-47.690529
 21
603.114319
 31
0.0
  0
LINE
  5
8EE
330
50
100
AcDbEntity
  8
0
 62
     7
 48
0.075
370
    13
390
F
100
AcDbLine
 10
-47.690529
 20
603.114319
 30
0.0
 11
-47.690529
 21
600.114319
 31
0.0
  0
LINE
  5
8EF
330
50
100
AcDbEntity
  8
0
 62
     7
370
    13
390
F
100
AcDbLine
 10
-49.490528
 20
628.723999
 30
0.0
 11
-49.490532
 21
603.114319
 31
0.0
  0
LINE
  5
8F0
330
50
100
AcDbEntity
  8
0
 62
     7
 48
0.045
370
    13
390
F
100
AcDbLine
 10
-49.490528
 20
628.723999
 30
0.0
 11
-47.690529
 21
628.723999
 31
0.0
  0
LINE
  5
8F1
330
50
100
AcDbEntity
  8
0
 62
     7
370
    13
390
F
100
AcDbLine
 10
-47.690529
 20
603.114319
 30
0.0
 11
-47.690529
 21
628.723999
 31
0.0
  0
LINE
  5
8F2
330
50
100
AcDbEntity
  8
0
 62
     7
 48
0.293193
370
    13
390
F
100
AcDbLine
 10
-49.490528
 20
628.723999
 30
0.0
 11
-49.490528
 21
640.451721
 31
0.0
  0
LINE
  5
8F3
330
50
100
AcDbEntity
  8
0
 62
     7
 48
0.045
370
    13
390
F
100
AcDbLine
 10
-49.490528
 20
640.451721
 30
0.0
 11
-47.690529
 21
640.451721
 31
0.0
  0
LINE
  5
8F4
330
50
100
AcDbEntity
  8
0
 62
     7
 48
0.293193
370
    13
390
F
100
AcDbLine
 10
-47.690529
 20
628.723999
 30
0.0
 11
-47.690529
 21
640.451721
 31
0.0
  0
LINE
  5
8F5
330
50
100
AcDbEntity
  8
0
 62
     7
 48
0.015
370
    13
390
F
100
AcDbLine
 10
-49.490532
 20
603.114319
 30
0.0
 11
-50.09053
 21
603.114319
 31
0.0
  0
LINE
  5
8F6
330
50
100
AcDbEntity
  8
0
 62
     7
 48
0.015
370
    13
390
F
100
AcDbLine
 10
-49.490528
 20
628.723999
 30
0.0
 11
-50.09053
 21
628.723999
 31
0.0
  0
LWPOLYLINE
  5
8F7
330
50
100
AcDbEntity
  8
0
 62
     7
370
    35
390
F
100
AcDbPolyline
 90
        7
 70
     0
 43
0.0
 10
-49.490532
 20
600.114319
 10
-49.636246
 20
600.141235
 10
-49.776268
 20
600.221558
 10
-49.901733
 20
600.352173
 10
-50.00433
 20
600.528503
 10
-50.072536
 20
600.743835
 10
-50.09053
 20
600.924133
  0
ARC
  5
900
330
50
100
AcDbEntity
  8
0
 62
     7
370
    35
390
F
100
AcDbCircle
 10
-32.537331
 20
638.300232
 30
0.0
 40
17.55275
100
AcDbArc
 50
173.364463
 51
180.219828
  0
ELLIPSE
  5
901
330
50
100
AcDbEntity
  8
0
 62
     7
370
    13
390
F
100
AcDbEllipse
 10
-49.490528
 20
640.145752
 30
0.0
 11
0.600000023841858
 21
1.049073433000000E-7
 31
0.0
210
0.0
220
0.0
230
1.0
 40
0.5099009999999999
 41
1.570796370506287
 42
2.501720666885376
  0
LWPOLYLINE
  5
902
330
50
100
AcDbEntity
  8
0
 62
     7
370
    35
390
F
100
AcDbPolyline
 90
        3
 70
     0
 43
0.0
 10
-49.490528
 20
643.118408
 10
-49.787663
 20
641.553101
 10
-49.971832
 20
640.32843
  0
LINE
  5
907
330
50
100
AcDbEntity
  8
0
 62
     7
 48
0.066667
370
    13
390
F
100
AcDbLine
 10
-49.490528
 20
643.118408
 30
0.0
 11
-49.490528
 21
640.451721
 31
0.0
  0
LWPOLYLINE
  5
908
330
50
100
AcDbEntity
  8
0
 62
     7
370
    35
390
F
100
AcDbPolyline
 90
        3
 70
     0
 43
0.0
 10
-47.690529
 20
643.118408
 10
-47.393398
 20
641.553101
 10
-47.209225
 20
640.32843
  0
LINE
  5
90D
330
50
100
AcDbEntity
  8
0
 62
     7
 48
0.066667
370
    13
390
F
100
AcDbLine
 10
-47.690529
 20
640.451721
 30
0.0
 11
-47.690529
 21
643.118408
 31
0.0
  0
ELLIPSE
  5
90E
330
50
100
AcDbEntity
  8
0
 62
     7
370
    13
390
F
100
AcDbEllipse
 10
-47.690529
 20
640.145752
 30
0.0
 11
-0.6000000238418586
 21
-5.245367160000002E-8
 31
0.0
210
0.0
220
0.0
230
1.0
 40
0.5099009999999998
 41
3.781464576721191
 42
4.71238899230957
  0
ARC
  5
90F
330
50
100
AcDbEntity
  8
0
 62
     7
370
    35
390
F
100
AcDbCircle
 10
-64.64373
 20
638.300232
 30
0.0
 40
17.55275
100
AcDbArc
 50
359.7801670000001
 51
6.635542
  0
LINE
  5
910
330
50
100
AcDbEntity
  8
0
 62
     7
 48
0.015
370
    13
390
F
100
AcDbLine
 10
-47.690529
 20
628.723999
 30
0.0
 11
-47.09053
 21
628.723999
 31
0.0
  0
LINE
  5
911
330
50
100
AcDbEntity
  8
0
 62
     7
 48
0.015
370
    13
390
F
100
AcDbLine
 10
-47.690529
 20
603.114319
 30
0.0
 11
-47.09053
 21
603.114319
 31
0.0
  0
LWPOLYLINE
  5
912
330
50
100
AcDbEntity
  8
0
 62
     7
370
    35
390
F
100
AcDbPolyline
 90
        7
 70
     0
 43
0.0
 10
-47.690529
 20
600.114319
 10
-47.544815
 20
600.141235
 10
-47.404793
 20
600.221558
 10
-47.279327
 20
600.352173
 10
-47.176731
 20
600.528503
 10
-47.108524
 20
600.743835
 10
-47.09053
 20
600.924133
  0
LINE
  5
91B
330
50
100
AcDbEntity
  8
0
 62
     7
 48
0.054752
370
    35
390
F
100
AcDbLine
 10
-35.59053
 20
600.924255
 30
0.0
 11
-35.59053
 21
603.114319
 31
0.0
  0
LINE
  5
91C
330
50
100
AcDbEntity
  8
0
 62
     7
370
    35
390
F
100
AcDbLine
 10
-35.59053
 20
628.723999
 30
0.0
 11
-35.59053
 21
603.114319
 31
0.0
  0
LINE
  5
91D
330
50
100
AcDbEntity
  8
0
 62
     7
 48
0.237723
370
    35
390
F
100
AcDbLine
 10
-35.59053
 20
628.723999
 30
0.0
 11
-35.59053
 21
638.23291
 31
0.0
  0
LINE
  5
91E
330
50
100
AcDbEntity
  8
0
 62
     7
 48
0.060001
370
    35
390
F
100
AcDbLine
 10
-32.59053
 20
600.714294
 30
0.0
 11
-32.59053
 21
603.114319
 31
0.0
  0
LINE
  5
91F
330
50
100
AcDbEntity
  8
0
 62
     7
370
    35
390
F
100
AcDbLine
 10
-32.59053
 20
603.114319
 30
0.0
 11
-32.59053
 21
628.723999
 31
0.0
  0
LINE
  5
920
330
50
100
AcDbEntity
  8
0
 62
     7
 48
0.285544
370
    35
390
F
100
AcDbLine
 10
-32.59053
 20
628.723999
 30
0.0
 11
-32.59053
 21
640.145752
 31
0.0
  0
LINE
  5
921
330
50
100
AcDbEntity
  8
0
 62
     7
370
    35
390
F
100
AcDbLine
 10
-32.59053
 20
640.145752
 30
0.0
 11
-32.59053
 21
666.354309
 31
0.0
  0
LINE
  5
922
330
50
100
AcDbEntity
  8
0
 62
     7
 48
0.045
370
    13
390
F
100
AcDbLine
 10
-34.990532
 20
603.114319
 30
0.0
 11
-33.190529
 21
603.114319
 31
0.0
  0
LINE
  5
923
330
50
100
AcDbEntity
  8
0
 62
     7
 48
0.075
370
    13
390
F
100
AcDbLine
 10
-33.190529
 20
603.114319
 30
0.0
 11
-33.190529
 21
600.114319
 31
0.0
  0
LINE
  5
924
330
50
100
AcDbEntity
  8
0
 62
     7
 48
0.045
370
    35
390
F
100
AcDbLine
 10
-33.190529
 20
600.114319
 30
0.0
 11
-34.990532
 21
600.114319
 31
0.0
  0
LINE
  5
925
330
50
100
AcDbEntity
  8
0
 62
     7
 48
0.075
370
    13
390
F
100
AcDbLine
 10
-34.990532
 20
600.114319
 30
0.0
 11
-34.990532
 21
603.114319
 31
0.0
  0
LINE
  5
926
330
50
100
AcDbEntity
  8
0
 62
     7
 48
0.045
370
    13
390
F
100
AcDbLine
 10
-34.990528
 20
628.723999
 30
0.0
 11
-33.190529
 21
628.723999
 31
0.0
  0
LINE
  5
927
330
50
100
AcDbEntity
  8
0
 62
     7
370
    13
390
F
100
AcDbLine
 10
-33.190529
 20
603.114319
 30
0.0
 11
-33.190529
 21
628.723999
 31
0.0
  0
LINE
  5
928
330
50
100
AcDbEntity
  8
0
 62
     7
370
    13
390
F
100
AcDbLine
 10
-34.990528
 20
628.723999
 30
0.0
 11
-34.990532
 21
603.114319
 31
0.0
  0
LINE
  5
929
330
50
100
AcDbEntity
  8
0
 62
     7
 48
0.045
370
    13
390
F
100
AcDbLine
 10
-34.990528
 20
640.451721
 30
0.0
 11
-33.190529
 21
640.451721
 31
0.0
  0
LINE
  5
92A
330
50
100
AcDbEntity
  8
0
 62
     7
 48
0.293193
370
    13
390
F
100
AcDbLine
 10
-33.190529
 20
628.723999
 30
0.0
 11
-33.190529
 21
640.451721
 31
0.0
  0
LINE
  5
92B
330
50
100
AcDbEntity
  8
0
 62
     7
 48
0.293193
370
    13
390
F
100
AcDbLine
 10
-34.990528
 20
628.723999
 30
0.0
 11
-34.990528
 21
640.451721
 31
0.0
  0
ARC
  5
92C
330
50
100
AcDbEntity
  8
0
 62
     7
370
    13
390
F
100
AcDbCircle
 10
-48.59053
 20
571.413208
 30
0.0
 40
99.399979
100
AcDbArc
 50
82.81924
 51
97.180758
  0
ARC
  5
92D
330
50
100
AcDbEntity
  8
0
 62
     7
370
    13
390
F
100
AcDbCircle
 10
-60.590488
 20
666.660217
 30
0.0
 40
3.400044
100
AcDbArc
 50
97.181441
 51
179.999745
  0
LINE
  5
92E
330
50
100
AcDbEntity
  8
0
 62
     7
370
    13
390
F
100
AcDbLine
 10
-63.990528
 20
666.660217
 30
0.0
 11
-63.990528
 21
640.451721
 31
0.0
  0
LINE
  5
92F
330
50
100
AcDbEntity
  8
0
 62
     7
 48
0.3175
370
    13
390
F
100
AcDbLine
 10
-62.190529
 20
643.118408
 30
0.0
 11
-49.490528
 21
643.118408
 31
0.0
  0
LINE
  5
930
330
50
100
AcDbEntity
  8
0
 62
     7
 48
0.3175
370
    13
390
F
100
AcDbLine
 10
-47.690529
 20
643.118408
 30
0.0
 11
-34.990528
 21
643.118408
 31
0.0
  0
LINE
  5
931
330
50
100
AcDbEntity
  8
0
 62
     7
 48
0.066667
370
    13
390
F
100
AcDbLine
 10
-34.990528
 20
643.118408
 30
0.0
 11
-34.990528
 21
640.451721
 31
0.0
  0
LINE
  5
932
330
50
100
AcDbEntity
  8
0
 62
     7
370
    13
390
F
100
AcDbLine
 10
-33.190529
 20
640.451721
 30
0.0
 11
-33.190529
 21
666.660217
 31
0.0
  0
ARC
  5
933
330
50
100
AcDbEntity
  8
0
 62
     7
370
    13
390
F
100
AcDbCircle
 10
-36.590572
 20
666.660217
 30
0.0
 40
3.400044
100
AcDbArc
 50
0.000255
 51
82.818558
  0
LINE
  5
934
330
50
100
AcDbEntity
  8
0
 62
     7
 48
0.015001
370
    35
390
F
100
AcDbLine
 10
-33.59053
 20
660.114319
 30
0.0
 11
-33.59053
 21
659.514282
 31
0.0
  0
LINE
  5
935
330
50
100
AcDbEntity
  8
0
 62
     7
 48
0.225
370
    35
390
F
100
AcDbLine
 10
-33.59053
 20
659.514282
 30
0.0
 11
-42.59053
 21
659.514282
 31
0.0
  0
LINE
  5
936
330
50
100
AcDbEntity
  8
0
 62
     7
 48
0.159999
370
    35
390
F
100
AcDbLine
 10
-42.59053
 20
659.514282
 30
0.0
 11
-42.59053
 21
653.114319
 31
0.0
  0
ARC
  5
937
330
50
100
AcDbEntity
  8
0
 62
     7
370
    35
390
F
100
AcDbCircle
 10
-43.59053
 20
653.114319
 30
0.0
 40
1.0
100
AcDbArc
 50
269.999997
 51
0.0
  0
LINE
  5
938
330
50
100
AcDbEntity
  8
0
 62
     7
 48
0.25
370
    35
390
F
100
AcDbLine
 10
-53.59053
 20
652.114319
 30
0.0
 11
-43.59053
 21
652.114319
 31
0.0
  0
ARC
  5
939
330
50
100
AcDbEntity
  8
0
 62
     7
370
    35
390
F
100
AcDbCircle
 10
-53.59053
 20
653.114319
 30
0.0
 40
1.0
100
AcDbArc
 50
180.000005
 51
270.000001
  0
LINE
  5
93A
330
50
100
AcDbEntity
  8
0
 62
     7
 48
0.159999
370
    35
390
F
100
AcDbLine
 10
-54.59053
 20
659.514282
 30
0.0
 11
-54.59053
 21
653.114319
 31
0.0
  0
LINE
  5
93B
330
50
100
AcDbEntity
  8
0
 62
     7
 48
0.225
370
    35
390
F
100
AcDbLine
 10
-54.59053
 20
659.514282
 30
0.0
 11
-63.59053
 21
659.514282
 31
0.0
  0
LINE
  5
93C
330
50
100
AcDbEntity
  8
0
 62
     7
 48
0.015001
370
    35
390
F
100
AcDbLine
 10
-63.59053
 20
659.514282
 30
0.0
 11
-63.59053
 21
660.114319
 31
0.0
  0
LINE
  5
93D
330
50
100
AcDbEntity
  8
0
 62
     7
 48
0.225
370
    35
390
F
100
AcDbLine
 10
-54.59053
 20
660.114319
 30
0.0
 11
-63.59053
 21
660.114319
 31
0.0
  0
LINE
  5
93E
330
50
100
AcDbEntity
  8
0
 62
     7
 48
0.3
370
    35
390
F
100
AcDbLine
 10
-54.59053
 20
660.114319
 30
0.0
 11
-42.59053
 21
660.114319
 31
0.0
  0
LINE
  5
93F
330
50
100
AcDbEntity
  8
0
 62
     7
 48
0.225
370
    35
390
F
100
AcDbLine
 10
-33.59053
 20
660.114319
 30
0.0
 11
-42.59053
 21
660.114319
 31
0.0
  0
ELLIPSE
  5
940
330
50
100
AcDbEntity
  8
0
 62
     7
370
    35
390
F
100
AcDbEllipse
 10
-36.59053
 20
662.695007
 30
0.0
 11
1.268857717514038
 21
2.218541368000000E-7
 31
0.0
210
0.0
220
0.0
230
0.9999999999999999
 40
0.8602330000000005
 41
4.186389446258545
 42
10.46957475343813
  0
ELLIPSE
  5
941
330
50
100
AcDbEntity
  8
0
 62
     7
370
    35
390
F
100
AcDbEllipse
 10
-36.59053
 20
668.036438
 30
0.0
 11
1.268857717514038
 21
2.218541368000000E-7
 31
0.0
210
0.0
220
0.0
230
0.9999999999999999
 40
0.8602330000000005
 41
4.186389446258545
 42
10.46957475343813
  0
ELLIPSE
  5
942
330
50
100
AcDbEntity
  8
0
 62
     7
370
    35
390
F
100
AcDbEllipse
 10
-42.59053
 20
662.695007
 30
0.0
 11
1.268857717514038
 21
2.218541368000000E-7
 31
0.0
210
0.0
220
0.0
230
0.9999999999999999
 40
0.8602330000000005
 41
4.186389446258545
 42
10.46957475343813
  0
ELLIPSE
  5
943
330
50
100
AcDbEntity
  8
0
 62
     7
370
    35
390
F
100
AcDbEllipse
 10
-42.59053
 20
668.036438
 30
0.0
 11
1.268857717514038
 21
2.218541368000000E-7
 31
0.0
210
0.0
220
0.0
230
0.9999999999999999
 40
0.8602330000000005
 41
4.186389446258545
 42
10.46957475343813
  0
ELLIPSE
  5
944
330
50
100
AcDbEntity
  8
0
 62
     7
370
    35
390
F
100
AcDbEllipse
 10
-48.59053
 20
662.695007
 30
0.0
 11
1.268857717514038
 21
2.218541368000000E-7
 31
0.0
210
0.0
220
0.0
230
0.9999999999999999
 40
0.8602330000000005
 41
4.186389446258545
 42
10.46957475343813
  0
ELLIPSE
  5
945
330
50
100
AcDbEntity
  8
0
 62
     7
370
    35
390
F
100
AcDbEllipse
 10
-48.59053
 20
668.036438
 30
0.0
 11
1.268857717514038
 21
2.218541368000000E-7
 31
0.0
210
0.0
220
0.0
230
0.9999999999999999
 40
0.8602330000000005
 41
4.186389446258545
 42
10.46957475343813
  0
ELLIPSE
  5
946
330
50
100
AcDbEntity
  8
0
 62
     7
370
    35
390
F
100
AcDbEllipse
 10
-54.59053
 20
662.695007
 30
0.0
 11
1.268857717514038
 21
2.218541368000000E-7
 31
0.0
210
0.0
220
0.0
230
0.9999999999999999
 40
0.8602330000000005
 41
4.186389446258545
 42
10.46957475343813
  0
ELLIPSE
  5
947
330
50
100
AcDbEntity
  8
0
 62
     7
370
    35
390
F
100
AcDbEllipse
 10
-54.59053
 20
668.036438
 30
0.0
 11
1.268857717514038
 21
2.218541368000000E-7
 31
0.0
210
0.0
220
0.0
230
0.9999999999999999
 40
0.8602330000000005
 41
4.186389446258545
 42
10.46957475343813
  0
ELLIPSE
  5
948
330
50
100
AcDbEntity
  8
0
 62
     7
370
    35
390
F
100
AcDbEllipse
 10
-60.59053
 20
662.695007
 30
0.0
 11
1.268857717514038
 21
2.218541368000000E-7
 31
0.0
210
0.0
220
0.0
230
0.9999999999999999
 40
0.8602330000000005
 41
4.186389446258545
 42
10.46957475343813
  0
ELLIPSE
  5
949
330
50
100
AcDbEntity
  8
0
 62
     7
370
    35
390
F
100
AcDbEllipse
 10
-60.59053
 20
668.036438
 30
0.0
 11
1.268857717514038
 21
2.218541368000000E-7
 31
0.0
210
0.0
220
0.0
230
0.9999999999999999
 40
0.8602330000000005
 41
4.186389446258545
 42
10.46957475343813
  0
LINE
  5
94A
330
50
100
AcDbEntity
  8
0
 62
     7
 48
0.015
370
    13
390
F
100
AcDbLine
 10
-34.990532
 20
603.114319
 30
0.0
 11
-35.59053
 21
603.114319
 31
0.0
  0
LINE
  5
94B
330
50
100
AcDbEntity
  8
0
 62
     7
 48
0.015
370
    13
390
F
100
AcDbLine
 10
-34.990528
 20
628.723999
 30
0.0
 11
-35.59053
 21
628.723999
 31
0.0
  0
LWPOLYLINE
  5
94C
330
50
100
AcDbEntity
  8
0
 62
     7
370
    35
390
F
100
AcDbPolyline
 90
        7
 70
     0
 43
0.0
 10
-34.990532
 20
600.114319
 10
-35.12291
 20
600.136475
 10
-35.251331
 20
600.202881
 10
-35.368973
 20
600.31134
 10
-35.498482
 20
600.515625
 10
-35.578587
 20
600.777649
 10
-35.59053
 20
600.924133
  0
ARC
  5
955
330
50
100
AcDbEntity
  8
0
 62
     7
370
    35
390
F
100
AcDbCircle
 10
-18.037333
 20
638.300232
 30
0.0
 40
17.55275
100
AcDbArc
 50
173.364463
 51
180.219828
  0
ELLIPSE
  5
956
330
50
100
AcDbEntity
  8
0
 62
     7
370
    13
390
F
100
AcDbEllipse
 10
-34.990528
 20
640.145752
 30
0.0
 11
0.600000023841858
 21
1.049073433000000E-7
 31
0.0
210
0.0
220
0.0
230
1.0
 40
0.5099009999999999
 41
1.570796370506287
 42
2.501569986343384
  0
LWPOLYLINE
  5
957
330
50
100
AcDbEntity
  8
0
 62
     7
370
    35
390
F
100
AcDbPolyline
 90
        3
 70
     0
 43
0.0
 10
-34.990551
 20
643.118408
 10
-35.287739
 20
641.553101
 10
-35.471779
 20
640.328491
  0
LINE
  5
95C
330
50
100
AcDbEntity
  8
0
 62
     7
 48
0.011641
370
    35
390
F
100
AcDbLine
 10
-54.59053
 20
659.514282
 30
0.0
 11
-54.59053
 21
659.979919
 31
0.0
  0
LINE
  5
95D
330
50
100
AcDbEntity
  8
0
 62
     7
 48
0.00336
370
    35
390
F
100
AcDbLine
 10
-54.59053
 20
660.114319
 30
0.0
 11
-54.59053
 21
659.979919
 31
0.0
  0
LINE
  5
95E
330
50
100
AcDbEntity
  8
0
 62
     7
 48
0.011641
370
    35
390
F
100
AcDbLine
 10
-42.59053
 20
659.514282
 30
0.0
 11
-42.59053
 21
659.979919
 31
0.0
  0
LINE
  5
95F
330
50
100
AcDbEntity
  8
0
 62
     7
 48
0.00336
370
    35
390
F
100
AcDbLine
 10
-42.59053
 20
660.114319
 30
0.0
 11
-42.59053
 21
659.979919
 31
0.0
  0
LINE
  5
960
330
50
100
AcDbEntity
  8
0
 62
     7
 48
0.075
370
    35
390
F
100
AcDbLine
 10
-45.59053
 20
659.926819
 30
0.0
 11
-42.59053
 21
659.926819
 31
0.0
  0
LINE
  5
961
330
50
100
AcDbEntity
  8
0
 62
     7
 48
0.075
370
    35
390
F
100
AcDbLine
 10
-54.59053
 20
659.926819
 30
0.0
 11
-51.59053
 21
659.926819
 31
0.0
  0
LINE
  5
962
330
50
100
AcDbEntity
  8
0
 62
     7
 48
0.09
370
    35
390
F
100
AcDbLine
 10
-50.39053
 20
659.926819
 30
0.0
 11
-46.790531
 21
659.926819
 31
0.0
  0
LINE
  5
963
330
50
100
AcDbEntity
  8
0
 62
     7
 48
0.05
370
    13
390
F
100
AcDbLine
 10
-43.59053
 20
653.114319
 30
0.0
 11
-45.59053
 21
653.114319
 31
0.0
  0
LINE
  5
964
330
50
100
AcDbEntity
  8
0
 62
     7
 48
0.085312
370
    13
390
F
100
AcDbLine
 10
-43.59053
 20
653.114319
 30
0.0
 11
-43.59053
 21
656.526794
 31
0.0
  0
LINE
  5
965
330
50
100
AcDbEntity
  8
0
 62
     7
 48
0.05
370
    35
390
F
100
AcDbLine
 10
-45.59053
 20
656.526794
 30
0.0
 11
-43.59053
 21
656.526794
 31
0.0
  0
LINE
  5
966
330
50
100
AcDbEntity
  8
0
 62
     7
 48
0.05
370
    35
390
F
100
AcDbLine
 10
-53.59053
 20
656.526794
 30
0.0
 11
-51.59053
 21
656.526794
 31
0.0
  0
LINE
  5
967
330
50
100
AcDbEntity
  8
0
 62
     7
 48
0.085312
370
    13
390
F
100
AcDbLine
 10
-53.59053
 20
656.526794
 30
0.0
 11
-53.59053
 21
653.114319
 31
0.0
  0
LINE
  5
968
330
50
100
AcDbEntity
  8
0
 62
     7
 48
0.05
370
    13
390
F
100
AcDbLine
 10
-51.59053
 20
653.114319
 30
0.0
 11
-53.59053
 21
653.114319
 31
0.0
  0
LINE
  5
969
330
50
100
AcDbEntity
  8
0
 62
     7
 48
0.09
370
    13
390
F
100
AcDbLine
 10
-46.790531
 20
653.114319
 30
0.0
 11
-50.39053
 21
653.114319
 31
0.0
  0
LINE
  5
96A
330
50
100
AcDbEntity
  8
0
 62
     7
 48
0.09
370
    35
390
F
100
AcDbLine
 10
-50.39053
 20
656.526794
 30
0.0
 11
-46.790531
 21
656.526794
 31
0.0
  0
LINE
  5
96B
330
50
100
AcDbEntity
  8
0
 62
     7
 48
0.006583
370
    35
390
F
100
AcDbLine
 10
-54.59053
 20
659.926819
 30
0.0
 11
-54.59053
 21
659.663513
 31
0.0
  0
LWPOLYLINE
  5
96C
330
50
100
AcDbEntity
  8
0
 62
     7
370
    35
390
F
100
AcDbPolyline
 90
        5
 70
     0
 43
0.0
 10
-53.59053
 20
656.526794
 10
-54.053364
 20
656.53064
 10
-54.285728
 20
656.550232
 10
-54.434395
 20
656.591248
 10
-54.533844
 20
656.663513
  0
LWPOLYLINE
  5
973
330
50
100
AcDbEntity
  8
0
 62
     7
370
    35
390
F
100
AcDbPolyline
 90
        5
 70
     0
 43
0.0
 10
-43.59053
 20
656.526794
 10
-43.127728
 20
656.53064
 10
-42.89534
 20
656.550232
 10
-42.746658
 20
656.591248
 10
-42.647213
 20
656.663513
  0
LINE
  5
97A
330
50
100
AcDbEntity
  8
0
 62
     7
 48
0.025
370
    13
390
F
100
AcDbLine
 10
-53.59053
 20
653.114319
 30
0.0
 11
-53.59053
 21
652.114319
 31
0.0
  0
LINE
  5
97B
330
50
100
AcDbEntity
  8
0
 62
     7
 48
0.025
370
    13
390
F
100
AcDbLine
 10
-43.59053
 20
652.114319
 30
0.0
 11
-43.59053
 21
653.114319
 31
0.0
  0
ARC
  5
97C
330
50
100
AcDbEntity
  8
0
 62
     7
370
    35
390
F
100
AcDbCircle
 10
-48.59053
 20
571.107239
 30
0.0
 40
100.0
100
AcDbArc
 50
82.819247
 51
97.180758
  0
LINE
  5
97D
330
50
100
AcDbEntity
  8
0
 62
     7
 48
0.2875
370
    35
390
F
100
AcDbLine
 10
-50.09053
 20
603.114319
 30
0.0
 11
-61.59053
 21
603.114319
 31
0.0
  0
LINE
  5
97E
330
50
100
AcDbEntity
  8
0
 62
     7
 48
0.2875
370
    13
390
F
100
AcDbLine
 10
-50.09053
 20
601.114319
 30
0.0
 11
-61.59053
 21
601.114319
 31
0.0
  0
LINE
  5
97F
330
50
100
AcDbEntity
  8
0
 62
     7
 48
0.2875
370
    13
390
F
100
AcDbLine
 10
-61.59053
 20
632.92041
 30
0.0
 11
-50.09053
 21
632.92041
 31
0.0
  0
LINE
  5
980
330
50
100
AcDbEntity
  8
0
 62
     7
 48
0.2875
370
    35
390
F
100
AcDbLine
 10
-50.09053
 20
611.114319
 30
0.0
 11
-61.59053
 21
611.114319
 31
0.0
  0
LINE
  5
981
330
50
100
AcDbEntity
  8
0
 62
     7
 48
0.2875
370
    13
390
F
100
AcDbLine
 10
-47.09053
 20
632.92041
 30
0.0
 11
-35.59053
 21
632.92041
 31
0.0
  0
LINE
  5
982
330
50
100
AcDbEntity
  8
0
 62
     7
 48
0.2875
370
    35
390
F
100
AcDbLine
 10
-35.59053
 20
611.114319
 30
0.0
 11
-47.09053
 21
611.114319
 31
0.0
  0
LINE
  5
983
330
50
100
AcDbEntity
  8
0
 62
     7
 48
0.2875
370
    35
390
F
100
AcDbLine
 10
-35.59053
 20
603.114319
 30
0.0
 11
-47.09053
 21
603.114319
 31
0.0
  0
LINE
  5
984
330
50
100
AcDbEntity
  8
0
 62
     7
 48
0.2875
370
    13
390
F
100
AcDbLine
 10
-35.59053
 20
601.114319
 30
0.0
 11
-47.09053
 21
601.114319
 31
0.0
  0
LINE
  5
985
330
50
100
AcDbEntity
  8
0
 62
     7
 48
0.3175
370
    35
390
F
100
AcDbLine
 10
-34.990532
 20
600.114319
 30
0.0
 11
-47.690529
 21
600.114319
 31
0.0
  0
LINE
  5
986
330
50
100
AcDbEntity
  8
0
 62
     7
 48
0.3175
370
    35
390
F
100
AcDbLine
 10
-49.490532
 20
600.114319
 30
0.0
 11
-62.190529
 21
600.114319
 31
0.0
  0
LINE
  5
987
330
50
100
AcDbEntity
  8
0
 62
     7
 48
0.2875
370
    35
390
F
100
AcDbLine
 10
-35.59053
 20
608.614319
 30
0.0
 11
-47.09053
 21
608.614319
 31
0.0
  0
LINE
  5
988
330
50
100
AcDbEntity
  8
0
 62
     7
 48
0.2875
370
    35
390
F
100
AcDbLine
 10
-50.09053
 20
608.614319
 30
0.0
 11
-61.59053
 21
608.614319
 31
0.0
  0
LINE
  5
989
330
50
100
AcDbEntity
  8
0
 62
     7
 48
0.0375
370
    35
390
F
100
AcDbLine
 10
-61.59053
 20
606.614319
 30
0.0
 11
-61.59053
 21
605.114319
 31
0.0
  0
LINE
  5
98A
330
50
100
AcDbEntity
  8
0
 62
     7
 48
0.0375
370
    35
390
F
100
AcDbLine
 10
-47.09053
 20
606.614319
 30
0.0
 11
-47.09053
 21
605.114319
 31
0.0
  0
ARC
  5
98B
330
50
100
AcDbEntity
  8
0
 62
     7
370
    35
390
F
100
AcDbCircle
 10
-60.59053
 20
666.354309
 30
0.0
 40
4.0
100
AcDbArc
 50
100.035954
 51
118.545719
  0
ARC
  5
98C
330
50
100
AcDbEntity
  8
0
 62
     7
370
    35
390
F
100
AcDbCircle
 10
-60.59053
 20
666.354309
 30
0.0
 40
4.0
100
AcDbArc
 50
138.650423
 51
180.000005
  0
ARC
  5
98D
330
50
100
AcDbEntity
  8
0
 62
     7
370
    35
390
F
100
AcDbCircle
 10
-36.59053
 20
666.354309
 30
0.0
 40
4.0
100
AcDbArc
 50
0.0
 51
82.819247
  0
LINE
  5
98E
330
50
100
AcDbEntity
  8
0
 62
     7
 48
0.025
370
    13
390
F
100
AcDbLine
 10
-53.59053
 20
653.114319
 30
0.0
 11
-54.59053
 21
653.114319
 31
0.0
  0
LINE
  5
98F
330
50
100
AcDbEntity
  8
0
 62
     7
 48
0.025
370
    13
390
F
100
AcDbLine
 10
-43.59053
 20
653.114319
 30
0.0
 11
-42.59053
 21
653.114319
 31
0.0
  0
LINE
  5
990
330
50
100
AcDbEntity
  8
0
 62
     7
 48
0.225
370
    35
390
F
100
AcDbLine
 10
-42.59053
 20
659.979919
 30
0.0
 11
-33.59053
 21
659.979919
 31
0.0
  0
LINE
  5
991
330
50
100
AcDbEntity
  8
0
 62
     7
 48
0.225
370
    35
390
F
100
AcDbLine
 10
-54.59053
 20
659.979919
 30
0.0
 11
-63.59053
 21
659.979919
 31
0.0
  0
ELLIPSE
  5
992
330
50
100
AcDbEntity
  8
0
 62
     7
370
    13
390
F
100
AcDbEllipse
 10
-63.990528
 20
640.145752
 30
0.0
 11
0.600000023841858
 21
1.049073433000000E-7
 31
0.0
210
0.0
220
0.0
230
1.0
 40
0.5099009999999999
 41
1.570796370506287
 42
3.141592741012573
  0
LINE
  5
993
330
50
100
AcDbEntity
  8
0
 62
     7
 48
0.015
370
    13
390
F
100
AcDbLine
 10
-63.990528
 20
628.723999
 30
0.0
 11
-64.59053
 21
628.723999
 31
0.0
  0
LWPOLYLINE
  5
994
330
50
100
AcDbEntity
  8
0
 62
     7
370
    13
390
F
100
AcDbPolyline
 90
        6
 70
     0
 43
0.0
 10
-61.09053
 20
670.322937
 10
-61.088009
 20
670.322327
 10
-61.085274
 20
670.319946
 10
-61.079182
 20
670.309937
 10
-61.056664
 20
670.23877
 10
-61.01553
 20
670.033569
  0
ELLIPSE
  5
99C
330
50
100
AcDbEntity
  8
0
 62
     7
370
    13
390
F
100
AcDbEllipse
 10
-63.990528
 20
666.354309
 30
0.0
 11
0.600000023841858
 21
1.049073433000000E-7
 31
0.0
210
0.0
220
0.0
230
1.0
 40
0.5099009999999999
 41
1.570796370506287
 42
3.141592741012573
  0
LWPOLYLINE
  5
99D
330
50
100
AcDbEntity
  8
0
 62
     7
370
    13
390
F
100
AcDbPolyline
 90
        6
 70
     0
 43
0.0
 10
-36.09053
 20
670.322937
 10
-36.093048
 20
670.322327
 10
-36.095787
 20
670.319946
 10
-36.101879
 20
670.309937
 10
-36.124393
 20
670.23877
 10
-36.165531
 20
670.033569
  0
ELLIPSE
  5
9A5
330
50
100
AcDbEntity
  8
0
 62
     7
370
    13
390
F
100
AcDbEllipse
 10
-33.190529
 20
666.354309
 30
0.0
 11
-0.6000000238418586
 21
-5.245367160000002E-8
 31
0.0
210
0.0
220
0.0
230
1.0
 40
0.5099009999999998
 41
3.141592741012573
 42
4.71238899230957
  0
ELLIPSE
  5
9A6
330
50
100
AcDbEntity
  8
0
 62
     7
370
    13
390
F
100
AcDbEllipse
 10
-33.190529
 20
640.145752
 30
0.0
 11
-0.6000000238418586
 21
-5.245367160000002E-8
 31
0.0
210
0.0
220
0.0
230
1.0
 40
0.5099009999999998
 41
3.141592741012573
 42
4.71238899230957
  0
LINE
  5
9A7
330
50
100
AcDbEntity
  8
0
 62
     7
 48
0.015
370
    13
390
F
100
AcDbLine
 10
-33.190529
 20
628.723999
 30
0.0
 11
-32.59053
 21
628.723999
 31
0.0
  0
LINE
  5
9A8
330
50
100
AcDbEntity
  8
0
 62
     7
 48
0.015
370
    13
390
F
100
AcDbLine
 10
-33.190529
 20
603.114319
 30
0.0
 11
-32.59053
 21
603.114319
 31
0.0
  0
ARC
  5
9A9
330
50
100
AcDbEntity
  8
0
 62
     7
370
    35
390
F
100
AcDbCircle
 10
-33.190529
 20
600.714294
 30
0.0
 40
0.6
100
AcDbArc
 50
270.000001
 51
0.00001
  0
ARC
  5
9AA
330
50
100
AcDbEntity
  8
0
 62
     7
370
    35
390
F
100
AcDbCircle
 10
-63.990532
 20
600.714294
 30
0.0
 40
0.6
100
AcDbArc
 50
180.000005
 51
270.000001
  0
LINE
  5
9AB
330
50
100
AcDbEntity
  8
0
 62
     7
 48
0.015
370
    13
390
F
100
AcDbLine
 10
-63.990532
 20
603.114319
 30
0.0
 11
-64.59053
 21
603.114319
 31
0.0
  0
ARC
  5
9AC
330
50
100
AcDbEntity
  8
0
 62
     7
370
    35
390
F
100
AcDbCircle
 10
-60.617718
 20
666.488403
 30
0.0
 40
3.863571
100
AcDbArc
 50
97.029169
 51
99.987972
  0
ARC
  5
9AD
330
50
100
AcDbEntity
  8
0
 62
     7
370
    35
390
F
100
AcDbCircle
 10
-60.59029
 20
666.352234
 30
0.0
 40
4.001725
100
AcDbArc
 50
118.559939
 51
138.661597
  0
LINE
  5
9AE
330
50
100
AcDbEntity
  8
0
 62
     7
370
    35
390
F
100
AcDbLine
 10
-284.592834
 20
247.614288
 30
0.0
 11
-160.819168
 21
247.614288
 31
0.0
  0
LINE
  5
9AF
330
50
100
AcDbEntity
  8
0
 62
     7
370
    35
390
F
100
AcDbLine
 10
-284.592834
 20
255.614288
 30
0.0
 11
-160.819168
 21
255.614288
 31
0.0
  0
LINE
  5
9B0
330
50
100
AcDbEntity
  8
0
 62
     7
370
    35
390
F
100
AcDbLine
 10
-160.819168
 20
247.614288
 30
0.0
 11
187.411774
 21
247.614288
 31
0.0
  0
LINE
  5
9B1
330
50
100
AcDbEntity
  8
0
 62
     7
370
    35
390
F
100
AcDbLine
 10
-160.819168
 20
255.614288
 30
0.0
 11
187.411774
 21
255.614288
 31
0.0
  0
LINE
  5
9B2
330
50
100
AcDbEntity
  8
0
 62
     7
370
    35
390
F
100
AcDbLine
 10
-120.598091
 20
553.614319
 30
0.0
 11
-82.193382
 21
553.614319
 31
0.0
  0
LINE
  5
9B3
330
50
100
AcDbEntity
  8
0
 62
     7
370
    35
390
F
100
AcDbLine
 10
-82.193382
 20
553.614319
 30
0.0
 11
23.417032
 21
553.614319
 31
0.0
  0
LINE
  5
9B4
330
50
100
AcDbEntity
  8
0
 62
     7
 48
0.2
370
    35
390
F
100
AcDbLine
 10
-284.592834
 20
255.614288
 30
0.0
 11
-284.592834
 21
247.614288
 31
0.0
  0
LINE
  5
9B5
330
50
100
AcDbEntity
  8
0
 62
     7
 48
0.2
370
    35
390
F
100
AcDbLine
 10
187.411774
 20
255.614288
 30
0.0
 11
187.411774
 21
247.614288
 31
0.0
  0
ARC
  5
9B6
330
50
100
AcDbEntity
  8
0
 62
     7
370
    35
390
F
100
AcDbCircle
 10
224.848938
 20
247.614243
 30
0.0
 40
500.00589
100
AcDbArc
 50
163.097241
 51
179.08323
  0
ARC
  5
9B7
330
50
100
AcDbEntity
  8
0
 62
     7
370
    35
390
F
100
AcDbCircle
 10
-322.029999
 20
247.614243
 30
0.0
 40
500.00589
100
AcDbArc
 50
0.916766
 51
16.902763
  0
ARC
  5
9B8
330
50
100
AcDbEntity
  8
0
 62
     7
370
    35
390
F
100
AcDbCircle
 10
4.785558
 20
314.485443
 30
0.0
 40
270.006714
100
AcDbArc
 50
117.669597
 51
163.097076
  0
ARC
  5
9B9
330
50
100
AcDbEntity
  8
0
 62
     7
370
    35
390
F
100
AcDbCircle
 10
-101.966621
 20
314.485443
 30
0.0
 40
270.006714
100
AcDbArc
 50
16.902918
 51
62.330401
  0
LINE
  5
9BA
330
50
100
AcDbEntity
  8
0
 62
     7
 48
0.324998
370
    35
390
F
100
AcDbLine
 10
-120.598091
 20
566.614258
 30
0.0
 11
-120.598091
 21
553.614319
 31
0.0
  0
LINE
  5
9BB
330
50
100
AcDbEntity
  8
0
 62
     7
 48
0.324998
370
    35
390
F
100
AcDbLine
 10
23.417032
 20
566.614258
 30
0.0
 11
23.417032
 21
553.614319
 31
0.0
  0
LINE
  5
9BC
330
50
100
AcDbEntity
  8
0
 62
     7
 48
0.2625
370
    35
390
F
100
AcDbLine
 10
-59.09053
 20
782.614319
 30
0.0
 11
-48.59053
 21
782.614319
 31
0.0
  0
LINE
  5
9BD
330
50
100
AcDbEntity
  8
0
 62
     7
 48
0.2625
370
    35
390
F
100
AcDbLine
 10
-48.59053
 20
782.614319
 30
0.0
 11
-38.09053
 21
782.614319
 31
0.0
  0
LINE
  5
9BE
330
50
100
AcDbEntity
  8
0
 62
     7
 48
0.185022
370
    35
390
F
100
AcDbLine
 10
-48.59053
 20
790.614319
 30
0.0
 11
-41.18964
 21
790.614319
 31
0.0
  0
LINE
  5
9BF
330
50
100
AcDbEntity
  8
0
 62
     7
 48
0.185022
370
    35
390
F
100
AcDbLine
 10
-55.991417
 20
790.614319
 30
0.0
 11
-48.59053
 21
790.614319
 31
0.0
  0
LINE
  5
9C0
330
50
100
AcDbEntity
  8
0
 62
     7
 48
0.246827
370
    13
390
F
100
AcDbLine
 10
-58.463612
 20
788.614319
 30
0.0
 11
-48.59053
 21
788.614319
 31
0.0
  0
ARC
  5
9C1
330
50
100
AcDbEntity
  8
0
 62
     7
370
    35
390
F
100
AcDbCircle
 10
-55.986576
 20
788.227173
 30
0.0
 40
2.387291
100
AcDbArc
 50
90.116157
 51
115.180964
  0
LWPOLYLINE
  5
9C2
330
50
100
AcDbEntity
  8
0
 62
     7
370
    35
390
F
100
AcDbPolyline
 90
        8
 70
     0
 43
0.0
 10
-57.002403
 20
790.387756
 10
-57.346687
 20
790.194153
 10
-57.656124
 20
789.954041
 10
-57.923836
 20
789.677979
 10
-58.145267
 20
789.375793
 10
-58.317036
 20
789.05603
 10
-58.436161
 20
788.725708
 10
-58.463612
 20
788.614319
  0
LINE
  5
9CC
330
50
100
AcDbEntity
  8
0
 62
     7
 48
0.246827
370
    13
390
F
100
AcDbLine
 10
-48.59053
 20
788.614319
 30
0.0
 11
-38.717445
 21
788.614319
 31
0.0
  0
LWPOLYLINE
  5
9CD
330
50
100
AcDbEntity
  8
0
 62
     7
370
    35
390
F
100
AcDbPolyline
 90
        8
 70
     0
 43
0.0
 10
-40.178654
 20
790.387756
 10
-39.841732
 20
790.199036
 10
-39.53516
 20
789.963196
 10
-39.266655
 20
789.689087
 10
-39.042377
 20
789.386169
 10
-38.867237
 20
789.063171
 10
-38.745449
 20
788.727722
 10
-38.717445
 20
788.614319
  0
ARC
  5
9D7
330
50
100
AcDbEntity
  8
0
 62
     7
370
    35
390
F
100
AcDbCircle
 10
-41.194511
 20
788.227844
 30
0.0
 40
2.386659
100
AcDbArc
 50
64.811672
 51
89.883063
  0
ARC
  5
9D8
330
50
100
AcDbEntity
  8
0
 62
     7
370
    35
390
F
100
AcDbCircle
 10
-68.677101
 20
790.831848
 30
0.0
 40
10.45145
100
AcDbArc
 50
336.526401
 51
347.750147
  0
ARC
  5
9D9
330
50
100
AcDbEntity
  8
0
 62
     7
370
    35
390
F
100
AcDbCircle
 10
-28.503946
 20
790.831848
 30
0.0
 40
10.451461
100
AcDbArc
 50
192.249857
 51
203.473593
  0
ARC
  5
9DA
330
50
100
AcDbEntity
  8
0
 62
     7
370
    35
390
F
100
AcDbCircle
 10
-48.59053
 20
801.864319
 30
0.0
 40
9.995511
100
AcDbArc
 50
1.793055
 51
181.793053
  0
ARC
  5
9DB
330
50
100
AcDbEntity
  8
0
 62
     7
370
    35
390
F
100
AcDbCircle
 10
-48.59053
 20
801.864319
 30
0.0
 40
18.470392
100
AcDbArc
 50
359.039249
 51
179.039243
  0
ARC
  5
9DC
330
50
100
AcDbEntity
  8
0
 62
     7
370
    35
390
F
100
AcDbCircle
 10
-48.59053
 20
801.864319
 30
0.0
 40
18.470392
100
AcDbArc
 50
179.039243
 51
235.355887
  0
ARC
  5
9DD
330
50
100
AcDbEntity
  8
0
 62
     7
370
    35
390
F
100
AcDbCircle
 10
-48.59053
 20
801.864319
 30
0.0
 40
9.995511
100
AcDbArc
 50
181.793056
 51
1.793055
  0
ARC
  5
9DE
330
50
100
AcDbEntity
  8
0
 62
     7
370
    35
390
F
100
AcDbCircle
 10
-48.59053
 20
801.864319
 30
0.0
 40
18.470392
100
AcDbArc
 50
304.644118
 51
359.039249
  0
LINE
  5
9DF
330
50
100
AcDbEntity
  8
0
 62
     7
 48
0.10136
370
    35
390
F
100
AcDbLine
 10
-59.09053
 20
786.668701
 30
0.0
 11
-59.09053
 21
782.614319
 31
0.0
  0
LINE
  5
9E0
330
50
100
AcDbEntity
  8
0
 62
     7
 48
0.10136
370
    35
390
F
100
AcDbLine
 10
-38.09053
 20
786.668701
 30
0.0
 11
-38.09053
 21
782.614319
 31
0.0
  0
ENDBLK
  5
E3D
330
50
100
AcDbEntity
  8
0
100
AcDbBlockEnd
  0
BLOCK
  5
E3E
330
C9F
100
AcDbEntity
  8
0
100
AcDbBlockBegin
  2
*D5
 70
     1
 10
0.0
 20
0.0
 30
0.0
  3
*D5
  1

  0
POINT
  5
C96
330
C9F
100
AcDbEntity
  8
DEFPOINTS
  6
ByBlock
 62
     0
380
     1
100
AcDbPoint
 10
60.99769200000003
 20
135.72149568698
 30
0.0
  0
POINT
  5
C97
330
C9F
100
AcDbEntity
  8
DEFPOINTS
  6
ByBlock
 62
     0
380
     1
100
AcDbPoint
 10
533.0023
 20
137.943473
 30
0.0
  0
LINE
  5
C98
330
C9F
100
AcDbEntity
  8
0
  6
ByBlock
 62
     0
370
    -2
380
     1
100
AcDbLine
 10
60.99769200000003
 20
135.09649568698
 30
0.0
 11
60.99769200000003
 21
118.7394265282891
 31
0.0
  0
LINE
  5
C99
330
C9F
100
AcDbEntity
  8
0
  6
ByBlock
 62
     0
370
    -2
380
     1
100
AcDbLine
 10
533.0023
 20
137.318473
 30
0.0
 11
533.0023
 21
118.7394265282891
 31
0.0
  0
LINE
  5
C9A
330
C9F
100
AcDbEntity
  8
0
  6
ByBlock
 62
     0
370
    -2
380
     1
100
AcDbLine
 10
63.49769200000003
 20
119.9894265282891
 30
0.0
 11
530.5023
 21
119.9894265282891
 31
0.0
  0
SOLID
  5
C9B
330
C9F
100
AcDbEntity
  8
0
  6
ByBlock
 62
     0
380
     1
100
AcDbTrace
 10
60.99769200000003
 20
119.9894265282891
 30
0.0
 11
63.49769200000003
 21
119.5727598616224
 31
0.0
 12
63.49769200000003
 22
120.4060931949558
 32
0.0
 13
63.49769200000003
 23
120.4060931949558
 33
0.0
  0
SOLID
  5
C9C
330
C9F
100
AcDbEntity
  8
0
  6
ByBlock
 62
     0
380
     1
100
AcDbTrace
 10
533.0023
 20
119.9894265282891
 30
0.0
 11
530.5023
 21
119.5727598616224
 31
0.0
 12
530.5023
 22
120.4060931949558
 32
0.0
 13
530.5023
 23
120.4060931949558
 33
0.0
  0
MTEXT
  5
C9D
330
C9F
100
AcDbEntity
  8
0
  6
ByBlock
 62
     0
370
    -2
380
     1
100
AcDbMText
 10
296.999996
 20
121.7394265282891
 30
0.0
 40
2.5
 41
0.0
 71
     5
 72
     1
  1
\A1;472
 73
     1
 44
1.0
  0
ENDBLK
  5
E3F
330
C9F
100
AcDbEntity
  8
0
100
AcDbBlockEnd
  0
BLOCK
  5
E40
330
CAA
100
AcDbEntity
  8
0
100
AcDbBlockBegin
  2
*D6
 70
     1
 10
0.0
 20
0.0
 30
0.0
  3
*D6
  1

  0
POINT
  5
CA1
330
CAA
100
AcDbEntity
  8
DEFPOINTS
  6
ByBlock
 62
     0
380
     1
100
AcDbPoint
 10
60.99769200000003
 20
135.72149568698
 30
0.0
  0
POINT
  5
CA2
330
CAA
100
AcDbEntity
  8
DEFPOINTS
  6
ByBlock
 62
     0
380
     1
100
AcDbPoint
 10
533.0023
 20
137.943473
 30
0.0
  0
LINE
  5
CA3
330
CAA
100
AcDbEntity
  8
0
  6
ByBlock
 62
     0
370
    -2
380
     1
100
AcDbLine
 10
60.99769200000003
 20
135.09649568698
 30
0.0
 11
60.99769200000003
 21
33.04727306101971
 31
0.0
  0
LINE
  5
CA4
330
CAA
100
AcDbEntity
  8
0
  6
ByBlock
 62
     0
370
    -2
380
     1
100
AcDbLine
 10
533.0023
 20
137.318473
 30
0.0
 11
533.0023
 21
33.04727306101971
 31
0.0
  0
LINE
  5
CA5
330
CAA
100
AcDbEntity
  8
0
  6
ByBlock
 62
     0
370
    -2
380
     1
100
AcDbLine
 10
63.49769200000003
 20
34.29727306101971
 30
0.0
 11
530.5023
 21
34.29727306101971
 31
0.0
  0
SOLID
  5
CA6
330
CAA
100
AcDbEntity
  8
0
  6
ByBlock
 62
     0
380
     1
100
AcDbTrace
 10
60.99769200000003
 20
34.29727306101971
 30
0.0
 11
63.49769200000003
 21
33.88060639435304
 31
0.0
 12
63.49769200000003
 22
34.71393972768638
 32
0.0
 13
63.49769200000003
 23
34.71393972768638
 33
0.0
  0
SOLID
  5
CA7
330
CAA
100
AcDbEntity
  8
0
  6
ByBlock
 62
     0
380
     1
100
AcDbTrace
 10
533.0023
 20
34.29727306101971
 30
0.0
 11
530.5023
 21
33.88060639435304
 31
0.0
 12
530.5023
 22
34.71393972768638
 32
0.0
 13
530.5023
 23
34.71393972768638
 33
0.0
  0
MTEXT
  5
CA8
330
CAA
100
AcDbEntity
  8
0
  6
ByBlock
 62
     0
370
    -2
380
     1
100
AcDbMText
 10
296.999996
 20
36.04727306101971
 30
0.0
 40
2.5
 41
0.0
 71
     5
 72
     1
  1
\A1;472
 73
     1
 44
1.0
  0
ENDBLK
  5
E41
330
CAA
100
AcDbEntity
  8
0
100
AcDbBlockEnd
  0
BLOCK
  5
E42
330
CB5
100
AcDbEntity
  8
0
100
AcDbBlockBegin
  2
*D7
 70
     1
 10
0.0
 20
0.0
 30
0.0
  3
*D7
  1

  0
POINT
  5
CAC
330
CB5
100
AcDbEntity
  8
DEFPOINTS
  6
ByBlock
 62
     7
380
     1
100
AcDbPoint
 10
60.99769200000003
 20
135.72149568698
 30
0.0
  0
POINT
  5
CAD
330
CB5
100
AcDbEntity
  8
DEFPOINTS
  6
ByBlock
 62
     7
380
     1
100
AcDbPoint
 10
533.0023
 20
137.943473
 30
0.0
  0
LINE
  5
CAE
330
CB5
100
AcDbEntity
  8
0
  6
ByBlock
 62
     7
370
    -2
380
     1
100
AcDbLine
 10
60.99769200000003
 20
135.09649568698
 30
0.0
 11
60.99769200000003
 21
33.04727306101971
 31
0.0
  0
LINE
  5
CAF
330
CB5
100
AcDbEntity
  8
0
  6
ByBlock
 62
     7
370
    -2
380
     1
100
AcDbLine
 10
533.0023
 20
137.318473
 30
0.0
 11
533.0023
 21
33.04727306101971
 31
0.0
  0
LINE
  5
CB0
330
CB5
100
AcDbEntity
  8
0
  6
ByBlock
 62
     7
370
    -2
380
     1
100
AcDbLine
 10
70.99769200000003
 20
34.29727306101971
 30
0.0
 11
523.0023
 21
34.29727306101971
 31
0.0
  0
SOLID
  5
CB1
330
CB5
100
AcDbEntity
  8
0
  6
ByBlock
 62
     7
380
     1
100
AcDbTrace
 10
60.99769200000003
 20
34.29727306101971
 30
0.0
 11
70.99769200000003
 21
32.63060639435304
 31
0.0
 12
70.99769200000003
 22
35.96393972768638
 32
0.0
 13
70.99769200000003
 23
35.96393972768638
 33
0.0
  0
SOLID
  5
CB2
330
CB5
100
AcDbEntity
  8
0
  6
ByBlock
 62
     7
380
     1
100
AcDbTrace
 10
533.0023
 20
34.29727306101971
 30
0.0
 11
523.0023
 21
32.63060639435304
 31
0.0
 12
523.0023
 22
35.96393972768638
 32
0.0
 13
523.0023
 23
35.96393972768638
 33
0.0
  0
MTEXT
  5
CB3
330
CB5
100
AcDbEntity
  8
0
  6
ByBlock
 62
     0
370
    -2
380
     1
100
AcDbMText
 10
296.999996
 20
45.59727306101971
 30
0.0
 40
14.0
 41
0.0
 71
     5
 72
     1
  1
\A1;472
 73
     1
 44
1.0
  0
ENDBLK
  5
E43
330
CB5
100
AcDbEntity
  8
0
100
AcDbBlockEnd
  0
BLOCK
  5
E44
330
CC0
100
AcDbEntity
  8
0
100
AcDbBlockBegin
  2
*D8
 70
     1
 10
0.0
 20
0.0
 30
0.0
  3
*D8
  1

  0
POINT
  5
CB7
330
CC0
100
AcDbEntity
  8
DEFPOINTS
  6
ByBlock
 62
     7
380
     1
100
AcDbPoint
 10
60.99769200000003
 20
135.72149568698
 30
0.0
  0
POINT
  5
CB8
330
CC0
100
AcDbEntity
  8
DEFPOINTS
  6
ByBlock
 62
     7
380
     1
100
AcDbPoint
 10
533.0023
 20
137.943473
 30
0.0
  0
LINE
  5
CB9
330
CC0
100
AcDbEntity
  8
0
  6
ByBlock
 62
     7
370
    -2
380
     1
100
AcDbLine
 10
60.99769200000003
 20
135.09649568698
 30
0.0
 11
60.99769200000003
 21
95.63755325021249
 31
0.0
  0
LINE
  5
CBA
330
CC0
100
AcDbEntity
  8
0
  6
ByBlock
 62
     7
370
    -2
380
     1
100
AcDbLine
 10
533.0023
 20
137.318473
 30
0.0
 11
533.0023
 21
95.63755325021249
 31
0.0
  0
LINE
  5
CBB
330
CC0
100
AcDbEntity
  8
0
  6
ByBlock
 62
     7
370
    -2
380
     1
100
AcDbLine
 10
70.99769200000003
 20
96.88755325021249
 30
0.0
 11
523.0023
 21
96.88755325021249
 31
0.0
  0
SOLID
  5
CBC
330
CC0
100
AcDbEntity
  8
0
  6
ByBlock
 62
     7
380
     1
100
AcDbTrace
 10
60.99769200000003
 20
96.88755325021249
 30
0.0
 11
70.99769200000003
 21
95.22088658354582
 31
0.0
 12
70.99769200000003
 22
98.55421991687916
 32
0.0
 13
70.99769200000003
 23
98.55421991687916
 33
0.0
  0
SOLID
  5
CBD
330
CC0
100
AcDbEntity
  8
0
  6
ByBlock
 62
     7
380
     1
100
AcDbTrace
 10
533.0023
 20
96.88755325021249
 30
0.0
 11
523.0023
 21
95.22088658354582
 31
0.0
 12
523.0023
 22
98.55421991687916
 32
0.0
 13
523.0023
 23
98.55421991687916
 33
0.0
  0
MTEXT
  5
CBE
330
CC0
100
AcDbEntity
  8
0
  6
ByBlock
 62
     0
370
    -2
380
     1
100
AcDbMText
 10
296.999996
 20
108.1875532502125
 30
0.0
 40
14.0
 41
0.0
 71
     5
 72
     1
  1
\A1;472
 73
     1
 44
1.0
  0
ENDBLK
  5
E45
330
CC0
100
AcDbEntity
  8
0
100
AcDbBlockEnd
  0
BLOCK
  5
E46
330
CCE
100
AcDbEntity
  8
0
100
AcDbBlockBegin
  2
*D9
 70
     1
 10
0.0
 20
0.0
 30
0.0
  3
*D9
  1

  0
POINT
  5
CC3
330
CCE
100
AcDbEntity
  8
DEFPOINTS
  6
ByBlock
 62
     0
380
     1
100
AcDbPoint
 10
297.3096989406837
 20
706.6612993400561
 30
0.0
  0
POINT
  5
CC4
330
CCE
100
AcDbEntity
  8
DEFPOINTS
  6
ByBlock
 62
     0
380
     1
100
AcDbPoint
 10
297.3096989406837
 20
133.943473
 30
0.0
  0
LINE
  5
CC5
330
CCE
100
AcDbEntity
  8
0
  6
ByBlock
 62
     0
370
    -2
380
     1
100
AcDbLine
 10
297.3096989406837
 20
706.0362993400561
 30
0.0
 11
297.3096989406837
 21
132.693428
 31
0.0
  0
LINE
  5
CC6
330
CCE
100
AcDbEntity
  8
0
  6
ByBlock
 62
     0
370
    -2
380
     1
100
AcDbLine
 10
297.3096989406837
 20
133.318473
 30
0.0
 11
297.3096989406837
 21
132.693428
 31
0.0
  0
LINE
  5
CC7
330
CCE
100
AcDbEntity
  8
0
  6
ByBlock
 62
     0
370
    -2
380
     1
100
AcDbLine
 10
294.8096989406837
 20
133.943428
 30
0.0
 11
292.3096989406837
 21
133.943428
 31
0.0
  0
LINE
  5
CC8
330
CCE
100
AcDbEntity
  8
0
  6
ByBlock
 62
     0
370
    -2
380
     1
100
AcDbLine
 10
299.8096989406837
 20
133.943428
 30
0.0
 11
304.0596989406837
 21
133.943428
 31
0.0
  0
SOLID
  5
CC9
330
CCE
100
AcDbEntity
  8
0
  6
ByBlock
 62
     0
380
     1
100
AcDbTrace
 10
297.3096989406837
 20
133.943428
 30
0.0
 11
294.8096989406837
 21
133.5267613333334
 31
0.0
 12
294.8096989406837
 22
134.3600946666667
 32
0.0
 13
294.8096989406837
 23
134.3600946666667
 33
0.0
  0
SOLID
  5
CCA
330
CCE
100
AcDbEntity
  8
0
  6
ByBlock
 62
     0
380
     1
100
AcDbTrace
 10
297.3096989406837
 20
133.943428
 30
0.0
 11
299.8096989406837
 21
133.5267613333334
 31
0.0
 12
299.8096989406837
 22
134.3600946666667
 32
0.0
 13
299.8096989406837
 23
134.3600946666667
 33
0.0
  0
LINE
  5
CCB
330
CCE
100
AcDbEntity
  8
0
  6
ByBlock
 62
     0
370
    -2
380
     1
100
AcDbLine
 10
297.3096989406837
 20
133.943428
 30
0.0
 11
297.3096989406837
 21
133.943428
 31
0.0
  0
MTEXT
  5
CCC
330
CCE
100
AcDbEntity
  8
0
  6
ByBlock
 62
     0
370
    -2
380
     1
100
AcDbMText
 10
303.1846989406837
 20
135.6944122519685
 30
0.0
 40
2.5
 41
0.0
 71
     5
 72
     1
  1
\A1;0
 73
     1
 44
1.0
  0
ENDBLK
  5
E47
330
CCE
100
AcDbEntity
  8
0
100
AcDbBlockEnd
  0
BLOCK
  5
E48
330
CD9
100
AcDbEntity
  8
0
100
AcDbBlockBegin
  2
*D10
 70
     1
 10
0.0
 20
0.0
 30
0.0
  3
*D10
  1

  0
POINT
  5
CD0
330
CD9
100
AcDbEntity
  8
DEFPOINTS
  6
ByBlock
 62
     0
380
     1
100
AcDbPoint
 10
-16.64424109124289
 20
667.4702680796485
 30
0.0
  0
POINT
  5
CD1
330
CD9
100
AcDbEntity
  8
DEFPOINTS
  6
ByBlock
 62
     0
380
     1
100
AcDbPoint
 10
297.3096989406837
 20
133.943473
 30
0.0
  0
LINE
  5
CD2
330
CD9
100
AcDbEntity
  8
0
  6
ByBlock
 62
     0
370
    -2
380
     1
100
AcDbLine
 10
-16.64424109124289
 20
666.8452680796485
 30
0.0
 11
-16.64424109124289
 21
132.693428
 31
0.0
  0
LINE
  5
CD3
330
CD9
100
AcDbEntity
  8
0
  6
ByBlock
 62
     0
370
    -2
380
     1
100
AcDbLine
 10
297.3096989406837
 20
133.3184729999999
 30
0.0
 11
297.3096989406837
 21
132.693428
 31
0.0
  0
LINE
  5
CD4
330
CD9
100
AcDbEntity
  8
0
  6
ByBlock
 62
     0
370
    -2
380
     1
100
AcDbLine
 10
-14.14424109124289
 20
133.943428
 30
0.0
 11
294.8096989406837
 21
133.943428
 31
0.0
  0
SOLID
  5
CD5
330
CD9
100
AcDbEntity
  8
0
  6
ByBlock
 62
     0
380
     1
100
AcDbTrace
 10
-16.64424109124289
 20
133.943428
 30
0.0
 11
-14.14424109124289
 21
133.5267613333334
 31
0.0
 12
-14.14424109124289
 22
134.3600946666667
 32
0.0
 13
-14.14424109124289
 23
134.3600946666667
 33
0.0
  0
SOLID
  5
CD6
330
CD9
100
AcDbEntity
  8
0
  6
ByBlock
 62
     0
380
     1
100
AcDbTrace
 10
297.3096989406837
 20
133.943428
 30
0.0
 11
294.8096989406837
 21
133.5267613333334
 31
0.0
 12
294.8096989406837
 22
134.3600946666667
 32
0.0
 13
294.8096989406837
 23
134.3600946666667
 33
0.0
  0
MTEXT
  5
CD7
330
CD9
100
AcDbEntity
  8
0
  6
ByBlock
 62
     0
370
    -2
380
     1
100
AcDbMText
 10
140.3327289247204
 20
135.9440321987746
 30
0.0
 40
2.5
 41
0.0
 71
     5
 72
     1
  1
\A1;313,95
 73
     1
 44
1.0
  0
ENDBLK
  5
E49
330
CD9
100
AcDbEntity
  8
0
100
AcDbBlockEnd
  0
BLOCK
  5
E4A
330
CE5
100
AcDbEntity
  8
0
100
AcDbBlockBegin
  2
*D11
 70
     1
 10
0.0
 20
0.0
 30
0.0
  3
*D11
  1

  0
POINT
  5
CDC
330
CE5
100
AcDbEntity
  8
DEFPOINTS
  6
ByBlock
 62
     0
380
     1
100
AcDbPoint
 10
297.3096989406837
 20
706.6612993400561
 30
0.0
  0
POINT
  5
CDD
330
CE5
100
AcDbEntity
  8
DEFPOINTS
  6
ByBlock
 62
     0
380
     1
100
AcDbPoint
 10
297.3096989406837
 20
133.943473
 30
0.0
  0
LINE
  5
CDE
330
CE5
100
AcDbEntity
  8
0
  6
ByBlock
 62
     0
370
    -2
380
     1
100
AcDbLine
 10
296.6846989406837
 20
706.6612993400561
 30
0.0
 11
8.437497868194384
 21
706.6612993400561
 31
0.0
  0
LINE
  5
CDF
330
CE5
100
AcDbEntity
  8
0
  6
ByBlock
 62
     0
370
    -2
380
     1
100
AcDbLine
 10
296.6846989406837
 20
133.943473
 30
0.0
 11
8.437497868194384
 21
133.943473
 31
0.0
  0
LINE
  5
CE0
330
CE5
100
AcDbEntity
  8
0
  6
ByBlock
 62
     0
370
    -2
380
     1
100
AcDbLine
 10
9.687497868194384
 20
704.1612993400561
 30
0.0
 11
9.687497868194384
 21
136.443473
 31
0.0
  0
SOLID
  5
CE1
330
CE5
100
AcDbEntity
  8
0
  6
ByBlock
 62
     0
380
     1
100
AcDbTrace
 10
9.687497868194384
 20
706.6612993400561
 30
0.0
 11
9.270831201527699
 21
704.1612993400561
 31
0.0
 12
10.10416453486107
 22
704.1612993400561
 32
0.0
 13
10.10416453486107
 23
704.1612993400561
 33
0.0
  0
SOLID
  5
CE2
330
CE5
100
AcDbEntity
  8
0
  6
ByBlock
 62
     0
380
     1
100
AcDbTrace
 10
9.687497868194384
 20
133.943473
 30
0.0
 11
9.270831201527699
 21
136.443473
 31
0.0
 12
10.10416453486107
 22
136.443473
 32
0.0
 13
10.10416453486107
 23
136.443473
 33
0.0
  0
MTEXT
  5
CE3
330
CE5
100
AcDbEntity
  8
0
  6
ByBlock
 62
     0
370
    -2
380
     1
100
AcDbMText
 10
7.687497868194384
 20
420.3023861700281
 30
0.0
 40
2.5
 41
0.0
 71
     5
 72
     1
  1
\A1;572,72
 11
6.123031769111886E-17
 21
1.0
 31
0.0
 73
     1
 44
1.0
  0
ENDBLK
  5
E4B
330
CE5
100
AcDbEntity
  8
0
100
AcDbBlockEnd
  0
BLOCK
  5
E4C
330
CF0
100
AcDbEntity
  8
0
100
AcDbBlockBegin
  2
*D12
 70
     1
 10
0.0
 20
0.0
 30
0.0
  3
*D12
  1

  0
POINT
  5
CE7
330
CF0
100
AcDbEntity
  8
DEFPOINTS
  6
ByBlock
 62
     7
380
     1
100
AcDbPoint
 10
297.3096989406837
 20
706.6612993400561
 30
0.0
  0
POINT
  5
CE8
330
CF0
100
AcDbEntity
  8
DEFPOINTS
  6
ByBlock
 62
     7
380
     1
100
AcDbPoint
 10
297.3096989406837
 20
133.943473
 30
0.0
  0
LINE
  5
CE9
330
CF0
100
AcDbEntity
  8
0
  6
ByBlock
 62
     7
370
    -2
380
     1
100
AcDbLine
 10
296.6846989406837
 20
706.6612993400561
 30
0.0
 11
8.437497868194384
 21
706.6612993400561
 31
0.0
  0
LINE
  5
CEA
330
CF0
100
AcDbEntity
  8
0
  6
ByBlock
 62
     7
370
    -2
380
     1
100
AcDbLine
 10
296.6846989406837
 20
133.943473
 30
0.0
 11
8.437497868194384
 21
133.943473
 31
0.0
  0
LINE
  5
CEB
330
CF0
100
AcDbEntity
  8
0
  6
ByBlock
 62
     7
370
    -2
380
     1
100
AcDbLine
 10
9.687497868194384
 20
696.6612993400561
 30
0.0
 11
9.687497868194384
 21
143.943473
 31
0.0
  0
SOLID
  5
CEC
330
CF0
100
AcDbEntity
  8
0
  6
ByBlock
 62
     7
380
     1
100
AcDbTrace
 10
9.687497868194384
 20
706.6612993400561
 30
0.0
 11
8.020831201527699
 21
696.6612993400561
 31
0.0
 12
11.35416453486107
 22
696.6612993400561
 32
0.0
 13
11.35416453486107
 23
696.6612993400561
 33
0.0
  0
SOLID
  5
CED
330
CF0
100
AcDbEntity
  8
0
  6
ByBlock
 62
     7
380
     1
100
AcDbTrace
 10
9.687497868194384
 20
133.943473
 30
0.0
 11
8.020831201527699
 21
143.943473
 31
0.0
 12
11.35416453486107
 22
143.943473
 32
0.0
 13
11.35416453486107
 23
143.943473
 33
0.0
  0
MTEXT
  5
CEE
330
CF0
100
AcDbEntity
  8
0
  6
ByBlock
 62
     0
370
    -2
380
     1
100
AcDbMText
 10
-3.012502131805604
 20
420.3023861700281
 30
0.0
 40
14.0
 41
0.0
 71
     5
 72
     1
  1
\A1;572,72
 11
6.123031769111886E-17
 21
1.0
 31
0.0
 73
     1
 44
1.0
  0
ENDBLK
  5
E4D
330
CF0
100
AcDbEntity
  8
0
100
AcDbBlockEnd
  0
BLOCK
  5
E4E
330
CFB
100
AcDbEntity
  8
0
100
AcDbBlockBegin
  2
*D13
 70
     1
 10
0.0
 20
0.0
 30
0.0
  3
*D13
  1

  0
POINT
  5
CF2
330
CFB
100
AcDbEntity
  8
DEFPOINTS
  6
ByBlock
 62
     7
380
     1
100
AcDbPoint
 10
297.3096989406837
 20
706.6612993400561
 30
0.0
  0
POINT
  5
CF3
330
CFB
100
AcDbEntity
  8
DEFPOINTS
  6
ByBlock
 62
     7
380
     1
100
AcDbPoint
 10
297.3096989406837
 20
133.943473
 30
0.0
  0
LINE
  5
CF4
330
CFB
100
AcDbEntity
  8
0
  6
ByBlock
 62
     7
370
    -2
380
     1
100
AcDbLine
 10
296.6846989406837
 20
706.6612993400561
 30
0.0
 11
8.437497868194384
 21
706.6612993400561
 31
0.0
  0
LINE
  5
CF5
330
CFB
100
AcDbEntity
  8
0
  6
ByBlock
 62
     7
370
    -2
380
     1
100
AcDbLine
 10
296.6846989406837
 20
133.943473
 30
0.0
 11
8.437497868194384
 21
133.943473
 31
0.0
  0
LINE
  5
CF6
330
CFB
100
AcDbEntity
  8
0
  6
ByBlock
 62
     7
370
    -2
380
     1
100
AcDbLine
 10
9.687497868194384
 20
696.6612993400561
 30
0.0
 11
9.687497868194384
 21
143.943473
 31
0.0
  0
SOLID
  5
CF7
330
CFB
100
AcDbEntity
  8
0
  6
ByBlock
 62
     7
380
     1
100
AcDbTrace
 10
9.687497868194384
 20
706.6612993400561
 30
0.0
 11
8.020831201527699
 21
696.6612993400561
 31
0.0
 12
11.35416453486107
 22
696.6612993400561
 32
0.0
 13
11.35416453486107
 23
696.6612993400561
 33
0.0
  0
SOLID
  5
CF8
330
CFB
100
AcDbEntity
  8
0
  6
ByBlock
 62
     7
380
     1
100
AcDbTrace
 10
9.687497868194384
 20
133.943473
 30
0.0
 11
8.020831201527699
 21
143.943473
 31
0.0
 12
11.35416453486107
 22
143.943473
 32
0.0
 13
11.35416453486107
 23
143.943473
 33
0.0
  0
MTEXT
  5
CF9
330
CFB
100
AcDbEntity
  8
0
  6
ByBlock
 62
     0
370
    -2
380
     1
100
AcDbMText
 10
-1.612502131805627
 20
420.3023861700281
 30
0.0
 40
14.0
 41
0.0
 71
     5
 72
     1
  1
\A1;573
 11
6.123031769111886E-17
 21
1.0
 31
0.0
 73
     1
 44
1.0
  0
ENDBLK
  5
E4F
330
CFB
100
AcDbEntity
  8
0
100
AcDbBlockEnd
  0
BLOCK
  5
E50
330
D81
100
AcDbEntity
  8
0
100
AcDbBlockBegin
  2
*D14
 70
     1
 10
0.0
 20
0.0
 30
0.0
  3
*D14
  1

  0
POINT
  5
D78
330
D81
100
AcDbEntity
  8
DEFPOINTS
  6
ByBlock
 62
     7
380
     1
100
AcDbPoint
 10
297.3096989406837
 20
706.6612993400561
 30
0.0
  0
POINT
  5
D79
330
D81
100
AcDbEntity
  8
DEFPOINTS
  6
ByBlock
 62
     7
380
     1
100
AcDbPoint
 10
297.3096989406837
 20
133.943473
 30
0.0
  0
LINE
  5
D7A
330
D81
100
AcDbEntity
  8
0
  6
ByBlock
 62
     7
370
    -2
380
     1
100
AcDbLine
 10
296.6846989406837
 20
706.6612993400561
 30
0.0
 11
8.437497868194384
 21
706.6612993400561
 31
0.0
  0
LINE
  5
D7B
330
D81
100
AcDbEntity
  8
0
  6
ByBlock
 62
     7
370
    -2
380
     1
100
AcDbLine
 10
296.6846989406837
 20
133.943473
 30
0.0
 11
8.437497868194384
 21
133.943473
 31
0.0
  0
LINE
  5
D7C
330
D81
100
AcDbEntity
  8
0
  6
ByBlock
 62
     7
370
    -2
380
     1
100
AcDbLine
 10
9.687497868194384
 20
696.6612993400561
 30
0.0
 11
9.687497868194384
 21
143.943473
 31
0.0
  0
SOLID
  5
D7D
330
D81
100
AcDbEntity
  8
0
  6
ByBlock
 62
     7
380
     1
100
AcDbTrace
 10
9.687497868194384
 20
706.6612993400561
 30
0.0
 11
8.020831201527699
 21
696.6612993400561
 31
0.0
 12
11.35416453486107
 22
696.6612993400561
 32
0.0
 13
11.35416453486107
 23
696.6612993400561
 33
0.0
  0
SOLID
  5
D7E
330
D81
100
AcDbEntity
  8
0
  6
ByBlock
 62
     7
380
     1
100
AcDbTrace
 10
9.687497868194384
 20
133.943473
 30
0.0
 11
8.020831201527699
 21
143.943473
 31
0.0
 12
11.35416453486107
 22
143.943473
 32
0.0
 13
11.35416453486107
 23
143.943473
 33
0.0
  0
MTEXT
  5
D7F
330
D81
100
AcDbEntity
  8
0
  6
ByBlock
 62
     0
370
    -2
380
     1
100
AcDbMText
 10
-1.612502131805627
 20
420.3023861700281
 30
0.0
 40
14.0
 41
0.0
 71
     5
 72
     1
  1
\A1;573
 11
6.123031769111886E-17
 21
1.0
 31
0.0
 73
     1
 44
1.0
  0
ENDBLK
  5
E51
330
D81
100
AcDbEntity
  8
0
100
AcDbBlockEnd
  0
BLOCK
  5
E52
330
DBB
100
AcDbEntity
  8
0
100
AcDbBlockBegin
  2
*D15
 70
     1
 10
0.0
 20
0.0
 30
0.0
  3
*D15
  1

  0
POINT
  5
DB2
330
DBB
100
AcDbEntity
  8
DEFPOINTS
  6
ByBlock
 62
     7
380
     1
100
AcDbPoint
 10
297.3096989406837
 20
706.6612993400561
 30
0.0
  0
POINT
  5
DB3
330
DBB
100
AcDbEntity
  8
DEFPOINTS
  6
ByBlock
 62
     7
380
     1
100
AcDbPoint
 10
297.3096989406837
 20
133.943473
 30
0.0
  0
LINE
  5
DB4
330
DBB
100
AcDbEntity
  8
0
  6
ByBlock
 62
     7
370
    -2
380
     1
100
AcDbLine
 10
296.6846989406837
 20
706.6612993400561
 30
0.0
 11
8.437497868194384
 21
706.6612993400561
 31
0.0
  0
LINE
  5
DB5
330
DBB
100
AcDbEntity
  8
0
  6
ByBlock
 62
     7
370
    -2
380
     1
100
AcDbLine
 10
296.6846989406837
 20
133.943473
 30
0.0
 11
8.437497868194384
 21
133.943473
 31
0.0
  0
LINE
  5
DB6
330
DBB
100
AcDbEntity
  8
0
  6
ByBlock
 62
     7
370
    -2
380
     1
100
AcDbLine
 10
9.687497868194384
 20
696.6612993400561
 30
0.0
 11
9.687497868194384
 21
143.943473
 31
0.0
  0
SOLID
  5
DB7
330
DBB
100
AcDbEntity
  8
0
  6
ByBlock
 62
     7
380
     1
100
AcDbTrace
 10
9.687497868194384
 20
706.6612993400561
 30
0.0
 11
8.020831201527699
 21
696.6612993400561
 31
0.0
 12
11.35416453486107
 22
696.6612993400561
 32
0.0
 13
11.35416453486107
 23
696.6612993400561
 33
0.0
  0
SOLID
  5
DB8
330
DBB
100
AcDbEntity
  8
0
  6
ByBlock
 62
     7
380
     1
100
AcDbTrace
 10
9.687497868194384
 20
133.943473
 30
0.0
 11
8.020831201527699
 21
143.943473
 31
0.0
 12
11.35416453486107
 22
143.943473
 32
0.0
 13
11.35416453486107
 23
143.943473
 33
0.0
  0
MTEXT
  5
DB9
330
DBB
100
AcDbEntity
  8
0
  6
ByBlock
 62
     0
370
    -2
380
     1
100
AcDbMText
 10
-1.612502131805627
 20
420.3023861700281
 30
0.0
 40
14.0
 41
0.0
 71
     5
 72
     1
  1
\A1;573
 11
6.123031769111886E-17
 21
1.0
 31
0.0
 73
     1
 44
1.0
  0
ENDBLK
  5
E53
330
DBB
100
AcDbEntity
  8
0
100
AcDbBlockEnd
  0
BLOCK
  5
E54
330
E28
100
AcDbEntity
  8
0
100
AcDbBlockBegin
  2
*D16
 70
     1
 10
0.0
 20
0.0
 30
0.0
  3
*D16
  1

  0
POINT
  5
E1F
330
E28
100
AcDbEntity
  8
DEFPOINTS
  6
ByBlock
 62
     7
380
     1
100
AcDbPoint
 10
297.3096989406837
 20
706.6612993400561
 30
0.0
  0
POINT
  5
E20
330
E28
100
AcDbEntity
  8
DEFPOINTS
  6
ByBlock
 62
     7
380
     1
100
AcDbPoint
 10
297.3096989406837
 20
133.943473
 30
0.0
  0
LINE
  5
E21
330
E28
100
AcDbEntity
  8
0
  6
ByBlock
 62
     7
370
    -2
380
     1
100
AcDbLine
 10
296.6846989406837
 20
706.6612993400561
 30
0.0
 11
8.437497868194384
 21
706.6612993400561
 31
0.0
  0
LINE
  5
E22
330
E28
100
AcDbEntity
  8
0
  6
ByBlock
 62
     7
370
    -2
380
     1
100
AcDbLine
 10
296.6846989406837
 20
133.943473
 30
0.0
 11
8.437497868194384
 21
133.943473
 31
0.0
  0
LINE
  5
E23
330
E28
100
AcDbEntity
  8
0
  6
ByBlock
 62
     7
370
    -2
380
     1
100
AcDbLine
 10
9.687497868194384
 20
696.6612993400561
 30
0.0
 11
9.687497868194384
 21
143.943473
 31
0.0
  0
SOLID
  5
E24
330
E28
100
AcDbEntity
  8
0
  6
ByBlock
 62
     7
380
     1
100
AcDbTrace
 10
9.687497868194384
 20
706.6612993400561
 30
0.0
 11
8.020831201527699
 21
696.6612993400561
 31
0.0
 12
11.35416453486107
 22
696.6612993400561
 32
0.0
 13
11.35416453486107
 23
696.6612993400561
 33
0.0
  0
SOLID
  5
E25
330
E28
100
AcDbEntity
  8
0
  6
ByBlock
 62
     7
380
     1
100
AcDbTrace
 10
9.687497868194384
 20
133.943473
 30
0.0
 11
8.020831201527699
 21
143.943473
 31
0.0
 12
11.35416453486107
 22
143.943473
 32
0.0
 13
11.35416453486107
 23
143.943473
 33
0.0
  0
MTEXT
  5
E26
330
E28
100
AcDbEntity
  8
0
  6
ByBlock
 62
     0
370
    -2
380
     1
100
AcDbMText
 10
-1.612502131805627
 20
420.3023861700281
 30
0.0
 40
14.0
 41
0.0
 71
     5
 72
     1
  1
576
 11
6.123031769111886E-17
 21
1.0
 31
0.0
 73
     1
 44
1.0
  0
ENDBLK
  5
E55
330
E28
100
AcDbEntity
  8
0
100
AcDbBlockEnd
  0
ENDSEC
  0
SECTION
  2
ENTITIES
  0
LINE
  5
30
330
1F
100
AcDbEntity
  8
0
  6
DASHDOT
 62
     7
 48
0.393411
370
    60
390
F
100
AcDbLine
 10
296.999996
 20
452.200706
 30
0.0
 11
296.999996
 21
467.937156
 31
0.0
  0
POINT
  5
4C
330
1F
100
AcDbEntity
  8
0
 62
     7
370
    60
390
F
100
AcDbPoint
 10
296.999996
 20
706.691429
 30
0.0
  0
LINE
  5
A0A
330
1F
100
AcDbEntity
  8
0
 62
     7
370
    60
390
F
100
AcDbLine
 10
406.999996
 20
496.943504
 30
0.0
 11
313.00043
 21
496.943504
 31
0.0
  0
LINE
  5
A0B
330
1F
100
AcDbEntity
  8
0
 62
     7
 48
0.287486
370
    60
390
F
100
AcDbLine
 10
309.999996
 20
496.943504
 30
0.0
 11
298.500545
 21
496.943504
 31
0.0
  0
LINE
  5
A0C
330
1F
100
AcDbEntity
  8
0
 62
     7
 48
0.287486
370
    60
390
F
100
AcDbLine
 10
295.499435
 20
496.943504
 30
0.0
 11
283.999996
 21
496.943504
 31
0.0
  0
LINE
  5
A0D
330
1F
100
AcDbEntity
  8
0
 62
     7
370
    60
390
F
100
AcDbLine
 10
280.999553
 20
496.943504
 30
0.0
 11
186.999996
 21
496.943504
 31
0.0
  0
LINE
  5
A0E
330
1F
100
AcDbEntity
  8
0
 62
     7
 48
0.050069
370
    60
390
F
100
AcDbLine
 10
406.999984
 20
496.943504
 30
0.0
 11
406.895172
 21
494.943504
 31
0.0
  0
LINE
  5
A0F
330
1F
100
AcDbEntity
  8
0
 62
     7
 48
0.050069
370
    60
390
F
100
AcDbLine
 10
187.000011
 20
496.943504
 30
0.0
 11
187.104823
 21
494.943504
 31
0.0
  0
LINE
  5
A10
330
1F
100
AcDbEntity
  8
0
 62
     7
 48
0.287486
370
    60
390
F
100
AcDbLine
 10
295.499435
 20
492.943504
 30
0.0
 11
283.999996
 21
492.943504
 31
0.0
  0
LINE
  5
A11
330
1F
100
AcDbEntity
  8
0
 62
     7
370
    60
390
F
100
AcDbLine
 10
280.999645
 20
492.943504
 30
0.0
 11
187.209651
 21
492.943504
 31
0.0
  0
LINE
  5
A12
330
1F
100
AcDbEntity
  8
0
 62
     7
370
    60
390
F
100
AcDbLine
 10
406.790344
 20
492.943504
 30
0.0
 11
313.000335
 21
492.943504
 31
0.0
  0
LINE
  5
A13
330
1F
100
AcDbEntity
  8
0
 62
     7
 48
0.287486
370
    60
390
F
100
AcDbLine
 10
309.999996
 20
492.943504
 30
0.0
 11
298.500545
 21
492.943504
 31
0.0
  0
LINE
  5
A14
330
1F
100
AcDbEntity
  8
0
 62
     7
370
    60
390
F
100
AcDbLine
 10
401.505119
 20
492.943504
 30
0.0
 11
378.830715
 21
467.862388
 31
0.0
  0
ARC
  5
A16
330
1F
100
AcDbEntity
  8
0
 62
     7
370
    60
390
F
100
AcDbCircle
 10
370.680158
 20
462.699424
 30
0.0
 40
0.11564
100
AcDbArc
 50
276.577975
 51
327.157617
  0
ARC
  5
A18
330
1F
100
AcDbEntity
  8
0
 62
     7
370
    60
390
F
100
AcDbCircle
 10
370.505538
 20
450.2494119999999
 30
0.0
 40
12.337137
100
AcDbArc
 50
89.127767
 51
90.874881
  0
LWPOLYLINE
  5
A1A
330
1F
100
AcDbEntity
  8
0
 62
     7
370
    60
390
F
100
AcDbPolyline
 90
        7
 70
     0
 43
0.0
 10
370.317157
 20
462.5851049999999
 10
370.281644
 20
462.594261
 10
370.23357
 20
462.639488
 10
370.180974
 20
462.743614
 10
370.128906
 20
462.95565
 10
370.100004
 20
463.326499
 10
370.100677
 20
463.4544289999999
  0
ARC
  5
A1C
330
1F
100
AcDbEntity
  8
0
 62
     7
370
    60
390
F
100
AcDbCircle
 10
372.217561
 20
466.58712
 30
0.0
 40
2.035226
100
AcDbArc
 50
141.185475
 51
178.912188
  0
LINE
  5
A1D
330
1F
100
AcDbEntity
  8
0
 62
     7
370
    60
390
F
100
AcDbLine
 10
370.633438
 20
467.862388
 30
0.0
 11
391.185314
 21
492.943504
 31
0.0
  0
LINE
  5
A1E
330
1F
100
AcDbEntity
  8
0
 62
     7
 48
0.079311
370
    60
390
F
100
AcDbLine
 10
370.100681
 20
463.4544289999999
 30
0.0
 11
370.183145
 21
466.625816
 31
0.0
  0
LWPOLYLINE
  5
A20
330
1F
100
AcDbEntity
  8
0
 62
     7
370
    60
390
F
100
AcDbPolyline
 90
        4
 70
     0
 43
0.0
 10
363.691869
 20
462.585166
 10
363.749498
 20
462.598045
 10
363.82949
 20
462.6603009999999
 10
363.853609
 20
462.690086
  0
ARC
  5
A22
330
1F
100
AcDbEntity
  8
0
 62
     7
370
    60
390
F
100
AcDbCircle
 10
363.436822
 20
439.862144
 30
0.0
 40
22.724422
100
AcDbArc
 50
89.357002
 51
90.644294
  0
LWPOLYLINE
  5
A24
330
1F
100
AcDbEntity
  8
0
 62
     7
370
    60
390
F
100
AcDbPolyline
 90
        6
 70
     0
 43
0.0
 10
363.18132
 20
462.585166
 10
363.110113
 20
462.605552
 10
363.028282
 20
462.686485
 10
362.951764
 20
462.843772
 10
362.89648
 20
463.075218
 10
362.871047
 20
463.45449
  0
LWPOLYLINE
  5
A26
330
1F
100
AcDbEntity
  8
0
 62
     7
370
    60
390
F
100
AcDbPolyline
 90
        5
 70
     0
 43
0.0
 10
363.317878
 20
467.862388
 10
363.137048
 20
467.564414
 10
363.007682
 20
467.23043
 10
362.934192
 20
466.872093
 10
362.917589
 20
466.625816
  0
LINE
  5
A27
330
1F
100
AcDbEntity
  8
0
 62
     7
370
    60
390
F
100
AcDbLine
 10
363.315816
 20
467.862388
 30
0.0
 11
381.891315
 21
492.943504
 31
0.0
  0
LINE
  5
A28
330
1F
100
AcDbEntity
  8
0
 62
     7
 48
0.079292
370
    60
390
F
100
AcDbLine
 10
362.871017
 20
463.4544289999999
 30
0.0
 11
362.915529
 21
466.625816
 31
0.0
  0
LWPOLYLINE
  5
A2A
330
1F
100
AcDbEntity
  8
0
 62
     7
370
    60
390
F
100
AcDbPolyline
 90
        4
 70
     0
 43
0.0
 10
354.663978
 20
462.585166
 10
354.760442
 20
462.609214
 10
354.847472
 20
462.674461
 10
354.921538
 20
462.7688209999999
  0
ARC
  5
A2C
330
1F
100
AcDbEntity
  8
0
 62
     7
370
    60
390
F
100
AcDbCircle
 10
354.349459
 20
428.050132
 30
0.0
 40
34.536407
100
AcDbArc
 50
89.478265
 51
90.522471
  0
LWPOLYLINE
  5
A2E
330
1F
100
AcDbEntity
  8
0
 62
     7
370
    60
390
F
100
AcDbPolyline
 90
        7
 70
     0
 43
0.0
 10
354.034568
 20
462.585166
 10
353.946589
 20
462.605552
 10
353.844795
 20
462.686485
 10
353.748572
 20
462.843772
 10
353.677001
 20
463.075218
 10
353.640331
 20
463.411888
 10
353.63993
 20
463.45449
  0
LWPOLYLINE
  5
A30
330
1F
100
AcDbEntity
  8
0
 62
     7
370
    60
390
F
100
AcDbPolyline
 90
        5
 70
     0
 43
0.0
 10
353.984301
 20
467.862388
 10
353.828783
 20
467.564414
 10
353.718814
 20
467.23043
 10
353.658146
 20
466.872093
 10
353.646206
 20
466.625816
  0
LINE
  5
A31
330
1F
100
AcDbEntity
  8
0
 62
     7
370
    60
390
F
100
AcDbLine
 10
353.983209
 20
467.862388
 30
0.0
 11
370.017936
 21
492.943504
 31
0.0
  0
LINE
  5
A32
330
1F
100
AcDbEntity
  8
0
 62
     7
 48
0.079285
370
    60
390
F
100
AcDbLine
 10
353.639896
 20
463.4544289999999
 30
0.0
 11
353.645102
 21
466.625816
 31
0.0
  0
LWPOLYLINE
  5
A34
330
1F
100
AcDbEntity
  8
0
 62
     7
370
    60
390
F
100
AcDbPolyline
 90
        5
 70
     0
 43
0.0
 10
343.883968
 20
462.585166
 10
343.994659
 20
462.6087869999999
 10
344.094244
 20
462.673118
 10
344.203531
 20
462.801902
 10
344.247964
 20
462.87844
  0
ARC
  5
A36
330
1F
100
AcDbEntity
  8
0
 62
     7
370
    60
390
F
100
AcDbCircle
 10
343.519561
 20
416.238182
 30
0.0
 40
46.348392
100
AcDbArc
 50
89.549531
 51
90.450904
  0
LWPOLYLINE
  5
A38
330
1F
100
AcDbEntity
  8
0
 62
     7
370
    60
390
F
100
AcDbPolyline
 90
        7
 70
     0
 43
0.0
 10
343.154824
 20
462.585166
 10
343.052746
 20
462.605491
 10
342.93408
 20
462.686424
 10
342.821077
 20
462.843711
 10
342.735395
 20
463.075218
 10
342.690864
 20
463.369163
 10
342.687811
 20
463.45449
  0
LWPOLYLINE
  5
A3A
330
1F
100
AcDbEntity
  8
0
 62
     7
370
    60
390
F
100
AcDbPolyline
 90
        5
 70
     0
 43
0.0
 10
342.917754
 20
467.862388
 10
342.792275
 20
467.564414
 10
342.705047
 20
467.23043
 10
342.659044
 20
466.872093
 10
342.65213
 20
466.625816
  0
LINE
  5
A3B
330
1F
100
AcDbEntity
  8
0
 62
     7
370
    60
390
F
100
AcDbLine
 10
342.919186
 20
467.862388
 30
0.0
 11
355.925944
 21
492.943504
 31
0.0
  0
LINE
  5
A3C
330
1F
100
AcDbEntity
  8
0
 62
     7
 48
0.079289
370
    60
390
F
100
AcDbLine
 10
342.6878
 20
463.4544289999999
 30
0.0
 11
342.653543
 21
466.625816
 31
0.0
  0
LWPOLYLINE
  5
A3E
330
1F
100
AcDbEntity
  8
0
 62
     7
370
    60
390
F
100
AcDbPolyline
 90
        5
 70
     0
 43
0.0
 10
331.679418
 20
462.5851049999999
 10
331.79809
 20
462.607383
 10
331.937321
 20
462.695091
 10
332.048055
 20
462.826377
 10
332.147684
 20
463.0243139999999
  0
ARC
  5
A40
330
1F
100
AcDbEntity
  8
0
 62
     7
370
    60
390
F
100
AcDbCircle
 10
331.276189
 20
405.850914
 30
0.0
 40
56.73568
100
AcDbArc
 50
89.592787
 51
90.407478
  0
LWPOLYLINE
  5
A42
330
1F
100
AcDbEntity
  8
0
 62
     7
370
    60
390
F
100
AcDbPolyline
 90
        7
 70
     0
 43
0.0
 10
330.872695
 20
462.5851049999999
 10
330.741023
 20
462.612937
 10
330.6264
 20
462.687583
 10
330.506852
 20
462.834434
 10
330.408889
 20
463.059288
 10
330.352999
 20
463.35427
 10
330.347499
 20
463.4544289999999
  0
LWPOLYLINE
  5
A44
330
1F
100
AcDbEntity
  8
0
 62
     7
370
    60
390
F
100
AcDbPolyline
 90
        5
 70
     0
 43
0.0
 10
330.457549
 20
467.862388
 10
330.362276
 20
467.5492169999999
 10
330.299827
 20
467.197166
 10
330.272535
 20
466.819664
 10
330.272453
 20
466.625816
  0
LINE
  5
A45
330
1F
100
AcDbEntity
  8
0
 62
     7
370
    60
390
F
100
AcDbLine
 10
330.459935
 20
467.862388
 30
0.0
 11
340.043517
 21
492.943504
 31
0.0
  0
LINE
  5
A46
330
1F
100
AcDbEntity
  8
0
 62
     7
 48
0.079305
370
    60
390
F
100
AcDbLine
 10
330.347503
 20
463.4544289999999
 30
0.0
 11
330.274824
 21
466.625816
 31
0.0
  0
LWPOLYLINE
  5
A47
330
1F
100
AcDbEntity
  8
0
 62
     7
370
    60
390
F
100
AcDbPolyline
 90
       35
 70
     0
 43
0.0
 10
296.999996
 20
470.0667339999999
 10
296.137355
 20
470.0895609999999
 10
295.281948
 20
470.15731
 10
294.43589
 20
470.2688209999999
 10
293.601291
 20
470.422386
 10
292.780162
 20
470.6161719999999
 10
291.974391
 20
470.8478009999999
 10
291.185657
 20
471.114952
 10
290.415389
 20
471.415061
 10
289.664733
 20
471.745445
 10
288.934493
 20
472.10366
 10
288.22512
 20
472.487205
 10
287.536678
 20
472.893882
 10
286.868995
 20
473.321678
 10
286.221805
 20
473.768699
 10
285.594806
 20
474.233177
 10
284.987663
 20
474.713645
 10
284.400009
 20
475.208518
 10
283.831455
 20
475.716575
 10
283.281604
 20
476.236595
 10
282.750049
 20
476.767356
 10
281.740199
 20
477.857627
 10
280.798702
 20
478.98043
 10
279.922542
 20
480.13021
 10
279.109142
 20
481.302085
 10
278.356479
 20
482.491783
 10
277.662639
 20
483.695701
 10
277.025813
 20
484.910911
 10
276.444415
 20
486.134971
 10
275.917102
 20
487.365989
 10
275.442844
 20
488.602134
 10
275.02087
 20
489.841697
 10
274.650691
 20
491.082908
 10
274.332042
 20
492.323814
 10
274.191997
 20
492.943504
  0
LWPOLYLINE
  5
A48
330
1F
100
AcDbEntity
  8
0
 62
     7
370
    60
390
F
100
AcDbPolyline
 90
       35
 70
     0
 43
0.0
 10
319.807992
 20
492.943504
 10
319.515056
 20
491.7035749999999
 10
319.170667
 20
490.462181
 10
318.774637
 20
489.22158
 10
318.326595
 20
487.983543
 10
317.825923
 20
486.749717
 10
317.271718
 20
485.521934
 10
316.66279
 20
484.302024
 10
315.997671
 20
483.092185
 10
315.274654
 20
481.894981
 10
314.491866
 20
480.713645
 10
313.647359
 20
479.552268
 10
312.738891
 20
478.415367
 10
311.76361
 20
477.308067
 10
311.249942
 20
476.767356
 10
310.718387
 20
476.236595
 10
310.168537
 20
475.716575
 10
309.599983
 20
475.208518
 10
309.012329
 20
474.713645
 10
308.405185
 20
474.233177
 10
307.77819
 20
473.768699
 10
307.131
 20
473.321678
 10
306.463313
 20
472.893882
 10
305.774871
 20
472.487205
 10
305.065498
 20
472.10366
 10
304.335258
 20
471.745445
 10
303.584602
 20
471.415061
 10
302.814334
 20
471.114952
 10
302.0256
 20
470.8478009999999
 10
301.219829
 20
470.6161719999999
 10
300.3987
 20
470.422386
 10
299.564102
 20
470.2688209999999
 10
298.718044
 20
470.15731
 10
297.862636
 20
470.0895609999999
 10
296.999996
 20
470.0667339999999
  0
LINE
  5
A4A
330
1F
100
AcDbEntity
  8
0
 62
     7
370
    60
390
F
100
AcDbLine
 10
263.540058
 20
467.862388
 30
0.0
 11
253.956478
 21
492.943504
 31
0.0
  0
LINE
  5
A4B
330
1F
100
AcDbEntity
  8
0
 62
     7
 48
0.079305
370
    60
390
F
100
AcDbLine
 10
263.652484
 20
463.4544289999999
 30
0.0
 11
263.72517
 21
466.625816
 31
0.0
  0
LWPOLYLINE
  5
A4C
330
1F
100
AcDbEntity
  8
0
 62
     7
370
    60
390
F
100
AcDbPolyline
 90
        4
 70
     0
 43
0.0
 10
263.540576
 20
467.862388
 10
263.632213
 20
467.564414
 10
263.70766
 20
467.113121
 10
263.725688
 20
466.625816
  0
LWPOLYLINE
  5
A4E
330
1F
100
AcDbEntity
  8
0
 62
     7
370
    60
390
F
100
AcDbPolyline
 90
        7
 70
     0
 43
0.0
 10
263.127292
 20
462.5851049999999
 10
263.275676
 20
462.620689
 10
263.401111
 20
462.71389
 10
263.518726
 20
462.879966
 10
263.607028
 20
463.1161719999999
 10
263.650936
 20
463.411827
 10
263.652492
 20
463.4544289999999
  0
ARC
  5
A50
330
1F
100
AcDbEntity
  8
0
 62
     7
370
    60
390
F
100
AcDbCircle
 10
262.723796
 20
405.850914
 30
0.0
 40
56.73568
100
AcDbArc
 50
89.592513
 51
90.407205
  0
LWPOLYLINE
  5
A52
330
1F
100
AcDbEntity
  8
0
 62
     7
370
    60
390
F
100
AcDbPolyline
 90
        5
 70
     0
 43
0.0
 10
262.320575
 20
462.5851049999999
 10
262.2019
 20
462.607383
 10
262.062671
 20
462.695091
 10
261.951938
 20
462.826377
 10
261.852306
 20
463.0243139999999
  0
LINE
  5
A54
330
1F
100
AcDbEntity
  8
0
 62
     7
370
    60
390
F
100
AcDbLine
 10
251.080806
 20
467.862388
 30
0.0
 11
238.074047
 21
492.943504
 31
0.0
  0
LINE
  5
A55
330
1F
100
AcDbEntity
  8
0
 62
     7
 48
0.079289
370
    60
390
F
100
AcDbLine
 10
251.31219
 20
463.4544289999999
 30
0.0
 11
251.346446
 21
466.625816
 31
0.0
  0
LWPOLYLINE
  5
A56
330
1F
100
AcDbEntity
  8
0
 62
     7
370
    60
390
F
100
AcDbPolyline
 90
        5
 70
     0
 43
0.0
 10
251.084003
 20
467.862388
 10
251.209484
 20
467.564414
 10
251.296703
 20
467.23043
 10
251.342708
 20
466.872093
 10
251.349628
 20
466.625816
  0
LWPOLYLINE
  5
A58
330
1F
100
AcDbEntity
  8
0
 62
     7
370
    60
390
F
100
AcDbPolyline
 90
        7
 70
     0
 43
0.0
 10
250.845165
 20
462.585166
 10
250.947246
 20
462.605491
 10
251.065914
 20
462.686424
 10
251.178913
 20
462.843711
 10
251.264598
 20
463.075218
 10
251.309123
 20
463.369163
 10
251.312183
 20
463.45449
  0
ARC
  5
A5A
330
1F
100
AcDbEntity
  8
0
 62
     7
370
    60
390
F
100
AcDbCircle
 10
250.480419
 20
416.238182
 30
0.0
 40
46.348396
100
AcDbArc
 50
89.54908
 51
90.45046
  0
LWPOLYLINE
  5
A5C
330
1F
100
AcDbEntity
  8
0
 62
     7
370
    60
390
F
100
AcDbPolyline
 90
        4
 70
     0
 43
0.0
 10
250.116023
 20
462.585166
 10
249.984332
 20
462.618858
 10
249.870044
 20
462.707542
 10
249.752025
 20
462.87844
  0
LINE
  5
A5E
330
1F
100
AcDbEntity
  8
0
 62
     7
370
    60
390
F
100
AcDbLine
 10
240.01678
 20
467.862388
 30
0.0
 11
223.982059
 21
492.943504
 31
0.0
  0
LINE
  5
A5F
330
1F
100
AcDbEntity
  8
0
 62
     7
 48
0.079285
370
    60
390
F
100
AcDbLine
 10
240.360095
 20
463.4544289999999
 30
0.0
 11
240.354892
 21
466.625816
 31
0.0
  0
LWPOLYLINE
  5
A60
330
1F
100
AcDbEntity
  8
0
 62
     7
370
    60
390
F
100
AcDbPolyline
 90
        5
 70
     0
 43
0.0
 10
240.018108
 20
467.862388
 10
240.173618
 20
467.564414
 10
240.28358
 20
467.23043
 10
240.344242
 20
466.872093
 10
240.356182
 20
466.625816
  0
LWPOLYLINE
  5
A62
330
1F
100
AcDbEntity
  8
0
 62
     7
370
    60
390
F
100
AcDbPolyline
 90
        7
 70
     0
 43
0.0
 10
239.965419
 20
462.585166
 10
240.053401
 20
462.605552
 10
240.1552
 20
462.686485
 10
240.251422
 20
462.843772
 10
240.322986
 20
463.075218
 10
240.359661
 20
463.411888
 10
240.360057
 20
463.45449
  0
ARC
  5
A64
330
1F
100
AcDbEntity
  8
0
 62
     7
370
    60
390
F
100
AcDbCircle
 10
239.650524
 20
428.050132
 30
0.0
 40
34.536411
100
AcDbArc
 50
89.47752
 51
90.521727
  0
LWPOLYLINE
  5
A66
330
1F
100
AcDbEntity
  8
0
 62
     7
370
    60
390
F
100
AcDbPolyline
 90
        4
 70
     0
 43
0.0
 10
239.336009
 20
462.585166
 10
239.252895
 20
462.602989
 10
239.176135
 20
462.652366
 10
239.078456
 20
462.7688209999999
  0
LINE
  5
A68
330
1F
100
AcDbEntity
  8
0
 62
     7
370
    60
390
F
100
AcDbLine
 10
230.684177
 20
467.862388
 30
0.0
 11
212.108684
 21
492.943504
 31
0.0
  0
LINE
  5
A69
330
1F
100
AcDbEntity
  8
0
 62
     7
 48
0.079292
370
    60
390
F
100
AcDbLine
 10
231.128971
 20
463.4544289999999
 30
0.0
 11
231.084461
 21
466.625816
 31
0.0
  0
LWPOLYLINE
  5
A6A
330
1F
100
AcDbEntity
  8
0
 62
     7
370
    60
390
F
100
AcDbPolyline
 90
        5
 70
     0
 43
0.0
 10
230.683612
 20
467.862388
 10
230.864437
 20
467.564414
 10
230.993801
 20
467.23043
 10
231.067287
 20
466.872093
 10
231.083888
 20
466.625816
  0
LWPOLYLINE
  5
A6C
330
1F
100
AcDbEntity
  8
0
 62
     7
370
    60
390
F
100
AcDbPolyline
 90
        6
 70
     0
 43
0.0
 10
230.818668
 20
462.585166
 10
230.889881
 20
462.605552
 10
230.971706
 20
462.686485
 10
231.048229
 20
462.843772
 10
231.103511
 20
463.075218
 10
231.12894
 20
463.45449
  0
ARC
  5
A6E
330
1F
100
AcDbEntity
  8
0
 62
     7
370
    60
390
F
100
AcDbCircle
 10
230.563159
 20
439.862144
 30
0.0
 40
22.724426
100
AcDbArc
 50
89.35569
 51
90.642983
  0
LWPOLYLINE
  5
A70
330
1F
100
AcDbEntity
  8
0
 62
     7
370
    60
390
F
100
AcDbPolyline
 90
        4
 70
     0
 43
0.0
 10
230.308124
 20
462.585166
 10
230.250492
 20
462.598045
 10
230.170505
 20
462.6603009999999
 10
230.146381
 20
462.690086
  0
LINE
  5
A72
330
1F
100
AcDbEntity
  8
0
 62
     7
370
    60
390
F
100
AcDbLine
 10
223.366557
 20
467.862388
 30
0.0
 11
202.814678
 21
492.943504
 31
0.0
  0
LINE
  5
A73
330
1F
100
AcDbEntity
  8
0
 62
     7
 48
0.079311
370
    60
390
F
100
AcDbLine
 10
223.89931
 20
463.4544289999999
 30
0.0
 11
223.816844
 21
466.625816
 31
0.0
  0
ARC
  5
A74
330
1F
100
AcDbEntity
  8
0
 62
     7
370
    60
390
F
100
AcDbCircle
 10
221.781352
 20
466.587181
 30
0.0
 40
2.035143
100
AcDbArc
 50
1.086976
 51
38.815252
  0
LWPOLYLINE
  5
A76
330
1F
100
AcDbEntity
  8
0
 62
     7
370
    60
390
F
100
AcDbPolyline
 90
        7
 70
     0
 43
0.0
 10
223.682834
 20
462.5851049999999
 10
223.724254
 20
462.597679
 10
223.761859
 20
462.633384
 10
223.809848
 20
462.720176
 10
223.865138
 20
462.9206159999999
 10
223.898151
 20
463.254478
 10
223.89931
 20
463.4544289999999
  0
ARC
  5
A78
330
1F
100
AcDbEntity
  8
0
 62
     7
370
    60
390
F
100
AcDbCircle
 10
223.494449
 20
450.2494119999999
 30
0.0
 40
12.33714
100
AcDbArc
 50
89.125096
 51
90.872211
  0
ARC
  5
A7A
330
1F
100
AcDbEntity
  8
0
 62
     7
370
    60
390
F
100
AcDbCircle
 10
223.319835
 20
462.699424
 30
0.0
 40
0.11564
100
AcDbArc
 50
212.842387
 51
263.422013
  0
LINE
  5
A7C
330
1F
100
AcDbEntity
  8
0
 62
     7
 48
0.328294
370
    60
390
F
100
AcDbLine
 10
215.682933
 20
466.625816
 30
0.0
 11
216.370189
 21
453.512046
 31
0.0
  0
LINE
  5
A7D
330
1F
100
AcDbEntity
  8
0
 62
     7
 48
0.328294
370
    60
390
F
100
AcDbLine
 10
378.317054
 20
466.625816
 30
0.0
 11
377.629794
 21
453.512046
 31
0.0
  0
ARC
  5
A7E
330
1F
100
AcDbEntity
  8
0
 62
     7
370
    60
390
F
100
AcDbCircle
 10
213.68568
 20
466.521141
 30
0.0
 40
1.999992
100
AcDbArc
 50
2.99992
 51
42.115024
  0
ARC
  5
A7F
330
1F
100
AcDbEntity
  8
0
 62
     7
370
    60
390
F
100
AcDbCircle
 10
380.314308
 20
466.521141
 30
0.0
 40
1.999992
100
AcDbArc
 50
137.884976
 51
177.000077
  0
LINE
  5
A80
330
1F
100
AcDbEntity
  8
0
 62
     7
 48
0.106736
370
    60
390
F
100
AcDbLine
 10
374.047599
 20
466.625816
 30
0.0
 11
378.317054
 21
466.625816
 31
0.0
  0
LINE
  5
A81
330
1F
100
AcDbEntity
  8
0
 62
     7
 48
0.085374
370
    60
390
F
100
AcDbLine
 10
223.816844
 20
466.625816
 30
0.0
 11
227.231792
 21
466.625816
 31
0.0
  0
LINE
  5
A82
330
1F
100
AcDbEntity
  8
0
 62
     7
 48
0.138191
370
    60
390
F
100
AcDbLine
 10
231.084476
 20
466.625816
 30
0.0
 11
236.612117
 21
466.625816
 31
0.0
  0
LINE
  5
A83
330
1F
100
AcDbEntity
  8
0
 62
     7
 48
0.186349
370
    60
390
F
100
AcDbLine
 10
240.354923
 20
466.625816
 30
0.0
 11
247.808864
 21
466.625816
 31
0.0
  0
LINE
  5
A84
330
1F
100
AcDbEntity
  8
0
 62
     7
 48
0.228246
370
    60
390
F
100
AcDbLine
 10
251.346469
 20
466.625816
 30
0.0
 11
260.476306
 21
466.625816
 31
0.0
  0
LINE
  5
A85
330
1F
100
AcDbEntity
  8
0
 62
     7
370
    60
390
F
100
AcDbLine
 10
263.725154
 20
466.625816
 30
0.0
 11
330.274835
 21
466.625816
 31
0.0
  0
LINE
  5
A86
330
1F
100
AcDbEntity
  8
0
 62
     7
 48
0.228246
370
    60
390
F
100
AcDbLine
 10
333.523687
 20
466.625816
 30
0.0
 11
342.653523
 21
466.625816
 31
0.0
  0
LINE
  5
A87
330
1F
100
AcDbEntity
  8
0
 62
     7
 48
0.186349
370
    60
390
F
100
AcDbLine
 10
346.191126
 20
466.625816
 30
0.0
 11
353.645071
 21
466.625816
 31
0.0
  0
LINE
  5
A88
330
1F
100
AcDbEntity
  8
0
 62
     7
 48
0.138185
370
    60
390
F
100
AcDbLine
 10
357.388105
 20
466.625816
 30
0.0
 11
362.915512
 21
466.625816
 31
0.0
  0
LINE
  5
A89
330
1F
100
AcDbEntity
  8
0
 62
     7
 48
0.085374
370
    60
390
F
100
AcDbLine
 10
366.768196
 20
466.625816
 30
0.0
 11
370.183143
 21
466.625816
 31
0.0
  0
LINE
  5
A8C
330
1F
100
AcDbEntity
  8
0
 62
     7
 48
0.106736
370
    60
390
F
100
AcDbLine
 10
215.682933
 20
466.625816
 30
0.0
 11
219.952388
 21
466.625816
 31
0.0
  0
LINE
  5
A8D
330
1F
100
AcDbEntity
  8
0
 62
     7
370
    60
390
F
100
AcDbLine
 10
298.876075
 20
452.943504
 30
0.0
 11
377.030616
 21
452.943504
 31
0.0
  0
LINE
  5
A8E
330
1F
100
AcDbEntity
  8
0
 62
     7
370
    60
390
F
100
AcDbLine
 10
237.016963
 20
452.943504
 30
0.0
 11
298.876075
 21
452.943504
 31
0.0
  0
LINE
  5
A8F
330
1F
100
AcDbEntity
  8
0
 62
     7
370
    60
390
F
100
AcDbLine
 10
216.969371
 20
452.943504
 30
0.0
 11
237.016963
 21
452.943504
 31
0.0
  0
ARC
  5
A90
330
1F
100
AcDbEntity
  8
0
 62
     7
370
    60
390
F
100
AcDbCircle
 10
377.030633
 20
453.543479
 30
0.0
 40
0.59999
100
AcDbArc
 50
269.998468
 51
357.001534
  0
ARC
  5
A91
330
1F
100
AcDbEntity
  8
0
 62
     7
370
    60
390
F
100
AcDbCircle
 10
216.969356
 20
453.543479
 30
0.0
 40
0.59999
100
AcDbArc
 50
182.998462
 51
270.001534
  0
LINE
  5
A92
330
1F
100
AcDbEntity
  8
0
 62
     7
 48
0.050069
370
    60
390
F
100
AcDbLine
 10
187.209651
 20
492.943504
 30
0.0
 11
187.104839
 21
494.943504
 31
0.0
  0
LINE
  5
A93
330
1F
100
AcDbEntity
  8
0
 62
     7
 48
0.050069
370
    60
390
F
100
AcDbLine
 10
406.790344
 20
492.943504
 30
0.0
 11
406.89516
 21
494.943504
 31
0.0
  0
LINE
  5
A94
330
1F
100
AcDbEntity
  8
0
 62
     7
370
    60
390
F
100
AcDbLine
 10
370.777894
 20
462.636314
 30
0.0
 11
395.609809
 21
492.943504
 31
0.0
  0
LINE
  5
A95
330
1F
100
AcDbEntity
  8
0
 62
     7
370
    60
390
F
100
AcDbLine
 10
363.853609
 20
462.690086
 30
0.0
 11
386.257724
 21
492.943504
 31
0.0
  0
LINE
  5
A96
330
1F
100
AcDbEntity
  8
0
 62
     7
370
    60
390
F
100
AcDbLine
 10
354.921538
 20
462.7688209999999
 30
0.0
 11
374.210843
 21
492.9434429999999
 31
0.0
  0
LINE
  5
A97
330
1F
100
AcDbEntity
  8
0
 62
     7
370
    60
390
F
100
AcDbLine
 10
344.247964
 20
462.87844
 30
0.0
 11
359.837836
 21
492.9434429999999
 31
0.0
  0
LINE
  5
A98
330
1F
100
AcDbEntity
  8
0
 62
     7
370
    60
390
F
100
AcDbLine
 10
332.147684
 20
463.0243139999999
 30
0.0
 11
343.578755
 21
492.943504
 31
0.0
  0
LINE
  5
A99
330
1F
100
AcDbEntity
  8
0
 62
     7
370
    60
390
F
100
AcDbLine
 10
250.421237
 20
492.943504
 30
0.0
 11
261.852306
 21
463.0243139999999
 31
0.0
  0
LINE
  5
A9A
330
1F
100
AcDbEntity
  8
0
 62
     7
370
    60
390
F
100
AcDbLine
 10
234.162158
 20
492.9434429999999
 30
0.0
 11
249.752025
 21
462.87844
 31
0.0
  0
LINE
  5
A9B
330
1F
100
AcDbEntity
  8
0
 62
     7
370
    60
390
F
100
AcDbLine
 10
219.78915
 20
492.9434429999999
 30
0.0
 11
239.078456
 21
462.7688209999999
 31
0.0
  0
LINE
  5
A9C
330
1F
100
AcDbEntity
  8
0
 62
     7
370
    60
390
F
100
AcDbLine
 10
207.742275
 20
492.943504
 30
0.0
 11
230.146381
 21
462.690086
 31
0.0
  0
LINE
  5
A9D
330
1F
100
AcDbEntity
  8
0
 62
     7
370
    60
390
F
100
AcDbLine
 10
198.390178
 20
492.943504
 30
0.0
 11
223.222095
 21
462.636314
 31
0.0
  0
LINE
  5
A9E
330
1F
100
AcDbEntity
  8
0
 62
     7
370
    60
390
F
100
AcDbLine
 10
215.169277
 20
467.862388
 30
0.0
 11
192.494869
 21
492.943504
 31
0.0
  0
LINE
  5
AA0
330
1F
100
AcDbEntity
  8
0
 62
     7
 48
0.132982
370
    60
390
F
100
AcDbLine
 10
244.475719
 20
507.54763
 30
0.0
 11
249.794994
 21
507.54824
 31
0.0
  0
LINE
  5
AA1
330
1F
100
AcDbEntity
  8
0
 62
     7
 48
0.000311
370
    60
390
F
100
AcDbLine
 10
249.795009
 20
507.5492169999999
 30
0.0
 11
249.795162
 21
507.561668
 31
0.0
  0
LINE
  5
AA2
330
1F
100
AcDbEntity
  8
0
 62
     7
 48
0.013237
370
    60
390
F
100
AcDbLine
 10
249.795162
 20
507.561668
 30
0.0
 11
249.802982
 21
508.091087
 31
0.0
  0
ARC
  5
AA3
330
1F
100
AcDbEntity
  8
0
 62
     7
370
    60
390
F
100
AcDbCircle
 10
250.708606
 20
515.0349349999999
 30
0.0
 40
7.002727
100
AcDbArc
 50
262.56938
 51
277.441741
  0
LINE
  5
AA4
330
1F
100
AcDbEntity
  8
0
 62
     7
 48
0.013237
370
    60
390
F
100
AcDbLine
 10
251.607776
 20
507.561668
 30
0.0
 11
251.615596
 21
508.091087
 31
0.0
  0
LINE
  5
AA5
330
1F
100
AcDbEntity
  8
0
 62
     7
 48
0.00031
370
    60
390
F
100
AcDbLine
 10
251.60757
 20
507.549278
 30
0.0
 11
251.607776
 21
507.561668
 31
0.0
  0
ARC
  5
AA6
330
1F
100
AcDbEntity
  8
0
 62
     7
370
    60
390
F
100
AcDbCircle
 10
246.549083
 20
-72698.81144
 30
0.0
 40
73206.359375
100
AcDbArc
 50
89.97303700000002
 51
89.996041
  0
ARC
  5
AA7
330
1F
100
AcDbEntity
  8
0
 62
     7
370
    60
390
F
100
AcDbCircle
 10
347.476902
 20
-72715.33487800001
 30
0.0
 40
73222.882813
100
AcDbArc
 50
90.003978
 51
90.026975
  0
LINE
  5
AA8
330
1F
100
AcDbEntity
  8
0
 62
     7
 48
0.00031
370
    60
390
F
100
AcDbLine
 10
342.392425
 20
507.549278
 30
0.0
 11
342.392214
 21
507.561668
 31
0.0
  0
LINE
  5
AA9
330
1F
100
AcDbEntity
  8
0
 62
     7
 48
0.013237
370
    60
390
F
100
AcDbLine
 10
342.392214
 20
507.561668
 30
0.0
 11
342.384394
 21
508.091087
 31
0.0
  0
ARC
  5
AAA
330
1F
100
AcDbEntity
  8
0
 62
     7
370
    60
390
F
100
AcDbCircle
 10
343.291388
 20
515.0349349999999
 30
0.0
 40
7.002727
100
AcDbArc
 50
262.558261
 51
277.430615
  0
LINE
  5
AAB
330
1F
100
AcDbEntity
  8
0
 62
     7
 48
0.013237
370
    60
390
F
100
AcDbLine
 10
344.204829
 20
507.561668
 30
0.0
 11
344.19701
 21
508.091087
 31
0.0
  0
LINE
  5
AAC
330
1F
100
AcDbEntity
  8
0
 62
     7
 48
0.000311
370
    60
390
F
100
AcDbLine
 10
344.204983
 20
507.5492169999999
 30
0.0
 11
344.204829
 21
507.561668
 31
0.0
  0
LINE
  5
AAD
330
1F
100
AcDbEntity
  8
0
 62
     7
 48
0.370311
370
    60
390
F
100
AcDbLine
 10
344.204999
 20
507.54824
 30
0.0
 11
359.017444
 21
507.545372
 31
0.0
  0
LINE
  5
AAE
330
1F
100
AcDbEntity
  8
0
 62
     7
 48
0.000408
370
    60
390
F
100
AcDbLine
 10
359.017444
 20
507.545372
 30
0.0
 11
359.017085
 21
507.561668
 31
0.0
  0
LINE
  5
AAF
330
1F
100
AcDbEntity
  8
0
 62
     7
 48
0.013238
370
    60
390
F
100
AcDbLine
 10
359.017085
 20
507.561668
 30
0.0
 11
359.006473
 21
508.091087
 31
0.0
  0
ARC
  5
AB0
330
1F
100
AcDbEntity
  8
0
 62
     7
370
    60
390
F
100
AcDbCircle
 10
359.826556
 20
513.7584449999999
 30
0.0
 40
5.726226
100
AcDbArc
 50
261.766293
 51
278.21528
  0
LINE
  5
AB1
330
1F
100
AcDbEntity
  8
0
 62
     7
 48
0.013238
370
    60
390
F
100
AcDbLine
 10
360.65539
 20
507.561668
 30
0.0
 11
360.644778
 21
508.091087
 31
0.0
  0
LINE
  5
AB2
330
1F
100
AcDbEntity
  8
0
 62
     7
 48
0.000418
370
    60
390
F
100
AcDbLine
 10
360.655692
 20
507.544944
 30
0.0
 11
360.65539
 21
507.561668
 31
0.0
  0
LINE
  5
AB3
330
1F
100
AcDbEntity
  8
0
 62
     7
 48
0.32756
370
    60
390
F
100
AcDbLine
 10
360.655692
 20
507.544944
 30
0.0
 11
373.758094
 21
507.542625
 31
0.0
  0
LINE
  5
AB4
330
1F
100
AcDbEntity
  8
0
 62
     7
 48
0.000392
370
    60
390
F
100
AcDbLine
 10
373.758094
 20
507.542625
 30
0.0
 11
373.757682
 21
507.5583109999999
 31
0.0
  0
LINE
  5
AB5
330
1F
100
AcDbEntity
  8
0
 62
     7
 48
0.013027
370
    60
390
F
100
AcDbLine
 10
373.757682
 20
507.5583109999999
 30
0.0
 11
373.74481
 21
508.079246
 31
0.0
  0
ARC
  5
AB6
330
1F
100
AcDbEntity
  8
0
 62
     7
370
    60
390
F
100
AcDbCircle
 10
374.453063
 20
512.295249
 30
0.0
 40
4.274839
100
AcDbArc
 50
260.463783
 51
279.505893
  0
LINE
  5
AB7
330
1F
100
AcDbEntity
  8
0
 62
     7
 48
0.013027
370
    60
390
F
100
AcDbLine
 10
375.171895
 20
507.5583109999999
 30
0.0
 11
375.159023
 21
508.079246
 31
0.0
  0
LINE
  5
AB8
330
1F
100
AcDbEntity
  8
0
 62
     7
 48
0.000392
370
    60
390
F
100
AcDbLine
 10
375.172254
 20
507.542625
 30
0.0
 11
375.171895
 21
507.5583109999999
 31
0.0
  0
LINE
  5
AB9
330
1F
100
AcDbEntity
  8
0
 62
     7
 48
0.274853
370
    60
390
F
100
AcDbLine
 10
375.172254
 20
507.542625
 30
0.0
 11
386.16637
 21
507.544944
 31
0.0
  0
LINE
  5
ABA
330
1F
100
AcDbEntity
  8
0
 62
     7
 48
0.000418
370
    60
390
F
100
AcDbLine
 10
386.16637
 20
507.544944
 30
0.0
 11
386.165874
 21
507.561668
 31
0.0
  0
LINE
  5
ABB
330
1F
100
AcDbEntity
  8
0
 62
     7
 48
0.013241
370
    60
390
F
100
AcDbLine
 10
386.165874
 20
507.561668
 30
0.0
 11
386.150718
 21
508.091087
 31
0.0
  0
ARC
  5
ABC
330
1F
100
AcDbEntity
  8
0
 62
     7
370
    60
390
F
100
AcDbCircle
 10
386.725624
 20
510.855308
 30
0.0
 40
2.823039
100
AcDbArc
 50
258.251
 51
281.696185
  0
LINE
  5
ABD
330
1F
100
AcDbEntity
  8
0
 62
     7
 48
0.013241
370
    60
390
F
100
AcDbLine
 10
387.313026
 20
507.561668
 30
0.0
 11
387.29787
 21
508.091087
 31
0.0
  0
LINE
  5
ABE
330
1F
100
AcDbEntity
  8
0
 62
     7
 48
0.000408
370
    60
390
F
100
AcDbLine
 10
387.313465
 20
507.545372
 30
0.0
 11
387.313026
 21
507.561668
 31
0.0
  0
LINE
  5
ABF
330
1F
100
AcDbEntity
  8
0
 62
     7
 48
0.213797
370
    60
390
F
100
AcDbLine
 10
387.313465
 20
507.545372
 30
0.0
 11
395.865325
 21
507.54824
 31
0.0
  0
LINE
  5
AC0
330
1F
100
AcDbEntity
  8
0
 62
     7
 48
0.000311
370
    60
390
F
100
AcDbLine
 10
395.865295
 20
507.5492169999999
 30
0.0
 11
395.864887
 21
507.561668
 31
0.0
  0
LINE
  5
AC1
330
1F
100
AcDbEntity
  8
0
 62
     7
 48
0.013242
370
    60
390
F
100
AcDbLine
 10
395.864887
 20
507.561668
 30
0.0
 11
395.848117
 21
508.091087
 31
0.0
  0
ARC
  5
AC2
330
1F
100
AcDbEntity
  8
0
 62
     7
370
    60
390
F
100
AcDbCircle
 10
396.272205
 20
509.578819
 30
0.0
 40
1.546485
100
AcDbArc
 50
254.089229
 51
285.805991
  0
LINE
  5
AC3
330
1F
100
AcDbEntity
  8
0
 62
     7
 48
0.013242
370
    60
390
F
100
AcDbLine
 10
396.710124
 20
507.561668
 30
0.0
 11
396.693355
 21
508.091087
 31
0.0
  0
LINE
  5
AC4
330
1F
100
AcDbEntity
  8
0
 62
     7
 48
0.00031
370
    60
390
F
100
AcDbLine
 10
396.710502
 20
507.549278
 30
0.0
 11
396.710124
 21
507.561668
 31
0.0
  0
LWPOLYLINE
  5
AC5
330
1F
100
AcDbEntity
  8
0
 62
     7
370
    60
390
F
100
AcDbPolyline
 90
        4
 70
     0
 43
0.0
 10
396.710533
 20
507.548301
 10
405.240386
 20
507.541404
 10
406.410324
 20
507.542747
 10
406.556674
 20
507.548118
  0
LINE
  5
AC7
330
1F
100
AcDbEntity
  8
0
 62
     7
 48
0.000338
370
    60
390
F
100
AcDbLine
 10
356.287049
 20
661.9435040000001
 30
0.0
 11
356.300562
 21
661.9434429999999
 31
0.0
  0
LINE
  5
AC8
330
1F
100
AcDbEntity
  8
0
 62
     7
 48
0.274996
370
    60
390
F
100
AcDbLine
 10
297.000057
 20
668.9435040000001
 30
0.0
 11
307.999893
 21
668.9435040000001
 31
0.0
  0
LINE
  5
AC9
330
1F
100
AcDbEntity
  8
0
 62
     7
 48
0.211451
370
    60
390
F
100
AcDbLine
 10
305.458034
 20
666.9435040000001
 30
0.0
 11
296.999996
 21
666.9435040000001
 31
0.0
  0
LWPOLYLINE
  5
ACA
330
1F
100
AcDbEntity
  8
0
 62
     7
370
    60
390
F
100
AcDbPolyline
 90
        9
 70
     0
 43
0.0
 10
305.459205
 20
666.9435040000001
 10
305.433296
 20
667.3241800000001
 10
305.356449
 20
667.69094
 10
305.231517
 20
668.030235
 10
305.063171
 20
668.329612
 10
304.857669
 20
668.5782690000001
 10
304.622577
 20
668.7672950000001
 10
304.3665
 20
668.889854
 10
304.233493
 20
668.924827
  0
LWPOLYLINE
  5
ACC
330
1F
100
AcDbEntity
  8
0
 62
     7
370
    60
390
F
100
AcDbPolyline
 90
        4
 70
     0
 43
0.0
 10
197.289455
 20
507.548301
 10
188.769435
 20
507.541404
 10
187.588237
 20
507.542808
 10
187.443309
 20
507.548118
  0
LINE
  5
ACD
330
1F
100
AcDbEntity
  8
0
 62
     7
 48
0.00031
370
    60
390
F
100
AcDbLine
 10
197.289485
 20
507.549278
 30
0.0
 11
197.289867
 21
507.561668
 31
0.0
  0
LINE
  5
ACE
330
1F
100
AcDbEntity
  8
0
 62
     7
 48
0.013242
370
    60
390
F
100
AcDbLine
 10
197.289867
 20
507.561668
 30
0.0
 11
197.306636
 21
508.091087
 31
0.0
  0
ARC
  5
ACF
330
1F
100
AcDbEntity
  8
0
 62
     7
370
    60
390
F
100
AcDbCircle
 10
197.727779
 20
509.578819
 30
0.0
 40
1.546485
100
AcDbArc
 50
254.194011
 51
285.910772
  0
LINE
  5
AD0
330
1F
100
AcDbEntity
  8
0
 62
     7
 48
0.013242
370
    60
390
F
100
AcDbLine
 10
198.135112
 20
507.561668
 30
0.0
 11
198.151882
 21
508.091087
 31
0.0
  0
LINE
  5
AD1
330
1F
100
AcDbEntity
  8
0
 62
     7
 48
0.000311
370
    60
390
F
100
AcDbLine
 10
198.1347
 20
507.5492169999999
 30
0.0
 11
198.135112
 21
507.561668
 31
0.0
  0
LINE
  5
AD2
330
1F
100
AcDbEntity
  8
0
 62
     7
 48
0.213796
370
    60
390
F
100
AcDbLine
 10
198.13467
 20
507.54824
 30
0.0
 11
206.686519
 21
507.545372
 31
0.0
  0
LINE
  5
AD3
330
1F
100
AcDbEntity
  8
0
 62
     7
 48
0.000408
370
    60
390
F
100
AcDbLine
 10
206.686519
 20
507.545372
 30
0.0
 11
206.686962
 21
507.561668
 31
0.0
  0
LINE
  5
AD4
330
1F
100
AcDbEntity
  8
0
 62
     7
 48
0.013241
370
    60
390
F
100
AcDbLine
 10
206.686962
 20
507.561668
 30
0.0
 11
206.702129
 21
508.091087
 31
0.0
  0
ARC
  5
AD5
330
1F
100
AcDbEntity
  8
0
 62
     7
370
    60
390
F
100
AcDbCircle
 10
207.274364
 20
510.855308
 30
0.0
 40
2.823039
100
AcDbArc
 50
258.303811
 51
281.748995
  0
LINE
  5
AD6
330
1F
100
AcDbEntity
  8
0
 62
     7
 48
0.013241
370
    60
390
F
100
AcDbLine
 10
207.834117
 20
507.561668
 30
0.0
 11
207.849269
 21
508.091087
 31
0.0
  0
LINE
  5
AD7
330
1F
100
AcDbEntity
  8
0
 62
     7
 48
0.000418
370
    60
390
F
100
AcDbLine
 10
207.833614
 20
507.544944
 30
0.0
 11
207.834117
 21
507.561668
 31
0.0
  0
LINE
  5
AD8
330
1F
100
AcDbEntity
  8
0
 62
     7
 48
0.274853
370
    60
390
F
100
AcDbLine
 10
207.833614
 20
507.544944
 30
0.0
 11
218.827732
 21
507.5426859999999
 31
0.0
  0
LINE
  5
AD9
330
1F
100
AcDbEntity
  8
0
 62
     7
 48
0.000391
370
    60
390
F
100
AcDbLine
 10
218.827732
 20
507.5426859999999
 30
0.0
 11
218.828098
 21
507.5583109999999
 31
0.0
  0
LINE
  5
ADA
330
1F
100
AcDbEntity
  8
0
 62
     7
 48
0.013029
370
    60
390
F
100
AcDbLine
 10
218.828098
 20
507.5583109999999
 30
0.0
 11
218.840969
 21
508.079307
 31
0.0
  0
ARC
  5
ADB
330
1F
100
AcDbEntity
  8
0
 62
     7
370
    60
390
F
100
AcDbCircle
 10
219.546932
 20
512.295249
 30
0.0
 40
4.274839
100
AcDbArc
 50
260.494102
 51
279.536218
  0
LINE
  5
ADC
330
1F
100
AcDbEntity
  8
0
 62
     7
 48
0.013029
370
    60
390
F
100
AcDbLine
 10
220.242313
 20
507.5583109999999
 30
0.0
 11
220.255184
 21
508.079307
 31
0.0
  0
LINE
  5
ADD
330
1F
100
AcDbEntity
  8
0
 62
     7
 48
0.000391
370
    60
390
F
100
AcDbLine
 10
220.241893
 20
507.5426859999999
 30
0.0
 11
220.242313
 21
507.5583109999999
 31
0.0
  0
LINE
  5
ADE
330
1F
100
AcDbEntity
  8
0
 62
     7
 48
0.32756
370
    60
390
F
100
AcDbLine
 10
220.241893
 20
507.5426859999999
 30
0.0
 11
233.344303
 21
507.544944
 31
0.0
  0
LINE
  5
ADF
330
1F
100
AcDbEntity
  8
0
 62
     7
 48
0.000418
370
    60
390
F
100
AcDbLine
 10
233.344303
 20
507.544944
 30
0.0
 11
233.3446
 21
507.561668
 31
0.0
  0
LINE
  5
AE0
330
1F
100
AcDbEntity
  8
0
 62
     7
 48
0.013238
370
    60
390
F
100
AcDbLine
 10
233.3446
 20
507.561668
 30
0.0
 11
233.355213
 21
508.091087
 31
0.0
  0
ARC
  5
AE1
330
1F
100
AcDbEntity
  8
0
 62
     7
370
    60
390
F
100
AcDbCircle
 10
234.173435
 20
513.7584449999999
 30
0.0
 40
5.726226
100
AcDbArc
 50
261.784714
 51
278.233708
  0
LINE
  5
AE2
330
1F
100
AcDbEntity
  8
0
 62
     7
 48
0.013238
370
    60
390
F
100
AcDbLine
 10
234.982906
 20
507.561668
 30
0.0
 11
234.993518
 21
508.091087
 31
0.0
  0
LINE
  5
AE3
330
1F
100
AcDbEntity
  8
0
 62
     7
 48
0.000406
370
    60
390
F
100
AcDbLine
 10
234.982547
 20
507.5454329999999
 30
0.0
 11
234.982906
 21
507.561668
 31
0.0
  0
LINE
  5
AE4
330
1F
100
AcDbEntity
  8
0
 62
     7
 48
0.237329
370
    60
390
F
100
AcDbLine
 10
234.982547
 20
507.5454329999999
 30
0.0
 11
244.475719
 21
507.54763
 31
0.0
  0
ELLIPSE
  5
AE5
330
1F
100
AcDbEntity
  8
0
 62
     7
370
    60
100
AcDbEllipse
 10
362.297521
 20
638.65969
 30
0.0
 11
-0.4560804963111877
 21
-23.2801456451416
 31
0.0
210
0.0
220
0.0
230
1.0
 40
0.9013280000000001
 41
2.594463586807251
 42
3.159249305725098
  0
ARC
  5
AE6
330
1F
100
AcDbEntity
  8
0
 62
     7
370
    60
390
F
100
AcDbCircle
 10
404.650176
 20
506.9434429999999
 30
0.0
 40
2.000097
100
AcDbArc
 50
17.59859
 51
89.99998900000001
  0
LINE
  5
AE7
330
1F
100
AcDbEntity
  8
0
 62
     7
 48
0.201077
370
    60
390
F
100
AcDbLine
 10
396.606475
 20
508.943504
 30
0.0
 11
404.64957
 21
508.943504
 31
0.0
  0
LINE
  5
AE8
330
1F
100
AcDbEntity
  8
0
 62
     7
370
    60
390
F
100
AcDbLine
 10
383.097404
 20
641.514244
 30
0.0
 11
396.693355
 21
508.091087
 31
0.0
  0
LWPOLYLINE
  5
AE9
330
1F
100
AcDbEntity
  8
0
 62
     7
370
    60
390
F
100
AcDbPolyline
 90
       36
 70
     0
 43
0.0
 10
362.383058
 20
661.9435040000001
 10
363.251502
 20
661.9235450000001
 10
364.118539
 20
661.8637309999999
 10
364.982627
 20
661.76406
 10
365.842235
 20
661.6248390000001
 10
366.69585
 20
661.446189
 10
367.541969
 20
661.228355
 10
368.379114
 20
660.9718849999999
 10
369.205821
 20
660.677085
 10
370.020654
 20
660.344505
 10
370.822196
 20
659.9747540000001
 10
371.609058
 20
659.5684429999999
 10
372.379875
 20
659.1263039999999
 10
373.133315
 20
658.6491309999999
 10
373.868076
 20
658.1377789999999
 10
374.582885
 20
657.59304
 10
375.276506
 20
657.0159530000001
 10
375.947742
 20
656.4074929999999
 10
376.595428
 20
655.7687599999999
 10
377.218442
 20
655.1007910000001
 10
377.815704
 20
654.404747
 10
378.38618
 20
653.681846
 10
378.928871
 20
652.933372
 10
379.442836
 20
652.1606059999999
 10
379.927177
 20
651.36483
 10
380.38105
 20
650.5475080000001
 10
380.803653
 20
649.709983
 10
381.194259
 20
648.853721
 10
381.552173
 20
647.980247
 10
381.876773
 20
647.091026
 10
382.167491
 20
646.1876440000001
 10
382.423824
 20
645.27169
 10
382.645324
 20
644.3446879999999
 10
382.831619
 20
643.4083479999999
 10
382.982391
 20
642.4643169999999
 10
383.097404
 20
641.514244
  0
ELLIPSE
  5
AEC
330
1F
100
AcDbEntity
  8
0
 62
     7
370
    60
100
AcDbEllipse
 10
394.141025
 20
506.943504
 30
0.0
 11
-8.742277660000001E-8
 21
2.0
 31
0.0
210
0.0
220
0.0
230
1.0
 40
0.9063080000000013
 41
5.026616096496582
 42
6.283185482025146
  0
LINE
  5
AEE
330
1F
100
AcDbEntity
  8
0
 62
     7
 48
0.305774
370
    60
390
F
100
AcDbLine
 10
349.306846
 20
661.9435040000001
 30
0.0
 11
361.537822
 21
661.9435040000001
 31
0.0
  0
LWPOLYLINE
  5
AEF
330
1F
100
AcDbEntity
  8
0
 62
     7
370
    60
390
F
100
AcDbPolyline
 90
       29
 70
     0
 43
0.0
 10
379.594879
 20
640.6866070000001
 10
379.511032
 20
641.5349349999999
 10
379.394405
 20
642.378807
 10
379.245216
 20
643.2166360000001
 10
379.063739
 20
644.0467140000001
 10
378.850318
 20
644.8676370000001
 10
378.605342
 20
645.677696
 10
378.329273
 20
646.475547
 10
378.022621
 20
647.259605
 10
377.685951
 20
648.0284650000001
 10
377.319883
 20
648.7806619999999
 10
376.925088
 20
649.514915
 10
376.50229
 20
650.229881
 10
376.052257
 20
650.924156
 10
375.575811
 20
651.5966410000001
 10
375.073816
 20
652.2459329999999
 10
374.547178
 20
652.8710550000001
 10
373.996854
 20
653.470726
 10
373.423835
 20
654.043968
 10
372.829156
 20
654.5896829999999
 10
372.213891
 20
655.1068949999999
 10
371.579152
 20
655.5947490000001
 10
370.926082
 20
656.052207
 10
370.255866
 20
656.4785380000001
 10
369.569715
 20
656.873008
 10
368.868875
 20
657.234764
 10
368.154622
 20
657.563316
 10
367.42826
 20
657.857872
 10
366.691121
 20
658.118064
  0
LINE
  5
AF0
330
1F
100
AcDbEntity
  8
0
 62
     7
370
    60
390
F
100
AcDbLine
 10
389.895675
 20
510.769615
 30
0.0
 11
379.594341
 21
640.6866070000001
 31
0.0
  0
LINE
  5
AF1
330
1F
100
AcDbEntity
  8
0
 62
     7
 48
0.003473
370
    60
390
F
100
AcDbLine
 10
389.906658
 20
510.6311260000001
 30
0.0
 11
389.895675
 21
510.769615
 31
0.0
  0
LWPOLYLINE
  5
AF2
330
1F
100
AcDbEntity
  8
0
 62
     7
370
    60
390
F
100
AcDbPolyline
 90
       10
 70
     0
 43
0.0
 10
389.906658
 20
510.6311260000001
 10
389.97301
 20
510.325889
 10
390.081832
 20
510.03585
 10
390.230438
 20
509.76815
 10
390.415172
 20
509.529441
 10
390.631488
 20
509.325584
 10
390.87405
 20
509.1615210000001
 10
391.136878
 20
509.041404
 10
391.413501
 20
508.968101
 10
391.697109
 20
508.943504
  0
LINE
  5
AF3
330
1F
100
AcDbEntity
  8
0
 62
     7
 48
0.172937
370
    60
390
F
100
AcDbLine
 10
387.219318
 20
508.943504
 30
0.0
 11
394.13681
 21
508.943504
 31
0.0
  0
LINE
  5
AF4
330
1F
100
AcDbEntity
  8
0
 62
     7
370
    60
390
F
100
AcDbLine
 10
375.009384
 20
641.514244
 30
0.0
 11
387.29787
 21
508.091087
 31
0.0
  0
LWPOLYLINE
  5
AF5
330
1F
100
AcDbEntity
  8
0
 62
     7
370
    60
390
F
100
AcDbPolyline
 90
       36
 70
     0
 43
0.0
 10
356.287049
 20
661.9435040000001
 10
357.071977
 20
661.9235450000001
 10
357.855635
 20
661.8637309999999
 10
358.636628
 20
661.76406
 10
359.413572
 20
661.6248390000001
 10
360.185097
 20
661.446189
 10
360.949849
 20
661.228355
 10
361.706489
 20
660.9718849999999
 10
362.453695
 20
660.677085
 10
363.19017
 20
660.344505
 10
363.91463
 20
659.9747540000001
 10
364.625823
 20
659.5684429999999
 10
365.322515
 20
659.1263039999999
 10
366.003499
 20
658.6491309999999
 10
366.6676
 20
658.1377789999999
 10
367.313669
 20
657.59304
 10
367.940589
 20
657.0159530000001
 10
368.547275
 20
656.4074929999999
 10
369.132675
 20
655.7687599999999
 10
369.695777
 20
655.1007910000001
 10
370.235605
 20
654.404747
 10
370.751218
 20
653.681846
 10
371.241722
 20
652.933372
 10
371.70626
 20
652.1606059999999
 10
372.144023
 20
651.36483
 10
372.554248
 20
650.5475080000001
 10
372.936216
 20
649.709983
 10
373.289255
 20
648.853721
 10
373.61275
 20
647.980247
 10
373.906137
 20
647.091026
 10
374.168897
 20
646.1876440000001
 10
374.400579
 20
645.27169
 10
374.60078
 20
644.3446879999999
 10
374.769159
 20
643.4083479999999
 10
374.905433
 20
642.4643169999999
 10
375.009384
 20
641.514244
  0
ELLIPSE
  5
AF8
330
1F
100
AcDbEntity
  8
0
 62
     7
370
    60
100
AcDbEllipse
 10
384.607788
 20
506.943504
 30
0.0
 11
-8.742277660000001E-8
 21
2.0
 31
0.0
210
0.0
220
0.0
230
1.0
 40
0.8191520000000013
 41
5.026616096496582
 42
6.283185482025146
  0
LINE
  5
AFA
330
1F
100
AcDbEntity
  8
0
 62
     7
 48
0.145825
370
    60
390
F
100
AcDbLine
 10
349.30691
 20
661.9435040000001
 30
0.0
 11
355.139896
 21
661.9435040000001
 31
0.0
  0
LWPOLYLINE
  5
AFB
330
1F
100
AcDbEntity
  8
0
 62
     7
370
    60
390
F
100
AcDbPolyline
 90
       33
 70
     0
 43
0.0
 10
371.460483
 20
640.6866070000001
 10
371.382438
 20
641.5559920000001
 10
371.273279
 20
642.4206159999999
 10
371.133218
 20
643.2787699999999
 10
370.962531
 20
644.128807
 10
370.76155
 20
644.9688940000001
 10
370.530668
 20
645.7975080000001
 10
370.270336
 20
646.6129980000001
 10
369.981059
 20
647.4137189999999
 10
369.6634
 20
648.198204
 10
369.317972
 20
648.964927
 10
368.94544
 20
649.712364
 10
368.546518
 20
650.4391700000001
 10
368.121971
 20
651.1438820000001
 10
367.672607
 20
651.8252789999999
 10
367.199285
 20
652.4818949999999
 10
366.702903
 20
653.1126320000001
 10
366.184406
 20
653.7162699999999
 10
365.644773
 20
654.2915869999999
 10
365.085031
 20
654.8375470000001
 10
364.50624
 20
655.3531720000001
 10
363.909498
 20
655.837364
 10
363.295936
 20
656.289268
 10
362.666723
 20
656.70803
 10
362.023054
 20
657.0927959999999
 10
361.366161
 20
657.4428929999999
 10
360.6973
 20
657.757591
 10
360.01776
 20
658.0362769999999
 10
359.328849
 20
658.278526
 10
358.631907
 20
658.4837259999999
 10
357.928293
 20
658.6515119999999
 10
357.219386
 20
658.7815780000001
 10
356.506592
 20
658.8736799999999
  0
LINE
  5
AFC
330
1F
100
AcDbEntity
  8
0
 62
     7
370
    60
390
F
100
AcDbLine
 10
380.770725
 20
510.769187
 30
0.0
 11
371.459999
 21
640.6866070000001
 31
0.0
  0
ELLIPSE
  5
AFD
330
1F
100
AcDbEntity
  8
0
 62
     7
370
    60
100
AcDbEllipse
 10
382.402797
 20
510.943504
 30
0.0
 11
-8.742277660000001E-8
 21
2.0
 31
0.0
210
0.0
220
0.0
230
1.0
 40
0.8191520000000013
 41
1.658062815666199
 42
3.141592741012573
  0
LINE
  5
AFE
330
1F
100
AcDbEntity
  8
0
 62
     7
 48
0.237842
370
    60
390
F
100
AcDbLine
 10
375.090301
 20
508.943504
 30
0.0
 11
384.603984
 21
508.943504
 31
0.0
  0
LINE
  5
AFF
330
1F
100
AcDbEntity
  8
0
 62
     7
370
    60
390
F
100
AcDbLine
 10
350.219035
 20
661.7975080000001
 30
0.0
 11
309.442761468322
 21
668.3232503741482
 31
0.0
  0
LWPOLYLINE
  5
B00
330
1F
100
AcDbEntity
  8
0
 62
     7
370
    60
390
F
100
AcDbPolyline
 90
       36
 70
     0
 43
0.0
 10
350.219035
 20
661.7975080000001
 10
350.839049
 20
661.6811749999999
 10
351.455454
 20
661.531211
 10
352.067325
 20
661.3478009999999
 10
352.673752
 20
661.1312479999999
 10
353.273829
 20
660.881858
 10
353.866668
 20
660.5999979999999
 10
354.451389
 20
660.286155
 10
355.027129
 20
659.9406959999999
 10
355.593038
 20
659.5641700000001
 10
356.148281
 20
659.1571879999999
 10
356.692039
 20
658.720298
 10
357.223513
 20
658.254173
 10
357.741921
 20
657.759483
 10
358.246498
 20
657.237022
 10
358.736503
 20
656.687522
 10
359.211213
 20
656.111778
 10
359.669927
 20
655.5106430000001
 10
360.11197
 20
654.8850319999999
 10
360.536688
 20
654.235923
 10
360.943453
 20
653.5641089999999
 10
361.331662
 20
652.87075
 10
361.70074
 20
652.156761
 10
362.050138
 20
651.4232400000001
 10
362.379335
 20
650.6712259999999
 10
362.687843
 20
649.9018779999999
 10
362.975202
 20
649.1162939999999
 10
363.240983
 20
648.3156349999999
 10
363.48479
 20
647.50106
 10
363.70626
 20
646.673851
 10
363.905065
 20
645.835227
 10
364.080909
 20
644.986351
 10
364.233535
 20
644.1285620000001
 10
364.362726
 20
643.2631449999999
 10
364.468294
 20
642.3913190000001
 10
364.550096
 20
641.514549
  0
LINE
  5
B01
330
1F
100
AcDbEntity
  8
0
 62
     7
370
    60
390
F
100
AcDbLine
 10
364.550096
 20
641.514549
 30
0.0
 11
375.159023
 21
508.079246
 31
0.0
  0
LINE
  5
B04
330
1F
100
AcDbEntity
  8
0
 62
     7
370
    60
390
F
100
AcDbLine
 10
369.100412
 20
510.769187
 30
0.0
 11
361.063224
 21
640.6866070000001
 31
0.0
  0
LWPOLYLINE
  5
B05
330
1F
100
AcDbEntity
  8
0
 62
     7
370
    60
390
F
100
AcDbPolyline
 90
       36
 70
     0
 43
0.0
 10
346.974367
 20
658.9435040000001
 10
347.573403
 20
658.9254980000001
 10
348.171535
 20
658.8716649999999
 10
348.767634
 20
658.7819440000001
 10
349.360586
 20
658.656639
 10
349.949289
 20
658.495872
 10
350.532658
 20
658.299949
 10
351.109624
 20
658.069297
 10
351.679135
 20
657.8043439999999
 10
352.24016
 20
657.505455
 10
352.791684
 20
657.1732400000001
 10
353.332715
 20
656.808372
 10
353.862284
 20
656.4113990000001
 10
354.379442
 20
655.9831159999999
 10
354.883266
 20
655.5241920000001
 10
355.372858
 20
655.035545
 10
355.847348
 20
654.518028
 10
356.305889
 20
653.972557
 10
356.747665
 20
653.4000470000001
 10
357.171892
 20
652.8015969999999
 10
357.577813
 20
652.1782450000001
 10
357.964704
 20
651.5310890000001
 10
358.331874
 20
650.861228
 10
358.678667
 20
650.170005
 10
359.00446
 20
649.4585179999999
 10
359.308667
 20
648.7280499999999
 10
359.59074
 20
647.9800029999999
 10
359.850168
 20
647.2155989999999
 10
360.08648
 20
646.436363
 10
360.299247
 20
645.643577
 10
360.488079
 20
644.8387680000001
 10
360.652631
 20
644.0233989999999
 10
360.792601
 20
643.198936
 10
360.90773
 20
642.3669050000001
 10
360.99781
 20
641.528953
 10
361.062674
 20
640.6866070000001
  0
LINE
  5
B06
330
1F
100
AcDbEntity
  8
0
 62
     7
 48
0.175002
370
    60
390
F
100
AcDbLine
 10
305.458034
 20
659.9434429999999
 30
0.0
 11
305.458034
 21
666.9435040000001
 31
0.0
  0
LWPOLYLINE
  5
B09
330
1F
100
AcDbEntity
  8
0
 62
     7
370
    60
390
F
100
AcDbPolyline
 90
        9
 70
     0
 43
0.0
 10
372.411998
 20
508.943504
 10
372.633573
 20
508.9187239999999
 10
372.850229
 20
508.844993
 10
373.055976
 20
508.724205
 10
373.245489
 20
508.5593489999999
 10
373.414096
 20
508.35482
 10
373.55779
 20
508.115806
 10
373.673217
 20
507.848167
 10
373.757682
 20
507.5583109999999
  0
LWPOLYLINE
  5
B0A
330
1F
100
AcDbEntity
  8
0
 62
     7
370
    60
390
F
100
AcDbPolyline
 90
       11
 70
     0
 43
0.0
 10
369.100412
 20
510.769187
 10
369.136726
 20
510.461387
 10
369.206443
 20
510.165367
 10
369.307866
 20
509.8883279999999
 10
369.438524
 20
509.636924
 10
369.595241
 20
509.41732
 10
369.774207
 20
509.2348249999999
 10
369.971059
 20
509.093956
 10
370.181003
 20
508.998069
 10
370.398937
 20
508.949546
 10
370.509244
 20
508.943504
  0
LINE
  5
B0B
330
1F
100
AcDbEntity
  8
0
 62
     7
 48
0.295488
370
    60
390
F
100
AcDbLine
 10
360.589805
 20
508.943504
 30
0.0
 11
372.409326
 21
508.943504
 31
0.0
  0
LINE
  5
B0C
330
1F
100
AcDbEntity
  8
0
 62
     7
370
    60
390
F
100
AcDbLine
 10
352.040287
 20
641.514244
 30
0.0
 11
360.644778
 21
508.091087
 31
0.0
  0
LWPOLYLINE
  5
B0D
330
1F
100
AcDbEntity
  8
0
 62
     7
370
    60
390
F
100
AcDbPolyline
 90
       36
 70
     0
 43
0.0
 10
338.930767
 20
661.9435040000001
 10
339.48038
 20
661.9235450000001
 10
340.029103
 20
661.8637309999999
 10
340.57596
 20
661.76406
 10
341.119982
 20
661.6248390000001
 10
341.66021
 20
661.446189
 10
342.195695
 20
661.228355
 10
342.7255
 20
660.9718849999999
 10
343.2487
 20
660.677085
 10
343.764384
 20
660.344505
 10
344.271657
 20
659.9747540000001
 10
344.76964
 20
659.5684429999999
 10
345.257468
 20
659.1263039999999
 10
345.734299
 20
658.6491309999999
 10
346.199308
 20
658.1377789999999
 10
346.65169
 20
657.59304
 10
347.090664
 20
657.0159530000001
 10
347.515469
 20
656.4074929999999
 10
347.925371
 20
655.7687599999999
 10
348.31966
 20
655.1007910000001
 10
348.697651
 20
654.404747
 10
349.058687
 20
653.681846
 10
349.402141
 20
652.933372
 10
349.727415
 20
652.1606059999999
 10
350.033941
 20
651.36483
 10
350.321183
 20
650.5475080000001
 10
350.588639
 20
649.709983
 10
350.83584
 20
648.853721
 10
351.062354
 20
647.980247
 10
351.267785
 20
647.091026
 10
351.451773
 20
646.1876440000001
 10
351.613998
 20
645.27169
 10
351.754179
 20
644.3446879999999
 10
351.872079
 20
643.4083479999999
 10
351.9675
 20
642.4643169999999
 10
352.040287
 20
641.514244
  0
ELLIPSE
  5
B10
330
1F
100
AcDbEntity
  8
0
 62
     7
370
    60
100
AcDbEllipse
 10
357.926103
 20
506.943504
 30
0.0
 11
-8.742277660000001E-8
 21
2.0
 31
0.0
210
0.0
220
0.0
230
1.0
 40
0.5735760000000013
 41
5.026616096496582
 42
6.283185482025146
  0
LINE
  5
B11
330
1F
100
AcDbEntity
  8
0
 62
     7
 48
0.344174
370
    60
390
F
100
AcDbLine
 10
344.156507
 20
508.943504
 30
0.0
 11
357.923452
 21
508.943504
 31
0.0
  0
LINE
  5
B12
330
1F
100
AcDbEntity
  8
0
 62
     7
370
    60
390
F
100
AcDbLine
 10
337.857114
 20
641.514244
 30
0.0
 11
344.19701
 21
508.091087
 31
0.0
  0
LWPOLYLINE
  5
B13
330
1F
100
AcDbEntity
  8
0
 62
     7
370
    60
390
F
100
AcDbPolyline
 90
       31
 70
     0
 43
0.0
 10
328.197856
 20
661.9435040000001
 10
328.602819
 20
661.9235450000001
 10
329.007125
 20
661.8637309999999
 10
329.410056
 20
661.76406
 10
329.810898
 20
661.6248390000001
 10
330.208945
 20
661.446189
 10
330.603497
 20
661.228355
 10
330.993863
 20
660.9718849999999
 10
331.379363
 20
660.677085
 10
331.759326
 20
660.344505
 10
332.133091
 20
659.9747540000001
 10
332.500011
 20
659.5684429999999
 10
332.859449
 20
659.1263039999999
 10
333.210784
 20
658.6491309999999
 10
333.553408
 20
658.1377789999999
 10
333.88673
 20
657.59304
 10
334.21017
 20
657.0159530000001
 10
334.523173
 20
656.4074929999999
 10
334.825194
 20
655.7687599999999
 10
335.11571
 20
655.1007910000001
 10
335.394219
 20
654.404747
 10
335.660235
 20
653.681846
 10
335.913296
 20
652.933372
 10
336.152962
 20
652.1606059999999
 10
336.378814
 20
651.36483
 10
336.590457
 20
650.5475080000001
 10
336.969663
 20
648.853721
 10
337.287925
 20
647.091026
 10
337.54302
 20
645.27169
 10
337.733177
 20
643.4083479999999
 10
337.857114
 20
641.514244
  0
ELLIPSE
  5
B16
330
1F
100
AcDbEntity
  8
0
 62
     7
370
    60
100
AcDbEllipse
 10
341.588364
 20
506.943504
 30
0.0
 11
-8.742277660000001E-8
 21
2.0
 31
0.0
210
0.0
220
0.0
230
1.0
 40
0.422618
 41
5.026616096496582
 42
6.283185482025146
  0
LINE
  5
B18
330
1F
100
AcDbEntity
  8
0
 62
     7
 48
0.229016
370
    60
390
F
100
AcDbLine
 10
317.224603
 20
661.9435040000001
 30
0.0
 11
326.385242
 21
661.9435040000001
 31
0.0
  0
LINE
  5
B19
330
1F
100
AcDbEntity
  8
0
 62
     7
 48
0.075
370
    60
390
F
100
AcDbLine
 10
317.224603
 20
658.9435040000001
 30
0.0
 11
317.224603
 21
661.9435040000001
 31
0.0
  0
LWPOLYLINE
  5
B1A
330
1F
100
AcDbEntity
  8
0
 62
     7
370
    60
390
F
100
AcDbPolyline
 90
       29
 70
     0
 43
0.0
 10
334.805385
 20
640.6866070000001
 10
334.712779
 20
642.3669050000001
 10
334.560313
 20
644.023338
 10
334.349103
 20
645.643577
 10
334.080701
 20
647.2155989999999
 10
333.75706
 20
648.727989
 10
333.380528
 20
650.169944
 10
332.953813
 20
651.5310280000001
 10
332.722579
 20
652.1781840000001
 10
332.479972
 20
652.8015359999999
 10
332.226425
 20
653.3999859999999
 10
331.962387
 20
653.9724349999999
 10
331.688332
 20
654.517967
 10
331.404745
 20
655.035484
 10
331.11213
 20
655.5241309999999
 10
330.81101
 20
655.982994
 10
330.50192
 20
656.4113379999999
 10
330.185414
 20
656.808311
 10
329.862057
 20
657.1731789999999
 10
329.532428
 20
657.5053929999999
 10
329.197122
 20
657.804222
 10
328.856742
 20
658.069236
 10
328.511909
 20
658.299888
 10
328.163247
 20
658.495811
 10
327.811397
 20
658.6565780000001
 10
327.45701
 20
658.7819440000001
 10
327.10074
 20
658.8716039999999
 10
326.743255
 20
658.9254980000001
 10
326.385229
 20
658.9435040000001
  0
LINE
  5
B1B
330
1F
100
AcDbEntity
  8
0
 62
     7
370
    60
390
F
100
AcDbLine
 10
339.608725
 20
510.769615
 30
0.0
 11
334.805135
 21
640.6866070000001
 31
0.0
  0
LINE
  5
B1C
330
1F
100
AcDbEntity
  8
0
 62
     7
 48
0.003465
370
    60
390
F
100
AcDbLine
 10
339.613845
 20
510.6311260000001
 30
0.0
 11
339.608725
 21
510.769615
 31
0.0
  0
LWPOLYLINE
  5
B1D
330
1F
100
AcDbEntity
  8
0
 62
     7
370
    60
390
F
100
AcDbPolyline
 90
        9
 70
     0
 43
0.0
 10
339.613845
 20
510.6311260000001
 10
339.667747
 20
510.178489
 10
339.764817
 20
509.768211
 10
339.899692
 20
509.422874
 10
340.007
 20
509.238304
 10
340.125188
 20
509.095787
 10
340.251344
 20
508.998802
 10
340.382383
 20
508.949668
 10
340.448748
 20
508.943504
  0
LINE
  5
B1E
330
1F
100
AcDbEntity
  8
0
 62
     7
370
    60
390
F
100
AcDbLine
 10
312.999996
 20
508.943504
 30
0.0
 11
341.586392
 21
508.943504
 31
0.0
  0
LINE
  5
B1F
330
1F
100
AcDbEntity
  8
0
 62
     7
370
    60
390
F
100
AcDbLine
 10
252.4136
 20
508.943504
 30
0.0
 11
280.999996
 21
508.943504
 31
0.0
  0
ELLIPSE
  5
B20
330
1F
100
AcDbEntity
  8
0
 62
     7
370
    60
100
AcDbEllipse
 10
252.411632
 20
506.943504
 30
0.0
 11
2.384976130000000E-8
 21
-2.0
 31
0.0
210
0.0
220
0.0
230
1.0
 40
0.422618
 41
3.141592741012573
 42
4.398161888122559
  0
LINE
  5
B21
330
1F
100
AcDbEntity
  8
0
 62
     7
 48
0.003465
370
    60
390
F
100
AcDbLine
 10
254.38615
 20
510.6311260000001
 30
0.0
 11
254.391269
 21
510.769615
 31
0.0
  0
LINE
  5
B22
330
1F
100
AcDbEntity
  8
0
 62
     7
370
    60
390
F
100
AcDbLine
 10
254.391269
 20
510.769615
 30
0.0
 11
259.194858
 21
640.6866070000001
 31
0.0
  0
LWPOLYLINE
  5
B23
330
1F
100
AcDbEntity
  8
0
 62
     7
370
    60
390
F
100
AcDbPolyline
 90
       29
 70
     0
 43
0.0
 10
259.194606
 20
640.6866070000001
 10
259.287212
 20
642.3669050000001
 10
259.439678
 20
644.023338
 10
259.65089
 20
645.643577
 10
259.919292
 20
647.2155989999999
 10
260.242931
 20
648.727989
 10
260.619464
 20
650.169944
 10
261.046184
 20
651.5310280000001
 10
261.277416
 20
652.1781840000001
 10
261.520023
 20
652.8015359999999
 10
261.77357
 20
653.3999859999999
 10
262.037609
 20
653.9724349999999
 10
262.311664
 20
654.517967
 10
262.595249
 20
655.035484
 10
262.887866
 20
655.5241309999999
 10
263.188983
 20
655.982994
 10
263.498073
 20
656.4113379999999
 10
263.814578
 20
656.808311
 10
264.137935
 20
657.1731789999999
 10
264.467563
 20
657.5053929999999
 10
264.802875
 20
657.804222
 10
265.143253
 20
658.069236
 10
265.488086
 20
658.299888
 10
265.836749
 20
658.495811
 10
266.188594
 20
658.6565780000001
 10
266.542987
 20
658.7819440000001
 10
266.899257
 20
658.8716039999999
 10
267.25674
 20
658.9254980000001
 10
267.614765
 20
658.9435040000001
  0
LINE
  5
B24
330
1F
100
AcDbEntity
  8
0
 62
     7
 48
0.075
370
    60
390
F
100
AcDbLine
 10
276.775394
 20
658.9435040000001
 30
0.0
 11
276.775394
 21
661.9435040000001
 31
0.0
  0
LINE
  5
B25
330
1F
100
AcDbEntity
  8
0
 62
     7
 48
0.229016
370
    60
390
F
100
AcDbLine
 10
276.775394
 20
661.9435040000001
 30
0.0
 11
267.614749
 21
661.9435040000001
 31
0.0
  0
LWPOLYLINE
  5
B28
330
1F
100
AcDbEntity
  8
0
 62
     7
370
    60
390
F
100
AcDbPolyline
 90
        9
 70
     0
 43
0.0
 10
254.38615
 20
510.6311260000001
 10
254.33224
 20
510.178489
 10
254.235164
 20
509.76815
 10
254.100284
 20
509.422813
 10
253.992961
 20
509.238304
 10
253.874759
 20
509.095787
 10
253.748599
 20
508.9987409999999
 10
253.617572
 20
508.949668
 10
253.551242
 20
508.943504
  0
LINE
  5
B2A
330
1F
100
AcDbEntity
  8
0
 62
     7
370
    60
390
F
100
AcDbLine
 10
256.142879
 20
641.514244
 30
0.0
 11
249.802982
 21
508.091087
 31
0.0
  0
LWPOLYLINE
  5
B2B
330
1F
100
AcDbEntity
  8
0
 62
     7
370
    60
390
F
100
AcDbPolyline
 90
       31
 70
     0
 43
0.0
 10
265.802135
 20
661.9435040000001
 10
265.397174
 20
661.9235450000001
 10
264.99287
 20
661.8637309999999
 10
264.589939
 20
661.76406
 10
264.189098
 20
661.6248390000001
 10
263.791049
 20
661.446189
 10
263.396495
 20
661.228355
 10
263.00613
 20
660.9718849999999
 10
262.620632
 20
660.677085
 10
262.240665
 20
660.344505
 10
261.866901
 20
659.9747540000001
 10
261.49998
 20
659.5684429999999
 10
261.140544
 20
659.1263039999999
 10
260.789211
 20
658.6491309999999
 10
260.446582
 20
658.1377789999999
 10
260.113262
 20
657.59304
 10
259.789821
 20
657.0159530000001
 10
259.476825
 20
656.4074929999999
 10
259.1748
 20
655.7687599999999
 10
258.884281
 20
655.1007910000001
 10
258.605777
 20
654.404747
 10
258.339763
 20
653.681846
 10
258.086696
 20
652.933372
 10
257.847034
 20
652.1606059999999
 10
257.621181
 20
651.36483
 10
257.409534
 20
650.5475080000001
 10
257.03033
 20
648.8537819999999
 10
256.71207
 20
647.091026
 10
256.456973
 20
645.27169
 10
256.266818
 20
643.4083479999999
 10
256.142879
 20
641.514244
  0
LINE
  5
B2C
330
1F
100
AcDbEntity
  8
0
 62
     7
 48
0.344174
370
    60
390
F
100
AcDbLine
 10
236.076541
 20
508.943504
 30
0.0
 11
249.843486
 21
508.943504
 31
0.0
  0
ELLIPSE
  5
B2D
330
1F
100
AcDbEntity
  8
0
 62
     7
370
    60
100
AcDbEllipse
 10
236.073886
 20
506.943504
 30
0.0
 11
2.384976130000000E-8
 21
-2.0
 31
0.0
210
0.0
220
0.0
230
1.0
 40
0.5735759999999993
 41
3.141592741012573
 42
4.398161888122559
  0
ARC
  5
B31
330
1F
100
AcDbEntity
  8
0
 62
     7
370
    60
390
F
100
AcDbCircle
 10
368.675233
 20
638.943321
 30
0.0
 40
20.000784
100
AcDbArc
 50
5.000411
 51
75.73640200000001
  0
LWPOLYLINE
  5
B33
330
1F
100
AcDbEntity
  8
0
 62
     7
370
    60
390
F
100
AcDbPolyline
 90
       10
 70
     0
 43
0.0
 10
288.54079
 20
666.9435040000001
 10
288.577087
 20
667.3932110000001
 10
288.684188
 20
667.819847
 10
288.792316
 20
668.080406
 10
288.926975
 20
668.3150250000001
 10
289.085048
 20
668.518333
 10
289.262893
 20
668.6856909999999
 10
289.456447
 20
668.8134379999999
 10
289.661296
 20
668.898704
 10
289.766502
 20
668.924827
  0
LINE
  5
B34
330
1F
100
AcDbEntity
  8
0
 62
     7
 48
0.211451
370
    60
390
F
100
AcDbLine
 10
296.999996
 20
666.9435040000001
 30
0.0
 11
288.541957
 21
666.9435040000001
 31
0.0
  0
LINE
  5
B35
330
1F
100
AcDbEntity
  8
0
 62
     7
 48
0.274996
370
    60
390
F
100
AcDbLine
 10
286.000102
 20
668.9435040000001
 30
0.0
 11
296.999938
 21
668.9435040000001
 31
0.0
  0
LINE
  5
B36
330
1F
100
AcDbEntity
  8
0
 62
     7
 48
0.035355
370
    60
390
F
100
AcDbLine
 10
350.219035
 20
661.7975080000001
 30
0.0
 11
348.804822
 21
661.7975080000001
 31
0.0
  0
LINE
  5
B37
330
1F
100
AcDbEntity
  8
0
 62
     7
 48
0.003467
370
    60
390
F
100
AcDbLine
 10
238.753703
 20
510.6311260000001
 30
0.0
 11
238.760646
 21
510.769615
 31
0.0
  0
LINE
  5
B38
330
1F
100
AcDbEntity
  8
0
 62
     7
370
    60
390
F
100
AcDbLine
 10
238.760646
 20
510.769615
 30
0.0
 11
245.280071
 21
640.6866070000001
 31
0.0
  0
LWPOLYLINE
  5
B39
330
1F
100
AcDbEntity
  8
0
 62
     7
370
    60
390
F
100
AcDbPolyline
 90
       36
 70
     0
 43
0.0
 10
245.279735
 20
640.6866070000001
 10
245.332347
 20
641.528953
 10
245.405414
 20
642.3669050000001
 10
245.498805
 20
643.198875
 10
245.612346
 20
644.023338
 10
245.745822
 20
644.8387680000001
 10
245.898998
 20
645.643577
 10
246.071582
 20
646.4363020000001
 10
246.263271
 20
647.2155989999999
 10
246.473712
 20
647.9799419999999
 10
246.702518
 20
648.727989
 10
246.949275
 20
649.458457
 10
247.213542
 20
650.169944
 10
247.494853
 20
650.861167
 10
247.792682
 20
651.5310280000001
 10
248.10651
 20
652.1781840000001
 10
248.435779
 20
652.8015359999999
 10
248.779895
 20
653.3999859999999
 10
249.13824
 20
653.9724349999999
 10
249.510188
 20
654.517967
 10
249.895076
 20
655.035484
 10
250.292209
 20
655.5241309999999
 10
250.700893
 20
655.982994
 10
251.120387
 20
656.4113379999999
 10
251.549945
 20
656.808311
 10
251.988803
 20
657.1731789999999
 10
252.436176
 20
657.5053929999999
 10
252.891254
 20
657.804222
 10
253.353214
 20
658.069236
 10
253.821224
 20
658.299888
 10
254.294429
 20
658.495811
 10
254.771953
 20
658.6565780000001
 10
255.252933
 20
658.7819440000001
 10
255.736461
 20
658.8716039999999
 10
256.221637
 20
658.9254980000001
 10
256.707546
 20
658.9435040000001
  0
LINE
  5
B3A
330
1F
100
AcDbEntity
  8
0
 62
     7
 48
0.31082
370
    60
390
F
100
AcDbLine
 10
269.140331
 20
661.9435040000001
 30
0.0
 11
256.70753
 21
661.9435040000001
 31
0.0
  0
LWPOLYLINE
  5
B3D
330
1F
100
AcDbEntity
  8
0
 62
     7
370
    60
390
F
100
AcDbPolyline
 90
        9
 70
     0
 43
0.0
 10
238.753703
 20
510.6311260000001
 10
238.680538
 20
510.178489
 10
238.548786
 20
509.76815
 10
238.431873
 20
509.529441
 10
238.294979
 20
509.325584
 10
238.141467
 20
509.1615210000001
 10
237.975131
 20
509.041404
 10
237.80006
 20
508.968101
 10
237.620571
 20
508.943504
  0
LINE
  5
B3F
330
1F
100
AcDbEntity
  8
0
 62
     7
370
    60
390
F
100
AcDbLine
 10
241.959705
 20
641.514244
 30
0.0
 11
233.355213
 21
508.091087
 31
0.0
  0
LWPOLYLINE
  5
B40
330
1F
100
AcDbEntity
  8
0
 62
     7
370
    60
390
F
100
AcDbPolyline
 90
       36
 70
     0
 43
0.0
 10
255.069225
 20
661.9435040000001
 10
254.519611
 20
661.9235450000001
 10
253.970889
 20
661.8637309999999
 10
253.424037
 20
661.76406
 10
252.880016
 20
661.6248390000001
 10
252.339786
 20
661.446189
 10
251.804302
 20
661.228355
 10
251.274494
 20
660.9718849999999
 10
250.751293
 20
660.677085
 10
250.235607
 20
660.344505
 10
249.728336
 20
659.9747540000001
 10
249.230358
 20
659.5684429999999
 10
248.742526
 20
659.1263039999999
 10
248.265697
 20
658.6491309999999
 10
247.800685
 20
658.1377789999999
 10
247.3483
 20
657.59304
 10
246.909328
 20
657.0159530000001
 10
246.484523
 20
656.4074929999999
 10
246.074626
 20
655.7687599999999
 10
245.680332
 20
655.1007910000001
 10
245.302341
 20
654.404747
 10
244.94131
 20
653.681846
 10
244.59785
 20
652.933372
 10
244.272579
 20
652.1606059999999
 10
243.966052
 20
651.36483
 10
243.678813
 20
650.5475080000001
 10
243.411357
 20
649.709983
 10
243.164157
 20
648.8537819999999
 10
242.937641
 20
647.980247
 10
242.732211
 20
647.091026
 10
242.548221
 20
646.1876440000001
 10
242.385997
 20
645.27169
 10
242.245815
 20
644.3446879999999
 10
242.127918
 20
643.4083479999999
 10
242.032497
 20
642.4643169999999
 10
241.959705
 20
641.514244
  0
LINE
  5
B41
330
1F
100
AcDbEntity
  8
0
 62
     7
 48
0.295488
370
    60
390
F
100
AcDbLine
 10
221.590663
 20
508.943504
 30
0.0
 11
233.41019
 21
508.943504
 31
0.0
  0
LWPOLYLINE
  5
B42
330
1F
100
AcDbEntity
  8
0
 62
     7
370
    60
390
F
100
AcDbPolyline
 90
        9
 70
     0
 43
0.0
 10
221.587993
 20
508.943504
 10
221.36642
 20
508.9187239999999
 10
221.149761
 20
508.844993
 10
220.944019
 20
508.724205
 10
220.754505
 20
508.5593489999999
 10
220.585895
 20
508.35482
 10
220.442203
 20
508.115806
 10
220.326778
 20
507.848167
 10
220.242313
 20
507.5583109999999
  0
LINE
  5
B46
330
1F
100
AcDbEntity
  8
0
 62
     7
 48
0.175
370
    60
390
F
100
AcDbLine
 10
288.541957
 20
659.9435040000001
 30
0.0
 11
288.541957
 21
666.9435040000001
 31
0.0
  0
LWPOLYLINE
  5
B47
330
1F
100
AcDbEntity
  8
0
 62
     7
370
    60
390
F
100
AcDbPolyline
 90
       36
 70
     0
 43
0.0
 10
247.02563
 20
658.9435040000001
 10
246.426593
 20
658.9254980000001
 10
245.828456
 20
658.8716649999999
 10
245.232356
 20
658.7819440000001
 10
244.639408
 20
658.656639
 10
244.050708
 20
658.495872
 10
243.467334
 20
658.299949
 10
242.890369
 20
658.069297
 10
242.320857
 20
657.8043439999999
 10
241.759838
 20
657.505455
 10
241.208309
 20
657.173301
 10
240.667278
 20
656.808372
 10
240.137714
 20
656.4113990000001
 10
239.620555
 20
655.9831159999999
 10
239.116725
 20
655.5241920000001
 10
238.627139
 20
655.035545
 10
238.152645
 20
654.518028
 10
237.694103
 20
653.972557
 10
237.25233
 20
653.4000470000001
 10
236.828105
 20
652.8015969999999
 10
236.422183
 20
652.1782450000001
 10
236.035289
 20
651.5310890000001
 10
235.668117
 20
650.861228
 10
235.32133
 20
650.170005
 10
234.995532
 20
649.4585179999999
 10
234.691326
 20
648.7280499999999
 10
234.409252
 20
647.9800029999999
 10
234.149829
 20
647.2155989999999
 10
233.913516
 20
646.436363
 10
233.700748
 20
645.643577
 10
233.511913
 20
644.8387680000001
 10
233.347362
 20
644.0233989999999
 10
233.207393
 20
643.198936
 10
233.092266
 20
642.3669050000001
 10
233.002185
 20
641.528953
 10
232.93732
 20
640.6866070000001
  0
LINE
  5
B48
330
1F
100
AcDbEntity
  8
0
 62
     7
370
    60
390
F
100
AcDbLine
 10
224.899578
 20
510.769187
 30
0.0
 11
232.936771
 21
640.6866070000001
 31
0.0
  0
LWPOLYLINE
  5
B49
330
1F
100
AcDbEntity
  8
0
 62
     7
370
    60
390
F
100
AcDbPolyline
 90
       11
 70
     0
 43
0.0
 10
224.899578
 20
510.769187
 10
224.863262
 20
510.461387
 10
224.793544
 20
510.165367
 10
224.692111
 20
509.888267
 10
224.56145
 20
509.636863
 10
224.404727
 20
509.417259
 10
224.225765
 20
509.2348249999999
 10
224.028911
 20
509.093956
 10
223.818973
 20
508.998069
 10
223.601055
 20
508.949546
 10
223.490749
 20
508.943504
  0
LINE
  5
B4A
330
1F
100
AcDbEntity
  8
0
 62
     7
370
    60
390
F
100
AcDbLine
 10
229.449901
 20
641.514549
 30
0.0
 11
218.840969
 21
508.079307
 31
0.0
  0
LWPOLYLINE
  5
B4C
330
1F
100
AcDbEntity
  8
0
 62
     7
370
    60
390
F
100
AcDbPolyline
 90
       36
 70
     0
 43
0.0
 10
243.780956
 20
661.7975080000001
 10
243.160945
 20
661.6811749999999
 10
242.544544
 20
661.531211
 10
241.932666
 20
661.3478009999999
 10
241.326244
 20
661.1312479999999
 10
240.726161
 20
660.881858
 10
240.133327
 20
660.6000590000001
 10
239.548602
 20
660.286155
 10
238.972865
 20
659.9406959999999
 10
238.406955
 20
659.5641700000001
 10
237.851711
 20
659.1571879999999
 10
237.307956
 20
658.720298
 10
236.776477
 20
658.254173
 10
236.258075
 20
657.759483
 10
235.753497
 20
657.237022
 10
235.263492
 20
656.687522
 10
234.788783
 20
656.111778
 10
234.330066
 20
655.5106430000001
 10
233.888027
 20
654.8850319999999
 10
233.463306
 20
654.235923
 10
233.056545
 20
653.5641089999999
 10
232.668331
 20
652.87075
 10
232.299251
 20
652.156761
 10
231.949855
 20
651.4232400000001
 10
231.620662
 20
650.6712259999999
 10
231.312152
 20
649.9018779999999
 10
231.024791
 20
649.1162939999999
 10
230.759014
 20
648.3156349999999
 10
230.515201
 20
647.50106
 10
230.293735
 20
646.673851
 10
230.094928
 20
645.835227
 10
229.919086
 20
644.986351
 10
229.76646
 20
644.1285620000001
 10
229.637271
 20
643.2631449999999
 10
229.531703
 20
642.3913190000001
 10
229.449901
 20
641.514549
  0
LINE
  5
B4D
330
1F
100
AcDbEntity
  8
0
 62
     7
370
    60
390
F
100
AcDbLine
 10
243.780956
 20
661.7975080000001
 30
0.0
 11
284.55722
 21
668.323265
 31
0.0
  0
LINE
  5
B4E
330
1F
100
AcDbEntity
  8
0
 62
     7
 48
0.237842
370
    60
390
F
100
AcDbLine
 10
209.396007
 20
508.943504
 30
0.0
 11
218.909686
 21
508.943504
 31
0.0
  0
ELLIPSE
  5
B4F
330
1F
100
AcDbEntity
  8
0
 62
     7
370
    60
100
AcDbEllipse
 10
209.392208
 20
506.943504
 30
0.0
 11
2.384976130000000E-8
 21
-2.0
 31
0.0
210
0.0
220
0.0
230
1.0
 40
0.8191520000000005
 41
3.141592741012573
 42
4.398161888122559
  0
LINE
  5
B50
330
1F
100
AcDbEntity
  8
0
 62
     7
370
    60
390
F
100
AcDbLine
 10
213.229259
 20
510.769187
 30
0.0
 11
222.539997
 21
640.6866070000001
 31
0.0
  0
LWPOLYLINE
  5
B51
330
1F
100
AcDbEntity
  8
0
 62
     7
370
    60
390
F
100
AcDbPolyline
 90
       33
 70
     0
 43
0.0
 10
222.539508
 20
640.6866070000001
 10
222.617557
 20
641.5559920000001
 10
222.726726
 20
642.4206770000001
 10
222.866794
 20
643.278892
 10
223.037494
 20
644.128929
 10
223.23849
 20
644.9690780000001
 10
223.469394
 20
645.797752
 10
223.729747
 20
646.613243
 10
224.019046
 20
647.4140239999999
 10
224.336727
 20
648.1985090000001
 10
224.682186
 20
648.965232
 10
225.054744
 20
649.71273
 10
225.4537
 20
650.439537
 10
225.878284
 20
651.1443099999999
 10
226.327678
 20
651.8256449999999
 10
226.801036
 20
652.4823220000001
 10
227.297458
 20
653.1130599999999
 10
227.815997
 20
653.7166970000001
 10
228.35567
 20
654.292015
 10
228.915454
 20
654.838035
 10
229.494289
 20
655.353599
 10
230.091068
 20
655.8377909999999
 10
230.704677
 20
656.2896949999999
 10
231.333934
 20
656.708396
 10
231.977649
 20
657.0931619999999
 10
232.634586
 20
657.44326
 10
233.303485
 20
657.757957
 10
233.983074
 20
658.0366429999999
 10
234.672023
 20
658.2787699999999
 10
235.369007
 20
658.48397
 10
236.072658
 20
658.651695
 10
236.781604
 20
658.781761
 10
237.494434
 20
658.8738020000001
  0
LINE
  5
B52
330
1F
100
AcDbEntity
  8
0
 62
     7
 48
0.145842
370
    60
390
F
100
AcDbLine
 10
244.69379
 20
661.9435040000001
 30
0.0
 11
238.860095
 21
661.9435040000001
 31
0.0
  0
LWPOLYLINE
  5
B55
330
1F
100
AcDbEntity
  8
0
 62
     7
370
    60
390
F
100
AcDbPolyline
 90
       11
 70
     0
 43
0.0
 10
213.229259
 20
510.769187
 10
213.18719
 20
510.461387
 10
213.106426
 20
510.165367
 10
212.988918
 20
509.888267
 10
212.837551
 20
509.636863
 10
212.656001
 20
509.417259
 10
212.44868
 20
509.2348249999999
 10
212.220638
 20
509.093956
 10
211.977428
 20
508.998069
 10
211.724971
 20
508.949546
 10
211.597194
 20
508.943504
  0
LINE
  5
B57
330
1F
100
AcDbEntity
  8
0
 62
     7
370
    60
390
F
100
AcDbLine
 10
218.990611
 20
641.514244
 30
0.0
 11
206.702129
 21
508.091087
 31
0.0
  0
LINE
  5
B58
330
1F
100
AcDbEntity
  8
0
 62
     7
 48
0.172937
370
    60
390
F
100
AcDbLine
 10
199.863185
 20
508.943504
 30
0.0
 11
206.780666
 21
508.943504
 31
0.0
  0
ELLIPSE
  5
B59
330
1F
100
AcDbEntity
  8
0
 62
     7
370
    60
100
AcDbEllipse
 10
199.858974
 20
506.943504
 30
0.0
 11
2.384976130000000E-8
 21
-2.0
 31
0.0
210
0.0
220
0.0
230
1.0
 40
0.9063080000000002
 41
3.141592741012573
 42
4.398161888122559
  0
LINE
  5
B5A
330
1F
100
AcDbEntity
  8
0
 62
     7
 48
0.003473
370
    60
390
F
100
AcDbLine
 10
204.093334
 20
510.6311260000001
 30
0.0
 11
204.10432
 21
510.769615
 31
0.0
  0
LINE
  5
B5B
330
1F
100
AcDbEntity
  8
0
 62
     7
370
    60
390
F
100
AcDbLine
 10
204.10432
 20
510.769615
 30
0.0
 11
214.405651
 21
640.6866070000001
 31
0.0
  0
LWPOLYLINE
  5
B5C
330
1F
100
AcDbEntity
  8
0
 62
     7
370
    60
390
F
100
AcDbPolyline
 90
       29
 70
     0
 43
0.0
 10
214.405116
 20
640.6866070000001
 10
214.488963
 20
641.5349349999999
 10
214.605586
 20
642.378807
 10
214.754772
 20
643.2166360000001
 10
214.93626
 20
644.0467140000001
 10
215.149669
 20
644.8676370000001
 10
215.394649
 20
645.677696
 10
215.670726
 20
646.475547
 10
215.977367
 20
647.259605
 10
216.314037
 20
648.0284650000001
 10
216.68011
 20
648.7806619999999
 10
217.074901
 20
649.514915
 10
217.497707
 20
650.229881
 10
217.947734
 20
650.924156
 10
218.424182
 20
651.5965799999999
 10
218.926174
 20
652.2459329999999
 10
219.452815
 20
652.8710550000001
 10
220.003139
 20
653.470726
 10
220.576152
 20
654.043968
 10
221.170833
 20
654.5896829999999
 10
221.786098
 20
655.1068949999999
 10
222.420841
 20
655.5946879999999
 10
223.073909
 20
656.052207
 10
223.744121
 20
656.4785380000001
 10
224.430271
 20
656.873008
 10
225.131114
 20
657.234764
 10
225.845363
 20
657.563316
 10
226.571727
 20
657.857872
 10
227.308864
 20
658.118064
  0
LINE
  5
B5D
330
1F
100
AcDbEntity
  8
0
 62
     7
 48
0.305792
370
    60
390
F
100
AcDbLine
 10
244.693836
 20
661.9435040000001
 30
0.0
 11
232.462169
 21
661.9435040000001
 31
0.0
  0
LWPOLYLINE
  5
B60
330
1F
100
AcDbEntity
  8
0
 62
     7
370
    60
390
F
100
AcDbPolyline
 90
       10
 70
     0
 43
0.0
 10
204.093334
 20
510.6311260000001
 10
204.026988
 20
510.325889
 10
203.918163
 20
510.03585
 10
203.769557
 20
509.76815
 10
203.584819
 20
509.529441
 10
203.368511
 20
509.325584
 10
203.125942
 20
509.1615210000001
 10
202.863109
 20
509.041404
 10
202.586498
 20
508.968101
 10
202.302883
 20
508.943504
  0
LINE
  5
B62
330
1F
100
AcDbEntity
  8
0
 62
     7
370
    60
390
F
100
AcDbLine
 10
210.902599
 20
641.514244
 30
0.0
 11
197.306636
 21
508.091087
 31
0.0
  0
LWPOLYLINE
  5
B63
330
1F
100
AcDbEntity
  8
0
 62
     7
370
    60
390
F
100
AcDbPolyline
 90
       36
 70
     0
 43
0.0
 10
231.616939
 20
661.9435040000001
 10
230.748493
 20
661.9235450000001
 10
229.881458
 20
661.8637309999999
 10
229.017368
 20
661.76406
 10
228.157756
 20
661.6248390000001
 10
227.304141
 20
661.446189
 10
226.458026
 20
661.228355
 10
225.620883
 20
660.9718849999999
 10
224.79417
 20
660.677085
 10
223.979343
 20
660.344505
 10
223.177799
 20
659.9747540000001
 10
222.390933
 20
659.5684429999999
 10
221.62012
 20
659.1263039999999
 10
220.86668
 20
658.6491309999999
 10
220.131915
 20
658.1377789999999
 10
219.41711
 20
657.59304
 10
218.723491
 20
657.0159530000001
 10
218.052249
 20
656.4074929999999
 10
217.404567
 20
655.7687599999999
 10
216.781551
 20
655.1007910000001
 10
216.184291
 20
654.404747
 10
215.613811
 20
653.681846
 10
215.071117
 20
652.933372
 10
214.557155
 20
652.1606059999999
 10
214.072811
 20
651.36483
 10
213.618953
 20
650.5475080000001
 10
213.196346
 20
649.709983
 10
212.805736
 20
648.8537819999999
 10
212.447826
 20
647.980247
 10
212.123226
 20
647.091026
 10
211.8325
 20
646.1876440000001
 10
211.576167
 20
645.27169
 10
211.354671
 20
644.3446879999999
 10
211.168376
 20
643.4083479999999
 10
211.017604
 20
642.4643169999999
 10
210.902599
 20
641.514244
  0
LINE
  5
B64
330
1F
100
AcDbEntity
  8
0
 62
     7
 48
0.201077
370
    60
390
F
100
AcDbLine
 10
189.350429
 20
508.943504
 30
0.0
 11
197.39352
 21
508.943504
 31
0.0
  0
ARC
  5
B65
330
1F
100
AcDbEntity
  8
0
 62
     7
370
    60
390
F
100
AcDbCircle
 10
189.349819
 20
506.9434429999999
 30
0.0
 40
2.000097
100
AcDbArc
 50
90.000009
 51
162.401408
  0
LINE
  5
B66
330
1F
100
AcDbEntity
  8
0
 62
     7
 48
0.000338
370
    60
390
F
100
AcDbLine
 10
237.699428
 20
661.9434429999999
 30
0.0
 11
237.712947
 21
661.9435040000001
 31
0.0
  0
LINE
  5
B67
330
1F
100
AcDbEntity
  8
0
 62
     7
370
    60
390
F
100
AcDbLine
 10
244.692943
 20
661.9434429999999
 30
0.0
 11
284.55722
 21
668.323265
 31
0.0
  0
LINE
  5
B68
330
1F
100
AcDbEntity
  8
0
 62
     7
370
    60
390
F
100
AcDbLine
 10
399.965381
 20
510.769187
 30
0.0
 11
394.792697
 21
569.8932110000001
 31
0.0
  0
LINE
  5
B69
330
1F
100
AcDbEntity
  8
0
 62
     7
370
    60
390
F
100
AcDbLine
 10
394.792697
 20
569.8932110000001
 30
0.0
 11
389.792697
 21
627.0434789999999
 31
0.0
  0
LINE
  5
B6A
330
1F
100
AcDbEntity
  8
0
 62
     7
 48
0.342381
370
    60
390
F
100
AcDbLine
 10
389.792697
 20
627.0434789999999
 30
0.0
 11
388.599082
 21
640.6866070000001
 31
0.0
  0
ARC
  5
B6B
330
1F
100
AcDbEntity
  8
0
 62
     7
370
    60
390
F
100
AcDbCircle
 10
401.957771
 20
510.943504
 30
0.0
 40
2.0
100
AcDbArc
 50
184.999994
 51
269.999997
  0
LINE
  5
B6C
330
1F
100
AcDbEntity
  8
0
 62
     7
 48
0.021131
370
    60
390
F
100
AcDbLine
 10
361.537822
 20
661.9435040000001
 30
0.0
 11
362.383058
 21
661.9435040000001
 31
0.0
  0
LINE
  5
B6F
330
1F
100
AcDbEntity
  8
0
 62
     7
 48
0.028679
370
    60
390
F
100
AcDbLine
 10
355.139896
 20
661.9435040000001
 30
0.0
 11
356.287049
 21
661.9435040000001
 31
0.0
  0
LINE
  5
B71
330
1F
100
AcDbEntity
  8
0
 62
     7
 48
0.038082
370
    60
390
F
100
AcDbLine
 10
345.44622
 20
658.9435040000001
 30
0.0
 11
346.969483
 21
658.9435040000001
 31
0.0
  0
LINE
  5
B72
330
1F
100
AcDbEntity
  8
0
 62
     7
370
    60
390
F
100
AcDbLine
 10
305.311916
 20
658.9435040000001
 30
0.0
 11
326.382276
 21
658.9435040000001
 31
0.0
  0
LINE
  5
B73
330
1F
100
AcDbEntity
  8
0
 62
     7
 48
0.107268
370
    60
390
F
100
AcDbLine
 10
332.997309
 20
658.9435040000001
 30
0.0
 11
337.288014
 21
658.9435040000001
 31
0.0
  0
LINE
  5
B74
330
1F
100
AcDbEntity
  8
0
 62
     7
 48
0.038083
370
    60
390
F
100
AcDbLine
 10
247.030513
 20
658.9435040000001
 30
0.0
 11
248.553821
 21
658.9435040000001
 31
0.0
  0
LINE
  5
B75
330
1F
100
AcDbEntity
  8
0
 62
     7
 48
0.107268
370
    60
390
F
100
AcDbLine
 10
256.711978
 20
658.9435040000001
 30
0.0
 11
261.002689
 21
658.9435040000001
 31
0.0
  0
LINE
  5
B76
330
1F
100
AcDbEntity
  8
0
 62
     7
370
    60
390
F
100
AcDbLine
 10
267.617717
 20
658.9435040000001
 30
0.0
 11
288.688075
 21
658.9435040000001
 31
0.0
  0
LINE
  5
B78
330
1F
100
AcDbEntity
  8
0
 62
     7
 48
0.040958
370
    60
390
F
100
AcDbLine
 10
337.292463
 20
661.9435040000001
 30
0.0
 11
338.930767
 21
661.9435040000001
 31
0.0
  0
LINE
  5
B79
330
1F
100
AcDbEntity
  8
0
 62
     7
 48
0.31082
370
    60
390
F
100
AcDbLine
 10
324.859666
 20
661.9435040000001
 30
0.0
 11
337.292463
 21
661.9435040000001
 31
0.0
  0
LWPOLYLINE
  5
B7A
330
1F
100
AcDbEntity
  8
0
 62
     7
370
    60
390
F
100
AcDbPolyline
 90
       36
 70
     0
 43
0.0
 10
348.720261
 20
640.6866070000001
 10
348.667645
 20
641.528953
 10
348.594576
 20
642.3669050000001
 10
348.501187
 20
643.198875
 10
348.387649
 20
644.023338
 10
348.254171
 20
644.8387680000001
 10
348.100997
 20
645.643577
 10
347.928409
 20
646.4363020000001
 10
347.736721
 20
647.2155989999999
 10
347.526284
 20
647.9799419999999
 10
347.297478
 20
648.727989
 10
347.050717
 20
649.458457
 10
346.786448
 20
650.169944
 10
346.505144
 20
650.861167
 10
346.207311
 20
651.5310280000001
 10
345.893482
 20
652.1781840000001
 10
345.564216
 20
652.8015359999999
 10
345.220102
 20
653.3999859999999
 10
344.861752
 20
653.9724349999999
 10
344.489804
 20
654.517967
 10
344.104919
 20
655.035484
 10
343.707784
 20
655.5241309999999
 10
343.299105
 20
655.982994
 10
342.879609
 20
656.4113379999999
 10
342.450048
 20
656.808311
 10
342.011188
 20
657.1731789999999
 10
341.563817
 20
657.5053929999999
 10
341.10874
 20
657.804222
 10
340.646778
 20
658.069236
 10
340.17877
 20
658.299888
 10
339.705568
 20
658.495811
 10
339.228039
 20
658.6565780000001
 10
338.747064
 20
658.7819440000001
 10
338.263535
 20
658.8716039999999
 10
337.778357
 20
658.9254980000001
 10
337.292446
 20
658.9435040000001
  0
LINE
  5
B7C
330
1F
100
AcDbEntity
  8
0
 62
     7
370
    60
390
F
100
AcDbLine
 10
355.239342
 20
510.769615
 30
0.0
 11
348.719921
 21
640.6866070000001
 31
0.0
  0
LINE
  5
B7E
330
1F
100
AcDbEntity
  8
0
 62
     7
 48
0.045315
370
    60
390
F
100
AcDbLine
 10
326.385242
 20
661.9435040000001
 30
0.0
 11
328.197856
 21
661.9435040000001
 31
0.0
  0
LINE
  5
B7F
330
1F
100
AcDbEntity
  8
0
 62
     7
 48
0.003456
370
    60
390
F
100
AcDbLine
 10
355.246292
 20
510.6311260000001
 30
0.0
 11
355.239363
 21
510.769187
 31
0.0
  0
LWPOLYLINE
  5
B80
330
1F
100
AcDbEntity
  8
0
 62
     7
370
    60
390
F
100
AcDbPolyline
 90
        9
 70
     0
 43
0.0
 10
355.246292
 20
510.6311260000001
 10
355.319451
 20
510.178489
 10
355.451205
 20
509.76815
 10
355.568117
 20
509.529441
 10
355.705016
 20
509.325584
 10
355.858527
 20
509.1615210000001
 10
356.024864
 20
509.041404
 10
356.199931
 20
508.968101
 10
356.379419
 20
508.943504
  0
LWPOLYLINE
  5
B81
330
1F
100
AcDbEntity
  8
0
 62
     7
370
    60
390
F
100
AcDbPolyline
 90
       15
 70
     0
 43
0.0
 10
315.772781
 20
656.6725080000001
 10
315.322423
 20
656.9644390000001
 10
314.857194
 20
657.233238
 10
314.37753
 20
657.479026
 10
313.883989
 20
657.70211
 10
313.377208
 20
657.902977
 10
312.857894
 20
658.0822370000001
 10
312.326812
 20
658.240806
 10
311.784747
 20
658.3794780000001
 10
311.232494
 20
658.4994119999999
 10
310.100635
 20
658.687522
 10
308.937404
 20
658.815269
 10
307.748451
 20
658.893333
 10
306.538638
 20
658.932579
 10
305.311904
 20
658.9435040000001
  0
LWPOLYLINE
  5
B82
330
1F
100
AcDbEntity
  8
0
 62
     7
370
    60
390
F
100
AcDbPolyline
 90
       19
 70
     0
 43
0.0
 10
322.119901
 20
640.6866070000001
 10
322.063726
 20
641.857933
 10
321.972194
 20
643.018943
 10
321.845449
 20
644.1652449999999
 10
321.68333
 20
645.2925029999999
 10
321.485435
 20
646.3965679999999
 10
321.251182
 20
647.4731059999999
 10
320.979873
 20
648.517967
 10
320.670768
 20
649.5271829999999
 10
320.323141
 20
650.4967879999999
 10
319.936344
 20
651.4228129999999
 10
319.509874
 20
652.301841
 10
319.043411
 20
653.130332
 10
318.536868
 20
653.9053570000001
 10
317.990419
 20
654.624168
 10
317.404521
 20
655.2847509999999
 10
316.779922
 20
655.8854590000001
 10
316.117648
 20
656.4253759999999
 10
315.772781
 20
656.6725080000001
  0
LWPOLYLINE
  5
B84
330
1F
100
AcDbEntity
  8
0
 62
     7
370
    60
390
F
100
AcDbPolyline
 90
        7
 70
     0
 43
0.0
 10
324.895601
 20
510.769187
 10
324.437766
 20
536.752342
 10
323.933561
 20
562.7357400000001
 10
323.387384
 20
588.7193219999999
 10
322.795482
 20
614.7029640000001
 10
322.472631
 20
627.694847
 10
322.120471
 20
640.6866070000001
  0
LWPOLYLINE
  5
B86
330
1F
100
AcDbEntity
  8
0
 62
     7
370
    60
390
F
100
AcDbPolyline
 90
        8
 70
     0
 43
0.0
 10
325.435382
 20
508.943504
 10
325.35111
 20
508.967796
 10
325.26889
 20
509.040245
 10
325.190721
 20
509.158958
 10
325.085189
 20
509.41732
 10
324.998783
 20
509.758995
 10
324.921302
 20
510.311485
 10
324.895601
 20
510.769187
  0
LWPOLYLINE
  5
B88
330
1F
100
AcDbEntity
  8
0
 62
     7
370
    60
390
F
100
AcDbPolyline
 90
        5
 70
     0
 43
0.0
 10
314.528055
 20
510.838157
 10
314.834873
 20
562.6740950000001
 10
315.113046
 20
601.5572729999999
 10
315.328388
 20
627.48336
 10
315.452812
 20
640.4485090000001
  0
LWPOLYLINE
  5
B89
330
1F
100
AcDbEntity
  8
0
 62
     7
370
    60
390
F
100
AcDbPolyline
 90
       30
 70
     0
 43
0.0
 10
315.452798
 20
640.4485090000001
 10
315.442186
 20
641.810203
 10
315.371389
 20
643.156761
 10
315.238788
 20
644.4811629999999
 10
315.040504
 20
645.7738870000001
 10
314.915008
 20
646.404808
 10
314.770833
 20
647.0233989999999
 10
314.607059
 20
647.6278910000001
 10
314.422719
 20
648.2166970000001
 10
314.216819
 20
648.7879250000001
 10
313.988366
 20
649.339927
 10
313.73641
 20
649.8709329999999
 10
313.460056
 20
650.3791120000001
 10
313.158534
 20
650.862754
 10
312.831222
 20
651.320213
 10
312.477714
 20
651.7498390000001
 10
312.097858
 20
652.1500470000001
 10
311.691837
 20
652.519493
 10
311.260253
 20
652.857017
 10
310.80413
 20
653.1628029999999
 10
310.324649
 20
653.4372780000001
 10
309.823104
 20
653.6815409999999
 10
309.300891
 20
653.8969340000001
 10
308.759475
 20
654.084983
 10
308.200374
 20
654.247703
 10
307.625129
 20
654.387168
 10
307.035266
 20
654.5055769999999
 10
306.432262
 20
654.6053689999999
 10
305.192325
 20
654.7588109999999
 10
303.914962
 20
654.8668439999999
  0
ARC
  5
B8A
330
1F
100
AcDbEntity
  8
0
 62
     7
370
    60
390
F
100
AcDbCircle
 10
260.235698
 20
-0.1694490000000002
 30
0.0
 40
656.491394
100
AcDbArc
 50
86.18503500000001
 51
86.789691
  0
LWPOLYLINE
  5
B8B
330
1F
100
AcDbEntity
  8
0
 62
     7
370
    60
390
F
100
AcDbPolyline
 90
       10
 70
     0
 43
0.0
 10
312.999141
 20
508.945091
 10
313.258861
 20
508.985191
 10
313.50986
 20
509.077964
 10
313.745386
 20
509.2209089999999
 10
313.959104
 20
509.410179
 10
314.145271
 20
509.640708
 10
314.298873
 20
509.906211
 10
314.415786
 20
510.199668
 10
314.49286
 20
510.513084
 10
314.528026
 20
510.838096
  0
ARC
  5
B8D
330
1F
100
AcDbEntity
  8
0
 62
     7
370
    60
390
F
100
AcDbCircle
 10
333.764283
 20
-0.1694490000000002
 30
0.0
 40
656.491394
100
AcDbArc
 50
93.210307
 51
93.814964
  0
LWPOLYLINE
  5
B8E
330
1F
100
AcDbEntity
  8
0
 62
     7
370
    60
390
F
100
AcDbPolyline
 90
       30
 70
     0
 43
0.0
 10
278.547199
 20
640.4485090000001
 10
278.557811
 20
641.810203
 10
278.628604
 20
643.156761
 10
278.761203
 20
644.4811629999999
 10
278.959491
 20
645.7738870000001
 10
279.084987
 20
646.404808
 10
279.22916
 20
647.0233989999999
 10
279.392932
 20
647.6278910000001
 10
279.577274
 20
648.2166970000001
 10
279.783176
 20
648.7879250000001
 10
280.01163
 20
649.339927
 10
280.263584
 20
649.8709329999999
 10
280.539935
 20
650.3791120000001
 10
280.841464
 20
650.862754
 10
281.168773
 20
651.320213
 10
281.522281
 20
651.7498390000001
 10
281.902133
 20
652.1500470000001
 10
282.308158
 20
652.519493
 10
282.739742
 20
652.857017
 10
283.195865
 20
653.1628029999999
 10
283.675346
 20
653.4372780000001
 10
284.176891
 20
653.6815409999999
 10
284.699104
 20
653.8969340000001
 10
285.24052
 20
654.084983
 10
285.799621
 20
654.247703
 10
286.374862
 20
654.387168
 10
286.964729
 20
654.5055769999999
 10
287.567733
 20
654.6053689999999
 10
288.80767
 20
654.7588109999999
 10
290.085033
 20
654.8668439999999
  0
LWPOLYLINE
  5
B8F
330
1F
100
AcDbEntity
  8
0
 62
     7
370
    60
390
F
100
AcDbPolyline
 90
        5
 70
     0
 43
0.0
 10
279.471935
 20
510.838096
 10
279.165119
 20
562.6740950000001
 10
278.886943
 20
601.5572729999999
 10
278.671604
 20
627.48336
 10
278.547183
 20
640.4485090000001
  0
LWPOLYLINE
  5
B90
330
1F
100
AcDbEntity
  8
0
 62
     7
370
    60
390
F
100
AcDbPolyline
 90
       10
 70
     0
 43
0.0
 10
281.000812
 20
508.945091
 10
280.741092
 20
508.985191
 10
280.4901
 20
509.077964
 10
280.254573
 20
509.2209089999999
 10
280.040851
 20
509.410179
 10
279.854686
 20
509.640708
 10
279.701084
 20
509.906211
 10
279.584178
 20
510.199668
 10
279.507099
 20
510.513145
 10
279.471935
 20
510.838157
  0
LWPOLYLINE
  5
B92
330
1F
100
AcDbEntity
  8
0
 62
     7
370
    60
390
F
100
AcDbPolyline
 90
        8
 70
     0
 43
0.0
 10
268.564517
 20
508.943504
 10
268.648792
 20
508.967796
 10
268.731014
 20
509.040245
 10
268.809184
 20
509.158958
 10
268.914714
 20
509.41732
 10
269.001125
 20
509.758995
 10
269.078609
 20
510.311485
 10
269.104305
 20
510.769187
  0
LWPOLYLINE
  5
B94
330
1F
100
AcDbEntity
  8
0
 62
     7
370
    60
390
F
100
AcDbPolyline
 90
        7
 70
     0
 43
0.0
 10
269.104389
 20
510.769187
 10
269.562229
 20
536.752342
 10
270.066432
 20
562.7357400000001
 10
270.612605
 20
588.7193219999999
 10
271.204509
 20
614.7029640000001
 10
271.527362
 20
627.694847
 10
271.87952
 20
640.6866070000001
  0
LWPOLYLINE
  5
B95
330
1F
100
AcDbEntity
  8
0
 62
     7
370
    60
390
F
100
AcDbPolyline
 90
       19
 70
     0
 43
0.0
 10
271.880092
 20
640.6866070000001
 10
271.936267
 20
641.857933
 10
272.027797
 20
643.018943
 10
272.154544
 20
644.1652449999999
 10
272.316661
 20
645.2925029999999
 10
272.51456
 20
646.3965679999999
 10
272.748813
 20
647.4731059999999
 10
273.020122
 20
648.517967
 10
273.329227
 20
649.5271829999999
 10
273.676853
 20
650.4967879999999
 10
274.063648
 20
651.4228740000001
 10
274.490123
 20
652.301841
 10
274.956584
 20
653.130332
 10
275.463123
 20
653.9053570000001
 10
276.009578
 20
654.624168
 10
276.59547
 20
655.2847509999999
 10
277.220073
 20
655.8854590000001
 10
277.882343
 20
656.4253759999999
 10
278.227214
 20
656.6725080000001
  0
LWPOLYLINE
  5
B96
330
1F
100
AcDbEntity
  8
0
 62
     7
370
    60
390
F
100
AcDbPolyline
 90
       15
 70
     0
 43
0.0
 10
278.227214
 20
656.6725080000001
 10
278.67757
 20
656.9644390000001
 10
279.142803
 20
657.233238
 10
279.622463
 20
657.479026
 10
280.116008
 20
657.70211
 10
280.622791
 20
657.902977
 10
281.142101
 20
658.0822370000001
 10
281.673183
 20
658.240806
 10
282.215248
 20
658.3794780000001
 10
282.767497
 20
658.4994119999999
 10
283.89936
 20
658.687522
 10
285.062587
 20
658.815269
 10
286.251544
 20
658.893333
 10
287.461357
 20
658.932579
 10
288.688087
 20
658.9435040000001
  0
LINE
  5
B97
330
1F
100
AcDbEntity
  8
0
 62
     7
 48
0.045315
370
    60
390
F
100
AcDbLine
 10
267.614749
 20
661.9435040000001
 30
0.0
 11
265.802135
 21
661.9435040000001
 31
0.0
  0
LINE
  5
B9B
330
1F
100
AcDbEntity
  8
0
 62
     7
 48
0.040958
370
    60
390
F
100
AcDbLine
 10
256.70753
 20
661.9435040000001
 30
0.0
 11
255.069225
 21
661.9435040000001
 31
0.0
  0
LINE
  5
B9E
330
1F
100
AcDbEntity
  8
0
 62
     7
 48
0.028679
370
    60
390
F
100
AcDbLine
 10
238.860095
 20
661.9435040000001
 30
0.0
 11
237.712947
 21
661.9435040000001
 31
0.0
  0
LWPOLYLINE
  5
B9F
330
1F
100
AcDbEntity
  8
0
 62
     7
370
    60
390
F
100
AcDbPolyline
 90
       36
 70
     0
 43
0.0
 10
237.712947
 20
661.9435040000001
 10
236.92802
 20
661.9235450000001
 10
236.144359
 20
661.8637309999999
 10
235.363368
 20
661.76406
 10
234.586421
 20
661.6248390000001
 10
233.814899
 20
661.446189
 10
233.050144
 20
661.228355
 10
232.293506
 20
660.9718849999999
 10
231.546298
 20
660.677085
 10
230.809825
 20
660.344505
 10
230.085361
 20
659.9747540000001
 10
229.374172
 20
659.5684429999999
 10
228.677478
 20
659.1263039999999
 10
227.996494
 20
658.6491309999999
 10
227.332393
 20
658.1377789999999
 10
226.686328
 20
657.59304
 10
226.059406
 20
657.0159530000001
 10
225.452724
 20
656.4074929999999
 10
224.86732
 20
655.7687599999999
 10
224.304218
 20
655.1007910000001
 10
223.764392
 20
654.404747
 10
223.248775
 20
653.681846
 10
222.758273
 20
652.933372
 10
222.293735
 20
652.1606059999999
 10
221.855968
 20
651.36483
 10
221.445743
 20
650.5475080000001
 10
221.063777
 20
649.709983
 10
220.710742
 20
648.8537819999999
 10
220.387241
 20
647.980247
 10
220.09386
 20
647.091026
 10
219.831096
 20
646.1876440000001
 10
219.599414
 20
645.27169
 10
219.399211
 20
644.3446879999999
 10
219.230838
 20
643.4083479999999
 10
219.094562
 20
642.4643169999999
 10
218.990611
 20
641.514244
  0
LINE
  5
BA2
330
1F
100
AcDbEntity
  8
0
 62
     7
 48
0.021131
370
    60
390
F
100
AcDbLine
 10
232.462169
 20
661.9435040000001
 30
0.0
 11
231.616939
 21
661.9435040000001
 31
0.0
  0
ARC
  5
BA3
330
1F
100
AcDbEntity
  8
0
 62
     7
370
    60
390
F
100
AcDbCircle
 10
192.042217
 20
510.943504
 30
0.0
 40
2.0
100
AcDbArc
 50
269.999997
 51
354.999999
  0
LINE
  5
BA5
330
1F
100
AcDbEntity
  8
0
 62
     7
370
    60
390
F
100
AcDbLine
 10
194.034603
 20
510.769187
 30
0.0
 11
199.207302
 21
569.8932110000001
 31
0.0
  0
LINE
  5
BA6
330
1F
100
AcDbEntity
  8
0
 62
     7
370
    60
390
F
100
AcDbLine
 10
199.207302
 20
569.8932110000001
 30
0.0
 11
204.207302
 21
627.0434789999999
 31
0.0
  0
LINE
  5
BA7
330
1F
100
AcDbEntity
  8
0
 62
     7
 48
0.342381
370
    60
390
F
100
AcDbLine
 10
204.207302
 20
627.0434789999999
 30
0.0
 11
205.40092
 21
640.6866070000001
 31
0.0
  0
ARC
  5
BA9
330
1F
100
AcDbEntity
  8
0
 62
     7
370
    60
390
F
100
AcDbCircle
 10
225.324764
 20
638.943321
 30
0.0
 40
20.000784
100
AcDbArc
 50
104.263658
 51
174.999583
  0
LINE
  5
BAA
330
1F
100
AcDbEntity
  8
0
 62
     7
 48
0.172413
370
    60
390
F
100
AcDbLine
 10
290.396526
 20
659.9435040000001
 30
0.0
 11
283.499996
 21
659.9435040000001
 31
0.0
  0
LINE
  5
BAC
330
1F
100
AcDbEntity
  8
0
 62
     7
 48
0.172412
370
    60
390
F
100
AcDbLine
 10
310.499996
 20
659.9435040000001
 30
0.0
 11
303.603496
 21
659.9435040000001
 31
0.0
  0
LINE
  5
BAE
330
1F
100
AcDbEntity
  8
0
 62
     7
 48
0.16508
370
    60
390
F
100
AcDbLine
 10
296.999877
 20
658.9435040000001
 30
0.0
 11
303.603061
 21
658.9435040000001
 31
0.0
  0
LINE
  5
BAF
330
1F
100
AcDbEntity
  8
0
 62
     7
 48
0.165078
370
    60
390
F
100
AcDbLine
 10
290.397006
 20
658.9435040000001
 30
0.0
 11
297.000118
 21
658.9435040000001
 31
0.0
  0
LINE
  5
BB5
330
1F
100
AcDbEntity
  8
0
 62
     7
 48
0.165076
370
    60
390
F
100
AcDbLine
 10
290.397094
 20
659.9435040000001
 30
0.0
 11
297.000118
 21
659.9435040000001
 31
0.0
  0
LINE
  5
BB6
330
1F
100
AcDbEntity
  8
0
 62
     7
 48
0.165078
370
    60
390
F
100
AcDbLine
 10
296.999877
 20
659.9435040000001
 30
0.0
 11
303.602981
 21
659.9435040000001
 31
0.0
  0
LINE
  5
BBB
330
1F
100
AcDbEntity
  8
0
 62
     7
 48
0.265277
370
    60
390
F
100
AcDbLine
 10
406.556674
 20
507.548118
 30
0.0
 11
406.927246
 21
496.943504
 31
0.0
  0
ARC
  5
BBC
330
1F
100
AcDbEntity
  8
0
 62
     7
370
    60
390
F
100
AcDbCircle
 10
307.995826
 20
666.9456399999999
 30
0.0
 40
1.997857
100
AcDbArc
 50
43.59402600000001
 51
90.008854
  0
LINE
  5
BBD
330
1F
100
AcDbEntity
  8
0
 62
     7
 48
0.265277
370
    60
390
F
100
AcDbLine
 10
187.443309
 20
507.548118
 30
0.0
 11
187.07275
 21
496.943504
 31
0.0
  0
ARC
  5
BBE
330
1F
100
AcDbEntity
  8
0
 62
     7
370
    60
390
F
100
AcDbCircle
 10
286.004169
 20
666.9456399999999
 30
0.0
 40
1.997861
100
AcDbArc
 50
89.991171
 51
136.452728
  0
LINE
  5
BBF
330
1F
100
AcDbEntity
  8
0
 62
     7
 48
0.025
370
    60
390
F
100
AcDbLine
 10
283.499996
 20
658.9435040000001
 30
0.0
 11
283.499996
 21
659.9435040000001
 31
0.0
  0
LINE
  5
BC0
330
1F
100
AcDbEntity
  8
0
 62
     7
 48
0.025
370
    60
390
F
100
AcDbLine
 10
310.499996
 20
658.9435040000001
 30
0.0
 11
310.499996
 21
659.9435040000001
 31
0.0
  0
LINE
  5
BC1
330
1F
100
AcDbEntity
  8
0
 62
     7
 48
0.207798
370
    60
390
F
100
AcDbLine
 10
296.999877
 20
658.9435040000001
 30
0.0
 11
305.31179
 21
658.9435040000001
 31
0.0
  0
LINE
  5
BC2
330
1F
100
AcDbEntity
  8
0
 62
     7
 48
0.207798
370
    60
390
F
100
AcDbLine
 10
288.688201
 20
658.9435040000001
 30
0.0
 11
297.000118
 21
658.9435040000001
 31
0.0
  0
LINE
  5
BC3
330
1F
100
AcDbEntity
  8
0
 62
     7
 48
0.050325
370
    60
390
F
100
AcDbLine
 10
300.999996
 20
545.005699
 30
0.0
 11
300.999996
 21
542.992698
 31
0.0
  0
LINE
  5
BC4
330
1F
100
AcDbEntity
  8
0
 62
     7
 48
0.024675
370
    60
390
F
100
AcDbLine
 10
300.999996
 20
545.992698
 30
0.0
 11
300.999996
 21
545.005699
 31
0.0
  0
LINE
  5
BC5
330
1F
100
AcDbEntity
  8
0
 62
     7
 48
0.024675
370
    60
390
F
100
AcDbLine
 10
292.999996
 20
545.992698
 30
0.0
 11
292.999996
 21
545.005699
 31
0.0
  0
LINE
  5
BC6
330
1F
100
AcDbEntity
  8
0
 62
     7
 48
0.050325
370
    60
390
F
100
AcDbLine
 10
292.999996
 20
545.005699
 30
0.0
 11
292.999996
 21
542.992698
 31
0.0
  0
LINE
  5
BC7
330
1F
100
AcDbEntity
  8
0
 62
     7
 48
0.05
370
    60
390
F
100
AcDbLine
 10
300.999996
 20
542.992698
 30
0.0
 11
302.999984
 21
542.992698
 31
0.0
  0
LINE
  5
BC8
330
1F
100
AcDbEntity
  8
0
 62
     7
 48
0.05
370
    60
390
F
100
AcDbLine
 10
300.999996
 20
545.992698
 30
0.0
 11
302.999988
 21
545.992698
 31
0.0
  0
LINE
  5
BC9
330
1F
100
AcDbEntity
  8
0
 62
     7
 48
0.05
370
    60
390
F
100
AcDbLine
 10
290.999984
 20
542.992698
 30
0.0
 11
292.999996
 21
542.992698
 31
0.0
  0
LINE
  5
BCA
330
1F
100
AcDbEntity
  8
0
 62
     7
 48
0.05
370
    60
390
F
100
AcDbLine
 10
290.999988
 20
545.992698
 30
0.0
 11
292.999996
 21
545.992698
 31
0.0
  0
LINE
  5
BCB
330
1F
100
AcDbEntity
  8
0
 62
     7
 48
0.2
370
    60
390
F
100
AcDbLine
 10
295.199996
 20
538.4435040000001
 30
0.0
 11
295.199996
 21
546.4435040000001
 31
0.0
  0
LINE
  5
BCC
330
1F
100
AcDbEntity
  8
0
 62
     7
 48
0.2
370
    60
390
F
100
AcDbLine
 10
293.999996
 20
538.4435040000001
 30
0.0
 11
293.999996
 21
546.4435040000001
 31
0.0
  0
LINE
  5
BCD
330
1F
100
AcDbEntity
  8
0
 62
     7
 48
0.2
370
    60
390
F
100
AcDbLine
 10
298.799995
 20
538.4435040000001
 30
0.0
 11
298.799995
 21
546.4435040000001
 31
0.0
  0
LINE
  5
BCE
330
1F
100
AcDbEntity
  8
0
 62
     7
 48
0.2
370
    60
390
F
100
AcDbLine
 10
299.999996
 20
538.4435040000001
 30
0.0
 11
299.999996
 21
546.4435040000001
 31
0.0
  0
LINE
  5
BCF
330
1F
100
AcDbEntity
  8
0
 62
     7
 48
0.060001
370
    60
390
F
100
AcDbLine
 10
280.999996
 20
487.043479
 30
0.0
 11
280.999996
 21
489.443504
 31
0.0
  0
LINE
  5
BD0
330
1F
100
AcDbEntity
  8
0
 62
     7
370
    60
390
F
100
AcDbLine
 10
280.999996
 20
515.0531840000001
 30
0.0
 11
280.999996
 21
489.443504
 31
0.0
  0
LINE
  5
BD1
330
1F
100
AcDbEntity
  8
0
 62
     7
 48
0.285544
370
    60
390
F
100
AcDbLine
 10
280.999996
 20
515.0531840000001
 30
0.0
 11
280.999996
 21
526.474937
 31
0.0
  0
LINE
  5
BD2
330
1F
100
AcDbEntity
  8
0
 62
     7
370
    60
390
F
100
AcDbLine
 10
280.999996
 20
552.6834939999999
 30
0.0
 11
280.999996
 21
526.474937
 31
0.0
  0
LINE
  5
BD3
330
1F
100
AcDbEntity
  8
0
 62
     7
 48
0.237723
370
    60
390
F
100
AcDbLine
 10
283.999996
 20
515.0531840000001
 30
0.0
 11
283.999996
 21
524.562095
 31
0.0
  0
LINE
  5
BD4
330
1F
100
AcDbEntity
  8
0
 62
     7
370
    60
390
F
100
AcDbLine
 10
283.999996
 20
515.0531840000001
 30
0.0
 11
283.999996
 21
489.443504
 31
0.0
  0
LINE
  5
BD5
330
1F
100
AcDbEntity
  8
0
 62
     7
 48
0.054752
370
    60
390
F
100
AcDbLine
 10
283.999996
 20
487.25344
 30
0.0
 11
283.999996
 21
489.443504
 31
0.0
  0
LINE
  5
BD6
330
1F
100
AcDbEntity
  8
0
 62
     7
 48
0.045
370
    60
390
F
100
AcDbLine
 10
281.599994
 20
486.443504
 30
0.0
 11
283.399997
 21
486.443504
 31
0.0
  0
LINE
  5
BDE
330
1F
100
AcDbEntity
  8
0
 62
     7
 48
0.045
370
    60
390
F
100
AcDbLine
 10
281.599998
 20
526.780906
 30
0.0
 11
283.399997
 21
526.780906
 31
0.0
  0
LINE
  5
BE1
330
1F
100
AcDbEntity
  8
0
 62
     7
 48
0.066667
370
    60
390
F
100
AcDbLine
 10
283.399997
 20
529.4475930000001
 30
0.0
 11
283.399997
 21
526.780906
 31
0.0
  0
ELLIPSE
  5
BE2
330
1F
100
AcDbEntity
  8
0
 62
     7
370
    60
100
AcDbEllipse
 10
283.399997
 20
526.474937
 30
0.0
 11
0.600000023841858
 21
1.049073433000000E-7
 31
0.0
210
0.0
220
0.0
230
1.0
 40
0.5099009999999999
 41
0.6398718953132629
 42
1.570796370506287
  0
LWPOLYLINE
  5
BE3
330
1F
100
AcDbEntity
  8
0
 62
     7
370
    60
390
F
100
AcDbPolyline
 90
        7
 70
     0
 43
0.0
 10
283.399997
 20
486.443504
 10
283.54573
 20
486.47042
 10
283.685741
 20
486.550743
 10
283.811202
 20
486.6814189999999
 10
283.91381
 20
486.857688
 10
283.982021
 20
487.0730809999999
 10
283.999996
 20
487.25344
  0
ARC
  5
BE5
330
1F
100
AcDbEntity
  8
0
 62
     7
370
    60
390
F
100
AcDbCircle
 10
266.446796
 20
524.6294170000001
 30
0.0
 40
17.55275
100
AcDbArc
 50
359.7801670000001
 51
6.635542
  0
LINE
  5
BE7
330
1F
100
AcDbEntity
  8
0
 62
     7
 48
0.054752
370
    60
390
F
100
AcDbLine
 10
295.499996
 20
487.25344
 30
0.0
 11
295.499996
 21
489.443504
 31
0.0
  0
LINE
  5
BE8
330
1F
100
AcDbEntity
  8
0
 62
     7
370
    60
390
F
100
AcDbLine
 10
295.499996
 20
515.0531840000001
 30
0.0
 11
295.499996
 21
489.443504
 31
0.0
  0
LINE
  5
BE9
330
1F
100
AcDbEntity
  8
0
 62
     7
 48
0.237723
370
    60
390
F
100
AcDbLine
 10
295.499996
 20
515.0531840000001
 30
0.0
 11
295.499996
 21
524.562095
 31
0.0
  0
LINE
  5
BEA
330
1F
100
AcDbEntity
  8
0
 62
     7
 48
0.054752
370
    60
390
F
100
AcDbLine
 10
298.499996
 20
487.25344
 30
0.0
 11
298.499996
 21
489.443504
 31
0.0
  0
LINE
  5
BEB
330
1F
100
AcDbEntity
  8
0
 62
     7
370
    60
390
F
100
AcDbLine
 10
298.499996
 20
489.443504
 30
0.0
 11
298.499996
 21
515.0531840000001
 31
0.0
  0
LINE
  5
BEC
330
1F
100
AcDbEntity
  8
0
 62
     7
 48
0.237723
370
    60
390
F
100
AcDbLine
 10
298.499996
 20
515.0531840000001
 30
0.0
 11
298.499996
 21
524.562095
 31
0.0
  0
LINE
  5
BED
330
1F
100
AcDbEntity
  8
0
 62
     7
 48
0.045
370
    60
390
F
100
AcDbLine
 10
297.899997
 20
486.443504
 30
0.0
 11
296.099994
 21
486.443504
 31
0.0
  0
LINE
  5
BF5
330
1F
100
AcDbEntity
  8
0
 62
     7
 48
0.045
370
    60
390
F
100
AcDbLine
 10
296.099998
 20
526.780906
 30
0.0
 11
297.899997
 21
526.780906
 31
0.0
  0
LWPOLYLINE
  5
BF9
330
1F
100
AcDbEntity
  8
0
 62
     7
370
    60
390
F
100
AcDbPolyline
 90
        7
 70
     0
 43
0.0
 10
296.099994
 20
486.443504
 10
295.95428
 20
486.47042
 10
295.814258
 20
486.550743
 10
295.688793
 20
486.681358
 10
295.586196
 20
486.857688
 10
295.51799
 20
487.07302
 10
295.499996
 20
487.253318
  0
ARC
  5
BFA
330
1F
100
AcDbEntity
  8
0
 62
     7
370
    60
390
F
100
AcDbCircle
 10
313.053195
 20
524.6294170000001
 30
0.0
 40
17.55275
100
AcDbArc
 50
173.364463
 51
180.219828
  0
ELLIPSE
  5
BFB
330
1F
100
AcDbEntity
  8
0
 62
     7
370
    60
100
AcDbEllipse
 10
296.099998
 20
526.474937
 30
0.0
 11
0.600000023841858
 21
1.049073433000000E-7
 31
0.0
210
0.0
220
0.0
230
1.0
 40
0.5099009999999999
 41
1.570796370506287
 42
2.501720666885376
  0
LINE
  5
BFD
330
1F
100
AcDbEntity
  8
0
 62
     7
 48
0.066667
370
    60
390
F
100
AcDbLine
 10
296.099998
 20
529.4475930000001
 30
0.0
 11
296.099998
 21
526.780906
 31
0.0
  0
LINE
  5
BFF
330
1F
100
AcDbEntity
  8
0
 62
     7
 48
0.066667
370
    60
390
F
100
AcDbLine
 10
297.899997
 20
526.780906
 30
0.0
 11
297.899997
 21
529.4475930000001
 31
0.0
  0
ELLIPSE
  5
C00
330
1F
100
AcDbEntity
  8
0
 62
     7
370
    60
100
AcDbEllipse
 10
297.899997
 20
526.474937
 30
0.0
 11
-0.6000000238418586
 21
-5.245367160000002E-8
 31
0.0
210
0.0
220
0.0
230
1.0
 40
0.5099009999999998
 41
3.781464576721191
 42
4.71238899230957
  0
ARC
  5
C01
330
1F
100
AcDbEntity
  8
0
 62
     7
370
    60
390
F
100
AcDbCircle
 10
280.946796
 20
524.6294170000001
 30
0.0
 40
17.55275
100
AcDbArc
 50
359.7801670000001
 51
6.635542
  0
LWPOLYLINE
  5
C04
330
1F
100
AcDbEntity
  8
0
 62
     7
370
    60
390
F
100
AcDbPolyline
 90
        7
 70
     0
 43
0.0
 10
297.899997
 20
486.443504
 10
298.045711
 20
486.47042
 10
298.185733
 20
486.550743
 10
298.311199
 20
486.681358
 10
298.413795
 20
486.857688
 10
298.482002
 20
487.07302
 10
298.499996
 20
487.253318
  0
LINE
  5
C05
330
1F
100
AcDbEntity
  8
0
 62
     7
 48
0.054752
370
    60
390
F
100
AcDbLine
 10
309.999996
 20
487.25344
 30
0.0
 11
309.999996
 21
489.443504
 31
0.0
  0
LINE
  5
C06
330
1F
100
AcDbEntity
  8
0
 62
     7
370
    60
390
F
100
AcDbLine
 10
309.999996
 20
515.0531840000001
 30
0.0
 11
309.999996
 21
489.443504
 31
0.0
  0
LINE
  5
C07
330
1F
100
AcDbEntity
  8
0
 62
     7
 48
0.237723
370
    60
390
F
100
AcDbLine
 10
309.999996
 20
515.0531840000001
 30
0.0
 11
309.999996
 21
524.562095
 31
0.0
  0
LINE
  5
C08
330
1F
100
AcDbEntity
  8
0
 62
     7
 48
0.060001
370
    60
390
F
100
AcDbLine
 10
312.999996
 20
487.043479
 30
0.0
 11
312.999996
 21
489.443504
 31
0.0
  0
LINE
  5
C09
330
1F
100
AcDbEntity
  8
0
 62
     7
370
    60
390
F
100
AcDbLine
 10
312.999996
 20
489.443504
 30
0.0
 11
312.999996
 21
515.0531840000001
 31
0.0
  0
LINE
  5
C0A
330
1F
100
AcDbEntity
  8
0
 62
     7
 48
0.285544
370
    60
390
F
100
AcDbLine
 10
312.999996
 20
515.0531840000001
 30
0.0
 11
312.999996
 21
526.474937
 31
0.0
  0
LINE
  5
C0B
330
1F
100
AcDbEntity
  8
0
 62
     7
370
    60
390
F
100
AcDbLine
 10
312.999996
 20
526.474937
 30
0.0
 11
312.999996
 21
552.6834939999999
 31
0.0
  0
LINE
  5
C0E
330
1F
100
AcDbEntity
  8
0
 62
     7
 48
0.045
370
    60
390
F
100
AcDbLine
 10
312.399997
 20
486.443504
 30
0.0
 11
310.599994
 21
486.443504
 31
0.0
  0
LINE
  5
C13
330
1F
100
AcDbEntity
  8
0
 62
     7
 48
0.045
370
    60
390
F
100
AcDbLine
 10
310.599998
 20
526.780906
 30
0.0
 11
312.399997
 21
526.780906
 31
0.0
  0
LINE
  5
C19
330
1F
100
AcDbEntity
  8
0
 62
     7
 48
0.3175
370
    60
390
F
100
AcDbLine
 10
283.399997
 20
529.4475930000001
 30
0.0
 11
296.099998
 21
529.4475930000001
 31
0.0
  0
LINE
  5
C1A
330
1F
100
AcDbEntity
  8
0
 62
     7
 48
0.3175
370
    60
390
F
100
AcDbLine
 10
297.899997
 20
529.4475930000001
 30
0.0
 11
310.599998
 21
529.4475930000001
 31
0.0
  0
LINE
  5
C1B
330
1F
100
AcDbEntity
  8
0
 62
     7
 48
0.066667
370
    60
390
F
100
AcDbLine
 10
310.599998
 20
529.4475930000001
 30
0.0
 11
310.599998
 21
526.780906
 31
0.0
  0
LINE
  5
C1E
330
1F
100
AcDbEntity
  8
0
 62
     7
 48
0.015001
370
    60
390
F
100
AcDbLine
 10
311.999996
 20
546.4435040000001
 30
0.0
 11
311.999996
 21
545.8434669999999
 31
0.0
  0
LINE
  5
C1F
330
1F
100
AcDbEntity
  8
0
 62
     7
 48
0.225
370
    60
390
F
100
AcDbLine
 10
311.999996
 20
545.8434669999999
 30
0.0
 11
302.999996
 21
545.8434669999999
 31
0.0
  0
LINE
  5
C20
330
1F
100
AcDbEntity
  8
0
 62
     7
 48
0.159999
370
    60
390
F
100
AcDbLine
 10
302.999996
 20
545.8434669999999
 30
0.0
 11
302.999996
 21
539.4435040000001
 31
0.0
  0
ARC
  5
C21
330
1F
100
AcDbEntity
  8
0
 62
     7
370
    60
390
F
100
AcDbCircle
 10
301.999996
 20
539.4435040000001
 30
0.0
 40
1.0
100
AcDbArc
 50
269.999997
 51
0.0
  0
LINE
  5
C22
330
1F
100
AcDbEntity
  8
0
 62
     7
 48
0.25
370
    60
390
F
100
AcDbLine
 10
291.999996
 20
538.4435040000001
 30
0.0
 11
301.999996
 21
538.4435040000001
 31
0.0
  0
ARC
  5
C23
330
1F
100
AcDbEntity
  8
0
 62
     7
370
    60
390
F
100
AcDbCircle
 10
291.999996
 20
539.4435040000001
 30
0.0
 40
1.0
100
AcDbArc
 50
180.000005
 51
270.000001
  0
LINE
  5
C24
330
1F
100
AcDbEntity
  8
0
 62
     7
 48
0.159999
370
    60
390
F
100
AcDbLine
 10
290.999996
 20
545.8434669999999
 30
0.0
 11
290.999996
 21
539.4435040000001
 31
0.0
  0
LINE
  5
C25
330
1F
100
AcDbEntity
  8
0
 62
     7
 48
0.225
370
    60
390
F
100
AcDbLine
 10
290.999996
 20
545.8434669999999
 30
0.0
 11
281.999996
 21
545.8434669999999
 31
0.0
  0
LINE
  5
C26
330
1F
100
AcDbEntity
  8
0
 62
     7
 48
0.015001
370
    60
390
F
100
AcDbLine
 10
281.999996
 20
545.8434669999999
 30
0.0
 11
281.999996
 21
546.4435040000001
 31
0.0
  0
LINE
  5
C27
330
1F
100
AcDbEntity
  8
0
 62
     7
 48
0.225
370
    60
390
F
100
AcDbLine
 10
290.999996
 20
546.4435040000001
 30
0.0
 11
281.999996
 21
546.4435040000001
 31
0.0
  0
LINE
  5
C28
330
1F
100
AcDbEntity
  8
0
 62
     7
 48
0.3
370
    60
390
F
100
AcDbLine
 10
290.999996
 20
546.4435040000001
 30
0.0
 11
302.999996
 21
546.4435040000001
 31
0.0
  0
LINE
  5
C29
330
1F
100
AcDbEntity
  8
0
 62
     7
 48
0.225
370
    60
390
F
100
AcDbLine
 10
311.999996
 20
546.4435040000001
 30
0.0
 11
302.999996
 21
546.4435040000001
 31
0.0
  0
ELLIPSE
  5
C2A
330
1F
100
AcDbEntity
  8
0
 62
     7
370
    60
100
AcDbEllipse
 10
308.999996
 20
549.0241920000001
 30
0.0
 11
1.268857717514038
 21
2.218541368000000E-7
 31
0.0
210
0.0
220
0.0
230
0.9999999999999999
 40
0.8602330000000005
 41
4.186389446258545
 42
10.46957475343813
  0
ELLIPSE
  5
C2B
330
1F
100
AcDbEntity
  8
0
 62
     7
370
    60
100
AcDbEllipse
 10
308.999996
 20
554.3656229999999
 30
0.0
 11
1.268857717514038
 21
2.218541368000000E-7
 31
0.0
210
0.0
220
0.0
230
0.9999999999999999
 40
0.8602330000000005
 41
4.186389446258545
 42
10.46957475343813
  0
ELLIPSE
  5
C2C
330
1F
100
AcDbEntity
  8
0
 62
     7
370
    60
100
AcDbEllipse
 10
302.999996
 20
549.0241920000001
 30
0.0
 11
1.268857717514038
 21
2.218541368000000E-7
 31
0.0
210
0.0
220
0.0
230
0.9999999999999999
 40
0.8602330000000005
 41
4.186389446258545
 42
10.46957475343813
  0
ELLIPSE
  5
C2D
330
1F
100
AcDbEntity
  8
0
 62
     7
370
    60
100
AcDbEllipse
 10
302.999996
 20
554.3656229999999
 30
0.0
 11
1.268857717514038
 21
2.218541368000000E-7
 31
0.0
210
0.0
220
0.0
230
0.9999999999999999
 40
0.8602330000000005
 41
4.186389446258545
 42
10.46957475343813
  0
ELLIPSE
  5
C2E
330
1F
100
AcDbEntity
  8
0
 62
     7
370
    60
100
AcDbEllipse
 10
296.999996
 20
549.0241920000001
 30
0.0
 11
1.268857717514038
 21
2.218541368000000E-7
 31
0.0
210
0.0
220
0.0
230
0.9999999999999999
 40
0.8602330000000005
 41
4.186389446258545
 42
10.46957475343813
  0
ELLIPSE
  5
C2F
330
1F
100
AcDbEntity
  8
0
 62
     7
370
    60
100
AcDbEllipse
 10
296.999996
 20
554.3656229999999
 30
0.0
 11
1.268857717514038
 21
2.218541368000000E-7
 31
0.0
210
0.0
220
0.0
230
0.9999999999999999
 40
0.8602330000000005
 41
4.186389446258545
 42
10.46957475343813
  0
ELLIPSE
  5
C30
330
1F
100
AcDbEntity
  8
0
 62
     7
370
    60
100
AcDbEllipse
 10
290.999996
 20
549.0241920000001
 30
0.0
 11
1.268857717514038
 21
2.218541368000000E-7
 31
0.0
210
0.0
220
0.0
230
0.9999999999999999
 40
0.8602330000000005
 41
4.186389446258545
 42
10.46957475343813
  0
ELLIPSE
  5
C31
330
1F
100
AcDbEntity
  8
0
 62
     7
370
    60
100
AcDbEllipse
 10
290.999996
 20
554.3656229999999
 30
0.0
 11
1.268857717514038
 21
2.218541368000000E-7
 31
0.0
210
0.0
220
0.0
230
0.9999999999999999
 40
0.8602330000000005
 41
4.186389446258545
 42
10.46957475343813
  0
ELLIPSE
  5
C32
330
1F
100
AcDbEntity
  8
0
 62
     7
370
    60
100
AcDbEllipse
 10
284.999996
 20
549.0241920000001
 30
0.0
 11
1.268857717514038
 21
2.218541368000000E-7
 31
0.0
210
0.0
220
0.0
230
0.9999999999999999
 40
0.8602330000000005
 41
4.186389446258545
 42
10.46957475343813
  0
ELLIPSE
  5
C33
330
1F
100
AcDbEntity
  8
0
 62
     7
370
    60
100
AcDbEllipse
 10
284.999996
 20
554.3656229999999
 30
0.0
 11
1.268857717514038
 21
2.218541368000000E-7
 31
0.0
210
0.0
220
0.0
230
0.9999999999999999
 40
0.8602330000000005
 41
4.186389446258545
 42
10.46957475343813
  0
LWPOLYLINE
  5
C36
330
1F
100
AcDbEntity
  8
0
 62
     7
370
    60
390
F
100
AcDbPolyline
 90
        7
 70
     0
 43
0.0
 10
310.599994
 20
486.443504
 10
310.467616
 20
486.46566
 10
310.339195
 20
486.532066
 10
310.221553
 20
486.640525
 10
310.092044
 20
486.84481
 10
310.011939
 20
487.106834
 10
309.999996
 20
487.253318
  0
ARC
  5
C37
330
1F
100
AcDbEntity
  8
0
 62
     7
370
    60
390
F
100
AcDbCircle
 10
327.553193
 20
524.6294170000001
 30
0.0
 40
17.55275
100
AcDbArc
 50
173.364463
 51
180.219828
  0
ELLIPSE
  5
C38
330
1F
100
AcDbEntity
  8
0
 62
     7
370
    60
100
AcDbEllipse
 10
310.599998
 20
526.474937
 30
0.0
 11
0.600000023841858
 21
1.049073433000000E-7
 31
0.0
210
0.0
220
0.0
230
1.0
 40
0.5099009999999999
 41
1.570796370506287
 42
2.501569986343384
  0
LINE
  5
C3A
330
1F
100
AcDbEntity
  8
0
 62
     7
 48
0.011641
370
    60
390
F
100
AcDbLine
 10
290.999996
 20
545.8434669999999
 30
0.0
 11
290.999996
 21
546.3091039999999
 31
0.0
  0
LINE
  5
C3B
330
1F
100
AcDbEntity
  8
0
 62
     7
 48
0.00336
370
    60
390
F
100
AcDbLine
 10
290.999996
 20
546.4435040000001
 30
0.0
 11
290.999996
 21
546.3091039999999
 31
0.0
  0
LINE
  5
C3C
330
1F
100
AcDbEntity
  8
0
 62
     7
 48
0.011641
370
    60
390
F
100
AcDbLine
 10
302.999996
 20
545.8434669999999
 30
0.0
 11
302.999996
 21
546.3091039999999
 31
0.0
  0
LINE
  5
C3D
330
1F
100
AcDbEntity
  8
0
 62
     7
 48
0.00336
370
    60
390
F
100
AcDbLine
 10
302.999996
 20
546.4435040000001
 30
0.0
 11
302.999996
 21
546.3091039999999
 31
0.0
  0
LINE
  5
C48
330
1F
100
AcDbEntity
  8
0
 62
     7
 48
0.09
370
    60
390
F
100
AcDbLine
 10
295.199996
 20
542.8559789999999
 30
0.0
 11
298.799995
 21
542.8559789999999
 31
0.0
  0
LINE
  5
C49
330
1F
100
AcDbEntity
  8
0
 62
     7
 48
0.006583
370
    60
390
F
100
AcDbLine
 10
290.999996
 20
546.2560040000001
 30
0.0
 11
290.999996
 21
545.992698
 31
0.0
  0
ARC
  5
C4E
330
1F
100
AcDbEntity
  8
0
 62
     7
370
    60
390
F
100
AcDbCircle
 10
296.999996
 20
457.436424
 30
0.0
 40
100.0
100
AcDbArc
 50
82.819247
 51
97.180758
  0
LINE
  5
C57
330
1F
100
AcDbEntity
  8
0
 62
     7
 48
0.3175
370
    60
390
F
100
AcDbLine
 10
310.599994
 20
486.443504
 30
0.0
 11
297.899997
 21
486.443504
 31
0.0
  0
LINE
  5
C58
330
1F
100
AcDbEntity
  8
0
 62
     7
 48
0.3175
370
    60
390
F
100
AcDbLine
 10
296.099994
 20
486.443504
 30
0.0
 11
283.399997
 21
486.443504
 31
0.0
  0
LINE
  5
C5B
330
1F
100
AcDbEntity
  8
0
 62
     7
 48
0.0375
370
    60
390
F
100
AcDbLine
 10
283.999996
 20
492.943504
 30
0.0
 11
283.999996
 21
491.443504
 31
0.0
  0
LINE
  5
C5C
330
1F
100
AcDbEntity
  8
0
 62
     7
 48
0.0375
370
    60
390
F
100
AcDbLine
 10
298.499996
 20
492.943504
 30
0.0
 11
298.499996
 21
491.443504
 31
0.0
  0
ARC
  5
C5D
330
1F
100
AcDbEntity
  8
0
 62
     7
370
    60
390
F
100
AcDbCircle
 10
284.999996
 20
552.6834939999999
 30
0.0
 40
4.0
100
AcDbArc
 50
100.035954
 51
118.545719
  0
ARC
  5
C5E
330
1F
100
AcDbEntity
  8
0
 62
     7
370
    60
390
F
100
AcDbCircle
 10
284.999996
 20
552.6834939999999
 30
0.0
 40
4.0
100
AcDbArc
 50
138.650423
 51
180.000005
  0
ARC
  5
C5F
330
1F
100
AcDbEntity
  8
0
 62
     7
370
    60
390
F
100
AcDbCircle
 10
308.999996
 20
552.6834939999999
 30
0.0
 40
4.0
100
AcDbArc
 50
0.0
 51
82.819247
  0
ELLIPSE
  5
C64
330
1F
100
AcDbEntity
  8
0
 62
     7
370
    60
100
AcDbEllipse
 10
281.599998
 20
526.474937
 30
0.0
 11
0.600000023841858
 21
1.049073433000000E-7
 31
0.0
210
0.0
220
0.0
230
1.0
 40
0.5099009999999999
 41
1.570796370506287
 42
3.141592741012573
  0
ELLIPSE
  5
C6A
330
1F
100
AcDbEntity
  8
0
 62
     7
370
    60
100
AcDbEllipse
 10
312.399997
 20
526.474937
 30
0.0
 11
-0.6000000238418586
 21
-5.245367160000002E-8
 31
0.0
210
0.0
220
0.0
230
1.0
 40
0.5099009999999998
 41
3.141592741012573
 42
4.71238899230957
  0
ARC
  5
C6D
330
1F
100
AcDbEntity
  8
0
 62
     7
370
    60
390
F
100
AcDbCircle
 10
312.399997
 20
487.043479
 30
0.0
 40
0.6
100
AcDbArc
 50
270.000001
 51
0.00001
  0
ARC
  5
C6E
330
1F
100
AcDbEntity
  8
0
 62
     7
370
    60
390
F
100
AcDbCircle
 10
281.599994
 20
487.043479
 30
0.0
 40
0.6
100
AcDbArc
 50
180.000005
 51
270.000001
  0
ARC
  5
C70
330
1F
100
AcDbEntity
  8
0
 62
     7
370
    60
390
F
100
AcDbCircle
 10
284.972808
 20
552.8175879999999
 30
0.0
 40
3.863571
100
AcDbArc
 50
97.029169
 51
99.987972
  0
ARC
  5
C71
330
1F
100
AcDbEntity
  8
0
 62
     7
370
    60
390
F
100
AcDbCircle
 10
285.000236
 20
552.681419
 30
0.0
 40
4.001725
100
AcDbArc
 50
118.559939
 51
138.661597
  0
LINE
  5
C72
330
1F
100
AcDbEntity
  8
0
 62
     7
370
    60
390
F
100
AcDbLine
 10
60.99769200000003
 20
133.943473
 30
0.0
 11
184.771358
 21
133.943473
 31
0.0
  0
LINE
  5
C73
330
1F
100
AcDbEntity
  8
0
 62
     7
370
    60
390
F
100
AcDbLine
 10
60.99769200000003
 20
141.943473
 30
0.0
 11
184.771358
 21
141.943473
 31
0.0
  0
LINE
  5
C74
330
1F
100
AcDbEntity
  8
0
 62
     7
370
    60
390
F
100
AcDbLine
 10
184.771358
 20
133.943473
 30
0.0
 11
533.0023
 21
133.943473
 31
0.0
  0
LINE
  5
C75
330
1F
100
AcDbEntity
  8
0
 62
     7
370
    60
390
F
100
AcDbLine
 10
184.771358
 20
141.943473
 30
0.0
 11
533.0023
 21
141.943473
 31
0.0
  0
LINE
  5
C76
330
1F
100
AcDbEntity
  8
0
 62
     7
370
    60
390
F
100
AcDbLine
 10
224.992435
 20
439.943504
 30
0.0
 11
263.397144
 21
439.943504
 31
0.0
  0
LINE
  5
C77
330
1F
100
AcDbEntity
  8
0
 62
     7
370
    60
390
F
100
AcDbLine
 10
263.397144
 20
439.943504
 30
0.0
 11
369.007558
 21
439.943504
 31
0.0
  0
LINE
  5
C78
330
1F
100
AcDbEntity
  8
0
 62
     7
 48
0.2
370
    60
390
F
100
AcDbLine
 10
60.99769200000003
 20
141.943473
 30
0.0
 11
60.99769200000003
 21
133.943473
 31
0.0
  0
LINE
  5
C79
330
1F
100
AcDbEntity
  8
0
 62
     7
 48
0.2
370
    60
390
F
100
AcDbLine
 10
533.0023
 20
141.943473
 30
0.0
 11
533.0023
 21
133.943473
 31
0.0
  0
ARC
  5
C7A
330
1F
100
AcDbEntity
  8
0
 62
     7
370
    60
390
F
100
AcDbCircle
 10
570.439464
 20
133.943428
 30
0.0
 40
500.00589
100
AcDbArc
 50
163.097241
 51
179.08323
  0
ARC
  5
C7B
330
1F
100
AcDbEntity
  8
0
 62
     7
370
    60
390
F
100
AcDbCircle
 10
23.56052700000004
 20
133.943428
 30
0.0
 40
500.00589
100
AcDbArc
 50
0.916766
 51
16.902763
  0
ARC
  5
C7C
330
1F
100
AcDbEntity
  8
0
 62
     7
370
    60
390
F
100
AcDbCircle
 10
350.376084
 20
200.814628
 30
0.0
 40
270.006714
100
AcDbArc
 50
117.669597
 51
163.097076
  0
ARC
  5
C7D
330
1F
100
AcDbEntity
  8
0
 62
     7
370
    60
390
F
100
AcDbCircle
 10
243.623905
 20
200.814628
 30
0.0
 40
270.006714
100
AcDbArc
 50
16.902918
 51
62.330401
  0
LINE
  5
C7E
330
1F
100
AcDbEntity
  8
0
 62
     7
 48
0.324998
370
    60
390
F
100
AcDbLine
 10
224.992435
 20
452.9434429999999
 30
0.0
 11
224.992435
 21
439.943504
 31
0.0
  0
LINE
  5
C7F
330
1F
100
AcDbEntity
  8
0
 62
     7
 48
0.324998
370
    60
390
F
100
AcDbLine
 10
369.007558
 20
452.9434429999999
 30
0.0
 11
369.007558
 21
439.943504
 31
0.0
  0
LINE
  5
C80
330
1F
100
AcDbEntity
  8
0
 62
     7
 48
0.2625
370
    60
390
F
100
AcDbLine
 10
286.499996
 20
668.9435040000001
 30
0.0
 11
296.999996
 21
668.9435040000001
 31
0.0
  0
LINE
  5
C81
330
1F
100
AcDbEntity
  8
0
 62
     7
 48
0.2625
370
    60
390
F
100
AcDbLine
 10
296.999996
 20
668.9435040000001
 30
0.0
 11
307.499996
 21
668.9435040000001
 31
0.0
  0
LINE
  5
C82
330
1F
100
AcDbEntity
  8
0
 62
     7
 48
0.185022
370
    60
390
F
100
AcDbLine
 10
296.999996
 20
676.9435040000001
 30
0.0
 11
304.400886
 21
676.9435040000001
 31
0.0
  0
LINE
  5
C83
330
1F
100
AcDbEntity
  8
0
 62
     7
 48
0.185022
370
    60
390
F
100
AcDbLine
 10
289.599109
 20
676.9435040000001
 30
0.0
 11
296.999996
 21
676.9435040000001
 31
0.0
  0
LINE
  5
C84
330
1F
100
AcDbEntity
  8
0
 62
     7
 48
0.246827
370
    60
390
F
100
AcDbLine
 10
287.126914
 20
674.9435040000001
 30
0.0
 11
296.999996
 21
674.9435040000001
 31
0.0
  0
ARC
  5
C85
330
1F
100
AcDbEntity
  8
0
 62
     7
370
    60
390
F
100
AcDbCircle
 10
289.60395
 20
674.556358
 30
0.0
 40
2.387291
100
AcDbArc
 50
90.116157
 51
115.180964
  0
LWPOLYLINE
  5
C86
330
1F
100
AcDbEntity
  8
0
 62
     7
370
    60
390
F
100
AcDbPolyline
 90
        8
 70
     0
 43
0.0
 10
288.588123
 20
676.7169409999999
 10
288.243839
 20
676.523338
 10
287.934402
 20
676.283226
 10
287.66669
 20
676.0071640000001
 10
287.445259
 20
675.704978
 10
287.27349
 20
675.385215
 10
287.154365
 20
675.054893
 10
287.126914
 20
674.9435040000001
  0
LINE
  5
C87
330
1F
100
AcDbEntity
  8
0
 62
     7
 48
0.246827
370
    60
390
F
100
AcDbLine
 10
296.999996
 20
674.9435040000001
 30
0.0
 11
306.873081
 21
674.9435040000001
 31
0.0
  0
LWPOLYLINE
  5
C88
330
1F
100
AcDbEntity
  8
0
 62
     7
370
    60
390
F
100
AcDbPolyline
 90
        8
 70
     0
 43
0.0
 10
305.411872
 20
676.7169409999999
 10
305.748794
 20
676.528221
 10
306.055366
 20
676.292381
 10
306.323871
 20
676.018272
 10
306.548149
 20
675.7153539999999
 10
306.723289
 20
675.3923560000001
 10
306.845077
 20
675.0569069999999
 10
306.873081
 20
674.9435040000001
  0
ARC
  5
C89
330
1F
100
AcDbEntity
  8
0
 62
     7
370
    60
390
F
100
AcDbCircle
 10
304.396015
 20
674.557029
 30
0.0
 40
2.386659
100
AcDbArc
 50
64.811672
 51
89.883063
  0
ARC
  5
C8A
330
1F
100
AcDbEntity
  8
0
 62
     7
370
    60
390
F
100
AcDbCircle
 10
276.913425
 20
677.1610330000001
 30
0.0
 40
10.45145
100
AcDbArc
 50
336.526401
 51
347.750147
  0
ARC
  5
C8B
330
1F
100
AcDbEntity
  8
0
 62
     7
370
    60
390
F
100
AcDbCircle
 10
317.08658
 20
677.1610330000001
 30
0.0
 40
10.451461
100
AcDbArc
 50
192.249857
 51
203.473593
  0
ARC
  5
C8C
330
1F
100
AcDbEntity
  8
0
 62
     7
370
    60
390
F
100
AcDbCircle
 10
296.999996
 20
688.1935040000001
 30
0.0
 40
9.995511
100
AcDbArc
 50
1.793055
 51
181.793053
  0
ARC
  5
C8D
330
1F
100
AcDbEntity
  8
0
 62
     7
370
    60
390
F
100
AcDbCircle
 10
296.999996
 20
688.1935040000001
 30
0.0
 40
18.470392
100
AcDbArc
 50
359.039249
 51
179.039243
  0
ARC
  5
C8E
330
1F
100
AcDbEntity
  8
0
 62
     7
370
    60
390
F
100
AcDbCircle
 10
296.999996
 20
688.1935040000001
 30
0.0
 40
18.470392
100
AcDbArc
 50
179.039243
 51
235.355887
  0
ARC
  5
C8F
330
1F
100
AcDbEntity
  8
0
 62
     7
370
    60
390
F
100
AcDbCircle
 10
296.999996
 20
688.1935040000001
 30
0.0
 40
9.995511
100
AcDbArc
 50
181.793056
 51
1.793055
  0
ARC
  5
C90
330
1F
100
AcDbEntity
  8
0
 62
     7
370
    60
390
F
100
AcDbCircle
 10
296.999996
 20
688.1935040000001
 30
0.0
 40
18.470392
100
AcDbArc
 50
304.644118
 51
359.039249
  0
LINE
  5
C91
330
1F
100
AcDbEntity
  8
0
 62
     7
 48
0.10136
370
    60
390
F
100
AcDbLine
 10
286.499996
 20
672.9978860000001
 30
0.0
 11
286.499996
 21
668.9435040000001
 31
0.0
  0
LINE
  5
C92
330
1F
100
AcDbEntity
  8
0
 62
     7
 48
0.10136
370
    60
390
F
100
AcDbLine
 10
307.499996
 20
672.9978860000001
 30
0.0
 11
307.499996
 21
668.9435040000001
 31
0.0
  0
DIMENSION
  5
CDA
330
1F
100
AcDbEntity
  8
0
370
    25
100
AcDbDimension
  2
*D16
 10
9.687497868194384
 20
133.943473
 30
0.0
 11
-1.612502131805627
 21
420.3023861700281
 31
0.0
 70
    32
  1
576
 71
     5
 41
2.5
 42
572.717826340056
  3
Standard
100
AcDbAlignedDimension
 13
297.3096989406837
 23
706.6612993400561
 33
0.0
 14
297.3096989406837
 24
133.943473
 34
0.0
 50
90.0
100
AcDbRotatedDimension
1001
ACAD
1000
DSTYLE
1002
{
1070
    41
1040
10.0
1070
   140
1040
14.0
1070
   147
1040
5.0
1070
   176
1070
     7
1070
   177
1070
     7
1070
   271
1070
     0
1070
   340
1005
11
1002
}
  0
POINT
  5
D42
330
1F
100
AcDbEntity
  8
0
 62
     7
100
AcDbPoint
 10
60.99769200000003
 20
135.72149568698
 30
0.0
  0
POINT
  5
D43
330
1F
100
AcDbEntity
  8
0
 62
     7
100
AcDbPoint
 10
533.0023
 20
137.943473
 30
0.0
  0
LINE
  5
D44
330
1F
100
AcDbEntity
  8
0
 62
     7
370
    25
100
AcDbLine
 10
60.99769200000003
 20
135.09649568698
 30
0.0
 11
60.99769200000003
 21
95.63755325021249
 31
0.0
  0
LINE
  5
D45
330
1F
100
AcDbEntity
  8
0
 62
     7
370
    25
100
AcDbLine
 10
533.0023
 20
137.318473
 30
0.0
 11
533.0023
 21
95.63755325021249
 31
0.0
  0
LINE
  5
D46
330
1F
100
AcDbEntity
  8
0
 62
     7
370
    25
100
AcDbLine
 10
70.99769200000003
 20
96.88755325021249
 30
0.0
 11
523.0023
 21
96.88755325021249
 31
0.0
  0
SOLID
  5
D47
330
1F
100
AcDbEntity
  8
0
 62
     7
370
    25
100
AcDbTrace
 10
60.99769200000003
 20
96.88755325021249
 30
0.0
 11
70.99769200000003
 21
95.22088658354582
 31
0.0
 12
70.99769200000003
 22
98.55421991687916
 32
0.0
 13
70.99769200000003
 23
98.55421991687916
 33
0.0
  0
SOLID
  5
D48
330
1F
100
AcDbEntity
  8
0
 62
     7
370
    25
100
AcDbTrace
 10
533.0023
 20
96.88755325021249
 30
0.0
 11
523.0023
 21
95.22088658354582
 31
0.0
 12
523.0023
 22
98.55421991687916
 32
0.0
 13
523.0023
 23
98.55421991687916
 33
0.0
  0
MTEXT
  5
D49
330
1F
100
AcDbEntity
  8
0
370
    25
100
AcDbMText
 10
296.999996
 20
108.1875532502125
 30
0.0
 40
14.0
 41
0.0
 71
     5
 72
     1
  1
\A1;Ø472
 73
     1
 44
1.0
  0
VIEWPORT
  5
4D
330
73
100
AcDbEntity
 67
     1
  8
0
 62
     0
370
     0
390
F
100
AcDbViewport
 10
0.0
 20
0.0
 30
0.0
 40
1000.0
 41
1000.0
 68
     1
 69
     1
 12
0.0
 22
0.0
 13
0.0
 23
0.0
 14
1.0
 24
1.0
 15
1.0
 25
1.0
 16
0.0
 26
0.0
 36
1.0
 17
0.0
 27
0.0
 37
0.0
 42
50.0
 43
0.0
 44
0.0
 45
1000.0
 50
0.0
 51
0.0
 72
   100
 90
   557056
  1

281
     0
 71
     0
 74
     0
110
0.0
120
0.0
130
0.0
111
1.0
121
0.0
131
0.0
112
0.0
122
1.0
132
0.0
 79
     0
146
0.0
  0
ENDSEC
  0
SECTION
  2
OBJECTS
  0
DICTIONARY
  5
C
330
0
100
AcDbDictionary
281
     1
  3
ACAD_COLOR
350
6C
  3
ACAD_GROUP
350
D
  3
ACAD_LAYOUT
350
1A
  3
ACAD_MATERIAL
350
6B
  3
ACAD_MLEADERSTYLE
350
D3B
  3
ACAD_MLINESTYLE
350
17
  3
ACAD_PLOTSETTINGS
350
19
  3
ACAD_PLOTSTYLENAME
350
E
  3
ACAD_SCALELIST
350
99
  3
ACAD_TABLESTYLE
350
92
  3
ACAD_WIPEOUT_VARS
350
E33
  3
ACDBHEADERROUNDTRIPXREC
350
E56
  3
AcDbVariableDictionary
350
59
  3
DWGPROPS
350
E59
  0
DICTIONARY
  5
6C
102
{ACAD_REACTORS
330
C
102
}
330
C
100
AcDbDictionary
281
     1
  0
DICTIONARY
  5
D
102
{ACAD_REACTORS
330
C
102
}
330
C
100
AcDbDictionary
281
     1
  0
DICTIONARY
  5
1A
102
{ACAD_REACTORS
330
C
102
}
330
C
100
AcDbDictionary
281
     1
  3
Layout1
350
74
  3
Model
350
22
  0
DICTIONARY
  5
6B
102
{ACAD_REACTORS
330
C
102
}
330
C
100
AcDbDictionary
281
     1
  0
DICTIONARY
  5
D3B
102
{ACAD_REACTORS
330
C
102
}
330
C
100
AcDbDictionary
281
     1
  0
DICTIONARY
  5
17
102
{ACAD_REACTORS
330
C
102
}
330
C
100
AcDbDictionary
281
     1
  3
Standard
350
18
  0
DICTIONARY
  5
19
102
{ACAD_REACTORS
330
C
102
}
330
C
100
AcDbDictionary
281
     1
  0
ACDBDICTIONARYWDFLT
  5
E
102
{ACAD_REACTORS
330
C
102
}
330
C
100
AcDbDictionary
281
     1
  3
Normal
350
F
100
AcDbDictionaryWithDefault
340
F
  0
DICTIONARY
  5
99
102
{ACAD_REACTORS
330
C
102
}
330
C
100
AcDbDictionary
281
     1
  3
A0
350
9E6
  3
A1
350
9E7
  3
A2
350
9E8
  3
A3
350
9E9
  3
A4
350
9EA
  3
A5
350
9EB
  3
A6
350
9EC
  3
A7
350
9ED
  3
A8
350
9EE
  3
A9
350
9EF
  3
B0
350
9F0
  3
B1
350
9F1
  3
B2
350
9F2
  3
B3
350
9F3
  3
B4
350
9F4
  3
B5
350
9F5
  3
B6
350
9F6
  3
B7
350
9F7
  3
B8
350
9F8
  3
B9
350
9F9
  3
C0
350
9FA
  3
C1
350
9FB
  3
C2
350
9FC
  3
C3
350
9FD
  3
C4
350
9FE
  3
C5
350
9FF
  3
C6
350
A00
  3
C7
350
A01
  3
C8
350
A02
  3
C9
350
A03
  3
D0
350
A04
  3
D1
350
A05
  3
D2
350
A06
  0
DICTIONARY
  5
92
102
{ACAD_REACTORS
330
C
102
}
330
C
100
AcDbDictionary
281
     1
  0
WIPEOUTVARIABLES
  5
E33
102
{ACAD_REACTORS
330
C
102
}
330
C
100
AcDbWipeoutVariables
 70
     1
  0
DICTIONARY
  5
E56
102
{ACAD_REACTORS
330
C
102
}
330
C
100
AcDbDictionary
281
     1
  3
COLORDICT
350
E57
  3
MATERIALDICT
350
E58
  0
DICTIONARY
  5
59
102
{ACAD_REACTORS
330
C
102
}
330
C
100
AcDbDictionary
281
     1
  3
CTABLESTYLE
350
98
  3
DIMASSOC
350
5A
  3
HIDETEXT
350
5E
  0
XRECORD
  5
E59
102
{ACAD_REACTORS
330
C
102
}
330
C
100
AcDbXrecord
280
     1
  1
DWGPROPS COOKIE
  2

  3

  4

  6

  7

  8
BelottiMc
  9

300
=
301
=
302
=
303
=
304
=
305
=
306
=
307
=
308
=
309
=
 40
0.0
 41
2447892.999999977
 42
2447893.0
  1

 90
        0
  0
LAYOUT
  5
74
102
{ACAD_REACTORS
330
1A
102
}
330
1A
100
AcDbPlotSettings
  1

  2
none_device
  4
none_user_media
  6

 40
0.0
 41
0.0
 42
0.0
 43
0.0
 44
0.0
 45
0.0
 46
0.0
 47
0.0
 48
0.0
 49
0.0
140
0.0
141
0.0
142
1.0
143
1.0
 70
   544
 72
     0
 73
     0
 74
     0
  7

 75
    16
147
1.0
148
0.0
149
0.0
100
AcDbLayout
  1
Layout1
 70
     1
 71
     0
 10
0.0
 20
0.0
 11
420.0
 21
297.0
 12
0.0
 22
0.0
 32
0.0
 14
0.0
 24
0.0
 34
0.0
 15
197.908966
 25
887.136902
 35
2.0
146
0.0
 13
0.0
 23
0.0
 33
0.0
 16
1.0
 26
0.0
 36
0.0
 17
0.0
 27
1.0
 37
0.0
 76
     0
330
73
331
4D
  0
LAYOUT
  5
22
102
{ACAD_REACTORS
330
1A
102
}
330
1A
100
AcDbPlotSettings
  1

  2
\\prn100b\W366
  4
A4
  6

 40
4.233333333333333
 41
4.233333333333307
 42
4.233333333333335
 43
4.233333333333333
 44
210.0
 45
296.9
 46
0.0
 47
68.64166666666733
 48
0.0
 49
0.0
140
0.0
141
0.0
142
1.0
143
0.0595434998346014
 70
 11956
 72
     1
 73
     0
 74
     1
  7

 75
     0
147
16.79444444444444
148
0.0
149
0.0
100
AcDbLayout
  1
Model
 70
     1
 71
     0
 10
0.0
 20
0.0
 11
420.0
 21
297.0
 12
0.0
 22
0.0
 32
0.0
 14
-7.562502131805627
 24
95.22088658354582
 34
0.0
 15
533.0023
 25
706.691429
 35
0.0
146
0.0
 13
0.0
 23
0.0
 33
0.0
 16
1.0
 26
0.0
 36
0.0
 17
0.0
 27
1.0
 37
0.0
 76
     0
330
1F
331
97
1001
PROGE_PRINT_SETTINGS
1070
    73
1070
     1
1070
   311
1000
\\prn100b\W366
1004
303030303030303035323030343930303433303034463030343830303230303034313030363630303639303036333030363930303646303032303030343130303530303033363030333130303330303034453030323030303530303034333030344330303230303033363030303030303030303030303030303030303030
1004
303030303030303030303443303035303030353430303331303033413030303030303030303030303030303030303030303030303030303030303030303030303030303030303030303030303030303030303030303030303030303030303030303030303030303030303030303030303030303030303030303030303030
1004
303030303030303030303030303030303030303030303030303030303030303030303030303030303030303030303030303030303030303030303030303030303030303030303030303030303030303030303030303030303030303030303030303030303030303030303030303030303030303030303030303030303030
1004
303030303030303030303030303030303030303030303030303030303030303030303030303030303030303030303030303030303030303030303030303030303030303030303030303030303030303030303030303030303030303030303030303030303030303030303030303030303030303030303030303030303030
1004
303030303030303030303030303030303030303030303030303030303030303030303030303030303030303030303030303030303030303030303030303030303030303030303030303030303030303030303030303030303030303030303030303030303030303030303030303030303030303030303030373430413030
1004
303030303030303030303030303030303030303130303030303037343041303030303531304430303030303030303030303030363030303030304230303930303030423330443030303030313030303030303030303030303030303030303030303030303030303030303030303030303030303030303030303030303030
1004
303030303030303030303030303030303030303030303030303030303030303030303030303030303030303036343030303030303035303030303030303030303030303030303030303030303030303030303030303130303030303030303030303030303030303030303030303630303030303030303030303030303030
1004
303030303030303030303030303030303030303030303030303030303030313830303030303030303030313032373130323731303237303030303130323730303030303030303030303030303030303130303030303030303030303030303030303030303030303030303030303030303030303030303030303030303030
1004
303030303030303030303030303030303030303030303030303030303030303030303030303030303030303030303030303030303030303030303030303030303030303030303030303030303030303030303030303030303030303030303030303030303030303030303030303030303030303030303030303030303030
1004
303030303030303030303030303030303030303030303030303030303030303030303030303030303030303030303030303030303030303030303030303030303030303030303030303030303030303030303030303030303030303030303030303030303030303030303030303030303030303030303030303030303030
1004
303030303030303030303030303030303030303030303030303030303030303030303030303030303030303030303030303030303030303030303030303030303030303030303030303030303030303030303030303030303030303030303030303030303030303030303030303030303030303030303030303030303030
1004
303030303030303030303030303030303030303030303030303030303030303030303030303030303030303030303030303030303030303030303030303030303030303030303030303030303030303030303030303030303030303030303030303030303030303030303030303030303030303030303030303030303030
1004
303030303030303030303030303030303030303030303030303030303030303030303030303030303030303030303030303030303030303030303030303030303030303030303030303030303030303030303030303030303030303030303030303030303030303030303030303030303030303030303030303030303030
1004
303030303030303030303030303030303030303030303030303030303030303030303030303030303030303030303030303030303030303030303030303030303030303030303030303030303030303030303030303030303030303030303030303030303030303030303030303030303030303030303030303030303030
1004
303030303030303030303030303030303030303030303030303030303030303030303030303030303030303030303030303030303030303030303030303030303030303030303030303030303030303030303030303030303030303030303030303030303030303030303030303030303030303030303030303030303030
1004
303030303030303030303030303030303030303030303030303030303030303030303030303030303030303030303030303030303030303030303030303030303030303030303030303030303030303030303030303030303030303030303030303030303030303030303030303030303030303030303030303030303030
1004
303030303030303030303030303030303030303030303030303030303030303030303030303030303030303030303030303030303030303030303030303030303030303030303030303030303030303030303030303030303030303030303030303030303030303030303030303030303030303030303030303030303030
1004
303030303030303030303030303030303030303030303030303030303030303030303030303030303030303030303030303030303030303030303030303030303030303030303030303030303030303030303030303030303030303030303030303030303030303030303030303030303030303030303030303030303030
1004
303030303030303030303030303030303030303030303030303030303030303030303030303030303030303030303030303030303030303030303030303030303030303030303030303030303030303030303030303030303030303030303030303030303030303030303030303030303030303030303030303030303030
1004
303030303030303030303030303030303030303030303030303030303030303030303030303030303030303030303030303030303030303030303030303030303030303030303030303030303030303030303030303030303030303030303030303030303030303030303030303030303030303030303030303030303030
1004
303030303030303030303030303030303030303030303030303030303030303030303030303030303030303030303030303030303030303030303030303030303030303030303030303030303030303030303030303030303030303030303030303030303030303030303030303030303030303030303030303030303030
1004
303030303030303030303030303030303030303030303030303030303030303030303030303030303030303030303030303030303030303030303030303030303030303030303030303030303030303030303030303030303030303030303030303030303030303030303030303030303030303030303030303030303030
1004
303030303030303030303030303030303030303030303030303030303030303030303030303030303030303030303030303030303030303030303030303030303030303030303030303030303030303030303030303030303030303030303030303030303030303030303030303030303030303030303030303030303030
1004
303030303030303030303030303030303030303030303030303030303030303030303030303030303030303030303030303030303030303030303030303030303030303030303030303030303030303030303030303030303030303030303030303030303030303030303030303030303030303030303030303030303030
1004
303030303030303030303030303030303030303030303030303030303030303030303030303030303030303030303030303130303030303030313030303030303030303030303030303030303030303030303030303030303030303030303030303130303030303030303030303030303031303030303030303030303030
1004
303030303030303030303030303030303030303030303030303030303030303030303030303030303030303030303030303030303030303030303030303030303030303030303030303036343030303030303030303030303030303030303030303030303030303030303034303030303030303630303030303030303030
1004
303030303031303030303030303030303030303030303030303030303030303030303030303030303030303030303030303030303031303030303030303130303030303030303030303030303030303030303030303130303030303030303030303030303030303030303030303030303030303030303030303030303030
1004
303030303030363430303030303030303030303030303030303030303030303030303030303030313030303030303030303030303030303130303030303030303030303030303030303030303030303030303030303030303030303030303030303030303030303030303030303030303030303030303030303030303030
1004
303030303030303030303030303030303030303030303030303030303030303030303030303030303030303030303030303030303030303030303030303030303030303030303030303030303030303030303030303030303030303030303030303030303030303045373033303030304537303330303030453730333030
1004
303045373033303030303030303030303030303030303030303030303030303030303030303030303030303030303030303030363030303030303334303830303030393930423030303030303030303030303434303036353030363630303631303037353030364330303734303030303030303030303030303030303030
1004
303030303030303030303030303030303030303030343030303030303030303030303030303030303030303030303030303030303030303030303030303030303030303030303030303030303030303030303030303030303030303030303030303030303030303030303030303030303030303030303030303030303030
1004
303030303030303030303030303030303030303030303030303030303030303030303030303030303030303030303030303030303030303030303030303030303030303030303030303030303030303030303030303030303030303030303030303030303030303030303030303030303030303030303030303030303030
1004
303030303030303030303030303030303030303030303030303030303030303030303030303030303030303030303030303030303030303030303030303030303030303030303030303030303030303030303030303030303030303030303030303030303030303030303030303030303030303030303030303030303030
1004
303030303030303030303030303030303030303030303030303030303030303030303030303030303030303030303030303030303030303030303030303030303030303030303030303030303030303030303030303030303030303030303030303030303030303030303030303030303030303030303030303030303030
1004
303030303030303030303030303030303030303030303030303030303030303030303030303030303030303030303030303030303030303030303030303030303030303030303030303030303030303030303030303030303030303030303030303030303030303030303030303030303030303030303030303030303030
1004
303030303030303030303030303030303030303030303030303030303030303030303030303030303030303030303030303030303030303030303030303030303030303030303030303030303030303030303030303030303030303030303030303030303030303030303030303030303030303030303030303030303030
1004
303030303030303030303030303030303030303030303030303030303030303030303030303030303030303030303030303030303030303030303030303030303030303030303030303030303030303030303030303030303030303030303030303030303030303030303030303030303030303030303030303030303030
1004
303030303030303030303030303030303030303030303030303030303030303030303030303030303030303030303030303030303030303030303030303030303030303030303030303030303030303030303030303030303030303030303030303030303030303030303030303030303030303030303030303030303030
1004
30303030303030303030303030303030303030303030303030303030303030303030303030303030303030303030303030303030303030303030303030303030303030303030303030303030303030303030303030313030303030303030303030303030303030303030303030303030303030303030303030303030
  0
MLINESTYLE
  5
18
102
{ACAD_REACTORS
330
17
102
}
330
17
100
AcDbMlineStyle
  2
Standard
 70
     0
  3

 62
     0
 51
90.0
 52
90.0
 71
     2
 49
0.5
 62
   256
  6
BYLAYER
 49
-0.5
 62
   256
  6
BYLAYER
  0
ACDBPLACEHOLDER
  5
F
102
{ACAD_REACTORS
330
E
102
}
330
E
  0
SCALE
  5
9E6
102
{ACAD_REACTORS
330
99
102
}
330
99
100
AcDbScale
 70
     0
300
1:1
140
1.0
141
1.0
290
     1
  0
SCALE
  5
9E7
102
{ACAD_REACTORS
330
99
102
}
330
99
100
AcDbScale
 70
     0
300
1:2
140
1.0
141
2.0
290
     0
  0
SCALE
  5
9E8
102
{ACAD_REACTORS
330
99
102
}
330
99
100
AcDbScale
 70
     0
300
1:4
140
1.0
141
4.0
290
     0
  0
SCALE
  5
9E9
102
{ACAD_REACTORS
330
99
102
}
330
99
100
AcDbScale
 70
     0
300
1:5
140
1.0
141
5.0
290
     0
  0
SCALE
  5
9EA
102
{ACAD_REACTORS
330
99
102
}
330
99
100
AcDbScale
 70
     0
300
1:8
140
1.0
141
8.0
290
     0
  0
SCALE
  5
9EB
102
{ACAD_REACTORS
330
99
102
}
330
99
100
AcDbScale
 70
     0
300
1:10
140
1.0
141
10.0
290
     0
  0
SCALE
  5
9EC
102
{ACAD_REACTORS
330
99
102
}
330
99
100
AcDbScale
 70
     0
300
1:16
140
1.0
141
16.0
290
     0
  0
SCALE
  5
9ED
102
{ACAD_REACTORS
330
99
102
}
330
99
100
AcDbScale
 70
     0
300
1:20
140
1.0
141
20.0
290
     0
  0
SCALE
  5
9EE
102
{ACAD_REACTORS
330
99
102
}
330
99
100
AcDbScale
 70
     0
300
1:30
140
1.0
141
30.0
290
     0
  0
SCALE
  5
9EF
102
{ACAD_REACTORS
330
99
102
}
330
99
100
AcDbScale
 70
     0
300
1:40
140
1.0
141
40.0
290
     0
  0
SCALE
  5
9F0
102
{ACAD_REACTORS
330
99
102
}
330
99
100
AcDbScale
 70
     0
300
1:50
140
1.0
141
50.0
290
     0
  0
SCALE
  5
9F1
102
{ACAD_REACTORS
330
99
102
}
330
99
100
AcDbScale
 70
     0
300
1:100
140
1.0
141
100.0
290
     0
  0
SCALE
  5
9F2
102
{ACAD_REACTORS
330
99
102
}
330
99
100
AcDbScale
 70
     0
300
2:1
140
2.0
141
1.0
290
     0
  0
SCALE
  5
9F3
102
{ACAD_REACTORS
330
99
102
}
330
99
100
AcDbScale
 70
     0
300
4:1
140
4.0
141
1.0
290
     0
  0
SCALE
  5
9F4
102
{ACAD_REACTORS
330
99
102
}
330
99
100
AcDbScale
 70
     0
300
8:1
140
8.0
141
1.0
290
     0
  0
SCALE
  5
9F5
102
{ACAD_REACTORS
330
99
102
}
330
99
100
AcDbScale
 70
     0
300
10:1
140
10.0
141
1.0
290
     0
  0
SCALE
  5
9F6
102
{ACAD_REACTORS
330
99
102
}
330
99
100
AcDbScale
 70
     0
300
100:1
140
100.0
141
1.0
290
     0
  0
SCALE
  5
9F7
102
{ACAD_REACTORS
330
99
102
}
330
99
100
AcDbScale
 70
     0
300
1/128" = 1'-0"
140
0.0078125
141
12.0
290
     0
  0
SCALE
  5
9F8
102
{ACAD_REACTORS
330
99
102
}
330
99
100
AcDbScale
 70
     0
300
1/64" = 1'-0"
140
0.015625
141
12.0
290
     0
  0
SCALE
  5
9F9
102
{ACAD_REACTORS
330
99
102
}
330
99
100
AcDbScale
 70
     0
300
1/32" = 1'-0"
140
0.03125
141
12.0
290
     0
  0
SCALE
  5
9FA
102
{ACAD_REACTORS
330
99
102
}
330
99
100
AcDbScale
 70
     0
300
1/16" = 1'-0"
140
0.0625
141
12.0
290
     0
  0
SCALE
  5
9FB
102
{ACAD_REACTORS
330
99
102
}
330
99
100
AcDbScale
 70
     0
300
3/32" = 1'-0"
140
0.09375
141
12.0
290
     0
  0
SCALE
  5
9FC
102
{ACAD_REACTORS
330
99
102
}
330
99
100
AcDbScale
 70
     0
300
1/8" = 1'-0"
140
0.125
141
12.0
290
     0
  0
SCALE
  5
9FD
102
{ACAD_REACTORS
330
99
102
}
330
99
100
AcDbScale
 70
     0
300
3/16" = 1'-0"
140
0.1875
141
12.0
290
     0
  0
SCALE
  5
9FE
102
{ACAD_REACTORS
330
99
102
}
330
99
100
AcDbScale
 70
     0
300
1/4" = 1'-0"
140
0.25
141
12.0
290
     0
  0
SCALE
  5
9FF
102
{ACAD_REACTORS
330
99
102
}
330
99
100
AcDbScale
 70
     0
300
3/8" = 1'-0"
140
0.375
141
12.0
290
     0
  0
SCALE
  5
A00
102
{ACAD_REACTORS
330
99
102
}
330
99
100
AcDbScale
 70
     0
300
1/2" = 1'-0"
140
0.5
141
12.0
290
     0
  0
SCALE
  5
A01
102
{ACAD_REACTORS
330
99
102
}
330
99
100
AcDbScale
 70
     0
300
3/4" = 1'-0"
140
0.75
141
12.0
290
     0
  0
SCALE
  5
A02
102
{ACAD_REACTORS
330
99
102
}
330
99
100
AcDbScale
 70
     0
300
1" = 1'-0"
140
1.0
141
12.0
290
     0
  0
SCALE
  5
A03
102
{ACAD_REACTORS
330
99
102
}
330
99
100
AcDbScale
 70
     0
300
1-1/2" = 1'-0"
140
1.5
141
12.0
290
     0
  0
SCALE
  5
A04
102
{ACAD_REACTORS
330
99
102
}
330
99
100
AcDbScale
 70
     0
300
3" = 1'-0"
140
3.0
141
12.0
290
     0
  0
SCALE
  5
A05
102
{ACAD_REACTORS
330
99
102
}
330
99
100
AcDbScale
 70
     0
300
6" = 1'-0"
140
6.0
141
12.0
290
     0
  0
SCALE
  5
A06
102
{ACAD_REACTORS
330
99
102
}
330
99
100
AcDbScale
 70
     0
300
1'-0" = 1'-0"
140
12.0
141
12.0
290
     0
  0
XRECORD
  5
E57
102
{ACAD_REACTORS
330
E56
102
}
330
E56
100
AcDbXrecord
280
     1
340
6C
  0
XRECORD
  5
E58
102
{ACAD_REACTORS
330
E56
102
}
330
E56
100
AcDbXrecord
280
     1
340
6B
  0
DICTIONARYVAR
  5
98
102
{ACAD_REACTORS
330
59
102
}
330
59
100
DictionaryVariables
280
     0
  1
Standard
  0
DICTIONARYVAR
  5
5A
102
{ACAD_REACTORS
330
59
102
}
330
59
100
DictionaryVariables
280
     0
  1
2
  0
DICTIONARYVAR
  5
5E
102
{ACAD_REACTORS
330
59
102
}
330
59
100
DictionaryVariables
280
     0
  1
1
  0
ENDSEC
  0
EOF
