  0
SECTION
  2
HEADER
  9
$ACADVER
  1
AC1015
  9
$ACADMAINTVER
 70
     6
  9
$DWGCODEPAGE
  3
ANSI_1252
  9
$INSBASE
 10
0.0
 20
0.0
 30
0.0
  9
$EXTMIN
 10
112.321428438404
 20
413.109978
 30
0.0
  9
$EXTMAX
 10
689.402589939794
 20
551.0171364126616
 30
0.0
  9
$LIMMIN
 10
0.0
 20
0.0
  9
$LIMMAX
 10
420.0
 20
297.0
  9
$ORTHOMODE
 70
     0
  9
$REGENMODE
 70
     1
  9
$FILLMODE
 70
     1
  9
$QTEXTMODE
 70
     0
  9
$MIRRTEXT
 70
     1
  9
$LTSCALE
 40
1.0
  9
$ATTMODE
 70
     1
  9
$TEXTSIZE
 40
2.5
  9
$TRACEWID
 40
1.0
  9
$TEXTSTYLE
  7
Standard
  9
$CLAYER
  8
0
  9
$CELTYPE
  6
ByLayer
  9
$CECOLOR
 62
   256
  9
$CELTSCALE
 40
1.0
  9
$DISPSILH
 70
     0
  9
$DIMSCALE
 40
1.0
  9
$DIMASZ
 40
2.5
  9
$DIMEXO
 40
0.625
  9
$DIMDLI
 40
3.75
  9
$DIMRND
 40
0.0
  9
$DIMDLE
 40
0.0
  9
$DIMEXE
 40
1.25
  9
$DIMTP
 40
0.0
  9
$DIMTM
 40
0.0
  9
$DIMTXT
 40
2.5
  9
$DIMCEN
 40
2.5
  9
$DIMTSZ
 40
0.0
  9
$DIMTOL
 70
     0
  9
$DIMLIM
 70
     0
  9
$DIMTIH
 70
     0
  9
$DIMTOH
 70
     0
  9
$DIMSE1
 70
     0
  9
$DIMSE2
 70
     0
  9
$DIMTAD
 70
     1
  9
$DIMZIN
 70
     8
  9
$DIMBLK
  1

  9
$DIMASO
 70
     1
  9
$DIMSHO
 70
     1
  9
$DIMPOST
  1

  9
$DIMAPOST
  1

  9
$DIMALT
 70
     0
  9
$DIMALTD
 70
     3
  9
$DIMALTF
 40
0.03937
  9
$DIMLFAC
 40
1.0
  9
$DIMTOFL
 70
     1
  9
$DIMTVP
 40
0.0
  9
$DIMTIX
 70
     0
  9
$DIMSOXD
 70
     0
  9
$DIMSAH
 70
     0
  9
$DIMBLK1
  1

  9
$DIMBLK2
  1

  9
$DIMSTYLE
  2
Standard
  9
$DIMCLRD
 70
     0
  9
$DIMCLRE
 70
     0
  9
$DIMCLRT
 70
     0
  9
$DIMTFAC
 40
1.0
  9
$DIMGAP
 40
0.625
  9
$DIMJUST
 70
     0
  9
$DIMSD1
 70
     0
  9
$DIMSD2
 70
     0
  9
$DIMTOLJ
 70
     0
  9
$DIMTZIN
 70
     8
  9
$DIMALTZ
 70
     0
  9
$DIMALTTZ
 70
     0
  9
$DIMUPT
 70
     0
  9
$DIMDEC
 70
     2
  9
$DIMTDEC
 70
     2
  9
$DIMALTU
 70
     2
  9
$DIMALTTD
 70
     3
  9
$DIMTXSTY
  7
Standard
  9
$DIMAUNIT
 70
     0
  9
$DIMADEC
 70
     0
  9
$DIMALTRND
 40
0.0
  9
$DIMAZIN
 70
     0
  9
$DIMDSEP
 70
    44
  9
$DIMATFIT
 70
     0
  9
$DIMFRAC
 70
     0
  9
$DIMLDRBLK
  1

  9
$DIMLUNIT
 70
     2
  9
$DIMLWD
 70
    -2
  9
$DIMLWE
 70
    -2
  9
$DIMTMOVE
 70
     0
  9
$LUNITS
 70
     2
  9
$LUPREC
 70
     4
  9
$SKETCHINC
 40
1.0
  9
$FILLETRAD
 40
2.5
  9
$AUNITS
 70
     0
  9
$AUPREC
 70
     0
  9
$MENU
  1
.
  9
$ELEVATION
 40
0.0
  9
$PELEVATION
 40
0.0
  9
$THICKNESS
 40
0.0
  9
$LIMCHECK
 70
     0
  9
$CHAMFERA
 40
2.5
  9
$CHAMFERB
 40
2.5
  9
$CHAMFERC
 40
0.0
  9
$CHAMFERD
 40
0.0
  9
$SKPOLY
 70
     0
  9
$TDCREATE
 40
2447893.041666644
  9
$TDUCREATE
 40
2447892.999999977
  9
$TDUPDATE
 40
2447893.041666667
  9
$TDUUPDATE
 40
2447893.0
  9
$TDINDWG
 40
0.0120717593
  9
$TDUSRTIMER
 40
0.0120717593
  9
$USRTIMER
 70
     1
  9
$ANGBASE
 50
0.0
  9
$ANGDIR
 70
     0
  9
$PDMODE
 70
     0
  9
$PDSIZE
 40
0.0
  9
$PLINEWID
 40
0.0
  9
$SPLFRAME
 70
     0
  9
$SPLINETYPE
 70
     6
  9
$SPLINESEGS
 70
     8
  9
$HANDSEED
  5
6C1
  9
$SURFTAB1
 70
     6
  9
$SURFTAB2
 70
     6
  9
$SURFTYPE
 70
     6
  9
$SURFU
 70
     6
  9
$SURFV
 70
     6
  9
$UCSBASE
  2

  9
$UCSNAME
  2

  9
$UCSORG
 10
0.0
 20
0.0
 30
0.0
  9
$UCSXDIR
 10
1.0
 20
0.0
 30
0.0
  9
$UCSYDIR
 10
0.0
 20
1.0
 30
0.0
  9
$UCSORTHOREF
  2

  9
$UCSORTHOVIEW
 70
     0
  9
$UCSORGTOP
 10
0.0
 20
0.0
 30
0.0
  9
$UCSORGBOTTOM
 10
0.0
 20
0.0
 30
0.0
  9
$UCSORGLEFT
 10
0.0
 20
0.0
 30
0.0
  9
$UCSORGRIGHT
 10
0.0
 20
0.0
 30
0.0
  9
$UCSORGFRONT
 10
0.0
 20
0.0
 30
0.0
  9
$UCSORGBACK
 10
0.0
 20
0.0
 30
0.0
  9
$PUCSBASE
  2

  9
$PUCSNAME
  2

  9
$PUCSORG
 10
0.0
 20
0.0
 30
0.0
  9
$PUCSXDIR
 10
1.0
 20
0.0
 30
0.0
  9
$PUCSYDIR
 10
0.0
 20
1.0
 30
0.0
  9
$PUCSORTHOREF
  2

  9
$PUCSORTHOVIEW
 70
     0
  9
$PUCSORGTOP
 10
0.0
 20
0.0
 30
0.0
  9
$PUCSORGBOTTOM
 10
0.0
 20
0.0
 30
0.0
  9
$PUCSORGLEFT
 10
0.0
 20
0.0
 30
0.0
  9
$PUCSORGRIGHT
 10
0.0
 20
0.0
 30
0.0
  9
$PUCSORGFRONT
 10
0.0
 20
0.0
 30
0.0
  9
$PUCSORGBACK
 10
0.0
 20
0.0
 30
0.0
  9
$USERI1
 70
     0
  9
$USERI2
 70
     0
  9
$USERI3
 70
     0
  9
$USERI4
 70
     0
  9
$USERI5
 70
     0
  9
$USERR1
 40
0.0
  9
$USERR2
 40
0.0
  9
$USERR3
 40
0.0
  9
$USERR4
 40
0.0
  9
$USERR5
 40
0.0
  9
$WORLDVIEW
 70
     1
  9
$SHADEDGE
 70
     3
  9
$SHADEDIF
 70
    70
  9
$TILEMODE
 70
     1
  9
$MAXACTVP
 70
    48
  9
$PINSBASE
 10
0.0
 20
0.0
 30
0.0
  9
$PLIMCHECK
 70
     0
  9
$PEXTMIN
 10
0.0
 20
0.0
 30
0.0
  9
$PEXTMAX
 10
841.0
 20
594.0
 30
2.0
  9
$PLIMMIN
 10
0.0
 20
0.0
  9
$PLIMMAX
 10
420.0
 20
297.0
  9
$UNITMODE
 70
     0
  9
$VISRETAIN
 70
     0
  9
$PLINEGEN
 70
     0
  9
$PSLTSCALE
 70
     1
  9
$TREEDEPTH
 70
  3020
  9
$CMLSTYLE
  2
Standard
  9
$CMLJUST
 70
     0
  9
$CMLSCALE
 40
20.0
  9
$PROXYGRAPHICS
 70
     1
  9
$MEASUREMENT
 70
     1
  9
$CELWEIGHT
370
    -1
  9
$ENDCAPS
280
     0
  9
$JOINSTYLE
280
     0
  9
$LWDISPLAY
290
     0
  9
$INSUNITS
 70
     0
  9
$HYPERLINKBASE
  1

  9
$STYLESHEET
  1

  9
$XEDIT
290
     1
  9
$CEPSNTYPE
380
     0
  9
$PSTYLEMODE
290
     0
  9
$FINGERPRINTGUID
  2

  9
$VERSIONGUID
  2

  9
$EXTNAMES
290
     0
  9
$PSVPSCALE
 40
0.0
  9
$OLESTARTUP
290
     0
  0
ENDSEC
  0
SECTION
  2
CLASSES
  0
CLASS
  1
ACDBDICTIONARYWDFLT
  2
AcDbDictionaryWithDefault
  3
ObjectDBX Classes
 90
        0
280
     0
281
     0
  0
CLASS
  1
ACDBPLACEHOLDER
  2
AcDbPlaceHolder
  3
ObjectDBX Classes
 90
        0
280
     0
281
     0
  0
CLASS
  1
LAYOUT
  2
AcDbLayout
  3
ObjectDBX Classes
 90
        0
280
     0
281
     0
  0
CLASS
  1
DICTIONARYVAR
  2
AcDbDictionaryVar
  3
ObjectDBX Classes
 90
        0
280
     0
281
     0
  0
CLASS
  1
TABLESTYLE
  2
AcDbTableStyle
  3
ObjectDBX Classes
 90
     4095
280
     0
281
     0
  0
CLASS
  1
SCALE
  2
AcDbScale
  3
ObjectDBX Classes
 90
     1153
280
     0
281
     0
  0
CLASS
  1
WIPEOUTVARIABLES
  2
AcDbWipeoutVariables
  3
WipeOut|AutoCAD Express Tool|expresstools@autodesk.com
 90
        0
280
     0
281
     0
  0
ENDSEC
  0
SECTION
  2
TABLES
  0
TABLE
  2
VPORT
  5
8
330
0
100
AcDbSymbolTable
 70
     2
  0
VPORT
  5
97
330
8
100
AcDbSymbolTableRecord
100
AcDbViewportTableRecord
  2
*ACTIVE
 70
     0
 10
0.0
 20
0.0
 11
1.0
 21
1.0
 12
381.4853889325442
 22
478.7787475016859
 13
0.0
 23
0.0
 14
1.0
 24
1.0
 15
0.5
 25
0.5
 16
0.0
 26
0.0
 36
1.0
 17
0.0
 27
0.0
 37
0.0
 40
405.0316255781039
 41
0.688564
 42
50.0
 43
0.0
 44
0.0
 50
0.0
 51
0.0
 71
     0
 72
   100
 73
     1
 74
     1
 75
     0
 76
     0
 77
     0
 78
     0
281
     0
 65
     1
110
0.0
120
0.0
130
0.0
111
1.0
121
0.0
131
0.0
112
0.0
122
1.0
132
0.0
 79
     0
146
0.0
  0
ENDTAB
  0
TABLE
  2
LTYPE
  5
5
330
0
100
AcDbSymbolTable
 70
     3
  0
LTYPE
  5
14
330
5
100
AcDbSymbolTableRecord
100
AcDbLinetypeTableRecord
  2
ByBlock
 70
     0
  3

 72
    65
 73
     0
 40
0.0
  0
LTYPE
  5
15
330
5
100
AcDbSymbolTableRecord
100
AcDbLinetypeTableRecord
  2
ByLayer
 70
     0
  3

 72
    65
 73
     0
 40
0.0
  0
LTYPE
  5
16
330
5
100
AcDbSymbolTableRecord
100
AcDbLinetypeTableRecord
  2
Continuous
 70
     0
  3
Solid line
 72
    65
 73
     0
 40
0.0
  0
LTYPE
  5
606
330
5
100
AcDbSymbolTableRecord
100
AcDbLinetypeTableRecord
  2
DASHDOT
 70
     0
  3
 __ . __ . __ . __ . __ . __ . __ . 
 72
    65
 73
     4
 40
18.5
 49
12.0
 74
     0
 49
-3.0
 74
     0
 49
0.5
 74
     0
 49
-3.0
 74
     0
  0
LTYPE
  5
607
330
5
100
AcDbSymbolTableRecord
100
AcDbLinetypeTableRecord
  2
PHANTOM
 70
     0
  3
____________    ____    ____   _
 72
    65
 73
     6
 40
20.0
 49
10.0
 74
     0
 49
-2.0
 74
     0
 49
2.0
 74
     0
 49
-2.0
 74
     0
 49
2.0
 74
     0
 49
-2.0
 74
     0
  0
ENDTAB
  0
TABLE
  2
LAYER
  5
2
330
0
100
AcDbSymbolTable
 70
     2
  0
LAYER
  5
10
330
2
100
AcDbSymbolTableRecord
100
AcDbLayerTableRecord
  2
0
 70
     0
 62
     7
  6
Continuous
370
    13
390
F
  0
LAYER
  5
3D9
330
2
100
AcDbSymbolTableRecord
100
AcDbLayerTableRecord
  2
DEFPOINTS
 70
     0
 62
     7
  6
Continuous
290
     0
370
    -3
390
F
  0
ENDTAB
  0
TABLE
  2
STYLE
  5
3
330
0
100
AcDbSymbolTable
 70
     2
  0
STYLE
  5
11
330
3
100
AcDbSymbolTableRecord
100
AcDbTextStyleTableRecord
  2
Standard
 70
     0
 40
0.0
 41
1.0
 50
0.0
 71
     0
 42
0.2
  3
isocp.shx
  4

  0
STYLE
  5
26
330
3
100
AcDbSymbolTableRecord
100
AcDbTextStyleTableRecord
  2
GDT
 70
     0
 40
0.0
 41
1.0
 50
0.0
 71
     0
 42
0.2
  3
gdt.shx
  4

  0
ENDTAB
  0
TABLE
  2
VIEW
  5
6
330
0
100
AcDbSymbolTable
 70
     0
  0
ENDTAB
  0
TABLE
  2
UCS
  5
7
330
0
100
AcDbSymbolTable
 70
     0
  0
ENDTAB
  0
TABLE
  2
APPID
  5
9
330
0
100
AcDbSymbolTable
 70
     3
  0
APPID
  5
12
330
9
100
AcDbSymbolTableRecord
100
AcDbRegAppTableRecord
  2
ACAD
 70
     0
  0
APPID
  5
604
330
9
100
AcDbSymbolTableRecord
100
AcDbRegAppTableRecord
  2
Conv5506CA
 70
     0
  0
APPID
  5
605
330
9
100
AcDbSymbolTableRecord
100
AcDbRegAppTableRecord
  2
PROGE_PRINT_SETTINGS
 70
     0
  0
ENDTAB
  0
TABLE
  2
DIMSTYLE
  5
A
330
0
100
AcDbSymbolTable
 70
     1
100
AcDbDimStyleTable
  0
DIMSTYLE
105
27
102
{ACAD_REACTORS
330
43B
330
452
102
}
330
A
100
AcDbSymbolTableRecord
100
AcDbDimStyleTableRecord
  2
Standard
 70
     0
 41
2.5
 42
0.625
 43
3.75
 44
1.25
 73
     0
 74
     0
 77
     1
 78
     8
140
2.5
141
2.5
143
0.03937
147
0.625
171
     3
172
     1
271
     2
272
     2
274
     3
278
    44
283
     0
284
     8
289
     0
340
11
  0
ENDTAB
  0
TABLE
  2
BLOCK_RECORD
  5
1
330
0
100
AcDbSymbolTable
 70
    90
  0
BLOCK_RECORD
  5
1F
330
1
100
AcDbSymbolTableRecord
100
AcDbBlockTableRecord
  2
*Model_Space
340
22
  0
BLOCK_RECORD
  5
73
330
1
100
AcDbSymbolTableRecord
100
AcDbBlockTableRecord
  2
*Paper_Space
340
74
  0
BLOCK_RECORD
  5
4E9
330
1
100
AcDbSymbolTableRecord
100
AcDbBlockTableRecord
  2
BLOCK1
340
0
  0
BLOCK_RECORD
  5
4EC
330
1
100
AcDbSymbolTableRecord
100
AcDbBlockTableRecord
  2
BLOCK2
340
0
  0
BLOCK_RECORD
  5
4EF
330
1
100
AcDbSymbolTableRecord
100
AcDbBlockTableRecord
  2
BLOCK3
340
0
  0
BLOCK_RECORD
  5
77
330
1
100
AcDbSymbolTableRecord
100
AcDbBlockTableRecord
  2
BLOCK4
340
0
  0
BLOCK_RECORD
  5
78
330
1
100
AcDbSymbolTableRecord
100
AcDbBlockTableRecord
  2
BLOCK5
340
0
  0
BLOCK_RECORD
  5
79
330
1
100
AcDbSymbolTableRecord
100
AcDbBlockTableRecord
  2
BLOCK6
340
0
  0
BLOCK_RECORD
  5
7A
330
1
100
AcDbSymbolTableRecord
100
AcDbBlockTableRecord
  2
BLOCK7
340
0
  0
BLOCK_RECORD
  5
7B
330
1
100
AcDbSymbolTableRecord
100
AcDbBlockTableRecord
  2
BLOCK8
340
0
  0
BLOCK_RECORD
  5
7C
330
1
100
AcDbSymbolTableRecord
100
AcDbBlockTableRecord
  2
BLOCK9
340
0
  0
BLOCK_RECORD
  5
7D
330
1
100
AcDbSymbolTableRecord
100
AcDbBlockTableRecord
  2
BLOCK10
340
0
  0
BLOCK_RECORD
  5
7E
330
1
100
AcDbSymbolTableRecord
100
AcDbBlockTableRecord
  2
BLOCK11
340
0
  0
BLOCK_RECORD
  5
7F
330
1
100
AcDbSymbolTableRecord
100
AcDbBlockTableRecord
  2
BLOCK12
340
0
  0
BLOCK_RECORD
  5
80
330
1
100
AcDbSymbolTableRecord
100
AcDbBlockTableRecord
  2
BLOCK13
340
0
  0
BLOCK_RECORD
  5
81
330
1
100
AcDbSymbolTableRecord
100
AcDbBlockTableRecord
  2
BLOCK14
340
0
  0
BLOCK_RECORD
  5
82
330
1
100
AcDbSymbolTableRecord
100
AcDbBlockTableRecord
  2
BLOCK15
340
0
  0
BLOCK_RECORD
  5
83
330
1
100
AcDbSymbolTableRecord
100
AcDbBlockTableRecord
  2
BLOCK16
340
0
  0
BLOCK_RECORD
  5
84
330
1
100
AcDbSymbolTableRecord
100
AcDbBlockTableRecord
  2
BLOCK17
340
0
  0
BLOCK_RECORD
  5
85
330
1
100
AcDbSymbolTableRecord
100
AcDbBlockTableRecord
  2
BLOCK18
340
0
  0
BLOCK_RECORD
  5
86
330
1
100
AcDbSymbolTableRecord
100
AcDbBlockTableRecord
  2
BLOCK19
340
0
  0
BLOCK_RECORD
  5
87
330
1
100
AcDbSymbolTableRecord
100
AcDbBlockTableRecord
  2
BLOCK20
340
0
  0
BLOCK_RECORD
  5
88
330
1
100
AcDbSymbolTableRecord
100
AcDbBlockTableRecord
  2
BLOCK21
340
0
  0
BLOCK_RECORD
  5
89
330
1
100
AcDbSymbolTableRecord
100
AcDbBlockTableRecord
  2
BLOCK22
340
0
  0
BLOCK_RECORD
  5
8A
330
1
100
AcDbSymbolTableRecord
100
AcDbBlockTableRecord
  2
BLOCK23
340
0
  0
BLOCK_RECORD
  5
8B
330
1
100
AcDbSymbolTableRecord
100
AcDbBlockTableRecord
  2
BLOCK24
340
0
  0
BLOCK_RECORD
  5
8C
330
1
100
AcDbSymbolTableRecord
100
AcDbBlockTableRecord
  2
BLOCK25
340
0
  0
BLOCK_RECORD
  5
8D
330
1
100
AcDbSymbolTableRecord
100
AcDbBlockTableRecord
  2
BLOCK26
340
0
  0
BLOCK_RECORD
  5
8E
330
1
100
AcDbSymbolTableRecord
100
AcDbBlockTableRecord
  2
BLOCK27
340
0
  0
BLOCK_RECORD
  5
8F
330
1
100
AcDbSymbolTableRecord
100
AcDbBlockTableRecord
  2
BLOCK28
340
0
  0
BLOCK_RECORD
  5
90
330
1
100
AcDbSymbolTableRecord
100
AcDbBlockTableRecord
  2
BLOCK29
340
0
  0
BLOCK_RECORD
  5
91
330
1
100
AcDbSymbolTableRecord
100
AcDbBlockTableRecord
  2
BLOCK30
340
0
  0
BLOCK_RECORD
  5
528
330
1
100
AcDbSymbolTableRecord
100
AcDbBlockTableRecord
  2
BLOCK31
340
0
  0
BLOCK_RECORD
  5
52B
330
1
100
AcDbSymbolTableRecord
100
AcDbBlockTableRecord
  2
BLOCK32
340
0
  0
BLOCK_RECORD
  5
94
330
1
100
AcDbSymbolTableRecord
100
AcDbBlockTableRecord
  2
BLOCK33
340
0
  0
BLOCK_RECORD
  5
95
330
1
100
AcDbSymbolTableRecord
100
AcDbBlockTableRecord
  2
BLOCK34
340
0
  0
BLOCK_RECORD
  5
96
330
1
100
AcDbSymbolTableRecord
100
AcDbBlockTableRecord
  2
BLOCK35
340
0
  0
BLOCK_RECORD
  5
534
330
1
100
AcDbSymbolTableRecord
100
AcDbBlockTableRecord
  2
BLOCK36
340
0
  0
BLOCK_RECORD
  5
537
330
1
100
AcDbSymbolTableRecord
100
AcDbBlockTableRecord
  2
BLOCK37
340
0
  0
BLOCK_RECORD
  5
53A
330
1
100
AcDbSymbolTableRecord
100
AcDbBlockTableRecord
  2
BLOCK38
340
0
  0
BLOCK_RECORD
  5
53D
330
1
100
AcDbSymbolTableRecord
100
AcDbBlockTableRecord
  2
BLOCK39
340
0
  0
BLOCK_RECORD
  5
540
330
1
100
AcDbSymbolTableRecord
100
AcDbBlockTableRecord
  2
BLOCK40
340
0
  0
BLOCK_RECORD
  5
543
330
1
100
AcDbSymbolTableRecord
100
AcDbBlockTableRecord
  2
BLOCK41
340
0
  0
BLOCK_RECORD
  5
546
330
1
100
AcDbSymbolTableRecord
100
AcDbBlockTableRecord
  2
BLOCK42
340
0
  0
BLOCK_RECORD
  5
549
330
1
100
AcDbSymbolTableRecord
100
AcDbBlockTableRecord
  2
BLOCK43
340
0
  0
BLOCK_RECORD
  5
54C
330
1
100
AcDbSymbolTableRecord
100
AcDbBlockTableRecord
  2
BLOCK44
340
0
  0
BLOCK_RECORD
  5
54F
330
1
100
AcDbSymbolTableRecord
100
AcDbBlockTableRecord
  2
BLOCK45
340
0
  0
BLOCK_RECORD
  5
552
330
1
100
AcDbSymbolTableRecord
100
AcDbBlockTableRecord
  2
BLOCK46
340
0
  0
BLOCK_RECORD
  5
555
330
1
100
AcDbSymbolTableRecord
100
AcDbBlockTableRecord
  2
BLOCK47
340
0
  0
BLOCK_RECORD
  5
558
330
1
100
AcDbSymbolTableRecord
100
AcDbBlockTableRecord
  2
BLOCK48
340
0
  0
BLOCK_RECORD
  5
55B
330
1
100
AcDbSymbolTableRecord
100
AcDbBlockTableRecord
  2
BLOCK49
340
0
  0
BLOCK_RECORD
  5
55E
330
1
100
AcDbSymbolTableRecord
100
AcDbBlockTableRecord
  2
BLOCK50
340
0
  0
BLOCK_RECORD
  5
561
330
1
100
AcDbSymbolTableRecord
100
AcDbBlockTableRecord
  2
BLOCK51
340
0
  0
BLOCK_RECORD
  5
564
330
1
100
AcDbSymbolTableRecord
100
AcDbBlockTableRecord
  2
BLOCK52
340
0
  0
BLOCK_RECORD
  5
567
330
1
100
AcDbSymbolTableRecord
100
AcDbBlockTableRecord
  2
BLOCK53
340
0
102
{BLKREFS
331
37D
102
}
  0
BLOCK_RECORD
  5
56A
330
1
100
AcDbSymbolTableRecord
100
AcDbBlockTableRecord
  2
BLOCK54
340
0
102
{BLKREFS
331
37E
102
}
  0
BLOCK_RECORD
  5
56D
330
1
100
AcDbSymbolTableRecord
100
AcDbBlockTableRecord
  2
BLOCK55
340
0
102
{BLKREFS
331
37F
102
}
  0
BLOCK_RECORD
  5
570
330
1
100
AcDbSymbolTableRecord
100
AcDbBlockTableRecord
  2
BLOCK56
340
0
102
{BLKREFS
331
380
102
}
  0
BLOCK_RECORD
  5
573
330
1
100
AcDbSymbolTableRecord
100
AcDbBlockTableRecord
  2
BLOCK57
340
0
102
{BLKREFS
331
381
102
}
  0
BLOCK_RECORD
  5
576
330
1
100
AcDbSymbolTableRecord
100
AcDbBlockTableRecord
  2
BLOCK58
340
0
102
{BLKREFS
331
382
102
}
  0
BLOCK_RECORD
  5
579
330
1
100
AcDbSymbolTableRecord
100
AcDbBlockTableRecord
  2
BLOCK59
340
0
102
{BLKREFS
331
383
102
}
  0
BLOCK_RECORD
  5
57C
330
1
100
AcDbSymbolTableRecord
100
AcDbBlockTableRecord
  2
BLOCK60
340
0
  0
BLOCK_RECORD
  5
57F
330
1
100
AcDbSymbolTableRecord
100
AcDbBlockTableRecord
  2
BLOCK61
340
0
  0
BLOCK_RECORD
  5
582
330
1
100
AcDbSymbolTableRecord
100
AcDbBlockTableRecord
  2
BLOCK62
340
0
102
{BLKREFS
331
386
102
}
  0
BLOCK_RECORD
  5
585
330
1
100
AcDbSymbolTableRecord
100
AcDbBlockTableRecord
  2
BLOCK63
340
0
  0
BLOCK_RECORD
  5
588
330
1
100
AcDbSymbolTableRecord
100
AcDbBlockTableRecord
  2
BLOCK64
340
0
  0
BLOCK_RECORD
  5
3E5
330
1
100
AcDbSymbolTableRecord
100
AcDbBlockTableRecord
  2
*D64
340
0
  0
BLOCK_RECORD
  5
3F0
330
1
100
AcDbSymbolTableRecord
100
AcDbBlockTableRecord
  2
*D65
340
0
  0
BLOCK_RECORD
  5
3FB
330
1
100
AcDbSymbolTableRecord
100
AcDbBlockTableRecord
  2
*D66
340
0
  0
BLOCK_RECORD
  5
406
330
1
100
AcDbSymbolTableRecord
100
AcDbBlockTableRecord
  2
*D67
340
0
  0
BLOCK_RECORD
  5
411
330
1
100
AcDbSymbolTableRecord
100
AcDbBlockTableRecord
  2
*D68
340
0
  0
BLOCK_RECORD
  5
41C
330
1
100
AcDbSymbolTableRecord
100
AcDbBlockTableRecord
  2
*D69
340
0
  0
BLOCK_RECORD
  5
427
330
1
100
AcDbSymbolTableRecord
100
AcDbBlockTableRecord
  2
*D70
340
0
  0
BLOCK_RECORD
  5
446
330
1
100
AcDbSymbolTableRecord
100
AcDbBlockTableRecord
  2
*D71
340
0
  0
BLOCK_RECORD
  5
451
330
1
100
AcDbSymbolTableRecord
100
AcDbBlockTableRecord
  2
*D72
340
0
  0
BLOCK_RECORD
  5
45D
330
1
100
AcDbSymbolTableRecord
100
AcDbBlockTableRecord
  2
*D73
340
0
  0
BLOCK_RECORD
  5
468
330
1
100
AcDbSymbolTableRecord
100
AcDbBlockTableRecord
  2
*D74
340
0
  0
BLOCK_RECORD
  5
474
330
1
100
AcDbSymbolTableRecord
100
AcDbBlockTableRecord
  2
*D75
340
0
  0
BLOCK_RECORD
  5
480
330
1
100
AcDbSymbolTableRecord
100
AcDbBlockTableRecord
  2
*D76
340
0
  0
BLOCK_RECORD
  5
48B
330
1
100
AcDbSymbolTableRecord
100
AcDbBlockTableRecord
  2
*D77
340
0
  0
BLOCK_RECORD
  5
496
330
1
100
AcDbSymbolTableRecord
100
AcDbBlockTableRecord
  2
*D78
340
0
  0
BLOCK_RECORD
  5
4A1
330
1
100
AcDbSymbolTableRecord
100
AcDbBlockTableRecord
  2
*D79
340
0
  0
BLOCK_RECORD
  5
4AC
330
1
100
AcDbSymbolTableRecord
100
AcDbBlockTableRecord
  2
*D80
340
0
  0
BLOCK_RECORD
  5
4B7
330
1
100
AcDbSymbolTableRecord
100
AcDbBlockTableRecord
  2
*D81
340
0
  0
BLOCK_RECORD
  5
4C2
330
1
100
AcDbSymbolTableRecord
100
AcDbBlockTableRecord
  2
*D82
340
0
  0
BLOCK_RECORD
  5
4D5
330
1
100
AcDbSymbolTableRecord
100
AcDbBlockTableRecord
  2
*D83
340
0
  0
BLOCK_RECORD
  5
4E0
330
1
100
AcDbSymbolTableRecord
100
AcDbBlockTableRecord
  2
*D84
340
0
  0
BLOCK_RECORD
  5
5C9
330
1
100
AcDbSymbolTableRecord
100
AcDbBlockTableRecord
  2
*D85
340
0
  0
BLOCK_RECORD
  5
5D5
330
1
100
AcDbSymbolTableRecord
100
AcDbBlockTableRecord
  2
*D86
340
0
  0
BLOCK_RECORD
  5
5E1
330
1
100
AcDbSymbolTableRecord
100
AcDbBlockTableRecord
  2
*D87
340
0
  0
BLOCK_RECORD
  5
5ED
330
1
100
AcDbSymbolTableRecord
100
AcDbBlockTableRecord
  2
*D88
340
0
  0
BLOCK_RECORD
  5
5F9
330
1
100
AcDbSymbolTableRecord
100
AcDbBlockTableRecord
  2
*D89
340
0
  0
ENDTAB
  0
ENDSEC
  0
SECTION
  2
BLOCKS
  0
BLOCK
  5
20
330
1F
100
AcDbEntity
  8
0
100
AcDbBlockBegin
  2
*Model_Space
 70
     0
 10
0.0
 20
0.0
 30
0.0
  3
*Model_Space
  1

  0
ENDBLK
  5
21
330
1F
100
AcDbEntity
  8
0
100
AcDbBlockEnd
  0
BLOCK
  5
75
330
73
100
AcDbEntity
 67
     1
  8
0
100
AcDbBlockBegin
  2
*Paper_Space
 70
     0
 10
0.0
 20
0.0
 30
0.0
  3
*Paper_Space
  1

  0
ENDBLK
  5
76
330
73
100
AcDbEntity
 67
     1
  8
0
100
AcDbBlockEnd
  0
BLOCK
  5
609
102
{ACAD_REACTORS
330
43B
330
452
102
}
330
4E9
100
AcDbEntity
  8
0
100
AcDbBlockBegin
  2
BLOCK1
 70
     0
 10
0.0
 20
0.0
 30
0.0
  3
BLOCK1
  1

  0
TEXT
  5
5B5
330
4E9
100
AcDbEntity
  8
0
 62
     7
370
    13
390
F
100
AcDbText
 10
832.632568
 20
547.0
 30
0.0
 40
2.0
  1
A
 41
1.156576000000011
 72
     5
 11
834.367432
 21
547.0
 31
0.0
100
AcDbText
  0
ENDBLK
  5
60A
330
4E9
100
AcDbEntity
  8
0
100
AcDbBlockEnd
  0
BLOCK
  5
60B
330
4EC
100
AcDbEntity
  8
0
100
AcDbBlockBegin
  2
BLOCK2
 70
     0
 10
0.0
 20
0.0
 30
0.0
  3
BLOCK2
  1

  0
TEXT
  5
5B6
330
4EC
100
AcDbEntity
  8
0
 62
     7
370
    13
390
F
100
AcDbText
 10
52.457352
 20
585.5
 30
0.0
 40
2.0
  1
1
 41
2.47838714285714
 72
     5
 11
54.192223
 21
585.5
 31
0.0
100
AcDbText
  0
ENDBLK
  5
60C
330
4EC
100
AcDbEntity
  8
0
100
AcDbBlockEnd
  0
BLOCK
  5
60D
330
4EF
100
AcDbEntity
  8
0
100
AcDbBlockBegin
  2
BLOCK3
 70
     0
 10
0.0
 20
0.0
 30
0.0
  3
BLOCK3
  1

  0
TEXT
  5
BB
330
4EF
100
AcDbEntity
  8
0
 62
     7
370
    13
390
F
100
AcDbText
 10
120.040688
 20
585.5
 30
0.0
 40
2.0
  1
2
 41
1.576520716593502
 72
     5
 11
121.775558
 21
585.5
 31
0.0
100
AcDbText
  0
ENDBLK
  5
60E
330
4EF
100
AcDbEntity
  8
0
100
AcDbBlockEnd
  0
BLOCK
  5
60F
330
77
100
AcDbEntity
  8
0
100
AcDbBlockBegin
  2
BLOCK4
 70
     0
 10
0.0
 20
0.0
 30
0.0
  3
BLOCK4
  1

  0
TEXT
  5
BE
330
77
100
AcDbEntity
  8
0
 62
     7
370
    13
390
F
100
AcDbText
 10
187.624023
 20
585.5
 30
0.0
 40
2.0
  1
3
 41
1.577149090909105
 72
     5
 11
189.358887
 21
585.5
 31
0.0
100
AcDbText
  0
ENDBLK
  5
610
330
77
100
AcDbEntity
  8
0
100
AcDbBlockEnd
  0
BLOCK
  5
611
330
78
100
AcDbEntity
  8
0
100
AcDbBlockBegin
  2
BLOCK5
 70
     0
 10
0.0
 20
0.0
 30
0.0
  3
BLOCK5
  1

  0
TEXT
  5
C1
330
78
100
AcDbEntity
  8
0
 62
     7
370
    13
390
F
100
AcDbText
 10
255.207367
 20
585.5
 30
0.0
 40
2.0
  1
4
 41
1.334509999999993
 72
     5
 11
256.94223
 21
585.5
 31
0.0
100
AcDbText
  0
ENDBLK
  5
612
330
78
100
AcDbEntity
  8
0
100
AcDbBlockEnd
  0
BLOCK
  5
613
330
79
100
AcDbEntity
  8
0
100
AcDbBlockBegin
  2
BLOCK6
 70
     0
 10
0.0
 20
0.0
 30
0.0
  3
BLOCK6
  1

  0
TEXT
  5
C4
330
79
100
AcDbEntity
  8
0
 62
     7
370
    13
390
F
100
AcDbText
 10
322.79068
 20
585.5
 30
0.0
 40
2.0
  1
5
 41
1.577148181818198
 72
     5
 11
324.525543
 21
585.5
 31
0.0
100
AcDbText
  0
ENDBLK
  5
614
330
79
100
AcDbEntity
  8
0
100
AcDbBlockEnd
  0
BLOCK
  5
615
330
7A
100
AcDbEntity
  8
0
100
AcDbBlockBegin
  2
BLOCK7
 70
     0
 10
0.0
 20
0.0
 30
0.0
  3
BLOCK7
  1

  0
TEXT
  5
C7
330
7A
100
AcDbEntity
  8
0
 62
     7
370
    13
390
F
100
AcDbText
 10
390.374023
 20
585.5
 30
0.0
 40
2.0
  1
6
 41
1.577149090909054
 72
     5
 11
392.108887
 21
585.5
 31
0.0
100
AcDbText
  0
ENDBLK
  5
616
330
7A
100
AcDbEntity
  8
0
100
AcDbBlockEnd
  0
BLOCK
  5
617
330
7B
100
AcDbEntity
  8
0
100
AcDbBlockBegin
  2
BLOCK8
 70
     0
 10
0.0
 20
0.0
 30
0.0
  3
BLOCK8
  1

  0
TEXT
  5
CA
330
7B
100
AcDbEntity
  8
0
 62
     7
370
    13
390
F
100
AcDbText
 10
457.957367
 20
585.5
 30
0.0
 40
2.0
  1
7
 41
1.577148181818198
 72
     5
 11
459.69223
 21
585.5
 31
0.0
100
AcDbText
  0
ENDBLK
  5
618
330
7B
100
AcDbEntity
  8
0
100
AcDbBlockEnd
  0
BLOCK
  5
619
330
7C
100
AcDbEntity
  8
0
100
AcDbBlockBegin
  2
BLOCK9
 70
     0
 10
0.0
 20
0.0
 30
0.0
  3
BLOCK9
  1

  0
TEXT
  5
CD
330
7C
100
AcDbEntity
  8
0
 62
     7
370
    13
390
F
100
AcDbText
 10
525.54071
 20
585.5
 30
0.0
 40
2.0
  1
8
 41
1.577866302864953
 72
     5
 11
527.275574
 21
585.5
 31
0.0
100
AcDbText
  0
ENDBLK
  5
61A
330
7C
100
AcDbEntity
  8
0
100
AcDbBlockEnd
  0
BLOCK
  5
61B
330
7D
100
AcDbEntity
  8
0
100
AcDbBlockBegin
  2
BLOCK10
 70
     0
 10
0.0
 20
0.0
 30
0.0
  3
BLOCK10
  1

  0
TEXT
  5
D0
330
7D
100
AcDbEntity
  8
0
 62
     7
370
    13
390
F
100
AcDbText
 10
593.124023
 20
585.5
 30
0.0
 40
2.0
  1
9
 41
1.567192204526064
 72
     5
 11
594.858887
 21
585.5
 31
0.0
100
AcDbText
  0
ENDBLK
  5
61C
330
7D
100
AcDbEntity
  8
0
100
AcDbBlockEnd
  0
BLOCK
  5
61D
330
7E
100
AcDbEntity
  8
0
100
AcDbBlockBegin
  2
BLOCK11
 70
     0
 10
0.0
 20
0.0
 30
0.0
  3
BLOCK11
  1

  0
TEXT
  5
D3
330
7E
100
AcDbEntity
  8
0
 62
     7
370
    13
390
F
100
AcDbText
 10
659.639893
 20
585.5
 30
0.0
 40
2.0
  1
10
 41
1.841357725739954
 72
     5
 11
663.509644
 21
585.5
 31
0.0
100
AcDbText
  0
ENDBLK
  5
61E
330
7E
100
AcDbEntity
  8
0
100
AcDbBlockEnd
  0
BLOCK
  5
61F
330
7F
100
AcDbEntity
  8
0
100
AcDbBlockBegin
  2
BLOCK12
 70
     0
 10
0.0
 20
0.0
 30
0.0
  3
BLOCK12
  1

  0
TEXT
  5
D6
330
7F
100
AcDbEntity
  8
0
 62
     7
370
    13
390
F
100
AcDbText
 10
727.223267
 20
585.5
 30
0.0
 40
2.0
  1
11
 41
2.276324117647097
 72
     5
 11
731.093018
 21
585.5
 31
0.0
100
AcDbText
  0
ENDBLK
  5
620
330
7F
100
AcDbEntity
  8
0
100
AcDbBlockEnd
  0
BLOCK
  5
621
330
80
100
AcDbEntity
  8
0
100
AcDbBlockBegin
  2
BLOCK13
 70
     0
 10
0.0
 20
0.0
 30
0.0
  3
BLOCK13
  1

  0
TEXT
  5
D9
330
80
100
AcDbEntity
  8
0
 62
     7
370
    13
390
F
100
AcDbText
 10
794.80658
 20
585.5
 30
0.0
 40
2.0
  1
12
 41
1.842350583695031
 72
     5
 11
798.676331
 21
585.5
 31
0.0
100
AcDbText
  0
ENDBLK
  5
622
330
80
100
AcDbEntity
  8
0
100
AcDbBlockEnd
  0
BLOCK
  5
623
330
81
100
AcDbEntity
  8
0
100
AcDbBlockBegin
  2
BLOCK14
 70
     0
 10
0.0
 20
0.0
 30
0.0
  3
BLOCK14
  1

  0
TEXT
  5
DC
330
81
100
AcDbEntity
  8
0
 62
     7
370
    13
390
F
100
AcDbText
 10
832.632568
 20
475.25
 30
0.0
 40
2.0
  1
B
 41
1.334510769230782
 72
     5
 11
834.367432
 21
475.25
 31
0.0
100
AcDbText
  0
ENDBLK
  5
624
330
81
100
AcDbEntity
  8
0
100
AcDbBlockEnd
  0
BLOCK
  5
625
330
82
100
AcDbEntity
  8
0
100
AcDbBlockBegin
  2
BLOCK15
 70
     0
 10
0.0
 20
0.0
 30
0.0
  3
BLOCK15
  1

  0
TEXT
  5
DF
330
82
100
AcDbEntity
  8
0
 62
     7
370
    13
390
F
100
AcDbText
 10
832.632568
 20
403.5
 30
0.0
 40
2.0
  1
C
 41
1.577149090909105
 72
     5
 11
834.367432
 21
403.5
 31
0.0
100
AcDbText
  0
ENDBLK
  5
626
330
82
100
AcDbEntity
  8
0
100
AcDbBlockEnd
  0
BLOCK
  5
627
330
83
100
AcDbEntity
  8
0
100
AcDbBlockBegin
  2
BLOCK16
 70
     0
 10
0.0
 20
0.0
 30
0.0
  3
BLOCK16
  1

  0
TEXT
  5
E2
330
83
100
AcDbEntity
  8
0
 62
     7
370
    13
390
F
100
AcDbText
 10
832.632568
 20
331.75
 30
0.0
 40
2.0
  1
D
 41
1.334510769230782
 72
     5
 11
834.367432
 21
331.75
 31
0.0
100
AcDbText
  0
ENDBLK
  5
628
330
83
100
AcDbEntity
  8
0
100
AcDbBlockEnd
  0
BLOCK
  5
629
330
84
100
AcDbEntity
  8
0
100
AcDbBlockBegin
  2
BLOCK17
 70
     0
 10
0.0
 20
0.0
 30
0.0
  3
BLOCK17
  1

  0
TEXT
  5
E5
330
84
100
AcDbEntity
  8
0
 62
     7
370
    13
390
F
100
AcDbText
 10
832.632568
 20
260.0
 30
0.0
 40
2.0
  1
E
 41
1.577149090909105
 72
     5
 11
834.367432
 21
260.0
 31
0.0
100
AcDbText
  0
ENDBLK
  5
62A
330
84
100
AcDbEntity
  8
0
100
AcDbBlockEnd
  0
BLOCK
  5
62B
330
85
100
AcDbEntity
  8
0
100
AcDbBlockBegin
  2
BLOCK18
 70
     0
 10
0.0
 20
0.0
 30
0.0
  3
BLOCK18
  1

  0
TEXT
  5
E8
330
85
100
AcDbEntity
  8
0
 62
     7
370
    13
390
F
100
AcDbText
 10
832.632568
 20
188.25
 30
0.0
 40
2.0
  1
F
 41
1.577149090909105
 72
     5
 11
834.367432
 21
188.25
 31
0.0
100
AcDbText
  0
ENDBLK
  5
62C
330
85
100
AcDbEntity
  8
0
100
AcDbBlockEnd
  0
BLOCK
  5
62D
330
86
100
AcDbEntity
  8
0
100
AcDbBlockBegin
  2
BLOCK19
 70
     0
 10
0.0
 20
0.0
 30
0.0
  3
BLOCK19
  1

  0
TEXT
  5
EB
330
86
100
AcDbEntity
  8
0
 62
     7
370
    13
390
F
100
AcDbText
 10
832.632568
 20
116.5
 30
0.0
 40
2.0
  1
G
 41
1.334510769230782
 72
     5
 11
834.367432
 21
116.5
 31
0.0
100
AcDbText
  0
ENDBLK
  5
62E
330
86
100
AcDbEntity
  8
0
100
AcDbBlockEnd
  0
BLOCK
  5
62F
330
87
100
AcDbEntity
  8
0
100
AcDbBlockBegin
  2
BLOCK20
 70
     0
 10
0.0
 20
0.0
 30
0.0
  3
BLOCK20
  1

  0
TEXT
  5
EE
330
87
100
AcDbEntity
  8
0
 62
     7
370
    13
390
F
100
AcDbText
 10
832.632568
 20
44.75
 30
0.0
 40
2.0
  1
H
 41
1.334510769230782
 72
     5
 11
834.367432
 21
44.75
 31
0.0
100
AcDbText
  0
ENDBLK
  5
630
330
87
100
AcDbEntity
  8
0
100
AcDbBlockEnd
  0
BLOCK
  5
631
330
88
100
AcDbEntity
  8
0
100
AcDbBlockBegin
  2
BLOCK21
 70
     0
 10
0.0
 20
0.0
 30
0.0
  3
BLOCK21
  1

  0
TEXT
  5
F1
330
88
100
AcDbEntity
  8
0
 62
     7
370
    13
390
F
100
AcDbText
 10
16.632565
 20
547.0
 30
0.0
 40
2.0
  1
A
 41
1.15658
 72
     5
 11
18.367435
 21
547.0
 31
0.0
100
AcDbText
  0
ENDBLK
  5
632
330
88
100
AcDbEntity
  8
0
100
AcDbBlockEnd
  0
BLOCK
  5
633
330
89
100
AcDbEntity
  8
0
100
AcDbBlockBegin
  2
BLOCK22
 70
     0
 10
0.0
 20
0.0
 30
0.0
  3
BLOCK22
  1

  0
TEXT
  5
F4
330
89
100
AcDbEntity
  8
0
 62
     7
370
    13
390
F
100
AcDbText
 10
16.632565
 20
475.25
 30
0.0
 40
2.0
  1
B
 41
1.334515384615385
 72
     5
 11
18.367435
 21
475.25
 31
0.0
100
AcDbText
  0
ENDBLK
  5
634
330
89
100
AcDbEntity
  8
0
100
AcDbBlockEnd
  0
BLOCK
  5
635
330
8A
100
AcDbEntity
  8
0
100
AcDbBlockBegin
  2
BLOCK23
 70
     0
 10
0.0
 20
0.0
 30
0.0
  3
BLOCK23
  1

  0
TEXT
  5
F7
330
8A
100
AcDbEntity
  8
0
 62
     7
370
    13
390
F
100
AcDbText
 10
16.632565
 20
403.5
 30
0.0
 40
2.0
  1
C
 41
1.577154545454546
 72
     5
 11
18.367435
 21
403.5
 31
0.0
100
AcDbText
  0
ENDBLK
  5
636
330
8A
100
AcDbEntity
  8
0
100
AcDbBlockEnd
  0
BLOCK
  5
637
330
8B
100
AcDbEntity
  8
0
100
AcDbBlockBegin
  2
BLOCK24
 70
     0
 10
0.0
 20
0.0
 30
0.0
  3
BLOCK24
  1

  0
TEXT
  5
FA
330
8B
100
AcDbEntity
  8
0
 62
     7
370
    13
390
F
100
AcDbText
 10
16.632565
 20
331.75
 30
0.0
 40
2.0
  1
D
 41
1.334515384615385
 72
     5
 11
18.367435
 21
331.75
 31
0.0
100
AcDbText
  0
ENDBLK
  5
638
330
8B
100
AcDbEntity
  8
0
100
AcDbBlockEnd
  0
BLOCK
  5
639
330
8C
100
AcDbEntity
  8
0
100
AcDbBlockBegin
  2
BLOCK25
 70
     0
 10
0.0
 20
0.0
 30
0.0
  3
BLOCK25
  1

  0
TEXT
  5
FD
330
8C
100
AcDbEntity
  8
0
 62
     7
370
    13
390
F
100
AcDbText
 10
16.632565
 20
260.0
 30
0.0
 40
2.0
  1
E
 41
1.577154545454546
 72
     5
 11
18.367435
 21
260.0
 31
0.0
100
AcDbText
  0
ENDBLK
  5
63A
330
8C
100
AcDbEntity
  8
0
100
AcDbBlockEnd
  0
BLOCK
  5
63B
330
8D
100
AcDbEntity
  8
0
100
AcDbBlockBegin
  2
BLOCK26
 70
     0
 10
0.0
 20
0.0
 30
0.0
  3
BLOCK26
  1

  0
TEXT
  5
100
330
8D
100
AcDbEntity
  8
0
 62
     7
370
    13
390
F
100
AcDbText
 10
16.632565
 20
188.25
 30
0.0
 40
2.0
  1
F
 41
1.577154545454546
 72
     5
 11
18.367435
 21
188.25
 31
0.0
100
AcDbText
  0
ENDBLK
  5
63C
330
8D
100
AcDbEntity
  8
0
100
AcDbBlockEnd
  0
BLOCK
  5
63D
330
8E
100
AcDbEntity
  8
0
100
AcDbBlockBegin
  2
BLOCK27
 70
     0
 10
0.0
 20
0.0
 30
0.0
  3
BLOCK27
  1

  0
TEXT
  5
103
330
8E
100
AcDbEntity
  8
0
 62
     7
370
    13
390
F
100
AcDbText
 10
16.632565
 20
116.5
 30
0.0
 40
2.0
  1
G
 41
1.334515384615385
 72
     5
 11
18.367435
 21
116.5
 31
0.0
100
AcDbText
  0
ENDBLK
  5
63E
330
8E
100
AcDbEntity
  8
0
100
AcDbBlockEnd
  0
BLOCK
  5
63F
330
8F
100
AcDbEntity
  8
0
100
AcDbBlockBegin
  2
BLOCK28
 70
     0
 10
0.0
 20
0.0
 30
0.0
  3
BLOCK28
  1

  0
TEXT
  5
106
330
8F
100
AcDbEntity
  8
0
 62
     7
370
    13
390
F
100
AcDbText
 10
16.632565
 20
44.75
 30
0.0
 40
2.0
  1
H
 41
1.334515384615385
 72
     5
 11
18.367435
 21
44.75
 31
0.0
100
AcDbText
  0
ENDBLK
  5
640
330
8F
100
AcDbEntity
  8
0
100
AcDbBlockEnd
  0
BLOCK
  5
641
330
90
100
AcDbEntity
  8
0
100
AcDbBlockBegin
  2
BLOCK29
 70
     0
 10
0.0
 20
0.0
 30
0.0
  3
BLOCK29
  1

  0
TEXT
  5
109
330
90
100
AcDbEntity
  8
0
 62
     7
370
    13
390
F
100
AcDbText
 10
794.80658
 20
6.5
 30
0.0
 40
2.0
  1
12
 41
1.842350583695031
 72
     5
 11
798.676331
 21
6.5
 31
0.0
100
AcDbText
  0
ENDBLK
  5
642
330
90
100
AcDbEntity
  8
0
100
AcDbBlockEnd
  0
BLOCK
  5
643
330
91
100
AcDbEntity
  8
0
100
AcDbBlockBegin
  2
BLOCK30
 70
     0
 10
0.0
 20
0.0
 30
0.0
  3
BLOCK30
  1

  0
TEXT
  5
10C
330
91
100
AcDbEntity
  8
0
 62
     7
370
    13
390
F
100
AcDbText
 10
727.223267
 20
6.5
 30
0.0
 40
2.0
  1
11
 41
2.276324117647097
 72
     5
 11
731.093018
 21
6.5
 31
0.0
100
AcDbText
  0
ENDBLK
  5
644
330
91
100
AcDbEntity
  8
0
100
AcDbBlockEnd
  0
BLOCK
  5
645
330
528
100
AcDbEntity
  8
0
100
AcDbBlockBegin
  2
BLOCK31
 70
     0
 10
0.0
 20
0.0
 30
0.0
  3
BLOCK31
  1

  0
TEXT
  5
10F
330
528
100
AcDbEntity
  8
0
 62
     7
370
    13
390
F
100
AcDbText
 10
659.639893
 20
6.5
 30
0.0
 40
2.0
  1
10
 41
1.841357725739954
 72
     5
 11
663.509644
 21
6.5
 31
0.0
100
AcDbText
  0
ENDBLK
  5
646
330
528
100
AcDbEntity
  8
0
100
AcDbBlockEnd
  0
BLOCK
  5
647
330
52B
100
AcDbEntity
  8
0
100
AcDbBlockBegin
  2
BLOCK32
 70
     0
 10
0.0
 20
0.0
 30
0.0
  3
BLOCK32
  1

  0
TEXT
  5
112
330
52B
100
AcDbEntity
  8
0
 62
     7
370
    13
390
F
100
AcDbText
 10
593.124023
 20
6.5
 30
0.0
 40
2.0
  1
9
 41
1.567192204526064
 72
     5
 11
594.858887
 21
6.5
 31
0.0
100
AcDbText
  0
ENDBLK
  5
648
330
52B
100
AcDbEntity
  8
0
100
AcDbBlockEnd
  0
BLOCK
  5
649
330
94
100
AcDbEntity
  8
0
100
AcDbBlockBegin
  2
BLOCK33
 70
     0
 10
0.0
 20
0.0
 30
0.0
  3
BLOCK33
  1

  0
TEXT
  5
115
330
94
100
AcDbEntity
  8
0
 62
     7
370
    13
390
F
100
AcDbText
 10
525.54071
 20
6.5
 30
0.0
 40
2.0
  1
8
 41
1.577866302864953
 72
     5
 11
527.275574
 21
6.5
 31
0.0
100
AcDbText
  0
ENDBLK
  5
64A
330
94
100
AcDbEntity
  8
0
100
AcDbBlockEnd
  0
BLOCK
  5
64B
330
95
100
AcDbEntity
  8
0
100
AcDbBlockBegin
  2
BLOCK34
 70
     0
 10
0.0
 20
0.0
 30
0.0
  3
BLOCK34
  1

  0
TEXT
  5
118
330
95
100
AcDbEntity
  8
0
 62
     7
370
    13
390
F
100
AcDbText
 10
457.957367
 20
6.5
 30
0.0
 40
2.0
  1
7
 41
1.577148181818198
 72
     5
 11
459.69223
 21
6.5
 31
0.0
100
AcDbText
  0
ENDBLK
  5
64C
330
95
100
AcDbEntity
  8
0
100
AcDbBlockEnd
  0
BLOCK
  5
64D
330
96
100
AcDbEntity
  8
0
100
AcDbBlockBegin
  2
BLOCK35
 70
     0
 10
0.0
 20
0.0
 30
0.0
  3
BLOCK35
  1

  0
TEXT
  5
11B
330
96
100
AcDbEntity
  8
0
 62
     7
370
    13
390
F
100
AcDbText
 10
390.374023
 20
6.5
 30
0.0
 40
2.0
  1
6
 41
1.577149090909054
 72
     5
 11
392.108887
 21
6.5
 31
0.0
100
AcDbText
  0
ENDBLK
  5
64E
330
96
100
AcDbEntity
  8
0
100
AcDbBlockEnd
  0
BLOCK
  5
64F
330
534
100
AcDbEntity
  8
0
100
AcDbBlockBegin
  2
BLOCK36
 70
     0
 10
0.0
 20
0.0
 30
0.0
  3
BLOCK36
  1

  0
TEXT
  5
11E
330
534
100
AcDbEntity
  8
0
 62
     7
370
    13
390
F
100
AcDbText
 10
322.79068
 20
6.5
 30
0.0
 40
2.0
  1
5
 41
1.577148181818198
 72
     5
 11
324.525543
 21
6.5
 31
0.0
100
AcDbText
  0
ENDBLK
  5
650
330
534
100
AcDbEntity
  8
0
100
AcDbBlockEnd
  0
BLOCK
  5
651
330
537
100
AcDbEntity
  8
0
100
AcDbBlockBegin
  2
BLOCK37
 70
     0
 10
0.0
 20
0.0
 30
0.0
  3
BLOCK37
  1

  0
TEXT
  5
121
330
537
100
AcDbEntity
  8
0
 62
     7
370
    13
390
F
100
AcDbText
 10
255.207367
 20
6.5
 30
0.0
 40
2.0
  1
4
 41
1.334509999999993
 72
     5
 11
256.94223
 21
6.5
 31
0.0
100
AcDbText
  0
ENDBLK
  5
652
330
537
100
AcDbEntity
  8
0
100
AcDbBlockEnd
  0
BLOCK
  5
653
330
53A
100
AcDbEntity
  8
0
100
AcDbBlockBegin
  2
BLOCK38
 70
     0
 10
0.0
 20
0.0
 30
0.0
  3
BLOCK38
  1

  0
TEXT
  5
124
330
53A
100
AcDbEntity
  8
0
 62
     7
370
    13
390
F
100
AcDbText
 10
187.624023
 20
6.5
 30
0.0
 40
2.0
  1
3
 41
1.577149090909105
 72
     5
 11
189.358887
 21
6.5
 31
0.0
100
AcDbText
  0
ENDBLK
  5
654
330
53A
100
AcDbEntity
  8
0
100
AcDbBlockEnd
  0
BLOCK
  5
655
330
53D
100
AcDbEntity
  8
0
100
AcDbBlockBegin
  2
BLOCK39
 70
     0
 10
0.0
 20
0.0
 30
0.0
  3
BLOCK39
  1

  0
TEXT
  5
127
330
53D
100
AcDbEntity
  8
0
 62
     7
370
    13
390
F
100
AcDbText
 10
120.040688
 20
6.5
 30
0.0
 40
2.0
  1
2
 41
1.576520716593502
 72
     5
 11
121.775558
 21
6.5
 31
0.0
100
AcDbText
  0
ENDBLK
  5
656
330
53D
100
AcDbEntity
  8
0
100
AcDbBlockEnd
  0
BLOCK
  5
657
330
540
100
AcDbEntity
  8
0
100
AcDbBlockBegin
  2
BLOCK40
 70
     0
 10
0.0
 20
0.0
 30
0.0
  3
BLOCK40
  1

  0
TEXT
  5
12A
330
540
100
AcDbEntity
  8
0
 62
     7
370
    13
390
F
100
AcDbText
 10
52.457352
 20
6.5
 30
0.0
 40
2.0
  1
1
 41
2.47838714285714
 72
     5
 11
54.192223
 21
6.5
 31
0.0
100
AcDbText
  0
ENDBLK
  5
658
330
540
100
AcDbEntity
  8
0
100
AcDbBlockEnd
  0
BLOCK
  5
659
330
543
100
AcDbEntity
  8
0
100
AcDbBlockBegin
  2
BLOCK41
 70
     0
 10
0.0
 20
0.0
 30
0.0
  3
BLOCK41
  1

  0
TEXT
  5
12D
330
543
100
AcDbEntity
  8
0
 62
     7
370
    13
390
F
100
AcDbText
 10
6.543763
 20
147.493759
 30
0.0
 40
2.0
  1
GEWISS SpA reserve all rights in this document and in the information
 50
90.00000287182327
 41
1.433348141052508
 72
     5
 11
6.543757
 21
267.199829
 31
0.0
100
AcDbText
  0
TEXT
  5
12E
330
543
100
AcDbEntity
  8
0
 62
     7
370
    13
390
F
100
AcDbText
 10
9.999094
 20
147.493759
 30
0.0
 40
2.0
  1
contained therein. Reproduction, use or disclosure to third parties
 50
90.00000246462413
 41
1.471122518305551
 72
     5
 11
9.999089
 21
263.730103
 31
0.0
100
AcDbText
  0
TEXT
  5
12F
330
543
100
AcDbEntity
  8
0
 62
     7
370
    13
390
F
100
AcDbText
 10
13.454425
 20
147.493759
 30
0.0
 40
2.0
  1
without written authorization is stricty forbidden
 50
90.0000026420769
 41
1.467493588225344
 72
     5
 11
13.454421
 21
234.237305
 31
0.0
100
AcDbText
  0
ENDBLK
  5
65A
330
543
100
AcDbEntity
  8
0
100
AcDbBlockEnd
  0
BLOCK
  5
65B
330
546
100
AcDbEntity
  8
0
100
AcDbBlockBegin
  2
BLOCK42
 70
     0
 10
0.0
 20
0.0
 30
0.0
  3
BLOCK42
  1

  0
TEXT
  5
132
330
546
100
AcDbEntity
  8
0
 62
     7
370
    13
390
F
100
AcDbText
 10
6.701831
 20
9.96806
 30
0.0
 40
2.0
  1
GEWISS SpA si riserva tutti i diritti sul presente documento
 50
90.00000275216357
 41
1.459509955131802
 72
     5
 11
6.701826
 21
114.06031
 31
0.0
100
AcDbText
  0
TEXT
  5
133
330
546
100
AcDbEntity
  8
0
 62
     7
370
    13
390
F
100
AcDbText
 10
10.157163
 20
9.96806
 30
0.0
 40
2.0
  1
e con quanto rappresentato.E'vietato riprodurlo,utilizzarlo
 50
90.00000279881041
 41
1.460058184152345
 72
     5
 11
10.157158
 21
112.325439
 31
0.0
100
AcDbText
  0
TEXT
  5
134
330
546
100
AcDbEntity
  8
0
 62
     7
370
    13
390
F
100
AcDbText
 10
13.612494
 20
9.968061
 30
0.0
 40
2.0
  1
renderlo accessibile a terzi senza autorizzazione scritta
 50
90.0000028970143
 41
1.464568083530808
 72
     5
 11
13.612489
 21
108.855698
 31
0.0
100
AcDbText
  0
ENDBLK
  5
65C
330
546
100
AcDbEntity
  8
0
100
AcDbBlockEnd
  0
BLOCK
  5
65D
330
549
100
AcDbEntity
  8
0
100
AcDbBlockBegin
  2
BLOCK43
 70
     0
 10
0.0
 20
0.0
 30
0.0
  3
BLOCK43
  1

  0
LINE
  5
137
330
549
100
AcDbEntity
  8
0
 62
     7
 48
0.125
370
   100
390
F
100
AcDbLine
 10
-111.620026
 20
0.0
 30
0.0
 11
-106.620026
 21
0.0
 31
0.0
  0
LINE
  5
138
330
549
100
AcDbEntity
  8
0
 62
     7
 48
0.125
370
   100
390
F
100
AcDbLine
 10
387.094299
 20
0.0
 30
0.0
 11
382.094299
 21
0.0
 31
0.0
  0
LINE
  5
139
330
549
100
AcDbEntity
  8
0
  6
DASHDOT
 62
     7
370
    13
390
F
100
AcDbLine
 10
-106.620026
 20
0.0
 30
0.0
 11
382.094299
 21
0.0
 31
0.0
  0
LINE
  5
13A
330
549
100
AcDbEntity
  8
0
 62
     7
 48
0.375
370
    13
390
F
100
AcDbLine
 10
-109.120026
 20
0.0
 30
0.0
 11
-109.120026
 21
-15.0
 31
0.0
  0
SOLID
  5
13B
330
549
100
AcDbEntity
  8
0
 62
     7
370
    13
390
F
100
AcDbTrace
 10
-108.048225
 20
-4.0
 30
0.0
 11
-109.120026
 21
0.0
 31
0.0
 12
-110.191826
 22
-4.0
 32
0.0
 13
-110.191826
 23
-4.0
 33
0.0
  0
TEXT
  5
13C
330
549
100
AcDbEntity
  8
0
 62
     7
370
    13
390
F
100
AcDbText
 10
-106.495026
 20
-9.9999
 30
0.0
 40
3.5
  1
A
 41
1.156581333333331
 72
     5
 11
-103.459
 21
-9.9999
 31
0.0
100
AcDbText
  0
LINE
  5
13D
330
549
100
AcDbEntity
  8
0
 62
     7
 48
0.375
370
    13
390
F
100
AcDbLine
 10
384.594299
 20
0.0
 30
0.0
 11
384.594299
 21
-15.0
 31
0.0
  0
SOLID
  5
13E
330
549
100
AcDbEntity
  8
0
 62
     7
370
    13
390
F
100
AcDbTrace
 10
385.666107
 20
-4.0
 30
0.0
 11
384.594299
 21
0.0
 31
0.0
 12
383.522491
 22
-4.0
 32
0.0
 13
383.522491
 23
-4.0
 33
0.0
  0
TEXT
  5
13F
330
549
100
AcDbEntity
  8
0
 62
     7
370
    13
390
F
100
AcDbText
 10
387.219299
 20
-9.9999
 30
0.0
 40
3.5
  1
A
 41
1.156575619047631
 72
     5
 11
390.25531
 21
-9.9999
 31
0.0
100
AcDbText
  0
ENDBLK
  5
65E
330
549
100
AcDbEntity
  8
0
100
AcDbBlockEnd
  0
BLOCK
  5
65F
330
54C
100
AcDbEntity
  8
0
100
AcDbBlockBegin
  2
BLOCK44
 70
     0
 10
0.0
 20
0.0
 30
0.0
  3
BLOCK44
  1

  0
LINE
  5
142
330
54C
100
AcDbEntity
  8
0
 62
     7
370
    35
390
F
100
AcDbLine
 10
0.0
 20
-45.0
 30
0.0
 11
0.0
 21
45.0
 31
0.0
  0
LINE
  5
143
330
54C
100
AcDbEntity
  8
0
 62
     7
370
    35
390
F
100
AcDbLine
 10
176.0
 20
-45.0
 30
0.0
 11
176.0
 21
45.0
 31
0.0
  0
LINE
  5
144
330
54C
100
AcDbEntity
  8
0
 62
     7
370
    35
390
F
100
AcDbLine
 10
0.0
 20
-45.0
 30
0.0
 11
176.0
 21
-45.0
 31
0.0
  0
LINE
  5
145
330
54C
100
AcDbEntity
  8
0
 62
     7
370
    35
390
F
100
AcDbLine
 10
0.0
 20
45.0
 30
0.0
 11
176.0
 21
45.0
 31
0.0
  0
SPLINE
  5
146
330
54C
100
AcDbEntity
  8
0
 62
     7
370
    35
390
F
100
AcDbSpline
210
0.0
220
0.0
230
1.0
 70
     8
 71
     3
 72
    74
 73
    70
 74
     0
 42
0.0
 43
0.0
 40
0.0
 40
0.0
 40
0.0
 40
0.0
 40
0.157837925057537
 40
0.3168808937095398
 40
0.4767249533762107
 40
0.6370275327402374
 40
0.7975062858198745
 40
0.9579366338510891
 40
1.118148259163162
 40
1.278020746077748
 40
1.437478532710419
 40
1.596485325097239
 40
1.755038124336144
 40
1.913161022818879
 40
2.070898932469815
 40
2.228311412460498
 40
2.385466763452901
 40
2.542436548638022
 40
2.699290688649568
 40
2.856093259115444
 40
3.012899098450028
 40
3.169751312377556
 40
3.326679743611469
 40
3.483700462776644
 40
3.64081633209153
 40
3.798018697727124
 40
3.955290280423647
 40
4.112609356176783
 40
4.269955495489941
 40
4.427339198788891
 40
4.58481287204074
 40
4.742412044789166
 40
4.900152429991691
 40
5.058034350383579
 40
5.216046837267323
 40
5.374171346416973
 40
5.532385043446697
 40
5.690663615802142
 40
5.848983571533933
 40
6.007323987281533
 40
6.165667670464332
 40
6.324001704464759
 40
6.482317351341125
 40
6.640609294828344
 40
6.798874217272757
 40
6.957108717544173
 40
7.115306592339842
 40
7.273455519749804
 40
7.431533200321589
 40
7.589503025828248
 40
7.747309358214343
 40
7.904872956031147
 40
8.062110736205925
 40
8.21899762669314
 40
8.375580543995373
 40
8.53196963202937
 40
8.688325488694852
 40
8.84484295640406
 40
9.001731902848356
 40
9.159195517818738
 40
9.317406775805614
 40
9.476483814297792
 40
9.636465022140351
 40
9.797284613490957
 40
9.95874939984634
 40
10.12051740629579
 40
10.28207896517959
 40
10.4427410317323
 40
10.60161580017209
 40
10.60161580017209
 40
10.60161580017209
 40
10.60161580017209
 10
45.37500000000001
 20
0.0000000000058836
 30
0.0
 10
45.37499958779177
 20
-0.0526229885528313
 30
0.0
 10
45.37239558693991
 20
-0.1582516969848464
 30
0.0
 10
45.36087921396551
 20
-0.316804943573885
 30
0.0
 10
45.34180745048285
 20
-0.4754503108257281
 30
0.0
 10
45.31526753741351
 20
-0.6335042606290326
 30
0.0
 10
45.28135966541819
 20
-0.790342491859806
 30
0.0
 10
45.24019672506205
 20
-0.9454035537096079
 30
0.0
 10
45.19190396232773
 20
-1.098182562245002
 30
0.0
 10
45.13661866692597
 20
-1.248227539919625
 30
0.0
 10
45.0744898513551
 20
-1.395135028806376
 30
0.0
 10
45.00567792152362
 20
-1.538545887886092
 30
0.0
 10
44.93035432773495
 20
-1.678141035061853
 30
0.0
 10
44.84870118957409
 20
-1.813637196411962
 30
0.0
 10
44.76091089026752
 20
-1.944782639922323
 30
0.0
 10
44.66718564008782
 20
-2.071352891034501
 30
0.0
 10
44.56773701226775
 20
-2.193146421498924
 30
0.0
 10
44.46278545828
 20
-2.309980306276687
 30
0.0
 10
44.35255981140791
 20
-2.421685845625257
 30
0.0
 10
44.23729678812104
 20
-2.528104153302496
 30
0.0
 10
44.11724049514726
 20
-2.629081713774924
 30
0.0
 10
43.99264194931662
 20
-2.724465917603166
 30
0.0
 10
43.86375860790555
 20
-2.814100569422762
 30
0.0
 10
43.73085392697992
 20
-2.897821420019366
 30
0.0
 10
43.59419687653816
 20
-2.975451555765035
 30
0.0
 10
43.45406166059166
 20
-3.046797282433832
 30
0.0
 10
43.31072669050499
 20
-3.111642121896812
 30
0.0
 10
43.16447629437267
 20
-3.169747811169003
 30
0.0
 10
43.01558491922936
 20
-3.220831534653987
 30
0.0
 10
42.86433977817278
 20
-3.26464151847384
 30
0.0
 10
42.71109508171457
 20
-3.301197915276644
 30
0.0
 10
42.55617759304607
 20
-3.330490928610404
 30
0.0
 10
42.39992421548487
 20
-3.352514147212712
 30
0.0
 10
42.24267870808075
 20
-3.36725570083357
 30
0.0
 10
42.08479158187129
 20
-3.374703502249528
 30
0.0
 10
41.9266184720059
 20
-3.374846913832357
 30
0.0
 10
41.76851890507587
 20
-3.367679384966
 30
0.0
 10
41.61085494808565
 20
-3.353200840410525
 30
0.0
 10
41.45398987728985
 20
-3.331420147495345
 30
0.0
 10
41.29828682921354
 20
-3.302357574916522
 30
0.0
 10
41.14410744242004
 20
-3.26604726681658
 30
0.0
 10
40.99181048551891
 20
-3.222539725140272
 30
0.0
 10
40.84175047022626
 20
-3.171904300132121
 30
0.0
 10
40.69427624762375
 20
-3.114231685653829
 30
0.0
 10
40.54972958733964
 20
-3.04963641488385
 30
0.0
 10
40.40844373880957
 20
-2.978259353190219
 30
0.0
 10
40.27074198206206
 20
-2.900270176559083
 30
0.0
 10
40.13693615217007
 20
-2.815869854686539
 30
0.0
 10
40.00732521600375
 20
-2.725293045406082
 30
0.0
 10
39.88219363377101
 20
-2.62881073170393
 30
0.0
 10
39.76181041857057
 20
-2.526731760958242
 30
0.0
 10
39.64641914038312
 20
-2.41940231062266
 30
0.0
 10
39.53622703848374
 20
-2.307171941646144
 30
0.0
 10
39.43144695892097
 20
-2.190311096902496
 30
0.0
 10
39.33228122124481
 20
-2.06901374929968
 30
0.0
 10
39.23891794533415
 20
-1.94341451099449
 30
0.0
 10
39.15153287331335
 20
-1.813609517394082
 30
0.0
 10
39.07029091961606
 20
-1.679677422155626
 30
0.0
 10
38.99534776889448
 20
-1.541700232422545
 30
0.0
 10
38.92685149738161
 20
-1.399783984070417
 30
0.0
 10
38.86494431615299
 20
-1.254079251055281
 30
0.0
 10
38.80976448643256
 20
-1.104801534371425
 30
0.0
 10
38.76144842294828
 20
-0.9522516171075976
 30
0.0
 10
38.72013295383388
 20
-0.7968358889076184
 30
0.0
 10
38.68595765072417
 20
-0.6390869072676687
 30
0.0
 10
38.6590671729631
 20
-0.4796832928977524
 30
0.0
 10
38.63961336389781
 20
-0.319472172246859
 30
0.0
 10
38.62775759532089
 20
-0.1594817089668807
 30
0.0
 10
38.62501167072072
 20
-0.0529690038423845
 30
0.0
 10
38.62499999999999
 20
0.0000000000059235
 30
0.0
  0
SPLINE
  5
147
330
54C
100
AcDbEntity
  8
0
 62
     7
370
    35
390
F
100
AcDbSpline
210
0.0
220
0.0
230
1.0
 70
     8
 71
     3
 72
    74
 73
    70
 74
     0
 42
0.0
 43
0.0
 40
0.0
 40
0.0
 40
0.0
 40
0.0
 40
0.1578379250611577
 40
0.316880893694871
 40
0.4767249533333909
 40
0.6370275326686378
 40
0.7975062857252059
 40
0.9579366337430177
 40
1.118148259053137
 40
1.278020745977296
 40
1.437478532629597
 40
1.596485325043694
 40
1.755038124314395
 40
1.913161022829984
 40
2.070898932511402
 40
2.228311412527106
 40
2.385466763536547
 40
2.542436548728959
 40
2.699290688737361
 40
2.85609325918983
 40
3.01289909850215
 40
3.169751312400857
 40
3.326679743602628
 40
3.483700462736425
 40
3.640816332025158
 40
3.798018697644431
 40
3.955290280338862
 40
4.112609356107615
 40
4.269955495455135
 40
4.427339198782016
 40
4.584812872048466
 40
4.742412044802969
 40
4.900152430006968
 40
5.058034350398731
 40
5.216046837282827
 40
5.374171346434504
 40
5.532385043468302
 40
5.690663615829512
 40
5.848983571567756
 40
6.007323987321046
 40
6.165667670507019
 40
6.324001704506251
 40
6.48231735137542
 40
6.640609294848231
 40
6.798874217270617
 40
6.957108717512969
 40
7.115306592274624
 40
7.27345551964946
 40
7.431533200190932
 40
7.589503025680506
 40
7.7473093580738
 40
7.904872955934958
 40
8.062110736182186
 40
8.218997626744962
 40
8.375580544107176
 40
8.531969632174219
 40
8.688325488841324
 40
8.844842956522392
 40
9.001731902915708
 40
9.159195517823008
 40
9.31740677574732
 40
9.476483814190345
 40
9.636465022007908
 40
9.797284613364118
 40
9.958749399755417
 40
10.12051740626205
 40
10.28207896520412
 40
10.44274103178294
 40
10.60161580016842
 40
10.60161580016842
 40
10.60161580016842
 40
10.60161580016842
 10
38.625
 20
0.0000000000059635
 30
0.0
 10
38.62500041220785
 20
0.0526229885658909
 30
0.0
 10
38.62760441305876
 20
0.1582516969930476
 30
0.0
 10
38.63912078603339
 20
0.3168049435678004
 30
0.0
 10
38.65819254951708
 20
0.4754503107942933
 30
0.0
 10
38.68473246258768
 20
0.6335042605703507
 30
0.0
 10
38.71864033458425
 20
0.7903424917785822
 30
0.0
 10
38.75980327494129
 20
0.9454035536148486
 30
0.0
 10
38.8080960376761
 20
1.098182562148001
 30
0.0
 10
38.86338133307775
 20
1.248227539832266
 30
0.0
 10
38.925510148648
 20
1.395135028739636
 30
0.0
 10
38.99432207847836
 20
1.538545887848911
 30
0.0
 10
39.06964567226555
 20
1.678141035060237
 30
0.0
 10
39.15129881042473
 20
1.813637196448359
 30
0.0
 10
39.2390891097296
 20
1.944782639995327
 30
0.0
 10
39.33281435990781
 20
2.071352891138771
 30
0.0
 10
39.43226298772674
 20
2.193146421625495
 30
0.0
 10
39.537214541714
 20
2.309980306413392
 30
0.0
 10
39.64744018858617
 20
2.421685845757785
 30
0.0
 10
39.76270321187402
 20
2.528104153415169
 30
0.0
 10
39.8827595048495
 20
2.629081713852474
 30
0.0
 10
40.00735805068256
 20
2.724465917632173
 30
0.0
 10
40.13624139209667
 20
2.81410056939367
 30
0.0
 10
40.26914607302556
 20
2.897821419929008
 30
0.0
 10
40.4058031234704
 20
2.975451555619163
 30
0.0
 10
40.54593833941953
 20
3.046797282249174
 30
0.0
 10
40.68927330950686
 20
3.111642121707474
 30
0.0
 10
40.83552370563955
 20
3.16974781101838
 30
0.0
 10
40.98441508076335
 20
3.220831534637815
 30
0.0
 10
41.13566022181423
 20
3.264641518572712
 30
0.0
 10
41.28890491827472
 20
3.301197915438715
 30
0.0
 10
41.44382240694619
 20
3.33049092879931
 30
0.0
 10
41.60007578451098
 20
3.352514147396953
 30
0.0
 10
41.75732129191858
 20
3.36725570098996
 30
0.0
 10
41.91520841813109
 20
3.374703502361426
 30
0.0
 10
42.07338152799878
 20
3.374846913890635
 30
0.0
 10
42.23148109493019
 20
3.367679384967609
 30
0.0
 10
42.38914505192085
 20
3.353200840358438
 30
0.0
 10
42.54601012271616
 20
3.331420147397521
 30
0.0
 10
42.70171317079121
 20
3.302357574785244
 30
0.0
 10
42.85589255758282
 20
3.26604726666728
 30
0.0
 10
43.00818951448175
 20
3.22253972499056
 30
0.0
 10
43.15824952977209
 20
3.171904300000203
 30
0.0
 10
43.30572375237259
 20
3.11423168555736
 30
0.0
 10
43.45027041265516
 20
3.049636414837941
 30
0.0
 10
43.59155626118461
 20
2.978259353206242
 30
0.0
 10
43.72925801793259
 20
2.900270176642414
 30
0.0
 10
43.86306384782635
 20
2.815869854834619
 30
0.0
 10
43.99267478399598
 20
2.725293045606517
 30
0.0
 10
44.11780636623329
 20
2.628810731931652
 30
0.0
 10
44.23818958144032
 20
2.526731761175051
 30
0.0
 10
44.35358085962564
 20
2.419402310775565
 30
0.0
 10
44.46377296151754
 20
2.307171941701625
 30
0.0
 10
44.56855304107599
 20
2.190311096861253
 30
0.0
 10
44.66771877874981
 20
2.069013749184359
 30
0.0
 10
44.76108205465978
 20
1.943414510839819
 30
0.0
 10
44.84846712668104
 20
1.813609517237488
 30
0.0
 10
44.92970908037952
 20
1.679677422030248
 30
0.0
 10
45.00465223110267
 20
1.541700232352099
 30
0.0
 10
45.07314850261709
 20
1.399783984066105
 30
0.0
 10
45.13505568384718
 20
1.254079251114808
 30
0.0
 10
45.19023551356873
 20
1.104801534479809
 30
0.0
 10
45.23855157705384
 20
0.9522516172400579
 30
0.0
 10
45.27986704616874
 20
0.7968358890343878
 30
0.0
 10
45.31404234927875
 20
0.6390869073607635
 30
0.0
 10
45.34093282703985
 20
0.4796832929396736
 30
0.0
 10
45.36038663610485
 20
0.3194721722412486
 30
0.0
 10
45.37224240468096
 20
0.159481708951227
 30
0.0
 10
45.37498832928122
 20
0.0529690038360877
 30
0.0
 10
45.37499999999999
 20
0.0000000000058836
 30
0.0
  0
LINE
  5
148
330
54C
100
AcDbEntity
  8
0
 62
     7
370
    35
390
F
100
AcDbLine
 10
176.0
 20
-45.0
 30
0.0
 11
176.0
 21
45.0
 31
0.0
  0
LINE
  5
149
330
54C
100
AcDbEntity
  8
0
 62
     7
370
    35
390
F
100
AcDbLine
 10
180.0
 20
-45.0
 30
0.0
 11
180.0
 21
45.0
 31
0.0
  0
LINE
  5
14A
330
54C
100
AcDbEntity
  8
0
 62
     7
 48
0.1
370
    35
390
F
100
AcDbLine
 10
176.0
 20
-45.0
 30
0.0
 11
180.0
 21
-45.0
 31
0.0
  0
LINE
  5
14B
330
54C
100
AcDbEntity
  8
0
 62
     7
 48
0.1
370
    35
390
F
100
AcDbLine
 10
176.0
 20
45.0
 30
0.0
 11
180.0
 21
45.0
 31
0.0
  0
LINE
  5
14C
330
54C
100
AcDbEntity
  8
0
 62
     7
370
    35
390
F
100
AcDbLine
 10
360.0
 20
-30.0
 30
0.0
 11
360.0
 21
30.0
 31
0.0
  0
LINE
  5
14D
330
54C
100
AcDbEntity
  8
0
 62
     7
370
    35
390
F
100
AcDbLine
 10
180.0
 20
-30.0
 30
0.0
 11
180.0
 21
30.0
 31
0.0
  0
LINE
  5
14E
330
54C
100
AcDbEntity
  8
0
 62
     7
370
    35
390
F
100
AcDbLine
 10
180.0
 20
-30.0
 30
0.0
 11
360.0
 21
-30.0
 31
0.0
  0
LINE
  5
14F
330
54C
100
AcDbEntity
  8
0
 62
     7
370
    35
390
F
100
AcDbLine
 10
180.0
 20
30.0
 30
0.0
 11
360.0
 21
30.0
 31
0.0
  0
ENDBLK
  5
660
330
54C
100
AcDbEntity
  8
0
100
AcDbBlockEnd
  0
BLOCK
  5
661
330
54F
100
AcDbEntity
  8
0
100
AcDbBlockBegin
  2
BLOCK45
 70
     0
 10
0.0
 20
0.0
 30
0.0
  3
BLOCK45
  1

  0
TEXT
  5
152
330
54F
100
AcDbEntity
  8
0
 62
     7
370
    13
390
F
100
AcDbText
 10
135.898743
 20
-81.845398
 30
0.0
 40
3.5
  1
Vista in sezione A-A
 41
1.415642804686134
 72
     5
 11
196.619202
 21
-81.845398
 31
0.0
100
AcDbText
  0
TEXT
  5
153
330
54F
100
AcDbEntity
  8
0
 62
     7
370
    13
390
F
100
AcDbText
 10
135.898743
 20
-87.892227
 30
0.0
 40
3.5
  1
Scala:
 41
1.553615351812366
 72
     5
 11
154.114883
 21
-87.892227
 31
0.0
100
AcDbText
  0
TEXT
  5
154
330
54F
100
AcDbEntity
  8
0
 62
     7
370
    13
390
F
100
AcDbText
 10
154.114883
 20
-87.892227
 30
0.0
 40
3.5
  1
  1:1
 41
1.577154805194805
 72
     5
 11
169.294998
 21
-87.892227
 31
0.0
100
AcDbText
  0
ENDBLK
  5
662
330
54F
100
AcDbEntity
  8
0
100
AcDbBlockEnd
  0
BLOCK
  5
663
330
552
100
AcDbEntity
  8
0
100
AcDbBlockBegin
  2
BLOCK46
 70
     0
 10
0.0
 20
0.0
 30
0.0
  3
BLOCK46
  1

  0
SOLID
  5
157
330
552
100
AcDbEntity
  8
0
 62
     7
370
    13
390
F
100
AcDbTrace
 10
1.931852
 20
101.4748
 30
0.0
 11
0.0
 21
100.957161
 31
0.0
 12
1.931852
 22
101.4748
 32
0.0
 13
1.931852
 23
100.439522
 33
0.0
  0
SOLID
  5
158
330
552
100
AcDbEntity
  8
0
 62
     7
370
    13
390
F
100
AcDbTrace
 10
174.068146
 20
100.439522
 30
0.0
 11
176.0
 21
100.957161
 31
0.0
 12
174.068146
 22
100.439522
 32
0.0
 13
174.068146
 23
101.4748
 33
0.0
  0
TEXT
  5
159
330
552
100
AcDbEntity
  8
0
 62
     7
370
    13
390
F
100
AcDbText
 10
83.496544
 20
102.957161
 30
0.0
 40
3.0
  1
176
 41
1.715602285714286
 72
     5
 11
92.503456
 21
102.957161
 31
0.0
100
AcDbText
  0
LINE
  5
15A
330
552
100
AcDbEntity
  8
0
 62
     7
370
    13
390
F
100
AcDbLine
 10
0.0
 20
46.0
 30
0.0
 11
0.0
 21
102.957161
 31
0.0
  0
LINE
  5
15B
330
552
100
AcDbEntity
  8
0
 62
     7
370
    13
390
F
100
AcDbLine
 10
176.0
 20
46.0
 30
0.0
 11
176.0
 21
102.957161
 31
0.0
  0
LINE
  5
15C
330
552
100
AcDbEntity
  8
0
 62
     7
370
    13
390
F
100
AcDbLine
 10
1.931852
 20
100.957161
 30
0.0
 11
174.068146
 21
100.957161
 31
0.0
  0
LWPOLYLINE
  5
15D
330
552
100
AcDbEntity
  8
0
 62
     7
370
    13
390
F
100
AcDbPolyline
 90
        3
 70
     1
 43
0.0
 10
1.931852
 20
101.4748
 10
0.0
 20
100.957161
 10
1.931852
 20
100.439522
  0
LWPOLYLINE
  5
162
330
552
100
AcDbEntity
  8
0
 62
     7
370
    13
390
F
100
AcDbPolyline
 90
        3
 70
     1
 43
0.0
 10
174.068146
 20
100.439522
 10
176.0
 20
100.957161
 10
174.068146
 20
101.4748
  0
ENDBLK
  5
664
330
552
100
AcDbEntity
  8
0
100
AcDbBlockEnd
  0
BLOCK
  5
665
330
555
100
AcDbEntity
  8
0
100
AcDbBlockBegin
  2
BLOCK47
 70
     0
 10
0.0
 20
0.0
 30
0.0
  3
BLOCK47
  1

  0
SOLID
  5
169
330
555
100
AcDbEntity
  8
0
 62
     7
370
    13
390
F
100
AcDbTrace
 10
358.068146
 20
82.795113
 30
0.0
 11
360.0
 21
83.312752
 31
0.0
 12
358.068146
 22
82.795113
 32
0.0
 13
358.068146
 23
83.830391
 33
0.0
  0
SOLID
  5
16A
330
555
100
AcDbEntity
  8
0
 62
     7
370
    13
390
F
100
AcDbTrace
 10
181.931854
 20
83.830391
 30
0.0
 11
180.0
 21
83.312752
 31
0.0
 12
181.931854
 22
83.830391
 32
0.0
 13
181.931854
 23
82.795113
 33
0.0
  0
TEXT
  5
16B
330
555
100
AcDbEntity
  8
0
 62
     7
370
    13
390
F
100
AcDbText
 10
265.496552
 20
85.312752
 30
0.0
 40
3.0
  1
180
 41
1.715072562269026
 72
     5
 11
274.503448
 21
85.312752
 31
0.0
100
AcDbText
  0
LINE
  5
16C
330
555
100
AcDbEntity
  8
0
 62
     7
370
    13
390
F
100
AcDbLine
 10
180.0
 20
31.0
 30
0.0
 11
180.0
 21
85.312752
 31
0.0
  0
LINE
  5
16D
330
555
100
AcDbEntity
  8
0
 62
     7
370
    13
390
F
100
AcDbLine
 10
360.0
 20
31.0
 30
0.0
 11
360.0
 21
85.312752
 31
0.0
  0
LINE
  5
16E
330
555
100
AcDbEntity
  8
0
 62
     7
370
    13
390
F
100
AcDbLine
 10
181.931854
 20
83.312752
 30
0.0
 11
358.068146
 21
83.312752
 31
0.0
  0
LWPOLYLINE
  5
16F
330
555
100
AcDbEntity
  8
0
 62
     7
370
    13
390
F
100
AcDbPolyline
 90
        3
 70
     1
 43
0.0
 10
358.068146
 20
82.795113
 10
360.0
 20
83.312752
 10
358.068146
 20
83.830391
  0
LWPOLYLINE
  5
174
330
555
100
AcDbEntity
  8
0
 62
     7
370
    13
390
F
100
AcDbPolyline
 90
        3
 70
     1
 43
0.0
 10
181.931854
 20
83.830391
 10
180.0
 20
83.312752
 10
181.931854
 20
82.795113
  0
ENDBLK
  5
666
330
555
100
AcDbEntity
  8
0
100
AcDbBlockEnd
  0
BLOCK
  5
667
330
558
100
AcDbEntity
  8
0
100
AcDbBlockBegin
  2
BLOCK48
 70
     0
 10
0.0
 20
0.0
 30
0.0
  3
BLOCK48
  1

  0
SOLID
  5
17B
330
558
100
AcDbEntity
  8
0
 62
    34
370
    13
390
F
100
AcDbTrace
 10
47.638851
 20
58.657661
 30
0.0
 11
45.707001
 21
58.140022
 31
0.0
 12
47.638851
 22
58.657661
 32
0.0
 13
47.638851
 23
57.622383
 33
0.0
  0
SOLID
  5
17C
330
558
100
AcDbEntity
  8
0
 62
    34
370
    13
390
F
100
AcDbTrace
 10
36.358341
 20
57.622383
 30
0.0
 11
38.290192
 21
58.140022
 31
0.0
 12
36.358341
 22
57.622383
 32
0.0
 13
36.358341
 23
58.657661
 33
0.0
  0
TEXT
  5
17D
330
558
100
AcDbEntity
  8
0
 62
    34
370
    13
390
F
100
AcDbText
 10
23.862585
 20
60.140022
 30
0.0
 40
3.0
  1
M8 (3 FORI A 120%%d)
 41
1.802368769623652
 72
     5
 11
80.904076
 21
60.140022
 31
0.0
100
AcDbText
  0
LINE
  5
17E
330
558
100
AcDbEntity
  8
0
 62
    34
 48
0.353501
370
    13
390
F
100
AcDbLine
 10
38.290192
 20
46.0
 30
0.0
 11
38.290192
 21
60.140022
 31
0.0
  0
LINE
  5
17F
330
558
100
AcDbEntity
  8
0
 62
    34
 48
0.353501
370
    13
390
F
100
AcDbLine
 10
45.707001
 20
46.0
 30
0.0
 11
45.707001
 21
60.140022
 31
0.0
  0
LINE
  5
180
330
558
100
AcDbEntity
  8
0
 62
    34
 48
0.312394
370
    13
390
F
100
AcDbLine
 10
23.862585
 20
58.140022
 30
0.0
 11
36.358341
 21
58.140022
 31
0.0
  0
LINE
  5
181
330
558
100
AcDbEntity
  8
0
 62
    34
 48
0.18542
370
    13
390
F
100
AcDbLine
 10
38.290192
 20
58.140022
 30
0.0
 11
45.707001
 21
58.140022
 31
0.0
  0
LINE
  5
182
330
558
100
AcDbEntity
  8
0
 62
    34
370
    13
390
F
100
AcDbLine
 10
47.638851
 20
58.140022
 30
0.0
 11
80.904076
 21
58.140022
 31
0.0
  0
LWPOLYLINE
  5
183
330
558
100
AcDbEntity
  8
0
 62
    34
370
    13
390
F
100
AcDbPolyline
 90
        3
 70
     1
 43
0.0
 10
47.638851
 20
58.657661
 10
45.707001
 20
58.140022
 10
47.638851
 20
57.622383
  0
LWPOLYLINE
  5
188
330
558
100
AcDbEntity
  8
0
 62
    34
370
    13
390
F
100
AcDbPolyline
 90
        3
 70
     1
 43
0.0
 10
36.358341
 20
57.622383
 10
38.290192
 20
58.140022
 10
36.358341
 20
58.657661
  0
ENDBLK
  5
668
330
558
100
AcDbEntity
  8
0
100
AcDbBlockEnd
  0
BLOCK
  5
669
330
55B
100
AcDbEntity
  8
0
100
AcDbBlockBegin
  2
BLOCK49
 70
     0
 10
0.0
 20
0.0
 30
0.0
  3
BLOCK49
  1

  0
SOLID
  5
18F
330
55B
100
AcDbEntity
  8
0
 62
     7
370
    13
390
F
100
AcDbTrace
 10
-40.175232
 20
39.06815
 30
0.0
 11
-40.692871
 21
41.0
 31
0.0
 12
-40.175232
 22
39.06815
 32
0.0
 13
-41.21051
 23
39.06815
 33
0.0
  0
SOLID
  5
190
330
55B
100
AcDbEntity
  8
0
 62
     7
370
    13
390
F
100
AcDbTrace
 10
-41.21051
 20
-39.06815
 30
0.0
 11
-40.692871
 21
-41.0
 31
0.0
 12
-41.21051
 22
-39.06815
 32
0.0
 13
-40.175232
 23
-39.06815
 33
0.0
  0
TEXT
  5
191
330
55B
100
AcDbEntity
  8
0
 62
     7
370
    13
390
F
100
AcDbText
 10
-42.692871
 20
-0.902306
 30
0.0
 40
3.0
  1
82
 50
90.0
 41
1.547932292352264
 72
     5
 11
-42.692871
 21
4.902306
 31
0.0
100
AcDbText
  0
TEXT
  5
192
330
55B
100
AcDbEntity
  8
0
 62
     7
370
    13
390
F
100
AcDbText
 10
-42.692871
 20
-4.902306
 30
0.0
 40
3.0
  1
%%c
 50
90.0
 41
1.333333333333333
 72
     5
 11
-42.692871
 21
-1.902306
 31
0.0
100
AcDbText
  0
LINE
  5
193
330
55B
100
AcDbEntity
  8
0
 62
     7
370
    13
390
F
100
AcDbLine
 10
-1.0
 20
-41.0
 30
0.0
 11
-42.692871
 21
-41.0
 31
0.0
  0
LINE
  5
194
330
55B
100
AcDbEntity
  8
0
 62
     7
370
    13
390
F
100
AcDbLine
 10
-1.0
 20
41.0
 30
0.0
 11
-42.692871
 21
41.0
 31
0.0
  0
LINE
  5
195
330
55B
100
AcDbEntity
  8
0
 62
     7
370
    13
390
F
100
AcDbLine
 10
-40.692871
 20
-39.06815
 30
0.0
 11
-40.692871
 21
39.06815
 31
0.0
  0
LWPOLYLINE
  5
196
330
55B
100
AcDbEntity
  8
0
 62
     7
370
    13
390
F
100
AcDbPolyline
 90
        3
 70
     1
 43
0.0
 10
-40.175232
 20
39.06815
 10
-40.692871
 20
41.0
 10
-41.21051
 20
39.06815
  0
LWPOLYLINE
  5
19B
330
55B
100
AcDbEntity
  8
0
 62
     7
370
    13
390
F
100
AcDbPolyline
 90
        3
 70
     1
 43
0.0
 10
-41.21051
 20
-39.06815
 10
-40.692871
 20
-41.0
 10
-40.175232
 20
-39.06815
  0
ENDBLK
  5
66A
330
55B
100
AcDbEntity
  8
0
100
AcDbBlockEnd
  0
BLOCK
  5
66B
330
55E
100
AcDbEntity
  8
0
100
AcDbBlockBegin
  2
BLOCK50
 70
     0
 10
0.0
 20
0.0
 30
0.0
  3
BLOCK50
  1

  0
SOLID
  5
1A2
330
55E
100
AcDbEntity
  8
0
 62
   230
370
    13
390
F
100
AcDbTrace
 10
384.977905
 20
28.068148
 30
0.0
 11
384.460266
 21
30.0
 31
0.0
 12
384.977905
 22
28.068148
 32
0.0
 13
383.942627
 23
28.068148
 33
0.0
  0
SOLID
  5
1A3
330
55E
100
AcDbEntity
  8
0
 62
   230
370
    13
390
F
100
AcDbTrace
 10
383.942627
 20
-28.068148
 30
0.0
 11
384.460266
 21
-30.0
 31
0.0
 12
383.942627
 22
-28.068148
 32
0.0
 13
384.977905
 23
-28.068148
 33
0.0
  0
TEXT
  5
1A4
330
55E
100
AcDbEntity
  8
0
 62
   230
370
    13
390
F
100
AcDbText
 10
382.460266
 20
-0.902306
 30
0.0
 40
3.0
  1
60
 50
90.0
 41
1.546922094218865
 72
     5
 11
382.460266
 21
4.902306
 31
0.0
100
AcDbText
  0
TEXT
  5
1A5
330
55E
100
AcDbEntity
  8
0
 62
   230
370
    13
390
F
100
AcDbText
 10
382.460266
 20
-4.902306
 30
0.0
 40
3.0
  1
%%c
 50
90.0
 41
1.333333333333333
 72
     5
 11
382.460266
 21
-1.902306
 31
0.0
100
AcDbText
  0
LINE
  5
1A6
330
55E
100
AcDbEntity
  8
0
 62
   230
370
    13
390
F
100
AcDbLine
 10
361.0
 20
-30.0
 30
0.0
 11
386.460266
 21
-30.0
 31
0.0
  0
LINE
  5
1A7
330
55E
100
AcDbEntity
  8
0
 62
   230
370
    13
390
F
100
AcDbLine
 10
361.0
 20
30.0
 30
0.0
 11
386.460266
 21
30.0
 31
0.0
  0
LINE
  5
1A8
330
55E
100
AcDbEntity
  8
0
 62
   230
370
    13
390
F
100
AcDbLine
 10
384.460266
 20
-28.068148
 30
0.0
 11
384.460266
 21
28.068148
 31
0.0
  0
LWPOLYLINE
  5
1A9
330
55E
100
AcDbEntity
  8
0
 62
   230
370
    13
390
F
100
AcDbPolyline
 90
        3
 70
     1
 43
0.0
 10
384.977905
 20
28.068148
 10
384.460266
 20
30.0
 10
383.942627
 20
28.068148
  0
LWPOLYLINE
  5
1AE
330
55E
100
AcDbEntity
  8
0
 62
   230
370
    13
390
F
100
AcDbPolyline
 90
        3
 70
     1
 43
0.0
 10
383.942627
 20
-28.068148
 10
384.460266
 20
-30.0
 10
384.977905
 20
-28.068148
  0
ENDBLK
  5
66C
330
55E
100
AcDbEntity
  8
0
100
AcDbBlockEnd
  0
BLOCK
  5
66D
330
561
100
AcDbEntity
  8
0
100
AcDbBlockBegin
  2
BLOCK51
 70
     0
 10
0.0
 20
0.0
 30
0.0
  3
BLOCK51
  1

  0
SOLID
  5
1B5
330
561
100
AcDbEntity
  8
0
 62
     7
370
    13
390
F
100
AcDbTrace
 10
40.06815
 20
79.988106
 30
0.0
 11
42.0
 21
80.505745
 31
0.0
 12
40.06815
 22
79.988106
 32
0.0
 13
40.06815
 23
81.023384
 33
0.0
  0
SOLID
  5
1B6
330
561
100
AcDbEntity
  8
0
 62
     7
370
    13
390
F
100
AcDbTrace
 10
1.931852
 20
81.023384
 30
0.0
 11
0.0
 21
80.505745
 31
0.0
 12
1.931852
 22
81.023384
 32
0.0
 13
1.931852
 23
79.988106
 33
0.0
  0
TEXT
  5
1B7
330
561
100
AcDbEntity
  8
0
 62
     7
370
    13
390
F
100
AcDbText
 10
18.097694
 20
82.505745
 30
0.0
 40
3.0
  1
42
 41
1.433002811839365
 72
     5
 11
23.902306
 21
82.505745
 31
0.0
100
AcDbText
  0
LINE
  5
1B8
330
561
100
AcDbEntity
  8
0
 62
     7
370
    13
390
F
100
AcDbLine
 10
0.0
 20
46.0
 30
0.0
 11
0.0
 21
82.505745
 31
0.0
  0
LINE
  5
1B9
330
561
100
AcDbEntity
  8
0
 62
     7
370
    13
390
F
100
AcDbLine
 10
42.0
 20
46.414032
 30
0.0
 11
42.0
 21
82.505745
 31
0.0
  0
LINE
  5
1BA
330
561
100
AcDbEntity
  8
0
 62
     7
370
    13
390
F
100
AcDbLine
 10
1.931852
 20
80.505745
 30
0.0
 11
40.06815
 21
80.505745
 31
0.0
  0
LWPOLYLINE
  5
1BB
330
561
100
AcDbEntity
  8
0
 62
     7
370
    13
390
F
100
AcDbPolyline
 90
        3
 70
     1
 43
0.0
 10
40.06815
 20
79.988106
 10
42.0
 20
80.505745
 10
40.06815
 20
81.023384
  0
LWPOLYLINE
  5
1C0
330
561
100
AcDbEntity
  8
0
 62
     7
370
    13
390
F
100
AcDbPolyline
 90
        3
 70
     1
 43
0.0
 10
1.931852
 20
81.023384
 10
0.0
 20
80.505745
 10
1.931852
 20
79.988106
  0
ENDBLK
  5
66E
330
561
100
AcDbEntity
  8
0
100
AcDbBlockEnd
  0
BLOCK
  5
66F
330
564
100
AcDbEntity
  8
0
100
AcDbBlockBegin
  2
BLOCK52
 70
     0
 10
0.0
 20
0.0
 30
0.0
  3
BLOCK52
  1

  0
ARC
  5
1C7
330
564
100
AcDbEntity
  8
0
 62
     7
370
    35
390
F
100
AcDbCircle
 10
41.999989
 20
81.85228
 30
0.0
 40
40.991378
100
AcDbArc
 50
265.277263
 51
274.722766
  0
LINE
  5
1C8
330
564
100
AcDbEntity
  8
0
 62
     7
 48
0.1
370
    35
390
F
100
AcDbLine
 10
45.375
 20
44.999996
 30
0.0
 11
45.375
 21
40.999996
 31
0.0
  0
ARC
  5
1C9
330
564
100
AcDbEntity
  8
0
 62
     7
370
    35
390
F
100
AcDbCircle
 10
42.0
 20
89.86338
 30
0.0
 40
44.990082
100
AcDbArc
 50
265.697832
 51
274.30217
  0
LINE
  5
1CA
330
564
100
AcDbEntity
  8
0
 62
     7
 48
0.1
370
    35
390
F
100
AcDbLine
 10
38.625
 20
44.999996
 30
0.0
 11
38.625
 21
40.999996
 31
0.0
  0
LINE
  5
1CB
330
564
100
AcDbEntity
  8
0
 62
     7
370
    35
390
F
100
AcDbLine
 10
45.375
 20
45.0
 30
0.0
 11
176.0
 21
45.0
 31
0.0
  0
LINE
  5
1CC
330
564
100
AcDbEntity
  8
0
 62
     7
370
    35
390
F
100
AcDbLine
 10
0.0
 20
45.0
 30
0.0
 11
38.625
 21
45.0
 31
0.0
  0
LINE
  5
1CD
330
564
100
AcDbEntity
  8
0
 62
     7
370
    35
390
F
100
AcDbLine
 10
45.375
 20
41.0
 30
0.0
 11
176.0
 21
41.0
 31
0.0
  0
LINE
  5
1CE
330
564
100
AcDbEntity
  8
0
 62
     7
370
    35
390
F
100
AcDbLine
 10
0.0
 20
41.0
 30
0.0
 11
38.625
 21
41.0
 31
0.0
  0
LINE
  5
1CF
330
564
100
AcDbEntity
  8
0
 62
     7
370
    35
390
F
100
AcDbLine
 10
0.0
 20
0.0
 30
0.0
 11
0.0
 21
41.0
 31
0.0
  0
LINE
  5
1D0
330
564
100
AcDbEntity
  8
0
 62
     7
 48
0.1
370
    35
390
F
100
AcDbLine
 10
176.0
 20
41.0
 30
0.0
 11
176.0
 21
45.0
 31
0.0
  0
LINE
  5
1D1
330
564
100
AcDbEntity
  8
0
 62
     7
 48
0.1
370
    35
390
F
100
AcDbLine
 10
176.0
 20
-45.0
 30
0.0
 11
176.0
 21
-41.0
 31
0.0
  0
LINE
  5
1D2
330
564
100
AcDbEntity
  8
0
 62
     7
370
    35
390
F
100
AcDbLine
 10
0.0
 20
-45.0
 30
0.0
 11
176.0
 21
-45.0
 31
0.0
  0
SPLINE
  5
1D3
330
564
100
AcDbEntity
  8
0
 62
     7
370
    35
390
F
100
AcDbSpline
210
0.0
220
0.0
230
1.0
 70
     8
 71
     3
 72
    58
 73
    54
 74
     0
 42
0.0
 43
0.0
 40
0.0
 40
0.0
 40
0.0
 40
0.0
 40
0.1477114563200071
 40
0.2960242791414655
 40
0.4448780865284509
 40
0.5942320161715698
 40
0.744071336281047
 40
0.8944063318052343
 40
1.045250632248956
 40
1.196611227665869
 40
1.34849237699639
 40
1.500899079029019
 40
1.653839523783238
 40
1.807326621264157
 40
1.961378692580521
 40
2.116019399418185
 40
2.271276982362697
 40
2.427182876495881
 40
2.583769773557903
 40
2.741069202990826
 40
2.89910870844396
 40
3.057908700897554
 40
3.217479073643618
 40
3.377815667379729
 40
3.53889667538015
 40
3.700679079242422
 40
3.863095205600905
 40
4.026049494368744
 40
4.18941557080101
 40
4.353033718606364
 40
4.516708861511115
 40
4.680209178648453
 40
4.843289633410539
 40
5.005806845655142
 40
5.167665352998561
 40
5.32878185326405
 40
5.489083489475033
 40
5.648506384839159
 40
5.806994438274732
 40
5.964498402951696
 40
6.120975264885797
 40
6.276387933181153
 40
6.430705248154184
 40
6.583902308343274
 40
6.73596111230799
 40
6.886871506079006
 40
7.036632421993611
 40
7.185253389238025
 40
7.332756290462653
 40
7.479177332067803
 40
7.624569187923534
 40
7.769003267228666
 40
7.912572046934838
 40
7.912572046934838
 40
7.912572046934838
 40
7.912572046934838
 10
45.17090268168727
 20
-21.4911751080752
 30
0.0
 10
45.15209624263511
 20
-21.44565855984933
 30
0.0
 10
45.11199120676692
 20
-21.35546053906297
 30
0.0
 10
45.04465679839825
 20
-21.22325592655646
 30
0.0
 10
44.97022852058426
 20
-21.0942845971608
 30
0.0
 10
44.88894828570351
 20
-20.96891152508636
 30
0.0
 10
44.80110130688601
 20
-20.84744257031295
 30
0.0
 10
44.70702793532799
 20
-20.73009593939487
 30
0.0
 10
44.60706127187598
 20
-20.61705307575017
 30
0.0
 10
44.50150245576408
 20
-20.50849627767494
 30
0.0
 10
44.39063373909487
 20
-20.40460741735861
 30
0.0
 10
44.27471987139205
 20
-20.30556849181467
 30
0.0
 10
44.15401163571553
 20
-20.21156033577665
 30
0.0
 10
44.0287487407593
 20
-20.12276178203321
 30
0.0
 10
43.899162866091
 20
-20.03934870178866
 30
0.0
 10
43.76548064846486
 20
-19.96149307753182
 30
0.0
 10
43.62792666715757
 20
-19.88936206781621
 30
0.0
 10
43.48672641259913
 20
-19.82311707651539
 30
0.0
 10
43.34210924223316
 20
-19.76291282596924
 30
0.0
 10
43.19431132267057
 20
-19.70889643791337
 30
0.0
 10
43.04357855934602
 20
-19.6612065253979
 30
0.0
 10
42.89016951530127
 20
-19.61997229907839
 30
0.0
 10
42.73435832152786
 20
-19.58531269074452
 30
0.0
 10
42.57643758162334
 20
-19.55733549601322
 30
0.0
 10
42.41672127372821
 20
-19.53613653778497
 30
0.0
 10
42.25554765147726
 20
-19.52179884880459
 30
0.0
 10
42.09328214772244
 20
-19.51439187977185
 30
0.0
 10
41.93032027259105
 20
-19.51397070604087
 30
0.0
 10
41.76709053696161
 20
-19.52057533015722
 30
0.0
 10
41.60405727696502
 20
-19.53422971332492
 30
0.0
 10
41.44172382875774
 20
-19.55494190991877
 30
0.0
 10
41.28062642363837
 20
-19.58270154857772
 30
0.0
 10
41.12129619214193
 20
-19.61750282795354
 30
0.0
 10
40.96420445027285
 20
-19.65923084538468
 30
0.0
 10
40.80975872723184
 20
-19.7077407468108
 30
0.0
 10
40.65833624857032
 20
-19.76287132510143
 30
0.0
 10
40.51029450300666
 20
-19.82444082399466
 30
0.0
 10
40.36597219895425
 20
-19.89224982475967
 30
0.0
 10
40.22568984614337
 20
-19.96608290470367
 30
0.0
 10
40.08975044487665
 20
-20.04571063278895
 30
0.0
 10
39.95844015609747
 20
-20.13089147978204
 30
0.0
 10
39.8320289858359
 20
-20.22137374976208
 30
0.0
 10
39.71077147480545
 20
-20.31689749912816
 30
0.0
 10
39.59490739498256
 20
-20.41719644725196
 30
0.0
 10
39.48466245262169
 20
-20.52199987148493
 30
0.0
 10
39.38024899534699
 20
-20.6310344881051
 30
0.0
 10
39.28186673015418
 20
-20.7440262975432
 30
0.0
 10
39.18970342411468
 20
-20.86070245582135
 30
0.0
 10
39.10393568828283
 20
-20.98079292631189
 30
0.0
 10
39.02472946885985
 20
-21.10403280155379
 30
0.0
 10
38.95224162593347
 20
-21.23016199326639
 30
0.0
 10
38.88661749155564
 20
-21.35893446704296
 30
0.0
 10
38.8474341265629
 20
-21.44661274064833
 30
0.0
 10
38.82904521453595
 20
-21.49080648879385
 30
0.0
  0
LINE
  5
1D4
330
564
100
AcDbEntity
  8
0
 62
     7
 48
0.1
370
    35
390
F
100
AcDbLine
 10
0.0
 20
41.0
 30
0.0
 11
0.0
 21
45.0
 31
0.0
  0
LINE
  5
1D5
330
564
100
AcDbEntity
  8
0
 62
     7
370
    35
390
F
100
AcDbLine
 10
0.0
 20
-41.0
 30
0.0
 11
0.0
 21
0.0
 31
0.0
  0
LINE
  5
1D6
330
564
100
AcDbEntity
  8
0
 62
     7
 48
0.1
370
    35
390
F
100
AcDbLine
 10
0.0
 20
-45.0
 30
0.0
 11
0.0
 21
-41.0
 31
0.0
  0
LINE
  5
1D7
330
564
100
AcDbEntity
  8
0
 62
     7
370
    35
390
F
100
AcDbLine
 10
0.0
 20
-41.0
 30
0.0
 11
176.0
 21
-41.0
 31
0.0
  0
SPLINE
  5
1D8
330
564
100
AcDbEntity
  8
0
 62
     7
370
    35
390
F
100
AcDbSpline
210
0.0
220
0.0
230
1.0
 70
     8
 71
     3
 72
    74
 73
    70
 74
     0
 42
0.0
 43
0.0
 40
0.0
 40
0.0
 40
0.0
 40
0.0
 40
0.1357852472555132
 40
0.2719584117066781
 40
0.4089121712454878
 40
0.5468313425920883
 40
0.6857126528467601
 40
0.8253988025634024
 40
0.9656253629092773
 40
1.106077553319123
 40
1.246453707787383
 40
1.386532536434322
 40
1.526241636777724
 40
1.665724880136064
 40
1.805406307561328
 40
1.946048270553247
 40
2.088510920247362
 40
2.232638431441625
 40
2.378047389262724
 40
2.524475175274036
 40
2.671762860162739
 40
2.819836888085831
 40
2.968690210060767
 40
3.118363422617019
 40
3.268926422500912
 40
3.42046103429706
 40
3.573044997519611
 40
3.726737618546043
 40
3.881567315561016
 40
4.037521230940329
 40
4.194537075305043
 40
4.352497419260988
 40
4.511226779772939
 40
4.670501312068851
 40
4.830110239542234
 40
4.98986026189767
 40
5.149566698489626
 40
5.309054982317337
 40
5.468161916319608
 40
5.626736711717121
 40
5.784641837638878
 40
5.941753704615609
 40
6.097963199050704
 40
6.253176081294838
 40
6.407313256305436
 40
6.56031092296204
 40
6.712120605862956
 40
6.862709071809098
 40
7.012058132169367
 40
7.160164331918713
 40
7.307038526350055
 40
7.452705347287803
 40
7.597202562065633
 40
7.740580330541914
 40
7.882900367950398
 40
8.024235024319463
 40
8.164666294397824
 40
8.304284775315859
 40
8.443188592375892
 40
8.581482316172654
 40
8.71927589646696
 40
8.856683639666821
 40
8.993823257252792
 40
9.130815011917935
 40
9.267780986556954
 40
9.404844498582472
 40
9.542129678490182
 40
9.679761227308191
 40
9.817864362753475
 40
9.817864362753475
 40
9.817864362753475
 40
9.817864362753475
 10
38.62499999999999
 20
-20.50000000001697
 30
0.0
 10
38.62499872223185
 20
-20.54527210818057
 30
0.0
 10
38.62721315268571
 20
-20.6359295115011
 30
0.0
 10
38.63786798803826
 20
-20.77188980271785
 30
0.0
 10
38.65623961383427
 20
-20.90774122675868
 30
0.0
 10
38.68247641510669
 20
-21.04321655798292
 30
0.0
 10
38.71653793737101
 20
-21.17787695140924
 30
0.0
 10
38.75824057129956
 20
-21.31117394503928
 30
0.0
 10
38.80730154598933
 20
-21.44249812501702
 30
0.0
 10
38.8633819657286
 20
-21.5712302512574
 30
0.0
 10
38.92612933919593
 20
-21.6967910793892
 30
0.0
 10
38.99521998754897
 20
-21.81869086665239
 30
0.0
 10
39.07040112151804
 20
-21.93657845441924
 30
0.0
 10
39.15153324994954
 20
-22.05028912133432
 30
0.0
 10
39.2386293889007
 20
-22.15989534444265
 30
0.0
 10
39.33183883249855
 20
-22.26567464734558
 30
0.0
 10
39.43110295992665
 20
-22.36786475389354
 30
0.0
 10
39.53623492935619
 20
-22.46634485918658
 30
0.0
 10
39.64683505928477
 20
-22.56068977772073
 30
0.0
 10
39.7624826751393
 20
-22.65050148328089
 30
0.0
 10
39.88281969311601
 20
-22.73547358273458
 30
0.0
 10
40.00753862050311
 20
-22.81538013041863
 30
0.0
 10
40.13637353765917
 20
-22.89006155288067
 30
0.0
 10
40.26909028405482
 20
-22.95941151451576
 30
0.0
 10
40.40547687444671
 20
-23.02336364422951
 30
0.0
 10
40.54533384288879
 20
-23.08187837624254
 30
0.0
 10
40.68846456284331
 20
-23.13492982347656
 30
0.0
 10
40.83466550386122
 20
-23.18249268024068
 30
0.0
 10
40.98371642778278
 20
-23.2245292553919
 30
0.0
 10
41.13537053830684
 20
-23.26097627824173
 30
0.0
 10
41.28934462364131
 20
-23.29173285940135
 30
0.0
 10
41.44530922614675
 20
-23.31664436640066
 30
0.0
 10
41.60288202266189
 20
-23.33550219257652
 30
0.0
 10
41.7616401204328
 20
-23.34798575228773
 30
0.0
 10
41.92111006560419
 20
-23.35409053819387
 30
0.0
 10
42.08083981448777
 20
-23.35387099742306
 30
0.0
 10
42.24039679128727
 20
-23.34737570787741
 30
0.0
 10
42.39936378450851
 20
-23.33466391347942
 30
0.0
 10
42.55733872645845
 20
-23.31580090528238
 30
0.0
 10
42.71393438270835
 20
-23.29085917416391
 30
0.0
 10
42.86877806212374
 20
-23.25991803770876
 30
0.0
 10
43.02151131690621
 20
-23.22306369523302
 30
0.0
 10
43.17178964149981
 20
-23.18038918803531
 30
0.0
 10
43.31928216872542
 20
-23.13199440357833
 30
0.0
 10
43.46367136434942
 20
-23.07798608545182
 30
0.0
 10
43.60465272058632
 20
-23.01847785784544
 30
0.0
 10
43.74193444927948
 20
-22.9535902605516
 30
0.0
 10
43.87523717549197
 20
-22.8834507936647
 30
0.0
 10
44.00429363228092
 20
-22.80819397007077
 30
0.0
 10
44.12884835742474
 20
-22.72796137385541
 30
0.0
 10
44.24865739282992
 20
-22.6429017224889
 30
0.0
 10
44.36348798724548
 20
-22.55317093046128
 30
0.0
 10
44.47311830274604
 20
-22.45893217185322
 30
0.0
 10
44.57733712520707
 20
-22.36035593919162
 30
0.0
 10
44.67594357869014
 20
-22.25762009587161
 30
0.0
 10
44.768746843302
 20
-22.15090991945714
 30
0.0
 10
44.85556587571276
 20
-22.04041813333327
 30
0.0
 10
44.93622913116052
 20
-21.92634492443488
 30
0.0
 10
45.010574285472
 20
-21.80889794532405
 30
0.0
 10
45.07844795544192
 20
-21.68829229892023
 30
0.0
 10
45.13970541586745
 20
-21.5647505066047
 30
0.0
 10
45.19421031166866
 20
-21.43850245425434
 30
0.0
 10
45.24183436376906
 20
-21.30978533648033
 30
0.0
 10
45.2824570680018
 20
-21.17884352622488
 30
0.0
 10
45.31596538622377
 20
-21.04592864568825
 30
0.0
 10
45.34225343164594
 20
-20.91129881506215
 30
0.0
 10
45.36122214247695
 20
-20.77522090851796
 30
0.0
 10
45.37277897004174
 20
-20.63796150042096
 30
0.0
 10
45.37547920974636
 20
-20.54605241525473
 30
0.0
 10
45.37557414893409
 20
-20.5000064929799
 30
0.0
  0
SPLINE
  5
1D9
330
564
100
AcDbEntity
  8
0
 62
     7
370
    35
390
F
100
AcDbSpline
210
0.0
220
0.0
230
1.0
 70
     8
 71
     3
 72
    74
 73
    70
 74
     0
 42
0.0
 43
0.0
 40
0.0
 40
0.0
 40
0.0
 40
0.0
 40
0.1387817426917558
 40
0.2783786168687786
 40
0.4187210803760438
 40
0.5597550105085041
 40
0.7014376726102193
 40
0.8437344705207972
 40
0.9866165225543216
 40
1.130059079795211
 40
1.274040779304713
 40
1.418543704299394
 40
1.563554206962503
 40
1.709064437266914
 40
1.855074512588163
 40
2.00159525724038
 40
2.148651437480988
 40
2.296285415095283
 40
2.444561140543411
 40
2.593565290964848
 40
2.743382815460977
 40
2.894074836621435
 40
3.045678877446646
 40
3.198211070904164
 40
3.351668456348112
 40
3.506031291784701
 40
3.661265318501415
 40
3.817323921934177
 40
3.974150139432597
 40
4.131678471658068
 40
4.289836459756249
 40
4.448545995345041
 40
4.607724334976041
 40
4.767284795302791
 40
4.927137109951086
 40
5.087187434217538
 40
5.247337989345182
 40
5.407486344281647
 40
5.567524339475193
 40
5.72733666428006
 40
5.886799106719662
 40
6.045776501430554
 40
6.204120408281661
 40
6.361666560131764
 40
6.518232123189184
 40
6.673616176181183
 40
6.827743689464565
 40
6.980722340126494
 40
7.132650583617933
 40
7.283602706981094
 40
7.433629923355658
 40
7.582762364246647
 40
7.731011902875422
 40
7.878375720483168
 40
8.02484051386357
 40
8.170387234298238
 40
8.314996242802719
 40
8.458652761585201
 40
8.601352494640857
 40
8.743107279814154
 40
8.883950619656027
 40
9.023942919321343
 40
9.163176238414138
 40
9.301778343719441
 40
9.439915836753233
 40
9.577796131307583
 40
9.715668079728744
 40
9.853821099568462
 40
9.99258273797622
 40
9.99258273797622
 40
9.99258273797622
 40
9.99258273797622
 10
45.37557414893409
 20
-20.50000649297992
 30
0.0
 10
45.37560091447376
 20
-20.45373393863512
 30
0.0
 10
45.37306203579992
 20
-20.36093700063251
 30
0.0
 10
45.36154244613927
 20
-20.22176531343557
 30
0.0
 10
45.34232426600867
 20
-20.08269405688773
 30
0.0
 10
45.31547341094559
 20
-19.94418451835844
 30
0.0
 10
45.28109234307405
 20
-19.80667970186154
 30
0.0
 10
45.23931539192077
 20
-19.67059540750714
 30
0.0
 10
45.19030406286847
 20
-19.53632311747751
 30
0.0
 10
45.13424235708437
 20
-19.40422974214841
 30
0.0
 10
45.07133210429195
 20
-19.27465826140824
 30
0.0
 10
45.00178831323481
 20
-19.14792817084871
 30
0.0
 10
44.92583454129174
 20
-19.02433602383041
 30
0.0
 10
44.8436982832366
 20
-18.90415598794531
 30
0.0
 10
44.75560637908096
 20
-18.78764043365686
 30
0.0
 10
44.66178043633436
 20
-18.67502055183444
 30
0.0
 10
44.56243227748408
 20
-18.56650698346627
 30
0.0
 10
44.45775936560317
 20
-18.46229052192066
 30
0.0
 10
44.34794114836116
 20
-18.36254334986678
 30
0.0
 10
44.23314252016679
 20
-18.26742690192519
 30
0.0
 10
44.11353010095345
 20
-18.17709772487621
 30
0.0
 10
43.9892860499558
 20
-18.0917145913001
 30
0.0
 10
43.8606126862655
 20
-18.01144304517525
 30
0.0
 10
43.72773221863245
 20
-17.93645343119038
 30
0.0
 10
43.59088577593131
 20
-17.86691876672514
 30
0.0
 10
43.45033250342324
 20
-17.80301250989745
 30
0.0
 10
43.30634864069962
 20
-17.74490631973952
 30
0.0
 10
43.15922660173455
 20
-17.69276778876896
 30
0.0
 10
43.0092740500683
 20
-17.64675815950445
 30
0.0
 10
42.85681297011345
 20
-17.60703002786022
 30
0.0
 10
42.70217873372364
 20
-17.57372503850814
 30
0.0
 10
42.5457191617698
 20
-17.54697157659916
 30
0.0
 10
42.38779358028401
 20
-17.52688246040715
 30
0.0
 10
42.2287718706954
 20
-17.51355263950788
 30
0.0
 10
42.06903351361738
 20
-17.50705690330952
 30
0.0
 10
41.90896662560638
 20
-17.5074476049199
 30
0.0
 10
41.74896698848363
 20
-17.51475240581954
 30
0.0
 10
41.58943707056841
 20
-17.528972046173
 30
0.0
 10
41.43078504092061
 20
-17.55007814897052
 30
0.0
 10
41.27342377243052
 20
-17.5780110542362
 30
0.0
 10
41.11776985078442
 20
-17.61267772398601
 30
0.0
 10
40.9642425292333
 20
-17.65394959225906
 30
0.0
 10
40.81326285733277
 20
-17.70166085086125
 30
0.0
 10
40.66525214337423
 20
-17.75560537093534
 30
0.0
 10
40.52063183575716
 20
-17.81553937328178
 30
0.0
 10
40.37977004196313
 20
-17.88118569726733
 30
0.0
 10
40.24295290670873
 20
-17.95233773490238
 30
0.0
 10
40.11040403931256
 20
-18.02887967204292
 30
0.0
 10
39.98228400071608
 20
-18.11067411371647
 30
0.0
 10
39.85876114542279
 20
-18.1975599252997
 30
0.0
 10
39.7400117083397
 20
-18.28934789420131
 30
0.0
 10
39.62621872407426
 20
-18.38582605859729
 30
0.0
 10
39.51757008799966
 20
-18.48676305139968
 30
0.0
 10
39.41425685230559
 20
-18.59191192730127
 30
0.0
 10
39.31647146016214
 20
-18.70101381407919
 30
0.0
 10
39.22440599300804
 20
-18.81380155930365
 30
0.0
 10
39.13825040941901
 20
-18.93000332227921
 30
0.0
 10
39.05819078060899
 20
-19.04934611818136
 30
0.0
 10
38.98440752005442
 20
-19.17155930423743
 30
0.0
 10
38.91707360470115
 20
-19.29637800145521
 30
0.0
 10
38.856352781734
 20
-19.42354644254339
 30
0.0
 10
38.80239775124672
 20
-19.55282124547853
 30
0.0
 10
38.75534831128421
 20
-19.68397459106646
 30
0.0
 10
38.71532944900911
 20
-19.8167973823426
 30
0.0
 10
38.68244936193448
 20
-19.95110212903711
 30
0.0
 10
38.65679739760436
 20
-20.08672658668154
 30
0.0
 10
38.63844191206375
 20
-20.22353444272718
 30
0.0
 10
38.62742805945903
 20
-20.36142704328197
 30
0.0
 10
38.62500051019047
 20
-20.45373505392926
 30
0.0
 10
38.62499999999996
 20
-20.50000000001707
 30
0.0
  0
LINE
  5
1DA
330
564
100
AcDbEntity
  8
0
 62
     7
 48
0.1
370
    35
390
F
100
AcDbLine
 10
176.0
 20
28.0
 30
0.0
 11
180.0
 21
28.0
 31
0.0
  0
LINE
  5
1DB
330
564
100
AcDbEntity
  8
0
 62
     7
370
    35
390
F
100
AcDbLine
 10
176.0
 20
0.0
 30
0.0
 11
176.0
 21
28.0
 31
0.0
  0
LINE
  5
1DC
330
564
100
AcDbEntity
  8
0
 62
     7
370
    35
390
F
100
AcDbLine
 10
180.0
 20
0.0
 30
0.0
 11
180.0
 21
28.0
 31
0.0
  0
LINE
  5
1DD
330
564
100
AcDbEntity
  8
0
 62
     7
 48
0.425
370
    35
390
F
100
AcDbLine
 10
180.0
 20
28.0
 30
0.0
 11
180.0
 21
45.0
 31
0.0
  0
LINE
  5
1DE
330
564
100
AcDbEntity
  8
0
 62
     7
370
    35
390
F
100
AcDbLine
 10
180.0
 20
-28.0
 30
0.0
 11
180.0
 21
0.0
 31
0.0
  0
LINE
  5
1DF
330
564
100
AcDbEntity
  8
0
 62
     7
 48
0.425
370
    35
390
F
100
AcDbLine
 10
180.0
 20
-45.0
 30
0.0
 11
180.0
 21
-28.0
 31
0.0
  0
LINE
  5
1E0
330
564
100
AcDbEntity
  8
0
 62
     7
 48
0.1
370
    35
390
F
100
AcDbLine
 10
176.0
 20
-28.0
 30
0.0
 11
180.0
 21
-28.0
 31
0.0
  0
LINE
  5
1E1
330
564
100
AcDbEntity
  8
0
 62
     7
370
    35
390
F
100
AcDbLine
 10
176.0
 20
-28.0
 30
0.0
 11
176.0
 21
0.0
 31
0.0
  0
LINE
  5
1E2
330
564
100
AcDbEntity
  8
0
 62
     7
 48
0.425
370
    35
390
F
100
AcDbLine
 10
176.0
 20
28.0
 30
0.0
 11
176.0
 21
45.0
 31
0.0
  0
LINE
  5
1E3
330
564
100
AcDbEntity
  8
0
 62
     7
 48
0.425
370
    35
390
F
100
AcDbLine
 10
176.0
 20
-45.0
 30
0.0
 11
176.0
 21
-28.0
 31
0.0
  0
LINE
  5
1E4
330
564
100
AcDbEntity
  8
0
 62
     7
 48
0.1
370
    35
390
F
100
AcDbLine
 10
176.0
 20
-45.0
 30
0.0
 11
180.0
 21
-45.0
 31
0.0
  0
LINE
  5
1E5
330
564
100
AcDbEntity
  8
0
 62
     7
 48
0.1
370
    35
390
F
100
AcDbLine
 10
176.0
 20
45.0
 30
0.0
 11
180.0
 21
45.0
 31
0.0
  0
LINE
  5
1E6
330
564
100
AcDbEntity
  8
0
 62
     7
370
    35
390
F
100
AcDbLine
 10
180.0
 20
30.0
 30
0.0
 11
360.0
 21
30.0
 31
0.0
  0
LINE
  5
1E7
330
564
100
AcDbEntity
  8
0
 62
     7
 48
0.05
370
    35
390
F
100
AcDbLine
 10
360.0
 20
28.0
 30
0.0
 11
360.0
 21
30.0
 31
0.0
  0
LINE
  5
1E8
330
564
100
AcDbEntity
  8
0
 62
     7
370
    35
390
F
100
AcDbLine
 10
360.0
 20
0.0
 30
0.0
 11
360.0
 21
28.0
 31
0.0
  0
LINE
  5
1E9
330
564
100
AcDbEntity
  8
0
 62
     7
370
    35
390
F
100
AcDbLine
 10
360.0
 20
-28.0
 30
0.0
 11
360.0
 21
0.0
 31
0.0
  0
LINE
  5
1EA
330
564
100
AcDbEntity
  8
0
 62
     7
 48
0.05
370
    35
390
F
100
AcDbLine
 10
360.0
 20
-30.0
 30
0.0
 11
360.0
 21
-28.0
 31
0.0
  0
LINE
  5
1EB
330
564
100
AcDbEntity
  8
0
 62
     7
370
    35
390
F
100
AcDbLine
 10
180.0
 20
-30.0
 30
0.0
 11
360.0
 21
-30.0
 31
0.0
  0
LINE
  5
1EC
330
564
100
AcDbEntity
  8
0
 62
     7
 48
0.05
370
    35
390
F
100
AcDbLine
 10
180.0
 20
28.0
 30
0.0
 11
180.0
 21
30.0
 31
0.0
  0
LINE
  5
1ED
330
564
100
AcDbEntity
  8
0
 62
     7
370
    35
390
F
100
AcDbLine
 10
180.0
 20
0.0
 30
0.0
 11
180.0
 21
28.0
 31
0.0
  0
LINE
  5
1EE
330
564
100
AcDbEntity
  8
0
 62
     7
370
    35
390
F
100
AcDbLine
 10
180.0
 20
-28.0
 30
0.0
 11
180.0
 21
0.0
 31
0.0
  0
LINE
  5
1EF
330
564
100
AcDbEntity
  8
0
 62
     7
 48
0.05
370
    35
390
F
100
AcDbLine
 10
180.0
 20
-30.0
 30
0.0
 11
180.0
 21
-28.0
 31
0.0
  0
LINE
  5
1F0
330
564
100
AcDbEntity
  8
0
 62
     7
370
    35
390
F
100
AcDbLine
 10
180.0
 20
28.0
 30
0.0
 11
360.0
 21
28.0
 31
0.0
  0
LINE
  5
1F1
330
564
100
AcDbEntity
  8
0
 62
     7
370
    35
390
F
100
AcDbLine
 10
180.0
 20
-28.0
 30
0.0
 11
360.0
 21
-28.0
 31
0.0
  0
ENDBLK
  5
670
330
564
100
AcDbEntity
  8
0
100
AcDbBlockEnd
  0
BLOCK
  5
671
330
567
100
AcDbEntity
  8
0
100
AcDbBlockBegin
  2
BLOCK53
 70
     0
 10
0.0
 20
0.0
 30
0.0
  3
BLOCK53
  1

  0
LINE
  5
1F4
330
567
100
AcDbEntity
  8
0
 62
     7
 48
0.044406
370
    13
390
F
100
AcDbLine
 10
359.111877
 20
-30.0
 30
0.0
 11
360.0
 21
-28.46171
 31
0.0
  0
LINE
  5
1F5
330
567
100
AcDbEntity
  8
0
 62
     7
 48
0.057735
370
    13
390
F
100
AcDbLine
 10
356.80246
 20
-30.0
 30
0.0
 11
357.957153
 21
-28.0
 31
0.0
  0
LINE
  5
1F6
330
567
100
AcDbEntity
  8
0
 62
     7
 48
0.057735
370
    13
390
F
100
AcDbLine
 10
354.493073
 20
-30.0
 30
0.0
 11
355.647766
 21
-28.0
 31
0.0
  0
LINE
  5
1F7
330
567
100
AcDbEntity
  8
0
 62
     7
 48
0.057735
370
    13
390
F
100
AcDbLine
 10
352.183655
 20
-30.0
 30
0.0
 11
353.338379
 21
-28.0
 31
0.0
  0
LINE
  5
1F8
330
567
100
AcDbEntity
  8
0
 62
     7
 48
0.057735
370
    13
390
F
100
AcDbLine
 10
349.874268
 20
-30.0
 30
0.0
 11
351.028961
 21
-28.0
 31
0.0
  0
LINE
  5
1F9
330
567
100
AcDbEntity
  8
0
 62
     7
 48
0.057735
370
    13
390
F
100
AcDbLine
 10
347.56485
 20
-30.0
 30
0.0
 11
348.719574
 21
-28.0
 31
0.0
  0
LINE
  5
1FA
330
567
100
AcDbEntity
  8
0
 62
     7
 48
0.057735
370
    13
390
F
100
AcDbLine
 10
345.255463
 20
-30.0
 30
0.0
 11
346.410156
 21
-28.0
 31
0.0
  0
LINE
  5
1FB
330
567
100
AcDbEntity
  8
0
 62
     7
 48
0.057735
370
    13
390
F
100
AcDbLine
 10
342.946045
 20
-30.0
 30
0.0
 11
344.100769
 21
-28.0
 31
0.0
  0
LINE
  5
1FC
330
567
100
AcDbEntity
  8
0
 62
     7
 48
0.057735
370
    13
390
F
100
AcDbLine
 10
340.636658
 20
-30.0
 30
0.0
 11
341.791351
 21
-28.0
 31
0.0
  0
LINE
  5
1FD
330
567
100
AcDbEntity
  8
0
 62
     7
 48
0.057735
370
    13
390
F
100
AcDbLine
 10
338.327271
 20
-30.0
 30
0.0
 11
339.481964
 21
-28.0
 31
0.0
  0
LINE
  5
1FE
330
567
100
AcDbEntity
  8
0
 62
     7
 48
0.057735
370
    13
390
F
100
AcDbLine
 10
336.017853
 20
-30.0
 30
0.0
 11
337.172546
 21
-28.0
 31
0.0
  0
LINE
  5
1FF
330
567
100
AcDbEntity
  8
0
 62
     7
 48
0.057735
370
    13
390
F
100
AcDbLine
 10
333.708466
 20
-30.0
 30
0.0
 11
334.863159
 21
-28.0
 31
0.0
  0
LINE
  5
200
330
567
100
AcDbEntity
  8
0
 62
     7
 48
0.057735
370
    13
390
F
100
AcDbLine
 10
331.399048
 20
-30.0
 30
0.0
 11
332.553741
 21
-28.0
 31
0.0
  0
LINE
  5
201
330
567
100
AcDbEntity
  8
0
 62
     7
 48
0.057735
370
    13
390
F
100
AcDbLine
 10
329.089661
 20
-30.0
 30
0.0
 11
330.244354
 21
-28.0
 31
0.0
  0
LINE
  5
202
330
567
100
AcDbEntity
  8
0
 62
     7
 48
0.057735
370
    13
390
F
100
AcDbLine
 10
326.780243
 20
-30.0
 30
0.0
 11
327.934967
 21
-28.0
 31
0.0
  0
LINE
  5
203
330
567
100
AcDbEntity
  8
0
 62
     7
 48
0.057735
370
    13
390
F
100
AcDbLine
 10
324.470856
 20
-30.0
 30
0.0
 11
325.625549
 21
-28.0
 31
0.0
  0
LINE
  5
204
330
567
100
AcDbEntity
  8
0
 62
     7
 48
0.057735
370
    13
390
F
100
AcDbLine
 10
322.161438
 20
-30.0
 30
0.0
 11
323.316162
 21
-28.0
 31
0.0
  0
LINE
  5
205
330
567
100
AcDbEntity
  8
0
 62
     7
 48
0.057735
370
    13
390
F
100
AcDbLine
 10
319.852051
 20
-30.0
 30
0.0
 11
321.006744
 21
-28.0
 31
0.0
  0
LINE
  5
206
330
567
100
AcDbEntity
  8
0
 62
     7
 48
0.057735
370
    13
390
F
100
AcDbLine
 10
317.542633
 20
-30.0
 30
0.0
 11
318.697357
 21
-28.0
 31
0.0
  0
LINE
  5
207
330
567
100
AcDbEntity
  8
0
 62
     7
 48
0.057735
370
    13
390
F
100
AcDbLine
 10
315.233246
 20
-30.0
 30
0.0
 11
316.387939
 21
-28.0
 31
0.0
  0
LINE
  5
208
330
567
100
AcDbEntity
  8
0
 62
     7
 48
0.057735
370
    13
390
F
100
AcDbLine
 10
312.923859
 20
-30.0
 30
0.0
 11
314.078552
 21
-28.0
 31
0.0
  0
LINE
  5
209
330
567
100
AcDbEntity
  8
0
 62
     7
 48
0.057735
370
    13
390
F
100
AcDbLine
 10
310.614441
 20
-30.0
 30
0.0
 11
311.769135
 21
-28.0
 31
0.0
  0
LINE
  5
20A
330
567
100
AcDbEntity
  8
0
 62
     7
 48
0.057735
370
    13
390
F
100
AcDbLine
 10
308.305054
 20
-30.0
 30
0.0
 11
309.459747
 21
-28.0
 31
0.0
  0
LINE
  5
20B
330
567
100
AcDbEntity
  8
0
 62
     7
 48
0.057735
370
    13
390
F
100
AcDbLine
 10
305.995636
 20
-30.0
 30
0.0
 11
307.15033
 21
-28.0
 31
0.0
  0
LINE
  5
20C
330
567
100
AcDbEntity
  8
0
 62
     7
 48
0.057735
370
    13
390
F
100
AcDbLine
 10
303.686249
 20
-30.0
 30
0.0
 11
304.840942
 21
-28.0
 31
0.0
  0
LINE
  5
20D
330
567
100
AcDbEntity
  8
0
 62
     7
 48
0.057735
370
    13
390
F
100
AcDbLine
 10
301.376831
 20
-30.0
 30
0.0
 11
302.531555
 21
-28.0
 31
0.0
  0
LINE
  5
20E
330
567
100
AcDbEntity
  8
0
 62
     7
 48
0.057735
370
    13
390
F
100
AcDbLine
 10
299.067444
 20
-30.0
 30
0.0
 11
300.222137
 21
-28.0
 31
0.0
  0
LINE
  5
20F
330
567
100
AcDbEntity
  8
0
 62
     7
 48
0.057735
370
    13
390
F
100
AcDbLine
 10
296.758026
 20
-30.0
 30
0.0
 11
297.91275
 21
-28.0
 31
0.0
  0
LINE
  5
210
330
567
100
AcDbEntity
  8
0
 62
     7
 48
0.057735
370
    13
390
F
100
AcDbLine
 10
294.448639
 20
-30.0
 30
0.0
 11
295.603333
 21
-28.0
 31
0.0
  0
LINE
  5
211
330
567
100
AcDbEntity
  8
0
 62
     7
 48
0.057735
370
    13
390
F
100
AcDbLine
 10
292.139221
 20
-30.0
 30
0.0
 11
293.293945
 21
-28.0
 31
0.0
  0
LINE
  5
212
330
567
100
AcDbEntity
  8
0
 62
     7
 48
0.057735
370
    13
390
F
100
AcDbLine
 10
289.829834
 20
-30.0
 30
0.0
 11
290.984528
 21
-28.0
 31
0.0
  0
LINE
  5
213
330
567
100
AcDbEntity
  8
0
 62
     7
 48
0.057735
370
    13
390
F
100
AcDbLine
 10
287.520447
 20
-30.0
 30
0.0
 11
288.67514
 21
-28.0
 31
0.0
  0
LINE
  5
214
330
567
100
AcDbEntity
  8
0
 62
     7
 48
0.057735
370
    13
390
F
100
AcDbLine
 10
285.211029
 20
-30.0
 30
0.0
 11
286.365723
 21
-28.0
 31
0.0
  0
LINE
  5
215
330
567
100
AcDbEntity
  8
0
 62
     7
 48
0.057735
370
    13
390
F
100
AcDbLine
 10
282.901642
 20
-30.0
 30
0.0
 11
284.056335
 21
-28.0
 31
0.0
  0
LINE
  5
216
330
567
100
AcDbEntity
  8
0
 62
     7
 48
0.057735
370
    13
390
F
100
AcDbLine
 10
280.592224
 20
-30.0
 30
0.0
 11
281.746918
 21
-28.0
 31
0.0
  0
LINE
  5
217
330
567
100
AcDbEntity
  8
0
 62
     7
 48
0.057735
370
    13
390
F
100
AcDbLine
 10
278.282837
 20
-30.0
 30
0.0
 11
279.437531
 21
-28.0
 31
0.0
  0
LINE
  5
218
330
567
100
AcDbEntity
  8
0
 62
     7
 48
0.057735
370
    13
390
F
100
AcDbLine
 10
275.973419
 20
-30.0
 30
0.0
 11
277.128143
 21
-28.0
 31
0.0
  0
LINE
  5
219
330
567
100
AcDbEntity
  8
0
 62
     7
 48
0.057735
370
    13
390
F
100
AcDbLine
 10
273.664032
 20
-30.0
 30
0.0
 11
274.818726
 21
-28.0
 31
0.0
  0
LINE
  5
21A
330
567
100
AcDbEntity
  8
0
 62
     7
 48
0.057735
370
    13
390
F
100
AcDbLine
 10
271.354614
 20
-30.0
 30
0.0
 11
272.509338
 21
-28.0
 31
0.0
  0
LINE
  5
21B
330
567
100
AcDbEntity
  8
0
 62
     7
 48
0.057735
370
    13
390
F
100
AcDbLine
 10
269.045227
 20
-30.0
 30
0.0
 11
270.199921
 21
-28.0
 31
0.0
  0
LINE
  5
21C
330
567
100
AcDbEntity
  8
0
 62
     7
 48
0.057735
370
    13
390
F
100
AcDbLine
 10
266.735809
 20
-30.0
 30
0.0
 11
267.890533
 21
-28.0
 31
0.0
  0
LINE
  5
21D
330
567
100
AcDbEntity
  8
0
 62
     7
 48
0.057735
370
    13
390
F
100
AcDbLine
 10
264.426422
 20
-30.0
 30
0.0
 11
265.581116
 21
-28.0
 31
0.0
  0
LINE
  5
21E
330
567
100
AcDbEntity
  8
0
 62
     7
 48
0.057735
370
    13
390
F
100
AcDbLine
 10
262.117035
 20
-30.0
 30
0.0
 11
263.271729
 21
-28.0
 31
0.0
  0
LINE
  5
21F
330
567
100
AcDbEntity
  8
0
 62
     7
 48
0.057735
370
    13
390
F
100
AcDbLine
 10
259.807617
 20
-30.0
 30
0.0
 11
260.962311
 21
-28.0
 31
0.0
  0
LINE
  5
220
330
567
100
AcDbEntity
  8
0
 62
     7
 48
0.057735
370
    13
390
F
100
AcDbLine
 10
257.49823
 20
-30.0
 30
0.0
 11
258.652924
 21
-28.0
 31
0.0
  0
LINE
  5
221
330
567
100
AcDbEntity
  8
0
 62
     7
 48
0.057735
370
    13
390
F
100
AcDbLine
 10
255.188812
 20
-30.0
 30
0.0
 11
256.343506
 21
-28.0
 31
0.0
  0
LINE
  5
222
330
567
100
AcDbEntity
  8
0
 62
     7
 48
0.057735
370
    13
390
F
100
AcDbLine
 10
252.879425
 20
-30.0
 30
0.0
 11
254.034119
 21
-28.0
 31
0.0
  0
LINE
  5
223
330
567
100
AcDbEntity
  8
0
 62
     7
 48
0.057735
370
    13
390
F
100
AcDbLine
 10
250.570023
 20
-30.0
 30
0.0
 11
251.724716
 21
-28.0
 31
0.0
  0
LINE
  5
224
330
567
100
AcDbEntity
  8
0
 62
     7
 48
0.057735
370
    13
390
F
100
AcDbLine
 10
248.26062
 20
-30.0
 30
0.0
 11
249.415314
 21
-28.0
 31
0.0
  0
LINE
  5
225
330
567
100
AcDbEntity
  8
0
 62
     7
 48
0.057735
370
    13
390
F
100
AcDbLine
 10
245.951218
 20
-30.0
 30
0.0
 11
247.105911
 21
-28.0
 31
0.0
  0
LINE
  5
226
330
567
100
AcDbEntity
  8
0
 62
     7
 48
0.057735
370
    13
390
F
100
AcDbLine
 10
243.641815
 20
-30.0
 30
0.0
 11
244.796509
 21
-28.0
 31
0.0
  0
LINE
  5
227
330
567
100
AcDbEntity
  8
0
 62
     7
 48
0.057735
370
    13
390
F
100
AcDbLine
 10
241.332413
 20
-30.0
 30
0.0
 11
242.487106
 21
-28.0
 31
0.0
  0
LINE
  5
228
330
567
100
AcDbEntity
  8
0
 62
     7
 48
0.057735
370
    13
390
F
100
AcDbLine
 10
239.02301
 20
-30.0
 30
0.0
 11
240.177719
 21
-28.0
 31
0.0
  0
LINE
  5
229
330
567
100
AcDbEntity
  8
0
 62
     7
 48
0.057735
370
    13
390
F
100
AcDbLine
 10
236.713608
 20
-30.0
 30
0.0
 11
237.868317
 21
-28.0
 31
0.0
  0
LINE
  5
22A
330
567
100
AcDbEntity
  8
0
 62
     7
 48
0.057735
370
    13
390
F
100
AcDbLine
 10
234.404205
 20
-30.0
 30
0.0
 11
235.558914
 21
-28.0
 31
0.0
  0
LINE
  5
22B
330
567
100
AcDbEntity
  8
0
 62
     7
 48
0.057735
370
    13
390
F
100
AcDbLine
 10
232.094803
 20
-30.0
 30
0.0
 11
233.249512
 21
-28.0
 31
0.0
  0
LINE
  5
22C
330
567
100
AcDbEntity
  8
0
 62
     7
 48
0.057735
370
    13
390
F
100
AcDbLine
 10
229.7854
 20
-30.0
 30
0.0
 11
230.940109
 21
-28.0
 31
0.0
  0
LINE
  5
22D
330
567
100
AcDbEntity
  8
0
 62
     7
 48
0.057735
370
    13
390
F
100
AcDbLine
 10
227.476013
 20
-30.0
 30
0.0
 11
228.630707
 21
-28.0
 31
0.0
  0
LINE
  5
22E
330
567
100
AcDbEntity
  8
0
 62
     7
 48
0.057735
370
    13
390
F
100
AcDbLine
 10
225.166611
 20
-30.0
 30
0.0
 11
226.321304
 21
-28.0
 31
0.0
  0
LINE
  5
22F
330
567
100
AcDbEntity
  8
0
 62
     7
 48
0.057735
370
    13
390
F
100
AcDbLine
 10
222.857208
 20
-30.0
 30
0.0
 11
224.011902
 21
-28.0
 31
0.0
  0
LINE
  5
230
330
567
100
AcDbEntity
  8
0
 62
     7
 48
0.057735
370
    13
390
F
100
AcDbLine
 10
220.547806
 20
-30.0
 30
0.0
 11
221.702499
 21
-28.0
 31
0.0
  0
LINE
  5
231
330
567
100
AcDbEntity
  8
0
 62
     7
 48
0.057735
370
    13
390
F
100
AcDbLine
 10
218.238403
 20
-30.0
 30
0.0
 11
219.393097
 21
-28.0
 31
0.0
  0
LINE
  5
232
330
567
100
AcDbEntity
  8
0
 62
     7
 48
0.057735
370
    13
390
F
100
AcDbLine
 10
215.929001
 20
-30.0
 30
0.0
 11
217.083694
 21
-28.0
 31
0.0
  0
LINE
  5
233
330
567
100
AcDbEntity
  8
0
 62
     7
 48
0.057735
370
    13
390
F
100
AcDbLine
 10
213.619598
 20
-30.0
 30
0.0
 11
214.774307
 21
-28.0
 31
0.0
  0
LINE
  5
234
330
567
100
AcDbEntity
  8
0
 62
     7
 48
0.057735
370
    13
390
F
100
AcDbLine
 10
211.310196
 20
-30.0
 30
0.0
 11
212.464905
 21
-28.0
 31
0.0
  0
LINE
  5
235
330
567
100
AcDbEntity
  8
0
 62
     7
 48
0.057735
370
    13
390
F
100
AcDbLine
 10
209.000793
 20
-30.0
 30
0.0
 11
210.155502
 21
-28.0
 31
0.0
  0
LINE
  5
236
330
567
100
AcDbEntity
  8
0
 62
     7
 48
0.057735
370
    13
390
F
100
AcDbLine
 10
206.691391
 20
-30.0
 30
0.0
 11
207.8461
 21
-28.0
 31
0.0
  0
LINE
  5
237
330
567
100
AcDbEntity
  8
0
 62
     7
 48
0.057735
370
    13
390
F
100
AcDbLine
 10
204.381989
 20
-30.0
 30
0.0
 11
205.536697
 21
-28.0
 31
0.0
  0
LINE
  5
238
330
567
100
AcDbEntity
  8
0
 62
     7
 48
0.057735
370
    13
390
F
100
AcDbLine
 10
202.072601
 20
-30.0
 30
0.0
 11
203.227295
 21
-28.0
 31
0.0
  0
LINE
  5
239
330
567
100
AcDbEntity
  8
0
 62
     7
 48
0.057735
370
    13
390
F
100
AcDbLine
 10
199.763199
 20
-30.0
 30
0.0
 11
200.917892
 21
-28.0
 31
0.0
  0
LINE
  5
23A
330
567
100
AcDbEntity
  8
0
 62
     7
 48
0.057735
370
    13
390
F
100
AcDbLine
 10
197.453796
 20
-30.0
 30
0.0
 11
198.60849
 21
-28.0
 31
0.0
  0
LINE
  5
23B
330
567
100
AcDbEntity
  8
0
 62
     7
 48
0.057735
370
    13
390
F
100
AcDbLine
 10
195.144394
 20
-30.0
 30
0.0
 11
196.299088
 21
-28.0
 31
0.0
  0
LINE
  5
23C
330
567
100
AcDbEntity
  8
0
 62
     7
 48
0.057735
370
    13
390
F
100
AcDbLine
 10
192.834991
 20
-30.0
 30
0.0
 11
193.989685
 21
-28.0
 31
0.0
  0
LINE
  5
23D
330
567
100
AcDbEntity
  8
0
 62
     7
 48
0.057735
370
    13
390
F
100
AcDbLine
 10
190.525589
 20
-30.0
 30
0.0
 11
191.680283
 21
-28.0
 31
0.0
  0
LINE
  5
23E
330
567
100
AcDbEntity
  8
0
 62
     7
 48
0.057735
370
    13
390
F
100
AcDbLine
 10
188.216187
 20
-30.0
 30
0.0
 11
189.370895
 21
-28.0
 31
0.0
  0
LINE
  5
23F
330
567
100
AcDbEntity
  8
0
 62
     7
 48
0.057735
370
    13
390
F
100
AcDbLine
 10
185.906784
 20
-30.0
 30
0.0
 11
187.061493
 21
-28.0
 31
0.0
  0
LINE
  5
240
330
567
100
AcDbEntity
  8
0
 62
     7
 48
0.057735
370
    13
390
F
100
AcDbLine
 10
183.597382
 20
-30.0
 30
0.0
 11
184.75209
 21
-28.0
 31
0.0
  0
LINE
  5
241
330
567
100
AcDbEntity
  8
0
 62
     7
 48
0.057735
370
    13
390
F
100
AcDbLine
 10
181.287979
 20
-30.0
 30
0.0
 11
182.442688
 21
-28.0
 31
0.0
  0
LINE
  5
242
330
567
100
AcDbEntity
  8
0
 62
     7
 48
0.006664
370
    13
390
F
100
AcDbLine
 10
180.0
 20
-28.230854
 30
0.0
 11
180.133286
 21
-28.0
 31
0.0
  0
ENDBLK
  5
672
330
567
100
AcDbEntity
  8
0
100
AcDbBlockEnd
  0
BLOCK
  5
673
330
56A
100
AcDbEntity
  8
0
100
AcDbBlockBegin
  2
BLOCK54
 70
     0
 10
0.0
 20
0.0
 30
0.0
  3
BLOCK54
  1

  0
LINE
  5
245
330
56A
100
AcDbEntity
  8
0
 62
     7
 48
0.057735
370
    13
390
F
100
AcDbLine
 10
357.957153
 20
28.0
 30
0.0
 11
359.111877
 21
30.0
 31
0.0
  0
LINE
  5
246
330
56A
100
AcDbEntity
  8
0
 62
     7
 48
0.057735
370
    13
390
F
100
AcDbLine
 10
355.647766
 20
28.0
 30
0.0
 11
356.80246
 21
30.0
 31
0.0
  0
LINE
  5
247
330
56A
100
AcDbEntity
  8
0
 62
     7
 48
0.057735
370
    13
390
F
100
AcDbLine
 10
353.338379
 20
28.0
 30
0.0
 11
354.493073
 21
30.0
 31
0.0
  0
LINE
  5
248
330
56A
100
AcDbEntity
  8
0
 62
     7
 48
0.057735
370
    13
390
F
100
AcDbLine
 10
351.028961
 20
28.0
 30
0.0
 11
352.183655
 21
30.0
 31
0.0
  0
LINE
  5
249
330
56A
100
AcDbEntity
  8
0
 62
     7
 48
0.057735
370
    13
390
F
100
AcDbLine
 10
348.719574
 20
28.0
 30
0.0
 11
349.874268
 21
30.0
 31
0.0
  0
LINE
  5
24A
330
56A
100
AcDbEntity
  8
0
 62
     7
 48
0.057735
370
    13
390
F
100
AcDbLine
 10
346.410156
 20
28.0
 30
0.0
 11
347.56485
 21
30.0
 31
0.0
  0
LINE
  5
24B
330
56A
100
AcDbEntity
  8
0
 62
     7
 48
0.057735
370
    13
390
F
100
AcDbLine
 10
344.100769
 20
28.0
 30
0.0
 11
345.255463
 21
30.0
 31
0.0
  0
LINE
  5
24C
330
56A
100
AcDbEntity
  8
0
 62
     7
 48
0.057735
370
    13
390
F
100
AcDbLine
 10
341.791351
 20
28.0
 30
0.0
 11
342.946045
 21
30.0
 31
0.0
  0
LINE
  5
24D
330
56A
100
AcDbEntity
  8
0
 62
     7
 48
0.057735
370
    13
390
F
100
AcDbLine
 10
339.481964
 20
28.0
 30
0.0
 11
340.636658
 21
30.0
 31
0.0
  0
LINE
  5
24E
330
56A
100
AcDbEntity
  8
0
 62
     7
 48
0.057735
370
    13
390
F
100
AcDbLine
 10
337.172546
 20
28.0
 30
0.0
 11
338.327271
 21
30.0
 31
0.0
  0
LINE
  5
24F
330
56A
100
AcDbEntity
  8
0
 62
     7
 48
0.057735
370
    13
390
F
100
AcDbLine
 10
334.863159
 20
28.0
 30
0.0
 11
336.017853
 21
30.0
 31
0.0
  0
LINE
  5
250
330
56A
100
AcDbEntity
  8
0
 62
     7
 48
0.057735
370
    13
390
F
100
AcDbLine
 10
332.553741
 20
28.0
 30
0.0
 11
333.708466
 21
30.0
 31
0.0
  0
LINE
  5
251
330
56A
100
AcDbEntity
  8
0
 62
     7
 48
0.057735
370
    13
390
F
100
AcDbLine
 10
330.244354
 20
28.0
 30
0.0
 11
331.399048
 21
30.0
 31
0.0
  0
LINE
  5
252
330
56A
100
AcDbEntity
  8
0
 62
     7
 48
0.057735
370
    13
390
F
100
AcDbLine
 10
327.934967
 20
28.0
 30
0.0
 11
329.089661
 21
30.0
 31
0.0
  0
LINE
  5
253
330
56A
100
AcDbEntity
  8
0
 62
     7
 48
0.057735
370
    13
390
F
100
AcDbLine
 10
325.625549
 20
28.0
 30
0.0
 11
326.780243
 21
30.0
 31
0.0
  0
LINE
  5
254
330
56A
100
AcDbEntity
  8
0
 62
     7
 48
0.057735
370
    13
390
F
100
AcDbLine
 10
323.316162
 20
28.0
 30
0.0
 11
324.470856
 21
30.0
 31
0.0
  0
LINE
  5
255
330
56A
100
AcDbEntity
  8
0
 62
     7
 48
0.057735
370
    13
390
F
100
AcDbLine
 10
321.006744
 20
28.0
 30
0.0
 11
322.161438
 21
30.0
 31
0.0
  0
LINE
  5
256
330
56A
100
AcDbEntity
  8
0
 62
     7
 48
0.057735
370
    13
390
F
100
AcDbLine
 10
318.697357
 20
28.0
 30
0.0
 11
319.852051
 21
30.0
 31
0.0
  0
LINE
  5
257
330
56A
100
AcDbEntity
  8
0
 62
     7
 48
0.057735
370
    13
390
F
100
AcDbLine
 10
316.387939
 20
28.0
 30
0.0
 11
317.542633
 21
30.0
 31
0.0
  0
LINE
  5
258
330
56A
100
AcDbEntity
  8
0
 62
     7
 48
0.057735
370
    13
390
F
100
AcDbLine
 10
314.078552
 20
28.0
 30
0.0
 11
315.233246
 21
30.0
 31
0.0
  0
LINE
  5
259
330
56A
100
AcDbEntity
  8
0
 62
     7
 48
0.057735
370
    13
390
F
100
AcDbLine
 10
311.769135
 20
28.0
 30
0.0
 11
312.923859
 21
30.0
 31
0.0
  0
LINE
  5
25A
330
56A
100
AcDbEntity
  8
0
 62
     7
 48
0.057735
370
    13
390
F
100
AcDbLine
 10
309.459747
 20
28.0
 30
0.0
 11
310.614441
 21
30.0
 31
0.0
  0
LINE
  5
25B
330
56A
100
AcDbEntity
  8
0
 62
     7
 48
0.057735
370
    13
390
F
100
AcDbLine
 10
307.15033
 20
28.0
 30
0.0
 11
308.305054
 21
30.0
 31
0.0
  0
LINE
  5
25C
330
56A
100
AcDbEntity
  8
0
 62
     7
 48
0.057735
370
    13
390
F
100
AcDbLine
 10
304.840942
 20
28.0
 30
0.0
 11
305.995636
 21
30.0
 31
0.0
  0
LINE
  5
25D
330
56A
100
AcDbEntity
  8
0
 62
     7
 48
0.057735
370
    13
390
F
100
AcDbLine
 10
302.531555
 20
28.0
 30
0.0
 11
303.686249
 21
30.0
 31
0.0
  0
LINE
  5
25E
330
56A
100
AcDbEntity
  8
0
 62
     7
 48
0.057735
370
    13
390
F
100
AcDbLine
 10
300.222137
 20
28.0
 30
0.0
 11
301.376831
 21
30.0
 31
0.0
  0
LINE
  5
25F
330
56A
100
AcDbEntity
  8
0
 62
     7
 48
0.057735
370
    13
390
F
100
AcDbLine
 10
297.91275
 20
28.0
 30
0.0
 11
299.067444
 21
30.0
 31
0.0
  0
LINE
  5
260
330
56A
100
AcDbEntity
  8
0
 62
     7
 48
0.057735
370
    13
390
F
100
AcDbLine
 10
295.603333
 20
28.0
 30
0.0
 11
296.758026
 21
30.0
 31
0.0
  0
LINE
  5
261
330
56A
100
AcDbEntity
  8
0
 62
     7
 48
0.057735
370
    13
390
F
100
AcDbLine
 10
293.293945
 20
28.0
 30
0.0
 11
294.448639
 21
30.0
 31
0.0
  0
LINE
  5
262
330
56A
100
AcDbEntity
  8
0
 62
     7
 48
0.057735
370
    13
390
F
100
AcDbLine
 10
290.984528
 20
28.0
 30
0.0
 11
292.139221
 21
30.0
 31
0.0
  0
LINE
  5
263
330
56A
100
AcDbEntity
  8
0
 62
     7
 48
0.057735
370
    13
390
F
100
AcDbLine
 10
288.67514
 20
28.0
 30
0.0
 11
289.829834
 21
30.0
 31
0.0
  0
LINE
  5
264
330
56A
100
AcDbEntity
  8
0
 62
     7
 48
0.057735
370
    13
390
F
100
AcDbLine
 10
286.365723
 20
28.0
 30
0.0
 11
287.520447
 21
30.0
 31
0.0
  0
LINE
  5
265
330
56A
100
AcDbEntity
  8
0
 62
     7
 48
0.057735
370
    13
390
F
100
AcDbLine
 10
284.056335
 20
28.0
 30
0.0
 11
285.211029
 21
30.0
 31
0.0
  0
LINE
  5
266
330
56A
100
AcDbEntity
  8
0
 62
     7
 48
0.057735
370
    13
390
F
100
AcDbLine
 10
281.746918
 20
28.0
 30
0.0
 11
282.901642
 21
30.0
 31
0.0
  0
LINE
  5
267
330
56A
100
AcDbEntity
  8
0
 62
     7
 48
0.057735
370
    13
390
F
100
AcDbLine
 10
279.437531
 20
28.0
 30
0.0
 11
280.592224
 21
30.0
 31
0.0
  0
LINE
  5
268
330
56A
100
AcDbEntity
  8
0
 62
     7
 48
0.057735
370
    13
390
F
100
AcDbLine
 10
277.128143
 20
28.0
 30
0.0
 11
278.282837
 21
30.0
 31
0.0
  0
LINE
  5
269
330
56A
100
AcDbEntity
  8
0
 62
     7
 48
0.057735
370
    13
390
F
100
AcDbLine
 10
274.818726
 20
28.0
 30
0.0
 11
275.973419
 21
30.0
 31
0.0
  0
LINE
  5
26A
330
56A
100
AcDbEntity
  8
0
 62
     7
 48
0.057735
370
    13
390
F
100
AcDbLine
 10
272.509338
 20
28.0
 30
0.0
 11
273.664032
 21
30.0
 31
0.0
  0
LINE
  5
26B
330
56A
100
AcDbEntity
  8
0
 62
     7
 48
0.057735
370
    13
390
F
100
AcDbLine
 10
270.199921
 20
28.0
 30
0.0
 11
271.354614
 21
30.0
 31
0.0
  0
LINE
  5
26C
330
56A
100
AcDbEntity
  8
0
 62
     7
 48
0.057735
370
    13
390
F
100
AcDbLine
 10
267.890533
 20
28.0
 30
0.0
 11
269.045227
 21
30.0
 31
0.0
  0
LINE
  5
26D
330
56A
100
AcDbEntity
  8
0
 62
     7
 48
0.057735
370
    13
390
F
100
AcDbLine
 10
265.581116
 20
28.0
 30
0.0
 11
266.735809
 21
30.0
 31
0.0
  0
LINE
  5
26E
330
56A
100
AcDbEntity
  8
0
 62
     7
 48
0.057735
370
    13
390
F
100
AcDbLine
 10
263.271729
 20
28.0
 30
0.0
 11
264.426422
 21
30.0
 31
0.0
  0
LINE
  5
26F
330
56A
100
AcDbEntity
  8
0
 62
     7
 48
0.057735
370
    13
390
F
100
AcDbLine
 10
260.962311
 20
28.0
 30
0.0
 11
262.117035
 21
30.0
 31
0.0
  0
LINE
  5
270
330
56A
100
AcDbEntity
  8
0
 62
     7
 48
0.057735
370
    13
390
F
100
AcDbLine
 10
258.652924
 20
28.0
 30
0.0
 11
259.807617
 21
30.0
 31
0.0
  0
LINE
  5
271
330
56A
100
AcDbEntity
  8
0
 62
     7
 48
0.057735
370
    13
390
F
100
AcDbLine
 10
256.343506
 20
28.0
 30
0.0
 11
257.49823
 21
30.0
 31
0.0
  0
LINE
  5
272
330
56A
100
AcDbEntity
  8
0
 62
     7
 48
0.057735
370
    13
390
F
100
AcDbLine
 10
254.034119
 20
28.0
 30
0.0
 11
255.188812
 21
30.0
 31
0.0
  0
LINE
  5
273
330
56A
100
AcDbEntity
  8
0
 62
     7
 48
0.057735
370
    13
390
F
100
AcDbLine
 10
251.724716
 20
28.0
 30
0.0
 11
252.879425
 21
30.0
 31
0.0
  0
LINE
  5
274
330
56A
100
AcDbEntity
  8
0
 62
     7
 48
0.057735
370
    13
390
F
100
AcDbLine
 10
249.415314
 20
28.0
 30
0.0
 11
250.570023
 21
30.0
 31
0.0
  0
LINE
  5
275
330
56A
100
AcDbEntity
  8
0
 62
     7
 48
0.057735
370
    13
390
F
100
AcDbLine
 10
247.105911
 20
28.0
 30
0.0
 11
248.26062
 21
30.0
 31
0.0
  0
LINE
  5
276
330
56A
100
AcDbEntity
  8
0
 62
     7
 48
0.057735
370
    13
390
F
100
AcDbLine
 10
244.796509
 20
28.0
 30
0.0
 11
245.951218
 21
30.0
 31
0.0
  0
LINE
  5
277
330
56A
100
AcDbEntity
  8
0
 62
     7
 48
0.057735
370
    13
390
F
100
AcDbLine
 10
242.487106
 20
28.0
 30
0.0
 11
243.641815
 21
30.0
 31
0.0
  0
LINE
  5
278
330
56A
100
AcDbEntity
  8
0
 62
     7
 48
0.057735
370
    13
390
F
100
AcDbLine
 10
240.177719
 20
28.0
 30
0.0
 11
241.332413
 21
30.0
 31
0.0
  0
LINE
  5
279
330
56A
100
AcDbEntity
  8
0
 62
     7
 48
0.057735
370
    13
390
F
100
AcDbLine
 10
237.868317
 20
28.0
 30
0.0
 11
239.02301
 21
30.0
 31
0.0
  0
LINE
  5
27A
330
56A
100
AcDbEntity
  8
0
 62
     7
 48
0.057735
370
    13
390
F
100
AcDbLine
 10
235.558914
 20
28.0
 30
0.0
 11
236.713608
 21
30.0
 31
0.0
  0
LINE
  5
27B
330
56A
100
AcDbEntity
  8
0
 62
     7
 48
0.057735
370
    13
390
F
100
AcDbLine
 10
233.249512
 20
28.0
 30
0.0
 11
234.404205
 21
30.0
 31
0.0
  0
LINE
  5
27C
330
56A
100
AcDbEntity
  8
0
 62
     7
 48
0.057735
370
    13
390
F
100
AcDbLine
 10
230.940109
 20
28.0
 30
0.0
 11
232.094803
 21
30.0
 31
0.0
  0
LINE
  5
27D
330
56A
100
AcDbEntity
  8
0
 62
     7
 48
0.057735
370
    13
390
F
100
AcDbLine
 10
228.630707
 20
28.0
 30
0.0
 11
229.7854
 21
30.0
 31
0.0
  0
LINE
  5
27E
330
56A
100
AcDbEntity
  8
0
 62
     7
 48
0.057735
370
    13
390
F
100
AcDbLine
 10
226.321304
 20
28.0
 30
0.0
 11
227.476013
 21
30.0
 31
0.0
  0
LINE
  5
27F
330
56A
100
AcDbEntity
  8
0
 62
     7
 48
0.057735
370
    13
390
F
100
AcDbLine
 10
224.011902
 20
28.0
 30
0.0
 11
225.166611
 21
30.0
 31
0.0
  0
LINE
  5
280
330
56A
100
AcDbEntity
  8
0
 62
     7
 48
0.057735
370
    13
390
F
100
AcDbLine
 10
221.702499
 20
28.0
 30
0.0
 11
222.857208
 21
30.0
 31
0.0
  0
LINE
  5
281
330
56A
100
AcDbEntity
  8
0
 62
     7
 48
0.057735
370
    13
390
F
100
AcDbLine
 10
219.393097
 20
28.0
 30
0.0
 11
220.547806
 21
30.0
 31
0.0
  0
LINE
  5
282
330
56A
100
AcDbEntity
  8
0
 62
     7
 48
0.057735
370
    13
390
F
100
AcDbLine
 10
217.083694
 20
28.0
 30
0.0
 11
218.238403
 21
30.0
 31
0.0
  0
LINE
  5
283
330
56A
100
AcDbEntity
  8
0
 62
     7
 48
0.057735
370
    13
390
F
100
AcDbLine
 10
214.774307
 20
28.0
 30
0.0
 11
215.929001
 21
30.0
 31
0.0
  0
LINE
  5
284
330
56A
100
AcDbEntity
  8
0
 62
     7
 48
0.057735
370
    13
390
F
100
AcDbLine
 10
212.464905
 20
28.0
 30
0.0
 11
213.619598
 21
30.0
 31
0.0
  0
LINE
  5
285
330
56A
100
AcDbEntity
  8
0
 62
     7
 48
0.057735
370
    13
390
F
100
AcDbLine
 10
210.155502
 20
28.0
 30
0.0
 11
211.310196
 21
30.0
 31
0.0
  0
LINE
  5
286
330
56A
100
AcDbEntity
  8
0
 62
     7
 48
0.057735
370
    13
390
F
100
AcDbLine
 10
207.8461
 20
28.0
 30
0.0
 11
209.000793
 21
30.0
 31
0.0
  0
LINE
  5
287
330
56A
100
AcDbEntity
  8
0
 62
     7
 48
0.057735
370
    13
390
F
100
AcDbLine
 10
205.536697
 20
28.0
 30
0.0
 11
206.691391
 21
30.0
 31
0.0
  0
LINE
  5
288
330
56A
100
AcDbEntity
  8
0
 62
     7
 48
0.057735
370
    13
390
F
100
AcDbLine
 10
203.227295
 20
28.0
 30
0.0
 11
204.381989
 21
30.0
 31
0.0
  0
LINE
  5
289
330
56A
100
AcDbEntity
  8
0
 62
     7
 48
0.057735
370
    13
390
F
100
AcDbLine
 10
200.917892
 20
28.0
 30
0.0
 11
202.072601
 21
30.0
 31
0.0
  0
LINE
  5
28A
330
56A
100
AcDbEntity
  8
0
 62
     7
 48
0.057735
370
    13
390
F
100
AcDbLine
 10
198.60849
 20
28.0
 30
0.0
 11
199.763199
 21
30.0
 31
0.0
  0
LINE
  5
28B
330
56A
100
AcDbEntity
  8
0
 62
     7
 48
0.057735
370
    13
390
F
100
AcDbLine
 10
196.299088
 20
28.0
 30
0.0
 11
197.453796
 21
30.0
 31
0.0
  0
LINE
  5
28C
330
56A
100
AcDbEntity
  8
0
 62
     7
 48
0.057735
370
    13
390
F
100
AcDbLine
 10
193.989685
 20
28.0
 30
0.0
 11
195.144394
 21
30.0
 31
0.0
  0
LINE
  5
28D
330
56A
100
AcDbEntity
  8
0
 62
     7
 48
0.057735
370
    13
390
F
100
AcDbLine
 10
191.680283
 20
28.0
 30
0.0
 11
192.834991
 21
30.0
 31
0.0
  0
LINE
  5
28E
330
56A
100
AcDbEntity
  8
0
 62
     7
 48
0.057735
370
    13
390
F
100
AcDbLine
 10
189.370895
 20
28.0
 30
0.0
 11
190.525589
 21
30.0
 31
0.0
  0
LINE
  5
28F
330
56A
100
AcDbEntity
  8
0
 62
     7
 48
0.057735
370
    13
390
F
100
AcDbLine
 10
187.061493
 20
28.0
 30
0.0
 11
188.216187
 21
30.0
 31
0.0
  0
LINE
  5
290
330
56A
100
AcDbEntity
  8
0
 62
     7
 48
0.057735
370
    13
390
F
100
AcDbLine
 10
184.75209
 20
28.0
 30
0.0
 11
185.906784
 21
30.0
 31
0.0
  0
LINE
  5
291
330
56A
100
AcDbEntity
  8
0
 62
     7
 48
0.057735
370
    13
390
F
100
AcDbLine
 10
182.442688
 20
28.0
 30
0.0
 11
183.597382
 21
30.0
 31
0.0
  0
LINE
  5
292
330
56A
100
AcDbEntity
  8
0
 62
     7
 48
0.057735
370
    13
390
F
100
AcDbLine
 10
180.133286
 20
28.0
 30
0.0
 11
181.287979
 21
30.0
 31
0.0
  0
ENDBLK
  5
674
330
56A
100
AcDbEntity
  8
0
100
AcDbBlockEnd
  0
BLOCK
  5
675
330
56D
100
AcDbEntity
  8
0
100
AcDbBlockBegin
  2
BLOCK55
 70
     0
 10
0.0
 20
0.0
 30
0.0
  3
BLOCK55
  1

  0
LINE
  5
295
330
56D
100
AcDbEntity
  8
0
 62
     7
 48
0.101111
370
    13
390
F
100
AcDbLine
 10
180.0
 20
-30.022215
 30
0.0
 11
176.497421
 21
-28.0
 31
0.0
  0
LINE
  5
296
330
56D
100
AcDbEntity
  8
0
 62
     7
 48
0.11547
370
    13
390
F
100
AcDbLine
 10
180.0
 20
-32.331615
 30
0.0
 11
176.0
 21
-30.022215
 31
0.0
  0
LINE
  5
297
330
56D
100
AcDbEntity
  8
0
 62
     7
 48
0.11547
370
    13
390
F
100
AcDbLine
 10
180.0
 20
-34.641018
 30
0.0
 11
176.0
 21
-32.331615
 31
0.0
  0
LINE
  5
298
330
56D
100
AcDbEntity
  8
0
 62
     7
 48
0.11547
370
    13
390
F
100
AcDbLine
 10
180.0
 20
-36.950417
 30
0.0
 11
176.0
 21
-34.641018
 31
0.0
  0
LINE
  5
299
330
56D
100
AcDbEntity
  8
0
 62
     7
 48
0.11547
370
    13
390
F
100
AcDbLine
 10
180.0
 20
-39.259819
 30
0.0
 11
176.0
 21
-36.950417
 31
0.0
  0
LINE
  5
29A
330
56D
100
AcDbEntity
  8
0
 62
     7
 48
0.11547
370
    13
390
F
100
AcDbLine
 10
180.0
 20
-41.569218
 30
0.0
 11
176.0
 21
-39.259819
 31
0.0
  0
LINE
  5
29B
330
56D
100
AcDbEntity
  8
0
 62
     7
 48
0.11547
370
    13
390
F
100
AcDbLine
 10
180.0
 20
-43.87862
 30
0.0
 11
176.0
 21
-41.569218
 31
0.0
  0
LINE
  5
29C
330
56D
100
AcDbEntity
  8
0
 62
     7
 48
0.056069
370
    13
390
F
100
AcDbLine
 10
177.942291
 20
-45.0
 30
0.0
 11
176.0
 21
-43.87862
 31
0.0
  0
ENDBLK
  5
676
330
56D
100
AcDbEntity
  8
0
100
AcDbBlockEnd
  0
BLOCK
  5
677
330
570
100
AcDbEntity
  8
0
100
AcDbBlockBegin
  2
BLOCK56
 70
     0
 10
0.0
 20
0.0
 30
0.0
  3
BLOCK56
  1

  0
LINE
  5
29F
330
570
100
AcDbEntity
  8
0
 62
     7
 48
0.056069
370
    13
390
F
100
AcDbLine
 10
180.0
 20
43.87862
 30
0.0
 11
178.057709
 21
45.0
 31
0.0
  0
LINE
  5
2A0
330
570
100
AcDbEntity
  8
0
 62
     7
 48
0.11547
370
    13
390
F
100
AcDbLine
 10
180.0
 20
41.569218
 30
0.0
 11
176.0
 21
43.87862
 31
0.0
  0
LINE
  5
2A1
330
570
100
AcDbEntity
  8
0
 62
     7
 48
0.11547
370
    13
390
F
100
AcDbLine
 10
180.0
 20
39.259819
 30
0.0
 11
176.0
 21
41.569218
 31
0.0
  0
LINE
  5
2A2
330
570
100
AcDbEntity
  8
0
 62
     7
 48
0.11547
370
    13
390
F
100
AcDbLine
 10
180.0
 20
36.950417
 30
0.0
 11
176.0
 21
39.259819
 31
0.0
  0
LINE
  5
2A3
330
570
100
AcDbEntity
  8
0
 62
     7
 48
0.11547
370
    13
390
F
100
AcDbLine
 10
180.0
 20
34.641018
 30
0.0
 11
176.0
 21
36.950417
 31
0.0
  0
LINE
  5
2A4
330
570
100
AcDbEntity
  8
0
 62
     7
 48
0.11547
370
    13
390
F
100
AcDbLine
 10
180.0
 20
32.331615
 30
0.0
 11
176.0
 21
34.641018
 31
0.0
  0
LINE
  5
2A5
330
570
100
AcDbEntity
  8
0
 62
     7
 48
0.11547
370
    13
390
F
100
AcDbLine
 10
180.0
 20
30.022215
 30
0.0
 11
176.0
 21
32.331615
 31
0.0
  0
LINE
  5
2A6
330
570
100
AcDbEntity
  8
0
 62
     7
 48
0.101111
370
    13
390
F
100
AcDbLine
 10
179.502579
 20
28.0
 30
0.0
 11
176.0
 21
30.022215
 31
0.0
  0
ENDBLK
  5
678
330
570
100
AcDbEntity
  8
0
100
AcDbBlockEnd
  0
BLOCK
  5
679
330
573
100
AcDbEntity
  8
0
100
AcDbBlockBegin
  2
BLOCK57
 70
     0
 10
0.0
 20
0.0
 30
0.0
  3
BLOCK57
  1

  0
LINE
  5
2A9
330
573
100
AcDbEntity
  8
0
 62
     7
 48
0.056069
370
    13
390
F
100
AcDbLine
 10
174.057709
 20
-45.0
 30
0.0
 11
176.0
 21
-43.87862
 31
0.0
  0
LINE
  5
2AA
330
573
100
AcDbEntity
  8
0
 62
     7
 48
0.171539
370
    13
390
F
100
AcDbLine
 10
170.057709
 20
-45.0
 30
0.0
 11
176.0
 21
-41.569218
 31
0.0
  0
LINE
  5
2AB
330
573
100
AcDbEntity
  8
0
 62
     7
 48
0.2
370
    13
390
F
100
AcDbLine
 10
166.057709
 20
-45.0
 30
0.0
 11
172.985916
 21
-41.0
 31
0.0
  0
LINE
  5
2AC
330
573
100
AcDbEntity
  8
0
 62
     7
 48
0.2
370
    13
390
F
100
AcDbLine
 10
162.057709
 20
-45.0
 30
0.0
 11
168.985916
 21
-41.0
 31
0.0
  0
LINE
  5
2AD
330
573
100
AcDbEntity
  8
0
 62
     7
 48
0.2
370
    13
390
F
100
AcDbLine
 10
158.057709
 20
-45.0
 30
0.0
 11
164.985916
 21
-41.0
 31
0.0
  0
LINE
  5
2AE
330
573
100
AcDbEntity
  8
0
 62
     7
 48
0.2
370
    13
390
F
100
AcDbLine
 10
154.057709
 20
-45.0
 30
0.0
 11
160.985916
 21
-41.0
 31
0.0
  0
LINE
  5
2AF
330
573
100
AcDbEntity
  8
0
 62
     7
 48
0.2
370
    13
390
F
100
AcDbLine
 10
150.057709
 20
-45.0
 30
0.0
 11
156.985916
 21
-41.0
 31
0.0
  0
LINE
  5
2B0
330
573
100
AcDbEntity
  8
0
 62
     7
 48
0.2
370
    13
390
F
100
AcDbLine
 10
146.057709
 20
-45.0
 30
0.0
 11
152.985916
 21
-41.0
 31
0.0
  0
LINE
  5
2B1
330
573
100
AcDbEntity
  8
0
 62
     7
 48
0.2
370
    13
390
F
100
AcDbLine
 10
142.057709
 20
-45.0
 30
0.0
 11
148.985916
 21
-41.0
 31
0.0
  0
LINE
  5
2B2
330
573
100
AcDbEntity
  8
0
 62
     7
 48
0.2
370
    13
390
F
100
AcDbLine
 10
138.057709
 20
-45.0
 30
0.0
 11
144.985916
 21
-41.0
 31
0.0
  0
LINE
  5
2B3
330
573
100
AcDbEntity
  8
0
 62
     7
 48
0.2
370
    13
390
F
100
AcDbLine
 10
134.057709
 20
-45.0
 30
0.0
 11
140.985916
 21
-41.0
 31
0.0
  0
LINE
  5
2B4
330
573
100
AcDbEntity
  8
0
 62
     7
 48
0.2
370
    13
390
F
100
AcDbLine
 10
130.057709
 20
-45.0
 30
0.0
 11
136.985916
 21
-41.0
 31
0.0
  0
LINE
  5
2B5
330
573
100
AcDbEntity
  8
0
 62
     7
 48
0.2
370
    13
390
F
100
AcDbLine
 10
126.057716
 20
-45.0
 30
0.0
 11
132.985916
 21
-41.0
 31
0.0
  0
LINE
  5
2B6
330
573
100
AcDbEntity
  8
0
 62
     7
 48
0.2
370
    13
390
F
100
AcDbLine
 10
122.057716
 20
-45.0
 30
0.0
 11
128.985916
 21
-41.0
 31
0.0
  0
LINE
  5
2B7
330
573
100
AcDbEntity
  8
0
 62
     7
 48
0.2
370
    13
390
F
100
AcDbLine
 10
118.057716
 20
-45.0
 30
0.0
 11
124.985916
 21
-41.0
 31
0.0
  0
LINE
  5
2B8
330
573
100
AcDbEntity
  8
0
 62
     7
 48
0.2
370
    13
390
F
100
AcDbLine
 10
114.057716
 20
-45.0
 30
0.0
 11
120.985916
 21
-41.0
 31
0.0
  0
LINE
  5
2B9
330
573
100
AcDbEntity
  8
0
 62
     7
 48
0.2
370
    13
390
F
100
AcDbLine
 10
110.057716
 20
-45.0
 30
0.0
 11
116.985916
 21
-41.0
 31
0.0
  0
LINE
  5
2BA
330
573
100
AcDbEntity
  8
0
 62
     7
 48
0.2
370
    13
390
F
100
AcDbLine
 10
106.057716
 20
-45.0
 30
0.0
 11
112.985916
 21
-41.0
 31
0.0
  0
LINE
  5
2BB
330
573
100
AcDbEntity
  8
0
 62
     7
 48
0.2
370
    13
390
F
100
AcDbLine
 10
102.057716
 20
-45.0
 30
0.0
 11
108.985916
 21
-41.0
 31
0.0
  0
LINE
  5
2BC
330
573
100
AcDbEntity
  8
0
 62
     7
 48
0.2
370
    13
390
F
100
AcDbLine
 10
98.057716
 20
-45.0
 30
0.0
 11
104.985916
 21
-41.0
 31
0.0
  0
LINE
  5
2BD
330
573
100
AcDbEntity
  8
0
 62
     7
 48
0.2
370
    13
390
F
100
AcDbLine
 10
94.057716
 20
-45.0
 30
0.0
 11
100.985916
 21
-41.0
 31
0.0
  0
LINE
  5
2BE
330
573
100
AcDbEntity
  8
0
 62
     7
 48
0.2
370
    13
390
F
100
AcDbLine
 10
90.057716
 20
-45.0
 30
0.0
 11
96.985916
 21
-41.0
 31
0.0
  0
LINE
  5
2BF
330
573
100
AcDbEntity
  8
0
 62
     7
 48
0.2
370
    13
390
F
100
AcDbLine
 10
86.057716
 20
-45.0
 30
0.0
 11
92.985916
 21
-41.0
 31
0.0
  0
LINE
  5
2C0
330
573
100
AcDbEntity
  8
0
 62
     7
 48
0.2
370
    13
390
F
100
AcDbLine
 10
82.057716
 20
-45.0
 30
0.0
 11
88.985916
 21
-41.0
 31
0.0
  0
LINE
  5
2C1
330
573
100
AcDbEntity
  8
0
 62
     7
 48
0.2
370
    13
390
F
100
AcDbLine
 10
78.057716
 20
-45.0
 30
0.0
 11
84.985916
 21
-41.0
 31
0.0
  0
LINE
  5
2C2
330
573
100
AcDbEntity
  8
0
 62
     7
 48
0.2
370
    13
390
F
100
AcDbLine
 10
74.057716
 20
-45.0
 30
0.0
 11
80.985916
 21
-41.0
 31
0.0
  0
LINE
  5
2C3
330
573
100
AcDbEntity
  8
0
 62
     7
 48
0.2
370
    13
390
F
100
AcDbLine
 10
70.057716
 20
-45.0
 30
0.0
 11
76.985916
 21
-41.0
 31
0.0
  0
LINE
  5
2C4
330
573
100
AcDbEntity
  8
0
 62
     7
 48
0.2
370
    13
390
F
100
AcDbLine
 10
66.057716
 20
-45.0
 30
0.0
 11
72.985916
 21
-41.0
 31
0.0
  0
LINE
  5
2C5
330
573
100
AcDbEntity
  8
0
 62
     7
 48
0.2
370
    13
390
F
100
AcDbLine
 10
62.057713
 20
-45.0
 30
0.0
 11
68.985916
 21
-41.0
 31
0.0
  0
LINE
  5
2C6
330
573
100
AcDbEntity
  8
0
 62
     7
 48
0.2
370
    13
390
F
100
AcDbLine
 10
58.057713
 20
-45.0
 30
0.0
 11
64.985916
 21
-41.0
 31
0.0
  0
LINE
  5
2C7
330
573
100
AcDbEntity
  8
0
 62
     7
 48
0.2
370
    13
390
F
100
AcDbLine
 10
54.057713
 20
-45.0
 30
0.0
 11
60.985916
 21
-41.0
 31
0.0
  0
LINE
  5
2C8
330
573
100
AcDbEntity
  8
0
 62
     7
 48
0.2
370
    13
390
F
100
AcDbLine
 10
50.057713
 20
-45.0
 30
0.0
 11
56.985916
 21
-41.0
 31
0.0
  0
LINE
  5
2C9
330
573
100
AcDbEntity
  8
0
 62
     7
 48
0.2
370
    13
390
F
100
AcDbLine
 10
46.057713
 20
-45.0
 30
0.0
 11
52.985916
 21
-41.0
 31
0.0
  0
LINE
  5
2CA
330
573
100
AcDbEntity
  8
0
 62
     7
 48
0.2
370
    13
390
F
100
AcDbLine
 10
42.057713
 20
-45.0
 30
0.0
 11
48.985916
 21
-41.0
 31
0.0
  0
LINE
  5
2CB
330
573
100
AcDbEntity
  8
0
 62
     7
 48
0.2
370
    13
390
F
100
AcDbLine
 10
38.057713
 20
-45.0
 30
0.0
 11
44.985916
 21
-41.0
 31
0.0
  0
LINE
  5
2CC
330
573
100
AcDbEntity
  8
0
 62
     7
 48
0.2
370
    13
390
F
100
AcDbLine
 10
34.057713
 20
-45.0
 30
0.0
 11
40.985916
 21
-41.0
 31
0.0
  0
LINE
  5
2CD
330
573
100
AcDbEntity
  8
0
 62
     7
 48
0.2
370
    13
390
F
100
AcDbLine
 10
30.057714
 20
-45.0
 30
0.0
 11
36.985916
 21
-41.0
 31
0.0
  0
LINE
  5
2CE
330
573
100
AcDbEntity
  8
0
 62
     7
 48
0.2
370
    13
390
F
100
AcDbLine
 10
26.057714
 20
-45.0
 30
0.0
 11
32.985916
 21
-41.0
 31
0.0
  0
LINE
  5
2CF
330
573
100
AcDbEntity
  8
0
 62
     7
 48
0.2
370
    13
390
F
100
AcDbLine
 10
22.057714
 20
-45.0
 30
0.0
 11
28.985916
 21
-41.0
 31
0.0
  0
LINE
  5
2D0
330
573
100
AcDbEntity
  8
0
 62
     7
 48
0.2
370
    13
390
F
100
AcDbLine
 10
18.057714
 20
-45.0
 30
0.0
 11
24.985916
 21
-41.0
 31
0.0
  0
LINE
  5
2D1
330
573
100
AcDbEntity
  8
0
 62
     7
 48
0.2
370
    13
390
F
100
AcDbLine
 10
14.057714
 20
-45.0
 30
0.0
 11
20.985916
 21
-41.0
 31
0.0
  0
LINE
  5
2D2
330
573
100
AcDbEntity
  8
0
 62
     7
 48
0.2
370
    13
390
F
100
AcDbLine
 10
10.057714
 20
-45.0
 30
0.0
 11
16.985916
 21
-41.0
 31
0.0
  0
LINE
  5
2D3
330
573
100
AcDbEntity
  8
0
 62
     7
 48
0.2
370
    13
390
F
100
AcDbLine
 10
6.057714
 20
-45.0
 30
0.0
 11
12.985917
 21
-41.0
 31
0.0
  0
LINE
  5
2D4
330
573
100
AcDbEntity
  8
0
 62
     7
 48
0.2
370
    13
390
F
100
AcDbLine
 10
2.057714
 20
-45.0
 30
0.0
 11
8.985917
 21
-41.0
 31
0.0
  0
LINE
  5
2D5
330
573
100
AcDbEntity
  8
0
 62
     7
 48
0.143931
370
    13
390
F
100
AcDbLine
 10
0.0
 20
-43.87862
 30
0.0
 11
4.985917
 21
-41.0
 31
0.0
  0
LINE
  5
2D6
330
573
100
AcDbEntity
  8
0
 62
     7
 48
0.028461
370
    13
390
F
100
AcDbLine
 10
0.0
 20
-41.569218
 30
0.0
 11
0.985917
 21
-41.0
 31
0.0
  0
ENDBLK
  5
67A
330
573
100
AcDbEntity
  8
0
100
AcDbBlockEnd
  0
BLOCK
  5
67B
330
576
100
AcDbEntity
  8
0
100
AcDbBlockBegin
  2
BLOCK58
 70
     0
 10
0.0
 20
0.0
 30
0.0
  3
BLOCK58
  1

  0
LINE
  5
2D9
330
576
100
AcDbEntity
  8
0
 62
     7
 48
0.104238
370
    13
390
F
100
AcDbLine
 10
35.014076
 20
40.999996
 30
0.0
 11
38.625
 21
43.084763
 31
0.0
  0
LINE
  5
2DA
330
576
100
AcDbEntity
  8
0
 62
     7
 48
0.2
370
    13
390
F
100
AcDbLine
 10
31.014078
 20
40.999996
 30
0.0
 11
37.942287
 21
45.0
 31
0.0
  0
LINE
  5
2DB
330
576
100
AcDbEntity
  8
0
 62
     7
 48
0.2
370
    13
390
F
100
AcDbLine
 10
27.014078
 20
40.999996
 30
0.0
 11
33.942287
 21
45.0
 31
0.0
  0
LINE
  5
2DC
330
576
100
AcDbEntity
  8
0
 62
     7
 48
0.2
370
    13
390
F
100
AcDbLine
 10
23.014078
 20
40.999996
 30
0.0
 11
29.942286
 21
45.0
 31
0.0
  0
LINE
  5
2DD
330
576
100
AcDbEntity
  8
0
 62
     7
 48
0.2
370
    13
390
F
100
AcDbLine
 10
19.01408
 20
40.999996
 30
0.0
 11
25.942286
 21
45.0
 31
0.0
  0
LINE
  5
2DE
330
576
100
AcDbEntity
  8
0
 62
     7
 48
0.2
370
    13
390
F
100
AcDbLine
 10
15.01408
 20
41.0
 30
0.0
 11
21.942286
 21
45.0
 31
0.0
  0
LINE
  5
2DF
330
576
100
AcDbEntity
  8
0
 62
     7
 48
0.2
370
    13
390
F
100
AcDbLine
 10
11.014081
 20
41.0
 30
0.0
 11
17.942286
 21
45.0
 31
0.0
  0
LINE
  5
2E0
330
576
100
AcDbEntity
  8
0
 62
     7
 48
0.2
370
    13
390
F
100
AcDbLine
 10
7.014082
 20
41.0
 30
0.0
 11
13.942286
 21
45.0
 31
0.0
  0
LINE
  5
2E1
330
576
100
AcDbEntity
  8
0
 62
     7
 48
0.2
370
    13
390
F
100
AcDbLine
 10
3.014083
 20
41.0
 30
0.0
 11
9.942286
 21
45.0
 31
0.0
  0
LINE
  5
2E2
330
576
100
AcDbEntity
  8
0
 62
     7
 48
0.171539
370
    13
390
F
100
AcDbLine
 10
0.0
 20
41.569218
 30
0.0
 11
5.942286
 21
45.0
 31
0.0
  0
LINE
  5
2E3
330
576
100
AcDbEntity
  8
0
 62
     7
 48
0.056069
370
    13
390
F
100
AcDbLine
 10
0.0
 20
43.87862
 30
0.0
 11
1.942286
 21
45.0
 31
0.0
  0
ENDBLK
  5
67C
330
576
100
AcDbEntity
  8
0
100
AcDbBlockEnd
  0
BLOCK
  5
67D
330
579
100
AcDbEntity
  8
0
100
AcDbBlockBegin
  2
BLOCK59
 70
     0
 10
0.0
 20
0.0
 30
0.0
  3
BLOCK59
  1

  0
LINE
  5
2E6
330
579
100
AcDbEntity
  8
0
 62
     7
 48
0.028461
370
    13
390
F
100
AcDbLine
 10
175.014084
 20
41.0
 30
0.0
 11
176.0
 21
41.569218
 31
0.0
  0
LINE
  5
2E7
330
579
100
AcDbEntity
  8
0
 62
     7
 48
0.143931
370
    13
390
F
100
AcDbLine
 10
171.014084
 20
41.0
 30
0.0
 11
176.0
 21
43.87862
 31
0.0
  0
LINE
  5
2E8
330
579
100
AcDbEntity
  8
0
 62
     7
 48
0.2
370
    13
390
F
100
AcDbLine
 10
167.014084
 20
41.0
 30
0.0
 11
173.942291
 21
45.0
 31
0.0
  0
LINE
  5
2E9
330
579
100
AcDbEntity
  8
0
 62
     7
 48
0.2
370
    13
390
F
100
AcDbLine
 10
163.014084
 20
41.0
 30
0.0
 11
169.942291
 21
45.0
 31
0.0
  0
LINE
  5
2EA
330
579
100
AcDbEntity
  8
0
 62
     7
 48
0.2
370
    13
390
F
100
AcDbLine
 10
159.014084
 20
41.0
 30
0.0
 11
165.942291
 21
45.0
 31
0.0
  0
LINE
  5
2EB
330
579
100
AcDbEntity
  8
0
 62
     7
 48
0.2
370
    13
390
F
100
AcDbLine
 10
155.014084
 20
41.0
 30
0.0
 11
161.942291
 21
45.0
 31
0.0
  0
LINE
  5
2EC
330
579
100
AcDbEntity
  8
0
 62
     7
 48
0.2
370
    13
390
F
100
AcDbLine
 10
151.014084
 20
41.0
 30
0.0
 11
157.942291
 21
45.0
 31
0.0
  0
LINE
  5
2ED
330
579
100
AcDbEntity
  8
0
 62
     7
 48
0.2
370
    13
390
F
100
AcDbLine
 10
147.014084
 20
41.0
 30
0.0
 11
153.942291
 21
45.0
 31
0.0
  0
LINE
  5
2EE
330
579
100
AcDbEntity
  8
0
 62
     7
 48
0.2
370
    13
390
F
100
AcDbLine
 10
143.014084
 20
41.0
 30
0.0
 11
149.942291
 21
45.0
 31
0.0
  0
LINE
  5
2EF
330
579
100
AcDbEntity
  8
0
 62
     7
 48
0.2
370
    13
390
F
100
AcDbLine
 10
139.014084
 20
41.0
 30
0.0
 11
145.942291
 21
45.0
 31
0.0
  0
LINE
  5
2F0
330
579
100
AcDbEntity
  8
0
 62
     7
 48
0.2
370
    13
390
F
100
AcDbLine
 10
135.014084
 20
41.0
 30
0.0
 11
141.942291
 21
45.0
 31
0.0
  0
LINE
  5
2F1
330
579
100
AcDbEntity
  8
0
 62
     7
 48
0.2
370
    13
390
F
100
AcDbLine
 10
131.014084
 20
41.0
 30
0.0
 11
137.942291
 21
45.0
 31
0.0
  0
LINE
  5
2F2
330
579
100
AcDbEntity
  8
0
 62
     7
 48
0.2
370
    13
390
F
100
AcDbLine
 10
127.014084
 20
41.0
 30
0.0
 11
133.942291
 21
45.0
 31
0.0
  0
LINE
  5
2F3
330
579
100
AcDbEntity
  8
0
 62
     7
 48
0.2
370
    13
390
F
100
AcDbLine
 10
123.014084
 20
41.0
 30
0.0
 11
129.942291
 21
45.0
 31
0.0
  0
LINE
  5
2F4
330
579
100
AcDbEntity
  8
0
 62
     7
 48
0.2
370
    13
390
F
100
AcDbLine
 10
119.014084
 20
41.0
 30
0.0
 11
125.942284
 21
45.0
 31
0.0
  0
LINE
  5
2F5
330
579
100
AcDbEntity
  8
0
 62
     7
 48
0.2
370
    13
390
F
100
AcDbLine
 10
115.014084
 20
41.0
 30
0.0
 11
121.942284
 21
45.0
 31
0.0
  0
LINE
  5
2F6
330
579
100
AcDbEntity
  8
0
 62
     7
 48
0.2
370
    13
390
F
100
AcDbLine
 10
111.014084
 20
41.0
 30
0.0
 11
117.942284
 21
44.999996
 31
0.0
  0
LINE
  5
2F7
330
579
100
AcDbEntity
  8
0
 62
     7
 48
0.2
370
    13
390
F
100
AcDbLine
 10
107.014084
 20
41.0
 30
0.0
 11
113.942284
 21
44.999996
 31
0.0
  0
LINE
  5
2F8
330
579
100
AcDbEntity
  8
0
 62
     7
 48
0.2
370
    13
390
F
100
AcDbLine
 10
103.014084
 20
41.0
 30
0.0
 11
109.942284
 21
44.999996
 31
0.0
  0
LINE
  5
2F9
330
579
100
AcDbEntity
  8
0
 62
     7
 48
0.2
370
    13
390
F
100
AcDbLine
 10
99.014084
 20
41.0
 30
0.0
 11
105.942284
 21
44.999996
 31
0.0
  0
LINE
  5
2FA
330
579
100
AcDbEntity
  8
0
 62
     7
 48
0.2
370
    13
390
F
100
AcDbLine
 10
95.014084
 20
41.0
 30
0.0
 11
101.942284
 21
44.999996
 31
0.0
  0
LINE
  5
2FB
330
579
100
AcDbEntity
  8
0
 62
     7
 48
0.2
370
    13
390
F
100
AcDbLine
 10
91.014084
 20
41.0
 30
0.0
 11
97.942284
 21
44.999996
 31
0.0
  0
LINE
  5
2FC
330
579
100
AcDbEntity
  8
0
 62
     7
 48
0.2
370
    13
390
F
100
AcDbLine
 10
87.014084
 20
41.0
 30
0.0
 11
93.942284
 21
44.999996
 31
0.0
  0
LINE
  5
2FD
330
579
100
AcDbEntity
  8
0
 62
     7
 48
0.2
370
    13
390
F
100
AcDbLine
 10
83.014084
 20
41.0
 30
0.0
 11
89.942284
 21
44.999996
 31
0.0
  0
LINE
  5
2FE
330
579
100
AcDbEntity
  8
0
 62
     7
 48
0.2
370
    13
390
F
100
AcDbLine
 10
79.014084
 20
41.0
 30
0.0
 11
85.942284
 21
44.999996
 31
0.0
  0
LINE
  5
2FF
330
579
100
AcDbEntity
  8
0
 62
     7
 48
0.2
370
    13
390
F
100
AcDbLine
 10
75.014084
 20
41.0
 30
0.0
 11
81.942284
 21
44.999996
 31
0.0
  0
LINE
  5
300
330
579
100
AcDbEntity
  8
0
 62
     7
 48
0.2
370
    13
390
F
100
AcDbLine
 10
71.014084
 20
41.0
 30
0.0
 11
77.942284
 21
44.999996
 31
0.0
  0
LINE
  5
301
330
579
100
AcDbEntity
  8
0
 62
     7
 48
0.2
370
    13
390
F
100
AcDbLine
 10
67.014084
 20
41.0
 30
0.0
 11
73.942284
 21
44.999996
 31
0.0
  0
LINE
  5
302
330
579
100
AcDbEntity
  8
0
 62
     7
 48
0.2
370
    13
390
F
100
AcDbLine
 10
63.014084
 20
41.0
 30
0.0
 11
69.942284
 21
44.999996
 31
0.0
  0
LINE
  5
303
330
579
100
AcDbEntity
  8
0
 62
     7
 48
0.2
370
    13
390
F
100
AcDbLine
 10
59.014084
 20
41.0
 30
0.0
 11
65.942284
 21
44.999996
 31
0.0
  0
LINE
  5
304
330
579
100
AcDbEntity
  8
0
 62
     7
 48
0.2
370
    13
390
F
100
AcDbLine
 10
55.014084
 20
41.0
 30
0.0
 11
61.94228
 21
44.999996
 31
0.0
  0
LINE
  5
305
330
579
100
AcDbEntity
  8
0
 62
     7
 48
0.2
370
    13
390
F
100
AcDbLine
 10
51.014084
 20
41.0
 30
0.0
 11
57.94228
 21
44.999996
 31
0.0
  0
LINE
  5
306
330
579
100
AcDbEntity
  8
0
 62
     7
 48
0.2
370
    13
390
F
100
AcDbLine
 10
47.014084
 20
41.0
 30
0.0
 11
53.94228
 21
44.999996
 31
0.0
  0
LINE
  5
307
330
579
100
AcDbEntity
  8
0
 62
     7
 48
0.131846
370
    13
390
F
100
AcDbLine
 10
45.375
 20
42.363075
 30
0.0
 11
49.94228
 21
44.999996
 31
0.0
  0
LINE
  5
308
330
579
100
AcDbEntity
  8
0
 62
     7
 48
0.016376
370
    13
390
F
100
AcDbLine
 10
45.375
 20
44.672478
 30
0.0
 11
45.94228
 21
44.999996
 31
0.0
  0
ENDBLK
  5
67E
330
579
100
AcDbEntity
  8
0
100
AcDbBlockEnd
  0
BLOCK
  5
67F
330
57C
100
AcDbEntity
  8
0
100
AcDbBlockBegin
  2
BLOCK60
 70
     0
 10
0.0
 20
0.0
 30
0.0
  3
BLOCK60
  1

  0
SOLID
  5
30B
330
57C
100
AcDbEntity
  8
0
 62
     5
370
    13
390
F
100
AcDbTrace
 10
51.0243
 20
-27.228182
 30
0.0
 11
50.50666
 21
-29.160034
 31
0.0
 12
51.0243
 22
-27.228182
 32
0.0
 13
51.920876
 23
-27.745821
 33
0.0
  0
SOLID
  5
30C
330
57C
100
AcDbEntity
  8
0
 62
     5
370
    13
390
F
100
AcDbTrace
 10
1.931852
 20
58.837708
 30
0.0
 11
0.0
 21
58.320068
 31
0.0
 12
1.931852
 22
58.837708
 32
0.0
 13
1.931852
 23
57.802429
 33
0.0
  0
TEXT
  5
30D
330
57C
100
AcDbEntity
  8
0
 62
     5
370
    13
390
F
100
AcDbText
 10
49.436985
 20
35.012772
 30
0.0
 40
3.0
  1
120
 50
299.99998601037
 41
1.714831433555886
 72
     5
 11
53.940441
 21
27.212553
 31
0.0
100
AcDbText
  0
TEXT
  5
30E
330
57C
100
AcDbEntity
  8
0
 62
     5
370
    13
390
F
100
AcDbText
 10
54.460056
 20
27.512552
 30
0.0
 40
3.0
  1
%%d
 50
300.0000020349782
 41
1.629628047897715
 72
     5
 11
55.560055
 21
25.607298
 31
0.0
100
AcDbText
  0
ARC
  5
30F
330
57C
100
AcDbEntity
  8
0
 62
     5
370
    13
390
F
100
AcDbCircle
 10
0.0
 20
0.0
 30
0.0
 40
58.320068
100
AcDbArc
 50
331.89829
 51
88.101743
  0
LWPOLYLINE
  5
310
330
57C
100
AcDbEntity
  8
0
 62
     5
370
    13
390
F
100
AcDbPolyline
 90
        3
 70
     1
 43
0.0
 10
51.0243
 20
-27.228182
 10
50.50666
 20
-29.160034
 10
51.920876
 20
-27.745821
  0
LWPOLYLINE
  5
315
330
57C
100
AcDbEntity
  8
0
 62
     5
370
    13
390
F
100
AcDbPolyline
 90
        3
 70
     1
 43
0.0
 10
1.931852
 20
58.837708
 10
0.0
 20
58.320068
 10
1.931852
 20
57.802429
  0
ENDBLK
  5
680
330
57C
100
AcDbEntity
  8
0
100
AcDbBlockEnd
  0
BLOCK
  5
681
330
57F
100
AcDbEntity
  8
0
100
AcDbBlockBegin
  2
BLOCK61
 70
     0
 10
0.0
 20
0.0
 30
0.0
  3
BLOCK61
  1

  0
LINE
  5
31C
330
57F
100
AcDbEntity
  8
0
  6
DASHDOT
 62
     7
370
    13
390
F
100
AcDbLine
 10
58.5
 20
0.0
 30
0.0
 11
-58.5
 21
0.0
 31
0.0
  0
LINE
  5
31D
330
57F
100
AcDbEntity
  8
0
  6
DASHDOT
 62
     7
370
    13
390
F
100
AcDbLine
 10
0.0
 20
58.5
 30
0.0
 11
0.0
 21
-58.5
 31
0.0
  0
ENDBLK
  5
682
330
57F
100
AcDbEntity
  8
0
100
AcDbBlockEnd
  0
BLOCK
  5
683
330
582
100
AcDbEntity
  8
0
100
AcDbBlockBegin
  2
BLOCK62
 70
     0
 10
0.0
 20
0.0
 30
0.0
  3
BLOCK62
  1

  0
ARC
  5
320
330
582
100
AcDbEntity
  8
0
 62
     7
370
    35
390
F
100
AcDbCircle
 10
0.0
 20
0.0
 30
0.0
 40
45.0
100
AcDbArc
 50
180.000005
 51
0.0
  0
CIRCLE
  5
321
330
582
100
AcDbEntity
  8
0
 62
     7
370
    35
390
F
100
AcDbCircle
 10
0.0
 20
0.0
 30
0.0
 40
45.0
  0
ARC
  5
322
330
582
100
AcDbEntity
  8
0
 62
     7
370
    35
390
F
100
AcDbCircle
 10
0.0
 20
0.0
 30
0.0
 40
28.0
100
AcDbArc
 50
0.0
 51
180.000005
  0
CIRCLE
  5
323
330
582
100
AcDbEntity
  8
0
 62
     7
370
    35
390
F
100
AcDbCircle
 10
0.0
 20
0.0
 30
0.0
 40
30.0
  0
CIRCLE
  5
324
330
582
100
AcDbEntity
  8
0
 62
     7
370
    35
390
F
100
AcDbCircle
 10
0.0
 20
0.0
 30
0.0
 40
28.0
  0
ENDBLK
  5
684
330
582
100
AcDbEntity
  8
0
100
AcDbBlockEnd
  0
BLOCK
  5
685
330
585
100
AcDbEntity
  8
0
100
AcDbBlockBegin
  2
BLOCK63
 70
     0
 10
0.0
 20
0.0
 30
0.0
  3
BLOCK63
  1

  0
TEXT
  5
327
330
585
100
AcDbEntity
  8
0
 62
     7
370
    13
390
F
100
AcDbText
 10
-120.204262
 20
-59.315262
 30
0.0
 40
7.0
  1
Vista isometrica
 41
1.4525338267175
 72
     5
 11
-23.051537
 21
-59.315262
 31
0.0
100
AcDbText
  0
TEXT
  5
328
330
585
100
AcDbEntity
  8
0
 62
     7
370
    13
390
F
100
AcDbText
 10
-120.204262
 20
-71.40892
 30
0.0
 40
7.0
  1
Scala:
 41
1.553615095948828
 72
     5
 11
-83.771988
 21
-71.40892
 31
0.0
100
AcDbText
  0
TEXT
  5
329
330
585
100
AcDbEntity
  8
0
 62
     7
370
    13
390
F
100
AcDbText
 10
-83.771988
 20
-71.40892
 30
0.0
 40
7.0
  1
  1:2
 41
1.470119198743924
 72
     5
 11
-53.411751
 21
-71.40892
 31
0.0
100
AcDbText
  0
ENDBLK
  5
686
330
585
100
AcDbEntity
  8
0
100
AcDbBlockEnd
  0
BLOCK
  5
687
330
588
100
AcDbEntity
  8
0
100
AcDbBlockBegin
  2
BLOCK64
 70
     0
 10
0.0
 20
0.0
 30
0.0
  3
BLOCK64
  1

  0
ELLIPSE
  5
32C
330
588
100
AcDbEntity
  8
0
 62
     7
370
    35
390
F
100
AcDbEllipse
 10
0.0
 20
0.0
 30
0.0
 11
18.8619613647461
 21
40.85616683959962
 31
0.0
210
0.0
220
0.0
230
1.0
 40
0.6399550000000002
 41
3.14158407406622
 42
4.228127365392155
  0
ELLIPSE
  5
32D
330
588
100
AcDbEntity
  8
0
 62
     7
370
    35
390
F
100
AcDbEllipse
 10
0.0
 20
0.0
 30
0.0
 11
18.8619613647461
 21
40.85616683959962
 31
0.0
210
0.0
220
0.0
230
1.0
 40
0.6399550000000002
 41
4.228127365392155
 42
6.283176727656013
  0
ELLIPSE
  5
32E
330
588
100
AcDbEntity
  8
0
 62
     7
370
    35
390
F
100
AcDbEllipse
 10
-122.786919
 20
56.686718
 30
0.0
 11
18.8619613647461
 21
40.85616683959962
 31
0.0
210
0.0
220
0.0
230
1.0
 40
0.6399550000000002
 41
3.14158407406622
 42
6.283176727656013
  0
SPLINE
  5
32F
330
588
100
AcDbEntity
  8
0
 62
     7
370
    35
390
F
100
AcDbSpline
210
0.0
220
0.0
230
1.0
 70
     8
 71
     3
 72
    39
 73
    35
 74
     0
 42
0.0
 43
0.0
 40
0.0
 40
0.0
 40
0.0
 40
0.0
 40
0.1602682265793702
 40
0.3214225427872401
 40
0.4828645708850538
 40
0.6440687500991196
 40
0.8045806681647633
 40
0.964014552587588
 40
1.122050095833183
 40
1.278428734188015
 40
1.432949467525688
 40
1.585464290020228
 40
1.735873295907878
 40
1.884119527035084
 40
2.030183638123607
 40
2.174078469641124
 40
2.315843635091968
 40
2.455540247594702
 40
2.593245927993899
 40
2.729050251918404
 40
2.863050805105807
 40
2.99535002463595
 40
3.126053008934029
 40
3.255266482684946
 40
3.38309910564481
 40
3.509663317951707
 40
3.63507891896104
 40
3.759478579612857
 40
3.883020092647363
 40
4.005934840744307
 40
4.128477657567307
 40
4.250882980662281
 40
4.373366640855128
 40
4.496128236568803
 40
4.496128236568803
 40
4.496128236568803
 40
4.496128236568803
 10
-4.788328505042972
 20
4.159832847466148
 30
0.0
 10
-4.767161936642787
 20
4.208889678934437
 30
0.0
 10
-4.722936331777865
 20
4.30649717509383
 30
0.0
 10
-4.651377041480858
 20
4.450708166428576
 30
0.0
 10
-4.574694246514731
 20
4.592613346437502
 30
0.0
 10
-4.493230389858963
 20
4.73158160269217
 30
0.0
 10
-4.407305798480952
 20
4.86704536722786
 30
0.0
 10
-4.317219333417878
 20
4.99850046012647
 30
0.0
 10
-4.223251088312262
 20
5.125500928058266
 30
0.0
 10
-4.12566454251183
 20
5.24765516635633
 30
0.0
 10
-4.02470883394399
 20
5.364621652754703
 30
0.0
 10
-3.920620952113378
 20
5.476104744494101
 30
0.0
 10
-3.813627885695227
 20
5.581850424236091
 30
0.0
 10
-3.703948700408792
 20
5.68164202878612
 30
0.0
 10
-3.591796541277508
 20
5.775295953495201
 30
0.0
 10
-3.477380551471303
 20
5.862657333819351
 30
0.0
 10
-3.360907703767503
 20
5.943595700830745
 30
0.0
 10
-3.24258454354575
 20
6.018000606578743
 30
0.0
 10
-3.122618845881017
 20
6.085777213586613
 30
0.0
 10
-3.001221192882936
 20
6.146841843504622
 30
0.0
 10
-2.878606481076261
 20
6.201117476624542
 30
0.0
 10
-2.754995370610795
 20
6.248529208906958
 30
0.0
 10
-2.630615693200197
 20
6.288999623802937
 30
0.0
 10
-2.505703826087892
 20
6.322444222671168
 30
0.0
 10
-2.38050608157884
 20
6.348766377128988
 30
0.0
 10
-2.255280014655955
 20
6.367853764223094
 30
0.0
 10
-2.130296105494163
 20
6.379569061786095
 30
0.0
 10
-2.00583672367516
 20
6.383761521798839
 30
0.0
 10
-1.88218697207372
 20
6.380200425352921
 30
0.0
 10
-1.759627265482786
 20
6.368879707678224
 30
0.0
 10
-1.638397359609994
 20
6.349930901201987
 30
0.0
 10
-1.518735985700975
 20
6.323451421470512
 30
0.0
 10
-1.400883771846668
 20
6.289543828372627
 30
0.0
 10
-1.323832606252276
 20
6.262106840612423
 30
0.0
 10
-1.285710054280259
 20
6.247199067237233
 30
0.0
  0
SPLINE
  5
330
330
588
100
AcDbEntity
  8
0
 62
     7
370
    35
390
F
100
AcDbSpline
210
0.0
220
0.0
230
1.0
 70
     8
 71
     3
 72
    40
 73
    36
 74
     0
 42
0.0
 43
0.0
 40
0.0
 40
0.0
 40
0.0
 40
0.0
 40
0.1266459620312998
 40
0.2539689462423824
 40
0.3821441710378971
 40
0.5113352764609908
 40
0.6416945439613928
 40
0.7733624755706018
 40
0.9064667439685667
 40
1.041120545241489
 40
1.177420402909545
 40
1.315443484472802
 40
1.455244499953987
 40
1.596852255683195
 40
1.740265936170949
 40
1.885451182944021
 40
2.03233603248009
 40
2.180806766793207
 40
2.3307063806456
 40
2.481883468999099
 40
2.634266511179405
 40
2.787864480472113
 40
2.942750322295273
 40
3.099040741104302
 40
3.256873003330187
 40
3.416379405299812
 40
3.577660063218192
 40
3.740754693729704
 40
3.905614036394506
 40
4.072071516312042
 40
4.23981567082232
 40
4.408363799623001
 40
4.577037284738675
 40
4.744939119879871
 40
4.910934469080881
 40
4.910934469080881
 40
4.910934469080881
 40
4.910934469080881
 10
-1.285710054280259
 20
6.247199067237233
 30
0.0
 10
-1.24638084790549
 20
6.231819433258594
 30
0.0
 10
-1.168511728201863
 20
6.198490862531575
 30
0.0
 10
-1.054692883254799
 20
6.141103244700577
 30
0.0
 10
-0.9439190781521474
 20
6.076353224540005
 30
0.0
 10
-0.8364752834045772
 20
6.004380967877948
 30
0.0
 10
-0.7326525935310337
 20
5.925342802016859
 30
0.0
 10
-0.6327357486051586
 20
5.839409511046477
 30
0.0
 10
-0.5370034978310172
 20
5.746769659667674
 30
0.0
 10
-0.4457254246645621
 20
5.647631515699238
 30
0.0
 10
-0.3591596774225343
 20
5.54222531305693
 30
0.0
 10
-0.2775504004255256
 20
5.43080538257751
 30
0.0
 10
-0.2011251895715873
 20
5.313652283272916
 30
0.0
 10
-0.1300924964743044
 20
5.191074897907657
 30
0.0
 10
-0.0646389445099358
 20
5.063412523058075
 30
0.0
 10
-0.0049267672609958
 20
4.931036889111748
 30
0.0
 10
0.0489094724061885
 20
4.794354359579894
 30
0.0
 10
0.0967639838112531
 20
4.653806533889165
 30
0.0
 10
0.1385751666053957
 20
4.509856567441672
 30
0.0
 10
0.1742944348348066
 20
4.362934736692746
 30
0.0
 10
0.2038289051712124
 20
4.213389645905925
 30
0.0
 10
0.2270683721131648
 20
4.061487244451727
 30
0.0
 10
0.2438917140962624
 20
3.907430603628066
 30
0.0
 10
0.2541752640733037
 20
3.751384914167915
 30
0.0
 10
0.257800556332385
 20
3.593502068861534
 30
0.0
 10
0.2546624553726853
 20
3.43394520097577
 30
0.0
 10
0.2446773850407182
 20
3.272913071493876
 30
0.0
 10
0.2277917548141585
 20
3.110664359957098
 30
0.0
 10
0.2039906243053524
 20
2.947541888179977
 30
0.0
 10
0.1733066692623195
 20
2.783996743516678
 30
0.0
 10
0.135829610713764
 20
2.6206124273696
 30
0.0
 10
0.0917158743640204
 20
2.458128376923356
 30
0.0
 10
0.0411996504476375
 20
2.297464948389551
 30
0.0
 10
-0.0153988810386629
 20
2.139741487104845
 30
0.0
 10
-0.0572562799642264
 20
2.036584118541431
 30
0.0
 10
-0.0791711906425904
 20
1.985768383986114
 30
0.0
  0
SPLINE
  5
331
330
588
100
AcDbEntity
  8
0
 62
     7
370
    35
390
F
100
AcDbSpline
210
0.0
220
0.0
230
1.0
 70
     8
 71
     3
 72
    39
 73
    35
 74
     0
 42
0.0
 43
0.0
 40
0.0
 40
0.0
 40
0.0
 40
0.0
 40
0.1602884871411907
 40
0.3215454289660183
 40
0.4832270082359195
 40
0.644859621648984
 40
0.8060372032968187
 40
0.9664177913793327
 40
1.125719506811287
 40
1.283716064231451
 40
1.440231908526167
 40
1.5951370567268
 40
1.748341721747833
 40
1.899790797853967
 40
2.049458295596058
 40
2.197341824223566
 40
2.343457230537013
 40
2.487833513393287
 40
2.630508141685182
 40
2.771522910258008
 40
2.910920473290562
 40
3.048741699284708
 40
3.185023997755454
 40
3.319800777193326
 40
3.453102209154683
 40
3.584957496252235
 40
3.71539887303559
 40
3.844467606720732
 40
3.972228118601484
 40
4.098833314089583
 40
4.224476818308661
 40
4.349341962659527
 40
4.473604589327591
 40
4.597436420623718
 40
4.597436420623718
 40
4.597436420623718
 40
4.597436420623718
 10
-0.0791711906425851
 20
1.985768383986129
 30
0.0
 10
-0.1003410489991745
 20
1.936703926180842
 30
0.0
 10
-0.144808951027752
 20
1.839156013272159
 30
0.0
 10
-0.2174132200040806
 20
1.695322212570489
 30
0.0
 10
-0.2958328148741382
 20
1.554065405370129
 30
0.0
 10
-0.3797139168045155
 20
1.416011970855269
 30
0.0
 10
-0.4687136575484924
 20
1.28172142640098
 30
0.0
 10
-0.5625014732948486
 20
1.151686068532093
 30
0.0
 10
-0.6607577566506024
 20
1.02633698933606
 30
0.0
 10
-0.7631731418593241
 20
0.9060483983755447
 30
0.0
 10
-0.8694475278239318
 20
0.7911423917635674
 30
0.0
 10
-0.9792890782325362
 20
0.6818935840634603
 30
0.0
 10
-1.092413138165483
 20
0.5785337503094581
 30
0.0
 10
-1.20854108826949
 20
0.4812564352507349
 30
0.0
 10
-1.327399137124114
 20
0.3902215410843994
 30
0.0
 10
-1.448717058177837
 20
0.3055598937519579
 30
0.0
 10
-1.572226875683811
 20
0.2273777932258821
 30
0.0
 10
-1.697661503654533
 20
0.1557615531928339
 30
0.0
 10
-1.82475334089963
 20
0.0907820363160798
 30
0.0
 10
-1.953232824789483
 20
0.032499189839121
 30
0.0
 10
-2.082826946185616
 20
-0.0190334105888012
 30
0.0
 10
-2.213257729656575
 20
-0.063764015038392
 30
0.0
 10
-2.344240680962752
 20
-0.1016381073216806
 30
0.0
 10
-2.475483217849888
 20
-0.132593904765185
 30
0.0
 10
-2.606683054954094
 20
-0.15655741174164
 30
0.0
 10
-2.73752668272523
 20
-0.1734389543337168
 30
0.0
 10
-2.867687454231429
 20
-0.1831240491328116
 30
0.0
 10
-2.99682701130095
 20
-0.1854847881056023
 30
0.0
 10
-3.124609604587301
 20
-0.1803140523410667
 30
0.0
 10
-3.250717855259556
 20
-0.1676193760000271
 30
0.0
 10
-3.374885474900858
 20
-0.1475401802328257
 30
0.0
 10
-3.496853499493928
 20
-0.120180878224867
 30
0.0
 10
-3.616364828538911
 20
-0.0856490445199017
 30
0.0
 10
-3.694308418765748
 20
-0.0578878661541948
 30
0.0
 10
-3.732763126544477
 20
-0.0428506229685827
 30
0.0
  0
SPLINE
  5
332
330
588
100
AcDbEntity
  8
0
 62
     7
370
    35
390
F
100
AcDbSpline
210
0.0
220
0.0
230
1.0
 70
     8
 71
     3
 72
    40
 73
    36
 74
     0
 42
0.0
 43
0.0
 40
0.0
 40
0.0
 40
0.0
 40
0.0
 40
0.1269916074975184
 40
0.2538943109820552
 40
0.3808968528119993
 40
0.5081913027269838
 40
0.6359726427158738
 40
0.7644372611265042
 40
0.8937803783727032
 40
1.024192476525048
 40
1.155854851751023
 40
1.288934446971409
 40
1.423578147956928
 40
1.559906736830313
 40
1.698008692217095
 40
1.837934006988833
 40
1.979688166247799
 40
2.123226394351087
 40
2.268450866377933
 40
2.415258206412846
 40
2.563613559754963
 40
2.713552696685779
 40
2.865166594513513
 40
3.018581809189131
 40
3.173937533268061
 40
3.331360153798867
 40
3.490936100747922
 40
3.652683751016149
 40
3.816525097691545
 40
3.982257808109342
 40
4.149528197677779
 40
4.317805572589746
 40
4.48635838482643
 40
4.654232749316297
 40
4.820234175366043
 40
4.820234175366043
 40
4.820234175366043
 40
4.820234175366043
 10
-3.732763126544477
 20
-0.0428506229685827
 30
0.0
 10
-3.772199895293092
 20
-0.0274293568510519
 30
0.0
 10
-3.850055312414283
 20
0.0058674702463504
 30
0.0
 10
-3.96349708382815
 20
0.063083674465538
 30
0.0
 10
-4.073186446979701
 20
0.1273901962095408
 30
0.0
 10
-4.178845661930362
 20
0.1986513057322449
 30
0.0
 10
-4.280196721413874
 20
0.2767171094381541
 30
0.0
 10
-4.376974231219577
 20
0.3614252802079137
 30
0.0
 10
-4.468925288534812
 20
0.4525977568216126
 30
0.0
 10
-4.555812834331475
 20
0.5500388504295206
 30
0.0
 10
-4.637418011057062
 20
0.653533026256327
 30
0.0
 10
-4.71354269290995
 20
0.7628428162028507
 30
0.0
 10
-4.784011846885736
 20
0.8777067165734587
 30
0.0
 10
-4.848675782471722
 20
0.9978370857756111
 30
0.0
 10
-4.907412322950491
 20
1.122917994443067
 30
0.0
 10
-4.960128680250336
 20
1.25260306759282
 30
0.0
 10
-5.00676391867764
 20
1.386513089878946
 30
0.0
 10
-5.047288941631198
 20
1.524235027714003
 30
0.0
 10
-5.08172032164625
 20
1.665335599535488
 30
0.0
 10
-5.110083780070587
 20
1.80941397394042
 30
0.0
 10
-5.132352591795195
 20
1.956147437988273
 30
0.0
 10
-5.148476559016636
 20
2.105293187406171
 30
0.0
 10
-5.158390623810845
 20
2.256669561372016
 30
0.0
 10
-5.162025416270664
 20
2.410132021772608
 30
0.0
 10
-5.159316600707104
 20
2.565549324067384
 30
0.0
 10
-5.150214050183816
 20
2.72277948920964
 30
0.0
 10
-5.134690499041422
 20
2.881645645124161
 30
0.0
 10
-5.1127497380427
 20
3.041911661157991
 30
0.0
 10
-5.084434354098486
 20
3.203257538451287
 30
0.0
 10
-5.049833049632049
 20
3.365254579986367
 30
0.0
 10
-5.009087663452289
 20
3.527340259872998
 30
0.0
 10
-4.962399716090411
 20
3.688793318831448
 30
0.0
 10
-4.910037464201755
 20
3.848707543796167
 30
0.0
 10
-4.852340133160908
 20
4.005970704977793
 30
0.0
 10
-4.810243536677721
 20
4.109016843014532
 30
0.0
 10
-4.788328505042966
 20
4.159832847466156
 30
0.0
  0
SPLINE
  5
333
330
588
100
AcDbEntity
  8
0
 62
     7
370
    35
390
F
100
AcDbSpline
210
0.0
220
0.0
230
1.0
 70
     8
 71
     3
 72
    27
 73
    23
 74
     0
 42
0.0
 43
0.0
 40
0.0
 40
0.0
 40
0.0
 40
0.0
 40
0.1692495150885517
 40
0.3395116988088913
 40
0.5101676577942912
 40
0.6806837705154469
 40
0.8506079495098609
 40
1.019564936396563
 40
1.18725085327727
 40
1.353427171754065
 40
1.517914227564018
 40
1.680584395154892
 40
1.841355036097997
 40
2.000181343487835
 40
2.157049217774074
 40
2.311968324774085
 40
2.464965501477156
 40
2.616078687987681
 40
2.765351573880508
 40
2.912829154870432
 40
3.058554402793676
 40
3.202566261322336
 40
3.202566261322336
 40
3.202566261322336
 40
3.202566261322336
 10
-2.467408829910923
 20
2.915076081893742
 30
0.0
 10
-2.489761079322511
 20
2.863267133143405
 30
0.0
 10
-2.536837944342133
 20
2.760322145534993
 30
0.0
 10
-2.614035464922777
 20
2.608739490739787
 30
0.0
 10
-2.697692235956839
 20
2.460143095233307
 30
0.0
 10
-2.787398481455932
 20
2.31524996948528
 30
0.0
 10
-2.882756419493509
 20
2.174695855414151
 30
0.0
 10
-2.983381928179066
 20
2.039035329860467
 30
0.0
 10
-3.088902996109182
 20
1.908749464666915
 30
0.0
 10
-3.19895889797415
 20
1.784251477722399
 30
0.0
 10
-3.31319903869955
 20
1.66589290764391
 30
0.0
 10
-3.431281749865805
 20
1.553969619834492
 30
0.0
 10
-3.552872969444932
 20
1.448727818037345
 30
0.0
 10
-3.677644830341917
 20
1.350370012509968
 30
0.0
 10
-3.805274165774856
 20
1.259060958924203
 30
0.0
 10
-3.935440920332848
 20
1.174933575721382
 30
0.0
 10
-4.067826545752337
 20
1.098094830345665
 30
0.0
 10
-4.202112118780344
 20
1.028631670409332
 30
0.0
 10
-4.337977166311617
 20
0.9666167605574536
 30
0.0
 10
-4.475095607724737
 20
0.912114939883488
 30
0.0
 10
-4.613141992983005
 20
0.8651870815017073
 30
0.0
 10
-4.70609615821818
 20
0.8388443701004371
 30
0.0
 10
-4.752621995392227
 20
0.8269796093403556
 30
0.0
  0
SPLINE
  5
334
330
588
100
AcDbEntity
  8
0
 62
     7
370
    35
390
F
100
AcDbSpline
210
0.0
220
0.0
230
1.0
 70
     8
 71
     3
 72
    29
 73
    25
 74
     0
 42
0.0
 43
0.0
 40
0.0
 40
0.0
 40
0.0
 40
0.0
 40
0.143991825102189
 40
0.2898602917492749
 40
0.4374370500449622
 40
0.5865839658636495
 40
0.7372055835081086
 40
0.8892495164264109
 40
1.04270322715551
 40
1.197587897142984
 40
1.353949914273137
 40
1.511850412070077
 40
1.671353251085806
 40
1.832511816424594
 40
1.995354997488842
 40
2.159872704554828
 40
2.32600125579645
 40
2.493608938163892
 40
2.662482011603947
 40
2.832311397838732
 40
3.002680284443288
 40
3.173052897309243
 40
3.342764769883246
 40
3.511014996780074
 40
3.511014996780074
 40
3.511014996780074
 40
3.511014996780074
 10
-2.624518805997549
 20
6.289311138884697
 30
0.0
 10
-2.598536791428867
 20
6.248940408096142
 30
0.0
 10
-2.548500845728539
 20
6.166240063882904
 30
0.0
 10
-2.479680630803683
 20
6.037613652395532
 30
0.0
 10
-2.416664436487413
 20
5.904153850877975
 30
0.0
 10
-2.3595753633082
 20
5.766338328839426
 30
0.0
 10
-2.30854298368481
 20
5.624585857053047
 30
0.0
 10
-2.263704399912373
 20
5.479252133004104
 30
0.0
 10
-2.225198938725804
 20
5.330645991099484
 30
0.0
 10
-2.19316495138996
 20
5.179040704280834
 30
0.0
 10
-2.167736014269709
 20
5.024686613513598
 30
0.0
 10
-2.149037222666733
 20
4.867823348150852
 30
0.0
 10
-2.137181367336758
 20
4.708692083967359
 30
0.0
 10
-2.132265036350319
 20
4.547547708156817
 30
0.0
 10
-2.134364614428842
 20
4.384670929577227
 30
0.0
 10
-2.143532163240464
 20
4.220380333507641
 30
0.0
 10
-2.159791156516256
 20
4.055044385630446
 30
0.0
 10
-2.183132034791072
 20
3.889093394662683
 30
0.0
 10
-2.213507573009821
 20
3.723031376617526
 30
0.0
 10
-2.25082796012044
 20
3.557447968729155
 30
0.0
 10
-2.294955885607388
 20
3.393029715831046
 30
0.0
 10
-2.345700507294827
 20
3.230573095874474
 30
0.0
 10
-2.402814569659627
 20
3.070990216309395
 30
0.0
 10
-2.445186209432442
 20
2.966578094096746
 30
0.0
 10
-2.467408829910933
 20
2.915076081893768
 30
0.0
  0
LINE
  5
335
330
588
100
AcDbEntity
  8
0
 62
     7
370
    35
390
F
100
AcDbLine
 10
18.862185
 20
40.856064
 30
0.0
 11
-103.924728
 21
97.542778
 31
0.0
  0
LINE
  5
336
330
588
100
AcDbEntity
  8
0
 62
     7
370
    35
390
F
100
AcDbLine
 10
-18.862185
 20
-40.856064
 30
0.0
 11
-141.649109
 21
15.830654
 31
0.0
  0
ELLIPSE
  5
337
330
588
100
AcDbEntity
  8
0
 62
     7
370
    35
390
F
100
AcDbEllipse
 10
-122.786919
 20
56.686718
 30
0.0
 11
18.8619613647461
 21
40.85616683959962
 31
0.0
210
0.0
220
0.0
230
1.0
 40
0.6399550000000002
 41
3.14158407406622
 42
4.228127365392155
  0
ELLIPSE
  5
338
330
588
100
AcDbEntity
  8
0
 62
     7
370
    35
390
F
100
AcDbEllipse
 10
-122.786919
 20
56.686718
 30
0.0
 11
18.8619613647461
 21
40.85616683959962
 31
0.0
210
0.0
220
0.0
230
1.0
 40
0.6399550000000002
 41
4.228127365392155
 42
6.283176727656013
  0
ELLIPSE
  5
339
330
588
100
AcDbEntity
  8
0
 62
     7
370
    35
390
F
100
AcDbEllipse
 10
-125.57753
 20
57.975052
 30
0.0
 11
18.8619613647461
 21
40.85616683959962
 31
0.0
210
0.0
220
0.0
230
1.0
 40
0.6399550000000002
 41
3.14158407406622
 42
6.283176727656013
  0
ELLIPSE
  5
33A
330
588
100
AcDbEntity
  8
0
 62
     7
370
    35
390
F
100
AcDbEllipse
 10
-125.57753
 20
57.975052
 30
0.0
 11
18.8619613647461
 21
40.85616683959962
 31
0.0
210
0.0
220
0.0
230
1.0
 40
0.6399550000000002
 41
6.283176727656013
 42
7.124254008486322
  0
ELLIPSE
  5
33B
330
588
100
AcDbEntity
  8
0
 62
     7
370
    35
390
F
100
AcDbEllipse
 10
-125.57753
 20
57.975052
 30
0.0
 11
18.8619613647461
 21
40.85616683959962
 31
0.0
210
0.0
220
0.0
230
1.0
 40
0.6399550000000002
 41
2.300523809380198
 42
3.14158407406622
  0
LINE
  5
33C
330
588
100
AcDbEntity
  8
0
 62
     7
 48
0.076841
370
    35
390
F
100
AcDbLine
 10
-103.924728
 20
97.542778
 30
0.0
 11
-106.71534
 21
98.831116
 31
0.0
  0
LINE
  5
33D
330
588
100
AcDbEntity
  8
0
 62
     7
 48
0.076841
370
    35
390
F
100
AcDbLine
 10
-141.649109
 20
15.830654
 30
0.0
 11
-144.439713
 21
17.118988
 31
0.0
  0
ELLIPSE
  5
33E
330
588
100
AcDbEntity
  8
0
 62
     7
370
    35
390
F
100
AcDbEllipse
 10
-251.15506
 20
115.950104
 30
0.0
 11
12.57464027404785
 21
27.23744583129883
 31
0.0
210
0.0
220
0.0
230
1.0
 40
0.6399549999999999
 41
3.141584074066221
 42
6.283176727656012
  0
ELLIPSE
  5
33F
330
588
100
AcDbEntity
  8
0
 62
     7
370
    35
390
F
100
AcDbEllipse
 10
-251.15506
 20
115.950104
 30
0.0
 11
12.57464027404785
 21
27.23744583129883
 31
0.0
210
0.0
220
0.0
230
1.0
 40
0.6399549999999999
 41
6.283176727656012
 42
7.369720018981947
  0
ELLIPSE
  5
340
330
588
100
AcDbEntity
  8
0
 62
     7
370
    35
390
F
100
AcDbEllipse
 10
-251.15506
 20
115.950104
 30
0.0
 11
12.57464027404785
 21
27.23744583129883
 31
0.0
210
0.0
220
0.0
230
1.0
 40
0.6399549999999999
 41
1.086534711802362
 42
3.141584074066222
  0
ELLIPSE
  5
341
330
588
100
AcDbEntity
  8
0
 62
     7
370
    35
390
F
100
AcDbEllipse
 10
-251.15506
 20
115.950104
 30
0.0
 11
11.73633098602295
 21
25.42161560058596
 31
0.0
210
0.0
220
0.0
230
1.0
 40
0.639955
 41
3.141584074066772
 42
6.283176727653924
  0
ELLIPSE
  5
342
330
588
100
AcDbEntity
  8
0
 62
     7
370
    35
390
F
100
AcDbEllipse
 10
-251.15506
 20
115.950104
 30
0.0
 11
11.73633098602295
 21
25.42161560058596
 31
0.0
210
0.0
220
0.0
230
1.0
 40
0.639955
 41
6.28317672765552
 42
7.369720018980353
  0
ELLIPSE
  5
343
330
588
100
AcDbEntity
  8
0
 62
     7
370
    35
390
F
100
AcDbEllipse
 10
-251.15506
 20
115.950104
 30
0.0
 11
11.73633098602295
 21
25.42161560058596
 31
0.0
210
0.0
220
0.0
230
1.0
 40
0.639955
 41
1.086534711803957
 42
3.141584074066772
  0
ELLIPSE
  5
344
330
588
100
AcDbEntity
  8
0
 62
     7
370
    35
390
F
100
AcDbEllipse
 10
-125.57753
 20
57.975052
 30
0.0
 11
12.57464027404785
 21
27.23744583129883
 31
0.0
210
0.0
220
0.0
230
1.0
 40
0.6399549999999999
 41
3.141584074066221
 42
4.228127365392155
  0
ELLIPSE
  5
345
330
588
100
AcDbEntity
  8
0
 62
     7
370
    35
390
F
100
AcDbEllipse
 10
-125.57753
 20
57.975052
 30
0.0
 11
12.57464027404785
 21
27.23744583129883
 31
0.0
210
0.0
220
0.0
230
1.0
 40
0.6399549999999999
 41
4.228127365392155
 42
6.283176727656013
  0
LINE
  5
346
330
588
100
AcDbEntity
  8
0
 62
     7
370
    35
390
F
100
AcDbLine
 10
-113.002739
 20
85.212425
 30
0.0
 11
-238.580261
 21
143.187485
 31
0.0
  0
LINE
  5
347
330
588
100
AcDbEntity
  8
0
 62
     7
370
    35
390
F
100
AcDbLine
 10
-138.152313
 20
30.737677
 30
0.0
 11
-263.729858
 21
88.71273
 31
0.0
  0
ENDBLK
  5
688
330
588
100
AcDbEntity
  8
0
100
AcDbBlockEnd
  0
BLOCK
  5
689
330
3E5
100
AcDbEntity
  8
0
100
AcDbBlockBegin
  2
*D64
 70
     1
 10
0.0
 20
0.0
 30
0.0
  3
*D64
  1

  0
POINT
  5
3DC
330
3E5
100
AcDbEntity
  8
DEFPOINTS
  6
ByBlock
 62
     0
380
     1
100
AcDbPoint
 10
312.6213718736395
 20
499.109978
 30
0.0
  0
POINT
  5
3DD
330
3E5
100
AcDbEntity
  8
DEFPOINTS
  6
ByBlock
 62
     0
380
     1
100
AcDbPoint
 10
312.6213718736395
 20
417.109978
 30
0.0
  0
LINE
  5
3DE
330
3E5
100
AcDbEntity
  8
0
  6
ByBlock
 62
     0
370
    -2
380
     1
100
AcDbLine
 10
311.9963718736395
 20
499.109978
 30
0.0
 11
288.3651518465779
 21
499.109978
 31
0.0
  0
LINE
  5
3DF
330
3E5
100
AcDbEntity
  8
0
  6
ByBlock
 62
     0
370
    -2
380
     1
100
AcDbLine
 10
311.9963718736395
 20
417.109978
 30
0.0
 11
288.3651518465779
 21
417.109978
 31
0.0
  0
LINE
  5
3E0
330
3E5
100
AcDbEntity
  8
0
  6
ByBlock
 62
     0
370
    -2
380
     1
100
AcDbLine
 10
289.6151518465779
 20
496.609978
 30
0.0
 11
289.6151518465779
 21
419.609978
 31
0.0
  0
SOLID
  5
3E1
330
3E5
100
AcDbEntity
  8
0
  6
ByBlock
 62
     0
380
     1
100
AcDbTrace
 10
289.6151518465779
 20
499.109978
 30
0.0
 11
289.1984851799112
 21
496.609978
 31
0.0
 12
290.0318185132446
 22
496.609978
 32
0.0
 13
290.0318185132446
 23
496.609978
 33
0.0
  0
SOLID
  5
3E2
330
3E5
100
AcDbEntity
  8
0
  6
ByBlock
 62
     0
380
     1
100
AcDbTrace
 10
289.6151518465779
 20
417.109978
 30
0.0
 11
289.1984851799112
 21
419.609978
 31
0.0
 12
290.0318185132446
 22
419.609978
 32
0.0
 13
290.0318185132446
 23
419.609978
 33
0.0
  0
MTEXT
  5
3E3
330
3E5
100
AcDbEntity
  8
0
  6
ByBlock
 62
     0
370
    -2
380
     1
100
AcDbMText
 10
287.8651518465779
 20
458.109978
 30
0.0
 40
2.5
 41
0.0
 71
     5
 72
     1
  1
\A1;82
 11
6.123031769111886E-17
 21
1.0
 31
0.0
 73
     1
 44
1.0
  0
ENDBLK
  5
68A
330
3E5
100
AcDbEntity
  8
0
100
AcDbBlockEnd
  0
BLOCK
  5
68B
330
3F0
100
AcDbEntity
  8
0
100
AcDbBlockBegin
  2
*D65
 70
     1
 10
0.0
 20
0.0
 30
0.0
  3
*D65
  1

  0
POINT
  5
3E7
330
3F0
100
AcDbEntity
  8
DEFPOINTS
  6
ByBlock
 62
     0
380
     1
100
AcDbPoint
 10
312.6213718736395
 20
499.109978
 30
0.0
  0
POINT
  5
3E8
330
3F0
100
AcDbEntity
  8
DEFPOINTS
  6
ByBlock
 62
     0
380
     1
100
AcDbPoint
 10
312.6213718736395
 20
417.109978
 30
0.0
  0
LINE
  5
3E9
330
3F0
100
AcDbEntity
  8
0
  6
ByBlock
 62
     0
370
    -2
380
     1
100
AcDbLine
 10
311.9963718736395
 20
499.109978
 30
0.0
 11
286.6151518465779
 21
499.109978
 31
0.0
  0
LINE
  5
3EA
330
3F0
100
AcDbEntity
  8
0
  6
ByBlock
 62
     0
370
    -2
380
     1
100
AcDbLine
 10
311.9963718736395
 20
417.109978
 30
0.0
 11
286.6151518465779
 21
417.109978
 31
0.0
  0
LINE
  5
3EB
330
3F0
100
AcDbEntity
  8
0
  6
ByBlock
 62
     0
370
    -2
380
     1
100
AcDbLine
 10
287.8651518465779
 20
496.609978
 30
0.0
 11
287.8651518465779
 21
419.609978
 31
0.0
  0
SOLID
  5
3EC
330
3F0
100
AcDbEntity
  8
0
  6
ByBlock
 62
     0
380
     1
100
AcDbTrace
 10
287.8651518465779
 20
499.109978
 30
0.0
 11
287.4484851799112
 21
496.609978
 31
0.0
 12
288.2818185132446
 22
496.609978
 32
0.0
 13
288.2818185132446
 23
496.609978
 33
0.0
  0
SOLID
  5
3ED
330
3F0
100
AcDbEntity
  8
0
  6
ByBlock
 62
     0
380
     1
100
AcDbTrace
 10
287.8651518465779
 20
417.109978
 30
0.0
 11
287.4484851799112
 21
419.609978
 31
0.0
 12
288.2818185132446
 22
419.609978
 32
0.0
 13
288.2818185132446
 23
419.609978
 33
0.0
  0
MTEXT
  5
3EE
330
3F0
100
AcDbEntity
  8
0
  6
ByBlock
 62
     0
370
    -2
380
     1
100
AcDbMText
 10
286.1151518465779
 20
458.109978
 30
0.0
 40
2.5
 41
0.0
 71
     5
 72
     1
  1
\A1;82
 11
6.123031769111886E-17
 21
1.0
 31
0.0
 73
     1
 44
1.0
  0
ENDBLK
  5
68C
330
3F0
100
AcDbEntity
  8
0
100
AcDbBlockEnd
  0
BLOCK
  5
68D
330
3FB
100
AcDbEntity
  8
0
100
AcDbBlockBegin
  2
*D66
 70
     1
 10
0.0
 20
0.0
 30
0.0
  3
*D66
  1

  0
POINT
  5
3F2
330
3FB
100
AcDbEntity
  8
DEFPOINTS
  6
ByBlock
 62
     0
380
     1
100
AcDbPoint
 10
312.6213718736395
 20
499.109978
 30
0.0
  0
POINT
  5
3F3
330
3FB
100
AcDbEntity
  8
DEFPOINTS
  6
ByBlock
 62
     0
380
     1
100
AcDbPoint
 10
312.6213718736395
 20
417.109978
 30
0.0
  0
LINE
  5
3F4
330
3FB
100
AcDbEntity
  8
0
  6
ByBlock
 62
     0
370
    -2
380
     1
100
AcDbLine
 10
311.9963718736395
 20
499.109978
 30
0.0
 11
286.6151518465779
 21
499.109978
 31
0.0
  0
LINE
  5
3F5
330
3FB
100
AcDbEntity
  8
0
  6
ByBlock
 62
     0
370
    -2
380
     1
100
AcDbLine
 10
311.9963718736395
 20
417.109978
 30
0.0
 11
286.6151518465779
 21
417.109978
 31
0.0
  0
LINE
  5
3F6
330
3FB
100
AcDbEntity
  8
0
  6
ByBlock
 62
     0
370
    -2
380
     1
100
AcDbLine
 10
287.8651518465779
 20
496.609978
 30
0.0
 11
287.8651518465779
 21
419.609978
 31
0.0
  0
SOLID
  5
3F7
330
3FB
100
AcDbEntity
  8
0
  6
ByBlock
 62
     0
380
     1
100
AcDbTrace
 10
287.8651518465779
 20
499.109978
 30
0.0
 11
287.4484851799112
 21
496.609978
 31
0.0
 12
288.2818185132446
 22
496.609978
 32
0.0
 13
288.2818185132446
 23
496.609978
 33
0.0
  0
SOLID
  5
3F8
330
3FB
100
AcDbEntity
  8
0
  6
ByBlock
 62
     0
380
     1
100
AcDbTrace
 10
287.8651518465779
 20
417.109978
 30
0.0
 11
287.4484851799112
 21
419.609978
 31
0.0
 12
288.2818185132446
 22
419.609978
 32
0.0
 13
288.2818185132446
 23
419.609978
 33
0.0
  0
MTEXT
  5
3F9
330
3FB
100
AcDbEntity
  8
0
  6
ByBlock
 62
     0
370
    -2
380
     1
100
AcDbMText
 10
286.1151518465779
 20
458.109978
 30
0.0
 40
2.5
 41
0.0
 71
     5
 72
     1
  1
\A1;82
 11
6.123031769111886E-17
 21
1.0
 31
0.0
 73
     1
 44
1.0
  0
ENDBLK
  5
68E
330
3FB
100
AcDbEntity
  8
0
100
AcDbBlockEnd
  0
BLOCK
  5
68F
330
406
100
AcDbEntity
  8
0
100
AcDbBlockBegin
  2
*D67
 70
     1
 10
0.0
 20
0.0
 30
0.0
  3
*D67
  1

  0
POINT
  5
3FD
330
406
100
AcDbEntity
  8
DEFPOINTS
  6
ByBlock
 62
     0
380
     1
100
AcDbPoint
 10
312.6213718736395
 20
499.109978
 30
0.0
  0
POINT
  5
3FE
330
406
100
AcDbEntity
  8
DEFPOINTS
  6
ByBlock
 62
     0
380
     1
100
AcDbPoint
 10
312.6213718736395
 20
417.109978
 30
0.0
  0
LINE
  5
3FF
330
406
100
AcDbEntity
  8
0
  6
ByBlock
 62
     0
370
    -2
380
     1
100
AcDbLine
 10
311.9963718736395
 20
499.109978
 30
0.0
 11
286.6151518465779
 21
499.109978
 31
0.0
  0
LINE
  5
400
330
406
100
AcDbEntity
  8
0
  6
ByBlock
 62
     0
370
    -2
380
     1
100
AcDbLine
 10
311.9963718736395
 20
417.109978
 30
0.0
 11
286.6151518465779
 21
417.109978
 31
0.0
  0
LINE
  5
401
330
406
100
AcDbEntity
  8
0
  6
ByBlock
 62
     0
370
    -2
380
     1
100
AcDbLine
 10
287.8651518465779
 20
496.609978
 30
0.0
 11
287.8651518465779
 21
419.609978
 31
0.0
  0
SOLID
  5
402
330
406
100
AcDbEntity
  8
0
  6
ByBlock
 62
     0
380
     1
100
AcDbTrace
 10
287.8651518465779
 20
499.109978
 30
0.0
 11
287.4484851799112
 21
496.609978
 31
0.0
 12
288.2818185132446
 22
496.609978
 32
0.0
 13
288.2818185132446
 23
496.609978
 33
0.0
  0
SOLID
  5
403
330
406
100
AcDbEntity
  8
0
  6
ByBlock
 62
     0
380
     1
100
AcDbTrace
 10
287.8651518465779
 20
417.109978
 30
0.0
 11
287.4484851799112
 21
419.609978
 31
0.0
 12
288.2818185132446
 22
419.609978
 32
0.0
 13
288.2818185132446
 23
419.609978
 33
0.0
  0
MTEXT
  5
404
330
406
100
AcDbEntity
  8
0
  6
ByBlock
 62
     0
370
    -2
380
     1
100
AcDbMText
 10
286.1151518465779
 20
464.4941867614343
 30
0.0
 40
2.5
 41
0.0
 71
     5
 72
     1
  1
\A1;82
 11
6.123031769111886E-17
 21
1.0
 31
0.0
 73
     1
 44
1.0
  0
ENDBLK
  5
690
330
406
100
AcDbEntity
  8
0
100
AcDbBlockEnd
  0
BLOCK
  5
691
330
411
100
AcDbEntity
  8
0
100
AcDbBlockBegin
  2
*D68
 70
     1
 10
0.0
 20
0.0
 30
0.0
  3
*D68
  1

  0
POINT
  5
408
330
411
100
AcDbEntity
  8
DEFPOINTS
  6
ByBlock
 62
     7
380
     1
100
AcDbPoint
 10
312.6213718736395
 20
499.109978
 30
0.0
  0
POINT
  5
409
330
411
100
AcDbEntity
  8
DEFPOINTS
  6
ByBlock
 62
     7
380
     1
100
AcDbPoint
 10
312.6213718736395
 20
417.109978
 30
0.0
  0
LINE
  5
40A
330
411
100
AcDbEntity
  8
0
  6
ByBlock
 62
     7
370
    -2
380
     1
100
AcDbLine
 10
311.9963718736395
 20
499.109978
 30
0.0
 11
286.6151518465779
 21
499.109978
 31
0.0
  0
LINE
  5
40B
330
411
100
AcDbEntity
  8
0
  6
ByBlock
 62
     7
370
    -2
380
     1
100
AcDbLine
 10
311.9963718736395
 20
417.109978
 30
0.0
 11
286.6151518465779
 21
417.109978
 31
0.0
  0
LINE
  5
40C
330
411
100
AcDbEntity
  8
0
  6
ByBlock
 62
     7
370
    -2
380
     1
100
AcDbLine
 10
287.8651518465779
 20
489.109978
 30
0.0
 11
287.8651518465779
 21
427.109978
 31
0.0
  0
SOLID
  5
40D
330
411
100
AcDbEntity
  8
0
  6
ByBlock
 62
     7
380
     1
100
AcDbTrace
 10
287.8651518465779
 20
499.109978
 30
0.0
 11
286.1984851799112
 21
489.109978
 31
0.0
 12
289.5318185132446
 22
489.109978
 32
0.0
 13
289.5318185132446
 23
489.109978
 33
0.0
  0
SOLID
  5
40E
330
411
100
AcDbEntity
  8
0
  6
ByBlock
 62
     7
380
     1
100
AcDbTrace
 10
287.8651518465779
 20
417.109978
 30
0.0
 11
286.1984851799112
 21
427.109978
 31
0.0
 12
289.5318185132446
 22
427.109978
 32
0.0
 13
289.5318185132446
 23
427.109978
 33
0.0
  0
MTEXT
  5
40F
330
411
100
AcDbEntity
  8
0
  6
ByBlock
 62
     0
370
    -2
380
     1
100
AcDbMText
 10
276.5651518465779
 20
464.4941867614343
 30
0.0
 40
14.0
 41
0.0
 71
     5
 72
     1
  1
\A1;82
 11
6.123031769111886E-17
 21
1.0
 31
0.0
 73
     1
 44
1.0
  0
ENDBLK
  5
692
330
411
100
AcDbEntity
  8
0
100
AcDbBlockEnd
  0
BLOCK
  5
693
330
41C
100
AcDbEntity
  8
0
100
AcDbBlockBegin
  2
*D69
 70
     1
 10
0.0
 20
0.0
 30
0.0
  3
*D69
  1

  0
POINT
  5
413
330
41C
100
AcDbEntity
  8
DEFPOINTS
  6
ByBlock
 62
     7
380
     1
100
AcDbPoint
 10
312.6213718736395
 20
499.109978
 30
0.0
  0
POINT
  5
414
330
41C
100
AcDbEntity
  8
DEFPOINTS
  6
ByBlock
 62
     7
380
     1
100
AcDbPoint
 10
312.6213718736395
 20
417.109978
 30
0.0
  0
LINE
  5
415
330
41C
100
AcDbEntity
  8
0
  6
ByBlock
 62
     7
370
    -2
380
     1
100
AcDbLine
 10
311.9963718736395
 20
499.109978
 30
0.0
 11
286.6151518465779
 21
499.109978
 31
0.0
  0
LINE
  5
416
330
41C
100
AcDbEntity
  8
0
  6
ByBlock
 62
     7
370
    -2
380
     1
100
AcDbLine
 10
311.9963718736395
 20
417.109978
 30
0.0
 11
286.6151518465779
 21
417.109978
 31
0.0
  0
LINE
  5
417
330
41C
100
AcDbEntity
  8
0
  6
ByBlock
 62
     7
370
    -2
380
     1
100
AcDbLine
 10
287.8651518465779
 20
489.109978
 30
0.0
 11
287.8651518465779
 21
427.109978
 31
0.0
  0
SOLID
  5
418
330
41C
100
AcDbEntity
  8
0
  6
ByBlock
 62
     7
380
     1
100
AcDbTrace
 10
287.8651518465779
 20
499.109978
 30
0.0
 11
286.1984851799112
 21
489.109978
 31
0.0
 12
289.5318185132446
 22
489.109978
 32
0.0
 13
289.5318185132446
 23
489.109978
 33
0.0
  0
SOLID
  5
419
330
41C
100
AcDbEntity
  8
0
  6
ByBlock
 62
     7
380
     1
100
AcDbTrace
 10
287.8651518465779
 20
417.109978
 30
0.0
 11
286.1984851799112
 21
427.109978
 31
0.0
 12
289.5318185132446
 22
427.109978
 32
0.0
 13
289.5318185132446
 23
427.109978
 33
0.0
  0
MTEXT
  5
41A
330
41C
100
AcDbEntity
  8
0
  6
ByBlock
 62
     0
370
    -2
380
     1
100
AcDbMText
 10
276.5651518465779
 20
464.4941867614343
 30
0.0
 40
14.0
 41
0.0
 71
     5
 72
     1
  1
\A1;82
 11
6.123031769111886E-17
 21
1.0
 31
0.0
 73
     1
 44
1.0
  0
ENDBLK
  5
694
330
41C
100
AcDbEntity
  8
0
100
AcDbBlockEnd
  0
BLOCK
  5
695
330
427
100
AcDbEntity
  8
0
100
AcDbBlockBegin
  2
*D70
 70
     1
 10
0.0
 20
0.0
 30
0.0
  3
*D70
  1

  0
POINT
  5
41E
330
427
100
AcDbEntity
  8
DEFPOINTS
  6
ByBlock
 62
     7
380
     1
100
AcDbPoint
 10
312.6213718736395
 20
499.109978
 30
0.0
  0
POINT
  5
41F
330
427
100
AcDbEntity
  8
DEFPOINTS
  6
ByBlock
 62
     7
380
     1
100
AcDbPoint
 10
312.6213718736395
 20
417.109978
 30
0.0
  0
LINE
  5
420
330
427
100
AcDbEntity
  8
0
  6
ByBlock
 62
     7
370
    -2
380
     1
100
AcDbLine
 10
311.9963718736395
 20
499.109978
 30
0.0
 11
286.6151518465779
 21
499.109978
 31
0.0
  0
LINE
  5
421
330
427
100
AcDbEntity
  8
0
  6
ByBlock
 62
     7
370
    -2
380
     1
100
AcDbLine
 10
311.9963718736395
 20
417.109978
 30
0.0
 11
286.6151518465779
 21
417.109978
 31
0.0
  0
LINE
  5
422
330
427
100
AcDbEntity
  8
0
  6
ByBlock
 62
     7
370
    -2
380
     1
100
AcDbLine
 10
287.8651518465779
 20
489.109978
 30
0.0
 11
287.8651518465779
 21
427.109978
 31
0.0
  0
SOLID
  5
423
330
427
100
AcDbEntity
  8
0
  6
ByBlock
 62
     7
380
     1
100
AcDbTrace
 10
287.8651518465779
 20
499.109978
 30
0.0
 11
286.1984851799112
 21
489.109978
 31
0.0
 12
289.5318185132446
 22
489.109978
 32
0.0
 13
289.5318185132446
 23
489.109978
 33
0.0
  0
SOLID
  5
424
330
427
100
AcDbEntity
  8
0
  6
ByBlock
 62
     7
380
     1
100
AcDbTrace
 10
287.8651518465779
 20
417.109978
 30
0.0
 11
286.1984851799112
 21
427.109978
 31
0.0
 12
289.5318185132446
 22
427.109978
 32
0.0
 13
289.5318185132446
 23
427.109978
 33
0.0
  0
MTEXT
  5
425
330
427
100
AcDbEntity
  8
0
  6
ByBlock
 62
     0
370
    -2
380
     1
100
AcDbMText
 10
276.5651518465779
 20
458.109978
 30
0.0
 40
14.0
 41
0.0
 71
     5
 72
     1
  1
\A1;82
 11
6.123031769111886E-17
 21
1.0
 31
0.0
 73
     1
 44
1.0
  0
ENDBLK
  5
696
330
427
100
AcDbEntity
  8
0
100
AcDbBlockEnd
  0
BLOCK
  5
697
330
446
100
AcDbEntity
  8
0
100
AcDbBlockBegin
  2
*D71
 70
     1
 10
0.0
 20
0.0
 30
0.0
  3
*D71
  1

  0
POINT
  5
43D
330
446
100
AcDbEntity
  8
DEFPOINTS
  6
ByBlock
 62
     0
380
     1
100
AcDbPoint
 10
303.686887
 20
488.2619386935595
 30
0.0
  0
POINT
  5
43E
330
446
100
AcDbEntity
  8
DEFPOINTS
  6
ByBlock
 62
     0
380
     1
100
AcDbPoint
 10
479.686887
 20
488.2619386935595
 30
0.0
  0
LINE
  5
43F
330
446
100
AcDbEntity
  8
0
  6
ByBlock
 62
     0
370
    -2
380
     1
100
AcDbLine
 10
303.686887
 20
488.8869386935595
 30
0.0
 11
303.686887
 21
522.5140064941877
 31
0.0
  0
LINE
  5
440
330
446
100
AcDbEntity
  8
0
  6
ByBlock
 62
     0
370
    -2
380
     1
100
AcDbLine
 10
479.686887
 20
488.8869386935595
 30
0.0
 11
479.686887
 21
522.5140064941877
 31
0.0
  0
LINE
  5
441
330
446
100
AcDbEntity
  8
0
  6
ByBlock
 62
     0
370
    -2
380
     1
100
AcDbLine
 10
306.186887
 20
521.2640064941877
 30
0.0
 11
477.186887
 21
521.2640064941877
 31
0.0
  0
SOLID
  5
442
330
446
100
AcDbEntity
  8
0
  6
ByBlock
 62
     0
380
     1
100
AcDbTrace
 10
303.686887
 20
521.2640064941877
 30
0.0
 11
306.186887
 21
520.8473398275211
 31
0.0
 12
306.186887
 22
521.6806731608543
 32
0.0
 13
306.186887
 23
521.6806731608543
 33
0.0
  0
SOLID
  5
443
330
446
100
AcDbEntity
  8
0
  6
ByBlock
 62
     0
380
     1
100
AcDbTrace
 10
479.686887
 20
521.2640064941877
 30
0.0
 11
477.186887
 21
520.8473398275211
 31
0.0
 12
477.186887
 22
521.6806731608543
 32
0.0
 13
477.186887
 23
521.6806731608543
 33
0.0
  0
MTEXT
  5
444
330
446
100
AcDbEntity
  8
0
  6
ByBlock
 62
     0
370
    -2
380
     1
100
AcDbMText
 10
391.686887
 20
523.0140064941877
 30
0.0
 40
2.5
 41
0.0
 71
     5
 72
     1
  1
\A1;176
 73
     1
 44
1.0
  0
ENDBLK
  5
698
330
446
100
AcDbEntity
  8
0
100
AcDbBlockEnd
  0
BLOCK
  5
699
330
451
100
AcDbEntity
  8
0
100
AcDbBlockBegin
  2
*D72
 70
     1
 10
0.0
 20
0.0
 30
0.0
  3
*D72
  1

  0
POINT
  5
448
330
451
100
AcDbEntity
  8
DEFPOINTS
  6
ByBlock
 62
     7
380
     1
100
AcDbPoint
 10
303.686887
 20
488.2619386935595
 30
0.0
  0
POINT
  5
449
330
451
100
AcDbEntity
  8
DEFPOINTS
  6
ByBlock
 62
     7
380
     1
100
AcDbPoint
 10
479.686887
 20
488.2619386935595
 30
0.0
  0
LINE
  5
44A
330
451
100
AcDbEntity
  8
0
  6
ByBlock
 62
     7
370
    -2
380
     1
100
AcDbLine
 10
303.686887
 20
488.8869386935595
 30
0.0
 11
303.686887
 21
522.5140064941877
 31
0.0
  0
LINE
  5
44B
330
451
100
AcDbEntity
  8
0
  6
ByBlock
 62
     7
370
    -2
380
     1
100
AcDbLine
 10
479.686887
 20
488.8869386935595
 30
0.0
 11
479.686887
 21
522.5140064941877
 31
0.0
  0
LINE
  5
44C
330
451
100
AcDbEntity
  8
0
  6
ByBlock
 62
     7
370
    -2
380
     1
100
AcDbLine
 10
313.686887
 20
521.2640064941877
 30
0.0
 11
469.686887
 21
521.2640064941877
 31
0.0
  0
SOLID
  5
44D
330
451
100
AcDbEntity
  8
0
  6
ByBlock
 62
     7
380
     1
100
AcDbTrace
 10
303.686887
 20
521.2640064941877
 30
0.0
 11
313.686887
 21
519.5973398275211
 31
0.0
 12
313.686887
 22
522.9306731608543
 32
0.0
 13
313.686887
 23
522.9306731608543
 33
0.0
  0
SOLID
  5
44E
330
451
100
AcDbEntity
  8
0
  6
ByBlock
 62
     7
380
     1
100
AcDbTrace
 10
479.686887
 20
521.2640064941877
 30
0.0
 11
469.686887
 21
519.5973398275211
 31
0.0
 12
469.686887
 22
522.9306731608543
 32
0.0
 13
469.686887
 23
522.9306731608543
 33
0.0
  0
MTEXT
  5
44F
330
451
100
AcDbEntity
  8
0
  6
ByBlock
 62
     0
370
    -2
380
     1
100
AcDbMText
 10
391.686887
 20
532.5640064941877
 30
0.0
 40
14.0
 41
0.0
 71
     5
 72
     1
  1
\A1;176
 73
     1
 44
1.0
  0
ENDBLK
  5
69A
330
451
100
AcDbEntity
  8
0
100
AcDbBlockEnd
  0
BLOCK
  5
69B
330
45D
100
AcDbEntity
  8
0
100
AcDbBlockBegin
  2
*D73
 70
     1
 10
0.0
 20
0.0
 30
0.0
  3
*D73
  1

  0
POINT
  5
454
330
45D
100
AcDbEntity
  8
DEFPOINTS
  6
ByBlock
 62
     0
380
     1
100
AcDbPoint
 10
483.686887
 20
462.6082149137941
 30
0.0
  0
POINT
  5
455
330
45D
100
AcDbEntity
  8
DEFPOINTS
  6
ByBlock
 62
     0
380
     1
100
AcDbPoint
 10
663.6868870000001
 20
458.109978
 30
0.0
  0
LINE
  5
456
330
45D
100
AcDbEntity
  8
0
  6
ByBlock
 62
     0
370
    -2
380
     1
100
AcDbLine
 10
483.686887
 20
463.2332149137941
 30
0.0
 11
483.686887
 21
522.426699436514
 31
0.0
  0
LINE
  5
457
330
45D
100
AcDbEntity
  8
0
  6
ByBlock
 62
     0
370
    -2
380
     1
100
AcDbLine
 10
663.6868870000001
 20
458.734978
 30
0.0
 11
663.6868870000001
 21
522.426699436514
 31
0.0
  0
LINE
  5
458
330
45D
100
AcDbEntity
  8
0
  6
ByBlock
 62
     0
370
    -2
380
     1
100
AcDbLine
 10
486.186887
 20
521.176699436514
 30
0.0
 11
661.1868870000001
 21
521.176699436514
 31
0.0
  0
SOLID
  5
459
330
45D
100
AcDbEntity
  8
0
  6
ByBlock
 62
     0
380
     1
100
AcDbTrace
 10
483.686887
 20
521.176699436514
 30
0.0
 11
486.186887
 21
520.7600327698474
 31
0.0
 12
486.186887
 22
521.5933661031806
 32
0.0
 13
486.186887
 23
521.5933661031806
 33
0.0
  0
SOLID
  5
45A
330
45D
100
AcDbEntity
  8
0
  6
ByBlock
 62
     0
380
     1
100
AcDbTrace
 10
663.6868870000001
 20
521.176699436514
 30
0.0
 11
661.1868870000001
 21
520.7600327698474
 31
0.0
 12
661.1868870000001
 22
521.5933661031806
 32
0.0
 13
661.1868870000001
 23
521.5933661031806
 33
0.0
  0
MTEXT
  5
45B
330
45D
100
AcDbEntity
  8
0
  6
ByBlock
 62
     0
370
    -2
380
     1
100
AcDbMText
 10
573.6868870000001
 20
522.9276836884825
 30
0.0
 40
2.5
 41
0.0
 71
     5
 72
     1
  1
\A1;180
 73
     1
 44
1.0
  0
ENDBLK
  5
69C
330
45D
100
AcDbEntity
  8
0
100
AcDbBlockEnd
  0
BLOCK
  5
69D
330
468
100
AcDbEntity
  8
0
100
AcDbBlockBegin
  2
*D74
 70
     1
 10
0.0
 20
0.0
 30
0.0
  3
*D74
  1

  0
POINT
  5
45F
330
468
100
AcDbEntity
  8
DEFPOINTS
  6
ByBlock
 62
     7
380
     1
100
AcDbPoint
 10
483.686887
 20
462.6082149137941
 30
0.0
  0
POINT
  5
460
330
468
100
AcDbEntity
  8
DEFPOINTS
  6
ByBlock
 62
     7
380
     1
100
AcDbPoint
 10
663.6868870000001
 20
458.109978
 30
0.0
  0
LINE
  5
461
330
468
100
AcDbEntity
  8
0
  6
ByBlock
 62
     7
370
    -2
380
     1
100
AcDbLine
 10
483.686887
 20
463.2332149137941
 30
0.0
 11
483.686887
 21
522.426699436514
 31
0.0
  0
LINE
  5
462
330
468
100
AcDbEntity
  8
0
  6
ByBlock
 62
     7
370
    -2
380
     1
100
AcDbLine
 10
663.6868870000001
 20
458.734978
 30
0.0
 11
663.6868870000001
 21
522.426699436514
 31
0.0
  0
LINE
  5
463
330
468
100
AcDbEntity
  8
0
  6
ByBlock
 62
     7
370
    -2
380
     1
100
AcDbLine
 10
493.686887
 20
521.176699436514
 30
0.0
 11
653.6868870000001
 21
521.176699436514
 31
0.0
  0
SOLID
  5
464
330
468
100
AcDbEntity
  8
0
  6
ByBlock
 62
     7
380
     1
100
AcDbTrace
 10
483.686887
 20
521.176699436514
 30
0.0
 11
493.686887
 21
519.5100327698474
 31
0.0
 12
493.686887
 22
522.8433661031806
 32
0.0
 13
493.686887
 23
522.8433661031806
 33
0.0
  0
SOLID
  5
465
330
468
100
AcDbEntity
  8
0
  6
ByBlock
 62
     7
380
     1
100
AcDbTrace
 10
663.6868870000001
 20
521.176699436514
 30
0.0
 11
653.6868870000001
 21
519.5100327698474
 31
0.0
 12
653.6868870000001
 22
522.8433661031806
 32
0.0
 13
653.6868870000001
 23
522.8433661031806
 33
0.0
  0
MTEXT
  5
466
330
468
100
AcDbEntity
  8
0
  6
ByBlock
 62
     0
370
    -2
380
     1
100
AcDbMText
 10
573.6868870000001
 20
532.4822112475376
 30
0.0
 40
14.0
 41
0.0
 71
     5
 72
     1
  1
\A1;180
 73
     1
 44
1.0
  0
ENDBLK
  5
69E
330
468
100
AcDbEntity
  8
0
100
AcDbBlockEnd
  0
BLOCK
  5
69F
330
474
100
AcDbEntity
  8
0
100
AcDbBlockBegin
  2
*D75
 70
     1
 10
0.0
 20
0.0
 30
0.0
  3
*D75
  1

  0
POINT
  5
46B
330
474
100
AcDbEntity
  8
DEFPOINTS
  6
ByBlock
 62
     0
380
     1
100
AcDbPoint
 10
647.787656
 20
486.109978
 30
0.0
  0
POINT
  5
46C
330
474
100
AcDbEntity
  8
DEFPOINTS
  6
ByBlock
 62
     0
380
     1
100
AcDbPoint
 10
647.787656
 20
430.109978
 30
0.0
  0
LINE
  5
46D
330
474
100
AcDbEntity
  8
0
  6
ByBlock
 62
     0
370
    -2
380
     1
100
AcDbLine
 10
648.412656
 20
486.109978
 30
0.0
 11
681.3067521806471
 21
486.109978
 31
0.0
  0
LINE
  5
46E
330
474
100
AcDbEntity
  8
0
  6
ByBlock
 62
     0
370
    -2
380
     1
100
AcDbLine
 10
648.412656
 20
430.109978
 30
0.0
 11
681.3067521806471
 21
430.109978
 31
0.0
  0
LINE
  5
46F
330
474
100
AcDbEntity
  8
0
  6
ByBlock
 62
     0
370
    -2
380
     1
100
AcDbLine
 10
680.0567521806471
 20
483.609978
 30
0.0
 11
680.0567521806471
 21
432.609978
 31
0.0
  0
SOLID
  5
470
330
474
100
AcDbEntity
  8
0
  6
ByBlock
 62
     0
380
     1
100
AcDbTrace
 10
680.0567521806471
 20
486.109978
 30
0.0
 11
679.6400855139805
 21
483.609978
 31
0.0
 12
680.4734188473137
 22
483.609978
 32
0.0
 13
680.4734188473137
 23
483.609978
 33
0.0
  0
SOLID
  5
471
330
474
100
AcDbEntity
  8
0
  6
ByBlock
 62
     0
380
     1
100
AcDbTrace
 10
680.0567521806471
 20
430.109978
 30
0.0
 11
679.6400855139805
 21
432.609978
 31
0.0
 12
680.4734188473137
 22
432.609978
 32
0.0
 13
680.4734188473137
 23
432.609978
 33
0.0
  0
MTEXT
  5
472
330
474
100
AcDbEntity
  8
0
  6
ByBlock
 62
     0
370
    -2
380
     1
100
AcDbMText
 10
678.3067521806471
 20
458.109978
 30
0.0
 40
2.5
 41
0.0
 71
     5
 72
     1
  1
\A1;56
 11
6.123031769111886E-17
 21
1.0
 31
0.0
 73
     1
 44
1.0
  0
ENDBLK
  5
6A0
330
474
100
AcDbEntity
  8
0
100
AcDbBlockEnd
  0
BLOCK
  5
6A1
330
480
100
AcDbEntity
  8
0
100
AcDbBlockBegin
  2
*D76
 70
     1
 10
0.0
 20
0.0
 30
0.0
  3
*D76
  1

  0
POINT
  5
477
330
480
100
AcDbEntity
  8
DEFPOINTS
  6
ByBlock
 62
     0
380
     1
100
AcDbPoint
 10
648.365003
 20
487.109978
 30
0.0
  0
POINT
  5
478
330
480
100
AcDbEntity
  8
DEFPOINTS
  6
ByBlock
 62
     0
380
     1
100
AcDbPoint
 10
646.632932
 20
428.109978
 30
0.0
  0
LINE
  5
479
330
480
100
AcDbEntity
  8
0
  6
ByBlock
 62
     0
370
    -2
380
     1
100
AcDbLine
 10
648.990003
 20
487.109978
 30
0.0
 11
676.1372669447541
 21
487.109978
 31
0.0
  0
LINE
  5
47A
330
480
100
AcDbEntity
  8
0
  6
ByBlock
 62
     0
370
    -2
380
     1
100
AcDbLine
 10
647.257932
 20
428.109978
 30
0.0
 11
676.1372669447541
 21
428.109978
 31
0.0
  0
LINE
  5
47B
330
480
100
AcDbEntity
  8
0
  6
ByBlock
 62
     0
370
    -2
380
     1
100
AcDbLine
 10
674.8872669447541
 20
484.609978
 30
0.0
 11
674.8872669447541
 21
430.609978
 31
0.0
  0
SOLID
  5
47C
330
480
100
AcDbEntity
  8
0
  6
ByBlock
 62
     0
380
     1
100
AcDbTrace
 10
674.8872669447541
 20
487.109978
 30
0.0
 11
674.4706002780874
 21
484.609978
 31
0.0
 12
675.3039336114207
 22
484.609978
 32
0.0
 13
675.3039336114207
 23
484.609978
 33
0.0
  0
SOLID
  5
47D
330
480
100
AcDbEntity
  8
0
  6
ByBlock
 62
     0
380
     1
100
AcDbTrace
 10
674.8872669447541
 20
428.109978
 30
0.0
 11
674.4706002780874
 21
430.609978
 31
0.0
 12
675.3039336114207
 22
430.609978
 32
0.0
 13
675.3039336114207
 23
430.609978
 33
0.0
  0
MTEXT
  5
47E
330
480
100
AcDbEntity
  8
0
  6
ByBlock
 62
     0
370
    -2
380
     1
100
AcDbMText
 10
673.1366627459795
 20
457.609978
 30
0.0
 40
2.5
 41
0.0
 71
     5
 72
     1
  1
\A1;59
 11
6.123031769111886E-17
 21
1.0
 31
0.0
 73
     1
 44
1.0
  0
ENDBLK
  5
6A2
330
480
100
AcDbEntity
  8
0
100
AcDbBlockEnd
  0
BLOCK
  5
6A3
330
48B
100
AcDbEntity
  8
0
100
AcDbBlockBegin
  2
*D77
 70
     1
 10
0.0
 20
0.0
 30
0.0
  3
*D77
  1

  0
POINT
  5
482
330
48B
100
AcDbEntity
  8
DEFPOINTS
  6
ByBlock
 62
     0
380
     1
100
AcDbPoint
 10
648.365003
 20
488.109978
 30
0.0
  0
POINT
  5
483
330
48B
100
AcDbEntity
  8
DEFPOINTS
  6
ByBlock
 62
     0
380
     1
100
AcDbPoint
 10
646.632932
 20
428.109978
 30
0.0
  0
LINE
  5
484
330
48B
100
AcDbEntity
  8
0
  6
ByBlock
 62
     0
370
    -2
380
     1
100
AcDbLine
 10
648.990003
 20
488.109978
 30
0.0
 11
676.1372669447541
 21
488.109978
 31
0.0
  0
LINE
  5
485
330
48B
100
AcDbEntity
  8
0
  6
ByBlock
 62
     0
370
    -2
380
     1
100
AcDbLine
 10
647.257932
 20
428.109978
 30
0.0
 11
676.1372669447541
 21
428.109978
 31
0.0
  0
LINE
  5
486
330
48B
100
AcDbEntity
  8
0
  6
ByBlock
 62
     0
370
    -2
380
     1
100
AcDbLine
 10
674.8872669447541
 20
485.609978
 30
0.0
 11
674.8872669447541
 21
430.609978
 31
0.0
  0
SOLID
  5
487
330
48B
100
AcDbEntity
  8
0
  6
ByBlock
 62
     0
380
     1
100
AcDbTrace
 10
674.8872669447541
 20
488.109978
 30
0.0
 11
674.4706002780874
 21
485.609978
 31
0.0
 12
675.3039336114207
 22
485.609978
 32
0.0
 13
675.3039336114207
 23
485.609978
 33
0.0
  0
SOLID
  5
488
330
48B
100
AcDbEntity
  8
0
  6
ByBlock
 62
     0
380
     1
100
AcDbTrace
 10
674.8872669447541
 20
428.109978
 30
0.0
 11
674.4706002780874
 21
430.609978
 31
0.0
 12
675.3039336114207
 22
430.609978
 32
0.0
 13
675.3039336114207
 23
430.609978
 33
0.0
  0
MTEXT
  5
489
330
48B
100
AcDbEntity
  8
0
  6
ByBlock
 62
     0
370
    -2
380
     1
100
AcDbMText
 10
673.1362826927856
 20
458.109978
 30
0.0
 40
2.5
 41
0.0
 71
     5
 72
     1
  1
\A1;60
 11
6.123031769111886E-17
 21
1.0
 31
0.0
 73
     1
 44
1.0
  0
ENDBLK
  5
6A4
330
48B
100
AcDbEntity
  8
0
100
AcDbBlockEnd
  0
BLOCK
  5
6A5
330
496
100
AcDbEntity
  8
0
100
AcDbBlockBegin
  2
*D78
 70
     1
 10
0.0
 20
0.0
 30
0.0
  3
*D78
  1

  0
POINT
  5
48D
330
496
100
AcDbEntity
  8
DEFPOINTS
  6
ByBlock
 62
     7
380
     1
100
AcDbPoint
 10
648.365003
 20
488.109978
 30
0.0
  0
POINT
  5
48E
330
496
100
AcDbEntity
  8
DEFPOINTS
  6
ByBlock
 62
     7
380
     1
100
AcDbPoint
 10
646.632932
 20
428.109978
 30
0.0
  0
LINE
  5
48F
330
496
100
AcDbEntity
  8
0
  6
ByBlock
 62
     7
370
    -2
380
     1
100
AcDbLine
 10
648.990003
 20
488.109978
 30
0.0
 11
676.1372669447541
 21
488.109978
 31
0.0
  0
LINE
  5
490
330
496
100
AcDbEntity
  8
0
  6
ByBlock
 62
     7
370
    -2
380
     1
100
AcDbLine
 10
647.257932
 20
428.109978
 30
0.0
 11
676.1372669447541
 21
428.109978
 31
0.0
  0
LINE
  5
491
330
496
100
AcDbEntity
  8
0
  6
ByBlock
 62
     7
370
    -2
380
     1
100
AcDbLine
 10
674.8872669447541
 20
478.109978
 30
0.0
 11
674.8872669447541
 21
438.109978
 31
0.0
  0
SOLID
  5
492
330
496
100
AcDbEntity
  8
0
  6
ByBlock
 62
     7
380
     1
100
AcDbTrace
 10
674.8872669447541
 20
488.109978
 30
0.0
 11
673.2206002780874
 21
478.109978
 31
0.0
 12
676.5539336114207
 22
478.109978
 32
0.0
 13
676.5539336114207
 23
478.109978
 33
0.0
  0
SOLID
  5
493
330
496
100
AcDbEntity
  8
0
  6
ByBlock
 62
     7
380
     1
100
AcDbTrace
 10
674.8872669447541
 20
428.109978
 30
0.0
 11
673.2206002780874
 21
438.109978
 31
0.0
 12
676.5539336114207
 22
438.109978
 32
0.0
 13
676.5539336114207
 23
438.109978
 33
0.0
  0
MTEXT
  5
494
330
496
100
AcDbEntity
  8
0
  6
ByBlock
 62
     0
370
    -2
380
     1
100
AcDbMText
 10
663.5817551337304
 20
458.109978
 30
0.0
 40
14.0
 41
0.0
 71
     5
 72
     1
  1
\A1;60
 11
6.123031769111886E-17
 21
1.0
 31
0.0
 73
     1
 44
1.0
  0
ENDBLK
  5
6A6
330
496
100
AcDbEntity
  8
0
100
AcDbBlockEnd
  0
BLOCK
  5
6A7
330
4A1
100
AcDbEntity
  8
0
100
AcDbBlockBegin
  2
*D79
 70
     1
 10
0.0
 20
0.0
 30
0.0
  3
*D79
  1

  0
POINT
  5
498
330
4A1
100
AcDbEntity
  8
DEFPOINTS
  6
ByBlock
 62
     7
380
     1
100
AcDbPoint
 10
648.365003
 20
488.109978
 30
0.0
  0
POINT
  5
499
330
4A1
100
AcDbEntity
  8
DEFPOINTS
  6
ByBlock
 62
     7
380
     1
100
AcDbPoint
 10
646.632932
 20
428.109978
 30
0.0
  0
LINE
  5
49A
330
4A1
100
AcDbEntity
  8
0
  6
ByBlock
 62
     7
370
    -2
380
     1
100
AcDbLine
 10
648.990003
 20
488.109978
 30
0.0
 11
676.1372669447541
 21
488.109978
 31
0.0
  0
LINE
  5
49B
330
4A1
100
AcDbEntity
  8
0
  6
ByBlock
 62
     7
370
    -2
380
     1
100
AcDbLine
 10
647.257932
 20
428.109978
 30
0.0
 11
676.1372669447541
 21
428.109978
 31
0.0
  0
LINE
  5
49C
330
4A1
100
AcDbEntity
  8
0
  6
ByBlock
 62
     7
370
    -2
380
     1
100
AcDbLine
 10
674.8872669447541
 20
478.109978
 30
0.0
 11
674.8872669447541
 21
438.109978
 31
0.0
  0
SOLID
  5
49D
330
4A1
100
AcDbEntity
  8
0
  6
ByBlock
 62
     7
380
     1
100
AcDbTrace
 10
674.8872669447541
 20
488.109978
 30
0.0
 11
673.2206002780874
 21
478.109978
 31
0.0
 12
676.5539336114207
 22
478.109978
 32
0.0
 13
676.5539336114207
 23
478.109978
 33
0.0
  0
SOLID
  5
49E
330
4A1
100
AcDbEntity
  8
0
  6
ByBlock
 62
     7
380
     1
100
AcDbTrace
 10
674.8872669447541
 20
428.109978
 30
0.0
 11
673.2206002780874
 21
438.109978
 31
0.0
 12
676.5539336114207
 22
438.109978
 32
0.0
 13
676.5539336114207
 23
438.109978
 33
0.0
  0
MTEXT
  5
49F
330
4A1
100
AcDbEntity
  8
0
  6
ByBlock
 62
     0
370
    -2
380
     1
100
AcDbMText
 10
663.5817551337304
 20
458.109978
 30
0.0
 40
14.0
 41
0.0
 71
     5
 72
     1
  1
\A1;60
 11
6.123031769111886E-17
 21
1.0
 31
0.0
 73
     1
 44
1.0
  0
ENDBLK
  5
6A8
330
4A1
100
AcDbEntity
  8
0
100
AcDbBlockEnd
  0
BLOCK
  5
6A9
330
4AC
100
AcDbEntity
  8
0
100
AcDbBlockBegin
  2
*D80
 70
     1
 10
0.0
 20
0.0
 30
0.0
  3
*D80
  1

  0
POINT
  5
4A3
330
4AC
100
AcDbEntity
  8
DEFPOINTS
  6
ByBlock
 62
     7
380
     1
100
AcDbPoint
 10
648.365003
 20
488.109978
 30
0.0
  0
POINT
  5
4A4
330
4AC
100
AcDbEntity
  8
DEFPOINTS
  6
ByBlock
 62
     7
380
     1
100
AcDbPoint
 10
646.632932
 20
428.109978
 30
0.0
  0
LINE
  5
4A5
330
4AC
100
AcDbEntity
  8
0
  6
ByBlock
 62
     7
370
    -2
380
     1
100
AcDbLine
 10
648.990003
 20
488.109978
 30
0.0
 11
676.1372669447541
 21
488.109978
 31
0.0
  0
LINE
  5
4A6
330
4AC
100
AcDbEntity
  8
0
  6
ByBlock
 62
     7
370
    -2
380
     1
100
AcDbLine
 10
647.257932
 20
428.109978
 30
0.0
 11
676.1372669447541
 21
428.109978
 31
0.0
  0
LINE
  5
4A7
330
4AC
100
AcDbEntity
  8
0
  6
ByBlock
 62
     7
370
    -2
380
     1
100
AcDbLine
 10
674.8872669447541
 20
478.109978
 30
0.0
 11
674.8872669447541
 21
438.109978
 31
0.0
  0
SOLID
  5
4A8
330
4AC
100
AcDbEntity
  8
0
  6
ByBlock
 62
     7
380
     1
100
AcDbTrace
 10
674.8872669447541
 20
488.109978
 30
0.0
 11
673.2206002780874
 21
478.109978
 31
0.0
 12
676.5539336114207
 22
478.109978
 32
0.0
 13
676.5539336114207
 23
478.109978
 33
0.0
  0
SOLID
  5
4A9
330
4AC
100
AcDbEntity
  8
0
  6
ByBlock
 62
     7
380
     1
100
AcDbTrace
 10
674.8872669447541
 20
428.109978
 30
0.0
 11
673.2206002780874
 21
438.109978
 31
0.0
 12
676.5539336114207
 22
438.109978
 32
0.0
 13
676.5539336114207
 23
438.109978
 33
0.0
  0
MTEXT
  5
4AA
330
4AC
100
AcDbEntity
  8
0
  6
ByBlock
 62
     0
370
    -2
380
     1
100
AcDbMText
 10
663.5817551337304
 20
458.109978
 30
0.0
 40
14.0
 41
0.0
 71
     5
 72
     1
  1
\A1;60
 11
6.123031769111886E-17
 21
1.0
 31
0.0
 73
     1
 44
1.0
  0
ENDBLK
  5
6AA
330
4AC
100
AcDbEntity
  8
0
100
AcDbBlockEnd
  0
BLOCK
  5
6AB
330
4B7
100
AcDbEntity
  8
0
100
AcDbBlockBegin
  2
*D81
 70
     1
 10
0.0
 20
0.0
 30
0.0
  3
*D81
  1

  0
POINT
  5
4AE
330
4B7
100
AcDbEntity
  8
DEFPOINTS
  6
ByBlock
 62
     7
380
     1
100
AcDbPoint
 10
648.365003
 20
488.109978
 30
0.0
  0
POINT
  5
4AF
330
4B7
100
AcDbEntity
  8
DEFPOINTS
  6
ByBlock
 62
     7
380
     1
100
AcDbPoint
 10
646.632932
 20
428.109978
 30
0.0
  0
LINE
  5
4B0
330
4B7
100
AcDbEntity
  8
0
  6
ByBlock
 62
     7
370
    -2
380
     1
100
AcDbLine
 10
648.990003
 20
488.109978
 30
0.0
 11
688.9859232731274
 21
488.109978
 31
0.0
  0
LINE
  5
4B1
330
4B7
100
AcDbEntity
  8
0
  6
ByBlock
 62
     7
370
    -2
380
     1
100
AcDbLine
 10
647.257932
 20
428.109978
 30
0.0
 11
688.9859232731274
 21
428.109978
 31
0.0
  0
LINE
  5
4B2
330
4B7
100
AcDbEntity
  8
0
  6
ByBlock
 62
     7
370
    -2
380
     1
100
AcDbLine
 10
687.7359232731274
 20
478.109978
 30
0.0
 11
687.7359232731274
 21
438.109978
 31
0.0
  0
SOLID
  5
4B3
330
4B7
100
AcDbEntity
  8
0
  6
ByBlock
 62
     7
380
     1
100
AcDbTrace
 10
687.7359232731274
 20
488.109978
 30
0.0
 11
686.0692566064607
 21
478.109978
 31
0.0
 12
689.402589939794
 22
478.109978
 32
0.0
 13
689.402589939794
 23
478.109978
 33
0.0
  0
SOLID
  5
4B4
330
4B7
100
AcDbEntity
  8
0
  6
ByBlock
 62
     7
380
     1
100
AcDbTrace
 10
687.7359232731274
 20
428.109978
 30
0.0
 11
686.0692566064607
 21
438.109978
 31
0.0
 12
689.402589939794
 22
438.109978
 32
0.0
 13
689.402589939794
 23
438.109978
 33
0.0
  0
MTEXT
  5
4B5
330
4B7
100
AcDbEntity
  8
0
  6
ByBlock
 62
     0
370
    -2
380
     1
100
AcDbMText
 10
676.4304114621037
 20
458.109978
 30
0.0
 40
14.0
 41
0.0
 71
     5
 72
     1
  1
\A1;60
 11
6.123031769111886E-17
 21
1.0
 31
0.0
 73
     1
 44
1.0
  0
ENDBLK
  5
6AC
330
4B7
100
AcDbEntity
  8
0
100
AcDbBlockEnd
  0
BLOCK
  5
6AD
330
4C2
100
AcDbEntity
  8
0
100
AcDbBlockBegin
  2
*D82
 70
     1
 10
0.0
 20
0.0
 30
0.0
  3
*D82
  1

  0
POINT
  5
4B9
330
4C2
100
AcDbEntity
  8
DEFPOINTS
  6
ByBlock
 62
     7
380
     1
100
AcDbPoint
 10
648.365003
 20
488.109978
 30
0.0
  0
POINT
  5
4BA
330
4C2
100
AcDbEntity
  8
DEFPOINTS
  6
ByBlock
 62
     7
380
     1
100
AcDbPoint
 10
646.632932
 20
428.109978
 30
0.0
  0
LINE
  5
4BB
330
4C2
100
AcDbEntity
  8
0
  6
ByBlock
 62
     7
370
    -2
380
     1
100
AcDbLine
 10
648.990003
 20
488.109978
 30
0.0
 11
688.9859232731274
 21
488.109978
 31
0.0
  0
LINE
  5
4BC
330
4C2
100
AcDbEntity
  8
0
  6
ByBlock
 62
     7
370
    -2
380
     1
100
AcDbLine
 10
647.257932
 20
428.109978
 30
0.0
 11
688.9859232731274
 21
428.109978
 31
0.0
  0
LINE
  5
4BD
330
4C2
100
AcDbEntity
  8
0
  6
ByBlock
 62
     7
370
    -2
380
     1
100
AcDbLine
 10
687.7359232731274
 20
478.109978
 30
0.0
 11
687.7359232731274
 21
438.109978
 31
0.0
  0
SOLID
  5
4BE
330
4C2
100
AcDbEntity
  8
0
  6
ByBlock
 62
     7
380
     1
100
AcDbTrace
 10
687.7359232731274
 20
488.109978
 30
0.0
 11
686.0692566064607
 21
478.109978
 31
0.0
 12
689.402589939794
 22
478.109978
 32
0.0
 13
689.402589939794
 23
478.109978
 33
0.0
  0
SOLID
  5
4BF
330
4C2
100
AcDbEntity
  8
0
  6
ByBlock
 62
     7
380
     1
100
AcDbTrace
 10
687.7359232731274
 20
428.109978
 30
0.0
 11
686.0692566064607
 21
438.109978
 31
0.0
 12
689.402589939794
 22
438.109978
 32
0.0
 13
689.402589939794
 23
438.109978
 33
0.0
  0
MTEXT
  5
4C0
330
4C2
100
AcDbEntity
  8
0
  6
ByBlock
 62
     0
370
    -2
380
     1
100
AcDbMText
 10
676.4304114621037
 20
455.4411006839271
 30
0.0
 40
14.0
 41
0.0
 71
     5
 72
     1
  1
\A1;60
 11
6.123031769111886E-17
 21
1.0
 31
0.0
 73
     1
 44
1.0
  0
ENDBLK
  5
6AE
330
4C2
100
AcDbEntity
  8
0
100
AcDbBlockEnd
  0
BLOCK
  5
6AF
330
4D5
100
AcDbEntity
  8
0
100
AcDbBlockBegin
  2
*D83
 70
     1
 10
0.0
 20
0.0
 30
0.0
  3
*D83
  1

  0
POINT
  5
4CC
330
4D5
100
AcDbEntity
  8
DEFPOINTS
  6
ByBlock
 62
     7
380
     1
100
AcDbPoint
 10
483.686887
 20
462.6082149137941
 30
0.0
  0
POINT
  5
4CD
330
4D5
100
AcDbEntity
  8
DEFPOINTS
  6
ByBlock
 62
     7
380
     1
100
AcDbPoint
 10
663.6868870000001
 20
458.109978
 30
0.0
  0
LINE
  5
4CE
330
4D5
100
AcDbEntity
  8
0
  6
ByBlock
 62
     7
370
    -2
380
     1
100
AcDbLine
 10
483.686887
 20
463.2332149137941
 30
0.0
 11
483.686887
 21
522.426699436514
 31
0.0
  0
LINE
  5
4CF
330
4D5
100
AcDbEntity
  8
0
  6
ByBlock
 62
     7
370
    -2
380
     1
100
AcDbLine
 10
663.6868870000001
 20
458.734978
 30
0.0
 11
663.6868870000001
 21
522.426699436514
 31
0.0
  0
LINE
  5
4D0
330
4D5
100
AcDbEntity
  8
0
  6
ByBlock
 62
     7
370
    -2
380
     1
100
AcDbLine
 10
493.686887
 20
521.176699436514
 30
0.0
 11
653.6868870000001
 21
521.176699436514
 31
0.0
  0
SOLID
  5
4D1
330
4D5
100
AcDbEntity
  8
0
  6
ByBlock
 62
     7
380
     1
100
AcDbTrace
 10
483.686887
 20
521.176699436514
 30
0.0
 11
493.686887
 21
519.5100327698474
 31
0.0
 12
493.686887
 22
522.8433661031806
 32
0.0
 13
493.686887
 23
522.8433661031806
 33
0.0
  0
SOLID
  5
4D2
330
4D5
100
AcDbEntity
  8
0
  6
ByBlock
 62
     7
380
     1
100
AcDbTrace
 10
663.6868870000001
 20
521.176699436514
 30
0.0
 11
653.6868870000001
 21
519.5100327698474
 31
0.0
 12
653.6868870000001
 22
522.8433661031806
 32
0.0
 13
653.6868870000001
 23
522.8433661031806
 33
0.0
  0
MTEXT
  5
4D3
330
4D5
100
AcDbEntity
  8
0
  6
ByBlock
 62
     0
370
    -2
380
     1
100
AcDbMText
 10
573.6868870000001
 20
532.4822112475376
 30
0.0
 40
14.0
 41
0.0
 71
     5
 72
     1
  1
\A1;180
 73
     1
 44
1.0
  0
ENDBLK
  5
6B0
330
4D5
100
AcDbEntity
  8
0
100
AcDbBlockEnd
  0
BLOCK
  5
6B1
330
4E0
100
AcDbEntity
  8
0
100
AcDbBlockBegin
  2
*D84
 70
     1
 10
0.0
 20
0.0
 30
0.0
  3
*D84
  1

  0
POINT
  5
4D7
330
4E0
100
AcDbEntity
  8
DEFPOINTS
  6
ByBlock
 62
     7
380
     1
100
AcDbPoint
 10
303.686887
 20
488.2619386935595
 30
0.0
  0
POINT
  5
4D8
330
4E0
100
AcDbEntity
  8
DEFPOINTS
  6
ByBlock
 62
     7
380
     1
100
AcDbPoint
 10
479.686887
 20
488.2619386935595
 30
0.0
  0
LINE
  5
4D9
330
4E0
100
AcDbEntity
  8
0
  6
ByBlock
 62
     7
370
    -2
380
     1
100
AcDbLine
 10
303.686887
 20
488.8869386935595
 30
0.0
 11
303.686887
 21
522.5140064941877
 31
0.0
  0
LINE
  5
4DA
330
4E0
100
AcDbEntity
  8
0
  6
ByBlock
 62
     7
370
    -2
380
     1
100
AcDbLine
 10
479.686887
 20
488.8869386935595
 30
0.0
 11
479.686887
 21
522.5140064941877
 31
0.0
  0
LINE
  5
4DB
330
4E0
100
AcDbEntity
  8
0
  6
ByBlock
 62
     7
370
    -2
380
     1
100
AcDbLine
 10
313.686887
 20
521.2640064941877
 30
0.0
 11
469.686887
 21
521.2640064941877
 31
0.0
  0
SOLID
  5
4DC
330
4E0
100
AcDbEntity
  8
0
  6
ByBlock
 62
     7
380
     1
100
AcDbTrace
 10
303.686887
 20
521.2640064941877
 30
0.0
 11
313.686887
 21
519.5973398275211
 31
0.0
 12
313.686887
 22
522.9306731608543
 32
0.0
 13
313.686887
 23
522.9306731608543
 33
0.0
  0
SOLID
  5
4DD
330
4E0
100
AcDbEntity
  8
0
  6
ByBlock
 62
     7
380
     1
100
AcDbTrace
 10
479.686887
 20
521.2640064941877
 30
0.0
 11
469.686887
 21
519.5973398275211
 31
0.0
 12
469.686887
 22
522.9306731608543
 32
0.0
 13
469.686887
 23
522.9306731608543
 33
0.0
  0
MTEXT
  5
4DE
330
4E0
100
AcDbEntity
  8
0
  6
ByBlock
 62
     0
370
    -2
380
     1
100
AcDbMText
 10
391.686887
 20
532.5640064941877
 30
0.0
 40
14.0
 41
0.0
 71
     5
 72
     1
  1
\A1;176
 73
     1
 44
1.0
  0
ENDBLK
  5
6B2
330
4E0
100
AcDbEntity
  8
0
100
AcDbBlockEnd
  0
BLOCK
  5
6B3
330
5C9
100
AcDbEntity
  8
0
100
AcDbBlockBegin
  2
*D85
 70
     1
 10
0.0
 20
0.0
 30
0.0
  3
*D85
  1

  0
POINT
  5
5C0
330
5C9
100
AcDbEntity
  8
DEFPOINTS
  6
ByBlock
 62
     0
380
     1
100
AcDbPoint
 10
141.3187770844685
 20
416.8807877645194
 30
0.0
  0
POINT
  5
5C1
330
5C9
100
AcDbEntity
  8
DEFPOINTS
  6
ByBlock
 62
     0
380
     1
100
AcDbPoint
 10
176.5317440894214
 20
499.6327955235926
 30
0.0
  0
LINE
  5
5C2
330
5C9
100
AcDbEntity
  8
0
  6
ByBlock
 62
     0
370
    -2
380
     1
100
AcDbLine
 10
140.7436788013691
 20
417.1255058978406
 30
0.0
 11
139.8934880628205
 21
417.487282478677
 31
0.0
  0
LINE
  5
5C3
330
5C9
100
AcDbEntity
  8
0
  6
ByBlock
 62
     0
370
    -2
380
     1
100
AcDbLine
 10
175.9566458063221
 20
499.8775136569138
 30
0.0
 11
175.1064550677735
 21
500.2392902377503
 31
0.0
  0
LINE
  5
5C4
330
5C9
100
AcDbEntity
  8
0
  6
ByBlock
 62
     0
370
    -2
380
     1
100
AcDbLine
 10
142.0225571623039
 20
419.2982393444319
 30
0.0
 11
175.2777791006874
 21
497.4494608387106
 31
0.0
  0
SOLID
  5
5C5
330
5C9
100
AcDbEntity
  8
0
  6
ByBlock
 62
     0
380
     1
100
AcDbTrace
 10
141.0436846290191
 20
416.9978462120346
 30
0.0
 11
142.4059560177035
 21
419.1350939222178
 31
0.0
 12
141.6391583069044
 22
419.4613847666461
 32
0.0
 13
141.6391583069044
 23
419.4613847666461
 33
0.0
  0
SOLID
  5
5C6
330
5C9
100
AcDbEntity
  8
0
  6
ByBlock
 62
     0
380
     1
100
AcDbTrace
 10
176.2566516339722
 20
499.7498539711079
 30
0.0
 11
175.6611779560869
 21
497.2863154164964
 31
0.0
 12
174.8943802452878
 22
497.6126062609247
 32
0.0
 13
174.8943802452878
 23
497.6126062609247
 33
0.0
  0
MTEXT
  5
5C7
330
5C9
100
AcDbEntity
  8
0
  6
ByBlock
 62
     0
370
    -2
380
     1
100
AcDbMText
 10
156.8092976676931
 20
459.1571846916331
 30
0.0
 40
2.5
 41
0.0
 71
     5
 72
     1
  1
\A1;89,93
 11
0.3915490133139146
 21
0.920157252958917
 31
0.0
 73
     1
 44
1.0
  0
ENDBLK
  5
6B4
330
5C9
100
AcDbEntity
  8
0
100
AcDbBlockEnd
  0
BLOCK
  5
6B5
330
5D5
100
AcDbEntity
  8
0
100
AcDbBlockBegin
  2
*D86
 70
     1
 10
0.0
 20
0.0
 30
0.0
  3
*D86
  1

  0
POINT
  5
5CB
330
5D5
100
AcDbEntity
  8
DEFPOINTS
  6
ByBlock
 62
     0
380
     1
100
AcDbPoint
 10
141.3187770844685
 20
416.8807877645194
 30
0.0
  0
POINT
  5
5CC
330
5D5
100
AcDbEntity
  8
DEFPOINTS
  6
ByBlock
 62
     0
380
     1
100
AcDbPoint
 10
176.5317440894214
 20
499.6327955235926
 30
0.0
  0
LINE
  5
5CD
330
5D5
100
AcDbEntity
  8
0
  6
ByBlock
 62
     0
370
    -2
380
     1
100
AcDbLine
 10
140.7436788013691
 20
417.1255058978406
 30
0.0
 11
139.8934880628205
 21
417.487282478677
 31
0.0
  0
LINE
  5
5CE
330
5D5
100
AcDbEntity
  8
0
  6
ByBlock
 62
     0
370
    -2
380
     1
100
AcDbLine
 10
175.9566458063221
 20
499.8775136569138
 30
0.0
 11
175.1064550677735
 21
500.2392902377503
 31
0.0
  0
LINE
  5
5CF
330
5D5
100
AcDbEntity
  8
0
  6
ByBlock
 62
     0
370
    -2
380
     1
100
AcDbLine
 10
142.0225571623039
 20
419.2982393444319
 30
0.0
 11
175.2777791006874
 21
497.4494608387106
 31
0.0
  0
LINE
  5
5D0
330
5D5
100
AcDbEntity
  8
0
  6
ByBlock
 62
     0
370
    -2
380
     1
100
AcDbLine
 10
176.2566516339722
 20
499.7498539711079
 30
0.0
 11
186.5232896723724
 21
523.8769009902867
 31
0.0
  0
SOLID
  5
5D1
330
5D5
100
AcDbEntity
  8
0
  6
ByBlock
 62
     0
380
     1
100
AcDbTrace
 10
141.0436846290191
 20
416.9978462120346
 30
0.0
 11
142.4059560177035
 21
419.1350939222178
 31
0.0
 12
141.6391583069044
 22
419.4613847666461
 32
0.0
 13
141.6391583069044
 23
419.4613847666461
 33
0.0
  0
SOLID
  5
5D2
330
5D5
100
AcDbEntity
  8
0
  6
ByBlock
 62
     0
380
     1
100
AcDbTrace
 10
176.2566516339722
 20
499.7498539711079
 30
0.0
 11
175.6611779560869
 21
497.2863154164964
 31
0.0
 12
174.8943802452878
 22
497.6126062609247
 32
0.0
 13
174.8943802452878
 23
497.6126062609247
 33
0.0
  0
MTEXT
  5
5D3
330
5D5
100
AcDbEntity
  8
0
  6
ByBlock
 62
     0
370
    -2
380
     1
100
AcDbMText
 10
183.5605383605437
 20
522.0237666830975
 30
0.0
 40
2.5
 41
0.0
 71
     5
 72
     1
  1
\A1;89,93
 11
0.3915490133139146
 21
0.920157252958917
 31
0.0
 73
     1
 44
1.0
  0
ENDBLK
  5
6B6
330
5D5
100
AcDbEntity
  8
0
100
AcDbBlockEnd
  0
BLOCK
  5
6B7
330
5E1
100
AcDbEntity
  8
0
100
AcDbBlockBegin
  2
*D87
 70
     1
 10
0.0
 20
0.0
 30
0.0
  3
*D87
  1

  0
POINT
  5
5D7
330
5E1
100
AcDbEntity
  8
DEFPOINTS
  6
ByBlock
 62
     7
380
     1
100
AcDbPoint
 10
141.3187770844685
 20
416.8807877645194
 30
0.0
  0
POINT
  5
5D8
330
5E1
100
AcDbEntity
  8
DEFPOINTS
  6
ByBlock
 62
     7
380
     1
100
AcDbPoint
 10
176.5317440894214
 20
499.6327955235926
 30
0.0
  0
LINE
  5
5D9
330
5E1
100
AcDbEntity
  8
0
  6
ByBlock
 62
     7
370
    -2
380
     1
100
AcDbLine
 10
140.7436788013691
 20
417.1255058978406
 30
0.0
 11
139.8934880628205
 21
417.487282478677
 31
0.0
  0
LINE
  5
5DA
330
5E1
100
AcDbEntity
  8
0
  6
ByBlock
 62
     7
370
    -2
380
     1
100
AcDbLine
 10
175.9566458063221
 20
499.8775136569138
 30
0.0
 11
175.1064550677735
 21
500.2392902377503
 31
0.0
  0
LINE
  5
5DB
330
5E1
100
AcDbEntity
  8
0
  6
ByBlock
 62
     7
370
    -2
380
     1
100
AcDbLine
 10
144.9591747621583
 20
426.1994187416238
 30
0.0
 11
172.341161500833
 21
490.5482814415187
 31
0.0
  0
LINE
  5
5DC
330
5E1
100
AcDbEntity
  8
0
  6
ByBlock
 62
     7
370
    -2
380
     1
100
AcDbLine
 10
176.2566516339722
 20
499.7498539711079
 30
0.0
 11
196.8303007414119
 21
548.0988263917457
 31
0.0
  0
SOLID
  5
5DD
330
5E1
100
AcDbEntity
  8
0
  6
ByBlock
 62
     7
380
     1
100
AcDbTrace
 10
141.0436846290192
 20
416.9978462120346
 30
0.0
 11
146.4927701837565
 21
425.5468370527673
 31
0.0
 12
143.4255793405601
 22
426.8520004304803
 32
0.0
 13
143.4255793405601
 23
426.8520004304803
 33
0.0
  0
SOLID
  5
5DE
330
5E1
100
AcDbEntity
  8
0
  6
ByBlock
 62
     7
380
     1
100
AcDbTrace
 10
176.2566516339722
 20
499.7498539711079
 30
0.0
 11
173.8747569224312
 21
489.8956997526622
 31
0.0
 12
170.8075660792348
 22
491.2008631303752
 32
0.0
 13
170.8075660792348
 23
491.2008631303752
 33
0.0
  0
MTEXT
  5
5DF
330
5E1
100
AcDbEntity
  8
0
  6
ByBlock
 62
     0
370
    -2
380
     1
100
AcDbMText
 10
178.2713339957621
 20
536.928361912019
 30
0.0
 40
14.0
 41
0.0
 71
     5
 72
     1
  1
\A1;89,93
 11
0.3915490133139146
 21
0.920157252958917
 31
0.0
 73
     1
 44
1.0
  0
ENDBLK
  5
6B8
330
5E1
100
AcDbEntity
  8
0
100
AcDbBlockEnd
  0
BLOCK
  5
6B9
330
5ED
100
AcDbEntity
  8
0
100
AcDbBlockBegin
  2
*D88
 70
     1
 10
0.0
 20
0.0
 30
0.0
  3
*D88
  1

  0
POINT
  5
5E3
330
5ED
100
AcDbEntity
  8
DEFPOINTS
  6
ByBlock
 62
     7
380
     1
100
AcDbPoint
 10
141.3187770844685
 20
416.8807877645194
 30
0.0
  0
POINT
  5
5E4
330
5ED
100
AcDbEntity
  8
DEFPOINTS
  6
ByBlock
 62
     7
380
     1
100
AcDbPoint
 10
176.5317440894214
 20
499.6327955235926
 30
0.0
  0
LINE
  5
5E5
330
5ED
100
AcDbEntity
  8
0
  6
ByBlock
 62
     7
370
    -2
380
     1
100
AcDbLine
 10
140.7436788013691
 20
417.1255058978406
 30
0.0
 11
139.8934880628205
 21
417.487282478677
 31
0.0
  0
LINE
  5
5E6
330
5ED
100
AcDbEntity
  8
0
  6
ByBlock
 62
     7
370
    -2
380
     1
100
AcDbLine
 10
175.9566458063221
 20
499.8775136569138
 30
0.0
 11
175.1064550677735
 21
500.2392902377503
 31
0.0
  0
LINE
  5
5E7
330
5ED
100
AcDbEntity
  8
0
  6
ByBlock
 62
     7
370
    -2
380
     1
100
AcDbLine
 10
144.9591747621583
 20
426.1994187416238
 30
0.0
 11
172.341161500833
 21
490.5482814415187
 31
0.0
  0
LINE
  5
5E8
330
5ED
100
AcDbEntity
  8
0
  6
ByBlock
 62
     7
370
    -2
380
     1
100
AcDbLine
 10
176.2566516339722
 20
499.7498539711079
 30
0.0
 11
194.9442445786757
 21
543.6665121766205
 31
0.0
  0
SOLID
  5
5E9
330
5ED
100
AcDbEntity
  8
0
  6
ByBlock
 62
     7
380
     1
100
AcDbTrace
 10
141.0436846290192
 20
416.9978462120346
 30
0.0
 11
146.4927701837565
 21
425.5468370527673
 31
0.0
 12
143.4255793405601
 22
426.8520004304803
 32
0.0
 13
143.4255793405601
 23
426.8520004304803
 33
0.0
  0
SOLID
  5
5EA
330
5ED
100
AcDbEntity
  8
0
  6
ByBlock
 62
     7
380
     1
100
AcDbTrace
 10
176.2566516339722
 20
499.7498539711079
 30
0.0
 11
173.8747569224312
 21
489.8956997526622
 31
0.0
 12
170.8075660792348
 22
491.2008631303752
 32
0.0
 13
170.8075660792348
 23
491.2008631303752
 33
0.0
  0
MTEXT
  5
5EB
330
5ED
100
AcDbEntity
  8
0
  6
ByBlock
 62
     0
370
    -2
380
     1
100
AcDbMText
 10
179.5570182834595
 20
536.3812723654635
 30
0.0
 40
14.0
 41
0.0
 71
     5
 72
     1
  1
\A1;90
 11
0.3915490133139146
 21
0.920157252958917
 31
0.0
 73
     1
 44
1.0
  0
ENDBLK
  5
6BA
330
5ED
100
AcDbEntity
  8
0
100
AcDbBlockEnd
  0
BLOCK
  5
6BB
330
5F9
100
AcDbEntity
  8
0
100
AcDbBlockBegin
  2
*D89
 70
     1
 10
0.0
 20
0.0
 30
0.0
  3
*D89
  1

  0
POINT
  5
5EF
330
5F9
100
AcDbEntity
  8
DEFPOINTS
  6
ByBlock
 62
     7
380
     1
100
AcDbPoint
 10
141.3187770844685
 20
416.8807877645194
 30
0.0
  0
POINT
  5
5F0
330
5F9
100
AcDbEntity
  8
DEFPOINTS
  6
ByBlock
 62
     7
380
     1
100
AcDbPoint
 10
176.5317440894214
 20
499.6327955235926
 30
0.0
  0
LINE
  5
5F1
330
5F9
100
AcDbEntity
  8
0
  6
ByBlock
 62
     7
370
    -2
380
     1
100
AcDbLine
 10
140.7436788013691
 20
417.1255058978406
 30
0.0
 11
139.8934880628205
 21
417.487282478677
 31
0.0
  0
LINE
  5
5F2
330
5F9
100
AcDbEntity
  8
0
  6
ByBlock
 62
     7
370
    -2
380
     1
100
AcDbLine
 10
175.9566458063221
 20
499.8775136569138
 30
0.0
 11
175.1064550677735
 21
500.2392902377503
 31
0.0
  0
LINE
  5
5F3
330
5F9
100
AcDbEntity
  8
0
  6
ByBlock
 62
     7
370
    -2
380
     1
100
AcDbLine
 10
144.9591747621583
 20
426.1994187416238
 30
0.0
 11
172.341161500833
 21
490.5482814415187
 31
0.0
  0
LINE
  5
5F4
330
5F9
100
AcDbEntity
  8
0
  6
ByBlock
 62
     7
370
    -2
380
     1
100
AcDbLine
 10
176.2566516339722
 20
499.7498539711079
 30
0.0
 11
194.9442445786757
 21
543.6665121766205
 31
0.0
  0
SOLID
  5
5F5
330
5F9
100
AcDbEntity
  8
0
  6
ByBlock
 62
     7
380
     1
100
AcDbTrace
 10
141.0436846290192
 20
416.9978462120346
 30
0.0
 11
146.4927701837565
 21
425.5468370527673
 31
0.0
 12
143.4255793405601
 22
426.8520004304803
 32
0.0
 13
143.4255793405601
 23
426.8520004304803
 33
0.0
  0
SOLID
  5
5F6
330
5F9
100
AcDbEntity
  8
0
  6
ByBlock
 62
     7
380
     1
100
AcDbTrace
 10
176.2566516339722
 20
499.7498539711079
 30
0.0
 11
173.8747569224312
 21
489.8956997526622
 31
0.0
 12
170.8075660792348
 22
491.2008631303752
 32
0.0
 13
170.8075660792348
 23
491.2008631303752
 33
0.0
  0
MTEXT
  5
5F7
330
5F9
100
AcDbEntity
  8
0
  6
ByBlock
 62
     0
370
    -2
380
     1
100
AcDbMText
 10
179.5570182834595
 20
536.3812723654635
 30
0.0
 40
14.0
 41
0.0
 71
     5
 72
     1
  1
\A1;90
 11
0.3915490133139146
 21
0.920157252958917
 31
0.0
 73
     1
 44
1.0
  0
ENDBLK
  5
6BC
330
5F9
100
AcDbEntity
  8
0
100
AcDbBlockEnd
  0
ENDSEC
  0
SECTION
  2
ENTITIES
  0
LINE
  5
6E
330
1F
100
AcDbEntity
  8
0
 62
     7
 48
0.1
370
    60
390
F
100
AcDbLine
 10
341.977078
 20
503.109978
 30
0.0
 11
341.977078
 21
499.109978
 31
0.0
  0
LINE
  5
6F
330
1F
100
AcDbEntity
  8
0
 62
     7
 48
0.1
370
    60
390
F
100
AcDbLine
 10
349.393887
 20
503.109978
 30
0.0
 11
349.393887
 21
499.109978
 31
0.0
  0
INSERT
  5
37D
330
1F
100
AcDbEntity
  8
0
370
    60
390
F
100
AcDbBlockReference
  2
BLOCK53
 10
303.686887
 20
458.109978
 30
0.0
  0
INSERT
  5
37E
330
1F
100
AcDbEntity
  8
0
370
    60
390
F
100
AcDbBlockReference
  2
BLOCK54
 10
303.686887
 20
458.109978
 30
0.0
  0
INSERT
  5
37F
330
1F
100
AcDbEntity
  8
0
370
    60
390
F
100
AcDbBlockReference
  2
BLOCK55
 10
303.686887
 20
458.109978
 30
0.0
  0
INSERT
  5
380
330
1F
100
AcDbEntity
  8
0
370
    60
390
F
100
AcDbBlockReference
  2
BLOCK56
 10
303.686887
 20
458.109978
 30
0.0
  0
INSERT
  5
381
330
1F
100
AcDbEntity
  8
0
370
    60
390
F
100
AcDbBlockReference
  2
BLOCK57
 10
303.686887
 20
458.109978
 30
0.0
  0
INSERT
  5
382
330
1F
100
AcDbEntity
  8
0
370
    60
390
F
100
AcDbBlockReference
  2
BLOCK58
 10
303.686887
 20
458.109978
 30
0.0
  0
INSERT
  5
383
330
1F
100
AcDbEntity
  8
0
370
    60
390
F
100
AcDbBlockReference
  2
BLOCK59
 10
303.686887
 20
458.109978
 30
0.0
  0
INSERT
  5
386
330
1F
100
AcDbEntity
  8
0
370
    60
390
F
100
AcDbBlockReference
  2
BLOCK62
 10
157.3214284384039
 20
458.9392607473131
 30
0.0
  0
ARC
  5
3AE
330
1F
100
AcDbEntity
  8
0
 62
     7
370
    60
390
F
100
AcDbCircle
 10
345.686876
 20
539.962258
 30
0.0
 40
40.991378
100
AcDbArc
 50
265.277263
 51
274.722766
  0
LINE
  5
3AF
330
1F
100
AcDbEntity
  8
0
 62
     7
 48
0.1
370
    60
390
F
100
AcDbLine
 10
349.061887
 20
503.109974
 30
0.0
 11
349.061887
 21
499.109974
 31
0.0
  0
ARC
  5
3B0
330
1F
100
AcDbEntity
  8
0
 62
     7
370
    60
390
F
100
AcDbCircle
 10
345.686887
 20
547.973358
 30
0.0
 40
44.990082
100
AcDbArc
 50
265.697832
 51
274.30217
  0
LINE
  5
3B1
330
1F
100
AcDbEntity
  8
0
 62
     7
 48
0.1
370
    60
390
F
100
AcDbLine
 10
342.311887
 20
503.109974
 30
0.0
 11
342.311887
 21
499.109974
 31
0.0
  0
LINE
  5
3B2
330
1F
100
AcDbEntity
  8
0
 62
     7
370
    60
390
F
100
AcDbLine
 10
349.061887
 20
503.109978
 30
0.0
 11
479.686887
 21
503.109978
 31
0.0
  0
LINE
  5
3B3
330
1F
100
AcDbEntity
  8
0
 62
     7
370
    60
390
F
100
AcDbLine
 10
303.686887
 20
503.109978
 30
0.0
 11
342.311887
 21
503.109978
 31
0.0
  0
LINE
  5
3B4
330
1F
100
AcDbEntity
  8
0
 62
     7
370
    60
390
F
100
AcDbLine
 10
349.061887
 20
499.109978
 30
0.0
 11
479.686887
 21
499.109978
 31
0.0
  0
LINE
  5
3B5
330
1F
100
AcDbEntity
  8
0
 62
     7
370
    60
390
F
100
AcDbLine
 10
303.686887
 20
499.109978
 30
0.0
 11
342.311887
 21
499.109978
 31
0.0
  0
LINE
  5
3B6
330
1F
100
AcDbEntity
  8
0
 62
     7
370
    60
390
F
100
AcDbLine
 10
303.686887
 20
458.109978
 30
0.0
 11
303.686887
 21
499.109978
 31
0.0
  0
LINE
  5
3B7
330
1F
100
AcDbEntity
  8
0
 62
     7
 48
0.1
370
    60
390
F
100
AcDbLine
 10
479.686887
 20
499.109978
 30
0.0
 11
479.686887
 21
503.109978
 31
0.0
  0
LINE
  5
3B8
330
1F
100
AcDbEntity
  8
0
 62
     7
 48
0.1
370
    60
390
F
100
AcDbLine
 10
479.686887
 20
413.109978
 30
0.0
 11
479.686887
 21
417.109978
 31
0.0
  0
LINE
  5
3B9
330
1F
100
AcDbEntity
  8
0
 62
     7
370
    60
390
F
100
AcDbLine
 10
303.686887
 20
413.109978
 30
0.0
 11
479.686887
 21
413.109978
 31
0.0
  0
LINE
  5
3BB
330
1F
100
AcDbEntity
  8
0
 62
     7
 48
0.1
370
    60
390
F
100
AcDbLine
 10
303.686887
 20
499.109978
 30
0.0
 11
303.686887
 21
503.109978
 31
0.0
  0
LINE
  5
3BC
330
1F
100
AcDbEntity
  8
0
 62
     7
370
    60
390
F
100
AcDbLine
 10
303.686887
 20
417.109978
 30
0.0
 11
303.686887
 21
458.109978
 31
0.0
  0
LINE
  5
3BD
330
1F
100
AcDbEntity
  8
0
 62
     7
 48
0.1
370
    60
390
F
100
AcDbLine
 10
303.686887
 20
413.109978
 30
0.0
 11
303.686887
 21
417.109978
 31
0.0
  0
LINE
  5
3BE
330
1F
100
AcDbEntity
  8
0
 62
     7
370
    60
390
F
100
AcDbLine
 10
303.686887
 20
417.109978
 30
0.0
 11
479.686887
 21
417.109978
 31
0.0
  0
SPLINE
  5
3BF
330
1F
100
AcDbEntity
  8
0
 62
     7
370
    60
390
F
100
AcDbSpline
210
0.0
220
0.0
230
1.0
 70
     8
 71
     3
 72
    74
 73
    70
 74
     0
 42
0.0
 43
0.0
 40
0.0
 40
0.0
 40
0.0
 40
0.0
 40
0.1357852472555132
 40
0.2719584117066781
 40
0.4089121712454878
 40
0.5468313425920883
 40
0.6857126528467601
 40
0.8253988025634024
 40
0.9656253629092773
 40
1.106077553319123
 40
1.246453707787383
 40
1.386532536434322
 40
1.526241636777724
 40
1.665724880136064
 40
1.805406307561328
 40
1.946048270553247
 40
2.088510920247362
 40
2.232638431441625
 40
2.378047389262724
 40
2.524475175274036
 40
2.671762860162739
 40
2.819836888085831
 40
2.968690210060767
 40
3.118363422617019
 40
3.268926422500912
 40
3.42046103429706
 40
3.573044997519611
 40
3.726737618546043
 40
3.881567315561016
 40
4.037521230940329
 40
4.194537075305043
 40
4.352497419260988
 40
4.511226779772939
 40
4.670501312068851
 40
4.830110239542234
 40
4.98986026189767
 40
5.149566698489626
 40
5.309054982317337
 40
5.468161916319608
 40
5.626736711717121
 40
5.784641837638878
 40
5.941753704615609
 40
6.097963199050704
 40
6.253176081294838
 40
6.407313256305436
 40
6.56031092296204
 40
6.712120605862956
 40
6.862709071809098
 40
7.012058132169367
 40
7.160164331918713
 40
7.307038526350055
 40
7.452705347287803
 40
7.597202562065633
 40
7.740580330541914
 40
7.882900367950398
 40
8.024235024319463
 40
8.164666294397824
 40
8.304284775315859
 40
8.443188592375892
 40
8.581482316172654
 40
8.71927589646696
 40
8.856683639666821
 40
8.993823257252792
 40
9.130815011917935
 40
9.267780986556954
 40
9.404844498582472
 40
9.542129678490182
 40
9.679761227308191
 40
9.817864362753475
 40
9.817864362753475
 40
9.817864362753475
 40
9.817864362753475
 10
342.311887
 20
437.609977999983
 30
0.0
 10
342.3118857222319
 20
437.5647058918194
 30
0.0
 10
342.3141001526857
 20
437.4740484884989
 30
0.0
 10
342.3247549880383
 20
437.3380881972822
 30
0.0
 10
342.3431266138343
 20
437.2022367732413
 30
0.0
 10
342.3693634151067
 20
437.0667614420171
 30
0.0
 10
342.403424937371
 20
436.9321010485908
 30
0.0
 10
342.4451275712996
 20
436.7988040549607
 30
0.0
 10
342.4941885459893
 20
436.667479874983
 30
0.0
 10
342.5502689657286
 20
436.5387477487426
 30
0.0
 10
342.613016339196
 20
436.4131869206108
 30
0.0
 10
342.682106987549
 20
436.2912871333476
 30
0.0
 10
342.7572881215181
 20
436.1733995455808
 30
0.0
 10
342.8384202499495
 20
436.0596888786657
 30
0.0
 10
342.9255163889007
 20
435.9500826555574
 30
0.0
 10
343.0187258324985
 20
435.8443033526544
 30
0.0
 10
343.1179899599267
 20
435.7421132461065
 30
0.0
 10
343.2231219293562
 20
435.6436331408134
 30
0.0
 10
343.3337220592848
 20
435.5492882222793
 30
0.0
 10
343.4493696751393
 20
435.4594765167191
 30
0.0
 10
343.569706693116
 20
435.3745044172654
 30
0.0
 10
343.6944256205031
 20
435.2945978695814
 30
0.0
 10
343.8232605376592
 20
435.2199164471193
 30
0.0
 10
343.9559772840548
 20
435.1505664854843
 30
0.0
 10
344.0923638744467
 20
435.0866143557705
 30
0.0
 10
344.2322208428888
 20
435.0280996237575
 30
0.0
 10
344.3753515628433
 20
434.9750481765234
 30
0.0
 10
344.5215525038612
 20
434.9274853197593
 30
0.0
 10
344.6706034277828
 20
434.8854487446081
 30
0.0
 10
344.8222575383069
 20
434.8490017217583
 30
0.0
 10
344.9762316236413
 20
434.8182451405987
 30
0.0
 10
345.1321962261468
 20
434.7933336335993
 30
0.0
 10
345.2897690226619
 20
434.7744758074235
 30
0.0
 10
345.4485271204328
 20
434.7619922477123
 30
0.0
 10
345.6079970656042
 20
434.7558874618061
 30
0.0
 10
345.7677268144878
 20
434.756107002577
 30
0.0
 10
345.9272837912873
 20
434.7626022921226
 30
0.0
 10
346.0862507845085
 20
434.7753140865206
 30
0.0
 10
346.2442257264585
 20
434.7941770947176
 30
0.0
 10
346.4008213827084
 20
434.8191188258361
 30
0.0
 10
346.5556650621238
 20
434.8500599622913
 30
0.0
 10
346.7083983169062
 20
434.886914304767
 30
0.0
 10
346.8586766414998
 20
434.9295888119647
 30
0.0
 10
347.0061691687254
 20
434.9779835964217
 30
0.0
 10
347.1505583643494
 20
435.0319919145482
 30
0.0
 10
347.2915397205863
 20
435.0915001421546
 30
0.0
 10
347.4288214492795
 20
435.1563877394484
 30
0.0
 10
347.562124175492
 20
435.2265272063353
 30
0.0
 10
347.6911806322809
 20
435.3017840299293
 30
0.0
 10
347.8157353574247
 20
435.3820166261446
 30
0.0
 10
347.9355443928299
 20
435.4670762775111
 30
0.0
 10
348.0503749872455
 20
435.5568070695387
 30
0.0
 10
348.1600053027461
 20
435.6510458281468
 30
0.0
 10
348.2642241252071
 20
435.7496220608084
 30
0.0
 10
348.3628305786901
 20
435.8523579041284
 30
0.0
 10
348.455633843302
 20
435.9590680805429
 30
0.0
 10
348.5424528757128
 20
436.0695598666667
 30
0.0
 10
348.6231161311605
 20
436.1836330755651
 30
0.0
 10
348.697461285472
 20
436.3010800546759
 30
0.0
 10
348.7653349554419
 20
436.4216857010798
 30
0.0
 10
348.8265924158675
 20
436.5452274933953
 30
0.0
 10
348.8810973116687
 20
436.6714755457457
 30
0.0
 10
348.9287213637691
 20
436.8001926635197
 30
0.0
 10
348.9693440680018
 20
436.9311344737752
 30
0.0
 10
349.0028523862238
 20
437.0640493543117
 30
0.0
 10
349.0291404316459
 20
437.1986791849379
 30
0.0
 10
349.048109142477
 20
437.3347570914821
 30
0.0
 10
349.0596659700417
 20
437.4720164995791
 30
0.0
 10
349.0623662097464
 20
437.5639255847453
 30
0.0
 10
349.0624611489341
 20
437.6099715070201
 30
0.0
  0
SPLINE
  5
3C0
330
1F
100
AcDbEntity
  8
0
 62
     7
370
    60
390
F
100
AcDbSpline
210
0.0
220
0.0
230
1.0
 70
     8
 71
     3
 72
    74
 73
    70
 74
     0
 42
0.0
 43
0.0
 40
0.0
 40
0.0
 40
0.0
 40
0.0
 40
0.1387817426917558
 40
0.2783786168687786
 40
0.4187210803760438
 40
0.5597550105085041
 40
0.7014376726102193
 40
0.8437344705207972
 40
0.9866165225543216
 40
1.130059079795211
 40
1.274040779304713
 40
1.418543704299394
 40
1.563554206962503
 40
1.709064437266914
 40
1.855074512588163
 40
2.00159525724038
 40
2.148651437480988
 40
2.296285415095283
 40
2.444561140543411
 40
2.593565290964848
 40
2.743382815460977
 40
2.894074836621435
 40
3.045678877446646
 40
3.198211070904164
 40
3.351668456348112
 40
3.506031291784701
 40
3.661265318501415
 40
3.817323921934177
 40
3.974150139432597
 40
4.131678471658068
 40
4.289836459756249
 40
4.448545995345041
 40
4.607724334976041
 40
4.767284795302791
 40
4.927137109951086
 40
5.087187434217538
 40
5.247337989345182
 40
5.407486344281647
 40
5.567524339475193
 40
5.72733666428006
 40
5.886799106719662
 40
6.045776501430554
 40
6.204120408281661
 40
6.361666560131764
 40
6.518232123189184
 40
6.673616176181183
 40
6.827743689464565
 40
6.980722340126494
 40
7.132650583617933
 40
7.283602706981094
 40
7.433629923355658
 40
7.582762364246647
 40
7.731011902875422
 40
7.878375720483168
 40
8.02484051386357
 40
8.170387234298238
 40
8.314996242802719
 40
8.458652761585201
 40
8.601352494640857
 40
8.743107279814154
 40
8.883950619656027
 40
9.023942919321343
 40
9.163176238414138
 40
9.301778343719441
 40
9.439915836753233
 40
9.577796131307583
 40
9.715668079728744
 40
9.853821099568462
 40
9.99258273797622
 40
9.99258273797622
 40
9.99258273797622
 40
9.99258273797622
 10
349.0624611489341
 20
437.6099715070201
 30
0.0
 10
349.0624879144738
 20
437.6562440613649
 30
0.0
 10
349.0599490357999
 20
437.7490409993675
 30
0.0
 10
349.0484294461393
 20
437.8882126865644
 30
0.0
 10
349.0292112660087
 20
438.0272839431123
 30
0.0
 10
349.0023604109456
 20
438.1657934816416
 30
0.0
 10
348.967979343074
 20
438.3032982981385
 30
0.0
 10
348.9262023919208
 20
438.4393825924928
 30
0.0
 10
348.8771910628685
 20
438.5736548825225
 30
0.0
 10
348.8211293570844
 20
438.7057482578516
 30
0.0
 10
348.758219104292
 20
438.8353197385917
 30
0.0
 10
348.6886753132349
 20
438.9620498291513
 30
0.0
 10
348.6127215412918
 20
439.0856419761696
 30
0.0
 10
348.5305852832366
 20
439.2058220120547
 30
0.0
 10
348.442493379081
 20
439.3223375663432
 30
0.0
 10
348.3486674363344
 20
439.4349574481656
 30
0.0
 10
348.2493192774841
 20
439.5434710165338
 30
0.0
 10
348.1446463656032
 20
439.6476874780794
 30
0.0
 10
348.0348281483612
 20
439.7474346501332
 30
0.0
 10
347.9200295201668
 20
439.8425510980748
 30
0.0
 10
347.8004171009534
 20
439.9328802751238
 30
0.0
 10
347.6761730499558
 20
440.0182634086999
 30
0.0
 10
347.5474996862655
 20
440.0985349548247
 30
0.0
 10
347.4146192186325
 20
440.1735245688096
 30
0.0
 10
347.2777727759313
 20
440.2430592332749
 30
0.0
 10
347.1372195034232
 20
440.3069654901026
 30
0.0
 10
346.9932356406997
 20
440.3650716802605
 30
0.0
 10
346.8461136017345
 20
440.4172102112311
 30
0.0
 10
346.6961610500683
 20
440.4632198404956
 30
0.0
 10
346.5436999701135
 20
440.5029479721398
 30
0.0
 10
346.3890657337237
 20
440.5362529614919
 30
0.0
 10
346.2326061617698
 20
440.5630064234009
 30
0.0
 10
346.0746805802841
 20
440.5830955395929
 30
0.0
 10
345.9156588706954
 20
440.5964253604921
 30
0.0
 10
345.7559205136174
 20
440.6029210966905
 30
0.0
 10
345.5958536256064
 20
440.6025303950801
 30
0.0
 10
345.4358539884836
 20
440.5952255941805
 30
0.0
 10
345.2763240705684
 20
440.581005953827
 30
0.0
 10
345.1176720409206
 20
440.5598998510295
 30
0.0
 10
344.9603107724305
 20
440.5319669457638
 30
0.0
 10
344.8046568507845
 20
440.497300276014
 30
0.0
 10
344.6511295292333
 20
440.456028407741
 30
0.0
 10
344.5001498573328
 20
440.4083171491388
 30
0.0
 10
344.3521391433742
 20
440.3543726290647
 30
0.0
 10
344.2075188357572
 20
440.2944386267183
 30
0.0
 10
344.0666570419631
 20
440.2287923027327
 30
0.0
 10
343.9298399067088
 20
440.1576402650977
 30
0.0
 10
343.7972910393125
 20
440.0810983279571
 30
0.0
 10
343.6691710007161
 20
439.9993038862835
 30
0.0
 10
343.5456481454228
 20
439.9124180747003
 30
0.0
 10
343.4268987083397
 20
439.8206301057987
 30
0.0
 10
343.3131057240743
 20
439.7241519414027
 30
0.0
 10
343.2044570879997
 20
439.6232149486003
 30
0.0
 10
343.1011438523056
 20
439.5180660726987
 30
0.0
 10
343.0033584601621
 20
439.4089641859208
 30
0.0
 10
342.911292993008
 20
439.2961764406963
 30
0.0
 10
342.825137409419
 20
439.1799746777208
 30
0.0
 10
342.745077780609
 20
439.0606318818187
 30
0.0
 10
342.6712945200544
 20
438.9384186957626
 30
0.0
 10
342.6039606047012
 20
438.8135999985448
 30
0.0
 10
342.543239781734
 20
438.6864315574566
 30
0.0
 10
342.4892847512467
 20
438.5571567545215
 30
0.0
 10
342.4422353112842
 20
438.4260034089336
 30
0.0
 10
342.4022164490091
 20
438.2931806176574
 30
0.0
 10
342.3693363619345
 20
438.1588758709629
 30
0.0
 10
342.3436843976044
 20
438.0232514133185
 30
0.0
 10
342.3253289120638
 20
437.8864435572729
 30
0.0
 10
342.314315059459
 20
437.748550956718
 30
0.0
 10
342.3118875101905
 20
437.6562429460707
 30
0.0
 10
342.311887
 20
437.609977999983
 30
0.0
  0
LINE
  5
3C1
330
1F
100
AcDbEntity
  8
0
 62
     7
 48
0.1
370
    60
390
F
100
AcDbLine
 10
479.686887
 20
486.109978
 30
0.0
 11
483.686887
 21
486.109978
 31
0.0
  0
LINE
  5
3C2
330
1F
100
AcDbEntity
  8
0
 62
     7
370
    60
390
F
100
AcDbLine
 10
479.686887
 20
458.109978
 30
0.0
 11
479.686887
 21
486.109978
 31
0.0
  0
LINE
  5
3C3
330
1F
100
AcDbEntity
  8
0
 62
     7
370
    60
390
F
100
AcDbLine
 10
483.686887
 20
458.109978
 30
0.0
 11
483.686887
 21
486.109978
 31
0.0
  0
LINE
  5
3C4
330
1F
100
AcDbEntity
  8
0
 62
     7
 48
0.425
370
    60
390
F
100
AcDbLine
 10
483.686887
 20
486.109978
 30
0.0
 11
483.686887
 21
503.109978
 31
0.0
  0
LINE
  5
3C5
330
1F
100
AcDbEntity
  8
0
 62
     7
370
    60
390
F
100
AcDbLine
 10
483.686887
 20
430.109978
 30
0.0
 11
483.686887
 21
458.109978
 31
0.0
  0
LINE
  5
3C6
330
1F
100
AcDbEntity
  8
0
 62
     7
 48
0.425
370
    60
390
F
100
AcDbLine
 10
483.686887
 20
413.109978
 30
0.0
 11
483.686887
 21
430.109978
 31
0.0
  0
LINE
  5
3C7
330
1F
100
AcDbEntity
  8
0
 62
     7
 48
0.1
370
    60
390
F
100
AcDbLine
 10
479.686887
 20
430.109978
 30
0.0
 11
483.686887
 21
430.109978
 31
0.0
  0
LINE
  5
3C8
330
1F
100
AcDbEntity
  8
0
 62
     7
370
    60
390
F
100
AcDbLine
 10
479.686887
 20
430.109978
 30
0.0
 11
479.686887
 21
458.109978
 31
0.0
  0
LINE
  5
3C9
330
1F
100
AcDbEntity
  8
0
 62
     7
 48
0.425
370
    60
390
F
100
AcDbLine
 10
479.686887
 20
486.109978
 30
0.0
 11
479.686887
 21
503.109978
 31
0.0
  0
LINE
  5
3CA
330
1F
100
AcDbEntity
  8
0
 62
     7
 48
0.425
370
    60
390
F
100
AcDbLine
 10
479.686887
 20
413.109978
 30
0.0
 11
479.686887
 21
430.109978
 31
0.0
  0
LINE
  5
3CB
330
1F
100
AcDbEntity
  8
0
 62
     7
 48
0.1
370
    60
390
F
100
AcDbLine
 10
479.686887
 20
413.109978
 30
0.0
 11
483.686887
 21
413.109978
 31
0.0
  0
LINE
  5
3CC
330
1F
100
AcDbEntity
  8
0
 62
     7
 48
0.1
370
    60
390
F
100
AcDbLine
 10
479.686887
 20
503.109978
 30
0.0
 11
483.686887
 21
503.109978
 31
0.0
  0
LINE
  5
3CD
330
1F
100
AcDbEntity
  8
0
 62
     7
370
    60
390
F
100
AcDbLine
 10
483.686887
 20
488.109978
 30
0.0
 11
663.6868870000001
 21
488.109978
 31
0.0
  0
LINE
  5
3CE
330
1F
100
AcDbEntity
  8
0
 62
     7
 48
0.05
370
    60
390
F
100
AcDbLine
 10
663.6868870000001
 20
486.109978
 30
0.0
 11
663.6868870000001
 21
488.109978
 31
0.0
  0
LINE
  5
3CF
330
1F
100
AcDbEntity
  8
0
 62
     7
370
    60
390
F
100
AcDbLine
 10
663.6868870000001
 20
458.109978
 30
0.0
 11
663.6868870000001
 21
486.109978
 31
0.0
  0
LINE
  5
3D0
330
1F
100
AcDbEntity
  8
0
 62
     7
370
    60
390
F
100
AcDbLine
 10
663.6868870000001
 20
430.109978
 30
0.0
 11
663.6868870000001
 21
458.109978
 31
0.0
  0
LINE
  5
3D1
330
1F
100
AcDbEntity
  8
0
 62
     7
 48
0.05
370
    60
390
F
100
AcDbLine
 10
663.6868870000001
 20
428.109978
 30
0.0
 11
663.6868870000001
 21
430.109978
 31
0.0
  0
LINE
  5
3D2
330
1F
100
AcDbEntity
  8
0
 62
     7
370
    60
390
F
100
AcDbLine
 10
483.686887
 20
428.109978
 30
0.0
 11
663.6868870000001
 21
428.109978
 31
0.0
  0
LINE
  5
3D3
330
1F
100
AcDbEntity
  8
0
 62
     7
 48
0.05
370
    60
390
F
100
AcDbLine
 10
483.686887
 20
486.109978
 30
0.0
 11
483.686887
 21
488.109978
 31
0.0
  0
LINE
  5
3D4
330
1F
100
AcDbEntity
  8
0
 62
     7
370
    60
390
F
100
AcDbLine
 10
483.686887
 20
458.109978
 30
0.0
 11
483.686887
 21
486.109978
 31
0.0
  0
LINE
  5
3D5
330
1F
100
AcDbEntity
  8
0
 62
     7
370
    60
390
F
100
AcDbLine
 10
483.686887
 20
430.109978
 30
0.0
 11
483.686887
 21
458.109978
 31
0.0
  0
LINE
  5
3D6
330
1F
100
AcDbEntity
  8
0
 62
     7
 48
0.05
370
    60
390
F
100
AcDbLine
 10
483.686887
 20
428.109978
 30
0.0
 11
483.686887
 21
430.109978
 31
0.0
  0
LINE
  5
3D7
330
1F
100
AcDbEntity
  8
0
 62
     7
370
    60
390
F
100
AcDbLine
 10
483.686887
 20
486.109978
 30
0.0
 11
663.6868870000001
 21
486.109978
 31
0.0
  0
LINE
  5
3D8
330
1F
100
AcDbEntity
  8
0
 62
     7
370
    60
390
F
100
AcDbLine
 10
483.686887
 20
430.109978
 30
0.0
 11
663.6868870000001
 21
430.109978
 31
0.0
  0
POINT
  5
428
330
1F
100
AcDbEntity
  8
0
 62
     7
100
AcDbPoint
 10
312.6213718736395
 20
499.109978
 30
0.0
  0
POINT
  5
429
330
1F
100
AcDbEntity
  8
0
 62
     7
100
AcDbPoint
 10
312.6213718736395
 20
417.109978
 30
0.0
  0
LINE
  5
42A
330
1F
100
AcDbEntity
  8
0
 62
     7
370
    40
100
AcDbLine
 10
311.9963718736395
 20
499.109978
 30
0.0
 11
286.6151518465779
 21
499.109978
 31
0.0
  0
LINE
  5
42B
330
1F
100
AcDbEntity
  8
0
 62
     7
370
    40
100
AcDbLine
 10
311.9963718736395
 20
417.109978
 30
0.0
 11
286.6151518465779
 21
417.109978
 31
0.0
  0
LINE
  5
42C
330
1F
100
AcDbEntity
  8
0
 62
     7
370
    40
100
AcDbLine
 10
287.8651518465779
 20
489.109978
 30
0.0
 11
287.8651518465779
 21
427.109978
 31
0.0
  0
SOLID
  5
42D
330
1F
100
AcDbEntity
  8
0
 62
     7
370
    40
100
AcDbTrace
 10
287.8651518465779
 20
499.109978
 30
0.0
 11
286.1984851799112
 21
489.109978
 31
0.0
 12
289.5318185132446
 22
489.109978
 32
0.0
 13
289.5318185132446
 23
489.109978
 33
0.0
  0
SOLID
  5
42E
330
1F
100
AcDbEntity
  8
0
 62
     7
370
    40
100
AcDbTrace
 10
287.8651518465779
 20
417.109978
 30
0.0
 11
286.1984851799112
 21
427.109978
 31
0.0
 12
289.5318185132446
 22
427.109978
 32
0.0
 13
289.5318185132446
 23
427.109978
 33
0.0
  0
MTEXT
  5
42F
330
1F
100
AcDbEntity
  8
0
370
    40
100
AcDbMText
 10
276.5651518465779
 20
458.109978
 30
0.0
 40
14.0
 41
0.0
 71
     5
 72
     1
  1
\A1;Ø82
 11
6.123031769111886E-17
 21
1.0
 31
0.0
 73
     1
 44
1.0
  0
DIMENSION
  5
43B
330
1F
100
AcDbEntity
  8
0
370
    40
100
AcDbDimension
  2
*D84
 10
479.686887
 20
521.2640064941877
 30
0.0
 11
391.686887
 21
532.5640064941877
 31
0.0
 70
    32
 71
     5
 41
2.5
 42
176.0
  3
Standard
100
AcDbAlignedDimension
 13
303.686887
 23
488.2619386935595
 33
0.0
 14
479.686887
 24
488.2619386935595
 34
0.0
100
AcDbRotatedDimension
1001
ACAD
1000
DSTYLE
1002
{
1070
    41
1040
10.0
1070
   140
1040
14.0
1070
   147
1040
5.0
1070
   176
1070
     7
1070
   177
1070
     7
1070
   271
1070
     0
1070
   340
1005
11
1002
}
  0
DIMENSION
  5
452
330
1F
100
AcDbEntity
  8
0
370
    40
100
AcDbDimension
  2
*D83
 10
663.6868870000001
 20
521.176699436514
 30
0.0
 11
573.6868870000001
 21
532.4822112475376
 31
0.0
 70
    32
 71
     5
 41
2.5
 42
180.0000000000001
  3
Standard
100
AcDbAlignedDimension
 13
483.686887
 23
462.6082149137941
 33
0.0
 14
663.6868870000001
 24
458.109978
 34
0.0
100
AcDbRotatedDimension
1001
ACAD
1000
DSTYLE
1002
{
1070
    41
1040
10.0
1070
   140
1040
14.0
1070
   147
1040
5.0
1070
   176
1070
     7
1070
   177
1070
     7
1070
   340
1005
11
1002
}
  0
POINT
  5
4C3
330
1F
100
AcDbEntity
  8
0
 62
     7
100
AcDbPoint
 10
648.365003
 20
488.109978
 30
0.0
  0
POINT
  5
4C4
330
1F
100
AcDbEntity
  8
0
 62
     7
100
AcDbPoint
 10
646.632932
 20
428.109978
 30
0.0
  0
LINE
  5
4C5
330
1F
100
AcDbEntity
  8
0
 62
     7
370
    40
100
AcDbLine
 10
648.990003
 20
488.109978
 30
0.0
 11
688.9859232731274
 21
488.109978
 31
0.0
  0
LINE
  5
4C6
330
1F
100
AcDbEntity
  8
0
 62
     7
370
    40
100
AcDbLine
 10
647.257932
 20
428.109978
 30
0.0
 11
688.9859232731274
 21
428.109978
 31
0.0
  0
LINE
  5
4C7
330
1F
100
AcDbEntity
  8
0
 62
     7
370
    40
100
AcDbLine
 10
687.7359232731274
 20
478.109978
 30
0.0
 11
687.7359232731274
 21
438.109978
 31
0.0
  0
SOLID
  5
4C8
330
1F
100
AcDbEntity
  8
0
 62
     7
370
    40
100
AcDbTrace
 10
687.7359232731274
 20
488.109978
 30
0.0
 11
686.0692566064607
 21
478.109978
 31
0.0
 12
689.402589939794
 22
478.109978
 32
0.0
 13
689.402589939794
 23
478.109978
 33
0.0
  0
SOLID
  5
4C9
330
1F
100
AcDbEntity
  8
0
 62
     7
370
    40
100
AcDbTrace
 10
687.7359232731274
 20
428.109978
 30
0.0
 11
686.0692566064607
 21
438.109978
 31
0.0
 12
689.402589939794
 22
438.109978
 32
0.0
 13
689.402589939794
 23
438.109978
 33
0.0
  0
MTEXT
  5
4CA
330
1F
100
AcDbEntity
  8
0
370
    40
100
AcDbMText
 10
676.4304114621037
 20
455.4411006839271
 30
0.0
 40
14.0
 41
0.0
 71
     5
 72
     1
  1
\A1;Ø60
 11
6.123031769111886E-17
 21
1.0
 31
0.0
 73
     1
 44
1.0
  0
POINT
  5
5FA
330
1F
100
AcDbEntity
  8
0
 62
     7
100
AcDbPoint
 10
141.3187770844685
 20
416.8807877645194
 30
0.0
  0
POINT
  5
5FB
330
1F
100
AcDbEntity
  8
0
 62
     7
100
AcDbPoint
 10
176.5317440894214
 20
499.6327955235926
 30
0.0
  0
LINE
  5
5FC
330
1F
100
AcDbEntity
  8
0
 62
     7
370
    25
100
AcDbLine
 10
140.7436788013691
 20
417.1255058978406
 30
0.0
 11
139.8934880628205
 21
417.487282478677
 31
0.0
  0
LINE
  5
5FD
330
1F
100
AcDbEntity
  8
0
 62
     7
370
    25
100
AcDbLine
 10
175.9566458063221
 20
499.8775136569138
 30
0.0
 11
175.1064550677735
 21
500.2392902377503
 31
0.0
  0
LINE
  5
5FE
330
1F
100
AcDbEntity
  8
0
 62
     7
370
    25
100
AcDbLine
 10
144.9591747621583
 20
426.1994187416238
 30
0.0
 11
172.341161500833
 21
490.5482814415187
 31
0.0
  0
LINE
  5
5FF
330
1F
100
AcDbEntity
  8
0
 62
     7
370
    25
100
AcDbLine
 10
176.2566516339722
 20
499.7498539711079
 30
0.0
 11
194.9442445786757
 21
543.6665121766205
 31
0.0
  0
SOLID
  5
600
330
1F
100
AcDbEntity
  8
0
 62
     7
100
AcDbTrace
 10
141.0436846290192
 20
416.9978462120346
 30
0.0
 11
146.4927701837565
 21
425.5468370527673
 31
0.0
 12
143.4255793405601
 22
426.8520004304803
 32
0.0
 13
143.4255793405601
 23
426.8520004304803
 33
0.0
  0
SOLID
  5
601
330
1F
100
AcDbEntity
  8
0
 62
     7
100
AcDbTrace
 10
176.2566516339722
 20
499.7498539711079
 30
0.0
 11
173.8747569224312
 21
489.8956997526622
 31
0.0
 12
170.8075660792348
 22
491.2008631303752
 32
0.0
 13
170.8075660792348
 23
491.2008631303752
 33
0.0
  0
MTEXT
  5
602
330
1F
100
AcDbEntity
  8
0
370
    25
100
AcDbMText
 10
179.5570182834595
 20
536.3812723654635
 30
0.0
 40
14.0
 41
0.0
 71
     5
 72
     1
  1
\A1;Ø90
 11
0.3915490133139146
 21
0.920157252958917
 31
0.0
 73
     1
 44
1.0
  0
VIEWPORT
  5
4E8
330
73
100
AcDbEntity
 67
     1
  8
0
 62
     0
370
     0
390
F
100
AcDbViewport
 10
0.0
 20
0.0
 30
0.0
 40
1000.0
 41
1000.0
 68
     1
 69
     1
 12
0.0
 22
0.0
 13
0.0
 23
0.0
 14
1.0
 24
1.0
 15
1.0
 25
1.0
 16
0.0
 26
0.0
 36
1.0
 17
0.0
 27
0.0
 37
0.0
 42
50.0
 43
0.0
 44
0.0
 45
1000.0
 50
0.0
 51
0.0
 72
   100
 90
   557056
  1

281
     0
 71
     0
 74
     0
110
0.0
120
0.0
130
0.0
111
1.0
121
0.0
131
0.0
112
0.0
122
1.0
132
0.0
 79
     0
146
0.0
  0
ENDSEC
  0
SECTION
  2
OBJECTS
  0
DICTIONARY
  5
C
330
0
100
AcDbDictionary
281
     1
  3
ACAD_COLOR
350
6C
  3
ACAD_GROUP
350
D
  3
ACAD_LAYOUT
350
1A
  3
ACAD_MATERIAL
350
6B
  3
ACAD_MLEADERSTYLE
350
5B7
  3
ACAD_MLINESTYLE
350
17
  3
ACAD_PLOTSETTINGS
350
19
  3
ACAD_PLOTSTYLENAME
350
E
  3
ACAD_SCALELIST
350
99
  3
ACAD_TABLESTYLE
350
92
  3
ACAD_WIPEOUT_VARS
350
608
  3
ACDBHEADERROUNDTRIPXREC
350
6BD
  3
AcDbVariableDictionary
350
59
  3
DWGPROPS
350
6C0
  0
DICTIONARY
  5
6C
102
{ACAD_REACTORS
330
C
102
}
330
C
100
AcDbDictionary
281
     1
  0
DICTIONARY
  5
D
102
{ACAD_REACTORS
330
C
102
}
330
C
100
AcDbDictionary
281
     1
  0
DICTIONARY
  5
1A
102
{ACAD_REACTORS
330
C
102
}
330
C
100
AcDbDictionary
281
     1
  3
Layout1
350
74
  3
Model
350
22
  0
DICTIONARY
  5
6B
102
{ACAD_REACTORS
330
C
102
}
330
C
100
AcDbDictionary
281
     1
  0
DICTIONARY
  5
5B7
102
{ACAD_REACTORS
330
C
102
}
330
C
100
AcDbDictionary
281
     1
  0
DICTIONARY
  5
17
102
{ACAD_REACTORS
330
C
102
}
330
C
100
AcDbDictionary
281
     1
  3
Standard
350
18
  0
DICTIONARY
  5
19
102
{ACAD_REACTORS
330
C
102
}
330
C
100
AcDbDictionary
281
     1
  0
ACDBDICTIONARYWDFLT
  5
E
102
{ACAD_REACTORS
330
C
102
}
330
C
100
AcDbDictionary
281
     1
  3
Normal
350
F
100
AcDbDictionaryWithDefault
340
F
  0
DICTIONARY
  5
99
102
{ACAD_REACTORS
330
C
102
}
330
C
100
AcDbDictionary
281
     1
  3
A0
350
38A
  3
A1
350
38B
  3
A2
350
38C
  3
A3
350
38D
  3
A4
350
38E
  3
A5
350
38F
  3
A6
350
390
  3
A7
350
391
  3
A8
350
392
  3
A9
350
393
  3
B0
350
394
  3
B1
350
395
  3
B2
350
396
  3
B3
350
397
  3
B4
350
398
  3
B5
350
399
  3
B6
350
39A
  3
B7
350
39B
  3
B8
350
39C
  3
B9
350
39D
  3
C0
350
39E
  3
C1
350
39F
  3
C2
350
3A0
  3
C3
350
3A1
  3
C4
350
3A2
  3
C5
350
3A3
  3
C6
350
3A4
  3
C7
350
3A5
  3
C8
350
3A6
  3
C9
350
3A7
  3
D0
350
3A8
  3
D1
350
3A9
  3
D2
350
3AA
  0
DICTIONARY
  5
92
102
{ACAD_REACTORS
330
C
102
}
330
C
100
AcDbDictionary
281
     1
  0
WIPEOUTVARIABLES
  5
608
102
{ACAD_REACTORS
330
C
102
}
330
C
100
AcDbWipeoutVariables
 70
     1
  0
DICTIONARY
  5
6BD
102
{ACAD_REACTORS
330
C
102
}
330
C
100
AcDbDictionary
281
     1
  3
COLORDICT
350
6BE
  3
MATERIALDICT
350
6BF
  0
DICTIONARY
  5
59
102
{ACAD_REACTORS
330
C
102
}
330
C
100
AcDbDictionary
281
     1
  3
CTABLESTYLE
350
98
  3
DIMASSOC
350
5A
  3
HIDETEXT
350
5E
  0
XRECORD
  5
6C0
102
{ACAD_REACTORS
330
C
102
}
330
C
100
AcDbXrecord
280
     1
  1
DWGPROPS COOKIE
  2

  3

  4

  6

  7

  8
BelottiMc
  9

300
=
301
=
302
=
303
=
304
=
305
=
306
=
307
=
308
=
309
=
 40
0.0
 41
2447892.999999977
 42
2447893.0
  1

 90
        0
  0
LAYOUT
  5
74
102
{ACAD_REACTORS
330
1A
102
}
330
1A
100
AcDbPlotSettings
  1

  2
none_device
  4
none_user_media
  6

 40
0.0
 41
0.0
 42
0.0
 43
0.0
 44
0.0
 45
0.0
 46
0.0
 47
0.0
 48
0.0
 49
0.0
140
0.0
141
0.0
142
1.0
143
1.0
 70
   544
 72
     0
 73
     0
 74
     0
  7

 75
    16
147
1.0
148
0.0
149
0.0
100
AcDbLayout
  1
Layout1
 70
     1
 71
     0
 10
0.0
 20
0.0
 11
420.0
 21
297.0
 12
0.0
 22
0.0
 32
0.0
 14
0.0
 24
0.0
 34
0.0
 15
841.0
 25
594.0
 35
2.0
146
0.0
 13
0.0
 23
0.0
 33
0.0
 16
1.0
 26
0.0
 36
0.0
 17
0.0
 27
1.0
 37
0.0
 76
     0
330
73
331
4E8
  0
LAYOUT
  5
22
102
{ACAD_REACTORS
330
1A
102
}
330
1A
100
AcDbPlotSettings
  1

  2
\\prn100b\W366
  4
A4
  6

 40
4.233333333333333
 41
4.233333333333307
 42
4.233333333333335
 43
4.233333333333333
 44
210.0
 45
296.9
 46
0.0
 47
9.861111111111313
 48
0.0
 49
0.0
140
0.0
141
0.0
142
1.0
143
0.044657624875951
 70
 11956
 72
     1
 73
     1
 74
     1
  7

 75
     0
147
22.39259259259259
148
0.0
149
0.0
100
AcDbLayout
  1
Model
 70
     1
 71
     0
 10
0.0
 20
0.0
 11
420.0
 21
297.0
 12
0.0
 22
0.0
 32
0.0
 14
112.321428438404
 24
413.109978
 34
0.0
 15
689.402589939794
 25
551.0171364126616
 35
0.0
146
0.0
 13
0.0
 23
0.0
 33
0.0
 16
1.0
 26
0.0
 36
0.0
 17
0.0
 27
1.0
 37
0.0
 76
     0
330
1F
331
97
1001
PROGE_PRINT_SETTINGS
1070
    73
1070
     2
1070
   311
1000
\\prn100b\W366
1004
303030303030303035323030343930303433303034463030343830303230303034313030363630303639303036333030363930303646303032303030343130303530303033363030333130303330303034453030323030303530303034333030344330303230303033363030303030303030303030303030303030303030
1004
303030303030303030303443303035303030353430303331303033413030303030303030303030303030303030303030303030303030303030303030303030303030303030303030303030303030303030303030303030303030303030303030303030303030303030303030303030303030303030303030303030303030
1004
303030303030303030303030303030303030303030303030303030303030303030303030303030303030303030303030303030303030303030303030303030303030303030303030303030303030303030303030303030303030303030303030303030303030303030303030303030303030303030303030303030303030
1004
303030303030303030303030303030303030303030303030303030303030303030303030303030303030303030303030303030303030303030303030303030303030303030303030303030303030303030303030303030303030303030303030303030303030303030303030303030303030303030303030303030303030
1004
303030303030303030303030303030303030303030303030303030303030303030303030303030303030303030303030303030303030303030303030303030303030303030303030303030303030303030303030303030303030303030303030303030303030303030303030303030303030303030303030373430413030
1004
303030303030303030303030303030303030303130303030303037343041303030303531304430303030303130303030303030363030303030304230303930303030423330443030303030313030303030303030303030303030303030303030303030303030303030303030303030303030303030303030303030303030
1004
303030303030303030303030303030303030303030303030303030303030303030303030303030303030303036343030303030303035303030303030303030303030303030303030303030303030303030303030303130303030303030303030303030303030303030303030303630303030303030303030303030303030
1004
303030303030303030303030303030303030303030303030303030303030313830303030303030303030313032373130323731303237303030303130323730303030303030303030303030303030303130303030303030303030303030303030303030303030303030303030303030303030303030303030303030303030
1004
303030303030303030303030303030303030303030303030303030303030303030303030303030303030303030303030303030303030303030303030303030303030303030303030303030303030303030303030303030303030303030303030303030303030303030303030303030303030303030303030303030303030
1004
303030303030303030303030303030303030303030303030303030303030303030303030303030303030303030303030303030303030303030303030303030303030303030303030303030303030303030303030303030303030303030303030303030303030303030303030303030303030303030303030303030303030
1004
303030303030303030303030303030303030303030303030303030303030303030303030303030303030303030303030303030303030303030303030303030303030303030303030303030303030303030303030303030303030303030303030303030303030303030303030303030303030303030303030303030303030
1004
303030303030303030303030303030303030303030303030303030303030303030303030303030303030303030303030303030303030303030303030303030303030303030303030303030303030303030303030303030303030303030303030303030303030303030303030303030303030303030303030303030303030
1004
303030303030303030303030303030303030303030303030303030303030303030303030303030303030303030303030303030303030303030303030303030303030303030303030303030303030303030303030303030303030303030303030303030303030303030303030303030303030303030303030303030303030
1004
303030303030303030303030303030303030303030303030303030303030303030303030303030303030303030303030303030303030303030303030303030303030303030303030303030303030303030303030303030303030303030303030303030303030303030303030303030303030303030303030303030303030
1004
303030303030303030303030303030303030303030303030303030303030303030303030303030303030303030303030303030303030303030303030303030303030303030303030303030303030303030303030303030303030303030303030303030303030303030303030303030303030303030303030303030303030
1004
303030303030303030303030303030303030303030303030303030303030303030303030303030303030303030303030303030303030303030303030303030303030303030303030303030303030303030303030303030303030303030303030303030303030303030303030303030303030303030303030303030303030
1004
303030303030303030303030303030303030303030303030303030303030303030303030303030303030303030303030303030303030303030303030303030303030303030303030303030303030303030303030303030303030303030303030303030303030303030303030303030303030303030303030303030303030
1004
303030303030303030303030303030303030303030303030303030303030303030303030303030303030303030303030303030303030303030303030303030303030303030303030303030303030303030303030303030303030303030303030303030303030303030303030303030303030303030303030303030303030
1004
303030303030303030303030303030303030303030303030303030303030303030303030303030303030303030303030303030303030303030303030303030303030303030303030303030303030303030303030303030303030303030303030303030303030303030303030303030303030303030303030303030303030
1004
303030303030303030303030303030303030303030303030303030303030303030303030303030303030303030303030303030303030303030303030303030303030303030303030303030303030303030303030303030303030303030303030303030303030303030303030303030303030303030303030303030303030
1004
303030303030303030303030303030303030303030303030303030303030303030303030303030303030303030303030303030303030303030303030303030303030303030303030303030303030303030303030303030303030303030303030303030303030303030303030303030303030303030303030303030303030
1004
303030303030303030303030303030303030303030303030303030303030303030303030303030303030303030303030303030303030303030303030303030303030303030303030303030303030303030303030303030303030303030303030303030303030303030303030303030303030303030303030303030303030
1004
303030303030303030303030303030303030303030303030303030303030303030303030303030303030303030303030303030303030303030303030303030303030303030303030303030303030303030303030303030303030303030303030303030303030303030303030303030303030303030303030303030303030
1004
303030303030303030303030303030303030303030303030303030303030303030303030303030303030303030303030303030303030303030303030303030303030303030303030303030303030303030303030303030303030303030303030303030303030303030303030303030303030303030303030303030303030
1004
303030303030303030303030303030303030303030303030303030303030303030303030303030303030303030303030303130303030303030313030303030303030303030303030303030303030303030303030303030303030303030303030303130303030303030303030303030303031303030303030303030303030
1004
303030303030303030303030303030303030303030303030303030303030303030303030303030303030303030303030303030303030303030303030303030303030303030303030303036343030303030303030303030303030303030303030303030303030303030303034303030303030303630303030303030303030
1004
303030303031303030303030303030303030303030303030303030303030303030303030303030303030303030303030303030303031303030303030303130303030303030303030303030303030303030303030303130303030303030303030303030303030303030303030303030303030303030303030303030303030
1004
303030303030363430303030303030303030303030303030303030303030303030303030303030313030303030303030303030303030303130303030303030303030303030303030303030303030303030303030303030303030303030303030303030303030303030303030303030303030303030303030303030303030
1004
303030303030303030303030303030303030303030303030303030303030303030303030303030303030303030303030303030303030303030303030303030303030303030303030303030303030303030303030303030303030303030303030303030303030303045373033303030304537303330303030453730333030
1004
303045373033303030303030303030303030303030303030303030303030303030303030303030303030303030303030303030363030303030303334303830303030393930423030303030303030303030303434303036353030363630303631303037353030364330303734303030303030303030303030303030303030
1004
303030303030303030303030303030303030303030343030303030303030303030303030303030303030303030303030303030303030303030303030303030303030303030303030303030303030303030303030303030303030303030303030303030303030303030303030303030303030303030303030303030303030
1004
303030303030303030303030303030303030303030303030303030303030303030303030303030303030303030303030303030303030303030303030303030303030303030303030303030303030303030303030303030303030303030303030303030303030303030303030303030303030303030303030303030303030
1004
303030303030303030303030303030303030303030303030303030303030303030303030303030303030303030303030303030303030303030303030303030303030303030303030303030303030303030303030303030303030303030303030303030303030303030303030303030303030303030303030303030303030
1004
303030303030303030303030303030303030303030303030303030303030303030303030303030303030303030303030303030303030303030303030303030303030303030303030303030303030303030303030303030303030303030303030303030303030303030303030303030303030303030303030303030303030
1004
303030303030303030303030303030303030303030303030303030303030303030303030303030303030303030303030303030303030303030303030303030303030303030303030303030303030303030303030303030303030303030303030303030303030303030303030303030303030303030303030303030303030
1004
303030303030303030303030303030303030303030303030303030303030303030303030303030303030303030303030303030303030303030303030303030303030303030303030303030303030303030303030303030303030303030303030303030303030303030303030303030303030303030303030303030303030
1004
303030303030303030303030303030303030303030303030303030303030303030303030303030303030303030303030303030303030303030303030303030303030303030303030303030303030303030303030303030303030303030303030303030303030303030303030303030303030303030303030303030303030
1004
303030303030303030303030303030303030303030303030303030303030303030303030303030303030303030303030303030303030303030303030303030303030303030303030303030303030303030303030303030303030303030303030303030303030303030303030303030303030303030303030303030303030
1004
30303030303030303030303030303030303030303030303030303030303030303030303030303030303030303030303030303030303030303030303030303030303030303030303030303030303030303030303030313030303030303030303030303030303030303030303030303030303030303030303030303030
  0
MLINESTYLE
  5
18
102
{ACAD_REACTORS
330
17
102
}
330
17
100
AcDbMlineStyle
  2
Standard
 70
     0
  3

 62
     0
 51
90.0
 52
90.0
 71
     2
 49
0.5
 62
   256
  6
BYLAYER
 49
-0.5
 62
   256
  6
BYLAYER
  0
ACDBPLACEHOLDER
  5
F
102
{ACAD_REACTORS
330
E
102
}
330
E
  0
SCALE
  5
38A
102
{ACAD_REACTORS
330
99
102
}
330
99
100
AcDbScale
 70
     0
300
1:1
140
1.0
141
1.0
290
     1
  0
SCALE
  5
38B
102
{ACAD_REACTORS
330
99
102
}
330
99
100
AcDbScale
 70
     0
300
1:2
140
1.0
141
2.0
290
     0
  0
SCALE
  5
38C
102
{ACAD_REACTORS
330
99
102
}
330
99
100
AcDbScale
 70
     0
300
1:4
140
1.0
141
4.0
290
     0
  0
SCALE
  5
38D
102
{ACAD_REACTORS
330
99
102
}
330
99
100
AcDbScale
 70
     0
300
1:5
140
1.0
141
5.0
290
     0
  0
SCALE
  5
38E
102
{ACAD_REACTORS
330
99
102
}
330
99
100
AcDbScale
 70
     0
300
1:8
140
1.0
141
8.0
290
     0
  0
SCALE
  5
38F
102
{ACAD_REACTORS
330
99
102
}
330
99
100
AcDbScale
 70
     0
300
1:10
140
1.0
141
10.0
290
     0
  0
SCALE
  5
390
102
{ACAD_REACTORS
330
99
102
}
330
99
100
AcDbScale
 70
     0
300
1:16
140
1.0
141
16.0
290
     0
  0
SCALE
  5
391
102
{ACAD_REACTORS
330
99
102
}
330
99
100
AcDbScale
 70
     0
300
1:20
140
1.0
141
20.0
290
     0
  0
SCALE
  5
392
102
{ACAD_REACTORS
330
99
102
}
330
99
100
AcDbScale
 70
     0
300
1:30
140
1.0
141
30.0
290
     0
  0
SCALE
  5
393
102
{ACAD_REACTORS
330
99
102
}
330
99
100
AcDbScale
 70
     0
300
1:40
140
1.0
141
40.0
290
     0
  0
SCALE
  5
394
102
{ACAD_REACTORS
330
99
102
}
330
99
100
AcDbScale
 70
     0
300
1:50
140
1.0
141
50.0
290
     0
  0
SCALE
  5
395
102
{ACAD_REACTORS
330
99
102
}
330
99
100
AcDbScale
 70
     0
300
1:100
140
1.0
141
100.0
290
     0
  0
SCALE
  5
396
102
{ACAD_REACTORS
330
99
102
}
330
99
100
AcDbScale
 70
     0
300
2:1
140
2.0
141
1.0
290
     0
  0
SCALE
  5
397
102
{ACAD_REACTORS
330
99
102
}
330
99
100
AcDbScale
 70
     0
300
4:1
140
4.0
141
1.0
290
     0
  0
SCALE
  5
398
102
{ACAD_REACTORS
330
99
102
}
330
99
100
AcDbScale
 70
     0
300
8:1
140
8.0
141
1.0
290
     0
  0
SCALE
  5
399
102
{ACAD_REACTORS
330
99
102
}
330
99
100
AcDbScale
 70
     0
300
10:1
140
10.0
141
1.0
290
     0
  0
SCALE
  5
39A
102
{ACAD_REACTORS
330
99
102
}
330
99
100
AcDbScale
 70
     0
300
100:1
140
100.0
141
1.0
290
     0
  0
SCALE
  5
39B
102
{ACAD_REACTORS
330
99
102
}
330
99
100
AcDbScale
 70
     0
300
1/128" = 1'-0"
140
0.0078125
141
12.0
290
     0
  0
SCALE
  5
39C
102
{ACAD_REACTORS
330
99
102
}
330
99
100
AcDbScale
 70
     0
300
1/64" = 1'-0"
140
0.015625
141
12.0
290
     0
  0
SCALE
  5
39D
102
{ACAD_REACTORS
330
99
102
}
330
99
100
AcDbScale
 70
     0
300
1/32" = 1'-0"
140
0.03125
141
12.0
290
     0
  0
SCALE
  5
39E
102
{ACAD_REACTORS
330
99
102
}
330
99
100
AcDbScale
 70
     0
300
1/16" = 1'-0"
140
0.0625
141
12.0
290
     0
  0
SCALE
  5
39F
102
{ACAD_REACTORS
330
99
102
}
330
99
100
AcDbScale
 70
     0
300
3/32" = 1'-0"
140
0.09375
141
12.0
290
     0
  0
SCALE
  5
3A0
102
{ACAD_REACTORS
330
99
102
}
330
99
100
AcDbScale
 70
     0
300
1/8" = 1'-0"
140
0.125
141
12.0
290
     0
  0
SCALE
  5
3A1
102
{ACAD_REACTORS
330
99
102
}
330
99
100
AcDbScale
 70
     0
300
3/16" = 1'-0"
140
0.1875
141
12.0
290
     0
  0
SCALE
  5
3A2
102
{ACAD_REACTORS
330
99
102
}
330
99
100
AcDbScale
 70
     0
300
1/4" = 1'-0"
140
0.25
141
12.0
290
     0
  0
SCALE
  5
3A3
102
{ACAD_REACTORS
330
99
102
}
330
99
100
AcDbScale
 70
     0
300
3/8" = 1'-0"
140
0.375
141
12.0
290
     0
  0
SCALE
  5
3A4
102
{ACAD_REACTORS
330
99
102
}
330
99
100
AcDbScale
 70
     0
300
1/2" = 1'-0"
140
0.5
141
12.0
290
     0
  0
SCALE
  5
3A5
102
{ACAD_REACTORS
330
99
102
}
330
99
100
AcDbScale
 70
     0
300
3/4" = 1'-0"
140
0.75
141
12.0
290
     0
  0
SCALE
  5
3A6
102
{ACAD_REACTORS
330
99
102
}
330
99
100
AcDbScale
 70
     0
300
1" = 1'-0"
140
1.0
141
12.0
290
     0
  0
SCALE
  5
3A7
102
{ACAD_REACTORS
330
99
102
}
330
99
100
AcDbScale
 70
     0
300
1-1/2" = 1'-0"
140
1.5
141
12.0
290
     0
  0
SCALE
  5
3A8
102
{ACAD_REACTORS
330
99
102
}
330
99
100
AcDbScale
 70
     0
300
3" = 1'-0"
140
3.0
141
12.0
290
     0
  0
SCALE
  5
3A9
102
{ACAD_REACTORS
330
99
102
}
330
99
100
AcDbScale
 70
     0
300
6" = 1'-0"
140
6.0
141
12.0
290
     0
  0
SCALE
  5
3AA
102
{ACAD_REACTORS
330
99
102
}
330
99
100
AcDbScale
 70
     0
300
1'-0" = 1'-0"
140
12.0
141
12.0
290
     0
  0
XRECORD
  5
6BE
102
{ACAD_REACTORS
330
6BD
102
}
330
6BD
100
AcDbXrecord
280
     1
340
6C
  0
XRECORD
  5
6BF
102
{ACAD_REACTORS
330
6BD
102
}
330
6BD
100
AcDbXrecord
280
     1
340
6B
  0
DICTIONARYVAR
  5
98
102
{ACAD_REACTORS
330
59
102
}
330
59
100
DictionaryVariables
280
     0
  1
Standard
  0
DICTIONARYVAR
  5
5A
102
{ACAD_REACTORS
330
59
102
}
330
59
100
DictionaryVariables
280
     0
  1
2
  0
DICTIONARYVAR
  5
5E
102
{ACAD_REACTORS
330
59
102
}
330
59
100
DictionaryVariables
280
     0
  1
1
  0
ENDSEC
  0
EOF
