  0
SECTION
  2
HEADER
  9
$ACADVER
  1
AC1018
  9
$ACADMAINTVER
 70
     0
  9
$DWGCODEPAGE
  3
ANSI_1252
  9
$LASTSAVEDBY
  1
BelottiMc
  9
$INSBASE
 10
0.0
 20
0.0
 30
0.0
  9
$EXTMIN
 10
594.8012972028499
 20
392.847673307829
 30
0.0
  9
$EXTMAX
 10
2005.791784366175
 20
1549.931494468551
 30
0.0
  9
$LIMMIN
 10
0.0
 20
0.0
  9
$LIMMAX
 10
420.0
 20
297.0
  9
$ORTHOMODE
 70
     0
  9
$REGENMODE
 70
     1
  9
$FILLMODE
 70
     1
  9
$QTEXTMODE
 70
     0
  9
$MIRRTEXT
 70
     1
  9
$LTSCALE
 40
1.0
  9
$ATTMODE
 70
     1
  9
$TEXTSIZE
 40
2.5
  9
$TRACEWID
 40
1.0
  9
$TEXTSTYLE
  7
Standard
  9
$CLAYER
  8
0
  9
$CELTYPE
  6
ByLayer
  9
$CECOLOR
 62
   256
  9
$CELTSCALE
 40
1.0
  9
$DISPSILH
 70
     0
  9
$DIMSCALE
 40
1.0
  9
$DIMASZ
 40
2.5
  9
$DIMEXO
 40
0.625
  9
$DIMDLI
 40
3.75
  9
$DIMRND
 40
0.0
  9
$DIMDLE
 40
0.0
  9
$DIMEXE
 40
1.25
  9
$DIMTP
 40
0.0
  9
$DIMTM
 40
0.0
  9
$DIMTXT
 40
2.5
  9
$DIMCEN
 40
2.5
  9
$DIMTSZ
 40
0.0
  9
$DIMTOL
 70
     0
  9
$DIMLIM
 70
     0
  9
$DIMTIH
 70
     0
  9
$DIMTOH
 70
     0
  9
$DIMSE1
 70
     0
  9
$DIMSE2
 70
     0
  9
$DIMTAD
 70
     1
  9
$DIMZIN
 70
     8
  9
$DIMBLK
  1

  9
$DIMASO
 70
     1
  9
$DIMSHO
 70
     1
  9
$DIMPOST
  1

  9
$DIMAPOST
  1

  9
$DIMALT
 70
     0
  9
$DIMALTD
 70
     3
  9
$DIMALTF
 40
0.03937
  9
$DIMLFAC
 40
1.0
  9
$DIMTOFL
 70
     1
  9
$DIMTVP
 40
0.0
  9
$DIMTIX
 70
     0
  9
$DIMSOXD
 70
     0
  9
$DIMSAH
 70
     0
  9
$DIMBLK1
  1

  9
$DIMBLK2
  1

  9
$DIMSTYLE
  2
Standard
  9
$DIMCLRD
 70
     0
  9
$DIMCLRE
 70
     0
  9
$DIMCLRT
 70
     0
  9
$DIMTFAC
 40
1.0
  9
$DIMGAP
 40
0.625
  9
$DIMJUST
 70
     0
  9
$DIMSD1
 70
     0
  9
$DIMSD2
 70
     0
  9
$DIMTOLJ
 70
     0
  9
$DIMTZIN
 70
     8
  9
$DIMALTZ
 70
     0
  9
$DIMALTTZ
 70
     0
  9
$DIMUPT
 70
     0
  9
$DIMDEC
 70
     2
  9
$DIMTDEC
 70
     2
  9
$DIMALTU
 70
     2
  9
$DIMALTTD
 70
     3
  9
$DIMTXSTY
  7
Standard
  9
$DIMAUNIT
 70
     0
  9
$DIMADEC
 70
     0
  9
$DIMALTRND
 40
0.0
  9
$DIMAZIN
 70
     0
  9
$DIMDSEP
 70
    44
  9
$DIMATFIT
 70
     0
  9
$DIMFRAC
 70
     0
  9
$DIMLDRBLK
  1

  9
$DIMLUNIT
 70
     2
  9
$DIMLWD
 70
    -2
  9
$DIMLWE
 70
    -2
  9
$DIMTMOVE
 70
     0
  9
$LUNITS
 70
     2
  9
$LUPREC
 70
     4
  9
$SKETCHINC
 40
1.0
  9
$FILLETRAD
 40
2.5
  9
$AUNITS
 70
     0
  9
$AUPREC
 70
     0
  9
$MENU
  1
.
  9
$ELEVATION
 40
0.0
  9
$PELEVATION
 40
0.0
  9
$THICKNESS
 40
0.0
  9
$LIMCHECK
 70
     0
  9
$CHAMFERA
 40
2.5
  9
$CHAMFERB
 40
2.5
  9
$CHAMFERC
 40
0.0
  9
$CHAMFERD
 40
0.0
  9
$SKPOLY
 70
     0
  9
$TDCREATE
 40
2447893.08333331
  9
$TDUCREATE
 40
2447892.999999977
  9
$TDUPDATE
 40
2447893.083333333
  9
$TDUUPDATE
 40
2447893.0
  9
$TDINDWG
 40
0.1824883449
  9
$TDUSRTIMER
 40
0.1824651852
  9
$USRTIMER
 70
     1
  9
$ANGBASE
 50
0.0
  9
$ANGDIR
 70
     0
  9
$PDMODE
 70
     0
  9
$PDSIZE
 40
0.0
  9
$PLINEWID
 40
0.0
  9
$SPLFRAME
 70
     0
  9
$SPLINETYPE
 70
     6
  9
$SPLINESEGS
 70
     8
  9
$HANDSEED
  5
E69
  9
$SURFTAB1
 70
     6
  9
$SURFTAB2
 70
     6
  9
$SURFTYPE
 70
     6
  9
$SURFU
 70
     6
  9
$SURFV
 70
     6
  9
$UCSBASE
  2

  9
$UCSNAME
  2

  9
$UCSORG
 10
0.0
 20
0.0
 30
0.0
  9
$UCSXDIR
 10
1.0
 20
0.0
 30
0.0
  9
$UCSYDIR
 10
0.0
 20
1.0
 30
0.0
  9
$UCSORTHOREF
  2

  9
$UCSORTHOVIEW
 70
     0
  9
$UCSORGTOP
 10
0.0
 20
0.0
 30
0.0
  9
$UCSORGBOTTOM
 10
0.0
 20
0.0
 30
0.0
  9
$UCSORGLEFT
 10
0.0
 20
0.0
 30
0.0
  9
$UCSORGRIGHT
 10
0.0
 20
0.0
 30
0.0
  9
$UCSORGFRONT
 10
0.0
 20
0.0
 30
0.0
  9
$UCSORGBACK
 10
0.0
 20
0.0
 30
0.0
  9
$PUCSBASE
  2

  9
$PUCSNAME
  2

  9
$PUCSORG
 10
0.0
 20
0.0
 30
0.0
  9
$PUCSXDIR
 10
1.0
 20
0.0
 30
0.0
  9
$PUCSYDIR
 10
0.0
 20
1.0
 30
0.0
  9
$PUCSORTHOREF
  2

  9
$PUCSORTHOVIEW
 70
     0
  9
$PUCSORGTOP
 10
0.0
 20
0.0
 30
0.0
  9
$PUCSORGBOTTOM
 10
0.0
 20
0.0
 30
0.0
  9
$PUCSORGLEFT
 10
0.0
 20
0.0
 30
0.0
  9
$PUCSORGRIGHT
 10
0.0
 20
0.0
 30
0.0
  9
$PUCSORGFRONT
 10
0.0
 20
0.0
 30
0.0
  9
$PUCSORGBACK
 10
0.0
 20
0.0
 30
0.0
  9
$USERI1
 70
     0
  9
$USERI2
 70
     0
  9
$USERI3
 70
     0
  9
$USERI4
 70
     0
  9
$USERI5
 70
     0
  9
$USERR1
 40
0.0
  9
$USERR2
 40
0.0
  9
$USERR3
 40
0.0
  9
$USERR4
 40
0.0
  9
$USERR5
 40
0.0
  9
$WORLDVIEW
 70
     1
  9
$SHADEDGE
 70
     3
  9
$SHADEDIF
 70
    70
  9
$TILEMODE
 70
     1
  9
$MAXACTVP
 70
    48
  9
$PINSBASE
 10
0.0
 20
0.0
 30
0.0
  9
$PLIMCHECK
 70
     0
  9
$PEXTMIN
 10
0.0
 20
0.0
 30
0.0
  9
$PEXTMAX
 10
361.953827
 20
137.496246
 30
2.0
  9
$PLIMMIN
 10
0.0
 20
0.0
  9
$PLIMMAX
 10
420.0
 20
297.0
  9
$UNITMODE
 70
     0
  9
$VISRETAIN
 70
     0
  9
$PLINEGEN
 70
     0
  9
$PSLTSCALE
 70
     1
  9
$TREEDEPTH
 70
  3020
  9
$CMLSTYLE
  2
Standard
  9
$CMLJUST
 70
     0
  9
$CMLSCALE
 40
20.0
  9
$PROXYGRAPHICS
 70
     1
  9
$MEASUREMENT
 70
     1
  9
$CELWEIGHT
370
    25
  9
$ENDCAPS
280
     0
  9
$JOINSTYLE
280
     0
  9
$LWDISPLAY
290
     0
  9
$INSUNITS
 70
     0
  9
$HYPERLINKBASE
  1

  9
$STYLESHEET
  1

  9
$XEDIT
290
     1
  9
$CEPSNTYPE
380
     0
  9
$PSTYLEMODE
290
     0
  9
$FINGERPRINTGUID
  2

  9
$VERSIONGUID
  2

  9
$EXTNAMES
290
     0
  9
$PSVPSCALE
 40
0.0
  9
$OLESTARTUP
290
     0
  9
$SORTENTS
280
   127
  9
$INDEXCTL
280
     0
  9
$HIDETEXT
280
     1
  9
$XCLIPFRAME
290
     0
  9
$HALOGAP
280
     0
  9
$OBSCOLOR
 70
   257
  9
$OBSLTYPE
280
     0
  9
$INTERSECTIONDISPLAY
280
     0
  9
$INTERSECTIONCOLOR
 70
   257
  9
$DIMASSOC
280
     2
  9
$PROJECTNAME
  1

  0
ENDSEC
  0
SECTION
  2
CLASSES
  0
CLASS
  1
ACDBDICTIONARYWDFLT
  2
AcDbDictionaryWithDefault
  3
ObjectDBX Classes
 90
        0
 91
        4
280
     0
281
     0
  0
CLASS
  1
ACDBPLACEHOLDER
  2
AcDbPlaceHolder
  3
ObjectDBX Classes
 90
        0
 91
        1
280
     0
281
     0
  0
CLASS
  1
LAYOUT
  2
AcDbLayout
  3
ObjectDBX Classes
 90
        0
 91
        1
280
     0
281
     0
  0
CLASS
  1
DICTIONARYVAR
  2
AcDbDictionaryVar
  3
ObjectDBX Classes
 90
        0
 91
        4
280
     0
281
     0
  0
CLASS
  1
TABLESTYLE
  2
AcDbTableStyle
  3
ObjectDBX Classes
 90
     4095
 91
        6
280
     0
281
     0
  0
CLASS
  1
SCALE
  2
AcDbScale
  3
ObjectDBX Classes
 90
     1153
 91
       70
280
     0
281
     0
  0
CLASS
  1
WIPEOUTVARIABLES
  2
AcDbWipeoutVariables
  3
WipeOut|AutoCAD Express Tool|expresstools@autodesk.com
 90
        0
 91
        4
280
     0
281
     0
  0
ENDSEC
  0
SECTION
  2
TABLES
  0
TABLE
  2
VPORT
  5
8
330
0
100
AcDbSymbolTable
 70
     2
  0
VPORT
  5
97
330
8
100
AcDbSymbolTableRecord
100
AcDbViewportTableRecord
  2
*ACTIVE
 70
     0
 10
0.0
 20
0.0
 11
1.0
 21
1.0
 12
1680.012580930234
 22
900.5878613045737
 13
0.0
 23
0.0
 14
1.0
 24
1.0
 15
0.5
 25
0.5
 16
0.0
 26
0.0
 36
1.0
 17
0.0
 27
0.0
 37
0.0
 40
600.899703334149
 41
0.688564
 42
50.0
 43
0.0
 44
0.0
 50
0.0
 51
0.0
 71
     0
 72
   100
 73
     1
 74
     1
 75
     0
 76
     0
 77
     0
 78
     0
281
     0
 65
     1
110
0.0
120
0.0
130
0.0
111
1.0
121
0.0
131
0.0
112
0.0
122
1.0
132
0.0
 79
     0
146
0.0
  0
ENDTAB
  0
TABLE
  2
LTYPE
  5
5
330
0
100
AcDbSymbolTable
 70
     2
  0
LTYPE
  5
14
330
5
100
AcDbSymbolTableRecord
100
AcDbLinetypeTableRecord
  2
ByBlock
 70
     0
  3

 72
    65
 73
     0
 40
0.0
  0
LTYPE
  5
15
330
5
100
AcDbSymbolTableRecord
100
AcDbLinetypeTableRecord
  2
ByLayer
 70
     0
  3

 72
    65
 73
     0
 40
0.0
  0
LTYPE
  5
16
330
5
100
AcDbSymbolTableRecord
100
AcDbLinetypeTableRecord
  2
Continuous
 70
     0
  3
Solid line
 72
    65
 73
     0
 40
0.0
  0
LTYPE
  5
DB9
330
5
100
AcDbSymbolTableRecord
100
AcDbLinetypeTableRecord
  2
DASHDOT
 70
     0
  3
 __ . __ . __ . __ . __ . __ . __ . 
 72
    65
 73
     4
 40
18.5
 49
12.0
 74
     0
 49
-3.0
 74
     0
 49
0.5
 74
     0
 49
-3.0
 74
     0
  0
ENDTAB
  0
TABLE
  2
LAYER
  5
2
330
0
100
AcDbSymbolTable
 70
     3
  0
LAYER
  5
10
330
2
100
AcDbSymbolTableRecord
100
AcDbLayerTableRecord
  2
0
 70
     0
 62
     7
  6
Continuous
370
    13
390
F
  0
LAYER
  5
7F2
330
2
100
AcDbSymbolTableRecord
100
AcDbLayerTableRecord
  2
DEFPOINTS
 70
     0
 62
     7
  6
Continuous
290
     0
370
    -3
390
F
  0
LAYER
  5
ACF
330
2
100
AcDbSymbolTableRecord
100
AcDbLayerTableRecord
  2
STANDARD_LAYER
 70
     0
 62
     7
  6
Continuous
370
    -3
390
F
  0
ENDTAB
  0
TABLE
  2
STYLE
  5
3
330
0
100
AcDbSymbolTable
 70
     2
  0
STYLE
  5
11
330
3
100
AcDbSymbolTableRecord
100
AcDbTextStyleTableRecord
  2
Standard
 70
     0
 40
0.0
 41
1.0
 50
0.0
 71
     0
 42
0.2
  3
isocp.shx
  4

  0
STYLE
  5
25
330
3
100
AcDbSymbolTableRecord
100
AcDbTextStyleTableRecord
  2
GDT
 70
     0
 40
0.0
 41
1.0
 50
0.0
 71
     0
 42
0.2
  3
gdt.shx
  4

  0
ENDTAB
  0
TABLE
  2
VIEW
  5
6
330
0
100
AcDbSymbolTable
 70
     0
  0
ENDTAB
  0
TABLE
  2
UCS
  5
7
330
0
100
AcDbSymbolTable
 70
     0
  0
ENDTAB
  0
TABLE
  2
APPID
  5
9
330
0
100
AcDbSymbolTable
 70
     2
  0
APPID
  5
12
330
9
100
AcDbSymbolTableRecord
100
AcDbRegAppTableRecord
  2
ACAD
 70
     0
  0
APPID
  5
DB8
330
9
100
AcDbSymbolTableRecord
100
AcDbRegAppTableRecord
  2
Conv5506CA
 70
     0
  0
ENDTAB
  0
TABLE
  2
DIMSTYLE
  5
A
330
0
100
AcDbSymbolTable
 70
     1
100
AcDbDimStyleTable
  0
DIMSTYLE
105
27
102
{ACAD_REACTORS
330
C19
330
C1A
330
C1B
330
D43
330
D5A
330
DA0
102
}
330
A
100
AcDbSymbolTableRecord
100
AcDbDimStyleTableRecord
  2
Standard
 70
     0
 41
2.5
 42
0.625
 43
3.75
 44
1.25
 73
     0
 74
     0
 77
     1
 78
     8
140
2.5
141
2.5
143
0.03937
147
0.625
171
     3
172
     1
271
     2
272
     2
274
     3
278
    44
283
     0
284
     8
289
     0
340
11
  0
ENDTAB
  0
TABLE
  2
BLOCK_RECORD
  5
1
330
0
100
AcDbSymbolTable
 70
    86
  0
BLOCK_RECORD
  5
1F
330
1
100
AcDbSymbolTableRecord
100
AcDbBlockTableRecord
  2
*Model_Space
340
22
  0
BLOCK_RECORD
  5
73
330
1
100
AcDbSymbolTableRecord
100
AcDbBlockTableRecord
  2
*Paper_Space
340
74
  0
BLOCK_RECORD
  5
5E3
330
1
100
AcDbSymbolTableRecord
100
AcDbBlockTableRecord
  2
BLOCK1
340
0
  0
BLOCK_RECORD
  5
5E4
330
1
100
AcDbSymbolTableRecord
100
AcDbBlockTableRecord
  2
BLOCK2
340
0
  0
BLOCK_RECORD
  5
5E5
330
1
100
AcDbSymbolTableRecord
100
AcDbBlockTableRecord
  2
BLOCK3
340
0
  0
BLOCK_RECORD
  5
5E6
330
1
100
AcDbSymbolTableRecord
100
AcDbBlockTableRecord
  2
BLOCK4
340
0
  0
BLOCK_RECORD
  5
5E7
330
1
100
AcDbSymbolTableRecord
100
AcDbBlockTableRecord
  2
BLOCK5
340
0
  0
BLOCK_RECORD
  5
5E8
330
1
100
AcDbSymbolTableRecord
100
AcDbBlockTableRecord
  2
BLOCK6
340
0
  0
BLOCK_RECORD
  5
5E9
330
1
100
AcDbSymbolTableRecord
100
AcDbBlockTableRecord
  2
BLOCK7
340
0
  0
BLOCK_RECORD
  5
5EA
330
1
100
AcDbSymbolTableRecord
100
AcDbBlockTableRecord
  2
BLOCK8
340
0
  0
BLOCK_RECORD
  5
5EB
330
1
100
AcDbSymbolTableRecord
100
AcDbBlockTableRecord
  2
BLOCK9
340
0
  0
BLOCK_RECORD
  5
5EC
330
1
100
AcDbSymbolTableRecord
100
AcDbBlockTableRecord
  2
BLOCK10
340
0
  0
BLOCK_RECORD
  5
5ED
330
1
100
AcDbSymbolTableRecord
100
AcDbBlockTableRecord
  2
BLOCK11
340
0
  0
BLOCK_RECORD
  5
5EE
330
1
100
AcDbSymbolTableRecord
100
AcDbBlockTableRecord
  2
BLOCK12
340
0
  0
BLOCK_RECORD
  5
5EF
330
1
100
AcDbSymbolTableRecord
100
AcDbBlockTableRecord
  2
BLOCK13
340
0
  0
BLOCK_RECORD
  5
5F0
330
1
100
AcDbSymbolTableRecord
100
AcDbBlockTableRecord
  2
BLOCK14
340
0
  0
BLOCK_RECORD
  5
7FE
330
1
100
AcDbSymbolTableRecord
100
AcDbBlockTableRecord
  2
*D14
340
0
  0
BLOCK_RECORD
  5
809
330
1
100
AcDbSymbolTableRecord
100
AcDbBlockTableRecord
  2
*D15
340
0
  0
BLOCK_RECORD
  5
814
330
1
100
AcDbSymbolTableRecord
100
AcDbBlockTableRecord
  2
*D16
340
0
  0
BLOCK_RECORD
  5
81F
330
1
100
AcDbSymbolTableRecord
100
AcDbBlockTableRecord
  2
*D17
340
0
  0
BLOCK_RECORD
  5
82A
330
1
100
AcDbSymbolTableRecord
100
AcDbBlockTableRecord
  2
*D18
340
0
  0
BLOCK_RECORD
  5
835
330
1
100
AcDbSymbolTableRecord
100
AcDbBlockTableRecord
  2
*D19
340
0
  0
BLOCK_RECORD
  5
840
330
1
100
AcDbSymbolTableRecord
100
AcDbBlockTableRecord
  2
*D20
340
0
  0
BLOCK_RECORD
  5
84B
330
1
100
AcDbSymbolTableRecord
100
AcDbBlockTableRecord
  2
*D21
340
0
  0
BLOCK_RECORD
  5
856
330
1
100
AcDbSymbolTableRecord
100
AcDbBlockTableRecord
  2
*D22
340
0
  0
BLOCK_RECORD
  5
861
330
1
100
AcDbSymbolTableRecord
100
AcDbBlockTableRecord
  2
*D23
340
0
  0
BLOCK_RECORD
  5
86D
330
1
100
AcDbSymbolTableRecord
100
AcDbBlockTableRecord
  2
*D24
340
0
  0
BLOCK_RECORD
  5
878
330
1
100
AcDbSymbolTableRecord
100
AcDbBlockTableRecord
  2
*D25
340
0
  0
BLOCK_RECORD
  5
883
330
1
100
AcDbSymbolTableRecord
100
AcDbBlockTableRecord
  2
*D26
340
0
  0
BLOCK_RECORD
  5
88E
330
1
100
AcDbSymbolTableRecord
100
AcDbBlockTableRecord
  2
*D27
340
0
  0
BLOCK_RECORD
  5
899
330
1
100
AcDbSymbolTableRecord
100
AcDbBlockTableRecord
  2
*D28
340
0
  0
BLOCK_RECORD
  5
8A4
330
1
100
AcDbSymbolTableRecord
100
AcDbBlockTableRecord
  2
*D29
340
0
  0
BLOCK_RECORD
  5
8B0
330
1
100
AcDbSymbolTableRecord
100
AcDbBlockTableRecord
  2
*D30
340
0
  0
BLOCK_RECORD
  5
8BC
330
1
100
AcDbSymbolTableRecord
100
AcDbBlockTableRecord
  2
*D31
340
0
  0
BLOCK_RECORD
  5
8C7
330
1
100
AcDbSymbolTableRecord
100
AcDbBlockTableRecord
  2
*D32
340
0
  0
BLOCK_RECORD
  5
8D2
330
1
100
AcDbSymbolTableRecord
100
AcDbBlockTableRecord
  2
*D33
340
0
  0
BLOCK_RECORD
  5
8DD
330
1
100
AcDbSymbolTableRecord
100
AcDbBlockTableRecord
  2
*D34
340
0
  0
BLOCK_RECORD
  5
986
330
1
100
AcDbSymbolTableRecord
100
AcDbBlockTableRecord
  2
*D35
340
0
  0
BLOCK_RECORD
  5
991
330
1
100
AcDbSymbolTableRecord
100
AcDbBlockTableRecord
  2
*D36
340
0
  0
BLOCK_RECORD
  5
99C
330
1
100
AcDbSymbolTableRecord
100
AcDbBlockTableRecord
  2
*D37
340
0
  0
BLOCK_RECORD
  5
9A7
330
1
100
AcDbSymbolTableRecord
100
AcDbBlockTableRecord
  2
*D38
340
0
  0
BLOCK_RECORD
  5
9B2
330
1
100
AcDbSymbolTableRecord
100
AcDbBlockTableRecord
  2
*D39
340
0
  0
BLOCK_RECORD
  5
9BD
330
1
100
AcDbSymbolTableRecord
100
AcDbBlockTableRecord
  2
*D40
340
0
  0
BLOCK_RECORD
  5
9C8
330
1
100
AcDbSymbolTableRecord
100
AcDbBlockTableRecord
  2
*D41
340
0
  0
BLOCK_RECORD
  5
9D3
330
1
100
AcDbSymbolTableRecord
100
AcDbBlockTableRecord
  2
*D42
340
0
  0
BLOCK_RECORD
  5
9DE
330
1
100
AcDbSymbolTableRecord
100
AcDbBlockTableRecord
  2
*D43
340
0
  0
BLOCK_RECORD
  5
A2B
330
1
100
AcDbSymbolTableRecord
100
AcDbBlockTableRecord
  2
*D44
340
0
  0
BLOCK_RECORD
  5
A36
330
1
100
AcDbSymbolTableRecord
100
AcDbBlockTableRecord
  2
*D45
340
0
  0
BLOCK_RECORD
  5
A41
330
1
100
AcDbSymbolTableRecord
100
AcDbBlockTableRecord
  2
*D46
340
0
  0
BLOCK_RECORD
  5
A4C
330
1
100
AcDbSymbolTableRecord
100
AcDbBlockTableRecord
  2
*D47
340
0
  0
BLOCK_RECORD
  5
ACB
330
1
100
AcDbSymbolTableRecord
100
AcDbBlockTableRecord
  2
VDCLIP_6_104
340
0
102
{BLKREFS
331
C18
102
}
  0
BLOCK_RECORD
  5
AD7
330
1
100
AcDbSymbolTableRecord
100
AcDbBlockTableRecord
  2
VDCLIP_6_197
340
0
  0
BLOCK_RECORD
  5
AE0
330
1
100
AcDbSymbolTableRecord
100
AcDbBlockTableRecord
  2
VDDIM_DEFAULT
340
0
  0
BLOCK_RECORD
  5
AED
330
1
100
AcDbSymbolTableRecord
100
AcDbBlockTableRecord
  2
*D51
340
0
  0
BLOCK_RECORD
  5
AF9
330
1
100
AcDbSymbolTableRecord
100
AcDbBlockTableRecord
  2
*D52
340
0
  0
BLOCK_RECORD
  5
B04
330
1
100
AcDbSymbolTableRecord
100
AcDbBlockTableRecord
  2
*D53
340
0
  0
BLOCK_RECORD
  5
B10
330
1
100
AcDbSymbolTableRecord
100
AcDbBlockTableRecord
  2
*D54
340
0
  0
BLOCK_RECORD
  5
B1C
330
1
100
AcDbSymbolTableRecord
100
AcDbBlockTableRecord
  2
*D55
340
0
  0
BLOCK_RECORD
  5
B27
330
1
100
AcDbSymbolTableRecord
100
AcDbBlockTableRecord
  2
*D56
340
0
  0
BLOCK_RECORD
  5
B33
330
1
100
AcDbSymbolTableRecord
100
AcDbBlockTableRecord
  2
*D57
340
0
  0
BLOCK_RECORD
  5
B3E
330
1
100
AcDbSymbolTableRecord
100
AcDbBlockTableRecord
  2
*D58
340
0
  0
BLOCK_RECORD
  5
B4A
330
1
100
AcDbSymbolTableRecord
100
AcDbBlockTableRecord
  2
*D59
340
0
  0
BLOCK_RECORD
  5
B55
330
1
100
AcDbSymbolTableRecord
100
AcDbBlockTableRecord
  2
*D60
340
0
  0
BLOCK_RECORD
  5
B63
330
1
100
AcDbSymbolTableRecord
100
AcDbBlockTableRecord
  2
*D61
340
0
  0
BLOCK_RECORD
  5
B72
330
1
100
AcDbSymbolTableRecord
100
AcDbBlockTableRecord
  2
*D62
340
0
  0
BLOCK_RECORD
  5
B7F
330
1
100
AcDbSymbolTableRecord
100
AcDbBlockTableRecord
  2
*D63
340
0
  0
BLOCK_RECORD
  5
B8C
330
1
100
AcDbSymbolTableRecord
100
AcDbBlockTableRecord
  2
*D64
340
0
  0
BLOCK_RECORD
  5
C1D
330
1
100
AcDbSymbolTableRecord
100
AcDbBlockTableRecord
  2
VDCLIP_6_105
340
0
  0
BLOCK_RECORD
  5
C2A
330
1
100
AcDbSymbolTableRecord
100
AcDbBlockTableRecord
  2
*D66
340
0
  0
BLOCK_RECORD
  5
C35
330
1
100
AcDbSymbolTableRecord
100
AcDbBlockTableRecord
  2
*D67
340
0
  0
BLOCK_RECORD
  5
C40
330
1
100
AcDbSymbolTableRecord
100
AcDbBlockTableRecord
  2
*D68
340
0
  0
BLOCK_RECORD
  5
C52
330
1
100
AcDbSymbolTableRecord
100
AcDbBlockTableRecord
  2
*D69
340
0
  0
BLOCK_RECORD
  5
C5D
330
1
100
AcDbSymbolTableRecord
100
AcDbBlockTableRecord
  2
*D70
340
0
  0
BLOCK_RECORD
  5
C68
330
1
100
AcDbSymbolTableRecord
100
AcDbBlockTableRecord
  2
*D71
340
0
  0
BLOCK_RECORD
  5
C74
330
1
100
AcDbSymbolTableRecord
100
AcDbBlockTableRecord
  2
*D72
340
0
  0
BLOCK_RECORD
  5
C7F
330
1
100
AcDbSymbolTableRecord
100
AcDbBlockTableRecord
  2
*D73
340
0
  0
BLOCK_RECORD
  5
C8A
330
1
100
AcDbSymbolTableRecord
100
AcDbBlockTableRecord
  2
*D74
340
0
  0
BLOCK_RECORD
  5
D37
330
1
100
AcDbSymbolTableRecord
100
AcDbBlockTableRecord
  2
*D75
340
0
  0
BLOCK_RECORD
  5
D42
330
1
100
AcDbSymbolTableRecord
100
AcDbBlockTableRecord
  2
*D76
340
0
  0
BLOCK_RECORD
  5
D4E
330
1
100
AcDbSymbolTableRecord
100
AcDbBlockTableRecord
  2
*D77
340
0
  0
BLOCK_RECORD
  5
D59
330
1
100
AcDbSymbolTableRecord
100
AcDbBlockTableRecord
  2
*D78
340
0
  0
BLOCK_RECORD
  5
D65
330
1
100
AcDbSymbolTableRecord
100
AcDbBlockTableRecord
  2
*D79
340
0
  0
BLOCK_RECORD
  5
D70
330
1
100
AcDbSymbolTableRecord
100
AcDbBlockTableRecord
  2
*D80
340
0
  0
BLOCK_RECORD
  5
D7C
330
1
100
AcDbSymbolTableRecord
100
AcDbBlockTableRecord
  2
*D81
340
0
  0
BLOCK_RECORD
  5
D88
330
1
100
AcDbSymbolTableRecord
100
AcDbBlockTableRecord
  2
*D82
340
0
  0
BLOCK_RECORD
  5
D93
330
1
100
AcDbSymbolTableRecord
100
AcDbBlockTableRecord
  2
*D83
340
0
  0
BLOCK_RECORD
  5
DAB
330
1
100
AcDbSymbolTableRecord
100
AcDbBlockTableRecord
  2
*D84
340
0
  0
BLOCK_RECORD
  5
DB6
330
1
100
AcDbSymbolTableRecord
100
AcDbBlockTableRecord
  2
*D85
340
0
  0
ENDTAB
  0
ENDSEC
  0
SECTION
  2
BLOCKS
  0
BLOCK
  5
20
330
1F
100
AcDbEntity
  8
0
100
AcDbBlockBegin
  2
*Model_Space
 70
     0
 10
0.0
 20
0.0
 30
0.0
  3
*Model_Space
  1

  0
ENDBLK
  5
21
330
1F
100
AcDbEntity
  8
0
100
AcDbBlockEnd
  0
BLOCK
  5
75
330
73
100
AcDbEntity
 67
     1
  8
0
100
AcDbBlockBegin
  2
*Paper_Space
 70
     0
 10
0.0
 20
0.0
 30
0.0
  3
*Paper_Space
  1

  0
ENDBLK
  5
76
330
73
100
AcDbEntity
 67
     1
  8
0
100
AcDbBlockEnd
  0
BLOCK
  5
DBB
330
5E3
100
AcDbEntity
  8
0
100
AcDbBlockBegin
  2
BLOCK1
 70
     0
 10
0.0
 20
0.0
 30
0.0
  3
BLOCK1
  1

  0
TEXT
  5
5F2
330
5E3
100
AcDbEntity
  8
0
 62
     7
370
    13
390
F
100
AcDbText
 10
241.982544
 20
-165.602615
 30
0.0
 40
3.5
  1
223
 41
1.539642051282053
 72
     5
 11
252.490601
 21
-165.602615
 31
0.0
100
AcDbText
  0
LINE
  5
5F3
330
5E3
100
AcDbEntity
  8
0
 62
     7
370
    13
390
F
100
AcDbLine
 10
135.651001
 20
-35.99913
 30
0.0
 11
135.651001
 21
-169.602615
 31
0.0
  0
LINE
  5
5F4
330
5E3
100
AcDbEntity
  8
0
 62
     7
370
    13
390
F
100
AcDbLine
 10
358.822144
 20
-36.291203
 30
0.0
 11
358.822144
 21
-169.602615
 31
0.0
  0
LWPOLYLINE
  5
5F5
330
5E3
100
AcDbEntity
  8
0
 62
     7
370
    13
390
F
100
AcDbPolyline
 90
        3
 70
     0
 43
0.0
 10
356.890289
 20
-168.120255
 10
358.822144
 20
-167.602615
 10
356.890289
 20
-167.084976
  0
LWPOLYLINE
  5
5FA
330
5E3
100
AcDbEntity
  8
0
 62
     7
370
    13
390
F
100
AcDbPolyline
 90
        3
 70
     0
 43
0.0
 10
137.582855
 20
-167.084976
 10
135.651001
 20
-167.602615
 10
137.582855
 20
-168.120255
  0
LINE
  5
5FF
330
5E3
100
AcDbEntity
  8
0
 62
     7
370
    13
390
F
100
AcDbLine
 10
135.651001
 20
-167.602615
 30
0.0
 11
358.822144
 21
-167.602615
 31
0.0
  0
ENDBLK
  5
DBC
330
5E3
100
AcDbEntity
  8
0
100
AcDbBlockEnd
  0
BLOCK
  5
DBD
330
5E4
100
AcDbEntity
  8
0
100
AcDbBlockBegin
  2
BLOCK2
 70
     0
 10
0.0
 20
0.0
 30
0.0
  3
BLOCK2
  1

  0
TEXT
  5
602
330
5E4
100
AcDbEntity
  8
0
 62
     7
370
    13
390
F
100
AcDbText
 10
114.161079
 20
-9.939941
 30
0.0
 40
3.5
  1
281
 50
90.0
 41
1.715848223215561
 72
     5
 11
114.161079
 21
0.568128
 31
0.0
100
AcDbText
  0
LINE
  5
603
330
5E4
100
AcDbEntity
  8
0
 62
     7
370
    13
390
F
100
AcDbLine
 10
202.815979
 20
-144.936203
 30
0.0
 11
114.161079
 21
-144.936203
 31
0.0
  0
LINE
  5
604
330
5E4
100
AcDbEntity
  8
0
 62
     7
370
    13
390
F
100
AcDbLine
 10
197.747025
 20
135.564392
 30
0.0
 11
114.161079
 21
135.564392
 31
0.0
  0
LWPOLYLINE
  5
605
330
5E4
100
AcDbEntity
  8
0
 62
     7
370
    13
390
F
100
AcDbPolyline
 90
        3
 70
     0
 43
0.0
 10
115.64344
 20
-143.004349
 10
116.161079
 20
-144.936203
 10
116.678719
 20
-143.004349
  0
LWPOLYLINE
  5
60A
330
5E4
100
AcDbEntity
  8
0
 62
     7
370
    13
390
F
100
AcDbPolyline
 90
        3
 70
     0
 43
0.0
 10
116.678719
 20
133.632538
 10
116.161079
 20
135.564392
 10
115.64344
 20
133.632538
  0
LINE
  5
60F
330
5E4
100
AcDbEntity
  8
0
 62
     7
370
    13
390
F
100
AcDbLine
 10
116.161079
 20
-144.936203
 30
0.0
 11
116.161079
 21
135.564392
 31
0.0
  0
ENDBLK
  5
DBE
330
5E4
100
AcDbEntity
  8
0
100
AcDbBlockEnd
  0
BLOCK
  5
DBF
330
5E5
100
AcDbEntity
  8
0
100
AcDbBlockBegin
  2
BLOCK3
 70
     0
 10
0.0
 20
0.0
 30
0.0
  3
BLOCK3
  1

  0
LINE
  5
612
330
5E5
100
AcDbEntity
  8
0
  6
DASHDOT
 62
     7
 48
0.14625
370
    13
390
F
100
AcDbLine
 10
270.023804
 20
-23.844238
 30
0.0
 11
264.173798
 21
-23.844238
 31
0.0
  0
LINE
  5
613
330
5E5
100
AcDbEntity
  8
0
  6
DASHDOT
 62
     7
 48
0.14625
370
    13
390
F
100
AcDbLine
 10
267.098785
 20
-20.919239
 30
0.0
 11
267.098785
 21
-26.769238
 31
0.0
  0
ENDBLK
  5
DC0
330
5E5
100
AcDbEntity
  8
0
100
AcDbBlockEnd
  0
BLOCK
  5
DC1
330
5E6
100
AcDbEntity
  8
0
100
AcDbBlockBegin
  2
BLOCK4
 70
     0
 10
0.0
 20
0.0
 30
0.0
  3
BLOCK4
  1

  0
LINE
  5
616
330
5E6
100
AcDbEntity
  8
0
  6
DASHDOT
 62
     7
 48
0.14625
370
    13
390
F
100
AcDbLine
 10
266.523804
 20
-23.844238
 30
0.0
 11
260.673798
 21
-23.844238
 31
0.0
  0
LINE
  5
617
330
5E6
100
AcDbEntity
  8
0
  6
DASHDOT
 62
     7
 48
0.14625
370
    13
390
F
100
AcDbLine
 10
263.598785
 20
-20.919239
 30
0.0
 11
263.598785
 21
-26.769238
 31
0.0
  0
ENDBLK
  5
DC2
330
5E6
100
AcDbEntity
  8
0
100
AcDbBlockEnd
  0
BLOCK
  5
DC3
330
5E7
100
AcDbEntity
  8
0
100
AcDbBlockBegin
  2
BLOCK5
 70
     0
 10
0.0
 20
0.0
 30
0.0
  3
BLOCK5
  1

  0
LINE
  5
61A
330
5E7
100
AcDbEntity
  8
0
  6
DASHDOT
 62
     7
 48
0.14625
370
    13
390
F
100
AcDbLine
 10
266.523804
 20
23.844238
 30
0.0
 11
260.673798
 21
23.844238
 31
0.0
  0
LINE
  5
61B
330
5E7
100
AcDbEntity
  8
0
  6
DASHDOT
 62
     7
 48
0.14625
370
    13
390
F
100
AcDbLine
 10
263.598785
 20
26.769238
 30
0.0
 11
263.598785
 21
20.919239
 31
0.0
  0
ENDBLK
  5
DC4
330
5E7
100
AcDbEntity
  8
0
100
AcDbBlockEnd
  0
BLOCK
  5
DC5
330
5E8
100
AcDbEntity
  8
0
100
AcDbBlockBegin
  2
BLOCK6
 70
     0
 10
0.0
 20
0.0
 30
0.0
  3
BLOCK6
  1

  0
LINE
  5
61E
330
5E8
100
AcDbEntity
  8
0
  6
DASHDOT
 62
     7
 48
0.14625
370
    13
390
F
100
AcDbLine
 10
270.023804
 20
23.844238
 30
0.0
 11
264.173798
 21
23.844238
 31
0.0
  0
LINE
  5
61F
330
5E8
100
AcDbEntity
  8
0
  6
DASHDOT
 62
     7
 48
0.14625
370
    13
390
F
100
AcDbLine
 10
267.098785
 20
26.769238
 30
0.0
 11
267.098785
 21
20.919239
 31
0.0
  0
ENDBLK
  5
DC6
330
5E8
100
AcDbEntity
  8
0
100
AcDbBlockEnd
  0
BLOCK
  5
DC7
330
5E9
100
AcDbEntity
  8
0
100
AcDbBlockBegin
  2
BLOCK7
 70
     0
 10
0.0
 20
0.0
 30
0.0
  3
BLOCK7
  1

  0
LINE
  5
622
330
5E9
100
AcDbEntity
  8
0
  6
DASHDOT
 62
     7
 48
0.1365
370
    13
390
F
100
AcDbLine
 10
251.126999
 20
-22.5
 30
0.0
 11
245.667007
 21
-22.5
 31
0.0
  0
LINE
  5
623
330
5E9
100
AcDbEntity
  8
0
  6
DASHDOT
 62
     7
 48
0.1365
370
    13
390
F
100
AcDbLine
 10
248.397003
 20
-19.77
 30
0.0
 11
248.397003
 21
-25.23
 31
0.0
  0
ENDBLK
  5
DC8
330
5E9
100
AcDbEntity
  8
0
100
AcDbBlockEnd
  0
BLOCK
  5
DC9
330
5EA
100
AcDbEntity
  8
0
100
AcDbBlockBegin
  2
BLOCK8
 70
     0
 10
0.0
 20
0.0
 30
0.0
  3
BLOCK8
  1

  0
LINE
  5
626
330
5EA
100
AcDbEntity
  8
0
  6
DASHDOT
 62
     7
 48
0.1365
370
    13
390
F
100
AcDbLine
 10
251.126999
 20
22.5
 30
0.0
 11
245.667007
 21
22.5
 31
0.0
  0
LINE
  5
627
330
5EA
100
AcDbEntity
  8
0
  6
DASHDOT
 62
     7
 48
0.1365
370
    13
390
F
100
AcDbLine
 10
248.397003
 20
25.23
 30
0.0
 11
248.397003
 21
19.77
 31
0.0
  0
ENDBLK
  5
DCA
330
5EA
100
AcDbEntity
  8
0
100
AcDbBlockEnd
  0
BLOCK
  5
DCB
330
5EB
100
AcDbEntity
  8
0
100
AcDbBlockBegin
  2
BLOCK9
 70
     0
 10
0.0
 20
0.0
 30
0.0
  3
BLOCK9
  1

  0
LINE
  5
62A
330
5EB
100
AcDbEntity
  8
0
  6
DASHDOT
 62
     7
 48
0.146249
370
    13
390
F
100
AcDbLine
 10
294.328796
 20
-27.677582
 30
0.0
 11
288.478821
 21
-27.677582
 31
0.0
  0
LINE
  5
62B
330
5EB
100
AcDbEntity
  8
0
  6
DASHDOT
 62
     7
 48
0.14625
370
    13
390
F
100
AcDbLine
 10
291.403809
 20
-24.752581
 30
0.0
 11
291.403809
 21
-30.602581
 31
0.0
  0
ENDBLK
  5
DCC
330
5EB
100
AcDbEntity
  8
0
100
AcDbBlockEnd
  0
BLOCK
  5
DCD
330
5EC
100
AcDbEntity
  8
0
100
AcDbBlockBegin
  2
BLOCK10
 70
     0
 10
0.0
 20
0.0
 30
0.0
  3
BLOCK10
  1

  0
LINE
  5
62E
330
5EC
100
AcDbEntity
  8
0
  6
DASHDOT
 62
     7
 48
0.146249
370
    13
390
F
100
AcDbLine
 10
294.328796
 20
27.677582
 30
0.0
 11
288.478821
 21
27.677582
 31
0.0
  0
LINE
  5
62F
330
5EC
100
AcDbEntity
  8
0
  6
DASHDOT
 62
     7
 48
0.14625
370
    13
390
F
100
AcDbLine
 10
291.403809
 20
30.602581
 30
0.0
 11
291.403809
 21
24.752581
 31
0.0
  0
ENDBLK
  5
DCE
330
5EC
100
AcDbEntity
  8
0
100
AcDbBlockEnd
  0
BLOCK
  5
DCF
330
5ED
100
AcDbEntity
  8
0
100
AcDbBlockBegin
  2
BLOCK11
 70
     0
 10
0.0
 20
0.0
 30
0.0
  3
BLOCK11
  1

  0
LINE
  5
632
330
5ED
100
AcDbEntity
  8
0
  6
DASHDOT
 62
     7
 48
0.1625
370
    13
390
F
100
AcDbLine
 10
239.401001
 20
0.0
 30
0.0
 11
232.901001
 21
0.0
 31
0.0
  0
LINE
  5
633
330
5ED
100
AcDbEntity
  8
0
  6
DASHDOT
 62
     7
 48
0.1625
370
    13
390
F
100
AcDbLine
 10
236.151001
 20
3.25
 30
0.0
 11
236.151001
 21
-3.25
 31
0.0
  0
ENDBLK
  5
DD0
330
5ED
100
AcDbEntity
  8
0
100
AcDbBlockEnd
  0
BLOCK
  5
DD1
330
5EE
100
AcDbEntity
  8
0
100
AcDbBlockBegin
  2
BLOCK12
 70
     0
 10
0.0
 20
0.0
 30
0.0
  3
BLOCK12
  1

  0
LINE
  5
636
330
5EE
100
AcDbEntity
  8
0
  6
DASHDOT
 62
     7
 48
0.13
370
    13
390
F
100
AcDbLine
 10
338.013
 20
51.029343
 30
0.0
 11
332.812988
 21
51.029343
 31
0.0
  0
LINE
  5
637
330
5EE
100
AcDbEntity
  8
0
  6
DASHDOT
 62
     7
 48
0.13
370
    13
390
F
100
AcDbLine
 10
335.412994
 20
53.629345
 30
0.0
 11
335.412994
 21
48.429344
 31
0.0
  0
ENDBLK
  5
DD2
330
5EE
100
AcDbEntity
  8
0
100
AcDbBlockEnd
  0
BLOCK
  5
DD3
330
5EF
100
AcDbEntity
  8
0
100
AcDbBlockBegin
  2
BLOCK13
 70
     0
 10
0.0
 20
0.0
 30
0.0
  3
BLOCK13
  1

  0
TEXT
  5
63A
330
5EF
100
AcDbEntity
  8
0
 62
     7
370
    13
390
F
100
AcDbText
 10
111.904762
 20
42.119831
 30
0.0
 40
3.5
  1
138
 50
90.0
 41
1.715848713081461
 72
     5
 11
111.904762
 21
52.627903
 31
0.0
100
AcDbText
  0
LINE
  5
63B
330
5EF
100
AcDbEntity
  8
0
 62
     7
370
    13
390
F
100
AcDbLine
 10
278.650726
 20
-21.408373
 30
0.0
 11
111.904762
 21
-21.408373
 31
0.0
  0
LINE
  5
63C
330
5EF
100
AcDbEntity
  8
0
 62
     7
370
    13
390
F
100
AcDbLine
 10
212.735992
 20
116.156105
 30
0.0
 11
111.904762
 21
116.156105
 31
0.0
  0
LWPOLYLINE
  5
63D
330
5EF
100
AcDbEntity
  8
0
 62
     7
370
    13
390
F
100
AcDbPolyline
 90
        3
 70
     0
 43
0.0
 10
113.387123
 20
-19.476521
 10
113.904762
 20
-21.408373
 10
114.422401
 20
-19.476521
  0
LWPOLYLINE
  5
642
330
5EF
100
AcDbEntity
  8
0
 62
     7
370
    13
390
F
100
AcDbPolyline
 90
        3
 70
     0
 43
0.0
 10
114.422401
 20
114.224251
 10
113.904762
 20
116.156105
 10
113.387123
 20
114.224251
  0
LINE
  5
647
330
5EF
100
AcDbEntity
  8
0
 62
     7
370
    13
390
F
100
AcDbLine
 10
113.904762
 20
-21.408373
 30
0.0
 11
113.904762
 21
116.156105
 31
0.0
  0
ENDBLK
  5
DD4
330
5EF
100
AcDbEntity
  8
0
100
AcDbBlockEnd
  0
BLOCK
  5
DD5
330
5F0
100
AcDbEntity
  8
0
100
AcDbBlockBegin
  2
BLOCK14
 70
     0
 10
0.0
 20
0.0
 30
0.0
  3
BLOCK14
  1

  0
LINE
  5
64A
330
5F0
100
AcDbEntity
  8
0
  6
DASHDOT
 62
     7
 48
0.325
370
    13
390
F
100
AcDbLine
 10
361.953827
 20
79.124229
 30
0.0
 11
348.953827
 21
79.124229
 31
0.0
  0
LINE
  5
64B
330
5F0
100
AcDbEntity
  8
0
  6
DASHDOT
 62
     7
 48
0.325
370
    13
390
F
100
AcDbLine
 10
355.453827
 20
85.624229
 30
0.0
 11
355.453827
 21
72.624229
 31
0.0
  0
ENDBLK
  5
DD6
330
5F0
100
AcDbEntity
  8
0
100
AcDbBlockEnd
  0
BLOCK
  5
DD7
330
7FE
100
AcDbEntity
  8
0
100
AcDbBlockBegin
  2
*D14
 70
     1
 10
0.0
 20
0.0
 30
0.0
  3
*D14
  1

  0
POINT
  5
7F5
330
7FE
100
AcDbEntity
  8
DEFPOINTS
  6
ByBlock
 62
     0
380
     1
100
AcDbPoint
 10
682.8619166450172
 20
485.8846474857474
 30
0.0
  0
POINT
  5
7F6
330
7FE
100
AcDbEntity
  8
DEFPOINTS
  6
ByBlock
 62
     0
380
     1
100
AcDbPoint
 10
962.8561124780879
 20
487.5708222547342
 30
0.0
  0
LINE
  5
7F7
330
7FE
100
AcDbEntity
  8
0
  6
ByBlock
 62
     0
370
    -2
380
     1
100
AcDbLine
 10
682.8619166450172
 20
486.5096474857474
 30
0.0
 11
682.8619166450172
 21
678.6026979439591
 31
0.0
  0
LINE
  5
7F8
330
7FE
100
AcDbEntity
  8
0
  6
ByBlock
 62
     0
370
    -2
380
     1
100
AcDbLine
 10
962.8561124780879
 20
488.1958222547342
 30
0.0
 11
962.8561124780879
 21
678.6026979439591
 31
0.0
  0
LINE
  5
7F9
330
7FE
100
AcDbEntity
  8
0
  6
ByBlock
 62
     0
370
    -2
380
     1
100
AcDbLine
 10
685.3619166450172
 20
677.3526979439591
 30
0.0
 11
960.3561124780879
 21
677.3526979439591
 31
0.0
  0
SOLID
  5
7FA
330
7FE
100
AcDbEntity
  8
0
  6
ByBlock
 62
     0
380
     1
100
AcDbTrace
 10
682.8619166450172
 20
677.3526979439591
 30
0.0
 11
685.3619166450172
 21
676.9360312772925
 31
0.0
 12
685.3619166450172
 22
677.7693646106258
 32
0.0
 13
685.3619166450172
 23
677.7693646106258
 33
0.0
  0
SOLID
  5
7FB
330
7FE
100
AcDbEntity
  8
0
  6
ByBlock
 62
     0
380
     1
100
AcDbTrace
 10
962.8561124780879
 20
677.3526979439591
 30
0.0
 11
960.3561124780879
 21
676.9360312772925
 31
0.0
 12
960.3561124780879
 22
677.7693646106258
 32
0.0
 13
960.3561124780879
 23
677.7693646106258
 33
0.0
  0
MTEXT
  5
7FC
330
7FE
100
AcDbEntity
  8
0
  6
ByBlock
 62
     0
370
    -2
380
     1
100
AcDbMText
 10
822.8590145615526
 20
679.3539063415084
 30
0.0
 40
2.5
 41
0.0
 71
     5
 72
     1
  1
\A1;279,99
 73
     1
 44
1.0
  0
ENDBLK
  5
DD8
330
7FE
100
AcDbEntity
  8
0
100
AcDbBlockEnd
  0
BLOCK
  5
DD9
330
809
100
AcDbEntity
  8
0
100
AcDbBlockBegin
  2
*D15
 70
     1
 10
0.0
 20
0.0
 30
0.0
  3
*D15
  1

  0
POINT
  5
800
330
809
100
AcDbEntity
  8
DEFPOINTS
  6
ByBlock
 62
     0
380
     1
100
AcDbPoint
 10
682.8619166450172
 20
485.8846474857474
 30
0.0
  0
POINT
  5
801
330
809
100
AcDbEntity
  8
DEFPOINTS
  6
ByBlock
 62
     0
380
     1
100
AcDbPoint
 10
962.8561124780879
 20
487.5708222547342
 30
0.0
  0
LINE
  5
802
330
809
100
AcDbEntity
  8
0
  6
ByBlock
 62
     0
370
    -2
380
     1
100
AcDbLine
 10
682.8619166450172
 20
486.5096474857474
 30
0.0
 11
682.8619166450172
 21
678.6026979439591
 31
0.0
  0
LINE
  5
803
330
809
100
AcDbEntity
  8
0
  6
ByBlock
 62
     0
370
    -2
380
     1
100
AcDbLine
 10
962.8561124780879
 20
488.1958222547342
 30
0.0
 11
962.8561124780879
 21
678.6026979439591
 31
0.0
  0
LINE
  5
804
330
809
100
AcDbEntity
  8
0
  6
ByBlock
 62
     0
370
    -2
380
     1
100
AcDbLine
 10
685.3619166450172
 20
677.3526979439591
 30
0.0
 11
960.3561124780879
 21
677.3526979439591
 31
0.0
  0
SOLID
  5
805
330
809
100
AcDbEntity
  8
0
  6
ByBlock
 62
     0
380
     1
100
AcDbTrace
 10
682.8619166450172
 20
677.3526979439591
 30
0.0
 11
685.3619166450172
 21
676.9360312772925
 31
0.0
 12
685.3619166450172
 22
677.7693646106258
 32
0.0
 13
685.3619166450172
 23
677.7693646106258
 33
0.0
  0
SOLID
  5
806
330
809
100
AcDbEntity
  8
0
  6
ByBlock
 62
     0
380
     1
100
AcDbTrace
 10
962.8561124780879
 20
677.3526979439591
 30
0.0
 11
960.3561124780879
 21
676.9360312772925
 31
0.0
 12
960.3561124780879
 22
677.7693646106258
 32
0.0
 13
960.3561124780879
 23
677.7693646106258
 33
0.0
  0
MTEXT
  5
807
330
809
100
AcDbEntity
  8
0
  6
ByBlock
 62
     0
370
    -2
380
     1
100
AcDbMText
 10
822.8590145615526
 20
679.3539063415084
 30
0.0
 40
2.5
 41
0.0
 71
     5
 72
     1
  1
\A1;279,99
 73
     1
 44
1.0
  0
ENDBLK
  5
DDA
330
809
100
AcDbEntity
  8
0
100
AcDbBlockEnd
  0
BLOCK
  5
DDB
330
814
100
AcDbEntity
  8
0
100
AcDbBlockBegin
  2
*D16
 70
     1
 10
0.0
 20
0.0
 30
0.0
  3
*D16
  1

  0
POINT
  5
80B
330
814
100
AcDbEntity
  8
DEFPOINTS
  6
ByBlock
 62
     0
380
     1
100
AcDbPoint
 10
682.8619166450172
 20
485.8846474857474
 30
0.0
  0
POINT
  5
80C
330
814
100
AcDbEntity
  8
DEFPOINTS
  6
ByBlock
 62
     0
380
     1
100
AcDbPoint
 10
962.8561124780879
 20
487.5708222547342
 30
0.0
  0
LINE
  5
80D
330
814
100
AcDbEntity
  8
0
  6
ByBlock
 62
     0
370
    -2
380
     1
100
AcDbLine
 10
682.8619166450172
 20
486.5096474857474
 30
0.0
 11
682.8619166450172
 21
739.4587958451657
 31
0.0
  0
LINE
  5
80E
330
814
100
AcDbEntity
  8
0
  6
ByBlock
 62
     0
370
    -2
380
     1
100
AcDbLine
 10
962.8561124780879
 20
488.1958222547342
 30
0.0
 11
962.8561124780879
 21
739.4587958451657
 31
0.0
  0
LINE
  5
80F
330
814
100
AcDbEntity
  8
0
  6
ByBlock
 62
     0
370
    -2
380
     1
100
AcDbLine
 10
685.3619166450172
 20
738.2087958451657
 30
0.0
 11
960.3561124780879
 21
738.2087958451657
 31
0.0
  0
SOLID
  5
810
330
814
100
AcDbEntity
  8
0
  6
ByBlock
 62
     0
380
     1
100
AcDbTrace
 10
682.8619166450172
 20
738.2087958451657
 30
0.0
 11
685.3619166450172
 21
737.7921291784991
 31
0.0
 12
685.3619166450172
 22
738.6254625118323
 32
0.0
 13
685.3619166450172
 23
738.6254625118323
 33
0.0
  0
SOLID
  5
811
330
814
100
AcDbEntity
  8
0
  6
ByBlock
 62
     0
380
     1
100
AcDbTrace
 10
962.8561124780879
 20
738.2087958451657
 30
0.0
 11
960.3561124780879
 21
737.7921291784991
 31
0.0
 12
960.3561124780879
 22
738.6254625118323
 32
0.0
 13
960.3561124780879
 23
738.6254625118323
 33
0.0
  0
MTEXT
  5
812
330
814
100
AcDbEntity
  8
0
  6
ByBlock
 62
     0
370
    -2
380
     1
100
AcDbMText
 10
822.8590145615526
 20
740.210004242715
 30
0.0
 40
2.5
 41
0.0
 71
     5
 72
     1
  1
\A1;279,99
 73
     1
 44
1.0
  0
ENDBLK
  5
DDC
330
814
100
AcDbEntity
  8
0
100
AcDbBlockEnd
  0
BLOCK
  5
DDD
330
81F
100
AcDbEntity
  8
0
100
AcDbBlockBegin
  2
*D17
 70
     1
 10
0.0
 20
0.0
 30
0.0
  3
*D17
  1

  0
POINT
  5
816
330
81F
100
AcDbEntity
  8
DEFPOINTS
  6
ByBlock
 62
     0
380
     1
100
AcDbPoint
 10
682.8619166450172
 20
485.8846474857474
 30
0.0
  0
POINT
  5
817
330
81F
100
AcDbEntity
  8
DEFPOINTS
  6
ByBlock
 62
     0
380
     1
100
AcDbPoint
 10
962.8561124780879
 20
487.5708222547342
 30
0.0
  0
LINE
  5
818
330
81F
100
AcDbEntity
  8
0
  6
ByBlock
 62
     0
370
    -2
380
     1
100
AcDbLine
 10
682.8619166450172
 20
486.5096474857474
 30
0.0
 11
682.8619166450172
 21
674.1642375634842
 31
0.0
  0
LINE
  5
819
330
81F
100
AcDbEntity
  8
0
  6
ByBlock
 62
     0
370
    -2
380
     1
100
AcDbLine
 10
962.8561124780879
 20
488.1958222547342
 30
0.0
 11
962.8561124780879
 21
674.1642375634842
 31
0.0
  0
LINE
  5
81A
330
81F
100
AcDbEntity
  8
0
  6
ByBlock
 62
     0
370
    -2
380
     1
100
AcDbLine
 10
685.3619166450172
 20
672.9142375634842
 30
0.0
 11
960.3561124780879
 21
672.9142375634842
 31
0.0
  0
SOLID
  5
81B
330
81F
100
AcDbEntity
  8
0
  6
ByBlock
 62
     0
380
     1
100
AcDbTrace
 10
682.8619166450172
 20
672.9142375634842
 30
0.0
 11
685.3619166450172
 21
672.4975708968176
 31
0.0
 12
685.3619166450172
 22
673.3309042301508
 32
0.0
 13
685.3619166450172
 23
673.3309042301508
 33
0.0
  0
SOLID
  5
81C
330
81F
100
AcDbEntity
  8
0
  6
ByBlock
 62
     0
380
     1
100
AcDbTrace
 10
962.8561124780879
 20
672.9142375634842
 30
0.0
 11
960.3561124780879
 21
672.4975708968176
 31
0.0
 12
960.3561124780879
 22
673.3309042301508
 32
0.0
 13
960.3561124780879
 23
673.3309042301508
 33
0.0
  0
MTEXT
  5
81D
330
81F
100
AcDbEntity
  8
0
  6
ByBlock
 62
     0
370
    -2
380
     1
100
AcDbMText
 10
838.245475722796
 20
674.9154459610335
 30
0.0
 40
2.5
 41
0.0
 71
     5
 72
     1
  1
\A1;279,99
 73
     1
 44
1.0
  0
ENDBLK
  5
DDE
330
81F
100
AcDbEntity
  8
0
100
AcDbBlockEnd
  0
BLOCK
  5
DDF
330
82A
100
AcDbEntity
  8
0
100
AcDbBlockBegin
  2
*D18
 70
     1
 10
0.0
 20
0.0
 30
0.0
  3
*D18
  1

  0
POINT
  5
821
330
82A
100
AcDbEntity
  8
DEFPOINTS
  6
ByBlock
 62
     0
380
     1
100
AcDbPoint
 10
682.8619166450172
 20
485.8846474857474
 30
0.0
  0
POINT
  5
822
330
82A
100
AcDbEntity
  8
DEFPOINTS
  6
ByBlock
 62
     0
380
     1
100
AcDbPoint
 10
962.8561124780879
 20
487.5708222547342
 30
0.0
  0
LINE
  5
823
330
82A
100
AcDbEntity
  8
0
  6
ByBlock
 62
     0
370
    -2
380
     1
100
AcDbLine
 10
682.8619166450172
 20
486.5096474857474
 30
0.0
 11
682.8619166450172
 21
674.1642375634842
 31
0.0
  0
LINE
  5
824
330
82A
100
AcDbEntity
  8
0
  6
ByBlock
 62
     0
370
    -2
380
     1
100
AcDbLine
 10
962.8561124780879
 20
488.1958222547342
 30
0.0
 11
962.8561124780879
 21
674.1642375634842
 31
0.0
  0
LINE
  5
825
330
82A
100
AcDbEntity
  8
0
  6
ByBlock
 62
     0
370
    -2
380
     1
100
AcDbLine
 10
685.3619166450172
 20
672.9142375634842
 30
0.0
 11
960.3561124780879
 21
672.9142375634842
 31
0.0
  0
SOLID
  5
826
330
82A
100
AcDbEntity
  8
0
  6
ByBlock
 62
     0
380
     1
100
AcDbTrace
 10
682.8619166450172
 20
672.9142375634842
 30
0.0
 11
685.3619166450172
 21
672.4975708968176
 31
0.0
 12
685.3619166450172
 22
673.3309042301508
 32
0.0
 13
685.3619166450172
 23
673.3309042301508
 33
0.0
  0
SOLID
  5
827
330
82A
100
AcDbEntity
  8
0
  6
ByBlock
 62
     0
380
     1
100
AcDbTrace
 10
962.8561124780879
 20
672.9142375634842
 30
0.0
 11
960.3561124780879
 21
672.4975708968176
 31
0.0
 12
960.3561124780879
 22
673.3309042301508
 32
0.0
 13
960.3561124780879
 23
673.3309042301508
 33
0.0
  0
MTEXT
  5
828
330
82A
100
AcDbEntity
  8
0
  6
ByBlock
 62
     0
370
    -2
380
     1
100
AcDbMText
 10
838.245475722796
 20
674.9154459610335
 30
0.0
 40
2.5
 41
0.0
 71
     5
 72
     1
  1
\A1;279,99
 73
     1
 44
1.0
  0
ENDBLK
  5
DE0
330
82A
100
AcDbEntity
  8
0
100
AcDbBlockEnd
  0
BLOCK
  5
DE1
330
835
100
AcDbEntity
  8
0
100
AcDbBlockBegin
  2
*D19
 70
     1
 10
0.0
 20
0.0
 30
0.0
  3
*D19
  1

  0
POINT
  5
82C
330
835
100
AcDbEntity
  8
DEFPOINTS
  6
ByBlock
 62
     7
380
     1
100
AcDbPoint
 10
682.8619166450172
 20
485.8846474857474
 30
0.0
  0
POINT
  5
82D
330
835
100
AcDbEntity
  8
DEFPOINTS
  6
ByBlock
 62
     7
380
     1
100
AcDbPoint
 10
962.8561124780879
 20
487.5708222547342
 30
0.0
  0
LINE
  5
82E
330
835
100
AcDbEntity
  8
0
  6
ByBlock
 62
     7
370
    -2
380
     1
100
AcDbLine
 10
682.8619166450172
 20
486.5096474857474
 30
0.0
 11
682.8619166450172
 21
674.1642375634842
 31
0.0
  0
LINE
  5
82F
330
835
100
AcDbEntity
  8
0
  6
ByBlock
 62
     7
370
    -2
380
     1
100
AcDbLine
 10
962.8561124780879
 20
488.1958222547342
 30
0.0
 11
962.8561124780879
 21
674.1642375634842
 31
0.0
  0
LINE
  5
830
330
835
100
AcDbEntity
  8
0
  6
ByBlock
 62
     7
370
    -2
380
     1
100
AcDbLine
 10
692.8619166450172
 20
672.9142375634842
 30
0.0
 11
952.8561124780879
 21
672.9142375634842
 31
0.0
  0
SOLID
  5
831
330
835
100
AcDbEntity
  8
0
  6
ByBlock
 62
     7
380
     1
100
AcDbTrace
 10
682.8619166450172
 20
672.9142375634842
 30
0.0
 11
692.8619166450172
 21
671.2475708968176
 31
0.0
 12
692.8619166450172
 22
674.5809042301508
 32
0.0
 13
692.8619166450172
 23
674.5809042301508
 33
0.0
  0
SOLID
  5
832
330
835
100
AcDbEntity
  8
0
  6
ByBlock
 62
     7
380
     1
100
AcDbTrace
 10
962.8561124780879
 20
672.9142375634842
 30
0.0
 11
952.8561124780879
 21
671.2475708968176
 31
0.0
 12
952.8561124780879
 22
674.5809042301508
 32
0.0
 13
952.8561124780879
 23
674.5809042301508
 33
0.0
  0
MTEXT
  5
833
330
835
100
AcDbEntity
  8
0
  6
ByBlock
 62
     0
370
    -2
380
     1
100
AcDbMText
 10
838.245475722796
 20
684.2197493745078
 30
0.0
 40
14.0
 41
0.0
 71
     5
 72
     1
  1
\A1;280
 73
     1
 44
1.0
  0
ENDBLK
  5
DE2
330
835
100
AcDbEntity
  8
0
100
AcDbBlockEnd
  0
BLOCK
  5
DE3
330
840
100
AcDbEntity
  8
0
100
AcDbBlockBegin
  2
*D20
 70
     1
 10
0.0
 20
0.0
 30
0.0
  3
*D20
  1

  0
POINT
  5
837
330
840
100
AcDbEntity
  8
DEFPOINTS
  6
ByBlock
 62
     7
380
     1
100
AcDbPoint
 10
682.8619166450172
 20
485.8846474857474
 30
0.0
  0
POINT
  5
838
330
840
100
AcDbEntity
  8
DEFPOINTS
  6
ByBlock
 62
     7
380
     1
100
AcDbPoint
 10
962.8561124780879
 20
487.5708222547342
 30
0.0
  0
LINE
  5
839
330
840
100
AcDbEntity
  8
0
  6
ByBlock
 62
     7
370
    -2
380
     1
100
AcDbLine
 10
682.8619166450172
 20
486.5096474857474
 30
0.0
 11
682.8619166450172
 21
674.1642375634842
 31
0.0
  0
LINE
  5
83A
330
840
100
AcDbEntity
  8
0
  6
ByBlock
 62
     7
370
    -2
380
     1
100
AcDbLine
 10
962.8561124780879
 20
488.1958222547342
 30
0.0
 11
962.8561124780879
 21
674.1642375634842
 31
0.0
  0
LINE
  5
83B
330
840
100
AcDbEntity
  8
0
  6
ByBlock
 62
     7
370
    -2
380
     1
100
AcDbLine
 10
692.8619166450172
 20
672.9142375634842
 30
0.0
 11
952.8561124780879
 21
672.9142375634842
 31
0.0
  0
SOLID
  5
83C
330
840
100
AcDbEntity
  8
0
  6
ByBlock
 62
     7
380
     1
100
AcDbTrace
 10
682.8619166450172
 20
672.9142375634842
 30
0.0
 11
692.8619166450172
 21
671.2475708968176
 31
0.0
 12
692.8619166450172
 22
674.5809042301508
 32
0.0
 13
692.8619166450172
 23
674.5809042301508
 33
0.0
  0
SOLID
  5
83D
330
840
100
AcDbEntity
  8
0
  6
ByBlock
 62
     7
380
     1
100
AcDbTrace
 10
962.8561124780879
 20
672.9142375634842
 30
0.0
 11
952.8561124780879
 21
671.2475708968176
 31
0.0
 12
952.8561124780879
 22
674.5809042301508
 32
0.0
 13
952.8561124780879
 23
674.5809042301508
 33
0.0
  0
MTEXT
  5
83E
330
840
100
AcDbEntity
  8
0
  6
ByBlock
 62
     0
370
    -2
380
     1
100
AcDbMText
 10
838.245475722796
 20
684.2197493745078
 30
0.0
 40
14.0
 41
0.0
 71
     5
 72
     1
  1
\A1;280
 73
     1
 44
1.0
  0
ENDBLK
  5
DE4
330
840
100
AcDbEntity
  8
0
100
AcDbBlockEnd
  0
BLOCK
  5
DE5
330
84B
100
AcDbEntity
  8
0
100
AcDbBlockBegin
  2
*D21
 70
     1
 10
0.0
 20
0.0
 30
0.0
  3
*D21
  1

  0
POINT
  5
842
330
84B
100
AcDbEntity
  8
DEFPOINTS
  6
ByBlock
 62
     7
380
     1
100
AcDbPoint
 10
682.8619166450172
 20
485.8846474857474
 30
0.0
  0
POINT
  5
843
330
84B
100
AcDbEntity
  8
DEFPOINTS
  6
ByBlock
 62
     7
380
     1
100
AcDbPoint
 10
962.8561124780879
 20
487.5708222547342
 30
0.0
  0
LINE
  5
844
330
84B
100
AcDbEntity
  8
0
  6
ByBlock
 62
     7
370
    -2
380
     1
100
AcDbLine
 10
682.8619166450172
 20
486.5096474857474
 30
0.0
 11
682.8619166450172
 21
674.1642375634842
 31
0.0
  0
LINE
  5
845
330
84B
100
AcDbEntity
  8
0
  6
ByBlock
 62
     7
370
    -2
380
     1
100
AcDbLine
 10
962.8561124780879
 20
488.1958222547342
 30
0.0
 11
962.8561124780879
 21
674.1642375634842
 31
0.0
  0
LINE
  5
846
330
84B
100
AcDbEntity
  8
0
  6
ByBlock
 62
     7
370
    -2
380
     1
100
AcDbLine
 10
692.8619166450172
 20
672.9142375634842
 30
0.0
 11
952.8561124780879
 21
672.9142375634842
 31
0.0
  0
SOLID
  5
847
330
84B
100
AcDbEntity
  8
0
  6
ByBlock
 62
     7
380
     1
100
AcDbTrace
 10
682.8619166450172
 20
672.9142375634842
 30
0.0
 11
692.8619166450172
 21
671.2475708968176
 31
0.0
 12
692.8619166450172
 22
674.5809042301508
 32
0.0
 13
692.8619166450172
 23
674.5809042301508
 33
0.0
  0
SOLID
  5
848
330
84B
100
AcDbEntity
  8
0
  6
ByBlock
 62
     7
380
     1
100
AcDbTrace
 10
962.8561124780879
 20
672.9142375634842
 30
0.0
 11
952.8561124780879
 21
671.2475708968176
 31
0.0
 12
952.8561124780879
 22
674.5809042301508
 32
0.0
 13
952.8561124780879
 23
674.5809042301508
 33
0.0
  0
MTEXT
  5
849
330
84B
100
AcDbEntity
  8
0
  6
ByBlock
 62
     0
370
    -2
380
     1
100
AcDbMText
 10
838.245475722796
 20
685.6210045897599
 30
0.0
 40
14.0
 41
0.0
 71
     5
 72
     1
  1
\A1;279,99
 73
     1
 44
1.0
  0
ENDBLK
  5
DE6
330
84B
100
AcDbEntity
  8
0
100
AcDbBlockEnd
  0
BLOCK
  5
DE7
330
856
100
AcDbEntity
  8
0
100
AcDbBlockBegin
  2
*D22
 70
     1
 10
0.0
 20
0.0
 30
0.0
  3
*D22
  1

  0
POINT
  5
84D
330
856
100
AcDbEntity
  8
DEFPOINTS
  6
ByBlock
 62
     7
380
     1
100
AcDbPoint
 10
682.8619166450172
 20
485.8846474857474
 30
0.0
  0
POINT
  5
84E
330
856
100
AcDbEntity
  8
DEFPOINTS
  6
ByBlock
 62
     7
380
     1
100
AcDbPoint
 10
962.8561124780879
 20
487.5708222547342
 30
0.0
  0
LINE
  5
84F
330
856
100
AcDbEntity
  8
0
  6
ByBlock
 62
     7
370
    -2
380
     1
100
AcDbLine
 10
682.8619166450172
 20
486.5096474857474
 30
0.0
 11
682.8619166450172
 21
674.1642375634842
 31
0.0
  0
LINE
  5
850
330
856
100
AcDbEntity
  8
0
  6
ByBlock
 62
     7
370
    -2
380
     1
100
AcDbLine
 10
962.8561124780879
 20
488.1958222547342
 30
0.0
 11
962.8561124780879
 21
674.1642375634842
 31
0.0
  0
LINE
  5
851
330
856
100
AcDbEntity
  8
0
  6
ByBlock
 62
     7
370
    -2
380
     1
100
AcDbLine
 10
692.8619166450172
 20
672.9142375634842
 30
0.0
 11
952.8561124780879
 21
672.9142375634842
 31
0.0
  0
SOLID
  5
852
330
856
100
AcDbEntity
  8
0
  6
ByBlock
 62
     7
380
     1
100
AcDbTrace
 10
682.8619166450172
 20
672.9142375634842
 30
0.0
 11
692.8619166450172
 21
671.2475708968176
 31
0.0
 12
692.8619166450172
 22
674.5809042301508
 32
0.0
 13
692.8619166450172
 23
674.5809042301508
 33
0.0
  0
SOLID
  5
853
330
856
100
AcDbEntity
  8
0
  6
ByBlock
 62
     7
380
     1
100
AcDbTrace
 10
962.8561124780879
 20
672.9142375634842
 30
0.0
 11
952.8561124780879
 21
671.2475708968176
 31
0.0
 12
952.8561124780879
 22
674.5809042301508
 32
0.0
 13
952.8561124780879
 23
674.5809042301508
 33
0.0
  0
MTEXT
  5
854
330
856
100
AcDbEntity
  8
0
  6
ByBlock
 62
     0
370
    -2
380
     1
100
AcDbMText
 10
838.245475722796
 20
684.2197493745078
 30
0.0
 40
14.0
 41
0.0
 71
     5
 72
     1
  1
\A1;280
 73
     1
 44
1.0
  0
ENDBLK
  5
DE8
330
856
100
AcDbEntity
  8
0
100
AcDbBlockEnd
  0
BLOCK
  5
DE9
330
861
100
AcDbEntity
  8
0
100
AcDbBlockBegin
  2
*D23
 70
     1
 10
0.0
 20
0.0
 30
0.0
  3
*D23
  1

  0
POINT
  5
858
330
861
100
AcDbEntity
  8
DEFPOINTS
  6
ByBlock
 62
     7
380
     1
100
AcDbPoint
 10
682.8619166450172
 20
485.8846474857474
 30
0.0
  0
POINT
  5
859
330
861
100
AcDbEntity
  8
DEFPOINTS
  6
ByBlock
 62
     7
380
     1
100
AcDbPoint
 10
962.8561124780879
 20
487.5708222547342
 30
0.0
  0
LINE
  5
85A
330
861
100
AcDbEntity
  8
0
  6
ByBlock
 62
     7
370
    -2
380
     1
100
AcDbLine
 10
682.8619166450172
 20
486.5096474857474
 30
0.0
 11
682.8619166450172
 21
674.1642375634842
 31
0.0
  0
LINE
  5
85B
330
861
100
AcDbEntity
  8
0
  6
ByBlock
 62
     7
370
    -2
380
     1
100
AcDbLine
 10
962.8561124780879
 20
488.1958222547342
 30
0.0
 11
962.8561124780879
 21
674.1642375634842
 31
0.0
  0
LINE
  5
85C
330
861
100
AcDbEntity
  8
0
  6
ByBlock
 62
     7
370
    -2
380
     1
100
AcDbLine
 10
692.8619166450172
 20
672.9142375634842
 30
0.0
 11
952.8561124780879
 21
672.9142375634842
 31
0.0
  0
SOLID
  5
85D
330
861
100
AcDbEntity
  8
0
  6
ByBlock
 62
     7
380
     1
100
AcDbTrace
 10
682.8619166450172
 20
672.9142375634842
 30
0.0
 11
692.8619166450172
 21
671.2475708968176
 31
0.0
 12
692.8619166450172
 22
674.5809042301508
 32
0.0
 13
692.8619166450172
 23
674.5809042301508
 33
0.0
  0
SOLID
  5
85E
330
861
100
AcDbEntity
  8
0
  6
ByBlock
 62
     7
380
     1
100
AcDbTrace
 10
962.8561124780879
 20
672.9142375634842
 30
0.0
 11
952.8561124780879
 21
671.2475708968176
 31
0.0
 12
952.8561124780879
 22
674.5809042301508
 32
0.0
 13
952.8561124780879
 23
674.5809042301508
 33
0.0
  0
MTEXT
  5
85F
330
861
100
AcDbEntity
  8
0
  6
ByBlock
 62
     0
370
    -2
380
     1
100
AcDbMText
 10
822.8590145615526
 20
684.2197493745078
 30
0.0
 40
14.0
 41
0.0
 71
     5
 72
     1
  1
\A1;280
 73
     1
 44
1.0
  0
ENDBLK
  5
DEA
330
861
100
AcDbEntity
  8
0
100
AcDbBlockEnd
  0
BLOCK
  5
DEB
330
86D
100
AcDbEntity
  8
0
100
AcDbBlockBegin
  2
*D24
 70
     1
 10
0.0
 20
0.0
 30
0.0
  3
*D24
  1

  0
POINT
  5
864
330
86D
100
AcDbEntity
  8
DEFPOINTS
  6
ByBlock
 62
     0
380
     1
100
AcDbPoint
 10
856.6371404780879
 20
642.2635562547341
 30
0.0
  0
POINT
  5
865
330
86D
100
AcDbEntity
  8
DEFPOINTS
  6
ByBlock
 62
     0
380
     1
100
AcDbPoint
 10
824.3733467727674
 20
417.4607302547342
 30
0.0
  0
LINE
  5
866
330
86D
100
AcDbEntity
  8
0
  6
ByBlock
 62
     0
370
    -2
380
     1
100
AcDbLine
 10
857.2621404780879
 20
642.2635562547341
 30
0.0
 11
987.9158490628557
 21
642.2635562547341
 31
0.0
  0
LINE
  5
867
330
86D
100
AcDbEntity
  8
0
  6
ByBlock
 62
     0
370
    -2
380
     1
100
AcDbLine
 10
824.9983467727674
 20
417.4607302547342
 30
0.0
 11
987.9158490628557
 21
417.4607302547342
 31
0.0
  0
LINE
  5
868
330
86D
100
AcDbEntity
  8
0
  6
ByBlock
 62
     0
370
    -2
380
     1
100
AcDbLine
 10
986.6658490628557
 20
639.7635562547341
 30
0.0
 11
986.6658490628557
 21
419.9607302547342
 31
0.0
  0
SOLID
  5
869
330
86D
100
AcDbEntity
  8
0
  6
ByBlock
 62
     0
380
     1
100
AcDbTrace
 10
986.6658490628557
 20
642.2635562547341
 30
0.0
 11
986.2491823961891
 21
639.7635562547341
 31
0.0
 12
987.0825157295224
 22
639.7635562547341
 32
0.0
 13
987.0825157295224
 23
639.7635562547341
 33
0.0
  0
SOLID
  5
86A
330
86D
100
AcDbEntity
  8
0
  6
ByBlock
 62
     0
380
     1
100
AcDbTrace
 10
986.6658490628557
 20
417.4607302547342
 30
0.0
 11
986.2491823961891
 21
419.9607302547342
 31
0.0
 12
987.0825157295224
 22
419.9607302547342
 32
0.0
 13
987.0825157295224
 23
419.9607302547342
 33
0.0
  0
MTEXT
  5
86B
330
86D
100
AcDbEntity
  8
0
  6
ByBlock
 62
     0
370
    -2
380
     1
100
AcDbMText
 10
984.6658490628557
 20
529.8621432547342
 30
0.0
 40
2.5
 41
0.0
 71
     5
 72
     1
  1
\A1;224,8
 11
6.123031769111886E-17
 21
1.0
 31
0.0
 73
     1
 44
1.0
  0
ENDBLK
  5
DEC
330
86D
100
AcDbEntity
  8
0
100
AcDbBlockEnd
  0
BLOCK
  5
DED
330
878
100
AcDbEntity
  8
0
100
AcDbBlockBegin
  2
*D25
 70
     1
 10
0.0
 20
0.0
 30
0.0
  3
*D25
  1

  0
POINT
  5
86F
330
878
100
AcDbEntity
  8
DEFPOINTS
  6
ByBlock
 62
     7
380
     1
100
AcDbPoint
 10
856.6371404780879
 20
642.2635562547341
 30
0.0
  0
POINT
  5
870
330
878
100
AcDbEntity
  8
DEFPOINTS
  6
ByBlock
 62
     7
380
     1
100
AcDbPoint
 10
824.3733467727674
 20
417.4607302547342
 30
0.0
  0
LINE
  5
871
330
878
100
AcDbEntity
  8
0
  6
ByBlock
 62
     7
370
    -2
380
     1
100
AcDbLine
 10
857.2621404780879
 20
642.2635562547341
 30
0.0
 11
987.9158490628557
 21
642.2635562547341
 31
0.0
  0
LINE
  5
872
330
878
100
AcDbEntity
  8
0
  6
ByBlock
 62
     7
370
    -2
380
     1
100
AcDbLine
 10
824.9983467727674
 20
417.4607302547342
 30
0.0
 11
987.9158490628557
 21
417.4607302547342
 31
0.0
  0
LINE
  5
873
330
878
100
AcDbEntity
  8
0
  6
ByBlock
 62
     7
370
    -2
380
     1
100
AcDbLine
 10
986.6658490628557
 20
632.2635562547341
 30
0.0
 11
986.6658490628557
 21
427.4607302547342
 31
0.0
  0
SOLID
  5
874
330
878
100
AcDbEntity
  8
0
  6
ByBlock
 62
     7
380
     1
100
AcDbTrace
 10
986.6658490628557
 20
642.2635562547341
 30
0.0
 11
984.9991823961891
 21
632.2635562547341
 31
0.0
 12
988.3325157295224
 22
632.2635562547341
 32
0.0
 13
988.3325157295224
 23
632.2635562547341
 33
0.0
  0
SOLID
  5
875
330
878
100
AcDbEntity
  8
0
  6
ByBlock
 62
     7
380
     1
100
AcDbTrace
 10
986.6658490628557
 20
417.4607302547342
 30
0.0
 11
984.9991823961891
 21
427.4607302547342
 31
0.0
 12
988.3325157295224
 22
427.4607302547342
 32
0.0
 13
988.3325157295224
 23
427.4607302547342
 33
0.0
  0
MTEXT
  5
876
330
878
100
AcDbEntity
  8
0
  6
ByBlock
 62
     0
370
    -2
380
     1
100
AcDbMText
 10
975.3658490628558
 20
529.8621432547342
 30
0.0
 40
14.0
 41
0.0
 71
     5
 72
     1
  1
\A1;225
 11
6.123031769111886E-17
 21
1.0
 31
0.0
 73
     1
 44
1.0
  0
ENDBLK
  5
DEE
330
878
100
AcDbEntity
  8
0
100
AcDbBlockEnd
  0
BLOCK
  5
DEF
330
883
100
AcDbEntity
  8
0
100
AcDbBlockBegin
  2
*D26
 70
     1
 10
0.0
 20
0.0
 30
0.0
  3
*D26
  1

  0
POINT
  5
87A
330
883
100
AcDbEntity
  8
DEFPOINTS
  6
ByBlock
 62
     7
380
     1
100
AcDbPoint
 10
856.6371404780879
 20
642.2635562547341
 30
0.0
  0
POINT
  5
87B
330
883
100
AcDbEntity
  8
DEFPOINTS
  6
ByBlock
 62
     7
380
     1
100
AcDbPoint
 10
824.3733467727674
 20
417.4607302547342
 30
0.0
  0
LINE
  5
87C
330
883
100
AcDbEntity
  8
0
  6
ByBlock
 62
     7
370
    -2
380
     1
100
AcDbLine
 10
857.2621404780879
 20
642.2635562547341
 30
0.0
 11
987.9158490628557
 21
642.2635562547341
 31
0.0
  0
LINE
  5
87D
330
883
100
AcDbEntity
  8
0
  6
ByBlock
 62
     7
370
    -2
380
     1
100
AcDbLine
 10
824.9983467727674
 20
417.4607302547342
 30
0.0
 11
987.9158490628557
 21
417.4607302547342
 31
0.0
  0
LINE
  5
87E
330
883
100
AcDbEntity
  8
0
  6
ByBlock
 62
     7
370
    -2
380
     1
100
AcDbLine
 10
986.6658490628557
 20
632.2635562547341
 30
0.0
 11
986.6658490628557
 21
427.4607302547342
 31
0.0
  0
SOLID
  5
87F
330
883
100
AcDbEntity
  8
0
  6
ByBlock
 62
     7
380
     1
100
AcDbTrace
 10
986.6658490628557
 20
642.2635562547341
 30
0.0
 11
984.9991823961891
 21
632.2635562547341
 31
0.0
 12
988.3325157295224
 22
632.2635562547341
 32
0.0
 13
988.3325157295224
 23
632.2635562547341
 33
0.0
  0
SOLID
  5
880
330
883
100
AcDbEntity
  8
0
  6
ByBlock
 62
     7
380
     1
100
AcDbTrace
 10
986.6658490628557
 20
417.4607302547342
 30
0.0
 11
984.9991823961891
 21
427.4607302547342
 31
0.0
 12
988.3325157295224
 22
427.4607302547342
 32
0.0
 13
988.3325157295224
 23
427.4607302547342
 33
0.0
  0
MTEXT
  5
881
330
883
100
AcDbEntity
  8
0
  6
ByBlock
 62
     0
370
    -2
380
     1
100
AcDbMText
 10
975.3658490628558
 20
529.8621432547342
 30
0.0
 40
14.0
 41
0.0
 71
     5
 72
     1
  1
\A1;225
 11
6.123031769111886E-17
 21
1.0
 31
0.0
 73
     1
 44
1.0
  0
ENDBLK
  5
DF0
330
883
100
AcDbEntity
  8
0
100
AcDbBlockEnd
  0
BLOCK
  5
DF1
330
88E
100
AcDbEntity
  8
0
100
AcDbBlockBegin
  2
*D27
 70
     1
 10
0.0
 20
0.0
 30
0.0
  3
*D27
  1

  0
POINT
  5
885
330
88E
100
AcDbEntity
  8
DEFPOINTS
  6
ByBlock
 62
     7
380
     1
100
AcDbPoint
 10
856.6371404780879
 20
642.2635562547341
 30
0.0
  0
POINT
  5
886
330
88E
100
AcDbEntity
  8
DEFPOINTS
  6
ByBlock
 62
     7
380
     1
100
AcDbPoint
 10
824.3733467727674
 20
417.4607302547342
 30
0.0
  0
LINE
  5
887
330
88E
100
AcDbEntity
  8
0
  6
ByBlock
 62
     7
370
    -2
380
     1
100
AcDbLine
 10
857.2621404780879
 20
642.2635562547341
 30
0.0
 11
1035.122074568459
 21
642.2635562547341
 31
0.0
  0
LINE
  5
888
330
88E
100
AcDbEntity
  8
0
  6
ByBlock
 62
     7
370
    -2
380
     1
100
AcDbLine
 10
824.9983467727674
 20
417.4607302547342
 30
0.0
 11
1035.122074568459
 21
417.4607302547342
 31
0.0
  0
LINE
  5
889
330
88E
100
AcDbEntity
  8
0
  6
ByBlock
 62
     7
370
    -2
380
     1
100
AcDbLine
 10
1033.872074568459
 20
632.2635562547341
 30
0.0
 11
1033.872074568459
 21
427.4607302547342
 31
0.0
  0
SOLID
  5
88A
330
88E
100
AcDbEntity
  8
0
  6
ByBlock
 62
     7
380
     1
100
AcDbTrace
 10
1033.872074568459
 20
642.2635562547341
 30
0.0
 11
1032.205407901792
 21
632.2635562547341
 31
0.0
 12
1035.538741235126
 22
632.2635562547341
 32
0.0
 13
1035.538741235126
 23
632.2635562547341
 33
0.0
  0
SOLID
  5
88B
330
88E
100
AcDbEntity
  8
0
  6
ByBlock
 62
     7
380
     1
100
AcDbTrace
 10
1033.872074568459
 20
417.4607302547342
 30
0.0
 11
1032.205407901792
 21
427.4607302547342
 31
0.0
 12
1035.538741235126
 22
427.4607302547342
 32
0.0
 13
1035.538741235126
 23
427.4607302547342
 33
0.0
  0
MTEXT
  5
88C
330
88E
100
AcDbEntity
  8
0
  6
ByBlock
 62
     0
370
    -2
380
     1
100
AcDbMText
 10
1022.572074568459
 20
529.8621432547342
 30
0.0
 40
14.0
 41
0.0
 71
     5
 72
     1
  1
\A1;225
 11
6.123031769111886E-17
 21
1.0
 31
0.0
 73
     1
 44
1.0
  0
ENDBLK
  5
DF2
330
88E
100
AcDbEntity
  8
0
100
AcDbBlockEnd
  0
BLOCK
  5
DF3
330
899
100
AcDbEntity
  8
0
100
AcDbBlockBegin
  2
*D28
 70
     1
 10
0.0
 20
0.0
 30
0.0
  3
*D28
  1

  0
POINT
  5
890
330
899
100
AcDbEntity
  8
DEFPOINTS
  6
ByBlock
 62
     7
380
     1
100
AcDbPoint
 10
856.6371404780879
 20
642.2635562547341
 30
0.0
  0
POINT
  5
891
330
899
100
AcDbEntity
  8
DEFPOINTS
  6
ByBlock
 62
     7
380
     1
100
AcDbPoint
 10
824.3733467727674
 20
417.4607302547342
 30
0.0
  0
LINE
  5
892
330
899
100
AcDbEntity
  8
0
  6
ByBlock
 62
     7
370
    -2
380
     1
100
AcDbLine
 10
857.2621404780879
 20
642.2635562547341
 30
0.0
 11
992.8342217919009
 21
642.2635562547341
 31
0.0
  0
LINE
  5
893
330
899
100
AcDbEntity
  8
0
  6
ByBlock
 62
     7
370
    -2
380
     1
100
AcDbLine
 10
824.9983467727674
 20
417.4607302547342
 30
0.0
 11
992.8342217919009
 21
417.4607302547342
 31
0.0
  0
LINE
  5
894
330
899
100
AcDbEntity
  8
0
  6
ByBlock
 62
     7
370
    -2
380
     1
100
AcDbLine
 10
991.5842217919009
 20
632.2635562547341
 30
0.0
 11
991.5842217919009
 21
427.4607302547342
 31
0.0
  0
SOLID
  5
895
330
899
100
AcDbEntity
  8
0
  6
ByBlock
 62
     7
380
     1
100
AcDbTrace
 10
991.5842217919009
 20
642.2635562547341
 30
0.0
 11
989.9175551252342
 21
632.2635562547341
 31
0.0
 12
993.2508884585675
 22
632.2635562547341
 32
0.0
 13
993.2508884585675
 23
632.2635562547341
 33
0.0
  0
SOLID
  5
896
330
899
100
AcDbEntity
  8
0
  6
ByBlock
 62
     7
380
     1
100
AcDbTrace
 10
991.5842217919009
 20
417.4607302547342
 30
0.0
 11
989.9175551252342
 21
427.4607302547342
 31
0.0
 12
993.2508884585675
 22
427.4607302547342
 32
0.0
 13
993.2508884585675
 23
427.4607302547342
 33
0.0
  0
MTEXT
  5
897
330
899
100
AcDbEntity
  8
0
  6
ByBlock
 62
     0
370
    -2
380
     1
100
AcDbMText
 10
980.2842217919009
 20
529.8621432547342
 30
0.0
 40
14.0
 41
0.0
 71
     5
 72
     1
  1
\A1;225
 11
6.123031769111886E-17
 21
1.0
 31
0.0
 73
     1
 44
1.0
  0
ENDBLK
  5
DF4
330
899
100
AcDbEntity
  8
0
100
AcDbBlockEnd
  0
BLOCK
  5
DF5
330
8A4
100
AcDbEntity
  8
0
100
AcDbBlockBegin
  2
*D29
 70
     1
 10
0.0
 20
0.0
 30
0.0
  3
*D29
  1

  0
POINT
  5
89B
330
8A4
100
AcDbEntity
  8
DEFPOINTS
  6
ByBlock
 62
     7
380
     1
100
AcDbPoint
 10
856.6371404780879
 20
642.2635562547341
 30
0.0
  0
POINT
  5
89C
330
8A4
100
AcDbEntity
  8
DEFPOINTS
  6
ByBlock
 62
     7
380
     1
100
AcDbPoint
 10
824.3733467727674
 20
417.4607302547342
 30
0.0
  0
LINE
  5
89D
330
8A4
100
AcDbEntity
  8
0
  6
ByBlock
 62
     7
370
    -2
380
     1
100
AcDbLine
 10
857.2621404780879
 20
642.2635562547341
 30
0.0
 11
992.8342217919009
 21
642.2635562547341
 31
0.0
  0
LINE
  5
89E
330
8A4
100
AcDbEntity
  8
0
  6
ByBlock
 62
     7
370
    -2
380
     1
100
AcDbLine
 10
824.9983467727674
 20
417.4607302547342
 30
0.0
 11
992.8342217919009
 21
417.4607302547342
 31
0.0
  0
LINE
  5
89F
330
8A4
100
AcDbEntity
  8
0
  6
ByBlock
 62
     7
370
    -2
380
     1
100
AcDbLine
 10
991.5842217919009
 20
632.2635562547341
 30
0.0
 11
991.5842217919009
 21
427.4607302547342
 31
0.0
  0
SOLID
  5
8A0
330
8A4
100
AcDbEntity
  8
0
  6
ByBlock
 62
     7
380
     1
100
AcDbTrace
 10
991.5842217919009
 20
642.2635562547341
 30
0.0
 11
989.9175551252342
 21
632.2635562547341
 31
0.0
 12
993.2508884585675
 22
632.2635562547341
 32
0.0
 13
993.2508884585675
 23
632.2635562547341
 33
0.0
  0
SOLID
  5
8A1
330
8A4
100
AcDbEntity
  8
0
  6
ByBlock
 62
     7
380
     1
100
AcDbTrace
 10
991.5842217919009
 20
417.4607302547342
 30
0.0
 11
989.9175551252342
 21
427.4607302547342
 31
0.0
 12
993.2508884585675
 22
427.4607302547342
 32
0.0
 13
993.2508884585675
 23
427.4607302547342
 33
0.0
  0
MTEXT
  5
8A2
330
8A4
100
AcDbEntity
  8
0
  6
ByBlock
 62
     0
370
    -2
380
     1
100
AcDbMText
 10
980.2842217919009
 20
529.8621432547342
 30
0.0
 40
14.0
 41
0.0
 71
     5
 72
     1
  1
\A1;225
 11
6.123031769111886E-17
 21
1.0
 31
0.0
 73
     1
 44
1.0
  0
ENDBLK
  5
DF6
330
8A4
100
AcDbEntity
  8
0
100
AcDbBlockEnd
  0
BLOCK
  5
DF7
330
8B0
100
AcDbEntity
  8
0
100
AcDbBlockBegin
  2
*D30
 70
     1
 10
0.0
 20
0.0
 30
0.0
  3
*D30
  1

  0
POINT
  5
8A7
330
8B0
100
AcDbEntity
  8
DEFPOINTS
  6
ByBlock
 62
     0
380
     1
100
AcDbPoint
 10
1035.417598329388
 20
567.5016082547342
 30
0.0
  0
POINT
  5
8A8
330
8B0
100
AcDbEntity
  8
DEFPOINTS
  6
ByBlock
 62
     0
380
     1
100
AcDbPoint
 10
1172.969417289843
 20
497.5519831055303
 30
0.0
  0
LINE
  5
8A9
330
8B0
100
AcDbEntity
  8
0
  6
ByBlock
 62
     0
370
    -2
380
     1
100
AcDbLine
 10
1035.417598329388
 20
568.1266082547342
 30
0.0
 11
1035.417598329388
 21
663.3038674908669
 31
0.0
  0
LINE
  5
8AA
330
8B0
100
AcDbEntity
  8
0
  6
ByBlock
 62
     0
370
    -2
380
     1
100
AcDbLine
 10
1172.969417289843
 20
498.1769831055303
 30
0.0
 11
1172.969417289843
 21
663.3038674908669
 31
0.0
  0
LINE
  5
8AB
330
8B0
100
AcDbEntity
  8
0
  6
ByBlock
 62
     0
370
    -2
380
     1
100
AcDbLine
 10
1037.917598329388
 20
662.0538674908669
 30
0.0
 11
1170.469417289843
 21
662.0538674908669
 31
0.0
  0
SOLID
  5
8AC
330
8B0
100
AcDbEntity
  8
0
  6
ByBlock
 62
     0
380
     1
100
AcDbTrace
 10
1035.417598329388
 20
662.0538674908669
 30
0.0
 11
1037.917598329388
 21
661.6372008242002
 31
0.0
 12
1037.917598329388
 22
662.4705341575335
 32
0.0
 13
1037.917598329388
 23
662.4705341575335
 33
0.0
  0
SOLID
  5
8AD
330
8B0
100
AcDbEntity
  8
0
  6
ByBlock
 62
     0
380
     1
100
AcDbTrace
 10
1172.969417289843
 20
662.0538674908669
 30
0.0
 11
1170.469417289843
 21
661.6372008242002
 31
0.0
 12
1170.469417289843
 22
662.4705341575335
 32
0.0
 13
1170.469417289843
 23
662.4705341575335
 33
0.0
  0
MTEXT
  5
8AE
330
8B0
100
AcDbEntity
  8
0
  6
ByBlock
 62
     0
370
    -2
380
     1
100
AcDbMText
 10
1104.193507809615
 20
664.0538674908669
 30
0.0
 40
2.5
 41
0.0
 71
     5
 72
     1
  1
\A1;137,55
 73
     1
 44
1.0
  0
ENDBLK
  5
DF8
330
8B0
100
AcDbEntity
  8
0
100
AcDbBlockEnd
  0
BLOCK
  5
DF9
330
8BC
100
AcDbEntity
  8
0
100
AcDbBlockBegin
  2
*D31
 70
     1
 10
0.0
 20
0.0
 30
0.0
  3
*D31
  1

  0
POINT
  5
8B3
330
8BC
100
AcDbEntity
  8
DEFPOINTS
  6
ByBlock
 62
     0
380
     1
100
AcDbPoint
 10
1035.417598329388
 20
567.5016082547342
 30
0.0
  0
POINT
  5
8B4
330
8BC
100
AcDbEntity
  8
DEFPOINTS
  6
ByBlock
 62
     0
380
     1
100
AcDbPoint
 10
1172.969417289843
 20
497.5519831055303
 30
0.0
  0
LINE
  5
8B5
330
8BC
100
AcDbEntity
  8
0
  6
ByBlock
 62
     0
370
    -2
380
     1
100
AcDbLine
 10
1035.417598329388
 20
568.1266082547342
 30
0.0
 11
1035.417598329388
 21
674.1642375634842
 31
0.0
  0
LINE
  5
8B6
330
8BC
100
AcDbEntity
  8
0
  6
ByBlock
 62
     0
370
    -2
380
     1
100
AcDbLine
 10
1172.969417289843
 20
498.1769831055303
 30
0.0
 11
1172.969417289843
 21
674.1642375634842
 31
0.0
  0
LINE
  5
8B7
330
8BC
100
AcDbEntity
  8
0
  6
ByBlock
 62
     0
370
    -2
380
     1
100
AcDbLine
 10
1037.917598329388
 20
672.9142375634842
 30
0.0
 11
1170.469417289843
 21
672.9142375634842
 31
0.0
  0
SOLID
  5
8B8
330
8BC
100
AcDbEntity
  8
0
  6
ByBlock
 62
     0
380
     1
100
AcDbTrace
 10
1035.417598329388
 20
672.9142375634842
 30
0.0
 11
1037.917598329388
 21
672.4975708968176
 31
0.0
 12
1037.917598329388
 22
673.3309042301508
 32
0.0
 13
1037.917598329388
 23
673.3309042301508
 33
0.0
  0
SOLID
  5
8B9
330
8BC
100
AcDbEntity
  8
0
  6
ByBlock
 62
     0
380
     1
100
AcDbTrace
 10
1172.969417289843
 20
672.9142375634842
 30
0.0
 11
1170.469417289843
 21
672.4975708968176
 31
0.0
 12
1170.469417289843
 22
673.3309042301508
 32
0.0
 13
1170.469417289843
 23
673.3309042301508
 33
0.0
  0
MTEXT
  5
8BA
330
8BC
100
AcDbEntity
  8
0
  6
ByBlock
 62
     0
370
    -2
380
     1
100
AcDbMText
 10
1104.193507809615
 20
674.9142375634842
 30
0.0
 40
2.5
 41
0.0
 71
     5
 72
     1
  1
\A1;137,55
 73
     1
 44
1.0
  0
ENDBLK
  5
DFA
330
8BC
100
AcDbEntity
  8
0
100
AcDbBlockEnd
  0
BLOCK
  5
DFB
330
8C7
100
AcDbEntity
  8
0
100
AcDbBlockBegin
  2
*D32
 70
     1
 10
0.0
 20
0.0
 30
0.0
  3
*D32
  1

  0
POINT
  5
8BE
330
8C7
100
AcDbEntity
  8
DEFPOINTS
  6
ByBlock
 62
     0
380
     1
100
AcDbPoint
 10
1035.417598329388
 20
567.5016082547342
 30
0.0
  0
POINT
  5
8BF
330
8C7
100
AcDbEntity
  8
DEFPOINTS
  6
ByBlock
 62
     0
380
     1
100
AcDbPoint
 10
1172.969417289843
 20
497.5519831055303
 30
0.0
  0
LINE
  5
8C0
330
8C7
100
AcDbEntity
  8
0
  6
ByBlock
 62
     0
370
    -2
380
     1
100
AcDbLine
 10
1035.417598329388
 20
568.1266082547342
 30
0.0
 11
1035.417598329388
 21
674.1642375634842
 31
0.0
  0
LINE
  5
8C1
330
8C7
100
AcDbEntity
  8
0
  6
ByBlock
 62
     0
370
    -2
380
     1
100
AcDbLine
 10
1172.969417289843
 20
498.1769831055303
 30
0.0
 11
1172.969417289843
 21
674.1642375634842
 31
0.0
  0
LINE
  5
8C2
330
8C7
100
AcDbEntity
  8
0
  6
ByBlock
 62
     0
370
    -2
380
     1
100
AcDbLine
 10
1037.917598329388
 20
672.9142375634842
 30
0.0
 11
1170.469417289843
 21
672.9142375634842
 31
0.0
  0
SOLID
  5
8C3
330
8C7
100
AcDbEntity
  8
0
  6
ByBlock
 62
     0
380
     1
100
AcDbTrace
 10
1035.417598329388
 20
672.9142375634842
 30
0.0
 11
1037.917598329388
 21
672.4975708968176
 31
0.0
 12
1037.917598329388
 22
673.3309042301508
 32
0.0
 13
1037.917598329388
 23
673.3309042301508
 33
0.0
  0
SOLID
  5
8C4
330
8C7
100
AcDbEntity
  8
0
  6
ByBlock
 62
     0
380
     1
100
AcDbTrace
 10
1172.969417289843
 20
672.9142375634842
 30
0.0
 11
1170.469417289843
 21
672.4975708968176
 31
0.0
 12
1170.469417289843
 22
673.3309042301508
 32
0.0
 13
1170.469417289843
 23
673.3309042301508
 33
0.0
  0
MTEXT
  5
8C5
330
8C7
100
AcDbEntity
  8
0
  6
ByBlock
 62
     0
370
    -2
380
     1
100
AcDbMText
 10
1104.193507809615
 20
674.9142375634842
 30
0.0
 40
2.5
 41
0.0
 71
     5
 72
     1
  1
\A1;137,55
 73
     1
 44
1.0
  0
ENDBLK
  5
DFC
330
8C7
100
AcDbEntity
  8
0
100
AcDbBlockEnd
  0
BLOCK
  5
DFD
330
8D2
100
AcDbEntity
  8
0
100
AcDbBlockBegin
  2
*D33
 70
     1
 10
0.0
 20
0.0
 30
0.0
  3
*D33
  1

  0
POINT
  5
8C9
330
8D2
100
AcDbEntity
  8
DEFPOINTS
  6
ByBlock
 62
     7
380
     1
100
AcDbPoint
 10
1035.417598329388
 20
567.5016082547342
 30
0.0
  0
POINT
  5
8CA
330
8D2
100
AcDbEntity
  8
DEFPOINTS
  6
ByBlock
 62
     7
380
     1
100
AcDbPoint
 10
1172.969417289843
 20
497.5519831055303
 30
0.0
  0
LINE
  5
8CB
330
8D2
100
AcDbEntity
  8
0
  6
ByBlock
 62
     7
370
    -2
380
     1
100
AcDbLine
 10
1035.417598329388
 20
568.1266082547342
 30
0.0
 11
1035.417598329388
 21
674.1642375634842
 31
0.0
  0
LINE
  5
8CC
330
8D2
100
AcDbEntity
  8
0
  6
ByBlock
 62
     7
370
    -2
380
     1
100
AcDbLine
 10
1172.969417289843
 20
498.1769831055303
 30
0.0
 11
1172.969417289843
 21
674.1642375634842
 31
0.0
  0
LINE
  5
8CD
330
8D2
100
AcDbEntity
  8
0
  6
ByBlock
 62
     7
370
    -2
380
     1
100
AcDbLine
 10
1045.417598329388
 20
672.9142375634842
 30
0.0
 11
1162.969417289843
 21
672.9142375634842
 31
0.0
  0
SOLID
  5
8CE
330
8D2
100
AcDbEntity
  8
0
  6
ByBlock
 62
     7
380
     1
100
AcDbTrace
 10
1035.417598329388
 20
672.9142375634842
 30
0.0
 11
1045.417598329388
 21
671.2475708968176
 31
0.0
 12
1045.417598329388
 22
674.5809042301508
 32
0.0
 13
1045.417598329388
 23
674.5809042301508
 33
0.0
  0
SOLID
  5
8CF
330
8D2
100
AcDbEntity
  8
0
  6
ByBlock
 62
     7
380
     1
100
AcDbTrace
 10
1172.969417289843
 20
672.9142375634842
 30
0.0
 11
1162.969417289843
 21
671.2475708968176
 31
0.0
 12
1162.969417289843
 22
674.5809042301508
 32
0.0
 13
1162.969417289843
 23
674.5809042301508
 33
0.0
  0
MTEXT
  5
8D0
330
8D2
100
AcDbEntity
  8
0
  6
ByBlock
 62
     0
370
    -2
380
     1
100
AcDbMText
 10
1104.193507809615
 20
684.2142375634842
 30
0.0
 40
14.0
 41
0.0
 71
     5
 72
     1
  1
\A1;138
 73
     1
 44
1.0
  0
ENDBLK
  5
DFE
330
8D2
100
AcDbEntity
  8
0
100
AcDbBlockEnd
  0
BLOCK
  5
DFF
330
8DD
100
AcDbEntity
  8
0
100
AcDbBlockBegin
  2
*D34
 70
     1
 10
0.0
 20
0.0
 30
0.0
  3
*D34
  1

  0
POINT
  5
8D4
330
8DD
100
AcDbEntity
  8
DEFPOINTS
  6
ByBlock
 62
     7
380
     1
100
AcDbPoint
 10
1035.417598329388
 20
567.5016082547342
 30
0.0
  0
POINT
  5
8D5
330
8DD
100
AcDbEntity
  8
DEFPOINTS
  6
ByBlock
 62
     7
380
     1
100
AcDbPoint
 10
1172.969417289843
 20
497.5519831055303
 30
0.0
  0
LINE
  5
8D6
330
8DD
100
AcDbEntity
  8
0
  6
ByBlock
 62
     7
370
    -2
380
     1
100
AcDbLine
 10
1035.417598329388
 20
568.1266082547342
 30
0.0
 11
1035.417598329388
 21
674.1642375634842
 31
0.0
  0
LINE
  5
8D7
330
8DD
100
AcDbEntity
  8
0
  6
ByBlock
 62
     7
370
    -2
380
     1
100
AcDbLine
 10
1172.969417289843
 20
498.1769831055303
 30
0.0
 11
1172.969417289843
 21
674.1642375634842
 31
0.0
  0
LINE
  5
8D8
330
8DD
100
AcDbEntity
  8
0
  6
ByBlock
 62
     7
370
    -2
380
     1
100
AcDbLine
 10
1045.417598329388
 20
672.9142375634842
 30
0.0
 11
1162.969417289843
 21
672.9142375634842
 31
0.0
  0
SOLID
  5
8D9
330
8DD
100
AcDbEntity
  8
0
  6
ByBlock
 62
     7
380
     1
100
AcDbTrace
 10
1035.417598329388
 20
672.9142375634842
 30
0.0
 11
1045.417598329388
 21
671.2475708968176
 31
0.0
 12
1045.417598329388
 22
674.5809042301508
 32
0.0
 13
1045.417598329388
 23
674.5809042301508
 33
0.0
  0
SOLID
  5
8DA
330
8DD
100
AcDbEntity
  8
0
  6
ByBlock
 62
     7
380
     1
100
AcDbTrace
 10
1172.969417289843
 20
672.9142375634842
 30
0.0
 11
1162.969417289843
 21
671.2475708968176
 31
0.0
 12
1162.969417289843
 22
674.5809042301508
 32
0.0
 13
1162.969417289843
 23
674.5809042301508
 33
0.0
  0
MTEXT
  5
8DB
330
8DD
100
AcDbEntity
  8
0
  6
ByBlock
 62
     0
370
    -2
380
     1
100
AcDbMText
 10
1098.778130570485
 20
684.2142375634842
 30
0.0
 40
14.0
 41
0.0
 71
     5
 72
     1
  1
\A1;138
 73
     1
 44
1.0
  0
ENDBLK
  5
E00
330
8DD
100
AcDbEntity
  8
0
100
AcDbBlockEnd
  0
BLOCK
  5
E01
330
986
100
AcDbEntity
  8
0
100
AcDbBlockBegin
  2
*D35
 70
     1
 10
0.0
 20
0.0
 30
0.0
  3
*D35
  1

  0
POINT
  5
97D
330
986
100
AcDbEntity
  8
DEFPOINTS
  6
ByBlock
 62
     7
380
     1
100
AcDbPoint
 10
682.8619166450172
 20
485.8846474857474
 30
0.0
  0
POINT
  5
97E
330
986
100
AcDbEntity
  8
DEFPOINTS
  6
ByBlock
 62
     7
380
     1
100
AcDbPoint
 10
962.8561124780879
 20
487.5708222547342
 30
0.0
  0
LINE
  5
97F
330
986
100
AcDbEntity
  8
0
  6
ByBlock
 62
     7
370
    -2
380
     1
100
AcDbLine
 10
682.8619166450172
 20
486.5096474857474
 30
0.0
 11
682.8619166450172
 21
674.1642375634842
 31
0.0
  0
LINE
  5
980
330
986
100
AcDbEntity
  8
0
  6
ByBlock
 62
     7
370
    -2
380
     1
100
AcDbLine
 10
962.8561124780879
 20
488.1958222547342
 30
0.0
 11
962.8561124780879
 21
674.1642375634842
 31
0.0
  0
LINE
  5
981
330
986
100
AcDbEntity
  8
0
  6
ByBlock
 62
     7
370
    -2
380
     1
100
AcDbLine
 10
692.8619166450172
 20
672.9142375634842
 30
0.0
 11
952.8561124780879
 21
672.9142375634842
 31
0.0
  0
SOLID
  5
982
330
986
100
AcDbEntity
  8
0
  6
ByBlock
 62
     7
380
     1
100
AcDbTrace
 10
682.8619166450172
 20
672.9142375634842
 30
0.0
 11
692.8619166450172
 21
671.2475708968176
 31
0.0
 12
692.8619166450172
 22
674.5809042301508
 32
0.0
 13
692.8619166450172
 23
674.5809042301508
 33
0.0
  0
SOLID
  5
983
330
986
100
AcDbEntity
  8
0
  6
ByBlock
 62
     7
380
     1
100
AcDbTrace
 10
962.8561124780879
 20
672.9142375634842
 30
0.0
 11
952.8561124780879
 21
671.2475708968176
 31
0.0
 12
952.8561124780879
 22
674.5809042301508
 32
0.0
 13
952.8561124780879
 23
674.5809042301508
 33
0.0
  0
MTEXT
  5
984
330
986
100
AcDbEntity
  8
0
  6
ByBlock
 62
     0
370
    -2
380
     1
100
AcDbMText
 10
822.8590145615526
 20
699.1284107918307
 30
0.0
 40
36.0
 41
0.0
 71
     5
 72
     1
  1
\A1;280
 73
     1
 44
1.0
  0
ENDBLK
  5
E02
330
986
100
AcDbEntity
  8
0
100
AcDbBlockEnd
  0
BLOCK
  5
E03
330
991
100
AcDbEntity
  8
0
100
AcDbBlockBegin
  2
*D36
 70
     1
 10
0.0
 20
0.0
 30
0.0
  3
*D36
  1

  0
POINT
  5
988
330
991
100
AcDbEntity
  8
DEFPOINTS
  6
ByBlock
 62
     7
380
     1
100
AcDbPoint
 10
1035.417598329388
 20
567.5016082547342
 30
0.0
  0
POINT
  5
989
330
991
100
AcDbEntity
  8
DEFPOINTS
  6
ByBlock
 62
     7
380
     1
100
AcDbPoint
 10
1172.969417289843
 20
497.5519831055303
 30
0.0
  0
LINE
  5
98A
330
991
100
AcDbEntity
  8
0
  6
ByBlock
 62
     7
370
    -2
380
     1
100
AcDbLine
 10
1035.417598329388
 20
568.1266082547342
 30
0.0
 11
1035.417598329388
 21
674.1642375634842
 31
0.0
  0
LINE
  5
98B
330
991
100
AcDbEntity
  8
0
  6
ByBlock
 62
     7
370
    -2
380
     1
100
AcDbLine
 10
1172.969417289843
 20
498.1769831055303
 30
0.0
 11
1172.969417289843
 21
674.1642375634842
 31
0.0
  0
LINE
  5
98C
330
991
100
AcDbEntity
  8
0
  6
ByBlock
 62
     7
370
    -2
380
     1
100
AcDbLine
 10
1045.417598329388
 20
672.9142375634842
 30
0.0
 11
1162.969417289843
 21
672.9142375634842
 31
0.0
  0
SOLID
  5
98D
330
991
100
AcDbEntity
  8
0
  6
ByBlock
 62
     7
380
     1
100
AcDbTrace
 10
1035.417598329388
 20
672.9142375634842
 30
0.0
 11
1045.417598329388
 21
671.2475708968176
 31
0.0
 12
1045.417598329388
 22
674.5809042301508
 32
0.0
 13
1045.417598329388
 23
674.5809042301508
 33
0.0
  0
SOLID
  5
98E
330
991
100
AcDbEntity
  8
0
  6
ByBlock
 62
     7
380
     1
100
AcDbTrace
 10
1172.969417289843
 20
672.9142375634842
 30
0.0
 11
1162.969417289843
 21
671.2475708968176
 31
0.0
 12
1162.969417289843
 22
674.5809042301508
 32
0.0
 13
1162.969417289843
 23
674.5809042301508
 33
0.0
  0
MTEXT
  5
98F
330
991
100
AcDbEntity
  8
0
  6
ByBlock
 62
     0
370
    -2
380
     1
100
AcDbMText
 10
1098.778130570485
 20
684.2142375634842
 30
0.0
 40
14.0
 41
0.0
 71
     5
 72
     1
  1
\A1;138
 73
     1
 44
1.0
  0
ENDBLK
  5
E04
330
991
100
AcDbEntity
  8
0
100
AcDbBlockEnd
  0
BLOCK
  5
E05
330
99C
100
AcDbEntity
  8
0
100
AcDbBlockBegin
  2
*D37
 70
     1
 10
0.0
 20
0.0
 30
0.0
  3
*D37
  1

  0
POINT
  5
993
330
99C
100
AcDbEntity
  8
DEFPOINTS
  6
ByBlock
 62
     7
380
     1
100
AcDbPoint
 10
856.6371404780879
 20
642.2635562547341
 30
0.0
  0
POINT
  5
994
330
99C
100
AcDbEntity
  8
DEFPOINTS
  6
ByBlock
 62
     7
380
     1
100
AcDbPoint
 10
824.3733467727674
 20
417.4607302547342
 30
0.0
  0
LINE
  5
995
330
99C
100
AcDbEntity
  8
0
  6
ByBlock
 62
     7
370
    -2
380
     1
100
AcDbLine
 10
857.2621404780879
 20
642.2635562547341
 30
0.0
 11
992.8342217919009
 21
642.2635562547341
 31
0.0
  0
LINE
  5
996
330
99C
100
AcDbEntity
  8
0
  6
ByBlock
 62
     7
370
    -2
380
     1
100
AcDbLine
 10
824.9983467727674
 20
417.4607302547342
 30
0.0
 11
992.8342217919009
 21
417.4607302547342
 31
0.0
  0
LINE
  5
997
330
99C
100
AcDbEntity
  8
0
  6
ByBlock
 62
     7
370
    -2
380
     1
100
AcDbLine
 10
991.5842217919009
 20
632.2635562547341
 30
0.0
 11
991.5842217919009
 21
427.4607302547342
 31
0.0
  0
SOLID
  5
998
330
99C
100
AcDbEntity
  8
0
  6
ByBlock
 62
     7
380
     1
100
AcDbTrace
 10
991.5842217919009
 20
642.2635562547341
 30
0.0
 11
989.9175551252342
 21
632.2635562547341
 31
0.0
 12
993.2508884585675
 22
632.2635562547341
 32
0.0
 13
993.2508884585675
 23
632.2635562547341
 33
0.0
  0
SOLID
  5
999
330
99C
100
AcDbEntity
  8
0
  6
ByBlock
 62
     7
380
     1
100
AcDbTrace
 10
991.5842217919009
 20
417.4607302547342
 30
0.0
 11
989.9175551252342
 21
427.4607302547342
 31
0.0
 12
993.2508884585675
 22
427.4607302547342
 32
0.0
 13
993.2508884585675
 23
427.4607302547342
 33
0.0
  0
MTEXT
  5
99A
330
99C
100
AcDbEntity
  8
0
  6
ByBlock
 62
     0
370
    -2
380
     1
100
AcDbMText
 10
980.2842217919009
 20
529.8621432547342
 30
0.0
 40
14.0
 41
0.0
 71
     5
 72
     1
  1
\A1;225
 11
6.123031769111886E-17
 21
1.0
 31
0.0
 73
     1
 44
1.0
  0
ENDBLK
  5
E06
330
99C
100
AcDbEntity
  8
0
100
AcDbBlockEnd
  0
BLOCK
  5
E07
330
9A7
100
AcDbEntity
  8
0
100
AcDbBlockBegin
  2
*D38
 70
     1
 10
0.0
 20
0.0
 30
0.0
  3
*D38
  1

  0
POINT
  5
99E
330
9A7
100
AcDbEntity
  8
DEFPOINTS
  6
ByBlock
 62
     7
380
     1
100
AcDbPoint
 10
682.8619166450172
 20
485.8846474857474
 30
0.0
  0
POINT
  5
99F
330
9A7
100
AcDbEntity
  8
DEFPOINTS
  6
ByBlock
 62
     7
380
     1
100
AcDbPoint
 10
962.8561124780879
 20
487.5708222547342
 30
0.0
  0
LINE
  5
9A0
330
9A7
100
AcDbEntity
  8
0
  6
ByBlock
 62
     7
370
    -2
380
     1
100
AcDbLine
 10
682.8619166450172
 20
486.5096474857474
 30
0.0
 11
682.8619166450172
 21
674.1642375634842
 31
0.0
  0
LINE
  5
9A1
330
9A7
100
AcDbEntity
  8
0
  6
ByBlock
 62
     7
370
    -2
380
     1
100
AcDbLine
 10
962.8561124780879
 20
488.1958222547342
 30
0.0
 11
962.8561124780879
 21
674.1642375634842
 31
0.0
  0
LINE
  5
9A2
330
9A7
100
AcDbEntity
  8
0
  6
ByBlock
 62
     7
370
    -2
380
     1
100
AcDbLine
 10
692.8619166450172
 20
672.9142375634842
 30
0.0
 11
952.8561124780879
 21
672.9142375634842
 31
0.0
  0
SOLID
  5
9A3
330
9A7
100
AcDbEntity
  8
0
  6
ByBlock
 62
     7
380
     1
100
AcDbTrace
 10
682.8619166450172
 20
672.9142375634842
 30
0.0
 11
692.8619166450172
 21
671.2475708968176
 31
0.0
 12
692.8619166450172
 22
674.5809042301508
 32
0.0
 13
692.8619166450172
 23
674.5809042301508
 33
0.0
  0
SOLID
  5
9A4
330
9A7
100
AcDbEntity
  8
0
  6
ByBlock
 62
     7
380
     1
100
AcDbTrace
 10
962.8561124780879
 20
672.9142375634842
 30
0.0
 11
952.8561124780879
 21
671.2475708968176
 31
0.0
 12
952.8561124780879
 22
674.5809042301508
 32
0.0
 13
952.8561124780879
 23
674.5809042301508
 33
0.0
  0
MTEXT
  5
9A5
330
9A7
100
AcDbEntity
  8
0
  6
ByBlock
 62
     0
370
    -2
380
     1
100
AcDbMText
 10
822.8590145615526
 20
699.1284107918307
 30
0.0
 40
36.0
 41
0.0
 71
     5
 72
     1
  1
\A1;280
 73
     1
 44
1.0
  0
ENDBLK
  5
E08
330
9A7
100
AcDbEntity
  8
0
100
AcDbBlockEnd
  0
BLOCK
  5
E09
330
9B2
100
AcDbEntity
  8
0
100
AcDbBlockBegin
  2
*D39
 70
     1
 10
0.0
 20
0.0
 30
0.0
  3
*D39
  1

  0
POINT
  5
9A9
330
9B2
100
AcDbEntity
  8
DEFPOINTS
  6
ByBlock
 62
     7
380
     1
100
AcDbPoint
 10
1035.417598329388
 20
567.5016082547342
 30
0.0
  0
POINT
  5
9AA
330
9B2
100
AcDbEntity
  8
DEFPOINTS
  6
ByBlock
 62
     7
380
     1
100
AcDbPoint
 10
1172.969417289843
 20
497.5519831055303
 30
0.0
  0
LINE
  5
9AB
330
9B2
100
AcDbEntity
  8
0
  6
ByBlock
 62
     7
370
    -2
380
     1
100
AcDbLine
 10
1035.417598329388
 20
568.1266082547342
 30
0.0
 11
1035.417598329388
 21
674.1642375634842
 31
0.0
  0
LINE
  5
9AC
330
9B2
100
AcDbEntity
  8
0
  6
ByBlock
 62
     7
370
    -2
380
     1
100
AcDbLine
 10
1172.969417289843
 20
498.1769831055303
 30
0.0
 11
1172.969417289843
 21
674.1642375634842
 31
0.0
  0
LINE
  5
9AD
330
9B2
100
AcDbEntity
  8
0
  6
ByBlock
 62
     7
370
    -2
380
     1
100
AcDbLine
 10
1045.417598329388
 20
672.9142375634842
 30
0.0
 11
1162.969417289843
 21
672.9142375634842
 31
0.0
  0
SOLID
  5
9AE
330
9B2
100
AcDbEntity
  8
0
  6
ByBlock
 62
     7
380
     1
100
AcDbTrace
 10
1035.417598329388
 20
672.9142375634842
 30
0.0
 11
1045.417598329388
 21
671.2475708968176
 31
0.0
 12
1045.417598329388
 22
674.5809042301508
 32
0.0
 13
1045.417598329388
 23
674.5809042301508
 33
0.0
  0
SOLID
  5
9AF
330
9B2
100
AcDbEntity
  8
0
  6
ByBlock
 62
     7
380
     1
100
AcDbTrace
 10
1172.969417289843
 20
672.9142375634842
 30
0.0
 11
1162.969417289843
 21
671.2475708968176
 31
0.0
 12
1162.969417289843
 22
674.5809042301508
 32
0.0
 13
1162.969417289843
 23
674.5809042301508
 33
0.0
  0
MTEXT
  5
9B0
330
9B2
100
AcDbEntity
  8
0
  6
ByBlock
 62
     0
370
    -2
380
     1
100
AcDbMText
 10
1098.778130570485
 20
684.2142375634842
 30
0.0
 40
14.0
 41
0.0
 71
     5
 72
     1
  1
\A1;138
 73
     1
 44
1.0
  0
ENDBLK
  5
E0A
330
9B2
100
AcDbEntity
  8
0
100
AcDbBlockEnd
  0
BLOCK
  5
E0B
330
9BD
100
AcDbEntity
  8
0
100
AcDbBlockBegin
  2
*D40
 70
     1
 10
0.0
 20
0.0
 30
0.0
  3
*D40
  1

  0
POINT
  5
9B4
330
9BD
100
AcDbEntity
  8
DEFPOINTS
  6
ByBlock
 62
     7
380
     1
100
AcDbPoint
 10
856.6371404780879
 20
642.2635562547341
 30
0.0
  0
POINT
  5
9B5
330
9BD
100
AcDbEntity
  8
DEFPOINTS
  6
ByBlock
 62
     7
380
     1
100
AcDbPoint
 10
824.3733467727674
 20
417.4607302547342
 30
0.0
  0
LINE
  5
9B6
330
9BD
100
AcDbEntity
  8
0
  6
ByBlock
 62
     7
370
    -2
380
     1
100
AcDbLine
 10
857.2621404780879
 20
642.2635562547341
 30
0.0
 11
992.8342217919009
 21
642.2635562547341
 31
0.0
  0
LINE
  5
9B7
330
9BD
100
AcDbEntity
  8
0
  6
ByBlock
 62
     7
370
    -2
380
     1
100
AcDbLine
 10
824.9983467727674
 20
417.4607302547342
 30
0.0
 11
992.8342217919009
 21
417.4607302547342
 31
0.0
  0
LINE
  5
9B8
330
9BD
100
AcDbEntity
  8
0
  6
ByBlock
 62
     7
370
    -2
380
     1
100
AcDbLine
 10
991.5842217919009
 20
632.2635562547341
 30
0.0
 11
991.5842217919009
 21
427.4607302547342
 31
0.0
  0
SOLID
  5
9B9
330
9BD
100
AcDbEntity
  8
0
  6
ByBlock
 62
     7
380
     1
100
AcDbTrace
 10
991.5842217919009
 20
642.2635562547341
 30
0.0
 11
989.9175551252342
 21
632.2635562547341
 31
0.0
 12
993.2508884585675
 22
632.2635562547341
 32
0.0
 13
993.2508884585675
 23
632.2635562547341
 33
0.0
  0
SOLID
  5
9BA
330
9BD
100
AcDbEntity
  8
0
  6
ByBlock
 62
     7
380
     1
100
AcDbTrace
 10
991.5842217919009
 20
417.4607302547342
 30
0.0
 11
989.9175551252342
 21
427.4607302547342
 31
0.0
 12
993.2508884585675
 22
427.4607302547342
 32
0.0
 13
993.2508884585675
 23
427.4607302547342
 33
0.0
  0
MTEXT
  5
9BB
330
9BD
100
AcDbEntity
  8
0
  6
ByBlock
 62
     0
370
    -2
380
     1
100
AcDbMText
 10
980.2842217919009
 20
529.8621432547342
 30
0.0
 40
14.0
 41
0.0
 71
     5
 72
     1
  1
\A1;225
 11
6.123031769111886E-17
 21
1.0
 31
0.0
 73
     1
 44
1.0
  0
ENDBLK
  5
E0C
330
9BD
100
AcDbEntity
  8
0
100
AcDbBlockEnd
  0
BLOCK
  5
E0D
330
9C8
100
AcDbEntity
  8
0
100
AcDbBlockBegin
  2
*D41
 70
     1
 10
0.0
 20
0.0
 30
0.0
  3
*D41
  1

  0
POINT
  5
9BF
330
9C8
100
AcDbEntity
  8
DEFPOINTS
  6
ByBlock
 62
     7
380
     1
100
AcDbPoint
 10
682.8619166450172
 20
485.8846474857474
 30
0.0
  0
POINT
  5
9C0
330
9C8
100
AcDbEntity
  8
DEFPOINTS
  6
ByBlock
 62
     7
380
     1
100
AcDbPoint
 10
962.8561124780879
 20
487.5708222547342
 30
0.0
  0
LINE
  5
9C1
330
9C8
100
AcDbEntity
  8
0
  6
ByBlock
 62
     7
370
    -2
380
     1
100
AcDbLine
 10
682.8619166450172
 20
486.5096474857474
 30
0.0
 11
682.8619166450172
 21
674.1642375634842
 31
0.0
  0
LINE
  5
9C2
330
9C8
100
AcDbEntity
  8
0
  6
ByBlock
 62
     7
370
    -2
380
     1
100
AcDbLine
 10
962.8561124780879
 20
488.1958222547342
 30
0.0
 11
962.8561124780879
 21
674.1642375634842
 31
0.0
  0
LINE
  5
9C3
330
9C8
100
AcDbEntity
  8
0
  6
ByBlock
 62
     7
370
    -2
380
     1
100
AcDbLine
 10
692.8619166450172
 20
672.9142375634842
 30
0.0
 11
952.8561124780879
 21
672.9142375634842
 31
0.0
  0
SOLID
  5
9C4
330
9C8
100
AcDbEntity
  8
0
  6
ByBlock
 62
     7
380
     1
100
AcDbTrace
 10
682.8619166450172
 20
672.9142375634842
 30
0.0
 11
692.8619166450172
 21
671.2475708968176
 31
0.0
 12
692.8619166450172
 22
674.5809042301508
 32
0.0
 13
692.8619166450172
 23
674.5809042301508
 33
0.0
  0
SOLID
  5
9C5
330
9C8
100
AcDbEntity
  8
0
  6
ByBlock
 62
     7
380
     1
100
AcDbTrace
 10
962.8561124780879
 20
672.9142375634842
 30
0.0
 11
952.8561124780879
 21
671.2475708968176
 31
0.0
 12
952.8561124780879
 22
674.5809042301508
 32
0.0
 13
952.8561124780879
 23
674.5809042301508
 33
0.0
  0
MTEXT
  5
9C6
330
9C8
100
AcDbEntity
  8
0
  6
ByBlock
 62
     0
370
    -2
380
     1
100
AcDbMText
 10
822.8590145615526
 20
699.1284107918307
 30
0.0
 40
36.0
 41
0.0
 71
     5
 72
     1
  1
\A1;280
 73
     1
 44
1.0
  0
ENDBLK
  5
E0E
330
9C8
100
AcDbEntity
  8
0
100
AcDbBlockEnd
  0
BLOCK
  5
E0F
330
9D3
100
AcDbEntity
  8
0
100
AcDbBlockBegin
  2
*D42
 70
     1
 10
0.0
 20
0.0
 30
0.0
  3
*D42
  1

  0
POINT
  5
9CA
330
9D3
100
AcDbEntity
  8
DEFPOINTS
  6
ByBlock
 62
     7
380
     1
100
AcDbPoint
 10
682.8619166450172
 20
485.8846474857474
 30
0.0
  0
POINT
  5
9CB
330
9D3
100
AcDbEntity
  8
DEFPOINTS
  6
ByBlock
 62
     7
380
     1
100
AcDbPoint
 10
962.8561124780879
 20
487.5708222547342
 30
0.0
  0
LINE
  5
9CC
330
9D3
100
AcDbEntity
  8
0
  6
ByBlock
 62
     7
370
    -2
380
     1
100
AcDbLine
 10
682.8619166450172
 20
486.5096474857474
 30
0.0
 11
682.8619166450172
 21
674.1642375634842
 31
0.0
  0
LINE
  5
9CD
330
9D3
100
AcDbEntity
  8
0
  6
ByBlock
 62
     7
370
    -2
380
     1
100
AcDbLine
 10
962.8561124780879
 20
488.1958222547342
 30
0.0
 11
962.8561124780879
 21
674.1642375634842
 31
0.0
  0
LINE
  5
9CE
330
9D3
100
AcDbEntity
  8
0
  6
ByBlock
 62
     7
370
    -2
380
     1
100
AcDbLine
 10
692.8619166450172
 20
672.9142375634842
 30
0.0
 11
952.8561124780879
 21
672.9142375634842
 31
0.0
  0
SOLID
  5
9CF
330
9D3
100
AcDbEntity
  8
0
  6
ByBlock
 62
     7
380
     1
100
AcDbTrace
 10
682.8619166450172
 20
672.9142375634842
 30
0.0
 11
692.8619166450172
 21
671.2475708968176
 31
0.0
 12
692.8619166450172
 22
674.5809042301508
 32
0.0
 13
692.8619166450172
 23
674.5809042301508
 33
0.0
  0
SOLID
  5
9D0
330
9D3
100
AcDbEntity
  8
0
  6
ByBlock
 62
     7
380
     1
100
AcDbTrace
 10
962.8561124780879
 20
672.9142375634842
 30
0.0
 11
952.8561124780879
 21
671.2475708968176
 31
0.0
 12
952.8561124780879
 22
674.5809042301508
 32
0.0
 13
952.8561124780879
 23
674.5809042301508
 33
0.0
  0
MTEXT
  5
9D1
330
9D3
100
AcDbEntity
  8
0
  6
ByBlock
 62
     0
370
    -2
380
     1
100
AcDbMText
 10
822.8590145615526
 20
699.1284107918307
 30
0.0
 40
36.0
 41
0.0
 71
     5
 72
     1
  1
\A1;280
 73
     1
 44
1.0
  0
ENDBLK
  5
E10
330
9D3
100
AcDbEntity
  8
0
100
AcDbBlockEnd
  0
BLOCK
  5
E11
330
9DE
100
AcDbEntity
  8
0
100
AcDbBlockBegin
  2
*D43
 70
     1
 10
0.0
 20
0.0
 30
0.0
  3
*D43
  1

  0
POINT
  5
9D5
330
9DE
100
AcDbEntity
  8
DEFPOINTS
  6
ByBlock
 62
     7
380
     1
100
AcDbPoint
 10
856.6371404780879
 20
642.2635562547341
 30
0.0
  0
POINT
  5
9D6
330
9DE
100
AcDbEntity
  8
DEFPOINTS
  6
ByBlock
 62
     7
380
     1
100
AcDbPoint
 10
824.3733467727674
 20
417.4607302547342
 30
0.0
  0
LINE
  5
9D7
330
9DE
100
AcDbEntity
  8
0
  6
ByBlock
 62
     7
370
    -2
380
     1
100
AcDbLine
 10
857.2621404780879
 20
642.2635562547341
 30
0.0
 11
992.8342217919009
 21
642.2635562547341
 31
0.0
  0
LINE
  5
9D8
330
9DE
100
AcDbEntity
  8
0
  6
ByBlock
 62
     7
370
    -2
380
     1
100
AcDbLine
 10
824.9983467727674
 20
417.4607302547342
 30
0.0
 11
992.8342217919009
 21
417.4607302547342
 31
0.0
  0
LINE
  5
9D9
330
9DE
100
AcDbEntity
  8
0
  6
ByBlock
 62
     7
370
    -2
380
     1
100
AcDbLine
 10
991.5842217919009
 20
632.2635562547341
 30
0.0
 11
991.5842217919009
 21
427.4607302547342
 31
0.0
  0
SOLID
  5
9DA
330
9DE
100
AcDbEntity
  8
0
  6
ByBlock
 62
     7
380
     1
100
AcDbTrace
 10
991.5842217919009
 20
642.2635562547341
 30
0.0
 11
989.9175551252342
 21
632.2635562547341
 31
0.0
 12
993.2508884585675
 22
632.2635562547341
 32
0.0
 13
993.2508884585675
 23
632.2635562547341
 33
0.0
  0
SOLID
  5
9DB
330
9DE
100
AcDbEntity
  8
0
  6
ByBlock
 62
     7
380
     1
100
AcDbTrace
 10
991.5842217919009
 20
417.4607302547342
 30
0.0
 11
989.9175551252342
 21
427.4607302547342
 31
0.0
 12
993.2508884585675
 22
427.4607302547342
 32
0.0
 13
993.2508884585675
 23
427.4607302547342
 33
0.0
  0
MTEXT
  5
9DC
330
9DE
100
AcDbEntity
  8
0
  6
ByBlock
 62
     0
370
    -2
380
     1
100
AcDbMText
 10
965.3842217919008
 20
529.8621432547342
 30
0.0
 40
36.0
 41
0.0
 71
     5
 72
     1
  1
\A1;225
 11
6.123031769111886E-17
 21
1.0
 31
0.0
 73
     1
 44
1.0
  0
ENDBLK
  5
E12
330
9DE
100
AcDbEntity
  8
0
100
AcDbBlockEnd
  0
BLOCK
  5
E13
330
A2B
100
AcDbEntity
  8
0
100
AcDbBlockBegin
  2
*D44
 70
     1
 10
0.0
 20
0.0
 30
0.0
  3
*D44
  1

  0
POINT
  5
A22
330
A2B
100
AcDbEntity
  8
DEFPOINTS
  6
ByBlock
 62
     7
380
     1
100
AcDbPoint
 10
856.6371404780879
 20
642.2635562547341
 30
0.0
  0
POINT
  5
A23
330
A2B
100
AcDbEntity
  8
DEFPOINTS
  6
ByBlock
 62
     7
380
     1
100
AcDbPoint
 10
824.3733467727674
 20
417.4607302547342
 30
0.0
  0
LINE
  5
A24
330
A2B
100
AcDbEntity
  8
0
  6
ByBlock
 62
     7
370
    -2
380
     1
100
AcDbLine
 10
857.2621404780879
 20
642.2635562547341
 30
0.0
 11
1015.948771017053
 21
642.2635562547341
 31
0.0
  0
LINE
  5
A25
330
A2B
100
AcDbEntity
  8
0
  6
ByBlock
 62
     7
370
    -2
380
     1
100
AcDbLine
 10
824.9983467727674
 20
417.4607302547342
 30
0.0
 11
1015.948771017053
 21
417.4607302547342
 31
0.0
  0
LINE
  5
A26
330
A2B
100
AcDbEntity
  8
0
  6
ByBlock
 62
     7
370
    -2
380
     1
100
AcDbLine
 10
1014.698771017053
 20
632.2635562547341
 30
0.0
 11
1014.698771017053
 21
427.4607302547342
 31
0.0
  0
SOLID
  5
A27
330
A2B
100
AcDbEntity
  8
0
  6
ByBlock
 62
     7
380
     1
100
AcDbTrace
 10
1014.698771017053
 20
642.2635562547341
 30
0.0
 11
1013.032104350386
 21
632.2635562547341
 31
0.0
 12
1016.36543768372
 22
632.2635562547341
 32
0.0
 13
1016.36543768372
 23
632.2635562547341
 33
0.0
  0
SOLID
  5
A28
330
A2B
100
AcDbEntity
  8
0
  6
ByBlock
 62
     7
380
     1
100
AcDbTrace
 10
1014.698771017053
 20
417.4607302547342
 30
0.0
 11
1013.032104350386
 21
427.4607302547342
 31
0.0
 12
1016.36543768372
 22
427.4607302547342
 32
0.0
 13
1016.36543768372
 23
427.4607302547342
 33
0.0
  0
MTEXT
  5
A29
330
A2B
100
AcDbEntity
  8
0
  6
ByBlock
 62
     0
370
    -2
380
     1
100
AcDbMText
 10
988.4987710170528
 20
529.8621432547342
 30
0.0
 40
36.0
 41
0.0
 71
     5
 72
     1
  1
\A1;225
 11
6.123031769111886E-17
 21
1.0
 31
0.0
 73
     1
 44
1.0
  0
ENDBLK
  5
E14
330
A2B
100
AcDbEntity
  8
0
100
AcDbBlockEnd
  0
BLOCK
  5
E15
330
A36
100
AcDbEntity
  8
0
100
AcDbBlockBegin
  2
*D45
 70
     1
 10
0.0
 20
0.0
 30
0.0
  3
*D45
  1

  0
POINT
  5
A2D
330
A36
100
AcDbEntity
  8
DEFPOINTS
  6
ByBlock
 62
     7
380
     1
100
AcDbPoint
 10
1035.417598329388
 20
567.5016082547342
 30
0.0
  0
POINT
  5
A2E
330
A36
100
AcDbEntity
  8
DEFPOINTS
  6
ByBlock
 62
     7
380
     1
100
AcDbPoint
 10
1172.969417289843
 20
497.5519831055303
 30
0.0
  0
LINE
  5
A2F
330
A36
100
AcDbEntity
  8
0
  6
ByBlock
 62
     7
370
    -2
380
     1
100
AcDbLine
 10
1035.417598329388
 20
568.1266082547342
 30
0.0
 11
1035.417598329388
 21
674.1642375634842
 31
0.0
  0
LINE
  5
A30
330
A36
100
AcDbEntity
  8
0
  6
ByBlock
 62
     7
370
    -2
380
     1
100
AcDbLine
 10
1172.969417289843
 20
498.1769831055303
 30
0.0
 11
1172.969417289843
 21
674.1642375634842
 31
0.0
  0
LINE
  5
A31
330
A36
100
AcDbEntity
  8
0
  6
ByBlock
 62
     7
370
    -2
380
     1
100
AcDbLine
 10
1045.417598329388
 20
672.9142375634842
 30
0.0
 11
1162.969417289843
 21
672.9142375634842
 31
0.0
  0
SOLID
  5
A32
330
A36
100
AcDbEntity
  8
0
  6
ByBlock
 62
     7
380
     1
100
AcDbTrace
 10
1035.417598329388
 20
672.9142375634842
 30
0.0
 11
1045.417598329388
 21
671.2475708968176
 31
0.0
 12
1045.417598329388
 22
674.5809042301508
 32
0.0
 13
1045.417598329388
 23
674.5809042301508
 33
0.0
  0
SOLID
  5
A33
330
A36
100
AcDbEntity
  8
0
  6
ByBlock
 62
     7
380
     1
100
AcDbTrace
 10
1172.969417289843
 20
672.9142375634842
 30
0.0
 11
1162.969417289843
 21
671.2475708968176
 31
0.0
 12
1162.969417289843
 22
674.5809042301508
 32
0.0
 13
1162.969417289843
 23
674.5809042301508
 33
0.0
  0
MTEXT
  5
A34
330
A36
100
AcDbEntity
  8
0
  6
ByBlock
 62
     0
370
    -2
380
     1
100
AcDbMText
 10
1098.778130570485
 20
684.2142375634842
 30
0.0
 40
14.0
 41
0.0
 71
     5
 72
     1
  1
\A1;138
 73
     1
 44
1.0
  0
ENDBLK
  5
E16
330
A36
100
AcDbEntity
  8
0
100
AcDbBlockEnd
  0
BLOCK
  5
E17
330
A41
100
AcDbEntity
  8
0
100
AcDbBlockBegin
  2
*D46
 70
     1
 10
0.0
 20
0.0
 30
0.0
  3
*D46
  1

  0
POINT
  5
A38
330
A41
100
AcDbEntity
  8
DEFPOINTS
  6
ByBlock
 62
     7
380
     1
100
AcDbPoint
 10
1078.056516024668
 20
567.5016082547342
 30
0.0
  0
POINT
  5
A39
330
A41
100
AcDbEntity
  8
DEFPOINTS
  6
ByBlock
 62
     7
380
     1
100
AcDbPoint
 10
1215.608334985123
 20
497.5519831055303
 30
0.0
  0
LINE
  5
A3A
330
A41
100
AcDbEntity
  8
0
  6
ByBlock
 62
     7
370
    -2
380
     1
100
AcDbLine
 10
1078.056516024668
 20
568.1266082547342
 30
0.0
 11
1078.056516024668
 21
674.1642375634842
 31
0.0
  0
LINE
  5
A3B
330
A41
100
AcDbEntity
  8
0
  6
ByBlock
 62
     7
370
    -2
380
     1
100
AcDbLine
 10
1215.608334985123
 20
498.1769831055303
 30
0.0
 11
1215.608334985123
 21
674.1642375634842
 31
0.0
  0
LINE
  5
A3C
330
A41
100
AcDbEntity
  8
0
  6
ByBlock
 62
     7
370
    -2
380
     1
100
AcDbLine
 10
1088.056516024668
 20
672.9142375634842
 30
0.0
 11
1205.608334985123
 21
672.9142375634842
 31
0.0
  0
SOLID
  5
A3D
330
A41
100
AcDbEntity
  8
0
  6
ByBlock
 62
     7
380
     1
100
AcDbTrace
 10
1078.056516024668
 20
672.9142375634842
 30
0.0
 11
1088.056516024668
 21
671.2475708968176
 31
0.0
 12
1088.056516024668
 22
674.5809042301508
 32
0.0
 13
1088.056516024668
 23
674.5809042301508
 33
0.0
  0
SOLID
  5
A3E
330
A41
100
AcDbEntity
  8
0
  6
ByBlock
 62
     7
380
     1
100
AcDbTrace
 10
1215.608334985123
 20
672.9142375634842
 30
0.0
 11
1205.608334985123
 21
671.2475708968176
 31
0.0
 12
1205.608334985123
 22
674.5809042301508
 32
0.0
 13
1205.608334985123
 23
674.5809042301508
 33
0.0
  0
MTEXT
  5
A3F
330
A41
100
AcDbEntity
  8
0
  6
ByBlock
 62
     0
370
    -2
380
     1
100
AcDbMText
 10
1141.417048265765
 20
684.2142375634842
 30
0.0
 40
14.0
 41
0.0
 71
     5
 72
     1
  1
\A1;138
 73
     1
 44
1.0
  0
ENDBLK
  5
E18
330
A41
100
AcDbEntity
  8
0
100
AcDbBlockEnd
  0
BLOCK
  5
E19
330
A4C
100
AcDbEntity
  8
0
100
AcDbBlockBegin
  2
*D47
 70
     1
 10
0.0
 20
0.0
 30
0.0
  3
*D47
  1

  0
POINT
  5
A43
330
A4C
100
AcDbEntity
  8
DEFPOINTS
  6
ByBlock
 62
     7
380
     1
100
AcDbPoint
 10
1078.056516024668
 20
567.5016082547342
 30
0.0
  0
POINT
  5
A44
330
A4C
100
AcDbEntity
  8
DEFPOINTS
  6
ByBlock
 62
     7
380
     1
100
AcDbPoint
 10
1215.608334985123
 20
497.5519831055303
 30
0.0
  0
LINE
  5
A45
330
A4C
100
AcDbEntity
  8
0
  6
ByBlock
 62
     7
370
    -2
380
     1
100
AcDbLine
 10
1078.056516024668
 20
568.1266082547342
 30
0.0
 11
1078.056516024668
 21
674.1642375634842
 31
0.0
  0
LINE
  5
A46
330
A4C
100
AcDbEntity
  8
0
  6
ByBlock
 62
     7
370
    -2
380
     1
100
AcDbLine
 10
1215.608334985123
 20
498.1769831055303
 30
0.0
 11
1215.608334985123
 21
674.1642375634842
 31
0.0
  0
LINE
  5
A47
330
A4C
100
AcDbEntity
  8
0
  6
ByBlock
 62
     7
370
    -2
380
     1
100
AcDbLine
 10
1088.056516024668
 20
672.9142375634842
 30
0.0
 11
1205.608334985123
 21
672.9142375634842
 31
0.0
  0
SOLID
  5
A48
330
A4C
100
AcDbEntity
  8
0
  6
ByBlock
 62
     7
380
     1
100
AcDbTrace
 10
1078.056516024668
 20
672.9142375634842
 30
0.0
 11
1088.056516024668
 21
671.2475708968176
 31
0.0
 12
1088.056516024668
 22
674.5809042301508
 32
0.0
 13
1088.056516024668
 23
674.5809042301508
 33
0.0
  0
SOLID
  5
A49
330
A4C
100
AcDbEntity
  8
0
  6
ByBlock
 62
     7
380
     1
100
AcDbTrace
 10
1215.608334985123
 20
672.9142375634842
 30
0.0
 11
1205.608334985123
 21
671.2475708968176
 31
0.0
 12
1205.608334985123
 22
674.5809042301508
 32
0.0
 13
1205.608334985123
 23
674.5809042301508
 33
0.0
  0
MTEXT
  5
A4A
330
A4C
100
AcDbEntity
  8
0
  6
ByBlock
 62
     0
370
    -2
380
     1
100
AcDbMText
 10
1141.417048265765
 20
699.1142375634843
 30
0.0
 40
36.0
 41
0.0
 71
     5
 72
     1
  1
\A1;138
 73
     1
 44
1.0
  0
ENDBLK
  5
E1A
330
A4C
100
AcDbEntity
  8
0
100
AcDbBlockEnd
  0
BLOCK
  5
E1B
330
ACB
100
AcDbEntity
  8
0
100
AcDbBlockBegin
  2
VDCLIP_6_104
 70
     0
 10
0.0
 20
0.0
 30
0.0
  3
VDCLIP_6_104
  1

  0
LINE
  5
AB8
330
ACB
100
AcDbEntity
  8
0
 62
     7
370
    60
100
AcDbLine
 10
-36.1049725
 20
-144.17022
 30
0.0
 11
75.3962785
 21
-144.17022
 31
0.0
  0
ARC
  5
AB9
330
ACB
100
AcDbEntity
  8
0
 62
     7
370
    60
100
AcDbCircle
 10
75.3961865
 20
-116.565118
 30
0.0
 40
27.605116
100
AcDbArc
 50
270.00019077
 51
0.00065776
  0
LINE
  5
ABA
330
ACB
100
AcDbEntity
  8
0
 62
     7
370
    60
100
AcDbLine
 10
103.0012895
 20
-116.564813
 30
0.0
 11
102.9987255
 21
57.671515
 31
0.0
  0
ARC
  5
ABB
330
ACB
100
AcDbEntity
  8
0
 62
     7
370
    60
100
AcDbCircle
 10
16.4987255
 20
57.670234
 30
0.0
 40
86.5
100
AcDbArc
 50
0.00084912
 51
90.0
  0
LINE
  5
ABC
330
ACB
100
AcDbEntity
  8
0
 62
     7
370
    60
100
AcDbLine
 10
16.4987255
 20
144.170234
 30
0.0
 11
-36.1049725
 21
144.170234
 31
0.0
  0
LINE
  5
ABD
330
ACB
100
AcDbEntity
  8
0
 62
     7
370
    60
100
AcDbLine
 10
-88.7086715
 20
144.170234
 30
0.0
 11
-36.1049725
 21
144.170234
 31
0.0
  0
ARC
  5
ABE
330
ACB
100
AcDbEntity
  8
0
 62
     7
370
    60
100
AcDbCircle
 10
-88.7086715
 20
57.670234
 30
0.0
 40
86.5
100
AcDbArc
 50
90.0
 51
179.99915124
  0
LINE
  5
ABF
330
ACB
100
AcDbEntity
  8
0
 62
     7
370
    60
100
AcDbLine
 10
-175.2112505
 20
-116.564813
 30
0.0
 11
-175.2086715
 21
57.671515
 31
0.0
  0
ARC
  5
AC0
330
ACB
100
AcDbEntity
  8
0
 62
     7
370
    60
100
AcDbCircle
 10
-147.6061325
 20
-116.565118
 30
0.0
 40
27.605116
100
AcDbArc
 50
179.99934204
 51
269.99981892
  0
LINE
  5
AC1
330
ACB
100
AcDbEntity
  8
0
 62
     7
370
    60
100
AcDbLine
 10
-36.1049725
 20
-144.17022
 30
0.0
 11
-147.6062395
 21
-144.17022
 31
0.0
  0
LINE
  5
AC2
330
ACB
100
AcDbEntity
  8
0
 62
     7
370
    60
100
AcDbLine
 10
171.2112505
 20
57.671515
 30
0.0
 11
171.2112505
 21
144.170234
 31
0.0
  0
LINE
  5
AC3
330
ACB
100
AcDbEntity
  8
0
 62
     7
370
    60
100
AcDbLine
 10
175.2112505
 20
57.671515
 30
0.0
 11
175.2112505
 21
144.170234
 31
0.0
  0
LINE
  5
AC4
330
ACB
100
AcDbEntity
  8
0
 62
     7
370
    60
100
AcDbLine
 10
171.2112505
 20
-116.564813
 30
0.0
 11
171.2112505
 21
57.671515
 31
0.0
  0
LINE
  5
AC5
330
ACB
100
AcDbEntity
  8
0
 62
     7
370
    60
100
AcDbLine
 10
175.2112505
 20
-116.564813
 30
0.0
 11
175.2112505
 21
57.671515
 31
0.0
  0
LINE
  5
AC6
330
ACB
100
AcDbEntity
  8
0
 62
     7
370
    60
100
AcDbLine
 10
171.2112505
 20
-144.17022
 30
0.0
 11
171.2112505
 21
-116.564813
 31
0.0
  0
LINE
  5
AC7
330
ACB
100
AcDbEntity
  8
0
 62
     7
 48
0.1
370
    60
100
AcDbLine
 10
171.2112505
 20
-144.17022
 30
0.0
 11
175.2112505
 21
-144.17022
 31
0.0
  0
LINE
  5
AC8
330
ACB
100
AcDbEntity
  8
0
 62
     7
370
    60
100
AcDbLine
 10
175.2112505
 20
-144.17022
 30
0.0
 11
175.2112505
 21
-116.564813
 31
0.0
  0
LINE
  5
AC9
330
ACB
100
AcDbEntity
  8
0
 62
     7
 48
0.1
370
    60
100
AcDbLine
 10
171.2112505
 20
144.170234
 30
0.0
 11
175.2112505
 21
144.170234
 31
0.0
  0
ENDBLK
  5
E1C
330
ACB
100
AcDbEntity
  8
0
100
AcDbBlockEnd
  0
BLOCK
  5
E1D
330
AD7
100
AcDbEntity
  8
0
100
AcDbBlockBegin
  2
VDCLIP_6_197
 70
     0
 10
0.0
 20
0.0
 30
0.0
  3
VDCLIP_6_197
  1

  0
LINE
  5
AD1
330
AD7
100
AcDbEntity
  8
STANDARD_LAYER
370
    60
100
AcDbLine
 10
-35.7507882
 20
-1.91063725
 30
0.0
 11
-15.06866796
 21
26.00251085
 31
0.0
  0
LINE
  5
AD2
330
AD7
100
AcDbEntity
  8
STANDARD_LAYER
370
    60
100
AcDbLine
 10
-19.50037488
 20
6.61132849
 30
0.0
 11
1.18130688
 21
34.52394517
 31
0.0
  0
LINE
  5
AD3
330
AD7
100
AcDbEntity
  8
STANDARD_LAYER
370
    60
100
AcDbLine
 10
-30.72856356
 20
-22.47704973
 30
0.0
 11
-10.04563944
 21
5.43575451
 31
0.0
  0
LINE
  5
AD4
330
AD7
100
AcDbEntity
  8
STANDARD_LAYER
370
    60
100
AcDbLine
 10
-2.0685294
 20
-34.52394517
 30
0.0
 11
18.61395624
 21
-6.61116177
 31
0.0
  0
LINE
  5
AD5
330
AD7
100
AcDbEntity
  8
STANDARD_LAYER
370
    60
100
AcDbLine
 10
15.06856356
 20
-23.06508159
 30
0.0
 11
35.7507882
 21
4.84717039
 31
0.0
  0
ENDBLK
  5
E1E
330
AD7
100
AcDbEntity
  8
0
100
AcDbBlockEnd
  0
BLOCK
  5
E1F
330
AE0
100
AcDbEntity
  8
0
100
AcDbBlockBegin
  2
VDDIM_DEFAULT
 70
     0
 10
0.0
 20
0.0
 30
0.0
  3
VDDIM_DEFAULT
  1

  0
HATCH
  5
ADE
330
AE0
100
AcDbEntity
  8
0
 62
     0
370
    -2
100
AcDbHatch
 10
0.0
 20
0.0
 30
0.0
210
0.0
220
0.0
230
-1.0
  2
SOLID
 70
     1
 71
     0
 91
        1
 92
        2
 72
     0
 73
     1
 93
        3
 10
0.0
 20
0.0
 10
1.0
 20
-0.1665
 10
1.0
 20
0.1665
 97
        0
 75
     0
 76
     1
 98
        1
 10
0.0
 20
0.0
  0
ENDBLK
  5
E20
330
AE0
100
AcDbEntity
  8
0
100
AcDbBlockEnd
  0
BLOCK
  5
E21
330
AED
100
AcDbEntity
  8
0
100
AcDbBlockBegin
  2
*D51
 70
     1
 10
0.0
 20
0.0
 30
0.0
  3
*D51
  1

  0
POINT
  5
AE4
330
AED
100
AcDbEntity
  8
DEFPOINTS
  6
ByBlock
 62
     0
380
     1
100
AcDbPoint
 10
-40.4204377
 20
143.96080992
 30
0.0
  0
POINT
  5
AE5
330
AED
100
AcDbEntity
  8
DEFPOINTS
  6
ByBlock
 62
     0
380
     1
100
AcDbPoint
 10
-33.91709614
 20
-144.37964408
 30
0.0
  0
LINE
  5
AE6
330
AED
100
AcDbEntity
  8
0
  6
ByBlock
 62
     0
370
    -2
380
     1
100
AcDbLine
 10
-40.6204377
 20
143.96080992
 30
0.0
 11
-208.02213119
 21
143.96080992
 31
0.0
  0
LINE
  5
AE7
330
AED
100
AcDbEntity
  8
0
  6
ByBlock
 62
     0
370
    -2
380
     1
100
AcDbLine
 10
-34.11709614
 20
-144.37964408
 30
0.0
 11
-208.02213119
 21
-144.37964408
 31
0.0
  0
LINE
  5
AE8
330
AED
100
AcDbEntity
  8
0
  6
ByBlock
 62
     0
370
    -2
380
     1
100
AcDbLine
 10
-207.97213119
 20
133.96080992
 30
0.0
 11
-207.97213119
 21
-134.37964408
 31
0.0
  0
SOLID
  5
AE9
330
AED
100
AcDbEntity
  8
0
  6
ByBlock
 62
     0
380
     1
100
AcDbTrace
 10
-207.97213119
 20
143.96080992
 30
0.0
 11
-209.6387978566667
 21
133.96080992
 31
0.0
 12
-206.3054645233333
 22
133.96080992
 32
0.0
 13
-206.3054645233333
 23
133.96080992
 33
0.0
  0
SOLID
  5
AEA
330
AED
100
AcDbEntity
  8
0
  6
ByBlock
 62
     0
380
     1
100
AcDbTrace
 10
-207.97213119
 20
-144.37964408
 30
0.0
 11
-209.6387978566667
 21
-134.37964408
 31
0.0
 12
-206.3054645233333
 22
-134.37964408
 32
0.0
 13
-206.3054645233333
 23
-134.37964408
 33
0.0
  0
MTEXT
  5
AEB
330
AED
100
AcDbEntity
  8
0
  6
ByBlock
 62
     0
370
    -2
380
     1
100
AcDbMText
 10
-219.2776430010236
 20
-0.2094170800000086
 30
0.0
 40
14.0
 41
0.0
 71
     5
 72
     1
  1
\A1;288.3405
 11
6.123031769111886E-17
 21
1.0
 31
0.0
 73
     1
 44
1.0
  0
ENDBLK
  5
E22
330
AED
100
AcDbEntity
  8
0
100
AcDbBlockEnd
  0
BLOCK
  5
E23
330
AF9
100
AcDbEntity
  8
0
100
AcDbBlockBegin
  2
*D52
 70
     1
 10
0.0
 20
0.0
 30
0.0
  3
*D52
  1

  0
POINT
  5
AEF
330
AF9
100
AcDbEntity
  8
DEFPOINTS
  6
ByBlock
 62
     0
380
     1
100
AcDbPoint
 10
170.07250704
 20
74.65649208
 30
0.0
  0
POINT
  5
AF0
330
AF9
100
AcDbEntity
  8
DEFPOINTS
  6
ByBlock
 62
     0
380
     1
100
AcDbPoint
 10
174.07250704
 20
76.66369627
 30
0.0
  0
LINE
  5
AF1
330
AF9
100
AcDbEntity
  8
0
  6
ByBlock
 62
     0
370
    -2
380
     1
100
AcDbLine
 10
170.07250704
 20
74.85649208000001
 30
0.0
 11
170.07250704
 21
167.03788457
 31
0.0
  0
LINE
  5
AF2
330
AF9
100
AcDbEntity
  8
0
  6
ByBlock
 62
     0
370
    -2
380
     1
100
AcDbLine
 10
174.07250704
 20
76.86369627
 30
0.0
 11
174.07250704
 21
167.03788457
 31
0.0
  0
LINE
  5
AF3
330
AF9
100
AcDbEntity
  8
0
  6
ByBlock
 62
     0
370
    -2
380
     1
100
AcDbLine
 10
160.07250704
 20
166.98788457
 30
0.0
 11
150.07250704
 21
166.98788457
 31
0.0
  0
LINE
  5
AF4
330
AF9
100
AcDbEntity
  8
0
  6
ByBlock
 62
     0
370
    -2
380
     1
100
AcDbLine
 10
184.07250704
 20
166.98788457
 30
0.0
 11
194.07250704
 21
166.98788457
 31
0.0
  0
SOLID
  5
AF5
330
AF9
100
AcDbEntity
  8
0
  6
ByBlock
 62
     0
380
     1
100
AcDbTrace
 10
170.07250704
 20
166.98788457
 30
0.0
 11
160.07250704
 21
165.3212179033333
 31
0.0
 12
160.07250704
 22
168.6545512366667
 32
0.0
 13
160.07250704
 23
168.6545512366667
 33
0.0
  0
SOLID
  5
AF6
330
AF9
100
AcDbEntity
  8
0
  6
ByBlock
 62
     0
380
     1
100
AcDbTrace
 10
174.07250704
 20
166.98788457
 30
0.0
 11
184.07250704
 21
165.3212179033333
 31
0.0
 12
184.07250704
 22
168.6545512366667
 32
0.0
 13
184.07250704
 23
168.6545512366667
 33
0.0
  0
MTEXT
  5
AF7
330
AF9
100
AcDbEntity
  8
0
  6
ByBlock
 62
     0
370
    -2
380
     1
100
AcDbMText
 10
172.07250704
 20
178.2933963810236
 30
0.0
 40
14.0
 41
0.0
 71
     5
 72
     1
  1
\A1;4.0000
 73
     1
 44
1.0
  0
ENDBLK
  5
E24
330
AF9
100
AcDbEntity
  8
0
100
AcDbBlockEnd
  0
BLOCK
  5
E25
330
B04
100
AcDbEntity
  8
0
100
AcDbBlockBegin
  2
*D53
 70
     1
 10
0.0
 20
0.0
 30
0.0
  3
*D53
  1

  0
POINT
  5
AFB
330
B04
100
AcDbEntity
  8
DEFPOINTS
  6
ByBlock
 62
     0
380
     1
100
AcDbPoint
 10
981.6534418891262
 20
703.0844105505985
 30
0.0
  0
POINT
  5
AFC
330
B04
100
AcDbEntity
  8
DEFPOINTS
  6
ByBlock
 62
     0
380
     1
100
AcDbPoint
 10
988.1567834491261
 20
414.7439565505985
 30
0.0
  0
LINE
  5
AFD
330
B04
100
AcDbEntity
  8
0
  6
ByBlock
 62
     0
370
    -2
380
     1
100
AcDbLine
 10
981.4534418891261
 20
703.0844105505985
 30
0.0
 11
814.0517483991262
 21
703.0844105505985
 31
0.0
  0
LINE
  5
AFE
330
B04
100
AcDbEntity
  8
0
  6
ByBlock
 62
     0
370
    -2
380
     1
100
AcDbLine
 10
987.9567834491261
 20
414.7439565505985
 30
0.0
 11
814.0517483991262
 21
414.7439565505985
 31
0.0
  0
LINE
  5
AFF
330
B04
100
AcDbEntity
  8
0
  6
ByBlock
 62
     0
370
    -2
380
     1
100
AcDbLine
 10
814.1017483991261
 20
693.0844105505985
 30
0.0
 11
814.1017483991261
 21
424.7439565505985
 31
0.0
  0
SOLID
  5
B00
330
B04
100
AcDbEntity
  8
0
  6
ByBlock
 62
     0
380
     1
100
AcDbTrace
 10
814.1017483991261
 20
703.0844105505985
 30
0.0
 11
812.4350817324595
 21
693.0844105505985
 31
0.0
 12
815.7684150657927
 22
693.0844105505985
 32
0.0
 13
815.7684150657927
 23
693.0844105505985
 33
0.0
  0
SOLID
  5
B01
330
B04
100
AcDbEntity
  8
0
  6
ByBlock
 62
     0
380
     1
100
AcDbTrace
 10
814.1017483991261
 20
414.7439565505985
 30
0.0
 11
812.4350817324595
 21
424.7439565505985
 31
0.0
 12
815.7684150657927
 22
424.7439565505985
 32
0.0
 13
815.7684150657927
 23
424.7439565505985
 33
0.0
  0
MTEXT
  5
B02
330
B04
100
AcDbEntity
  8
0
  6
ByBlock
 62
     0
370
    -2
380
     1
100
AcDbMText
 10
802.7962365881025
 20
558.9141835505985
 30
0.0
 40
14.0
 41
0.0
 71
     5
 72
     1
  1
\A1;288.3405
 11
6.123031769111886E-17
 21
1.0
 31
0.0
 73
     1
 44
1.0
  0
ENDBLK
  5
E26
330
B04
100
AcDbEntity
  8
0
100
AcDbBlockEnd
  0
BLOCK
  5
E27
330
B10
100
AcDbEntity
  8
0
100
AcDbBlockBegin
  2
*D54
 70
     1
 10
0.0
 20
0.0
 30
0.0
  3
*D54
  1

  0
POINT
  5
B06
330
B10
100
AcDbEntity
  8
DEFPOINTS
  6
ByBlock
 62
     0
380
     1
100
AcDbPoint
 10
1192.146386629126
 20
633.7800927105985
 30
0.0
  0
POINT
  5
B07
330
B10
100
AcDbEntity
  8
DEFPOINTS
  6
ByBlock
 62
     0
380
     1
100
AcDbPoint
 10
1196.146386629126
 20
635.7872969005984
 30
0.0
  0
LINE
  5
B08
330
B10
100
AcDbEntity
  8
0
  6
ByBlock
 62
     0
370
    -2
380
     1
100
AcDbLine
 10
1192.146386629126
 20
633.9800927105986
 30
0.0
 11
1192.146386629126
 21
726.1614852005985
 31
0.0
  0
LINE
  5
B09
330
B10
100
AcDbEntity
  8
0
  6
ByBlock
 62
     0
370
    -2
380
     1
100
AcDbLine
 10
1196.146386629126
 20
635.9872969005985
 30
0.0
 11
1196.146386629126
 21
726.1614852005985
 31
0.0
  0
LINE
  5
B0A
330
B10
100
AcDbEntity
  8
0
  6
ByBlock
 62
     0
370
    -2
380
     1
100
AcDbLine
 10
1182.146386629126
 20
726.1114852005985
 30
0.0
 11
1172.146386629126
 21
726.1114852005985
 31
0.0
  0
LINE
  5
B0B
330
B10
100
AcDbEntity
  8
0
  6
ByBlock
 62
     0
370
    -2
380
     1
100
AcDbLine
 10
1206.146386629126
 20
726.1114852005985
 30
0.0
 11
1216.146386629126
 21
726.1114852005985
 31
0.0
  0
SOLID
  5
B0C
330
B10
100
AcDbEntity
  8
0
  6
ByBlock
 62
     0
380
     1
100
AcDbTrace
 10
1192.146386629126
 20
726.1114852005985
 30
0.0
 11
1182.146386629126
 21
724.4448185339319
 31
0.0
 12
1182.146386629126
 22
727.7781518672651
 32
0.0
 13
1182.146386629126
 23
727.7781518672651
 33
0.0
  0
SOLID
  5
B0D
330
B10
100
AcDbEntity
  8
0
  6
ByBlock
 62
     0
380
     1
100
AcDbTrace
 10
1196.146386629126
 20
726.1114852005985
 30
0.0
 11
1206.146386629126
 21
724.4448185339319
 31
0.0
 12
1206.146386629126
 22
727.7781518672651
 32
0.0
 13
1206.146386629126
 23
727.7781518672651
 33
0.0
  0
MTEXT
  5
B0E
330
B10
100
AcDbEntity
  8
0
  6
ByBlock
 62
     0
370
    -2
380
     1
100
AcDbMText
 10
1194.146386629126
 20
737.4169970116221
 30
0.0
 40
14.0
 41
0.0
 71
     5
 72
     1
  1
\A1;4.0000
 73
     1
 44
1.0
  0
ENDBLK
  5
E28
330
B10
100
AcDbEntity
  8
0
100
AcDbBlockEnd
  0
BLOCK
  5
E29
330
B1C
100
AcDbEntity
  8
0
100
AcDbBlockBegin
  2
*D55
 70
     1
 10
0.0
 20
0.0
 30
0.0
  3
*D55
  1

  0
POINT
  5
B12
330
B1C
100
AcDbEntity
  8
DEFPOINTS
  6
ByBlock
 62
     0
380
     1
100
AcDbPoint
 10
1192.146386629126
 20
633.7800927105985
 30
0.0
  0
POINT
  5
B13
330
B1C
100
AcDbEntity
  8
DEFPOINTS
  6
ByBlock
 62
     0
380
     1
100
AcDbPoint
 10
1196.146386629126
 20
635.7872969005984
 30
0.0
  0
LINE
  5
B14
330
B1C
100
AcDbEntity
  8
0
  6
ByBlock
 62
     0
370
    -2
380
     1
100
AcDbLine
 10
1192.146386629126
 20
633.9800927105986
 30
0.0
 11
1192.146386629126
 21
726.1614852005985
 31
0.0
  0
LINE
  5
B15
330
B1C
100
AcDbEntity
  8
0
  6
ByBlock
 62
     0
370
    -2
380
     1
100
AcDbLine
 10
1196.146386629126
 20
635.9872969005985
 30
0.0
 11
1196.146386629126
 21
726.1614852005985
 31
0.0
  0
LINE
  5
B16
330
B1C
100
AcDbEntity
  8
0
  6
ByBlock
 62
     0
370
    -2
380
     1
100
AcDbLine
 10
1182.146386629126
 20
726.1114852005985
 30
0.0
 11
1172.146386629126
 21
726.1114852005985
 31
0.0
  0
LINE
  5
B17
330
B1C
100
AcDbEntity
  8
0
  6
ByBlock
 62
     0
370
    -2
380
     1
100
AcDbLine
 10
1206.146386629126
 20
726.1114852005985
 30
0.0
 11
1216.146386629126
 21
726.1114852005985
 31
0.0
  0
SOLID
  5
B18
330
B1C
100
AcDbEntity
  8
0
  6
ByBlock
 62
     0
380
     1
100
AcDbTrace
 10
1192.146386629126
 20
726.1114852005985
 30
0.0
 11
1182.146386629126
 21
724.4448185339319
 31
0.0
 12
1182.146386629126
 22
727.7781518672651
 32
0.0
 13
1182.146386629126
 23
727.7781518672651
 33
0.0
  0
SOLID
  5
B19
330
B1C
100
AcDbEntity
  8
0
  6
ByBlock
 62
     0
380
     1
100
AcDbTrace
 10
1196.146386629126
 20
726.1114852005985
 30
0.0
 11
1206.146386629126
 21
724.4448185339319
 31
0.0
 12
1206.146386629126
 22
727.7781518672651
 32
0.0
 13
1206.146386629126
 23
727.7781518672651
 33
0.0
  0
MTEXT
  5
B1A
330
B1C
100
AcDbEntity
  8
0
  6
ByBlock
 62
     0
370
    -2
380
     1
100
AcDbMText
 10
1194.146386629126
 20
737.4169970116221
 30
0.0
 40
14.0
 41
0.0
 71
     5
 72
     1
  1
\A1;4.0000
 73
     1
 44
1.0
  0
ENDBLK
  5
E2A
330
B1C
100
AcDbEntity
  8
0
100
AcDbBlockEnd
  0
BLOCK
  5
E2B
330
B27
100
AcDbEntity
  8
0
100
AcDbBlockBegin
  2
*D56
 70
     1
 10
0.0
 20
0.0
 30
0.0
  3
*D56
  1

  0
POINT
  5
B1E
330
B27
100
AcDbEntity
  8
DEFPOINTS
  6
ByBlock
 62
     0
380
     1
100
AcDbPoint
 10
981.6534418891262
 20
703.0844105505985
 30
0.0
  0
POINT
  5
B1F
330
B27
100
AcDbEntity
  8
DEFPOINTS
  6
ByBlock
 62
     0
380
     1
100
AcDbPoint
 10
988.1567834491261
 20
414.7439565505985
 30
0.0
  0
LINE
  5
B20
330
B27
100
AcDbEntity
  8
0
  6
ByBlock
 62
     0
370
    -2
380
     1
100
AcDbLine
 10
981.4534418891261
 20
703.0844105505985
 30
0.0
 11
814.0517483991262
 21
703.0844105505985
 31
0.0
  0
LINE
  5
B21
330
B27
100
AcDbEntity
  8
0
  6
ByBlock
 62
     0
370
    -2
380
     1
100
AcDbLine
 10
987.9567834491261
 20
414.7439565505985
 30
0.0
 11
814.0517483991262
 21
414.7439565505985
 31
0.0
  0
LINE
  5
B22
330
B27
100
AcDbEntity
  8
0
  6
ByBlock
 62
     0
370
    -2
380
     1
100
AcDbLine
 10
814.1017483991261
 20
693.0844105505985
 30
0.0
 11
814.1017483991261
 21
424.7439565505985
 31
0.0
  0
SOLID
  5
B23
330
B27
100
AcDbEntity
  8
0
  6
ByBlock
 62
     0
380
     1
100
AcDbTrace
 10
814.1017483991261
 20
703.0844105505985
 30
0.0
 11
812.4350817324595
 21
693.0844105505985
 31
0.0
 12
815.7684150657927
 22
693.0844105505985
 32
0.0
 13
815.7684150657927
 23
693.0844105505985
 33
0.0
  0
SOLID
  5
B24
330
B27
100
AcDbEntity
  8
0
  6
ByBlock
 62
     0
380
     1
100
AcDbTrace
 10
814.1017483991261
 20
414.7439565505985
 30
0.0
 11
812.4350817324595
 21
424.7439565505985
 31
0.0
 12
815.7684150657927
 22
424.7439565505985
 32
0.0
 13
815.7684150657927
 23
424.7439565505985
 33
0.0
  0
MTEXT
  5
B25
330
B27
100
AcDbEntity
  8
0
  6
ByBlock
 62
     0
370
    -2
380
     1
100
AcDbMText
 10
802.7962365881025
 20
558.9141835505985
 30
0.0
 40
14.0
 41
0.0
 71
     5
 72
     1
  1
\A1;288.3405
 11
6.123031769111886E-17
 21
1.0
 31
0.0
 73
     1
 44
1.0
  0
ENDBLK
  5
E2C
330
B27
100
AcDbEntity
  8
0
100
AcDbBlockEnd
  0
BLOCK
  5
E2D
330
B33
100
AcDbEntity
  8
0
100
AcDbBlockBegin
  2
*D57
 70
     1
 10
0.0
 20
0.0
 30
0.0
  3
*D57
  1

  0
POINT
  5
B2A
330
B33
100
AcDbEntity
  8
DEFPOINTS
  6
ByBlock
 62
     0
380
     1
100
AcDbPoint
 10
984.8301636291261
 20
703.0844105505985
 30
0.0
  0
POINT
  5
B2B
330
B33
100
AcDbEntity
  8
DEFPOINTS
  6
ByBlock
 62
     0
380
     1
100
AcDbPoint
 10
984.8301636291261
 20
414.7439565505986
 30
0.0
  0
LINE
  5
B2C
330
B33
100
AcDbEntity
  8
0
  6
ByBlock
 62
     0
370
    -2
380
     1
100
AcDbLine
 10
984.2051636291261
 20
703.0844105505985
 30
0.0
 11
809.3198967667719
 21
703.0844105505985
 31
0.0
  0
LINE
  5
B2D
330
B33
100
AcDbEntity
  8
0
  6
ByBlock
 62
     0
370
    -2
380
     1
100
AcDbLine
 10
984.2051636291261
 20
414.7439565505986
 30
0.0
 11
809.3198967667719
 21
414.7439565505986
 31
0.0
  0
LINE
  5
B2E
330
B33
100
AcDbEntity
  8
0
  6
ByBlock
 62
     0
370
    -2
380
     1
100
AcDbLine
 10
810.5698967667719
 20
700.5844105505985
 30
0.0
 11
810.5698967667719
 21
417.2439565505986
 31
0.0
  0
SOLID
  5
B2F
330
B33
100
AcDbEntity
  8
0
  6
ByBlock
 62
     0
380
     1
100
AcDbTrace
 10
810.5698967667719
 20
703.0844105505985
 30
0.0
 11
810.1532301001052
 21
700.5844105505985
 31
0.0
 12
810.9865634334385
 22
700.5844105505985
 32
0.0
 13
810.9865634334385
 23
700.5844105505985
 33
0.0
  0
SOLID
  5
B30
330
B33
100
AcDbEntity
  8
0
  6
ByBlock
 62
     0
380
     1
100
AcDbTrace
 10
810.5698967667719
 20
414.7439565505986
 30
0.0
 11
810.1532301001052
 21
417.2439565505986
 31
0.0
 12
810.9865634334385
 22
417.2439565505986
 32
0.0
 13
810.9865634334385
 23
417.2439565505986
 33
0.0
  0
MTEXT
  5
B31
330
B33
100
AcDbEntity
  8
0
  6
ByBlock
 62
     0
370
    -2
380
     1
100
AcDbMText
 10
808.5698967667719
 20
558.9141835505985
 30
0.0
 40
2.5
 41
0.0
 71
     5
 72
     1
  1
\A1;288,34
 11
6.123031769111886E-17
 21
1.0
 31
0.0
 73
     1
 44
1.0
  0
ENDBLK
  5
E2E
330
B33
100
AcDbEntity
  8
0
100
AcDbBlockEnd
  0
BLOCK
  5
E2F
330
B3E
100
AcDbEntity
  8
0
100
AcDbBlockBegin
  2
*D58
 70
     1
 10
0.0
 20
0.0
 30
0.0
  3
*D58
  1

  0
POINT
  5
B35
330
B3E
100
AcDbEntity
  8
DEFPOINTS
  6
ByBlock
 62
     0
380
     1
100
AcDbPoint
 10
984.8301636291261
 20
703.0844105505985
 30
0.0
  0
POINT
  5
B36
330
B3E
100
AcDbEntity
  8
DEFPOINTS
  6
ByBlock
 62
     0
380
     1
100
AcDbPoint
 10
984.8301636291261
 20
414.7439565505986
 30
0.0
  0
LINE
  5
B37
330
B3E
100
AcDbEntity
  8
0
  6
ByBlock
 62
     0
370
    -2
380
     1
100
AcDbLine
 10
984.2051636291261
 20
703.0844105505985
 30
0.0
 11
809.3198967667719
 21
703.0844105505985
 31
0.0
  0
LINE
  5
B38
330
B3E
100
AcDbEntity
  8
0
  6
ByBlock
 62
     0
370
    -2
380
     1
100
AcDbLine
 10
984.2051636291261
 20
414.7439565505986
 30
0.0
 11
809.3198967667719
 21
414.7439565505986
 31
0.0
  0
LINE
  5
B39
330
B3E
100
AcDbEntity
  8
0
  6
ByBlock
 62
     0
370
    -2
380
     1
100
AcDbLine
 10
810.5698967667719
 20
693.0844105505985
 30
0.0
 11
810.5698967667719
 21
424.7439565505986
 31
0.0
  0
SOLID
  5
B3A
330
B3E
100
AcDbEntity
  8
0
  6
ByBlock
 62
     0
380
     1
100
AcDbTrace
 10
810.5698967667719
 20
703.0844105505985
 30
0.0
 11
808.9032301001052
 21
693.0844105505985
 31
0.0
 12
812.2365634334385
 22
693.0844105505985
 32
0.0
 13
812.2365634334385
 23
693.0844105505985
 33
0.0
  0
SOLID
  5
B3B
330
B3E
100
AcDbEntity
  8
0
  6
ByBlock
 62
     0
380
     1
100
AcDbTrace
 10
810.5698967667719
 20
414.7439565505986
 30
0.0
 11
808.9032301001052
 21
424.7439565505986
 31
0.0
 12
812.2365634334385
 22
424.7439565505986
 32
0.0
 13
812.2365634334385
 23
424.7439565505986
 33
0.0
  0
MTEXT
  5
B3C
330
B3E
100
AcDbEntity
  8
0
  6
ByBlock
 62
     0
370
    -2
380
     1
100
AcDbMText
 10
784.3698967667718
 20
558.9141835505985
 30
0.0
 40
36.0
 41
0.0
 71
     5
 72
     1
  1
\A1;288
 11
6.123031769111886E-17
 21
1.0
 31
0.0
 73
     1
 44
1.0
  0
ENDBLK
  5
E30
330
B3E
100
AcDbEntity
  8
0
100
AcDbBlockEnd
  0
BLOCK
  5
E31
330
B4A
100
AcDbEntity
  8
0
100
AcDbBlockBegin
  2
*D59
 70
     1
 10
0.0
 20
0.0
 30
0.0
  3
*D59
  1

  0
POINT
  5
B41
330
B4A
100
AcDbEntity
  8
DEFPOINTS
  6
ByBlock
 62
     0
370
    25
380
     1
100
AcDbPoint
 10
845.7253797782085
 20
543.2935471870867
 30
0.0
  0
POINT
  5
B42
330
B4A
100
AcDbEntity
  8
DEFPOINTS
  6
ByBlock
 62
     0
370
    25
380
     1
100
AcDbPoint
 10
1123.934925618548
 20
544.2824115487118
 30
0.0
  0
LINE
  5
B43
330
B4A
100
AcDbEntity
  8
0
  6
ByBlock
 62
     0
370
    -2
380
     1
100
AcDbLine
 10
845.7253797782085
 20
543.9185471870867
 30
0.0
 11
845.7253797782085
 21
737.3679743449408
 31
0.0
  0
LINE
  5
B44
330
B4A
100
AcDbEntity
  8
0
  6
ByBlock
 62
     0
370
    -2
380
     1
100
AcDbLine
 10
1123.934925618548
 20
544.9074115487118
 30
0.0
 11
1123.934925618548
 21
737.3679743449408
 31
0.0
  0
LINE
  5
B45
330
B4A
100
AcDbEntity
  8
0
  6
ByBlock
 62
     0
370
    -2
380
     1
100
AcDbLine
 10
848.2253797782085
 20
736.1179743449408
 30
0.0
 11
1121.434925618548
 21
736.1179743449408
 31
0.0
  0
SOLID
  5
B46
330
B4A
100
AcDbEntity
  8
0
  6
ByBlock
 62
     0
370
    25
380
     1
100
AcDbTrace
 10
845.7253797782085
 20
736.1179743449408
 30
0.0
 11
848.2253797782085
 21
735.7013076782741
 31
0.0
 12
848.2253797782085
 22
736.5346410116074
 32
0.0
 13
848.2253797782085
 23
736.5346410116074
 33
0.0
  0
SOLID
  5
B47
330
B4A
100
AcDbEntity
  8
0
  6
ByBlock
 62
     0
370
    25
380
     1
100
AcDbTrace
 10
1123.934925618548
 20
736.1179743449408
 30
0.0
 11
1121.434925618548
 21
735.7013076782741
 31
0.0
 12
1121.434925618548
 22
736.5346410116074
 32
0.0
 13
1121.434925618548
 23
736.5346410116074
 33
0.0
  0
MTEXT
  5
B48
330
B4A
100
AcDbEntity
  8
0
  6
ByBlock
 62
     0
370
    -2
380
     1
100
AcDbMText
 10
984.8301526983785
 20
738.1179743449408
 30
0.0
 40
2.5
 41
0.0
 71
     5
 72
     1
  1
\A1;278,21
 73
     1
 44
1.0
  0
ENDBLK
  5
E32
330
B4A
100
AcDbEntity
  8
0
100
AcDbBlockEnd
  0
BLOCK
  5
E33
330
B55
100
AcDbEntity
  8
0
100
AcDbBlockBegin
  2
*D60
 70
     1
 10
0.0
 20
0.0
 30
0.0
  3
*D60
  1

  0
POINT
  5
B4C
330
B55
100
AcDbEntity
  8
DEFPOINTS
  6
ByBlock
 62
     0
370
    25
380
     1
100
AcDbPoint
 10
845.7253797782085
 20
543.2935471870867
 30
0.0
  0
POINT
  5
B4D
330
B55
100
AcDbEntity
  8
DEFPOINTS
  6
ByBlock
 62
     0
370
    25
380
     1
100
AcDbPoint
 10
1123.934925618548
 20
544.2824115487118
 30
0.0
  0
LINE
  5
B4E
330
B55
100
AcDbEntity
  8
0
  6
ByBlock
 62
     0
370
    -2
380
     1
100
AcDbLine
 10
845.7253797782085
 20
543.9185471870867
 30
0.0
 11
845.7253797782085
 21
737.3679743449408
 31
0.0
  0
LINE
  5
B4F
330
B55
100
AcDbEntity
  8
0
  6
ByBlock
 62
     0
370
    -2
380
     1
100
AcDbLine
 10
1123.934925618548
 20
544.9074115487118
 30
0.0
 11
1123.934925618548
 21
737.3679743449408
 31
0.0
  0
LINE
  5
B50
330
B55
100
AcDbEntity
  8
0
  6
ByBlock
 62
     0
370
    -2
380
     1
100
AcDbLine
 10
855.7253797782085
 20
736.1179743449408
 30
0.0
 11
1113.934925618548
 21
736.1179743449408
 31
0.0
  0
SOLID
  5
B51
330
B55
100
AcDbEntity
  8
0
  6
ByBlock
 62
     0
370
    25
380
     1
100
AcDbTrace
 10
845.7253797782085
 20
736.1179743449408
 30
0.0
 11
855.7253797782085
 21
734.4513076782741
 31
0.0
 12
855.7253797782085
 22
737.7846410116074
 32
0.0
 13
855.7253797782085
 23
737.7846410116074
 33
0.0
  0
SOLID
  5
B52
330
B55
100
AcDbEntity
  8
0
  6
ByBlock
 62
     0
370
    25
380
     1
100
AcDbTrace
 10
1123.934925618548
 20
736.1179743449408
 30
0.0
 11
1113.934925618548
 21
734.4513076782741
 31
0.0
 12
1113.934925618548
 22
737.7846410116074
 32
0.0
 13
1113.934925618548
 23
737.7846410116074
 33
0.0
  0
MTEXT
  5
B53
330
B55
100
AcDbEntity
  8
0
  6
ByBlock
 62
     0
370
    -2
380
     1
100
AcDbMText
 10
984.8301526983785
 20
762.3179743449408
 30
0.0
 40
36.0
 41
0.0
 71
     5
 72
     1
  1
\A1;278
 73
     1
 44
1.0
  0
ENDBLK
  5
E34
330
B55
100
AcDbEntity
  8
0
100
AcDbBlockEnd
  0
BLOCK
  5
E35
330
B63
100
AcDbEntity
  8
0
100
AcDbBlockBegin
  2
*D61
 70
     1
 10
0.0
 20
0.0
 30
0.0
  3
*D61
  1

  0
POINT
  5
B58
330
B63
100
AcDbEntity
  8
DEFPOINTS
  6
ByBlock
 62
     0
370
    25
380
     1
100
AcDbPoint
 10
1192.146386629126
 20
636.2448136950495
 30
0.0
  0
POINT
  5
B59
330
B63
100
AcDbEntity
  8
DEFPOINTS
  6
ByBlock
 62
     0
370
    25
380
     1
100
AcDbPoint
 10
1192.146386629126
 20
632.2894409960439
 30
0.0
  0
LINE
  5
B5A
330
B63
100
AcDbEntity
  8
0
  6
ByBlock
 62
     0
370
    -2
380
     1
100
AcDbLine
 10
1192.146386629126
 20
636.8698136950495
 30
0.0
 11
1192.146386629126
 21
739.3456606944435
 31
0.0
  0
LINE
  5
B5B
330
B63
100
AcDbEntity
  8
0
  6
ByBlock
 62
     0
370
    -2
380
     1
100
AcDbLine
 10
1192.146386629126
 20
632.9144409960439
 30
0.0
 11
1192.146386629126
 21
739.3456606944435
 31
0.0
  0
LINE
  5
B5C
330
B63
100
AcDbEntity
  8
0
  6
ByBlock
 62
     0
370
    -2
380
     1
100
AcDbLine
 10
1189.646386629126
 20
738.0956606944435
 30
0.0
 11
1187.146386629126
 21
738.0956606944435
 31
0.0
  0
LINE
  5
B5D
330
B63
100
AcDbEntity
  8
0
  6
ByBlock
 62
     0
370
    -2
380
     1
100
AcDbLine
 10
1194.646386629126
 20
738.0956606944435
 30
0.0
 11
1198.896386629126
 21
738.0956606944435
 31
0.0
  0
SOLID
  5
B5E
330
B63
100
AcDbEntity
  8
0
  6
ByBlock
 62
     0
370
    25
380
     1
100
AcDbTrace
 10
1192.146386629126
 20
738.0956606944435
 30
0.0
 11
1189.646386629126
 21
737.6789940277769
 31
0.0
 12
1189.646386629126
 22
738.5123273611101
 32
0.0
 13
1189.646386629126
 23
738.5123273611101
 33
0.0
  0
SOLID
  5
B5F
330
B63
100
AcDbEntity
  8
0
  6
ByBlock
 62
     0
370
    25
380
     1
100
AcDbTrace
 10
1192.146386629126
 20
738.0956606944435
 30
0.0
 11
1194.646386629126
 21
737.6789940277769
 31
0.0
 12
1194.646386629126
 22
738.5123273611101
 32
0.0
 13
1194.646386629126
 23
738.5123273611101
 33
0.0
  0
LINE
  5
B60
330
B63
100
AcDbEntity
  8
0
  6
ByBlock
 62
     0
370
    -2
380
     1
100
AcDbLine
 10
1192.146386629126
 20
738.0956606944435
 30
0.0
 11
1192.146386629126
 21
738.0956606944435
 31
0.0
  0
MTEXT
  5
B61
330
B63
100
AcDbEntity
  8
0
  6
ByBlock
 62
     0
370
    -2
380
     1
100
AcDbMText
 10
1198.021386629126
 20
739.846644946412
 30
0.0
 40
2.5
 41
0.0
 71
     5
 72
     1
  1
\A1;0
 73
     1
 44
1.0
  0
ENDBLK
  5
E36
330
B63
100
AcDbEntity
  8
0
100
AcDbBlockEnd
  0
BLOCK
  5
E37
330
B72
100
AcDbEntity
  8
0
100
AcDbBlockBegin
  2
*D62
 70
     1
 10
0.0
 20
0.0
 30
0.0
  3
*D62
  1

  0
POINT
  5
B67
330
B72
100
AcDbEntity
  8
DEFPOINTS
  6
ByBlock
 62
     0
370
    25
380
     1
100
AcDbPoint
 10
1192.146386629126
 20
678.6182888006072
 30
0.0
  0
POINT
  5
B68
330
B72
100
AcDbEntity
  8
DEFPOINTS
  6
ByBlock
 62
     0
370
    25
380
     1
100
AcDbPoint
 10
1196.146386629126
 20
678.1354552191856
 30
0.0
  0
LINE
  5
B69
330
B72
100
AcDbEntity
  8
0
  6
ByBlock
 62
     0
370
    -2
380
     1
100
AcDbLine
 10
1192.146386629126
 20
679.2432888006072
 30
0.0
 11
1192.146386629126
 21
737.3679743449408
 31
0.0
  0
LINE
  5
B6A
330
B72
100
AcDbEntity
  8
0
  6
ByBlock
 62
     0
370
    -2
380
     1
100
AcDbLine
 10
1196.146386629126
 20
678.7604552191856
 30
0.0
 11
1196.146386629126
 21
737.3679743449408
 31
0.0
  0
LINE
  5
B6B
330
B72
100
AcDbEntity
  8
0
  6
ByBlock
 62
     0
370
    -2
380
     1
100
AcDbLine
 10
1189.646386629126
 20
736.1179743449408
 30
0.0
 11
1187.146386629126
 21
736.1179743449408
 31
0.0
  0
LINE
  5
B6C
330
B72
100
AcDbEntity
  8
0
  6
ByBlock
 62
     0
370
    -2
380
     1
100
AcDbLine
 10
1198.646386629126
 20
736.1179743449408
 30
0.0
 11
1201.146386629126
 21
736.1179743449408
 31
0.0
  0
SOLID
  5
B6D
330
B72
100
AcDbEntity
  8
0
  6
ByBlock
 62
     0
370
    25
380
     1
100
AcDbTrace
 10
1192.146386629126
 20
736.1179743449408
 30
0.0
 11
1189.646386629126
 21
735.7013076782741
 31
0.0
 12
1189.646386629126
 22
736.5346410116074
 32
0.0
 13
1189.646386629126
 23
736.5346410116074
 33
0.0
  0
SOLID
  5
B6E
330
B72
100
AcDbEntity
  8
0
  6
ByBlock
 62
     0
370
    25
380
     1
100
AcDbTrace
 10
1196.146386629126
 20
736.1179743449408
 30
0.0
 11
1198.646386629126
 21
735.7013076782741
 31
0.0
 12
1198.646386629126
 22
736.5346410116074
 32
0.0
 13
1198.646386629126
 23
736.5346410116074
 33
0.0
  0
LINE
  5
B6F
330
B72
100
AcDbEntity
  8
0
  6
ByBlock
 62
     0
370
    -2
380
     1
100
AcDbLine
 10
1192.146386629126
 20
736.1179743449408
 30
0.0
 11
1196.146386629126
 21
736.1179743449408
 31
0.0
  0
MTEXT
  5
B70
330
B72
100
AcDbEntity
  8
0
  6
ByBlock
 62
     0
370
    -2
380
     1
100
AcDbMText
 10
1194.146386629126
 20
737.8679743449408
 30
0.0
 40
2.5
 41
0.0
 71
     5
 72
     1
  1
\A1;4
 73
     1
 44
1.0
  0
ENDBLK
  5
E38
330
B72
100
AcDbEntity
  8
0
100
AcDbBlockEnd
  0
BLOCK
  5
E39
330
B7F
100
AcDbEntity
  8
0
100
AcDbBlockBegin
  2
*D63
 70
     1
 10
0.0
 20
0.0
 30
0.0
  3
*D63
  1

  0
POINT
  5
B74
330
B7F
100
AcDbEntity
  8
DEFPOINTS
  6
ByBlock
 62
     0
370
    25
380
     1
100
AcDbPoint
 10
1192.146386629126
 20
678.6182888006072
 30
0.0
  0
POINT
  5
B75
330
B7F
100
AcDbEntity
  8
DEFPOINTS
  6
ByBlock
 62
     0
370
    25
380
     1
100
AcDbPoint
 10
1196.146386629126
 20
678.1354552191856
 30
0.0
  0
LINE
  5
B76
330
B7F
100
AcDbEntity
  8
0
  6
ByBlock
 62
     0
370
    -2
380
     1
100
AcDbLine
 10
1192.146386629126
 20
679.2432888006072
 30
0.0
 11
1192.146386629126
 21
737.3679743449408
 31
0.0
  0
LINE
  5
B77
330
B7F
100
AcDbEntity
  8
0
  6
ByBlock
 62
     0
370
    -2
380
     1
100
AcDbLine
 10
1196.146386629126
 20
678.7604552191856
 30
0.0
 11
1196.146386629126
 21
737.3679743449408
 31
0.0
  0
LINE
  5
B78
330
B7F
100
AcDbEntity
  8
0
  6
ByBlock
 62
     0
370
    -2
380
     1
100
AcDbLine
 10
1182.146386629126
 20
736.1179743449408
 30
0.0
 11
1172.146386629126
 21
736.1179743449408
 31
0.0
  0
LINE
  5
B79
330
B7F
100
AcDbEntity
  8
0
  6
ByBlock
 62
     0
370
    -2
380
     1
100
AcDbLine
 10
1206.146386629126
 20
736.1179743449408
 30
0.0
 11
1254.146386629126
 21
736.1179743449408
 31
0.0
  0
SOLID
  5
B7A
330
B7F
100
AcDbEntity
  8
0
  6
ByBlock
 62
     0
370
    25
380
     1
100
AcDbTrace
 10
1192.146386629126
 20
736.1179743449408
 30
0.0
 11
1182.146386629126
 21
734.4513076782741
 31
0.0
 12
1182.146386629126
 22
737.7846410116074
 32
0.0
 13
1182.146386629126
 23
737.7846410116074
 33
0.0
  0
SOLID
  5
B7B
330
B7F
100
AcDbEntity
  8
0
  6
ByBlock
 62
     0
370
    25
380
     1
100
AcDbTrace
 10
1196.146386629126
 20
736.1179743449408
 30
0.0
 11
1206.146386629126
 21
734.4513076782741
 31
0.0
 12
1206.146386629126
 22
737.7846410116074
 32
0.0
 13
1206.146386629126
 23
737.7846410116074
 33
0.0
  0
LINE
  5
B7C
330
B7F
100
AcDbEntity
  8
0
  6
ByBlock
 62
     0
370
    -2
380
     1
100
AcDbLine
 10
1192.146386629126
 20
736.1179743449408
 30
0.0
 11
1196.146386629126
 21
736.1179743449408
 31
0.0
  0
MTEXT
  5
B7D
330
B7F
100
AcDbEntity
  8
0
  6
ByBlock
 62
     0
370
    -2
380
     1
100
AcDbMText
 10
1235.146386629126
 20
762.3179743449408
 30
0.0
 40
36.0
 41
0.0
 71
     5
 72
     1
  1
\A1;4
 73
     1
 44
1.0
  0
ENDBLK
  5
E3A
330
B7F
100
AcDbEntity
  8
0
100
AcDbBlockEnd
  0
BLOCK
  5
E3B
330
B8C
100
AcDbEntity
  8
0
100
AcDbBlockBegin
  2
*D64
 70
     1
 10
0.0
 20
0.0
 30
0.0
  3
*D64
  1

  0
POINT
  5
B81
330
B8C
100
AcDbEntity
  8
DEFPOINTS
  6
ByBlock
 62
     0
370
    25
380
     1
100
AcDbPoint
 10
1192.146386629126
 20
678.6182888006072
 30
0.0
  0
POINT
  5
B82
330
B8C
100
AcDbEntity
  8
DEFPOINTS
  6
ByBlock
 62
     0
370
    25
380
     1
100
AcDbPoint
 10
1196.146386629126
 20
678.1354552191856
 30
0.0
  0
LINE
  5
B83
330
B8C
100
AcDbEntity
  8
0
  6
ByBlock
 62
     0
370
    -2
380
     1
100
AcDbLine
 10
1192.146386629126
 20
679.2432888006072
 30
0.0
 11
1192.146386629126
 21
737.3679743449408
 31
0.0
  0
LINE
  5
B84
330
B8C
100
AcDbEntity
  8
0
  6
ByBlock
 62
     0
370
    -2
380
     1
100
AcDbLine
 10
1196.146386629126
 20
678.7604552191856
 30
0.0
 11
1196.146386629126
 21
737.3679743449408
 31
0.0
  0
LINE
  5
B85
330
B8C
100
AcDbEntity
  8
0
  6
ByBlock
 62
     0
370
    -2
380
     1
100
AcDbLine
 10
1182.146386629126
 20
736.1179743449408
 30
0.0
 11
1172.146386629126
 21
736.1179743449408
 31
0.0
  0
LINE
  5
B86
330
B8C
100
AcDbEntity
  8
0
  6
ByBlock
 62
     0
370
    -2
380
     1
100
AcDbLine
 10
1206.146386629126
 20
736.1179743449408
 30
0.0
 11
1216.146386629126
 21
736.1179743449408
 31
0.0
  0
SOLID
  5
B87
330
B8C
100
AcDbEntity
  8
0
  6
ByBlock
 62
     0
370
    25
380
     1
100
AcDbTrace
 10
1192.146386629126
 20
736.1179743449408
 30
0.0
 11
1182.146386629126
 21
734.4513076782741
 31
0.0
 12
1182.146386629126
 22
737.7846410116074
 32
0.0
 13
1182.146386629126
 23
737.7846410116074
 33
0.0
  0
SOLID
  5
B88
330
B8C
100
AcDbEntity
  8
0
  6
ByBlock
 62
     0
370
    25
380
     1
100
AcDbTrace
 10
1196.146386629126
 20
736.1179743449408
 30
0.0
 11
1206.146386629126
 21
734.4513076782741
 31
0.0
 12
1206.146386629126
 22
737.7846410116074
 32
0.0
 13
1206.146386629126
 23
737.7846410116074
 33
0.0
  0
LINE
  5
B89
330
B8C
100
AcDbEntity
  8
0
  6
ByBlock
 62
     0
370
    -2
380
     1
100
AcDbLine
 10
1192.146386629126
 20
736.1179743449408
 30
0.0
 11
1196.146386629126
 21
736.1179743449408
 31
0.0
  0
MTEXT
  5
B8A
330
B8C
100
AcDbEntity
  8
0
  6
ByBlock
 62
     0
370
    -2
380
     1
100
AcDbMText
 10
1194.146386629126
 20
762.3179743449408
 30
0.0
 40
36.0
 41
0.0
 71
     5
 72
     1
  1
\A1;4
 73
     1
 44
1.0
  0
ENDBLK
  5
E3C
330
B8C
100
AcDbEntity
  8
0
100
AcDbBlockEnd
  0
BLOCK
  5
E3D
330
C1D
100
AcDbEntity
  8
0
100
AcDbBlockBegin
  2
VDCLIP_6_105
 70
     0
 10
0.0
 20
0.0
 30
0.0
  3
VDCLIP_6_105
  1

  0
INSERT
  5
C18
330
C1D
100
AcDbEntity
  8
0
100
AcDbBlockReference
  2
VDCLIP_6_104
 10
-18.77832287
 20
0.0081932
 30
0.0
  0
DIMENSION
  5
C19
330
C1D
100
AcDbEntity
  8
0
370
    40
100
AcDbDimension
  2
*D66
 10
165.2631658874774
 20
154.8989761881542
 30
0.0
 11
176.5665492718766
 21
195.8777771981381
 31
0.0
 70
    32
 71
     0
 42
81.95760194894666
  3
Standard
100
AcDbAlignedDimension
 13
3.84794499
 23
236.85657763
 33
0.0
 14
-28.31832562
 24
154.89897558
 34
0.0
 50
90.00000018
100
AcDbRotatedDimension
1001
ACAD
1000
DSTYLE
1002
{
1070
   179
1070
     4
1070
   171
1070
     2
1070
   143
1040
25.4
1070
   274
1070
     2
1070
    41
1040
10.0
1070
   289
1070
     3
1070
   275
1070
     1
1070
   141
1040
0.09
1070
   271
1070
     4
1070
    43
1040
0.38
1070
   278
1070
    46
1070
    44
1040
0.2
1070
    42
1040
0.05
1070
   147
1040
5.0
1070
   272
1070
     4
1070
    48
1040
1.0
1070
   172
1070
     0
1070
    74
1070
     1
1070
   283
1070
     1
1070
    47
1040
1.0
1070
   140
1040
14.0
1070
   284
1070
     0
1070
    78
1070
     1
1002
}
  0
DIMENSION
  5
C1A
330
C1D
100
AcDbEntity
  8
0
370
    40
100
AcDbDimension
  2
*D67
 10
164.1633557951508
 20
-236.8995475914262
 30
0.0
 11
175.468867118599
 21
-81.69947337419994
 31
0.0
 70
   160
 71
     0
 42
310.4001498
  3
Standard
100
AcDbAlignedDimension
 13
-64.565811
 23
73.50060149
 33
0.0
 14
-64.565811
 24
-236.89954831
 34
0.0
 50
90.00000018
100
AcDbRotatedDimension
1001
ACAD
1000
DSTYLE
1002
{
1070
   179
1070
     4
1070
   171
1070
     2
1070
   143
1040
25.4
1070
   274
1070
     2
1070
    41
1040
10.0
1070
   289
1070
     3
1070
   275
1070
     1
1070
   141
1040
0.09
1070
   271
1070
     4
1070
    43
1040
0.38
1070
   278
1070
    46
1070
    44
1040
0.2
1070
    42
1040
0.05
1070
   147
1040
5.0
1070
   272
1070
     4
1070
    48
1040
1.0
1070
   172
1070
     0
1070
    74
1070
     1
1070
   283
1070
     1
1070
    47
1040
1.0
1070
   140
1040
14.0
1070
   284
1070
     0
1070
    78
1070
     1
1002
}
  0
DIMENSION
  5
C1B
330
C1D
100
AcDbEntity
  8
0
370
    40
100
AcDbDimension
  2
*D68
 10
129.28822349
 20
104.08253544
 30
0.0
 11
-18.81638406499999
 21
115.3893024662757
 31
0.0
 70
    32
 71
     0
 42
296.20921511
  3
Standard
100
AcDbAlignedDimension
 13
-166.92099162
 23
-79.85664567
 33
0.0
 14
129.28822349
 24
-79.85664567
 34
0.0
100
AcDbRotatedDimension
1001
ACAD
1000
DSTYLE
1002
{
1070
   179
1070
     4
1070
   171
1070
     2
1070
   143
1040
25.4
1070
   274
1070
     2
1070
    41
1040
10.0
1070
   289
1070
     3
1070
   275
1070
     1
1070
   141
1040
0.09
1070
   271
1070
     4
1070
    43
1040
0.38
1070
   278
1070
    46
1070
    44
1040
0.2
1070
    42
1040
0.05
1070
   147
1040
5.0
1070
   272
1070
     4
1070
    48
1040
1.0
1070
   172
1070
     0
1070
    74
1070
     1
1070
   283
1070
     1
1070
    47
1040
1.0
1070
   140
1040
14.0
1070
   284
1070
     0
1070
    78
1070
     1
1002
}
  0
ENDBLK
  5
E3E
330
C1D
100
AcDbEntity
  8
0
100
AcDbBlockEnd
  0
BLOCK
  5
E3F
330
C2A
100
AcDbEntity
  8
0
100
AcDbBlockBegin
  2
*D66
 70
     1
 10
0.0
 20
0.0
 30
0.0
  3
*D66
  1

  0
POINT
  5
C20
330
C2A
100
AcDbEntity
  8
DEFPOINTS
  6
ByBlock
 62
     0
370
    25
380
     1
100
AcDbPoint
 10
3.84794499
 20
236.85657763
 30
0.0
  0
POINT
  5
C21
330
C2A
100
AcDbEntity
  8
DEFPOINTS
  6
ByBlock
 62
     0
370
    25
380
     1
100
AcDbPoint
 10
-28.31832562
 20
154.89897558
 30
0.0
  0
LINE
  5
C22
330
C2A
100
AcDbEntity
  8
0
  6
ByBlock
 62
     0
370
    -2
380
     1
100
AcDbLine
 10
3.89794499
 20
236.8565776301571
 30
0.0
 11
165.46316563
 21
236.8565781377292
 31
0.0
  0
LINE
  5
C23
330
C2A
100
AcDbEntity
  8
0
  6
ByBlock
 62
     0
370
    -2
380
     1
100
AcDbLine
 10
-28.26832562
 20
154.8989755801571
 30
0.0
 11
165.4631658874774
 21
154.8989761887825
 31
0.0
  0
LINE
  5
C24
330
C2A
100
AcDbEntity
  8
0
  6
ByBlock
 62
     0
370
    -2
380
     1
100
AcDbLine
 10
165.2631655985841
 20
246.8565781371009
 30
0.0
 11
165.2631655671682
 21
256.8565781371009
 31
0.0
  0
LINE
  5
C25
330
C2A
100
AcDbEntity
  8
0
  6
ByBlock
 62
     0
370
    -2
380
     1
100
AcDbLine
 10
165.2631659188933
 20
144.8989761881542
 30
0.0
 11
165.2631659503093
 21
134.8989761881542
 31
0.0
  0
SOLID
  5
C26
330
C2A
100
AcDbEntity
  8
0
  6
ByBlock
 62
     0
370
    25
380
     1
100
AcDbTrace
 10
165.26316563
 20
236.8565781371009
 30
0.0
 11
163.5964989319174
 21
246.8565781318649
 31
0.0
 12
166.9298322652508
 22
246.8565781423368
 32
0.0
 13
166.9298322652508
 23
246.8565781423368
 33
0.0
  0
SOLID
  5
C27
330
C2A
100
AcDbEntity
  8
0
  6
ByBlock
 62
     0
370
    25
380
     1
100
AcDbTrace
 10
165.2631658874774
 20
154.8989761881542
 30
0.0
 11
163.5964992522267
 21
144.8989761829182
 31
0.0
 12
166.92983258556
 22
144.8989761933902
 32
0.0
 13
166.92983258556
 23
144.8989761933902
 33
0.0
  0
MTEXT
  5
C28
330
C2A
100
AcDbEntity
  8
0
  6
ByBlock
 62
     0
370
    -2
380
     1
100
AcDbMText
 10
176.5665492718766
 20
195.8777771981381
 30
0.0
 40
14.0
 41
0.0
 71
     5
 72
     1
  1
\A1;81.9576
 11
3.141592824941605E-9
 21
-1.0
 31
0.0
 73
     1
 44
1.0
  0
ENDBLK
  5
E40
330
C2A
100
AcDbEntity
  8
0
100
AcDbBlockEnd
  0
BLOCK
  5
E41
330
C35
100
AcDbEntity
  8
0
100
AcDbBlockBegin
  2
*D67
 70
     1
 10
0.0
 20
0.0
 30
0.0
  3
*D67
  1

  0
POINT
  5
C2C
330
C35
100
AcDbEntity
  8
DEFPOINTS
  6
ByBlock
 62
     0
370
    25
380
     1
100
AcDbPoint
 10
-64.565811
 20
73.50060149
 30
0.0
  0
POINT
  5
C2D
330
C35
100
AcDbEntity
  8
DEFPOINTS
  6
ByBlock
 62
     0
370
    25
380
     1
100
AcDbPoint
 10
-64.565811
 20
-236.89954831
 30
0.0
  0
LINE
  5
C2E
330
C35
100
AcDbEntity
  8
0
  6
ByBlock
 62
     0
370
    -2
380
     1
100
AcDbLine
 10
-64.515811
 20
73.50060149015707
 30
0.0
 11
164.36335482
 21
73.50060220920216
 31
0.0
  0
LINE
  5
C2F
330
C35
100
AcDbEntity
  8
0
  6
ByBlock
 62
     0
370
    -2
380
     1
100
AcDbLine
 10
-64.515811
 20
-236.8995483098429
 30
0.0
 11
164.3633557951508
 21
-236.8995475907979
 31
0.0
  0
LINE
  5
C30
330
C35
100
AcDbEntity
  8
0
  6
ByBlock
 62
     0
370
    -2
380
     1
100
AcDbLine
 10
164.1633548514159
 20
63.50060220857385
 30
0.0
 11
164.1633557637349
 21
-226.8995475914262
 31
0.0
  0
SOLID
  5
C31
330
C35
100
AcDbEntity
  8
0
  6
ByBlock
 62
     0
370
    25
380
     1
100
AcDbTrace
 10
164.16335482
 20
73.50060220857384
 30
0.0
 11
162.4966881847493
 21
63.50060220333786
 31
0.0
 12
165.8300215180826
 22
63.50060221380983
 32
0.0
 13
165.8300215180826
 23
63.50060221380983
 33
0.0
  0
SOLID
  5
C32
330
C35
100
AcDbEntity
  8
0
  6
ByBlock
 62
     0
370
    25
380
     1
100
AcDbTrace
 10
164.1633557951508
 20
-236.8995475914262
 30
0.0
 11
162.4966890970682
 21
-226.8995475966622
 31
0.0
 12
165.8300224304015
 22
-226.8995475861902
 32
0.0
 13
165.8300224304015
 23
-226.8995475861902
 33
0.0
  0
MTEXT
  5
C33
330
C35
100
AcDbEntity
  8
0
  6
ByBlock
 62
     0
370
    -2
380
     1
100
AcDbMText
 10
175.468867118599
 20
-81.69947337419994
 30
0.0
 40
14.0
 41
0.0
 71
     5
 72
     1
  1
\A1;310.4001
 11
3.141592580020334E-9
 21
-1.0
 31
0.0
 73
     1
 44
1.0
  0
ENDBLK
  5
E42
330
C35
100
AcDbEntity
  8
0
100
AcDbBlockEnd
  0
BLOCK
  5
E43
330
C40
100
AcDbEntity
  8
0
100
AcDbBlockBegin
  2
*D68
 70
     1
 10
0.0
 20
0.0
 30
0.0
  3
*D68
  1

  0
POINT
  5
C37
330
C40
100
AcDbEntity
  8
DEFPOINTS
  6
ByBlock
 62
     0
370
    25
380
     1
100
AcDbPoint
 10
-166.92099162
 20
-79.85664567
 30
0.0
  0
POINT
  5
C38
330
C40
100
AcDbEntity
  8
DEFPOINTS
  6
ByBlock
 62
     0
370
    25
380
     1
100
AcDbPoint
 10
129.28822349
 20
-79.85664567
 30
0.0
  0
LINE
  5
C39
330
C40
100
AcDbEntity
  8
0
  6
ByBlock
 62
     0
370
    -2
380
     1
100
AcDbLine
 10
-166.92099162
 20
-79.80664567000001
 30
0.0
 11
-166.92099162
 21
104.28253544
 31
0.0
  0
LINE
  5
C3A
330
C40
100
AcDbEntity
  8
0
  6
ByBlock
 62
     0
370
    -2
380
     1
100
AcDbLine
 10
129.28822349
 20
-79.80664567000001
 30
0.0
 11
129.28822349
 21
104.28253544
 31
0.0
  0
LINE
  5
C3B
330
C40
100
AcDbEntity
  8
0
  6
ByBlock
 62
     0
370
    -2
380
     1
100
AcDbLine
 10
-156.92099162
 20
104.08253544
 30
0.0
 11
119.28822349
 21
104.08253544
 31
0.0
  0
SOLID
  5
C3C
330
C40
100
AcDbEntity
  8
0
  6
ByBlock
 62
     0
370
    25
380
     1
100
AcDbTrace
 10
-166.92099162
 20
104.08253544
 30
0.0
 11
-156.92099162
 21
102.4158687733333
 31
0.0
 12
-156.92099162
 22
105.7492021066666
 32
0.0
 13
-156.92099162
 23
105.7492021066666
 33
0.0
  0
SOLID
  5
C3D
330
C40
100
AcDbEntity
  8
0
  6
ByBlock
 62
     0
370
    25
380
     1
100
AcDbTrace
 10
129.28822349
 20
104.08253544
 30
0.0
 11
119.28822349
 21
102.4158687733333
 31
0.0
 12
119.28822349
 22
105.7492021066666
 32
0.0
 13
119.28822349
 23
105.7492021066666
 33
0.0
  0
MTEXT
  5
C3E
330
C40
100
AcDbEntity
  8
0
  6
ByBlock
 62
     0
370
    -2
380
     1
100
AcDbMText
 10
-18.81638406499999
 20
115.3893024662757
 30
0.0
 40
14.0
 41
0.0
 71
     5
 72
     1
  1
\A1;296.2092
 73
     1
 44
1.0
  0
ENDBLK
  5
E44
330
C40
100
AcDbEntity
  8
0
100
AcDbBlockEnd
  0
BLOCK
  5
E45
330
C52
100
AcDbEntity
  8
0
100
AcDbBlockBegin
  2
*D69
 70
     1
 10
0.0
 20
0.0
 30
0.0
  3
*D69
  1

  0
POINT
  5
C48
330
C52
100
AcDbEntity
  8
DEFPOINTS
  6
ByBlock
 62
     0
370
    25
380
     1
100
AcDbPoint
 10
28.65654731
 20
194.25686237
 30
0.0
  0
POINT
  5
C49
330
C52
100
AcDbEntity
  8
DEFPOINTS
  6
ByBlock
 62
     0
370
    25
380
     1
100
AcDbPoint
 10
-3.509723300000001
 20
112.29926032
 30
0.0
  0
LINE
  5
C4A
330
C52
100
AcDbEntity
  8
0
  6
ByBlock
 62
     0
370
    -2
380
     1
100
AcDbLine
 10
28.70654731
 20
194.2568623701571
 30
0.0
 11
190.27176795
 21
194.2568628777292
 31
0.0
  0
LINE
  5
C4B
330
C52
100
AcDbEntity
  8
0
  6
ByBlock
 62
     0
370
    -2
380
     1
100
AcDbLine
 10
-3.459723300000006
 20
112.2992603201571
 30
0.0
 11
190.2717682074774
 21
112.2992609287825
 31
0.0
  0
LINE
  5
C4C
330
C52
100
AcDbEntity
  8
0
  6
ByBlock
 62
     0
370
    -2
380
     1
100
AcDbLine
 10
190.0717679185841
 20
204.2568628771008
 30
0.0
 11
190.0717678871682
 21
214.2568628771008
 31
0.0
  0
LINE
  5
C4D
330
C52
100
AcDbEntity
  8
0
  6
ByBlock
 62
     0
370
    -2
380
     1
100
AcDbLine
 10
190.0717682388934
 20
102.2992609281542
 30
0.0
 11
190.0717682703093
 21
92.29926092815418
 31
0.0
  0
SOLID
  5
C4E
330
C52
100
AcDbEntity
  8
0
  6
ByBlock
 62
     0
370
    25
380
     1
100
AcDbTrace
 10
190.07176795
 20
194.2568628771008
 30
0.0
 11
188.4051012519174
 21
204.2568628718649
 31
0.0
 12
191.7384345852508
 22
204.2568628823368
 32
0.0
 13
191.7384345852508
 23
204.2568628823368
 33
0.0
  0
SOLID
  5
C4F
330
C52
100
AcDbEntity
  8
0
  6
ByBlock
 62
     0
370
    25
380
     1
100
AcDbTrace
 10
190.0717682074774
 20
112.2992609281542
 30
0.0
 11
188.4051015722267
 21
102.2992609229182
 31
0.0
 12
191.73843490556
 22
102.2992609333902
 32
0.0
 13
191.73843490556
 23
102.2992609333902
 33
0.0
  0
MTEXT
  5
C50
330
C52
100
AcDbEntity
  8
0
  6
ByBlock
 62
     0
370
    -2
380
     1
100
AcDbMText
 10
201.3751515918766
 20
153.2780619381381
 30
0.0
 40
14.0
 41
0.0
 71
     5
 72
     1
  1
\A1;81.9576
 11
3.141592824941605E-9
 21
-1.0
 31
0.0
 73
     1
 44
1.0
  0
ENDBLK
  5
E46
330
C52
100
AcDbEntity
  8
0
100
AcDbBlockEnd
  0
BLOCK
  5
E47
330
C5D
100
AcDbEntity
  8
0
100
AcDbBlockBegin
  2
*D70
 70
     1
 10
0.0
 20
0.0
 30
0.0
  3
*D70
  1

  0
POINT
  5
C54
330
C5D
100
AcDbEntity
  8
DEFPOINTS
  6
ByBlock
 62
     0
370
    25
380
     1
100
AcDbPoint
 10
-142.1123893
 20
-122.45636093
 30
0.0
  0
POINT
  5
C55
330
C5D
100
AcDbEntity
  8
DEFPOINTS
  6
ByBlock
 62
     0
370
    25
380
     1
100
AcDbPoint
 10
154.09682581
 20
-122.45636093
 30
0.0
  0
LINE
  5
C56
330
C5D
100
AcDbEntity
  8
0
  6
ByBlock
 62
     0
370
    -2
380
     1
100
AcDbLine
 10
-142.1123893
 20
-122.40636093
 30
0.0
 11
-142.1123893
 21
61.68282017999999
 31
0.0
  0
LINE
  5
C57
330
C5D
100
AcDbEntity
  8
0
  6
ByBlock
 62
     0
370
    -2
380
     1
100
AcDbLine
 10
154.09682581
 20
-122.40636093
 30
0.0
 11
154.09682581
 21
61.68282017999999
 31
0.0
  0
LINE
  5
C58
330
C5D
100
AcDbEntity
  8
0
  6
ByBlock
 62
     0
370
    -2
380
     1
100
AcDbLine
 10
-132.1123893
 20
61.48282018
 30
0.0
 11
144.09682581
 21
61.48282018
 31
0.0
  0
SOLID
  5
C59
330
C5D
100
AcDbEntity
  8
0
  6
ByBlock
 62
     0
370
    25
380
     1
100
AcDbTrace
 10
-142.1123893
 20
61.48282018
 30
0.0
 11
-132.1123893
 21
59.81615351333335
 31
0.0
 12
-132.1123893
 22
63.14948684666666
 32
0.0
 13
-132.1123893
 23
63.14948684666666
 33
0.0
  0
SOLID
  5
C5A
330
C5D
100
AcDbEntity
  8
0
  6
ByBlock
 62
     0
370
    25
380
     1
100
AcDbTrace
 10
154.09682581
 20
61.48282018
 30
0.0
 11
144.09682581
 21
59.81615351333335
 31
0.0
 12
144.09682581
 22
63.14948684666666
 32
0.0
 13
144.09682581
 23
63.14948684666666
 33
0.0
  0
MTEXT
  5
C5B
330
C5D
100
AcDbEntity
  8
0
  6
ByBlock
 62
     0
370
    -2
380
     1
100
AcDbMText
 10
5.992218255000012
 20
72.78958720627571
 30
0.0
 40
14.0
 41
0.0
 71
     5
 72
     1
  1
\A1;296.2092
 73
     1
 44
1.0
  0
ENDBLK
  5
E48
330
C5D
100
AcDbEntity
  8
0
100
AcDbBlockEnd
  0
BLOCK
  5
E49
330
C68
100
AcDbEntity
  8
0
100
AcDbBlockBegin
  2
*D71
 70
     1
 10
0.0
 20
0.0
 30
0.0
  3
*D71
  1

  0
POINT
  5
C5F
330
C68
100
AcDbEntity
  8
DEFPOINTS
  6
ByBlock
 62
     0
370
    25
380
     1
100
AcDbPoint
 10
-39.75720868
 20
30.90088622999999
 30
0.0
  0
POINT
  5
C60
330
C68
100
AcDbEntity
  8
DEFPOINTS
  6
ByBlock
 62
     0
370
    25
380
     1
100
AcDbPoint
 10
-39.75720868
 20
-279.49926357
 30
0.0
  0
LINE
  5
C61
330
C68
100
AcDbEntity
  8
0
  6
ByBlock
 62
     0
370
    -2
380
     1
100
AcDbLine
 10
-39.70720868
 20
30.90088623015707
 30
0.0
 11
189.17195714
 21
30.90088694920216
 31
0.0
  0
LINE
  5
C62
330
C68
100
AcDbEntity
  8
0
  6
ByBlock
 62
     0
370
    -2
380
     1
100
AcDbLine
 10
-39.70720868
 20
-279.4992635698429
 30
0.0
 11
189.1719581151508
 21
-279.4992628507978
 31
0.0
  0
LINE
  5
C63
330
C68
100
AcDbEntity
  8
0
  6
ByBlock
 62
     0
370
    -2
380
     1
100
AcDbLine
 10
188.9719571714159
 20
20.90088694857384
 30
0.0
 11
188.9719580837349
 21
-269.4992628514261
 31
0.0
  0
SOLID
  5
C64
330
C68
100
AcDbEntity
  8
0
  6
ByBlock
 62
     0
370
    25
380
     1
100
AcDbTrace
 10
188.97195714
 20
30.90088694857384
 30
0.0
 11
187.3052905047493
 21
20.90088694333785
 31
0.0
 12
190.6386238380826
 22
20.90088695380983
 32
0.0
 13
190.6386238380826
 23
20.90088695380983
 33
0.0
  0
SOLID
  5
C65
330
C68
100
AcDbEntity
  8
0
  6
ByBlock
 62
     0
370
    25
380
     1
100
AcDbTrace
 10
188.9719581151508
 20
-279.4992628514261
 30
0.0
 11
187.3052914170682
 21
-269.4992628566621
 31
0.0
 12
190.6386247504015
 22
-269.4992628461901
 32
0.0
 13
190.6386247504015
 23
-269.4992628461901
 33
0.0
  0
MTEXT
  5
C66
330
C68
100
AcDbEntity
  8
0
  6
ByBlock
 62
     0
370
    -2
380
     1
100
AcDbMText
 10
200.277469438599
 20
-124.2991886341999
 30
0.0
 40
14.0
 41
0.0
 71
     5
 72
     1
  1
\A1;310.4001
 11
3.141592580020334E-9
 21
-1.0
 31
0.0
 73
     1
 44
1.0
  0
ENDBLK
  5
E4A
330
C68
100
AcDbEntity
  8
0
100
AcDbBlockEnd
  0
BLOCK
  5
E4B
330
C74
100
AcDbEntity
  8
0
100
AcDbBlockBegin
  2
*D72
 70
     1
 10
0.0
 20
0.0
 30
0.0
  3
*D72
  1

  0
POINT
  5
C6A
330
C74
100
AcDbEntity
  8
DEFPOINTS
  6
ByBlock
 62
     0
370
    25
380
     1
100
AcDbPoint
 10
1041.811320343015
 20
1163.501339872971
 30
0.0
  0
POINT
  5
C6B
330
C74
100
AcDbEntity
  8
DEFPOINTS
  6
ByBlock
 62
     0
370
    25
380
     1
100
AcDbPoint
 10
1009.645049733015
 20
1081.543737822971
 30
0.0
  0
LINE
  5
C6C
330
C74
100
AcDbEntity
  8
0
  6
ByBlock
 62
     0
370
    -2
380
     1
100
AcDbLine
 10
1041.861320343015
 20
1163.501339873128
 30
0.0
 11
1203.426540983015
 21
1163.5013403807
 31
0.0
  0
LINE
  5
C6D
330
C74
100
AcDbEntity
  8
0
  6
ByBlock
 62
     0
370
    -2
380
     1
100
AcDbLine
 10
1009.695049733015
 20
1081.543737823128
 30
0.0
 11
1203.426541240493
 21
1081.543738431754
 31
0.0
  0
LINE
  5
C6E
330
C74
100
AcDbEntity
  8
0
  6
ByBlock
 62
     0
370
    -2
380
     1
100
AcDbLine
 10
1203.226540951599
 20
1173.501340380072
 30
0.0
 11
1203.226540920183
 21
1183.501340380072
 31
0.0
  0
LINE
  5
C6F
330
C74
100
AcDbEntity
  8
0
  6
ByBlock
 62
     0
370
    -2
380
     1
100
AcDbLine
 10
1203.226541271909
 20
1071.543738431125
 30
0.0
 11
1203.226541303324
 21
1061.543738431125
 31
0.0
  0
SOLID
  5
C70
330
C74
100
AcDbEntity
  8
0
  6
ByBlock
 62
     0
370
    25
380
     1
100
AcDbTrace
 10
1203.226540983015
 20
1163.501340380072
 30
0.0
 11
1201.559874284933
 21
1173.501340374836
 31
0.0
 12
1204.893207618266
 22
1173.501340385308
 32
0.0
 13
1204.893207618266
 23
1173.501340385308
 33
0.0
  0
SOLID
  5
C71
330
C74
100
AcDbEntity
  8
0
  6
ByBlock
 62
     0
370
    25
380
     1
100
AcDbTrace
 10
1203.226541240493
 20
1081.543738431125
 30
0.0
 11
1201.559874605242
 21
1071.543738425889
 31
0.0
 12
1204.893207938575
 22
1071.543738436361
 32
0.0
 13
1204.893207938575
 23
1071.543738436361
 33
0.0
  0
MTEXT
  5
C72
330
C74
100
AcDbEntity
  8
0
  6
ByBlock
 62
     0
370
    -2
380
     1
100
AcDbMText
 10
1214.529924624892
 20
1122.522539441109
 30
0.0
 40
14.0
 41
0.0
 71
     5
 72
     1
  1
\A1;81.9576
 11
3.141592824941605E-9
 21
-1.0
 31
0.0
 73
     1
 44
1.0
  0
ENDBLK
  5
E4C
330
C74
100
AcDbEntity
  8
0
100
AcDbBlockEnd
  0
BLOCK
  5
E4D
330
C7F
100
AcDbEntity
  8
0
100
AcDbBlockBegin
  2
*D73
 70
     1
 10
0.0
 20
0.0
 30
0.0
  3
*D73
  1

  0
POINT
  5
C76
330
C7F
100
AcDbEntity
  8
DEFPOINTS
  6
ByBlock
 62
     0
370
    25
380
     1
100
AcDbPoint
 10
973.3975643530154
 20
1000.145363732971
 30
0.0
  0
POINT
  5
C77
330
C7F
100
AcDbEntity
  8
DEFPOINTS
  6
ByBlock
 62
     0
370
    25
380
     1
100
AcDbPoint
 10
973.3975643530154
 20
689.7452139329712
 30
0.0
  0
LINE
  5
C78
330
C7F
100
AcDbEntity
  8
0
  6
ByBlock
 62
     0
370
    -2
380
     1
100
AcDbLine
 10
973.4475643530153
 20
1000.145363733128
 30
0.0
 11
1202.326730173015
 21
1000.145364452173
 31
0.0
  0
LINE
  5
C79
330
C7F
100
AcDbEntity
  8
0
  6
ByBlock
 62
     0
370
    -2
380
     1
100
AcDbLine
 10
973.4475643530153
 20
689.7452139331283
 30
0.0
 11
1202.326731148166
 21
689.7452146521733
 31
0.0
  0
LINE
  5
C7A
330
C7F
100
AcDbEntity
  8
0
  6
ByBlock
 62
     0
370
    -2
380
     1
100
AcDbLine
 10
1202.126730204431
 20
990.145364451545
 30
0.0
 11
1202.12673111675
 21
699.745214651545
 31
0.0
  0
SOLID
  5
C7B
330
C7F
100
AcDbEntity
  8
0
  6
ByBlock
 62
     0
370
    25
380
     1
100
AcDbTrace
 10
1202.126730173015
 20
1000.145364451545
 30
0.0
 11
1200.460063537764
 21
990.145364446309
 31
0.0
 12
1203.793396871098
 22
990.1453644567811
 32
0.0
 13
1203.793396871098
 23
990.1453644567811
 33
0.0
  0
SOLID
  5
C7C
330
C7F
100
AcDbEntity
  8
0
  6
ByBlock
 62
     0
370
    25
380
     1
100
AcDbTrace
 10
1202.126731148166
 20
689.745214651545
 30
0.0
 11
1200.460064450084
 21
699.745214646309
 31
0.0
 12
1203.793397783417
 22
699.7452146567811
 32
0.0
 13
1203.793397783417
 23
699.7452146567811
 33
0.0
  0
MTEXT
  5
C7D
330
C7F
100
AcDbEntity
  8
0
  6
ByBlock
 62
     0
370
    -2
380
     1
100
AcDbMText
 10
1213.432242471614
 20
844.9452888687713
 30
0.0
 40
14.0
 41
0.0
 71
     5
 72
     1
  1
\A1;310.4001
 11
3.141592580020334E-9
 21
-1.0
 31
0.0
 73
     1
 44
1.0
  0
ENDBLK
  5
E4E
330
C7F
100
AcDbEntity
  8
0
100
AcDbBlockEnd
  0
BLOCK
  5
E4F
330
C8A
100
AcDbEntity
  8
0
100
AcDbBlockBegin
  2
*D74
 70
     1
 10
0.0
 20
0.0
 30
0.0
  3
*D74
  1

  0
POINT
  5
C81
330
C8A
100
AcDbEntity
  8
DEFPOINTS
  6
ByBlock
 62
     0
370
    25
380
     1
100
AcDbPoint
 10
871.0423837330153
 20
846.7881165729711
 30
0.0
  0
POINT
  5
C82
330
C8A
100
AcDbEntity
  8
DEFPOINTS
  6
ByBlock
 62
     0
370
    25
380
     1
100
AcDbPoint
 10
1167.251598843015
 20
846.7881165729711
 30
0.0
  0
LINE
  5
C83
330
C8A
100
AcDbEntity
  8
0
  6
ByBlock
 62
     0
370
    -2
380
     1
100
AcDbLine
 10
871.0423837330153
 20
846.8381165729711
 30
0.0
 11
871.0423837330153
 21
1030.927297682971
 31
0.0
  0
LINE
  5
C84
330
C8A
100
AcDbEntity
  8
0
  6
ByBlock
 62
     0
370
    -2
380
     1
100
AcDbLine
 10
1167.251598843015
 20
846.8381165729711
 30
0.0
 11
1167.251598843015
 21
1030.927297682971
 31
0.0
  0
LINE
  5
C85
330
C8A
100
AcDbEntity
  8
0
  6
ByBlock
 62
     0
370
    -2
380
     1
100
AcDbLine
 10
881.0423837330153
 20
1030.727297682971
 30
0.0
 11
1157.251598843015
 21
1030.727297682971
 31
0.0
  0
SOLID
  5
C86
330
C8A
100
AcDbEntity
  8
0
  6
ByBlock
 62
     0
370
    25
380
     1
100
AcDbTrace
 10
871.0423837330153
 20
1030.727297682971
 30
0.0
 11
881.0423837330153
 21
1029.060631016305
 31
0.0
 12
881.0423837330153
 22
1032.393964349638
 32
0.0
 13
881.0423837330153
 23
1032.393964349638
 33
0.0
  0
SOLID
  5
C87
330
C8A
100
AcDbEntity
  8
0
  6
ByBlock
 62
     0
370
    25
380
     1
100
AcDbTrace
 10
1167.251598843015
 20
1030.727297682971
 30
0.0
 11
1157.251598843015
 21
1029.060631016305
 31
0.0
 12
1157.251598843015
 22
1032.393964349638
 32
0.0
 13
1157.251598843015
 23
1032.393964349638
 33
0.0
  0
MTEXT
  5
C88
330
C8A
100
AcDbEntity
  8
0
  6
ByBlock
 62
     0
370
    -2
380
     1
100
AcDbMText
 10
1019.146991288015
 20
1042.034064709247
 30
0.0
 40
14.0
 41
0.0
 71
     5
 72
     1
  1
\A1;296.2092
 73
     1
 44
1.0
  0
ENDBLK
  5
E50
330
C8A
100
AcDbEntity
  8
0
100
AcDbBlockEnd
  0
BLOCK
  5
E51
330
D37
100
AcDbEntity
  8
0
100
AcDbBlockBegin
  2
*D75
 70
     1
 10
0.0
 20
0.0
 30
0.0
  3
*D75
  1

  0
POINT
  5
D2E
330
D37
100
AcDbEntity
  8
DEFPOINTS
  6
ByBlock
 62
     0
370
    25
380
     1
100
AcDbPoint
 10
1574.184688477847
 20
1143.790907589368
 30
0.0
  0
POINT
  5
D2F
330
D37
100
AcDbEntity
  8
DEFPOINTS
  6
ByBlock
 62
     0
370
    25
380
     1
100
AcDbPoint
 10
1571.547251977847
 20
1064.798445089368
 30
0.0
  0
LINE
  5
D30
330
D37
100
AcDbEntity
  8
0
  6
ByBlock
 62
     0
370
    -2
380
     1
100
AcDbLine
 10
1574.809688477847
 20
1143.790907589368
 30
0.0
 11
1759.927369197934
 21
1143.790907589368
 31
0.0
  0
LINE
  5
D31
330
D37
100
AcDbEntity
  8
0
  6
ByBlock
 62
     0
370
    -2
380
     1
100
AcDbLine
 10
1572.172251977847
 20
1064.798445089368
 30
0.0
 11
1759.927369197934
 21
1064.798445089368
 31
0.0
  0
LINE
  5
D32
330
D37
100
AcDbEntity
  8
0
  6
ByBlock
 62
     0
370
    -2
380
     1
100
AcDbLine
 10
1758.677369197934
 20
1141.290907589368
 30
0.0
 11
1758.677369197934
 21
1067.298445089368
 31
0.0
  0
SOLID
  5
D33
330
D37
100
AcDbEntity
  8
0
  6
ByBlock
 62
     0
370
    25
380
     1
100
AcDbTrace
 10
1758.677369197934
 20
1143.790907589368
 30
0.0
 11
1758.260702531267
 21
1141.290907589368
 31
0.0
 12
1759.094035864601
 22
1141.290907589368
 32
0.0
 13
1759.094035864601
 23
1141.290907589368
 33
0.0
  0
SOLID
  5
D34
330
D37
100
AcDbEntity
  8
0
  6
ByBlock
 62
     0
370
    25
380
     1
100
AcDbTrace
 10
1758.677369197934
 20
1064.798445089368
 30
0.0
 11
1758.260702531267
 21
1067.298445089368
 31
0.0
 12
1759.094035864601
 22
1067.298445089368
 32
0.0
 13
1759.094035864601
 23
1067.298445089368
 33
0.0
  0
MTEXT
  5
D35
330
D37
100
AcDbEntity
  8
0
  6
ByBlock
 62
     0
370
    -2
380
     1
100
AcDbMText
 10
1756.676160800384
 20
1104.294676339368
 30
0.0
 40
2.5
 41
0.0
 71
     5
 72
     1
  1
\A1;78,99
 11
6.123031769111886E-17
 21
1.0
 31
0.0
 73
     1
 44
1.0
  0
ENDBLK
  5
E52
330
D37
100
AcDbEntity
  8
0
100
AcDbBlockEnd
  0
BLOCK
  5
E53
330
D42
100
AcDbEntity
  8
0
100
AcDbBlockBegin
  2
*D76
 70
     1
 10
0.0
 20
0.0
 30
0.0
  3
*D76
  1

  0
POINT
  5
D39
330
D42
100
AcDbEntity
  8
DEFPOINTS
  6
ByBlock
 62
     0
370
    25
380
     1
100
AcDbPoint
 10
1573.844328284674
 20
1147.534869714273
 30
0.0
  0
POINT
  5
D3A
330
D42
100
AcDbEntity
  8
DEFPOINTS
  6
ByBlock
 62
     0
370
    25
380
     1
100
AcDbPoint
 10
1571.206891784674
 20
1068.542407214273
 30
0.0
  0
LINE
  5
D3B
330
D42
100
AcDbEntity
  8
0
  6
ByBlock
 62
     0
370
    -2
380
     1
100
AcDbLine
 10
1574.469328284674
 20
1147.534869714273
 30
0.0
 11
1759.587009004761
 21
1147.534869714273
 31
0.0
  0
LINE
  5
D3C
330
D42
100
AcDbEntity
  8
0
  6
ByBlock
 62
     0
370
    -2
380
     1
100
AcDbLine
 10
1571.831891784674
 20
1068.542407214273
 30
0.0
 11
1759.587009004761
 21
1068.542407214273
 31
0.0
  0
LINE
  5
D3D
330
D42
100
AcDbEntity
  8
0
  6
ByBlock
 62
     0
370
    -2
380
     1
100
AcDbLine
 10
1758.337009004761
 20
1145.034869714273
 30
0.0
 11
1758.337009004761
 21
1071.042407214273
 31
0.0
  0
SOLID
  5
D3E
330
D42
100
AcDbEntity
  8
0
  6
ByBlock
 62
     0
370
    25
380
     1
100
AcDbTrace
 10
1758.337009004761
 20
1147.534869714273
 30
0.0
 11
1757.920342338094
 21
1145.034869714273
 31
0.0
 12
1758.753675671427
 22
1145.034869714273
 32
0.0
 13
1758.753675671427
 23
1145.034869714273
 33
0.0
  0
SOLID
  5
D3F
330
D42
100
AcDbEntity
  8
0
  6
ByBlock
 62
     0
370
    25
380
     1
100
AcDbTrace
 10
1758.337009004761
 20
1068.542407214273
 30
0.0
 11
1757.920342338094
 21
1071.042407214273
 31
0.0
 12
1758.753675671427
 22
1071.042407214273
 32
0.0
 13
1758.753675671427
 23
1071.042407214273
 33
0.0
  0
MTEXT
  5
D40
330
D42
100
AcDbEntity
  8
0
  6
ByBlock
 62
     0
370
    -2
380
     1
100
AcDbMText
 10
1756.335800607211
 20
1108.038638464273
 30
0.0
 40
2.5
 41
0.0
 71
     5
 72
     1
  1
\A1;78,99
 11
6.123031769111886E-17
 21
1.0
 31
0.0
 73
     1
 44
1.0
  0
ENDBLK
  5
E54
330
D42
100
AcDbEntity
  8
0
100
AcDbBlockEnd
  0
BLOCK
  5
E55
330
D4E
100
AcDbEntity
  8
0
100
AcDbBlockBegin
  2
*D77
 70
     1
 10
0.0
 20
0.0
 30
0.0
  3
*D77
  1

  0
POINT
  5
D45
330
D4E
100
AcDbEntity
  8
DEFPOINTS
  6
ByBlock
 62
     0
370
    25
380
     1
100
AcDbPoint
 10
1569.389788938529
 20
1146.790877089368
 30
0.0
  0
POINT
  5
D46
330
D4E
100
AcDbEntity
  8
DEFPOINTS
  6
ByBlock
 62
     0
370
    25
380
     1
100
AcDbPoint
 10
1564.516764977847
 20
1064.825209089368
 30
0.0
  0
LINE
  5
D47
330
D4E
100
AcDbEntity
  8
0
  6
ByBlock
 62
     0
370
    -2
380
     1
100
AcDbLine
 10
1570.014788938529
 20
1146.790877089368
 30
0.0
 11
1786.768511603538
 21
1146.790877089368
 31
0.0
  0
LINE
  5
D48
330
D4E
100
AcDbEntity
  8
0
  6
ByBlock
 62
     0
370
    -2
380
     1
100
AcDbLine
 10
1565.141764977847
 20
1064.825209089368
 30
0.0
 11
1786.768511603538
 21
1064.825209089368
 31
0.0
  0
LINE
  5
D49
330
D4E
100
AcDbEntity
  8
0
  6
ByBlock
 62
     0
370
    -2
380
     1
100
AcDbLine
 10
1785.518511603538
 20
1144.290877089368
 30
0.0
 11
1785.518511603538
 21
1067.325209089368
 31
0.0
  0
SOLID
  5
D4A
330
D4E
100
AcDbEntity
  8
0
  6
ByBlock
 62
     0
370
    25
380
     1
100
AcDbTrace
 10
1785.518511603538
 20
1146.790877089368
 30
0.0
 11
1785.101844936871
 21
1144.290877089368
 31
0.0
 12
1785.935178270205
 22
1144.290877089368
 32
0.0
 13
1785.935178270205
 23
1144.290877089368
 33
0.0
  0
SOLID
  5
D4B
330
D4E
100
AcDbEntity
  8
0
  6
ByBlock
 62
     0
370
    25
380
     1
100
AcDbTrace
 10
1785.518511603538
 20
1064.825209089368
 30
0.0
 11
1785.101844936871
 21
1067.325209089368
 31
0.0
 12
1785.935178270205
 22
1067.325209089368
 32
0.0
 13
1785.935178270205
 23
1067.325209089368
 33
0.0
  0
MTEXT
  5
D4C
330
D4E
100
AcDbEntity
  8
0
  6
ByBlock
 62
     0
370
    -2
380
     1
100
AcDbMText
 10
1783.517907404764
 20
1105.808043089368
 30
0.0
 40
2.5
 41
0.0
 71
     5
 72
     1
  1
\A1;81,97
 11
6.123031769111886E-17
 21
1.0
 31
0.0
 73
     1
 44
1.0
  0
ENDBLK
  5
E56
330
D4E
100
AcDbEntity
  8
0
100
AcDbBlockEnd
  0
BLOCK
  5
E57
330
D59
100
AcDbEntity
  8
0
100
AcDbBlockBegin
  2
*D78
 70
     1
 10
0.0
 20
0.0
 30
0.0
  3
*D78
  1

  0
POINT
  5
D50
330
D59
100
AcDbEntity
  8
DEFPOINTS
  6
ByBlock
 62
     0
370
    25
380
     1
100
AcDbPoint
 10
1569.389788938529
 20
1146.790877089368
 30
0.0
  0
POINT
  5
D51
330
D59
100
AcDbEntity
  8
DEFPOINTS
  6
ByBlock
 62
     0
370
    25
380
     1
100
AcDbPoint
 10
1564.516764977847
 20
1064.825209089368
 30
0.0
  0
LINE
  5
D52
330
D59
100
AcDbEntity
  8
0
  6
ByBlock
 62
     0
370
    -2
380
     1
100
AcDbLine
 10
1570.014788938529
 20
1146.790877089368
 30
0.0
 11
1786.768511603538
 21
1146.790877089368
 31
0.0
  0
LINE
  5
D53
330
D59
100
AcDbEntity
  8
0
  6
ByBlock
 62
     0
370
    -2
380
     1
100
AcDbLine
 10
1565.141764977847
 20
1064.825209089368
 30
0.0
 11
1786.768511603538
 21
1064.825209089368
 31
0.0
  0
LINE
  5
D54
330
D59
100
AcDbEntity
  8
0
  6
ByBlock
 62
     0
370
    -2
380
     1
100
AcDbLine
 10
1785.518511603538
 20
1136.790877089368
 30
0.0
 11
1785.518511603538
 21
1074.825209089368
 31
0.0
  0
SOLID
  5
D55
330
D59
100
AcDbEntity
  8
0
  6
ByBlock
 62
     0
370
    25
380
     1
100
AcDbTrace
 10
1785.518511603538
 20
1146.790877089368
 30
0.0
 11
1783.851844936871
 21
1136.790877089368
 31
0.0
 12
1787.185178270205
 22
1136.790877089368
 32
0.0
 13
1787.185178270205
 23
1136.790877089368
 33
0.0
  0
SOLID
  5
D56
330
D59
100
AcDbEntity
  8
0
  6
ByBlock
 62
     0
370
    25
380
     1
100
AcDbTrace
 10
1785.518511603538
 20
1064.825209089368
 30
0.0
 11
1783.851844936871
 21
1074.825209089368
 31
0.0
 12
1787.185178270205
 22
1074.825209089368
 32
0.0
 13
1787.185178270205
 23
1074.825209089368
 33
0.0
  0
MTEXT
  5
D57
330
D59
100
AcDbEntity
  8
0
  6
ByBlock
 62
     0
370
    -2
380
     1
100
AcDbMText
 10
1759.318511603538
 20
1105.808043089368
 30
0.0
 40
36.0
 41
0.0
 71
     5
 72
     1
  1
\A1;82
 11
6.123031769111886E-17
 21
1.0
 31
0.0
 73
     1
 44
1.0
  0
ENDBLK
  5
E58
330
D59
100
AcDbEntity
  8
0
100
AcDbBlockEnd
  0
BLOCK
  5
E59
330
D65
100
AcDbEntity
  8
0
100
AcDbBlockBegin
  2
*D79
 70
     1
 10
0.0
 20
0.0
 30
0.0
  3
*D79
  1

  0
POINT
  5
D5C
330
D65
100
AcDbEntity
  8
DEFPOINTS
  6
ByBlock
 62
     0
370
    25
380
     1
100
AcDbPoint
 10
1432.901988977847
 20
848.7278572347491
 30
0.0
  0
POINT
  5
D5D
330
D65
100
AcDbEntity
  8
DEFPOINTS
  6
ByBlock
 62
     0
370
    25
380
     1
100
AcDbPoint
 10
1729.201609977847
 20
843.8655687608457
 30
0.0
  0
LINE
  5
D5E
330
D65
100
AcDbEntity
  8
0
  6
ByBlock
 62
     0
370
    -2
380
     1
100
AcDbLine
 10
1432.901988977847
 20
849.3528572347491
 30
0.0
 11
1432.901988977847
 21
1003.487250482273
 31
0.0
  0
LINE
  5
D5F
330
D65
100
AcDbEntity
  8
0
  6
ByBlock
 62
     0
370
    -2
380
     1
100
AcDbLine
 10
1729.201609977847
 20
844.4905687608457
 30
0.0
 11
1729.201609977847
 21
1003.487250482273
 31
0.0
  0
LINE
  5
D60
330
D65
100
AcDbEntity
  8
0
  6
ByBlock
 62
     0
370
    -2
380
     1
100
AcDbLine
 10
1435.401988977847
 20
1002.237250482273
 30
0.0
 11
1726.701609977847
 21
1002.237250482273
 31
0.0
  0
SOLID
  5
D61
330
D65
100
AcDbEntity
  8
0
  6
ByBlock
 62
     0
370
    25
380
     1
100
AcDbTrace
 10
1432.901988977847
 20
1002.237250482273
 30
0.0
 11
1435.401988977847
 21
1001.820583815606
 31
0.0
 12
1435.401988977847
 22
1002.653917148939
 32
0.0
 13
1435.401988977847
 23
1002.653917148939
 33
0.0
  0
SOLID
  5
D62
330
D65
100
AcDbEntity
  8
0
  6
ByBlock
 62
     0
370
    25
380
     1
100
AcDbTrace
 10
1729.201609977847
 20
1002.237250482273
 30
0.0
 11
1726.701609977847
 21
1001.820583815606
 31
0.0
 12
1726.701609977847
 22
1002.653917148939
 32
0.0
 13
1726.701609977847
 23
1002.653917148939
 33
0.0
  0
MTEXT
  5
D63
330
D65
100
AcDbEntity
  8
0
  6
ByBlock
 62
     0
370
    -2
380
     1
100
AcDbMText
 10
1581.051799477847
 20
1004.237250482273
 30
0.0
 40
2.5
 41
0.0
 71
     5
 72
     1
  1
\A1;296,3
 73
     1
 44
1.0
  0
ENDBLK
  5
E5A
330
D65
100
AcDbEntity
  8
0
100
AcDbBlockEnd
  0
BLOCK
  5
E5B
330
D70
100
AcDbEntity
  8
0
100
AcDbBlockBegin
  2
*D80
 70
     1
 10
0.0
 20
0.0
 30
0.0
  3
*D80
  1

  0
POINT
  5
D67
330
D70
100
AcDbEntity
  8
DEFPOINTS
  6
ByBlock
 62
     0
370
    25
380
     1
100
AcDbPoint
 10
1432.901988977847
 20
848.7278572347491
 30
0.0
  0
POINT
  5
D68
330
D70
100
AcDbEntity
  8
DEFPOINTS
  6
ByBlock
 62
     0
370
    25
380
     1
100
AcDbPoint
 10
1729.201609977847
 20
843.8655687608457
 30
0.0
  0
LINE
  5
D69
330
D70
100
AcDbEntity
  8
0
  6
ByBlock
 62
     0
370
    -2
380
     1
100
AcDbLine
 10
1432.901988977847
 20
849.3528572347491
 30
0.0
 11
1432.901988977847
 21
1003.487250482273
 31
0.0
  0
LINE
  5
D6A
330
D70
100
AcDbEntity
  8
0
  6
ByBlock
 62
     0
370
    -2
380
     1
100
AcDbLine
 10
1729.201609977847
 20
844.4905687608457
 30
0.0
 11
1729.201609977847
 21
1003.487250482273
 31
0.0
  0
LINE
  5
D6B
330
D70
100
AcDbEntity
  8
0
  6
ByBlock
 62
     0
370
    -2
380
     1
100
AcDbLine
 10
1442.901988977847
 20
1002.237250482273
 30
0.0
 11
1719.201609977847
 21
1002.237250482273
 31
0.0
  0
SOLID
  5
D6C
330
D70
100
AcDbEntity
  8
0
  6
ByBlock
 62
     0
370
    25
380
     1
100
AcDbTrace
 10
1432.901988977847
 20
1002.237250482273
 30
0.0
 11
1442.901988977847
 21
1000.570583815606
 31
0.0
 12
1442.901988977847
 22
1003.903917148939
 32
0.0
 13
1442.901988977847
 23
1003.903917148939
 33
0.0
  0
SOLID
  5
D6D
330
D70
100
AcDbEntity
  8
0
  6
ByBlock
 62
     0
370
    25
380
     1
100
AcDbTrace
 10
1729.201609977847
 20
1002.237250482273
 30
0.0
 11
1719.201609977847
 21
1000.570583815606
 31
0.0
 12
1719.201609977847
 22
1003.903917148939
 32
0.0
 13
1719.201609977847
 23
1003.903917148939
 33
0.0
  0
MTEXT
  5
D6E
330
D70
100
AcDbEntity
  8
0
  6
ByBlock
 62
     0
370
    -2
380
     1
100
AcDbMText
 10
1581.051799477847
 20
1028.445950944627
 30
0.0
 40
36.0
 41
0.0
 71
     5
 72
     1
  1
\A1;296
 73
     1
 44
1.0
  0
ENDBLK
  5
E5C
330
D70
100
AcDbEntity
  8
0
100
AcDbBlockEnd
  0
BLOCK
  5
E5D
330
D7C
100
AcDbEntity
  8
0
100
AcDbBlockBegin
  2
*D81
 70
     1
 10
0.0
 20
0.0
 30
0.0
  3
*D81
  1

  0
POINT
  5
D73
330
D7C
100
AcDbEntity
  8
DEFPOINTS
  6
ByBlock
 62
     0
370
    25
380
     1
100
AcDbPoint
 10
1567.420451977847
 20
983.1277610893677
 30
0.0
  0
POINT
  5
D74
330
D7C
100
AcDbEntity
  8
DEFPOINTS
  6
ByBlock
 62
     0
370
    25
380
     1
100
AcDbPoint
 10
1552.032603977847
 20
673.0753920893678
 30
0.0
  0
LINE
  5
D75
330
D7C
100
AcDbEntity
  8
0
  6
ByBlock
 62
     0
370
    -2
380
     1
100
AcDbLine
 10
1568.045451977847
 20
983.1277610893677
 30
0.0
 11
2005.791784366175
 21
983.1277610893677
 31
0.0
  0
LINE
  5
D76
330
D7C
100
AcDbEntity
  8
0
  6
ByBlock
 62
     0
370
    -2
380
     1
100
AcDbLine
 10
1552.657603977847
 20
673.0753920893678
 30
0.0
 11
2005.791784366175
 21
673.0753920893678
 31
0.0
  0
LINE
  5
D77
330
D7C
100
AcDbEntity
  8
0
  6
ByBlock
 62
     0
370
    -2
380
     1
100
AcDbLine
 10
2004.541784366175
 20
980.6277610893677
 30
0.0
 11
2004.541784366175
 21
675.5753920893678
 31
0.0
  0
SOLID
  5
D78
330
D7C
100
AcDbEntity
  8
0
  6
ByBlock
 62
     0
370
    25
380
     1
100
AcDbTrace
 10
2004.541784366175
 20
983.1277610893677
 30
0.0
 11
2004.125117699508
 21
980.6277610893677
 31
0.0
 12
2004.958451032841
 22
980.6277610893677
 32
0.0
 13
2004.958451032841
 23
980.6277610893677
 33
0.0
  0
SOLID
  5
D79
330
D7C
100
AcDbEntity
  8
0
  6
ByBlock
 62
     0
370
    25
380
     1
100
AcDbTrace
 10
2004.541784366175
 20
673.0753920893678
 30
0.0
 11
2004.125117699508
 21
675.5753920893678
 31
0.0
 12
2004.958451032841
 22
675.5753920893678
 32
0.0
 13
2004.958451032841
 23
675.5753920893678
 33
0.0
  0
MTEXT
  5
D7A
330
D7C
100
AcDbEntity
  8
0
  6
ByBlock
 62
     0
370
    -2
380
     1
100
AcDbMText
 10
2002.54129224019
 20
828.1015765893678
 30
0.0
 40
2.5
 41
0.0
 71
     5
 72
     1
  1
\A1;310,05
 11
6.123031769111886E-17
 21
1.0
 31
0.0
 73
     1
 44
1.0
  0
ENDBLK
  5
E5E
330
D7C
100
AcDbEntity
  8
0
100
AcDbBlockEnd
  0
BLOCK
  5
E5F
330
D88
100
AcDbEntity
  8
0
100
AcDbBlockBegin
  2
*D82
 70
     1
 10
0.0
 20
0.0
 30
0.0
  3
*D82
  1

  0
POINT
  5
D7F
330
D88
100
AcDbEntity
  8
DEFPOINTS
  6
ByBlock
 62
     0
370
    25
380
     1
100
AcDbPoint
 10
1567.420451977847
 20
983.1277610893677
 30
0.0
  0
POINT
  5
D80
330
D88
100
AcDbEntity
  8
DEFPOINTS
  6
ByBlock
 62
     0
370
    25
380
     1
100
AcDbPoint
 10
1552.032603977847
 20
673.0753920893678
 30
0.0
  0
LINE
  5
D81
330
D88
100
AcDbEntity
  8
0
  6
ByBlock
 62
     0
370
    -2
380
     1
100
AcDbLine
 10
1568.045451977847
 20
983.1277610893677
 30
0.0
 11
1786.768511603538
 21
983.1277610893677
 31
0.0
  0
LINE
  5
D82
330
D88
100
AcDbEntity
  8
0
  6
ByBlock
 62
     0
370
    -2
380
     1
100
AcDbLine
 10
1552.657603977847
 20
673.0753920893678
 30
0.0
 11
1786.768511603538
 21
673.0753920893678
 31
0.0
  0
LINE
  5
D83
330
D88
100
AcDbEntity
  8
0
  6
ByBlock
 62
     0
370
    -2
380
     1
100
AcDbLine
 10
1785.518511603538
 20
980.6277610893677
 30
0.0
 11
1785.518511603538
 21
675.5753920893678
 31
0.0
  0
SOLID
  5
D84
330
D88
100
AcDbEntity
  8
0
  6
ByBlock
 62
     0
370
    25
380
     1
100
AcDbTrace
 10
1785.518511603538
 20
983.1277610893677
 30
0.0
 11
1785.101844936871
 21
980.6277610893677
 31
0.0
 12
1785.935178270205
 22
980.6277610893677
 32
0.0
 13
1785.935178270205
 23
980.6277610893677
 33
0.0
  0
SOLID
  5
D85
330
D88
100
AcDbEntity
  8
0
  6
ByBlock
 62
     0
370
    25
380
     1
100
AcDbTrace
 10
1785.518511603538
 20
673.0753920893678
 30
0.0
 11
1785.101844936871
 21
675.5753920893678
 31
0.0
 12
1785.935178270205
 22
675.5753920893678
 32
0.0
 13
1785.935178270205
 23
675.5753920893678
 33
0.0
  0
MTEXT
  5
D86
330
D88
100
AcDbEntity
  8
0
  6
ByBlock
 62
     0
370
    -2
380
     1
100
AcDbMText
 10
1783.518019477554
 20
805.7611039857655
 30
0.0
 40
2.5
 41
0.0
 71
     5
 72
     1
  1
\A1;310,05
 11
6.123031769111886E-17
 21
1.0
 31
0.0
 73
     1
 44
1.0
  0
ENDBLK
  5
E60
330
D88
100
AcDbEntity
  8
0
100
AcDbBlockEnd
  0
BLOCK
  5
E61
330
D93
100
AcDbEntity
  8
0
100
AcDbBlockBegin
  2
*D83
 70
     1
 10
0.0
 20
0.0
 30
0.0
  3
*D83
  1

  0
POINT
  5
D8A
330
D93
100
AcDbEntity
  8
DEFPOINTS
  6
ByBlock
 62
     0
370
    25
380
     1
100
AcDbPoint
 10
1567.420451977847
 20
983.1277610893677
 30
0.0
  0
POINT
  5
D8B
330
D93
100
AcDbEntity
  8
DEFPOINTS
  6
ByBlock
 62
     0
370
    25
380
     1
100
AcDbPoint
 10
1552.032603977847
 20
673.0753920893678
 30
0.0
  0
LINE
  5
D8C
330
D93
100
AcDbEntity
  8
0
  6
ByBlock
 62
     0
370
    -2
380
     1
100
AcDbLine
 10
1568.045451977847
 20
983.1277610893677
 30
0.0
 11
1786.768511603538
 21
983.1277610893677
 31
0.0
  0
LINE
  5
D8D
330
D93
100
AcDbEntity
  8
0
  6
ByBlock
 62
     0
370
    -2
380
     1
100
AcDbLine
 10
1552.657603977847
 20
673.0753920893678
 30
0.0
 11
1786.768511603538
 21
673.0753920893678
 31
0.0
  0
LINE
  5
D8E
330
D93
100
AcDbEntity
  8
0
  6
ByBlock
 62
     0
370
    -2
380
     1
100
AcDbLine
 10
1785.518511603538
 20
973.1277610893677
 30
0.0
 11
1785.518511603538
 21
683.0753920893678
 31
0.0
  0
SOLID
  5
D8F
330
D93
100
AcDbEntity
  8
0
  6
ByBlock
 62
     0
370
    25
380
     1
100
AcDbTrace
 10
1785.518511603538
 20
983.1277610893677
 30
0.0
 11
1783.851844936871
 21
973.1277610893677
 31
0.0
 12
1787.185178270205
 22
973.1277610893677
 32
0.0
 13
1787.185178270205
 23
973.1277610893677
 33
0.0
  0
SOLID
  5
D90
330
D93
100
AcDbEntity
  8
0
  6
ByBlock
 62
     0
370
    25
380
     1
100
AcDbTrace
 10
1785.518511603538
 20
673.0753920893678
 30
0.0
 11
1783.851844936871
 21
683.0753920893678
 31
0.0
 12
1787.185178270205
 22
683.0753920893678
 32
0.0
 13
1787.185178270205
 23
683.0753920893678
 33
0.0
  0
MTEXT
  5
D91
330
D93
100
AcDbEntity
  8
0
  6
ByBlock
 62
     0
370
    -2
380
     1
100
AcDbMText
 10
1759.304338375192
 20
805.7611039857655
 30
0.0
 40
36.0
 41
0.0
 71
     5
 72
     1
  1
\A1;310
 11
6.123031769111886E-17
 21
1.0
 31
0.0
 73
     1
 44
1.0
  0
ENDBLK
  5
E62
330
D93
100
AcDbEntity
  8
0
100
AcDbBlockEnd
  0
BLOCK
  5
E63
330
DAB
100
AcDbEntity
  8
0
100
AcDbBlockBegin
  2
*D84
 70
     1
 10
0.0
 20
0.0
 30
0.0
  3
*D84
  1

  0
POINT
  5
DA2
330
DAB
100
AcDbEntity
  8
DEFPOINTS
  6
ByBlock
 62
     0
370
    25
380
     1
100
AcDbPoint
 10
1552.032603977847
 20
983.2992080893678
 30
0.0
  0
POINT
  5
DA3
330
DAB
100
AcDbEntity
  8
DEFPOINTS
  6
ByBlock
 62
     0
370
    25
380
     1
100
AcDbPoint
 10
1539.994456977847
 20
673.0162340893678
 30
0.0
  0
LINE
  5
DA4
330
DAB
100
AcDbEntity
  8
0
  6
ByBlock
 62
     0
370
    -2
380
     1
100
AcDbLine
 10
1552.657603977847
 20
983.2992080893678
 30
0.0
 11
1786.768511603538
 21
983.2992080893678
 31
0.0
  0
LINE
  5
DA5
330
DAB
100
AcDbEntity
  8
0
  6
ByBlock
 62
     0
370
    -2
380
     1
100
AcDbLine
 10
1540.619456977847
 20
673.0162340893678
 30
0.0
 11
1786.768511603538
 21
673.0162340893678
 31
0.0
  0
LINE
  5
DA6
330
DAB
100
AcDbEntity
  8
0
  6
ByBlock
 62
     0
370
    -2
380
     1
100
AcDbLine
 10
1785.518511603538
 20
980.7992080893678
 30
0.0
 11
1785.518511603538
 21
675.5162340893678
 31
0.0
  0
SOLID
  5
DA7
330
DAB
100
AcDbEntity
  8
0
  6
ByBlock
 62
     0
370
    25
380
     1
100
AcDbTrace
 10
1785.518511603538
 20
983.2992080893678
 30
0.0
 11
1785.101844936871
 21
980.7992080893678
 31
0.0
 12
1785.935178270205
 22
980.7992080893678
 32
0.0
 13
1785.935178270205
 23
980.7992080893678
 33
0.0
  0
SOLID
  5
DA8
330
DAB
100
AcDbEntity
  8
0
  6
ByBlock
 62
     0
370
    25
380
     1
100
AcDbTrace
 10
1785.518511603538
 20
673.0162340893678
 30
0.0
 11
1785.101844936871
 21
675.5162340893678
 31
0.0
 12
1785.935178270205
 22
675.5162340893678
 32
0.0
 13
1785.935178270205
 23
675.5162340893678
 33
0.0
  0
MTEXT
  5
DA9
330
DAB
100
AcDbEntity
  8
0
  6
ByBlock
 62
     0
370
    -2
380
     1
100
AcDbMText
 10
1783.518019477554
 20
828.1577210893678
 30
0.0
 40
2.5
 41
0.0
 71
     5
 72
     1
  1
\A1;310,28
 11
6.123031769111886E-17
 21
1.0
 31
0.0
 73
     1
 44
1.0
  0
ENDBLK
  5
E64
330
DAB
100
AcDbEntity
  8
0
100
AcDbBlockEnd
  0
BLOCK
  5
E65
330
DB6
100
AcDbEntity
  8
0
100
AcDbBlockBegin
  2
*D85
 70
     1
 10
0.0
 20
0.0
 30
0.0
  3
*D85
  1

  0
POINT
  5
DAD
330
DB6
100
AcDbEntity
  8
DEFPOINTS
  6
ByBlock
 62
     0
370
    25
380
     1
100
AcDbPoint
 10
1552.032603977847
 20
983.2992080893678
 30
0.0
  0
POINT
  5
DAE
330
DB6
100
AcDbEntity
  8
DEFPOINTS
  6
ByBlock
 62
     0
370
    25
380
     1
100
AcDbPoint
 10
1539.994456977847
 20
673.0162340893678
 30
0.0
  0
LINE
  5
DAF
330
DB6
100
AcDbEntity
  8
0
  6
ByBlock
 62
     0
370
    -2
380
     1
100
AcDbLine
 10
1552.657603977847
 20
983.2992080893678
 30
0.0
 11
1786.768511603538
 21
983.2992080893678
 31
0.0
  0
LINE
  5
DB0
330
DB6
100
AcDbEntity
  8
0
  6
ByBlock
 62
     0
370
    -2
380
     1
100
AcDbLine
 10
1540.619456977847
 20
673.0162340893678
 30
0.0
 11
1786.768511603538
 21
673.0162340893678
 31
0.0
  0
LINE
  5
DB1
330
DB6
100
AcDbEntity
  8
0
  6
ByBlock
 62
     0
370
    -2
380
     1
100
AcDbLine
 10
1785.518511603538
 20
973.2992080893678
 30
0.0
 11
1785.518511603538
 21
683.0162340893678
 31
0.0
  0
SOLID
  5
DB2
330
DB6
100
AcDbEntity
  8
0
  6
ByBlock
 62
     0
370
    25
380
     1
100
AcDbTrace
 10
1785.518511603538
 20
983.2992080893678
 30
0.0
 11
1783.851844936871
 21
973.2992080893678
 31
0.0
 12
1787.185178270205
 22
973.2992080893678
 32
0.0
 13
1787.185178270205
 23
973.2992080893678
 33
0.0
  0
SOLID
  5
DB3
330
DB6
100
AcDbEntity
  8
0
  6
ByBlock
 62
     0
370
    25
380
     1
100
AcDbTrace
 10
1785.518511603538
 20
673.0162340893678
 30
0.0
 11
1783.851844936871
 21
683.0162340893678
 31
0.0
 12
1787.185178270205
 22
683.0162340893678
 32
0.0
 13
1787.185178270205
 23
683.0162340893678
 33
0.0
  0
MTEXT
  5
DB4
330
DB6
100
AcDbEntity
  8
0
  6
ByBlock
 62
     0
370
    -2
380
     1
100
AcDbMText
 10
1759.304338375192
 20
828.1577210893678
 30
0.0
 40
36.0
 41
0.0
 71
     5
 72
     1
  1
\A1;310
 11
6.123031769111886E-17
 21
1.0
 31
0.0
 73
     1
 44
1.0
  0
ENDBLK
  5
E66
330
DB6
100
AcDbEntity
  8
0
100
AcDbBlockEnd
  0
ENDSEC
  0
SECTION
  2
ENTITIES
  0
ELLIPSE
  5
559
330
1F
100
AcDbEntity
  8
0
 62
     7
370
    13
390
F
100
AcDbEllipse
 10
456.139644
 20
515.967885
 30
0.0
 11
-4.999238475781958
 21
-0.08726203218644474
 31
0.0
210
0.0
220
0.0
230
1.0
 40
0.005689
 41
3.141592653589793
 42
4.532017918742428
  0
ARC
  5
C8B
330
1F
100
AcDbEntity
  8
0
 62
     7
370
    60
100
AcDbCircle
 10
1518.246989977847
 20
896.6226640893677
 30
0.0
 40
85.345009
100
AcDbArc
 50
104.9840440100001
 51
180.0000000000001
  0
LWPOLYLINE
  5
C8C
330
1F
100
AcDbEntity
  8
0
 62
     7
370
    60
100
AcDbPolyline
 90
       30
 70
     0
 43
0.0
 10
1714.868601977847
 20
978.1323080893677
 10
1700.860423977847
 20
978.7162620893678
 10
1667.348338977847
 20
980.0814650893677
 10
1648.852000977847
 20
980.8116590893677
 10
1630.411021977847
 20
981.4984880893677
 10
1620.295603977847
 20
981.8478230893677
 10
1610.679637977847
 20
982.1553790893678
 10
1602.916758977847
 20
982.3832840893677
 10
1594.644480977847
 20
982.6027970893678
 10
1581.088786977847
 20
982.9027540893677
 10
1567.420451977847
 20
983.1277610893677
 10
1559.759867977847
 20
983.2245010893678
 10
1552.032603977847
 20
983.2992080893678
 10
1539.994456977847
 20
983.3583820893678
 10
1533.028575977847
 20
983.3502030893677
 10
1529.657817977847
 20
983.3131550893677
 10
1526.319834977847
 20
983.2396380893678
 10
1524.117076977847
 20
983.1645340893677
 10
1521.843486977847
 20
983.0602250893678
 10
1518.551341977847
 20
982.8534690893678
 10
1516.760630977847
 20
982.7100660893677
 10
1514.941081977847
 20
982.5397170893677
 10
1513.385203977847
 20
982.3726950893678
 10
1511.790202977847
 20
982.1794270893678
 10
1508.860758977847
 20
981.7630750893677
 10
1505.918498977847
 20
981.2647230893677
 10
1502.936412977847
 20
980.6790000893677
 10
1499.887705977847
 20
979.9992200893678
 10
1496.786753977847
 20
979.2263020893678
 10
1496.181040977847
 20
979.0657790893678
  0
CIRCLE
  5
C8D
330
1F
100
AcDbEntity
  8
0
 62
     7
370
    60
100
AcDbCircle
 10
1449.742991977847
 20
935.4458450893677
 30
0.0
 40
2.25
  0
LWPOLYLINE
  5
C8E
330
1F
100
AcDbEntity
  8
0
 62
     7
370
    60
100
AcDbPolyline
 90
       39
 70
     0
 43
0.0
 10
1695.294749977847
 20
957.1843100893677
 10
1697.060496977847
 20
957.1661520893678
 10
1697.955760977847
 20
957.1254110893677
 10
1698.859080977847
 20
957.0510700893677
 10
1699.769053977847
 20
956.9369650893677
 10
1700.683665977847
 20
956.7789750893678
 10
1701.600047977847
 20
956.5748130893677
 10
1702.515025977847
 20
956.3235310893677
 10
1703.706614977847
 20
955.9227740893677
 10
1704.883677977847
 20
955.4422440893677
 10
1706.041331977847
 20
954.8831010893678
 10
1706.609934977847
 20
954.5751180893677
 10
1707.169993977847
 20
954.2489460893678
 10
1707.718943977847
 20
953.9060200893678
 10
1708.257517977847
 20
953.5458210893678
 10
1708.780528977847
 20
953.1718580893678
 10
1709.291331977847
 20
952.7817520893677
 10
1709.781871977847
 20
952.3816970893678
 10
1710.258616977847
 20
951.9665970893677
 10
1710.711497977847
 20
951.5455770893677
 10
1711.149058977847
 20
951.1107930893677
 10
1711.560313977847
 20
950.6736590893678
 10
1711.955027977847
 20
950.2241660893677
 10
1712.322276977847
 20
949.7752830893678
 10
1712.671946977847
 20
949.3155050893678
 10
1712.994151977847
 20
948.8583210893678
 10
1713.297862977847
 20
948.3917990893677
 10
1713.575389977847
 20
947.9285110893677
 10
1713.833811977847
 20
947.4574420893678
 10
1714.067942977847
 20
946.9887530893677
 10
1714.282542977847
 20
946.5138990893678
 10
1714.475047977847
 20
946.0393210893677
 10
1714.647715977847
 20
945.5603470893677
 10
1714.933909977847
 20
944.5914140893677
 10
1715.145945977847
 20
943.5960830893678
 10
1715.288890977847
 20
942.5536330893677
 10
1715.368235977847
 20
941.4207600893677
 10
1715.392955977847
 20
940.0623000893678
 10
1715.393260977847
 20
939.6644730893678
  0
CIRCLE
  5
C8F
330
1F
100
AcDbEntity
  8
0
 62
     7
370
    60
100
AcDbCircle
 10
1706.005015977847
 20
971.8941480893677
 30
0.0
 40
2.25
  0
LINE
  5
C90
330
1F
100
AcDbEntity
  8
0
 62
     7
 48
0.006388
370
    60
100
AcDbLine
 10
1702.132395977847
 20
937.2110120893677
 30
0.0
 11
1702.080210977847
 21
937.4611350893678
 31
0.0
  0
ARC
  5
C91
330
1F
100
AcDbEntity
  8
0
 62
     7
370
    60
100
AcDbCircle
 10
1676.821788977847
 20
950.1819290893677
 30
0.0
 40
0.0733609999999459
100
AcDbArc
 50
244.713551050035
 51
273.582349840035
  0
LINE
  5
C92
330
1F
100
AcDbEntity
  8
0
 62
     7
 48
0.008239
370
    60
100
AcDbLine
 10
1676.790415977847
 20
950.1155840893678
 30
0.0
 11
1676.461680977847
 21
950.0922690893677
 31
0.0
  0
ARC
  5
C93
330
1F
100
AcDbEntity
  8
0
 62
     7
370
    60
100
AcDbCircle
 10
1676.492625977847
 20
950.1564780893677
 30
0.0
 40
0.0712769999999525
100
AcDbArc
 50
244.2295369301251
 51
273.6208990101251
  0
LINE
  5
C94
330
1F
100
AcDbEntity
  8
0
 62
     7
 48
0.000289
370
    60
100
AcDbLine
 10
1676.461619977847
 20
950.0922690893677
 30
0.0
 11
1676.450083977847
 21
950.0914450893678
 31
0.0
  0
ARC
  5
C95
330
1F
100
AcDbEntity
  8
0
 62
     7
370
    60
100
AcDbCircle
 10
1676.481639977847
 20
950.1584920893678
 30
0.0
 40
0.0740609999999217
100
AcDbArc
 50
244.8105132700654
 51
273.6573729300654
  0
ARC
  5
C96
330
1F
100
AcDbEntity
  8
0
 62
     7
370
    60
100
AcDbCircle
 10
1668.274058977847
 20
949.7067710893677
 30
0.0
 40
0.0181330000001277
100
AcDbArc
 50
211.1995198499546
 51
263.6395611199546
  0
LINE
  5
C97
330
1F
100
AcDbEntity
  8
0
 62
     7
 48
0.000214
370
    60
100
AcDbLine
 10
1449.359568977847
 20
892.1441480893677
 30
0.0
 11
1449.358897977847
 21
892.1356040893677
 31
0.0
  0
ARC
  5
C98
330
1F
100
AcDbEntity
  8
0
 62
     7
370
    60
100
AcDbCircle
 10
1518.246989977847
 20
759.7519370893677
 30
0.0
 40
85.34500900000012
100
AcDbArc
 50
180.0
 51
255.01595615
  0
LWPOLYLINE
  5
C99
330
1F
100
AcDbEntity
  8
0
 62
     7
370
    60
100
AcDbPolyline
 90
       30
 70
     0
 43
0.0
 10
1714.868601977847
 20
678.2423080893677
 10
1700.860423977847
 20
677.6583390893677
 10
1667.348338977847
 20
676.2931510893677
 10
1648.852000977847
 20
675.5629410893678
 10
1630.411021977847
 20
674.8761130893677
 10
1620.295603977847
 20
674.5267930893677
 10
1610.679637977847
 20
674.2192060893677
 10
1602.916758977847
 20
673.9913160893677
 10
1594.644480977847
 20
673.7718040893677
 10
1581.088786977847
 20
673.4718460893678
 10
1567.420451977847
 20
673.2468400893678
 10
1559.759867977847
 20
673.1500990893678
 10
1552.032603977847
 20
673.0753920893678
 10
1539.994456977847
 20
673.0162340893678
 10
1533.028575977847
 20
673.0243970893678
 10
1529.657817977847
 20
673.0614460893678
 10
1526.319834977847
 20
673.1349630893678
 10
1524.117076977847
 20
673.2100660893677
 10
1521.843486977847
 20
673.3143760893677
 10
1518.551341977847
 20
673.5211320893677
 10
1516.760630977847
 20
673.6645490893677
 10
1514.941081977847
 20
673.8348990893678
 10
1513.385203977847
 20
674.0019060893678
 10
1511.790202977847
 20
674.1951740893678
 10
1508.860758977847
 20
674.6115250893678
 10
1505.918498977847
 20
675.1098770893677
 10
1502.936412977847
 20
675.6956010893678
 10
1499.887705977847
 20
676.3753800893678
 10
1496.786753977847
 20
677.1482840893677
 10
1496.181040977847
 20
677.3088370893677
  0
CIRCLE
  5
C9A
330
1F
100
AcDbEntity
  8
0
 62
     7
370
    60
100
AcDbCircle
 10
1449.742991977847
 20
720.9287710893677
 30
0.0
 40
2.25
  0
LWPOLYLINE
  5
C9B
330
1F
100
AcDbEntity
  8
0
 62
     7
370
    60
100
AcDbPolyline
 90
       49
 70
     0
 43
0.0
 10
1450.998210977847
 20
752.4749900893678
 10
1451.785594977847
 20
750.1345350893678
 10
1452.208781977847
 20
748.9707020893677
 10
1452.651194977847
 20
747.8126670893678
 10
1453.111643977847
 20
746.6635270893678
 10
1453.591136977847
 20
745.5208730893678
 10
1454.088328977847
 20
744.3877090893677
 10
1454.603861977847
 20
743.2625260893677
 10
1455.688700977847
 20
741.0389700893677
 10
1456.844554977847
 20
738.8521870893678
 10
1458.070109977847
 20
736.7045430893677
 10
1459.363597977847
 20
734.5991350893678
 10
1460.724772977847
 20
732.5360860893677
 10
1462.152201977847
 20
730.5175620893677
 10
1463.643412977847
 20
728.5470420893678
 10
1465.197459977847
 20
726.6256620893678
 10
1466.812998977847
 20
724.7551790893677
 10
1468.487132977847
 20
722.9388800893678
 10
1470.217814977847
 20
721.1789080893677
 10
1472.004893977847
 20
719.4753560893678
 10
1473.846446977847
 20
717.8300160893677
 10
1475.740397977847
 20
716.2448260893677
 10
1477.685893977847
 20
714.7204880893678
 10
1479.679759977847
 20
713.2595960893677
 10
1481.718028977847
 20
711.8650120893677
 10
1483.800303977847
 20
710.5369630893678
 10
1485.925303977847
 20
709.2762900893678
 10
1488.090953977847
 20
708.0842420893678
 10
1490.293589977847
 20
706.9629580893677
 10
1492.529582977847
 20
705.9142370893678
 10
1494.799113977847
 20
704.9379340893677
 10
1497.099711977847
 20
704.0351780893677
 10
1499.427928977847
 20
703.2073660893677
 10
1501.781626977847
 20
702.4552220893677
 10
1504.160258977847
 20
701.7789600893677
 10
1506.559764977847
 20
701.1798160893677
 10
1508.977275977847
 20
700.6585600893677
 10
1511.408702977847
 20
700.2160780893678
 10
1513.851878977847
 20
699.8527060893678
 10
1516.308390977847
 20
699.5681290893677
 10
1518.776774977847
 20
699.3626540893678
 10
1521.249491977847
 20
699.2370290893678
 10
1523.721873977847
 20
699.1915580893677
 10
1526.567210977847
 20
699.1851950893678
 10
1531.759349977847
 20
699.1914510893678
 10
1548.150706977847
 20
699.1923200893677
 10
1581.329356977847
 20
699.1919390893677
 10
1647.358988977847
 20
699.1910080893678
 10
1695.294749977847
 20
699.1902910893677
  0
CIRCLE
  5
C9C
330
1F
100
AcDbEntity
  8
0
 62
     7
370
    60
100
AcDbCircle
 10
1706.005015977847
 20
684.4804670893677
 30
0.0
 40
2.25
  0
LWPOLYLINE
  5
C9D
330
1F
100
AcDbEntity
  8
0
 62
     7
370
    60
100
AcDbPolyline
 90
       32
 70
     0
 43
0.0
 10
1702.080210977847
 20
718.9134810893677
 10
1701.866526977847
 20
717.9570450893677
 10
1701.615855977847
 20
716.9888060893677
 10
1701.433177977847
 20
716.3806670893678
 10
1701.231150977847
 20
715.7879170893677
 10
1701.036204977847
 20
715.2818740893678
 10
1700.823374977847
 20
714.7890690893678
 10
1700.607859977847
 20
714.3422000893677
 10
1700.375193977847
 20
713.9076750893678
 10
1700.134715977847
 20
713.5017080893678
 10
1699.877635977847
 20
713.1076880893677
 10
1699.608653977847
 20
712.7324430893677
 10
1699.323435977847
 20
712.3690630893677
 10
1698.705882977847
 20
711.6792740893677
 10
1698.017710977847
 20
711.0301730893677
 10
1697.250987977847
 20
710.4161820893678
 10
1696.397349977847
 20
709.8341200893677
 10
1695.448435977847
 20
709.2826980893677
 10
1694.395884977847
 20
708.7622130893677
 10
1693.231944977847
 20
708.2743820893677
 10
1691.949839977847
 20
707.8221730893678
 10
1690.544139977847
 20
707.4097280893677
 10
1689.015025977847
 20
707.0429750893677
 10
1687.367137977847
 20
706.7286820893678
 10
1685.612376977847
 20
706.4743330893677
 10
1683.769358977847
 20
706.2872910893677
 10
1681.867320977847
 20
706.1743380893677
 10
1680.904429977847
 20
706.1471930893678
 10
1679.939036977847
 20
706.1400820893678
 10
1678.978160977847
 20
706.1530980893677
 10
1678.016612977847
 20
706.1864310893677
 10
1676.790415977847
 20
706.2590320893678
  0
LINE
  5
C9E
330
1F
100
AcDbEntity
  8
0
 62
     7
 48
0.008239
370
    60
100
AcDbLine
 10
1676.790415977847
 20
706.2590320893678
 30
0.0
 11
1676.461680977847
 21
706.2823240893678
 31
0.0
  0
LINE
  5
C9F
330
1F
100
AcDbEntity
  8
0
 62
     7
 48
0.000289
370
    60
100
AcDbLine
 10
1676.461619977847
 20
706.2823320893677
 30
0.0
 11
1676.450083977847
 21
706.2831480893677
 31
0.0
  0
ARC
  5
CA0
330
1F
100
AcDbEntity
  8
0
 62
     7
370
    60
100
AcDbCircle
 10
1668.274058977847
 20
706.6678150893678
 30
0.0
 40
0.0181330000000047
100
AcDbArc
 50
96.36045222013573
 51
148.8004929201357
  0
ARC
  5
CA1
330
1F
100
AcDbEntity
  8
0
 62
     7
370
    60
100
AcDbCircle
 10
1663.520945977847
 20
522.0500320893677
 30
0.0
 40
184.687134
100
AcDbArc
 50
85.98565389999999
 51
88.53012508999998
  0
LWPOLYLINE
  5
CA2
330
1F
100
AcDbEntity
  8
0
 62
     7
370
    60
100
AcDbPolyline
 90
       19
 70
     0
 43
0.0
 10
1668.258067977847
 20
706.6772830893677
 10
1659.063944977847
 20
706.9190200893677
 10
1649.854319977847
 20
707.1404560893677
 10
1641.012095977847
 20
707.3326250893678
 10
1632.158976977847
 20
707.5041800893678
 10
1623.632762977847
 20
707.6490080893677
 10
1615.102793977847
 20
707.7733060893677
 10
1606.798747977847
 20
707.8740450893678
 10
1598.493510977847
 20
707.9544280893678
 10
1590.309947977847
 20
708.0134570893678
 10
1582.110362977847
 20
708.0524740893677
 10
1573.895457977847
 20
708.0714780893677
 10
1565.673197977847
 20
708.0697160893678
 10
1550.749369977847
 20
708.0110920893678
 10
1541.938243977847
 20
707.9483480893678
 10
1533.194865977847
 20
707.8570770893677
 10
1529.182200977847
 20
707.7873060893678
 10
1525.158793977847
 20
707.6963720893677
 10
1523.962535977847
 20
707.6620620893677
  0
LWPOLYLINE
  5
CA3
330
1F
100
AcDbEntity
  8
0
 62
     7
370
    60
100
AcDbPolyline
 90
       43
 70
     0
 43
0.0
 10
1523.962718977847
 20
707.6620700893677
 10
1522.351634977847
 20
707.6300570893677
 10
1520.769023977847
 20
707.6307360893677
 10
1518.271006977847
 20
707.6969290893678
 10
1515.761882977847
 20
707.8429930893677
 10
1513.255717977847
 20
708.0686710893677
 10
1510.753123977847
 20
708.3738620893678
 10
1508.248667977847
 20
708.7592460893677
 10
1505.744944977847
 20
709.2248220893678
 10
1503.254191977847
 20
709.7688970893678
 10
1500.790538977847
 20
710.3884950893678
 10
1498.356394977847
 20
711.0827170893677
 10
1495.952037977847
 20
711.8511340893677
 10
1493.582835977847
 20
712.6917640893678
 10
1491.250956977847
 20
713.6034530893678
 10
1488.956980977847
 20
714.5856540893677
 10
1486.708354977847
 20
715.6349550893677
 10
1484.510081977847
 20
716.7485720893678
 10
1482.364268977847
 20
717.9248720893677
 10
1480.272074977847
 20
719.1625810893677
 10
1479.246653977847
 20
719.8039840893678
 10
1478.235545977847
 20
720.4599900893677
 10
1477.239787977847
 20
721.1298510893678
 10
1476.258555977847
 20
721.8140400893677
 10
1475.293284977847
 20
722.5114660893678
 10
1474.342601977847
 20
723.2230290893677
 10
1473.408030977847
 20
723.9474860893678
 10
1472.488169977847
 20
724.6858970893677
 10
1471.584727977847
 20
725.4367660893677
 10
1470.695964977847
 20
726.2014600893677
 10
1469.824015977847
 20
726.9780950893678
 10
1468.966807977847
 20
727.7684470893678
 10
1468.126750977847
 20
728.5701890893678
 10
1467.301463977847
 20
729.3855880893677
 10
1466.493815977847
 20
730.2117140893678
 10
1465.700938977847
 20
731.0514820893677
 10
1464.926554977847
 20
731.9008620893678
 10
1464.166880977847
 20
732.7639910893677
 10
1463.426036977847
 20
733.6360460893677
 10
1462.699870977847
 20
734.5219870893677
 10
1461.992594977847
 20
735.4164870893678
 10
1461.299967977847
 20
736.3249960893677
 10
1460.135447977847
 20
737.9317610893677
  0
LINE
  5
CA4
330
1F
100
AcDbEntity
  8
0
 62
     7
 48
0.000214
370
    60
100
AcDbLine
 10
1449.359568977847
 20
764.2304520893678
 30
0.0
 11
1449.358897977847
 21
764.2389970893678
 31
0.0
  0
LWPOLYLINE
  5
CA5
330
1F
100
AcDbEntity
  8
0
 62
     7
370
    60
100
AcDbPolyline
 90
       26
 70
     0
 43
0.0
 10
1460.135417977847
 20
737.9318220893678
 10
1459.491954977847
 20
738.8666220893678
 10
1458.863230977847
 20
739.8156420893678
 10
1458.254283977847
 20
740.7712240893677
 10
1457.660136977847
 20
741.7411940893678
 10
1457.085704977847
 20
742.7175280893678
 10
1456.526194977847
 20
743.7083270893677
 10
1455.986582977847
 20
744.7048630893678
 10
1455.462016977847
 20
745.7161390893677
 10
1454.957499977847
 20
746.7325430893677
 10
1454.468241977847
 20
747.7638080893678
 10
1453.999522977847
 20
748.7987960893677
 10
1453.546519977847
 20
749.8483720893678
 10
1453.114085977847
 20
750.9010760893677
 10
1452.697489977847
 20
751.9688560893678
 10
1452.301585977847
 20
753.0390760893678
 10
1451.921824977847
 20
754.1241140893678
 10
1451.562846977847
 20
755.2109970893678
 10
1451.220561977847
 20
756.3121020893677
 10
1450.899211977847
 20
757.4139090893677
 10
1450.594981977847
 20
758.5294630893677
 10
1450.311473977847
 20
759.6458880893678
 10
1450.045542977847
 20
760.7755270893678
 10
1449.800273977847
 20
761.9054700893678
 10
1449.573130977847
 20
763.0474380893677
 10
1449.359568977847
 20
764.2304520893678
  0
LINE
  5
CA6
330
1F
100
AcDbEntity
  8
0
 62
     7
 48
0.006388
370
    60
100
AcDbLine
 10
1702.132395977847
 20
719.1635960893677
 30
0.0
 11
1702.080210977847
 21
718.9134740893678
 31
0.0
  0
LINE
  5
CA7
330
1F
100
AcDbEntity
  8
0
 62
     7
 48
0.000222
370
    60
100
AcDbLine
 10
1449.358683977847
 20
764.2355790893678
 30
0.0
 11
1449.357981977847
 21
764.2444440893678
 31
0.0
  0
LINE
  5
CA8
330
1F
100
AcDbEntity
  8
0
 62
     7
 48
0.00013
370
    60
100
AcDbLine
 10
1449.358683977847
 20
764.2355790893678
 30
0.0
 11
1449.359568977847
 21
764.2304520893678
 31
0.0
  0
ARC
  5
CA9
330
1F
100
AcDbEntity
  8
0
 62
     7
370
    60
100
AcDbCircle
 10
1714.201609977847
 20
693.2274610893678
 30
0.0
 40
15.00000000000011
100
AcDbArc
 50
272.5487242300003
 51
0.0000000000003562
  0
LWPOLYLINE
  5
CAA
330
1F
100
AcDbEntity
  8
0
 62
     7
370
    60
100
AcDbPolyline
 90
       39
 70
     0
 43
0.0
 10
1695.294749977847
 20
699.1902910893677
 10
1697.060496977847
 20
699.2084490893677
 10
1697.955760977847
 20
699.2491750893678
 10
1698.859080977847
 20
699.3235160893678
 10
1699.769053977847
 20
699.4376360893677
 10
1700.683665977847
 20
699.5956100893677
 10
1701.600047977847
 20
699.7997730893678
 10
1702.515025977847
 20
700.0510850893677
 10
1703.706614977847
 20
700.4518270893677
 10
1704.883677977847
 20
700.9323410893678
 10
1706.041331977847
 20
701.4914920893677
 10
1706.609934977847
 20
701.7994910893677
 10
1707.169993977847
 20
702.1256550893677
 10
1707.718943977847
 20
702.4685730893677
 10
1708.257517977847
 20
702.8287950893678
 10
1708.780528977847
 20
703.2027420893678
 10
1709.291331977847
 20
703.5928560893677
 10
1709.781871977847
 20
703.9929030893677
 10
1710.258616977847
 20
704.4079880893678
 10
1710.711497977847
 20
704.8290090893677
 10
1711.149058977847
 20
705.2638000893678
 10
1711.560313977847
 20
705.7009340893678
 10
1711.955027977847
 20
706.1504350893678
 10
1712.322276977847
 20
706.5993180893677
 10
1712.671946977847
 20
707.0590960893678
 10
1712.994151977847
 20
707.5162650893677
 10
1713.297862977847
 20
707.9827940893678
 10
1713.575389977847
 20
708.4460890893678
 10
1713.833811977847
 20
708.9171740893678
 10
1714.067942977847
 20
709.3858550893677
 10
1714.282542977847
 20
709.8606860893677
 10
1714.475047977847
 20
710.3352720893677
 10
1714.647715977847
 20
710.8142690893678
 10
1714.933909977847
 20
711.7832020893677
 10
1715.145945977847
 20
712.7785100893677
 10
1715.288890977847
 20
713.8209670893677
 10
1715.368235977847
 20
714.9538480893677
 10
1715.392955977847
 20
716.3123000893677
 10
1715.393260977847
 20
716.7101350893677
  0
ARC
  5
CAB
330
1F
100
AcDbEntity
  8
0
 62
     7
370
    60
100
AcDbCircle
 10
1714.201609977847
 20
963.1471390893678
 30
0.0
 40
15.0
100
AcDbArc
 50
0.0
 51
87.45127593
  0
LWPOLYLINE
  5
CAC
330
1F
100
AcDbEntity
  8
0
 62
     7
370
    60
100
AcDbPolyline
 90
       49
 70
     0
 43
0.0
 10
1450.998210977847
 20
903.8996110893678
 10
1451.785807977847
 20
906.2406760893678
 10
1452.208995977847
 20
907.4045240893678
 10
1452.651438977847
 20
908.5625440893677
 10
1453.111888977847
 20
909.7116840893677
 10
1453.591380977847
 20
910.8543230893678
 10
1454.088572977847
 20
911.9874710893678
 10
1454.604136977847
 20
913.1126540893678
 10
1455.688975977847
 20
915.3361960893677
 10
1456.844859977847
 20
917.5229940893678
 10
1458.070445977847
 20
919.6706070893678
 10
1459.363932977847
 20
921.7760150893678
 10
1460.725138977847
 20
923.8390640893678
 10
1462.152598977847
 20
925.8575880893677
 10
1463.643809977847
 20
927.8280780893678
 10
1465.197886977847
 20
929.7494340893677
 10
1466.813426977847
 20
931.6199180893677
 10
1468.487559977847
 20
933.4362020893677
 10
1470.218272977847
 20
935.1961500893677
 10
1472.005351977847
 20
936.8997030893678
 10
1473.846934977847
 20
938.5449970893677
 10
1475.740885977847
 20
940.1301710893678
 10
1477.686412977847
 20
941.6544940893677
 10
1479.680278977847
 20
943.1153700893677
 10
1481.718577977847
 20
944.5099320893678
 10
1483.800852977847
 20
945.8379960893677
 10
1485.925852977847
 20
947.0986160893677
 10
1488.091532977847
 20
948.2906630893677
 10
1490.294169977847
 20
949.4119400893677
 10
1492.530162977847
 20
950.4606160893677
 10
1494.799723977847
 20
951.4369040893678
 10
1497.100321977847
 20
952.3396440893678
 10
1499.428538977847
 20
953.1674330893677
 10
1501.782267977847
 20
953.9195700893678
 10
1504.160868977847
 20
954.5958090893678
 10
1506.560374977847
 20
955.1949300893677
 10
1508.977915977847
 20
955.7161700893678
 10
1511.409342977847
 20
956.1586140893678
 10
1513.852519977847
 20
956.5219870893677
 10
1516.309031977847
 20
956.8065330893678
 10
1518.777415977847
 20
957.0120070893678
 10
1521.250132977847
 20
957.1375870893678
 10
1523.722514977847
 20
957.1830580893677
 10
1526.568492977847
 20
957.1894060893677
 10
1531.752330977847
 20
957.1831500893677
 10
1548.143778977847
 20
957.1822950893677
 10
1581.322276977847
 20
957.1826620893678
 10
1647.352091977847
 20
957.1835770893678
 10
1695.294749977847
 20
957.1843100893677
  0
LINE
  5
CAD
330
1F
100
AcDbEntity
  8
0
 62
     7
 48
0.00013
370
    60
100
AcDbLine
 10
1449.358683977847
 20
892.1390220893677
 30
0.0
 11
1449.359568977847
 21
892.1441480893677
 31
0.0
  0
LINE
  5
CAE
330
1F
100
AcDbEntity
  8
0
 62
     7
 48
0.000222
370
    60
100
AcDbLine
 10
1449.358683977847
 20
892.1390220893677
 30
0.0
 11
1449.357981977847
 21
892.1301710893678
 31
0.0
  0
LWPOLYLINE
  5
CAF
330
1F
100
AcDbEntity
  8
0
 62
     7
370
    60
100
AcDbPolyline
 90
       28
 70
     0
 43
0.0
 10
1706.981272977847
 20
829.4373000893678
 10
1706.969615977847
 20
837.0974870893677
 10
1706.935618977847
 20
844.7592910893677
 10
1706.884104977847
 20
851.6356190893678
 10
1706.810374977847
 20
858.5099020893678
 10
1706.722972977847
 20
864.6890400893677
 10
1706.613413977847
 20
870.8634780893677
 10
1706.494334977847
 20
876.3821860893678
 10
1706.353038977847
 20
881.8946060893677
 10
1706.206065977847
 20
886.8015580893677
 10
1706.036997977847
 20
891.7024370893678
 10
1705.865916977847
 20
896.0446310893677
 10
1705.672190977847
 20
900.3817890893678
 10
1705.480296977847
 20
904.1999960893677
 10
1705.266673977847
 20
908.0024860893677
 10
1705.058848977847
 20
911.3235310893677
 10
1704.827586977847
 20
914.6502210893677
 10
1704.605662977847
 20
917.5348650893677
 10
1704.362620977847
 20
920.3979630893677
 10
1704.130992977847
 20
922.8737320893678
 10
1703.877940977847
 20
925.3325330893678
 10
1703.639231977847
 20
927.4434340893678
 10
1703.380076977847
 20
929.5307450893678
 10
1703.137400977847
 20
931.3120870893678
 10
1702.875071977847
 20
933.0675190893677
 10
1702.631358977847
 20
934.5541520893678
 10
1702.369639977847
 20
936.0089560893678
 10
1702.132395977847
 20
937.2110120893677
  0
LINE
  5
CB0
330
1F
100
AcDbEntity
  8
0
 62
     7
 48
0.197981
370
    60
100
AcDbLine
 10
1714.900523977847
 20
829.4373000893678
 30
0.0
 11
1706.981272977847
 21
829.4373000893678
 31
0.0
  0
LINE
  5
CB1
330
1F
100
AcDbEntity
  8
0
 62
     7
 48
0.031263
370
    60
100
AcDbLine
 10
1447.435343977847
 20
829.4373000893678
 30
0.0
 11
1447.435252977847
 21
828.1867820893677
 31
0.0
  0
LWPOLYLINE
  5
CB2
330
1F
100
AcDbEntity
  8
0
 62
     7
370
    60
100
AcDbPolyline
 90
       14
 70
     0
 43
0.0
 10
1449.358683977847
 20
892.1390220893677
 10
1449.166911977847
 20
890.9643390893677
 10
1448.994425977847
 20
889.7830030893678
 10
1448.841624977847
 20
888.5977620893677
 10
1448.708323977847
 20
887.4070880893678
 10
1448.594737977847
 20
886.2124470893677
 10
1448.500895977847
 20
885.0137470893677
 10
1448.427012977847
 20
883.8130630893677
 10
1448.372996977847
 20
882.6092060893677
 10
1448.324412977847
 20
880.1911760893678
 10
1448.283946977847
 20
875.4523450893678
 10
1448.208872977847
 20
860.8680560893678
 10
1448.171092977847
 20
840.7471760893677
 10
1448.166056977847
 20
829.4373000893678
  0
LINE
  5
CB3
330
1F
100
AcDbEntity
  8
0
 62
     7
 48
0.006882
370
    60
100
AcDbLine
 10
1447.890788977847
 20
829.4373000893678
 30
0.0
 11
1448.166056977847
 21
829.4373000893678
 31
0.0
  0
LWPOLYLINE
  5
CB4
330
1F
100
AcDbEntity
  8
0
 62
     7
370
    60
100
AcDbPolyline
 90
       22
 70
     0
 43
0.0
 10
1447.390788977847
 20
829.4373000893678
 10
1447.390605977847
 20
868.1802200893677
 10
1447.390635977847
 20
870.6773520893678
 10
1447.391551977847
 20
879.9410850893678
 10
1447.393504977847
 20
881.3259720893677
 10
1447.419566977847
 20
882.7798910893678
 10
1447.527171977847
 20
885.2444290893677
 10
1447.611277977847
 20
886.4829240893678
 10
1447.715892977847
 20
887.7248670893678
 10
1447.840098977847
 20
888.9599140893678
 10
1447.984782977847
 20
890.1967910893677
 10
1448.148692977847
 20
891.4250020893677
 10
1448.333110977847
 20
892.6541580893678
 10
1448.536784977847
 20
893.8761740893677
 10
1448.761027977847
 20
895.0989820893677
 10
1449.004100977847
 20
896.3130940893677
 10
1449.267588977847
 20
897.5265340893677
 10
1449.549876977847
 20
898.7320090893677
 10
1449.852397977847
 20
899.9355300893677
 10
1450.173533977847
 20
901.1308120893677
 10
1450.514598977847
 20
902.3227980893678
 10
1450.998210977847
 20
903.8996420893677
  0
LINE
  5
CB5
330
1F
100
AcDbEntity
  8
0
 62
     7
 48
0.0125
370
    60
100
AcDbLine
 10
1447.890788977847
 20
829.4373000893678
 30
0.0
 11
1447.390788977847
 21
829.4373000893678
 31
0.0
  0
LINE
  5
CB6
330
1F
100
AcDbEntity
  8
0
 62
     7
 48
0.265716
370
    60
100
AcDbLine
 10
1436.762156977847
 20
829.4373000893678
 30
0.0
 11
1447.390788977847
 21
829.4373000893678
 31
0.0
  0
LINE
  5
CB7
330
1F
100
AcDbEntity
  8
0
 62
     7
 48
0.000427
370
    60
100
AcDbLine
 10
1706.964183977847
 20
829.4373000893678
 30
0.0
 11
1706.981272977847
 21
829.4373000893678
 31
0.0
  0
LINE
  5
CB8
330
1F
100
AcDbEntity
  8
0
 62
     7
 48
0.0625
370
    60
100
AcDbLine
 10
1729.173228977847
 20
829.4373000893678
 30
0.0
 11
1729.173228977847
 21
826.9373000893678
 31
0.0
  0
LINE
  5
CB9
330
1F
100
AcDbEntity
  8
0
 62
     7
370
    60
100
AcDbLine
 10
1729.201609977847
 20
829.4373000893678
 30
0.0
 11
1729.201609977847
 21
963.1471390893678
 31
0.0
  0
LINE
  5
CBA
330
1F
100
AcDbEntity
  8
0
 62
     7
370
    60
100
AcDbLine
 10
1729.201609977847
 20
693.2274610893678
 30
0.0
 11
1729.201609977847
 21
826.9373000893678
 31
0.0
  0
LINE
  5
CBB
330
1F
100
AcDbEntity
  8
0
 62
     7
370
    60
100
AcDbLine
 10
1432.901988977847
 20
829.4373000893678
 30
0.0
 11
1432.901988977847
 21
896.6226640893677
 31
0.0
  0
LINE
  5
CBC
330
1F
100
AcDbEntity
  8
0
 62
     7
370
    60
100
AcDbLine
 10
1432.901988977847
 20
826.9373000893678
 30
0.0
 11
1432.901988977847
 21
759.7519370893677
 31
0.0
  0
LINE
  5
CBD
330
1F
100
AcDbEntity
  8
0
 62
     7
370
    60
100
AcDbLine
 10
1715.393260977847
 20
939.6644730893678
 30
0.0
 11
1715.393260977847
 21
829.4373000893678
 31
0.0
  0
LINE
  5
CBE
330
1F
100
AcDbEntity
  8
0
 62
     7
 48
0.012318
370
    60
100
AcDbLine
 10
1715.393260977847
 20
829.4373000893678
 30
0.0
 11
1714.900523977847
 21
829.4373000893678
 31
0.0
  0
LINE
  5
CBF
330
1F
100
AcDbEntity
  8
0
 62
     7
370
    60
100
AcDbLine
 10
1715.393260977847
 20
716.7101350893677
 30
0.0
 11
1715.393260977847
 21
826.9373000893678
 31
0.0
  0
LINE
  5
CC0
330
1F
100
AcDbEntity
  8
0
 62
     7
 48
0.012318
370
    60
100
AcDbLine
 10
1715.393260977847
 20
826.9373000893678
 30
0.0
 11
1714.900523977847
 21
826.9373000893678
 31
0.0
  0
LINE
  5
CC1
330
1F
100
AcDbEntity
  8
0
 62
     7
 48
0.000427
370
    60
100
AcDbLine
 10
1706.964183977847
 20
826.9373000893678
 30
0.0
 11
1706.981272977847
 21
826.9373000893678
 31
0.0
  0
LWPOLYLINE
  5
CC2
330
1F
100
AcDbEntity
  8
0
 62
     7
370
    60
100
AcDbPolyline
 90
       28
 70
     0
 43
0.0
 10
1706.981272977847
 20
826.9373000893678
 10
1706.970164977847
 20
819.4617600893678
 10
1706.937815977847
 20
811.9846330893678
 10
1706.887217977847
 20
805.0901780893678
 10
1706.814463977847
 20
798.1976310893677
 10
1706.727976977847
 20
792.0009910893677
 10
1706.619273977847
 20
785.8090650893678
 10
1706.500987977847
 20
780.2744280893678
 10
1706.360423977847
 20
774.7459550893677
 10
1706.214183977847
 20
769.8251330893677
 10
1706.045726977847
 20
764.9104450893677
 10
1705.875193977847
 20
760.5514670893677
 10
1705.681834977847
 20
756.1976760893677
 10
1705.490550977847
 20
752.3679640893678
 10
1705.277415977847
 20
748.5530230893678
 10
1705.069834977847
 20
745.2182300893678
 10
1704.838999977847
 20
741.8803700893677
 10
1704.617442977847
 20
738.9854880893677
 10
1704.374705977847
 20
736.1121970893678
 10
1704.143260977847
 20
733.6266920893677
 10
1703.890452977847
 20
731.1580640893678
 10
1703.651805977847
 20
729.0381150893677
 10
1703.392771977847
 20
726.9416030893677
 10
1703.150218977847
 20
725.1523040893678
 10
1702.887889977847
 20
723.3888690893677
 10
1702.644114977847
 20
721.8951400893677
 10
1702.382395977847
 20
720.4330970893677
 10
1702.132395977847
 20
719.1635960893677
  0
LINE
  5
CC3
330
1F
100
AcDbEntity
  8
0
 62
     7
 48
0.197981
370
    60
100
AcDbLine
 10
1714.900523977847
 20
826.9373000893678
 30
0.0
 11
1706.981272977847
 21
826.9373000893678
 31
0.0
  0
LINE
  5
CC4
330
1F
100
AcDbEntity
  8
0
 62
     7
 48
0.006882
370
    60
100
AcDbLine
 10
1447.890788977847
 20
826.9373000893678
 30
0.0
 11
1448.166056977847
 21
826.9373000893678
 31
0.0
  0
LINE
  5
CC5
330
1F
100
AcDbEntity
  8
0
 62
     7
 48
0.031263
370
    60
100
AcDbLine
 10
1707.576243977847
 20
828.1878190893677
 30
0.0
 11
1707.576243977847
 21
826.9373000893678
 31
0.0
  0
LINE
  5
CC6
330
1F
100
AcDbEntity
  8
0
 62
     7
 48
0.031237
370
    60
100
AcDbLine
 10
1447.435343977847
 20
826.9373000893678
 30
0.0
 11
1447.435252977847
 21
828.1867820893677
 31
0.0
  0
LINE
  5
CC7
330
1F
100
AcDbEntity
  8
0
 62
     7
 48
0.0125
370
    60
100
AcDbLine
 10
1447.890788977847
 20
826.9373000893678
 30
0.0
 11
1447.390788977847
 21
826.9373000893678
 31
0.0
  0
LWPOLYLINE
  5
CC8
330
1F
100
AcDbEntity
  8
0
 62
     7
370
    60
100
AcDbPolyline
 90
       22
 70
     0
 43
0.0
 10
1447.390788977847
 20
826.9373000893678
 10
1447.390605977847
 20
788.1943650893677
 10
1447.390635977847
 20
785.6964710893677
 10
1447.391551977847
 20
776.4328140893678
 10
1447.393504977847
 20
775.0474380893677
 10
1447.419596977847
 20
773.5931230893677
 10
1447.527293977847
 20
771.1284010893678
 10
1447.611430977847
 20
769.8899070893677
 10
1447.716075977847
 20
768.6479630893677
 10
1447.840281977847
 20
767.4129320893678
 10
1447.984996977847
 20
766.1760550893678
 10
1448.148936977847
 20
764.9478590893677
 10
1448.333384977847
 20
763.7187180893677
 10
1448.537089977847
 20
762.4966880893678
 10
1448.761363977847
 20
761.2738790893677
 10
1449.004466977847
 20
760.0597670893678
 10
1449.267955977847
 20
758.8463580893678
 10
1449.550303977847
 20
757.6408830893677
 10
1449.852854977847
 20
756.4373920893677
 10
1450.174021977847
 20
755.2420950893677
 10
1450.515086977847
 20
754.0501240893677
 10
1450.998210977847
 20
752.4749740893677
  0
LINE
  5
CC9
330
1F
100
AcDbEntity
  8
0
 62
     7
 48
0.345209
370
    60
100
AcDbLine
 10
1729.201609977847
 20
826.9373000893678
 30
0.0
 11
1715.393260977847
 21
826.9373000893678
 31
0.0
  0
LINE
  5
CCA
330
1F
100
AcDbEntity
  8
0
 62
     7
 48
0.265716
370
    60
100
AcDbLine
 10
1436.762156977847
 20
826.9373000893678
 30
0.0
 11
1447.390788977847
 21
826.9373000893678
 31
0.0
  0
LINE
  5
CCB
330
1F
100
AcDbEntity
  8
0
 62
     7
 48
0.096504
370
    60
100
AcDbLine
 10
1436.762156977847
 20
826.9373000893678
 30
0.0
 11
1432.901988977847
 21
826.9373000893678
 31
0.0
  0
LINE
  5
CCC
330
1F
100
AcDbEntity
  8
0
 62
     7
 48
0.031253
370
    60
100
AcDbLine
 10
1432.914500977847
 20
828.1874070893678
 30
0.0
 11
1432.914500977847
 21
826.9373000893678
 31
0.0
  0
LINE
  5
CCD
330
1F
100
AcDbEntity
  8
0
 62
     7
 48
0.031263
370
    60
100
AcDbLine
 10
1707.576243977847
 20
828.1867820893677
 30
0.0
 11
1707.576243977847
 21
829.4373000893678
 31
0.0
  0
LINE
  5
CCE
330
1F
100
AcDbEntity
  8
0
 62
     7
 48
0.345209
370
    60
100
AcDbLine
 10
1729.201609977847
 20
829.4373000893678
 30
0.0
 11
1715.393260977847
 21
829.4373000893678
 31
0.0
  0
LINE
  5
CCF
330
1F
100
AcDbEntity
  8
0
 62
     7
 48
0.096504
370
    60
100
AcDbLine
 10
1436.762156977847
 20
829.4373000893678
 30
0.0
 11
1432.901988977847
 21
829.4373000893678
 31
0.0
  0
LINE
  5
CD0
330
1F
100
AcDbEntity
  8
0
 62
     7
 48
0.031253
370
    60
100
AcDbLine
 10
1432.914500977847
 20
828.1871940893677
 30
0.0
 11
1432.914500977847
 21
829.4373000893678
 31
0.0
  0
LWPOLYLINE
  5
CD1
330
1F
100
AcDbEntity
  8
0
 62
     7
370
    60
100
AcDbPolyline
 90
       38
 70
     0
 43
0.0
 10
1676.826365977847
 20
950.1087480893677
 10
1678.694407977847
 20
950.2027120893678
 10
1680.598277977847
 20
950.2190080893678
 10
1682.520335977847
 20
950.1556840893677
 10
1683.476695977847
 20
950.0941300893677
 10
1684.431529977847
 20
950.0123130893677
 10
1685.365550977847
 20
949.9120010893678
 10
1686.297190977847
 20
949.7911520893678
 10
1687.191966977847
 20
949.6545240893678
 10
1688.083384977847
 20
949.4971450893678
 10
1688.925242977847
 20
949.3276810893677
 10
1689.762705977847
 20
949.1374040893677
 10
1690.542613977847
 20
948.9390090893678
 10
1691.316966977847
 20
948.7198930893677
 10
1692.030711977847
 20
948.4963210893677
 10
1692.737742977847
 20
948.2522420893678
 10
1693.384288977847
 20
948.0070020893677
 10
1694.022837977847
 20
947.7416520893678
 10
1694.604075977847
 20
947.4775840893677
 10
1695.176097977847
 20
947.1940140893678
 10
1695.696360977847
 20
946.9128860893677
 10
1696.206065977847
 20
946.6130210893677
 10
1696.669627977847
 20
946.3162680893678
 10
1697.121287977847
 20
946.0017530893678
 10
1697.533274977847
 20
945.6897720893677
 10
1697.932139977847
 20
945.3612200893677
 10
1698.297679977847
 20
945.0335530893677
 10
1698.648936977847
 20
944.6906880893678
 10
1698.973094977847
 20
944.3458700893677
 10
1699.281932977847
 20
943.9872880893678
 10
1699.568980977847
 20
943.6231220893677
 10
1699.839915977847
 20
943.2468400893678
 10
1700.331187977847
 20
942.4626300893677
 10
1700.764781977847
 20
941.6222060893678
 10
1701.149058977847
 20
940.7077170893677
 10
1701.493235977847
 20
939.6915730893677
 10
1701.811473977847
 20
938.5207050893678
 10
1702.073924977847
 20
937.3581380893678
  0
LINE
  5
CD2
330
1F
100
AcDbEntity
  8
0
 62
     7
 48
0.008251
370
    60
100
AcDbLine
 10
1676.497142977847
 20
950.0853720893678
 30
0.0
 11
1676.826365977847
 21
950.1087480893677
 31
0.0
  0
LINE
  5
CD3
330
1F
100
AcDbEntity
  8
0
 62
     7
 48
0.000271
370
    60
100
AcDbLine
 10
1676.486338977847
 20
950.0846090893677
 30
0.0
 11
1676.497142977847
 21
950.0853720893678
 31
0.0
  0
LWPOLYLINE
  5
CD4
330
1F
100
AcDbEntity
  8
0
 62
     7
370
    60
100
AcDbPolyline
 90
        6
 70
     0
 43
0.0
 10
1668.272044977847
 20
949.6888870893678
 10
1670.351908977847
 20
949.7555990893677
 10
1672.370371977847
 20
949.8406210893677
 10
1674.269236977847
 20
949.9406270893677
 10
1676.106333977847
 20
950.0577230893678
 10
1676.486399977847
 20
950.0846390893678
  0
LWPOLYLINE
  5
CD5
330
1F
100
AcDbEntity
  8
0
 62
     7
370
    60
100
AcDbPolyline
 90
       14
 70
     0
 43
0.0
 10
1523.947856977847
 20
948.7028640893677
 10
1527.823558977847
 20
948.6045980893678
 10
1531.699778977847
 20
948.5298300893678
 10
1539.114817977847
 20
948.4401990893678
 10
1551.586344977847
 20
948.3481890893678
 10
1560.425395977847
 20
948.3071120893677
 10
1569.264506977847
 20
948.2910910893678
 10
1585.111918977847
 20
948.3237750893677
 10
1593.317088977847
 20
948.3702230893678
 10
1601.522166977847
 20
948.4369040893678
 10
1617.895518977847
 20
948.6296830893677
 10
1634.554820977847
 20
948.9050130893678
 10
1651.661631977847
 20
949.2666160893677
 10
1668.272044977847
 20
949.6888870893678
  0
LWPOLYLINE
  5
CD6
330
1F
100
AcDbEntity
  8
0
 62
     7
370
    60
100
AcDbPolyline
 90
       36
 70
     0
 43
0.0
 10
1460.116709977847
 20
918.4094680893677
 10
1461.450083977847
 20
920.2423540893677
 10
1462.850718977847
 20
922.0319660893678
 10
1464.317729977847
 20
923.7767470893677
 10
1465.850688977847
 20
925.4759360893678
 10
1467.449504977847
 20
927.1289810893677
 10
1469.113383977847
 20
928.7345720893677
 10
1470.840892977847
 20
930.2907550893677
 10
1472.630412977847
 20
931.7953940893677
 10
1474.481852977847
 20
933.2479390893677
 10
1476.394480977847
 20
934.6471700893677
 10
1478.366770977847
 20
935.9913160893677
 10
1480.398326977847
 20
937.2794020893677
 10
1482.487803977847
 20
938.5098710893677
 10
1484.631175977847
 20
939.6795790893677
 10
1486.826243977847
 20
940.7866660893677
 10
1489.071757977847
 20
941.8299390893677
 10
1491.366007977847
 20
942.8079060893677
 10
1493.702159977847
 20
943.7169630893677
 10
1496.074290977847
 20
944.5543660893677
 10
1498.480784977847
 20
945.3191970893678
 10
1500.918650977847
 20
946.0102070893678
 10
1503.383311977847
 20
946.6258070893678
 10
1505.875865977847
 20
947.1660600893678
 10
1508.389964977847
 20
947.6291950893677
 10
1509.650492977847
 20
947.8309160893677
 10
1510.914042977847
 20
948.0127400893678
 10
1512.173960977847
 20
948.1738120893677
 10
1513.436259977847
 20
948.3148640893678
 10
1515.947947977847
 20
948.5350790893677
 10
1517.210246977847
 20
948.6156760893678
 10
1518.473643977847
 20
948.6762530893677
 10
1519.724253977847
 20
948.7160780893678
 10
1520.975321977847
 20
948.7354570893677
 10
1523.460581977847
 20
948.7152850893677
 10
1523.947856977847
 20
948.7028640893677
  0
LWPOLYLINE
  5
CD7
330
1F
100
AcDbEntity
  8
0
 62
     7
370
    60
100
AcDbPolyline
 90
       14
 70
     0
 43
0.0
 10
1460.116740977847
 20
918.4094680893677
 10
1458.851176977847
 20
916.5341330893677
 10
1457.653575977847
 20
914.6165610893678
 10
1456.524821977847
 20
912.6581870893677
 10
1455.465708977847
 20
910.6604750893678
 10
1454.477122977847
 20
908.6249220893677
 10
1453.559825977847
 20
906.5529620893677
 10
1452.714579977847
 20
904.4461810893678
 10
1451.942210977847
 20
902.3060440893678
 10
1451.243449977847
 20
900.1341080893677
 10
1450.619029977847
 20
897.9319900893678
 10
1450.069743977847
 20
895.7012160893678
 10
1449.596232977847
 20
893.4435260893678
 10
1449.358866977847
 20
892.1356040893677
  0
LINE
  5
CD8
330
1F
100
AcDbEntity
  8
0
 62
     7
 48
0.006338
370
    60
100
AcDbLine
 10
1702.073924977847
 20
937.3581380893678
 30
0.0
 11
1702.125682977847
 21
937.1099380893677
 31
0.0
  0
LINE
  5
CD9
330
1F
100
AcDbEntity
  8
0
 62
     7
 48
0.000138
370
    60
100
AcDbLine
 10
1449.358897977847
 20
764.2389970893678
 30
0.0
 11
1449.357981977847
 21
764.2444440893678
 31
0.0
  0
LINE
  5
CDA
330
1F
100
AcDbEntity
  8
0
 62
     7
 48
0.000138
370
    60
100
AcDbLine
 10
1449.358897977847
 20
892.1356040893677
 30
0.0
 11
1449.357981977847
 21
892.1301710893678
 31
0.0
  0
LWPOLYLINE
  5
CDB
330
1F
100
AcDbEntity
  8
0
 62
     7
370
    60
100
AcDbPolyline
 90
       13
 70
     0
 43
0.0
 10
1448.166392977847
 20
826.9373000893678
 10
1448.175883977847
 20
811.2495100893677
 10
1448.209117977847
 20
795.5617660893678
 10
1448.255137977847
 20
785.2827590893678
 10
1448.339549977847
 20
775.0039660893677
 10
1448.376841977847
 20
773.6667770893678
 10
1448.440104977847
 20
772.3304740893677
 10
1448.615855977847
 20
769.9310590893677
 10
1448.733348977847
 20
768.7356400893677
 10
1448.870951977847
 20
767.5423420893678
 10
1449.027720977847
 20
766.3577410893677
 10
1449.204356977847
 20
765.1759330893677
 10
1449.357981977847
 20
764.2444440893678
  0
LWPOLYLINE
  5
CDC
330
1F
100
AcDbEntity
  8
0
 62
     7
370
    60
100
AcDbPolyline
 90
       12
 70
     0
 43
0.0
 10
1443.191447977847
 20
1141.790938089368
 10
1443.201518977847
 20
1141.649275089368
 10
1443.231578977847
 20
1141.510481089368
 10
1443.280955977847
 20
1141.377364089368
 10
1443.348735977847
 20
1141.252547089368
 10
1443.433482977847
 20
1141.138594089368
 10
1443.533549977847
 20
1141.037825089368
 10
1443.646861977847
 20
1140.952193089368
 10
1443.771128977847
 20
1140.883528089368
 10
1443.903880977847
 20
1140.833174089368
 10
1444.042460977847
 20
1140.802107089368
 10
1444.191325977847
 20
1140.790938089368
  0
LINE
  5
CDD
330
1F
100
AcDbEntity
  8
0
 62
     7
 48
0.000287
370
    60
100
AcDbLine
 10
1704.978404977847
 20
1098.108565089368
 30
0.0
 11
1704.981455977847
 21
1098.119643089368
 31
0.0
  0
ARC
  5
CDE
330
1F
100
AcDbEntity
  8
0
 62
     7
370
    60
100
AcDbCircle
 10
1697.171153977847
 20
-7300.808060910632
 30
0.0
 40
8447.607422
100
AcDbArc
 50
89.95534672
 51
90.01272672
  0
LWPOLYLINE
  5
CDF
330
1F
100
AcDbEntity
  8
0
 62
     7
370
    60
100
AcDbPolyline
 90
       12
 70
     0
 43
0.0
 10
1455.294688977847
 20
1140.790938089368
 10
1455.436320977847
 20
1140.801009089368
 10
1455.575114977847
 20
1140.831099089368
 10
1455.708232977847
 20
1140.880477089368
 10
1455.833018977847
 20
1140.948226089368
 10
1455.946940977847
 20
1141.033003089368
 10
1456.047740977847
 20
1141.133040089368
 10
1456.133311977847
 20
1141.246382089368
 10
1456.201976977847
 20
1141.370650089368
 10
1456.252360977847
 20
1141.503462089368
 10
1456.283427977847
 20
1141.642012089368
 10
1456.294566977847
 20
1141.790938089368
  0
LWPOLYLINE
  5
CE0
330
1F
100
AcDbEntity
  8
0
 62
     7
370
    60
100
AcDbPolyline
 90
       12
 70
     0
 43
0.0
 10
1443.191447977847
 20
1141.790938089368
 10
1443.201518977847
 20
1141.649275089368
 10
1443.231578977847
 20
1141.510481089368
 10
1443.280955977847
 20
1141.377364089368
 10
1443.348735977847
 20
1141.252547089368
 10
1443.433482977847
 20
1141.138594089368
 10
1443.533549977847
 20
1141.037825089368
 10
1443.646861977847
 20
1140.952193089368
 10
1443.771128977847
 20
1140.883528089368
 10
1443.903880977847
 20
1140.833174089368
 10
1444.042460977847
 20
1140.802107089368
 10
1444.191325977847
 20
1140.790938089368
  0
LINE
  5
CE1
330
1F
100
AcDbEntity
  8
0
 62
     7
 48
0.001052
370
    60
100
AcDbLine
 10
1443.191447977847
 20
1144.461531089368
 30
0.0
 11
1443.190653977847
 21
1144.419478089368
 31
0.0
  0
LINE
  5
CE2
330
1F
100
AcDbEntity
  8
0
 62
     7
 48
0.277601
370
    60
100
AcDbLine
 10
1444.191325977847
 20
1140.790938089368
 30
0.0
 11
1455.295359977847
 21
1140.790938089368
 31
0.0
  0
LWPOLYLINE
  5
CE3
330
1F
100
AcDbEntity
  8
0
 62
     7
370
    60
100
AcDbPolyline
 90
       13
 70
     0
 43
0.0
 10
1444.042460977847
 20
1145.781905089368
 10
1444.221751977847
 20
1145.742537089368
 10
1444.456065977847
 20
1145.614363089368
 10
1444.896891977847
 20
1145.306563089368
 10
1445.515910977847
 20
1144.891585089368
 10
1446.209971977847
 20
1144.500777089368
 10
1446.579356977847
 20
1144.326766089368
 10
1446.966929977847
 20
1144.169356089368
 10
1447.326060977847
 20
1144.046614089368
 10
1447.699229977847
 20
1143.943160089368
 10
1448.040873977847
 20
1143.870711089368
 10
1448.392161977847
 20
1143.819502089368
 10
1448.897685977847
 20
1143.790938089368
  0
LWPOLYLINE
  5
CE4
330
1F
100
AcDbEntity
  8
0
 62
     7
370
    60
100
AcDbPolyline
 90
        9
 70
     0
 43
0.0
 10
1443.191447977847
 20
1144.461531089368
 10
1443.242411977847
 20
1144.781050089368
 10
1443.383006977847
 20
1145.148726089368
 10
1443.486216977847
 20
1145.333541089368
 10
1443.610850977847
 20
1145.509078089368
 10
1443.727793977847
 20
1145.635176089368
 10
1443.834056977847
 20
1145.717513089368
 10
1443.928080977847
 20
1145.762801089368
 10
1444.042460977847
 20
1145.781905089368
  0
LINE
  5
CE5
330
1F
100
AcDbEntity
  8
0
 62
     7
370
    60
100
AcDbLine
 10
1496.827403977847
 20
1143.790877089368
 30
0.0
 11
1450.998210977847
 21
1143.790938089368
 31
0.0
  0
LWPOLYLINE
  5
CE6
330
1F
100
AcDbEntity
  8
0
 62
     7
370
    60
100
AcDbPolyline
 90
        5
 70
     0
 43
0.0
 10
1701.058055977847
 20
1143.797774089368
 10
1676.600291977847
 20
1143.792464089368
 10
1624.910258977847
 20
1143.790999089368
 10
1523.459117977847
 20
1143.790816089368
 10
1496.827403977847
 20
1143.790877089368
  0
ARC
  5
CE7
330
1F
100
AcDbEntity
  8
0
 62
     7
370
    60
100
AcDbCircle
 10
1708.156199977847
 20
779.1315140893678
 30
0.0
 40
364.651764
100
AcDbArc
 50
88.96977107
 51
89.50767588000001
  0
ARC
  5
CE8
330
1F
100
AcDbEntity
  8
0
 62
     7
370
    60
100
AcDbCircle
 10
1707.078440977847
 20
725.9481950893678
 30
0.0
 40
417.8459779999999
100
AcDbArc
 50
87.32445974
 51
88.95313295
  0
LINE
  5
CE9
330
1F
100
AcDbEntity
  8
0
 62
     7
 48
0.160713
370
    60
100
AcDbLine
 10
1443.190684977847
 20
1143.790938089368
 30
0.0
 11
1436.762156977847
 21
1143.790938089368
 31
0.0
  0
LINE
  5
CEA
330
1F
100
AcDbEntity
  8
0
 62
     7
 48
0.052514
370
    60
100
AcDbLine
 10
1450.998210977847
 20
1143.790938089368
 30
0.0
 11
1448.897654977847
 21
1143.790938089368
 31
0.0
  0
LWPOLYLINE
  5
CEB
330
1F
100
AcDbEntity
  8
0
 62
     7
370
    60
100
AcDbPolyline
 90
        6
 70
     0
 43
0.0
 10
1702.858836977847
 20
1144.311446089368
 10
1702.414195977847
 20
1144.123580089368
 10
1702.021556977847
 20
1143.981429089368
 10
1701.701243977847
 20
1143.888350089368
 10
1701.388438977847
 20
1143.824446089368
 10
1701.058055977847
 20
1143.797774089368
  0
LWPOLYLINE
  5
CEC
330
1F
100
AcDbEntity
  8
0
 62
     7
370
    60
100
AcDbPolyline
 90
       18
 70
     0
 43
0.0
 10
1702.858836977847
 20
1144.311446089368
 10
1703.702342977847
 20
1144.718672089368
 10
1705.162669977847
 20
1145.474227089368
 10
1705.592601977847
 20
1145.667952089368
 10
1705.810374977847
 20
1145.746077089368
 10
1706.030039977847
 20
1145.801070089368
 10
1706.202891977847
 20
1145.821639089368
 10
1706.376048977847
 20
1145.819014089368
 10
1706.696849977847
 20
1145.755599089368
 10
1707.087229977847
 20
1145.606673089368
 10
1707.612498977847
 20
1145.348372089368
 10
1708.660899977847
 20
1144.783309089368
 10
1709.547557977847
 20
1144.326949089368
 10
1710.012278977847
 20
1144.114607089368
 10
1710.498240977847
 20
1143.927657089368
 10
1710.791087977847
 20
1143.841475089368
 10
1711.075144977847
 20
1143.785872089368
 10
1711.289500977847
 20
1143.769820089368
  0
LINE
  5
CED
330
1F
100
AcDbEntity
  8
0
 62
     7
 48
0.034005
370
    60
100
AcDbLine
 10
1436.762156977847
 20
1143.790938089368
 30
0.0
 11
1435.401957977847
 21
1143.790999089368
 31
0.0
  0
ARC
  5
CEE
330
1F
100
AcDbEntity
  8
0
 62
     7
370
    60
100
AcDbCircle
 10
1435.401988977847
 20
1146.290999089368
 30
0.0
 40
2.5
100
AcDbArc
 50
180.0
 51
269.99986075
  0
LINE
  5
CEF
330
1F
100
AcDbEntity
  8
0
 62
     7
370
    60
100
AcDbLine
 10
1450.998210977847
 20
1146.790938089368
 30
0.0
 11
1496.181040977847
 21
1146.790877089368
 31
0.0
  0
LINE
  5
CF0
330
1F
100
AcDbEntity
  8
0
 62
     7
 48
0.355901
370
    60
100
AcDbLine
 10
1436.762156977847
 20
1146.790938089368
 30
0.0
 11
1450.998210977847
 21
1146.790938089368
 31
0.0
  0
LINE
  5
CF1
330
1F
100
AcDbEntity
  8
0
 62
     7
 48
0.096504
370
    60
100
AcDbLine
 10
1432.901988977847
 20
1146.790999089368
 30
0.0
 11
1436.762156977847
 21
1146.790938089368
 31
0.0
  0
LWPOLYLINE
  5
CF2
330
1F
100
AcDbEntity
  8
0
 62
     7
370
    60
100
AcDbPolyline
 90
        8
 70
     0
 43
0.0
 10
1714.868601977847
 20
1146.721968089368
 10
1709.264353977847
 20
1146.783431089368
 10
1702.995066977847
 20
1146.796675089368
 10
1689.926097977847
 20
1146.796797089368
 10
1663.275004977847
 20
1146.790389089368
 10
1607.783610977847
 20
1146.790877089368
 10
1498.299174977847
 20
1146.790877089368
 10
1496.181040977847
 20
1146.790877089368
  0
LINE
  5
CF3
330
1F
100
AcDbEntity
  8
0
 62
     7
 48
0.205728
370
    60
100
AcDbLine
 10
1711.567393977847
 20
1140.793440089368
 30
0.0
 11
1703.338267977847
 21
1140.793440089368
 31
0.0
  0
LINE
  5
CF4
330
1F
100
AcDbEntity
  8
0
 62
     7
 48
0.072391
370
    60
100
AcDbLine
 10
1703.338267977847
 20
1140.793440089368
 30
0.0
 11
1700.442637977847
 21
1140.793440089368
 31
0.0
  0
ARC
  5
CF5
330
1F
100
AcDbEntity
  8
0
 62
     7
370
    60
100
AcDbCircle
 10
1852.174388977847
 20
1146.790877089368
 30
0.0
 40
407.183868
100
AcDbArc
 50
180.8442748799999
 51
182.04503628
  0
LWPOLYLINE
  5
CF6
330
1F
100
AcDbEntity
  8
0
 62
     7
370
    60
100
AcDbPolyline
 90
        6
 70
     0
 43
0.0
 10
1445.338267977847
 20
1129.961592089368
 10
1445.429026977847
 20
1128.098006089368
 10
1445.533091977847
 20
1127.540145089368
 10
1445.741007977847
 20
1126.865035089368
 10
1446.073924977847
 20
1126.061324089368
 10
1446.494334977847
 20
1125.220137089368
  0
ARC
  5
CF7
330
1F
100
AcDbEntity
  8
0
 62
     7
370
    60
100
AcDbCircle
 10
1820.807322977847
 20
1145.565230089368
 30
0.0
 40
375.7930909999999
100
AcDbArc
 50
182.02894419
 51
182.379729
  0
LWPOLYLINE
  5
CF8
330
1F
100
AcDbEntity
  8
0
 62
     7
370
    60
100
AcDbPolyline
 90
       12
 70
     0
 43
0.0
 10
1446.494334977847
 20
1125.220137089368
 10
1447.420634977847
 20
1123.568892089368
 10
1448.570262977847
 20
1121.580001089368
 10
1449.508738977847
 20
1120.004744089368
 10
1450.530345977847
 20
1118.336653089368
 10
1451.497538977847
 20
1116.799178089368
 10
1452.519297977847
 20
1115.217574089368
 10
1453.478251977847
 20
1113.772505089368
 10
1454.476939977847
 20
1112.306502089368
 10
1455.459239977847
 20
1110.901290089368
 10
1456.475169977847
 20
1109.484877089368
 10
1457.773844977847
 20
1107.726943089368
  0
LWPOLYLINE
  5
CF9
330
1F
100
AcDbEntity
  8
0
 62
     7
370
    60
100
AcDbPolyline
 90
       50
 70
     0
 43
0.0
 10
1457.773936977847
 20
1107.726821089368
 10
1458.770701977847
 20
1106.415999089368
 10
1459.789866977847
 20
1105.109328089368
 10
1460.820323977847
 20
1103.821242089368
 10
1461.878092977847
 20
1102.532485089368
 10
1462.920878977847
 20
1101.294234089368
 10
1463.986888977847
 20
1100.060561089368
 10
1465.041514977847
 20
1098.871230089368
 10
1466.118052977847
 20
1097.688399089368
 10
1467.184214977847
 20
1096.547164089368
 10
1468.271220977847
 20
1095.413832089368
 10
1469.349314977847
 20
1094.319136089368
 10
1470.447398977847
 20
1093.233443089368
 10
1471.537547977847
 20
1092.184157089368
 10
1472.646739977847
 20
1091.145033089368
 10
1473.747996977847
 20
1090.141158089368
 10
1474.867320977847
 20
1089.148543089368
 10
1475.978343977847
 20
1088.190413089368
 10
1477.106700977847
 20
1087.244399089368
 10
1478.226695977847
 20
1086.331832089368
 10
1479.363047977847
 20
1085.432326089368
 10
1480.490184977847
 20
1084.565993089368
 10
1481.633006977847
 20
1083.713393089368
 10
1482.766551977847
 20
1082.892989089368
 10
1483.915538977847
 20
1082.086653089368
 10
1485.055796977847
 20
1081.311202089368
 10
1486.210368977847
 20
1080.550643089368
 10
1487.356944977847
 20
1079.819625089368
 10
1488.516734977847
 20
1079.104293089368
 10
1489.670726977847
 20
1078.416243089368
 10
1490.837596977847
 20
1077.744155089368
 10
1492.002818977847
 20
1077.096236089368
 10
1493.180216977847
 20
1076.464644089368
 10
1494.361521977847
 20
1075.853774089368
 10
1495.554240977847
 20
1075.259627089368
 10
1496.750590977847
 20
1074.686141089368
 10
1497.957652977847
 20
1074.129866089368
 10
1499.166453977847
 20
1073.594893089368
 10
1500.385325977847
 20
1073.077529089368
 10
1501.605540977847
 20
1072.581404089368
 10
1502.835185977847
 20
1072.103194089368
 10
1504.065745977847
 20
1071.646224089368
 10
1505.304698977847
 20
1071.207656089368
 10
1507.785899977847
 20
1070.393050089368
 10
1510.324473977847
 20
1069.643294089368
 10
1512.953105977847
 20
1068.949355089368
 10
1515.676768977847
 20
1068.312056089368
 10
1518.492259977847
 20
1067.734419089368
 10
1521.391368977847
 20
1067.219649089368
 10
1524.030894977847
 20
1066.815810089368
  0
LWPOLYLINE
  5
CFA
330
1F
100
AcDbEntity
  8
0
 62
     7
370
    60
100
AcDbPolyline
 90
       29
 70
     0
 43
0.0
 10
1524.030558977847
 20
1066.815840089368
 10
1525.590495977847
 20
1066.597853089368
 10
1527.255809977847
 20
1066.394271089368
 10
1530.191752977847
 20
1066.095687089368
 10
1533.153575977847
 20
1065.859786089368
 10
1536.830302977847
 20
1065.637526089368
 10
1541.328257977847
 20
1065.434065089368
 10
1548.924693977847
 20
1065.159041089368
 10
1553.072428977847
 20
1065.036605089368
 10
1557.198374977847
 20
1064.937148089368
 10
1560.836344977847
 20
1064.870680089368
 10
1564.516764977847
 20
1064.825209089368
 10
1571.547251977847
 20
1064.798445089368
 10
1578.807078977847
 20
1064.849715089368
 10
1586.206401977847
 20
1064.981307089368
 10
1589.946696977847
 20
1065.078200089368
 10
1593.643656977847
 20
1065.194319089368
 10
1600.919078977847
 20
1065.482192089368
 10
1608.243388977847
 20
1065.851760089368
 10
1615.562907977847
 20
1066.301222089368
 10
1622.880625977847
 20
1066.830733089368
 10
1630.196574977847
 20
1067.440261089368
 10
1637.508982977847
 20
1068.129775089368
 10
1644.814952977847
 20
1068.899031089368
 10
1652.111460977847
 20
1069.747664089368
 10
1659.396922977847
 20
1070.675582089368
 10
1663.042063977847
 20
1071.170210089368
 10
1666.684580977847
 20
1071.684706089368
 10
1668.184306977847
 20
1071.902449089368
  0
LWPOLYLINE
  5
CFB
330
1F
100
AcDbEntity
  8
0
 62
     7
370
    60
100
AcDbPolyline
 90
       10
 70
     0
 43
0.0
 10
1668.185069977847
 20
1071.902541089368
 10
1669.084483977847
 20
1072.043593089368
 10
1669.970713977847
 20
1072.202925089368
 10
1670.834147977847
 20
1072.378462089368
 10
1671.684245977847
 20
1072.571852089368
 10
1672.512095977847
 20
1072.780684089368
 10
1673.326487977847
 20
1073.006819089368
 10
1674.119212977847
 20
1073.247756089368
 10
1674.898356977847
 20
1073.505538089368
 10
1676.253123977847
 20
1074.006819089368
  0
LINE
  5
CFC
330
1F
100
AcDbEntity
  8
0
 62
     7
 48
0.001513
370
    60
100
AcDbLine
 10
1676.253123977847
 20
1074.006819089368
 30
0.0
 11
1676.309703977847
 21
1074.028273089368
 31
0.0
  0
LINE
  5
CFD
330
1F
100
AcDbEntity
  8
0
 62
     7
 48
0.016681
370
    60
100
AcDbLine
 10
1676.309764977847
 20
1074.028273089368
 30
0.0
 11
1676.935862977847
 21
1074.258895089368
 31
0.0
  0
LINE
  5
CFE
330
1F
100
AcDbEntity
  8
0
 62
     7
370
    60
100
AcDbLine
 10
1717.085642977847
 20
1143.291731089368
 30
0.0
 11
1705.085398977847
 21
1098.506392089368
 31
0.0
  0
LINE
  5
CFF
330
1F
100
AcDbEntity
  8
0
 62
     7
 48
0.006641
370
    60
100
AcDbLine
 10
1705.016551977847
 20
1098.249831089368
 30
0.0
 11
1705.085398977847
 21
1098.506392089368
 31
0.0
  0
LINE
  5
D00
330
1F
100
AcDbEntity
  8
0
 62
     7
 48
0.003371
370
    60
100
AcDbLine
 10
1704.981455977847
 20
1098.119643089368
 30
0.0
 11
1705.016551977847
 21
1098.249831089368
 31
0.0
  0
LWPOLYLINE
  5
D01
330
1F
100
AcDbEntity
  8
0
 62
     7
370
    60
100
AcDbPolyline
 90
       32
 70
     0
 43
0.0
 10
1676.935862977847
 20
1074.258895089368
 10
1678.827098977847
 20
1074.976912089368
 10
1680.760874977847
 20
1075.795760089368
 10
1682.744578977847
 20
1076.721419089368
 10
1684.768443977847
 20
1077.753035089368
 10
1686.816111977847
 20
1078.885604089368
 10
1688.862742977847
 20
1080.108443089368
 10
1689.876902977847
 20
1080.749190089368
 10
1690.879222977847
 20
1081.406203089368
 10
1691.862071977847
 20
1082.074446089368
 10
1692.830882977847
 20
1082.757796089368
 10
1693.761424977847
 20
1083.438918089368
 10
1694.675730977847
 20
1084.133834089368
 10
1695.532176977847
 20
1084.810500089368
 10
1696.369700977847
 20
1085.499251089368
 10
1697.133128977847
 20
1086.153762089368
 10
1697.876231977847
 20
1086.819289089368
 10
1698.539134977847
 20
1087.440871089368
 10
1699.180369977847
 20
1088.071883089368
 10
1699.747019977847
 20
1088.658614089368
 10
1700.290843977847
 20
1089.252547089368
 10
1700.773265977847
 20
1089.809920089368
 10
1701.232371977847
 20
1090.372634089368
 10
1701.643626977847
 20
1090.908888089368
 10
1702.031932977847
 20
1091.449172089368
 10
1702.384104977847
 20
1091.973799089368
 10
1702.713572977847
 20
1092.500838089368
 10
1703.297496977847
 20
1093.546431089368
 10
1703.800730977847
 20
1094.606764089368
 10
1704.239390977847
 20
1095.708296089368
 10
1704.634043977847
 20
1096.897627089368
 10
1704.981455977847
 20
1098.119643089368
  0
ARC
  5
D02
330
1F
100
AcDbEntity
  8
0
 62
     7
370
    60
100
AcDbCircle
 10
1726.701609977847
 20
1145.835616089368
 30
0.0
 40
2.499999999999876
100
AcDbArc
 50
267.2908710300015
 51
0.0000000000014249
  0
ARC
  5
D03
330
1F
100
AcDbEntity
  8
0
 62
     7
370
    60
100
AcDbCircle
 10
1717.568614977847
 20
1143.162337089368
 30
0.0
 40
0.5000000000001716
100
AcDbArc
 50
88.5544070400192
 51
164.9999939400192
  0
LINE
  5
D04
330
1F
100
AcDbEntity
  8
0
 62
     7
 48
0.009349
370
    60
100
AcDbLine
 10
1729.201609977847
 20
1146.209578089368
 30
0.0
 11
1729.201609977847
 21
1145.835616089368
 31
0.0
  0
ARC
  5
D05
330
1F
100
AcDbEntity
  8
0
 62
     7
370
    60
100
AcDbCircle
 10
1707.441050977847
 20
737.3753500893678
 30
0.0
 40
409.4134519999999
100
AcDbArc
 50
86.95325299
 51
88.96048228
  0
LINE
  5
D06
330
1F
100
AcDbEntity
  8
0
 62
     7
 48
0.466198
370
    60
100
AcDbLine
 10
1705.085398977847
 20
1098.506392089368
 30
0.0
 11
1709.911875977847
 21
1116.518904089368
 31
0.0
  0
LINE
  5
D07
330
1F
100
AcDbEntity
  8
0
 62
     7
 48
0.006641
370
    60
100
AcDbLine
 10
1705.016551977847
 20
1098.249831089368
 30
0.0
 11
1705.085398977847
 21
1098.506392089368
 31
0.0
  0
LWPOLYLINE
  5
D08
330
1F
100
AcDbEntity
  8
0
 62
     7
370
    60
100
AcDbPolyline
 90
        4
 70
     0
 43
0.0
 10
1567.558879977847
 20
1146.790999089368
 10
1632.089945977847
 20
1146.790877089368
 10
1663.850810977847
 20
1146.790389089368
 10
1695.294749977847
 20
1146.798506089368
  0
LINE
  5
D09
330
1F
100
AcDbEntity
  8
0
 62
     7
 48
0.065714
370
    60
100
AcDbLine
 10
1443.190653977847
 20
1144.419478089368
 30
0.0
 11
1443.190653977847
 21
1141.790938089368
 31
0.0
  0
LINE
  5
D0A
330
1F
100
AcDbEntity
  8
0
 62
     7
 48
0.05
370
    60
100
AcDbLine
 10
1456.295359977847
 20
1143.790938089368
 30
0.0
 11
1456.295359977847
 21
1141.790938089368
 31
0.0
  0
LINE
  5
D0B
330
1F
100
AcDbEntity
  8
0
 62
     7
 48
0.049078
370
    60
100
AcDbLine
 10
1712.567393977847
 20
1143.756575089368
 30
0.0
 11
1712.567393977847
 21
1141.793440089368
 31
0.0
  0
LINE
  5
D0C
330
1F
100
AcDbEntity
  8
0
 62
     7
 48
0.050124
370
    60
100
AcDbLine
 10
1699.442637977847
 20
1143.798384089368
 30
0.0
 11
1699.442637977847
 21
1141.793440089368
 31
0.0
  0
LINE
  5
D0D
330
1F
100
AcDbEntity
  8
0
 62
     7
 48
0.0125
370
    60
100
AcDbLine
 10
1432.901988977847
 20
1146.790999089368
 30
0.0
 11
1432.901988977847
 21
1146.290999089368
 31
0.0
  0
ARC
  5
D0E
330
1F
100
AcDbEntity
  8
0
 62
     7
370
    60
100
AcDbCircle
 10
1711.567393977847
 20
1141.793440089368
 30
0.0
 40
1.0
100
AcDbArc
 50
270.0
 51
0.0
  0
ARC
  5
D0F
330
1F
100
AcDbEntity
  8
0
 62
     7
370
    60
100
AcDbCircle
 10
1700.442637977847
 20
1141.793440089368
 30
0.0
 40
1.0
100
AcDbArc
 50
180.0
 51
270.0
  0
LINE
  5
D10
330
1F
100
AcDbEntity
  8
0
 62
     7
 48
0.003426
370
    60
100
AcDbLine
 10
1705.016551977847
 20
1098.249831089368
 30
0.0
 11
1704.980906977847
 21
1098.117507089368
 31
0.0
  0
LINE
  5
D11
330
1F
100
AcDbEntity
  8
0
 62
     7
 48
0.00004
370
    60
100
AcDbLine
 10
1709.911875977847
 20
1116.518904089368
 30
0.0
 11
1709.911448977847
 21
1116.517378089368
 31
0.0
  0
LINE
  5
D12
330
1F
100
AcDbEntity
  8
0
 62
     7
 48
0.00004
370
    60
100
AcDbLine
 10
1709.911448977847
 20
1116.517378089368
 30
0.0
 11
1709.911875977847
 21
1116.518904089368
 31
0.0
  0
LINE
  5
D13
330
1F
100
AcDbEntity
  8
0
 62
     7
 48
0.003427
370
    60
100
AcDbLine
 10
1705.016551977847
 20
1098.249831089368
 30
0.0
 11
1704.980906977847
 21
1098.117476089368
 31
0.0
  0
POINT
  5
D14
330
1F
100
AcDbEntity
  8
0
370
    60
100
AcDbPoint
 10
1603.678091597847
 20
1146.756182019368
 30
0.0
  0
POINT
  5
D15
330
1F
100
AcDbEntity
  8
0
370
    60
100
AcDbPoint
 10
1571.511820987847
 20
1064.798579969368
 30
0.0
  0
POINT
  5
D1C
330
1F
100
AcDbEntity
  8
0
370
    60
100
AcDbPoint
 10
1535.264335607847
 20
983.4002058793677
 30
0.0
  0
POINT
  5
D1D
330
1F
100
AcDbEntity
  8
0
370
    60
100
AcDbPoint
 10
1535.264335607847
 20
673.0000560793678
 30
0.0
  0
POINT
  5
D24
330
1F
100
AcDbEntity
  8
0
370
    60
100
AcDbPoint
 10
1432.909154987847
 20
830.0429587193678
 30
0.0
  0
POINT
  5
D25
330
1F
100
AcDbEntity
  8
0
370
    60
100
AcDbPoint
 10
1729.118370097847
 20
830.0429587193678
 30
0.0
  0
DIMENSION
  5
D43
330
1F
100
AcDbEntity
  8
0
370
    25
100
AcDbDimension
  2
*D78
 10
1785.518511603538
 20
1064.825209089368
 30
0.0
 11
1759.318511603538
 21
1105.808043089368
 31
0.0
 70
    32
 71
     5
 41
2.5
 42
81.96566800000005
  3
Standard
100
AcDbAlignedDimension
 13
1569.389788938529
 23
1146.790877089368
 33
0.0
 14
1564.516764977847
 24
1064.825209089368
 34
0.0
 50
90.0
100
AcDbRotatedDimension
1001
ACAD
1000
DSTYLE
1002
{
1070
    41
1040
10.0
1070
   140
1040
36.0
1070
   147
1040
10.0
1070
   271
1070
     0
1002
}
  0
DIMENSION
  5
D5A
330
1F
100
AcDbEntity
  8
0
370
    25
100
AcDbDimension
  2
*D80
 10
1729.201609977847
 20
1002.237250482273
 30
0.0
 11
1581.051799477847
 21
1028.445950944627
 31
0.0
 70
    32
 71
     5
 41
2.5
 42
296.2996210000001
  3
Standard
100
AcDbAlignedDimension
 13
1432.901988977847
 23
848.7278572347491
 33
0.0
 14
1729.201609977847
 24
843.8655687608457
 34
0.0
100
AcDbRotatedDimension
1001
ACAD
1000
DSTYLE
1002
{
1070
    41
1040
10.0
1070
   140
1040
36.0
1070
   147
1040
10.0
1070
   271
1070
     0
1002
}
  0
DIMENSION
  5
DA0
330
1F
100
AcDbEntity
  8
0
370
    25
100
AcDbDimension
  2
*D85
 10
1785.518511603538
 20
673.0162340893678
 30
0.0
 11
1759.304338375192
 21
828.1577210893678
 31
0.0
 70
    32
 71
     5
 41
2.5
 42
310.282974
  3
Standard
100
AcDbAlignedDimension
 13
1552.032603977847
 23
983.2992080893678
 33
0.0
 14
1539.994456977847
 24
673.0162340893678
 34
0.0
 50
90.0
100
AcDbRotatedDimension
1001
ACAD
1000
DSTYLE
1002
{
1070
    41
1040
10.0
1070
   140
1040
36.0
1070
   147
1040
10.0
1070
   271
1070
     0
1002
}
  0
VIEWPORT
  5
5E2
330
73
100
AcDbEntity
 67
     1
  8
0
 62
     0
370
     0
390
F
100
AcDbViewport
 10
0.0
 20
0.0
 30
0.0
 40
1000.0
 41
1000.0
 68
     1
 69
     1
 12
0.0
 22
0.0
 13
0.0
 23
0.0
 14
1.0
 24
1.0
 15
1.0
 25
1.0
 16
0.0
 26
0.0
 36
1.0
 17
0.0
 27
0.0
 37
0.0
 42
50.0
 43
0.0
 44
0.0
 45
1000.0
 50
0.0
 51
0.0
 72
   100
 90
   557056
  1

281
     0
 71
     0
 74
     0
110
0.0
120
0.0
130
0.0
111
1.0
121
0.0
131
0.0
112
0.0
122
1.0
132
0.0
 79
     0
146
0.0
170
     0
  0
ENDSEC
  0
SECTION
  2
OBJECTS
  0
DICTIONARY
  5
C
330
0
100
AcDbDictionary
281
     1
  3
ACAD_COLOR
350
6C
  3
ACAD_GROUP
350
D
  3
ACAD_LAYOUT
350
1A
  3
ACAD_MATERIAL
350
6B
  3
ACAD_MLEADERSTYLE
350
7BD
  3
ACAD_MLINESTYLE
350
17
  3
ACAD_PLOTSETTINGS
350
19
  3
ACAD_PLOTSTYLENAME
350
E
  3
ACAD_SCALELIST
350
99
  3
ACAD_TABLESTYLE
350
92
  3
ACAD_WIPEOUT_VARS
350
DBA
  3
AcDbVariableDictionary
350
59
  0
DICTIONARY
  5
6C
102
{ACAD_REACTORS
330
C
102
}
330
C
100
AcDbDictionary
281
     1
  0
DICTIONARY
  5
D
102
{ACAD_REACTORS
330
C
102
}
330
C
100
AcDbDictionary
281
     1
  0
DICTIONARY
  5
1A
102
{ACAD_REACTORS
330
C
102
}
330
C
100
AcDbDictionary
281
     1
  3
Layout1
350
74
  3
Model
350
22
  0
DICTIONARY
  5
6B
102
{ACAD_REACTORS
330
C
102
}
330
C
100
AcDbDictionary
281
     1
  0
DICTIONARY
  5
7BD
102
{ACAD_REACTORS
330
C
102
}
330
C
100
AcDbDictionary
281
     1
  0
DICTIONARY
  5
17
102
{ACAD_REACTORS
330
C
102
}
330
C
100
AcDbDictionary
281
     1
  3
Standard
350
18
  0
DICTIONARY
  5
19
102
{ACAD_REACTORS
330
C
102
}
330
C
100
AcDbDictionary
281
     1
  0
ACDBDICTIONARYWDFLT
  5
E
102
{ACAD_REACTORS
330
C
102
}
330
C
100
AcDbDictionary
281
     1
  3
Normal
350
F
100
AcDbDictionaryWithDefault
340
F
  0
DICTIONARY
  5
99
102
{ACAD_REACTORS
330
C
102
}
330
C
100
AcDbDictionary
281
     1
  3
A0
350
65C
  3
A1
350
65D
  3
A2
350
65E
  3
A3
350
65F
  3
A4
350
660
  3
A5
350
661
  3
A6
350
662
  3
A7
350
663
  3
A8
350
664
  3
A9
350
665
  3
B0
350
666
  3
B1
350
667
  3
B2
350
668
  3
B3
350
669
  3
B4
350
66A
  3
B5
350
66B
  3
B6
350
66C
  3
B7
350
66D
  3
B8
350
66E
  3
B9
350
66F
  3
C0
350
670
  3
C1
350
671
  3
C2
350
672
  3
C3
350
673
  3
C4
350
674
  3
C5
350
675
  3
C6
350
676
  3
C7
350
677
  3
C8
350
678
  3
C9
350
679
  3
D0
350
67A
  3
D1
350
67B
  3
D2
350
67C
  0
DICTIONARY
  5
92
102
{ACAD_REACTORS
330
C
102
}
330
C
100
AcDbDictionary
281
     1
  3
Standard
350
A50
  0
WIPEOUTVARIABLES
  5
DBA
102
{ACAD_REACTORS
330
C
102
}
330
C
100
AcDbWipeoutVariables
 70
     1
  0
DICTIONARY
  5
59
102
{ACAD_REACTORS
330
C
102
}
330
C
100
AcDbDictionary
281
     1
  3
CTABLESTYLE
350
A52
  3
DIMASSOC
350
5A
  3
HIDETEXT
350
5E
  0
LAYOUT
  5
74
102
{ACAD_REACTORS
330
1A
102
}
330
1A
100
AcDbPlotSettings
  1

  2
none_device
  4
none_user_media
  6

 40
0.0
 41
0.0
 42
0.0
 43
0.0
 44
0.0
 45
0.0
 46
0.0
 47
0.0
 48
0.0
 49
0.0
140
0.0
141
0.0
142
1.0
143
1.0
 70
   544
 72
     0
 73
     0
 74
     0
  7

 75
    16
 76
     0
 77
     2
 78
   300
147
1.0
148
0.0
149
0.0
100
AcDbLayout
  1
Layout1
 70
     1
 71
     0
 10
0.0
 20
0.0
 11
420.0
 21
297.0
 12
0.0
 22
0.0
 32
0.0
 14
0.0
 24
0.0
 34
0.0
 15
361.953827
 25
137.496246
 35
2.0
146
0.0
 13
0.0
 23
0.0
 33
0.0
 16
1.0
 26
0.0
 36
0.0
 17
0.0
 27
1.0
 37
0.0
 76
     0
330
73
331
5E2
  0
LAYOUT
  5
22
102
{ACAD_REACTORS
330
1A
102
}
330
1A
100
AcDbPlotSettings
  1

  2
none_device
  4
none_user_media
  6

 40
6.349999904632568
 41
6.349999904632568
 42
6.350006103515625
 43
6.350006103515625
 44
215.8999938964844
 45
279.3999938964844
 46
0.0
 47
0.0
 48
0.0
 49
0.0
140
0.0
141
0.0
142
1.0
143
1.0
 70
 11936
 72
     0
 73
     0
 74
     0
  7

 75
     0
 76
     0
 77
     2
 78
   300
147
0.4438344475933771
148
0.0
149
0.0
100
AcDbLayout
  1
Model
 70
     1
 71
     0
 10
0.0
 20
0.0
 11
420.0
 21
297.0
 12
0.0
 22
0.0
 32
0.0
 14
594.8012972028499
 24
392.847673307829
 34
0.0
 15
2005.791784366175
 25
1549.931494468551
 35
0.0
146
0.0
 13
0.0
 23
0.0
 33
0.0
 16
1.0
 26
0.0
 36
0.0
 17
0.0
 27
1.0
 37
0.0
 76
     0
330
1F
331
97
  0
MLINESTYLE
  5
18
102
{ACAD_REACTORS
330
17
102
}
330
17
100
AcDbMlineStyle
  2
Standard
 70
     0
  3

 62
     0
 51
90.0
 52
90.0
 71
     2
 49
0.5
 62
   256
  6
BYLAYER
 49
-0.5
 62
   256
  6
BYLAYER
  0
ACDBPLACEHOLDER
  5
F
102
{ACAD_REACTORS
330
E
102
}
330
E
  0
SCALE
  5
65C
102
{ACAD_REACTORS
330
99
102
}
330
99
100
AcDbScale
 70
     0
300
1:1
140
1.0
141
1.0
290
     1
  0
SCALE
  5
65D
102
{ACAD_REACTORS
330
99
102
}
330
99
100
AcDbScale
 70
     0
300
1:2
140
1.0
141
2.0
290
     0
  0
SCALE
  5
65E
102
{ACAD_REACTORS
330
99
102
}
330
99
100
AcDbScale
 70
     0
300
1:4
140
1.0
141
4.0
290
     0
  0
SCALE
  5
65F
102
{ACAD_REACTORS
330
99
102
}
330
99
100
AcDbScale
 70
     0
300
1:5
140
1.0
141
5.0
290
     0
  0
SCALE
  5
660
102
{ACAD_REACTORS
330
99
102
}
330
99
100
AcDbScale
 70
     0
300
1:8
140
1.0
141
8.0
290
     0
  0
SCALE
  5
661
102
{ACAD_REACTORS
330
99
102
}
330
99
100
AcDbScale
 70
     0
300
1:10
140
1.0
141
10.0
290
     0
  0
SCALE
  5
662
102
{ACAD_REACTORS
330
99
102
}
330
99
100
AcDbScale
 70
     0
300
1:16
140
1.0
141
16.0
290
     0
  0
SCALE
  5
663
102
{ACAD_REACTORS
330
99
102
}
330
99
100
AcDbScale
 70
     0
300
1:20
140
1.0
141
20.0
290
     0
  0
SCALE
  5
664
102
{ACAD_REACTORS
330
99
102
}
330
99
100
AcDbScale
 70
     0
300
1:30
140
1.0
141
30.0
290
     0
  0
SCALE
  5
665
102
{ACAD_REACTORS
330
99
102
}
330
99
100
AcDbScale
 70
     0
300
1:40
140
1.0
141
40.0
290
     0
  0
SCALE
  5
666
102
{ACAD_REACTORS
330
99
102
}
330
99
100
AcDbScale
 70
     0
300
1:50
140
1.0
141
50.0
290
     0
  0
SCALE
  5
667
102
{ACAD_REACTORS
330
99
102
}
330
99
100
AcDbScale
 70
     0
300
1:100
140
1.0
141
100.0
290
     0
  0
SCALE
  5
668
102
{ACAD_REACTORS
330
99
102
}
330
99
100
AcDbScale
 70
     0
300
2:1
140
2.0
141
1.0
290
     0
  0
SCALE
  5
669
102
{ACAD_REACTORS
330
99
102
}
330
99
100
AcDbScale
 70
     0
300
4:1
140
4.0
141
1.0
290
     0
  0
SCALE
  5
66A
102
{ACAD_REACTORS
330
99
102
}
330
99
100
AcDbScale
 70
     0
300
8:1
140
8.0
141
1.0
290
     0
  0
SCALE
  5
66B
102
{ACAD_REACTORS
330
99
102
}
330
99
100
AcDbScale
 70
     0
300
10:1
140
10.0
141
1.0
290
     0
  0
SCALE
  5
66C
102
{ACAD_REACTORS
330
99
102
}
330
99
100
AcDbScale
 70
     0
300
100:1
140
100.0
141
1.0
290
     0
  0
SCALE
  5
66D
102
{ACAD_REACTORS
330
99
102
}
330
99
100
AcDbScale
 70
     0
300
1/128" = 1'-0"
140
0.0078125
141
12.0
290
     0
  0
SCALE
  5
66E
102
{ACAD_REACTORS
330
99
102
}
330
99
100
AcDbScale
 70
     0
300
1/64" = 1'-0"
140
0.015625
141
12.0
290
     0
  0
SCALE
  5
66F
102
{ACAD_REACTORS
330
99
102
}
330
99
100
AcDbScale
 70
     0
300
1/32" = 1'-0"
140
0.03125
141
12.0
290
     0
  0
SCALE
  5
670
102
{ACAD_REACTORS
330
99
102
}
330
99
100
AcDbScale
 70
     0
300
1/16" = 1'-0"
140
0.0625
141
12.0
290
     0
  0
SCALE
  5
671
102
{ACAD_REACTORS
330
99
102
}
330
99
100
AcDbScale
 70
     0
300
3/32" = 1'-0"
140
0.09375
141
12.0
290
     0
  0
SCALE
  5
672
102
{ACAD_REACTORS
330
99
102
}
330
99
100
AcDbScale
 70
     0
300
1/8" = 1'-0"
140
0.125
141
12.0
290
     0
  0
SCALE
  5
673
102
{ACAD_REACTORS
330
99
102
}
330
99
100
AcDbScale
 70
     0
300
3/16" = 1'-0"
140
0.1875
141
12.0
290
     0
  0
SCALE
  5
674
102
{ACAD_REACTORS
330
99
102
}
330
99
100
AcDbScale
 70
     0
300
1/4" = 1'-0"
140
0.25
141
12.0
290
     0
  0
SCALE
  5
675
102
{ACAD_REACTORS
330
99
102
}
330
99
100
AcDbScale
 70
     0
300
3/8" = 1'-0"
140
0.375
141
12.0
290
     0
  0
SCALE
  5
676
102
{ACAD_REACTORS
330
99
102
}
330
99
100
AcDbScale
 70
     0
300
1/2" = 1'-0"
140
0.5
141
12.0
290
     0
  0
SCALE
  5
677
102
{ACAD_REACTORS
330
99
102
}
330
99
100
AcDbScale
 70
     0
300
3/4" = 1'-0"
140
0.75
141
12.0
290
     0
  0
SCALE
  5
678
102
{ACAD_REACTORS
330
99
102
}
330
99
100
AcDbScale
 70
     0
300
1" = 1'-0"
140
1.0
141
12.0
290
     0
  0
SCALE
  5
679
102
{ACAD_REACTORS
330
99
102
}
330
99
100
AcDbScale
 70
     0
300
1-1/2" = 1'-0"
140
1.5
141
12.0
290
     0
  0
SCALE
  5
67A
102
{ACAD_REACTORS
330
99
102
}
330
99
100
AcDbScale
 70
     0
300
3" = 1'-0"
140
3.0
141
12.0
290
     0
  0
SCALE
  5
67B
102
{ACAD_REACTORS
330
99
102
}
330
99
100
AcDbScale
 70
     0
300
6" = 1'-0"
140
6.0
141
12.0
290
     0
  0
SCALE
  5
67C
102
{ACAD_REACTORS
330
99
102
}
330
99
100
AcDbScale
 70
     0
300
1'-0" = 1'-0"
140
12.0
141
12.0
290
     0
  0
TABLESTYLE
  5
A50
102
{ACAD_REACTORS
330
92
102
}
102
{ACAD_XDICTIONARY
360
E67
102
}
330
92
100
AcDbTableStyle
  3
Standard
 70
     0
 71
     0
 40
0.06
 41
0.06
280
     0
281
     0
  7
Standard
140
0.18
170
     2
 62
     0
 63
     7
283
     0
274
    -2
284
     1
 64
     0
275
    -2
285
     1
 65
     0
276
    -2
286
     1
 66
     0
277
    -2
287
     1
 67
     0
278
    -2
288
     1
 68
     0
279
    -2
289
     1
 69
     0
  7
Standard
140
0.25
170
     5
 62
     0
 63
     7
283
     0
274
    -2
284
     1
 64
     0
275
    -2
285
     1
 65
     0
276
    -2
286
     1
 66
     0
277
    -2
287
     1
 67
     0
278
    -2
288
     1
 68
     0
279
    -2
289
     1
 69
     0
  7
Standard
140
0.18
170
     5
 62
     0
 63
     7
283
     0
274
    -2
284
     1
 64
     0
275
    -2
285
     1
 65
     0
276
    -2
286
     1
 66
     0
277
    -2
287
     1
 67
     0
278
    -2
288
     1
 68
     0
279
    -2
289
     1
 69
     0
  0
DICTIONARYVAR
  5
A52
102
{ACAD_REACTORS
330
59
102
}
330
59
100
DictionaryVariables
280
     0
  1
Standard
  0
DICTIONARYVAR
  5
5A
102
{ACAD_REACTORS
330
59
102
}
330
59
100
DictionaryVariables
280
     0
  1
2
  0
DICTIONARYVAR
  5
5E
102
{ACAD_REACTORS
330
59
102
}
330
59
100
DictionaryVariables
280
     0
  1
1
  0
DICTIONARY
  5
E67
330
A50
100
AcDbDictionary
280
     1
281
     1
  3
ACAD_XREC_ROUNDTRIP
360
E68
  0
XRECORD
  5
E68
102
{ACAD_REACTORS
330
E67
102
}
330
E67
100
AcDbXrecord
280
     1
102
ACAD_ROUNDTRIP_PRE2007_TABLESTYLE
 90
      512
 91
        0
  1

 92
      512
 93
        0
  2

 94
      512
 95
        0
  3

  0
ENDSEC
  0
EOF
