  0
SECTION
  2
HEADER
  9
$ACADVER
  1
AC1018
  9
$ACADMAINTVER
  70
6
  9
$DWGCODEPAGE
  3
ansi_1252
  9
$TITLE
  1
VectorDraw Document
  9
$INSBASE
  10
0.00000000
  20
0.00000000
  30
0.00000000
  9
$EXTMIN
  10
74.56227759
  20
110.24725300
  30
0.00000000
  9
$EXTMAX
  10
718.89545139
  20
554.71483604
  30
0.00000000
  9
$LIMMIN
  10
0.00000000
  20
0.00000000
  9
$LIMMAX
  10
1.00000000
  20
1.00000000
  9
$ORTHOMODE
  70
1
  9
$REGENMODE
  70
1
  9
$FILLMODE
  70
1
  9
$QTEXTMODE
  70
0
  9
$MIRRTEXT
  70
1
  9
$LTSCALE
  40
1.00000000
  9
$ATTMODE
  70
1
  9
$TEXTSIZE
  40
0.20000000
  9
$TRACEWID
  40
0.05000000
  9
$TEXTSTYLE
  7
Standard
  9
$CLAYER
  8
0
  9
$CELTYPE
  6
ByLayer
  9
$CECOLOR
  62
256
  9
$CELTSCALE
  40
1.00000000
  9
$DISPSILH
  70
0
  9
$DIMSCALE
  40
1.00000000
  9
$DIMASZ
  40
0.18000000
  9
$DIMEXO
  40
0.06250000
  9
$DIMRND
  40
0.00000000
  9
$DIMDLE
  40
0.00000000
  9
$DIMEXE
  40
0.18000000
  9
$DIMTP
  40
0.00000000
  9
$DIMTM
  40
1.00000000
  9
$DIMTXT
  40
0.18000000
  9
$DIMTSZ
  40
0.0
  9
$DIMTOL
  70
0
  9
$DIMLIM
  70
0
  9
$DIMTIH
  70
1
  9
$DIMTOH
  70
0
  9
$DIMSE1
  70
0
  9
$DIMSE2
  70
0
  9
$DIMTAD
  70
0
  9
$DIMZIN
  70
0
  9
$DIMBLK
  1
VDDIM_DEFAULT
  9
$DIMASO
  70
1
  9
$DIMSHO
  70
1
  9
$DIMPOST
  1

  9
$DIMAPOST
  1

  9
$DIMALT
  70
0
  9
$DIMBLK1
  1

  9
$DIMBLK2
  1

  9
$DIMSTYLE
  2
Standard
  9
$DIMCLRD
  70
0
  9
$DIMCLRE
  70
0
  9
$DIMCLRT
  70
0
  9
$DIMTFAC
  40
1.00000000
  9
$DIMSD1
  70
0
  9
$DIMSD2
  70
0
  9
$DIMTOLJ
  70
1
  9
$DIMTXSTY
  7
Standard
  9
$DIMAUNIT
  70
0
  9
$DIMADEC
  70
0
  9
$DIMAZIN
  70
0
  9
$DIMLUNIT
  70
2
  9
$LUNITS
  70
2
  9
$LUPREC
  70
4
  9
$FILLETRAD
  40
0.50000000
  9
$AUNITS
  70
0
  9
$AUPREC
  70
0
  9
$MENU
  1

  9
$ELEVATION
  40
0.00000000
  9
$PELEVATION
  40
0.00000000
  9
$THICKNESS
  40
0.00000000
  9
$ANGBASE
  50
0.00000000
  9
$ANGDIR
  70
0
  9
$PDMODE
  70
0
  9
$PDSIZE
  40
0.00000000
  9
$PLINEWID
  40
0.00000000
  9
$SPLFRAME
  70
0
  9
$SPLINETYPE
  70
6
  9
$SPLINESEGS
  70
8
  9
$HANDSEED
  5
       E66
  9
$SURFTAB1
  70
6
  9
$SURFTAB2
  70
6
  9
$SURFTYPE
  70
6
  9
$SURFU
  70
6
  9
$SURFV
  70
6
  9
$UCSBASE
  2

  9
$UCSNAME
  2

  9
$UCSORG
  10
0.00000000
  20
0.00000000
  30
0.00000000
  9
$UCSXDIR
  10
1.00000000
  20
0.00000000
  30
0.00000000
  9
$UCSYDIR
  10
0.00000000
  20
1.00000000
  30
0.00000000
  9
$UCSORGTOP
  10
0.00000000
  20
0.00000000
  30
0.00000000
  9
$UCSORGBOTTOM
  10
0.00000000
  20
0.00000000
  30
0.00000000
  9
$UCSORGLEFT
  10
0.00000000
  20
0.00000000
  30
0.00000000
  9
$UCSORGRIGHT
  10
0.00000000
  20
0.00000000
  30
0.00000000
  9
$UCSORGFRONT
  10
0.00000000
  20
0.00000000
  30
0.00000000
  9
$UCSORGBACK
  10
0.00000000
  20
0.00000000
  30
0.00000000
  9
$PUCSBASE
  2

  9
$PUCSNAME
  2

  9
$PUCSXDIR
  10
1.00000000
  20
0.00000000
  30
0.00000000
  9
$PUCSYDIR
  10
0.00000000
  20
1.00000000
  30
0.00000000
  9
$PUCSORGTOP
  10
0.00000000
  20
0.00000000
  30
0.00000000
  9
$PUCSORGBOTTOM
  10
0.00000000
  20
0.00000000
  30
0.00000000
  9
$PUCSORGLEFT
  10
0.00000000
  20
0.00000000
  30
0.00000000
  9
$PUCSORGRIGHT
  10
0.00000000
  20
0.00000000
  30
0.00000000
  9
$PUCSORGFRONT
  10
0.00000000
  20
0.00000000
  30
0.00000000
  9
$PUCSORGBACK
  10
0.00000000
  20
0.00000000
  30
0.00000000
  9
$USERI1
  70
0
  9
$USERI2
  70
0
  9
$USERI3
  70
0
  9
$USERI4
  70
0
  9
$USERI5
  70
0
  9
$USERR1
  40
0.00000000
  9
$USERR2
  40
0.00000000
  9
$USERR3
  40
0.00000000
  9
$USERR4
  40
0.00000000
  9
$USERR5
  40
0.00000000
  9
$TILEMODE
  70
1
  9
$PINSBASE
  10
0.00000000
  20
0.00000000
  30
0.00000000
  9
$LWDISPLAY
  290
0
  9
$INSUNITS
  70
0
  9
$MEASUREMENT
  70
1
  0
ENDSEC
  0
SECTION
  2
CLASSES
  0
CLASS
  1
ACDBDICTIONARYWDFLT
  2
AcDbDictionaryWithDefault
  3
ObjectDBX Classes
  90
0
  91
1
  280
0
  281
0
  0
CLASS
  1
IMAGEDEF
  2
AcDbRasterImageDef
  3
ISM
  90
0
  91
1
  280
0
  281
0
  0
CLASS
  1
IMAGE
  2
AcDbRasterImage
  3
ISM
  90
127
  91
1
  280
0
  281
1
  0
CLASS
  1
IMAGEDEF_REACTOR
  2
AcDbRasterImageDefReactor
  3
ObjectDBX Classes
  90
1
  91
1
  280
0
  281
0
  0
CLASS
  1
ACDBPLACEHOLDER
  2
AcDbPlaceHolder
  3
ObjectDBX Classes
  90
0
  91
1
  280
0
  281
0
  0
CLASS
  1
LAYOUT
  2
AcDbLayout
  3
ObjectDBX Classes
  90
0
  91
1
  280
0
  281
0
  0
ENDSEC
  0
SECTION
  2
TABLES
  0
TABLE
  2
VPORT
  5
E1C
  330
0
  100
AcDbSymbolTable
  70
2
  0
VPORT
  5
E1D
  330
E1C
  100
AcDbSymbolTableRecord
  100
AcDbViewportTableRecord
  2
*Active
  70
0
  10
0.00000000
  20
0.00000000
  11
1.00000000
  21
1.00000000
  12
640.59705955
  22
283.76361805
  13
0.00000000
  23
0.00000000
  14
1.00000000
  24
1.00000000
  15
1.00000000
  25
1.00000000
  16
0.00000000
  26
0.00000000
  36
1.00000000
  17
0.00000000
  27
0.00000000
  37
0.00000000
  40
1615.02986288
  41
1.00000000
  42
50.00000000
  43
0.00000000
  44
0.00000000
  50
0.00000000
  51
0.00000000
  71
0
  72
100
  73
1
  74
3
  75
0
  76
0
  77
0
  78
0
  281
0
  65
1
  110
0.00000000
  120
0.00000000
  130
0.00000000
  111
1.00000000
  121
0.00000000
  131
0.00000000
  112
0.00000000
  122
1.00000000
  132
0.00000000
  79
0
  146
0.00000000
  0
ENDTAB
  0
TABLE
  2
LTYPE
  5
E1E
  330
0
  100
AcDbSymbolTable
  70
35
  0
LTYPE
  5
11
  330
E1E
  100
AcDbSymbolTableRecord
  100
AcDbLinetypeTableRecord
  2
ByBlock
  70
0
  3
BYBLOCK________________________________________
  72
65
  73
0
  40
0.00000000
  0
LTYPE
  5
12
  330
E1E
  100
AcDbSymbolTableRecord
  100
AcDbLinetypeTableRecord
  2
ByLayer
  70
0
  3
BYLAYER________________________________________
  72
65
  73
0
  40
0.00000000
  0
LTYPE
  5
13
  330
E1E
  100
AcDbSymbolTableRecord
  100
AcDbLinetypeTableRecord
  2
Continuous
  70
0
  3
Solid line
  72
65
  73
0
  40
0.00000000
  0
LTYPE
  5
24
  330
E1E
  100
AcDbSymbolTableRecord
  100
AcDbLinetypeTableRecord
  2
DASHED
  70
0
  3
__ __ __ __ __ __ __ __ __ __ __ __ __ __ __ __
  72
65
  73
2
  40
15.00000000
  49
12.00000000
  74
0
  49
-3.00000000
  74
0
  0
LTYPE
  5
25
  330
E1E
  100
AcDbSymbolTableRecord
  100
AcDbLinetypeTableRecord
  2
DASHDOT
  70
0
  3
 __ . __ . __ . __ . __ . __ . __ . 
  72
65
  73
4
  40
18.50000000
  49
12.00000000
  74
0
  49
-3.00000000
  74
0
  49
0.50000000
  74
0
  49
-3.00000000
  74
0
  0
LTYPE
  5
26
  330
E1E
  100
AcDbSymbolTableRecord
  100
AcDbLinetypeTableRecord
  2
DOT
  70
0
  3
 . . . . . . . . . . . . . . . .
  72
65
  73
2
  40
3.50000000
  49
0.50000000
  74
0
  49
-3.00000000
  74
0
  0
LTYPE
  5
27
  330
E1E
  100
AcDbSymbolTableRecord
  100
AcDbLinetypeTableRecord
  2
DASHSPACE
  70
0
  3
__    __    __    __    __   
  72
65
  73
2
  40
30.00000000
  49
12.00000000
  74
0
  49
-18.00000000
  74
0
  0
LTYPE
  5
28
  330
E1E
  100
AcDbSymbolTableRecord
  100
AcDbLinetypeTableRecord
  2
DASHDOT2
  70
0
  3
__ . . __ . . __ . . __ 
  72
65
  73
6
  40
22.00000000
  49
12.00000000
  74
0
  49
-3.00000000
  74
0
  49
0.50000000
  74
0
  49
-3.00000000
  74
0
  49
0.50000000
  74
0
  49
-3.00000000
  74
0
  0
LTYPE
  5
29
  330
E1E
  100
AcDbSymbolTableRecord
  100
AcDbLinetypeTableRecord
  2
PHANTOM
  70
0
  3
____________    ____    ____   _
  72
65
  73
6
  40
20.00000000
  49
10.00000000
  74
0
  49
-2.00000000
  74
0
  49
2.00000000
  74
0
  49
-2.00000000
  74
0
  49
2.00000000
  74
0
  49
-2.00000000
  74
0
  0
LTYPE
  5
2A
  330
E1E
  100
AcDbSymbolTableRecord
  100
AcDbLinetypeTableRecord
  2
AXES
  70
0
  3
________  __  ________  __  _____
  72
65
  73
4
  40
24.00000000
  49
15.00000000
  74
0
  49
-3.00000000
  74
0
  49
3.00000000
  74
0
  49
-3.00000000
  74
0
  0
LTYPE
  5
DB3
  330
E1E
  100
AcDbSymbolTableRecord
  100
AcDbLinetypeTableRecord
  2
Continuous
  70
0
  3
SOLID________________________________________
  72
65
  73
0
  40
0.00000000
  0
LTYPE
  5
DB4
  330
E1E
  100
AcDbSymbolTableRecord
  100
AcDbLinetypeTableRecord
  2
CENTER
  70
0
  3
Center ____ _ ____ _ ____ _ ____ _ ____ _ ____
  72
65
  73
4
  40
2.00000000
  49
1.25000000
  74
0
  49
-0.25000000
  74
0
  49
0.25000000
  74
0
  49
-0.25000000
  74
0
  0
LTYPE
  5
DB5
  330
E1E
  100
AcDbSymbolTableRecord
  100
AcDbLinetypeTableRecord
  2
HIDDEN
  70
0
  3
Hidden __ __ __ __ __ __ __ __ __ __ __ __ __ __
  72
65
  73
2
  40
0.37500000
  49
0.25000000
  74
0
  49
-0.12500000
  74
0
  0
LTYPE
  5
DB6
  330
E1E
  100
AcDbSymbolTableRecord
  100
AcDbLinetypeTableRecord
  2
HIDDEN2
  70
0
  3
Hidden2 _ _ _ _ _ _ _ _ _ _ _ _ _ _ _ _ _ 
  72
65
  73
2
  40
0.18750000
  49
0.12500000
  74
0
  49
-0.06250000
  74
0
  0
LTYPE
  5
DB7
  330
E1E
  100
AcDbSymbolTableRecord
  100
AcDbLinetypeTableRecord
  2
BORDER
  70
0
  3
Border __ __ . __ __ . __ __ . __ __ . __ __ .
  72
65
  73
6
  40
1.75000000
  49
0.50000000
  74
0
  49
-0.25000000
  74
0
  49
0.50000000
  74
0
  49
-0.25000000
  74
0
  49
0.00000000
  74
0
  49
-0.25000000
  74
0
  0
LTYPE
  5
DB8
  330
E1E
  100
AcDbSymbolTableRecord
  100
AcDbLinetypeTableRecord
  2
BORDER2
  70
0
  3
Border2 __.__.__.__.__.__.__.__.__.__.__.
  72
65
  73
6
  40
0.87500000
  49
0.25000000
  74
0
  49
-0.12500000
  74
0
  49
0.25000000
  74
0
  49
-0.12500000
  74
0
  49
0.00000000
  74
0
  49
-0.12500000
  74
0
  0
LTYPE
  5
DB9
  330
E1E
  100
AcDbSymbolTableRecord
  100
AcDbLinetypeTableRecord
  2
BORDERX2
  70
0
  3
Borderx2  ____  ____  .  ____  ____  .  ___
  72
65
  73
6
  40
3.50000000
  49
1.00000000
  74
0
  49
-0.50000000
  74
0
  49
1.00000000
  74
0
  49
-0.50000000
  74
0
  49
0.00000000
  74
0
  49
-0.50000000
  74
0
  0
LTYPE
  5
DBA
  330
E1E
  100
AcDbSymbolTableRecord
  100
AcDbLinetypeTableRecord
  2
CENTER2
  70
0
  3
Center2  ___ _ ___ _ ___ _ ___ _ ___ _ ___
  72
65
  73
4
  40
1.12500000
  49
0.75000000
  74
0
  49
-0.12500000
  74
0
  49
0.12500000
  74
0
  49
-0.12500000
  74
0
  0
LTYPE
  5
DBB
  330
E1E
  100
AcDbSymbolTableRecord
  100
AcDbLinetypeTableRecord
  2
CENTERX2
  70
0
  3
Centerx2  ________  __  ________  __  _____
  72
65
  73
4
  40
4.00000000
  49
2.50000000
  74
0
  49
-0.50000000
  74
0
  49
0.50000000
  74
0
  49
-0.50000000
  74
0
  0
LTYPE
  5
DBC
  330
E1E
  100
AcDbSymbolTableRecord
  100
AcDbLinetypeTableRecord
  2
DASHDOTX2
  70
0
  3
Dashdotx2 ____  .  ____  .  ____  .  ___
  72
65
  73
4
  40
2.00000000
  49
1.00000000
  74
0
  49
-0.50000000
  74
0
  49
0.00000000
  74
0
  49
-0.50000000
  74
0
  0
LTYPE
  5
DBD
  330
E1E
  100
AcDbSymbolTableRecord
  100
AcDbLinetypeTableRecord
  2
DASHED2
  70
0
  3
Dashed2 _ _ _ _ _ _ _ _ _ _ _ _ _ _ _ _ _ 
  72
65
  73
2
  40
0.37500000
  49
0.25000000
  74
0
  49
-0.12500000
  74
0
  0
LTYPE
  5
DBE
  330
E1E
  100
AcDbSymbolTableRecord
  100
AcDbLinetypeTableRecord
  2
DASHEDX2
  70
0
  3
Dashedx2 ____  ____  ____  ____  ____  ___
  72
65
  73
2
  40
1.50000000
  49
1.00000000
  74
0
  49
-0.50000000
  74
0
  0
LTYPE
  5
DBF
  330
E1E
  100
AcDbSymbolTableRecord
  100
AcDbLinetypeTableRecord
  2
DIVIDE
  70
0
  3
Divide ____ . . ____ . . ____ . . ____ . . ____
  72
65
  73
6
  40
1.25000000
  49
0.50000000
  74
0
  49
-0.25000000
  74
0
  49
0.00000000
  74
0
  49
-0.25000000
  74
0
  49
0.00000000
  74
0
  49
-0.25000000
  74
0
  0
LTYPE
  5
DC0
  330
E1E
  100
AcDbSymbolTableRecord
  100
AcDbLinetypeTableRecord
  2
DIVIDE2
  70
0
  3
Divide2 __..__..__..__..__..__..__..__.._
  72
65
  73
6
  40
0.62500000
  49
0.25000000
  74
0
  49
-0.12500000
  74
0
  49
0.00000000
  74
0
  49
-0.12500000
  74
0
  49
0.00000000
  74
0
  49
-0.12500000
  74
0
  0
LTYPE
  5
DC1
  330
E1E
  100
AcDbSymbolTableRecord
  100
AcDbLinetypeTableRecord
  2
DIVIDEX2
  70
0
  3
Dividex2 ________  .  .  ________  .  .  _
  72
65
  73
6
  40
2.50000000
  49
1.00000000
  74
0
  49
-0.50000000
  74
0
  49
0.00000000
  74
0
  49
-0.50000000
  74
0
  49
0.00000000
  74
0
  49
-0.50000000
  74
0
  0
LTYPE
  5
DC2
  330
E1E
  100
AcDbSymbolTableRecord
  100
AcDbLinetypeTableRecord
  2
DOT2
  70
0
  3
Dot2 ........................................
  72
65
  73
2
  40
0.12500000
  49
0.00000000
  74
0
  49
-0.12500000
  74
0
  0
LTYPE
  5
DC3
  330
E1E
  100
AcDbSymbolTableRecord
  100
AcDbLinetypeTableRecord
  2
DOTX2
  70
0
  3
Dotx2 .  .  .  .  .  .  .  .  .  .  .  .  .  .
  72
65
  73
2
  40
0.50000000
  49
0.00000000
  74
0
  49
-0.50000000
  74
0
  0
LTYPE
  5
DC4
  330
E1E
  100
AcDbSymbolTableRecord
  100
AcDbLinetypeTableRecord
  2
HIDDENX2
  70
0
  3
Hiddenx2 ____ ____ ____ ____ ____ ____ ____ 
  72
65
  73
2
  40
0.75000000
  49
0.50000000
  74
0
  49
-0.25000000
  74
0
  0
LTYPE
  5
DC5
  330
E1E
  100
AcDbSymbolTableRecord
  100
AcDbLinetypeTableRecord
  2
PHANTOM2
  70
0
  3
Phantom2 ___ _ _ ___ _ _ ___ _ _ ___ _ _
  72
65
  73
6
  40
1.25000000
  49
0.62500000
  74
0
  49
-0.12500000
  74
0
  49
0.12500000
  74
0
  49
-0.12500000
  74
0
  49
0.12500000
  74
0
  49
-0.12500000
  74
0
  0
LTYPE
  5
DC6
  330
E1E
  100
AcDbSymbolTableRecord
  100
AcDbLinetypeTableRecord
  2
PHANTOMX2
  70
0
  3
Phantomx2 ____________    ____    ____   _
  72
65
  73
6
  40
5.00000000
  49
2.50000000
  74
0
  49
-0.50000000
  74
0
  49
0.50000000
  74
0
  49
-0.50000000
  74
0
  49
0.50000000
  74
0
  49
-0.50000000
  74
0
  0
LTYPE
  5
DC7
  330
E1E
  100
AcDbSymbolTableRecord
  100
AcDbLinetypeTableRecord
  2
DASHED0
  70
0
  3
Dashed0 __ __ __ __ __ __ __ __ __ __ __ __ __ _
  72
65
  73
2
  40
1.00000000
  49
0.50000000
  74
0
  49
-0.50000000
  74
0
  0
LTYPE
  5
DC8
  330
E1E
  100
AcDbSymbolTableRecord
  100
AcDbLinetypeTableRecord
  2
DOT0
  70
0
  3
Dot0 ........................................
  72
65
  73
8
  40
1.00000000
  49
0.00000000
  74
0
  49
-0.25000000
  74
0
  49
0.00000000
  74
0
  49
-0.25000000
  74
0
  49
0.00000000
  74
0
  49
-0.25000000
  74
0
  49
0.00000000
  74
0
  49
-0.25000000
  74
0
  0
LTYPE
  5
DC9
  330
E1E
  100
AcDbSymbolTableRecord
  100
AcDbLinetypeTableRecord
  2
DASHDOT0
  70
0
  3
Dashdot __ . __ . __ . __ . __ . __ . __ . __
  72
65
  73
4
  40
1.00000000
  49
0.40000000
  74
0
  49
-0.30000000
  74
0
  49
0.00000000
  74
0
  49
-0.30000000
  74
0
  0
LTYPE
  5
DCA
  330
E1E
  100
AcDbSymbolTableRecord
  100
AcDbLinetypeTableRecord
  2
DASHDOTDOT0
  70
0
  3
Dashdot __ . . __ . . __ . . __ . . __ . . __ . . __ . . __
  72
65
  73
6
  40
1.00000000
  49
0.30000000
  74
0
  49
-0.23000000
  74
0
  49
0.00000000
  74
0
  49
-0.24000000
  74
0
  49
0.00000000
  74
0
  49
-0.23000000
  74
0
  0
LTYPE
  5
DCB
  330
E1E
  100
AcDbSymbolTableRecord
  100
AcDbLinetypeTableRecord
  2
INVISIBLE
  70
0
  3
Invisible(                        )
  72
65
  73
2
  40
2.00000000
  49
-1.00000000
  74
0
  49
-1.00000000
  74
0
  0
ENDTAB
  0
TABLE
  2
LAYER
  5
E20
  330
0
  100
AcDbSymbolTable
  70
1
  0
LAYER
  5
14
  330
E20
  100
AcDbSymbolTableRecord
  100
AcDbLayerTableRecord
  2
0
  70
0
  62
7
  6
Continuous
  370
-3
  390
E1F
  0
ENDTAB
  0
TABLE
  2
STYLE
  5
E21
  330
0
  100
AcDbSymbolTable
  70
1
  0
STYLE
  5
17
  330
E21
  100
AcDbSymbolTableRecord
  100
AcDbTextStyleTableRecord
  2
Standard
  70
0
  40
0.00000000
  41
1.00000000
  50
0.00000000
  71
0
  42
0.20000000
  3
txt.shx
  4

  1001
ACAD
  1000
txt.shx
  1071
0
  0
ENDTAB
  0
TABLE
  2
VIEW
  5
E22
  330
0
  100
AcDbSymbolTable
  70
0
  0
ENDTAB
  0
TABLE
  2
UCS
  5
E23
  330
0
  100
AcDbSymbolTable
  70
0
  0
ENDTAB
  0
TABLE
  2
APPID
  5
E24
  330
0
  100
AcDbSymbolTable
  70
9
  0
APPID
  5
E25
  330
E24
  100
AcDbSymbolTableRecord
  100
AcDbRegAppTableRecord
  2
VDEXTRAPARAM
  70
0
  0
APPID
  5
E26
  330
E24
  100
AcDbSymbolTableRecord
  100
AcDbRegAppTableRecord
  2
VD_TEMPHATCH
  70
0
  0
APPID
  5
E27
  330
E24
  100
AcDbSymbolTableRecord
  100
AcDbRegAppTableRecord
  2
ACAD
  70
0
  0
APPID
  5
E28
  330
E24
  100
AcDbSymbolTableRecord
  100
AcDbRegAppTableRecord
  2
PE_URL
  70
0
  0
APPID
  5
E29
  330
E24
  100
AcDbSymbolTableRecord
  100
AcDbRegAppTableRecord
  2
VD_EX_PRINTER_DWG_STYLE_SHEET
  70
0
  0
APPID
  5
E2A
  330
E24
  100
AcDbSymbolTableRecord
  100
AcDbRegAppTableRecord
  2
VD_EX_PRINTER_SIZEX
  70
0
  0
APPID
  5
E2B
  330
E24
  100
AcDbSymbolTableRecord
  100
AcDbRegAppTableRecord
  2
VD_EX_PRINTER_AVSIZEX
  70
0
  0
APPID
  5
E2C
  330
E24
  100
AcDbSymbolTableRecord
  100
AcDbRegAppTableRecord
  2
VD_EX_PRINTER_SIZEY
  70
0
  0
APPID
  5
E2D
  330
E24
  100
AcDbSymbolTableRecord
  100
AcDbRegAppTableRecord
  2
VD_EX_PRINTER_AVSIZEY
  70
0
  0
ENDTAB
  0
TABLE
  2
BLOCK_RECORD
  5
E2E
  330
0
  100
AcDbSymbolTable
  70
4
  0
BLOCK_RECORD
  5
E2F
  330
E2E
  100
AcDbSymbolTableRecord
  100
AcDbBlockTableRecord
  2
*Model_Space
  340
A
  0
BLOCK_RECORD
  5
E30
  330
E2E
  100
AcDbSymbolTableRecord
  100
AcDbBlockTableRecord
  2
*Paper_Space
  340
21
  0
BLOCK_RECORD
  5
E31
  330
E2E
  100
AcDbSymbolTableRecord
  100
AcDbBlockTableRecord
  2
VDDIM_DEFAULT
  340
0
  0
BLOCK_RECORD
  5
E32
  330
E2E
  100
AcDbSymbolTableRecord
  100
AcDbBlockTableRecord
  2
VDDIM_NONE
  340
0
  0
BLOCK_RECORD
  5
E33
  330
E2E
  100
AcDbSymbolTableRecord
  100
AcDbBlockTableRecord
  2
*DE18
  340
0
  0
BLOCK_RECORD
  5
E3B
  330
E2E
  100
AcDbSymbolTableRecord
  100
AcDbBlockTableRecord
  2
*DE12
  340
0
  0
BLOCK_RECORD
  5
E43
  330
E2E
  100
AcDbSymbolTableRecord
  100
AcDbBlockTableRecord
  2
*DE0E
  340
0
  0
ENDTAB
  0
TABLE
  2
DIMSTYLE
  5
E4B
  330
0
  100
AcDbSymbolTable
  70
1
  100
AcDbDimStyleTable
  71
1
  340
18
  0
DIMSTYLE
  105
18
  330
E4B
  100
AcDbSymbolTableRecord
  100
AcDbDimStyleTableRecord
  2
Standard
  70
0
  41
0.18000000
  3

  177
0
  42
0.18000000
  44
0.06250000
  75
0
  76
0
  40
1.00000000
  281
0
  282
0
  275
0
  277
2
  179
0
  71
0
  47
0.00000000
  48
1.00000000
  176
0
  178
0
  140
0.18000000
  147
0.09000000
  280
0
  77
0
  73
1
  271
4
  340
17
  0
ENDTAB
  0
ENDSEC
  0
SECTION
  2
BLOCKS
  0
BLOCK
  5
E4C
  330
E2F
  100
AcDbEntity
  8
0
  100
AcDbBlockBegin
  2
*Model_Space
  70
0
  71
0
  10
0.00000000
  20
0.00000000
  30
0.00000000
  3
*Model_Space
  1

  0
ENDBLK
  5
E4D
  330
E2F
  100
AcDbEntity
  67
1
  8
0
  100
AcDbBlockEnd
  0
BLOCK
  5
E4E
  330
E30
  100
AcDbEntity
  8
0
  100
AcDbBlockBegin
  2
*Paper_Space
  70
0
  71
0
  10
0.00000000
  20
0.00000000
  30
0.00000000
  3
*Paper_Space
  1

  0
ENDBLK
  5
E4F
  330
E30
  100
AcDbEntity
  67
1
  8
0
  100
AcDbBlockEnd
  0
BLOCK
  5
E0A
  330
E31
  100
AcDbEntity
  8
0
  100
AcDbBlockBegin
  2
VDDIM_DEFAULT
  70
0
  71
0
  10
0.00000000
  20
0.00000000
  30
0.00000000
  3
VDDIM_DEFAULT
  1

  0
HATCH
  5
E0B
  330
E31
  100
AcDbEntity
  8
0
  6
Continuous
  62
0
  370
-2
  100
AcDbHatch
  10
0.00000000
  20
0.00000000
  30
0.00000000
  210
0.00000000
  220
0.00000000
  230
-1.00000000
  2
SOLID
  70
1
  71
0
  91
1
  92
2
  72
0
  73
1
  93
3
  10
0.00000000
  20
0.00000000
  10
1.00000000
  20
-0.16650000
  10
1.00000000
  20
0.16650000
  97
0
  75
0
  76
1
  98
1
  10
0.00000000
  20
0.00000000
  0
ENDBLK
  5
E50
  330
E31
  100
AcDbEntity
  8
0
  100
AcDbBlockEnd
  0
BLOCK
  5
E0D
  330
E32
  100
AcDbEntity
  8
0
  100
AcDbBlockBegin
  2
VDDIM_NONE
  70
0
  71
0
  10
0.00000000
  20
0.00000000
  30
0.00000000
  3
VDDIM_NONE
  1

  0
ENDBLK
  5
E51
  330
E32
  100
AcDbEntity
  8
0
  100
AcDbBlockEnd
  0
BLOCK
  5
E34
  330
E33
  100
AcDbEntity
  8
0
  100
AcDbBlockBegin
  2
*DE18
  70
0
  71
0
  10
0.0
  20
0.0
  30
0.0
  3
*DE18
  1

  0
MTEXT
  5
E35
  330
E33
  100
AcDbEntity
  8
0
  6
ByLayer
  370
40
  100
AcDbMText
  10
600.08518161
  20
559.62724891
  30
0.00000000
  40
14.00000000
  41
20.63639410
  71
8
  72
1
  1
25
  7
Standard
  50
0.00000000
  42
20.63639410
  73
0
  44
1.00000000
  0
LINE
  5
E36
  330
E33
  100
AcDbEntity
  8
0
  6
ByLayer
  370
40
  100
AcDbLine
  10
613.85635773
  20
554.62724891
  30
0.00000000
  11
589.35577400
  21
554.62724891
  31
0.00000000
  0
LINE
  5
E37
  330
E33
  100
AcDbEntity
  8
0
  6
ByLayer
  370
40
  100
AcDbLine
  10
613.85635773
  20
477.17301763
  30
0.00000000
  11
613.85635773
  21
554.68974891
  31
0.00000000
  0
LINE
  5
E38
  330
E33
  100
AcDbEntity
  8
0
  6
ByLayer
  370
40
  100
AcDbLine
  10
589.35577400
  20
521.92892429
  30
0.00000000
  11
589.35577400
  21
554.68974891
  31
0.00000000
  0
INSERT
  5
E39
  330
E33
  100
AcDbEntity
  8
0
  6
ByLayer
  370
40
  100
AcDbBlockReference
  2
VDDIM_DEFAULT
  10
613.85635773
  20
554.62724891
  30
0.00000000
  70
1
  71
1
  41
10.00000000
  42
10.00000000
  0
SEQEND
  5
E52
  330
E39
  100
AcDbEntity
  8
0
  0
INSERT
  5
E3A
  330
E33
  100
AcDbEntity
  8
0
  6
ByLayer
  370
40
  100
AcDbBlockReference
  2
VDDIM_DEFAULT
  10
589.35577400
  20
554.62724891
  30
0.00000000
  70
1
  71
1
  41
10.00000000
  42
10.00000000
  50
180.00000000
  0
SEQEND
  5
E53
  330
E3A
  100
AcDbEntity
  8
0
  0
ENDBLK
  5
E54
  330
E33
  100
AcDbEntity
  8
0
  100
AcDbBlockEnd
  0
BLOCK
  5
E3C
  330
E3B
  100
AcDbEntity
  8
0
  100
AcDbBlockBegin
  2
*DE12
  70
0
  71
0
  10
0.0
  20
0.0
  30
0.0
  3
*DE12
  1

  0
MTEXT
  5
E3D
  330
E3B
  100
AcDbEntity
  8
0
  6
ByLayer
  370
40
  100
AcDbMText
  10
76.16775990
  20
321.44345706
  30
0.00000000
  40
14.00000000
  41
31.87181635
  71
8
  72
1
  1
407
  7
Standard
  50
450.00000000
  42
31.87181635
  73
0
  44
1.00000000
  0
LINE
  5
E3E
  330
E3B
  100
AcDbEntity
  8
0
  6
ByLayer
  370
40
  100
AcDbLine
  10
81.16775990
  20
524.83081100
  30
0.00000000
  11
81.16775990
  21
118.30998418
  31
0.00000000
  0
LINE
  5
E3F
  330
E3B
  100
AcDbEntity
  8
0
  6
ByLayer
  370
40
  100
AcDbLine
  10
211.79728982
  20
524.83081100
  30
0.00000000
  11
81.10525990
  21
524.83081100
  31
0.00000000
  0
LINE
  5
E40
  330
E3B
  100
AcDbEntity
  8
0
  6
ByLayer
  370
40
  100
AcDbLine
  10
239.56624020
  20
118.30998418
  30
0.00000000
  11
81.10525990
  21
118.30998418
  31
0.00000000
  0
INSERT
  5
E41
  330
E3B
  100
AcDbEntity
  8
0
  6
ByLayer
  370
40
  100
AcDbBlockReference
  2
VDDIM_DEFAULT
  10
81.16775990
  20
524.83081100
  30
0.00000000
  70
1
  71
1
  41
10.00000000
  42
10.00000000
  50
90.00000000
  0
SEQEND
  5
E55
  330
E41
  100
AcDbEntity
  8
0
  0
INSERT
  5
E42
  330
E3B
  100
AcDbEntity
  8
0
  6
ByLayer
  370
40
  100
AcDbBlockReference
  2
VDDIM_DEFAULT
  10
81.16775990
  20
118.30998418
  30
0.00000000
  70
1
  71
1
  41
10.00000000
  42
10.00000000
  50
270.00000000
  0
SEQEND
  5
E56
  330
E42
  100
AcDbEntity
  8
0
  0
ENDBLK
  5
E57
  330
E3B
  100
AcDbEntity
  8
0
  100
AcDbBlockEnd
  0
BLOCK
  5
E44
  330
E43
  100
AcDbEntity
  8
0
  100
AcDbBlockBegin
  2
*DE0E
  70
0
  71
0
  10
0.0
  20
0.0
  30
0.0
  3
*DE0E
  1

  0
MTEXT
  5
E45
  330
E43
  100
AcDbEntity
  8
0
  6
ByLayer
  370
40
  100
AcDbMText
  10
309.39127121
  20
559.62724891
  30
0.00000000
  40
14.00000000
  41
31.32054290
  71
8
  72
1
  1
388
  7
Standard
  50
0.00000000
  42
31.32054290
  73
0
  44
1.00000000
  0
LINE
  5
E46
  330
E43
  100
AcDbEntity
  8
0
  6
ByLayer
  370
40
  100
AcDbLine
  10
115.56448400
  20
554.62724891
  30
0.00000000
  11
503.21805842
  21
554.62724891
  31
0.00000000
  0
LINE
  5
E47
  330
E43
  100
AcDbEntity
  8
0
  6
ByLayer
  370
40
  100
AcDbLine
  10
115.56448400
  20
355.77232721
  30
0.00000000
  11
115.56448400
  21
554.68974891
  31
0.00000000
  0
LINE
  5
E48
  330
E43
  100
AcDbEntity
  8
0
  6
ByLayer
  370
40
  100
AcDbLine
  10
503.21805842
  20
355.77232721
  30
0.00000000
  11
503.21805842
  21
554.68974891
  31
0.00000000
  0
INSERT
  5
E49
  330
E43
  100
AcDbEntity
  8
0
  6
ByLayer
  370
40
  100
AcDbBlockReference
  2
VDDIM_DEFAULT
  10
115.56448400
  20
554.62724891
  30
0.00000000
  70
1
  71
1
  41
10.00000000
  42
10.00000000
  50
180.00000000
  0
SEQEND
  5
E58
  330
E49
  100
AcDbEntity
  8
0
  0
INSERT
  5
E4A
  330
E43
  100
AcDbEntity
  8
0
  6
ByLayer
  370
40
  100
AcDbBlockReference
  2
VDDIM_DEFAULT
  10
503.21805842
  20
554.62724891
  30
0.00000000
  70
1
  71
1
  41
10.00000000
  42
10.00000000
  0
SEQEND
  5
E59
  330
E4A
  100
AcDbEntity
  8
0
  0
ENDBLK
  5
E5A
  330
E43
  100
AcDbEntity
  8
0
  100
AcDbBlockEnd
  0
ENDSEC
  0
SECTION
  2
ENTITIES
  0
ARC
  5
1C1
  330
E2F
  100
AcDbEntity
  8
0
  6
ByLayer
  62
7
  370
60
  100
AcDbCircle
  10
225.85348500
  20
523.83081100
  30
0.00000000
  40
1.00000000
  100
AcDbArc
  50
0.00000000
  51
90.00000000
  0
LINE
  5
1C2
  330
E2F
  100
AcDbEntity
  8
0
  6
ByLayer
  62
7
  370
60
  48
0.15159600
  100
AcDbLine
  10
226.85348500
  20
517.76696800
  30
0.00000000
  11
226.85348500
  21
523.83081100
  31
0.00000000
  0
ARC
  5
1C3
  330
E2F
  100
AcDbEntity
  8
0
  6
ByLayer
  62
7
  370
60
  100
AcDbCircle
  10
228.85348500
  20
517.76696800
  30
0.00000000
  40
2.00000000
  100
AcDbArc
  50
180.00000000
  51
270.00000000
  0
LINE
  5
1C4
  330
E2F
  100
AcDbEntity
  8
0
  6
ByLayer
  62
7
  370
60
  48
0.15000000
  100
AcDbLine
  10
228.85348500
  20
515.76696800
  30
0.00000000
  11
234.85348500
  21
515.76696800
  31
0.00000000
  0
ARC
  5
1C5
  330
E2F
  100
AcDbEntity
  8
0
  6
ByLayer
  62
7
  370
60
  100
AcDbCircle
  10
234.85348500
  20
517.76696800
  30
0.00000000
  40
2.00000000
  100
AcDbArc
  50
270.00000000
  51
360.00000000
  0
LINE
  5
1C6
  330
E2F
  100
AcDbEntity
  8
0
  6
ByLayer
  62
7
  370
60
  48
0.03000000
  100
AcDbLine
  10
236.85348500
  20
522.63079800
  30
0.00000000
  11
236.85348500
  21
523.83081100
  31
0.00000000
  0
LINE
  5
1C7
  330
E2F
  100
AcDbEntity
  8
0
  6
ByLayer
  62
7
  370
60
  48
0.02500000
  100
AcDbLine
  10
236.85348500
  20
522.63079800
  30
0.00000000
  11
236.85348500
  21
521.63079800
  31
0.00000000
  0
LINE
  5
1C8
  330
E2F
  100
AcDbEntity
  8
0
  6
ByLayer
  62
7
  370
60
  48
0.09659600
  100
AcDbLine
  10
236.85348500
  20
521.63079800
  30
0.00000000
  11
236.85348500
  21
517.76696800
  31
0.00000000
  0
LINE
  5
1C9
  330
E2F
  100
AcDbEntity
  8
0
  6
ByLayer
  62
7
  370
60
  48
0.09659600
  100
AcDbLine
  10
381.77536000
  20
521.63079800
  30
0.00000000
  11
381.77536000
  21
517.76696800
  31
0.00000000
  0
LINE
  5
1CA
  330
E2F
  100
AcDbEntity
  8
0
  6
ByLayer
  62
7
  370
60
  48
0.02500000
  100
AcDbLine
  10
381.77536000
  20
522.63079800
  30
0.00000000
  11
381.77536000
  21
521.63079800
  31
0.00000000
  0
LINE
  5
1CB
  330
E2F
  100
AcDbEntity
  8
0
  6
ByLayer
  62
7
  370
60
  48
0.03000000
  100
AcDbLine
  10
381.77536000
  20
522.63079800
  30
0.00000000
  11
381.77536000
  21
523.83081100
  31
0.00000000
  0
ARC
  5
1CC
  330
E2F
  100
AcDbEntity
  8
0
  6
ByLayer
  62
7
  370
60
  100
AcDbCircle
  10
383.77536000
  20
517.76696800
  30
0.00000000
  40
2.00000000
  100
AcDbArc
  50
180.00000000
  51
270.00000000
  0
LINE
  5
1CD
  330
E2F
  100
AcDbEntity
  8
0
  6
ByLayer
  62
7
  370
60
  48
0.15000000
  100
AcDbLine
  10
389.77536000
  20
515.76696800
  30
0.00000000
  11
383.77536000
  21
515.76696800
  31
0.00000000
  0
ARC
  5
1CE
  330
E2F
  100
AcDbEntity
  8
0
  6
ByLayer
  62
7
  370
60
  100
AcDbCircle
  10
389.77536000
  20
517.76696800
  30
0.00000000
  40
2.00000000
  100
AcDbArc
  50
270.00000000
  51
360.00000000
  0
LINE
  5
1CF
  330
E2F
  100
AcDbEntity
  8
0
  6
ByLayer
  62
7
  370
60
  48
0.15159600
  100
AcDbLine
  10
391.77536000
  20
517.76696800
  30
0.00000000
  11
391.77536000
  21
523.83081100
  31
0.00000000
  0
ARC
  5
1D0
  330
E2F
  100
AcDbEntity
  8
0
  6
ByLayer
  62
7
  370
60
  100
AcDbCircle
  10
392.77536000
  20
523.83081100
  30
0.00000000
  40
1.00000000
  100
AcDbArc
  50
90.00000000
  51
180.00000000
  0
LINE
  5
1D1
  330
E2F
  100
AcDbEntity
  8
0
  6
ByLayer
  62
7
  370
60
  100
AcDbLine
  10
381.77536000
  20
521.63079800
  30
0.00000000
  11
236.85348500
  21
521.63079800
  31
0.00000000
  0
LINE
  5
1D2
  330
E2F
  100
AcDbEntity
  8
0
  6
ByLayer
  62
7
  370
60
  48
0.03750000
  100
AcDbLine
  10
380.27536000
  20
523.83081100
  30
0.00000000
  11
381.77536000
  21
523.83081100
  31
0.00000000
  0
LINE
  5
1D3
  330
E2F
  100
AcDbEntity
  8
0
  6
ByLayer
  62
7
  370
60
  100
AcDbLine
  10
380.27536000
  20
523.83081100
  30
0.00000000
  11
238.35348500
  21
523.83081100
  31
0.00000000
  0
LINE
  5
1D4
  330
E2F
  100
AcDbEntity
  8
0
  6
ByLayer
  62
7
  370
60
  48
0.03750000
  100
AcDbLine
  10
236.85348500
  20
523.83081100
  30
0.00000000
  11
238.35348500
  21
523.83081100
  31
0.00000000
  0
LINE
  5
1DA
  330
E2F
  100
AcDbEntity
  8
0
  6
ByLayer
  62
7
  370
60
  100
AcDbLine
  10
187.76751700
  20
524.83081100
  30
0.00000000
  11
225.85348500
  21
524.83081100
  31
0.00000000
  0
LINE
  5
1DB
  330
E2F
  100
AcDbEntity
  8
0
  6
ByLayer
  62
7
  370
60
  48
0.32659700
  100
AcDbLine
  10
186.76751700
  20
523.83081100
  30
0.00000000
  11
186.76751700
  21
510.76693700
  31
0.00000000
  0
ARC
  5
1DC
  330
E2F
  100
AcDbEntity
  8
0
  6
ByLayer
  62
7
  370
60
  100
AcDbCircle
  10
187.76751700
  20
523.83081100
  30
0.00000000
  40
1.00000000
  100
AcDbArc
  50
90.00000000
  51
180.00000000
  0
LINE
  5
1DD
  330
E2F
  100
AcDbEntity
  8
0
  6
ByLayer
  62
7
  370
60
  100
AcDbLine
  10
430.86145000
  20
524.83081100
  30
0.00000000
  11
392.77536000
  21
524.83081100
  31
0.00000000
  0
LINE
  5
1DE
  330
E2F
  100
AcDbEntity
  8
0
  6
ByLayer
  62
7
  370
60
  48
0.32659700
  100
AcDbLine
  10
431.86145000
  20
523.83081100
  30
0.00000000
  11
431.86145000
  21
510.76693700
  31
0.00000000
  0
ARC
  5
1DF
  330
E2F
  100
AcDbEntity
  8
0
  6
ByLayer
  62
7
  370
60
  100
AcDbCircle
  10
430.86145000
  20
523.83081100
  30
0.00000000
  40
1.00000000
  100
AcDbArc
  50
0.00000000
  51
90.00000000
  0
ARC
  5
1E0
  330
E2F
  100
AcDbEntity
  8
0
  6
ByLayer
  62
7
  370
60
  100
AcDbCircle
  10
236.06442300
  20
119.32095300
  30
0.00000000
  40
1.00000000
  100
AcDbArc
  50
180.00000000
  51
270.00000000
  0
LINE
  5
1E1
  330
E2F
  100
AcDbEntity
  8
0
  6
ByLayer
  62
7
  370
60
  100
AcDbLine
  10
299.61538700
  20
118.32095300
  30
0.00000000
  11
236.06442300
  21
118.32095300
  31
0.00000000
  0
LINE
  5
1E2
  330
E2F
  100
AcDbEntity
  8
0
  6
ByLayer
  62
7
  370
60
  48
0.17500000
  100
AcDbLine
  10
383.56442300
  20
119.32095300
  30
0.00000000
  11
383.56442300
  21
126.32095300
  31
0.00000000
  0
ARC
  5
1E3
  330
E2F
  100
AcDbEntity
  8
0
  6
ByLayer
  62
7
  370
60
  100
AcDbCircle
  10
382.56442300
  20
119.32095300
  30
0.00000000
  40
1.00000000
  100
AcDbArc
  50
270.00000000
  51
360.00000000
  0
LINE
  5
1E4
  330
E2F
  100
AcDbEntity
  8
0
  6
ByLayer
  62
7
  370
60
  100
AcDbLine
  10
382.56442300
  20
118.32095300
  30
0.00000000
  11
319.01358000
  21
118.32095300
  31
0.00000000
  0
ARC
  5
1E5
  330
E2F
  100
AcDbEntity
  8
0
  6
ByLayer
  62
7
  370
60
  100
AcDbCircle
  10
319.01358000
  20
119.32095300
  30
0.00000000
  40
1.00000000
  100
AcDbArc
  50
210.44204700
  51
270.00000000
  0
ARC
  5
1E6
  330
E2F
  100
AcDbEntity
  8
0
  6
ByLayer
  62
7
  370
60
  100
AcDbCircle
  10
309.31448400
  20
113.62097200
  30
0.00000000
  40
10.25000000
  100
AcDbArc
  50
30.44205200
  51
149.55794800
  0
ARC
  5
1E7
  330
E2F
  100
AcDbEntity
  8
0
  6
ByLayer
  62
7
  370
60
  100
AcDbCircle
  10
299.61538700
  20
119.32095300
  30
0.00000000
  40
1.00000000
  100
AcDbArc
  50
270.00000000
  51
329.55794000
  0
LINE
  5
1E8
  330
E2F
  100
AcDbEntity
  8
0
  6
ByLayer
  62
7
  370
60
  48
0.17500000
  100
AcDbLine
  10
235.06442300
  20
119.32095300
  30
0.00000000
  11
235.06442300
  21
126.32095300
  31
0.00000000
  0
LINE
  5
1E9
  330
E2F
  100
AcDbEntity
  8
0
  6
ByLayer
  62
7
  370
60
  48
0.21666400
  100
AcDbLine
  10
383.56442300
  20
129.32095300
  30
0.00000000
  11
374.89785800
  21
129.32095300
  31
0.00000000
  0
LINE
  5
1EA
  330
E2F
  100
AcDbEntity
  8
0
  6
ByLayer
  62
7
  370
60
  100
AcDbLine
  10
371.89785800
  20
129.32095300
  30
0.00000000
  11
332.17565900
  21
129.32095300
  31
0.00000000
  0
LINE
  5
1EB
  330
E2F
  100
AcDbEntity
  8
0
  6
ByLayer
  62
7
  370
60
  100
AcDbLine
  10
329.17565900
  20
129.32095300
  30
0.00000000
  11
289.45346100
  21
129.32095300
  31
0.00000000
  0
LINE
  5
1EC
  330
E2F
  100
AcDbEntity
  8
0
  6
ByLayer
  62
7
  370
60
  100
AcDbLine
  10
286.45346100
  20
129.32095300
  30
0.00000000
  11
246.73126200
  21
129.32095300
  31
0.00000000
  0
LINE
  5
1ED
  330
E2F
  100
AcDbEntity
  8
0
  6
ByLayer
  62
7
  370
60
  48
0.21667100
  100
AcDbLine
  10
243.73126200
  20
129.32095300
  30
0.00000000
  11
235.06442300
  21
129.32095300
  31
0.00000000
  0
LINE
  5
1EE
  330
E2F
  100
AcDbEntity
  8
0
  6
ByLayer
  62
7
  370
60
  48
0.15863300
  100
AcDbLine
  10
460.34228500
  20
510.76693700
  30
0.00000000
  11
460.34228500
  21
504.42163100
  31
0.00000000
  0
LINE
  5
1EF
  330
E2F
  100
AcDbEntity
  8
0
  6
ByLayer
  62
7
  370
60
  48
0.07500000
  100
AcDbLine
  10
457.34228500
  20
510.76693700
  30
0.00000000
  11
460.34228500
  21
510.76693700
  31
0.00000000
  0
LINE
  5
1F0
  330
E2F
  100
AcDbEntity
  8
0
  6
ByLayer
  62
7
  370
60
  48
0.15863300
  100
AcDbLine
  10
457.34228500
  20
510.76693700
  30
0.00000000
  11
457.34228500
  21
504.42163100
  31
0.00000000
  0
LINE
  5
1F2
  330
E2F
  100
AcDbEntity
  8
0
  6
ByLayer
  62
7
  370
60
  48
0.04330100
  100
AcDbLine
  10
460.34228500
  20
504.42163100
  30
0.00000000
  11
460.34228500
  21
502.68957500
  31
0.00000000
  0
LINE
  5
1F3
  330
E2F
  100
AcDbEntity
  8
0
  6
ByLayer
  62
7
  370
60
  48
0.04330100
  100
AcDbLine
  10
457.34228500
  20
504.42163100
  30
0.00000000
  11
457.34228500
  21
502.68957500
  31
0.00000000
  0
LINE
  5
20D
  330
E2F
  100
AcDbEntity
  8
0
  6
ByLayer
  62
7
  370
60
  48
0.22083600
  100
AcDbLine
  10
460.34228500
  20
502.68957500
  30
0.00000000
  11
460.34228500
  21
493.85614000
  31
0.00000000
  0
LINE
  5
20E
  330
E2F
  100
AcDbEntity
  8
0
  6
ByLayer
  62
7
  370
60
  48
0.22083600
  100
AcDbLine
  10
457.34228500
  20
502.68957500
  30
0.00000000
  11
457.34228500
  21
493.85614000
  31
0.00000000
  0
LINE
  5
228
  330
E2F
  100
AcDbEntity
  8
0
  6
ByLayer
  62
7
  370
60
  48
0.04330100
  100
AcDbLine
  10
460.34228500
  20
493.85614000
  30
0.00000000
  11
460.34228500
  21
492.12408400
  31
0.00000000
  0
LINE
  5
22A
  330
E2F
  100
AcDbEntity
  8
0
  6
ByLayer
  62
7
  370
60
  48
0.04330100
  100
AcDbLine
  10
457.34228500
  20
493.85614000
  30
0.00000000
  11
457.34228500
  21
492.12408400
  31
0.00000000
  0
LINE
  5
22B
  330
E2F
  100
AcDbEntity
  8
0
  6
ByLayer
  62
7
  370
60
  100
AcDbLine
  10
460.34228500
  20
492.12408400
  30
0.00000000
  11
460.34228500
  21
144.96382100
  31
0.00000000
  0
LINE
  5
22C
  330
E2F
  100
AcDbEntity
  8
0
  6
ByLayer
  62
7
  370
60
  100
AcDbLine
  10
457.34228500
  20
492.12408400
  30
0.00000000
  11
457.34228500
  21
144.96382100
  31
0.00000000
  0
LINE
  5
22E
  330
E2F
  100
AcDbEntity
  8
0
  6
ByLayer
  62
7
  370
60
  48
0.04330100
  100
AcDbLine
  10
460.34228500
  20
144.96382100
  30
0.00000000
  11
460.34228500
  21
143.23176600
  31
0.00000000
  0
LINE
  5
248
  330
E2F
  100
AcDbEntity
  8
0
  6
ByLayer
  62
7
  370
60
  48
0.04330100
  100
AcDbLine
  10
457.34228500
  20
144.96382100
  30
0.00000000
  11
457.34228500
  21
143.23176600
  31
0.00000000
  0
LINE
  5
249
  330
E2F
  100
AcDbEntity
  8
0
  6
ByLayer
  62
7
  370
60
  48
0.22083700
  100
AcDbLine
  10
460.34228500
  20
134.39830000
  30
0.00000000
  11
460.34228500
  21
143.23176600
  31
0.00000000
  0
LINE
  5
263
  330
E2F
  100
AcDbEntity
  8
0
  6
ByLayer
  62
7
  370
60
  48
0.22083700
  100
AcDbLine
  10
457.34228500
  20
134.39830000
  30
0.00000000
  11
457.34228500
  21
143.23176600
  31
0.00000000
  0
LINE
  5
264
  330
E2F
  100
AcDbEntity
  8
0
  6
ByLayer
  62
7
  370
60
  48
0.04330100
  100
AcDbLine
  10
460.34228500
  20
134.39830000
  30
0.00000000
  11
460.34228500
  21
132.66626000
  31
0.00000000
  0
LINE
  5
265
  330
E2F
  100
AcDbEntity
  8
0
  6
ByLayer
  62
7
  370
60
  48
0.04330100
  100
AcDbLine
  10
457.34228500
  20
134.39830000
  30
0.00000000
  11
457.34228500
  21
132.66626000
  31
0.00000000
  0
LINE
  5
267
  330
E2F
  100
AcDbEntity
  8
0
  6
ByLayer
  62
7
  370
60
  48
0.15863300
  100
AcDbLine
  10
460.34228500
  20
126.32095300
  30
0.00000000
  11
460.34228500
  21
132.66626000
  31
0.00000000
  0
LINE
  5
268
  330
E2F
  100
AcDbEntity
  8
0
  6
ByLayer
  62
7
  370
60
  48
0.07500000
  100
AcDbLine
  10
457.34228500
  20
126.32095300
  30
0.00000000
  11
460.34228500
  21
126.32095300
  31
0.00000000
  0
LINE
  5
269
  330
E2F
  100
AcDbEntity
  8
0
  6
ByLayer
  62
7
  370
60
  48
0.15863300
  100
AcDbLine
  10
457.34228500
  20
126.32095300
  30
0.00000000
  11
457.34228500
  21
132.66626000
  31
0.00000000
  0
LINE
  5
26A
  330
E2F
  100
AcDbEntity
  8
0
  6
ByLayer
  62
7
  370
60
  48
0.15863300
  100
AcDbLine
  10
496.71917700
  20
465.38394200
  30
0.00000000
  11
503.06448400
  21
465.38394200
  31
0.00000000
  0
LINE
  5
26C
  330
E2F
  100
AcDbEntity
  8
0
  6
ByLayer
  62
7
  370
60
  48
0.15863300
  100
AcDbLine
  10
496.71917700
  20
468.38394200
  30
0.00000000
  11
503.06448400
  21
468.38394200
  31
0.00000000
  0
LINE
  5
26D
  330
E2F
  100
AcDbEntity
  8
0
  6
ByLayer
  62
7
  370
60
  48
0.07500000
  100
AcDbLine
  10
503.06448400
  20
468.38394200
  30
0.00000000
  11
503.06448400
  21
465.38394200
  31
0.00000000
  0
LINE
  5
26E
  330
E2F
  100
AcDbEntity
  8
0
  6
ByLayer
  62
7
  370
60
  48
0.04330100
  100
AcDbLine
  10
494.98712200
  20
465.38394200
  30
0.00000000
  11
496.71917700
  21
465.38394200
  31
0.00000000
  0
LINE
  5
288
  330
E2F
  100
AcDbEntity
  8
0
  6
ByLayer
  62
7
  370
60
  48
0.04330100
  100
AcDbLine
  10
494.98712200
  20
468.38394200
  30
0.00000000
  11
496.71917700
  21
468.38394200
  31
0.00000000
  0
LINE
  5
289
  330
E2F
  100
AcDbEntity
  8
0
  6
ByLayer
  62
7
  370
60
  48
0.17753400
  100
AcDbLine
  10
494.98712200
  20
465.38394200
  30
0.00000000
  11
487.88574200
  21
465.38394200
  31
0.00000000
  0
LINE
  5
28A
  330
E2F
  100
AcDbEntity
  8
0
  6
ByLayer
  62
7
  370
60
  48
0.17753400
  100
AcDbLine
  10
494.98712200
  20
468.38394200
  30
0.00000000
  11
487.88574200
  21
468.38394200
  31
0.00000000
  0
LINE
  5
2A4
  330
E2F
  100
AcDbEntity
  8
0
  6
ByLayer
  62
7
  370
60
  48
0.04330100
  100
AcDbLine
  10
486.15368700
  20
465.38394200
  30
0.00000000
  11
487.88574200
  21
465.38394200
  31
0.00000000
  0
LINE
  5
2A5
  330
E2F
  100
AcDbEntity
  8
0
  6
ByLayer
  62
7
  370
60
  48
0.04330100
  100
AcDbLine
  10
486.15368700
  20
468.38394200
  30
0.00000000
  11
487.88574200
  21
468.38394200
  31
0.00000000
  0
LINE
  5
2A7
  330
E2F
  100
AcDbEntity
  8
0
  6
ByLayer
  62
7
  370
60
  100
AcDbLine
  10
132.47529600
  20
465.38394200
  30
0.00000000
  11
158.28686500
  21
465.38394200
  31
0.00000000
  0
LINE
  5
2A8
  330
E2F
  100
AcDbEntity
  8
0
  6
ByLayer
  62
7
  370
60
  100
AcDbLine
  10
161.28686500
  20
465.38394200
  30
0.00000000
  11
201.00906400
  21
465.38394200
  31
0.00000000
  0
LINE
  5
2A9
  330
E2F
  100
AcDbEntity
  8
0
  6
ByLayer
  62
7
  370
60
  100
AcDbLine
  10
204.00906400
  20
465.38394200
  30
0.00000000
  11
243.73126200
  21
465.38394200
  31
0.00000000
  0
LINE
  5
2AA
  330
E2F
  100
AcDbEntity
  8
0
  6
ByLayer
  62
7
  370
60
  100
AcDbLine
  10
246.73126200
  20
465.38394200
  30
0.00000000
  11
286.45346100
  21
465.38394200
  31
0.00000000
  0
LINE
  5
2AB
  330
E2F
  100
AcDbEntity
  8
0
  6
ByLayer
  62
7
  370
60
  100
AcDbLine
  10
289.45346100
  20
465.38394200
  30
0.00000000
  11
329.17565900
  21
465.38394200
  31
0.00000000
  0
LINE
  5
2AC
  330
E2F
  100
AcDbEntity
  8
0
  6
ByLayer
  62
7
  370
60
  100
AcDbLine
  10
332.17565900
  20
465.38394200
  30
0.00000000
  11
371.89785800
  21
465.38394200
  31
0.00000000
  0
LINE
  5
2AD
  330
E2F
  100
AcDbEntity
  8
0
  6
ByLayer
  62
7
  370
60
  100
AcDbLine
  10
374.89785800
  20
465.38394200
  30
0.00000000
  11
414.62005600
  21
465.38394200
  31
0.00000000
  0
LINE
  5
2AE
  330
E2F
  100
AcDbEntity
  8
0
  6
ByLayer
  62
7
  370
60
  100
AcDbLine
  10
417.62005600
  20
465.38394200
  30
0.00000000
  11
457.34225500
  21
465.38394200
  31
0.00000000
  0
LINE
  5
2AF
  330
E2F
  100
AcDbEntity
  8
0
  6
ByLayer
  62
7
  370
60
  100
AcDbLine
  10
460.34225500
  20
465.38394200
  30
0.00000000
  11
486.15368700
  21
465.38394200
  31
0.00000000
  0
LINE
  5
2B1
  330
E2F
  100
AcDbEntity
  8
0
  6
ByLayer
  62
7
  370
60
  100
AcDbLine
  10
132.47529600
  20
468.38394200
  30
0.00000000
  11
158.28686500
  21
468.38394200
  31
0.00000000
  0
LINE
  5
2B2
  330
E2F
  100
AcDbEntity
  8
0
  6
ByLayer
  62
7
  370
60
  100
AcDbLine
  10
161.28686500
  20
468.38394200
  30
0.00000000
  11
201.00906400
  21
468.38394200
  31
0.00000000
  0
LINE
  5
2B3
  330
E2F
  100
AcDbEntity
  8
0
  6
ByLayer
  62
7
  370
60
  100
AcDbLine
  10
204.00906400
  20
468.38394200
  30
0.00000000
  11
243.73126200
  21
468.38394200
  31
0.00000000
  0
LINE
  5
2B4
  330
E2F
  100
AcDbEntity
  8
0
  6
ByLayer
  62
7
  370
60
  100
AcDbLine
  10
246.73126200
  20
468.38394200
  30
0.00000000
  11
286.45346100
  21
468.38394200
  31
0.00000000
  0
LINE
  5
2B5
  330
E2F
  100
AcDbEntity
  8
0
  6
ByLayer
  62
7
  370
60
  100
AcDbLine
  10
289.45346100
  20
468.38394200
  30
0.00000000
  11
329.17565900
  21
468.38394200
  31
0.00000000
  0
LINE
  5
2B6
  330
E2F
  100
AcDbEntity
  8
0
  6
ByLayer
  62
7
  370
60
  100
AcDbLine
  10
332.17565900
  20
468.38394200
  30
0.00000000
  11
371.89785800
  21
468.38394200
  31
0.00000000
  0
LINE
  5
2B7
  330
E2F
  100
AcDbEntity
  8
0
  6
ByLayer
  62
7
  370
60
  100
AcDbLine
  10
374.89785800
  20
468.38394200
  30
0.00000000
  11
414.62005600
  21
468.38394200
  31
0.00000000
  0
LINE
  5
2B8
  330
E2F
  100
AcDbEntity
  8
0
  6
ByLayer
  62
7
  370
60
  100
AcDbLine
  10
417.62005600
  20
468.38394200
  30
0.00000000
  11
457.34225500
  21
468.38394200
  31
0.00000000
  0
LINE
  5
2B9
  330
E2F
  100
AcDbEntity
  8
0
  6
ByLayer
  62
7
  370
60
  100
AcDbLine
  10
460.34225500
  20
468.38394200
  30
0.00000000
  11
486.15368700
  21
468.38394200
  31
0.00000000
  0
LINE
  5
2BA
  330
E2F
  100
AcDbEntity
  8
0
  6
ByLayer
  62
7
  370
60
  48
0.04330100
  100
AcDbLine
  10
130.74325600
  20
465.38394200
  30
0.00000000
  11
132.47529600
  21
465.38394200
  31
0.00000000
  0
LINE
  5
2BB
  330
E2F
  100
AcDbEntity
  8
0
  6
ByLayer
  62
7
  370
60
  48
0.04330100
  100
AcDbLine
  10
130.74325600
  20
468.38394200
  30
0.00000000
  11
132.47529600
  21
468.38394200
  31
0.00000000
  0
LINE
  5
2D5
  330
E2F
  100
AcDbEntity
  8
0
  6
ByLayer
  62
7
  370
60
  48
0.17753500
  100
AcDbLine
  10
123.64184600
  20
465.38394200
  30
0.00000000
  11
130.74325600
  21
465.38394200
  31
0.00000000
  0
LINE
  5
2EF
  330
E2F
  100
AcDbEntity
  8
0
  6
ByLayer
  62
7
  370
60
  48
0.17753500
  100
AcDbLine
  10
123.64184600
  20
468.38394200
  30
0.00000000
  11
130.74325600
  21
468.38394200
  31
0.00000000
  0
LINE
  5
2F0
  330
E2F
  100
AcDbEntity
  8
0
  6
ByLayer
  62
7
  370
60
  48
0.04330100
  100
AcDbLine
  10
121.90979000
  20
465.38394200
  30
0.00000000
  11
123.64184600
  21
465.38394200
  31
0.00000000
  0
LINE
  5
2F2
  330
E2F
  100
AcDbEntity
  8
0
  6
ByLayer
  62
7
  370
60
  48
0.04330100
  100
AcDbLine
  10
121.90979000
  20
468.38394200
  30
0.00000000
  11
123.64184600
  21
468.38394200
  31
0.00000000
  0
LINE
  5
2F3
  330
E2F
  100
AcDbEntity
  8
0
  6
ByLayer
  62
7
  370
60
  48
0.15863300
  100
AcDbLine
  10
115.56448400
  20
465.38394200
  30
0.00000000
  11
121.90979000
  21
465.38394200
  31
0.00000000
  0
LINE
  5
2F4
  330
E2F
  100
AcDbEntity
  8
0
  6
ByLayer
  62
7
  370
60
  48
0.07500000
  100
AcDbLine
  10
115.56448400
  20
468.38394200
  30
0.00000000
  11
115.56448400
  21
465.38394200
  31
0.00000000
  0
LINE
  5
2F5
  330
E2F
  100
AcDbEntity
  8
0
  6
ByLayer
  62
7
  370
60
  48
0.15863300
  100
AcDbLine
  10
115.56448400
  20
468.38394200
  30
0.00000000
  11
121.90979000
  21
468.38394200
  31
0.00000000
  0
ARC
  5
2F6
  330
E2F
  100
AcDbEntity
  8
0
  6
ByLayer
  62
7
  370
60
  100
AcDbCircle
  10
127.06448400
  20
137.82095300
  30
0.00000000
  40
8.50000000
  100
AcDbArc
  50
180.00000000
  51
270.00000000
  0
ARC
  5
2F7
  330
E2F
  100
AcDbEntity
  8
0
  6
ByLayer
  62
7
  370
60
  100
AcDbCircle
  10
127.06448400
  20
137.82095300
  30
0.00000000
  40
11.50000000
  100
AcDbArc
  50
180.00000000
  51
270.00000000
  0
LINE
  5
2F8
  330
E2F
  100
AcDbEntity
  8
0
  6
ByLayer
  62
7
  370
60
  100
AcDbLine
  10
118.56448400
  20
137.82095300
  30
0.00000000
  11
118.56448400
  21
168.70294200
  31
0.00000000
  0
LINE
  5
2F9
  330
E2F
  100
AcDbEntity
  8
0
  6
ByLayer
  62
7
  370
60
  100
AcDbLine
  10
118.56448400
  20
171.70294200
  30
0.00000000
  11
118.56448400
  21
211.08593800
  31
0.00000000
  0
LINE
  5
2FA
  330
E2F
  100
AcDbEntity
  8
0
  6
ByLayer
  62
7
  370
60
  100
AcDbLine
  10
118.56448400
  20
214.08593800
  30
0.00000000
  11
118.56448400
  21
253.46893300
  31
0.00000000
  0
LINE
  5
2FB
  330
E2F
  100
AcDbEntity
  8
0
  6
ByLayer
  62
7
  370
60
  100
AcDbLine
  10
118.56448400
  20
256.46893300
  30
0.00000000
  11
118.56448400
  21
295.85192900
  31
0.00000000
  0
LINE
  5
2FC
  330
E2F
  100
AcDbEntity
  8
0
  6
ByLayer
  62
7
  370
60
  100
AcDbLine
  10
118.56448400
  20
298.85192900
  30
0.00000000
  11
118.56448400
  21
338.23495500
  31
0.00000000
  0
LINE
  5
2FD
  330
E2F
  100
AcDbEntity
  8
0
  6
ByLayer
  62
7
  370
60
  100
AcDbLine
  10
118.56448400
  20
341.23495500
  30
0.00000000
  11
118.56448400
  21
380.61795000
  31
0.00000000
  0
LINE
  5
2FE
  330
E2F
  100
AcDbEntity
  8
0
  6
ByLayer
  62
7
  370
60
  100
AcDbLine
  10
118.56448400
  20
383.61795000
  30
0.00000000
  11
118.56448400
  21
423.00094600
  31
0.00000000
  0
LINE
  5
2FF
  330
E2F
  100
AcDbEntity
  8
0
  6
ByLayer
  62
7
  370
60
  100
AcDbLine
  10
118.56448400
  20
426.00094600
  30
0.00000000
  11
118.56448400
  21
465.38394200
  31
0.00000000
  0
LINE
  5
300
  330
E2F
  100
AcDbEntity
  8
0
  6
ByLayer
  62
7
  370
60
  100
AcDbLine
  10
118.56448400
  20
468.38394200
  30
0.00000000
  11
118.56448400
  21
499.26693700
  31
0.00000000
  0
LINE
  5
301
  330
E2F
  100
AcDbEntity
  8
0
  6
ByLayer
  62
7
  370
60
  100
AcDbLine
  10
115.56448400
  20
137.82095300
  30
0.00000000
  11
115.56448400
  21
168.70294200
  31
0.00000000
  0
LINE
  5
302
  330
E2F
  100
AcDbEntity
  8
0
  6
ByLayer
  62
7
  370
60
  100
AcDbLine
  10
115.56448400
  20
171.70294200
  30
0.00000000
  11
115.56448400
  21
211.08593800
  31
0.00000000
  0
LINE
  5
303
  330
E2F
  100
AcDbEntity
  8
0
  6
ByLayer
  62
7
  370
60
  100
AcDbLine
  10
115.56448400
  20
214.08593800
  30
0.00000000
  11
115.56448400
  21
253.46893300
  31
0.00000000
  0
LINE
  5
304
  330
E2F
  100
AcDbEntity
  8
0
  6
ByLayer
  62
7
  370
60
  100
AcDbLine
  10
115.56448400
  20
256.46893300
  30
0.00000000
  11
115.56448400
  21
295.85192900
  31
0.00000000
  0
LINE
  5
305
  330
E2F
  100
AcDbEntity
  8
0
  6
ByLayer
  62
7
  370
60
  100
AcDbLine
  10
115.56448400
  20
298.85192900
  30
0.00000000
  11
115.56448400
  21
338.23495500
  31
0.00000000
  0
LINE
  5
306
  330
E2F
  100
AcDbEntity
  8
0
  6
ByLayer
  62
7
  370
60
  100
AcDbLine
  10
115.56448400
  20
341.23495500
  30
0.00000000
  11
115.56448400
  21
380.61795000
  31
0.00000000
  0
LINE
  5
307
  330
E2F
  100
AcDbEntity
  8
0
  6
ByLayer
  62
7
  370
60
  100
AcDbLine
  10
115.56448400
  20
383.61795000
  30
0.00000000
  11
115.56448400
  21
423.00094600
  31
0.00000000
  0
LINE
  5
308
  330
E2F
  100
AcDbEntity
  8
0
  6
ByLayer
  62
7
  370
60
  100
AcDbLine
  10
115.56448400
  20
426.00094600
  30
0.00000000
  11
115.56448400
  21
465.38394200
  31
0.00000000
  0
LINE
  5
309
  330
E2F
  100
AcDbEntity
  8
0
  6
ByLayer
  62
7
  370
60
  100
AcDbLine
  10
115.56448400
  20
468.38394200
  30
0.00000000
  11
115.56448400
  21
499.26693700
  31
0.00000000
  0
ARC
  5
30A
  330
E2F
  100
AcDbEntity
  8
0
  6
ByLayer
  62
7
  370
60
  100
AcDbCircle
  10
127.06448400
  20
499.26693700
  30
0.00000000
  40
8.50000000
  100
AcDbArc
  50
90.00000000
  51
180.00000000
  0
ARC
  5
30B
  330
E2F
  100
AcDbEntity
  8
0
  6
ByLayer
  62
7
  370
60
  100
AcDbCircle
  10
127.06448400
  20
499.26693700
  30
0.00000000
  40
11.50000000
  100
AcDbArc
  50
90.00000000
  51
180.00000000
  0
LINE
  5
30C
  330
E2F
  100
AcDbEntity
  8
0
  6
ByLayer
  62
7
  370
60
  100
AcDbLine
  10
127.06448400
  20
507.76693700
  30
0.00000000
  11
158.28686500
  21
507.76693700
  31
0.00000000
  0
LINE
  5
30D
  330
E2F
  100
AcDbEntity
  8
0
  6
ByLayer
  62
7
  370
60
  100
AcDbLine
  10
161.28686500
  20
507.76693700
  30
0.00000000
  11
201.00906400
  21
507.76693700
  31
0.00000000
  0
LINE
  5
30E
  330
E2F
  100
AcDbEntity
  8
0
  6
ByLayer
  62
7
  370
60
  100
AcDbLine
  10
204.00906400
  20
507.76693700
  30
0.00000000
  11
243.73126200
  21
507.76693700
  31
0.00000000
  0
LINE
  5
30F
  330
E2F
  100
AcDbEntity
  8
0
  6
ByLayer
  62
7
  370
60
  100
AcDbLine
  10
246.73126200
  20
507.76693700
  30
0.00000000
  11
286.45346100
  21
507.76693700
  31
0.00000000
  0
LINE
  5
310
  330
E2F
  100
AcDbEntity
  8
0
  6
ByLayer
  62
7
  370
60
  100
AcDbLine
  10
289.45346100
  20
507.76693700
  30
0.00000000
  11
329.17565900
  21
507.76693700
  31
0.00000000
  0
LINE
  5
311
  330
E2F
  100
AcDbEntity
  8
0
  6
ByLayer
  62
7
  370
60
  100
AcDbLine
  10
332.17565900
  20
507.76693700
  30
0.00000000
  11
371.89785800
  21
507.76693700
  31
0.00000000
  0
LINE
  5
312
  330
E2F
  100
AcDbEntity
  8
0
  6
ByLayer
  62
7
  370
60
  100
AcDbLine
  10
374.89785800
  20
507.76693700
  30
0.00000000
  11
414.62005600
  21
507.76693700
  31
0.00000000
  0
LINE
  5
313
  330
E2F
  100
AcDbEntity
  8
0
  6
ByLayer
  62
7
  370
60
  100
AcDbLine
  10
417.62005600
  20
507.76693700
  30
0.00000000
  11
457.34225500
  21
507.76693700
  31
0.00000000
  0
LINE
  5
314
  330
E2F
  100
AcDbEntity
  8
0
  6
ByLayer
  62
7
  370
60
  100
AcDbLine
  10
460.34225500
  20
507.76693700
  30
0.00000000
  11
491.56448400
  21
507.76693700
  31
0.00000000
  0
LINE
  5
315
  330
E2F
  100
AcDbEntity
  8
0
  6
ByLayer
  62
7
  370
60
  100
AcDbLine
  10
127.06448400
  20
510.76693700
  30
0.00000000
  11
491.56448400
  21
510.76693700
  31
0.00000000
  0
ARC
  5
316
  330
E2F
  100
AcDbEntity
  8
0
  6
ByLayer
  62
7
  370
60
  100
AcDbCircle
  10
491.56448400
  20
499.26693700
  30
0.00000000
  40
8.50000000
  100
AcDbArc
  50
0.00000000
  51
90.00000000
  0
ARC
  5
317
  330
E2F
  100
AcDbEntity
  8
0
  6
ByLayer
  62
7
  370
60
  100
AcDbCircle
  10
491.56448400
  20
499.26693700
  30
0.00000000
  40
11.50000000
  100
AcDbArc
  50
0.00000000
  51
90.00000000
  0
LINE
  5
318
  330
E2F
  100
AcDbEntity
  8
0
  6
ByLayer
  62
7
  370
60
  100
AcDbLine
  10
500.06448400
  20
137.82095300
  30
0.00000000
  11
500.06448400
  21
168.70294200
  31
0.00000000
  0
LINE
  5
319
  330
E2F
  100
AcDbEntity
  8
0
  6
ByLayer
  62
7
  370
60
  100
AcDbLine
  10
500.06448400
  20
171.70294200
  30
0.00000000
  11
500.06448400
  21
211.08593800
  31
0.00000000
  0
LINE
  5
31A
  330
E2F
  100
AcDbEntity
  8
0
  6
ByLayer
  62
7
  370
60
  100
AcDbLine
  10
500.06448400
  20
214.08593800
  30
0.00000000
  11
500.06448400
  21
253.46893300
  31
0.00000000
  0
LINE
  5
31B
  330
E2F
  100
AcDbEntity
  8
0
  6
ByLayer
  62
7
  370
60
  100
AcDbLine
  10
500.06448400
  20
256.46893300
  30
0.00000000
  11
500.06448400
  21
295.85192900
  31
0.00000000
  0
LINE
  5
31C
  330
E2F
  100
AcDbEntity
  8
0
  6
ByLayer
  62
7
  370
60
  100
AcDbLine
  10
500.06448400
  20
298.85192900
  30
0.00000000
  11
500.06448400
  21
338.23495500
  31
0.00000000
  0
LINE
  5
31D
  330
E2F
  100
AcDbEntity
  8
0
  6
ByLayer
  62
7
  370
60
  100
AcDbLine
  10
500.06448400
  20
341.23495500
  30
0.00000000
  11
500.06448400
  21
380.61795000
  31
0.00000000
  0
LINE
  5
31E
  330
E2F
  100
AcDbEntity
  8
0
  6
ByLayer
  62
7
  370
60
  100
AcDbLine
  10
500.06448400
  20
383.61795000
  30
0.00000000
  11
500.06448400
  21
423.00094600
  31
0.00000000
  0
LINE
  5
31F
  330
E2F
  100
AcDbEntity
  8
0
  6
ByLayer
  62
7
  370
60
  100
AcDbLine
  10
500.06448400
  20
426.00094600
  30
0.00000000
  11
500.06448400
  21
465.38394200
  31
0.00000000
  0
LINE
  5
320
  330
E2F
  100
AcDbEntity
  8
0
  6
ByLayer
  62
7
  370
60
  100
AcDbLine
  10
500.06448400
  20
468.38394200
  30
0.00000000
  11
500.06448400
  21
499.26693700
  31
0.00000000
  0
LINE
  5
321
  330
E2F
  100
AcDbEntity
  8
0
  6
ByLayer
  62
7
  370
60
  100
AcDbLine
  10
503.06448400
  20
137.82095300
  30
0.00000000
  11
503.06448400
  21
499.26693700
  31
0.00000000
  0
ARC
  5
322
  330
E2F
  100
AcDbEntity
  8
0
  6
ByLayer
  62
7
  370
60
  100
AcDbCircle
  10
491.56448400
  20
137.82095300
  30
0.00000000
  40
8.50000000
  100
AcDbArc
  50
270.00000000
  51
0.00000000
  0
ARC
  5
323
  330
E2F
  100
AcDbEntity
  8
0
  6
ByLayer
  62
7
  370
60
  100
AcDbCircle
  10
491.56448400
  20
137.82095300
  30
0.00000000
  40
11.50000000
  100
AcDbArc
  50
270.00000000
  51
0.00000000
  0
LINE
  5
324
  330
E2F
  100
AcDbEntity
  8
0
  6
ByLayer
  62
7
  370
60
  100
AcDbLine
  10
127.06448400
  20
129.32095300
  30
0.00000000
  11
158.28686500
  21
129.32095300
  31
0.00000000
  0
LINE
  5
325
  330
E2F
  100
AcDbEntity
  8
0
  6
ByLayer
  62
7
  370
60
  100
AcDbLine
  10
161.28686500
  20
129.32095300
  30
0.00000000
  11
201.00906400
  21
129.32095300
  31
0.00000000
  0
LINE
  5
326
  330
E2F
  100
AcDbEntity
  8
0
  6
ByLayer
  62
7
  370
60
  100
AcDbLine
  10
204.00906400
  20
129.32095300
  30
0.00000000
  11
243.73126200
  21
129.32095300
  31
0.00000000
  0
LINE
  5
327
  330
E2F
  100
AcDbEntity
  8
0
  6
ByLayer
  62
7
  370
60
  100
AcDbLine
  10
246.73126200
  20
129.32095300
  30
0.00000000
  11
286.45346100
  21
129.32095300
  31
0.00000000
  0
LINE
  5
328
  330
E2F
  100
AcDbEntity
  8
0
  6
ByLayer
  62
7
  370
60
  100
AcDbLine
  10
289.45346100
  20
129.32095300
  30
0.00000000
  11
329.17565900
  21
129.32095300
  31
0.00000000
  0
LINE
  5
329
  330
E2F
  100
AcDbEntity
  8
0
  6
ByLayer
  62
7
  370
60
  100
AcDbLine
  10
332.17565900
  20
129.32095300
  30
0.00000000
  11
371.89785800
  21
129.32095300
  31
0.00000000
  0
LINE
  5
32A
  330
E2F
  100
AcDbEntity
  8
0
  6
ByLayer
  62
7
  370
60
  100
AcDbLine
  10
374.89785800
  20
129.32095300
  30
0.00000000
  11
414.62005600
  21
129.32095300
  31
0.00000000
  0
LINE
  5
32B
  330
E2F
  100
AcDbEntity
  8
0
  6
ByLayer
  62
7
  370
60
  100
AcDbLine
  10
417.62005600
  20
129.32095300
  30
0.00000000
  11
457.34225500
  21
129.32095300
  31
0.00000000
  0
LINE
  5
32C
  330
E2F
  100
AcDbEntity
  8
0
  6
ByLayer
  62
7
  370
60
  100
AcDbLine
  10
460.34225500
  20
129.32095300
  30
0.00000000
  11
491.56448400
  21
129.32095300
  31
0.00000000
  0
LINE
  5
32D
  330
E2F
  100
AcDbEntity
  8
0
  6
ByLayer
  62
7
  370
60
  100
AcDbLine
  10
127.06448400
  20
126.32095300
  30
0.00000000
  11
158.28686500
  21
126.32095300
  31
0.00000000
  0
LINE
  5
32E
  330
E2F
  100
AcDbEntity
  8
0
  6
ByLayer
  62
7
  370
60
  100
AcDbLine
  10
161.28686500
  20
126.32095300
  30
0.00000000
  11
201.00906400
  21
126.32095300
  31
0.00000000
  0
LINE
  5
32F
  330
E2F
  100
AcDbEntity
  8
0
  6
ByLayer
  62
7
  370
60
  100
AcDbLine
  10
204.00906400
  20
126.32095300
  30
0.00000000
  11
243.73126200
  21
126.32095300
  31
0.00000000
  0
LINE
  5
330
  330
E2F
  100
AcDbEntity
  8
0
  6
ByLayer
  62
7
  370
60
  100
AcDbLine
  10
246.73126200
  20
126.32095300
  30
0.00000000
  11
286.45346100
  21
126.32095300
  31
0.00000000
  0
LINE
  5
331
  330
E2F
  100
AcDbEntity
  8
0
  6
ByLayer
  62
7
  370
60
  100
AcDbLine
  10
289.45346100
  20
126.32095300
  30
0.00000000
  11
329.17565900
  21
126.32095300
  31
0.00000000
  0
LINE
  5
332
  330
E2F
  100
AcDbEntity
  8
0
  6
ByLayer
  62
7
  370
60
  100
AcDbLine
  10
332.17565900
  20
126.32095300
  30
0.00000000
  11
371.89785800
  21
126.32095300
  31
0.00000000
  0
LINE
  5
333
  330
E2F
  100
AcDbEntity
  8
0
  6
ByLayer
  62
7
  370
60
  100
AcDbLine
  10
374.89785800
  20
126.32095300
  30
0.00000000
  11
414.62005600
  21
126.32095300
  31
0.00000000
  0
LINE
  5
334
  330
E2F
  100
AcDbEntity
  8
0
  6
ByLayer
  62
7
  370
60
  100
AcDbLine
  10
417.62005600
  20
126.32095300
  30
0.00000000
  11
457.34225500
  21
126.32095300
  31
0.00000000
  0
LINE
  5
335
  330
E2F
  100
AcDbEntity
  8
0
  6
ByLayer
  62
7
  370
60
  100
AcDbLine
  10
460.34225500
  20
126.32095300
  30
0.00000000
  11
491.56448400
  21
126.32095300
  31
0.00000000
  0
LINE
  5
336
  330
E2F
  100
AcDbEntity
  8
0
  6
ByLayer
  62
7
  370
60
  48
0.15863300
  100
AcDbLine
  10
417.62005600
  20
510.76693700
  30
0.00000000
  11
417.62005600
  21
504.42163100
  31
0.00000000
  0
LINE
  5
337
  330
E2F
  100
AcDbEntity
  8
0
  6
ByLayer
  62
7
  370
60
  48
0.07500000
  100
AcDbLine
  10
414.62005600
  20
510.76693700
  30
0.00000000
  11
417.62005600
  21
510.76693700
  31
0.00000000
  0
LINE
  5
338
  330
E2F
  100
AcDbEntity
  8
0
  6
ByLayer
  62
7
  370
60
  48
0.15863300
  100
AcDbLine
  10
414.62005600
  20
510.76693700
  30
0.00000000
  11
414.62005600
  21
504.42163100
  31
0.00000000
  0
LINE
  5
33A
  330
E2F
  100
AcDbEntity
  8
0
  6
ByLayer
  62
7
  370
60
  48
0.04330100
  100
AcDbLine
  10
417.62005600
  20
504.42163100
  30
0.00000000
  11
417.62005600
  21
502.68957500
  31
0.00000000
  0
LINE
  5
33B
  330
E2F
  100
AcDbEntity
  8
0
  6
ByLayer
  62
7
  370
60
  48
0.04330100
  100
AcDbLine
  10
414.62005600
  20
504.42163100
  30
0.00000000
  11
414.62005600
  21
502.68957500
  31
0.00000000
  0
LINE
  5
355
  330
E2F
  100
AcDbEntity
  8
0
  6
ByLayer
  62
7
  370
60
  48
0.22083600
  100
AcDbLine
  10
417.62005600
  20
502.68957500
  30
0.00000000
  11
417.62005600
  21
493.85614000
  31
0.00000000
  0
LINE
  5
356
  330
E2F
  100
AcDbEntity
  8
0
  6
ByLayer
  62
7
  370
60
  48
0.22083600
  100
AcDbLine
  10
414.62005600
  20
502.68957500
  30
0.00000000
  11
414.62005600
  21
493.85614000
  31
0.00000000
  0
LINE
  5
370
  330
E2F
  100
AcDbEntity
  8
0
  6
ByLayer
  62
7
  370
60
  48
0.04330100
  100
AcDbLine
  10
417.62005600
  20
493.85614000
  30
0.00000000
  11
417.62005600
  21
492.12408400
  31
0.00000000
  0
LINE
  5
372
  330
E2F
  100
AcDbEntity
  8
0
  6
ByLayer
  62
7
  370
60
  48
0.04330100
  100
AcDbLine
  10
414.62005600
  20
493.85614000
  30
0.00000000
  11
414.62005600
  21
492.12408400
  31
0.00000000
  0
LINE
  5
373
  330
E2F
  100
AcDbEntity
  8
0
  6
ByLayer
  62
7
  370
60
  100
AcDbLine
  10
417.62005600
  20
492.12408400
  30
0.00000000
  11
417.62005600
  21
144.96382100
  31
0.00000000
  0
LINE
  5
374
  330
E2F
  100
AcDbEntity
  8
0
  6
ByLayer
  62
7
  370
60
  100
AcDbLine
  10
414.62005600
  20
492.12408400
  30
0.00000000
  11
414.62005600
  21
144.96382100
  31
0.00000000
  0
LINE
  5
376
  330
E2F
  100
AcDbEntity
  8
0
  6
ByLayer
  62
7
  370
60
  48
0.04330100
  100
AcDbLine
  10
417.62005600
  20
144.96382100
  30
0.00000000
  11
417.62005600
  21
143.23176600
  31
0.00000000
  0
LINE
  5
390
  330
E2F
  100
AcDbEntity
  8
0
  6
ByLayer
  62
7
  370
60
  48
0.04330100
  100
AcDbLine
  10
414.62005600
  20
144.96382100
  30
0.00000000
  11
414.62005600
  21
143.23176600
  31
0.00000000
  0
LINE
  5
391
  330
E2F
  100
AcDbEntity
  8
0
  6
ByLayer
  62
7
  370
60
  48
0.22083700
  100
AcDbLine
  10
417.62005600
  20
134.39830000
  30
0.00000000
  11
417.62005600
  21
143.23176600
  31
0.00000000
  0
LINE
  5
3AB
  330
E2F
  100
AcDbEntity
  8
0
  6
ByLayer
  62
7
  370
60
  48
0.22083700
  100
AcDbLine
  10
414.62005600
  20
134.39830000
  30
0.00000000
  11
414.62005600
  21
143.23176600
  31
0.00000000
  0
LINE
  5
3AC
  330
E2F
  100
AcDbEntity
  8
0
  6
ByLayer
  62
7
  370
60
  48
0.04330100
  100
AcDbLine
  10
417.62005600
  20
134.39830000
  30
0.00000000
  11
417.62005600
  21
132.66626000
  31
0.00000000
  0
LINE
  5
3AD
  330
E2F
  100
AcDbEntity
  8
0
  6
ByLayer
  62
7
  370
60
  48
0.04330100
  100
AcDbLine
  10
414.62005600
  20
134.39830000
  30
0.00000000
  11
414.62005600
  21
132.66626000
  31
0.00000000
  0
LINE
  5
3AF
  330
E2F
  100
AcDbEntity
  8
0
  6
ByLayer
  62
7
  370
60
  48
0.15863300
  100
AcDbLine
  10
417.62005600
  20
126.32095300
  30
0.00000000
  11
417.62005600
  21
132.66626000
  31
0.00000000
  0
LINE
  5
3B0
  330
E2F
  100
AcDbEntity
  8
0
  6
ByLayer
  62
7
  370
60
  48
0.07500000
  100
AcDbLine
  10
414.62005600
  20
126.32095300
  30
0.00000000
  11
417.62005600
  21
126.32095300
  31
0.00000000
  0
LINE
  5
3B1
  330
E2F
  100
AcDbEntity
  8
0
  6
ByLayer
  62
7
  370
60
  48
0.15863300
  100
AcDbLine
  10
414.62005600
  20
126.32095300
  30
0.00000000
  11
414.62005600
  21
132.66626000
  31
0.00000000
  0
LINE
  5
3B2
  330
E2F
  100
AcDbEntity
  8
0
  6
ByLayer
  62
7
  370
60
  48
0.15863300
  100
AcDbLine
  10
374.89785800
  20
510.76693700
  30
0.00000000
  11
374.89785800
  21
504.42163100
  31
0.00000000
  0
LINE
  5
3B3
  330
E2F
  100
AcDbEntity
  8
0
  6
ByLayer
  62
7
  370
60
  48
0.07500000
  100
AcDbLine
  10
371.89785800
  20
510.76693700
  30
0.00000000
  11
374.89785800
  21
510.76693700
  31
0.00000000
  0
LINE
  5
3B4
  330
E2F
  100
AcDbEntity
  8
0
  6
ByLayer
  62
7
  370
60
  48
0.15863300
  100
AcDbLine
  10
371.89785800
  20
510.76693700
  30
0.00000000
  11
371.89785800
  21
504.42163100
  31
0.00000000
  0
LINE
  5
3B6
  330
E2F
  100
AcDbEntity
  8
0
  6
ByLayer
  62
7
  370
60
  48
0.04330100
  100
AcDbLine
  10
374.89785800
  20
504.42163100
  30
0.00000000
  11
374.89785800
  21
502.68957500
  31
0.00000000
  0
LINE
  5
3B7
  330
E2F
  100
AcDbEntity
  8
0
  6
ByLayer
  62
7
  370
60
  48
0.04330100
  100
AcDbLine
  10
371.89785800
  20
504.42163100
  30
0.00000000
  11
371.89785800
  21
502.68957500
  31
0.00000000
  0
LINE
  5
3D1
  330
E2F
  100
AcDbEntity
  8
0
  6
ByLayer
  62
7
  370
60
  48
0.22083600
  100
AcDbLine
  10
374.89785800
  20
502.68957500
  30
0.00000000
  11
374.89785800
  21
493.85614000
  31
0.00000000
  0
LINE
  5
3D2
  330
E2F
  100
AcDbEntity
  8
0
  6
ByLayer
  62
7
  370
60
  48
0.22083600
  100
AcDbLine
  10
371.89785800
  20
502.68957500
  30
0.00000000
  11
371.89785800
  21
493.85614000
  31
0.00000000
  0
LINE
  5
3EC
  330
E2F
  100
AcDbEntity
  8
0
  6
ByLayer
  62
7
  370
60
  48
0.04330100
  100
AcDbLine
  10
374.89785800
  20
493.85614000
  30
0.00000000
  11
374.89785800
  21
492.12408400
  31
0.00000000
  0
LINE
  5
3EE
  330
E2F
  100
AcDbEntity
  8
0
  6
ByLayer
  62
7
  370
60
  48
0.04330100
  100
AcDbLine
  10
371.89785800
  20
493.85614000
  30
0.00000000
  11
371.89785800
  21
492.12408400
  31
0.00000000
  0
LINE
  5
3EF
  330
E2F
  100
AcDbEntity
  8
0
  6
ByLayer
  62
7
  370
60
  100
AcDbLine
  10
374.89785800
  20
492.12408400
  30
0.00000000
  11
374.89785800
  21
144.96382100
  31
0.00000000
  0
LINE
  5
3F0
  330
E2F
  100
AcDbEntity
  8
0
  6
ByLayer
  62
7
  370
60
  100
AcDbLine
  10
371.89785800
  20
492.12408400
  30
0.00000000
  11
371.89785800
  21
144.96382100
  31
0.00000000
  0
LINE
  5
3F2
  330
E2F
  100
AcDbEntity
  8
0
  6
ByLayer
  62
7
  370
60
  48
0.04330100
  100
AcDbLine
  10
374.89785800
  20
144.96382100
  30
0.00000000
  11
374.89785800
  21
143.23176600
  31
0.00000000
  0
LINE
  5
40C
  330
E2F
  100
AcDbEntity
  8
0
  6
ByLayer
  62
7
  370
60
  48
0.04330100
  100
AcDbLine
  10
371.89785800
  20
144.96382100
  30
0.00000000
  11
371.89785800
  21
143.23176600
  31
0.00000000
  0
LINE
  5
40D
  330
E2F
  100
AcDbEntity
  8
0
  6
ByLayer
  62
7
  370
60
  48
0.22083700
  100
AcDbLine
  10
374.89785800
  20
134.39830000
  30
0.00000000
  11
374.89785800
  21
143.23176600
  31
0.00000000
  0
LINE
  5
427
  330
E2F
  100
AcDbEntity
  8
0
  6
ByLayer
  62
7
  370
60
  48
0.22083700
  100
AcDbLine
  10
371.89785800
  20
134.39830000
  30
0.00000000
  11
371.89785800
  21
143.23176600
  31
0.00000000
  0
LINE
  5
428
  330
E2F
  100
AcDbEntity
  8
0
  6
ByLayer
  62
7
  370
60
  48
0.04330100
  100
AcDbLine
  10
374.89785800
  20
134.39830000
  30
0.00000000
  11
374.89785800
  21
132.66626000
  31
0.00000000
  0
LINE
  5
429
  330
E2F
  100
AcDbEntity
  8
0
  6
ByLayer
  62
7
  370
60
  48
0.04330100
  100
AcDbLine
  10
371.89785800
  20
134.39830000
  30
0.00000000
  11
371.89785800
  21
132.66626000
  31
0.00000000
  0
LINE
  5
42B
  330
E2F
  100
AcDbEntity
  8
0
  6
ByLayer
  62
7
  370
60
  48
0.15863300
  100
AcDbLine
  10
374.89785800
  20
126.32095300
  30
0.00000000
  11
374.89785800
  21
132.66626000
  31
0.00000000
  0
LINE
  5
42C
  330
E2F
  100
AcDbEntity
  8
0
  6
ByLayer
  62
7
  370
60
  48
0.07500000
  100
AcDbLine
  10
371.89785800
  20
126.32095300
  30
0.00000000
  11
374.89785800
  21
126.32095300
  31
0.00000000
  0
LINE
  5
42D
  330
E2F
  100
AcDbEntity
  8
0
  6
ByLayer
  62
7
  370
60
  48
0.15863300
  100
AcDbLine
  10
371.89785800
  20
126.32095300
  30
0.00000000
  11
371.89785800
  21
132.66626000
  31
0.00000000
  0
LINE
  5
42E
  330
E2F
  100
AcDbEntity
  8
0
  6
ByLayer
  62
7
  370
60
  48
0.15863300
  100
AcDbLine
  10
332.17565900
  20
510.76693700
  30
0.00000000
  11
332.17565900
  21
504.42163100
  31
0.00000000
  0
LINE
  5
42F
  330
E2F
  100
AcDbEntity
  8
0
  6
ByLayer
  62
7
  370
60
  48
0.07500000
  100
AcDbLine
  10
329.17565900
  20
510.76693700
  30
0.00000000
  11
332.17565900
  21
510.76693700
  31
0.00000000
  0
LINE
  5
430
  330
E2F
  100
AcDbEntity
  8
0
  6
ByLayer
  62
7
  370
60
  48
0.15863300
  100
AcDbLine
  10
329.17565900
  20
510.76693700
  30
0.00000000
  11
329.17565900
  21
504.42163100
  31
0.00000000
  0
LINE
  5
432
  330
E2F
  100
AcDbEntity
  8
0
  6
ByLayer
  62
7
  370
60
  48
0.04330100
  100
AcDbLine
  10
332.17565900
  20
504.42163100
  30
0.00000000
  11
332.17565900
  21
502.68957500
  31
0.00000000
  0
LINE
  5
433
  330
E2F
  100
AcDbEntity
  8
0
  6
ByLayer
  62
7
  370
60
  48
0.04330100
  100
AcDbLine
  10
329.17565900
  20
504.42163100
  30
0.00000000
  11
329.17565900
  21
502.68957500
  31
0.00000000
  0
LINE
  5
44D
  330
E2F
  100
AcDbEntity
  8
0
  6
ByLayer
  62
7
  370
60
  48
0.22083600
  100
AcDbLine
  10
332.17565900
  20
502.68957500
  30
0.00000000
  11
332.17565900
  21
493.85614000
  31
0.00000000
  0
LINE
  5
44E
  330
E2F
  100
AcDbEntity
  8
0
  6
ByLayer
  62
7
  370
60
  48
0.22083600
  100
AcDbLine
  10
329.17565900
  20
502.68957500
  30
0.00000000
  11
329.17565900
  21
493.85614000
  31
0.00000000
  0
LINE
  5
468
  330
E2F
  100
AcDbEntity
  8
0
  6
ByLayer
  62
7
  370
60
  48
0.04330100
  100
AcDbLine
  10
332.17565900
  20
493.85614000
  30
0.00000000
  11
332.17565900
  21
492.12408400
  31
0.00000000
  0
LINE
  5
46A
  330
E2F
  100
AcDbEntity
  8
0
  6
ByLayer
  62
7
  370
60
  48
0.04330100
  100
AcDbLine
  10
329.17565900
  20
493.85614000
  30
0.00000000
  11
329.17565900
  21
492.12408400
  31
0.00000000
  0
LINE
  5
46B
  330
E2F
  100
AcDbEntity
  8
0
  6
ByLayer
  62
7
  370
60
  100
AcDbLine
  10
332.17565900
  20
492.12408400
  30
0.00000000
  11
332.17565900
  21
144.96382100
  31
0.00000000
  0
LINE
  5
46C
  330
E2F
  100
AcDbEntity
  8
0
  6
ByLayer
  62
7
  370
60
  100
AcDbLine
  10
329.17565900
  20
492.12408400
  30
0.00000000
  11
329.17565900
  21
144.96382100
  31
0.00000000
  0
LINE
  5
46E
  330
E2F
  100
AcDbEntity
  8
0
  6
ByLayer
  62
7
  370
60
  48
0.04330100
  100
AcDbLine
  10
332.17565900
  20
144.96382100
  30
0.00000000
  11
332.17565900
  21
143.23176600
  31
0.00000000
  0
LINE
  5
488
  330
E2F
  100
AcDbEntity
  8
0
  6
ByLayer
  62
7
  370
60
  48
0.04330100
  100
AcDbLine
  10
329.17565900
  20
144.96382100
  30
0.00000000
  11
329.17565900
  21
143.23176600
  31
0.00000000
  0
LINE
  5
489
  330
E2F
  100
AcDbEntity
  8
0
  6
ByLayer
  62
7
  370
60
  48
0.22083700
  100
AcDbLine
  10
332.17565900
  20
134.39830000
  30
0.00000000
  11
332.17565900
  21
143.23176600
  31
0.00000000
  0
LINE
  5
4A3
  330
E2F
  100
AcDbEntity
  8
0
  6
ByLayer
  62
7
  370
60
  48
0.22083700
  100
AcDbLine
  10
329.17565900
  20
134.39830000
  30
0.00000000
  11
329.17565900
  21
143.23176600
  31
0.00000000
  0
LINE
  5
4A4
  330
E2F
  100
AcDbEntity
  8
0
  6
ByLayer
  62
7
  370
60
  48
0.04330100
  100
AcDbLine
  10
332.17565900
  20
134.39830000
  30
0.00000000
  11
332.17565900
  21
132.66626000
  31
0.00000000
  0
LINE
  5
4A5
  330
E2F
  100
AcDbEntity
  8
0
  6
ByLayer
  62
7
  370
60
  48
0.04330100
  100
AcDbLine
  10
329.17565900
  20
134.39830000
  30
0.00000000
  11
329.17565900
  21
132.66626000
  31
0.00000000
  0
LINE
  5
4A7
  330
E2F
  100
AcDbEntity
  8
0
  6
ByLayer
  62
7
  370
60
  48
0.15863300
  100
AcDbLine
  10
332.17565900
  20
126.32095300
  30
0.00000000
  11
332.17565900
  21
132.66626000
  31
0.00000000
  0
LINE
  5
4A8
  330
E2F
  100
AcDbEntity
  8
0
  6
ByLayer
  62
7
  370
60
  48
0.07500000
  100
AcDbLine
  10
329.17565900
  20
126.32095300
  30
0.00000000
  11
332.17565900
  21
126.32095300
  31
0.00000000
  0
LINE
  5
4A9
  330
E2F
  100
AcDbEntity
  8
0
  6
ByLayer
  62
7
  370
60
  48
0.15863300
  100
AcDbLine
  10
329.17565900
  20
126.32095300
  30
0.00000000
  11
329.17565900
  21
132.66626000
  31
0.00000000
  0
LINE
  5
4AA
  330
E2F
  100
AcDbEntity
  8
0
  6
ByLayer
  62
7
  370
60
  48
0.15863300
  100
AcDbLine
  10
289.45346100
  20
510.76693700
  30
0.00000000
  11
289.45346100
  21
504.42163100
  31
0.00000000
  0
LINE
  5
4AB
  330
E2F
  100
AcDbEntity
  8
0
  6
ByLayer
  62
7
  370
60
  48
0.07500000
  100
AcDbLine
  10
286.45346100
  20
510.76693700
  30
0.00000000
  11
289.45346100
  21
510.76693700
  31
0.00000000
  0
LINE
  5
4AC
  330
E2F
  100
AcDbEntity
  8
0
  6
ByLayer
  62
7
  370
60
  48
0.15863300
  100
AcDbLine
  10
286.45346100
  20
510.76693700
  30
0.00000000
  11
286.45346100
  21
504.42163100
  31
0.00000000
  0
LINE
  5
4AE
  330
E2F
  100
AcDbEntity
  8
0
  6
ByLayer
  62
7
  370
60
  48
0.04330100
  100
AcDbLine
  10
289.45346100
  20
504.42163100
  30
0.00000000
  11
289.45346100
  21
502.68957500
  31
0.00000000
  0
LINE
  5
4AF
  330
E2F
  100
AcDbEntity
  8
0
  6
ByLayer
  62
7
  370
60
  48
0.04330100
  100
AcDbLine
  10
286.45346100
  20
504.42163100
  30
0.00000000
  11
286.45346100
  21
502.68957500
  31
0.00000000
  0
LINE
  5
4C9
  330
E2F
  100
AcDbEntity
  8
0
  6
ByLayer
  62
7
  370
60
  48
0.22083600
  100
AcDbLine
  10
289.45346100
  20
502.68957500
  30
0.00000000
  11
289.45346100
  21
493.85614000
  31
0.00000000
  0
LINE
  5
4CA
  330
E2F
  100
AcDbEntity
  8
0
  6
ByLayer
  62
7
  370
60
  48
0.22083600
  100
AcDbLine
  10
286.45346100
  20
502.68957500
  30
0.00000000
  11
286.45346100
  21
493.85614000
  31
0.00000000
  0
LINE
  5
4E4
  330
E2F
  100
AcDbEntity
  8
0
  6
ByLayer
  62
7
  370
60
  48
0.04330100
  100
AcDbLine
  10
289.45346100
  20
493.85614000
  30
0.00000000
  11
289.45346100
  21
492.12408400
  31
0.00000000
  0
LINE
  5
4E6
  330
E2F
  100
AcDbEntity
  8
0
  6
ByLayer
  62
7
  370
60
  48
0.04330100
  100
AcDbLine
  10
286.45346100
  20
493.85614000
  30
0.00000000
  11
286.45346100
  21
492.12408400
  31
0.00000000
  0
LINE
  5
4E7
  330
E2F
  100
AcDbEntity
  8
0
  6
ByLayer
  62
7
  370
60
  100
AcDbLine
  10
289.45346100
  20
492.12408400
  30
0.00000000
  11
289.45346100
  21
144.96382100
  31
0.00000000
  0
LINE
  5
4E8
  330
E2F
  100
AcDbEntity
  8
0
  6
ByLayer
  62
7
  370
60
  100
AcDbLine
  10
286.45346100
  20
492.12408400
  30
0.00000000
  11
286.45346100
  21
144.96382100
  31
0.00000000
  0
LINE
  5
4EA
  330
E2F
  100
AcDbEntity
  8
0
  6
ByLayer
  62
7
  370
60
  48
0.04330100
  100
AcDbLine
  10
289.45346100
  20
144.96382100
  30
0.00000000
  11
289.45346100
  21
143.23176600
  31
0.00000000
  0
LINE
  5
504
  330
E2F
  100
AcDbEntity
  8
0
  6
ByLayer
  62
7
  370
60
  48
0.04330100
  100
AcDbLine
  10
286.45346100
  20
144.96382100
  30
0.00000000
  11
286.45346100
  21
143.23176600
  31
0.00000000
  0
LINE
  5
505
  330
E2F
  100
AcDbEntity
  8
0
  6
ByLayer
  62
7
  370
60
  48
0.22083700
  100
AcDbLine
  10
289.45346100
  20
134.39830000
  30
0.00000000
  11
289.45346100
  21
143.23176600
  31
0.00000000
  0
LINE
  5
51F
  330
E2F
  100
AcDbEntity
  8
0
  6
ByLayer
  62
7
  370
60
  48
0.22083700
  100
AcDbLine
  10
286.45346100
  20
134.39830000
  30
0.00000000
  11
286.45346100
  21
143.23176600
  31
0.00000000
  0
LINE
  5
520
  330
E2F
  100
AcDbEntity
  8
0
  6
ByLayer
  62
7
  370
60
  48
0.04330100
  100
AcDbLine
  10
289.45346100
  20
134.39830000
  30
0.00000000
  11
289.45346100
  21
132.66626000
  31
0.00000000
  0
LINE
  5
521
  330
E2F
  100
AcDbEntity
  8
0
  6
ByLayer
  62
7
  370
60
  48
0.04330100
  100
AcDbLine
  10
286.45346100
  20
134.39830000
  30
0.00000000
  11
286.45346100
  21
132.66626000
  31
0.00000000
  0
LINE
  5
523
  330
E2F
  100
AcDbEntity
  8
0
  6
ByLayer
  62
7
  370
60
  48
0.15863300
  100
AcDbLine
  10
289.45346100
  20
126.32095300
  30
0.00000000
  11
289.45346100
  21
132.66626000
  31
0.00000000
  0
LINE
  5
524
  330
E2F
  100
AcDbEntity
  8
0
  6
ByLayer
  62
7
  370
60
  48
0.07500000
  100
AcDbLine
  10
286.45346100
  20
126.32095300
  30
0.00000000
  11
289.45346100
  21
126.32095300
  31
0.00000000
  0
LINE
  5
525
  330
E2F
  100
AcDbEntity
  8
0
  6
ByLayer
  62
7
  370
60
  48
0.15863300
  100
AcDbLine
  10
286.45346100
  20
126.32095300
  30
0.00000000
  11
286.45346100
  21
132.66626000
  31
0.00000000
  0
LINE
  5
526
  330
E2F
  100
AcDbEntity
  8
0
  6
ByLayer
  62
7
  370
60
  48
0.15863300
  100
AcDbLine
  10
246.73126200
  20
510.76693700
  30
0.00000000
  11
246.73126200
  21
504.42163100
  31
0.00000000
  0
LINE
  5
527
  330
E2F
  100
AcDbEntity
  8
0
  6
ByLayer
  62
7
  370
60
  48
0.07500000
  100
AcDbLine
  10
243.73126200
  20
510.76693700
  30
0.00000000
  11
246.73126200
  21
510.76693700
  31
0.00000000
  0
LINE
  5
528
  330
E2F
  100
AcDbEntity
  8
0
  6
ByLayer
  62
7
  370
60
  48
0.15863300
  100
AcDbLine
  10
243.73126200
  20
510.76693700
  30
0.00000000
  11
243.73126200
  21
504.42163100
  31
0.00000000
  0
LINE
  5
52A
  330
E2F
  100
AcDbEntity
  8
0
  6
ByLayer
  62
7
  370
60
  48
0.04330100
  100
AcDbLine
  10
246.73126200
  20
504.42163100
  30
0.00000000
  11
246.73126200
  21
502.68957500
  31
0.00000000
  0
LINE
  5
52B
  330
E2F
  100
AcDbEntity
  8
0
  6
ByLayer
  62
7
  370
60
  48
0.04330100
  100
AcDbLine
  10
243.73126200
  20
504.42163100
  30
0.00000000
  11
243.73126200
  21
502.68957500
  31
0.00000000
  0
LINE
  5
545
  330
E2F
  100
AcDbEntity
  8
0
  6
ByLayer
  62
7
  370
60
  48
0.22083600
  100
AcDbLine
  10
246.73126200
  20
502.68957500
  30
0.00000000
  11
246.73126200
  21
493.85614000
  31
0.00000000
  0
LINE
  5
546
  330
E2F
  100
AcDbEntity
  8
0
  6
ByLayer
  62
7
  370
60
  48
0.22083600
  100
AcDbLine
  10
243.73126200
  20
502.68957500
  30
0.00000000
  11
243.73126200
  21
493.85614000
  31
0.00000000
  0
LINE
  5
560
  330
E2F
  100
AcDbEntity
  8
0
  6
ByLayer
  62
7
  370
60
  48
0.04330100
  100
AcDbLine
  10
246.73126200
  20
493.85614000
  30
0.00000000
  11
246.73126200
  21
492.12408400
  31
0.00000000
  0
LINE
  5
562
  330
E2F
  100
AcDbEntity
  8
0
  6
ByLayer
  62
7
  370
60
  48
0.04330100
  100
AcDbLine
  10
243.73126200
  20
493.85614000
  30
0.00000000
  11
243.73126200
  21
492.12408400
  31
0.00000000
  0
LINE
  5
563
  330
E2F
  100
AcDbEntity
  8
0
  6
ByLayer
  62
7
  370
60
  100
AcDbLine
  10
246.73126200
  20
492.12408400
  30
0.00000000
  11
246.73126200
  21
144.96382100
  31
0.00000000
  0
LINE
  5
564
  330
E2F
  100
AcDbEntity
  8
0
  6
ByLayer
  62
7
  370
60
  100
AcDbLine
  10
243.73126200
  20
492.12408400
  30
0.00000000
  11
243.73126200
  21
144.96382100
  31
0.00000000
  0
LINE
  5
566
  330
E2F
  100
AcDbEntity
  8
0
  6
ByLayer
  62
7
  370
60
  48
0.04330100
  100
AcDbLine
  10
246.73126200
  20
144.96382100
  30
0.00000000
  11
246.73126200
  21
143.23176600
  31
0.00000000
  0
LINE
  5
580
  330
E2F
  100
AcDbEntity
  8
0
  6
ByLayer
  62
7
  370
60
  48
0.04330100
  100
AcDbLine
  10
243.73126200
  20
144.96382100
  30
0.00000000
  11
243.73126200
  21
143.23176600
  31
0.00000000
  0
LINE
  5
581
  330
E2F
  100
AcDbEntity
  8
0
  6
ByLayer
  62
7
  370
60
  48
0.22083700
  100
AcDbLine
  10
246.73126200
  20
134.39830000
  30
0.00000000
  11
246.73126200
  21
143.23176600
  31
0.00000000
  0
LINE
  5
59B
  330
E2F
  100
AcDbEntity
  8
0
  6
ByLayer
  62
7
  370
60
  48
0.22083700
  100
AcDbLine
  10
243.73126200
  20
134.39830000
  30
0.00000000
  11
243.73126200
  21
143.23176600
  31
0.00000000
  0
LINE
  5
59C
  330
E2F
  100
AcDbEntity
  8
0
  6
ByLayer
  62
7
  370
60
  48
0.04330100
  100
AcDbLine
  10
246.73126200
  20
134.39830000
  30
0.00000000
  11
246.73126200
  21
132.66626000
  31
0.00000000
  0
LINE
  5
59D
  330
E2F
  100
AcDbEntity
  8
0
  6
ByLayer
  62
7
  370
60
  48
0.04330100
  100
AcDbLine
  10
243.73126200
  20
134.39830000
  30
0.00000000
  11
243.73126200
  21
132.66626000
  31
0.00000000
  0
LINE
  5
59F
  330
E2F
  100
AcDbEntity
  8
0
  6
ByLayer
  62
7
  370
60
  48
0.15863300
  100
AcDbLine
  10
246.73126200
  20
126.32095300
  30
0.00000000
  11
246.73126200
  21
132.66626000
  31
0.00000000
  0
LINE
  5
5A0
  330
E2F
  100
AcDbEntity
  8
0
  6
ByLayer
  62
7
  370
60
  48
0.07500000
  100
AcDbLine
  10
243.73126200
  20
126.32095300
  30
0.00000000
  11
246.73126200
  21
126.32095300
  31
0.00000000
  0
LINE
  5
5A1
  330
E2F
  100
AcDbEntity
  8
0
  6
ByLayer
  62
7
  370
60
  48
0.15863300
  100
AcDbLine
  10
243.73126200
  20
126.32095300
  30
0.00000000
  11
243.73126200
  21
132.66626000
  31
0.00000000
  0
LINE
  5
5A2
  330
E2F
  100
AcDbEntity
  8
0
  6
ByLayer
  62
7
  370
60
  48
0.15863300
  100
AcDbLine
  10
204.00906400
  20
510.76693700
  30
0.00000000
  11
204.00906400
  21
504.42163100
  31
0.00000000
  0
LINE
  5
5A3
  330
E2F
  100
AcDbEntity
  8
0
  6
ByLayer
  62
7
  370
60
  48
0.07500000
  100
AcDbLine
  10
201.00906400
  20
510.76693700
  30
0.00000000
  11
204.00906400
  21
510.76693700
  31
0.00000000
  0
LINE
  5
5A4
  330
E2F
  100
AcDbEntity
  8
0
  6
ByLayer
  62
7
  370
60
  48
0.15863300
  100
AcDbLine
  10
201.00906400
  20
510.76693700
  30
0.00000000
  11
201.00906400
  21
504.42163100
  31
0.00000000
  0
LINE
  5
5A6
  330
E2F
  100
AcDbEntity
  8
0
  6
ByLayer
  62
7
  370
60
  48
0.04330100
  100
AcDbLine
  10
204.00906400
  20
504.42163100
  30
0.00000000
  11
204.00906400
  21
502.68957500
  31
0.00000000
  0
LINE
  5
5A7
  330
E2F
  100
AcDbEntity
  8
0
  6
ByLayer
  62
7
  370
60
  48
0.04330100
  100
AcDbLine
  10
201.00906400
  20
504.42163100
  30
0.00000000
  11
201.00906400
  21
502.68957500
  31
0.00000000
  0
LINE
  5
5C1
  330
E2F
  100
AcDbEntity
  8
0
  6
ByLayer
  62
7
  370
60
  48
0.22083600
  100
AcDbLine
  10
204.00906400
  20
502.68957500
  30
0.00000000
  11
204.00906400
  21
493.85614000
  31
0.00000000
  0
LINE
  5
5C2
  330
E2F
  100
AcDbEntity
  8
0
  6
ByLayer
  62
7
  370
60
  48
0.22083600
  100
AcDbLine
  10
201.00906400
  20
502.68957500
  30
0.00000000
  11
201.00906400
  21
493.85614000
  31
0.00000000
  0
LINE
  5
5DC
  330
E2F
  100
AcDbEntity
  8
0
  6
ByLayer
  62
7
  370
60
  48
0.04330100
  100
AcDbLine
  10
204.00906400
  20
493.85614000
  30
0.00000000
  11
204.00906400
  21
492.12408400
  31
0.00000000
  0
LINE
  5
5DE
  330
E2F
  100
AcDbEntity
  8
0
  6
ByLayer
  62
7
  370
60
  48
0.04330100
  100
AcDbLine
  10
201.00906400
  20
493.85614000
  30
0.00000000
  11
201.00906400
  21
492.12408400
  31
0.00000000
  0
LINE
  5
5DF
  330
E2F
  100
AcDbEntity
  8
0
  6
ByLayer
  62
7
  370
60
  100
AcDbLine
  10
204.00906400
  20
492.12408400
  30
0.00000000
  11
204.00906400
  21
144.96382100
  31
0.00000000
  0
LINE
  5
5E0
  330
E2F
  100
AcDbEntity
  8
0
  6
ByLayer
  62
7
  370
60
  100
AcDbLine
  10
201.00906400
  20
492.12408400
  30
0.00000000
  11
201.00906400
  21
144.96382100
  31
0.00000000
  0
LINE
  5
5E2
  330
E2F
  100
AcDbEntity
  8
0
  6
ByLayer
  62
7
  370
60
  48
0.04330100
  100
AcDbLine
  10
204.00906400
  20
144.96382100
  30
0.00000000
  11
204.00906400
  21
143.23176600
  31
0.00000000
  0
LINE
  5
5FC
  330
E2F
  100
AcDbEntity
  8
0
  6
ByLayer
  62
7
  370
60
  48
0.04330100
  100
AcDbLine
  10
201.00906400
  20
144.96382100
  30
0.00000000
  11
201.00906400
  21
143.23176600
  31
0.00000000
  0
LINE
  5
5FD
  330
E2F
  100
AcDbEntity
  8
0
  6
ByLayer
  62
7
  370
60
  48
0.22083700
  100
AcDbLine
  10
204.00906400
  20
134.39830000
  30
0.00000000
  11
204.00906400
  21
143.23176600
  31
0.00000000
  0
LINE
  5
617
  330
E2F
  100
AcDbEntity
  8
0
  6
ByLayer
  62
7
  370
60
  48
0.22083700
  100
AcDbLine
  10
201.00906400
  20
134.39830000
  30
0.00000000
  11
201.00906400
  21
143.23176600
  31
0.00000000
  0
LINE
  5
618
  330
E2F
  100
AcDbEntity
  8
0
  6
ByLayer
  62
7
  370
60
  48
0.04330100
  100
AcDbLine
  10
204.00906400
  20
134.39830000
  30
0.00000000
  11
204.00906400
  21
132.66626000
  31
0.00000000
  0
LINE
  5
619
  330
E2F
  100
AcDbEntity
  8
0
  6
ByLayer
  62
7
  370
60
  48
0.04330100
  100
AcDbLine
  10
201.00906400
  20
134.39830000
  30
0.00000000
  11
201.00906400
  21
132.66626000
  31
0.00000000
  0
LINE
  5
61B
  330
E2F
  100
AcDbEntity
  8
0
  6
ByLayer
  62
7
  370
60
  48
0.15863300
  100
AcDbLine
  10
204.00906400
  20
126.32095300
  30
0.00000000
  11
204.00906400
  21
132.66626000
  31
0.00000000
  0
LINE
  5
61C
  330
E2F
  100
AcDbEntity
  8
0
  6
ByLayer
  62
7
  370
60
  48
0.07500000
  100
AcDbLine
  10
201.00906400
  20
126.32095300
  30
0.00000000
  11
204.00906400
  21
126.32095300
  31
0.00000000
  0
LINE
  5
61D
  330
E2F
  100
AcDbEntity
  8
0
  6
ByLayer
  62
7
  370
60
  48
0.15863300
  100
AcDbLine
  10
201.00906400
  20
126.32095300
  30
0.00000000
  11
201.00906400
  21
132.66626000
  31
0.00000000
  0
LINE
  5
61E
  330
E2F
  100
AcDbEntity
  8
0
  6
ByLayer
  62
7
  370
60
  48
0.15863300
  100
AcDbLine
  10
161.28686500
  20
510.76693700
  30
0.00000000
  11
161.28686500
  21
504.42163100
  31
0.00000000
  0
LINE
  5
61F
  330
E2F
  100
AcDbEntity
  8
0
  6
ByLayer
  62
7
  370
60
  48
0.07500000
  100
AcDbLine
  10
158.28686500
  20
510.76693700
  30
0.00000000
  11
161.28686500
  21
510.76693700
  31
0.00000000
  0
LINE
  5
620
  330
E2F
  100
AcDbEntity
  8
0
  6
ByLayer
  62
7
  370
60
  48
0.15863300
  100
AcDbLine
  10
158.28686500
  20
510.76693700
  30
0.00000000
  11
158.28686500
  21
504.42163100
  31
0.00000000
  0
LINE
  5
622
  330
E2F
  100
AcDbEntity
  8
0
  6
ByLayer
  62
7
  370
60
  48
0.04330100
  100
AcDbLine
  10
161.28686500
  20
504.42163100
  30
0.00000000
  11
161.28686500
  21
502.68957500
  31
0.00000000
  0
LINE
  5
623
  330
E2F
  100
AcDbEntity
  8
0
  6
ByLayer
  62
7
  370
60
  48
0.04330100
  100
AcDbLine
  10
158.28686500
  20
504.42163100
  30
0.00000000
  11
158.28686500
  21
502.68957500
  31
0.00000000
  0
LINE
  5
63D
  330
E2F
  100
AcDbEntity
  8
0
  6
ByLayer
  62
7
  370
60
  48
0.22083600
  100
AcDbLine
  10
161.28686500
  20
502.68957500
  30
0.00000000
  11
161.28686500
  21
493.85614000
  31
0.00000000
  0
LINE
  5
63E
  330
E2F
  100
AcDbEntity
  8
0
  6
ByLayer
  62
7
  370
60
  48
0.22083600
  100
AcDbLine
  10
158.28686500
  20
502.68957500
  30
0.00000000
  11
158.28686500
  21
493.85614000
  31
0.00000000
  0
LINE
  5
658
  330
E2F
  100
AcDbEntity
  8
0
  6
ByLayer
  62
7
  370
60
  48
0.04330100
  100
AcDbLine
  10
161.28686500
  20
493.85614000
  30
0.00000000
  11
161.28686500
  21
492.12408400
  31
0.00000000
  0
LINE
  5
65A
  330
E2F
  100
AcDbEntity
  8
0
  6
ByLayer
  62
7
  370
60
  48
0.04330100
  100
AcDbLine
  10
158.28686500
  20
493.85614000
  30
0.00000000
  11
158.28686500
  21
492.12408400
  31
0.00000000
  0
LINE
  5
65B
  330
E2F
  100
AcDbEntity
  8
0
  6
ByLayer
  62
7
  370
60
  100
AcDbLine
  10
161.28686500
  20
492.12408400
  30
0.00000000
  11
161.28686500
  21
144.96382100
  31
0.00000000
  0
LINE
  5
65C
  330
E2F
  100
AcDbEntity
  8
0
  6
ByLayer
  62
7
  370
60
  100
AcDbLine
  10
158.28686500
  20
492.12408400
  30
0.00000000
  11
158.28686500
  21
144.96382100
  31
0.00000000
  0
LINE
  5
65E
  330
E2F
  100
AcDbEntity
  8
0
  6
ByLayer
  62
7
  370
60
  48
0.04330100
  100
AcDbLine
  10
161.28686500
  20
144.96382100
  30
0.00000000
  11
161.28686500
  21
143.23176600
  31
0.00000000
  0
LINE
  5
678
  330
E2F
  100
AcDbEntity
  8
0
  6
ByLayer
  62
7
  370
60
  48
0.04330100
  100
AcDbLine
  10
158.28686500
  20
144.96382100
  30
0.00000000
  11
158.28686500
  21
143.23176600
  31
0.00000000
  0
LINE
  5
679
  330
E2F
  100
AcDbEntity
  8
0
  6
ByLayer
  62
7
  370
60
  48
0.22083700
  100
AcDbLine
  10
161.28686500
  20
134.39830000
  30
0.00000000
  11
161.28686500
  21
143.23176600
  31
0.00000000
  0
LINE
  5
693
  330
E2F
  100
AcDbEntity
  8
0
  6
ByLayer
  62
7
  370
60
  48
0.22083700
  100
AcDbLine
  10
158.28686500
  20
134.39830000
  30
0.00000000
  11
158.28686500
  21
143.23176600
  31
0.00000000
  0
LINE
  5
694
  330
E2F
  100
AcDbEntity
  8
0
  6
ByLayer
  62
7
  370
60
  48
0.04330100
  100
AcDbLine
  10
161.28686500
  20
134.39830000
  30
0.00000000
  11
161.28686500
  21
132.66626000
  31
0.00000000
  0
LINE
  5
695
  330
E2F
  100
AcDbEntity
  8
0
  6
ByLayer
  62
7
  370
60
  48
0.04330100
  100
AcDbLine
  10
158.28686500
  20
134.39830000
  30
0.00000000
  11
158.28686500
  21
132.66626000
  31
0.00000000
  0
LINE
  5
697
  330
E2F
  100
AcDbEntity
  8
0
  6
ByLayer
  62
7
  370
60
  48
0.15863300
  100
AcDbLine
  10
161.28686500
  20
126.32095300
  30
0.00000000
  11
161.28686500
  21
132.66626000
  31
0.00000000
  0
LINE
  5
698
  330
E2F
  100
AcDbEntity
  8
0
  6
ByLayer
  62
7
  370
60
  48
0.07500000
  100
AcDbLine
  10
158.28686500
  20
126.32095300
  30
0.00000000
  11
161.28686500
  21
126.32095300
  31
0.00000000
  0
LINE
  5
699
  330
E2F
  100
AcDbEntity
  8
0
  6
ByLayer
  62
7
  370
60
  48
0.15863300
  100
AcDbLine
  10
158.28686500
  20
126.32095300
  30
0.00000000
  11
158.28686500
  21
132.66626000
  31
0.00000000
  0
LINE
  5
69A
  330
E2F
  100
AcDbEntity
  8
0
  6
ByLayer
  62
7
  370
60
  48
0.15863300
  100
AcDbLine
  10
496.71917700
  20
423.00094600
  30
0.00000000
  11
503.06448400
  21
423.00094600
  31
0.00000000
  0
LINE
  5
69C
  330
E2F
  100
AcDbEntity
  8
0
  6
ByLayer
  62
7
  370
60
  48
0.15863300
  100
AcDbLine
  10
496.71917700
  20
426.00094600
  30
0.00000000
  11
503.06448400
  21
426.00094600
  31
0.00000000
  0
LINE
  5
69D
  330
E2F
  100
AcDbEntity
  8
0
  6
ByLayer
  62
7
  370
60
  48
0.07500000
  100
AcDbLine
  10
503.06448400
  20
426.00094600
  30
0.00000000
  11
503.06448400
  21
423.00094600
  31
0.00000000
  0
LINE
  5
69E
  330
E2F
  100
AcDbEntity
  8
0
  6
ByLayer
  62
7
  370
60
  48
0.04330100
  100
AcDbLine
  10
494.98712200
  20
423.00094600
  30
0.00000000
  11
496.71917700
  21
423.00094600
  31
0.00000000
  0
LINE
  5
6B8
  330
E2F
  100
AcDbEntity
  8
0
  6
ByLayer
  62
7
  370
60
  48
0.04330100
  100
AcDbLine
  10
494.98712200
  20
426.00094600
  30
0.00000000
  11
496.71917700
  21
426.00094600
  31
0.00000000
  0
LINE
  5
6B9
  330
E2F
  100
AcDbEntity
  8
0
  6
ByLayer
  62
7
  370
60
  48
0.17753400
  100
AcDbLine
  10
494.98712200
  20
423.00094600
  30
0.00000000
  11
487.88574200
  21
423.00094600
  31
0.00000000
  0
LINE
  5
6BA
  330
E2F
  100
AcDbEntity
  8
0
  6
ByLayer
  62
7
  370
60
  48
0.17753400
  100
AcDbLine
  10
494.98712200
  20
426.00094600
  30
0.00000000
  11
487.88574200
  21
426.00094600
  31
0.00000000
  0
LINE
  5
6D4
  330
E2F
  100
AcDbEntity
  8
0
  6
ByLayer
  62
7
  370
60
  48
0.04330100
  100
AcDbLine
  10
486.15368700
  20
423.00094600
  30
0.00000000
  11
487.88574200
  21
423.00094600
  31
0.00000000
  0
LINE
  5
6D5
  330
E2F
  100
AcDbEntity
  8
0
  6
ByLayer
  62
7
  370
60
  48
0.04330100
  100
AcDbLine
  10
486.15368700
  20
426.00094600
  30
0.00000000
  11
487.88574200
  21
426.00094600
  31
0.00000000
  0
LINE
  5
6D7
  330
E2F
  100
AcDbEntity
  8
0
  6
ByLayer
  62
7
  370
60
  100
AcDbLine
  10
132.47529600
  20
423.00094600
  30
0.00000000
  11
158.28686500
  21
423.00094600
  31
0.00000000
  0
LINE
  5
6D8
  330
E2F
  100
AcDbEntity
  8
0
  6
ByLayer
  62
7
  370
60
  100
AcDbLine
  10
161.28686500
  20
423.00094600
  30
0.00000000
  11
201.00906400
  21
423.00094600
  31
0.00000000
  0
LINE
  5
6D9
  330
E2F
  100
AcDbEntity
  8
0
  6
ByLayer
  62
7
  370
60
  100
AcDbLine
  10
204.00906400
  20
423.00094600
  30
0.00000000
  11
243.73126200
  21
423.00094600
  31
0.00000000
  0
LINE
  5
6DA
  330
E2F
  100
AcDbEntity
  8
0
  6
ByLayer
  62
7
  370
60
  100
AcDbLine
  10
246.73126200
  20
423.00094600
  30
0.00000000
  11
286.45346100
  21
423.00094600
  31
0.00000000
  0
LINE
  5
6DB
  330
E2F
  100
AcDbEntity
  8
0
  6
ByLayer
  62
7
  370
60
  100
AcDbLine
  10
289.45346100
  20
423.00094600
  30
0.00000000
  11
329.17565900
  21
423.00094600
  31
0.00000000
  0
LINE
  5
6DC
  330
E2F
  100
AcDbEntity
  8
0
  6
ByLayer
  62
7
  370
60
  100
AcDbLine
  10
332.17565900
  20
423.00094600
  30
0.00000000
  11
371.89785800
  21
423.00094600
  31
0.00000000
  0
LINE
  5
6DD
  330
E2F
  100
AcDbEntity
  8
0
  6
ByLayer
  62
7
  370
60
  100
AcDbLine
  10
374.89785800
  20
423.00094600
  30
0.00000000
  11
414.62005600
  21
423.00094600
  31
0.00000000
  0
LINE
  5
6DE
  330
E2F
  100
AcDbEntity
  8
0
  6
ByLayer
  62
7
  370
60
  100
AcDbLine
  10
417.62005600
  20
423.00094600
  30
0.00000000
  11
457.34225500
  21
423.00094600
  31
0.00000000
  0
LINE
  5
6DF
  330
E2F
  100
AcDbEntity
  8
0
  6
ByLayer
  62
7
  370
60
  100
AcDbLine
  10
460.34225500
  20
423.00094600
  30
0.00000000
  11
486.15368700
  21
423.00094600
  31
0.00000000
  0
LINE
  5
6E1
  330
E2F
  100
AcDbEntity
  8
0
  6
ByLayer
  62
7
  370
60
  100
AcDbLine
  10
132.47529600
  20
426.00094600
  30
0.00000000
  11
158.28686500
  21
426.00094600
  31
0.00000000
  0
LINE
  5
6E2
  330
E2F
  100
AcDbEntity
  8
0
  6
ByLayer
  62
7
  370
60
  100
AcDbLine
  10
161.28686500
  20
426.00094600
  30
0.00000000
  11
201.00906400
  21
426.00094600
  31
0.00000000
  0
LINE
  5
6E3
  330
E2F
  100
AcDbEntity
  8
0
  6
ByLayer
  62
7
  370
60
  100
AcDbLine
  10
204.00906400
  20
426.00094600
  30
0.00000000
  11
243.73126200
  21
426.00094600
  31
0.00000000
  0
LINE
  5
6E4
  330
E2F
  100
AcDbEntity
  8
0
  6
ByLayer
  62
7
  370
60
  100
AcDbLine
  10
246.73126200
  20
426.00094600
  30
0.00000000
  11
286.45346100
  21
426.00094600
  31
0.00000000
  0
LINE
  5
6E5
  330
E2F
  100
AcDbEntity
  8
0
  6
ByLayer
  62
7
  370
60
  100
AcDbLine
  10
289.45346100
  20
426.00094600
  30
0.00000000
  11
329.17565900
  21
426.00094600
  31
0.00000000
  0
LINE
  5
6E6
  330
E2F
  100
AcDbEntity
  8
0
  6
ByLayer
  62
7
  370
60
  100
AcDbLine
  10
332.17565900
  20
426.00094600
  30
0.00000000
  11
371.89785800
  21
426.00094600
  31
0.00000000
  0
LINE
  5
6E7
  330
E2F
  100
AcDbEntity
  8
0
  6
ByLayer
  62
7
  370
60
  100
AcDbLine
  10
374.89785800
  20
426.00094600
  30
0.00000000
  11
414.62005600
  21
426.00094600
  31
0.00000000
  0
LINE
  5
6E8
  330
E2F
  100
AcDbEntity
  8
0
  6
ByLayer
  62
7
  370
60
  100
AcDbLine
  10
417.62005600
  20
426.00094600
  30
0.00000000
  11
457.34225500
  21
426.00094600
  31
0.00000000
  0
LINE
  5
6E9
  330
E2F
  100
AcDbEntity
  8
0
  6
ByLayer
  62
7
  370
60
  100
AcDbLine
  10
460.34225500
  20
426.00094600
  30
0.00000000
  11
486.15368700
  21
426.00094600
  31
0.00000000
  0
LINE
  5
6EA
  330
E2F
  100
AcDbEntity
  8
0
  6
ByLayer
  62
7
  370
60
  48
0.04330100
  100
AcDbLine
  10
130.74325600
  20
423.00094600
  30
0.00000000
  11
132.47529600
  21
423.00094600
  31
0.00000000
  0
LINE
  5
6EB
  330
E2F
  100
AcDbEntity
  8
0
  6
ByLayer
  62
7
  370
60
  48
0.04330100
  100
AcDbLine
  10
130.74325600
  20
426.00094600
  30
0.00000000
  11
132.47529600
  21
426.00094600
  31
0.00000000
  0
LINE
  5
705
  330
E2F
  100
AcDbEntity
  8
0
  6
ByLayer
  62
7
  370
60
  48
0.17753500
  100
AcDbLine
  10
123.64184600
  20
423.00094600
  30
0.00000000
  11
130.74325600
  21
423.00094600
  31
0.00000000
  0
LINE
  5
71F
  330
E2F
  100
AcDbEntity
  8
0
  6
ByLayer
  62
7
  370
60
  48
0.17753500
  100
AcDbLine
  10
123.64184600
  20
426.00094600
  30
0.00000000
  11
130.74325600
  21
426.00094600
  31
0.00000000
  0
LINE
  5
720
  330
E2F
  100
AcDbEntity
  8
0
  6
ByLayer
  62
7
  370
60
  48
0.04330100
  100
AcDbLine
  10
121.90979000
  20
423.00094600
  30
0.00000000
  11
123.64184600
  21
423.00094600
  31
0.00000000
  0
LINE
  5
722
  330
E2F
  100
AcDbEntity
  8
0
  6
ByLayer
  62
7
  370
60
  48
0.04330100
  100
AcDbLine
  10
121.90979000
  20
426.00094600
  30
0.00000000
  11
123.64184600
  21
426.00094600
  31
0.00000000
  0
LINE
  5
723
  330
E2F
  100
AcDbEntity
  8
0
  6
ByLayer
  62
7
  370
60
  48
0.15863300
  100
AcDbLine
  10
115.56448400
  20
423.00094600
  30
0.00000000
  11
121.90979000
  21
423.00094600
  31
0.00000000
  0
LINE
  5
724
  330
E2F
  100
AcDbEntity
  8
0
  6
ByLayer
  62
7
  370
60
  48
0.07500000
  100
AcDbLine
  10
115.56448400
  20
426.00094600
  30
0.00000000
  11
115.56448400
  21
423.00094600
  31
0.00000000
  0
LINE
  5
725
  330
E2F
  100
AcDbEntity
  8
0
  6
ByLayer
  62
7
  370
60
  48
0.15863300
  100
AcDbLine
  10
115.56448400
  20
426.00094600
  30
0.00000000
  11
121.90979000
  21
426.00094600
  31
0.00000000
  0
LINE
  5
726
  330
E2F
  100
AcDbEntity
  8
0
  6
ByLayer
  62
7
  370
60
  48
0.15863300
  100
AcDbLine
  10
496.71917700
  20
380.61795000
  30
0.00000000
  11
503.06448400
  21
380.61795000
  31
0.00000000
  0
LINE
  5
728
  330
E2F
  100
AcDbEntity
  8
0
  6
ByLayer
  62
7
  370
60
  48
0.15863300
  100
AcDbLine
  10
496.71917700
  20
383.61795000
  30
0.00000000
  11
503.06448400
  21
383.61795000
  31
0.00000000
  0
LINE
  5
729
  330
E2F
  100
AcDbEntity
  8
0
  6
ByLayer
  62
7
  370
60
  48
0.07500000
  100
AcDbLine
  10
503.06448400
  20
383.61795000
  30
0.00000000
  11
503.06448400
  21
380.61795000
  31
0.00000000
  0
LINE
  5
72A
  330
E2F
  100
AcDbEntity
  8
0
  6
ByLayer
  62
7
  370
60
  48
0.04330100
  100
AcDbLine
  10
494.98712200
  20
380.61795000
  30
0.00000000
  11
496.71917700
  21
380.61795000
  31
0.00000000
  0
LINE
  5
744
  330
E2F
  100
AcDbEntity
  8
0
  6
ByLayer
  62
7
  370
60
  48
0.04330100
  100
AcDbLine
  10
494.98712200
  20
383.61795000
  30
0.00000000
  11
496.71917700
  21
383.61795000
  31
0.00000000
  0
LINE
  5
745
  330
E2F
  100
AcDbEntity
  8
0
  6
ByLayer
  62
7
  370
60
  48
0.17753400
  100
AcDbLine
  10
494.98712200
  20
380.61795000
  30
0.00000000
  11
487.88574200
  21
380.61795000
  31
0.00000000
  0
LINE
  5
746
  330
E2F
  100
AcDbEntity
  8
0
  6
ByLayer
  62
7
  370
60
  48
0.17753400
  100
AcDbLine
  10
494.98712200
  20
383.61795000
  30
0.00000000
  11
487.88574200
  21
383.61795000
  31
0.00000000
  0
LINE
  5
760
  330
E2F
  100
AcDbEntity
  8
0
  6
ByLayer
  62
7
  370
60
  48
0.04330100
  100
AcDbLine
  10
486.15368700
  20
380.61795000
  30
0.00000000
  11
487.88574200
  21
380.61795000
  31
0.00000000
  0
LINE
  5
761
  330
E2F
  100
AcDbEntity
  8
0
  6
ByLayer
  62
7
  370
60
  48
0.04330100
  100
AcDbLine
  10
486.15368700
  20
383.61795000
  30
0.00000000
  11
487.88574200
  21
383.61795000
  31
0.00000000
  0
LINE
  5
763
  330
E2F
  100
AcDbEntity
  8
0
  6
ByLayer
  62
7
  370
60
  100
AcDbLine
  10
132.47529600
  20
380.61795000
  30
0.00000000
  11
158.28686500
  21
380.61795000
  31
0.00000000
  0
LINE
  5
764
  330
E2F
  100
AcDbEntity
  8
0
  6
ByLayer
  62
7
  370
60
  100
AcDbLine
  10
161.28686500
  20
380.61795000
  30
0.00000000
  11
201.00906400
  21
380.61795000
  31
0.00000000
  0
LINE
  5
765
  330
E2F
  100
AcDbEntity
  8
0
  6
ByLayer
  62
7
  370
60
  100
AcDbLine
  10
204.00906400
  20
380.61795000
  30
0.00000000
  11
243.73126200
  21
380.61795000
  31
0.00000000
  0
LINE
  5
766
  330
E2F
  100
AcDbEntity
  8
0
  6
ByLayer
  62
7
  370
60
  100
AcDbLine
  10
246.73126200
  20
380.61795000
  30
0.00000000
  11
286.45346100
  21
380.61795000
  31
0.00000000
  0
LINE
  5
767
  330
E2F
  100
AcDbEntity
  8
0
  6
ByLayer
  62
7
  370
60
  100
AcDbLine
  10
289.45346100
  20
380.61795000
  30
0.00000000
  11
329.17565900
  21
380.61795000
  31
0.00000000
  0
LINE
  5
768
  330
E2F
  100
AcDbEntity
  8
0
  6
ByLayer
  62
7
  370
60
  100
AcDbLine
  10
332.17565900
  20
380.61795000
  30
0.00000000
  11
371.89785800
  21
380.61795000
  31
0.00000000
  0
LINE
  5
769
  330
E2F
  100
AcDbEntity
  8
0
  6
ByLayer
  62
7
  370
60
  100
AcDbLine
  10
374.89785800
  20
380.61795000
  30
0.00000000
  11
414.62005600
  21
380.61795000
  31
0.00000000
  0
LINE
  5
76A
  330
E2F
  100
AcDbEntity
  8
0
  6
ByLayer
  62
7
  370
60
  100
AcDbLine
  10
417.62005600
  20
380.61795000
  30
0.00000000
  11
457.34225500
  21
380.61795000
  31
0.00000000
  0
LINE
  5
76B
  330
E2F
  100
AcDbEntity
  8
0
  6
ByLayer
  62
7
  370
60
  100
AcDbLine
  10
460.34225500
  20
380.61795000
  30
0.00000000
  11
486.15368700
  21
380.61795000
  31
0.00000000
  0
LINE
  5
76D
  330
E2F
  100
AcDbEntity
  8
0
  6
ByLayer
  62
7
  370
60
  100
AcDbLine
  10
132.47529600
  20
383.61795000
  30
0.00000000
  11
158.28686500
  21
383.61795000
  31
0.00000000
  0
LINE
  5
76E
  330
E2F
  100
AcDbEntity
  8
0
  6
ByLayer
  62
7
  370
60
  100
AcDbLine
  10
161.28686500
  20
383.61795000
  30
0.00000000
  11
201.00906400
  21
383.61795000
  31
0.00000000
  0
LINE
  5
76F
  330
E2F
  100
AcDbEntity
  8
0
  6
ByLayer
  62
7
  370
60
  100
AcDbLine
  10
204.00906400
  20
383.61795000
  30
0.00000000
  11
243.73126200
  21
383.61795000
  31
0.00000000
  0
LINE
  5
770
  330
E2F
  100
AcDbEntity
  8
0
  6
ByLayer
  62
7
  370
60
  100
AcDbLine
  10
246.73126200
  20
383.61795000
  30
0.00000000
  11
286.45346100
  21
383.61795000
  31
0.00000000
  0
LINE
  5
771
  330
E2F
  100
AcDbEntity
  8
0
  6
ByLayer
  62
7
  370
60
  100
AcDbLine
  10
289.45346100
  20
383.61795000
  30
0.00000000
  11
329.17565900
  21
383.61795000
  31
0.00000000
  0
LINE
  5
772
  330
E2F
  100
AcDbEntity
  8
0
  6
ByLayer
  62
7
  370
60
  100
AcDbLine
  10
332.17565900
  20
383.61795000
  30
0.00000000
  11
371.89785800
  21
383.61795000
  31
0.00000000
  0
LINE
  5
773
  330
E2F
  100
AcDbEntity
  8
0
  6
ByLayer
  62
7
  370
60
  100
AcDbLine
  10
374.89785800
  20
383.61795000
  30
0.00000000
  11
414.62005600
  21
383.61795000
  31
0.00000000
  0
LINE
  5
774
  330
E2F
  100
AcDbEntity
  8
0
  6
ByLayer
  62
7
  370
60
  100
AcDbLine
  10
417.62005600
  20
383.61795000
  30
0.00000000
  11
457.34225500
  21
383.61795000
  31
0.00000000
  0
LINE
  5
775
  330
E2F
  100
AcDbEntity
  8
0
  6
ByLayer
  62
7
  370
60
  100
AcDbLine
  10
460.34225500
  20
383.61795000
  30
0.00000000
  11
486.15368700
  21
383.61795000
  31
0.00000000
  0
LINE
  5
776
  330
E2F
  100
AcDbEntity
  8
0
  6
ByLayer
  62
7
  370
60
  48
0.04330100
  100
AcDbLine
  10
130.74325600
  20
380.61795000
  30
0.00000000
  11
132.47529600
  21
380.61795000
  31
0.00000000
  0
LINE
  5
777
  330
E2F
  100
AcDbEntity
  8
0
  6
ByLayer
  62
7
  370
60
  48
0.04330100
  100
AcDbLine
  10
130.74325600
  20
383.61795000
  30
0.00000000
  11
132.47529600
  21
383.61795000
  31
0.00000000
  0
LINE
  5
791
  330
E2F
  100
AcDbEntity
  8
0
  6
ByLayer
  62
7
  370
60
  48
0.17753500
  100
AcDbLine
  10
123.64184600
  20
380.61795000
  30
0.00000000
  11
130.74325600
  21
380.61795000
  31
0.00000000
  0
LINE
  5
7AB
  330
E2F
  100
AcDbEntity
  8
0
  6
ByLayer
  62
7
  370
60
  48
0.17753500
  100
AcDbLine
  10
123.64184600
  20
383.61795000
  30
0.00000000
  11
130.74325600
  21
383.61795000
  31
0.00000000
  0
LINE
  5
7AC
  330
E2F
  100
AcDbEntity
  8
0
  6
ByLayer
  62
7
  370
60
  48
0.04330100
  100
AcDbLine
  10
121.90979000
  20
380.61795000
  30
0.00000000
  11
123.64184600
  21
380.61795000
  31
0.00000000
  0
LINE
  5
7AE
  330
E2F
  100
AcDbEntity
  8
0
  6
ByLayer
  62
7
  370
60
  48
0.04330100
  100
AcDbLine
  10
121.90979000
  20
383.61795000
  30
0.00000000
  11
123.64184600
  21
383.61795000
  31
0.00000000
  0
LINE
  5
7AF
  330
E2F
  100
AcDbEntity
  8
0
  6
ByLayer
  62
7
  370
60
  48
0.15863300
  100
AcDbLine
  10
115.56448400
  20
380.61795000
  30
0.00000000
  11
121.90979000
  21
380.61795000
  31
0.00000000
  0
LINE
  5
7B0
  330
E2F
  100
AcDbEntity
  8
0
  6
ByLayer
  62
7
  370
60
  48
0.07500000
  100
AcDbLine
  10
115.56448400
  20
383.61795000
  30
0.00000000
  11
115.56448400
  21
380.61795000
  31
0.00000000
  0
LINE
  5
7B1
  330
E2F
  100
AcDbEntity
  8
0
  6
ByLayer
  62
7
  370
60
  48
0.15863300
  100
AcDbLine
  10
115.56448400
  20
383.61795000
  30
0.00000000
  11
121.90979000
  21
383.61795000
  31
0.00000000
  0
LINE
  5
7B2
  330
E2F
  100
AcDbEntity
  8
0
  6
ByLayer
  62
7
  370
60
  48
0.15863300
  100
AcDbLine
  10
496.71917700
  20
338.23495500
  30
0.00000000
  11
503.06448400
  21
338.23495500
  31
0.00000000
  0
LINE
  5
7B4
  330
E2F
  100
AcDbEntity
  8
0
  6
ByLayer
  62
7
  370
60
  48
0.15863300
  100
AcDbLine
  10
496.71917700
  20
341.23495500
  30
0.00000000
  11
503.06448400
  21
341.23495500
  31
0.00000000
  0
LINE
  5
7B5
  330
E2F
  100
AcDbEntity
  8
0
  6
ByLayer
  62
7
  370
60
  48
0.07500000
  100
AcDbLine
  10
503.06448400
  20
341.23495500
  30
0.00000000
  11
503.06448400
  21
338.23495500
  31
0.00000000
  0
LINE
  5
7B6
  330
E2F
  100
AcDbEntity
  8
0
  6
ByLayer
  62
7
  370
60
  48
0.04330100
  100
AcDbLine
  10
494.98712200
  20
338.23495500
  30
0.00000000
  11
496.71917700
  21
338.23495500
  31
0.00000000
  0
LINE
  5
7D0
  330
E2F
  100
AcDbEntity
  8
0
  6
ByLayer
  62
7
  370
60
  48
0.04330100
  100
AcDbLine
  10
494.98712200
  20
341.23495500
  30
0.00000000
  11
496.71917700
  21
341.23495500
  31
0.00000000
  0
LINE
  5
7D1
  330
E2F
  100
AcDbEntity
  8
0
  6
ByLayer
  62
7
  370
60
  48
0.17753400
  100
AcDbLine
  10
494.98712200
  20
338.23495500
  30
0.00000000
  11
487.88574200
  21
338.23495500
  31
0.00000000
  0
LINE
  5
7D2
  330
E2F
  100
AcDbEntity
  8
0
  6
ByLayer
  62
7
  370
60
  48
0.17753400
  100
AcDbLine
  10
494.98712200
  20
341.23495500
  30
0.00000000
  11
487.88574200
  21
341.23495500
  31
0.00000000
  0
LINE
  5
7EC
  330
E2F
  100
AcDbEntity
  8
0
  6
ByLayer
  62
7
  370
60
  48
0.04330100
  100
AcDbLine
  10
486.15368700
  20
338.23495500
  30
0.00000000
  11
487.88574200
  21
338.23495500
  31
0.00000000
  0
LINE
  5
7ED
  330
E2F
  100
AcDbEntity
  8
0
  6
ByLayer
  62
7
  370
60
  48
0.04330100
  100
AcDbLine
  10
486.15368700
  20
341.23495500
  30
0.00000000
  11
487.88574200
  21
341.23495500
  31
0.00000000
  0
LINE
  5
7EF
  330
E2F
  100
AcDbEntity
  8
0
  6
ByLayer
  62
7
  370
60
  100
AcDbLine
  10
132.47529600
  20
338.23495500
  30
0.00000000
  11
158.28686500
  21
338.23495500
  31
0.00000000
  0
LINE
  5
7F0
  330
E2F
  100
AcDbEntity
  8
0
  6
ByLayer
  62
7
  370
60
  100
AcDbLine
  10
161.28686500
  20
338.23495500
  30
0.00000000
  11
201.00906400
  21
338.23495500
  31
0.00000000
  0
LINE
  5
7F1
  330
E2F
  100
AcDbEntity
  8
0
  6
ByLayer
  62
7
  370
60
  100
AcDbLine
  10
204.00906400
  20
338.23495500
  30
0.00000000
  11
243.73126200
  21
338.23495500
  31
0.00000000
  0
LINE
  5
7F2
  330
E2F
  100
AcDbEntity
  8
0
  6
ByLayer
  62
7
  370
60
  100
AcDbLine
  10
246.73126200
  20
338.23495500
  30
0.00000000
  11
286.45346100
  21
338.23495500
  31
0.00000000
  0
LINE
  5
7F3
  330
E2F
  100
AcDbEntity
  8
0
  6
ByLayer
  62
7
  370
60
  100
AcDbLine
  10
289.45346100
  20
338.23495500
  30
0.00000000
  11
329.17565900
  21
338.23495500
  31
0.00000000
  0
LINE
  5
7F4
  330
E2F
  100
AcDbEntity
  8
0
  6
ByLayer
  62
7
  370
60
  100
AcDbLine
  10
332.17565900
  20
338.23495500
  30
0.00000000
  11
371.89785800
  21
338.23495500
  31
0.00000000
  0
LINE
  5
7F5
  330
E2F
  100
AcDbEntity
  8
0
  6
ByLayer
  62
7
  370
60
  100
AcDbLine
  10
374.89785800
  20
338.23495500
  30
0.00000000
  11
414.62005600
  21
338.23495500
  31
0.00000000
  0
LINE
  5
7F6
  330
E2F
  100
AcDbEntity
  8
0
  6
ByLayer
  62
7
  370
60
  100
AcDbLine
  10
417.62005600
  20
338.23495500
  30
0.00000000
  11
457.34225500
  21
338.23495500
  31
0.00000000
  0
LINE
  5
7F7
  330
E2F
  100
AcDbEntity
  8
0
  6
ByLayer
  62
7
  370
60
  100
AcDbLine
  10
460.34225500
  20
338.23495500
  30
0.00000000
  11
486.15368700
  21
338.23495500
  31
0.00000000
  0
LINE
  5
7F9
  330
E2F
  100
AcDbEntity
  8
0
  6
ByLayer
  62
7
  370
60
  100
AcDbLine
  10
132.47529600
  20
341.23495500
  30
0.00000000
  11
158.28686500
  21
341.23495500
  31
0.00000000
  0
LINE
  5
7FA
  330
E2F
  100
AcDbEntity
  8
0
  6
ByLayer
  62
7
  370
60
  100
AcDbLine
  10
161.28686500
  20
341.23495500
  30
0.00000000
  11
201.00906400
  21
341.23495500
  31
0.00000000
  0
LINE
  5
7FB
  330
E2F
  100
AcDbEntity
  8
0
  6
ByLayer
  62
7
  370
60
  100
AcDbLine
  10
204.00906400
  20
341.23495500
  30
0.00000000
  11
243.73126200
  21
341.23495500
  31
0.00000000
  0
LINE
  5
7FC
  330
E2F
  100
AcDbEntity
  8
0
  6
ByLayer
  62
7
  370
60
  100
AcDbLine
  10
246.73126200
  20
341.23495500
  30
0.00000000
  11
286.45346100
  21
341.23495500
  31
0.00000000
  0
LINE
  5
7FD
  330
E2F
  100
AcDbEntity
  8
0
  6
ByLayer
  62
7
  370
60
  100
AcDbLine
  10
289.45346100
  20
341.23495500
  30
0.00000000
  11
329.17565900
  21
341.23495500
  31
0.00000000
  0
LINE
  5
7FE
  330
E2F
  100
AcDbEntity
  8
0
  6
ByLayer
  62
7
  370
60
  100
AcDbLine
  10
332.17565900
  20
341.23495500
  30
0.00000000
  11
371.89785800
  21
341.23495500
  31
0.00000000
  0
LINE
  5
7FF
  330
E2F
  100
AcDbEntity
  8
0
  6
ByLayer
  62
7
  370
60
  100
AcDbLine
  10
374.89785800
  20
341.23495500
  30
0.00000000
  11
414.62005600
  21
341.23495500
  31
0.00000000
  0
LINE
  5
800
  330
E2F
  100
AcDbEntity
  8
0
  6
ByLayer
  62
7
  370
60
  100
AcDbLine
  10
417.62005600
  20
341.23495500
  30
0.00000000
  11
457.34225500
  21
341.23495500
  31
0.00000000
  0
LINE
  5
801
  330
E2F
  100
AcDbEntity
  8
0
  6
ByLayer
  62
7
  370
60
  100
AcDbLine
  10
460.34225500
  20
341.23495500
  30
0.00000000
  11
486.15368700
  21
341.23495500
  31
0.00000000
  0
LINE
  5
802
  330
E2F
  100
AcDbEntity
  8
0
  6
ByLayer
  62
7
  370
60
  48
0.04330100
  100
AcDbLine
  10
130.74325600
  20
338.23495500
  30
0.00000000
  11
132.47529600
  21
338.23495500
  31
0.00000000
  0
LINE
  5
803
  330
E2F
  100
AcDbEntity
  8
0
  6
ByLayer
  62
7
  370
60
  48
0.04330100
  100
AcDbLine
  10
130.74325600
  20
341.23495500
  30
0.00000000
  11
132.47529600
  21
341.23495500
  31
0.00000000
  0
LINE
  5
81D
  330
E2F
  100
AcDbEntity
  8
0
  6
ByLayer
  62
7
  370
60
  48
0.17753500
  100
AcDbLine
  10
123.64184600
  20
338.23495500
  30
0.00000000
  11
130.74325600
  21
338.23495500
  31
0.00000000
  0
LINE
  5
837
  330
E2F
  100
AcDbEntity
  8
0
  6
ByLayer
  62
7
  370
60
  48
0.17753500
  100
AcDbLine
  10
123.64184600
  20
341.23495500
  30
0.00000000
  11
130.74325600
  21
341.23495500
  31
0.00000000
  0
LINE
  5
838
  330
E2F
  100
AcDbEntity
  8
0
  6
ByLayer
  62
7
  370
60
  48
0.04330100
  100
AcDbLine
  10
121.90979000
  20
338.23495500
  30
0.00000000
  11
123.64184600
  21
338.23495500
  31
0.00000000
  0
LINE
  5
83A
  330
E2F
  100
AcDbEntity
  8
0
  6
ByLayer
  62
7
  370
60
  48
0.04330100
  100
AcDbLine
  10
121.90979000
  20
341.23495500
  30
0.00000000
  11
123.64184600
  21
341.23495500
  31
0.00000000
  0
LINE
  5
83B
  330
E2F
  100
AcDbEntity
  8
0
  6
ByLayer
  62
7
  370
60
  48
0.15863300
  100
AcDbLine
  10
115.56448400
  20
338.23495500
  30
0.00000000
  11
121.90979000
  21
338.23495500
  31
0.00000000
  0
LINE
  5
83C
  330
E2F
  100
AcDbEntity
  8
0
  6
ByLayer
  62
7
  370
60
  48
0.07500000
  100
AcDbLine
  10
115.56448400
  20
341.23495500
  30
0.00000000
  11
115.56448400
  21
338.23495500
  31
0.00000000
  0
LINE
  5
83D
  330
E2F
  100
AcDbEntity
  8
0
  6
ByLayer
  62
7
  370
60
  48
0.15863300
  100
AcDbLine
  10
115.56448400
  20
341.23495500
  30
0.00000000
  11
121.90979000
  21
341.23495500
  31
0.00000000
  0
LINE
  5
83E
  330
E2F
  100
AcDbEntity
  8
0
  6
ByLayer
  62
7
  370
60
  48
0.15863300
  100
AcDbLine
  10
496.71917700
  20
295.85192900
  30
0.00000000
  11
503.06448400
  21
295.85192900
  31
0.00000000
  0
LINE
  5
840
  330
E2F
  100
AcDbEntity
  8
0
  6
ByLayer
  62
7
  370
60
  48
0.15863300
  100
AcDbLine
  10
496.71917700
  20
298.85192900
  30
0.00000000
  11
503.06448400
  21
298.85192900
  31
0.00000000
  0
LINE
  5
841
  330
E2F
  100
AcDbEntity
  8
0
  6
ByLayer
  62
7
  370
60
  48
0.07500000
  100
AcDbLine
  10
503.06448400
  20
298.85192900
  30
0.00000000
  11
503.06448400
  21
295.85192900
  31
0.00000000
  0
LINE
  5
842
  330
E2F
  100
AcDbEntity
  8
0
  6
ByLayer
  62
7
  370
60
  48
0.04330100
  100
AcDbLine
  10
494.98712200
  20
295.85192900
  30
0.00000000
  11
496.71917700
  21
295.85192900
  31
0.00000000
  0
LINE
  5
85C
  330
E2F
  100
AcDbEntity
  8
0
  6
ByLayer
  62
7
  370
60
  48
0.04330100
  100
AcDbLine
  10
494.98712200
  20
298.85192900
  30
0.00000000
  11
496.71917700
  21
298.85192900
  31
0.00000000
  0
LINE
  5
85D
  330
E2F
  100
AcDbEntity
  8
0
  6
ByLayer
  62
7
  370
60
  48
0.17753400
  100
AcDbLine
  10
494.98712200
  20
295.85192900
  30
0.00000000
  11
487.88574200
  21
295.85192900
  31
0.00000000
  0
LINE
  5
85E
  330
E2F
  100
AcDbEntity
  8
0
  6
ByLayer
  62
7
  370
60
  48
0.17753400
  100
AcDbLine
  10
494.98712200
  20
298.85192900
  30
0.00000000
  11
487.88574200
  21
298.85192900
  31
0.00000000
  0
LINE
  5
878
  330
E2F
  100
AcDbEntity
  8
0
  6
ByLayer
  62
7
  370
60
  48
0.04330100
  100
AcDbLine
  10
486.15368700
  20
295.85192900
  30
0.00000000
  11
487.88574200
  21
295.85192900
  31
0.00000000
  0
LINE
  5
879
  330
E2F
  100
AcDbEntity
  8
0
  6
ByLayer
  62
7
  370
60
  48
0.04330100
  100
AcDbLine
  10
486.15368700
  20
298.85192900
  30
0.00000000
  11
487.88574200
  21
298.85192900
  31
0.00000000
  0
LINE
  5
87B
  330
E2F
  100
AcDbEntity
  8
0
  6
ByLayer
  62
7
  370
60
  100
AcDbLine
  10
132.47529600
  20
295.85192900
  30
0.00000000
  11
158.28686500
  21
295.85192900
  31
0.00000000
  0
LINE
  5
87C
  330
E2F
  100
AcDbEntity
  8
0
  6
ByLayer
  62
7
  370
60
  100
AcDbLine
  10
161.28686500
  20
295.85192900
  30
0.00000000
  11
201.00906400
  21
295.85192900
  31
0.00000000
  0
LINE
  5
87D
  330
E2F
  100
AcDbEntity
  8
0
  6
ByLayer
  62
7
  370
60
  100
AcDbLine
  10
204.00906400
  20
295.85192900
  30
0.00000000
  11
243.73126200
  21
295.85192900
  31
0.00000000
  0
LINE
  5
87E
  330
E2F
  100
AcDbEntity
  8
0
  6
ByLayer
  62
7
  370
60
  100
AcDbLine
  10
246.73126200
  20
295.85192900
  30
0.00000000
  11
286.45346100
  21
295.85192900
  31
0.00000000
  0
LINE
  5
87F
  330
E2F
  100
AcDbEntity
  8
0
  6
ByLayer
  62
7
  370
60
  100
AcDbLine
  10
289.45346100
  20
295.85192900
  30
0.00000000
  11
329.17565900
  21
295.85192900
  31
0.00000000
  0
LINE
  5
880
  330
E2F
  100
AcDbEntity
  8
0
  6
ByLayer
  62
7
  370
60
  100
AcDbLine
  10
332.17565900
  20
295.85192900
  30
0.00000000
  11
371.89785800
  21
295.85192900
  31
0.00000000
  0
LINE
  5
881
  330
E2F
  100
AcDbEntity
  8
0
  6
ByLayer
  62
7
  370
60
  100
AcDbLine
  10
374.89785800
  20
295.85192900
  30
0.00000000
  11
414.62005600
  21
295.85192900
  31
0.00000000
  0
LINE
  5
882
  330
E2F
  100
AcDbEntity
  8
0
  6
ByLayer
  62
7
  370
60
  100
AcDbLine
  10
417.62005600
  20
295.85192900
  30
0.00000000
  11
457.34225500
  21
295.85192900
  31
0.00000000
  0
LINE
  5
883
  330
E2F
  100
AcDbEntity
  8
0
  6
ByLayer
  62
7
  370
60
  100
AcDbLine
  10
460.34225500
  20
295.85192900
  30
0.00000000
  11
486.15368700
  21
295.85192900
  31
0.00000000
  0
LINE
  5
885
  330
E2F
  100
AcDbEntity
  8
0
  6
ByLayer
  62
7
  370
60
  100
AcDbLine
  10
132.47529600
  20
298.85192900
  30
0.00000000
  11
158.28686500
  21
298.85192900
  31
0.00000000
  0
LINE
  5
886
  330
E2F
  100
AcDbEntity
  8
0
  6
ByLayer
  62
7
  370
60
  100
AcDbLine
  10
161.28686500
  20
298.85192900
  30
0.00000000
  11
201.00906400
  21
298.85192900
  31
0.00000000
  0
LINE
  5
887
  330
E2F
  100
AcDbEntity
  8
0
  6
ByLayer
  62
7
  370
60
  100
AcDbLine
  10
204.00906400
  20
298.85192900
  30
0.00000000
  11
243.73126200
  21
298.85192900
  31
0.00000000
  0
LINE
  5
888
  330
E2F
  100
AcDbEntity
  8
0
  6
ByLayer
  62
7
  370
60
  100
AcDbLine
  10
246.73126200
  20
298.85192900
  30
0.00000000
  11
286.45346100
  21
298.85192900
  31
0.00000000
  0
LINE
  5
889
  330
E2F
  100
AcDbEntity
  8
0
  6
ByLayer
  62
7
  370
60
  100
AcDbLine
  10
289.45346100
  20
298.85192900
  30
0.00000000
  11
329.17565900
  21
298.85192900
  31
0.00000000
  0
LINE
  5
88A
  330
E2F
  100
AcDbEntity
  8
0
  6
ByLayer
  62
7
  370
60
  100
AcDbLine
  10
332.17565900
  20
298.85192900
  30
0.00000000
  11
371.89785800
  21
298.85192900
  31
0.00000000
  0
LINE
  5
88B
  330
E2F
  100
AcDbEntity
  8
0
  6
ByLayer
  62
7
  370
60
  100
AcDbLine
  10
374.89785800
  20
298.85192900
  30
0.00000000
  11
414.62005600
  21
298.85192900
  31
0.00000000
  0
LINE
  5
88C
  330
E2F
  100
AcDbEntity
  8
0
  6
ByLayer
  62
7
  370
60
  100
AcDbLine
  10
417.62005600
  20
298.85192900
  30
0.00000000
  11
457.34225500
  21
298.85192900
  31
0.00000000
  0
LINE
  5
88D
  330
E2F
  100
AcDbEntity
  8
0
  6
ByLayer
  62
7
  370
60
  100
AcDbLine
  10
460.34225500
  20
298.85192900
  30
0.00000000
  11
486.15368700
  21
298.85192900
  31
0.00000000
  0
LINE
  5
88E
  330
E2F
  100
AcDbEntity
  8
0
  6
ByLayer
  62
7
  370
60
  48
0.04330100
  100
AcDbLine
  10
130.74325600
  20
295.85192900
  30
0.00000000
  11
132.47529600
  21
295.85192900
  31
0.00000000
  0
LINE
  5
88F
  330
E2F
  100
AcDbEntity
  8
0
  6
ByLayer
  62
7
  370
60
  48
0.04330100
  100
AcDbLine
  10
130.74325600
  20
298.85192900
  30
0.00000000
  11
132.47529600
  21
298.85192900
  31
0.00000000
  0
LINE
  5
8A9
  330
E2F
  100
AcDbEntity
  8
0
  6
ByLayer
  62
7
  370
60
  48
0.17753500
  100
AcDbLine
  10
123.64184600
  20
295.85192900
  30
0.00000000
  11
130.74325600
  21
295.85192900
  31
0.00000000
  0
LINE
  5
8C3
  330
E2F
  100
AcDbEntity
  8
0
  6
ByLayer
  62
7
  370
60
  48
0.17753500
  100
AcDbLine
  10
123.64184600
  20
298.85192900
  30
0.00000000
  11
130.74325600
  21
298.85192900
  31
0.00000000
  0
LINE
  5
8C4
  330
E2F
  100
AcDbEntity
  8
0
  6
ByLayer
  62
7
  370
60
  48
0.04330100
  100
AcDbLine
  10
121.90979000
  20
295.85192900
  30
0.00000000
  11
123.64184600
  21
295.85192900
  31
0.00000000
  0
LINE
  5
8C6
  330
E2F
  100
AcDbEntity
  8
0
  6
ByLayer
  62
7
  370
60
  48
0.04330100
  100
AcDbLine
  10
121.90979000
  20
298.85192900
  30
0.00000000
  11
123.64184600
  21
298.85192900
  31
0.00000000
  0
LINE
  5
8C7
  330
E2F
  100
AcDbEntity
  8
0
  6
ByLayer
  62
7
  370
60
  48
0.15863300
  100
AcDbLine
  10
115.56448400
  20
295.85192900
  30
0.00000000
  11
121.90979000
  21
295.85192900
  31
0.00000000
  0
LINE
  5
8C8
  330
E2F
  100
AcDbEntity
  8
0
  6
ByLayer
  62
7
  370
60
  48
0.07500000
  100
AcDbLine
  10
115.56448400
  20
298.85192900
  30
0.00000000
  11
115.56448400
  21
295.85192900
  31
0.00000000
  0
LINE
  5
8C9
  330
E2F
  100
AcDbEntity
  8
0
  6
ByLayer
  62
7
  370
60
  48
0.15863300
  100
AcDbLine
  10
115.56448400
  20
298.85192900
  30
0.00000000
  11
121.90979000
  21
298.85192900
  31
0.00000000
  0
LINE
  5
8CA
  330
E2F
  100
AcDbEntity
  8
0
  6
ByLayer
  62
7
  370
60
  48
0.15863300
  100
AcDbLine
  10
496.71917700
  20
253.46894800
  30
0.00000000
  11
503.06448400
  21
253.46894800
  31
0.00000000
  0
LINE
  5
8CC
  330
E2F
  100
AcDbEntity
  8
0
  6
ByLayer
  62
7
  370
60
  48
0.15863300
  100
AcDbLine
  10
496.71917700
  20
256.46893300
  30
0.00000000
  11
503.06448400
  21
256.46893300
  31
0.00000000
  0
LINE
  5
8CD
  330
E2F
  100
AcDbEntity
  8
0
  6
ByLayer
  62
7
  370
60
  48
0.07500000
  100
AcDbLine
  10
503.06448400
  20
256.46893300
  30
0.00000000
  11
503.06448400
  21
253.46894800
  31
0.00000000
  0
LINE
  5
8CE
  330
E2F
  100
AcDbEntity
  8
0
  6
ByLayer
  62
7
  370
60
  48
0.04330100
  100
AcDbLine
  10
494.98712200
  20
253.46894800
  30
0.00000000
  11
496.71917700
  21
253.46894800
  31
0.00000000
  0
LINE
  5
8E8
  330
E2F
  100
AcDbEntity
  8
0
  6
ByLayer
  62
7
  370
60
  48
0.04330100
  100
AcDbLine
  10
494.98712200
  20
256.46893300
  30
0.00000000
  11
496.71917700
  21
256.46893300
  31
0.00000000
  0
LINE
  5
8E9
  330
E2F
  100
AcDbEntity
  8
0
  6
ByLayer
  62
7
  370
60
  48
0.17753400
  100
AcDbLine
  10
494.98712200
  20
253.46894800
  30
0.00000000
  11
487.88574200
  21
253.46894800
  31
0.00000000
  0
LINE
  5
8EA
  330
E2F
  100
AcDbEntity
  8
0
  6
ByLayer
  62
7
  370
60
  48
0.17753400
  100
AcDbLine
  10
494.98712200
  20
256.46893300
  30
0.00000000
  11
487.88574200
  21
256.46893300
  31
0.00000000
  0
LINE
  5
904
  330
E2F
  100
AcDbEntity
  8
0
  6
ByLayer
  62
7
  370
60
  48
0.04330100
  100
AcDbLine
  10
486.15368700
  20
253.46894800
  30
0.00000000
  11
487.88574200
  21
253.46894800
  31
0.00000000
  0
LINE
  5
905
  330
E2F
  100
AcDbEntity
  8
0
  6
ByLayer
  62
7
  370
60
  48
0.04330100
  100
AcDbLine
  10
486.15368700
  20
256.46893300
  30
0.00000000
  11
487.88574200
  21
256.46893300
  31
0.00000000
  0
LINE
  5
907
  330
E2F
  100
AcDbEntity
  8
0
  6
ByLayer
  62
7
  370
60
  100
AcDbLine
  10
132.47529600
  20
253.46894800
  30
0.00000000
  11
158.28686500
  21
253.46894800
  31
0.00000000
  0
LINE
  5
908
  330
E2F
  100
AcDbEntity
  8
0
  6
ByLayer
  62
7
  370
60
  100
AcDbLine
  10
161.28686500
  20
253.46894800
  30
0.00000000
  11
201.00906400
  21
253.46894800
  31
0.00000000
  0
LINE
  5
909
  330
E2F
  100
AcDbEntity
  8
0
  6
ByLayer
  62
7
  370
60
  100
AcDbLine
  10
204.00906400
  20
253.46894800
  30
0.00000000
  11
243.73126200
  21
253.46894800
  31
0.00000000
  0
LINE
  5
90A
  330
E2F
  100
AcDbEntity
  8
0
  6
ByLayer
  62
7
  370
60
  100
AcDbLine
  10
246.73126200
  20
253.46894800
  30
0.00000000
  11
286.45346100
  21
253.46894800
  31
0.00000000
  0
LINE
  5
90B
  330
E2F
  100
AcDbEntity
  8
0
  6
ByLayer
  62
7
  370
60
  100
AcDbLine
  10
289.45346100
  20
253.46894800
  30
0.00000000
  11
329.17565900
  21
253.46894800
  31
0.00000000
  0
LINE
  5
90C
  330
E2F
  100
AcDbEntity
  8
0
  6
ByLayer
  62
7
  370
60
  100
AcDbLine
  10
332.17565900
  20
253.46894800
  30
0.00000000
  11
371.89785800
  21
253.46894800
  31
0.00000000
  0
LINE
  5
90D
  330
E2F
  100
AcDbEntity
  8
0
  6
ByLayer
  62
7
  370
60
  100
AcDbLine
  10
374.89785800
  20
253.46894800
  30
0.00000000
  11
414.62005600
  21
253.46894800
  31
0.00000000
  0
LINE
  5
90E
  330
E2F
  100
AcDbEntity
  8
0
  6
ByLayer
  62
7
  370
60
  100
AcDbLine
  10
417.62005600
  20
253.46894800
  30
0.00000000
  11
457.34225500
  21
253.46894800
  31
0.00000000
  0
LINE
  5
90F
  330
E2F
  100
AcDbEntity
  8
0
  6
ByLayer
  62
7
  370
60
  100
AcDbLine
  10
460.34225500
  20
253.46894800
  30
0.00000000
  11
486.15368700
  21
253.46894800
  31
0.00000000
  0
LINE
  5
911
  330
E2F
  100
AcDbEntity
  8
0
  6
ByLayer
  62
7
  370
60
  100
AcDbLine
  10
132.47529600
  20
256.46893300
  30
0.00000000
  11
158.28686500
  21
256.46893300
  31
0.00000000
  0
LINE
  5
912
  330
E2F
  100
AcDbEntity
  8
0
  6
ByLayer
  62
7
  370
60
  100
AcDbLine
  10
161.28686500
  20
256.46893300
  30
0.00000000
  11
201.00906400
  21
256.46893300
  31
0.00000000
  0
LINE
  5
913
  330
E2F
  100
AcDbEntity
  8
0
  6
ByLayer
  62
7
  370
60
  100
AcDbLine
  10
204.00906400
  20
256.46893300
  30
0.00000000
  11
243.73126200
  21
256.46893300
  31
0.00000000
  0
LINE
  5
914
  330
E2F
  100
AcDbEntity
  8
0
  6
ByLayer
  62
7
  370
60
  100
AcDbLine
  10
246.73126200
  20
256.46893300
  30
0.00000000
  11
286.45346100
  21
256.46893300
  31
0.00000000
  0
LINE
  5
915
  330
E2F
  100
AcDbEntity
  8
0
  6
ByLayer
  62
7
  370
60
  100
AcDbLine
  10
289.45346100
  20
256.46893300
  30
0.00000000
  11
329.17565900
  21
256.46893300
  31
0.00000000
  0
LINE
  5
916
  330
E2F
  100
AcDbEntity
  8
0
  6
ByLayer
  62
7
  370
60
  100
AcDbLine
  10
332.17565900
  20
256.46893300
  30
0.00000000
  11
371.89785800
  21
256.46893300
  31
0.00000000
  0
LINE
  5
917
  330
E2F
  100
AcDbEntity
  8
0
  6
ByLayer
  62
7
  370
60
  100
AcDbLine
  10
374.89785800
  20
256.46893300
  30
0.00000000
  11
414.62005600
  21
256.46893300
  31
0.00000000
  0
LINE
  5
918
  330
E2F
  100
AcDbEntity
  8
0
  6
ByLayer
  62
7
  370
60
  100
AcDbLine
  10
417.62005600
  20
256.46893300
  30
0.00000000
  11
457.34225500
  21
256.46893300
  31
0.00000000
  0
LINE
  5
919
  330
E2F
  100
AcDbEntity
  8
0
  6
ByLayer
  62
7
  370
60
  100
AcDbLine
  10
460.34225500
  20
256.46893300
  30
0.00000000
  11
486.15368700
  21
256.46893300
  31
0.00000000
  0
LINE
  5
91A
  330
E2F
  100
AcDbEntity
  8
0
  6
ByLayer
  62
7
  370
60
  48
0.04330100
  100
AcDbLine
  10
130.74325600
  20
253.46894800
  30
0.00000000
  11
132.47529600
  21
253.46894800
  31
0.00000000
  0
LINE
  5
91B
  330
E2F
  100
AcDbEntity
  8
0
  6
ByLayer
  62
7
  370
60
  48
0.04330100
  100
AcDbLine
  10
130.74325600
  20
256.46893300
  30
0.00000000
  11
132.47529600
  21
256.46893300
  31
0.00000000
  0
LINE
  5
935
  330
E2F
  100
AcDbEntity
  8
0
  6
ByLayer
  62
7
  370
60
  48
0.17753500
  100
AcDbLine
  10
123.64184600
  20
253.46894800
  30
0.00000000
  11
130.74325600
  21
253.46894800
  31
0.00000000
  0
LINE
  5
94F
  330
E2F
  100
AcDbEntity
  8
0
  6
ByLayer
  62
7
  370
60
  48
0.17753500
  100
AcDbLine
  10
123.64184600
  20
256.46893300
  30
0.00000000
  11
130.74325600
  21
256.46893300
  31
0.00000000
  0
LINE
  5
950
  330
E2F
  100
AcDbEntity
  8
0
  6
ByLayer
  62
7
  370
60
  48
0.04330100
  100
AcDbLine
  10
121.90979000
  20
253.46894800
  30
0.00000000
  11
123.64184600
  21
253.46894800
  31
0.00000000
  0
LINE
  5
952
  330
E2F
  100
AcDbEntity
  8
0
  6
ByLayer
  62
7
  370
60
  48
0.04330100
  100
AcDbLine
  10
121.90979000
  20
256.46893300
  30
0.00000000
  11
123.64184600
  21
256.46893300
  31
0.00000000
  0
LINE
  5
953
  330
E2F
  100
AcDbEntity
  8
0
  6
ByLayer
  62
7
  370
60
  48
0.15863300
  100
AcDbLine
  10
115.56448400
  20
253.46894800
  30
0.00000000
  11
121.90979000
  21
253.46894800
  31
0.00000000
  0
LINE
  5
954
  330
E2F
  100
AcDbEntity
  8
0
  6
ByLayer
  62
7
  370
60
  48
0.07500000
  100
AcDbLine
  10
115.56448400
  20
256.46893300
  30
0.00000000
  11
115.56448400
  21
253.46894800
  31
0.00000000
  0
LINE
  5
955
  330
E2F
  100
AcDbEntity
  8
0
  6
ByLayer
  62
7
  370
60
  48
0.15863300
  100
AcDbLine
  10
115.56448400
  20
256.46893300
  30
0.00000000
  11
121.90979000
  21
256.46893300
  31
0.00000000
  0
LINE
  5
956
  330
E2F
  100
AcDbEntity
  8
0
  6
ByLayer
  62
7
  370
60
  48
0.15863300
  100
AcDbLine
  10
496.71917700
  20
211.08593800
  30
0.00000000
  11
503.06448400
  21
211.08593800
  31
0.00000000
  0
LINE
  5
958
  330
E2F
  100
AcDbEntity
  8
0
  6
ByLayer
  62
7
  370
60
  48
0.15863300
  100
AcDbLine
  10
496.71917700
  20
214.08593800
  30
0.00000000
  11
503.06448400
  21
214.08593800
  31
0.00000000
  0
LINE
  5
959
  330
E2F
  100
AcDbEntity
  8
0
  6
ByLayer
  62
7
  370
60
  48
0.07500000
  100
AcDbLine
  10
503.06448400
  20
214.08593800
  30
0.00000000
  11
503.06448400
  21
211.08593800
  31
0.00000000
  0
LINE
  5
95A
  330
E2F
  100
AcDbEntity
  8
0
  6
ByLayer
  62
7
  370
60
  48
0.04330100
  100
AcDbLine
  10
494.98712200
  20
211.08593800
  30
0.00000000
  11
496.71917700
  21
211.08593800
  31
0.00000000
  0
LINE
  5
974
  330
E2F
  100
AcDbEntity
  8
0
  6
ByLayer
  62
7
  370
60
  48
0.04330100
  100
AcDbLine
  10
494.98712200
  20
214.08593800
  30
0.00000000
  11
496.71917700
  21
214.08593800
  31
0.00000000
  0
LINE
  5
975
  330
E2F
  100
AcDbEntity
  8
0
  6
ByLayer
  62
7
  370
60
  48
0.17753400
  100
AcDbLine
  10
494.98712200
  20
211.08593800
  30
0.00000000
  11
487.88574200
  21
211.08593800
  31
0.00000000
  0
LINE
  5
976
  330
E2F
  100
AcDbEntity
  8
0
  6
ByLayer
  62
7
  370
60
  48
0.17753400
  100
AcDbLine
  10
494.98712200
  20
214.08593800
  30
0.00000000
  11
487.88574200
  21
214.08593800
  31
0.00000000
  0
LINE
  5
990
  330
E2F
  100
AcDbEntity
  8
0
  6
ByLayer
  62
7
  370
60
  48
0.04330100
  100
AcDbLine
  10
486.15368700
  20
211.08593800
  30
0.00000000
  11
487.88574200
  21
211.08593800
  31
0.00000000
  0
LINE
  5
991
  330
E2F
  100
AcDbEntity
  8
0
  6
ByLayer
  62
7
  370
60
  48
0.04330100
  100
AcDbLine
  10
486.15368700
  20
214.08593800
  30
0.00000000
  11
487.88574200
  21
214.08593800
  31
0.00000000
  0
LINE
  5
993
  330
E2F
  100
AcDbEntity
  8
0
  6
ByLayer
  62
7
  370
60
  100
AcDbLine
  10
132.47529600
  20
211.08593800
  30
0.00000000
  11
158.28686500
  21
211.08593800
  31
0.00000000
  0
LINE
  5
994
  330
E2F
  100
AcDbEntity
  8
0
  6
ByLayer
  62
7
  370
60
  100
AcDbLine
  10
161.28686500
  20
211.08593800
  30
0.00000000
  11
201.00906400
  21
211.08593800
  31
0.00000000
  0
LINE
  5
995
  330
E2F
  100
AcDbEntity
  8
0
  6
ByLayer
  62
7
  370
60
  100
AcDbLine
  10
204.00906400
  20
211.08593800
  30
0.00000000
  11
243.73126200
  21
211.08593800
  31
0.00000000
  0
LINE
  5
996
  330
E2F
  100
AcDbEntity
  8
0
  6
ByLayer
  62
7
  370
60
  100
AcDbLine
  10
246.73126200
  20
211.08593800
  30
0.00000000
  11
286.45346100
  21
211.08593800
  31
0.00000000
  0
LINE
  5
997
  330
E2F
  100
AcDbEntity
  8
0
  6
ByLayer
  62
7
  370
60
  100
AcDbLine
  10
289.45346100
  20
211.08593800
  30
0.00000000
  11
329.17565900
  21
211.08593800
  31
0.00000000
  0
LINE
  5
998
  330
E2F
  100
AcDbEntity
  8
0
  6
ByLayer
  62
7
  370
60
  100
AcDbLine
  10
332.17565900
  20
211.08593800
  30
0.00000000
  11
371.89785800
  21
211.08593800
  31
0.00000000
  0
LINE
  5
999
  330
E2F
  100
AcDbEntity
  8
0
  6
ByLayer
  62
7
  370
60
  100
AcDbLine
  10
374.89785800
  20
211.08593800
  30
0.00000000
  11
414.62005600
  21
211.08593800
  31
0.00000000
  0
LINE
  5
99A
  330
E2F
  100
AcDbEntity
  8
0
  6
ByLayer
  62
7
  370
60
  100
AcDbLine
  10
417.62005600
  20
211.08593800
  30
0.00000000
  11
457.34225500
  21
211.08593800
  31
0.00000000
  0
LINE
  5
99B
  330
E2F
  100
AcDbEntity
  8
0
  6
ByLayer
  62
7
  370
60
  100
AcDbLine
  10
460.34225500
  20
211.08593800
  30
0.00000000
  11
486.15368700
  21
211.08593800
  31
0.00000000
  0
LINE
  5
99D
  330
E2F
  100
AcDbEntity
  8
0
  6
ByLayer
  62
7
  370
60
  100
AcDbLine
  10
132.47529600
  20
214.08593800
  30
0.00000000
  11
158.28686500
  21
214.08593800
  31
0.00000000
  0
LINE
  5
99E
  330
E2F
  100
AcDbEntity
  8
0
  6
ByLayer
  62
7
  370
60
  100
AcDbLine
  10
161.28686500
  20
214.08593800
  30
0.00000000
  11
201.00906400
  21
214.08593800
  31
0.00000000
  0
LINE
  5
99F
  330
E2F
  100
AcDbEntity
  8
0
  6
ByLayer
  62
7
  370
60
  100
AcDbLine
  10
204.00906400
  20
214.08593800
  30
0.00000000
  11
243.73126200
  21
214.08593800
  31
0.00000000
  0
LINE
  5
9A0
  330
E2F
  100
AcDbEntity
  8
0
  6
ByLayer
  62
7
  370
60
  100
AcDbLine
  10
246.73126200
  20
214.08593800
  30
0.00000000
  11
286.45346100
  21
214.08593800
  31
0.00000000
  0
LINE
  5
9A1
  330
E2F
  100
AcDbEntity
  8
0
  6
ByLayer
  62
7
  370
60
  100
AcDbLine
  10
289.45346100
  20
214.08593800
  30
0.00000000
  11
329.17565900
  21
214.08593800
  31
0.00000000
  0
LINE
  5
9A2
  330
E2F
  100
AcDbEntity
  8
0
  6
ByLayer
  62
7
  370
60
  100
AcDbLine
  10
332.17565900
  20
214.08593800
  30
0.00000000
  11
371.89785800
  21
214.08593800
  31
0.00000000
  0
LINE
  5
9A3
  330
E2F
  100
AcDbEntity
  8
0
  6
ByLayer
  62
7
  370
60
  100
AcDbLine
  10
374.89785800
  20
214.08593800
  30
0.00000000
  11
414.62005600
  21
214.08593800
  31
0.00000000
  0
LINE
  5
9A4
  330
E2F
  100
AcDbEntity
  8
0
  6
ByLayer
  62
7
  370
60
  100
AcDbLine
  10
417.62005600
  20
214.08593800
  30
0.00000000
  11
457.34225500
  21
214.08593800
  31
0.00000000
  0
LINE
  5
9A5
  330
E2F
  100
AcDbEntity
  8
0
  6
ByLayer
  62
7
  370
60
  100
AcDbLine
  10
460.34225500
  20
214.08593800
  30
0.00000000
  11
486.15368700
  21
214.08593800
  31
0.00000000
  0
LINE
  5
9A6
  330
E2F
  100
AcDbEntity
  8
0
  6
ByLayer
  62
7
  370
60
  48
0.04330100
  100
AcDbLine
  10
130.74325600
  20
211.08593800
  30
0.00000000
  11
132.47529600
  21
211.08593800
  31
0.00000000
  0
LINE
  5
9A7
  330
E2F
  100
AcDbEntity
  8
0
  6
ByLayer
  62
7
  370
60
  48
0.04330100
  100
AcDbLine
  10
130.74325600
  20
214.08593800
  30
0.00000000
  11
132.47529600
  21
214.08593800
  31
0.00000000
  0
LINE
  5
9C1
  330
E2F
  100
AcDbEntity
  8
0
  6
ByLayer
  62
7
  370
60
  48
0.17753500
  100
AcDbLine
  10
123.64184600
  20
211.08593800
  30
0.00000000
  11
130.74325600
  21
211.08593800
  31
0.00000000
  0
LINE
  5
9DB
  330
E2F
  100
AcDbEntity
  8
0
  6
ByLayer
  62
7
  370
60
  48
0.17753500
  100
AcDbLine
  10
123.64184600
  20
214.08593800
  30
0.00000000
  11
130.74325600
  21
214.08593800
  31
0.00000000
  0
LINE
  5
9DC
  330
E2F
  100
AcDbEntity
  8
0
  6
ByLayer
  62
7
  370
60
  48
0.04330100
  100
AcDbLine
  10
121.90979000
  20
211.08593800
  30
0.00000000
  11
123.64184600
  21
211.08593800
  31
0.00000000
  0
LINE
  5
9DE
  330
E2F
  100
AcDbEntity
  8
0
  6
ByLayer
  62
7
  370
60
  48
0.04330100
  100
AcDbLine
  10
121.90979000
  20
214.08593800
  30
0.00000000
  11
123.64184600
  21
214.08593800
  31
0.00000000
  0
LINE
  5
9DF
  330
E2F
  100
AcDbEntity
  8
0
  6
ByLayer
  62
7
  370
60
  48
0.15863300
  100
AcDbLine
  10
115.56448400
  20
211.08593800
  30
0.00000000
  11
121.90979000
  21
211.08593800
  31
0.00000000
  0
LINE
  5
9E0
  330
E2F
  100
AcDbEntity
  8
0
  6
ByLayer
  62
7
  370
60
  48
0.07500000
  100
AcDbLine
  10
115.56448400
  20
214.08593800
  30
0.00000000
  11
115.56448400
  21
211.08593800
  31
0.00000000
  0
LINE
  5
9E1
  330
E2F
  100
AcDbEntity
  8
0
  6
ByLayer
  62
7
  370
60
  48
0.15863300
  100
AcDbLine
  10
115.56448400
  20
214.08593800
  30
0.00000000
  11
121.90979000
  21
214.08593800
  31
0.00000000
  0
LINE
  5
9E2
  330
E2F
  100
AcDbEntity
  8
0
  6
ByLayer
  62
7
  370
60
  48
0.15863300
  100
AcDbLine
  10
496.71917700
  20
168.70294200
  30
0.00000000
  11
503.06448400
  21
168.70294200
  31
0.00000000
  0
LINE
  5
9E4
  330
E2F
  100
AcDbEntity
  8
0
  6
ByLayer
  62
7
  370
60
  48
0.15863300
  100
AcDbLine
  10
496.71917700
  20
171.70294200
  30
0.00000000
  11
503.06448400
  21
171.70294200
  31
0.00000000
  0
LINE
  5
9E5
  330
E2F
  100
AcDbEntity
  8
0
  6
ByLayer
  62
7
  370
60
  48
0.07500000
  100
AcDbLine
  10
503.06448400
  20
171.70294200
  30
0.00000000
  11
503.06448400
  21
168.70294200
  31
0.00000000
  0
LINE
  5
9E6
  330
E2F
  100
AcDbEntity
  8
0
  6
ByLayer
  62
7
  370
60
  48
0.04330100
  100
AcDbLine
  10
494.98712200
  20
168.70294200
  30
0.00000000
  11
496.71917700
  21
168.70294200
  31
0.00000000
  0
LINE
  5
A00
  330
E2F
  100
AcDbEntity
  8
0
  6
ByLayer
  62
7
  370
60
  48
0.04330100
  100
AcDbLine
  10
494.98712200
  20
171.70294200
  30
0.00000000
  11
496.71917700
  21
171.70294200
  31
0.00000000
  0
LINE
  5
A01
  330
E2F
  100
AcDbEntity
  8
0
  6
ByLayer
  62
7
  370
60
  48
0.17753400
  100
AcDbLine
  10
494.98712200
  20
168.70294200
  30
0.00000000
  11
487.88574200
  21
168.70294200
  31
0.00000000
  0
LINE
  5
A02
  330
E2F
  100
AcDbEntity
  8
0
  6
ByLayer
  62
7
  370
60
  48
0.17753400
  100
AcDbLine
  10
494.98712200
  20
171.70294200
  30
0.00000000
  11
487.88574200
  21
171.70294200
  31
0.00000000
  0
LINE
  5
A1C
  330
E2F
  100
AcDbEntity
  8
0
  6
ByLayer
  62
7
  370
60
  48
0.04330100
  100
AcDbLine
  10
486.15368700
  20
168.70294200
  30
0.00000000
  11
487.88574200
  21
168.70294200
  31
0.00000000
  0
LINE
  5
A1D
  330
E2F
  100
AcDbEntity
  8
0
  6
ByLayer
  62
7
  370
60
  48
0.04330100
  100
AcDbLine
  10
486.15368700
  20
171.70294200
  30
0.00000000
  11
487.88574200
  21
171.70294200
  31
0.00000000
  0
LINE
  5
A1F
  330
E2F
  100
AcDbEntity
  8
0
  6
ByLayer
  62
7
  370
60
  100
AcDbLine
  10
132.47529600
  20
168.70294200
  30
0.00000000
  11
158.28686500
  21
168.70294200
  31
0.00000000
  0
LINE
  5
A20
  330
E2F
  100
AcDbEntity
  8
0
  6
ByLayer
  62
7
  370
60
  100
AcDbLine
  10
161.28686500
  20
168.70294200
  30
0.00000000
  11
201.00906400
  21
168.70294200
  31
0.00000000
  0
LINE
  5
A21
  330
E2F
  100
AcDbEntity
  8
0
  6
ByLayer
  62
7
  370
60
  100
AcDbLine
  10
204.00906400
  20
168.70294200
  30
0.00000000
  11
243.73126200
  21
168.70294200
  31
0.00000000
  0
LINE
  5
A22
  330
E2F
  100
AcDbEntity
  8
0
  6
ByLayer
  62
7
  370
60
  100
AcDbLine
  10
246.73126200
  20
168.70294200
  30
0.00000000
  11
286.45346100
  21
168.70294200
  31
0.00000000
  0
LINE
  5
A23
  330
E2F
  100
AcDbEntity
  8
0
  6
ByLayer
  62
7
  370
60
  100
AcDbLine
  10
289.45346100
  20
168.70294200
  30
0.00000000
  11
329.17565900
  21
168.70294200
  31
0.00000000
  0
LINE
  5
A24
  330
E2F
  100
AcDbEntity
  8
0
  6
ByLayer
  62
7
  370
60
  100
AcDbLine
  10
332.17565900
  20
168.70294200
  30
0.00000000
  11
371.89785800
  21
168.70294200
  31
0.00000000
  0
LINE
  5
A25
  330
E2F
  100
AcDbEntity
  8
0
  6
ByLayer
  62
7
  370
60
  100
AcDbLine
  10
374.89785800
  20
168.70294200
  30
0.00000000
  11
414.62005600
  21
168.70294200
  31
0.00000000
  0
LINE
  5
A26
  330
E2F
  100
AcDbEntity
  8
0
  6
ByLayer
  62
7
  370
60
  100
AcDbLine
  10
417.62005600
  20
168.70294200
  30
0.00000000
  11
457.34225500
  21
168.70294200
  31
0.00000000
  0
LINE
  5
A27
  330
E2F
  100
AcDbEntity
  8
0
  6
ByLayer
  62
7
  370
60
  100
AcDbLine
  10
460.34225500
  20
168.70294200
  30
0.00000000
  11
486.15368700
  21
168.70294200
  31
0.00000000
  0
LINE
  5
A29
  330
E2F
  100
AcDbEntity
  8
0
  6
ByLayer
  62
7
  370
60
  100
AcDbLine
  10
132.47529600
  20
171.70294200
  30
0.00000000
  11
158.28686500
  21
171.70294200
  31
0.00000000
  0
LINE
  5
A2A
  330
E2F
  100
AcDbEntity
  8
0
  6
ByLayer
  62
7
  370
60
  100
AcDbLine
  10
161.28686500
  20
171.70294200
  30
0.00000000
  11
201.00906400
  21
171.70294200
  31
0.00000000
  0
LINE
  5
A2B
  330
E2F
  100
AcDbEntity
  8
0
  6
ByLayer
  62
7
  370
60
  100
AcDbLine
  10
204.00906400
  20
171.70294200
  30
0.00000000
  11
243.73126200
  21
171.70294200
  31
0.00000000
  0
LINE
  5
A2C
  330
E2F
  100
AcDbEntity
  8
0
  6
ByLayer
  62
7
  370
60
  100
AcDbLine
  10
246.73126200
  20
171.70294200
  30
0.00000000
  11
286.45346100
  21
171.70294200
  31
0.00000000
  0
LINE
  5
A2D
  330
E2F
  100
AcDbEntity
  8
0
  6
ByLayer
  62
7
  370
60
  100
AcDbLine
  10
289.45346100
  20
171.70294200
  30
0.00000000
  11
329.17565900
  21
171.70294200
  31
0.00000000
  0
LINE
  5
A2E
  330
E2F
  100
AcDbEntity
  8
0
  6
ByLayer
  62
7
  370
60
  100
AcDbLine
  10
332.17565900
  20
171.70294200
  30
0.00000000
  11
371.89785800
  21
171.70294200
  31
0.00000000
  0
LINE
  5
A2F
  330
E2F
  100
AcDbEntity
  8
0
  6
ByLayer
  62
7
  370
60
  100
AcDbLine
  10
374.89785800
  20
171.70294200
  30
0.00000000
  11
414.62005600
  21
171.70294200
  31
0.00000000
  0
LINE
  5
A30
  330
E2F
  100
AcDbEntity
  8
0
  6
ByLayer
  62
7
  370
60
  100
AcDbLine
  10
417.62005600
  20
171.70294200
  30
0.00000000
  11
457.34225500
  21
171.70294200
  31
0.00000000
  0
LINE
  5
A31
  330
E2F
  100
AcDbEntity
  8
0
  6
ByLayer
  62
7
  370
60
  100
AcDbLine
  10
460.34225500
  20
171.70294200
  30
0.00000000
  11
486.15368700
  21
171.70294200
  31
0.00000000
  0
LINE
  5
A32
  330
E2F
  100
AcDbEntity
  8
0
  6
ByLayer
  62
7
  370
60
  48
0.04330100
  100
AcDbLine
  10
130.74325600
  20
168.70294200
  30
0.00000000
  11
132.47529600
  21
168.70294200
  31
0.00000000
  0
LINE
  5
A33
  330
E2F
  100
AcDbEntity
  8
0
  6
ByLayer
  62
7
  370
60
  48
0.04330100
  100
AcDbLine
  10
130.74325600
  20
171.70294200
  30
0.00000000
  11
132.47529600
  21
171.70294200
  31
0.00000000
  0
LINE
  5
A4D
  330
E2F
  100
AcDbEntity
  8
0
  6
ByLayer
  62
7
  370
60
  48
0.17753500
  100
AcDbLine
  10
123.64184600
  20
168.70294200
  30
0.00000000
  11
130.74325600
  21
168.70294200
  31
0.00000000
  0
LINE
  5
A67
  330
E2F
  100
AcDbEntity
  8
0
  6
ByLayer
  62
7
  370
60
  48
0.17753500
  100
AcDbLine
  10
123.64184600
  20
171.70294200
  30
0.00000000
  11
130.74325600
  21
171.70294200
  31
0.00000000
  0
LINE
  5
A68
  330
E2F
  100
AcDbEntity
  8
0
  6
ByLayer
  62
7
  370
60
  48
0.04330100
  100
AcDbLine
  10
121.90979000
  20
168.70294200
  30
0.00000000
  11
123.64184600
  21
168.70294200
  31
0.00000000
  0
LINE
  5
A6A
  330
E2F
  100
AcDbEntity
  8
0
  6
ByLayer
  62
7
  370
60
  48
0.04330100
  100
AcDbLine
  10
121.90979000
  20
171.70294200
  30
0.00000000
  11
123.64184600
  21
171.70294200
  31
0.00000000
  0
LINE
  5
A6B
  330
E2F
  100
AcDbEntity
  8
0
  6
ByLayer
  62
7
  370
60
  48
0.15863300
  100
AcDbLine
  10
115.56448400
  20
168.70294200
  30
0.00000000
  11
121.90979000
  21
168.70294200
  31
0.00000000
  0
LINE
  5
A6C
  330
E2F
  100
AcDbEntity
  8
0
  6
ByLayer
  62
7
  370
60
  48
0.07500000
  100
AcDbLine
  10
115.56448400
  20
171.70294200
  30
0.00000000
  11
115.56448400
  21
168.70294200
  31
0.00000000
  0
LINE
  5
A6D
  330
E2F
  100
AcDbEntity
  8
0
  6
ByLayer
  62
7
  370
60
  48
0.15863300
  100
AcDbLine
  10
115.56448400
  20
171.70294200
  30
0.00000000
  11
121.90979000
  21
171.70294200
  31
0.00000000
  0
POINT
  5
AF3
  330
E2F
  100
AcDbEntity
  8
0
  6
ByLayer
  62
7
  370
60
  100
AcDbPoint
  10
595.05578600
  20
133.82095300
  30
0.00000000
  0
POINT
  5
AF4
  330
E2F
  100
AcDbEntity
  8
0
  6
ByLayer
  62
7
  370
60
  100
AcDbPoint
  10
612.35577400
  20
143.80911300
  30
0.00000000
  0
LINE
  5
AF8
  330
E2F
  100
AcDbEntity
  8
0
  6
ByLayer
  62
7
  370
60
  48
0.03250000
  100
AcDbLine
  10
592.85577400
  20
522.63079800
  30
0.00000000
  11
591.55578600
  21
522.63079800
  31
0.00000000
  0
ARC
  5
AF9
  330
E2F
  100
AcDbEntity
  8
0
  6
ByLayer
  62
7
  370
60
  100
AcDbCircle
  10
591.55578600
  20
521.63079800
  30
0.00000000
  40
1.00000000
  100
AcDbArc
  50
90.00000000
  51
180.00000000
  0
ARC
  5
AFA
  330
E2F
  100
AcDbEntity
  8
0
  6
ByLayer
  62
7
  370
60
  100
AcDbCircle
  10
591.55578600
  20
521.63079800
  30
0.00000000
  40
2.20000000
  100
AcDbArc
  50
90.00000000
  51
117.03676700
  0
LINE
  5
AFB
  330
E2F
  100
AcDbEntity
  8
0
  6
ByLayer
  62
7
  370
60
  48
0.03250000
  100
AcDbLine
  10
592.85577400
  20
523.83081100
  30
0.00000000
  11
591.55578600
  21
523.83081100
  31
0.00000000
  0
LINE
  5
AFC
  330
E2F
  100
AcDbEntity
  8
0
  6
ByLayer
  62
7
  370
60
  48
0.03750000
  100
AcDbLine
  10
592.85577400
  20
523.83081100
  30
0.00000000
  11
594.35577400
  21
523.83081100
  31
0.00000000
  0
LINE
  5
AFD
  330
E2F
  100
AcDbEntity
  8
0
  6
ByLayer
  62
7
  370
60
  48
0.03750000
  100
AcDbLine
  10
594.35577400
  20
522.63079800
  30
0.00000000
  11
592.85577400
  21
522.63079800
  31
0.00000000
  0
LINE
  5
AFE
  330
E2F
  100
AcDbEntity
  8
0
  6
ByLayer
  62
7
  370
60
  48
0.03000000
  100
AcDbLine
  10
594.35577400
  20
522.63079800
  30
0.00000000
  11
594.35577400
  21
523.83081100
  31
0.00000000
  0
LINE
  5
AFF
  330
E2F
  100
AcDbEntity
  8
0
  6
ByLayer
  62
7
  370
60
  48
0.03000000
  100
AcDbLine
  10
590.55578600
  20
507.76693700
  30
0.00000000
  11
589.35577400
  21
507.76693700
  31
0.00000000
  0
LINE
  5
B00
  330
E2F
  100
AcDbEntity
  8
0
  6
ByLayer
  62
7
  370
60
  48
0.02500000
  100
AcDbLine
  10
589.35577400
  20
508.76693700
  30
0.00000000
  11
589.35577400
  21
507.76693700
  31
0.00000000
  0
LINE
  5
B02
  330
E2F
  100
AcDbEntity
  8
0
  6
ByLayer
  62
7
  370
60
  48
0.03000000
  100
AcDbLine
  10
590.55578600
  20
524.83081100
  30
0.00000000
  11
589.35577400
  21
524.83081100
  31
0.00000000
  0
LINE
  5
B03
  330
E2F
  100
AcDbEntity
  8
0
  6
ByLayer
  62
7
  370
60
  48
0.37659700
  100
AcDbLine
  10
589.35577400
  20
523.83081100
  30
0.00000000
  11
589.35577400
  21
508.76693700
  31
0.00000000
  0
LINE
  5
B04
  330
E2F
  100
AcDbEntity
  8
0
  6
ByLayer
  62
7
  370
60
  48
0.36380900
  100
AcDbLine
  10
590.55578600
  20
523.83081100
  30
0.00000000
  11
590.55578600
  21
509.27844200
  31
0.00000000
  0
LINE
  5
B06
  330
E2F
  100
AcDbEntity
  8
0
  6
ByLayer
  62
7
  370
60
  48
0.02500000
  100
AcDbLine
  10
589.35577400
  20
524.83081100
  30
0.00000000
  11
589.35577400
  21
523.83081100
  31
0.00000000
  0
LINE
  5
B07
  330
E2F
  100
AcDbEntity
  8
0
  6
ByLayer
  62
7
  370
60
  48
0.02500000
  100
AcDbLine
  10
590.55578600
  20
524.83081100
  30
0.00000000
  11
590.55578600
  21
523.83081100
  31
0.00000000
  0
LINE
  5
B08
  330
E2F
  100
AcDbEntity
  8
0
  6
ByLayer
  62
7
  370
60
  48
0.03000000
  100
AcDbLine
  10
589.35577400
  20
118.32095300
  30
0.00000000
  11
590.55578600
  21
118.32095300
  31
0.00000000
  0
LINE
  5
B09
  330
E2F
  100
AcDbEntity
  8
0
  6
ByLayer
  62
7
  370
60
  48
0.02500000
  100
AcDbLine
  10
589.35577400
  20
119.32095300
  30
0.00000000
  11
589.35577400
  21
118.32095300
  31
0.00000000
  0
LINE
  5
B0B
  330
E2F
  100
AcDbEntity
  8
0
  6
ByLayer
  62
7
  370
60
  48
0.02500000
  100
AcDbLine
  10
590.55578600
  20
119.32095300
  30
0.00000000
  11
590.55578600
  21
118.32095300
  31
0.00000000
  0
LINE
  5
B0C
  330
E2F
  100
AcDbEntity
  8
0
  6
ByLayer
  62
7
  370
60
  48
0.25000000
  100
AcDbLine
  10
589.35577400
  20
119.32095300
  30
0.00000000
  11
589.35577400
  21
129.32095300
  31
0.00000000
  0
LINE
  5
B0D
  330
E2F
  100
AcDbEntity
  8
0
  6
ByLayer
  62
7
  370
60
  48
0.21211700
  100
AcDbLine
  10
590.55578600
  20
119.32095300
  30
0.00000000
  11
590.55578600
  21
127.80561800
  31
0.00000000
  0
LINE
  5
B0E
  330
E2F
  100
AcDbEntity
  8
0
  6
ByLayer
  62
7
  370
60
  48
0.03000000
  100
AcDbLine
  10
590.55578600
  20
129.32095300
  30
0.00000000
  11
589.35577400
  21
129.32095300
  31
0.00000000
  0
LINE
  5
B0F
  330
E2F
  100
AcDbEntity
  8
0
  6
ByLayer
  62
7
  370
60
  48
0.02500000
  100
AcDbLine
  10
595.05578600
  20
465.38394200
  30
0.00000000
  11
596.05578600
  21
465.38394200
  31
0.00000000
  0
LINE
  5
B10
  330
E2F
  100
AcDbEntity
  8
0
  6
ByLayer
  62
7
  370
60
  48
0.30750000
  100
AcDbLine
  10
596.05578600
  20
465.38394200
  30
0.00000000
  11
608.35577400
  21
465.38394200
  31
0.00000000
  0
LINE
  5
B11
  330
E2F
  100
AcDbEntity
  8
0
  6
ByLayer
  62
7
  370
60
  48
0.02500000
  100
AcDbLine
  10
608.35577400
  20
465.38394200
  30
0.00000000
  11
609.35577400
  21
465.38394200
  31
0.00000000
  0
ARC
  5
B12
  330
E2F
  100
AcDbEntity
  8
0
  6
ByLayer
  62
7
  370
60
  100
AcDbCircle
  10
609.35577400
  20
466.88394200
  30
0.00000000
  40
1.50000000
  100
AcDbArc
  50
270.00000000
  51
90.00000000
  0
LINE
  5
B13
  330
E2F
  100
AcDbEntity
  8
0
  6
ByLayer
  62
7
  370
60
  48
0.02500000
  100
AcDbLine
  10
608.35577400
  20
465.38394200
  30
0.00000000
  11
609.35577400
  21
465.38394200
  31
0.00000000
  0
LINE
  5
B14
  330
E2F
  100
AcDbEntity
  8
0
  6
ByLayer
  62
7
  370
60
  48
0.02500000
  100
AcDbLine
  10
608.35577400
  20
468.38394200
  30
0.00000000
  11
609.35577400
  21
468.38394200
  31
0.00000000
  0
LINE
  5
B29
  330
E2F
  100
AcDbEntity
  8
0
  6
ByLayer
  62
7
  370
60
  48
0.30750000
  100
AcDbLine
  10
596.05578600
  20
465.38394200
  30
0.00000000
  11
608.35577400
  21
465.38394200
  31
0.00000000
  0
LINE
  5
B3E
  330
E2F
  100
AcDbEntity
  8
0
  6
ByLayer
  62
7
  370
60
  48
0.30750000
  100
AcDbLine
  10
596.05578600
  20
468.38394200
  30
0.00000000
  11
608.35577400
  21
468.38394200
  31
0.00000000
  0
LINE
  5
B3F
  330
E2F
  100
AcDbEntity
  8
0
  6
ByLayer
  62
7
  370
60
  48
0.02500000
  100
AcDbLine
  10
595.05578600
  20
465.38394200
  30
0.00000000
  11
596.05578600
  21
465.38394200
  31
0.00000000
  0
LINE
  5
B40
  330
E2F
  100
AcDbEntity
  8
0
  6
ByLayer
  62
7
  370
60
  48
0.02500000
  100
AcDbLine
  10
595.05578600
  20
468.38394200
  30
0.00000000
  11
596.05578600
  21
468.38394200
  31
0.00000000
  0
CIRCLE
  5
B41
  330
E2F
  100
AcDbEntity
  8
0
  6
ByLayer
  62
7
  370
60
  100
AcDbCircle
  10
595.05578600
  20
466.88394200
  30
0.00000000
  40
1.50681944
  0
LWPOLYLINE
  5
D9B
  330
E2F
  100
AcDbEntity
  8
0
  6
ByLayer
  62
7
  370
60
  100
AcDbPolyline
  90
3
  43
0.00000000
  38
0.00000000
  10
608.34368900
  20
465.38415500
  10
608.34973100
  20
465.38400300
  10
608.35577400
  20
465.38394200
  0
ARC
  5
B47
  330
E2F
  100
AcDbEntity
  8
0
  6
ByLayer
  62
7
  370
60
  100
AcDbCircle
  10
592.05578600
  20
127.82095300
  30
0.00000000
  40
1.50000000
  100
AcDbArc
  50
180.00000000
  51
360.00000000
  0
ARC
  5
B48
  330
E2F
  100
AcDbEntity
  8
0
  6
ByLayer
  62
7
  370
60
  100
AcDbCircle
  10
592.05578600
  20
509.26693700
  30
0.00000000
  40
1.50000000
  100
AcDbArc
  50
0.00000000
  51
180.00000000
  0
LINE
  5
B49
  330
E2F
  100
AcDbEntity
  8
0
  6
ByLayer
  62
7
  370
60
  48
0.03750000
  100
AcDbLine
  10
595.05578600
  20
510.76693700
  30
0.00000000
  11
596.55578600
  21
510.76693700
  31
0.00000000
  0
LINE
  5
B4B
  330
E2F
  100
AcDbEntity
  8
0
  6
ByLayer
  62
7
  370
60
  48
0.03750000
  100
AcDbLine
  10
593.55578600
  20
510.76693700
  30
0.00000000
  11
595.05578600
  21
510.76693700
  31
0.00000000
  0
LINE
  5
B5B
  330
E2F
  100
AcDbEntity
  8
0
  6
ByLayer
  62
7
  370
60
  48
0.03750000
  100
AcDbLine
  10
595.05578600
  20
126.32095300
  30
0.00000000
  11
596.55578600
  21
126.32095300
  31
0.00000000
  0
LINE
  5
B5C
  330
E2F
  100
AcDbEntity
  8
0
  6
ByLayer
  62
7
  370
60
  48
0.03750000
  100
AcDbLine
  10
593.55578600
  20
126.32095300
  30
0.00000000
  11
595.05578600
  21
126.32095300
  31
0.00000000
  0
LINE
  5
B5D
  330
E2F
  100
AcDbEntity
  8
0
  6
ByLayer
  62
7
  370
60
  48
0.02500000
  100
AcDbLine
  10
595.05578600
  20
423.00094600
  30
0.00000000
  11
596.05578600
  21
423.00094600
  31
0.00000000
  0
LINE
  5
B5E
  330
E2F
  100
AcDbEntity
  8
0
  6
ByLayer
  62
7
  370
60
  48
0.30750000
  100
AcDbLine
  10
596.05578600
  20
423.00094600
  30
0.00000000
  11
608.35577400
  21
423.00094600
  31
0.00000000
  0
LWPOLYLINE
  5
D9C
  330
E2F
  100
AcDbEntity
  8
0
  6
ByLayer
  62
7
  370
60
  100
AcDbPolyline
  90
3
  43
0.00000000
  38
0.00000000
  10
608.34368900
  20
423.00112900
  10
608.34973100
  20
423.00097700
  10
608.35577400
  20
423.00094600
  0
LINE
  5
B64
  330
E2F
  100
AcDbEntity
  8
0
  6
ByLayer
  62
7
  370
60
  48
0.02500000
  100
AcDbLine
  10
608.35577400
  20
423.00094600
  30
0.00000000
  11
609.35577400
  21
423.00094600
  31
0.00000000
  0
ARC
  5
B65
  330
E2F
  100
AcDbEntity
  8
0
  6
ByLayer
  62
7
  370
60
  100
AcDbCircle
  10
609.35577400
  20
424.50094600
  30
0.00000000
  40
1.50000000
  100
AcDbArc
  50
270.00000000
  51
90.00000000
  0
LINE
  5
B66
  330
E2F
  100
AcDbEntity
  8
0
  6
ByLayer
  62
7
  370
60
  48
0.02500000
  100
AcDbLine
  10
608.35577400
  20
423.00094600
  30
0.00000000
  11
609.35577400
  21
423.00094600
  31
0.00000000
  0
LINE
  5
B67
  330
E2F
  100
AcDbEntity
  8
0
  6
ByLayer
  62
7
  370
60
  48
0.02500000
  100
AcDbLine
  10
608.35577400
  20
426.00094600
  30
0.00000000
  11
609.35577400
  21
426.00094600
  31
0.00000000
  0
LINE
  5
B7C
  330
E2F
  100
AcDbEntity
  8
0
  6
ByLayer
  62
7
  370
60
  48
0.30750000
  100
AcDbLine
  10
596.05578600
  20
423.00094600
  30
0.00000000
  11
608.35577400
  21
423.00094600
  31
0.00000000
  0
LINE
  5
B91
  330
E2F
  100
AcDbEntity
  8
0
  6
ByLayer
  62
7
  370
60
  48
0.30750000
  100
AcDbLine
  10
596.05578600
  20
426.00094600
  30
0.00000000
  11
608.35577400
  21
426.00094600
  31
0.00000000
  0
LINE
  5
B92
  330
E2F
  100
AcDbEntity
  8
0
  6
ByLayer
  62
7
  370
60
  48
0.02500000
  100
AcDbLine
  10
595.05578600
  20
423.00094600
  30
0.00000000
  11
596.05578600
  21
423.00094600
  31
0.00000000
  0
LINE
  5
B93
  330
E2F
  100
AcDbEntity
  8
0
  6
ByLayer
  62
7
  370
60
  48
0.02500000
  100
AcDbLine
  10
595.05578600
  20
426.00094600
  30
0.00000000
  11
596.05578600
  21
426.00094600
  31
0.00000000
  0
CIRCLE
  5
B94
  330
E2F
  100
AcDbEntity
  8
0
  6
ByLayer
  62
7
  370
60
  100
AcDbCircle
  10
595.05578600
  20
424.50094600
  30
0.00000000
  40
1.50000000
  0
LINE
  5
B95
  330
E2F
  100
AcDbEntity
  8
0
  6
ByLayer
  62
7
  370
60
  48
0.02500000
  100
AcDbLine
  10
595.05578600
  20
380.61795000
  30
0.00000000
  11
596.05578600
  21
380.61795000
  31
0.00000000
  0
LINE
  5
B96
  330
E2F
  100
AcDbEntity
  8
0
  6
ByLayer
  62
7
  370
60
  48
0.30750000
  100
AcDbLine
  10
596.05578600
  20
380.61795000
  30
0.00000000
  11
608.35577400
  21
380.61795000
  31
0.00000000
  0
LWPOLYLINE
  5
D9F
  330
E2F
  100
AcDbEntity
  8
0
  6
ByLayer
  62
7
  370
60
  100
AcDbPolyline
  90
3
  43
0.00000000
  38
0.00000000
  10
608.34368900
  20
380.61813400
  10
608.34973100
  20
380.61798100
  10
608.35577400
  20
380.61795000
  0
LINE
  5
B9C
  330
E2F
  100
AcDbEntity
  8
0
  6
ByLayer
  62
7
  370
60
  48
0.02500000
  100
AcDbLine
  10
608.35577400
  20
380.61795000
  30
0.00000000
  11
609.35577400
  21
380.61795000
  31
0.00000000
  0
ARC
  5
B9D
  330
E2F
  100
AcDbEntity
  8
0
  6
ByLayer
  62
7
  370
60
  100
AcDbCircle
  10
609.35577400
  20
382.11795000
  30
0.00000000
  40
1.50000000
  100
AcDbArc
  50
270.00000000
  51
90.00000000
  0
LINE
  5
B9E
  330
E2F
  100
AcDbEntity
  8
0
  6
ByLayer
  62
7
  370
60
  48
0.02500000
  100
AcDbLine
  10
608.35577400
  20
380.61795000
  30
0.00000000
  11
609.35577400
  21
380.61795000
  31
0.00000000
  0
LINE
  5
B9F
  330
E2F
  100
AcDbEntity
  8
0
  6
ByLayer
  62
7
  370
60
  48
0.02500000
  100
AcDbLine
  10
608.35577400
  20
383.61795000
  30
0.00000000
  11
609.35577400
  21
383.61795000
  31
0.00000000
  0
LINE
  5
BB4
  330
E2F
  100
AcDbEntity
  8
0
  6
ByLayer
  62
7
  370
60
  48
0.30750000
  100
AcDbLine
  10
596.05578600
  20
380.61795000
  30
0.00000000
  11
608.35577400
  21
380.61795000
  31
0.00000000
  0
LINE
  5
BC9
  330
E2F
  100
AcDbEntity
  8
0
  6
ByLayer
  62
7
  370
60
  48
0.30750000
  100
AcDbLine
  10
596.05578600
  20
383.61795000
  30
0.00000000
  11
608.35577400
  21
383.61795000
  31
0.00000000
  0
LINE
  5
BCA
  330
E2F
  100
AcDbEntity
  8
0
  6
ByLayer
  62
7
  370
60
  48
0.02500000
  100
AcDbLine
  10
595.05578600
  20
380.61795000
  30
0.00000000
  11
596.05578600
  21
380.61795000
  31
0.00000000
  0
LINE
  5
BCB
  330
E2F
  100
AcDbEntity
  8
0
  6
ByLayer
  62
7
  370
60
  48
0.02500000
  100
AcDbLine
  10
595.05578600
  20
383.61795000
  30
0.00000000
  11
596.05578600
  21
383.61795000
  31
0.00000000
  0
CIRCLE
  5
BCC
  330
E2F
  100
AcDbEntity
  8
0
  6
ByLayer
  62
7
  370
60
  100
AcDbCircle
  10
595.05578600
  20
382.11795000
  30
0.00000000
  40
1.50000000
  0
LINE
  5
BCD
  330
E2F
  100
AcDbEntity
  8
0
  6
ByLayer
  62
7
  370
60
  48
0.02500000
  100
AcDbLine
  10
595.05578600
  20
338.23495500
  30
0.00000000
  11
596.05578600
  21
338.23495500
  31
0.00000000
  0
LINE
  5
BCE
  330
E2F
  100
AcDbEntity
  8
0
  6
ByLayer
  62
7
  370
60
  48
0.30750000
  100
AcDbLine
  10
596.05578600
  20
338.23495500
  30
0.00000000
  11
608.35577400
  21
338.23495500
  31
0.00000000
  0
LWPOLYLINE
  5
DA2
  330
E2F
  100
AcDbEntity
  8
0
  6
ByLayer
  62
7
  370
60
  100
AcDbPolyline
  90
3
  43
0.00000000
  38
0.00000000
  10
608.34368900
  20
338.23513800
  10
608.34973100
  20
338.23498500
  10
608.35577400
  20
338.23495500
  0
LINE
  5
BD4
  330
E2F
  100
AcDbEntity
  8
0
  6
ByLayer
  62
7
  370
60
  48
0.02500000
  100
AcDbLine
  10
608.35577400
  20
338.23495500
  30
0.00000000
  11
609.35577400
  21
338.23495500
  31
0.00000000
  0
ARC
  5
BD5
  330
E2F
  100
AcDbEntity
  8
0
  6
ByLayer
  62
7
  370
60
  100
AcDbCircle
  10
609.35577400
  20
339.73495500
  30
0.00000000
  40
1.50000000
  100
AcDbArc
  50
270.00000000
  51
90.00000000
  0
LINE
  5
BD6
  330
E2F
  100
AcDbEntity
  8
0
  6
ByLayer
  62
7
  370
60
  48
0.02500000
  100
AcDbLine
  10
608.35577400
  20
338.23495500
  30
0.00000000
  11
609.35577400
  21
338.23495500
  31
0.00000000
  0
LINE
  5
BD7
  330
E2F
  100
AcDbEntity
  8
0
  6
ByLayer
  62
7
  370
60
  48
0.02500000
  100
AcDbLine
  10
608.35577400
  20
341.23495500
  30
0.00000000
  11
609.35577400
  21
341.23495500
  31
0.00000000
  0
LINE
  5
BEC
  330
E2F
  100
AcDbEntity
  8
0
  6
ByLayer
  62
7
  370
60
  48
0.30750000
  100
AcDbLine
  10
596.05578600
  20
338.23495500
  30
0.00000000
  11
608.35577400
  21
338.23495500
  31
0.00000000
  0
LINE
  5
C01
  330
E2F
  100
AcDbEntity
  8
0
  6
ByLayer
  62
7
  370
60
  48
0.30750000
  100
AcDbLine
  10
596.05578600
  20
341.23495500
  30
0.00000000
  11
608.35577400
  21
341.23495500
  31
0.00000000
  0
LINE
  5
C02
  330
E2F
  100
AcDbEntity
  8
0
  6
ByLayer
  62
7
  370
60
  48
0.02500000
  100
AcDbLine
  10
595.05578600
  20
338.23495500
  30
0.00000000
  11
596.05578600
  21
338.23495500
  31
0.00000000
  0
LINE
  5
C03
  330
E2F
  100
AcDbEntity
  8
0
  6
ByLayer
  62
7
  370
60
  48
0.02500000
  100
AcDbLine
  10
595.05578600
  20
341.23495500
  30
0.00000000
  11
596.05578600
  21
341.23495500
  31
0.00000000
  0
CIRCLE
  5
C04
  330
E2F
  100
AcDbEntity
  8
0
  6
ByLayer
  62
7
  370
60
  100
AcDbCircle
  10
595.05578600
  20
339.73495500
  30
0.00000000
  40
1.50000000
  0
LINE
  5
C05
  330
E2F
  100
AcDbEntity
  8
0
  6
ByLayer
  62
7
  370
60
  48
0.02500000
  100
AcDbLine
  10
595.05578600
  20
295.85192900
  30
0.00000000
  11
596.05578600
  21
295.85192900
  31
0.00000000
  0
LINE
  5
C06
  330
E2F
  100
AcDbEntity
  8
0
  6
ByLayer
  62
7
  370
60
  48
0.30750000
  100
AcDbLine
  10
596.05578600
  20
295.85192900
  30
0.00000000
  11
608.35577400
  21
295.85192900
  31
0.00000000
  0
LWPOLYLINE
  5
DA5
  330
E2F
  100
AcDbEntity
  8
0
  6
ByLayer
  62
7
  370
60
  100
AcDbPolyline
  90
3
  43
0.00000000
  38
0.00000000
  10
608.34368900
  20
295.85214200
  10
608.34973100
  20
295.85199000
  10
608.35577400
  20
295.85192900
  0
LINE
  5
C0C
  330
E2F
  100
AcDbEntity
  8
0
  6
ByLayer
  62
7
  370
60
  48
0.02500000
  100
AcDbLine
  10
608.35577400
  20
295.85192900
  30
0.00000000
  11
609.35577400
  21
295.85192900
  31
0.00000000
  0
ARC
  5
C0D
  330
E2F
  100
AcDbEntity
  8
0
  6
ByLayer
  62
7
  370
60
  100
AcDbCircle
  10
609.35577400
  20
297.35192900
  30
0.00000000
  40
1.50000000
  100
AcDbArc
  50
270.00000000
  51
90.00000000
  0
LINE
  5
C0E
  330
E2F
  100
AcDbEntity
  8
0
  6
ByLayer
  62
7
  370
60
  48
0.02500000
  100
AcDbLine
  10
608.35577400
  20
295.85192900
  30
0.00000000
  11
609.35577400
  21
295.85192900
  31
0.00000000
  0
LINE
  5
C0F
  330
E2F
  100
AcDbEntity
  8
0
  6
ByLayer
  62
7
  370
60
  48
0.02500000
  100
AcDbLine
  10
608.35577400
  20
298.85192900
  30
0.00000000
  11
609.35577400
  21
298.85192900
  31
0.00000000
  0
LINE
  5
C24
  330
E2F
  100
AcDbEntity
  8
0
  6
ByLayer
  62
7
  370
60
  48
0.30750000
  100
AcDbLine
  10
596.05578600
  20
295.85192900
  30
0.00000000
  11
608.35577400
  21
295.85192900
  31
0.00000000
  0
LINE
  5
C39
  330
E2F
  100
AcDbEntity
  8
0
  6
ByLayer
  62
7
  370
60
  48
0.30750000
  100
AcDbLine
  10
596.05578600
  20
298.85192900
  30
0.00000000
  11
608.35577400
  21
298.85192900
  31
0.00000000
  0
LINE
  5
C3A
  330
E2F
  100
AcDbEntity
  8
0
  6
ByLayer
  62
7
  370
60
  48
0.02500000
  100
AcDbLine
  10
595.05578600
  20
295.85192900
  30
0.00000000
  11
596.05578600
  21
295.85192900
  31
0.00000000
  0
LINE
  5
C3B
  330
E2F
  100
AcDbEntity
  8
0
  6
ByLayer
  62
7
  370
60
  48
0.02500000
  100
AcDbLine
  10
595.05578600
  20
298.85192900
  30
0.00000000
  11
596.05578600
  21
298.85192900
  31
0.00000000
  0
CIRCLE
  5
C3C
  330
E2F
  100
AcDbEntity
  8
0
  6
ByLayer
  62
7
  370
60
  100
AcDbCircle
  10
595.05578600
  20
297.35192900
  30
0.00000000
  40
1.50000000
  0
LINE
  5
C3D
  330
E2F
  100
AcDbEntity
  8
0
  6
ByLayer
  62
7
  370
60
  48
0.02500000
  100
AcDbLine
  10
595.05578600
  20
253.46894800
  30
0.00000000
  11
596.05578600
  21
253.46894800
  31
0.00000000
  0
LINE
  5
C3E
  330
E2F
  100
AcDbEntity
  8
0
  6
ByLayer
  62
7
  370
60
  48
0.30750000
  100
AcDbLine
  10
596.05578600
  20
253.46894800
  30
0.00000000
  11
608.35577400
  21
253.46894800
  31
0.00000000
  0
LWPOLYLINE
  5
DA8
  330
E2F
  100
AcDbEntity
  8
0
  6
ByLayer
  62
7
  370
60
  100
AcDbPolyline
  90
3
  43
0.00000000
  38
0.00000000
  10
608.34368900
  20
253.46914700
  10
608.34973100
  20
253.46899400
  10
608.35577400
  20
253.46894800
  0
LINE
  5
C44
  330
E2F
  100
AcDbEntity
  8
0
  6
ByLayer
  62
7
  370
60
  48
0.02500000
  100
AcDbLine
  10
608.35577400
  20
253.46894800
  30
0.00000000
  11
609.35577400
  21
253.46894800
  31
0.00000000
  0
ARC
  5
C45
  330
E2F
  100
AcDbEntity
  8
0
  6
ByLayer
  62
7
  370
60
  100
AcDbCircle
  10
609.35577400
  20
254.96894800
  30
0.00000000
  40
1.50000000
  100
AcDbArc
  50
270.00000000
  51
90.00000000
  0
LINE
  5
C46
  330
E2F
  100
AcDbEntity
  8
0
  6
ByLayer
  62
7
  370
60
  48
0.02500000
  100
AcDbLine
  10
608.35577400
  20
253.46894800
  30
0.00000000
  11
609.35577400
  21
253.46894800
  31
0.00000000
  0
LINE
  5
C47
  330
E2F
  100
AcDbEntity
  8
0
  6
ByLayer
  62
7
  370
60
  48
0.02500000
  100
AcDbLine
  10
608.35577400
  20
256.46893300
  30
0.00000000
  11
609.35577400
  21
256.46893300
  31
0.00000000
  0
LINE
  5
C5C
  330
E2F
  100
AcDbEntity
  8
0
  6
ByLayer
  62
7
  370
60
  48
0.30750000
  100
AcDbLine
  10
596.05578600
  20
253.46894800
  30
0.00000000
  11
608.35577400
  21
253.46894800
  31
0.00000000
  0
LINE
  5
C71
  330
E2F
  100
AcDbEntity
  8
0
  6
ByLayer
  62
7
  370
60
  48
0.30750000
  100
AcDbLine
  10
596.05578600
  20
256.46893300
  30
0.00000000
  11
608.35577400
  21
256.46893300
  31
0.00000000
  0
LINE
  5
C72
  330
E2F
  100
AcDbEntity
  8
0
  6
ByLayer
  62
7
  370
60
  48
0.02500000
  100
AcDbLine
  10
595.05578600
  20
253.46894800
  30
0.00000000
  11
596.05578600
  21
253.46894800
  31
0.00000000
  0
LINE
  5
C73
  330
E2F
  100
AcDbEntity
  8
0
  6
ByLayer
  62
7
  370
60
  48
0.02500000
  100
AcDbLine
  10
595.05578600
  20
256.46893300
  30
0.00000000
  11
596.05578600
  21
256.46893300
  31
0.00000000
  0
CIRCLE
  5
C74
  330
E2F
  100
AcDbEntity
  8
0
  6
ByLayer
  62
7
  370
60
  100
AcDbCircle
  10
595.05578600
  20
254.96894800
  30
0.00000000
  40
1.50000000
  0
LINE
  5
C75
  330
E2F
  100
AcDbEntity
  8
0
  6
ByLayer
  62
7
  370
60
  48
0.02500000
  100
AcDbLine
  10
595.05578600
  20
211.08593800
  30
0.00000000
  11
596.05578600
  21
211.08593800
  31
0.00000000
  0
LINE
  5
C76
  330
E2F
  100
AcDbEntity
  8
0
  6
ByLayer
  62
7
  370
60
  48
0.30750000
  100
AcDbLine
  10
596.05578600
  20
211.08593800
  30
0.00000000
  11
608.35577400
  21
211.08593800
  31
0.00000000
  0
LWPOLYLINE
  5
DAB
  330
E2F
  100
AcDbEntity
  8
0
  6
ByLayer
  62
7
  370
60
  100
AcDbPolyline
  90
3
  43
0.00000000
  38
0.00000000
  10
608.34368900
  20
211.08613600
  10
608.34973100
  20
211.08599900
  10
608.35577400
  20
211.08593800
  0
LINE
  5
C7C
  330
E2F
  100
AcDbEntity
  8
0
  6
ByLayer
  62
7
  370
60
  48
0.02500000
  100
AcDbLine
  10
608.35577400
  20
211.08593800
  30
0.00000000
  11
609.35577400
  21
211.08593800
  31
0.00000000
  0
ARC
  5
C7D
  330
E2F
  100
AcDbEntity
  8
0
  6
ByLayer
  62
7
  370
60
  100
AcDbCircle
  10
609.35577400
  20
212.58593800
  30
0.00000000
  40
1.50000000
  100
AcDbArc
  50
270.00000000
  51
90.00000000
  0
LINE
  5
C7E
  330
E2F
  100
AcDbEntity
  8
0
  6
ByLayer
  62
7
  370
60
  48
0.02500000
  100
AcDbLine
  10
608.35577400
  20
211.08593800
  30
0.00000000
  11
609.35577400
  21
211.08593800
  31
0.00000000
  0
LINE
  5
C7F
  330
E2F
  100
AcDbEntity
  8
0
  6
ByLayer
  62
7
  370
60
  48
0.02500000
  100
AcDbLine
  10
608.35577400
  20
214.08593800
  30
0.00000000
  11
609.35577400
  21
214.08593800
  31
0.00000000
  0
LINE
  5
C94
  330
E2F
  100
AcDbEntity
  8
0
  6
ByLayer
  62
7
  370
60
  48
0.30750000
  100
AcDbLine
  10
596.05578600
  20
211.08593800
  30
0.00000000
  11
608.35577400
  21
211.08593800
  31
0.00000000
  0
LINE
  5
CA9
  330
E2F
  100
AcDbEntity
  8
0
  6
ByLayer
  62
7
  370
60
  48
0.30750000
  100
AcDbLine
  10
596.05578600
  20
214.08593800
  30
0.00000000
  11
608.35577400
  21
214.08593800
  31
0.00000000
  0
LINE
  5
CAA
  330
E2F
  100
AcDbEntity
  8
0
  6
ByLayer
  62
7
  370
60
  48
0.02500000
  100
AcDbLine
  10
595.05578600
  20
211.08593800
  30
0.00000000
  11
596.05578600
  21
211.08593800
  31
0.00000000
  0
LINE
  5
CAB
  330
E2F
  100
AcDbEntity
  8
0
  6
ByLayer
  62
7
  370
60
  48
0.02500000
  100
AcDbLine
  10
595.05578600
  20
214.08593800
  30
0.00000000
  11
596.05578600
  21
214.08593800
  31
0.00000000
  0
CIRCLE
  5
CAC
  330
E2F
  100
AcDbEntity
  8
0
  6
ByLayer
  62
7
  370
60
  100
AcDbCircle
  10
595.05578600
  20
212.58593800
  30
0.00000000
  40
1.50000000
  0
LINE
  5
CAD
  330
E2F
  100
AcDbEntity
  8
0
  6
ByLayer
  62
7
  370
60
  48
0.02500000
  100
AcDbLine
  10
595.05578600
  20
168.70294200
  30
0.00000000
  11
596.05578600
  21
168.70294200
  31
0.00000000
  0
LINE
  5
CAE
  330
E2F
  100
AcDbEntity
  8
0
  6
ByLayer
  62
7
  370
60
  48
0.30750000
  100
AcDbLine
  10
596.05578600
  20
168.70294200
  30
0.00000000
  11
608.35577400
  21
168.70294200
  31
0.00000000
  0
LWPOLYLINE
  5
DAE
  330
E2F
  100
AcDbEntity
  8
0
  6
ByLayer
  62
7
  370
60
  100
AcDbPolyline
  90
3
  43
0.00000000
  38
0.00000000
  10
608.34368900
  20
168.70314000
  10
608.34973100
  20
168.70298800
  10
608.35577400
  20
168.70294200
  0
LINE
  5
CB4
  330
E2F
  100
AcDbEntity
  8
0
  6
ByLayer
  62
7
  370
60
  48
0.02500000
  100
AcDbLine
  10
608.35577400
  20
168.70294200
  30
0.00000000
  11
609.35577400
  21
168.70294200
  31
0.00000000
  0
ARC
  5
CB5
  330
E2F
  100
AcDbEntity
  8
0
  6
ByLayer
  62
7
  370
60
  100
AcDbCircle
  10
609.35577400
  20
170.20294200
  30
0.00000000
  40
1.50000000
  100
AcDbArc
  50
270.00000000
  51
90.00000000
  0
LINE
  5
CB6
  330
E2F
  100
AcDbEntity
  8
0
  6
ByLayer
  62
7
  370
60
  48
0.02500000
  100
AcDbLine
  10
608.35577400
  20
168.70294200
  30
0.00000000
  11
609.35577400
  21
168.70294200
  31
0.00000000
  0
LINE
  5
CB7
  330
E2F
  100
AcDbEntity
  8
0
  6
ByLayer
  62
7
  370
60
  48
0.02500000
  100
AcDbLine
  10
608.35577400
  20
171.70294200
  30
0.00000000
  11
609.35577400
  21
171.70294200
  31
0.00000000
  0
LINE
  5
CCC
  330
E2F
  100
AcDbEntity
  8
0
  6
ByLayer
  62
7
  370
60
  48
0.30750000
  100
AcDbLine
  10
596.05578600
  20
168.70294200
  30
0.00000000
  11
608.35577400
  21
168.70294200
  31
0.00000000
  0
LINE
  5
CE1
  330
E2F
  100
AcDbEntity
  8
0
  6
ByLayer
  62
7
  370
60
  48
0.30750000
  100
AcDbLine
  10
596.05578600
  20
171.70294200
  30
0.00000000
  11
608.35577400
  21
171.70294200
  31
0.00000000
  0
LINE
  5
CE2
  330
E2F
  100
AcDbEntity
  8
0
  6
ByLayer
  62
7
  370
60
  48
0.02500000
  100
AcDbLine
  10
595.05578600
  20
168.70294200
  30
0.00000000
  11
596.05578600
  21
168.70294200
  31
0.00000000
  0
LINE
  5
CE3
  330
E2F
  100
AcDbEntity
  8
0
  6
ByLayer
  62
7
  370
60
  48
0.02500000
  100
AcDbLine
  10
595.05578600
  20
171.70294200
  30
0.00000000
  11
596.05578600
  21
171.70294200
  31
0.00000000
  0
CIRCLE
  5
CE4
  330
E2F
  100
AcDbEntity
  8
0
  6
ByLayer
  62
7
  370
60
  100
AcDbCircle
  10
595.05578600
  20
170.20294200
  30
0.00000000
  40
1.50000000
  0
LINE
  5
CE5
  330
E2F
  100
AcDbEntity
  8
0
  6
ByLayer
  62
7
  370
60
  48
0.15863300
  100
AcDbLine
  10
596.55578600
  20
510.76693700
  30
0.00000000
  11
596.55578600
  21
504.42163100
  31
0.00000000
  0
ARC
  5
CE6
  330
E2F
  100
AcDbEntity
  8
0
  6
ByLayer
  62
7
  370
60
  100
AcDbCircle
  10
597.05578600
  20
504.42163100
  30
0.00000000
  40
0.50000000
  100
AcDbArc
  50
180.00000000
  51
240.00000600
  0
ARC
  5
CE7
  330
E2F
  100
AcDbEntity
  8
0
  6
ByLayer
  62
7
  370
60
  100
AcDbCircle
  10
610.35577400
  20
492.12408400
  30
0.00000000
  40
3.50000000
  100
AcDbArc
  50
0.00000000
  51
60.00000300
  0
LINE
  5
CE8
  330
E2F
  100
AcDbEntity
  8
0
  6
ByLayer
  62
7
  370
60
  100
AcDbLine
  10
613.85577400
  20
492.12408400
  30
0.00000000
  11
613.85577400
  21
144.96382100
  31
0.00000000
  0
ARC
  5
CE9
  330
E2F
  100
AcDbEntity
  8
0
  6
ByLayer
  62
7
  370
60
  100
AcDbCircle
  10
610.35577400
  20
144.96382100
  30
0.00000000
  40
3.50000000
  100
AcDbArc
  50
299.99999400
  51
360.00000000
  0
LINE
  5
CEA
  330
E2F
  100
AcDbEntity
  8
0
  6
ByLayer
  62
7
  370
60
  48
0.44167300
  100
AcDbLine
  10
612.10577400
  20
141.93272400
  30
0.00000000
  11
596.80578600
  21
133.09927400
  31
0.00000000
  0
ARC
  5
CEB
  330
E2F
  100
AcDbEntity
  8
0
  6
ByLayer
  62
7
  370
60
  100
AcDbCircle
  10
597.05578600
  20
132.66626000
  30
0.00000000
  40
0.50000000
  100
AcDbArc
  50
120.00000300
  51
180.00000000
  0
LINE
  5
CEC
  330
E2F
  100
AcDbEntity
  8
0
  6
ByLayer
  62
7
  370
60
  48
0.15863300
  100
AcDbLine
  10
596.55578600
  20
132.66626000
  30
0.00000000
  11
596.55578600
  21
126.32095300
  31
0.00000000
  0
LINE
  5
CED
  330
E2F
  100
AcDbEntity
  8
0
  6
ByLayer
  62
7
  370
60
  48
0.44167300
  100
AcDbLine
  10
595.30578600
  20
501.39056400
  30
0.00000000
  11
610.60577400
  21
492.55709800
  31
0.00000000
  0
ARC
  5
CEE
  330
E2F
  100
AcDbEntity
  8
0
  6
ByLayer
  62
7
  370
60
  100
AcDbCircle
  10
610.35577400
  20
492.12408400
  30
0.00000000
  40
0.50000000
  100
AcDbArc
  50
0.00023800
  51
59.99999700
  0
LINE
  5
CEF
  330
E2F
  100
AcDbEntity
  8
0
  6
ByLayer
  62
7
  370
60
  48
0.25000000
  100
AcDbLine
  10
593.55578600
  20
127.82095300
  30
0.00000000
  11
593.55578600
  21
137.82095300
  31
0.00000000
  0
LINE
  5
CF0
  330
E2F
  100
AcDbEntity
  8
0
  6
ByLayer
  62
7
  370
60
  100
AcDbLine
  10
593.55578600
  20
499.26693700
  30
0.00000000
  11
593.55578600
  21
137.82095300
  31
0.00000000
  0
LINE
  5
CF1
  330
E2F
  100
AcDbEntity
  8
0
  6
ByLayer
  62
7
  370
60
  48
0.25000000
  100
AcDbLine
  10
593.55578600
  20
499.26693700
  30
0.00000000
  11
593.55578600
  21
509.26693700
  31
0.00000000
  0
LINE
  5
CF2
  330
E2F
  100
AcDbEntity
  8
0
  6
ByLayer
  62
7
  370
60
  48
0.12697400
  100
AcDbLine
  10
593.55578600
  20
499.26693700
  30
0.00000000
  11
593.55578600
  21
504.34588600
  31
0.00000000
  0
LINE
  5
CF3
  330
E2F
  100
AcDbEntity
  8
0
  6
ByLayer
  62
7
  370
60
  100
AcDbLine
  10
593.55578600
  20
137.82095300
  30
0.00000000
  11
593.55578600
  21
170.17408800
  31
0.00000000
  0
LINE
  5
CF4
  330
E2F
  100
AcDbEntity
  8
0
  6
ByLayer
  62
7
  370
60
  100
AcDbLine
  10
593.55578600
  20
170.23233000
  30
0.00000000
  11
593.55578600
  21
212.55708300
  31
0.00000000
  0
LINE
  5
CF5
  330
E2F
  100
AcDbEntity
  8
0
  6
ByLayer
  62
7
  370
60
  100
AcDbLine
  10
593.55578600
  20
212.61532600
  30
0.00000000
  11
593.55578600
  21
254.94007900
  31
0.00000000
  0
LINE
  5
CF6
  330
E2F
  100
AcDbEntity
  8
0
  6
ByLayer
  62
7
  370
60
  100
AcDbLine
  10
593.55578600
  20
254.99832200
  30
0.00000000
  11
593.55578600
  21
297.32309000
  31
0.00000000
  0
LINE
  5
CF7
  330
E2F
  100
AcDbEntity
  8
0
  6
ByLayer
  62
7
  370
60
  100
AcDbLine
  10
593.55578600
  20
297.38134800
  30
0.00000000
  11
593.55578600
  21
339.70608500
  31
0.00000000
  0
LINE
  5
CF8
  330
E2F
  100
AcDbEntity
  8
0
  6
ByLayer
  62
7
  370
60
  100
AcDbLine
  10
593.55578600
  20
339.76434300
  30
0.00000000
  11
593.55578600
  21
382.08908100
  31
0.00000000
  0
LINE
  5
CF9
  330
E2F
  100
AcDbEntity
  8
0
  6
ByLayer
  62
7
  370
60
  100
AcDbLine
  10
593.55578600
  20
382.14733900
  30
0.00000000
  11
593.55578600
  21
424.47207600
  31
0.00000000
  0
LINE
  5
CFA
  330
E2F
  100
AcDbEntity
  8
0
  6
ByLayer
  62
7
  370
60
  100
AcDbLine
  10
593.55578600
  20
424.53033400
  30
0.00000000
  11
593.55578600
  21
466.85507200
  31
0.00000000
  0
LINE
  5
CFB
  330
E2F
  100
AcDbEntity
  8
0
  6
ByLayer
  62
7
  370
60
  100
AcDbLine
  10
593.55578600
  20
466.91333000
  30
0.00000000
  11
593.55578600
  21
499.26693700
  31
0.00000000
  0
LINE
  5
CFC
  330
E2F
  100
AcDbEntity
  8
0
  6
ByLayer
  62
7
  370
60
  48
0.12886600
  100
AcDbLine
  10
593.55578600
  20
132.66632100
  30
0.00000000
  11
593.55578600
  21
137.82095300
  31
0.00000000
  0
LINE
  5
CFD
  330
E2F
  100
AcDbEntity
  8
0
  6
ByLayer
  62
7
  370
60
  48
0.25000000
  100
AcDbLine
  10
590.55578600
  20
127.82095300
  30
0.00000000
  11
590.55578600
  21
137.82095300
  31
0.00000000
  0
LINE
  5
CFE
  330
E2F
  100
AcDbEntity
  8
0
  6
ByLayer
  62
7
  370
60
  100
AcDbLine
  10
590.55578600
  20
499.26693700
  30
0.00000000
  11
590.55578600
  21
137.82095300
  31
0.00000000
  0
LINE
  5
CFF
  330
E2F
  100
AcDbEntity
  8
0
  6
ByLayer
  62
7
  370
60
  48
0.25000000
  100
AcDbLine
  10
590.55578600
  20
499.26693700
  30
0.00000000
  11
590.55578600
  21
509.26693700
  31
0.00000000
  0
LINE
  5
D00
  330
E2F
  100
AcDbEntity
  8
0
  6
ByLayer
  62
7
  370
60
  48
0.15863300
  100
AcDbLine
  10
596.55578600
  20
510.76693700
  30
0.00000000
  11
596.55578600
  21
504.42163100
  31
0.00000000
  0
ARC
  5
D01
  330
E2F
  100
AcDbEntity
  8
0
  6
ByLayer
  62
7
  370
60
  100
AcDbCircle
  10
597.05578600
  20
504.42163100
  30
0.00000000
  40
0.50000000
  100
AcDbArc
  50
180.00000000
  51
240.00000600
  0
LINE
  5
D02
  330
E2F
  100
AcDbEntity
  8
0
  6
ByLayer
  62
7
  370
60
  48
0.44167300
  100
AcDbLine
  10
595.30578600
  20
501.39056400
  30
0.00000000
  11
610.60577400
  21
492.55709800
  31
0.00000000
  0
ARC
  5
D03
  330
E2F
  100
AcDbEntity
  8
0
  6
ByLayer
  62
7
  370
60
  100
AcDbCircle
  10
610.35577400
  20
492.12408400
  30
0.00000000
  40
3.50000000
  100
AcDbArc
  50
0.00000000
  51
60.00000300
  0
ARC
  5
D04
  330
E2F
  100
AcDbEntity
  8
0
  6
ByLayer
  62
7
  370
60
  100
AcDbCircle
  10
610.35577400
  20
492.12408400
  30
0.00000000
  40
0.50000000
  100
AcDbArc
  50
0.00020500
  51
59.99999700
  0
LINE
  5
D05
  330
E2F
  100
AcDbEntity
  8
0
  6
ByLayer
  62
7
  370
60
  100
AcDbLine
  10
613.85577400
  20
492.12408400
  30
0.00000000
  11
613.85577400
  21
144.96382100
  31
0.00000000
  0
ARC
  5
D06
  330
E2F
  100
AcDbEntity
  8
0
  6
ByLayer
  62
7
  370
60
  100
AcDbCircle
  10
610.35577400
  20
144.96382100
  30
0.00000000
  40
3.50000000
  100
AcDbArc
  50
299.99999400
  51
360.00000000
  0
LINE
  5
D07
  330
E2F
  100
AcDbEntity
  8
0
  6
ByLayer
  62
7
  370
60
  48
0.44167300
  100
AcDbLine
  10
612.10577400
  20
141.93272400
  30
0.00000000
  11
596.80578600
  21
133.09927400
  31
0.00000000
  0
ARC
  5
D08
  330
E2F
  100
AcDbEntity
  8
0
  6
ByLayer
  62
7
  370
60
  100
AcDbCircle
  10
597.05578600
  20
132.66626000
  30
0.00000000
  40
0.50000000
  100
AcDbArc
  50
120.00000300
  51
180.00000000
  0
LINE
  5
D09
  330
E2F
  100
AcDbEntity
  8
0
  6
ByLayer
  62
7
  370
60
  48
0.15863300
  100
AcDbLine
  10
596.55578600
  20
132.66626000
  30
0.00000000
  11
596.55578600
  21
126.32095300
  31
0.00000000
  0
LINE
  5
D0A
  330
E2F
  100
AcDbEntity
  8
0
  6
ByLayer
  62
7
  370
60
  48
0.15863300
  100
AcDbLine
  10
596.55578600
  20
510.76693700
  30
0.00000000
  11
596.55578600
  21
504.42163100
  31
0.00000000
  0
ARC
  5
D0B
  330
E2F
  100
AcDbEntity
  8
0
  6
ByLayer
  62
7
  370
60
  100
AcDbCircle
  10
597.05578600
  20
504.42163100
  30
0.00000000
  40
0.50000000
  100
AcDbArc
  50
180.00000000
  51
240.00000600
  0
LINE
  5
D0C
  330
E2F
  100
AcDbEntity
  8
0
  6
ByLayer
  62
7
  370
60
  48
0.44167300
  100
AcDbLine
  10
595.30578600
  20
501.39056400
  30
0.00000000
  11
610.60577400
  21
492.55709800
  31
0.00000000
  0
ARC
  5
D0D
  330
E2F
  100
AcDbEntity
  8
0
  6
ByLayer
  62
7
  370
60
  100
AcDbCircle
  10
610.35577400
  20
492.12408400
  30
0.00000000
  40
0.50000000
  100
AcDbArc
  50
0.00017100
  51
59.99999700
  0
LINE
  5
D0E
  330
E2F
  100
AcDbEntity
  8
0
  6
ByLayer
  62
7
  370
60
  100
AcDbLine
  10
613.85577400
  20
492.12408400
  30
0.00000000
  11
613.85577400
  21
144.96382100
  31
0.00000000
  0
ARC
  5
D0F
  330
E2F
  100
AcDbEntity
  8
0
  6
ByLayer
  62
7
  370
60
  100
AcDbCircle
  10
610.35577400
  20
144.96382100
  30
0.00000000
  40
3.50000000
  100
AcDbArc
  50
299.99999400
  51
360.00000000
  0
LINE
  5
D10
  330
E2F
  100
AcDbEntity
  8
0
  6
ByLayer
  62
7
  370
60
  48
0.44167300
  100
AcDbLine
  10
612.10577400
  20
141.93272400
  30
0.00000000
  11
596.80578600
  21
133.09927400
  31
0.00000000
  0
ARC
  5
D11
  330
E2F
  100
AcDbEntity
  8
0
  6
ByLayer
  62
7
  370
60
  100
AcDbCircle
  10
597.05578600
  20
132.66626000
  30
0.00000000
  40
0.50000000
  100
AcDbArc
  50
120.00000300
  51
180.00000000
  0
LINE
  5
D12
  330
E2F
  100
AcDbEntity
  8
0
  6
ByLayer
  62
7
  370
60
  48
0.15863300
  100
AcDbLine
  10
596.55578600
  20
132.66626000
  30
0.00000000
  11
596.55578600
  21
126.32095300
  31
0.00000000
  0
LINE
  5
D13
  330
E2F
  100
AcDbEntity
  8
0
  6
ByLayer
  62
7
  370
60
  48
0.15863300
  100
AcDbLine
  10
596.55578600
  20
510.76693700
  30
0.00000000
  11
596.55578600
  21
504.42163100
  31
0.00000000
  0
ARC
  5
D14
  330
E2F
  100
AcDbEntity
  8
0
  6
ByLayer
  62
7
  370
60
  100
AcDbCircle
  10
597.05578600
  20
504.42163100
  30
0.00000000
  40
0.50000000
  100
AcDbArc
  50
180.00000000
  51
240.00000600
  0
LINE
  5
D15
  330
E2F
  100
AcDbEntity
  8
0
  6
ByLayer
  62
7
  370
60
  48
0.44167300
  100
AcDbLine
  10
595.30578600
  20
501.39056400
  30
0.00000000
  11
610.60577400
  21
492.55709800
  31
0.00000000
  0
ARC
  5
D16
  330
E2F
  100
AcDbEntity
  8
0
  6
ByLayer
  62
7
  370
60
  100
AcDbCircle
  10
610.35577400
  20
492.12408400
  30
0.00000000
  40
0.50000000
  100
AcDbArc
  50
0.00000000
  51
60.00000300
  0
LINE
  5
D17
  330
E2F
  100
AcDbEntity
  8
0
  6
ByLayer
  62
7
  370
60
  100
AcDbLine
  10
613.85577400
  20
492.12408400
  30
0.00000000
  11
613.85577400
  21
144.96382100
  31
0.00000000
  0
ARC
  5
D18
  330
E2F
  100
AcDbEntity
  8
0
  6
ByLayer
  62
7
  370
60
  100
AcDbCircle
  10
610.35577400
  20
144.96382100
  30
0.00000000
  40
3.50000000
  100
AcDbArc
  50
299.99999400
  51
360.00000000
  0
LINE
  5
D19
  330
E2F
  100
AcDbEntity
  8
0
  6
ByLayer
  62
7
  370
60
  48
0.44167300
  100
AcDbLine
  10
612.10577400
  20
141.93272400
  30
0.00000000
  11
596.80578600
  21
133.09927400
  31
0.00000000
  0
ARC
  5
D1A
  330
E2F
  100
AcDbEntity
  8
0
  6
ByLayer
  62
7
  370
60
  100
AcDbCircle
  10
597.05578600
  20
132.66626000
  30
0.00000000
  40
0.50000000
  100
AcDbArc
  50
120.00000300
  51
180.00000000
  0
LINE
  5
D1B
  330
E2F
  100
AcDbEntity
  8
0
  6
ByLayer
  62
7
  370
60
  48
0.15863300
  100
AcDbLine
  10
596.55578600
  20
132.66626000
  30
0.00000000
  11
596.55578600
  21
126.32095300
  31
0.00000000
  0
LINE
  5
D1C
  330
E2F
  100
AcDbEntity
  8
0
  6
ByLayer
  62
7
  370
60
  48
0.15863300
  100
AcDbLine
  10
596.55578600
  20
510.76693700
  30
0.00000000
  11
596.55578600
  21
504.42163100
  31
0.00000000
  0
ARC
  5
D1D
  330
E2F
  100
AcDbEntity
  8
0
  6
ByLayer
  62
7
  370
60
  100
AcDbCircle
  10
597.05578600
  20
504.42163100
  30
0.00000000
  40
0.50000000
  100
AcDbArc
  50
180.00000000
  51
240.00000600
  0
LINE
  5
D1E
  330
E2F
  100
AcDbEntity
  8
0
  6
ByLayer
  62
7
  370
60
  48
0.44167300
  100
AcDbLine
  10
595.30578600
  20
501.39056400
  30
0.00000000
  11
610.60577400
  21
492.55709800
  31
0.00000000
  0
ARC
  5
D1F
  330
E2F
  100
AcDbEntity
  8
0
  6
ByLayer
  62
7
  370
60
  100
AcDbCircle
  10
610.35577400
  20
492.12408400
  30
0.00000000
  40
0.50000000
  100
AcDbArc
  50
0.00000000
  51
60.00000300
  0
LINE
  5
D20
  330
E2F
  100
AcDbEntity
  8
0
  6
ByLayer
  62
7
  370
60
  100
AcDbLine
  10
613.85577400
  20
492.12408400
  30
0.00000000
  11
613.85577400
  21
144.96382100
  31
0.00000000
  0
ARC
  5
D21
  330
E2F
  100
AcDbEntity
  8
0
  6
ByLayer
  62
7
  370
60
  100
AcDbCircle
  10
610.35577400
  20
144.96382100
  30
0.00000000
  40
3.50000000
  100
AcDbArc
  50
299.99999400
  51
360.00000000
  0
LINE
  5
D22
  330
E2F
  100
AcDbEntity
  8
0
  6
ByLayer
  62
7
  370
60
  48
0.44167300
  100
AcDbLine
  10
612.10577400
  20
141.93272400
  30
0.00000000
  11
596.80578600
  21
133.09927400
  31
0.00000000
  0
ARC
  5
D23
  330
E2F
  100
AcDbEntity
  8
0
  6
ByLayer
  62
7
  370
60
  100
AcDbCircle
  10
597.05578600
  20
132.66626000
  30
0.00000000
  40
0.50000000
  100
AcDbArc
  50
120.00000300
  51
180.00000000
  0
LINE
  5
D24
  330
E2F
  100
AcDbEntity
  8
0
  6
ByLayer
  62
7
  370
60
  48
0.15863300
  100
AcDbLine
  10
596.55578600
  20
132.66626000
  30
0.00000000
  11
596.55578600
  21
126.32095300
  31
0.00000000
  0
LINE
  5
D25
  330
E2F
  100
AcDbEntity
  8
0
  6
ByLayer
  62
7
  370
60
  48
0.15863300
  100
AcDbLine
  10
596.55578600
  20
510.76693700
  30
0.00000000
  11
596.55578600
  21
504.42163100
  31
0.00000000
  0
ARC
  5
D26
  330
E2F
  100
AcDbEntity
  8
0
  6
ByLayer
  62
7
  370
60
  100
AcDbCircle
  10
597.05578600
  20
504.42163100
  30
0.00000000
  40
0.50000000
  100
AcDbArc
  50
180.00000000
  51
240.00000600
  0
LINE
  5
D27
  330
E2F
  100
AcDbEntity
  8
0
  6
ByLayer
  62
7
  370
60
  48
0.44167300
  100
AcDbLine
  10
595.30578600
  20
501.39056400
  30
0.00000000
  11
610.60577400
  21
492.55709800
  31
0.00000000
  0
ARC
  5
D28
  330
E2F
  100
AcDbEntity
  8
0
  6
ByLayer
  62
7
  370
60
  100
AcDbCircle
  10
610.35577400
  20
492.12408400
  30
0.00000000
  40
0.50000000
  100
AcDbArc
  50
0.00000000
  51
60.00000300
  0
LINE
  5
D29
  330
E2F
  100
AcDbEntity
  8
0
  6
ByLayer
  62
7
  370
60
  100
AcDbLine
  10
613.85577400
  20
492.12408400
  30
0.00000000
  11
613.85577400
  21
144.96382100
  31
0.00000000
  0
ARC
  5
D2A
  330
E2F
  100
AcDbEntity
  8
0
  6
ByLayer
  62
7
  370
60
  100
AcDbCircle
  10
610.35577400
  20
144.96382100
  30
0.00000000
  40
3.50000000
  100
AcDbArc
  50
299.99999400
  51
360.00000000
  0
LINE
  5
D2B
  330
E2F
  100
AcDbEntity
  8
0
  6
ByLayer
  62
7
  370
60
  48
0.44167300
  100
AcDbLine
  10
612.10577400
  20
141.93272400
  30
0.00000000
  11
596.80578600
  21
133.09927400
  31
0.00000000
  0
ARC
  5
D2C
  330
E2F
  100
AcDbEntity
  8
0
  6
ByLayer
  62
7
  370
60
  100
AcDbCircle
  10
597.05578600
  20
132.66626000
  30
0.00000000
  40
0.50000000
  100
AcDbArc
  50
120.00000300
  51
180.00000000
  0
LINE
  5
D2D
  330
E2F
  100
AcDbEntity
  8
0
  6
ByLayer
  62
7
  370
60
  48
0.15863300
  100
AcDbLine
  10
596.55578600
  20
132.66626000
  30
0.00000000
  11
596.55578600
  21
126.32095300
  31
0.00000000
  0
LINE
  5
D2E
  330
E2F
  100
AcDbEntity
  8
0
  6
ByLayer
  62
7
  370
60
  48
0.15863300
  100
AcDbLine
  10
596.55578600
  20
510.76693700
  30
0.00000000
  11
596.55578600
  21
504.42163100
  31
0.00000000
  0
ARC
  5
D2F
  330
E2F
  100
AcDbEntity
  8
0
  6
ByLayer
  62
7
  370
60
  100
AcDbCircle
  10
597.05578600
  20
504.42163100
  30
0.00000000
  40
0.50000000
  100
AcDbArc
  50
180.00000000
  51
240.00000600
  0
LINE
  5
D30
  330
E2F
  100
AcDbEntity
  8
0
  6
ByLayer
  62
7
  370
60
  48
0.44167300
  100
AcDbLine
  10
595.30578600
  20
501.39056400
  30
0.00000000
  11
610.60577400
  21
492.55709800
  31
0.00000000
  0
ARC
  5
D31
  330
E2F
  100
AcDbEntity
  8
0
  6
ByLayer
  62
7
  370
60
  100
AcDbCircle
  10
610.35577400
  20
492.12408400
  30
0.00000000
  40
0.50000000
  100
AcDbArc
  50
0.00000000
  51
60.00000300
  0
LINE
  5
D32
  330
E2F
  100
AcDbEntity
  8
0
  6
ByLayer
  62
7
  370
60
  100
AcDbLine
  10
613.85577400
  20
492.12408400
  30
0.00000000
  11
613.85577400
  21
144.96382100
  31
0.00000000
  0
ARC
  5
D33
  330
E2F
  100
AcDbEntity
  8
0
  6
ByLayer
  62
7
  370
60
  100
AcDbCircle
  10
610.35577400
  20
144.96382100
  30
0.00000000
  40
3.50000000
  100
AcDbArc
  50
299.99999400
  51
360.00000000
  0
LINE
  5
D34
  330
E2F
  100
AcDbEntity
  8
0
  6
ByLayer
  62
7
  370
60
  48
0.44167300
  100
AcDbLine
  10
612.10577400
  20
141.93272400
  30
0.00000000
  11
596.80578600
  21
133.09927400
  31
0.00000000
  0
ARC
  5
D35
  330
E2F
  100
AcDbEntity
  8
0
  6
ByLayer
  62
7
  370
60
  100
AcDbCircle
  10
597.05578600
  20
132.66626000
  30
0.00000000
  40
0.50000000
  100
AcDbArc
  50
120.00000300
  51
180.00000000
  0
LINE
  5
D36
  330
E2F
  100
AcDbEntity
  8
0
  6
ByLayer
  62
7
  370
60
  48
0.15863300
  100
AcDbLine
  10
596.55578600
  20
132.66626000
  30
0.00000000
  11
596.55578600
  21
126.32095300
  31
0.00000000
  0
LINE
  5
D37
  330
E2F
  100
AcDbEntity
  8
0
  6
ByLayer
  62
7
  370
60
  48
0.15863300
  100
AcDbLine
  10
596.55578600
  20
510.76693700
  30
0.00000000
  11
596.55578600
  21
504.42163100
  31
0.00000000
  0
LINE
  5
D38
  330
E2F
  100
AcDbEntity
  8
0
  6
ByLayer
  62
7
  370
60
  48
0.15863300
  100
AcDbLine
  10
593.55578600
  20
510.76693700
  30
0.00000000
  11
593.55578600
  21
504.42163100
  31
0.00000000
  0
ARC
  5
D39
  330
E2F
  100
AcDbEntity
  8
0
  6
ByLayer
  62
7
  370
60
  100
AcDbCircle
  10
597.05578600
  20
504.42163100
  30
0.00000000
  40
0.50000000
  100
AcDbArc
  50
180.00000000
  51
240.00000600
  0
ARC
  5
D3A
  330
E2F
  100
AcDbEntity
  8
0
  6
ByLayer
  62
7
  370
60
  100
AcDbCircle
  10
597.05578600
  20
504.42163100
  30
0.00000000
  40
3.50000000
  100
AcDbArc
  50
180.00000000
  51
240.00000600
  0
LINE
  5
D3B
  330
E2F
  100
AcDbEntity
  8
0
  6
ByLayer
  62
7
  370
60
  48
0.44167300
  100
AcDbLine
  10
596.80578600
  20
503.98864700
  30
0.00000000
  11
612.10577400
  21
495.15518200
  31
0.00000000
  0
LINE
  5
D3C
  330
E2F
  100
AcDbEntity
  8
0
  6
ByLayer
  62
7
  370
60
  48
0.44167300
  100
AcDbLine
  10
595.30578600
  20
501.39056400
  30
0.00000000
  11
610.60577400
  21
492.55709800
  31
0.00000000
  0
ARC
  5
D3D
  330
E2F
  100
AcDbEntity
  8
0
  6
ByLayer
  62
7
  370
60
  100
AcDbCircle
  10
610.35577400
  20
492.12408400
  30
0.00000000
  40
3.50000000
  100
AcDbArc
  50
0.00000000
  51
60.00000300
  0
ARC
  5
D3E
  330
E2F
  100
AcDbEntity
  8
0
  6
ByLayer
  62
7
  370
60
  100
AcDbCircle
  10
610.35577400
  20
492.12408400
  30
0.00000000
  40
0.50000000
  100
AcDbArc
  50
0.00000000
  51
60.00000300
  0
LINE
  5
D3F
  330
E2F
  100
AcDbEntity
  8
0
  6
ByLayer
  62
7
  370
60
  100
AcDbLine
  10
613.85577400
  20
492.12408400
  30
0.00000000
  11
613.85577400
  21
144.96382100
  31
0.00000000
  0
LINE
  5
D40
  330
E2F
  100
AcDbEntity
  8
0
  6
ByLayer
  62
7
  370
60
  100
AcDbLine
  10
610.85577400
  20
492.12408400
  30
0.00000000
  11
610.85577400
  21
144.96382100
  31
0.00000000
  0
ARC
  5
D41
  330
E2F
  100
AcDbEntity
  8
0
  6
ByLayer
  62
7
  370
60
  100
AcDbCircle
  10
610.35577400
  20
144.96382100
  30
0.00000000
  40
3.50000000
  100
AcDbArc
  50
299.99999400
  51
360.00000000
  0
ARC
  5
D42
  330
E2F
  100
AcDbEntity
  8
0
  6
ByLayer
  62
7
  370
60
  100
AcDbCircle
  10
610.35577400
  20
144.96382100
  30
0.00000000
  40
0.50000000
  100
AcDbArc
  50
299.99999400
  51
0.00000000
  0
LINE
  5
D43
  330
E2F
  100
AcDbEntity
  8
0
  6
ByLayer
  62
7
  370
60
  48
0.44167300
  100
AcDbLine
  10
612.10577400
  20
141.93272400
  30
0.00000000
  11
596.80578600
  21
133.09927400
  31
0.00000000
  0
LINE
  5
D44
  330
E2F
  100
AcDbEntity
  8
0
  6
ByLayer
  62
7
  370
60
  48
0.44167300
  100
AcDbLine
  10
610.60577400
  20
144.53080700
  30
0.00000000
  11
595.30578600
  21
135.69734200
  31
0.00000000
  0
ARC
  5
D45
  330
E2F
  100
AcDbEntity
  8
0
  6
ByLayer
  62
7
  370
60
  100
AcDbCircle
  10
597.05578600
  20
132.66626000
  30
0.00000000
  40
0.50000000
  100
AcDbArc
  50
120.00000300
  51
180.00000000
  0
ARC
  5
D46
  330
E2F
  100
AcDbEntity
  8
0
  6
ByLayer
  62
7
  370
60
  100
AcDbCircle
  10
597.05578600
  20
132.66626000
  30
0.00000000
  40
3.50000000
  100
AcDbArc
  50
120.00000300
  51
180.00000000
  0
LINE
  5
D47
  330
E2F
  100
AcDbEntity
  8
0
  6
ByLayer
  62
7
  370
60
  48
0.15863300
  100
AcDbLine
  10
596.55578600
  20
132.66626000
  30
0.00000000
  11
596.55578600
  21
126.32095300
  31
0.00000000
  0
LINE
  5
D48
  330
E2F
  100
AcDbEntity
  8
0
  6
ByLayer
  62
7
  370
60
  48
0.15863300
  100
AcDbLine
  10
593.55578600
  20
132.66626000
  30
0.00000000
  11
593.55578600
  21
126.32095300
  31
0.00000000
  0
DIMENSION
  5
E0E
  330
E2F
  100
AcDbEntity
  8
0
  6
ByLayer
  370
40
  100
AcDbDimension
  2
*DE0E
  10
477.04821885
  20
554.62724891
  30
0.00000000
  11
309.39127121
  21
554.62724891
  31
0.00000000
  70
160
  42
387.65357442
  71
0
  42
387.65357442
  3
Standard
  51
0.00000000
  100
AcDbAlignedDimension
  13
115.56448400
  23
355.59232721
  33
0.00000000
  14
503.21805842
  24
355.59232721
  34
0.00000000
  50
0.00000000
  100
AcDbRotatedDimension
  1001
ACAD
  1000
DSTYLE
  1002
{
  1070
41
  1040
10.00000000
  1070
140
  1040
14.00000000
  1070
147
  1040
5.00000000
  1070
77
  1070
1
  1070
73
  1070
0
  1002
}
  0
DIMENSION
  5
E12
  330
E2F
  100
AcDbEntity
  8
0
  6
ByLayer
  370
40
  100
AcDbDimension
  2
*DE12
  10
81.16775990
  20
115.50749993
  30
0.00000000
  11
81.16775990
  21
321.44345706
  31
0.00000000
  70
160
  42
406.52082682
  71
0
  42
406.52082682
  3
Standard
  51
0.00000000
  100
AcDbAlignedDimension
  13
211.97728982
  23
524.83081100
  33
0.00000000
  14
239.74624020
  24
118.30998418
  34
0.00000000
  50
90.00000000
  100
AcDbRotatedDimension
  1001
ACAD
  1000
DSTYLE
  1002
{
  1070
41
  1040
10.00000000
  1070
140
  1040
14.00000000
  1070
147
  1040
5.00000000
  1070
77
  1070
1
  1070
73
  1070
0
  1002
}
  0
DIMENSION
  5
E18
  330
E2F
  100
AcDbEntity
  8
0
  6
ByLayer
  370
40
  100
AcDbDimension
  2
*DE18
  10
599.90518161
  20
554.62724891
  30
0.00000000
  11
600.08518161
  21
554.62724891
  31
0.00000000
  70
160
  42
24.50058373
  71
0
  42
24.50058373
  3
Standard
  51
0.00000000
  100
AcDbAlignedDimension
  13
613.85635773
  23
476.99301763
  33
0.00000000
  14
589.35577400
  24
521.74892429
  34
0.00000000
  50
0.00000000
  100
AcDbRotatedDimension
  1001
ACAD
  1000
DSTYLE
  1002
{
  1070
41
  1040
10.00000000
  1070
140
  1040
14.00000000
  1070
147
  1040
5.00000000
  1070
77
  1070
1
  1002
}
  0
VIEWPORT
  5
E5B
  330
E30
  100
AcDbEntity
  67
1
  8
0
  100
AcDbViewport
  10
0.00000000
  20
0.00000000
  30
0.00000000
  40
24.97000000
  41
1000.00000000
  68
1
  69
1
  12
0.00000000
  22
0.00000000
  13
0.00000000
  23
0.00000000
  14
1.00000000
  24
1.00000000
  15
1.00000000
  25
1.00000000
  16
0.00000000
  26
0.00000000
  36
1.00000000
  17
0.00000000
  27
0.00000000
  37
0.00000000
  42
50.00000000
  43
0.00000000
  44
0.00000000
  45
1000.00000000
  50
0.00000000
  51
0.00000000
  72
1000
  90
32800
  1

  281
0
  71
1
  74
0
  110
0.00000000
  120
0.00000000
  130
0.00000000
  111
1.00000000
  121
0.00000000
  131
0.00000000
  112
0.00000000
  122
1.00000000
  132
0.00000000
  79
0
  146
0.00000000
  0
ENDSEC
  0
SECTION
  2
OBJECTS
  0
DICTIONARY
  5
E5C
  330
0
  100
AcDbDictionary
  281
1
  3
ACAD_GROUP
  350
E5D
  3
ACAD_LAYOUT
  350
E5E
  3
ACAD_MLINESTYLE
  350
E5F
  3
ACAD_PLOTSETTINGS
  350
E60
  3
ACAD_PLOTSTYLENAME
  350
E61
  3
VECTORDRAW_OBJECTS
  350
E62
  3
DWGPROPS
  350
E63
  0
DICTIONARY
  5
E5D
  102
{ACAD_REACTORS
  330
E5C
  102
}
  330
E5C
  100
AcDbDictionary
  281
1
  0
DICTIONARY
  5
E5E
  102
{ACAD_REACTORS
  330
E5C
  102
}
  330
E5C
  100
AcDbDictionary
  281
1
  3
Layout1
  350
21
  3
Model
  350
A
  0
DICTIONARY
  5
E5F
  102
{ACAD_REACTORS
  330
E5C
  102
}
  330
E5C
  100
AcDbDictionary
  281
1
  3
Standard
  350
E64
  0
DICTIONARY
  5
E60
  102
{ACAD_REACTORS
  330
E5C
  102
}
  330
E5C
  100
AcDbDictionary
  281
1
  0
ACDBDICTIONARYWDFLT
  5
E61
  102
{ACAD_REACTORS
  330
E5C
  102
}
  330
E5C
  100
AcDbDictionary
  281
1
  3
Normal
  350
E1F
  100
AcDbDictionaryWithDefault
  340
E1F
  0
DICTIONARY
  5
E62
  102
{ACAD_REACTORS
  330
E5C
  102
}
  330
E5C
  100
AcDbDictionary
  281
1
  3
SERIALNO
  350
E65
  0
LAYOUT
  5
21
  102
{ACAD_REACTORS
  330
E5E
  102
}
  330
E5E
  100
AcDbPlotSettings
  1

  2

  4

  6

  40
0.00000000
  41
0.00000000
  42
0.00000000
  43
0.00000000
  44
210.05800000
  45
296.92600000
  46
0.00000000
  47
0.00000000
  48
-500.00000000
  49
-500.00000000
  140
500.00000000
  141
500.00000000
  142
1.00000000
  143
1.00000000
  70
688
  72
1
  73
0
  74
4
  7

  75
16
  147
1.00000000
  148
500.00000000
  149
500.00000000
  100
AcDbLayout
  1
Layout1
  70
1
  71
1
  10
0.00000000
  20
0.00000000
  11
12.00000000
  21
9.00000000
  12
0.00000000
  22
0.00000000
  32
0.00000000
  14
0.00000000
  24
0.00000000
  34
0.00000000
  15
0.00000000
  25
0.00000000
  35
0.00000000
  146
0.00000000
  13
0.00000000
  23
0.00000000
  33
0.00000000
  16
1.00000000
  26
0.00000000
  36
0.00000000
  17
0.00000000
  27
1.00000000
  37
0.00000000
  76
0
  330
E30
  1001
VD_EX_PRINTER_DWG_STYLE_SHEET
  1000

  1001
VD_EX_PRINTER_SIZEX
  1040
0.00000000
  1001
VD_EX_PRINTER_AVSIZEX
  1040
0.00000000
  1001
VD_EX_PRINTER_SIZEY
  1040
0.00000000
  1001
VD_EX_PRINTER_AVSIZEY
  1040
0.00000000
  0
LAYOUT
  5
A
  102
{ACAD_REACTORS
  330
E5E
  102
}
  330
E5E
  100
AcDbPlotSettings
  1
VectorDraw Printer Drawing
  2

  4

  6

  40
0.00000000
  41
0.00000000
  42
0.00000000
  43
0.00000000
  44
210.05800000
  45
296.92600000
  46
0.00000000
  47
0.00000000
  48
2.01210350
  49
-0.00000050
  140
11.17047250
  141
9.15836850
  142
1.00000000
  143
1.00000000
  72
1
  73
0
  74
4
  7

  75
0
  147
1.00000000
  148
-2.01210350
  149
0.00000050
  100
AcDbLayout
  1
Model
  70
1
  71
0
  10
1.00000000
  20
0.00000000
  11
0.00000000
  21
1.00000000
  12
0.00000000
  22
0.00000000
  32
0.00000000
  14
718.89545139
  24
110.24725300
  34
74.56227759
  15
554.71483604
  25
0.00000000
  35
0.00000000
  146
0.00000000
  13
0.00000000
  23
0.00000000
  33
0.00000000
  16
1.00000000
  26
0.00000000
  36
0.00000000
  17
0.00000000
  27
1.00000000
  37
0.00000000
  76
0
  330
E2F
  1001
VD_EX_PRINTER_DWG_STYLE_SHEET
  1000

  1001
VD_EX_PRINTER_SIZEX
  1040
0.00000000
  1001
VD_EX_PRINTER_AVSIZEX
  1040
0.00000000
  1001
VD_EX_PRINTER_SIZEY
  1040
0.00000000
  1001
VD_EX_PRINTER_AVSIZEY
  1040
0.00000000
  0
MLINESTYLE
  5
E64
  102
{ACAD_REACTORS
  330
E5F
  102
}
  330
E5F
  100
AcDbMlineStyle
  2
Standard
  70
0
  3

  62
256
  51
90.00000000
  52
90.00000000
  71
2
  49
0.50000000
  62
256
  6
BYLAYER
  49
-0.50000000
  62
256
  6
BYLAYER
  0
ACDBPLACEHOLDER
  5
E1F
  102
{ACAD_REACTORS
  330
E61
  102
}
  330
E61
  0
XRECORD
  5
E65
  102
{ACAD_REACTORS
  330
E62
  102
}
  330
E62
  100
AcDbXrecord
  280
1
  1000
udnjVM6OT3ptXXPNDrqErnGX8
  1070
5
  1070
1
  0
XRECORD
  5
E63
  102
{ACAD_REACTORS
  330
E5C
  102
}
  330
E5C
  100
AcDbXrecord
  280
1
  1
DWGPROPS COOKIE
  2

  3

  4

  6

  7

  8

  9

  40
0.00000000
  41
0.00000000
  42
0.00000000
  1

  90
0
  0
ENDSEC
  999
Created By VectorDraw :6.1.6015.0
  0
EOF
