  0
SECTION
  2
HEADER
  9
$ACADVER
  1
AC1018
  9
$ACADMAINTVER
  70
6
  9
$DWGCODEPAGE
  3
ansi_1252
  9
$TITLE
  1
VectorDraw Document
  9
$INSBASE
  10
0.00000000
  20
0.00000000
  30
0.00000000
  9
$EXTMIN
  10
-2.87699062
  20
87.01059121
  30
0.00000000
  9
$EXTMAX
  10
602.90610288
  20
552.44951396
  30
0.00000000
  9
$LIMMIN
  10
0.00000000
  20
0.00000000
  9
$LIMMAX
  10
1.00000000
  20
1.00000000
  9
$ORTHOMODE
  70
1
  9
$REGENMODE
  70
1
  9
$FILLMODE
  70
1
  9
$QTEXTMODE
  70
0
  9
$MIRRTEXT
  70
1
  9
$LTSCALE
  40
1.00000000
  9
$ATTMODE
  70
1
  9
$TEXTSIZE
  40
0.20000000
  9
$TRACEWID
  40
0.05000000
  9
$TEXTSTYLE
  7
Standard
  9
$CLAYER
  8
0
  9
$CELTYPE
  6
ByLayer
  9
$CECOLOR
  62
256
  9
$CELTSCALE
  40
1.00000000
  9
$DISPSILH
  70
0
  9
$DIMSCALE
  40
1.00000000
  9
$DIMASZ
  40
0.18000000
  9
$DIMEXO
  40
0.18000000
  9
$DIMRND
  40
0.00000000
  9
$DIMDLE
  40
0.00000000
  9
$DIMEXE
  40
0.06250000
  9
$DIMTP
  40
1.00000000
  9
$DIMTM
  40
1.00000000
  9
$DIMTXT
  40
0.18000000
  9
$DIMTSZ
  40
0.0
  9
$DIMTOL
  70
0
  9
$DIMLIM
  70
0
  9
$DIMTIH
  70
1
  9
$DIMTOH
  70
0
  9
$DIMSE1
  70
0
  9
$DIMSE2
  70
0
  9
$DIMTAD
  70
0
  9
$DIMZIN
  70
1
  9
$DIMBLK
  1
VDDIM_DEFAULT
  9
$DIMASO
  70
1
  9
$DIMSHO
  70
1
  9
$DIMPOST
  1

  9
$DIMAPOST
  1

  9
$DIMALT
  70
0
  9
$DIMBLK1
  1

  9
$DIMBLK2
  1

  9
$DIMSTYLE
  2
Standard
  9
$DIMCLRD
  70
0
  9
$DIMCLRE
  70
0
  9
$DIMCLRT
  70
0
  9
$DIMTFAC
  40
1.00000000
  9
$DIMSD1
  70
0
  9
$DIMSD2
  70
0
  9
$DIMTOLJ
  70
1
  9
$DIMTXSTY
  7
Standard
  9
$DIMAUNIT
  70
0
  9
$DIMADEC
  70
0
  9
$DIMAZIN
  70
0
  9
$DIMLUNIT
  70
2
  9
$LUNITS
  70
2
  9
$LUPREC
  70
4
  9
$FILLETRAD
  40
0.50000000
  9
$AUNITS
  70
0
  9
$AUPREC
  70
0
  9
$MENU
  1

  9
$ELEVATION
  40
0.00000000
  9
$PELEVATION
  40
0.00000000
  9
$THICKNESS
  40
0.00000000
  9
$ANGBASE
  50
0.00000000
  9
$ANGDIR
  70
0
  9
$PDMODE
  70
0
  9
$PDSIZE
  40
0.00000000
  9
$PLINEWID
  40
0.00000000
  9
$SPLFRAME
  70
0
  9
$SPLINETYPE
  70
6
  9
$SPLINESEGS
  70
8
  9
$HANDSEED
  5
       715
  9
$SURFTAB1
  70
6
  9
$SURFTAB2
  70
6
  9
$SURFTYPE
  70
6
  9
$SURFU
  70
6
  9
$SURFV
  70
6
  9
$UCSBASE
  2

  9
$UCSNAME
  2

  9
$UCSORG
  10
0.00000000
  20
0.00000000
  30
0.00000000
  9
$UCSXDIR
  10
1.00000000
  20
0.00000000
  30
0.00000000
  9
$UCSYDIR
  10
0.00000000
  20
1.00000000
  30
0.00000000
  9
$UCSORGTOP
  10
0.00000000
  20
0.00000000
  30
0.00000000
  9
$UCSORGBOTTOM
  10
0.00000000
  20
0.00000000
  30
0.00000000
  9
$UCSORGLEFT
  10
0.00000000
  20
0.00000000
  30
0.00000000
  9
$UCSORGRIGHT
  10
0.00000000
  20
0.00000000
  30
0.00000000
  9
$UCSORGFRONT
  10
0.00000000
  20
0.00000000
  30
0.00000000
  9
$UCSORGBACK
  10
0.00000000
  20
0.00000000
  30
0.00000000
  9
$PUCSBASE
  2

  9
$PUCSNAME
  2

  9
$PUCSXDIR
  10
1.00000000
  20
0.00000000
  30
0.00000000
  9
$PUCSYDIR
  10
0.00000000
  20
1.00000000
  30
0.00000000
  9
$PUCSORGTOP
  10
0.00000000
  20
0.00000000
  30
0.00000000
  9
$PUCSORGBOTTOM
  10
0.00000000
  20
0.00000000
  30
0.00000000
  9
$PUCSORGLEFT
  10
0.00000000
  20
0.00000000
  30
0.00000000
  9
$PUCSORGRIGHT
  10
0.00000000
  20
0.00000000
  30
0.00000000
  9
$PUCSORGFRONT
  10
0.00000000
  20
0.00000000
  30
0.00000000
  9
$PUCSORGBACK
  10
0.00000000
  20
0.00000000
  30
0.00000000
  9
$USERI1
  70
0
  9
$USERI2
  70
0
  9
$USERI3
  70
0
  9
$USERI4
  70
0
  9
$USERI5
  70
0
  9
$USERR1
  40
0.00000000
  9
$USERR2
  40
0.00000000
  9
$USERR3
  40
0.00000000
  9
$USERR4
  40
0.00000000
  9
$USERR5
  40
0.00000000
  9
$TILEMODE
  70
1
  9
$PINSBASE
  10
0.00000000
  20
0.00000000
  30
0.00000000
  9
$LWDISPLAY
  290
0
  9
$INSUNITS
  70
0
  9
$MEASUREMENT
  70
1
  0
ENDSEC
  0
SECTION
  2
CLASSES
  0
CLASS
  1
ACDBDICTIONARYWDFLT
  2
AcDbDictionaryWithDefault
  3
ObjectDBX Classes
  90
0
  91
1
  280
0
  281
0
  0
CLASS
  1
IMAGEDEF
  2
AcDbRasterImageDef
  3
ISM
  90
0
  91
1
  280
0
  281
0
  0
CLASS
  1
IMAGE
  2
AcDbRasterImage
  3
ISM
  90
127
  91
1
  280
0
  281
1
  0
CLASS
  1
IMAGEDEF_REACTOR
  2
AcDbRasterImageDefReactor
  3
ObjectDBX Classes
  90
1
  91
1
  280
0
  281
0
  0
CLASS
  1
ACDBPLACEHOLDER
  2
AcDbPlaceHolder
  3
ObjectDBX Classes
  90
0
  91
1
  280
0
  281
0
  0
CLASS
  1
LAYOUT
  2
AcDbLayout
  3
ObjectDBX Classes
  90
0
  91
1
  280
0
  281
0
  0
ENDSEC
  0
SECTION
  2
TABLES
  0
TABLE
  2
VPORT
  5
6D2
  330
0
  100
AcDbSymbolTable
  70
2
  0
VPORT
  5
6D3
  330
6D2
  100
AcDbSymbolTableRecord
  100
AcDbViewportTableRecord
  2
*Active
  70
0
  10
0.00000000
  20
0.00000000
  11
1.00000000
  21
1.00000000
  12
330.33582628
  22
397.55418696
  13
0.00000000
  23
0.00000000
  14
1.00000000
  24
1.00000000
  15
1.00000000
  25
1.00000000
  16
0.00000000
  26
0.00000000
  36
1.00000000
  17
0.00000000
  27
0.00000000
  37
0.00000000
  40
748.52366556
  41
1.00000000
  42
50.00000000
  43
0.00000000
  44
0.00000000
  50
0.00000000
  51
0.00000000
  71
0
  72
100
  73
1
  74
3
  75
0
  76
0
  77
0
  78
0
  281
0
  65
1
  110
0.00000000
  120
0.00000000
  130
0.00000000
  111
1.00000000
  121
0.00000000
  131
0.00000000
  112
0.00000000
  122
1.00000000
  132
0.00000000
  79
0
  146
0.00000000
  0
ENDTAB
  0
TABLE
  2
LTYPE
  5
6D4
  330
0
  100
AcDbSymbolTable
  70
35
  0
LTYPE
  5
11
  330
6D4
  100
AcDbSymbolTableRecord
  100
AcDbLinetypeTableRecord
  2
ByBlock
  70
0
  3
BYBLOCK________________________________________
  72
65
  73
0
  40
0.00000000
  0
LTYPE
  5
12
  330
6D4
  100
AcDbSymbolTableRecord
  100
AcDbLinetypeTableRecord
  2
ByLayer
  70
0
  3
BYLAYER________________________________________
  72
65
  73
0
  40
0.00000000
  0
LTYPE
  5
5F6
  330
6D4
  100
AcDbSymbolTableRecord
  100
AcDbLinetypeTableRecord
  2
Continuous
  70
0
  3
SOLID________________________________________
  72
65
  73
0
  40
0.00000000
  0
LTYPE
  5
24
  330
6D4
  100
AcDbSymbolTableRecord
  100
AcDbLinetypeTableRecord
  2
DASHED
  70
0
  3
__ __ __ __ __ __ __ __ __ __ __ __ __ __ __ __
  72
65
  73
2
  40
15.00000000
  49
12.00000000
  74
0
  49
-3.00000000
  74
0
  0
LTYPE
  5
25
  330
6D4
  100
AcDbSymbolTableRecord
  100
AcDbLinetypeTableRecord
  2
DASHDOT
  70
0
  3
 __ . __ . __ . __ . __ . __ . __ . 
  72
65
  73
4
  40
18.50000000
  49
12.00000000
  74
0
  49
-3.00000000
  74
0
  49
0.50000000
  74
0
  49
-3.00000000
  74
0
  0
LTYPE
  5
26
  330
6D4
  100
AcDbSymbolTableRecord
  100
AcDbLinetypeTableRecord
  2
DOT
  70
0
  3
 . . . . . . . . . . . . . . . .
  72
65
  73
2
  40
3.50000000
  49
0.50000000
  74
0
  49
-3.00000000
  74
0
  0
LTYPE
  5
27
  330
6D4
  100
AcDbSymbolTableRecord
  100
AcDbLinetypeTableRecord
  2
DASHSPACE
  70
0
  3
__    __    __    __    __   
  72
65
  73
2
  40
30.00000000
  49
12.00000000
  74
0
  49
-18.00000000
  74
0
  0
LTYPE
  5
28
  330
6D4
  100
AcDbSymbolTableRecord
  100
AcDbLinetypeTableRecord
  2
DASHDOT2
  70
0
  3
__ . . __ . . __ . . __ 
  72
65
  73
6
  40
22.00000000
  49
12.00000000
  74
0
  49
-3.00000000
  74
0
  49
0.50000000
  74
0
  49
-3.00000000
  74
0
  49
0.50000000
  74
0
  49
-3.00000000
  74
0
  0
LTYPE
  5
29
  330
6D4
  100
AcDbSymbolTableRecord
  100
AcDbLinetypeTableRecord
  2
PHANTOM
  70
0
  3
____________    ____    ____   _
  72
65
  73
6
  40
20.00000000
  49
10.00000000
  74
0
  49
-2.00000000
  74
0
  49
2.00000000
  74
0
  49
-2.00000000
  74
0
  49
2.00000000
  74
0
  49
-2.00000000
  74
0
  0
LTYPE
  5
2A
  330
6D4
  100
AcDbSymbolTableRecord
  100
AcDbLinetypeTableRecord
  2
AXES
  70
0
  3
________  __  ________  __  _____
  72
65
  73
4
  40
24.00000000
  49
15.00000000
  74
0
  49
-3.00000000
  74
0
  49
3.00000000
  74
0
  49
-3.00000000
  74
0
  0
LTYPE
  5
354
  330
6D4
  100
AcDbSymbolTableRecord
  100
AcDbLinetypeTableRecord
  2
CENTER
  70
0
  3
Center ____ _ ____ _ ____ _ ____ _ ____ _ ____
  72
65
  73
4
  40
2.00000000
  49
1.25000000
  74
0
  49
-0.25000000
  74
0
  49
0.25000000
  74
0
  49
-0.25000000
  74
0
  0
LTYPE
  5
355
  330
6D4
  100
AcDbSymbolTableRecord
  100
AcDbLinetypeTableRecord
  2
HIDDEN
  70
0
  3
Hidden __ __ __ __ __ __ __ __ __ __ __ __ __ __
  72
65
  73
2
  40
0.37500000
  49
0.25000000
  74
0
  49
-0.12500000
  74
0
  0
LTYPE
  5
356
  330
6D4
  100
AcDbSymbolTableRecord
  100
AcDbLinetypeTableRecord
  2
HIDDEN2
  70
0
  3
Hidden2 _ _ _ _ _ _ _ _ _ _ _ _ _ _ _ _ _ 
  72
65
  73
2
  40
0.18750000
  49
0.12500000
  74
0
  49
-0.06250000
  74
0
  0
LTYPE
  5
357
  330
6D4
  100
AcDbSymbolTableRecord
  100
AcDbLinetypeTableRecord
  2
BORDER
  70
0
  3
Border __ __ . __ __ . __ __ . __ __ . __ __ .
  72
65
  73
6
  40
1.75000000
  49
0.50000000
  74
0
  49
-0.25000000
  74
0
  49
0.50000000
  74
0
  49
-0.25000000
  74
0
  49
0.00000000
  74
0
  49
-0.25000000
  74
0
  0
LTYPE
  5
358
  330
6D4
  100
AcDbSymbolTableRecord
  100
AcDbLinetypeTableRecord
  2
BORDER2
  70
0
  3
Border2 __.__.__.__.__.__.__.__.__.__.__.
  72
65
  73
6
  40
0.87500000
  49
0.25000000
  74
0
  49
-0.12500000
  74
0
  49
0.25000000
  74
0
  49
-0.12500000
  74
0
  49
0.00000000
  74
0
  49
-0.12500000
  74
0
  0
LTYPE
  5
359
  330
6D4
  100
AcDbSymbolTableRecord
  100
AcDbLinetypeTableRecord
  2
BORDERX2
  70
0
  3
Borderx2  ____  ____  .  ____  ____  .  ___
  72
65
  73
6
  40
3.50000000
  49
1.00000000
  74
0
  49
-0.50000000
  74
0
  49
1.00000000
  74
0
  49
-0.50000000
  74
0
  49
0.00000000
  74
0
  49
-0.50000000
  74
0
  0
LTYPE
  5
35A
  330
6D4
  100
AcDbSymbolTableRecord
  100
AcDbLinetypeTableRecord
  2
CENTER2
  70
0
  3
Center2  ___ _ ___ _ ___ _ ___ _ ___ _ ___
  72
65
  73
4
  40
1.12500000
  49
0.75000000
  74
0
  49
-0.12500000
  74
0
  49
0.12500000
  74
0
  49
-0.12500000
  74
0
  0
LTYPE
  5
35B
  330
6D4
  100
AcDbSymbolTableRecord
  100
AcDbLinetypeTableRecord
  2
CENTERX2
  70
0
  3
Centerx2  ________  __  ________  __  _____
  72
65
  73
4
  40
4.00000000
  49
2.50000000
  74
0
  49
-0.50000000
  74
0
  49
0.50000000
  74
0
  49
-0.50000000
  74
0
  0
LTYPE
  5
35C
  330
6D4
  100
AcDbSymbolTableRecord
  100
AcDbLinetypeTableRecord
  2
DASHDOTX2
  70
0
  3
Dashdotx2 ____  .  ____  .  ____  .  ___
  72
65
  73
4
  40
2.00000000
  49
1.00000000
  74
0
  49
-0.50000000
  74
0
  49
0.00000000
  74
0
  49
-0.50000000
  74
0
  0
LTYPE
  5
35D
  330
6D4
  100
AcDbSymbolTableRecord
  100
AcDbLinetypeTableRecord
  2
DASHED2
  70
0
  3
Dashed2 _ _ _ _ _ _ _ _ _ _ _ _ _ _ _ _ _ 
  72
65
  73
2
  40
0.37500000
  49
0.25000000
  74
0
  49
-0.12500000
  74
0
  0
LTYPE
  5
35E
  330
6D4
  100
AcDbSymbolTableRecord
  100
AcDbLinetypeTableRecord
  2
DASHEDX2
  70
0
  3
Dashedx2 ____  ____  ____  ____  ____  ___
  72
65
  73
2
  40
1.50000000
  49
1.00000000
  74
0
  49
-0.50000000
  74
0
  0
LTYPE
  5
35F
  330
6D4
  100
AcDbSymbolTableRecord
  100
AcDbLinetypeTableRecord
  2
DIVIDE
  70
0
  3
Divide ____ . . ____ . . ____ . . ____ . . ____
  72
65
  73
6
  40
1.25000000
  49
0.50000000
  74
0
  49
-0.25000000
  74
0
  49
0.00000000
  74
0
  49
-0.25000000
  74
0
  49
0.00000000
  74
0
  49
-0.25000000
  74
0
  0
LTYPE
  5
360
  330
6D4
  100
AcDbSymbolTableRecord
  100
AcDbLinetypeTableRecord
  2
DIVIDE2
  70
0
  3
Divide2 __..__..__..__..__..__..__..__.._
  72
65
  73
6
  40
0.62500000
  49
0.25000000
  74
0
  49
-0.12500000
  74
0
  49
0.00000000
  74
0
  49
-0.12500000
  74
0
  49
0.00000000
  74
0
  49
-0.12500000
  74
0
  0
LTYPE
  5
361
  330
6D4
  100
AcDbSymbolTableRecord
  100
AcDbLinetypeTableRecord
  2
DIVIDEX2
  70
0
  3
Dividex2 ________  .  .  ________  .  .  _
  72
65
  73
6
  40
2.50000000
  49
1.00000000
  74
0
  49
-0.50000000
  74
0
  49
0.00000000
  74
0
  49
-0.50000000
  74
0
  49
0.00000000
  74
0
  49
-0.50000000
  74
0
  0
LTYPE
  5
362
  330
6D4
  100
AcDbSymbolTableRecord
  100
AcDbLinetypeTableRecord
  2
DOT2
  70
0
  3
Dot2 ........................................
  72
65
  73
2
  40
0.12500000
  49
0.00000000
  74
0
  49
-0.12500000
  74
0
  0
LTYPE
  5
363
  330
6D4
  100
AcDbSymbolTableRecord
  100
AcDbLinetypeTableRecord
  2
DOTX2
  70
0
  3
Dotx2 .  .  .  .  .  .  .  .  .  .  .  .  .  .
  72
65
  73
2
  40
0.50000000
  49
0.00000000
  74
0
  49
-0.50000000
  74
0
  0
LTYPE
  5
364
  330
6D4
  100
AcDbSymbolTableRecord
  100
AcDbLinetypeTableRecord
  2
HIDDENX2
  70
0
  3
Hiddenx2 ____ ____ ____ ____ ____ ____ ____ 
  72
65
  73
2
  40
0.75000000
  49
0.50000000
  74
0
  49
-0.25000000
  74
0
  0
LTYPE
  5
365
  330
6D4
  100
AcDbSymbolTableRecord
  100
AcDbLinetypeTableRecord
  2
PHANTOM2
  70
0
  3
Phantom2 ___ _ _ ___ _ _ ___ _ _ ___ _ _
  72
65
  73
6
  40
1.25000000
  49
0.62500000
  74
0
  49
-0.12500000
  74
0
  49
0.12500000
  74
0
  49
-0.12500000
  74
0
  49
0.12500000
  74
0
  49
-0.12500000
  74
0
  0
LTYPE
  5
366
  330
6D4
  100
AcDbSymbolTableRecord
  100
AcDbLinetypeTableRecord
  2
PHANTOMX2
  70
0
  3
Phantomx2 ____________    ____    ____   _
  72
65
  73
6
  40
5.00000000
  49
2.50000000
  74
0
  49
-0.50000000
  74
0
  49
0.50000000
  74
0
  49
-0.50000000
  74
0
  49
0.50000000
  74
0
  49
-0.50000000
  74
0
  0
LTYPE
  5
367
  330
6D4
  100
AcDbSymbolTableRecord
  100
AcDbLinetypeTableRecord
  2
DASHED0
  70
0
  3
Dashed0 __ __ __ __ __ __ __ __ __ __ __ __ __ _
  72
65
  73
2
  40
1.00000000
  49
0.50000000
  74
0
  49
-0.50000000
  74
0
  0
LTYPE
  5
368
  330
6D4
  100
AcDbSymbolTableRecord
  100
AcDbLinetypeTableRecord
  2
DOT0
  70
0
  3
Dot0 ........................................
  72
65
  73
8
  40
1.00000000
  49
0.00000000
  74
0
  49
-0.25000000
  74
0
  49
0.00000000
  74
0
  49
-0.25000000
  74
0
  49
0.00000000
  74
0
  49
-0.25000000
  74
0
  49
0.00000000
  74
0
  49
-0.25000000
  74
0
  0
LTYPE
  5
369
  330
6D4
  100
AcDbSymbolTableRecord
  100
AcDbLinetypeTableRecord
  2
DASHDOT0
  70
0
  3
Dashdot __ . __ . __ . __ . __ . __ . __ . __
  72
65
  73
4
  40
1.00000000
  49
0.40000000
  74
0
  49
-0.30000000
  74
0
  49
0.00000000
  74
0
  49
-0.30000000
  74
0
  0
LTYPE
  5
36A
  330
6D4
  100
AcDbSymbolTableRecord
  100
AcDbLinetypeTableRecord
  2
DASHDOTDOT0
  70
0
  3
Dashdot __ . . __ . . __ . . __ . . __ . . __ . . __ . . __
  72
65
  73
6
  40
1.00000000
  49
0.30000000
  74
0
  49
-0.23000000
  74
0
  49
0.00000000
  74
0
  49
-0.24000000
  74
0
  49
0.00000000
  74
0
  49
-0.23000000
  74
0
  0
LTYPE
  5
36B
  330
6D4
  100
AcDbSymbolTableRecord
  100
AcDbLinetypeTableRecord
  2
INVISIBLE
  70
0
  3
Invisible(                        )
  72
65
  73
2
  40
2.00000000
  49
-1.00000000
  74
0
  49
-1.00000000
  74
0
  0
LTYPE
  5
68F
  330
6D4
  100
AcDbSymbolTableRecord
  100
AcDbLinetypeTableRecord
  2
Continuous
  70
0
  3
SOLID________________________________________
  72
65
  73
0
  40
0.00000000
  0
ENDTAB
  0
TABLE
  2
LAYER
  5
6D6
  330
0
  100
AcDbSymbolTable
  70
1
  0
LAYER
  5
14
  330
6D6
  100
AcDbSymbolTableRecord
  100
AcDbLayerTableRecord
  2
0
  70
0
  62
7
  6
Continuous
  370
-3
  390
6D5
  0
ENDTAB
  0
TABLE
  2
STYLE
  5
6D7
  330
0
  100
AcDbSymbolTable
  70
1
  0
STYLE
  5
17
  330
6D7
  100
AcDbSymbolTableRecord
  100
AcDbTextStyleTableRecord
  2
Standard
  70
0
  40
0.00000000
  41
1.00000000
  50
0.00000000
  71
0
  42
0.20000000
  3
txt.shx
  4

  1001
ACAD
  1000
txt.shx
  1071
0
  0
ENDTAB
  0
TABLE
  2
VIEW
  5
6D8
  330
0
  100
AcDbSymbolTable
  70
0
  0
ENDTAB
  0
TABLE
  2
UCS
  5
6D9
  330
0
  100
AcDbSymbolTable
  70
0
  0
ENDTAB
  0
TABLE
  2
APPID
  5
6DA
  330
0
  100
AcDbSymbolTable
  70
9
  0
APPID
  5
6DB
  330
6DA
  100
AcDbSymbolTableRecord
  100
AcDbRegAppTableRecord
  2
VDEXTRAPARAM
  70
0
  0
APPID
  5
6DC
  330
6DA
  100
AcDbSymbolTableRecord
  100
AcDbRegAppTableRecord
  2
VD_TEMPHATCH
  70
0
  0
APPID
  5
6DD
  330
6DA
  100
AcDbSymbolTableRecord
  100
AcDbRegAppTableRecord
  2
ACAD
  70
0
  0
APPID
  5
6DE
  330
6DA
  100
AcDbSymbolTableRecord
  100
AcDbRegAppTableRecord
  2
PE_URL
  70
0
  0
APPID
  5
6DF
  330
6DA
  100
AcDbSymbolTableRecord
  100
AcDbRegAppTableRecord
  2
VD_EX_PRINTER_DWG_STYLE_SHEET
  70
0
  0
APPID
  5
6E0
  330
6DA
  100
AcDbSymbolTableRecord
  100
AcDbRegAppTableRecord
  2
VD_EX_PRINTER_SIZEX
  70
0
  0
APPID
  5
6E1
  330
6DA
  100
AcDbSymbolTableRecord
  100
AcDbRegAppTableRecord
  2
VD_EX_PRINTER_AVSIZEX
  70
0
  0
APPID
  5
6E2
  330
6DA
  100
AcDbSymbolTableRecord
  100
AcDbRegAppTableRecord
  2
VD_EX_PRINTER_SIZEY
  70
0
  0
APPID
  5
6E3
  330
6DA
  100
AcDbSymbolTableRecord
  100
AcDbRegAppTableRecord
  2
VD_EX_PRINTER_AVSIZEY
  70
0
  0
ENDTAB
  0
TABLE
  2
BLOCK_RECORD
  5
6E4
  330
0
  100
AcDbSymbolTable
  70
4
  0
BLOCK_RECORD
  5
6E5
  330
6E4
  100
AcDbSymbolTableRecord
  100
AcDbBlockTableRecord
  2
*Model_Space
  340
65A
  0
BLOCK_RECORD
  5
6E6
  330
6E4
  100
AcDbSymbolTableRecord
  100
AcDbBlockTableRecord
  2
*Paper_Space
  340
21
  0
BLOCK_RECORD
  5
6E7
  330
6E4
  100
AcDbSymbolTableRecord
  100
AcDbBlockTableRecord
  2
VDDIM_DEFAULT
  340
0
  0
BLOCK_RECORD
  5
6E8
  330
6E4
  100
AcDbSymbolTableRecord
  100
AcDbBlockTableRecord
  2
VDDIM_NONE
  340
0
  0
BLOCK_RECORD
  5
6E9
  330
6E4
  100
AcDbSymbolTableRecord
  100
AcDbBlockTableRecord
  2
*D3B5
  340
0
  0
BLOCK_RECORD
  5
6F1
  330
6E4
  100
AcDbSymbolTableRecord
  100
AcDbBlockTableRecord
  2
*D3B2
  340
0
  0
ENDTAB
  0
TABLE
  2
DIMSTYLE
  5
6F9
  330
0
  100
AcDbSymbolTable
  70
1
  100
AcDbDimStyleTable
  71
1
  340
18
  0
DIMSTYLE
  105
18
  330
6F9
  100
AcDbSymbolTableRecord
  100
AcDbDimStyleTableRecord
  2
Standard
  70
0
  41
0.18000000
  3

  177
0
  42
0.06250000
  44
0.18000000
  75
0
  76
0
  40
1.00000000
  281
0
  282
0
  275
0
  277
2
  179
0
  71
0
  47
1.00000000
  48
1.00000000
  78
1
  176
0
  178
0
  140
0.18000000
  147
0.09000000
  280
0
  77
0
  73
1
  271
4
  340
17
  0
ENDTAB
  0
ENDSEC
  0
SECTION
  2
BLOCKS
  0
BLOCK
  5
6FA
  330
6E5
  100
AcDbEntity
  8
0
  100
AcDbBlockBegin
  2
*Model_Space
  70
0
  71
0
  10
0.00000000
  20
0.00000000
  30
0.00000000
  3
*Model_Space
  1

  0
ENDBLK
  5
6FB
  330
6E5
  100
AcDbEntity
  67
1
  8
0
  100
AcDbBlockEnd
  0
BLOCK
  5
6FC
  330
6E6
  100
AcDbEntity
  8
0
  100
AcDbBlockBegin
  2
*Paper_Space
  70
0
  71
0
  10
0.00000000
  20
0.00000000
  30
0.00000000
  3
*Paper_Space
  1

  0
ENDBLK
  5
6FD
  330
6E6
  100
AcDbEntity
  67
1
  8
0
  100
AcDbBlockEnd
  0
BLOCK
  5
6CE
  330
6E7
  100
AcDbEntity
  8
0
  100
AcDbBlockBegin
  2
VDDIM_DEFAULT
  70
0
  71
0
  10
0.00000000
  20
0.00000000
  30
0.00000000
  3
VDDIM_DEFAULT
  1

  0
HATCH
  5
3AB
  330
6E7
  100
AcDbEntity
  8
0
  6
Continuous
  62
0
  370
-2
  100
AcDbHatch
  10
0.00000000
  20
0.00000000
  30
0.00000000
  210
0.00000000
  220
0.00000000
  230
-1.00000000
  2
SOLID
  70
1
  71
0
  91
1
  92
2
  72
0
  73
1
  93
3
  10
0.00000000
  20
0.00000000
  10
1.00000000
  20
-0.16650000
  10
1.00000000
  20
0.16650000
  97
0
  75
0
  76
1
  98
1
  10
0.00000000
  20
0.00000000
  0
ENDBLK
  5
6FE
  330
6E7
  100
AcDbEntity
  8
0
  100
AcDbBlockEnd
  0
BLOCK
  5
6D0
  330
6E8
  100
AcDbEntity
  8
0
  100
AcDbBlockBegin
  2
VDDIM_NONE
  70
0
  71
0
  10
0.00000000
  20
0.00000000
  30
0.00000000
  3
VDDIM_NONE
  1

  0
ENDBLK
  5
6FF
  330
6E8
  100
AcDbEntity
  8
0
  100
AcDbBlockEnd
  0
BLOCK
  5
6EA
  330
6E9
  100
AcDbEntity
  8
0
  100
AcDbBlockBegin
  2
*D3B5
  70
0
  71
0
  10
0.0
  20
0.0
  30
0.0
  3
*D3B5
  1

  0
MTEXT
  5
6EB
  330
6E9
  100
AcDbEntity
  8
0
  6
ByLayer
  370
40
  100
AcDbMText
  10
596.24110288
  20
345.22112128
  30
0.00000000
  40
14.00000000
  41
31.53694705
  71
8
  72
1
  1
297
  7
Standard
  50
450.00000000
  42
31.53694705
  73
-5
  44
1.00000000
  0
LINE
  5
6EC
  330
6E9
  100
AcDbEntity
  8
0
  6
ByLayer
  370
40
  100
AcDbLine
  10
601.24110288
  20
493.54315200
  30
0.00000000
  11
601.24110288
  21
196.89909057
  31
0.00000000
  0
LINE
  5
6ED
  330
6E9
  100
AcDbEntity
  8
0
  6
ByLayer
  370
40
  100
AcDbLine
  10
533.13416585
  20
493.54315200
  30
0.00000000
  11
601.30360288
  21
493.54315200
  31
0.00000000
  0
LINE
  5
6EE
  330
6E9
  100
AcDbEntity
  8
0
  6
ByLayer
  370
40
  100
AcDbLine
  10
533.13416585
  20
196.89909057
  30
0.00000000
  11
601.30360288
  21
196.89909057
  31
0.00000000
  0
INSERT
  5
6EF
  330
6E9
  100
AcDbEntity
  8
0
  6
ByLayer
  370
40
  100
AcDbBlockReference
  2
VDDIM_DEFAULT
  10
601.24110288
  20
493.54315200
  30
0.00000000
  70
1
  71
1
  41
10.00000000
  42
10.00000000
  50
90.00000000
  0
SEQEND
  5
700
  330
6EF
  100
AcDbEntity
  8
0
  0
INSERT
  5
6F0
  330
6E9
  100
AcDbEntity
  8
0
  6
ByLayer
  370
40
  100
AcDbBlockReference
  2
VDDIM_DEFAULT
  10
601.24110288
  20
196.89909057
  30
0.00000000
  70
1
  71
1
  41
10.00000000
  42
10.00000000
  50
270.00000000
  0
SEQEND
  5
701
  330
6F0
  100
AcDbEntity
  8
0
  0
ENDBLK
  5
702
  330
6E9
  100
AcDbEntity
  8
0
  100
AcDbBlockEnd
  0
BLOCK
  5
6F2
  330
6F1
  100
AcDbEntity
  8
0
  100
AcDbBlockBegin
  2
*D3B2
  70
0
  71
0
  10
0.0
  20
0.0
  30
0.0
  3
*D3B2
  1

  0
MTEXT
  5
6F3
  330
6F1
  100
AcDbEntity
  8
0
  6
ByLayer
  370
40
  100
AcDbMText
  10
553.36987690
  20
535.99267446
  30
0.00000000
  40
14.00000000
  41
20.71967158
  71
8
  72
1
  1
42
  7
Standard
  50
0.00000000
  42
20.71967158
  73
-5
  44
1.00000000
  0
LINE
  5
6F4
  330
6F1
  100
AcDbEntity
  8
0
  6
ByLayer
  370
40
  100
AcDbLine
  10
532.31317100
  20
530.99267446
  30
0.00000000
  11
574.42658279
  21
530.99267446
  31
0.00000000
  0
LINE
  5
6F5
  330
6F1
  100
AcDbEntity
  8
0
  6
ByLayer
  370
40
  100
AcDbLine
  10
532.31317100
  20
359.22268731
  30
0.00000000
  11
532.31317100
  21
531.05517446
  31
0.00000000
  0
LINE
  5
6F6
  330
6F1
  100
AcDbEntity
  8
0
  6
ByLayer
  370
40
  100
AcDbLine
  10
574.42658279
  20
359.22268731
  30
0.00000000
  11
574.42658279
  21
531.05517446
  31
0.00000000
  0
INSERT
  5
6F7
  330
6F1
  100
AcDbEntity
  8
0
  6
ByLayer
  370
40
  100
AcDbBlockReference
  2
VDDIM_DEFAULT
  10
532.31317100
  20
530.99267446
  30
0.00000000
  70
1
  71
1
  41
10.00000000
  42
10.00000000
  50
180.00000000
  0
SEQEND
  5
703
  330
6F7
  100
AcDbEntity
  8
0
  0
INSERT
  5
6F8
  330
6F1
  100
AcDbEntity
  8
0
  6
ByLayer
  370
40
  100
AcDbBlockReference
  2
VDDIM_DEFAULT
  10
574.42658279
  20
530.99267446
  30
0.00000000
  70
1
  71
1
  41
10.00000000
  42
10.00000000
  0
SEQEND
  5
704
  330
6F8
  100
AcDbEntity
  8
0
  0
ENDBLK
  5
705
  330
6F1
  100
AcDbEntity
  8
0
  100
AcDbBlockEnd
  0
ENDSEC
  0
SECTION
  2
ENTITIES
  0
LINE
  5
10F
  330
6E5
  100
AcDbEntity
  8
0
  6
DASHDOT
  62
7
  370
60
  48
0.03600000
  100
AcDbLine
  10
136.16149900
  20
337.42657500
  30
0.00000000
  11
137.60150100
  21
337.42657500
  31
0.00000000
  0
LINE
  5
110
  330
6E5
  100
AcDbEntity
  8
0
  6
DASHDOT
  62
7
  370
60
  48
0.03600000
  100
AcDbLine
  10
440.66149900
  20
337.42657500
  30
0.00000000
  11
442.10150100
  21
337.42657500
  31
0.00000000
  0
CIRCLE
  5
116
  330
6E5
  100
AcDbEntity
  8
0
  6
ByLayer
  62
7
  370
60
  100
AcDbCircle
  10
141.33433500
  20
474.24487300
  30
0.00000000
  40
1.21011102
  0
CIRCLE
  5
117
  330
6E5
  100
AcDbEntity
  8
0
  6
ByLayer
  62
7
  370
60
  100
AcDbCircle
  10
201.75917100
  20
474.68957500
  30
0.00000000
  40
1.32969676
  0
CIRCLE
  5
118
  330
6E5
  100
AcDbEntity
  8
0
  6
ByLayer
  62
7
  370
60
  100
AcDbCircle
  10
246.01821900
  20
474.62384000
  30
0.00000000
  40
1.31117625
  0
CIRCLE
  5
119
  330
6E5
  100
AcDbEntity
  8
0
  6
ByLayer
  62
7
  370
60
  100
AcDbCircle
  10
290.08194000
  20
474.68438700
  30
0.00000000
  40
1.31679943
  0
CIRCLE
  5
11A
  330
6E5
  100
AcDbEntity
  8
0
  6
ByLayer
  62
7
  370
60
  100
AcDbCircle
  10
329.67947400
  20
474.57678200
  30
0.00000000
  40
1.20907914
  0
CIRCLE
  5
11B
  330
6E5
  100
AcDbEntity
  8
0
  6
ByLayer
  62
7
  370
60
  100
AcDbCircle
  10
375.09777800
  20
474.53570600
  30
0.00000000
  40
1.27771581
  0
CIRCLE
  5
11C
  330
6E5
  100
AcDbEntity
  8
0
  6
ByLayer
  62
7
  370
60
  100
AcDbCircle
  10
418.51516308
  20
474.67340231
  30
0.00000000
  40
1.50000000
  0
CIRCLE
  5
11D
  330
6E5
  100
AcDbEntity
  8
0
  6
ByLayer
  62
7
  370
60
  100
AcDbCircle
  10
141.56237800
  20
200.52662700
  30
0.00000000
  40
1.18427049
  0
CIRCLE
  5
11E
  330
6E5
  100
AcDbEntity
  8
0
  6
ByLayer
  62
7
  370
60
  100
AcDbCircle
  10
201.62645000
  20
200.13539100
  30
0.00000000
  40
1.33815252
  0
CIRCLE
  5
11F
  330
6E5
  100
AcDbEntity
  8
0
  6
ByLayer
  62
7
  370
60
  100
AcDbCircle
  10
246.75613400
  20
200.24124100
  30
0.00000000
  40
1.27887098
  0
CIRCLE
  5
120
  330
6E5
  100
AcDbEntity
  8
0
  6
ByLayer
  62
7
  370
60
  100
AcDbCircle
  10
287.49542200
  20
200.21012900
  30
0.00000000
  40
1.32957563
  0
CIRCLE
  5
121
  330
6E5
  100
AcDbEntity
  8
0
  6
ByLayer
  62
7
  370
60
  100
AcDbCircle
  10
328.40615800
  20
200.13900800
  30
0.00000000
  40
1.32467880
  0
CIRCLE
  5
122
  330
6E5
  100
AcDbEntity
  8
0
  6
ByLayer
  62
7
  370
60
  100
AcDbCircle
  10
373.78115800
  20
200.29252600
  30
0.00000000
  40
1.43247742
  0
CIRCLE
  5
123
  330
6E5
  100
AcDbEntity
  8
0
  6
ByLayer
  62
7
  370
60
  100
AcDbCircle
  10
435.33520500
  20
200.63392600
  30
0.00000000
  40
1.13032471
  0
ARC
  5
124
  330
6E5
  100
AcDbEntity
  8
0
  6
ByLayer
  62
7
  370
60
  100
AcDbCircle
  10
183.78143300
  20
88.03332500
  30
0.00000000
  40
1.00000000
  100
AcDbArc
  50
180.00000000
  51
270.00000000
  0
LINE
  5
125
  330
6E5
  100
AcDbEntity
  8
0
  6
ByLayer
  62
7
  370
60
  100
AcDbLine
  10
247.33239700
  20
87.03332500
  30
0.00000000
  11
183.78143300
  21
87.03332500
  31
0.00000000
  0
LINE
  5
126
  330
6E5
  100
AcDbEntity
  8
0
  6
ByLayer
  62
7
  370
60
  48
0.22000000
  100
AcDbLine
  10
182.78143300
  20
96.83332800
  30
0.00000000
  11
182.78143300
  21
88.03332500
  31
0.00000000
  0
ARC
  5
127
  330
6E5
  100
AcDbEntity
  8
0
  6
ByLayer
  62
7
  370
60
  100
AcDbCircle
  10
247.33239700
  20
88.03332500
  30
0.00000000
  40
1.00000000
  100
AcDbArc
  50
270.00000000
  51
329.55794000
  0
LINE
  5
128
  330
6E5
  100
AcDbEntity
  8
0
  6
ByLayer
  62
7
  370
60
  48
0.05000000
  100
AcDbLine
  10
333.28143300
  20
96.83332800
  30
0.00000000
  11
331.28143300
  21
96.83332800
  31
0.00000000
  0
LINE
  5
129
  330
6E5
  100
AcDbEntity
  8
0
  6
ByLayer
  62
7
  370
60
  48
0.22000000
  100
AcDbLine
  10
331.28143300
  20
88.03332500
  30
0.00000000
  11
331.28143300
  21
96.83332800
  31
0.00000000
  0
ARC
  5
12A
  330
6E5
  100
AcDbEntity
  8
0
  6
ByLayer
  62
7
  370
60
  100
AcDbCircle
  10
330.28143300
  20
88.03332500
  30
0.00000000
  40
1.00000000
  100
AcDbArc
  50
270.00000000
  51
0.00000000
  0
LINE
  5
12B
  330
6E5
  100
AcDbEntity
  8
0
  6
ByLayer
  62
7
  370
60
  100
AcDbLine
  10
330.28143300
  20
87.03332500
  30
0.00000000
  11
266.73059100
  21
87.03332500
  31
0.00000000
  0
ARC
  5
12C
  330
6E5
  100
AcDbEntity
  8
0
  6
ByLayer
  62
7
  370
60
  100
AcDbCircle
  10
266.73059100
  20
88.03332500
  30
0.00000000
  40
1.00000000
  100
AcDbArc
  50
210.44204700
  51
270.00000000
  0
ARC
  5
12D
  330
6E5
  100
AcDbEntity
  8
0
  6
ByLayer
  62
7
  370
60
  100
AcDbCircle
  10
257.03149400
  20
82.33334400
  30
0.00000000
  40
10.25000000
  100
AcDbArc
  50
30.44205200
  51
149.55794800
  0
LINE
  5
12E
  330
6E5
  100
AcDbEntity
  8
0
  6
ByLayer
  62
7
  370
60
  48
0.05000000
  100
AcDbLine
  10
182.78143300
  20
96.83332800
  30
0.00000000
  11
180.78143300
  21
96.83332800
  31
0.00000000
  0
ARC
  5
12F
  330
6E5
  100
AcDbEntity
  8
0
  6
ByLayer
  62
7
  370
60
  100
AcDbCircle
  10
64.03143300
  20
489.54315200
  30
0.00000000
  40
4.00000000
  100
AcDbArc
  50
90.00000000
  51
180.00000000
  0
LINE
  5
130
  330
6E5
  100
AcDbEntity
  8
0
  6
ByLayer
  62
7
  370
60
  100
AcDbLine
  10
64.03143300
  20
493.54315200
  30
0.00000000
  11
173.57049600
  21
493.54315200
  31
0.00000000
  0
ARC
  5
131
  330
6E5
  100
AcDbEntity
  8
0
  6
ByLayer
  62
7
  370
60
  100
AcDbCircle
  10
173.57049600
  20
492.54315200
  30
0.00000000
  40
1.00000000
  100
AcDbArc
  50
0.00000000
  51
90.00000000
  0
LINE
  5
132
  330
6E5
  100
AcDbEntity
  8
0
  6
ByLayer
  62
7
  370
60
  48
0.15159600
  100
AcDbLine
  10
174.57049600
  20
486.47930900
  30
0.00000000
  11
174.57049600
  21
492.54315200
  31
0.00000000
  0
ARC
  5
133
  330
6E5
  100
AcDbEntity
  8
0
  6
ByLayer
  62
7
  370
60
  100
AcDbCircle
  10
176.57049600
  20
486.47930900
  30
0.00000000
  40
2.00000000
  100
AcDbArc
  50
180.00000000
  51
270.00000000
  0
LINE
  5
134
  330
6E5
  100
AcDbEntity
  8
0
  6
ByLayer
  62
7
  370
60
  48
0.15000000
  100
AcDbLine
  10
176.57049600
  20
484.47930900
  30
0.00000000
  11
182.57049600
  21
484.47930900
  31
0.00000000
  0
ARC
  5
135
  330
6E5
  100
AcDbEntity
  8
0
  6
ByLayer
  62
7
  370
60
  100
AcDbCircle
  10
182.57049600
  20
486.47930900
  30
0.00000000
  40
2.00000000
  100
AcDbArc
  50
270.00000000
  51
0.00000000
  0
LINE
  5
136
  330
6E5
  100
AcDbEntity
  8
0
  6
ByLayer
  62
7
  370
60
  48
0.03000000
  100
AcDbLine
  10
184.57049600
  20
491.34314000
  30
0.00000000
  11
184.57049600
  21
492.54315200
  31
0.00000000
  0
LINE
  5
137
  330
6E5
  100
AcDbEntity
  8
0
  6
ByLayer
  62
7
  370
60
  48
0.02500000
  100
AcDbLine
  10
184.57049600
  20
491.34314000
  30
0.00000000
  11
184.57049600
  21
490.34314000
  31
0.00000000
  0
LINE
  5
138
  330
6E5
  100
AcDbEntity
  8
0
  6
ByLayer
  62
7
  370
60
  48
0.09659600
  100
AcDbLine
  10
184.57049600
  20
490.34314000
  30
0.00000000
  11
184.57049600
  21
486.47930900
  31
0.00000000
  0
LINE
  5
139
  330
6E5
  100
AcDbEntity
  8
0
  6
ByLayer
  62
7
  370
60
  48
0.09659600
  100
AcDbLine
  10
329.49237100
  20
490.34314000
  30
0.00000000
  11
329.49237100
  21
486.47930900
  31
0.00000000
  0
LINE
  5
13A
  330
6E5
  100
AcDbEntity
  8
0
  6
ByLayer
  62
7
  370
60
  48
0.02500000
  100
AcDbLine
  10
329.49237100
  20
491.34314000
  30
0.00000000
  11
329.49237100
  21
490.34314000
  31
0.00000000
  0
LINE
  5
13B
  330
6E5
  100
AcDbEntity
  8
0
  6
ByLayer
  62
7
  370
60
  48
0.03000000
  100
AcDbLine
  10
329.49237100
  20
491.34314000
  30
0.00000000
  11
329.49237100
  21
492.54315200
  31
0.00000000
  0
ARC
  5
13C
  330
6E5
  100
AcDbEntity
  8
0
  6
ByLayer
  62
7
  370
60
  100
AcDbCircle
  10
331.49237100
  20
486.47930900
  30
0.00000000
  40
2.00000000
  100
AcDbArc
  50
180.00000000
  51
270.00000000
  0
LINE
  5
13D
  330
6E5
  100
AcDbEntity
  8
0
  6
ByLayer
  62
7
  370
60
  48
0.15000000
  100
AcDbLine
  10
337.49237100
  20
484.47930900
  30
0.00000000
  11
331.49237100
  21
484.47930900
  31
0.00000000
  0
ARC
  5
13E
  330
6E5
  100
AcDbEntity
  8
0
  6
ByLayer
  62
7
  370
60
  100
AcDbCircle
  10
337.49237100
  20
486.47930900
  30
0.00000000
  40
2.00000000
  100
AcDbArc
  50
270.00000000
  51
0.00000000
  0
LINE
  5
13F
  330
6E5
  100
AcDbEntity
  8
0
  6
ByLayer
  62
7
  370
60
  48
0.15159600
  100
AcDbLine
  10
339.49237100
  20
486.47930900
  30
0.00000000
  11
339.49237100
  21
492.54315200
  31
0.00000000
  0
ARC
  5
140
  330
6E5
  100
AcDbEntity
  8
0
  6
ByLayer
  62
7
  370
60
  100
AcDbCircle
  10
340.49237100
  20
492.54315200
  30
0.00000000
  40
1.00000000
  100
AcDbArc
  50
90.00000000
  51
180.00000000
  0
LINE
  5
141
  330
6E5
  100
AcDbEntity
  8
0
  6
ByLayer
  62
7
  370
60
  100
AcDbLine
  10
340.49237100
  20
493.54315200
  30
0.00000000
  11
450.03143300
  21
493.54315200
  31
0.00000000
  0
LINE
  5
142
  330
6E5
  100
AcDbEntity
  8
0
  6
ByLayer
  62
7
  370
60
  100
AcDbLine
  10
398.48147600
  20
201.87229900
  30
0.00000000
  11
440.78149400
  21
201.87229900
  31
0.00000000
  0
LINE
  5
143
  330
6E5
  100
AcDbEntity
  8
0
  6
ByLayer
  62
7
  370
60
  100
AcDbLine
  10
354.98147600
  20
201.87229900
  30
0.00000000
  11
397.28149400
  21
201.87229900
  31
0.00000000
  0
LINE
  5
144
  330
6E5
  100
AcDbEntity
  8
0
  6
ByLayer
  62
7
  370
60
  100
AcDbLine
  10
311.48147600
  20
201.87229900
  30
0.00000000
  11
353.78149400
  21
201.87229900
  31
0.00000000
  0
LINE
  5
145
  330
6E5
  100
AcDbEntity
  8
0
  6
ByLayer
  62
7
  370
60
  100
AcDbLine
  10
267.98147600
  20
201.87229900
  30
0.00000000
  11
310.28146400
  21
201.87229900
  31
0.00000000
  0
LINE
  5
146
  330
6E5
  100
AcDbEntity
  8
0
  6
ByLayer
  62
7
  370
60
  100
AcDbLine
  10
224.48147600
  20
201.87229900
  30
0.00000000
  11
266.78146400
  21
201.87229900
  31
0.00000000
  0
LINE
  5
147
  330
6E5
  100
AcDbEntity
  8
0
  6
ByLayer
  62
7
  370
60
  100
AcDbLine
  10
180.98147600
  20
201.87229900
  30
0.00000000
  11
223.28147900
  21
201.87229900
  31
0.00000000
  0
LINE
  5
148
  330
6E5
  100
AcDbEntity
  8
0
  6
ByLayer
  62
7
  370
60
  100
AcDbLine
  10
137.48150600
  20
201.87229900
  30
0.00000000
  11
179.78147900
  21
201.87229900
  31
0.00000000
  0
LINE
  5
149
  330
6E5
  100
AcDbEntity
  8
0
  6
ByLayer
  62
7
  370
60
  100
AcDbLine
  10
344.73150600
  20
176.70187400
  30
0.00000000
  11
169.33149700
  21
176.70187400
  31
0.00000000
  0
ARC
  5
14A
  330
6E5
  100
AcDbEntity
  8
0
  6
ByLayer
  62
7
  370
60
  100
AcDbCircle
  10
169.33149700
  20
147.95187400
  30
0.00000000
  40
28.75000000
  100
AcDbArc
  50
90.00000000
  51
270.00000000
  0
LINE
  5
14B
  330
6E5
  100
AcDbEntity
  8
0
  6
ByLayer
  62
7
  370
60
  100
AcDbLine
  10
344.73150600
  20
119.20187400
  30
0.00000000
  11
169.33149700
  21
119.20187400
  31
0.00000000
  0
ARC
  5
14C
  330
6E5
  100
AcDbEntity
  8
0
  6
ByLayer
  62
7
  370
60
  100
AcDbCircle
  10
344.73150600
  20
147.95187400
  30
0.00000000
  40
28.75000000
  100
AcDbArc
  50
270.00000000
  51
90.00000000
  0
LINE
  5
14D
  330
6E5
  100
AcDbEntity
  8
0
  6
ByLayer
  62
7
  370
60
  48
0.02500000
  100
AcDbLine
  10
60.03143300
  20
95.53332500
  30
0.00000000
  11
60.03143300
  21
96.53332500
  31
0.00000000
  0
LINE
  5
14E
  330
6E5
  100
AcDbEntity
  8
0
  6
ByLayer
  62
7
  370
60
  100
AcDbLine
  10
60.03143300
  20
96.53332500
  30
0.00000000
  11
180.78143300
  21
96.53332500
  31
0.00000000
  0
LINE
  5
14F
  330
6E5
  100
AcDbEntity
  8
0
  6
ByLayer
  62
7
  370
60
  48
0.02500000
  100
AcDbLine
  10
180.78143300
  20
96.53332500
  30
0.00000000
  11
180.78143300
  21
95.53332500
  31
0.00000000
  0
LINE
  5
150
  330
6E5
  100
AcDbEntity
  8
0
  6
ByLayer
  62
7
  370
60
  100
AcDbLine
  10
329.49237100
  20
490.34314000
  30
0.00000000
  11
184.57049600
  21
490.34314000
  31
0.00000000
  0
LINE
  5
151
  330
6E5
  100
AcDbEntity
  8
0
  6
ByLayer
  62
7
  370
60
  48
0.03750000
  100
AcDbLine
  10
327.99237100
  20
492.54315200
  30
0.00000000
  11
329.49237100
  21
492.54315200
  31
0.00000000
  0
LINE
  5
152
  330
6E5
  100
AcDbEntity
  8
0
  6
ByLayer
  62
7
  370
60
  100
AcDbLine
  10
327.99237100
  20
492.54315200
  30
0.00000000
  11
186.07049600
  21
492.54315200
  31
0.00000000
  0
LINE
  5
153
  330
6E5
  100
AcDbEntity
  8
0
  6
ByLayer
  62
7
  370
60
  48
0.03750000
  100
AcDbLine
  10
184.57049600
  20
492.54315200
  30
0.00000000
  11
186.07049600
  21
492.54315200
  31
0.00000000
  0
ARC
  5
159
  330
6E5
  100
AcDbEntity
  8
0
  6
ByLayer
  62
7
  370
60
  100
AcDbCircle
  10
450.03143300
  20
489.54315200
  30
0.00000000
  40
4.00000000
  100
AcDbArc
  50
0.00000000
  51
90.00000000
  0
LINE
  5
15A
  330
6E5
  100
AcDbEntity
  8
0
  6
ByLayer
  62
7
  370
60
  48
0.00750000
  100
AcDbLine
  10
333.28143300
  20
96.83332800
  30
0.00000000
  11
333.28143300
  21
96.53332500
  31
0.00000000
  0
LINE
  5
15B
  330
6E5
  100
AcDbEntity
  8
0
  6
ByLayer
  62
7
  370
60
  48
0.00750000
  100
AcDbLine
  10
180.78143300
  20
96.83332800
  30
0.00000000
  11
180.78143300
  21
96.53332500
  31
0.00000000
  0
LINE
  5
15C
  330
6E5
  100
AcDbEntity
  8
0
  6
ByLayer
  62
7
  370
60
  100
AcDbLine
  10
60.03143300
  20
96.53332500
  30
0.00000000
  11
60.03143300
  21
489.54315200
  31
0.00000000
  0
LINE
  5
15D
  330
6E5
  100
AcDbEntity
  8
0
  6
ByLayer
  62
7
  370
60
  100
AcDbLine
  10
454.03143300
  20
96.53332500
  30
0.00000000
  11
454.03143300
  21
489.54315200
  31
0.00000000
  0
LINE
  5
15E
  330
6E5
  100
AcDbEntity
  8
0
  6
ByLayer
  62
7
  370
60
  100
AcDbLine
  10
333.28143300
  20
96.53332500
  30
0.00000000
  11
454.03143300
  21
96.53332500
  31
0.00000000
  0
LINE
  5
15F
  330
6E5
  100
AcDbEntity
  8
0
  6
ByLayer
  62
7
  370
60
  48
0.02500000
  100
AcDbLine
  10
454.03143300
  20
95.53332500
  30
0.00000000
  11
454.03143300
  21
96.53332500
  31
0.00000000
  0
LINE
  5
160
  330
6E5
  100
AcDbEntity
  8
0
  6
ByLayer
  62
7
  370
60
  48
0.02500000
  100
AcDbLine
  10
333.28143300
  20
96.53332500
  30
0.00000000
  11
333.28143300
  21
95.53332500
  31
0.00000000
  0
LINE
  5
161
  330
6E5
  100
AcDbEntity
  8
0
  6
ByLayer
  62
7
  370
60
  48
0.03000000
  100
AcDbLine
  10
60.03143300
  20
94.33332800
  30
0.00000000
  11
60.03143300
  21
95.53332500
  31
0.00000000
  0
LINE
  5
163
  330
6E5
  100
AcDbEntity
  8
0
  6
ByLayer
  62
7
  370
60
  48
0.03750000
  100
AcDbLine
  10
60.03143300
  20
94.33332800
  30
0.00000000
  11
61.53143300
  21
94.33332800
  31
0.00000000
  0
LINE
  5
165
  330
6E5
  100
AcDbEntity
  8
0
  6
ByLayer
  62
7
  370
60
  48
0.03000000
  100
AcDbLine
  10
180.78143300
  20
94.33332800
  30
0.00000000
  11
180.78143300
  21
95.53332500
  31
0.00000000
  0
LINE
  5
166
  330
6E5
  100
AcDbEntity
  8
0
  6
ByLayer
  62
7
  370
60
  48
0.03750000
  100
AcDbLine
  10
179.28143300
  20
94.33332800
  30
0.00000000
  11
180.78143300
  21
94.33332800
  31
0.00000000
  0
LINE
  5
167
  330
6E5
  100
AcDbEntity
  8
0
  6
ByLayer
  62
7
  370
60
  100
AcDbLine
  10
61.53143300
  20
94.33332800
  30
0.00000000
  11
179.28143300
  21
94.33332800
  31
0.00000000
  0
LINE
  5
16B
  330
6E5
  100
AcDbEntity
  8
0
  6
ByLayer
  62
7
  370
60
  48
0.03000000
  100
AcDbLine
  10
333.28143300
  20
94.33332800
  30
0.00000000
  11
333.28143300
  21
95.53332500
  31
0.00000000
  0
LINE
  5
16D
  330
6E5
  100
AcDbEntity
  8
0
  6
ByLayer
  62
7
  370
60
  48
0.03750000
  100
AcDbLine
  10
333.28143300
  20
94.33332800
  30
0.00000000
  11
334.78143300
  21
94.33332800
  31
0.00000000
  0
LINE
  5
16F
  330
6E5
  100
AcDbEntity
  8
0
  6
ByLayer
  62
7
  370
60
  48
0.03000000
  100
AcDbLine
  10
454.03143300
  20
94.33332800
  30
0.00000000
  11
454.03143300
  21
95.53332500
  31
0.00000000
  0
LINE
  5
171
  330
6E5
  100
AcDbEntity
  8
0
  6
ByLayer
  62
7
  370
60
  100
AcDbLine
  10
452.53143300
  20
94.33332800
  30
0.00000000
  11
334.78143300
  21
94.33332800
  31
0.00000000
  0
LINE
  5
173
  330
6E5
  100
AcDbEntity
  8
0
  6
ByLayer
  62
7
  370
60
  48
0.03750000
  100
AcDbLine
  10
452.53143300
  20
94.33332800
  30
0.00000000
  11
454.03143300
  21
94.33332800
  31
0.00000000
  0
LINE
  5
175
  330
6E5
  100
AcDbEntity
  8
0
  6
ByLayer
  62
7
  370
60
  48
0.01250000
  100
AcDbLine
  10
136.28149400
  20
476.77929700
  30
0.00000000
  11
136.28149400
  21
476.27929700
  31
0.00000000
  0
LINE
  5
177
  330
6E5
  100
AcDbEntity
  8
0
  6
ByLayer
  62
7
  370
60
  100
AcDbLine
  10
148.48149100
  20
476.27929700
  30
0.00000000
  11
180.27734400
  21
476.27929700
  31
0.00000000
  0
LINE
  5
178
  330
6E5
  100
AcDbEntity
  8
0
  6
ByLayer
  62
7
  370
60
  100
AcDbLine
  10
191.98149100
  20
476.27929700
  30
0.00000000
  11
223.77734400
  21
476.27929700
  31
0.00000000
  0
LINE
  5
179
  330
6E5
  100
AcDbEntity
  8
0
  6
ByLayer
  62
7
  370
60
  100
AcDbLine
  10
235.48149100
  20
476.27929700
  30
0.00000000
  11
267.27734400
  21
476.27929700
  31
0.00000000
  0
LINE
  5
17A
  330
6E5
  100
AcDbEntity
  8
0
  6
ByLayer
  62
7
  370
60
  100
AcDbLine
  10
278.98150600
  20
476.27929700
  30
0.00000000
  11
299.28149400
  21
476.27929700
  31
0.00000000
  0
LINE
  5
17B
  330
6E5
  100
AcDbEntity
  8
0
  6
ByLayer
  62
7
  370
60
  100
AcDbLine
  10
310.98565700
  20
476.27929700
  30
0.00000000
  11
342.78149400
  21
476.27929700
  31
0.00000000
  0
LINE
  5
17C
  330
6E5
  100
AcDbEntity
  8
0
  6
ByLayer
  62
7
  370
60
  100
AcDbLine
  10
354.48565700
  20
476.27929700
  30
0.00000000
  11
386.28149400
  21
476.27929700
  31
0.00000000
  0
LINE
  5
17D
  330
6E5
  100
AcDbEntity
  8
0
  6
ByLayer
  62
7
  370
60
  100
AcDbLine
  10
397.98565700
  20
476.27929700
  30
0.00000000
  11
429.78149400
  21
476.27929700
  31
0.00000000
  0
LINE
  5
17F
  330
6E5
  100
AcDbEntity
  8
0
  6
ByLayer
  62
7
  370
60
  48
0.01250000
  100
AcDbLine
  10
441.98150600
  20
476.27929700
  30
0.00000000
  11
441.98150600
  21
476.77929700
  31
0.00000000
  0
LINE
  5
180
  330
6E5
  100
AcDbEntity
  8
0
  6
ByLayer
  62
7
  370
60
  48
0.02500000
  100
AcDbLine
  10
136.28149400
  20
477.97930900
  30
0.00000000
  11
137.28149400
  21
477.97930900
  31
0.00000000
  0
LINE
  5
181
  330
6E5
  100
AcDbEntity
  8
0
  6
ByLayer
  62
7
  370
60
  48
0.03000000
  100
AcDbLine
  10
136.28149400
  20
476.77929700
  30
0.00000000
  11
136.28149400
  21
477.97930900
  31
0.00000000
  0
LINE
  5
184
  330
6E5
  100
AcDbEntity
  8
0
  6
ByLayer
  62
7
  370
60
  48
0.02988400
  100
AcDbLine
  10
136.28149400
  20
475.08392300
  30
0.00000000
  11
136.28149400
  21
476.27929700
  31
0.00000000
  0
LINE
  5
185
  330
6E5
  100
AcDbEntity
  8
0
  6
ByLayer
  62
7
  370
60
  48
0.05750000
  100
AcDbLine
  10
441.98150600
  20
473.97930900
  30
0.00000000
  11
441.98150600
  21
476.27929700
  31
0.00000000
  0
LINE
  5
186
  330
6E5
  100
AcDbEntity
  8
0
  6
ByLayer
  62
7
  370
60
  100
AcDbLine
  10
137.48147600
  20
472.97930900
  30
0.00000000
  11
179.78147900
  21
472.97930900
  31
0.00000000
  0
LINE
  5
187
  330
6E5
  100
AcDbEntity
  8
0
  6
ByLayer
  62
7
  370
60
  100
AcDbLine
  10
180.98147600
  20
472.97930900
  30
0.00000000
  11
223.28147900
  21
472.97930900
  31
0.00000000
  0
LINE
  5
188
  330
6E5
  100
AcDbEntity
  8
0
  6
ByLayer
  62
7
  370
60
  100
AcDbLine
  10
224.48147600
  20
472.97930900
  30
0.00000000
  11
266.78146400
  21
472.97930900
  31
0.00000000
  0
LINE
  5
189
  330
6E5
  100
AcDbEntity
  8
0
  6
ByLayer
  62
7
  370
60
  100
AcDbLine
  10
267.98147600
  20
472.97930900
  30
0.00000000
  11
310.28146400
  21
472.97930900
  31
0.00000000
  0
LINE
  5
18A
  330
6E5
  100
AcDbEntity
  8
0
  6
ByLayer
  62
7
  370
60
  100
AcDbLine
  10
311.48147600
  20
472.97930900
  30
0.00000000
  11
353.78149400
  21
472.97930900
  31
0.00000000
  0
LINE
  5
18B
  330
6E5
  100
AcDbEntity
  8
0
  6
ByLayer
  62
7
  370
60
  100
AcDbLine
  10
354.98147600
  20
472.97930900
  30
0.00000000
  11
397.28149400
  21
472.97930900
  31
0.00000000
  0
LINE
  5
18C
  330
6E5
  100
AcDbEntity
  8
0
  6
ByLayer
  62
7
  370
60
  100
AcDbLine
  10
398.48147600
  20
472.97930900
  30
0.00000000
  11
440.78149400
  21
472.97930900
  31
0.00000000
  0
LINE
  5
18D
  330
6E5
  100
AcDbEntity
  8
0
  6
ByLayer
  62
7
  370
60
  48
0.02500000
  100
AcDbLine
  10
440.98150600
  20
477.97930900
  30
0.00000000
  11
441.98150600
  21
477.97930900
  31
0.00000000
  0
LINE
  5
18E
  330
6E5
  100
AcDbEntity
  8
0
  6
ByLayer
  62
7
  370
60
  100
AcDbLine
  10
137.28149400
  20
477.97930900
  30
0.00000000
  11
440.98150600
  21
477.97930900
  31
0.00000000
  0
LINE
  5
192
  330
6E5
  100
AcDbEntity
  8
0
  6
ByLayer
  62
7
  370
60
  48
0.03000000
  100
AcDbLine
  10
441.98150600
  20
476.77929700
  30
0.00000000
  11
441.98150600
  21
477.97930900
  31
0.00000000
  0
LINE
  5
193
  330
6E5
  100
AcDbEntity
  8
0
  6
ByLayer
  62
7
  370
60
  48
0.01250000
  100
AcDbLine
  10
136.28149400
  20
198.57229600
  30
0.00000000
  11
136.28149400
  21
198.07229600
  31
0.00000000
  0
LINE
  5
194
  330
6E5
  100
AcDbEntity
  8
0
  6
ByLayer
  62
7
  370
60
  48
0.01250000
  100
AcDbLine
  10
441.98150600
  20
198.07229600
  30
0.00000000
  11
441.98150600
  21
198.57229600
  31
0.00000000
  0
LINE
  5
196
  330
6E5
  100
AcDbEntity
  8
0
  6
ByLayer
  62
7
  370
60
  100
AcDbLine
  10
148.48149100
  20
198.57229600
  30
0.00000000
  11
180.27732800
  21
198.57229600
  31
0.00000000
  0
LINE
  5
197
  330
6E5
  100
AcDbEntity
  8
0
  6
ByLayer
  62
7
  370
60
  100
AcDbLine
  10
191.98149100
  20
198.57229600
  30
0.00000000
  11
223.77732800
  21
198.57229600
  31
0.00000000
  0
LINE
  5
198
  330
6E5
  100
AcDbEntity
  8
0
  6
ByLayer
  62
7
  370
60
  100
AcDbLine
  10
235.48149100
  20
198.57229600
  30
0.00000000
  11
267.27734400
  21
198.57229600
  31
0.00000000
  0
LINE
  5
199
  330
6E5
  100
AcDbEntity
  8
0
  6
ByLayer
  62
7
  370
60
  100
AcDbLine
  10
278.98150600
  20
198.57229600
  30
0.00000000
  11
299.28149400
  21
198.57229600
  31
0.00000000
  0
LINE
  5
19A
  330
6E5
  100
AcDbEntity
  8
0
  6
ByLayer
  62
7
  370
60
  100
AcDbLine
  10
310.98565700
  20
198.57229600
  30
0.00000000
  11
342.78149400
  21
198.57229600
  31
0.00000000
  0
LINE
  5
19B
  330
6E5
  100
AcDbEntity
  8
0
  6
ByLayer
  62
7
  370
60
  100
AcDbLine
  10
354.48565700
  20
198.57229600
  30
0.00000000
  11
386.28149400
  21
198.57229600
  31
0.00000000
  0
LINE
  5
19C
  330
6E5
  100
AcDbEntity
  8
0
  6
ByLayer
  62
7
  370
60
  100
AcDbLine
  10
397.98565700
  20
198.57229600
  30
0.00000000
  11
429.78149400
  21
198.57229600
  31
0.00000000
  0
LINE
  5
19F
  330
6E5
  100
AcDbEntity
  8
0
  6
ByLayer
  62
7
  370
60
  48
0.03000000
  100
AcDbLine
  10
136.28149400
  20
196.87229900
  30
0.00000000
  11
136.28149400
  21
198.07229600
  31
0.00000000
  0
LINE
  5
1A0
  330
6E5
  100
AcDbEntity
  8
0
  6
ByLayer
  62
7
  370
60
  48
0.02500000
  100
AcDbLine
  10
136.28149400
  20
196.87229900
  30
0.00000000
  11
137.28149400
  21
196.87229900
  31
0.00000000
  0
LINE
  5
1A2
  330
6E5
  100
AcDbEntity
  8
0
  6
ByLayer
  62
7
  370
60
  48
0.02988500
  100
AcDbLine
  10
136.28149400
  20
198.57229600
  30
0.00000000
  11
136.28149400
  21
199.76768500
  31
0.00000000
  0
LINE
  5
1A3
  330
6E5
  100
AcDbEntity
  8
0
  6
ByLayer
  62
7
  370
60
  100
AcDbLine
  10
137.28149400
  20
196.87229900
  30
0.00000000
  11
440.98150600
  21
196.87229900
  31
0.00000000
  0
LINE
  5
1A4
  330
6E5
  100
AcDbEntity
  8
0
  6
ByLayer
  62
7
  370
60
  48
0.02500000
  100
AcDbLine
  10
440.98150600
  20
196.87229900
  30
0.00000000
  11
441.98150600
  21
196.87229900
  31
0.00000000
  0
LINE
  5
1A8
  330
6E5
  100
AcDbEntity
  8
0
  6
ByLayer
  62
7
  370
60
  48
0.03000000
  100
AcDbLine
  10
441.98150600
  20
196.87229900
  30
0.00000000
  11
441.98150600
  21
198.07229600
  31
0.00000000
  0
LINE
  5
1A9
  330
6E5
  100
AcDbEntity
  8
0
  6
ByLayer
  62
7
  370
60
  100
AcDbLine
  10
137.48147600
  20
201.87229900
  30
0.00000000
  11
179.78147900
  21
201.87229900
  31
0.00000000
  0
LINE
  5
1AA
  330
6E5
  100
AcDbEntity
  8
0
  6
ByLayer
  62
7
  370
60
  100
AcDbLine
  10
180.98147600
  20
201.87229900
  30
0.00000000
  11
223.28147900
  21
201.87229900
  31
0.00000000
  0
LINE
  5
1AB
  330
6E5
  100
AcDbEntity
  8
0
  6
ByLayer
  62
7
  370
60
  100
AcDbLine
  10
224.48147600
  20
201.87229900
  30
0.00000000
  11
266.78146400
  21
201.87229900
  31
0.00000000
  0
LINE
  5
1AC
  330
6E5
  100
AcDbEntity
  8
0
  6
ByLayer
  62
7
  370
60
  100
AcDbLine
  10
267.98147600
  20
201.87229900
  30
0.00000000
  11
310.28146400
  21
201.87229900
  31
0.00000000
  0
LINE
  5
1AD
  330
6E5
  100
AcDbEntity
  8
0
  6
ByLayer
  62
7
  370
60
  100
AcDbLine
  10
311.48147600
  20
201.87229900
  30
0.00000000
  11
353.78149400
  21
201.87229900
  31
0.00000000
  0
LINE
  5
1AE
  330
6E5
  100
AcDbEntity
  8
0
  6
ByLayer
  62
7
  370
60
  100
AcDbLine
  10
354.98147600
  20
201.87229900
  30
0.00000000
  11
397.28149400
  21
201.87229900
  31
0.00000000
  0
LINE
  5
1AF
  330
6E5
  100
AcDbEntity
  8
0
  6
ByLayer
  62
7
  370
60
  100
AcDbLine
  10
398.48147600
  20
201.87229900
  30
0.00000000
  11
440.78149400
  21
201.87229900
  31
0.00000000
  0
LINE
  5
1B0
  330
6E5
  100
AcDbEntity
  8
0
  6
ByLayer
  62
7
  370
60
  48
0.05750000
  100
AcDbLine
  10
441.98150600
  20
198.57229600
  30
0.00000000
  11
441.98150600
  21
200.87229900
  31
0.00000000
  0
LINE
  5
1B2
  330
6E5
  100
AcDbEntity
  8
0
  6
ByLayer
  62
7
  370
60
  48
0.11621900
  100
AcDbLine
  10
266.78149400
  20
470.13055400
  30
0.00000000
  11
266.78149400
  21
474.77929700
  31
0.00000000
  0
LINE
  5
1B4
  330
6E5
  100
AcDbEntity
  8
0
  6
ByLayer
  62
7
  370
60
  48
0.11621900
  100
AcDbLine
  10
267.98150600
  20
470.13055400
  30
0.00000000
  11
267.98150600
  21
474.77929700
  31
0.00000000
  0
LINE
  5
1B5
  330
6E5
  100
AcDbEntity
  8
0
  6
ByLayer
  62
7
  370
60
  100
AcDbLine
  10
266.78149400
  20
204.72106900
  30
0.00000000
  11
266.78149400
  21
470.13055400
  31
0.00000000
  0
LINE
  5
1B7
  330
6E5
  100
AcDbEntity
  8
0
  6
ByLayer
  62
7
  370
60
  100
AcDbLine
  10
267.98150600
  20
204.72106900
  30
0.00000000
  11
267.98150600
  21
470.13055400
  31
0.00000000
  0
LINE
  5
1B8
  330
6E5
  100
AcDbEntity
  8
0
  6
ByLayer
  62
7
  370
60
  48
0.11621900
  100
AcDbLine
  10
266.78149400
  20
200.07229600
  30
0.00000000
  11
266.78149400
  21
204.72106900
  31
0.00000000
  0
LINE
  5
1BA
  330
6E5
  100
AcDbEntity
  8
0
  6
ByLayer
  62
7
  370
60
  48
0.11621900
  100
AcDbLine
  10
267.98150600
  20
200.07229600
  30
0.00000000
  11
267.98150600
  21
204.72106900
  31
0.00000000
  0
LINE
  5
1BB
  330
6E5
  100
AcDbEntity
  8
0
  6
ByLayer
  62
7
  370
60
  48
0.01250000
  100
AcDbLine
  10
278.48150600
  20
199.27230800
  30
0.00000000
  11
278.98150600
  21
199.27230800
  31
0.00000000
  0
LINE
  5
1BD
  330
6E5
  100
AcDbEntity
  8
0
  6
ByLayer
  62
7
  370
60
  48
0.01250000
  100
AcDbLine
  10
278.48150600
  20
198.07229600
  30
0.00000000
  11
278.98150600
  21
198.07229600
  31
0.00000000
  0
LINE
  5
1BE
  330
6E5
  100
AcDbEntity
  8
0
  6
ByLayer
  62
7
  370
60
  48
0.03000000
  100
AcDbLine
  10
278.98150600
  20
199.27230800
  30
0.00000000
  11
278.98150600
  21
198.07229600
  31
0.00000000
  0
LINE
  5
1C0
  330
6E5
  100
AcDbEntity
  8
0
  6
ByLayer
  62
7
  370
60
  48
0.01250000
  100
AcDbLine
  10
278.48150600
  20
475.57931500
  30
0.00000000
  11
278.98150600
  21
475.57931500
  31
0.00000000
  0
LINE
  5
1C1
  330
6E5
  100
AcDbEntity
  8
0
  6
ByLayer
  62
7
  370
60
  48
0.03000000
  100
AcDbLine
  10
278.98150600
  20
476.77929700
  30
0.00000000
  11
278.98150600
  21
475.57931500
  31
0.00000000
  0
LINE
  5
1C2
  330
6E5
  100
AcDbEntity
  8
0
  6
ByLayer
  62
7
  370
60
  48
0.25000000
  100
AcDbLine
  10
268.48150600
  20
475.57931500
  30
0.00000000
  11
278.48150600
  21
475.57931500
  31
0.00000000
  0
ARC
  5
1C3
  330
6E5
  100
AcDbEntity
  8
0
  6
ByLayer
  62
7
  370
60
  100
AcDbCircle
  10
268.48150600
  20
475.07931500
  30
0.00000000
  40
0.50000000
  100
AcDbArc
  50
90.00000000
  51
180.00000000
  0
LINE
  5
1C4
  330
6E5
  100
AcDbEntity
  8
0
  6
ByLayer
  62
7
  370
60
  48
0.25000000
  100
AcDbLine
  10
268.48150600
  20
199.27230800
  30
0.00000000
  11
278.48150600
  21
199.27230800
  31
0.00000000
  0
LINE
  5
1C5
  330
6E5
  100
AcDbEntity
  8
0
  6
ByLayer
  62
7
  370
60
  48
0.00750000
  100
AcDbLine
  10
267.98150600
  20
200.07229600
  30
0.00000000
  11
267.98150600
  21
199.77230800
  31
0.00000000
  0
LINE
  5
1C6
  330
6E5
  100
AcDbEntity
  8
0
  6
ByLayer
  62
7
  370
60
  48
0.00750000
  100
AcDbLine
  10
267.98150600
  20
475.07931500
  30
0.00000000
  11
267.98150600
  21
474.77929700
  31
0.00000000
  0
ARC
  5
1C7
  330
6E5
  100
AcDbEntity
  8
0
  6
ByLayer
  62
7
  370
60
  100
AcDbCircle
  10
268.48150600
  20
199.77230800
  30
0.00000000
  40
0.50000000
  100
AcDbArc
  50
180.00000000
  51
270.00000000
  0
LINE
  5
1C8
  330
6E5
  100
AcDbEntity
  8
0
  6
ByLayer
  62
7
  370
60
  48
0.25000000
  100
AcDbLine
  10
268.48150600
  20
198.07229600
  30
0.00000000
  11
278.48150600
  21
198.07229600
  31
0.00000000
  0
LINE
  5
1C9
  330
6E5
  100
AcDbEntity
  8
0
  6
ByLayer
  62
7
  370
60
  48
0.00750000
  100
AcDbLine
  10
266.78149400
  20
200.07229600
  30
0.00000000
  11
266.78149400
  21
199.77230800
  31
0.00000000
  0
ARC
  5
1CA
  330
6E5
  100
AcDbEntity
  8
0
  6
ByLayer
  62
7
  370
60
  100
AcDbCircle
  10
268.48150600
  20
199.77230800
  30
0.00000000
  40
1.70000000
  100
AcDbArc
  50
180.00000000
  51
270.00000000
  0
LINE
  5
1CB
  330
6E5
  100
AcDbEntity
  8
0
  6
ByLayer
  62
7
  370
60
  48
0.25000000
  100
AcDbLine
  10
268.48150600
  20
476.77929700
  30
0.00000000
  11
278.98332695
  21
476.78075422
  31
0.00000000
  0
LINE
  5
1CC
  330
6E5
  100
AcDbEntity
  8
0
  6
ByLayer
  62
7
  370
60
  48
0.00750000
  100
AcDbLine
  10
266.78149400
  20
475.07931500
  30
0.00000000
  11
266.78149400
  21
474.77929700
  31
0.00000000
  0
ARC
  5
1CD
  330
6E5
  100
AcDbEntity
  8
0
  6
ByLayer
  62
7
  370
60
  100
AcDbCircle
  10
268.48150600
  20
475.07931500
  30
0.00000000
  40
1.70000000
  100
AcDbArc
  50
90.00000000
  51
180.00000000
  0
LINE
  5
1CF
  330
6E5
  100
AcDbEntity
  8
0
  6
ByLayer
  62
7
  370
60
  48
0.11621900
  100
AcDbLine
  10
310.28149400
  20
470.13055400
  30
0.00000000
  11
310.28149400
  21
474.77929700
  31
0.00000000
  0
LINE
  5
1D1
  330
6E5
  100
AcDbEntity
  8
0
  6
ByLayer
  62
7
  370
60
  48
0.11621900
  100
AcDbLine
  10
311.48150600
  20
470.13055400
  30
0.00000000
  11
311.48150600
  21
474.77929700
  31
0.00000000
  0
LINE
  5
1D2
  330
6E5
  100
AcDbEntity
  8
0
  6
ByLayer
  62
7
  370
60
  100
AcDbLine
  10
310.28149400
  20
204.72106900
  30
0.00000000
  11
310.28149400
  21
470.13055400
  31
0.00000000
  0
LINE
  5
1D4
  330
6E5
  100
AcDbEntity
  8
0
  6
ByLayer
  62
7
  370
60
  100
AcDbLine
  10
311.48150600
  20
204.72106900
  30
0.00000000
  11
311.48150600
  21
470.13055400
  31
0.00000000
  0
LINE
  5
1D5
  330
6E5
  100
AcDbEntity
  8
0
  6
ByLayer
  62
7
  370
60
  48
0.11621900
  100
AcDbLine
  10
310.28149400
  20
200.07229600
  30
0.00000000
  11
310.28149400
  21
204.72106900
  31
0.00000000
  0
LINE
  5
1D7
  330
6E5
  100
AcDbEntity
  8
0
  6
ByLayer
  62
7
  370
60
  48
0.11621900
  100
AcDbLine
  10
311.48150600
  20
200.07229600
  30
0.00000000
  11
311.48150600
  21
204.72106900
  31
0.00000000
  0
LINE
  5
1D8
  330
6E5
  100
AcDbEntity
  8
0
  6
ByLayer
  62
7
  370
60
  48
0.03000000
  100
AcDbLine
  10
299.28149400
  20
476.77929700
  30
0.00000000
  11
299.28149400
  21
475.57931500
  31
0.00000000
  0
LINE
  5
1D9
  330
6E5
  100
AcDbEntity
  8
0
  6
ByLayer
  62
7
  370
60
  48
0.01250000
  100
AcDbLine
  10
299.28149400
  20
475.57931500
  30
0.00000000
  11
299.78149400
  21
475.57931500
  31
0.00000000
  0
LINE
  5
1DB
  330
6E5
  100
AcDbEntity
  8
0
  6
ByLayer
  62
7
  370
60
  48
0.01250000
  100
AcDbLine
  10
299.28149400
  20
199.27230800
  30
0.00000000
  11
299.78149400
  21
199.27230800
  31
0.00000000
  0
LINE
  5
1DC
  330
6E5
  100
AcDbEntity
  8
0
  6
ByLayer
  62
7
  370
60
  48
0.03000000
  100
AcDbLine
  10
299.28149400
  20
199.27230800
  30
0.00000000
  11
299.28149400
  21
198.07229600
  31
0.00000000
  0
LINE
  5
1DD
  330
6E5
  100
AcDbEntity
  8
0
  6
ByLayer
  62
7
  370
60
  48
0.01250000
  100
AcDbLine
  10
299.28149400
  20
198.07229600
  30
0.00000000
  11
299.78149400
  21
198.07229600
  31
0.00000000
  0
LINE
  5
1DF
  330
6E5
  100
AcDbEntity
  8
0
  6
ByLayer
  62
7
  370
60
  48
0.25000000
  100
AcDbLine
  10
309.78149400
  20
199.27230800
  30
0.00000000
  11
299.78149400
  21
199.27230800
  31
0.00000000
  0
ARC
  5
1E0
  330
6E5
  100
AcDbEntity
  8
0
  6
ByLayer
  62
7
  370
60
  100
AcDbCircle
  10
309.78149400
  20
199.77230800
  30
0.00000000
  40
0.50000000
  100
AcDbArc
  50
270.00000000
  51
0.00000000
  0
LINE
  5
1E1
  330
6E5
  100
AcDbEntity
  8
0
  6
ByLayer
  62
7
  370
60
  48
0.25000000
  100
AcDbLine
  10
309.78149400
  20
475.57931500
  30
0.00000000
  11
299.78149400
  21
475.57931500
  31
0.00000000
  0
LINE
  5
1E2
  330
6E5
  100
AcDbEntity
  8
0
  6
ByLayer
  62
7
  370
60
  48
0.00750000
  100
AcDbLine
  10
310.28149400
  20
475.07931500
  30
0.00000000
  11
310.28149400
  21
474.77929700
  31
0.00000000
  0
LINE
  5
1E3
  330
6E5
  100
AcDbEntity
  8
0
  6
ByLayer
  62
7
  370
60
  48
0.00750000
  100
AcDbLine
  10
310.28149400
  20
200.07229600
  30
0.00000000
  11
310.28149400
  21
199.77230800
  31
0.00000000
  0
ARC
  5
1E4
  330
6E5
  100
AcDbEntity
  8
0
  6
ByLayer
  62
7
  370
60
  100
AcDbCircle
  10
309.78149400
  20
475.07931500
  30
0.00000000
  40
0.50000000
  100
AcDbArc
  50
0.00000000
  51
90.00000000
  0
LINE
  5
1E5
  330
6E5
  100
AcDbEntity
  8
0
  6
ByLayer
  62
7
  370
60
  48
0.25000000
  100
AcDbLine
  10
299.78149400
  20
198.07229600
  30
0.00000000
  11
309.78149400
  21
198.07229600
  31
0.00000000
  0
ARC
  5
1E6
  330
6E5
  100
AcDbEntity
  8
0
  6
ByLayer
  62
7
  370
60
  100
AcDbCircle
  10
309.78149400
  20
199.77230800
  30
0.00000000
  40
1.70000000
  100
AcDbArc
  50
270.00000000
  51
0.00000000
  0
LINE
  5
1E7
  330
6E5
  100
AcDbEntity
  8
0
  6
ByLayer
  62
7
  370
60
  48
0.00750000
  100
AcDbLine
  10
311.48150600
  20
200.07229600
  30
0.00000000
  11
311.48150600
  21
199.77230800
  31
0.00000000
  0
LINE
  5
1E8
  330
6E5
  100
AcDbEntity
  8
0
  6
ByLayer
  62
7
  370
60
  48
0.25000000
  100
AcDbLine
  10
299.27789615
  20
476.78555612
  30
0.00000000
  11
309.78149400
  21
476.77929700
  31
0.00000000
  0
ARC
  5
1E9
  330
6E5
  100
AcDbEntity
  8
0
  6
ByLayer
  62
7
  370
60
  100
AcDbCircle
  10
309.78149400
  20
475.07931500
  30
0.00000000
  40
1.70000000
  100
AcDbArc
  50
0.00000000
  51
90.00000000
  0
LINE
  5
1EA
  330
6E5
  100
AcDbEntity
  8
0
  6
ByLayer
  62
7
  370
60
  48
0.00750000
  100
AcDbLine
  10
311.48150600
  20
475.07931500
  30
0.00000000
  11
311.48150600
  21
474.77929700
  31
0.00000000
  0
LINE
  5
1EC
  330
6E5
  100
AcDbEntity
  8
0
  6
ByLayer
  62
7
  370
60
  48
0.11621900
  100
AcDbLine
  10
223.28149400
  20
470.13055400
  30
0.00000000
  11
223.28149400
  21
474.77929700
  31
0.00000000
  0
LINE
  5
1EE
  330
6E5
  100
AcDbEntity
  8
0
  6
ByLayer
  62
7
  370
60
  48
0.11621900
  100
AcDbLine
  10
224.48150600
  20
470.13055400
  30
0.00000000
  11
224.48150600
  21
474.77929700
  31
0.00000000
  0
LINE
  5
1EF
  330
6E5
  100
AcDbEntity
  8
0
  6
ByLayer
  62
7
  370
60
  100
AcDbLine
  10
223.28149400
  20
204.72106900
  30
0.00000000
  11
223.28149400
  21
470.13055400
  31
0.00000000
  0
LINE
  5
1F1
  330
6E5
  100
AcDbEntity
  8
0
  6
ByLayer
  62
7
  370
60
  100
AcDbLine
  10
224.48150600
  20
204.72106900
  30
0.00000000
  11
224.48150600
  21
470.13055400
  31
0.00000000
  0
LINE
  5
1F2
  330
6E5
  100
AcDbEntity
  8
0
  6
ByLayer
  62
7
  370
60
  48
0.11621900
  100
AcDbLine
  10
223.28149400
  20
200.07229600
  30
0.00000000
  11
223.28149400
  21
204.72106900
  31
0.00000000
  0
LINE
  5
1F4
  330
6E5
  100
AcDbEntity
  8
0
  6
ByLayer
  62
7
  370
60
  48
0.11621900
  100
AcDbLine
  10
224.48150600
  20
200.07229600
  30
0.00000000
  11
224.48150600
  21
204.72106900
  31
0.00000000
  0
LINE
  5
1F5
  330
6E5
  100
AcDbEntity
  8
0
  6
ByLayer
  62
7
  370
60
  48
0.01250000
  100
AcDbLine
  10
234.98150600
  20
199.27230800
  30
0.00000000
  11
235.48150600
  21
199.27230800
  31
0.00000000
  0
LINE
  5
1F7
  330
6E5
  100
AcDbEntity
  8
0
  6
ByLayer
  62
7
  370
60
  48
0.01250000
  100
AcDbLine
  10
234.98150600
  20
198.07229600
  30
0.00000000
  11
235.48150600
  21
198.07229600
  31
0.00000000
  0
LINE
  5
1F8
  330
6E5
  100
AcDbEntity
  8
0
  6
ByLayer
  62
7
  370
60
  48
0.03000000
  100
AcDbLine
  10
235.48150600
  20
199.27230800
  30
0.00000000
  11
235.48150600
  21
198.07229600
  31
0.00000000
  0
LINE
  5
1FA
  330
6E5
  100
AcDbEntity
  8
0
  6
ByLayer
  62
7
  370
60
  48
0.01250000
  100
AcDbLine
  10
234.98150600
  20
475.57931500
  30
0.00000000
  11
235.48150600
  21
475.57931500
  31
0.00000000
  0
LINE
  5
1FB
  330
6E5
  100
AcDbEntity
  8
0
  6
ByLayer
  62
7
  370
60
  48
0.03000000
  100
AcDbLine
  10
235.48150600
  20
476.77929700
  30
0.00000000
  11
235.48150600
  21
475.57931500
  31
0.00000000
  0
LINE
  5
1FC
  330
6E5
  100
AcDbEntity
  8
0
  6
ByLayer
  62
7
  370
60
  48
0.25000000
  100
AcDbLine
  10
224.98150600
  20
475.57931500
  30
0.00000000
  11
234.98150600
  21
475.57931500
  31
0.00000000
  0
ARC
  5
1FD
  330
6E5
  100
AcDbEntity
  8
0
  6
ByLayer
  62
7
  370
60
  100
AcDbCircle
  10
224.98150600
  20
475.07931500
  30
0.00000000
  40
0.50000000
  100
AcDbArc
  50
90.00000000
  51
180.00000000
  0
LINE
  5
1FE
  330
6E5
  100
AcDbEntity
  8
0
  6
ByLayer
  62
7
  370
60
  48
0.25000000
  100
AcDbLine
  10
224.98150600
  20
199.27230800
  30
0.00000000
  11
234.98150600
  21
199.27230800
  31
0.00000000
  0
LINE
  5
1FF
  330
6E5
  100
AcDbEntity
  8
0
  6
ByLayer
  62
7
  370
60
  48
0.00750000
  100
AcDbLine
  10
224.48150600
  20
200.07229600
  30
0.00000000
  11
224.48150600
  21
199.77230800
  31
0.00000000
  0
LINE
  5
200
  330
6E5
  100
AcDbEntity
  8
0
  6
ByLayer
  62
7
  370
60
  48
0.00750000
  100
AcDbLine
  10
224.48150600
  20
475.07931500
  30
0.00000000
  11
224.48150600
  21
474.77929700
  31
0.00000000
  0
ARC
  5
201
  330
6E5
  100
AcDbEntity
  8
0
  6
ByLayer
  62
7
  370
60
  100
AcDbCircle
  10
224.98150600
  20
199.77230800
  30
0.00000000
  40
0.50000000
  100
AcDbArc
  50
180.00000000
  51
270.00000000
  0
LINE
  5
202
  330
6E5
  100
AcDbEntity
  8
0
  6
ByLayer
  62
7
  370
60
  48
0.25000000
  100
AcDbLine
  10
224.98150600
  20
198.07229600
  30
0.00000000
  11
234.98150600
  21
198.07229600
  31
0.00000000
  0
LINE
  5
203
  330
6E5
  100
AcDbEntity
  8
0
  6
ByLayer
  62
7
  370
60
  48
0.00750000
  100
AcDbLine
  10
223.28149400
  20
200.07229600
  30
0.00000000
  11
223.28149400
  21
199.77230800
  31
0.00000000
  0
ARC
  5
204
  330
6E5
  100
AcDbEntity
  8
0
  6
ByLayer
  62
7
  370
60
  100
AcDbCircle
  10
224.98150600
  20
199.77230800
  30
0.00000000
  40
1.70000000
  100
AcDbArc
  50
180.00000000
  51
270.00000000
  0
LINE
  5
205
  330
6E5
  100
AcDbEntity
  8
0
  6
ByLayer
  62
7
  370
60
  48
0.25000000
  100
AcDbLine
  10
224.98150600
  20
476.77929700
  30
0.00000000
  11
235.48326293
  21
476.79929071
  31
0.00000000
  0
LINE
  5
206
  330
6E5
  100
AcDbEntity
  8
0
  6
ByLayer
  62
7
  370
60
  48
0.00750000
  100
AcDbLine
  10
223.28149400
  20
475.07931500
  30
0.00000000
  11
223.28149400
  21
474.77929700
  31
0.00000000
  0
ARC
  5
207
  330
6E5
  100
AcDbEntity
  8
0
  6
ByLayer
  62
7
  370
60
  100
AcDbCircle
  10
224.98150600
  20
475.07931500
  30
0.00000000
  40
1.70000000
  100
AcDbArc
  50
90.00000000
  51
180.00000000
  0
LINE
  5
209
  330
6E5
  100
AcDbEntity
  8
0
  6
ByLayer
  62
7
  370
60
  48
0.11621900
  100
AcDbLine
  10
353.78149400
  20
470.13055400
  30
0.00000000
  11
353.78149400
  21
474.77929700
  31
0.00000000
  0
LINE
  5
20B
  330
6E5
  100
AcDbEntity
  8
0
  6
ByLayer
  62
7
  370
60
  48
0.11621900
  100
AcDbLine
  10
354.98150600
  20
470.13055400
  30
0.00000000
  11
354.98150600
  21
474.77929700
  31
0.00000000
  0
LINE
  5
20C
  330
6E5
  100
AcDbEntity
  8
0
  6
ByLayer
  62
7
  370
60
  100
AcDbLine
  10
353.78149400
  20
204.72106900
  30
0.00000000
  11
353.78149400
  21
470.13055400
  31
0.00000000
  0
LINE
  5
20E
  330
6E5
  100
AcDbEntity
  8
0
  6
ByLayer
  62
7
  370
60
  100
AcDbLine
  10
354.98150600
  20
204.72106900
  30
0.00000000
  11
354.98150600
  21
470.13055400
  31
0.00000000
  0
LINE
  5
20F
  330
6E5
  100
AcDbEntity
  8
0
  6
ByLayer
  62
7
  370
60
  48
0.11621900
  100
AcDbLine
  10
353.78149400
  20
200.07229600
  30
0.00000000
  11
353.78149400
  21
204.72106900
  31
0.00000000
  0
LINE
  5
211
  330
6E5
  100
AcDbEntity
  8
0
  6
ByLayer
  62
7
  370
60
  48
0.11621900
  100
AcDbLine
  10
354.98150600
  20
200.07229600
  30
0.00000000
  11
354.98150600
  21
204.72106900
  31
0.00000000
  0
LINE
  5
212
  330
6E5
  100
AcDbEntity
  8
0
  6
ByLayer
  62
7
  370
60
  48
0.03000000
  100
AcDbLine
  10
342.78149400
  20
476.77929700
  30
0.00000000
  11
342.78149400
  21
475.57931500
  31
0.00000000
  0
LINE
  5
213
  330
6E5
  100
AcDbEntity
  8
0
  6
ByLayer
  62
7
  370
60
  48
0.01250000
  100
AcDbLine
  10
342.78149400
  20
475.57931500
  30
0.00000000
  11
343.28149400
  21
475.57931500
  31
0.00000000
  0
LINE
  5
215
  330
6E5
  100
AcDbEntity
  8
0
  6
ByLayer
  62
7
  370
60
  48
0.01250000
  100
AcDbLine
  10
342.78149400
  20
199.27230800
  30
0.00000000
  11
343.28149400
  21
199.27230800
  31
0.00000000
  0
LINE
  5
216
  330
6E5
  100
AcDbEntity
  8
0
  6
ByLayer
  62
7
  370
60
  48
0.03000000
  100
AcDbLine
  10
342.78149400
  20
199.27230800
  30
0.00000000
  11
342.78149400
  21
198.07229600
  31
0.00000000
  0
LINE
  5
217
  330
6E5
  100
AcDbEntity
  8
0
  6
ByLayer
  62
7
  370
60
  48
0.01250000
  100
AcDbLine
  10
342.78149400
  20
198.07229600
  30
0.00000000
  11
343.28149400
  21
198.07229600
  31
0.00000000
  0
LINE
  5
219
  330
6E5
  100
AcDbEntity
  8
0
  6
ByLayer
  62
7
  370
60
  48
0.25000000
  100
AcDbLine
  10
353.28149400
  20
199.27230800
  30
0.00000000
  11
343.28149400
  21
199.27230800
  31
0.00000000
  0
ARC
  5
21A
  330
6E5
  100
AcDbEntity
  8
0
  6
ByLayer
  62
7
  370
60
  100
AcDbCircle
  10
353.28149400
  20
199.77230800
  30
0.00000000
  40
0.50000000
  100
AcDbArc
  50
270.00000000
  51
0.00000000
  0
LINE
  5
21B
  330
6E5
  100
AcDbEntity
  8
0
  6
ByLayer
  62
7
  370
60
  48
0.25000000
  100
AcDbLine
  10
353.28149400
  20
475.57931500
  30
0.00000000
  11
343.28149400
  21
475.57931500
  31
0.00000000
  0
LINE
  5
21C
  330
6E5
  100
AcDbEntity
  8
0
  6
ByLayer
  62
7
  370
60
  48
0.00750000
  100
AcDbLine
  10
353.78149400
  20
475.07931500
  30
0.00000000
  11
353.78149400
  21
474.77929700
  31
0.00000000
  0
LINE
  5
21D
  330
6E5
  100
AcDbEntity
  8
0
  6
ByLayer
  62
7
  370
60
  48
0.00750000
  100
AcDbLine
  10
353.78149400
  20
200.07229600
  30
0.00000000
  11
353.78149400
  21
199.77230800
  31
0.00000000
  0
ARC
  5
21E
  330
6E5
  100
AcDbEntity
  8
0
  6
ByLayer
  62
7
  370
60
  100
AcDbCircle
  10
353.28149400
  20
475.07931500
  30
0.00000000
  40
0.50000000
  100
AcDbArc
  50
0.00000000
  51
90.00000000
  0
LINE
  5
21F
  330
6E5
  100
AcDbEntity
  8
0
  6
ByLayer
  62
7
  370
60
  48
0.25000000
  100
AcDbLine
  10
343.28149400
  20
198.07229600
  30
0.00000000
  11
353.28149400
  21
198.07229600
  31
0.00000000
  0
ARC
  5
220
  330
6E5
  100
AcDbEntity
  8
0
  6
ByLayer
  62
7
  370
60
  100
AcDbCircle
  10
353.28149400
  20
199.77230800
  30
0.00000000
  40
1.70000000
  100
AcDbArc
  50
270.00000000
  51
0.00000000
  0
LINE
  5
221
  330
6E5
  100
AcDbEntity
  8
0
  6
ByLayer
  62
7
  370
60
  48
0.00750000
  100
AcDbLine
  10
354.98150600
  20
200.07229600
  30
0.00000000
  11
354.98150600
  21
199.77230800
  31
0.00000000
  0
LINE
  5
222
  330
6E5
  100
AcDbEntity
  8
0
  6
ByLayer
  62
7
  370
60
  48
0.25000000
  100
AcDbLine
  10
342.78648548
  20
476.82118417
  30
0.00000000
  11
353.28149400
  21
476.77929700
  31
0.00000000
  0
ARC
  5
223
  330
6E5
  100
AcDbEntity
  8
0
  6
ByLayer
  62
7
  370
60
  100
AcDbCircle
  10
353.28149400
  20
475.07931500
  30
0.00000000
  40
1.70000000
  100
AcDbArc
  50
0.00000000
  51
90.00000000
  0
LINE
  5
224
  330
6E5
  100
AcDbEntity
  8
0
  6
ByLayer
  62
7
  370
60
  48
0.00750000
  100
AcDbLine
  10
354.98150600
  20
475.07931500
  30
0.00000000
  11
354.98150600
  21
474.77929700
  31
0.00000000
  0
LINE
  5
226
  330
6E5
  100
AcDbEntity
  8
0
  6
ByLayer
  62
7
  370
60
  48
0.11621900
  100
AcDbLine
  10
179.78149400
  20
470.13055400
  30
0.00000000
  11
179.78149400
  21
474.77929700
  31
0.00000000
  0
LINE
  5
228
  330
6E5
  100
AcDbEntity
  8
0
  6
ByLayer
  62
7
  370
60
  48
0.11621900
  100
AcDbLine
  10
180.98150600
  20
470.13055400
  30
0.00000000
  11
180.98150600
  21
474.77929700
  31
0.00000000
  0
LINE
  5
229
  330
6E5
  100
AcDbEntity
  8
0
  6
ByLayer
  62
7
  370
60
  100
AcDbLine
  10
179.78149400
  20
204.72106900
  30
0.00000000
  11
179.78149400
  21
470.13055400
  31
0.00000000
  0
LINE
  5
22B
  330
6E5
  100
AcDbEntity
  8
0
  6
ByLayer
  62
7
  370
60
  100
AcDbLine
  10
180.98150600
  20
204.72106900
  30
0.00000000
  11
180.98150600
  21
470.13055400
  31
0.00000000
  0
LINE
  5
22C
  330
6E5
  100
AcDbEntity
  8
0
  6
ByLayer
  62
7
  370
60
  48
0.11621900
  100
AcDbLine
  10
179.78149400
  20
200.07229600
  30
0.00000000
  11
179.78149400
  21
204.72106900
  31
0.00000000
  0
LINE
  5
22E
  330
6E5
  100
AcDbEntity
  8
0
  6
ByLayer
  62
7
  370
60
  48
0.11621900
  100
AcDbLine
  10
180.98150600
  20
200.07229600
  30
0.00000000
  11
180.98150600
  21
204.72106900
  31
0.00000000
  0
LINE
  5
22F
  330
6E5
  100
AcDbEntity
  8
0
  6
ByLayer
  62
7
  370
60
  48
0.01250000
  100
AcDbLine
  10
191.48150600
  20
199.27230800
  30
0.00000000
  11
191.98150600
  21
199.27230800
  31
0.00000000
  0
LINE
  5
231
  330
6E5
  100
AcDbEntity
  8
0
  6
ByLayer
  62
7
  370
60
  48
0.01250000
  100
AcDbLine
  10
191.48150600
  20
198.07229600
  30
0.00000000
  11
191.98150600
  21
198.07229600
  31
0.00000000
  0
LINE
  5
232
  330
6E5
  100
AcDbEntity
  8
0
  6
ByLayer
  62
7
  370
60
  48
0.03000000
  100
AcDbLine
  10
191.98150600
  20
199.27230800
  30
0.00000000
  11
191.98150600
  21
198.07229600
  31
0.00000000
  0
LINE
  5
234
  330
6E5
  100
AcDbEntity
  8
0
  6
ByLayer
  62
7
  370
60
  48
0.01250000
  100
AcDbLine
  10
191.48150600
  20
475.57931500
  30
0.00000000
  11
191.98150600
  21
475.57931500
  31
0.00000000
  0
LINE
  5
235
  330
6E5
  100
AcDbEntity
  8
0
  6
ByLayer
  62
7
  370
60
  48
0.03000000
  100
AcDbLine
  10
191.98150600
  20
476.77929700
  30
0.00000000
  11
191.98150600
  21
475.57931500
  31
0.00000000
  0
LINE
  5
236
  330
6E5
  100
AcDbEntity
  8
0
  6
ByLayer
  62
7
  370
60
  48
0.25000000
  100
AcDbLine
  10
181.48150600
  20
475.57931500
  30
0.00000000
  11
191.48150600
  21
475.57931500
  31
0.00000000
  0
ARC
  5
237
  330
6E5
  100
AcDbEntity
  8
0
  6
ByLayer
  62
7
  370
60
  100
AcDbCircle
  10
181.48150600
  20
475.07931500
  30
0.00000000
  40
0.50000000
  100
AcDbArc
  50
90.00000000
  51
180.00000000
  0
LINE
  5
238
  330
6E5
  100
AcDbEntity
  8
0
  6
ByLayer
  62
7
  370
60
  48
0.25000000
  100
AcDbLine
  10
181.48150600
  20
199.27230800
  30
0.00000000
  11
191.48150600
  21
199.27230800
  31
0.00000000
  0
LINE
  5
239
  330
6E5
  100
AcDbEntity
  8
0
  6
ByLayer
  62
7
  370
60
  48
0.00750000
  100
AcDbLine
  10
180.98150600
  20
199.77230800
  30
0.00000000
  11
180.98150600
  21
200.07229600
  31
0.00000000
  0
LINE
  5
23A
  330
6E5
  100
AcDbEntity
  8
0
  6
ByLayer
  62
7
  370
60
  48
0.00750000
  100
AcDbLine
  10
180.98150600
  20
474.77929700
  30
0.00000000
  11
180.98150600
  21
475.07931500
  31
0.00000000
  0
ARC
  5
23B
  330
6E5
  100
AcDbEntity
  8
0
  6
ByLayer
  62
7
  370
60
  100
AcDbCircle
  10
181.48150600
  20
199.77230800
  30
0.00000000
  40
0.50000000
  100
AcDbArc
  50
180.00000000
  51
270.00000000
  0
LINE
  5
23C
  330
6E5
  100
AcDbEntity
  8
0
  6
ByLayer
  62
7
  370
60
  48
0.25000000
  100
AcDbLine
  10
181.48150600
  20
198.07229600
  30
0.00000000
  11
191.48150600
  21
198.07229600
  31
0.00000000
  0
LINE
  5
23D
  330
6E5
  100
AcDbEntity
  8
0
  6
ByLayer
  62
7
  370
60
  48
0.00750000
  100
AcDbLine
  10
179.78149400
  20
199.77230800
  30
0.00000000
  11
179.78149400
  21
200.07229600
  31
0.00000000
  0
ARC
  5
23E
  330
6E5
  100
AcDbEntity
  8
0
  6
ByLayer
  62
7
  370
60
  100
AcDbCircle
  10
181.48150600
  20
199.77230800
  30
0.00000000
  40
1.70000000
  100
AcDbArc
  50
180.00000000
  51
270.00000000
  0
LINE
  5
23F
  330
6E5
  100
AcDbEntity
  8
0
  6
ByLayer
  62
7
  370
60
  48
0.25000000
  100
AcDbLine
  10
181.48150600
  20
476.77929700
  30
0.00000000
  11
191.95823033
  21
476.79985475
  31
0.00000000
  0
LINE
  5
240
  330
6E5
  100
AcDbEntity
  8
0
  6
ByLayer
  62
7
  370
60
  48
0.00750000
  100
AcDbLine
  10
179.78149400
  20
474.77929700
  30
0.00000000
  11
179.78149400
  21
475.07931500
  31
0.00000000
  0
ARC
  5
241
  330
6E5
  100
AcDbEntity
  8
0
  6
ByLayer
  62
7
  370
60
  100
AcDbCircle
  10
181.48150600
  20
475.07931500
  30
0.00000000
  40
1.70000000
  100
AcDbArc
  50
90.00000000
  51
180.00000000
  0
LINE
  5
243
  330
6E5
  100
AcDbEntity
  8
0
  6
ByLayer
  62
7
  370
60
  48
0.11621900
  100
AcDbLine
  10
397.28149400
  20
470.13055400
  30
0.00000000
  11
397.28149400
  21
474.77929700
  31
0.00000000
  0
LINE
  5
245
  330
6E5
  100
AcDbEntity
  8
0
  6
ByLayer
  62
7
  370
60
  48
0.11621900
  100
AcDbLine
  10
398.48150600
  20
470.13055400
  30
0.00000000
  11
398.48150600
  21
474.77929700
  31
0.00000000
  0
LINE
  5
246
  330
6E5
  100
AcDbEntity
  8
0
  6
ByLayer
  62
7
  370
60
  100
AcDbLine
  10
397.28149400
  20
204.72106900
  30
0.00000000
  11
397.28149400
  21
470.13055400
  31
0.00000000
  0
LINE
  5
248
  330
6E5
  100
AcDbEntity
  8
0
  6
ByLayer
  62
7
  370
60
  100
AcDbLine
  10
398.48150600
  20
204.72106900
  30
0.00000000
  11
398.48150600
  21
470.13055400
  31
0.00000000
  0
LINE
  5
249
  330
6E5
  100
AcDbEntity
  8
0
  6
ByLayer
  62
7
  370
60
  48
0.11621900
  100
AcDbLine
  10
397.28149400
  20
200.07229600
  30
0.00000000
  11
397.28149400
  21
204.72106900
  31
0.00000000
  0
LINE
  5
24B
  330
6E5
  100
AcDbEntity
  8
0
  6
ByLayer
  62
7
  370
60
  48
0.11621900
  100
AcDbLine
  10
398.48150600
  20
200.07229600
  30
0.00000000
  11
398.48150600
  21
204.72106900
  31
0.00000000
  0
LINE
  5
24C
  330
6E5
  100
AcDbEntity
  8
0
  6
ByLayer
  62
7
  370
60
  48
0.03000000
  100
AcDbLine
  10
386.28149400
  20
476.77929700
  30
0.00000000
  11
386.28149400
  21
475.57931500
  31
0.00000000
  0
LINE
  5
24D
  330
6E5
  100
AcDbEntity
  8
0
  6
ByLayer
  62
7
  370
60
  48
0.01250000
  100
AcDbLine
  10
386.28149400
  20
475.57931500
  30
0.00000000
  11
386.78149400
  21
475.57931500
  31
0.00000000
  0
LINE
  5
24F
  330
6E5
  100
AcDbEntity
  8
0
  6
ByLayer
  62
7
  370
60
  48
0.01250000
  100
AcDbLine
  10
386.28149400
  20
199.27230800
  30
0.00000000
  11
386.78149400
  21
199.27230800
  31
0.00000000
  0
LINE
  5
250
  330
6E5
  100
AcDbEntity
  8
0
  6
ByLayer
  62
7
  370
60
  48
0.03000000
  100
AcDbLine
  10
386.28149400
  20
199.27230800
  30
0.00000000
  11
386.28149400
  21
198.07229600
  31
0.00000000
  0
LINE
  5
251
  330
6E5
  100
AcDbEntity
  8
0
  6
ByLayer
  62
7
  370
60
  48
0.01250000
  100
AcDbLine
  10
386.28149400
  20
198.07229600
  30
0.00000000
  11
386.78149400
  21
198.07229600
  31
0.00000000
  0
LINE
  5
253
  330
6E5
  100
AcDbEntity
  8
0
  6
ByLayer
  62
7
  370
60
  48
0.25000000
  100
AcDbLine
  10
396.78149400
  20
199.27230800
  30
0.00000000
  11
386.78149400
  21
199.27230800
  31
0.00000000
  0
ARC
  5
254
  330
6E5
  100
AcDbEntity
  8
0
  6
ByLayer
  62
7
  370
60
  100
AcDbCircle
  10
396.78149400
  20
199.77230800
  30
0.00000000
  40
0.50000000
  100
AcDbArc
  50
270.00000000
  51
0.00000000
  0
LINE
  5
255
  330
6E5
  100
AcDbEntity
  8
0
  6
ByLayer
  62
7
  370
60
  48
0.25000000
  100
AcDbLine
  10
396.78149400
  20
475.57931500
  30
0.00000000
  11
386.78149400
  21
475.57931500
  31
0.00000000
  0
LINE
  5
256
  330
6E5
  100
AcDbEntity
  8
0
  6
ByLayer
  62
7
  370
60
  48
0.00750000
  100
AcDbLine
  10
397.28149400
  20
474.77929700
  30
0.00000000
  11
397.28149400
  21
475.07931500
  31
0.00000000
  0
LINE
  5
257
  330
6E5
  100
AcDbEntity
  8
0
  6
ByLayer
  62
7
  370
60
  48
0.00750000
  100
AcDbLine
  10
397.28149400
  20
199.77230800
  30
0.00000000
  11
397.28149400
  21
200.07229600
  31
0.00000000
  0
ARC
  5
258
  330
6E5
  100
AcDbEntity
  8
0
  6
ByLayer
  62
7
  370
60
  100
AcDbCircle
  10
396.78149400
  20
475.07931500
  30
0.00000000
  40
0.50000000
  100
AcDbArc
  50
0.00000000
  51
90.00000000
  0
LINE
  5
259
  330
6E5
  100
AcDbEntity
  8
0
  6
ByLayer
  62
7
  370
60
  48
0.25000000
  100
AcDbLine
  10
386.78149400
  20
198.07229600
  30
0.00000000
  11
396.78149400
  21
198.07229600
  31
0.00000000
  0
ARC
  5
25A
  330
6E5
  100
AcDbEntity
  8
0
  6
ByLayer
  62
7
  370
60
  100
AcDbCircle
  10
396.78149400
  20
199.77230800
  30
0.00000000
  40
1.70000000
  100
AcDbArc
  50
270.00000000
  51
0.00000000
  0
LINE
  5
25B
  330
6E5
  100
AcDbEntity
  8
0
  6
ByLayer
  62
7
  370
60
  48
0.00750000
  100
AcDbLine
  10
398.48150600
  20
199.77230800
  30
0.00000000
  11
398.48150600
  21
200.07229600
  31
0.00000000
  0
LINE
  5
25C
  330
6E5
  100
AcDbEntity
  8
0
  6
ByLayer
  62
7
  370
60
  48
0.25000000
  100
AcDbLine
  10
386.27854642
  20
476.80927760
  30
0.00000000
  11
396.78149400
  21
476.77929700
  31
0.00000000
  0
ARC
  5
25D
  330
6E5
  100
AcDbEntity
  8
0
  6
ByLayer
  62
7
  370
60
  100
AcDbCircle
  10
396.78149400
  20
475.07931500
  30
0.00000000
  40
1.70000000
  100
AcDbArc
  50
0.00000000
  51
90.00000000
  0
LINE
  5
25E
  330
6E5
  100
AcDbEntity
  8
0
  6
ByLayer
  62
7
  370
60
  48
0.00750000
  100
AcDbLine
  10
398.48150600
  20
474.77929700
  30
0.00000000
  11
398.48150600
  21
475.07931500
  31
0.00000000
  0
LINE
  5
260
  330
6E5
  100
AcDbEntity
  8
0
  6
ByLayer
  62
7
  370
60
  48
0.11621900
  100
AcDbLine
  10
136.28149400
  20
470.13055400
  30
0.00000000
  11
136.28149400
  21
474.77929700
  31
0.00000000
  0
LINE
  5
262
  330
6E5
  100
AcDbEntity
  8
0
  6
ByLayer
  62
7
  370
60
  48
0.11621900
  100
AcDbLine
  10
137.48150600
  20
470.13055400
  30
0.00000000
  11
137.48150600
  21
474.77929700
  31
0.00000000
  0
LINE
  5
263
  330
6E5
  100
AcDbEntity
  8
0
  6
ByLayer
  62
7
  370
60
  100
AcDbLine
  10
136.28149400
  20
204.72106900
  30
0.00000000
  11
136.28149400
  21
470.13055400
  31
0.00000000
  0
LINE
  5
265
  330
6E5
  100
AcDbEntity
  8
0
  6
ByLayer
  62
7
  370
60
  100
AcDbLine
  10
137.48150600
  20
204.72106900
  30
0.00000000
  11
137.48150600
  21
470.13055400
  31
0.00000000
  0
LINE
  5
266
  330
6E5
  100
AcDbEntity
  8
0
  6
ByLayer
  62
7
  370
60
  48
0.11621900
  100
AcDbLine
  10
136.28149400
  20
200.07229600
  30
0.00000000
  11
136.28149400
  21
204.72106900
  31
0.00000000
  0
LINE
  5
268
  330
6E5
  100
AcDbEntity
  8
0
  6
ByLayer
  62
7
  370
60
  48
0.11621900
  100
AcDbLine
  10
137.48150600
  20
200.07229600
  30
0.00000000
  11
137.48150600
  21
204.72106900
  31
0.00000000
  0
LINE
  5
269
  330
6E5
  100
AcDbEntity
  8
0
  6
ByLayer
  62
7
  370
60
  48
0.01250000
  100
AcDbLine
  10
147.98150600
  20
199.27230800
  30
0.00000000
  11
148.48150600
  21
199.27230800
  31
0.00000000
  0
LINE
  5
26B
  330
6E5
  100
AcDbEntity
  8
0
  6
ByLayer
  62
7
  370
60
  48
0.01250000
  100
AcDbLine
  10
147.98150600
  20
198.07229600
  30
0.00000000
  11
148.48150600
  21
198.07229600
  31
0.00000000
  0
LINE
  5
26C
  330
6E5
  100
AcDbEntity
  8
0
  6
ByLayer
  62
7
  370
60
  48
0.03000000
  100
AcDbLine
  10
148.48150600
  20
199.27230800
  30
0.00000000
  11
148.48150600
  21
198.07229600
  31
0.00000000
  0
LINE
  5
26E
  330
6E5
  100
AcDbEntity
  8
0
  6
ByLayer
  62
7
  370
60
  48
0.01250000
  100
AcDbLine
  10
147.98150600
  20
475.57931500
  30
0.00000000
  11
148.48150600
  21
475.57931500
  31
0.00000000
  0
LINE
  5
26F
  330
6E5
  100
AcDbEntity
  8
0
  6
ByLayer
  62
7
  370
60
  48
0.03000000
  100
AcDbLine
  10
148.48150600
  20
476.77929700
  30
0.00000000
  11
148.48150600
  21
475.57931500
  31
0.00000000
  0
LINE
  5
270
  330
6E5
  100
AcDbEntity
  8
0
  6
ByLayer
  62
7
  370
60
  48
0.25000000
  100
AcDbLine
  10
137.98150600
  20
475.57931500
  30
0.00000000
  11
147.98150600
  21
475.57931500
  31
0.00000000
  0
ARC
  5
271
  330
6E5
  100
AcDbEntity
  8
0
  6
ByLayer
  62
7
  370
60
  100
AcDbCircle
  10
137.98150600
  20
475.07931500
  30
0.00000000
  40
0.50000000
  100
AcDbArc
  50
90.00000000
  51
180.00000000
  0
LINE
  5
272
  330
6E5
  100
AcDbEntity
  8
0
  6
ByLayer
  62
7
  370
60
  48
0.25000000
  100
AcDbLine
  10
137.98150600
  20
199.27230800
  30
0.00000000
  11
147.98150600
  21
199.27230800
  31
0.00000000
  0
LINE
  5
273
  330
6E5
  100
AcDbEntity
  8
0
  6
ByLayer
  62
7
  370
60
  48
0.00750000
  100
AcDbLine
  10
137.48150600
  20
199.77230800
  30
0.00000000
  11
137.48150600
  21
200.07229600
  31
0.00000000
  0
LINE
  5
274
  330
6E5
  100
AcDbEntity
  8
0
  6
ByLayer
  62
7
  370
60
  48
0.00750000
  100
AcDbLine
  10
137.48150600
  20
474.77929700
  30
0.00000000
  11
137.48150600
  21
475.07931500
  31
0.00000000
  0
ARC
  5
275
  330
6E5
  100
AcDbEntity
  8
0
  6
ByLayer
  62
7
  370
60
  100
AcDbCircle
  10
137.98150600
  20
199.77230800
  30
0.00000000
  40
0.50000000
  100
AcDbArc
  50
180.00000000
  51
270.00000000
  0
LINE
  5
276
  330
6E5
  100
AcDbEntity
  8
0
  6
ByLayer
  62
7
  370
60
  48
0.25000000
  100
AcDbLine
  10
137.98150600
  20
198.07229600
  30
0.00000000
  11
147.98150600
  21
198.07229600
  31
0.00000000
  0
LINE
  5
277
  330
6E5
  100
AcDbEntity
  8
0
  6
ByLayer
  62
7
  370
60
  48
0.00750000
  100
AcDbLine
  10
136.28149400
  20
199.77230800
  30
0.00000000
  11
136.28149400
  21
200.07229600
  31
0.00000000
  0
ARC
  5
278
  330
6E5
  100
AcDbEntity
  8
0
  6
ByLayer
  62
7
  370
60
  100
AcDbCircle
  10
137.98150600
  20
199.77230800
  30
0.00000000
  40
1.70000000
  100
AcDbArc
  50
180.00000000
  51
270.00000000
  0
LINE
  5
279
  330
6E5
  100
AcDbEntity
  8
0
  6
ByLayer
  62
7
  370
60
  48
0.25000000
  100
AcDbLine
  10
137.98150600
  20
476.77929700
  30
0.00000000
  11
148.55070757
  21
476.83784990
  31
0.00000000
  0
LINE
  5
27A
  330
6E5
  100
AcDbEntity
  8
0
  6
ByLayer
  62
7
  370
60
  48
0.00750000
  100
AcDbLine
  10
136.28149400
  20
474.77929700
  30
0.00000000
  11
136.28149400
  21
475.07931500
  31
0.00000000
  0
ARC
  5
27B
  330
6E5
  100
AcDbEntity
  8
0
  6
ByLayer
  62
7
  370
60
  100
AcDbCircle
  10
137.98150600
  20
475.07931500
  30
0.00000000
  40
1.70000000
  100
AcDbArc
  50
90.00000000
  51
180.00000000
  0
LINE
  5
27D
  330
6E5
  100
AcDbEntity
  8
0
  6
ByLayer
  62
7
  370
60
  48
0.11621900
  100
AcDbLine
  10
440.78149400
  20
470.13055400
  30
0.00000000
  11
440.78149400
  21
474.77929700
  31
0.00000000
  0
LINE
  5
27F
  330
6E5
  100
AcDbEntity
  8
0
  6
ByLayer
  62
7
  370
60
  48
0.11621900
  100
AcDbLine
  10
441.98150600
  20
470.13055400
  30
0.00000000
  11
441.98150600
  21
474.77929700
  31
0.00000000
  0
LINE
  5
280
  330
6E5
  100
AcDbEntity
  8
0
  6
ByLayer
  62
7
  370
60
  100
AcDbLine
  10
440.78149400
  20
204.72106900
  30
0.00000000
  11
440.78149400
  21
470.13055400
  31
0.00000000
  0
LINE
  5
282
  330
6E5
  100
AcDbEntity
  8
0
  6
ByLayer
  62
7
  370
60
  100
AcDbLine
  10
441.98150600
  20
204.72106900
  30
0.00000000
  11
441.98150600
  21
470.13055400
  31
0.00000000
  0
LINE
  5
283
  330
6E5
  100
AcDbEntity
  8
0
  6
ByLayer
  62
7
  370
60
  48
0.11621900
  100
AcDbLine
  10
440.78149400
  20
200.07229600
  30
0.00000000
  11
440.78149400
  21
204.72106900
  31
0.00000000
  0
LINE
  5
285
  330
6E5
  100
AcDbEntity
  8
0
  6
ByLayer
  62
7
  370
60
  48
0.11621900
  100
AcDbLine
  10
441.98150600
  20
200.07229600
  30
0.00000000
  11
441.98150600
  21
204.72106900
  31
0.00000000
  0
ARC
  5
286
  330
6E5
  100
AcDbEntity
  8
0
  6
ByLayer
  62
7
  370
60
  100
AcDbCircle
  10
440.28149400
  20
199.77230800
  30
0.00000000
  40
0.50000000
  100
AcDbArc
  50
270.00000000
  51
0.00000000
  0
LINE
  5
287
  330
6E5
  100
AcDbEntity
  8
0
  6
ByLayer
  62
7
  370
60
  48
0.01250000
  100
AcDbLine
  10
429.78149400
  20
199.27230800
  30
0.00000000
  11
430.28149400
  21
199.27230800
  31
0.00000000
  0
LINE
  5
288
  330
6E5
  100
AcDbEntity
  8
0
  6
ByLayer
  62
7
  370
60
  48
0.03000000
  100
AcDbLine
  10
429.78149400
  20
199.27230800
  30
0.00000000
  11
429.78149400
  21
198.07229600
  31
0.00000000
  0
LINE
  5
289
  330
6E5
  100
AcDbEntity
  8
0
  6
ByLayer
  62
7
  370
60
  48
0.01250000
  100
AcDbLine
  10
429.78149400
  20
198.07229600
  30
0.00000000
  11
430.28149400
  21
198.07229600
  31
0.00000000
  0
LINE
  5
28B
  330
6E5
  100
AcDbEntity
  8
0
  6
ByLayer
  62
7
  370
60
  48
0.25000000
  100
AcDbLine
  10
440.28149400
  20
199.27230800
  30
0.00000000
  11
430.28149400
  21
199.27230800
  31
0.00000000
  0
LINE
  5
28C
  330
6E5
  100
AcDbEntity
  8
0
  6
ByLayer
  62
7
  370
60
  48
0.00750000
  100
AcDbLine
  10
440.78149400
  20
474.77929700
  30
0.00000000
  11
440.78149400
  21
475.07931500
  31
0.00000000
  0
LINE
  5
28D
  330
6E5
  100
AcDbEntity
  8
0
  6
ByLayer
  62
7
  370
60
  48
0.00750000
  100
AcDbLine
  10
440.78149400
  20
199.77230800
  30
0.00000000
  11
440.78149400
  21
200.07229600
  31
0.00000000
  0
ARC
  5
28E
  330
6E5
  100
AcDbEntity
  8
0
  6
ByLayer
  62
7
  370
60
  100
AcDbCircle
  10
440.28149400
  20
475.07931500
  30
0.00000000
  40
0.50000000
  100
AcDbArc
  50
0.00000000
  51
90.00000000
  0
LINE
  5
28F
  330
6E5
  100
AcDbEntity
  8
0
  6
ByLayer
  62
7
  370
60
  48
0.03000000
  100
AcDbLine
  10
429.78149400
  20
476.77929700
  30
0.00000000
  11
429.78149400
  21
475.57931500
  31
0.00000000
  0
LINE
  5
290
  330
6E5
  100
AcDbEntity
  8
0
  6
ByLayer
  62
7
  370
60
  48
0.01250000
  100
AcDbLine
  10
429.78149400
  20
475.57931500
  30
0.00000000
  11
430.28149400
  21
475.57931500
  31
0.00000000
  0
LINE
  5
292
  330
6E5
  100
AcDbEntity
  8
0
  6
ByLayer
  62
7
  370
60
  48
0.25000000
  100
AcDbLine
  10
440.28149400
  20
475.57931500
  30
0.00000000
  11
430.28149400
  21
475.57931500
  31
0.00000000
  0
ARC
  5
293
  330
6E5
  100
AcDbEntity
  8
0
  6
ByLayer
  62
7
  370
60
  100
AcDbCircle
  10
440.28149400
  20
199.77230800
  30
0.00000000
  40
1.70000000
  100
AcDbArc
  50
270.00000000
  51
0.00000000
  0
LINE
  5
294
  330
6E5
  100
AcDbEntity
  8
0
  6
ByLayer
  62
7
  370
60
  48
0.00750000
  100
AcDbLine
  10
441.98150600
  20
199.77230800
  30
0.00000000
  11
441.98150600
  21
200.07229600
  31
0.00000000
  0
LINE
  5
295
  330
6E5
  100
AcDbEntity
  8
0
  6
ByLayer
  62
7
  370
60
  48
0.25000000
  100
AcDbLine
  10
430.28149400
  20
198.07229600
  30
0.00000000
  11
440.28149400
  21
198.07229600
  31
0.00000000
  0
ARC
  5
296
  330
6E5
  100
AcDbEntity
  8
0
  6
ByLayer
  62
7
  370
60
  100
AcDbCircle
  10
440.28149400
  20
475.07931500
  30
0.00000000
  40
1.70000000
  100
AcDbArc
  50
0.00000000
  51
90.00000000
  0
LINE
  5
297
  330
6E5
  100
AcDbEntity
  8
0
  6
ByLayer
  62
7
  370
60
  48
0.25000000
  100
AcDbLine
  10
429.74665668
  20
476.78144010
  30
0.00000000
  11
440.28149400
  21
476.77929700
  31
0.00000000
  0
LINE
  5
298
  330
6E5
  100
AcDbEntity
  8
0
  6
ByLayer
  62
7
  370
60
  48
0.00750000
  100
AcDbLine
  10
441.98150600
  20
474.77929700
  30
0.00000000
  11
441.98150600
  21
475.07931500
  31
0.00000000
  0
LINE
  5
2E4
  330
6E5
  100
AcDbEntity
  8
0
  6
ByLayer
  62
7
  370
60
  48
0.03000000
  100
AcDbLine
  10
532.31317100
  20
87.03332500
  30
0.00000000
  11
533.51318400
  21
87.03332500
  31
0.00000000
  0
LINE
  5
2E5
  330
6E5
  100
AcDbEntity
  8
0
  6
ByLayer
  62
7
  370
60
  48
0.02500000
  100
AcDbLine
  10
532.31317100
  20
88.03332500
  30
0.00000000
  11
532.31317100
  21
87.03332500
  31
0.00000000
  0
LINE
  5
2E7
  330
6E5
  100
AcDbEntity
  8
0
  6
ByLayer
  62
7
  370
60
  48
0.02500000
  100
AcDbLine
  10
533.51318400
  20
88.03332500
  30
0.00000000
  11
533.51318400
  21
87.03332500
  31
0.00000000
  0
LINE
  5
2E8
  330
6E5
  100
AcDbEntity
  8
0
  6
ByLayer
  62
7
  370
60
  48
0.21200500
  100
AcDbLine
  10
532.31317100
  20
96.51351900
  30
0.00000000
  11
532.31317100
  21
88.03332500
  31
0.00000000
  0
LINE
  5
2E9
  330
6E5
  100
AcDbEntity
  8
0
  6
ByLayer
  62
7
  370
60
  48
0.16351100
  100
AcDbLine
  10
533.51318400
  20
94.57377600
  30
0.00000000
  11
533.51318400
  21
88.03332500
  31
0.00000000
  0
LINE
  5
2EA
  330
6E5
  100
AcDbEntity
  8
0
  6
ByLayer
  62
7
  370
60
  48
0.00033500
  100
AcDbLine
  10
533.51318400
  20
96.53341700
  30
0.00000000
  11
533.51318400
  21
96.52000400
  31
0.00000000
  0
ARC
  5
2EB
  330
6E5
  100
AcDbEntity
  8
0
  6
ByLayer
  62
7
  370
60
  100
AcDbCircle
  10
534.51318400
  20
96.53332500
  30
0.00000000
  40
2.20000000
  100
AcDbArc
  50
180.00000000
  51
270.00000000
  0
LINE
  5
2ED
  330
6E5
  100
AcDbEntity
  8
0
  6
ByLayer
  62
7
  370
60
  48
0.10000000
  100
AcDbLine
  10
532.31317100
  20
493.54315200
  30
0.00000000
  11
532.31317100
  21
489.54315200
  31
0.00000000
  0
LINE
  5
2EE
  330
6E5
  100
AcDbEntity
  8
0
  6
ByLayer
  62
7
  370
60
  48
0.03000000
  100
AcDbLine
  10
532.31317100
  20
493.54315200
  30
0.00000000
  11
533.51318400
  21
493.54315200
  31
0.00000000
  0
LINE
  5
2EF
  330
6E5
  100
AcDbEntity
  8
0
  6
ByLayer
  62
7
  370
60
  48
0.10000000
  100
AcDbLine
  10
533.51318400
  20
493.54315200
  30
0.00000000
  11
533.51318400
  21
489.54315200
  31
0.00000000
  0
LINE
  5
2F1
  330
6E5
  100
AcDbEntity
  8
0
  6
ByLayer
  62
7
  370
60
  48
0.03250000
  100
AcDbLine
  10
535.81317100
  20
491.34314000
  30
0.00000000
  11
534.51318400
  21
491.34314000
  31
0.00000000
  0
ARC
  5
2F2
  330
6E5
  100
AcDbEntity
  8
0
  6
ByLayer
  62
7
  370
60
  100
AcDbCircle
  10
534.51318400
  20
490.34314000
  30
0.00000000
  40
1.00000000
  100
AcDbArc
  50
90.00000000
  51
180.00000000
  0
ARC
  5
2F3
  330
6E5
  100
AcDbEntity
  8
0
  6
ByLayer
  62
7
  370
60
  100
AcDbCircle
  10
534.51318400
  20
490.34314000
  30
0.00000000
  40
2.20000000
  100
AcDbArc
  50
90.00000000
  51
117.03628900
  0
LINE
  5
2F4
  330
6E5
  100
AcDbEntity
  8
0
  6
ByLayer
  62
7
  370
60
  48
0.03250000
  100
AcDbLine
  10
535.81317100
  20
492.54315200
  30
0.00000000
  11
534.51318400
  21
492.54315200
  31
0.00000000
  0
ARC
  5
2F5
  330
6E5
  100
AcDbEntity
  8
0
  6
ByLayer
  62
7
  370
60
  100
AcDbCircle
  10
534.51318400
  20
96.53332500
  30
0.00000000
  40
1.00000000
  100
AcDbArc
  50
180.00000000
  51
270.00000000
  0
LINE
  5
2F6
  330
6E5
  100
AcDbEntity
  8
0
  6
ByLayer
  62
7
  370
60
  48
0.03750000
  100
AcDbLine
  10
535.81317100
  20
492.54315200
  30
0.00000000
  11
537.31317100
  21
492.54315200
  31
0.00000000
  0
LINE
  5
2F7
  330
6E5
  100
AcDbEntity
  8
0
  6
ByLayer
  62
7
  370
60
  48
0.03750000
  100
AcDbLine
  10
537.31317100
  20
491.34314000
  30
0.00000000
  11
535.81317100
  21
491.34314000
  31
0.00000000
  0
LINE
  5
2F8
  330
6E5
  100
AcDbEntity
  8
0
  6
ByLayer
  62
7
  370
60
  48
0.03000000
  100
AcDbLine
  10
537.31317100
  20
491.34314000
  30
0.00000000
  11
537.31317100
  21
492.54315200
  31
0.00000000
  0
LINE
  5
2F9
  330
6E5
  100
AcDbEntity
  8
0
  6
ByLayer
  62
7
  370
60
  100
AcDbLine
  10
532.31317100
  20
96.53332500
  30
0.00000000
  11
532.31317100
  21
489.54315200
  31
0.00000000
  0
LINE
  5
2FA
  330
6E5
  100
AcDbEntity
  8
0
  6
ByLayer
  62
7
  370
60
  100
AcDbLine
  10
533.51318400
  20
96.53332500
  30
0.00000000
  11
533.51318400
  21
489.54315200
  31
0.00000000
  0
LINE
  5
2FB
  330
6E5
  100
AcDbEntity
  8
0
  6
ByLayer
  62
7
  370
60
  48
0.03250000
  100
AcDbLine
  10
535.81317100
  20
94.33332800
  30
0.00000000
  11
534.51318400
  21
94.33332800
  31
0.00000000
  0
LINE
  5
2FC
  330
6E5
  100
AcDbEntity
  8
0
  6
ByLayer
  62
7
  370
60
  48
0.03250000
  100
AcDbLine
  10
535.81317100
  20
95.53332500
  30
0.00000000
  11
534.51318400
  21
95.53332500
  31
0.00000000
  0
LINE
  5
2FE
  330
6E5
  100
AcDbEntity
  8
0
  6
ByLayer
  62
7
  370
60
  48
0.03750000
  100
AcDbLine
  10
535.81317100
  20
95.53332500
  30
0.00000000
  11
537.31317100
  21
95.53332500
  31
0.00000000
  0
LINE
  5
2FF
  330
6E5
  100
AcDbEntity
  8
0
  6
ByLayer
  62
7
  370
60
  48
0.03750000
  100
AcDbLine
  10
535.81317100
  20
94.33332800
  30
0.00000000
  11
537.31317100
  21
94.33332800
  31
0.00000000
  0
LINE
  5
300
  330
6E5
  100
AcDbEntity
  8
0
  6
ByLayer
  62
7
  370
60
  48
0.03000000
  100
AcDbLine
  10
537.31317100
  20
94.33332800
  30
0.00000000
  11
537.31317100
  21
95.53332500
  31
0.00000000
  0
ARC
  5
301
  330
6E5
  100
AcDbEntity
  8
0
  6
ByLayer
  62
7
  370
60
  100
AcDbCircle
  10
535.21313500
  20
476.27929700
  30
0.00000000
  40
1.70000000
  100
AcDbArc
  50
90.00000000
  51
180.00000000
  0
ARC
  5
302
  330
6E5
  100
AcDbEntity
  8
0
  6
ByLayer
  62
7
  370
60
  100
AcDbCircle
  10
535.21313500
  20
476.27929700
  30
0.00000000
  40
0.50000000
  100
AcDbArc
  50
90.00000000
  51
180.00000000
  0
LINE
  5
303
  330
6E5
  100
AcDbEntity
  8
0
  6
ByLayer
  62
7
  370
60
  48
0.02500000
  100
AcDbLine
  10
542.51318400
  20
477.97930900
  30
0.00000000
  11
543.51318400
  21
477.97930900
  31
0.00000000
  0
LINE
  5
305
  330
6E5
  100
AcDbEntity
  8
0
  6
ByLayer
  62
7
  370
60
  48
0.02500000
  100
AcDbLine
  10
542.51318400
  20
476.77929700
  30
0.00000000
  11
543.51318400
  21
476.77929700
  31
0.00000000
  0
LINE
  5
306
  330
6E5
  100
AcDbEntity
  8
0
  6
ByLayer
  62
7
  370
60
  48
0.03000000
  100
AcDbLine
  10
543.51318400
  20
476.77929700
  30
0.00000000
  11
543.51318400
  21
477.97930900
  31
0.00000000
  0
LINE
  5
307
  330
6E5
  100
AcDbEntity
  8
0
  6
ByLayer
  62
7
  370
60
  48
0.05750000
  100
AcDbLine
  10
534.71313500
  20
473.97930900
  30
0.00000000
  11
534.71313500
  21
476.27929700
  31
0.00000000
  0
LINE
  5
308
  330
6E5
  100
AcDbEntity
  8
0
  6
ByLayer
  62
7
  370
60
  48
0.18250100
  100
AcDbLine
  10
542.51318400
  20
476.77929700
  30
0.00000000
  11
535.21313500
  21
476.77929700
  31
0.00000000
  0
LINE
  5
309
  330
6E5
  100
AcDbEntity
  8
0
  6
ByLayer
  62
7
  370
60
  48
0.18250100
  100
AcDbLine
  10
542.51318400
  20
477.97930900
  30
0.00000000
  11
535.21313500
  21
477.97930900
  31
0.00000000
  0
LINE
  5
30A
  330
6E5
  100
AcDbEntity
  8
0
  6
ByLayer
  62
7
  370
60
  48
0.05750000
  100
AcDbLine
  10
533.51318400
  20
473.97930900
  30
0.00000000
  11
533.51318400
  21
476.27929700
  31
0.00000000
  0
LINE
  5
30C
  330
6E5
  100
AcDbEntity
  8
0
  6
ByLayer
  62
7
  370
60
  48
0.02500000
  100
AcDbLine
  10
533.51318400
  20
473.97930900
  30
0.00000000
  11
533.51318400
  21
472.97930900
  31
0.00000000
  0
ARC
  5
30E
  330
6E5
  100
AcDbEntity
  8
0
  6
ByLayer
  62
7
  370
60
  100
AcDbCircle
  10
535.21313500
  20
198.57229600
  30
0.00000000
  40
0.50000000
  100
AcDbArc
  50
180.00000000
  51
270.00000000
  0
ARC
  5
30F
  330
6E5
  100
AcDbEntity
  8
0
  6
ByLayer
  62
7
  370
60
  100
AcDbCircle
  10
535.21313500
  20
198.57229600
  30
0.00000000
  40
1.70000000
  100
AcDbArc
  50
180.00000000
  51
270.00000000
  0
LINE
  5
310
  330
6E5
  100
AcDbEntity
  8
0
  6
ByLayer
  62
7
  370
60
  48
0.02500000
  100
AcDbLine
  10
542.51318400
  20
198.07229600
  30
0.00000000
  11
543.51318400
  21
198.07229600
  31
0.00000000
  0
LINE
  5
312
  330
6E5
  100
AcDbEntity
  8
0
  6
ByLayer
  62
7
  370
60
  48
0.02500000
  100
AcDbLine
  10
542.51318400
  20
196.87229900
  30
0.00000000
  11
543.51318400
  21
196.87229900
  31
0.00000000
  0
LINE
  5
313
  330
6E5
  100
AcDbEntity
  8
0
  6
ByLayer
  62
7
  370
60
  48
0.03000000
  100
AcDbLine
  10
543.51318400
  20
196.87229900
  30
0.00000000
  11
543.51318400
  21
198.07229600
  31
0.00000000
  0
LINE
  5
314
  330
6E5
  100
AcDbEntity
  8
0
  6
ByLayer
  62
7
  370
60
  48
0.05750000
  100
AcDbLine
  10
533.51318400
  20
198.57229600
  30
0.00000000
  11
533.51318400
  21
200.87229900
  31
0.00000000
  0
LINE
  5
315
  330
6E5
  100
AcDbEntity
  8
0
  6
ByLayer
  62
7
  370
60
  48
0.18250100
  100
AcDbLine
  10
542.51318400
  20
196.87229900
  30
0.00000000
  11
535.21313500
  21
196.87229900
  31
0.00000000
  0
LINE
  5
316
  330
6E5
  100
AcDbEntity
  8
0
  6
ByLayer
  62
7
  370
60
  48
0.18250100
  100
AcDbLine
  10
542.51318400
  20
198.07229600
  30
0.00000000
  11
535.21313500
  21
198.07229600
  31
0.00000000
  0
LINE
  5
317
  330
6E5
  100
AcDbEntity
  8
0
  6
ByLayer
  62
7
  370
60
  48
0.05750000
  100
AcDbLine
  10
534.71313500
  20
198.57229600
  30
0.00000000
  11
534.71313500
  21
200.87229900
  31
0.00000000
  0
LINE
  5
319
  330
6E5
  100
AcDbEntity
  8
0
  6
ByLayer
  62
7
  370
60
  48
0.02500000
  100
AcDbLine
  10
533.51318400
  20
201.87229900
  30
0.00000000
  11
533.51318400
  21
200.87229900
  31
0.00000000
  0
ARC
  5
31C
  330
6E5
  100
AcDbEntity
  8
0
  6
ByLayer
  62
7
  370
60
  100
AcDbCircle
  10
-1314.40564000
  20
337.42657500
  30
0.00000000
  40
1889.11877400
  100
AcDbArc
  50
355.97180800
  51
4.02814500
  0
ARC
  5
31F
  330
6E5
  100
AcDbEntity
  8
0
  6
ByLayer
  62
7
  370
60
  100
AcDbCircle
  10
-1314.40564000
  20
337.42657500
  30
0.00000000
  40
1889.11877400
  100
AcDbArc
  50
355.97180800
  51
4.02814500
  0
ARC
  5
322
  330
6E5
  100
AcDbEntity
  8
0
  6
ByLayer
  62
7
  370
60
  100
AcDbCircle
  10
-1314.40564000
  20
337.42657500
  30
0.00000000
  40
1889.11877400
  100
AcDbArc
  50
355.97180800
  51
4.02814500
  0
ARC
  5
325
  330
6E5
  100
AcDbEntity
  8
0
  6
ByLayer
  62
7
  370
60
  100
AcDbCircle
  10
-1314.40564000
  20
337.42657500
  30
0.00000000
  40
1889.11877400
  100
AcDbArc
  50
355.97180800
  51
4.02814500
  0
ARC
  5
329
  330
6E5
  100
AcDbEntity
  8
0
  6
ByLayer
  62
7
  370
60
  100
AcDbCircle
  10
-1314.40564000
  20
337.42657500
  30
0.00000000
  40
1889.11877400
  100
AcDbArc
  50
355.97180800
  51
4.02814500
  0
ARC
  5
32D
  330
6E5
  100
AcDbEntity
  8
0
  6
ByLayer
  62
7
  370
60
  100
AcDbCircle
  10
-1314.40564000
  20
337.42657500
  30
0.00000000
  40
1889.11877400
  100
AcDbArc
  50
355.97180800
  51
4.02814500
  0
LINE
  5
32F
  330
6E5
  100
AcDbEntity
  8
0
  6
ByLayer
  62
7
  370
60
  100
AcDbLine
  10
534.71313500
  20
200.07229600
  30
0.00000000
  11
534.71313500
  21
474.77929700
  31
0.00000000
  0
LINE
  5
330
  330
6E5
  100
AcDbEntity
  8
0
  6
ByLayer
  62
7
  370
60
  48
0.01250000
  100
AcDbLine
  10
535.21313500
  20
200.07229600
  30
0.00000000
  11
534.71313500
  21
200.07229600
  31
0.00000000
  0
LINE
  5
331
  330
6E5
  100
AcDbEntity
  8
0
  6
ByLayer
  62
7
  370
60
  48
0.01250000
  100
AcDbLine
  10
535.21313500
  20
474.77929700
  30
0.00000000
  11
534.71313500
  21
474.77929700
  31
0.00000000
  0
LINE
  5
332
  330
6E5
  100
AcDbEntity
  8
0
  6
ByLayer
  62
7
  370
60
  100
AcDbLine
  10
543.51318400
  20
474.77929700
  30
0.00000000
  11
565.05871600
  21
474.77929700
  31
0.00000000
  0
ARC
  5
333
  330
6E5
  100
AcDbEntity
  8
0
  6
ByLayer
  62
7
  370
60
  100
AcDbCircle
  10
565.05871600
  20
469.77929700
  30
0.00000000
  40
5.00000000
  100
AcDbArc
  50
4.02814500
  51
90.00000000
  0
ARC
  5
334
  330
6E5
  100
AcDbEntity
  8
0
  6
ByLayer
  62
7
  370
60
  100
AcDbCircle
  10
-1314.40564000
  20
337.42657500
  30
0.00000000
  40
1889.11877400
  100
AcDbArc
  50
355.97181000
  51
4.02815500
  0
ARC
  5
335
  330
6E5
  100
AcDbEntity
  8
0
  6
ByLayer
  62
7
  370
60
  100
AcDbCircle
  10
565.05865500
  20
205.07229600
  30
0.00000000
  40
5.00000000
  100
AcDbArc
  50
270.00000000
  51
355.97181000
  0
LINE
  5
336
  330
6E5
  100
AcDbEntity
  8
0
  6
ByLayer
  62
7
  370
60
  100
AcDbLine
  10
565.05865500
  20
200.07229600
  30
0.00000000
  11
543.51318400
  21
200.07229600
  31
0.00000000
  0
LINE
  5
337
  330
6E5
  100
AcDbEntity
  8
0
  6
ByLayer
  62
7
  370
60
  48
0.04250000
  100
AcDbLine
  10
535.21313500
  20
199.77230800
  30
0.00000000
  11
535.21313500
  21
198.07229600
  31
0.00000000
  0
LINE
  5
338
  330
6E5
  100
AcDbEntity
  8
0
  6
ByLayer
  62
7
  370
60
  48
0.00750000
  100
AcDbLine
  10
535.21313500
  20
199.77230800
  30
0.00000000
  11
535.21313500
  21
200.07229600
  31
0.00000000
  0
LINE
  5
339
  330
6E5
  100
AcDbEntity
  8
0
  6
ByLayer
  62
7
  370
60
  48
0.00750000
  100
AcDbLine
  10
543.51318400
  20
199.77230800
  30
0.00000000
  11
543.51318400
  21
200.07229600
  31
0.00000000
  0
LINE
  5
33A
  330
6E5
  100
AcDbEntity
  8
0
  6
ByLayer
  62
7
  370
60
  48
0.04250000
  100
AcDbLine
  10
543.51318400
  20
199.77230800
  30
0.00000000
  11
543.51318400
  21
198.07229600
  31
0.00000000
  0
LINE
  5
33B
  330
6E5
  100
AcDbEntity
  8
0
  6
ByLayer
  62
7
  370
60
  48
0.20750100
  100
AcDbLine
  10
543.51318400
  20
199.77230800
  30
0.00000000
  11
535.21313500
  21
199.77230800
  31
0.00000000
  0
LINE
  5
33C
  330
6E5
  100
AcDbEntity
  8
0
  6
ByLayer
  62
7
  370
60
  48
0.20750100
  100
AcDbLine
  10
535.21313500
  20
476.77929700
  30
0.00000000
  11
543.51318400
  21
476.77929700
  31
0.00000000
  0
LINE
  5
33D
  330
6E5
  100
AcDbEntity
  8
0
  6
ByLayer
  62
7
  370
60
  48
0.00750000
  100
AcDbLine
  10
543.51318400
  20
474.77929700
  30
0.00000000
  11
543.51318400
  21
475.07931500
  31
0.00000000
  0
LINE
  5
33E
  330
6E5
  100
AcDbEntity
  8
0
  6
ByLayer
  62
7
  370
60
  48
0.04250000
  100
AcDbLine
  10
543.51318400
  20
476.77929700
  30
0.00000000
  11
543.51318400
  21
475.07931500
  31
0.00000000
  0
LINE
  5
33F
  330
6E5
  100
AcDbEntity
  8
0
  6
ByLayer
  62
7
  370
60
  48
0.04250000
  100
AcDbLine
  10
535.21313500
  20
476.77929700
  30
0.00000000
  11
535.21313500
  21
475.07931500
  31
0.00000000
  0
LINE
  5
340
  330
6E5
  100
AcDbEntity
  8
0
  6
ByLayer
  62
7
  370
60
  48
0.00750000
  100
AcDbLine
  10
535.21313500
  20
474.77929700
  30
0.00000000
  11
535.21313500
  21
475.07931500
  31
0.00000000
  0
LINE
  5
341
  330
6E5
  100
AcDbEntity
  8
0
  6
ByLayer
  62
7
  370
60
  48
0.20750100
  100
AcDbLine
  10
535.21313500
  20
475.07931500
  30
0.00000000
  11
543.51318400
  21
475.07931500
  31
0.00000000
  0
DIMENSION
  5
3B2
  330
6E5
  100
AcDbEntity
  8
0
  6
ByLayer
  370
40
  100
AcDbDimension
  2
*D3B2
  10
567.46428824
  20
530.99267446
  30
0.00000000
  11
553.36987690
  21
530.99267446
  31
0.00000000
  70
160
  42
42.11341179
  71
0
  42
42.11341179
  3
Standard
  51
0.00000000
  100
AcDbAlignedDimension
  13
532.31317100
  23
359.04268731
  33
0.00000000
  14
574.42658279
  24
359.04268731
  34
0.00000000
  50
0.00000000
  100
AcDbRotatedDimension
  1001
ACAD
  1000
DSTYLE
  1002
{
  1070
41
  1040
10.00000000
  1070
140
  1040
14.00000000
  1070
147
  1040
5.00000000
  1002
}
  0
DIMENSION
  5
3B5
  330
6E5
  100
AcDbEntity
  8
0
  6
ByLayer
  370
40
  100
AcDbDimension
  2
*D3B5
  10
601.24110288
  20
197.77816816
  30
0.00000000
  11
601.24110288
  21
345.22112128
  31
0.00000000
  70
160
  42
296.64406143
  71
0
  42
296.64406143
  3
Standard
  51
0.00000000
  100
AcDbAlignedDimension
  13
532.95416585
  23
493.54315200
  33
0.00000000
  14
532.95416585
  24
196.89909057
  34
0.00000000
  50
90.00000000
  100
AcDbRotatedDimension
  1001
ACAD
  1000
DSTYLE
  1002
{
  1070
41
  1040
10.00000000
  1070
140
  1040
14.00000000
  1070
147
  1040
5.00000000
  1070
73
  1070
0
  1002
}
  0
MTEXT
  5
638
  330
6E5
  100
AcDbEntity
  8
0
  6
ByLayer
  370
40
  100
AcDbMText
  10
259.54562327
  20
538.63718152
  30
0.00000000
  40
14.00000000
  41
31.23374665
  71
8
  72
1
  1
395
  7
Standard
  50
0.00000000
  42
31.23374665
  73
-2
  44
1.00000000
  0
LINE
  5
639
  330
6E5
  100
AcDbEntity
  8
0
  6
ByLayer
  370
40
  100
AcDbLine
  10
60.03143300
  20
530.60941775
  30
0.00000000
  11
454.06350964
  21
530.60941775
  31
0.00000000
  0
LINE
  5
63A
  330
6E5
  100
AcDbEntity
  8
0
  6
ByLayer
  370
40
  100
AcDbLine
  10
60.03143300
  20
391.54840923
  30
0.00000000
  11
60.03143300
  21
530.78941775
  31
0.00000000
  0
LINE
  5
63B
  330
6E5
  100
AcDbEntity
  8
0
  6
ByLayer
  370
40
  100
AcDbLine
  10
454.06350964
  20
391.54840923
  30
0.00000000
  11
454.06350964
  21
530.78941775
  31
0.00000000
  0
INSERT
  5
63C
  330
6E5
  100
AcDbEntity
  8
0
  6
ByLayer
  370
40
  100
AcDbBlockReference
  2
VDDIM_DEFAULT
  10
60.03143300
  20
530.60941775
  30
0.00000000
  70
1
  71
1
  41
10.00000000
  42
10.00000000
  50
180.00000000
  0
SEQEND
  5
706
  330
63C
  100
AcDbEntity
  8
0
  0
INSERT
  5
63D
  330
6E5
  100
AcDbEntity
  8
0
  6
ByLayer
  370
40
  100
AcDbBlockReference
  2
VDDIM_DEFAULT
  10
454.06350964
  20
530.60941775
  30
0.00000000
  70
1
  71
1
  41
10.00000000
  42
10.00000000
  0
SEQEND
  5
707
  330
63D
  100
AcDbEntity
  8
0
  0
MTEXT
  5
63E
  330
6E5
  100
AcDbEntity
  8
0
  6
ByLayer
  370
40
  100
AcDbMText
  10
10.93534182
  20
293.91414941
  30
0.00000000
  40
14.00000000
  41
31.87181635
  71
7
  72
1
  1
405
  7
Standard
  50
450.00000000
  42
31.87181635
  73
-3
  44
1.00000000
  0
LINE
  5
63F
  330
6E5
  100
AcDbEntity
  8
0
  6
ByLayer
  370
40
  100
AcDbLine
  10
15.93534182
  20
293.91414941
  30
0.00000000
  11
15.93534182
  21
290.27687161
  31
0.00000000
  0
LINE
  5
640
  330
6E5
  100
AcDbEntity
  8
0
  6
ByLayer
  370
40
  100
AcDbLine
  10
15.93534182
  20
293.91414941
  30
0.00000000
  11
15.93534182
  21
325.78596576
  31
0.00000000
  0
LINE
  5
641
  330
6E5
  100
AcDbEntity
  8
0
  6
ByLayer
  370
40
  100
AcDbLine
  10
15.93534182
  20
493.54315200
  30
0.00000000
  11
15.93534182
  21
87.01059121
  31
0.00000000
  0
LINE
  5
642
  330
6E5
  100
AcDbEntity
  8
0
  6
ByLayer
  370
40
  100
AcDbLine
  10
116.32314267
  20
493.54315200
  30
0.00000000
  11
15.87284182
  21
493.54315200
  31
0.00000000
  0
LINE
  5
643
  330
6E5
  100
AcDbEntity
  8
0
  6
ByLayer
  370
40
  100
AcDbLine
  10
188.43993603
  20
87.01059121
  30
0.00000000
  11
15.87284182
  21
87.01059121
  31
0.00000000
  0
INSERT
  5
644
  330
6E5
  100
AcDbEntity
  8
0
  6
ByLayer
  370
40
  100
AcDbBlockReference
  2
VDDIM_DEFAULT
  10
15.93534182
  20
493.54315200
  30
0.00000000
  70
1
  71
1
  41
10.00000000
  42
10.00000000
  50
90.00000000
  0
SEQEND
  5
708
  330
644
  100
AcDbEntity
  8
0
  0
INSERT
  5
645
  330
6E5
  100
AcDbEntity
  8
0
  6
ByLayer
  370
40
  100
AcDbBlockReference
  2
VDDIM_DEFAULT
  10
15.93534182
  20
87.01059121
  30
0.00000000
  70
1
  71
1
  41
10.00000000
  42
10.00000000
  50
270.00000000
  0
SEQEND
  5
709
  330
645
  100
AcDbEntity
  8
0
  0
VIEWPORT
  5
70A
  330
6E6
  100
AcDbEntity
  67
1
  8
0
  100
AcDbViewport
  10
0.00000000
  20
0.00000000
  30
0.00000000
  40
24.97000000
  41
1000.00000000
  68
1
  69
1
  12
0.00000000
  22
0.00000000
  13
0.00000000
  23
0.00000000
  14
1.00000000
  24
1.00000000
  15
1.00000000
  25
1.00000000
  16
0.00000000
  26
0.00000000
  36
1.00000000
  17
0.00000000
  27
0.00000000
  37
0.00000000
  42
50.00000000
  43
0.00000000
  44
0.00000000
  45
1000.00000000
  50
0.00000000
  51
0.00000000
  72
1000
  90
32800
  1

  281
0
  71
1
  74
0
  110
0.00000000
  120
0.00000000
  130
0.00000000
  111
1.00000000
  121
0.00000000
  131
0.00000000
  112
0.00000000
  122
1.00000000
  132
0.00000000
  79
0
  146
0.00000000
  0
ENDSEC
  0
SECTION
  2
OBJECTS
  0
DICTIONARY
  5
70B
  330
0
  100
AcDbDictionary
  281
1
  3
ACAD_GROUP
  350
70C
  3
ACAD_LAYOUT
  350
70D
  3
ACAD_MLINESTYLE
  350
70E
  3
ACAD_PLOTSETTINGS
  350
70F
  3
ACAD_PLOTSTYLENAME
  350
710
  3
VECTORDRAW_OBJECTS
  350
711
  3
DWGPROPS
  350
712
  0
DICTIONARY
  5
70C
  102
{ACAD_REACTORS
  330
70B
  102
}
  330
70B
  100
AcDbDictionary
  281
1
  0
DICTIONARY
  5
70D
  102
{ACAD_REACTORS
  330
70B
  102
}
  330
70B
  100
AcDbDictionary
  281
1
  3
Layout1
  350
21
  3
Model
  350
65A
  0
DICTIONARY
  5
70E
  102
{ACAD_REACTORS
  330
70B
  102
}
  330
70B
  100
AcDbDictionary
  281
1
  3
Standard
  350
713
  0
DICTIONARY
  5
70F
  102
{ACAD_REACTORS
  330
70B
  102
}
  330
70B
  100
AcDbDictionary
  281
1
  0
ACDBDICTIONARYWDFLT
  5
710
  102
{ACAD_REACTORS
  330
70B
  102
}
  330
70B
  100
AcDbDictionary
  281
1
  3
Normal
  350
6D5
  100
AcDbDictionaryWithDefault
  340
6D5
  0
DICTIONARY
  5
711
  102
{ACAD_REACTORS
  330
70B
  102
}
  330
70B
  100
AcDbDictionary
  281
1
  3
SERIALNO
  350
714
  0
LAYOUT
  5
21
  102
{ACAD_REACTORS
  330
70D
  102
}
  330
70D
  100
AcDbPlotSettings
  1

  2

  4

  6

  40
0.00000000
  41
0.00000000
  42
0.00000000
  43
0.00000000
  44
210.05800000
  45
296.92600000
  46
0.00000000
  47
0.00000000
  48
-500.00000000
  49
-500.00000000
  140
500.00000000
  141
500.00000000
  142
1.00000000
  143
1.00000000
  70
688
  72
1
  73
0
  74
4
  7

  75
16
  147
1.00000000
  148
500.00000000
  149
500.00000000
  100
AcDbLayout
  1
Layout1
  70
1
  71
1
  10
0.00000000
  20
0.00000000
  11
12.00000000
  21
9.00000000
  12
0.00000000
  22
0.00000000
  32
0.00000000
  14
0.00000000
  24
0.00000000
  34
0.00000000
  15
0.00000000
  25
0.00000000
  35
0.00000000
  146
0.00000000
  13
0.00000000
  23
0.00000000
  33
0.00000000
  16
1.00000000
  26
0.00000000
  36
0.00000000
  17
0.00000000
  27
1.00000000
  37
0.00000000
  76
0
  330
6E6
  1001
VD_EX_PRINTER_DWG_STYLE_SHEET
  1000

  1001
VD_EX_PRINTER_SIZEX
  1040
210.05800000
  1001
VD_EX_PRINTER_AVSIZEX
  1040
210.05800000
  1001
VD_EX_PRINTER_SIZEY
  1040
296.92600000
  1001
VD_EX_PRINTER_AVSIZEY
  1040
296.92600000
  0
LAYOUT
  5
65A
  102
{ACAD_REACTORS
  330
70D
  102
}
  330
70D
  100
AcDbPlotSettings
  1
VectorDraw Printer Drawing
  2
\\DCC100B\W366@Tec
  4

  6

  40
32.00400000
  41
0.00000000
  42
0.00000000
  43
14.98600000
  44
210.05800000
  45
296.92600000
  46
0.00000000
  47
0.00000000
  48
-2.87699062
  49
87.01059121
  140
602.90610288
  141
549.80500690
  142
1.00000000
  143
2.70000000
  72
1
  73
1
  74
4
  7

  75
0
  147
1.00000000
  148
2.87699062
  149
-87.01059121
  100
AcDbLayout
  1
Model
  70
1
  71
0
  10
1.00000000
  20
0.00000000
  11
0.00000000
  21
1.00000000
  12
0.00000000
  22
0.00000000
  32
0.00000000
  14
602.90610288
  24
87.01059121
  34
-2.87699062
  15
552.44951396
  25
0.00000000
  35
0.00000000
  146
0.00000000
  13
0.00000000
  23
0.00000000
  33
0.00000000
  16
1.00000000
  26
0.00000000
  36
0.00000000
  17
0.00000000
  27
1.00000000
  37
0.00000000
  76
0
  330
6E5
  1001
VD_EX_PRINTER_DWG_STYLE_SHEET
  1000

  1001
VD_EX_PRINTER_SIZEX
  1040
210.05800000
  1001
VD_EX_PRINTER_AVSIZEX
  1040
210.05800000
  1001
VD_EX_PRINTER_SIZEY
  1040
296.92600000
  1001
VD_EX_PRINTER_AVSIZEY
  1040
296.92600000
  0
MLINESTYLE
  5
713
  102
{ACAD_REACTORS
  330
70E
  102
}
  330
70E
  100
AcDbMlineStyle
  2
Standard
  70
0
  3

  62
256
  51
90.00000000
  52
90.00000000
  71
2
  49
0.50000000
  62
256
  6
BYLAYER
  49
-0.50000000
  62
256
  6
BYLAYER
  0
ACDBPLACEHOLDER
  5
6D5
  102
{ACAD_REACTORS
  330
710
  102
}
  330
710
  0
XRECORD
  5
714
  102
{ACAD_REACTORS
  330
711
  102
}
  330
711
  100
AcDbXrecord
  280
1
  1000
udnjVM6OT3ptXXPNDrqErnGX8
  1070
5
  1070
1
  0
XRECORD
  5
712
  102
{ACAD_REACTORS
  330
70B
  102
}
  330
70B
  100
AcDbXrecord
  280
1
  1
DWGPROPS COOKIE
  2

  3

  4

  6

  7

  8

  9

  40
0.00000000
  41
0.00000000
  42
0.00000000
  1

  90
0
  0
ENDSEC
  999
Created By VectorDraw :6.1.6015.0
  0
EOF
