  0
SECTION
  2
HEADER
  9
$ACADVER
  1
AC1018
  9
$ACADMAINTVER
 70
     0
  9
$DWGCODEPAGE
  3
ANSI_1252
  9
$LASTSAVEDBY
  1
BelottiMc
  9
$INSBASE
 10
0.0
 20
0.0
 30
0.0
  9
$EXTMIN
 10
-448.42778
 20
247.65213
 30
0.0
  9
$EXTMAX
 10
149.0556710495295
 20
672.0077987248308
 30
0.0
  9
$LIMMIN
 10
0.0
 20
0.0
  9
$LIMMAX
 10
420.0
 20
297.0
  9
$ORTHOMODE
 70
     0
  9
$REGENMODE
 70
     1
  9
$FILLMODE
 70
     1
  9
$QTEXTMODE
 70
     0
  9
$MIRRTEXT
 70
     1
  9
$LTSCALE
 40
1.0
  9
$ATTMODE
 70
     1
  9
$TEXTSIZE
 40
2.5
  9
$TRACEWID
 40
1.0
  9
$TEXTSTYLE
  7
Standard
  9
$CLAYER
  8
0
  9
$CELTYPE
  6
ByLayer
  9
$CECOLOR
 62
   256
  9
$CELTSCALE
 40
1.0
  9
$DISPSILH
 70
     0
  9
$DIMSCALE
 40
1.0
  9
$DIMASZ
 40
2.5
  9
$DIMEXO
 40
0.625
  9
$DIMDLI
 40
3.75
  9
$DIMRND
 40
0.0
  9
$DIMDLE
 40
0.0
  9
$DIMEXE
 40
1.25
  9
$DIMTP
 40
0.0
  9
$DIMTM
 40
0.0
  9
$DIMTXT
 40
2.5
  9
$DIMCEN
 40
2.5
  9
$DIMTSZ
 40
0.0
  9
$DIMTOL
 70
     0
  9
$DIMLIM
 70
     0
  9
$DIMTIH
 70
     0
  9
$DIMTOH
 70
     0
  9
$DIMSE1
 70
     0
  9
$DIMSE2
 70
     0
  9
$DIMTAD
 70
     1
  9
$DIMZIN
 70
     8
  9
$DIMBLK
  1

  9
$DIMASO
 70
     1
  9
$DIMSHO
 70
     1
  9
$DIMPOST
  1

  9
$DIMAPOST
  1

  9
$DIMALT
 70
     0
  9
$DIMALTD
 70
     3
  9
$DIMALTF
 40
0.03937
  9
$DIMLFAC
 40
1.0
  9
$DIMTOFL
 70
     1
  9
$DIMTVP
 40
0.0
  9
$DIMTIX
 70
     0
  9
$DIMSOXD
 70
     0
  9
$DIMSAH
 70
     0
  9
$DIMBLK1
  1

  9
$DIMBLK2
  1

  9
$DIMSTYLE
  2
Standard
  9
$DIMCLRD
 70
     0
  9
$DIMCLRE
 70
     0
  9
$DIMCLRT
 70
     0
  9
$DIMTFAC
 40
1.0
  9
$DIMGAP
 40
0.625
  9
$DIMJUST
 70
     0
  9
$DIMSD1
 70
     0
  9
$DIMSD2
 70
     0
  9
$DIMTOLJ
 70
     0
  9
$DIMTZIN
 70
     8
  9
$DIMALTZ
 70
     0
  9
$DIMALTTZ
 70
     0
  9
$DIMUPT
 70
     0
  9
$DIMDEC
 70
     2
  9
$DIMTDEC
 70
     2
  9
$DIMALTU
 70
     2
  9
$DIMALTTD
 70
     3
  9
$DIMTXSTY
  7
Standard
  9
$DIMAUNIT
 70
     0
  9
$DIMADEC
 70
     0
  9
$DIMALTRND
 40
0.0
  9
$DIMAZIN
 70
     0
  9
$DIMDSEP
 70
    44
  9
$DIMATFIT
 70
     0
  9
$DIMFRAC
 70
     0
  9
$DIMLDRBLK
  1

  9
$DIMLUNIT
 70
     2
  9
$DIMLWD
 70
    -2
  9
$DIMLWE
 70
    -2
  9
$DIMTMOVE
 70
     0
  9
$LUNITS
 70
     2
  9
$LUPREC
 70
     4
  9
$SKETCHINC
 40
1.0
  9
$FILLETRAD
 40
2.5
  9
$AUNITS
 70
     0
  9
$AUPREC
 70
     0
  9
$MENU
  1
.
  9
$ELEVATION
 40
0.0
  9
$PELEVATION
 40
0.0
  9
$THICKNESS
 40
0.0
  9
$LIMCHECK
 70
     0
  9
$CHAMFERA
 40
2.5
  9
$CHAMFERB
 40
2.5
  9
$CHAMFERC
 40
0.0
  9
$CHAMFERD
 40
0.0
  9
$SKPOLY
 70
     0
  9
$TDCREATE
 40
2447893.083333333
  9
$TDUCREATE
 40
2447893.0
  9
$TDUPDATE
 40
2447893.083333333
  9
$TDUUPDATE
 40
2447893.0
  9
$TDINDWG
 40
0.0093980556
  9
$TDUSRTIMER
 40
0.0093980556
  9
$USRTIMER
 70
     1
  9
$ANGBASE
 50
0.0
  9
$ANGDIR
 70
     0
  9
$PDMODE
 70
     0
  9
$PDSIZE
 40
0.0
  9
$PLINEWID
 40
0.0
  9
$SPLFRAME
 70
     0
  9
$SPLINETYPE
 70
     6
  9
$SPLINESEGS
 70
     8
  9
$HANDSEED
  5
E84
  9
$SURFTAB1
 70
     6
  9
$SURFTAB2
 70
     6
  9
$SURFTYPE
 70
     6
  9
$SURFU
 70
     6
  9
$SURFV
 70
     6
  9
$UCSBASE
  2

  9
$UCSNAME
  2

  9
$UCSORG
 10
0.0
 20
0.0
 30
0.0
  9
$UCSXDIR
 10
1.0
 20
0.0
 30
0.0
  9
$UCSYDIR
 10
0.0
 20
1.0
 30
0.0
  9
$UCSORTHOREF
  2

  9
$UCSORTHOVIEW
 70
     0
  9
$UCSORGTOP
 10
0.0
 20
0.0
 30
0.0
  9
$UCSORGBOTTOM
 10
0.0
 20
0.0
 30
0.0
  9
$UCSORGLEFT
 10
0.0
 20
0.0
 30
0.0
  9
$UCSORGRIGHT
 10
0.0
 20
0.0
 30
0.0
  9
$UCSORGFRONT
 10
0.0
 20
0.0
 30
0.0
  9
$UCSORGBACK
 10
0.0
 20
0.0
 30
0.0
  9
$PUCSBASE
  2

  9
$PUCSNAME
  2

  9
$PUCSORG
 10
0.0
 20
0.0
 30
0.0
  9
$PUCSXDIR
 10
1.0
 20
0.0
 30
0.0
  9
$PUCSYDIR
 10
0.0
 20
1.0
 30
0.0
  9
$PUCSORTHOREF
  2

  9
$PUCSORTHOVIEW
 70
     0
  9
$PUCSORGTOP
 10
0.0
 20
0.0
 30
0.0
  9
$PUCSORGBOTTOM
 10
0.0
 20
0.0
 30
0.0
  9
$PUCSORGLEFT
 10
0.0
 20
0.0
 30
0.0
  9
$PUCSORGRIGHT
 10
0.0
 20
0.0
 30
0.0
  9
$PUCSORGFRONT
 10
0.0
 20
0.0
 30
0.0
  9
$PUCSORGBACK
 10
0.0
 20
0.0
 30
0.0
  9
$USERI1
 70
     0
  9
$USERI2
 70
     0
  9
$USERI3
 70
     0
  9
$USERI4
 70
     0
  9
$USERI5
 70
     0
  9
$USERR1
 40
0.0
  9
$USERR2
 40
0.0
  9
$USERR3
 40
0.0
  9
$USERR4
 40
0.0
  9
$USERR5
 40
0.0
  9
$WORLDVIEW
 70
     1
  9
$SHADEDGE
 70
     3
  9
$SHADEDIF
 70
    70
  9
$TILEMODE
 70
     1
  9
$MAXACTVP
 70
    48
  9
$PINSBASE
 10
0.0
 20
0.0
 30
0.0
  9
$PLIMCHECK
 70
     0
  9
$PEXTMIN
 10
0.0
 20
0.0
 30
0.0
  9
$PEXTMAX
 10
1221.786743
 20
642.770081
 30
2.0
  9
$PLIMMIN
 10
0.0
 20
0.0
  9
$PLIMMAX
 10
420.0
 20
297.0
  9
$UNITMODE
 70
     0
  9
$VISRETAIN
 70
     0
  9
$PLINEGEN
 70
     0
  9
$PSLTSCALE
 70
     1
  9
$TREEDEPTH
 70
  3020
  9
$CMLSTYLE
  2
Standard
  9
$CMLJUST
 70
     0
  9
$CMLSCALE
 40
20.0
  9
$PROXYGRAPHICS
 70
     1
  9
$MEASUREMENT
 70
     1
  9
$CELWEIGHT
370
    -1
  9
$ENDCAPS
280
     0
  9
$JOINSTYLE
280
     0
  9
$LWDISPLAY
290
     0
  9
$INSUNITS
 70
     0
  9
$HYPERLINKBASE
  1

  9
$STYLESHEET
  1

  9
$XEDIT
290
     1
  9
$CEPSNTYPE
380
     0
  9
$PSTYLEMODE
290
     0
  9
$FINGERPRINTGUID
  2

  9
$VERSIONGUID
  2

  9
$EXTNAMES
290
     0
  9
$PSVPSCALE
 40
0.0
  9
$OLESTARTUP
290
     0
  9
$SORTENTS
280
   127
  9
$INDEXCTL
280
     0
  9
$HIDETEXT
280
     1
  9
$XCLIPFRAME
290
     0
  9
$HALOGAP
280
     0
  9
$OBSCOLOR
 70
   257
  9
$OBSLTYPE
280
     0
  9
$INTERSECTIONDISPLAY
280
     0
  9
$INTERSECTIONCOLOR
 70
   257
  9
$DIMASSOC
280
     2
  9
$PROJECTNAME
  1

  0
ENDSEC
  0
SECTION
  2
CLASSES
  0
CLASS
  1
ACDBDICTIONARYWDFLT
  2
AcDbDictionaryWithDefault
  3
ObjectDBX Classes
 90
        0
 91
        4
280
     0
281
     0
  0
CLASS
  1
ACDBPLACEHOLDER
  2
AcDbPlaceHolder
  3
ObjectDBX Classes
 90
        0
 91
        1
280
     0
281
     0
  0
CLASS
  1
LAYOUT
  2
AcDbLayout
  3
ObjectDBX Classes
 90
        0
 91
        1
280
     0
281
     0
  0
CLASS
  1
DICTIONARYVAR
  2
AcDbDictionaryVar
  3
ObjectDBX Classes
 90
        0
 91
        4
280
     0
281
     0
  0
CLASS
  1
TABLESTYLE
  2
AcDbTableStyle
  3
ObjectDBX Classes
 90
     4095
 91
        6
280
     0
281
     0
  0
CLASS
  1
SCALE
  2
AcDbScale
  3
ObjectDBX Classes
 90
     1153
 91
       70
280
     0
281
     0
  0
CLASS
  1
WIPEOUTVARIABLES
  2
AcDbWipeoutVariables
  3
WipeOut|AutoCAD Express Tool|expresstools@autodesk.com
 90
        0
 91
        4
280
     0
281
     0
  0
ENDSEC
  0
SECTION
  2
TABLES
  0
TABLE
  2
VPORT
  5
8
330
0
100
AcDbSymbolTable
 70
     2
  0
VPORT
  5
97
330
8
100
AcDbSymbolTableRecord
100
AcDbViewportTableRecord
  2
*ACTIVE
 70
     0
 10
0.0
 20
0.0
 11
1.0
 21
1.0
 12
-67.62727013584619
 22
388.1868749143908
 13
0.0
 23
0.0
 14
1.0
 24
1.0
 15
0.5
 25
0.5
 16
0.0
 26
0.0
 36
1.0
 17
0.0
 27
0.0
 37
0.0
 40
713.4180537026288
 41
0.688564
 42
50.0
 43
0.0
 44
0.0
 50
0.0
 51
0.0
 71
     0
 72
   100
 73
     1
 74
     1
 75
     0
 76
     0
 77
     0
 78
     0
281
     0
 65
     1
110
0.0
120
0.0
130
0.0
111
1.0
121
0.0
131
0.0
112
0.0
122
1.0
132
0.0
 79
     0
146
0.0
  0
ENDTAB
  0
TABLE
  2
LTYPE
  5
5
330
0
100
AcDbSymbolTable
 70
     8
  0
LTYPE
  5
14
330
5
100
AcDbSymbolTableRecord
100
AcDbLinetypeTableRecord
  2
ByBlock
 70
     0
  3

 72
    65
 73
     0
 40
0.0
  0
LTYPE
  5
15
330
5
100
AcDbSymbolTableRecord
100
AcDbLinetypeTableRecord
  2
ByLayer
 70
     0
  3

 72
    65
 73
     0
 40
0.0
  0
LTYPE
  5
16
330
5
100
AcDbSymbolTableRecord
100
AcDbLinetypeTableRecord
  2
Continuous
 70
     0
  3
Solid line
 72
    65
 73
     0
 40
0.0
  0
LTYPE
  5
E48
330
5
100
AcDbSymbolTableRecord
100
AcDbLinetypeTableRecord
  2
DASHED
 70
     0
  3
__ __ __ __ __ __ __ __ __ __ __ __ __ __ __ __
 72
    65
 73
     2
 40
15.0
 49
12.0
 74
     0
 49
-3.0
 74
     0
  0
LTYPE
  5
E49
330
5
100
AcDbSymbolTableRecord
100
AcDbLinetypeTableRecord
  2
DASHDOT
 70
     0
  3
 __ . __ . __ . __ . __ . __ . __ . 
 72
    65
 73
     4
 40
18.5
 49
12.0
 74
     0
 49
-3.0
 74
     0
 49
0.5
 74
     0
 49
-3.0
 74
     0
  0
LTYPE
  5
E4A
330
5
100
AcDbSymbolTableRecord
100
AcDbLinetypeTableRecord
  2
DOT
 70
     0
  3
 . . . . . . . . . . . . . . . .
 72
    65
 73
     2
 40
3.5
 49
0.5
 74
     0
 49
-3.0
 74
     0
  0
LTYPE
  5
E4B
330
5
100
AcDbSymbolTableRecord
100
AcDbLinetypeTableRecord
  2
DASHSPACE
 70
     0
  3
__    __    __    __    __   
 72
    65
 73
     2
 40
30.0
 49
12.0
 74
     0
 49
-18.0
 74
     0
  0
LTYPE
  5
E4C
330
5
100
AcDbSymbolTableRecord
100
AcDbLinetypeTableRecord
  2
DASHDOT2
 70
     0
  3
__ . . __ . . __ . . __ 
 72
    65
 73
     6
 40
22.0
 49
12.0
 74
     0
 49
-3.0
 74
     0
 49
0.5
 74
     0
 49
-3.0
 74
     0
 49
0.5
 74
     0
 49
-3.0
 74
     0
  0
LTYPE
  5
E4D
330
5
100
AcDbSymbolTableRecord
100
AcDbLinetypeTableRecord
  2
PHANTOM
 70
     0
  3
____________    ____    ____   _
 72
    65
 73
     6
 40
20.0
 49
10.0
 74
     0
 49
-2.0
 74
     0
 49
2.0
 74
     0
 49
-2.0
 74
     0
 49
2.0
 74
     0
 49
-2.0
 74
     0
  0
LTYPE
  5
E4E
330
5
100
AcDbSymbolTableRecord
100
AcDbLinetypeTableRecord
  2
AXES
 70
     0
  3
________  __  ________  __  _____
 72
    65
 73
     4
 40
24.0
 49
15.0
 74
     0
 49
-3.0
 74
     0
 49
3.0
 74
     0
 49
-3.0
 74
     0
  0
ENDTAB
  0
TABLE
  2
LAYER
  5
2
330
0
100
AcDbSymbolTable
 70
     3
  0
LAYER
  5
10
330
2
100
AcDbSymbolTableRecord
100
AcDbLayerTableRecord
  2
0
 70
     0
 62
     7
  6
Continuous
370
    13
390
F
  0
LAYER
  5
2B
330
2
100
AcDbSymbolTableRecord
100
AcDbLayerTableRecord
  2
2
 70
     0
 62
     7
  6
Continuous
370
    13
390
F
  0
LAYER
  5
C8C
330
2
100
AcDbSymbolTableRecord
100
AcDbLayerTableRecord
  2
DEFPOINTS
 70
     0
 62
     7
  6
Continuous
290
     0
370
    -3
390
F
  0
ENDTAB
  0
TABLE
  2
STYLE
  5
3
330
0
100
AcDbSymbolTable
 70
     2
  0
STYLE
  5
11
330
3
100
AcDbSymbolTableRecord
100
AcDbTextStyleTableRecord
  2
Standard
 70
     0
 40
0.0
 41
1.0
 50
0.0
 71
     0
 42
0.2
  3
isocp.shx
  4

  0
STYLE
  5
2C
330
3
100
AcDbSymbolTableRecord
100
AcDbTextStyleTableRecord
  2
GDT
 70
     0
 40
0.0
 41
1.0
 50
0.0
 71
     0
 42
0.2
  3
amgdt.shx
  4

  0
ENDTAB
  0
TABLE
  2
VIEW
  5
6
330
0
100
AcDbSymbolTable
 70
     0
  0
ENDTAB
  0
TABLE
  2
UCS
  5
7
330
0
100
AcDbSymbolTable
 70
     0
  0
ENDTAB
  0
TABLE
  2
APPID
  5
9
330
0
100
AcDbSymbolTable
 70
     3
  0
APPID
  5
12
330
9
100
AcDbSymbolTableRecord
100
AcDbRegAppTableRecord
  2
ACAD
 70
     0
  0
APPID
  5
E46
330
9
100
AcDbSymbolTableRecord
100
AcDbRegAppTableRecord
  2
Conv5506CA
 70
     0
  0
APPID
  5
E47
330
9
100
AcDbSymbolTableRecord
100
AcDbRegAppTableRecord
  2
PROGE_PRINT_SETTINGS
 70
     0
  0
ENDTAB
  0
TABLE
  2
DIMSTYLE
  5
A
330
0
100
AcDbSymbolTable
 70
     1
100
AcDbDimStyleTable
  0
DIMSTYLE
105
27
102
{ACAD_REACTORS
330
CA8
330
CEB
330
E23
102
}
330
A
100
AcDbSymbolTableRecord
100
AcDbDimStyleTableRecord
  2
Standard
 70
     0
 41
2.5
 42
0.625
 43
3.75
 44
1.25
 73
     0
 74
     0
 77
     1
 78
     8
140
2.5
141
2.5
143
0.03937
147
0.625
171
     3
172
     1
271
     2
272
     2
274
     3
278
    44
283
     0
284
     8
289
     0
340
11
  0
ENDTAB
  0
TABLE
  2
BLOCK_RECORD
  5
1
330
0
100
AcDbSymbolTable
 70
    24
  0
BLOCK_RECORD
  5
1F
330
1
100
AcDbSymbolTableRecord
100
AcDbBlockTableRecord
  2
*Model_Space
340
22
  0
BLOCK_RECORD
  5
73
330
1
100
AcDbSymbolTableRecord
100
AcDbBlockTableRecord
  2
*Paper_Space
340
74
  0
BLOCK_RECORD
  5
2D
330
1
100
AcDbSymbolTableRecord
100
AcDbBlockTableRecord
  2
*D0
340
0
  0
BLOCK_RECORD
  5
2F
330
1
100
AcDbSymbolTableRecord
100
AcDbBlockTableRecord
  2
*D1
340
0
  0
BLOCK_RECORD
  5
31
330
1
100
AcDbSymbolTableRecord
100
AcDbBlockTableRecord
  2
*D2
340
0
  0
BLOCK_RECORD
  5
CB3
330
1
100
AcDbSymbolTableRecord
100
AcDbBlockTableRecord
  2
*D3
340
0
  0
BLOCK_RECORD
  5
CBE
330
1
100
AcDbSymbolTableRecord
100
AcDbBlockTableRecord
  2
*D4
340
0
  0
BLOCK_RECORD
  5
CC9
330
1
100
AcDbSymbolTableRecord
100
AcDbBlockTableRecord
  2
*D5
340
0
  0
BLOCK_RECORD
  5
CD4
330
1
100
AcDbSymbolTableRecord
100
AcDbBlockTableRecord
  2
*D6
340
0
  0
BLOCK_RECORD
  5
CDF
330
1
100
AcDbSymbolTableRecord
100
AcDbBlockTableRecord
  2
*D7
340
0
  0
BLOCK_RECORD
  5
CEA
330
1
100
AcDbSymbolTableRecord
100
AcDbBlockTableRecord
  2
*D8
340
0
  0
BLOCK_RECORD
  5
CF6
330
1
100
AcDbSymbolTableRecord
100
AcDbBlockTableRecord
  2
*D9
340
0
  0
BLOCK_RECORD
  5
D02
330
1
100
AcDbSymbolTableRecord
100
AcDbBlockTableRecord
  2
*D10
340
0
  0
BLOCK_RECORD
  5
D0D
330
1
100
AcDbSymbolTableRecord
100
AcDbBlockTableRecord
  2
*D11
340
0
  0
BLOCK_RECORD
  5
D18
330
1
100
AcDbSymbolTableRecord
100
AcDbBlockTableRecord
  2
*D12
340
0
  0
BLOCK_RECORD
  5
D23
330
1
100
AcDbSymbolTableRecord
100
AcDbBlockTableRecord
  2
*D13
340
0
  0
BLOCK_RECORD
  5
D2F
330
1
100
AcDbSymbolTableRecord
100
AcDbBlockTableRecord
  2
*D14
340
0
  0
BLOCK_RECORD
  5
D3A
330
1
100
AcDbSymbolTableRecord
100
AcDbBlockTableRecord
  2
*D15
340
0
  0
BLOCK_RECORD
  5
D45
330
1
100
AcDbSymbolTableRecord
100
AcDbBlockTableRecord
  2
*D16
340
0
  0
BLOCK_RECORD
  5
D50
330
1
100
AcDbSymbolTableRecord
100
AcDbBlockTableRecord
  2
*D17
340
0
  0
BLOCK_RECORD
  5
E0C
330
1
100
AcDbSymbolTableRecord
100
AcDbBlockTableRecord
  2
*D18
340
0
  0
BLOCK_RECORD
  5
E17
330
1
100
AcDbSymbolTableRecord
100
AcDbBlockTableRecord
  2
*D19
340
0
  0
BLOCK_RECORD
  5
E22
330
1
100
AcDbSymbolTableRecord
100
AcDbBlockTableRecord
  2
*D20
340
0
  0
BLOCK_RECORD
  5
E2E
330
1
100
AcDbSymbolTableRecord
100
AcDbBlockTableRecord
  2
*D21
340
0
  0
BLOCK_RECORD
  5
E39
330
1
100
AcDbSymbolTableRecord
100
AcDbBlockTableRecord
  2
*D22
340
0
  0
BLOCK_RECORD
  5
E44
330
1
100
AcDbSymbolTableRecord
100
AcDbBlockTableRecord
  2
*D23
340
0
  0
ENDTAB
  0
ENDSEC
  0
SECTION
  2
BLOCKS
  0
BLOCK
  5
20
330
1F
100
AcDbEntity
  8
0
100
AcDbBlockBegin
  2
*Model_Space
 70
     0
 10
0.0
 20
0.0
 30
0.0
  3
*Model_Space
  1

  0
ENDBLK
  5
21
330
1F
100
AcDbEntity
  8
0
100
AcDbBlockEnd
  0
BLOCK
  5
75
330
73
100
AcDbEntity
 67
     1
  8
0
100
AcDbBlockBegin
  2
*Paper_Space
 70
     0
 10
0.0
 20
0.0
 30
0.0
  3
*Paper_Space
  1

  0
ENDBLK
  5
76
330
73
100
AcDbEntity
 67
     1
  8
0
100
AcDbBlockEnd
  0
BLOCK
  5
E52
102
{ACAD_REACTORS
330
CA8
330
CEB
102
}
330
2D
100
AcDbEntity
  8
0
100
AcDbBlockBegin
  2
*D0
 70
     1
 10
0.0
 20
0.0
 30
0.0
  3
*D0
  1

  0
TEXT
  5
C39
330
2D
100
AcDbEntity
  8
0
 62
     7
370
    13
390
F
100
AcDbText
 10
-118.063889
 20
640.244873
 30
0.0
 40
3.5
  1
418
 41
1.623085281794839
 72
     5
 11
-107.555832
 21
640.244873
 31
0.0
100
AcDbText
  0
LINE
  5
C3A
330
2D
100
AcDbEntity
  8
0
 62
     7
370
    13
390
F
100
AcDbLine
 10
-321.849899
 20
429.822601
 30
0.0
 11
-321.849899
 21
640.244873
 31
0.0
  0
LINE
  5
C3B
330
2D
100
AcDbEntity
  8
0
 62
     7
370
    13
390
F
100
AcDbLine
 10
96.230179
 20
557.590149
 30
0.0
 11
96.230179
 21
640.244873
 31
0.0
  0
LWPOLYLINE
  5
C3C
330
2D
100
AcDbEntity
  8
0
 62
     7
370
    13
390
F
100
AcDbPolyline
 90
        3
 70
     0
 43
0.0
 10
94.298294
 20
637.727234
 10
96.230179
 20
638.244873
 10
94.298294
 20
638.762512
  0
LWPOLYLINE
  5
C41
330
2D
100
AcDbEntity
  8
0
 62
     7
370
    13
390
F
100
AcDbPolyline
 90
        3
 70
     0
 43
0.0
 10
-319.918076
 20
638.762512
 10
-321.849899
 20
638.244873
 10
-319.918076
 20
637.727234
  0
LINE
  5
C46
330
2D
100
AcDbEntity
  8
0
 62
     7
370
    13
390
F
100
AcDbLine
 10
-321.849899
 20
638.244873
 30
0.0
 11
96.230179
 21
638.244873
 31
0.0
  0
ENDBLK
  5
E53
330
2D
100
AcDbEntity
  8
0
100
AcDbBlockEnd
  0
BLOCK
  5
E54
330
2F
100
AcDbEntity
  8
0
100
AcDbBlockBegin
  2
*D1
 70
     1
 10
0.0
 20
0.0
 30
0.0
  3
*D1
  1

  0
TEXT
  5
C49
330
2F
100
AcDbEntity
  8
0
 62
     7
370
    13
390
F
100
AcDbText
 10
-410.930832
 20
640.242004
 30
0.0
 40
3.5
  1
82
 41
1.547943187842065
 72
     5
 11
-404.158737
 21
640.242004
 31
0.0
100
AcDbText
  0
LINE
  5
C4A
330
2F
100
AcDbEntity
  8
0
 62
     7
370
    13
390
F
100
AcDbLine
 10
-448.42778
 20
553.113403
 30
0.0
 11
-448.42778
 21
640.242004
 31
0.0
  0
LINE
  5
C4B
330
2F
100
AcDbEntity
  8
0
 62
     7
370
    13
390
F
100
AcDbLine
 10
-366.66185
 20
570.020325
 30
0.0
 11
-366.66185
 21
640.242004
 31
0.0
  0
LWPOLYLINE
  5
C4C
330
2F
100
AcDbEntity
  8
0
 62
     7
370
    13
390
F
100
AcDbPolyline
 90
        3
 70
     0
 43
0.0
 10
-368.593674
 20
637.724365
 10
-366.66185
 20
638.242004
 10
-368.593674
 20
638.759644
  0
LWPOLYLINE
  5
C51
330
2F
100
AcDbEntity
  8
0
 62
     7
370
    13
390
F
100
AcDbPolyline
 90
        3
 70
     0
 43
0.0
 10
-446.495956
 20
638.759644
 10
-448.42778
 20
638.242004
 10
-446.495956
 20
637.724365
  0
LINE
  5
C56
330
2F
100
AcDbEntity
  8
0
 62
     7
370
    13
390
F
100
AcDbLine
 10
-448.42778
 20
638.242004
 30
0.0
 11
-366.66185
 21
638.242004
 31
0.0
  0
ENDBLK
  5
E55
330
2F
100
AcDbEntity
  8
0
100
AcDbBlockEnd
  0
BLOCK
  5
E56
330
31
100
AcDbEntity
  8
0
100
AcDbBlockBegin
  2
*D2
 70
     1
 10
0.0
 20
0.0
 30
0.0
  3
*D2
  1

  0
TEXT
  5
C59
330
31
100
AcDbEntity
  8
0
 62
     7
370
    13
390
F
100
AcDbText
 10
157.630936
 20
422.712799
 30
0.0
 40
3.5
  1
341
 50
90.0
 41
1.622865945945947
 72
     5
 11
157.630936
 21
433.220856
 31
0.0
100
AcDbText
  0
LINE
  5
C5A
330
31
100
AcDbEntity
  8
0
 62
     7
370
    13
390
F
100
AcDbLine
 10
66.081009
 20
257.639404
 30
0.0
 11
161.630936
 21
257.639404
 31
0.0
  0
LINE
  5
C5B
330
31
100
AcDbEntity
  8
0
 62
     7
370
    13
390
F
100
AcDbLine
 10
61.047318
 20
598.29425
 30
0.0
 11
161.630936
 21
598.29425
 31
0.0
  0
LWPOLYLINE
  5
C5C
330
31
100
AcDbEntity
  8
0
 62
     7
370
    13
390
F
100
AcDbPolyline
 90
        3
 70
     0
 43
0.0
 10
159.113358
 20
259.571259
 10
159.630936
 20
257.639404
 10
160.148636
 20
259.571259
  0
LWPOLYLINE
  5
C61
330
31
100
AcDbEntity
  8
0
 62
     7
370
    13
390
F
100
AcDbPolyline
 90
        3
 70
     0
 43
0.0
 10
160.148636
 20
596.362427
 10
159.630936
 20
598.29425
 10
159.113358
 20
596.362427
  0
LINE
  5
C66
330
31
100
AcDbEntity
  8
0
 62
     7
370
    13
390
F
100
AcDbLine
 10
159.630936
 20
257.639404
 30
0.0
 11
159.630936
 21
598.29425
 31
0.0
  0
ENDBLK
  5
E57
330
31
100
AcDbEntity
  8
0
100
AcDbBlockEnd
  0
BLOCK
  5
E58
330
CB3
100
AcDbEntity
  8
0
100
AcDbBlockBegin
  2
*D3
 70
     1
 10
0.0
 20
0.0
 30
0.0
  3
*D3
  1

  0
POINT
  5
CAA
330
CB3
100
AcDbEntity
  8
DEFPOINTS
  6
ByBlock
 62
     0
380
     1
100
AcDbPoint
 10
-448.42778
 20
551.113403
 30
0.0
  0
POINT
  5
CAB
330
CB3
100
AcDbEntity
  8
DEFPOINTS
  6
ByBlock
 62
     0
380
     1
100
AcDbPoint
 10
-366.66185
 20
557.2258114433325
 30
0.0
  0
LINE
  5
CAC
330
CB3
100
AcDbEntity
  8
0
  6
ByBlock
 62
     0
370
    -2
380
     1
100
AcDbLine
 10
-448.42778
 20
551.738403
 30
0.0
 11
-448.42778
 21
558.4758114433325
 31
0.0
  0
LINE
  5
CAD
330
CB3
100
AcDbEntity
  8
0
  6
ByBlock
 62
     0
370
    -2
380
     1
100
AcDbLine
 10
-366.66185
 20
557.8508114433325
 30
0.0
 11
-366.66185
 21
558.4758114433325
 31
0.0
  0
LINE
  5
CAE
330
CB3
100
AcDbEntity
  8
0
  6
ByBlock
 62
     0
370
    -2
380
     1
100
AcDbLine
 10
-445.92778
 20
557.2258114433325
 30
0.0
 11
-369.16185
 21
557.2258114433325
 31
0.0
  0
SOLID
  5
CAF
330
CB3
100
AcDbEntity
  8
0
  6
ByBlock
 62
     0
380
     1
100
AcDbTrace
 10
-448.42778
 20
557.2258114433325
 30
0.0
 11
-445.92778
 21
556.8091447766659
 31
0.0
 12
-445.92778
 22
557.6424781099992
 32
0.0
 13
-445.92778
 23
557.6424781099992
 33
0.0
  0
SOLID
  5
CB0
330
CB3
100
AcDbEntity
  8
0
  6
ByBlock
 62
     0
380
     1
100
AcDbTrace
 10
-366.66185
 20
557.2258114433325
 30
0.0
 11
-369.16185
 21
556.8091447766659
 31
0.0
 12
-369.16185
 22
557.6424781099992
 32
0.0
 13
-369.16185
 23
557.6424781099992
 33
0.0
  0
MTEXT
  5
CB1
330
CB3
100
AcDbEntity
  8
0
  6
ByBlock
 62
     0
370
    -2
380
     1
100
AcDbMText
 10
-407.544815
 20
559.2258114433325
 30
0.0
 40
2.5
 41
0.0
 71
     5
 72
     1
  1
\A1;81,77
 73
     1
 44
1.0
  0
ENDBLK
  5
E59
330
CB3
100
AcDbEntity
  8
0
100
AcDbBlockEnd
  0
BLOCK
  5
E5A
330
CBE
100
AcDbEntity
  8
0
100
AcDbBlockBegin
  2
*D4
 70
     1
 10
0.0
 20
0.0
 30
0.0
  3
*D4
  1

  0
POINT
  5
CB5
330
CBE
100
AcDbEntity
  8
DEFPOINTS
  6
ByBlock
 62
     0
380
     1
100
AcDbPoint
 10
-448.42778
 20
551.113403
 30
0.0
  0
POINT
  5
CB6
330
CBE
100
AcDbEntity
  8
DEFPOINTS
  6
ByBlock
 62
     0
380
     1
100
AcDbPoint
 10
-366.66185
 20
557.2258114433325
 30
0.0
  0
LINE
  5
CB7
330
CBE
100
AcDbEntity
  8
0
  6
ByBlock
 62
     0
370
    -2
380
     1
100
AcDbLine
 10
-448.42778
 20
551.738403
 30
0.0
 11
-448.42778
 21
631.7577987248306
 31
0.0
  0
LINE
  5
CB8
330
CBE
100
AcDbEntity
  8
0
  6
ByBlock
 62
     0
370
    -2
380
     1
100
AcDbLine
 10
-366.66185
 20
557.8508114433325
 30
0.0
 11
-366.66185
 21
631.7577987248306
 31
0.0
  0
LINE
  5
CB9
330
CBE
100
AcDbEntity
  8
0
  6
ByBlock
 62
     0
370
    -2
380
     1
100
AcDbLine
 10
-445.92778
 20
630.5077987248306
 30
0.0
 11
-369.16185
 21
630.5077987248306
 31
0.0
  0
SOLID
  5
CBA
330
CBE
100
AcDbEntity
  8
0
  6
ByBlock
 62
     0
380
     1
100
AcDbTrace
 10
-448.42778
 20
630.5077987248306
 30
0.0
 11
-445.92778
 21
630.091132058164
 31
0.0
 12
-445.92778
 22
630.9244653914973
 32
0.0
 13
-445.92778
 23
630.9244653914973
 33
0.0
  0
SOLID
  5
CBB
330
CBE
100
AcDbEntity
  8
0
  6
ByBlock
 62
     0
380
     1
100
AcDbTrace
 10
-366.66185
 20
630.5077987248306
 30
0.0
 11
-369.16185
 21
630.091132058164
 31
0.0
 12
-369.16185
 22
630.9244653914973
 32
0.0
 13
-369.16185
 23
630.9244653914973
 33
0.0
  0
MTEXT
  5
CBC
330
CBE
100
AcDbEntity
  8
0
  6
ByBlock
 62
     0
370
    -2
380
     1
100
AcDbMText
 10
-400.6514932152299
 20
632.5077987248306
 30
0.0
 40
2.5
 41
0.0
 71
     5
 72
     1
  1
\A1;81,77
 73
     1
 44
1.0
  0
ENDBLK
  5
E5B
330
CBE
100
AcDbEntity
  8
0
100
AcDbBlockEnd
  0
BLOCK
  5
E5C
330
CC9
100
AcDbEntity
  8
0
100
AcDbBlockBegin
  2
*D5
 70
     1
 10
0.0
 20
0.0
 30
0.0
  3
*D5
  1

  0
POINT
  5
CC0
330
CC9
100
AcDbEntity
  8
DEFPOINTS
  6
ByBlock
 62
     7
380
     1
100
AcDbPoint
 10
-448.42778
 20
551.113403
 30
0.0
  0
POINT
  5
CC1
330
CC9
100
AcDbEntity
  8
DEFPOINTS
  6
ByBlock
 62
     7
380
     1
100
AcDbPoint
 10
-366.66185
 20
557.2258114433325
 30
0.0
  0
LINE
  5
CC2
330
CC9
100
AcDbEntity
  8
0
  6
ByBlock
 62
     7
370
    -2
380
     1
100
AcDbLine
 10
-448.42778
 20
551.738403
 30
0.0
 11
-448.42778
 21
631.7577987248306
 31
0.0
  0
LINE
  5
CC3
330
CC9
100
AcDbEntity
  8
0
  6
ByBlock
 62
     7
370
    -2
380
     1
100
AcDbLine
 10
-366.66185
 20
557.8508114433325
 30
0.0
 11
-366.66185
 21
631.7577987248306
 31
0.0
  0
LINE
  5
CC4
330
CC9
100
AcDbEntity
  8
0
  6
ByBlock
 62
     7
370
    -2
380
     1
100
AcDbLine
 10
-438.42778
 20
630.5077987248306
 30
0.0
 11
-376.66185
 21
630.5077987248306
 31
0.0
  0
SOLID
  5
CC5
330
CC9
100
AcDbEntity
  8
0
  6
ByBlock
 62
     7
380
     1
100
AcDbTrace
 10
-448.42778
 20
630.5077987248306
 30
0.0
 11
-438.42778
 21
628.841132058164
 31
0.0
 12
-438.42778
 22
632.1744653914973
 32
0.0
 13
-438.42778
 23
632.1744653914973
 33
0.0
  0
SOLID
  5
CC6
330
CC9
100
AcDbEntity
  8
0
  6
ByBlock
 62
     7
380
     1
100
AcDbTrace
 10
-366.66185
 20
630.5077987248306
 30
0.0
 11
-376.66185
 21
628.841132058164
 31
0.0
 12
-376.66185
 22
632.1744653914973
 32
0.0
 13
-376.66185
 23
632.1744653914973
 33
0.0
  0
MTEXT
  5
CC7
330
CC9
100
AcDbEntity
  8
0
  6
ByBlock
 62
     0
370
    -2
380
     1
100
AcDbMText
 10
-400.6514932152299
 20
643.2077987248306
 30
0.0
 40
14.0
 41
0.0
 71
     5
 72
     1
  1
\A1;81,77
 73
     1
 44
1.0
  0
ENDBLK
  5
E5D
330
CC9
100
AcDbEntity
  8
0
100
AcDbBlockEnd
  0
BLOCK
  5
E5E
330
CD4
100
AcDbEntity
  8
0
100
AcDbBlockBegin
  2
*D6
 70
     1
 10
0.0
 20
0.0
 30
0.0
  3
*D6
  1

  0
POINT
  5
CCB
330
CD4
100
AcDbEntity
  8
DEFPOINTS
  6
ByBlock
 62
     7
380
     1
100
AcDbPoint
 10
-448.42778
 20
551.113403
 30
0.0
  0
POINT
  5
CCC
330
CD4
100
AcDbEntity
  8
DEFPOINTS
  6
ByBlock
 62
     7
380
     1
100
AcDbPoint
 10
-366.66185
 20
557.2258114433325
 30
0.0
  0
LINE
  5
CCD
330
CD4
100
AcDbEntity
  8
0
  6
ByBlock
 62
     7
370
    -2
380
     1
100
AcDbLine
 10
-448.42778
 20
551.738403
 30
0.0
 11
-448.42778
 21
631.7577987248306
 31
0.0
  0
LINE
  5
CCE
330
CD4
100
AcDbEntity
  8
0
  6
ByBlock
 62
     7
370
    -2
380
     1
100
AcDbLine
 10
-366.66185
 20
557.8508114433325
 30
0.0
 11
-366.66185
 21
631.7577987248306
 31
0.0
  0
LINE
  5
CCF
330
CD4
100
AcDbEntity
  8
0
  6
ByBlock
 62
     7
370
    -2
380
     1
100
AcDbLine
 10
-438.42778
 20
630.5077987248306
 30
0.0
 11
-376.66185
 21
630.5077987248306
 31
0.0
  0
SOLID
  5
CD0
330
CD4
100
AcDbEntity
  8
0
  6
ByBlock
 62
     7
380
     1
100
AcDbTrace
 10
-448.42778
 20
630.5077987248306
 30
0.0
 11
-438.42778
 21
628.841132058164
 31
0.0
 12
-438.42778
 22
632.1744653914973
 32
0.0
 13
-438.42778
 23
632.1744653914973
 33
0.0
  0
SOLID
  5
CD1
330
CD4
100
AcDbEntity
  8
0
  6
ByBlock
 62
     7
380
     1
100
AcDbTrace
 10
-366.66185
 20
630.5077987248306
 30
0.0
 11
-376.66185
 21
628.841132058164
 31
0.0
 12
-376.66185
 22
632.1744653914973
 32
0.0
 13
-376.66185
 23
632.1744653914973
 33
0.0
  0
MTEXT
  5
CD2
330
CD4
100
AcDbEntity
  8
0
  6
ByBlock
 62
     0
370
    -2
380
     1
100
AcDbMText
 10
-400.6514932152299
 20
641.8077987248306
 30
0.0
 40
14.0
 41
0.0
 71
     5
 72
     1
  1
82
 73
     1
 44
1.0
  0
ENDBLK
  5
E5F
330
CD4
100
AcDbEntity
  8
0
100
AcDbBlockEnd
  0
BLOCK
  5
E60
330
CDF
100
AcDbEntity
  8
0
100
AcDbBlockBegin
  2
*D7
 70
     1
 10
0.0
 20
0.0
 30
0.0
  3
*D7
  1

  0
POINT
  5
CD6
330
CDF
100
AcDbEntity
  8
DEFPOINTS
  6
ByBlock
 62
     7
380
     1
100
AcDbPoint
 10
-448.42778
 20
551.113403
 30
0.0
  0
POINT
  5
CD7
330
CDF
100
AcDbEntity
  8
DEFPOINTS
  6
ByBlock
 62
     7
380
     1
100
AcDbPoint
 10
-366.66185
 20
557.2258114433325
 30
0.0
  0
LINE
  5
CD8
330
CDF
100
AcDbEntity
  8
0
  6
ByBlock
 62
     7
370
    -2
380
     1
100
AcDbLine
 10
-448.42778
 20
551.738403
 30
0.0
 11
-448.42778
 21
631.7577987248306
 31
0.0
  0
LINE
  5
CD9
330
CDF
100
AcDbEntity
  8
0
  6
ByBlock
 62
     7
370
    -2
380
     1
100
AcDbLine
 10
-366.66185
 20
557.8508114433325
 30
0.0
 11
-366.66185
 21
631.7577987248306
 31
0.0
  0
LINE
  5
CDA
330
CDF
100
AcDbEntity
  8
0
  6
ByBlock
 62
     7
370
    -2
380
     1
100
AcDbLine
 10
-438.42778
 20
630.5077987248306
 30
0.0
 11
-376.66185
 21
630.5077987248306
 31
0.0
  0
SOLID
  5
CDB
330
CDF
100
AcDbEntity
  8
0
  6
ByBlock
 62
     7
380
     1
100
AcDbTrace
 10
-448.42778
 20
630.5077987248306
 30
0.0
 11
-438.42778
 21
628.841132058164
 31
0.0
 12
-438.42778
 22
632.1744653914973
 32
0.0
 13
-438.42778
 23
632.1744653914973
 33
0.0
  0
SOLID
  5
CDC
330
CDF
100
AcDbEntity
  8
0
  6
ByBlock
 62
     7
380
     1
100
AcDbTrace
 10
-366.66185
 20
630.5077987248306
 30
0.0
 11
-376.66185
 21
628.841132058164
 31
0.0
 12
-376.66185
 22
632.1744653914973
 32
0.0
 13
-376.66185
 23
632.1744653914973
 33
0.0
  0
MTEXT
  5
CDD
330
CDF
100
AcDbEntity
  8
0
  6
ByBlock
 62
     0
370
    -2
380
     1
100
AcDbMText
 10
-407.544815
 20
641.8077987248306
 30
0.0
 40
14.0
 41
0.0
 71
     5
 72
     1
  1
82
 73
     1
 44
1.0
  0
ENDBLK
  5
E61
330
CDF
100
AcDbEntity
  8
0
100
AcDbBlockEnd
  0
BLOCK
  5
E62
330
CEA
100
AcDbEntity
  8
0
100
AcDbBlockBegin
  2
*D8
 70
     1
 10
0.0
 20
0.0
 30
0.0
  3
*D8
  1

  0
POINT
  5
CE1
330
CEA
100
AcDbEntity
  8
DEFPOINTS
  6
ByBlock
 62
     7
380
     1
100
AcDbPoint
 10
-448.42778
 20
551.113403
 30
0.0
  0
POINT
  5
CE2
330
CEA
100
AcDbEntity
  8
DEFPOINTS
  6
ByBlock
 62
     7
380
     1
100
AcDbPoint
 10
-366.66185
 20
557.2258114433325
 30
0.0
  0
LINE
  5
CE3
330
CEA
100
AcDbEntity
  8
0
  6
ByBlock
 62
     7
370
    -2
380
     1
100
AcDbLine
 10
-448.42778
 20
551.738403
 30
0.0
 11
-448.42778
 21
631.7577987248306
 31
0.0
  0
LINE
  5
CE4
330
CEA
100
AcDbEntity
  8
0
  6
ByBlock
 62
     7
370
    -2
380
     1
100
AcDbLine
 10
-366.66185
 20
557.8508114433325
 30
0.0
 11
-366.66185
 21
631.7577987248306
 31
0.0
  0
LINE
  5
CE5
330
CEA
100
AcDbEntity
  8
0
  6
ByBlock
 62
     7
370
    -2
380
     1
100
AcDbLine
 10
-438.42778
 20
630.5077987248306
 30
0.0
 11
-376.66185
 21
630.5077987248306
 31
0.0
  0
SOLID
  5
CE6
330
CEA
100
AcDbEntity
  8
0
  6
ByBlock
 62
     7
380
     1
100
AcDbTrace
 10
-448.42778
 20
630.5077987248306
 30
0.0
 11
-438.42778
 21
628.841132058164
 31
0.0
 12
-438.42778
 22
632.1744653914973
 32
0.0
 13
-438.42778
 23
632.1744653914973
 33
0.0
  0
SOLID
  5
CE7
330
CEA
100
AcDbEntity
  8
0
  6
ByBlock
 62
     7
380
     1
100
AcDbTrace
 10
-366.66185
 20
630.5077987248306
 30
0.0
 11
-376.66185
 21
628.841132058164
 31
0.0
 12
-376.66185
 22
632.1744653914973
 32
0.0
 13
-376.66185
 23
632.1744653914973
 33
0.0
  0
MTEXT
  5
CE8
330
CEA
100
AcDbEntity
  8
0
  6
ByBlock
 62
     0
370
    -2
380
     1
100
AcDbMText
 10
-409.739153342162
 20
641.8077987248306
 30
0.0
 40
14.0
 41
0.0
 71
     5
 72
     1
  1
82
 73
     1
 44
1.0
  0
ENDBLK
  5
E63
330
CEA
100
AcDbEntity
  8
0
100
AcDbBlockEnd
  0
BLOCK
  5
E64
330
CF6
100
AcDbEntity
  8
0
100
AcDbBlockBegin
  2
*D9
 70
     1
 10
0.0
 20
0.0
 30
0.0
  3
*D9
  1

  0
POINT
  5
CED
330
CF6
100
AcDbEntity
  8
DEFPOINTS
  6
ByBlock
 62
     0
380
     1
100
AcDbPoint
 10
-321.848251
 20
432.5218505
 30
0.0
  0
POINT
  5
CEE
330
CF6
100
AcDbEntity
  8
DEFPOINTS
  6
ByBlock
 62
     0
380
     1
100
AcDbPoint
 10
96.207962
 20
553.170288
 30
0.0
  0
LINE
  5
CEF
330
CF6
100
AcDbEntity
  8
0
  6
ByBlock
 62
     0
370
    -2
380
     1
100
AcDbLine
 10
-321.848251
 20
433.1468505
 30
0.0
 11
-321.848251
 21
608.3252567242839
 31
0.0
  0
LINE
  5
CF0
330
CF6
100
AcDbEntity
  8
0
  6
ByBlock
 62
     0
370
    -2
380
     1
100
AcDbLine
 10
96.20796200000001
 20
553.795288
 30
0.0
 11
96.20796200000001
 21
608.3252567242839
 31
0.0
  0
LINE
  5
CF1
330
CF6
100
AcDbEntity
  8
0
  6
ByBlock
 62
     0
370
    -2
380
     1
100
AcDbLine
 10
-319.348251
 20
607.0752567242839
 30
0.0
 11
93.70796200000001
 21
607.0752567242839
 31
0.0
  0
SOLID
  5
CF2
330
CF6
100
AcDbEntity
  8
0
  6
ByBlock
 62
     0
380
     1
100
AcDbTrace
 10
-321.848251
 20
607.0752567242839
 30
0.0
 11
-319.348251
 21
606.6585900576173
 31
0.0
 12
-319.348251
 22
607.4919233909505
 32
0.0
 13
-319.348251
 23
607.4919233909505
 33
0.0
  0
SOLID
  5
CF3
330
CF6
100
AcDbEntity
  8
0
  6
ByBlock
 62
     0
380
     1
100
AcDbTrace
 10
96.20796200000001
 20
607.0752567242839
 30
0.0
 11
93.70796200000001
 21
606.6585900576173
 31
0.0
 12
93.70796200000001
 22
607.4919233909505
 32
0.0
 13
93.70796200000001
 23
607.4919233909505
 33
0.0
  0
MTEXT
  5
CF4
330
CF6
100
AcDbEntity
  8
0
  6
ByBlock
 62
     0
370
    -2
380
     1
100
AcDbMText
 10
-112.8201445
 20
609.0757488502682
 30
0.0
 40
2.5
 41
0.0
 71
     5
 72
     1
  1
\A1;418,06
 73
     1
 44
1.0
  0
ENDBLK
  5
E65
330
CF6
100
AcDbEntity
  8
0
100
AcDbBlockEnd
  0
BLOCK
  5
E66
330
D02
100
AcDbEntity
  8
0
100
AcDbBlockBegin
  2
*D10
 70
     1
 10
0.0
 20
0.0
 30
0.0
  3
*D10
  1

  0
POINT
  5
CF9
330
D02
100
AcDbEntity
  8
DEFPOINTS
  6
ByBlock
 62
     0
380
     1
100
AcDbPoint
 10
-321.848251
 20
432.5218505
 30
0.0
  0
POINT
  5
CFA
330
D02
100
AcDbEntity
  8
DEFPOINTS
  6
ByBlock
 62
     0
380
     1
100
AcDbPoint
 10
96.207962
 20
553.170288
 30
0.0
  0
LINE
  5
CFB
330
D02
100
AcDbEntity
  8
0
  6
ByBlock
 62
     0
370
    -2
380
     1
100
AcDbLine
 10
-321.848251
 20
433.1468505
 30
0.0
 11
-321.848251
 21
631.7577987248306
 31
0.0
  0
LINE
  5
CFC
330
D02
100
AcDbEntity
  8
0
  6
ByBlock
 62
     0
370
    -2
380
     1
100
AcDbLine
 10
96.20796200000001
 20
553.795288
 30
0.0
 11
96.20796200000001
 21
631.7577987248306
 31
0.0
  0
LINE
  5
CFD
330
D02
100
AcDbEntity
  8
0
  6
ByBlock
 62
     0
370
    -2
380
     1
100
AcDbLine
 10
-319.348251
 20
630.5077987248306
 30
0.0
 11
93.70796200000001
 21
630.5077987248306
 31
0.0
  0
SOLID
  5
CFE
330
D02
100
AcDbEntity
  8
0
  6
ByBlock
 62
     0
380
     1
100
AcDbTrace
 10
-321.848251
 20
630.5077987248306
 30
0.0
 11
-319.348251
 21
630.091132058164
 31
0.0
 12
-319.348251
 22
630.9244653914973
 32
0.0
 13
-319.348251
 23
630.9244653914973
 33
0.0
  0
SOLID
  5
CFF
330
D02
100
AcDbEntity
  8
0
  6
ByBlock
 62
     0
380
     1
100
AcDbTrace
 10
96.20796200000001
 20
630.5077987248306
 30
0.0
 11
93.70796200000001
 21
630.091132058164
 31
0.0
 12
93.70796200000001
 22
630.9244653914973
 32
0.0
 13
93.70796200000001
 23
630.9244653914973
 33
0.0
  0
MTEXT
  5
D00
330
D02
100
AcDbEntity
  8
0
  6
ByBlock
 62
     0
370
    -2
380
     1
100
AcDbMText
 10
-112.0890292420069
 20
632.5082908508149
 30
0.0
 40
2.5
 41
0.0
 71
     5
 72
     1
  1
\A1;418,06
 73
     1
 44
1.0
  0
ENDBLK
  5
E67
330
D02
100
AcDbEntity
  8
0
100
AcDbBlockEnd
  0
BLOCK
  5
E68
330
D0D
100
AcDbEntity
  8
0
100
AcDbBlockBegin
  2
*D11
 70
     1
 10
0.0
 20
0.0
 30
0.0
  3
*D11
  1

  0
POINT
  5
D04
330
D0D
100
AcDbEntity
  8
DEFPOINTS
  6
ByBlock
 62
     0
380
     1
100
AcDbPoint
 10
-321.848251
 20
432.5218505
 30
0.0
  0
POINT
  5
D05
330
D0D
100
AcDbEntity
  8
DEFPOINTS
  6
ByBlock
 62
     0
380
     1
100
AcDbPoint
 10
96.207962
 20
553.170288
 30
0.0
  0
LINE
  5
D06
330
D0D
100
AcDbEntity
  8
0
  6
ByBlock
 62
     0
370
    -2
380
     1
100
AcDbLine
 10
-321.848251
 20
433.1468505
 30
0.0
 11
-321.848251
 21
631.7577987248306
 31
0.0
  0
LINE
  5
D07
330
D0D
100
AcDbEntity
  8
0
  6
ByBlock
 62
     0
370
    -2
380
     1
100
AcDbLine
 10
96.20796200000001
 20
553.795288
 30
0.0
 11
96.20796200000001
 21
631.7577987248306
 31
0.0
  0
LINE
  5
D08
330
D0D
100
AcDbEntity
  8
0
  6
ByBlock
 62
     0
370
    -2
380
     1
100
AcDbLine
 10
-319.348251
 20
630.5077987248306
 30
0.0
 11
93.70796200000001
 21
630.5077987248306
 31
0.0
  0
SOLID
  5
D09
330
D0D
100
AcDbEntity
  8
0
  6
ByBlock
 62
     0
380
     1
100
AcDbTrace
 10
-321.848251
 20
630.5077987248306
 30
0.0
 11
-319.348251
 21
630.091132058164
 31
0.0
 12
-319.348251
 22
630.9244653914973
 32
0.0
 13
-319.348251
 23
630.9244653914973
 33
0.0
  0
SOLID
  5
D0A
330
D0D
100
AcDbEntity
  8
0
  6
ByBlock
 62
     0
380
     1
100
AcDbTrace
 10
96.20796200000001
 20
630.5077987248306
 30
0.0
 11
93.70796200000001
 21
630.091132058164
 31
0.0
 12
93.70796200000001
 22
630.9244653914973
 32
0.0
 13
93.70796200000001
 23
630.9244653914973
 33
0.0
  0
MTEXT
  5
D0B
330
D0D
100
AcDbEntity
  8
0
  6
ByBlock
 62
     0
370
    -2
380
     1
100
AcDbMText
 10
-112.0890292420069
 20
632.5082908508149
 30
0.0
 40
2.5
 41
0.0
 71
     5
 72
     1
  1
\A1;418,06
 73
     1
 44
1.0
  0
ENDBLK
  5
E69
330
D0D
100
AcDbEntity
  8
0
100
AcDbBlockEnd
  0
BLOCK
  5
E6A
330
D18
100
AcDbEntity
  8
0
100
AcDbBlockBegin
  2
*D12
 70
     1
 10
0.0
 20
0.0
 30
0.0
  3
*D12
  1

  0
POINT
  5
D0F
330
D18
100
AcDbEntity
  8
DEFPOINTS
  6
ByBlock
 62
     7
380
     1
100
AcDbPoint
 10
-321.848251
 20
432.5218505
 30
0.0
  0
POINT
  5
D10
330
D18
100
AcDbEntity
  8
DEFPOINTS
  6
ByBlock
 62
     7
380
     1
100
AcDbPoint
 10
96.207962
 20
553.170288
 30
0.0
  0
LINE
  5
D11
330
D18
100
AcDbEntity
  8
0
  6
ByBlock
 62
     7
370
    -2
380
     1
100
AcDbLine
 10
-321.848251
 20
433.1468505
 30
0.0
 11
-321.848251
 21
631.7577987248306
 31
0.0
  0
LINE
  5
D12
330
D18
100
AcDbEntity
  8
0
  6
ByBlock
 62
     7
370
    -2
380
     1
100
AcDbLine
 10
96.20796200000001
 20
553.795288
 30
0.0
 11
96.20796200000001
 21
631.7577987248306
 31
0.0
  0
LINE
  5
D13
330
D18
100
AcDbEntity
  8
0
  6
ByBlock
 62
     7
370
    -2
380
     1
100
AcDbLine
 10
-311.848251
 20
630.5077987248306
 30
0.0
 11
86.20796200000001
 21
630.5077987248306
 31
0.0
  0
SOLID
  5
D14
330
D18
100
AcDbEntity
  8
0
  6
ByBlock
 62
     7
380
     1
100
AcDbTrace
 10
-321.848251
 20
630.5077987248306
 30
0.0
 11
-311.848251
 21
628.841132058164
 31
0.0
 12
-311.848251
 22
632.1744653914973
 32
0.0
 13
-311.848251
 23
632.1744653914973
 33
0.0
  0
SOLID
  5
D15
330
D18
100
AcDbEntity
  8
0
  6
ByBlock
 62
     7
380
     1
100
AcDbTrace
 10
96.20796200000001
 20
630.5077987248306
 30
0.0
 11
86.20796200000001
 21
628.841132058164
 31
0.0
 12
86.20796200000001
 22
632.1744653914973
 32
0.0
 13
86.20796200000001
 23
632.1744653914973
 33
0.0
  0
MTEXT
  5
D16
330
D18
100
AcDbEntity
  8
0
  6
ByBlock
 62
     0
370
    -2
380
     1
100
AcDbMText
 10
-112.0890292420069
 20
643.2105546303425
 30
0.0
 40
14.0
 41
0.0
 71
     5
 72
     1
  1
\A1;418,06
 73
     1
 44
1.0
  0
ENDBLK
  5
E6B
330
D18
100
AcDbEntity
  8
0
100
AcDbBlockEnd
  0
BLOCK
  5
E6C
330
D23
100
AcDbEntity
  8
0
100
AcDbBlockBegin
  2
*D13
 70
     1
 10
0.0
 20
0.0
 30
0.0
  3
*D13
  1

  0
POINT
  5
D1A
330
D23
100
AcDbEntity
  8
DEFPOINTS
  6
ByBlock
 62
     7
380
     1
100
AcDbPoint
 10
-321.848251
 20
432.5218505
 30
0.0
  0
POINT
  5
D1B
330
D23
100
AcDbEntity
  8
DEFPOINTS
  6
ByBlock
 62
     7
380
     1
100
AcDbPoint
 10
96.207962
 20
553.170288
 30
0.0
  0
LINE
  5
D1C
330
D23
100
AcDbEntity
  8
0
  6
ByBlock
 62
     7
370
    -2
380
     1
100
AcDbLine
 10
-321.848251
 20
433.1468505
 30
0.0
 11
-321.848251
 21
631.7577987248306
 31
0.0
  0
LINE
  5
D1D
330
D23
100
AcDbEntity
  8
0
  6
ByBlock
 62
     7
370
    -2
380
     1
100
AcDbLine
 10
96.20796200000001
 20
553.795288
 30
0.0
 11
96.20796200000001
 21
631.7577987248306
 31
0.0
  0
LINE
  5
D1E
330
D23
100
AcDbEntity
  8
0
  6
ByBlock
 62
     7
370
    -2
380
     1
100
AcDbLine
 10
-311.848251
 20
630.5077987248306
 30
0.0
 11
86.20796200000001
 21
630.5077987248306
 31
0.0
  0
SOLID
  5
D1F
330
D23
100
AcDbEntity
  8
0
  6
ByBlock
 62
     7
380
     1
100
AcDbTrace
 10
-321.848251
 20
630.5077987248306
 30
0.0
 11
-311.848251
 21
628.841132058164
 31
0.0
 12
-311.848251
 22
632.1744653914973
 32
0.0
 13
-311.848251
 23
632.1744653914973
 33
0.0
  0
SOLID
  5
D20
330
D23
100
AcDbEntity
  8
0
  6
ByBlock
 62
     7
380
     1
100
AcDbTrace
 10
96.20796200000001
 20
630.5077987248306
 30
0.0
 11
86.20796200000001
 21
628.841132058164
 31
0.0
 12
86.20796200000001
 22
632.1744653914973
 32
0.0
 13
86.20796200000001
 23
632.1744653914973
 33
0.0
  0
MTEXT
  5
D21
330
D23
100
AcDbEntity
  8
0
  6
ByBlock
 62
     0
370
    -2
380
     1
100
AcDbMText
 10
-112.0890292420069
 20
641.8077987248306
 30
0.0
 40
14.0
 41
0.0
 71
     5
 72
     1
  1
418
 73
     1
 44
1.0
  0
ENDBLK
  5
E6D
330
D23
100
AcDbEntity
  8
0
100
AcDbBlockEnd
  0
BLOCK
  5
E6E
330
D2F
100
AcDbEntity
  8
0
100
AcDbBlockBegin
  2
*D14
 70
     1
 10
0.0
 20
0.0
 30
0.0
  3
*D14
  1

  0
POINT
  5
D26
330
D2F
100
AcDbEntity
  8
DEFPOINTS
  6
ByBlock
 62
     0
380
     1
100
AcDbPoint
 10
-52.242294
 20
598.330811
 30
0.0
  0
POINT
  5
D27
330
D2F
100
AcDbEntity
  8
DEFPOINTS
  6
ByBlock
 62
     0
380
     1
100
AcDbPoint
 10
-52.193527
 20
257.314209
 30
0.0
  0
LINE
  5
D28
330
D2F
100
AcDbEntity
  8
0
  6
ByBlock
 62
     0
370
    -2
380
     1
100
AcDbLine
 10
-51.617294
 20
598.330811
 30
0.0
 11
142.1059301075074
 21
598.330811
 31
0.0
  0
LINE
  5
D29
330
D2F
100
AcDbEntity
  8
0
  6
ByBlock
 62
     0
370
    -2
380
     1
100
AcDbLine
 10
-51.568527
 20
257.314209
 30
0.0
 11
142.1059301075074
 21
257.314209
 31
0.0
  0
LINE
  5
D2A
330
D2F
100
AcDbEntity
  8
0
  6
ByBlock
 62
     0
370
    -2
380
     1
100
AcDbLine
 10
140.8559301075074
 20
595.830811
 30
0.0
 11
140.8559301075074
 21
259.814209
 31
0.0
  0
SOLID
  5
D2B
330
D2F
100
AcDbEntity
  8
0
  6
ByBlock
 62
     0
380
     1
100
AcDbTrace
 10
140.8559301075074
 20
598.330811
 30
0.0
 11
140.4392634408408
 21
595.830811
 31
0.0
 12
141.2725967741741
 22
595.830811
 32
0.0
 13
141.2725967741741
 23
595.830811
 33
0.0
  0
SOLID
  5
D2C
330
D2F
100
AcDbEntity
  8
0
  6
ByBlock
 62
     0
380
     1
100
AcDbTrace
 10
140.8559301075074
 20
257.314209
 30
0.0
 11
140.4392634408408
 21
259.814209
 31
0.0
 12
141.2725967741741
 22
259.814209
 32
0.0
 13
141.2725967741741
 23
259.814209
 33
0.0
  0
MTEXT
  5
D2D
330
D2F
100
AcDbEntity
  8
0
  6
ByBlock
 62
     0
370
    -2
380
     1
100
AcDbMText
 10
138.8554379815232
 20
427.82251
 30
0.0
 40
2.5
 41
0.0
 71
     5
 72
     1
  1
\A1;341,02
 11
6.123031769111886E-17
 21
1.0
 31
0.0
 73
     1
 44
1.0
  0
ENDBLK
  5
E6F
330
D2F
100
AcDbEntity
  8
0
100
AcDbBlockEnd
  0
BLOCK
  5
E70
330
D3A
100
AcDbEntity
  8
0
100
AcDbBlockBegin
  2
*D15
 70
     1
 10
0.0
 20
0.0
 30
0.0
  3
*D15
  1

  0
POINT
  5
D31
330
D3A
100
AcDbEntity
  8
DEFPOINTS
  6
ByBlock
 62
     0
380
     1
100
AcDbPoint
 10
-52.242294
 20
598.330811
 30
0.0
  0
POINT
  5
D32
330
D3A
100
AcDbEntity
  8
DEFPOINTS
  6
ByBlock
 62
     0
380
     1
100
AcDbPoint
 10
-52.193527
 20
257.314209
 30
0.0
  0
LINE
  5
D33
330
D3A
100
AcDbEntity
  8
0
  6
ByBlock
 62
     0
370
    -2
380
     1
100
AcDbLine
 10
-51.617294
 20
598.330811
 30
0.0
 11
142.1059301075074
 21
598.330811
 31
0.0
  0
LINE
  5
D34
330
D3A
100
AcDbEntity
  8
0
  6
ByBlock
 62
     0
370
    -2
380
     1
100
AcDbLine
 10
-51.568527
 20
257.314209
 30
0.0
 11
142.1059301075074
 21
257.314209
 31
0.0
  0
LINE
  5
D35
330
D3A
100
AcDbEntity
  8
0
  6
ByBlock
 62
     0
370
    -2
380
     1
100
AcDbLine
 10
140.8559301075074
 20
595.830811
 30
0.0
 11
140.8559301075074
 21
259.814209
 31
0.0
  0
SOLID
  5
D36
330
D3A
100
AcDbEntity
  8
0
  6
ByBlock
 62
     0
380
     1
100
AcDbTrace
 10
140.8559301075074
 20
598.330811
 30
0.0
 11
140.4392634408408
 21
595.830811
 31
0.0
 12
141.2725967741741
 22
595.830811
 32
0.0
 13
141.2725967741741
 23
595.830811
 33
0.0
  0
SOLID
  5
D37
330
D3A
100
AcDbEntity
  8
0
  6
ByBlock
 62
     0
380
     1
100
AcDbTrace
 10
140.8559301075074
 20
257.314209
 30
0.0
 11
140.4392634408408
 21
259.814209
 31
0.0
 12
141.2725967741741
 22
259.814209
 32
0.0
 13
141.2725967741741
 23
259.814209
 33
0.0
  0
MTEXT
  5
D38
330
D3A
100
AcDbEntity
  8
0
  6
ByBlock
 62
     0
370
    -2
380
     1
100
AcDbMText
 10
138.8554379815232
 20
427.82251
 30
0.0
 40
2.5
 41
0.0
 71
     5
 72
     1
  1
\A1;341,02
 11
6.123031769111886E-17
 21
1.0
 31
0.0
 73
     1
 44
1.0
  0
ENDBLK
  5
E71
330
D3A
100
AcDbEntity
  8
0
100
AcDbBlockEnd
  0
BLOCK
  5
E72
330
D45
100
AcDbEntity
  8
0
100
AcDbBlockBegin
  2
*D16
 70
     1
 10
0.0
 20
0.0
 30
0.0
  3
*D16
  1

  0
POINT
  5
D3C
330
D45
100
AcDbEntity
  8
DEFPOINTS
  6
ByBlock
 62
     7
380
     1
100
AcDbPoint
 10
-52.242294
 20
598.330811
 30
0.0
  0
POINT
  5
D3D
330
D45
100
AcDbEntity
  8
DEFPOINTS
  6
ByBlock
 62
     7
380
     1
100
AcDbPoint
 10
-52.193527
 20
257.314209
 30
0.0
  0
LINE
  5
D3E
330
D45
100
AcDbEntity
  8
0
  6
ByBlock
 62
     7
370
    -2
380
     1
100
AcDbLine
 10
-51.617294
 20
598.330811
 30
0.0
 11
142.1059301075074
 21
598.330811
 31
0.0
  0
LINE
  5
D3F
330
D45
100
AcDbEntity
  8
0
  6
ByBlock
 62
     7
370
    -2
380
     1
100
AcDbLine
 10
-51.568527
 20
257.314209
 30
0.0
 11
142.1059301075074
 21
257.314209
 31
0.0
  0
LINE
  5
D40
330
D45
100
AcDbEntity
  8
0
  6
ByBlock
 62
     7
370
    -2
380
     1
100
AcDbLine
 10
140.8559301075074
 20
588.330811
 30
0.0
 11
140.8559301075074
 21
267.314209
 31
0.0
  0
SOLID
  5
D41
330
D45
100
AcDbEntity
  8
0
  6
ByBlock
 62
     7
380
     1
100
AcDbTrace
 10
140.8559301075074
 20
598.330811
 30
0.0
 11
139.1892634408408
 21
588.330811
 31
0.0
 12
142.5225967741741
 22
588.330811
 32
0.0
 13
142.5225967741741
 23
588.330811
 33
0.0
  0
SOLID
  5
D42
330
D45
100
AcDbEntity
  8
0
  6
ByBlock
 62
     7
380
     1
100
AcDbTrace
 10
140.8559301075074
 20
257.314209
 30
0.0
 11
139.1892634408408
 21
267.314209
 31
0.0
 12
142.5225967741741
 22
267.314209
 32
0.0
 13
142.5225967741741
 23
267.314209
 33
0.0
  0
MTEXT
  5
D43
330
D45
100
AcDbEntity
  8
0
  6
ByBlock
 62
     0
370
    -2
380
     1
100
AcDbMText
 10
128.1531742019956
 20
427.82251
 30
0.0
 40
14.0
 41
0.0
 71
     5
 72
     1
  1
\A1;341,02
 11
6.123031769111886E-17
 21
1.0
 31
0.0
 73
     1
 44
1.0
  0
ENDBLK
  5
E73
330
D45
100
AcDbEntity
  8
0
100
AcDbBlockEnd
  0
BLOCK
  5
E74
330
D50
100
AcDbEntity
  8
0
100
AcDbBlockBegin
  2
*D17
 70
     1
 10
0.0
 20
0.0
 30
0.0
  3
*D17
  1

  0
POINT
  5
D47
330
D50
100
AcDbEntity
  8
DEFPOINTS
  6
ByBlock
 62
     7
380
     1
100
AcDbPoint
 10
-52.242294
 20
598.330811
 30
0.0
  0
POINT
  5
D48
330
D50
100
AcDbEntity
  8
DEFPOINTS
  6
ByBlock
 62
     7
380
     1
100
AcDbPoint
 10
-52.193527
 20
257.314209
 30
0.0
  0
LINE
  5
D49
330
D50
100
AcDbEntity
  8
0
  6
ByBlock
 62
     7
370
    -2
380
     1
100
AcDbLine
 10
-51.617294
 20
598.330811
 30
0.0
 11
142.1059301075074
 21
598.330811
 31
0.0
  0
LINE
  5
D4A
330
D50
100
AcDbEntity
  8
0
  6
ByBlock
 62
     7
370
    -2
380
     1
100
AcDbLine
 10
-51.568527
 20
257.314209
 30
0.0
 11
142.1059301075074
 21
257.314209
 31
0.0
  0
LINE
  5
D4B
330
D50
100
AcDbEntity
  8
0
  6
ByBlock
 62
     7
370
    -2
380
     1
100
AcDbLine
 10
140.8559301075074
 20
588.330811
 30
0.0
 11
140.8559301075074
 21
267.314209
 31
0.0
  0
SOLID
  5
D4C
330
D50
100
AcDbEntity
  8
0
  6
ByBlock
 62
     7
380
     1
100
AcDbTrace
 10
140.8559301075074
 20
598.330811
 30
0.0
 11
139.1892634408408
 21
588.330811
 31
0.0
 12
142.5225967741741
 22
588.330811
 32
0.0
 13
142.5225967741741
 23
588.330811
 33
0.0
  0
SOLID
  5
D4D
330
D50
100
AcDbEntity
  8
0
  6
ByBlock
 62
     7
380
     1
100
AcDbTrace
 10
140.8559301075074
 20
257.314209
 30
0.0
 11
139.1892634408408
 21
267.314209
 31
0.0
 12
142.5225967741741
 22
267.314209
 32
0.0
 13
142.5225967741741
 23
267.314209
 33
0.0
  0
MTEXT
  5
D4E
330
D50
100
AcDbEntity
  8
0
  6
ByBlock
 62
     0
370
    -2
380
     1
100
AcDbMText
 10
129.5559301075074
 20
427.82251
 30
0.0
 40
14.0
 41
0.0
 71
     5
 72
     1
  1
314
 11
6.123031769111886E-17
 21
1.0
 31
0.0
 73
     1
 44
1.0
  0
ENDBLK
  5
E75
330
D50
100
AcDbEntity
  8
0
100
AcDbBlockEnd
  0
BLOCK
  5
E76
330
E0C
100
AcDbEntity
  8
0
100
AcDbBlockBegin
  2
*D18
 70
     1
 10
0.0
 20
0.0
 30
0.0
  3
*D18
  1

  0
POINT
  5
E03
330
E0C
100
AcDbEntity
  8
DEFPOINTS
  6
ByBlock
 62
     7
380
     1
100
AcDbPoint
 10
-448.42778
 20
551.113403
 30
0.0
  0
POINT
  5
E04
330
E0C
100
AcDbEntity
  8
DEFPOINTS
  6
ByBlock
 62
     7
380
     1
100
AcDbPoint
 10
-366.66185
 20
557.2258114433325
 30
0.0
  0
LINE
  5
E05
330
E0C
100
AcDbEntity
  8
0
  6
ByBlock
 62
     7
370
    -2
380
     1
100
AcDbLine
 10
-448.42778
 20
551.738403
 30
0.0
 11
-448.42778
 21
631.7577987248306
 31
0.0
  0
LINE
  5
E06
330
E0C
100
AcDbEntity
  8
0
  6
ByBlock
 62
     7
370
    -2
380
     1
100
AcDbLine
 10
-366.66185
 20
557.8508114433325
 30
0.0
 11
-366.66185
 21
631.7577987248306
 31
0.0
  0
LINE
  5
E07
330
E0C
100
AcDbEntity
  8
0
  6
ByBlock
 62
     7
370
    -2
380
     1
100
AcDbLine
 10
-438.42778
 20
630.5077987248306
 30
0.0
 11
-376.66185
 21
630.5077987248306
 31
0.0
  0
SOLID
  5
E08
330
E0C
100
AcDbEntity
  8
0
  6
ByBlock
 62
     7
380
     1
100
AcDbTrace
 10
-448.42778
 20
630.5077987248306
 30
0.0
 11
-438.42778
 21
628.841132058164
 31
0.0
 12
-438.42778
 22
632.1744653914973
 32
0.0
 13
-438.42778
 23
632.1744653914973
 33
0.0
  0
SOLID
  5
E09
330
E0C
100
AcDbEntity
  8
0
  6
ByBlock
 62
     7
380
     1
100
AcDbTrace
 10
-366.66185
 20
630.5077987248306
 30
0.0
 11
-376.66185
 21
628.841132058164
 31
0.0
 12
-376.66185
 22
632.1744653914973
 32
0.0
 13
-376.66185
 23
632.1744653914973
 33
0.0
  0
MTEXT
  5
E0A
330
E0C
100
AcDbEntity
  8
0
  6
ByBlock
 62
     0
370
    -2
380
     1
100
AcDbMText
 10
-409.739153342162
 20
656.7077987248307
 30
0.0
 40
36.0
 41
0.0
 71
     5
 72
     1
  1
82
 73
     1
 44
1.0
  0
ENDBLK
  5
E77
330
E0C
100
AcDbEntity
  8
0
100
AcDbBlockEnd
  0
BLOCK
  5
E78
330
E17
100
AcDbEntity
  8
0
100
AcDbBlockBegin
  2
*D19
 70
     1
 10
0.0
 20
0.0
 30
0.0
  3
*D19
  1

  0
POINT
  5
E0E
330
E17
100
AcDbEntity
  8
DEFPOINTS
  6
ByBlock
 62
     7
380
     1
100
AcDbPoint
 10
-448.42778
 20
551.113403
 30
0.0
  0
POINT
  5
E0F
330
E17
100
AcDbEntity
  8
DEFPOINTS
  6
ByBlock
 62
     7
380
     1
100
AcDbPoint
 10
-366.66185
 20
557.2258114433325
 30
0.0
  0
LINE
  5
E10
330
E17
100
AcDbEntity
  8
0
  6
ByBlock
 62
     7
370
    -2
380
     1
100
AcDbLine
 10
-448.42778
 20
551.738403
 30
0.0
 11
-448.42778
 21
631.7577987248306
 31
0.0
  0
LINE
  5
E11
330
E17
100
AcDbEntity
  8
0
  6
ByBlock
 62
     7
370
    -2
380
     1
100
AcDbLine
 10
-366.66185
 20
557.8508114433325
 30
0.0
 11
-366.66185
 21
631.7577987248306
 31
0.0
  0
LINE
  5
E12
330
E17
100
AcDbEntity
  8
0
  6
ByBlock
 62
     7
370
    -2
380
     1
100
AcDbLine
 10
-438.42778
 20
630.5077987248306
 30
0.0
 11
-376.66185
 21
630.5077987248306
 31
0.0
  0
SOLID
  5
E13
330
E17
100
AcDbEntity
  8
0
  6
ByBlock
 62
     7
380
     1
100
AcDbTrace
 10
-448.42778
 20
630.5077987248306
 30
0.0
 11
-438.42778
 21
628.841132058164
 31
0.0
 12
-438.42778
 22
632.1744653914973
 32
0.0
 13
-438.42778
 23
632.1744653914973
 33
0.0
  0
SOLID
  5
E14
330
E17
100
AcDbEntity
  8
0
  6
ByBlock
 62
     7
380
     1
100
AcDbTrace
 10
-366.66185
 20
630.5077987248306
 30
0.0
 11
-376.66185
 21
628.841132058164
 31
0.0
 12
-376.66185
 22
632.1744653914973
 32
0.0
 13
-376.66185
 23
632.1744653914973
 33
0.0
  0
MTEXT
  5
E15
330
E17
100
AcDbEntity
  8
0
  6
ByBlock
 62
     0
370
    -2
380
     1
100
AcDbMText
 10
-409.739153342162
 20
656.7077987248307
 30
0.0
 40
36.0
 41
0.0
 71
     5
 72
     1
  1
82
 73
     1
 44
1.0
  0
ENDBLK
  5
E79
330
E17
100
AcDbEntity
  8
0
100
AcDbBlockEnd
  0
BLOCK
  5
E7A
330
E22
100
AcDbEntity
  8
0
100
AcDbBlockBegin
  2
*D20
 70
     1
 10
0.0
 20
0.0
 30
0.0
  3
*D20
  1

  0
POINT
  5
E19
330
E22
100
AcDbEntity
  8
DEFPOINTS
  6
ByBlock
 62
     7
380
     1
100
AcDbPoint
 10
-321.848251
 20
432.5218505
 30
0.0
  0
POINT
  5
E1A
330
E22
100
AcDbEntity
  8
DEFPOINTS
  6
ByBlock
 62
     7
380
     1
100
AcDbPoint
 10
96.207962
 20
553.170288
 30
0.0
  0
LINE
  5
E1B
330
E22
100
AcDbEntity
  8
0
  6
ByBlock
 62
     7
370
    -2
380
     1
100
AcDbLine
 10
-321.848251
 20
433.1468505
 30
0.0
 11
-321.848251
 21
631.7577987248306
 31
0.0
  0
LINE
  5
E1C
330
E22
100
AcDbEntity
  8
0
  6
ByBlock
 62
     7
370
    -2
380
     1
100
AcDbLine
 10
96.20796200000001
 20
553.795288
 30
0.0
 11
96.20796200000001
 21
631.7577987248306
 31
0.0
  0
LINE
  5
E1D
330
E22
100
AcDbEntity
  8
0
  6
ByBlock
 62
     7
370
    -2
380
     1
100
AcDbLine
 10
-311.848251
 20
630.5077987248306
 30
0.0
 11
86.20796200000001
 21
630.5077987248306
 31
0.0
  0
SOLID
  5
E1E
330
E22
100
AcDbEntity
  8
0
  6
ByBlock
 62
     7
380
     1
100
AcDbTrace
 10
-321.848251
 20
630.5077987248306
 30
0.0
 11
-311.848251
 21
628.841132058164
 31
0.0
 12
-311.848251
 22
632.1744653914973
 32
0.0
 13
-311.848251
 23
632.1744653914973
 33
0.0
  0
SOLID
  5
E1F
330
E22
100
AcDbEntity
  8
0
  6
ByBlock
 62
     7
380
     1
100
AcDbTrace
 10
96.20796200000001
 20
630.5077987248306
 30
0.0
 11
86.20796200000001
 21
628.841132058164
 31
0.0
 12
86.20796200000001
 22
632.1744653914973
 32
0.0
 13
86.20796200000001
 23
632.1744653914973
 33
0.0
  0
MTEXT
  5
E20
330
E22
100
AcDbEntity
  8
0
  6
ByBlock
 62
     0
370
    -2
380
     1
100
AcDbMText
 10
-112.0890292420069
 20
656.7077987248307
 30
0.0
 40
36.0
 41
0.0
 71
     5
 72
     1
  1
418
 73
     1
 44
1.0
  0
ENDBLK
  5
E7B
330
E22
100
AcDbEntity
  8
0
100
AcDbBlockEnd
  0
BLOCK
  5
E7C
330
E2E
100
AcDbEntity
  8
0
100
AcDbBlockBegin
  2
*D21
 70
     1
 10
0.0
 20
0.0
 30
0.0
  3
*D21
  1

  0
POINT
  5
E25
330
E2E
100
AcDbEntity
  8
DEFPOINTS
  6
ByBlock
 62
     0
380
     1
100
AcDbPoint
 10
-52.242294
 20
598.330811
 30
0.0
  0
POINT
  5
E26
330
E2E
100
AcDbEntity
  8
DEFPOINTS
  6
ByBlock
 62
     0
380
     1
100
AcDbPoint
 10
-52.193527
 20
257.314209
 30
0.0
  0
LINE
  5
E27
330
E2E
100
AcDbEntity
  8
0
  6
ByBlock
 62
     0
370
    -2
380
     1
100
AcDbLine
 10
-51.617294
 20
598.330811
 30
0.0
 11
148.6390043828628
 21
598.330811
 31
0.0
  0
LINE
  5
E28
330
E2E
100
AcDbEntity
  8
0
  6
ByBlock
 62
     0
370
    -2
380
     1
100
AcDbLine
 10
-51.568527
 20
257.314209
 30
0.0
 11
148.6390043828628
 21
257.314209
 31
0.0
  0
LINE
  5
E29
330
E2E
100
AcDbEntity
  8
0
  6
ByBlock
 62
     0
370
    -2
380
     1
100
AcDbLine
 10
147.3890043828628
 20
595.830811
 30
0.0
 11
147.3890043828628
 21
259.814209
 31
0.0
  0
SOLID
  5
E2A
330
E2E
100
AcDbEntity
  8
0
  6
ByBlock
 62
     0
380
     1
100
AcDbTrace
 10
147.3890043828628
 20
598.330811
 30
0.0
 11
146.9723377161961
 21
595.830811
 31
0.0
 12
147.8056710495295
 22
595.830811
 32
0.0
 13
147.8056710495295
 23
595.830811
 33
0.0
  0
SOLID
  5
E2B
330
E2E
100
AcDbEntity
  8
0
  6
ByBlock
 62
     0
380
     1
100
AcDbTrace
 10
147.3890043828628
 20
257.314209
 30
0.0
 11
146.9723377161961
 21
259.814209
 31
0.0
 12
147.8056710495295
 22
259.814209
 32
0.0
 13
147.8056710495295
 23
259.814209
 33
0.0
  0
MTEXT
  5
E2C
330
E2E
100
AcDbEntity
  8
0
  6
ByBlock
 62
     0
370
    -2
380
     1
100
AcDbMText
 10
145.3885122568785
 20
427.82251
 30
0.0
 40
2.5
 41
0.0
 71
     5
 72
     1
  1
\A1;341,02
 11
6.123031769111886E-17
 21
1.0
 31
0.0
 73
     1
 44
1.0
  0
ENDBLK
  5
E7D
330
E2E
100
AcDbEntity
  8
0
100
AcDbBlockEnd
  0
BLOCK
  5
E7E
330
E39
100
AcDbEntity
  8
0
100
AcDbBlockBegin
  2
*D22
 70
     1
 10
0.0
 20
0.0
 30
0.0
  3
*D22
  1

  0
POINT
  5
E30
330
E39
100
AcDbEntity
  8
DEFPOINTS
  6
ByBlock
 62
     0
380
     1
100
AcDbPoint
 10
-52.242294
 20
598.330811
 30
0.0
  0
POINT
  5
E31
330
E39
100
AcDbEntity
  8
DEFPOINTS
  6
ByBlock
 62
     0
380
     1
100
AcDbPoint
 10
-52.193527
 20
257.314209
 30
0.0
  0
LINE
  5
E32
330
E39
100
AcDbEntity
  8
0
  6
ByBlock
 62
     0
370
    -2
380
     1
100
AcDbLine
 10
-51.617294
 20
598.330811
 30
0.0
 11
148.6390043828628
 21
598.330811
 31
0.0
  0
LINE
  5
E33
330
E39
100
AcDbEntity
  8
0
  6
ByBlock
 62
     0
370
    -2
380
     1
100
AcDbLine
 10
-51.568527
 20
257.314209
 30
0.0
 11
148.6390043828628
 21
257.314209
 31
0.0
  0
LINE
  5
E34
330
E39
100
AcDbEntity
  8
0
  6
ByBlock
 62
     0
370
    -2
380
     1
100
AcDbLine
 10
147.3890043828628
 20
588.330811
 30
0.0
 11
147.3890043828628
 21
267.314209
 31
0.0
  0
SOLID
  5
E35
330
E39
100
AcDbEntity
  8
0
  6
ByBlock
 62
     0
380
     1
100
AcDbTrace
 10
147.3890043828628
 20
598.330811
 30
0.0
 11
145.7223377161961
 21
588.330811
 31
0.0
 12
149.0556710495295
 22
588.330811
 32
0.0
 13
149.0556710495295
 23
588.330811
 33
0.0
  0
SOLID
  5
E36
330
E39
100
AcDbEntity
  8
0
  6
ByBlock
 62
     0
380
     1
100
AcDbTrace
 10
147.3890043828628
 20
257.314209
 30
0.0
 11
145.7223377161961
 21
267.314209
 31
0.0
 12
149.0556710495295
 22
267.314209
 32
0.0
 13
149.0556710495295
 23
267.314209
 33
0.0
  0
MTEXT
  5
E37
330
E39
100
AcDbEntity
  8
0
  6
ByBlock
 62
     0
370
    -2
380
     1
100
AcDbMText
 10
121.1890043828628
 20
427.82251
 30
0.0
 40
36.0
 41
0.0
 71
     5
 72
     1
  1
\A1;341
 11
6.123031769111886E-17
 21
1.0
 31
0.0
 73
     1
 44
1.0
  0
ENDBLK
  5
E7F
330
E39
100
AcDbEntity
  8
0
100
AcDbBlockEnd
  0
BLOCK
  5
E80
330
E44
100
AcDbEntity
  8
0
100
AcDbBlockBegin
  2
*D23
 70
     1
 10
0.0
 20
0.0
 30
0.0
  3
*D23
  1

  0
POINT
  5
E3B
330
E44
100
AcDbEntity
  8
DEFPOINTS
  6
ByBlock
 62
     0
380
     1
100
AcDbPoint
 10
-52.242294
 20
598.330811
 30
0.0
  0
POINT
  5
E3C
330
E44
100
AcDbEntity
  8
DEFPOINTS
  6
ByBlock
 62
     0
380
     1
100
AcDbPoint
 10
-52.193527
 20
257.314209
 30
0.0
  0
LINE
  5
E3D
330
E44
100
AcDbEntity
  8
0
  6
ByBlock
 62
     0
370
    -2
380
     1
100
AcDbLine
 10
-51.617294
 20
598.330811
 30
0.0
 11
148.6390043828628
 21
598.330811
 31
0.0
  0
LINE
  5
E3E
330
E44
100
AcDbEntity
  8
0
  6
ByBlock
 62
     0
370
    -2
380
     1
100
AcDbLine
 10
-51.568527
 20
257.314209
 30
0.0
 11
148.6390043828628
 21
257.314209
 31
0.0
  0
LINE
  5
E3F
330
E44
100
AcDbEntity
  8
0
  6
ByBlock
 62
     0
370
    -2
380
     1
100
AcDbLine
 10
147.3890043828628
 20
588.330811
 30
0.0
 11
147.3890043828628
 21
267.314209
 31
0.0
  0
SOLID
  5
E40
330
E44
100
AcDbEntity
  8
0
  6
ByBlock
 62
     0
380
     1
100
AcDbTrace
 10
147.3890043828628
 20
598.330811
 30
0.0
 11
145.7223377161961
 21
588.330811
 31
0.0
 12
149.0556710495295
 22
588.330811
 32
0.0
 13
149.0556710495295
 23
588.330811
 33
0.0
  0
SOLID
  5
E41
330
E44
100
AcDbEntity
  8
0
  6
ByBlock
 62
     0
380
     1
100
AcDbTrace
 10
147.3890043828628
 20
257.314209
 30
0.0
 11
145.7223377161961
 21
267.314209
 31
0.0
 12
149.0556710495295
 22
267.314209
 32
0.0
 13
149.0556710495295
 23
267.314209
 33
0.0
  0
MTEXT
  5
E42
330
E44
100
AcDbEntity
  8
0
  6
ByBlock
 62
     0
370
    -2
380
     1
100
AcDbMText
 10
121.1890043828628
 20
427.82251
 30
0.0
 40
36.0
 41
0.0
 71
     5
 72
     1
  1
\A1;341
 11
6.123031769111886E-17
 21
1.0
 31
0.0
 73
     1
 44
1.0
  0
ENDBLK
  5
E81
330
E44
100
AcDbEntity
  8
0
100
AcDbBlockEnd
  0
ENDSEC
  0
SECTION
  2
ENTITIES
  0
POINT
  5
33
330
1F
100
AcDbEntity
  8
2
370
    60
390
F
100
AcDbPoint
 10
-27.333054
 20
591.23584
 30
0.0
  0
POINT
  5
34
330
1F
100
AcDbEntity
  8
2
370
    60
390
F
100
AcDbPoint
 10
6.181107
 20
591.23584
 30
0.0
  0
POINT
  5
35
330
1F
100
AcDbEntity
  8
2
370
    60
390
F
100
AcDbPoint
 10
-10.575974
 20
574.47876
 30
0.0
  0
POINT
  5
36
330
1F
100
AcDbEntity
  8
2
370
    60
390
F
100
AcDbPoint
 10
-10.575974
 20
607.99292
 30
0.0
  0
POINT
  5
37
330
1F
100
AcDbEntity
  8
2
370
    60
390
F
100
AcDbPoint
 10
-274.182358
 20
534.449402
 30
0.0
  0
POINT
  5
38
330
1F
100
AcDbEntity
  8
2
370
    60
390
F
100
AcDbPoint
 10
-274.182358
 20
567.961792
 30
0.0
  0
POINT
  5
39
330
1F
100
AcDbEntity
  8
2
370
    60
390
F
100
AcDbPoint
 10
-257.426193
 20
551.205566
 30
0.0
  0
POINT
  5
3A
330
1F
100
AcDbEntity
  8
2
370
    60
390
F
100
AcDbPoint
 10
-274.182358
 20
287.683411
 30
0.0
  0
POINT
  5
3B
330
1F
100
AcDbEntity
  8
2
370
    60
390
F
100
AcDbPoint
 10
-274.182358
 20
321.195801
 30
0.0
  0
POINT
  5
3C
330
1F
100
AcDbEntity
  8
2
370
    60
390
F
100
AcDbPoint
 10
-290.938522
 20
304.439606
 30
0.0
  0
POINT
  5
3D
330
1F
100
AcDbEntity
  8
2
370
    60
390
F
100
AcDbPoint
 10
-257.426132
 20
304.439606
 30
0.0
  0
POINT
  5
3E
330
1F
100
AcDbEntity
  8
2
370
    60
390
F
100
AcDbPoint
 10
-10.576096
 20
281.166321
 30
0.0
  0
POINT
  5
3F
330
1F
100
AcDbEntity
  8
2
370
    60
390
F
100
AcDbPoint
 10
-27.333176
 20
264.409241
 30
0.0
  0
POINT
  5
40
330
1F
100
AcDbEntity
  8
2
370
    60
390
F
100
AcDbPoint
 10
6.180984
 20
264.409241
 30
0.0
  0
LWPOLYLINE
  5
41
330
1F
100
AcDbEntity
  8
2
370
    60
390
F
100
AcDbPolyline
 90
        3
 70
     0
 43
0.0
 10
-448.298874
 20
307.364105
 10
-448.201584
 20
307.446716
 10
-447.805344
 20
307.645813
  0
LWPOLYLINE
  5
46
330
1F
100
AcDbEntity
  8
2
370
    60
390
F
100
AcDbPolyline
 90
        3
 70
     0
 43
0.0
 10
-447.805344
 20
307.645813
 10
-446.687119
 20
308.024414
 10
-446.679977
 20
308.02655
  0
LINE
  5
4B
330
1F
100
AcDbEntity
  8
2
 48
0.047153
370
    60
390
F
100
AcDbLine
 10
-446.679977
 20
308.02655
 30
0.0
 11
-444.856186
 21
308.507477
 31
0.0
  0
LINE
  5
4C
330
1F
100
AcDbEntity
  8
2
 48
0.066229
370
    60
390
F
100
AcDbLine
 10
-444.856186
 20
308.507477
 30
0.0
 11
-442.270065
 21
309.082031
 31
0.0
  0
LWPOLYLINE
  5
4D
330
1F
100
AcDbEntity
  8
2
370
    60
390
F
100
AcDbPolyline
 90
        3
 70
     0
 43
0.0
 10
-442.270065
 20
309.082031
 10
-437.929001
 20
309.900696
 10
-436.948715
 20
310.076904
  0
LWPOLYLINE
  5
52
330
1F
100
AcDbEntity
  8
2
370
    60
390
F
100
AcDbPolyline
 90
       10
 70
     0
 43
0.0
 10
-368.040146
 20
284.068359
 10
-372.970505
 20
285.755676
 10
-378.232468
 20
287.717834
 10
-383.890305
 20
289.989197
 10
-390.028732
 20
292.615173
 10
-394.473984
 20
294.606293
 10
-401.682175
 20
297.969299
 10
-405.565475
 20
299.844116
 10
-409.362595
 20
301.721619
 10
-413.186813
 20
303.663635
  0
LWPOLYLINE
  5
D7E
330
1F
100
AcDbEntity
  8
2
370
    60
390
F
100
AcDbPolyline
 90
        8
 70
     0
 43
0.0
 10
-413.186813
 20
303.663635
 10
-414.683212
 20
304.381592
 10
-416.138107
 20
305.008911
 10
-418.756027
 20
306.018372
 10
-419.157394
 20
306.159973
 10
-420.261703
 20
306.52182
 10
-420.901352
 20
306.672974
 10
-420.907455
 20
306.67334
  0
LWPOLYLINE
  5
68
330
1F
100
AcDbEntity
  8
2
370
    60
390
F
100
AcDbPolyline
 90
        8
 70
     0
 43
0.0
 10
-421.583298
 20
306.725555
 10
-425.079514
 20
306.985077
 10
-425.147385
 20
306.989258
 10
-426.049606
 20
307.04303
 10
-430.714096
 20
307.236176
 10
-435.600143
 20
307.291931
 10
-436.348312
 20
307.28775
 10
-440.717819
 20
307.206635
  0
LINE
  5
72
330
1F
100
AcDbEntity
  8
2
 48
0.109089
370
    60
390
F
100
AcDbLine
 10
-440.717819
 20
307.206635
 30
0.0
 11
-445.079636
 21
307.083069
 31
0.0
  0
LWPOLYLINE
  5
D7F
330
1F
100
AcDbEntity
  8
2
370
    60
390
F
100
AcDbPolyline
 90
        4
 70
     0
 43
0.0
 10
-445.079636
 20
307.083069
 10
-446.709152
 20
307.085663
 10
-447.603928
 20
307.163452
 10
-447.603928
 20
307.163452
  0
LWPOLYLINE
  5
79
330
1F
100
AcDbEntity
  8
2
370
    60
390
F
100
AcDbPolyline
 90
        3
 70
     0
 43
0.0
 10
-366.661911
 20
282.899445
 10
-366.68309
 20
283.036224
 10
-366.83165
 20
283.304382
  0
LINE
  5
7E
330
1F
100
AcDbEntity
  8
2
 48
0.342945
370
    60
390
F
100
AcDbLine
 10
-447.604599
 20
303.981384
 30
0.0
 11
-434.66716
 21
299.420563
 31
0.0
  0
LINE
  5
7F
330
1F
100
AcDbEntity
  8
2
 48
0.235471
370
    60
390
F
100
AcDbLine
 10
-434.66716
 20
299.420563
 30
0.0
 11
-425.815353
 21
296.201874
 31
0.0
  0
LINE
  5
80
330
1F
100
AcDbEntity
  8
2
 48
0.425
370
    60
390
F
100
AcDbLine
 10
-425.815353
 20
296.201874
 30
0.0
 11
-409.841293
 21
290.38562
 31
0.0
  0
LINE
  5
81
330
1F
100
AcDbEntity
  8
2
 48
0.342332
370
    60
390
F
100
AcDbLine
 10
-409.841293
 20
290.38562
 30
0.0
 11
-396.953964
 21
285.757202
 31
0.0
  0
LINE
  5
82
330
1F
100
AcDbEntity
  8
2
 48
0.235575
370
    60
390
F
100
AcDbLine
 10
-396.953964
 20
285.757202
 30
0.0
 11
-388.084335
 21
282.575623
 31
0.0
  0
LWPOLYLINE
  5
83
330
1F
100
AcDbEntity
  8
2
370
    60
390
F
100
AcDbPolyline
 90
        3
 70
     0
 43
0.0
 10
-388.084335
 20
282.575623
 10
-379.009872
 20
279.348206
 10
-370.003342
 20
276.20282
  0
LWPOLYLINE
  5
88
330
1F
100
AcDbEntity
  8
2
370
    60
390
F
100
AcDbPolyline
 90
        3
 70
     0
 43
0.0
 10
-447.904587
 20
304.090881
 10
-447.807541
 20
304.036957
 10
-447.604599
 20
303.981384
  0
LWPOLYLINE
  5
8D
330
1F
100
AcDbEntity
  8
2
370
    60
390
F
100
AcDbPolyline
 90
        3
 70
     0
 43
0.0
 10
-406.699631
 20
335.450623
 10
-405.001816
 20
338.743591
 10
-404.736984
 20
339.288971
  0
LWPOLYLINE
  5
D80
330
1F
100
AcDbEntity
  8
2
370
    60
390
F
100
AcDbPolyline
 90
       13
 70
     0
 43
0.0
 10
-404.556442
 20
339.666077
 10
-403.739365
 20
341.430054
 10
-402.943466
 20
343.244568
 10
-401.418137
 20
347.025269
 10
-401.053024
 20
347.997498
 10
-399.96489
 20
351.075684
 10
-399.29686
 20
353.119537
 10
-398.657089
 20
355.207306
 10
-397.990341
 20
357.541199
 10
-396.863388
 20
361.940979
 10
-396.307846
 20
364.382751
 10
-395.39299
 20
368.911102
 10
-394.940109
 20
371.497528
  0
LINE
  5
D81
330
1F
100
AcDbEntity
  8
2
 48
0.025253
370
    60
390
F
100
AcDbLine
 10
-409.822556
 20
330.186462
 30
0.0
 11
-409.278732
 21
331.03772
 31
0.0
  0
LWPOLYLINE
  5
D82
330
1F
100
AcDbEntity
  8
2
370
    60
390
F
100
AcDbPolyline
 90
        3
 70
     0
 43
0.0
 10
-394.940048
 20
371.49765
 10
-394.855392
 20
372.358826
 10
-394.793747
 20
373.175262
  0
LWPOLYLINE
  5
D83
330
1F
100
AcDbEntity
  8
2
370
    60
390
F
100
AcDbPolyline
 90
        3
 70
     0
 43
0.0
 10
-394.793747
 20
373.175262
 10
-394.545944
 20
374.895813
 10
-393.891525
 20
379.808746
  0
LWPOLYLINE
  5
D84
330
1F
100
AcDbEntity
  8
2
370
    60
390
F
100
AcDbPolyline
 90
        9
 70
     0
 43
0.0
 10
-393.891525
 20
379.808746
 10
-393.550949
 20
382.877716
 10
-393.250534
 20
385.961853
 10
-392.773239
 20
392.082581
 10
-392.694809
 20
393.315704
 10
-392.358749
 20
400.01178
 10
-392.133408
 20
407.503845
 10
-392.015244
 20
416.27063
 10
-391.987961
 20
426.572601
  0
LINE
  5
D85
330
1F
100
AcDbEntity
  8
2
 48
0.172832
370
    60
390
F
100
AcDbLine
 10
-391.9879
 20
427.82251
 30
0.0
 11
-391.994125
 21
420.909241
 31
0.0
  0
LINE
  5
D86
330
1F
100
AcDbEntity
  8
2
 48
0.153521
370
    60
390
F
100
AcDbLine
 10
-392.335678
 20
400.497955
 30
0.0
 11
-392.623825
 21
394.363892
 31
0.0
  0
LINE
  5
D87
330
1F
100
AcDbEntity
  8
2
 48
0.131172
370
    60
390
F
100
AcDbLine
 10
-392.898544
 20
390.073975
 30
0.0
 11
-393.330551
 21
384.84491
 31
0.0
  0
LINE
  5
D88
330
1F
100
AcDbEntity
  8
2
 48
0.172836
370
    60
390
F
100
AcDbLine
 10
-391.9879
 20
427.82251
 30
0.0
 11
-391.994125
 21
434.735962
 31
0.0
  0
LINE
  5
BB
330
1F
100
AcDbEntity
  8
2
 48
0.131172
370
    60
390
F
100
AcDbLine
 10
-392.898544
 20
465.571228
 30
0.0
 11
-393.330551
 21
470.800293
 31
0.0
  0
LINE
  5
BC
330
1F
100
AcDbEntity
  8
2
 48
0.153521
370
    60
390
F
100
AcDbLine
 10
-392.335678
 20
455.147247
 30
0.0
 11
-392.623825
 21
461.281311
 31
0.0
  0
LWPOLYLINE
  5
BD
330
1F
100
AcDbEntity
  8
2
370
    60
390
F
100
AcDbPolyline
 90
        3
 70
     0
 43
0.0
 10
-448.298874
 20
548.281128
 10
-448.201645
 20
548.198486
 10
-447.805344
 20
547.99939
  0
LWPOLYLINE
  5
C2
330
1F
100
AcDbEntity
  8
2
370
    60
390
F
100
AcDbPolyline
 90
        3
 70
     0
 43
0.0
 10
-447.805344
 20
547.99939
 10
-446.68718
 20
547.620789
 10
-446.679977
 20
547.618652
  0
LINE
  5
C7
330
1F
100
AcDbEntity
  8
2
 48
0.047154
370
    60
390
F
100
AcDbLine
 10
-446.679977
 20
547.618652
 30
0.0
 11
-444.856186
 21
547.137695
 31
0.0
  0
LINE
  5
C8
330
1F
100
AcDbEntity
  8
2
 48
0.066229
370
    60
390
F
100
AcDbLine
 10
-444.856186
 20
547.137695
 30
0.0
 11
-442.270065
 21
546.563171
 31
0.0
  0
LWPOLYLINE
  5
C9
330
1F
100
AcDbEntity
  8
2
370
    60
390
F
100
AcDbPolyline
 90
        3
 70
     0
 43
0.0
 10
-442.270065
 20
546.563171
 10
-437.929916
 20
545.74469
 10
-436.948715
 20
545.568298
  0
LINE
  5
CE
330
1F
100
AcDbEntity
  8
2
370
    60
390
F
100
AcDbLine
 10
-447.604599
 20
551.663818
 30
0.0
 11
-428.350754
 21
558.46405
 31
0.0
  0
LWPOLYLINE
  5
CF
330
1F
100
AcDbEntity
  8
2
370
    60
390
F
100
AcDbPolyline
 90
        3
 70
     0
 43
0.0
 10
-428.350754
 20
558.46405
 10
-419.112839
 20
561.823608
 10
-417.282272
 20
562.499146
  0
LWPOLYLINE
  5
D4
330
1F
100
AcDbEntity
  8
2
370
    60
390
F
100
AcDbPolyline
 90
        3
 70
     0
 43
0.0
 10
-417.282272
 20
562.499146
 10
-400.155197
 20
568.742188
 10
-398.759384
 20
569.245972
  0
LWPOLYLINE
  5
D9
330
1F
100
AcDbEntity
  8
2
370
    60
390
F
100
AcDbPolyline
 90
        3
 70
     0
 43
0.0
 10
-398.759384
 20
569.245972
 10
-388.690048
 20
572.857544
 10
-380.652878
 20
575.69458
  0
LINE
  5
DE
330
1F
100
AcDbEntity
  8
2
 48
0.282414
370
    60
390
F
100
AcDbLine
 10
-380.652878
 20
575.69458
 30
0.0
 11
-370.000595
 21
579.455017
 31
0.0
  0
LWPOLYLINE
  5
DF
330
1F
100
AcDbEntity
  8
2
370
    60
390
F
100
AcDbPolyline
 90
        3
 70
     0
 43
0.0
 10
-447.904587
 20
551.554321
 10
-447.807541
 20
551.608276
 10
-447.604599
 20
551.663818
  0
LWPOLYLINE
  5
E4
330
1F
100
AcDbEntity
  8
2
370
    60
390
F
100
AcDbPolyline
 90
        3
 70
     0
 43
0.0
 10
-394.940048
 20
484.147552
 10
-394.855392
 20
483.286377
 10
-394.793747
 20
482.46994
  0
LWPOLYLINE
  5
E9
330
1F
100
AcDbEntity
  8
2
370
    60
390
F
100
AcDbPolyline
 90
        3
 70
     0
 43
0.0
 10
-394.793747
 20
482.46994
 10
-394.545944
 20
480.749451
 10
-393.891525
 20
475.836456
  0
LWPOLYLINE
  5
EE
330
1F
100
AcDbEntity
  8
2
370
    60
390
F
100
AcDbPolyline
 90
        9
 70
     0
 43
0.0
 10
-393.891525
 20
475.836456
 10
-393.550888
 20
472.766541
 10
-393.250351
 20
469.681488
 10
-392.773117
 20
463.560699
 10
-392.694809
 20
462.329498
 10
-392.358749
 20
455.633331
 10
-392.133408
 20
448.141266
 10
-392.015244
 20
439.374451
 10
-391.987961
 20
429.072601
  0
LWPOLYLINE
  5
F9
330
1F
100
AcDbEntity
  8
2
370
    60
390
F
100
AcDbPolyline
 90
       12
 70
     0
 43
0.0
 10
-404.556442
 20
515.979126
 10
-402.94426
 20
512.402588
 10
-401.41893
 20
508.622009
 10
-401.053024
 20
507.647705
 10
-399.96489
 20
504.569519
 10
-399.296921
 20
502.525879
 10
-398.657211
 20
500.438324
 10
-397.990341
 20
498.104004
 10
-396.862717
 20
493.701416
 10
-396.307846
 20
491.262451
 10
-395.393051
 20
486.734253
 10
-394.940109
 20
484.147675
  0
LWPOLYLINE
  5
107
330
1F
100
AcDbEntity
  8
2
370
    60
390
F
100
AcDbPolyline
 90
        3
 70
     0
 43
0.0
 10
-406.699631
 20
520.19458
 10
-405.001328
 20
516.900574
 10
-404.736984
 20
516.356201
  0
LINE
  5
10C
330
1F
100
AcDbEntity
  8
2
 48
0.025253
370
    60
390
F
100
AcDbLine
 10
-409.822556
 20
525.45874
 30
0.0
 11
-409.278732
 21
524.607483
 31
0.0
  0
LWPOLYLINE
  5
10D
330
1F
100
AcDbEntity
  8
2
370
    60
390
F
100
AcDbPolyline
 90
        8
 70
     0
 43
0.0
 10
-421.583298
 20
548.919678
 10
-425.079514
 20
548.660156
 10
-425.147385
 20
548.655945
 10
-426.049606
 20
548.602173
 10
-430.714767
 20
548.408997
 10
-435.600815
 20
548.353271
 10
-436.348312
 20
548.357483
 10
-440.71788
 20
548.438538
  0
LINE
  5
117
330
1F
100
AcDbEntity
  8
2
 48
0.109088
370
    60
390
F
100
AcDbLine
 10
-440.71788
 20
548.438538
 30
0.0
 11
-445.079636
 21
548.562134
 31
0.0
  0
LWPOLYLINE
  5
118
330
1F
100
AcDbEntity
  8
2
370
    60
390
F
100
AcDbPolyline
 90
        4
 70
     0
 43
0.0
 10
-445.079636
 20
548.562134
 10
-446.709152
 20
548.55957
 10
-447.603745
 20
548.481812
 10
-447.603745
 20
548.481812
  0
LWPOLYLINE
  5
11E
330
1F
100
AcDbEntity
  8
2
370
    60
390
F
100
AcDbPolyline
 90
        8
 70
     0
 43
0.0
 10
-413.186813
 20
551.981567
 10
-414.683212
 20
551.263611
 10
-416.138107
 20
550.636292
 10
-418.756027
 20
549.626831
 10
-419.157394
 20
549.485229
 10
-420.261581
 20
549.123413
 10
-420.901291
 20
548.972229
 10
-420.907455
 20
548.971863
  0
LWPOLYLINE
  5
128
330
1F
100
AcDbEntity
  8
2
370
    60
390
F
100
AcDbPolyline
 90
       10
 70
     0
 43
0.0
 10
-368.040146
 20
571.576843
 10
-372.967636
 20
569.890564
 10
-378.229416
 20
567.928589
 10
-383.887009
 20
565.657349
 10
-390.025131
 20
563.031616
 10
-394.473984
 20
561.03894
 10
-401.695969
 20
557.669312
 10
-405.57933
 20
555.794312
 10
-409.376389
 20
553.916626
 10
-413.186813
 20
551.981567
  0
LINE
  5
134
330
1F
100
AcDbEntity
  8
2
 48
0.015297
370
    60
390
F
100
AcDbLine
 10
-367.476913
 20
571.81604
 30
0.0
 11
-368.040085
 21
571.576843
 31
0.0
  0
LWPOLYLINE
  5
135
330
1F
100
AcDbEntity
  8
2
370
    60
390
F
100
AcDbPolyline
 90
        5
 70
     0
 43
0.0
 10
-366.661911
 20
572.745728
 10
-366.684494
 20
572.604187
 10
-366.753952
 20
572.451843
 10
-367.055954
 20
572.119019
 10
-367.28447
 20
571.957458
  0
LINE
  5
13C
330
1F
100
AcDbEntity
  8
2
  6
DASHDOT
370
    25
390
F
100
AcDbLine
 10
-392.71965
 20
427.822601
 30
0.0
 11
-366.66185
 21
427.822601
 31
0.0
  0
LINE
  5
13D
330
1F
100
AcDbEntity
  8
2
 48
0.005952
370
    60
390
F
100
AcDbLine
 10
-367.479965
 20
571.821594
 30
0.0
 11
-367.284409
 21
571.957397
 31
0.0
  0
LINE
  5
13E
330
1F
100
AcDbEntity
  8
2
 48
0.013968
370
    60
390
F
100
AcDbLine
 10
-370.003342
 20
276.20282
 30
0.0
 11
-369.661911
 21
275.760559
 31
0.0
  0
LINE
  5
13F
330
1F
100
AcDbEntity
  8
2
 48
0.013677
370
    60
390
F
100
AcDbLine
 10
-370.000595
 20
579.455017
 30
0.0
 11
-369.661911
 21
579.884644
 31
0.0
  0
LINE
  5
140
330
1F
100
AcDbEntity
  8
2
 48
0.012528
370
    60
390
F
100
AcDbLine
 10
-367.161911
 20
598.328613
 30
0.0
 11
-366.661911
 21
598.295166
 31
0.0
  0
LINE
  5
141
330
1F
100
AcDbEntity
  8
2
 48
0.012528
370
    60
390
F
100
AcDbLine
 10
-367.161911
 20
257.31662
 30
0.0
 11
-366.661911
 21
257.350037
 31
0.0
  0
ARC
  5
142
330
1F
100
AcDbEntity
  8
2
370
    60
390
F
100
AcDbCircle
 10
-371.635666
 20
258.653015
 30
0.0
 40
1.0
100
AcDbArc
 50
180.000005
 51
270.000001
  0
ARC
  5
143
330
1F
100
AcDbEntity
  8
2
370
    60
390
F
100
AcDbCircle
 10
-371.635666
 20
270.165405
 30
0.0
 40
1.0
100
AcDbArc
 50
90.000003
 51
180.000005
  0
LINE
  5
144
330
1F
100
AcDbEntity
  8
2
 48
0.28781
370
    60
390
F
100
AcDbLine
 10
-372.635666
 20
258.653015
 30
0.0
 11
-372.635666
 21
270.165405
 31
0.0
  0
LINE
  5
145
330
1F
100
AcDbEntity
  8
2
 48
0.108978
370
    60
390
F
100
AcDbLine
 10
-371.635666
 20
257.653015
 30
0.0
 11
-367.276535
 21
257.653015
 31
0.0
  0
LINE
  5
146
330
1F
100
AcDbEntity
  8
2
 48
0.049344
370
    60
390
F
100
AcDbLine
 10
-371.635666
 20
271.165405
 30
0.0
 11
-369.661911
 21
271.165405
 31
0.0
  0
LINE
  5
147
330
1F
100
AcDbEntity
  8
2
 48
0.019108
370
    60
390
F
100
AcDbLine
 10
-368.040146
 20
284.068359
 30
0.0
 11
-367.333237
 21
283.777771
 31
0.0
  0
LINE
  5
148
330
1F
100
AcDbEntity
  8
2
 48
0.013043
370
    60
390
F
100
AcDbLine
 10
-367.333237
 20
283.777771
 30
0.0
 11
-366.916672
 21
283.463654
 31
0.0
  0
LINE
  5
149
330
1F
100
AcDbEntity
  8
2
 48
0.004504
370
    60
390
F
100
AcDbLine
 10
-366.916672
 20
283.463654
 30
0.0
 11
-366.82988
 21
283.305786
 31
0.0
  0
LINE
  5
14A
330
1F
100
AcDbEntity
  8
2
 48
0.03125
370
    60
390
F
100
AcDbLine
 10
-367.41185
 20
426.572601
 30
0.0
 11
-367.41185
 21
427.822601
 31
0.0
  0
LINE
  5
14B
330
1F
100
AcDbEntity
  8
2
 48
0.03125
370
    60
390
F
100
AcDbLine
 10
-367.41185
 20
427.822601
 30
0.0
 11
-367.41185
 21
429.072601
 31
0.0
  0
LINE
  5
14C
330
1F
100
AcDbEntity
  8
2
 48
0.009018
370
    60
390
F
100
AcDbLine
 10
-367.022568
 20
426.572601
 30
0.0
 11
-366.66185
 21
426.572601
 31
0.0
  0
LWPOLYLINE
  5
14D
330
1F
100
AcDbEntity
  8
2
370
    60
390
F
100
AcDbPolyline
 90
        5
 70
     0
 43
0.0
 10
-369.661911
 20
278.665588
 10
-369.682602
 20
278.807678
 10
-369.742966
 20
278.938049
 10
-369.837936
 20
279.045868
 10
-369.974228
 20
279.128357
  0
LWPOLYLINE
  5
154
330
1F
100
AcDbEntity
  8
2
370
    60
390
F
100
AcDbPolyline
 90
        5
 70
     0
 43
0.0
 10
-369.66185
 20
278.596741
 10
-369.681747
 20
278.738953
 10
-369.741318
 20
278.869629
 10
-369.835739
 20
278.978027
 10
-369.973068
 20
279.06189
  0
LWPOLYLINE
  5
15B
330
1F
100
AcDbEntity
  8
2
370
    60
390
F
100
AcDbPolyline
 90
        4
 70
     0
 43
0.0
 10
-420.907455
 20
306.673309
 10
-421.04332
 20
306.713074
 10
-421.184555
 20
306.711731
 10
-421.376144
 20
306.637451
  0
LWPOLYLINE
  5
161
330
1F
100
AcDbEntity
  8
2
370
    60
390
F
100
AcDbPolyline
 90
        3
 70
     0
 43
0.0
 10
-448.298874
 20
307.364105
 10
-448.201584
 20
307.446716
 10
-447.805344
 20
307.645813
  0
LWPOLYLINE
  5
166
330
1F
100
AcDbEntity
  8
2
370
    60
390
F
100
AcDbPolyline
 90
        3
 70
     0
 43
0.0
 10
-447.805344
 20
307.645813
 10
-446.687119
 20
308.024414
 10
-446.679977
 20
308.02655
  0
LINE
  5
16B
330
1F
100
AcDbEntity
  8
2
 48
0.047153
370
    60
390
F
100
AcDbLine
 10
-446.679977
 20
308.02655
 30
0.0
 11
-444.856186
 21
308.507477
 31
0.0
  0
LINE
  5
16C
330
1F
100
AcDbEntity
  8
2
 48
0.066229
370
    60
390
F
100
AcDbLine
 10
-444.856186
 20
308.507477
 30
0.0
 11
-442.270065
 21
309.082031
 31
0.0
  0
LWPOLYLINE
  5
16D
330
1F
100
AcDbEntity
  8
2
370
    60
390
F
100
AcDbPolyline
 90
        3
 70
     0
 43
0.0
 10
-442.270065
 20
309.082031
 10
-437.929001
 20
309.900696
 10
-436.948715
 20
310.076904
  0
LWPOLYLINE
  5
172
330
1F
100
AcDbEntity
  8
2
370
    60
390
F
100
AcDbPolyline
 90
       18
 70
     0
 43
0.0
 10
-434.472702
 20
310.587219
 10
-432.342941
 20
311.197327
 10
-430.23259
 20
311.968811
 10
-428.140366
 20
312.904663
 10
-426.06572
 20
314.008759
 10
-424.008591
 20
315.285767
 10
-421.969406
 20
316.741089
 10
-419.949387
 20
318.380585
 10
-417.950485
 20
320.21051
 10
-415.975204
 20
322.237335
 10
-414.02684
 20
324.46759
 10
-412.109299
 20
326.907623
 10
-410.227219
 20
329.563538
 10
-408.385849
 20
332.44101
 10
-406.590988
 20
335.545013
 10
-404.848923
 20
338.879761
 10
-403.16655
 20
342.448608
 10
-402.328598
 20
344.371887
  0
LINE
  5
186
330
1F
100
AcDbEntity
  8
2
 48
0.063201
370
    60
390
F
100
AcDbLine
 10
-436.948715
 20
310.076904
 30
0.0
 11
-434.472702
 21
310.587219
 31
0.0
  0
LINE
  5
187
330
1F
100
AcDbEntity
  8
2
 48
0.015984
370
    60
390
F
100
AcDbLine
 10
-391.987961
 20
426.572601
 30
0.0
 11
-391.348618
 21
426.572601
 31
0.0
  0
LINE
  5
188
330
1F
100
AcDbEntity
  8
2
 48
0.017105
370
    60
390
F
100
AcDbLine
 10
-448.42778
 20
304.531799
 30
0.0
 11
-447.904587
 21
304.090881
 31
0.0
  0
LINE
  5
189
330
1F
100
AcDbEntity
  8
2
 48
0.032396
370
    60
390
F
100
AcDbLine
 10
-368.413315
 20
257.653015
 30
0.0
 11
-367.161911
 21
257.31662
 31
0.0
  0
ARC
  5
18A
330
1F
100
AcDbEntity
  8
2
370
    60
390
F
100
AcDbCircle
 10
-367.042526
 20
260.262115
 30
0.0
 40
2.619444
100
AcDbArc
 50
180.055056
 51
264.874681
  0
LINE
  5
18B
330
1F
100
AcDbEntity
  8
2
370
    60
390
F
100
AcDbLine
 10
-391.348618
 20
426.572601
 30
0.0
 11
-367.022568
 21
426.572601
 31
0.0
  0
LWPOLYLINE
  5
18C
330
1F
100
AcDbEntity
  8
2
370
    60
390
F
100
AcDbPolyline
 90
       10
 70
     0
 43
0.0
 10
-368.040146
 20
284.068359
 10
-372.970505
 20
285.755676
 10
-378.232468
 20
287.717834
 10
-383.890305
 20
289.989197
 10
-390.028732
 20
292.615173
 10
-394.473984
 20
294.606293
 10
-401.682175
 20
297.969299
 10
-405.565475
 20
299.844116
 10
-409.362595
 20
301.721619
 10
-413.186813
 20
303.663635
  0
LWPOLYLINE
  5
198
330
1F
100
AcDbEntity
  8
2
370
    60
390
F
100
AcDbPolyline
 90
        8
 70
     0
 43
0.0
 10
-413.186813
 20
303.663635
 10
-414.683212
 20
304.381592
 10
-416.138107
 20
305.008911
 10
-418.756027
 20
306.018372
 10
-419.157394
 20
306.159973
 10
-420.261703
 20
306.52182
 10
-420.901352
 20
306.672974
 10
-420.907455
 20
306.67334
  0
ARC
  5
1A2
330
1F
100
AcDbEntity
  8
2
370
    60
390
F
100
AcDbCircle
 10
-419.795212
 20
325.117706
 30
0.0
 40
18.478048
100
AcDbArc
 50
264.447303
 51
266.431008
  0
LWPOLYLINE
  5
1A3
330
1F
100
AcDbEntity
  8
2
370
    60
390
F
100
AcDbPolyline
 90
        8
 70
     0
 43
0.0
 10
-421.583298
 20
306.725555
 10
-425.079514
 20
306.985077
 10
-425.147385
 20
306.989258
 10
-426.049606
 20
307.04303
 10
-430.714096
 20
307.236176
 10
-435.600143
 20
307.291931
 10
-436.348312
 20
307.28775
 10
-440.717819
 20
307.206635
  0
LINE
  5
1AD
330
1F
100
AcDbEntity
  8
2
 48
0.109089
370
    60
390
F
100
AcDbLine
 10
-440.717819
 20
307.206635
 30
0.0
 11
-445.079636
 21
307.083069
 31
0.0
  0
LWPOLYLINE
  5
1AE
330
1F
100
AcDbEntity
  8
2
370
    60
390
F
100
AcDbPolyline
 90
        4
 70
     0
 43
0.0
 10
-445.079636
 20
307.083069
 10
-446.709152
 20
307.085663
 10
-447.603928
 20
307.163452
 10
-447.9210171546821
 20
307.5876912099794
  0
LWPOLYLINE
  5
1B4
330
1F
100
AcDbEntity
  8
2
370
    60
390
F
100
AcDbPolyline
 90
        3
 70
     0
 43
0.0
 10
-366.661911
 20
282.899445
 10
-366.68309
 20
283.036224
 10
-366.83165
 20
283.304382
  0
LINE
  5
1BA
330
1F
100
AcDbEntity
  8
2
 48
0.342945
370
    60
390
F
100
AcDbLine
 10
-447.604599
 20
303.981384
 30
0.0
 11
-434.66716
 21
299.420563
 31
0.0
  0
LINE
  5
1BB
330
1F
100
AcDbEntity
  8
2
 48
0.235471
370
    60
390
F
100
AcDbLine
 10
-434.66716
 20
299.420563
 30
0.0
 11
-425.815353
 21
296.201874
 31
0.0
  0
LINE
  5
1BC
330
1F
100
AcDbEntity
  8
2
 48
0.425
370
    60
390
F
100
AcDbLine
 10
-425.815353
 20
296.201874
 30
0.0
 11
-409.841293
 21
290.38562
 31
0.0
  0
LINE
  5
1BD
330
1F
100
AcDbEntity
  8
2
 48
0.342332
370
    60
390
F
100
AcDbLine
 10
-409.841293
 20
290.38562
 30
0.0
 11
-396.953964
 21
285.757202
 31
0.0
  0
LINE
  5
1BE
330
1F
100
AcDbEntity
  8
2
 48
0.235575
370
    60
390
F
100
AcDbLine
 10
-396.953964
 20
285.757202
 30
0.0
 11
-388.084335
 21
282.575623
 31
0.0
  0
LWPOLYLINE
  5
1BF
330
1F
100
AcDbEntity
  8
2
370
    60
390
F
100
AcDbPolyline
 90
        3
 70
     0
 43
0.0
 10
-388.084335
 20
282.575623
 10
-379.009872
 20
279.348206
 10
-370.003342
 20
276.20282
  0
LWPOLYLINE
  5
1C4
330
1F
100
AcDbEntity
  8
2
370
    60
390
F
100
AcDbPolyline
 90
        3
 70
     0
 43
0.0
 10
-447.904587
 20
304.090881
 10
-447.807541
 20
304.036957
 10
-447.604599
 20
303.981384
  0
LINE
  5
1C9
330
1F
100
AcDbEntity
  8
2
 48
0.00173
370
    60
390
F
100
AcDbLine
 10
-369.974228
 20
279.059204
 30
0.0
 11
-369.974228
 21
279.128418
 31
0.0
  0
LINE
  5
1CA
330
1F
100
AcDbEntity
  8
2
 48
0.042712
370
    60
390
F
100
AcDbLine
 10
-369.661911
 20
261.968079
 30
0.0
 11
-369.661911
 21
260.259583
 31
0.0
  0
LINE
  5
1CB
330
1F
100
AcDbEntity
  8
2
 48
0.312167
370
    60
390
F
100
AcDbLine
 10
-369.661911
 20
261.968079
 30
0.0
 11
-369.661911
 21
274.454773
 31
0.0
  0
LINE
  5
1CC
330
1F
100
AcDbEntity
  8
2
 48
0.10527
370
    60
390
F
100
AcDbLine
 10
-369.661911
 20
274.454773
 30
0.0
 11
-369.661911
 21
278.665588
 31
0.0
  0
LINE
  5
1CD
330
1F
100
AcDbEntity
  8
2
 48
0.031247
370
    60
390
F
100
AcDbLine
 10
-391.9879
 20
427.822479
 30
0.0
 11
-391.987839
 21
426.572601
 31
0.0
  0
LWPOLYLINE
  5
1CE
330
1F
100
AcDbEntity
  8
2
370
    60
390
F
100
AcDbPolyline
 90
        3
 70
     0
 43
0.0
 10
-406.699631
 20
335.450623
 10
-405.001816
 20
338.743591
 10
-404.736984
 20
339.288971
  0
LWPOLYLINE
  5
1D3
330
1F
100
AcDbEntity
  8
2
370
    60
390
F
100
AcDbPolyline
 90
       13
 70
     0
 43
0.0
 10
-404.556442
 20
339.666077
 10
-403.739365
 20
341.430054
 10
-402.943466
 20
343.244568
 10
-401.418137
 20
347.025269
 10
-401.053024
 20
347.997498
 10
-399.96489
 20
351.075684
 10
-399.29686
 20
353.119537
 10
-398.657089
 20
355.207306
 10
-397.990341
 20
357.541199
 10
-396.863388
 20
361.940979
 10
-396.307846
 20
364.382751
 10
-395.39299
 20
368.911102
 10
-394.940109
 20
371.497528
  0
LINE
  5
1E2
330
1F
100
AcDbEntity
  8
2
 48
0.025253
370
    60
390
F
100
AcDbLine
 10
-409.822556
 20
330.186462
 30
0.0
 11
-409.278732
 21
331.03772
 31
0.0
  0
LWPOLYLINE
  5
1E3
330
1F
100
AcDbEntity
  8
2
370
    60
390
F
100
AcDbPolyline
 90
        3
 70
     0
 43
0.0
 10
-394.940048
 20
371.49765
 10
-394.855392
 20
372.358826
 10
-394.793747
 20
373.175262
  0
LWPOLYLINE
  5
1E8
330
1F
100
AcDbEntity
  8
2
370
    60
390
F
100
AcDbPolyline
 90
        3
 70
     0
 43
0.0
 10
-394.793747
 20
373.175262
 10
-394.545944
 20
374.895813
 10
-393.891525
 20
379.808746
  0
LWPOLYLINE
  5
1ED
330
1F
100
AcDbEntity
  8
2
370
    60
390
F
100
AcDbPolyline
 90
        9
 70
     0
 43
0.0
 10
-393.891525
 20
379.808746
 10
-393.550949
 20
382.877716
 10
-393.250534
 20
385.961853
 10
-392.773239
 20
392.082581
 10
-392.694809
 20
393.315704
 10
-392.358749
 20
400.01178
 10
-392.133408
 20
407.503845
 10
-392.015244
 20
416.27063
 10
-391.987961
 20
426.572601
  0
LINE
  5
1F8
330
1F
100
AcDbEntity
  8
2
 48
0.172832
370
    60
390
F
100
AcDbLine
 10
-391.9879
 20
427.82251
 30
0.0
 11
-391.994125
 21
420.909241
 31
0.0
  0
LINE
  5
1F9
330
1F
100
AcDbEntity
  8
2
 48
0.153521
370
    60
390
F
100
AcDbLine
 10
-392.335678
 20
400.497955
 30
0.0
 11
-392.623825
 21
394.363892
 31
0.0
  0
LINE
  5
1FA
330
1F
100
AcDbEntity
  8
2
 48
0.131172
370
    60
390
F
100
AcDbLine
 10
-392.898544
 20
390.073975
 30
0.0
 11
-393.330551
 21
384.84491
 31
0.0
  0
LINE
  5
1FB
330
1F
100
AcDbEntity
  8
2
 48
0.028006
370
    60
390
F
100
AcDbLine
 10
-366.661911
 20
279.447266
 30
0.0
 11
-366.661911
 21
278.327026
 31
0.0
  0
LINE
  5
1FC
330
1F
100
AcDbEntity
  8
2
370
    60
390
F
100
AcDbLine
 10
-366.66185
 20
426.572601
 30
0.0
 11
-366.66185
 21
371.397827
 31
0.0
  0
LINE
  5
1FD
330
1F
100
AcDbEntity
  8
2
370
    60
390
F
100
AcDbLine
 10
-366.66185
 20
287.624695
 30
0.0
 11
-366.66185
 21
371.397827
 31
0.0
  0
LINE
  5
1FE
330
1F
100
AcDbEntity
  8
2
 48
0.118132
370
    60
390
F
100
AcDbLine
 10
-366.66185
 20
282.899414
 30
0.0
 11
-366.66185
 21
287.624695
 31
0.0
  0
LINE
  5
1FF
330
1F
100
AcDbEntity
  8
2
 48
0.061218
370
    60
390
F
100
AcDbLine
 10
-366.661911
 20
281.895996
 30
0.0
 11
-366.661911
 21
279.447266
 31
0.0
  0
LINE
  5
200
330
1F
100
AcDbEntity
  8
2
 48
0.025085
370
    60
390
F
100
AcDbLine
 10
-366.661911
 20
281.895996
 30
0.0
 11
-366.661911
 21
282.899414
 31
0.0
  0
LINE
  5
201
330
1F
100
AcDbEntity
  8
2
 48
0.053018
370
    60
390
F
100
AcDbLine
 10
-366.661911
 20
257.350037
 30
0.0
 11
-366.66185
 21
259.470764
 31
0.0
  0
LINE
  5
202
330
1F
100
AcDbEntity
  8
2
 48
0.3746
370
    60
390
F
100
AcDbLine
 10
-366.661911
 20
259.470764
 30
0.0
 11
-366.661911
 21
274.454773
 31
0.0
  0
LINE
  5
203
330
1F
100
AcDbEntity
  8
2
 48
0.096806
370
    60
390
F
100
AcDbLine
 10
-366.661911
 20
274.454773
 30
0.0
 11
-366.661911
 21
278.327026
 31
0.0
  0
LINE
  5
204
330
1F
100
AcDbEntity
  8
2
 48
0.031253
370
    60
390
F
100
AcDbLine
 10
-391.9879
 20
427.822479
 30
0.0
 11
-391.987839
 21
429.072601
 31
0.0
  0
LINE
  5
205
330
1F
100
AcDbEntity
  8
2
 48
0.172836
370
    60
390
F
100
AcDbLine
 10
-391.9879
 20
427.82251
 30
0.0
 11
-391.994125
 21
434.735962
 31
0.0
  0
LINE
  5
206
330
1F
100
AcDbEntity
  8
2
 48
0.131172
370
    60
390
F
100
AcDbLine
 10
-392.898544
 20
465.571228
 30
0.0
 11
-393.330551
 21
470.800293
 31
0.0
  0
LINE
  5
207
330
1F
100
AcDbEntity
  8
2
 48
0.153521
370
    60
390
F
100
AcDbLine
 10
-392.335678
 20
455.147247
 30
0.0
 11
-392.623825
 21
461.281311
 31
0.0
  0
LWPOLYLINE
  5
208
330
1F
100
AcDbEntity
  8
2
370
    60
390
F
100
AcDbPolyline
 90
        3
 70
     0
 43
0.0
 10
-448.298874
 20
548.281128
 10
-448.201645
 20
548.198486
 10
-447.805344
 20
547.99939
  0
LWPOLYLINE
  5
20D
330
1F
100
AcDbEntity
  8
2
370
    60
390
F
100
AcDbPolyline
 90
        3
 70
     0
 43
0.0
 10
-447.805344
 20
547.99939
 10
-446.68718
 20
547.620789
 10
-446.679977
 20
547.618652
  0
LINE
  5
212
330
1F
100
AcDbEntity
  8
2
 48
0.047154
370
    60
390
F
100
AcDbLine
 10
-446.679977
 20
547.618652
 30
0.0
 11
-444.856186
 21
547.137695
 31
0.0
  0
LINE
  5
213
330
1F
100
AcDbEntity
  8
2
 48
0.066229
370
    60
390
F
100
AcDbLine
 10
-444.856186
 20
547.137695
 30
0.0
 11
-442.270065
 21
546.563171
 31
0.0
  0
LWPOLYLINE
  5
214
330
1F
100
AcDbEntity
  8
2
370
    60
390
F
100
AcDbPolyline
 90
        3
 70
     0
 43
0.0
 10
-442.270065
 20
546.563171
 10
-437.929916
 20
545.74469
 10
-436.948715
 20
545.568298
  0
LINE
  5
21B
330
1F
100
AcDbEntity
  8
2
370
    60
390
F
100
AcDbLine
 10
-447.604599
 20
551.663818
 30
0.0
 11
-428.350754
 21
558.46405
 31
0.0
  0
LWPOLYLINE
  5
21C
330
1F
100
AcDbEntity
  8
2
370
    60
390
F
100
AcDbPolyline
 90
        3
 70
     0
 43
0.0
 10
-428.350754
 20
558.46405
 10
-419.112839
 20
561.823608
 10
-417.282272
 20
562.499146
  0
LWPOLYLINE
  5
221
330
1F
100
AcDbEntity
  8
2
370
    60
390
F
100
AcDbPolyline
 90
        3
 70
     0
 43
0.0
 10
-417.282272
 20
562.499146
 10
-400.155197
 20
568.742188
 10
-398.759384
 20
569.245972
  0
LWPOLYLINE
  5
226
330
1F
100
AcDbEntity
  8
2
370
    60
390
F
100
AcDbPolyline
 90
        3
 70
     0
 43
0.0
 10
-398.759384
 20
569.245972
 10
-388.690048
 20
572.857544
 10
-380.652878
 20
575.69458
  0
LINE
  5
22B
330
1F
100
AcDbEntity
  8
2
 48
0.282414
370
    60
390
F
100
AcDbLine
 10
-380.652878
 20
575.69458
 30
0.0
 11
-370.000595
 21
579.455017
 31
0.0
  0
LINE
  5
22C
330
1F
100
AcDbEntity
  8
2
 48
0.053018
370
    60
390
F
100
AcDbLine
 10
-366.661911
 20
598.295166
 30
0.0
 11
-366.66185
 21
596.174438
 31
0.0
  0
LINE
  5
22D
330
1F
100
AcDbEntity
  8
2
 48
0.032396
370
    60
390
F
100
AcDbLine
 10
-368.413315
 20
597.992188
 30
0.0
 11
-367.161911
 21
598.328613
 31
0.0
  0
LINE
  5
22E
330
1F
100
AcDbEntity
  8
2
 48
0.042725
370
    60
390
F
100
AcDbLine
 10
-369.661911
 20
593.677124
 30
0.0
 11
-369.661911
 21
595.386108
 31
0.0
  0
LINE
  5
22F
330
1F
100
AcDbEntity
  8
2
 48
0.017105
370
    60
390
F
100
AcDbLine
 10
-448.42778
 20
551.113403
 30
0.0
 11
-447.904587
 21
551.554321
 31
0.0
  0
LWPOLYLINE
  5
230
330
1F
100
AcDbEntity
  8
2
370
    60
390
F
100
AcDbPolyline
 90
        3
 70
     0
 43
0.0
 10
-447.904587
 20
551.554321
 10
-447.807541
 20
551.608276
 10
-447.604599
 20
551.663818
  0
LWPOLYLINE
  5
235
330
1F
100
AcDbEntity
  8
2
370
    60
390
F
100
AcDbPolyline
 90
        3
 70
     0
 43
0.0
 10
-394.940048
 20
484.147552
 10
-394.855392
 20
483.286377
 10
-394.793747
 20
482.46994
  0
LWPOLYLINE
  5
23A
330
1F
100
AcDbEntity
  8
2
370
    60
390
F
100
AcDbPolyline
 90
        3
 70
     0
 43
0.0
 10
-394.793747
 20
482.46994
 10
-394.545944
 20
480.749451
 10
-393.891525
 20
475.836456
  0
LWPOLYLINE
  5
23F
330
1F
100
AcDbEntity
  8
2
370
    60
390
F
100
AcDbPolyline
 90
        9
 70
     0
 43
0.0
 10
-393.891525
 20
475.836456
 10
-393.550888
 20
472.766541
 10
-393.250351
 20
469.681488
 10
-392.773117
 20
463.560699
 10
-392.694809
 20
462.329498
 10
-392.358749
 20
455.633331
 10
-392.133408
 20
448.141266
 10
-392.015244
 20
439.374451
 10
-391.987961
 20
429.072601
  0
LWPOLYLINE
  5
24A
330
1F
100
AcDbEntity
  8
2
370
    60
390
F
100
AcDbPolyline
 90
       34
 70
     0
 43
0.0
 10
-402.328598
 20
511.273315
 10
-403.154404
 20
513.169373
 10
-404.004074
 20
515.019348
 10
-404.863449
 20
516.794678
 10
-405.745285
 20
518.523743
 10
-406.634567
 20
520.179382
 10
-407.544785
 20
521.788818
 10
-408.460373
 20
523.326416
 10
-409.395493
 20
524.818054
 10
-410.334091
 20
526.239868
 10
-411.290817
 20
527.615967
 10
-412.249374
 20
528.924561
 10
-413.224716
 20
530.187866
 10
-414.200485
 20
531.38623
 10
-415.191757
 20
532.539795
 10
-416.182297
 20
533.631042
 10
-417.187119
 20
534.678101
 10
-418.190292
 20
535.665649
 10
-419.206711
 20
536.609558
 10
-420.22081
 20
537.496826
 10
-421.247116
 20
538.341125
 10
-422.270798
 20
539.131531
 10
-423.305649
 20
539.879639
 10
-424.337936
 20
540.576477
 10
-425.380356
 20
541.231628
 10
-426.420578
 20
541.838074
 10
-427.470078
 20
542.403381
 10
-428.517868
 20
542.922363
 10
-429.574142
 20
543.400574
 10
-430.629562
 20
543.834534
 10
-431.692673
 20
544.228149
 10
-432.756027
 20
544.579224
 10
-433.82634
 20
544.89032
 10
-434.472702
 20
545.057983
  0
LINE
  5
26E
330
1F
100
AcDbEntity
  8
2
 48
0.063201
370
    60
390
F
100
AcDbLine
 10
-436.948715
 20
545.568298
 30
0.0
 11
-434.472702
 21
545.057983
 31
0.0
  0
LWPOLYLINE
  5
26F
330
1F
100
AcDbEntity
  8
2
370
    60
390
F
100
AcDbPolyline
 90
       12
 70
     0
 43
0.0
 10
-404.556442
 20
515.979126
 10
-402.94426
 20
512.402588
 10
-401.41893
 20
508.622009
 10
-401.053024
 20
507.647705
 10
-399.96489
 20
504.569519
 10
-399.296921
 20
502.525879
 10
-398.657211
 20
500.438324
 10
-397.990341
 20
498.104004
 10
-396.862717
 20
493.701416
 10
-396.307846
 20
491.262451
 10
-395.393051
 20
486.734253
 10
-394.940109
 20
484.147675
  0
LWPOLYLINE
  5
27D
330
1F
100
AcDbEntity
  8
2
370
    60
390
F
100
AcDbPolyline
 90
        3
 70
     0
 43
0.0
 10
-406.699631
 20
520.19458
 10
-405.001328
 20
516.900574
 10
-404.736984
 20
516.356201
  0
LINE
  5
282
330
1F
100
AcDbEntity
  8
2
 48
0.025253
370
    60
390
F
100
AcDbLine
 10
-409.822556
 20
525.45874
 30
0.0
 11
-409.278732
 21
524.607483
 31
0.0
  0
LINE
  5
283
330
1F
100
AcDbEntity
  8
2
 48
0.015984
370
    60
390
F
100
AcDbLine
 10
-391.987961
 20
429.072601
 30
0.0
 11
-391.348618
 21
429.072601
 31
0.0
  0
LINE
  5
284
330
1F
100
AcDbEntity
  8
2
 48
0.108978
370
    60
390
F
100
AcDbLine
 10
-371.635666
 20
597.992188
 30
0.0
 11
-367.276535
 21
597.992188
 31
0.0
  0
LINE
  5
285
330
1F
100
AcDbEntity
  8
2
 48
0.049344
370
    60
390
F
100
AcDbLine
 10
-371.635666
 20
584.479797
 30
0.0
 11
-369.661911
 21
584.479797
 31
0.0
  0
ARC
  5
286
330
1F
100
AcDbEntity
  8
2
370
    60
390
F
100
AcDbCircle
 10
-367.042526
 20
595.383057
 30
0.0
 40
2.619444
100
AcDbArc
 50
95.125322
 51
179.93449
  0
ARC
  5
287
330
1F
100
AcDbEntity
  8
2
370
    60
390
F
100
AcDbCircle
 10
-371.635666
 20
585.479797
 30
0.0
 40
1.0
100
AcDbArc
 50
180.000005
 51
270.000001
  0
ARC
  5
288
330
1F
100
AcDbEntity
  8
2
370
    60
390
F
100
AcDbCircle
 10
-371.635666
 20
596.992188
 30
0.0
 40
1.0
100
AcDbArc
 50
90.000003
 51
180.000005
  0
LINE
  5
289
330
1F
100
AcDbEntity
  8
2
 48
0.28781
370
    60
390
F
100
AcDbLine
 10
-372.635666
 20
585.479797
 30
0.0
 11
-372.635666
 21
596.992188
 31
0.0
  0
LWPOLYLINE
  5
28A
330
1F
100
AcDbEntity
  8
2
370
    60
390
F
100
AcDbPolyline
 90
        8
 70
     0
 43
0.0
 10
-421.583298
 20
548.919678
 10
-425.079514
 20
548.660156
 10
-425.147385
 20
548.655945
 10
-426.049606
 20
548.602173
 10
-430.714767
 20
548.408997
 10
-435.600815
 20
548.353271
 10
-436.348312
 20
548.357483
 10
-440.71788
 20
548.438538
  0
LINE
  5
294
330
1F
100
AcDbEntity
  8
2
 48
0.109088
370
    60
390
F
100
AcDbLine
 10
-440.71788
 20
548.438538
 30
0.0
 11
-445.079636
 21
548.562134
 31
0.0
  0
LWPOLYLINE
  5
295
330
1F
100
AcDbEntity
  8
2
370
    60
390
F
100
AcDbPolyline
 90
        4
 70
     0
 43
0.0
 10
-445.079636
 20
548.562134
 10
-446.709152
 20
548.55957
 10
-447.603745
 20
548.481812
 10
-448.1402283616445
 20
548.1676311522201
  0
LINE
  5
29B
330
1F
100
AcDbEntity
  8
2
370
    60
390
F
100
AcDbLine
 10
-391.348618
 20
429.072601
 30
0.0
 11
-367.022568
 21
429.072601
 31
0.0
  0
LINE
  5
29C
330
1F
100
AcDbEntity
  8
2
 48
0.025089
370
    60
390
F
100
AcDbLine
 10
-366.661911
 20
573.749268
 30
0.0
 11
-366.661911
 21
572.745728
 31
0.0
  0
LINE
  5
29D
330
1F
100
AcDbEntity
  8
2
 48
0.096805
370
    60
390
F
100
AcDbLine
 10
-366.661911
 20
577.318237
 30
0.0
 11
-366.661911
 21
581.19043
 31
0.0
  0
LINE
  5
29E
330
1F
100
AcDbEntity
  8
2
 48
0.3746
370
    60
390
F
100
AcDbLine
 10
-366.661911
 20
581.19043
 30
0.0
 11
-366.661911
 21
596.174438
 31
0.0
  0
LINE
  5
29F
330
1F
100
AcDbEntity
  8
2
 48
0.061221
370
    60
390
F
100
AcDbLine
 10
-366.661911
 20
573.749268
 30
0.0
 11
-366.661911
 21
576.19812
 31
0.0
  0
ARC
  5
2A0
330
1F
100
AcDbEntity
  8
2
370
    60
390
F
100
AcDbCircle
 10
-420.7831981954174
 20
541.5830135273003
 30
0.0
 40
7.379284292927117
100
AcDbArc
 50
93.60537357470228
 51
96.22353172753678
  0
LWPOLYLINE
  5
2A1
330
1F
100
AcDbEntity
  8
2
370
    60
390
F
100
AcDbPolyline
 90
        8
 70
     0
 43
0.0
 10
-413.186813
 20
551.981567
 10
-414.683212
 20
551.263611
 10
-416.138107
 20
550.636292
 10
-418.756027
 20
549.626831
 10
-419.157394
 20
549.485229
 10
-420.261581
 20
549.123413
 10
-420.901291
 20
548.972229
 10
-420.907455
 20
548.971863
  0
LWPOLYLINE
  5
2AB
330
1F
100
AcDbEntity
  8
2
370
    60
390
F
100
AcDbPolyline
 90
        4
 70
     0
 43
0.0
 10
-421.247238
 20
548.947693
 10
-421.247238
 20
548.947693
 10
-421.107162
 20
548.927612
 10
-420.907455
 20
548.971863
  0
LWPOLYLINE
  5
2B1
330
1F
100
AcDbEntity
  8
2
370
    60
390
F
100
AcDbPolyline
 90
       10
 70
     0
 43
0.0
 10
-368.040146
 20
571.576843
 10
-372.967636
 20
569.890564
 10
-378.229416
 20
567.928589
 10
-383.887009
 20
565.657349
 10
-390.025131
 20
563.031616
 10
-394.473984
 20
561.03894
 10
-401.695969
 20
557.669312
 10
-405.57933
 20
555.794312
 10
-409.376389
 20
553.916626
 10
-413.186813
 20
551.981567
  0
LINE
  5
2BD
330
1F
100
AcDbEntity
  8
2
 48
0.015297
370
    60
390
F
100
AcDbLine
 10
-367.476913
 20
571.81604
 30
0.0
 11
-368.040085
 21
571.576843
 31
0.0
  0
LWPOLYLINE
  5
2BE
330
1F
100
AcDbEntity
  8
2
370
    60
390
F
100
AcDbPolyline
 90
        5
 70
     0
 43
0.0
 10
-366.661911
 20
572.745728
 10
-366.684494
 20
572.604187
 10
-366.753952
 20
572.451843
 10
-367.055954
 20
572.119019
 10
-367.28447
 20
571.957458
  0
LINE
  5
2C5
330
1F
100
AcDbEntity
  8
2
 48
0.118135
370
    60
390
F
100
AcDbLine
 10
-366.66185
 20
572.745728
 30
0.0
 11
-366.66185
 21
568.020325
 31
0.0
  0
LINE
  5
2C6
330
1F
100
AcDbEntity
  8
2
370
    60
390
F
100
AcDbLine
 10
-366.66185
 20
484.246765
 30
0.0
 11
-366.66185
 21
568.020325
 31
0.0
  0
LINE
  5
2C7
330
1F
100
AcDbEntity
  8
2
370
    60
390
F
100
AcDbLine
 10
-366.66185
 20
429.072601
 30
0.0
 11
-366.66185
 21
484.246765
 31
0.0
  0
LINE
  5
2C8
330
1F
100
AcDbEntity
  8
2
 48
0.009016
370
    60
390
F
100
AcDbLine
 10
-367.022568
 20
429.072601
 30
0.0
 11
-366.661911
 21
429.072601
 31
0.0
  0
LINE
  5
2C9
330
1F
100
AcDbEntity
  8
2
 48
0.028003
370
    60
390
F
100
AcDbLine
 10
-366.661911
 20
576.19812
 30
0.0
 11
-366.661911
 21
577.318237
 31
0.0
  0
LINE
  5
2CA
330
1F
100
AcDbEntity
  8
2
 48
0.10527
370
    60
390
F
100
AcDbLine
 10
-369.661911
 20
576.979614
 30
0.0
 11
-369.661911
 21
581.19043
 31
0.0
  0
LINE
  5
2CB
330
1F
100
AcDbEntity
  8
2
 48
0.312167
370
    60
390
F
100
AcDbLine
 10
-369.661911
 20
581.19043
 30
0.0
 11
-369.661911
 21
593.677124
 31
0.0
  0
LWPOLYLINE
  5
2CC
330
1F
100
AcDbEntity
  8
2
370
    60
390
F
100
AcDbPolyline
 90
        5
 70
     0
 43
0.0
 10
-369.973068
 20
576.583313
 10
-369.849045
 20
576.656128
 10
-369.750961
 20
576.761169
 10
-369.686874
 20
576.889709
 10
-369.66185
 20
577.048523
  0
LINE
  5
2D3
330
1F
100
AcDbEntity
  8
2
 48
0.00173
370
    60
390
F
100
AcDbLine
 10
-369.974228
 20
576.585999
 30
0.0
 11
-369.974228
 21
576.516785
 31
0.0
  0
LWPOLYLINE
  5
2D4
330
1F
100
AcDbEntity
  8
2
370
    60
390
F
100
AcDbPolyline
 90
        5
 70
     0
 43
0.0
 10
-369.974228
 20
576.516846
 10
-369.850021
 20
576.589355
 10
-369.751694
 20
576.694214
 10
-369.687302
 20
576.822632
 10
-369.661911
 20
576.979614
  0
LINE
  5
2DB
330
1F
100
AcDbEntity
  8
2
  6
DASHDOT
370
    25
390
F
100
AcDbLine
 10
-382.635666
 20
264.409241
 30
0.0
 11
-357.276535
 21
264.409241
 31
0.0
  0
LINE
  5
2DC
330
1F
100
AcDbEntity
  8
2
  6
DASHDOT
370
    25
390
F
100
AcDbLine
 10
-382.635666
 20
591.235962
 30
0.0
 11
-357.276535
 21
591.235962
 31
0.0
  0
LINE
  5
2DD
330
1F
100
AcDbEntity
  8
2
 48
0.07592
370
    60
390
F
100
AcDbLine
 10
70.604691
 20
279.493347
 30
0.0
 11
67.593948
 21
279.096436
 31
0.0
  0
LINE
  5
2DE
330
1F
100
AcDbEntity
  8
2
 48
0.083714
370
    60
390
F
100
AcDbLine
 10
67.593948
 20
279.096436
 30
0.0
 11
64.259964
 21
278.784424
 31
0.0
  0
LINE
  5
2DF
330
1F
100
AcDbEntity
  8
2
 48
0.09251
370
    60
390
F
100
AcDbLine
 10
64.259964
 20
278.784424
 30
0.0
 11
60.572098
 21
278.479889
 31
0.0
  0
LWPOLYLINE
  5
2E0
330
1F
100
AcDbEntity
  8
2
370
    60
390
F
100
AcDbPolyline
 90
        4
 70
     0
 43
0.0
 10
-302.516647
 20
370.898041
 10
-301.647934
 20
367.409271
 10
-300.869675
 20
364.461945
 10
-299.844589
 20
360.970947
  0
LWPOLYLINE
  5
2E6
330
1F
100
AcDbEntity
  8
2
370
    60
390
F
100
AcDbPolyline
 90
        3
 70
     0
 43
0.0
 10
-299.844589
 20
360.970947
 10
-298.543564
 20
357.196045
 10
-297.519577
 20
354.526184
  0
LWPOLYLINE
  5
2EB
330
1F
100
AcDbEntity
  8
2
370
    60
390
F
100
AcDbPolyline
 90
        4
 70
     0
 43
0.0
 10
-297.519577
 20
354.526184
 10
-296.749069
 20
352.654083
 10
-295.941818
 20
350.797882
 10
-294.762009
 20
348.251038
  0
LWPOLYLINE
  5
2F1
330
1F
100
AcDbEntity
  8
2
370
    60
390
F
100
AcDbPolyline
 90
        3
 70
     0
 43
0.0
 10
-294.762009
 20
348.251038
 10
-292.944809
 20
344.649628
 10
-291.589279
 20
342.174225
  0
LWPOLYLINE
  5
2F6
330
1F
100
AcDbEntity
  8
2
370
    60
390
F
100
AcDbPolyline
 90
        4
 70
     0
 43
0.0
 10
-291.589279
 20
342.174225
 10
-290.588791
 20
340.446564
 10
-289.554367
 20
338.73999
 10
-288.010971
 20
336.328796
  0
LWPOLYLINE
  5
2FC
330
1F
100
AcDbEntity
  8
2
370
    60
390
F
100
AcDbPolyline
 90
        3
 70
     0
 43
0.0
 10
-288.010971
 20
336.328796
 10
-285.769943
 20
333.081238
 10
-284.035568
 20
330.748169
  0
LWPOLYLINE
  5
301
330
1F
100
AcDbEntity
  8
2
370
    60
390
F
100
AcDbPolyline
 90
        4
 70
     0
 43
0.0
 10
-284.035568
 20
330.748169
 10
-282.821701
 20
329.19809
 10
-281.576828
 20
327.673401
 10
-279.676071
 20
325.461731
  0
LWPOLYLINE
  5
307
330
1F
100
AcDbEntity
  8
2
370
    60
390
F
100
AcDbPolyline
 90
        3
 70
     0
 43
0.0
 10
-279.676071
 20
325.461731
 10
-276.974045
 20
322.53241
 10
-274.956284
 20
320.490906
  0
LWPOLYLINE
  5
30C
330
1F
100
AcDbEntity
  8
2
370
    60
390
F
100
AcDbPolyline
 90
        3
 70
     0
 43
0.0
 10
-274.956284
 20
320.490906
 10
-271.94902
 20
317.646973
 10
-269.916611
 20
315.844543
  0
LWPOLYLINE
  5
311
330
1F
100
AcDbEntity
  8
2
370
    60
390
F
100
AcDbPolyline
 90
        3
 70
     0
 43
0.0
 10
-269.916611
 20
315.844543
 10
-266.630173
 20
313.109497
 10
-264.567123
 20
311.49408
  0
LWPOLYLINE
  5
316
330
1F
100
AcDbEntity
  8
2
370
    60
390
F
100
AcDbPolyline
 90
        3
 70
     0
 43
0.0
 10
-264.567123
 20
311.49408
 10
-261.014084
 20
308.876282
 10
-258.940109
 20
307.437561
  0
LWPOLYLINE
  5
31B
330
1F
100
AcDbEntity
  8
2
370
    60
390
F
100
AcDbPolyline
 90
        3
 70
     0
 43
0.0
 10
-258.940109
 20
307.437561
 10
-255.087936
 20
304.920746
 10
-253.099289
 20
303.694641
  0
LWPOLYLINE
  5
320
330
1F
100
AcDbEntity
  8
2
370
    60
390
F
100
AcDbPolyline
 90
        4
 70
     0
 43
0.0
 10
-253.099289
 20
303.694641
 10
-251.072495
 20
302.49292
 10
-249.025742
 20
301.325928
 10
-247.073471
 20
300.255157
  0
LWPOLYLINE
  5
326
330
1F
100
AcDbEntity
  8
2
370
    60
390
F
100
AcDbPolyline
 90
        3
 70
     0
 43
0.0
 10
-247.073471
 20
300.255157
 10
-242.860947
 20
298.079285
 10
-240.883835
 20
297.119141
  0
LWPOLYLINE
  5
32B
330
1F
100
AcDbEntity
  8
2
370
    60
390
F
100
AcDbPolyline
 90
        3
 70
     0
 43
0.0
 10
-240.883835
 20
297.119141
 10
-236.591782
 20
295.164734
 10
-234.546677
 20
294.294434
  0
LWPOLYLINE
  5
330
330
1F
100
AcDbEntity
  8
2
370
    60
390
F
100
AcDbPolyline
 90
        3
 70
     0
 43
0.0
 10
-234.546677
 20
294.294434
 10
-230.217819
 20
292.579651
 10
-228.075485
 20
291.793884
  0
LWPOLYLINE
  5
335
330
1F
100
AcDbEntity
  8
2
370
    60
390
F
100
AcDbPolyline
 90
        3
 70
     0
 43
0.0
 10
-228.075485
 20
291.793884
 10
-223.732346
 20
290.327148
 10
-221.4832
 20
289.633179
  0
LWPOLYLINE
  5
33A
330
1F
100
AcDbEntity
  8
2
370
    60
390
F
100
AcDbPolyline
 90
        3
 70
     0
 43
0.0
 10
-221.4832
 20
289.633179
 10
-217.127243
 20
288.415039
 10
-214.784348
 20
287.82782
  0
LWPOLYLINE
  5
33F
330
1F
100
AcDbEntity
  8
2
370
    60
390
F
100
AcDbPolyline
 90
        3
 70
     0
 43
0.0
 10
-214.784348
 20
287.82782
 10
-210.974045
 20
286.993134
 10
-204.584885
 20
285.766113
  0
LINE
  5
344
330
1F
100
AcDbEntity
  8
2
 48
0.156587
370
    60
390
F
100
AcDbLine
 10
-300.128403
 20
427.823303
 30
0.0
 11
-300.11998
 21
421.559814
 31
0.0
  0
LINE
  5
345
330
1F
100
AcDbEntity
  8
2
 48
0.060904
370
    60
390
F
100
AcDbLine
 10
-300.11998
 20
421.559814
 30
0.0
 11
-300.107956
 21
419.123688
 31
0.0
  0
LINE
  5
346
330
1F
100
AcDbEntity
  8
2
 48
0.052208
370
    60
390
F
100
AcDbLine
 10
-300.107956
 20
419.123688
 30
0.0
 11
-300.090866
 21
417.035431
 31
0.0
  0
LINE
  5
347
330
1F
100
AcDbEntity
  8
2
 48
0.043509
370
    60
390
F
100
AcDbLine
 10
-300.090866
 20
417.035431
 30
0.0
 11
-300.071823
 21
415.295166
 31
0.0
  0
LINE
  5
348
330
1F
100
AcDbEntity
  8
2
 48
0.026107
370
    60
390
F
100
AcDbLine
 10
-300.071823
 20
415.295166
 30
0.0
 11
-300.057236
 21
414.251007
 31
0.0
  0
LINE
  5
349
330
1F
100
AcDbEntity
  8
2
 48
0.052211
370
    60
390
F
100
AcDbLine
 10
-300.057236
 20
414.251007
 30
0.0
 11
-300.016342
 21
412.162964
 31
0.0
  0
LINE
  5
34A
330
1F
100
AcDbEntity
  8
2
 48
0.087018
370
    60
390
F
100
AcDbLine
 10
-300.016342
 20
412.162964
 30
0.0
 11
-299.927963
 21
408.68338
 31
0.0
  0
LINE
  5
34B
330
1F
100
AcDbEntity
  8
2
 48
0.087018
370
    60
390
F
100
AcDbLine
 10
-299.927963
 20
408.68338
 30
0.0
 11
-299.801743
 21
405.204956
 31
0.0
  0
LINE
  5
34C
330
1F
100
AcDbEntity
  8
2
 48
0.087012
370
    60
390
F
100
AcDbLine
 10
-299.801743
 20
405.204956
 30
0.0
 11
-299.63121
 21
401.728668
 31
0.0
  0
LINE
  5
34D
330
1F
100
AcDbEntity
  8
2
 48
0.086996
370
    60
390
F
100
AcDbLine
 10
-299.63121
 20
401.728668
 30
0.0
 11
-299.409836
 21
398.25589
 31
0.0
  0
LINE
  5
34E
330
1F
100
AcDbEntity
  8
2
 48
0.086968
370
    60
390
F
100
AcDbLine
 10
-299.409836
 20
398.25589
 30
0.0
 11
-299.131393
 21
394.78833
 31
0.0
  0
LINE
  5
34F
330
1F
100
AcDbEntity
  8
2
 48
0.086924
370
    60
390
F
100
AcDbLine
 10
-299.131393
 20
394.78833
 30
0.0
 11
-298.789841
 21
391.328186
 31
0.0
  0
LINE
  5
350
330
1F
100
AcDbEntity
  8
2
 48
0.086863
370
    60
390
F
100
AcDbLine
 10
-298.789841
 20
391.328186
 30
0.0
 11
-298.379562
 21
387.877991
 31
0.0
  0
LINE
  5
351
330
1F
100
AcDbEntity
  8
2
 48
0.086781
370
    60
390
F
100
AcDbLine
 10
-298.379562
 20
387.877991
 30
0.0
 11
-297.895493
 21
384.440674
 31
0.0
  0
LINE
  5
352
330
1F
100
AcDbEntity
  8
2
 48
0.086677
370
    60
390
F
100
AcDbLine
 10
-297.895493
 20
384.440674
 30
0.0
 11
-297.333054
 21
381.019531
 31
0.0
  0
LINE
  5
353
330
1F
100
AcDbEntity
  8
2
 48
0.05196
370
    60
390
F
100
AcDbLine
 10
-297.333054
 20
381.019531
 30
0.0
 11
-296.966354
 21
378.973724
 31
0.0
  0
LWPOLYLINE
  5
354
330
1F
100
AcDbEntity
  8
2
370
    60
390
F
100
AcDbPolyline
 90
        4
 70
     0
 43
0.0
 10
-296.966354
 20
378.973724
 10
-296.511337
 20
376.715271
 10
-296.016586
 20
374.465302
 10
-295.965744
 20
374.244141
  0
LINE
  5
35A
330
1F
100
AcDbEntity
  8
2
 48
0.027789
370
    60
390
F
100
AcDbLine
 10
-295.965744
 20
374.244141
 30
0.0
 11
-295.710922
 21
373.16217
 31
0.0
  0
LINE
  5
35B
330
1F
100
AcDbEntity
  8
2
 48
0.031123
370
    60
390
F
100
AcDbLine
 10
-295.710922
 20
373.16217
 30
0.0
 11
-295.429062
 21
371.949585
 31
0.0
  0
LINE
  5
35C
330
1F
100
AcDbEntity
  8
2
 48
0.01596
370
    60
390
F
100
AcDbLine
 10
-295.429062
 20
371.949585
 30
0.0
 11
-295.287155
 21
371.327148
 31
0.0
  0
LINE
  5
35D
330
1F
100
AcDbEntity
  8
2
 48
0.008013
370
    60
390
F
100
AcDbLine
 10
-295.287155
 20
371.327148
 30
0.0
 11
-295.212082
 21
371.015564
 31
0.0
  0
LWPOLYLINE
  5
35E
330
1F
100
AcDbEntity
  8
2
370
    60
390
F
100
AcDbPolyline
 90
        3
 70
     0
 43
0.0
 10
-295.212143
 20
371.015625
 10
-294.747238
 20
369.561768
 10
-293.849655
 20
366.798615
  0
LWPOLYLINE
  5
363
330
1F
100
AcDbEntity
  8
2
370
    60
390
F
100
AcDbPolyline
 90
        6
 70
     0
 43
0.0
 10
-293.849655
 20
366.798615
 10
-293.287399
 20
365.135834
 10
-292.688766
 20
363.490601
 10
-292.055466
 20
361.867065
 10
-291.386032
 20
360.261017
 10
-290.767502
 20
358.863281
  0
LWPOLYLINE
  5
36B
330
1F
100
AcDbEntity
  8
2
370
    60
390
F
100
AcDbPolyline
 90
        6
 70
     0
 43
0.0
 10
-290.767502
 20
358.863281
 10
-290.011887
 20
357.250092
 10
-289.222397
 20
355.658875
 10
-288.401291
 20
354.094055
 10
-287.546432
 20
352.551086
 10
-286.869431
 20
351.384979
  0
LWPOLYLINE
  5
373
330
1F
100
AcDbEntity
  8
2
370
    60
390
F
100
AcDbPolyline
 90
        6
 70
     0
 43
0.0
 10
-286.869431
 20
351.384979
 10
-285.933395
 20
349.844086
 10
-284.96611
 20
348.328857
 10
-283.970505
 20
346.843567
 10
-282.943771
 20
345.38382
 10
-282.248215
 20
344.433228
  0
LWPOLYLINE
  5
37B
330
1F
100
AcDbEntity
  8
2
370
    60
390
F
100
AcDbPolyline
 90
        6
 70
     0
 43
0.0
 10
-282.248215
 20
344.433228
 10
-281.143845
 20
342.980835
 10
-280.011032
 20
341.55719
 10
-278.853012
 20
340.166168
 10
-277.666672
 20
338.803711
 10
-276.993027
 20
338.05658
  0
LWPOLYLINE
  5
383
330
1F
100
AcDbEntity
  8
2
370
    60
390
F
100
AcDbPolyline
 90
        6
 70
     0
 43
0.0
 10
-276.993027
 20
338.05658
 10
-275.731308
 20
336.704285
 10
-274.443954
 20
335.383209
 10
-273.134323
 20
334.096649
 10
-271.79924
 20
332.841156
 10
-271.189072
 20
332.285431
  0
LWPOLYLINE
  5
38B
330
1F
100
AcDbEntity
  8
2
370
    60
390
F
100
AcDbPolyline
 90
        6
 70
     0
 43
0.0
 10
-271.189072
 20
332.285431
 10
-269.779709
 20
331.041382
 10
-268.347519
 20
329.830566
 10
-266.89592
 20
328.655731
 10
-265.421494
 20
327.514008
 10
-264.916794
 20
327.134674
  0
LWPOLYLINE
  5
393
330
1F
100
AcDbEntity
  8
2
370
    60
390
F
100
AcDbPolyline
 90
        6
 70
     0
 43
0.0
 10
-264.916794
 20
327.134674
 10
-263.369064
 20
326.005188
 10
-261.801193
 20
324.910583
 10
-260.216415
 20
323.853027
 10
-258.611679
 20
322.830261
 10
-258.250961
 20
322.606842
  0
LWPOLYLINE
  5
39B
330
1F
100
AcDbEntity
  8
2
370
    60
390
F
100
AcDbPolyline
 90
        6
 70
     0
 43
0.0
 10
-258.250961
 20
322.606842
 10
-256.574142
 20
321.597229
 10
-254.879929
 20
320.623901
 10
-253.171432
 20
319.688477
 10
-251.445602
 20
318.789215
 10
-251.259995
 20
318.69519
  0
LWPOLYLINE
  5
3A3
330
1F
100
AcDbEntity
  8
2
370
    60
390
F
100
AcDbPolyline
 90
        4
 70
     0
 43
0.0
 10
-251.259995
 20
318.69519
 10
-249.46489
 20
317.810608
 10
-247.655075
 20
316.96344
 10
-244.005417
 20
315.387024
  0
LINE
  5
3A9
330
1F
100
AcDbEntity
  8
2
 48
0.108572
370
    60
390
F
100
AcDbLine
 10
-244.005417
 20
315.387024
 30
0.0
 11
-239.978928
 21
313.759735
 31
0.0
  0
LWPOLYLINE
  5
3AA
330
1F
100
AcDbEntity
  8
2
370
    60
390
F
100
AcDbPolyline
 90
        4
 70
     0
 43
0.0
 10
-239.978928
 20
313.759735
 10
-238.041306
 20
313.085876
 10
-236.091476
 20
312.450287
 10
-233.093246
 20
311.554321
  0
LWPOLYLINE
  5
3B0
330
1F
100
AcDbEntity
  8
2
370
    60
390
F
100
AcDbPolyline
 90
        3
 70
     0
 43
0.0
 10
-233.093246
 20
311.554321
 10
-229.08934
 20
310.50531
 10
-226.773361
 20
309.97287
  0
LWPOLYLINE
  5
3B5
330
1F
100
AcDbEntity
  8
2
370
    60
390
F
100
AcDbPolyline
 90
        3
 70
     0
 43
0.0
 10
-226.773361
 20
309.97287
 10
-222.587143
 20
309.140472
 10
-220.344101
 20
308.760773
  0
LINE
  5
3BA
330
1F
100
AcDbEntity
  8
2
 48
0.054793
370
    60
390
F
100
AcDbLine
 10
-220.344101
 20
308.760773
 30
0.0
 11
-218.176559
 21
308.436188
 31
0.0
  0
LWPOLYLINE
  5
3BB
330
1F
100
AcDbEntity
  8
2
370
    60
390
F
100
AcDbPolyline
 90
        4
 70
     0
 43
0.0
 10
-218.176559
 20
308.436188
 10
-215.894943
 20
308.136078
 10
-213.608444
 20
307.876099
 10
-212.327866
 20
307.748199
  0
LINE
  5
3C1
330
1F
100
AcDbEntity
  8
2
 48
0.018307
370
    60
390
F
100
AcDbLine
 10
-212.327866
 20
307.748199
 30
0.0
 11
-211.598679
 21
307.681122
 31
0.0
  0
LWPOLYLINE
  5
3C2
330
1F
100
AcDbEntity
  8
2
370
    60
390
F
100
AcDbPolyline
 90
        3
 70
     0
 43
0.0
 10
-211.598679
 20
307.681122
 10
-206.495041
 20
307.306641
 10
-205.768723
 20
307.266235
  0
LINE
  5
3C7
330
1F
100
AcDbEntity
  8
2
 48
0.027721
370
    60
390
F
100
AcDbLine
 10
-205.768723
 20
307.266235
 30
0.0
 11
-204.661301
 21
307.210022
 31
0.0
  0
LINE
  5
3C8
330
1F
100
AcDbEntity
  8
2
 48
0.404325
370
    60
390
F
100
AcDbLine
 10
-204.661301
 20
307.210388
 30
0.0
 11
-188.50444
 21
306.488068
 31
0.0
  0
LINE
  5
3C9
330
1F
100
AcDbEntity
  8
2
 48
0.269372
370
    60
390
F
100
AcDbLine
 10
-188.50444
 20
306.488068
 30
0.0
 11
-177.738449
 21
306.050476
 31
0.0
  0
LINE
  5
3CA
330
1F
100
AcDbEntity
  8
2
 48
0.271161
370
    60
390
F
100
AcDbLine
 10
-177.738449
 20
306.050476
 30
0.0
 11
-166.899277
 21
305.653534
 31
0.0
  0
LINE
  5
3CB
330
1F
100
AcDbEntity
  8
2
 48
0.272516
370
    60
390
F
100
AcDbLine
 10
-166.899277
 20
305.653534
 30
0.0
 11
-156.004318
 21
305.302185
 31
0.0
  0
LINE
  5
3CC
330
1F
100
AcDbEntity
  8
2
 48
0.273497
370
    60
390
F
100
AcDbLine
 10
-156.004318
 20
305.302185
 30
0.0
 11
-145.068649
 21
304.999298
 31
0.0
  0
LINE
  5
3CD
330
1F
100
AcDbEntity
  8
2
 48
0.27415
370
    60
390
F
100
AcDbLine
 10
-145.068649
 20
304.999298
 30
0.0
 11
-134.105576
 21
304.74585
 31
0.0
  0
LINE
  5
3CE
330
1F
100
AcDbEntity
  8
2
 48
0.274534
370
    60
390
F
100
AcDbLine
 10
-134.105576
 20
304.74585
 30
0.0
 11
-123.126144
 21
304.541016
 31
0.0
  0
LINE
  5
3CF
330
1F
100
AcDbEntity
  8
2
 48
0.274691
370
    60
390
F
100
AcDbLine
 10
-123.126144
 20
304.541016
 30
0.0
 11
-112.139633
 21
304.382355
 31
0.0
  0
LINE
  5
3D0
330
1F
100
AcDbEntity
  8
2
 48
0.274675
370
    60
390
F
100
AcDbLine
 10
-112.139633
 20
304.382355
 30
0.0
 11
-101.153244
 21
304.265747
 31
0.0
  0
LINE
  5
3D1
330
1F
100
AcDbEntity
  8
2
 48
0.18354
370
    60
390
F
100
AcDbLine
 10
-101.153244
 20
304.265747
 30
0.0
 11
-93.811874
 21
304.2052
 31
0.0
  0
LINE
  5
3D2
330
1F
100
AcDbEntity
  8
2
 48
0.369585
370
    60
390
F
100
AcDbLine
 10
-93.811874
 20
304.2052
 30
0.0
 11
-79.02861
 21
304.139587
 31
0.0
  0
LINE
  5
3D3
330
1F
100
AcDbEntity
  8
2
 48
0.276819
370
    60
390
F
100
AcDbLine
 10
-79.02861
 20
304.139587
 30
0.0
 11
-67.955856
 21
304.126801
 31
0.0
  0
LINE
  5
3D4
330
1F
100
AcDbEntity
  8
2
 48
0.138249
370
    60
390
F
100
AcDbLine
 10
-67.955856
 20
304.126801
 30
0.0
 11
-62.425888
 21
304.129913
 31
0.0
  0
LINE
  5
3D5
330
1F
100
AcDbEntity
  8
2
 48
0.252233
370
    60
390
F
100
AcDbLine
 10
-62.425888
 20
304.129913
 30
0.0
 11
-52.336594
 21
304.149048
 31
0.0
  0
LINE
  5
3D6
330
1F
100
AcDbEntity
  8
2
 48
0.319891
370
    60
390
F
100
AcDbLine
 10
-52.336594
 20
304.149048
 30
0.0
 11
-39.541
 21
304.187714
 31
0.0
  0
LINE
  5
3D7
330
1F
100
AcDbEntity
  8
2
 48
0.319309
370
    60
390
F
100
AcDbLine
 10
-39.541
 20
304.187714
 30
0.0
 11
-26.768723
 21
304.234406
 31
0.0
  0
LINE
  5
3D8
330
1F
100
AcDbEntity
  8
2
 48
0.318734
370
    60
390
F
100
AcDbLine
 10
-26.768723
 20
304.234406
 30
0.0
 11
-14.019455
 21
304.279175
 31
0.0
  0
LINE
  5
3D9
330
1F
100
AcDbEntity
  8
2
 48
0.318183
370
    60
390
F
100
AcDbLine
 10
-14.019455
 20
304.279175
 30
0.0
 11
-1.29216
 21
304.312866
 31
0.0
  0
LINE
  5
3DA
330
1F
100
AcDbEntity
  8
2
 48
0.317673
370
    60
390
F
100
AcDbLine
 10
-1.29216
 20
304.312866
 30
0.0
 11
11.414749
 21
304.327454
 31
0.0
  0
LINE
  5
3DB
330
1F
100
AcDbEntity
  8
2
 48
0.317227
370
    60
390
F
100
AcDbLine
 10
11.414749
 20
304.327454
 30
0.0
 11
24.103836
 21
304.316101
 31
0.0
  0
LINE
  5
3DC
330
1F
100
AcDbEntity
  8
2
 48
0.316848
370
    60
390
F
100
AcDbLine
 10
24.103836
 20
304.316101
 30
0.0
 11
36.777664
 21
304.273346
 31
0.0
  0
LINE
  5
3DD
330
1F
100
AcDbEntity
  8
2
 48
0.316553
370
    60
390
F
100
AcDbLine
 10
36.777664
 20
304.273346
 30
0.0
 11
49.439529
 21
304.195313
 31
0.0
  0
LINE
  5
3DE
330
1F
100
AcDbEntity
  8
2
 48
0.316346
370
    60
390
F
100
AcDbLine
 10
49.439529
 20
304.195313
 30
0.0
 11
62.09285
 21
304.079956
 31
0.0
  0
LINE
  5
3DF
330
1F
100
AcDbEntity
  8
2
 48
0.225704
370
    60
390
F
100
AcDbLine
 10
62.09285
 20
304.079956
 30
0.0
 11
71.120438
 21
303.977966
 31
0.0
  0
LINE
  5
3E0
330
1F
100
AcDbEntity
  8
2
 48
0.270281
370
    60
390
F
100
AcDbLine
 10
71.120438
 20
303.977966
 30
0.0
 11
81.930618
 21
303.825989
 31
0.0
  0
LINE
  5
3E1
330
1F
100
AcDbEntity
  8
2
 48
0.110167
370
    60
390
F
100
AcDbLine
 10
81.930618
 20
303.825989
 30
0.0
 11
86.336746
 21
303.756714
 31
0.0
  0
LINE
  5
3E2
330
1F
100
AcDbEntity
  8
2
 48
0.017951
370
    60
390
F
100
AcDbLine
 10
96.062454
 20
303.17804
 30
0.0
 11
96.207962
 21
302.474915
 31
0.0
  0
LWPOLYLINE
  5
3E3
330
1F
100
AcDbEntity
  8
2
370
    60
390
F
100
AcDbPolyline
 90
        3
 70
     0
 43
0.0
 10
96.207962
 20
302.474915
 10
96.167923
 20
302.060791
 10
96.111649
 20
301.900513
  0
LWPOLYLINE
  5
3E8
330
1F
100
AcDbEntity
  8
2
370
    60
390
F
100
AcDbPolyline
 90
        3
 70
     0
 43
0.0
 10
96.111649
 20
301.900513
 10
95.808792
 20
301.385681
 10
95.498734
 20
300.959656
  0
LINE
  5
3ED
330
1F
100
AcDbEntity
  8
2
 48
0.037638
370
    60
390
F
100
AcDbLine
 10
90.871414
 20
303.694366
 30
0.0
 11
92.375931
 21
303.639343
 31
0.0
  0
LINE
  5
3EE
330
1F
100
AcDbEntity
  8
2
 48
0.023154
370
    60
390
F
100
AcDbLine
 10
92.375931
 20
303.639343
 30
0.0
 11
93.295731
 21
303.530975
 31
0.0
  0
LINE
  5
3EF
330
1F
100
AcDbEntity
  8
2
 48
0.021889
370
    60
390
F
100
AcDbLine
 10
93.295731
 20
303.530975
 30
0.0
 11
94.158279
 21
303.380493
 31
0.0
  0
LWPOLYLINE
  5
3F0
330
1F
100
AcDbEntity
  8
2
370
    60
390
F
100
AcDbPolyline
 90
        4
 70
     0
 43
0.0
 10
-262.007248
 20
328.536072
 10
-264.94664
 20
330.744476
 10
-267.801804
 20
333.089935
 10
-268.28154
 20
333.504761
  0
LINE
  5
3F6
330
1F
100
AcDbEntity
  8
2
 48
0.071238
370
    60
390
F
100
AcDbLine
 10
-281.873947
 20
348.794861
 30
0.0
 11
-283.431808
 21
351.180817
 31
0.0
  0
LWPOLYLINE
  5
3F7
330
1F
100
AcDbEntity
  8
2
370
    60
390
F
100
AcDbPolyline
 90
        3
 70
     0
 43
0.0
 10
-283.431808
 20
351.180817
 10
-285.216293
 20
354.176575
 10
-286.023605
 20
355.642273
  0
LWPOLYLINE
  5
3FC
330
1F
100
AcDbEntity
  8
2
370
    60
390
F
100
AcDbPolyline
 90
        4
 70
     0
 43
0.0
 10
-204.167221
 20
310.135498
 10
-206.842636
 20
310.2771
 10
-209.490219
 20
310.460114
 10
-210.57164
 20
310.548035
  0
LWPOLYLINE
  5
402
330
1F
100
AcDbEntity
  8
2
370
    60
390
F
100
AcDbPolyline
 90
        5
 70
     0
 43
0.0
 10
-210.57164
 20
310.548035
 10
-211.556625
 20
310.63443
 10
-213.813889
 20
310.859894
 10
-216.055038
 20
311.124298
 10
-217.717331
 20
311.347168
  0
LWPOLYLINE
  5
409
330
1F
100
AcDbEntity
  8
2
370
    60
390
F
100
AcDbPolyline
 90
       16
 70
     0
 43
0.0
 10
-217.717331
 20
311.347168
 10
-218.679001
 20
311.486176
 10
-220.807541
 20
311.822357
 10
-222.923264
 20
312.197662
 10
-224.99205
 20
312.60553
 10
-227.048508
 20
313.052338
 10
-229.062546
 20
313.531158
 10
-231.064682
 20
314.048798
 10
-232.481491
 20
314.440887
 10
-234.428391
 20
315.015472
 10
-236.363327
 20
315.628693
 10
-238.265549
 20
316.273743
 10
-240.155136
 20
316.957184
 10
-242.012253
 20
317.671661
 10
-243.856003
 20
318.424316
 10
-245.515549
 20
319.139862
  0
LWPOLYLINE
  5
41B
330
1F
100
AcDbEntity
  8
2
370
    60
390
F
100
AcDbPolyline
 90
        3
 70
     0
 43
0.0
 10
-288.193222
 20
360.018066
 10
-289.550461
 20
363.190002
 10
-289.610947
 20
363.3414
  0
LWPOLYLINE
  5
420
330
1F
100
AcDbEntity
  8
2
370
    60
390
F
100
AcDbPolyline
 90
        4
 70
     0
 43
0.0
 10
-291.326706
 20
368.137329
 10
-291.822556
 20
369.763336
 10
-292.278
 20
371.404266
 10
-292.309433
 20
371.524261
  0
LWPOLYLINE
  5
426
330
1F
100
AcDbEntity
  8
2
370
    60
390
F
100
AcDbPolyline
 90
        4
 70
     0
 43
0.0
 10
-254.568161
 20
323.735718
 10
-256.212448
 20
324.708862
 10
-257.838181
 20
325.717865
 10
-258.652451
 20
326.241455
  0
LWPOLYLINE
  5
42C
330
1F
100
AcDbEntity
  8
2
370
    60
390
F
100
AcDbPolyline
 90
        3
 70
     0
 43
0.0
 10
-276.990158
 20
342.351776
 10
-279.218185
 20
345.121277
 10
-279.636337
 20
345.670349
  0
LWPOLYLINE
  5
431
330
1F
100
AcDbEntity
  8
2
370
    60
390
F
100
AcDbPolyline
 90
        4
 70
     0
 43
0.0
 10
-246.703781
 20
319.674988
 10
-248.478256
 20
320.510773
 10
-250.236984
 20
321.383881
 10
-251.157944
 20
321.859406
  0
LWPOLYLINE
  5
437
330
1F
100
AcDbEntity
  8
2
370
    60
390
F
100
AcDbPolyline
 90
        3
 70
     0
 43
0.0
 10
-270.912155
 20
335.90033
 10
-273.461166
 20
338.434113
 10
-273.782028
 20
338.769409
  0
LWPOLYLINE
  5
43C
330
1F
100
AcDbEntity
  8
2
370
    60
390
F
100
AcDbPolyline
 90
        3
 70
     0
 43
0.0
 10
-292.309494
 20
371.524567
 10
-292.685471
 20
373.138
 10
-292.703415
 20
373.213715
  0
LWPOLYLINE
  5
441
330
1F
100
AcDbEntity
  8
2
370
    60
390
F
100
AcDbPolyline
 90
        3
 70
     0
 43
0.0
 10
-292.703415
 20
373.213715
 10
-293.463852
 20
376.507324
 10
-294.138718
 20
379.826569
  0
LWPOLYLINE
  5
446
330
1F
100
AcDbEntity
  8
2
370
    60
390
F
100
AcDbPolyline
 90
       10
 70
     0
 43
0.0
 10
-294.138718
 20
379.826569
 10
-294.926498
 20
384.397949
 10
-295.593491
 20
389.190643
 10
-296.139999
 20
394.249237
 10
-296.567795
 20
399.649414
 10
-296.879623
 20
405.520416
 10
-296.938339
 20
407.041809
 10
-297.113022
 20
413.888794
 10
-297.184982
 20
422.227753
 10
-297.19017
 20
426.572601
  0
LWPOLYLINE
  5
452
330
1F
100
AcDbEntity
  8
2
370
    60
390
F
100
AcDbPolyline
 90
        4
 70
     0
 43
0.0
 10
91.568069
 20
306.570618
 10
90.933914
 20
306.640869
 10
90.264603
 20
306.672485
 10
90.199905
 20
306.67334
  0
LWPOLYLINE
  5
458
330
1F
100
AcDbEntity
  8
2
370
    60
390
F
100
AcDbPolyline
 90
       18
 70
     0
 43
0.0
 10
86.684402
 20
306.725525
 10
68.366531
 20
306.985107
 10
63.267044
 20
307.042938
 10
37.725174
 20
307.239502
 10
10.894974
 20
307.291779
 10
6.192459
 20
307.287354
 10
-22.273605
 20
307.206482
 10
-58.782455
 20
307.082703
 10
-78.60997
 20
307.085571
 10
-95.653793
 20
307.163757
 10
-108.028366
 20
307.274353
 10
-120.406235
 20
307.436768
 10
-132.463364
 20
307.651215
 10
-142.459641
 20
307.873322
 10
-152.435837
 20
308.136688
 10
-171.750656
 20
308.766052
 10
-191.697983
 20
309.569397
 10
-204.16716
 20
310.135864
  0
LWPOLYLINE
  5
46C
330
1F
100
AcDbEntity
  8
2
370
    60
390
F
100
AcDbPolyline
 90
        3
 70
     0
 43
0.0
 10
95.291092
 20
304.478912
 10
95.268997
 20
304.650787
 10
95.197464
 20
304.836029
  0
LINE
  5
471
330
1F
100
AcDbEntity
  8
2
 48
0.004211
370
    60
390
F
100
AcDbLine
 10
96.029251
 20
303.342651
 30
0.0
 11
96.066116
 21
303.178284
 31
0.0
  0
LWPOLYLINE
  5
472
330
1F
100
AcDbEntity
  8
2
370
    60
390
F
100
AcDbPolyline
 90
        3
 70
     0
 43
0.0
 10
74.43306
 20
280.161438
 10
71.228714
 20
279.588135
 10
70.604691
 20
279.493286
  0
LWPOLYLINE
  5
477
330
1F
100
AcDbEntity
  8
2
370
    60
390
F
100
AcDbPolyline
 90
        3
 70
     0
 43
0.0
 10
78.8918
 20
281.333099
 10
78.343826
 20
281.101379
 10
78.262039
 20
281.074341
  0
LWPOLYLINE
  5
47C
330
1F
100
AcDbEntity
  8
2
370
    60
390
F
100
AcDbPolyline
 90
       16
 70
     0
 43
0.0
 10
-321.861984
 20
426.572601
 10
-321.834091
 20
419.614899
 10
-321.739914
 20
412.657715
 10
-321.62944
 20
408.106232
 10
-321.471054
 20
403.556152
 10
-321.294052
 20
399.719482
 10
-321.072006
 20
395.885437
 10
-320.831894
 20
392.470428
 10
-320.548141
 20
389.059204
 10
-320.24675
 20
385.93988
 10
-319.902512
 20
382.825317
 10
-319.541183
 20
379.932556
 10
-319.137558
 20
377.045502
 10
-318.717209
 20
374.33606
 10
-318.255112
 20
371.63324
 10
-317.398727
 20
367.205048
  0
LWPOLYLINE
  5
48E
330
1F
100
AcDbEntity
  8
2
370
    60
390
F
100
AcDbPolyline
 90
       18
 70
     0
 43
0.0
 10
-317.398727
 20
367.205048
 10
-316.489365
 20
363.229828
 10
-315.409348
 20
359.219391
 10
-314.156967
 20
355.178497
 10
-312.730942
 20
351.113007
 10
-311.130417
 20
347.028992
 10
-309.354782
 20
342.932892
 10
-307.403915
 20
338.831421
 10
-305.278244
 20
334.731903
 10
-302.978867
 20
330.642212
 10
-300.507614
 20
326.570984
 10
-297.867477
 20
322.527802
 10
-295.062668
 20
318.523315
 10
-292.098862
 20
314.569275
 10
-288.983383
 20
310.67865
 10
-285.725571
 20
306.86554
 10
-282.336655
 20
303.144958
 10
-278.959763
 20
299.662384
  0
LWPOLYLINE
  5
4A2
330
1F
100
AcDbEntity
  8
2
370
    60
390
F
100
AcDbPolyline
 90
       17
 70
     0
 43
0.0
 10
-266.308517
 20
289.274475
 10
-263.037521
 20
287.152222
 10
-259.586899
 20
285.101379
 10
-255.951096
 20
283.123779
 10
-252.12413
 20
281.221344
 10
-248.098251
 20
279.39563
 10
-243.863327
 20
277.647583
 10
-242.604965
 20
277.159302
 10
-238.077133
 20
275.510315
 10
-233.323776
 20
273.946198
 10
-228.326645
 20
272.466858
 10
-223.067062
 20
271.073059
 10
-217.523972
 20
269.765808
 10
-211.672775
 20
268.546326
 10
-205.485397
 20
267.415985
 10
-198.929245
 20
266.376526
 10
-197.39006
 20
266.153992
  0
LINE
  5
4B5
330
1F
100
AcDbEntity
  8
2
 48
0.064116
370
    60
390
F
100
AcDbLine
 10
-272.876389
 20
294.163147
 30
0.0
 11
-270.867905
 21
292.568359
 31
0.0
  0
LWPOLYLINE
  5
4B6
330
1F
100
AcDbEntity
  8
2
370
    60
390
F
100
AcDbPolyline
 90
       16
 70
     0
 43
0.0
 10
-197.39006
 20
266.153992
 10
-187.431808
 20
264.816437
 10
-176.971909
 20
263.569153
 10
-166.01561
 20
262.420227
 10
-154.544235
 20
261.374573
 10
-142.53508
 20
260.437012
 10
-129.952255
 20
259.611389
 10
-125.797409
 20
259.371429
 10
-112.240158
 20
258.6922
 10
-98.081161
 20
258.139832
 10
-83.303696
 20
257.720276
 10
-67.994064
 20
257.442963
 10
-52.193527
 20
257.314209
 10
-35.838181
 20
257.337891
 10
-18.669235
 20
257.518005
 10
-16.37175
 20
257.552979
  0
LWPOLYLINE
  5
4C8
330
1F
100
AcDbEntity
  8
2
370
    60
390
F
100
AcDbPolyline
 90
        4
 70
     0
 43
0.0
 10
-2.876022
 20
257.811462
 10
6.410355
 20
258.040344
 10
15.695633
 20
258.309998
 10
20.549881
 20
258.467163
  0
LWPOLYLINE
  5
4CE
330
1F
100
AcDbEntity
  8
2
370
    60
390
F
100
AcDbPolyline
 90
        4
 70
     0
 43
0.0
 10
20.549881
 20
258.467163
 10
29.584427
 20
258.790161
 10
38.617386
 20
259.15332
 10
45.798782
 20
259.470764
  0
LWPOLYLINE
  5
4D4
330
1F
100
AcDbEntity
  8
2
370
    60
390
F
100
AcDbPolyline
 90
        4
 70
     0
 43
0.0
 10
95.498734
 20
554.685547
 10
95.893387
 20
554.133606
 10
96.109207
 20
553.750488
 10
96.111649
 20
553.74469
  0
LWPOLYLINE
  5
4DA
330
1F
100
AcDbEntity
  8
2
370
    60
390
F
100
AcDbPolyline
 90
        4
 70
     0
 43
0.0
 10
96.111649
 20
553.74469
 10
96.185623
 20
553.514465
 10
96.212845
 20
553.291016
 10
96.207962
 20
553.170288
  0
LINE
  5
4E0
330
1F
100
AcDbEntity
  8
2
 48
0.017951
370
    60
390
F
100
AcDbLine
 10
96.207962
 20
553.170288
 30
0.0
 11
96.062454
 21
552.467163
 31
0.0
  0
LINE
  5
4E1
330
1F
100
AcDbEntity
  8
2
 48
0.004211
370
    60
390
F
100
AcDbLine
 10
96.029251
 20
552.302551
 30
0.0
 11
96.066116
 21
552.466919
 31
0.0
  0
LINE
  5
4E2
330
1F
100
AcDbEntity
  8
2
 48
0.156587
370
    60
390
F
100
AcDbLine
 10
-300.128403
 20
427.821899
 30
0.0
 11
-300.11998
 21
434.085388
 31
0.0
  0
LINE
  5
4E3
330
1F
100
AcDbEntity
  8
2
 48
0.060904
370
    60
390
F
100
AcDbLine
 10
-300.11998
 20
434.085388
 30
0.0
 11
-300.107956
 21
436.521515
 31
0.0
  0
LINE
  5
4E4
330
1F
100
AcDbEntity
  8
2
 48
0.052208
370
    60
390
F
100
AcDbLine
 10
-300.107956
 20
436.521515
 30
0.0
 11
-300.090866
 21
438.609772
 31
0.0
  0
LINE
  5
4E5
330
1F
100
AcDbEntity
  8
2
 48
0.043509
370
    60
390
F
100
AcDbLine
 10
-300.090866
 20
438.609772
 30
0.0
 11
-300.071823
 21
440.350037
 31
0.0
  0
LINE
  5
4E6
330
1F
100
AcDbEntity
  8
2
 48
0.026107
370
    60
390
F
100
AcDbLine
 10
-300.071823
 20
440.350037
 30
0.0
 11
-300.057236
 21
441.394196
 31
0.0
  0
LINE
  5
4E7
330
1F
100
AcDbEntity
  8
2
 48
0.052211
370
    60
390
F
100
AcDbLine
 10
-300.057236
 20
441.394196
 30
0.0
 11
-300.016342
 21
443.482239
 31
0.0
  0
LINE
  5
4E8
330
1F
100
AcDbEntity
  8
2
 48
0.087018
370
    60
390
F
100
AcDbLine
 10
-300.016342
 20
443.482239
 30
0.0
 11
-299.927963
 21
446.961823
 31
0.0
  0
LINE
  5
4E9
330
1F
100
AcDbEntity
  8
2
 48
0.087018
370
    60
390
F
100
AcDbLine
 10
-299.927963
 20
446.961823
 30
0.0
 11
-299.801743
 21
450.440247
 31
0.0
  0
LINE
  5
4EA
330
1F
100
AcDbEntity
  8
2
 48
0.087012
370
    60
390
F
100
AcDbLine
 10
-299.801743
 20
450.440247
 30
0.0
 11
-299.63121
 21
453.916534
 31
0.0
  0
LINE
  5
4EB
330
1F
100
AcDbEntity
  8
2
 48
0.086996
370
    60
390
F
100
AcDbLine
 10
-299.63121
 20
453.916534
 30
0.0
 11
-299.409836
 21
457.389313
 31
0.0
  0
LINE
  5
4EC
330
1F
100
AcDbEntity
  8
2
 48
0.086968
370
    60
390
F
100
AcDbLine
 10
-299.409836
 20
457.389313
 30
0.0
 11
-299.131393
 21
460.856873
 31
0.0
  0
LINE
  5
4ED
330
1F
100
AcDbEntity
  8
2
 48
0.086924
370
    60
390
F
100
AcDbLine
 10
-299.131393
 20
460.856873
 30
0.0
 11
-298.789841
 21
464.317017
 31
0.0
  0
LINE
  5
4EE
330
1F
100
AcDbEntity
  8
2
 48
0.086863
370
    60
390
F
100
AcDbLine
 10
-298.789841
 20
464.317017
 30
0.0
 11
-298.379562
 21
467.767212
 31
0.0
  0
LINE
  5
4EF
330
1F
100
AcDbEntity
  8
2
 48
0.086781
370
    60
390
F
100
AcDbLine
 10
-298.379562
 20
467.767212
 30
0.0
 11
-297.895493
 21
471.204529
 31
0.0
  0
LINE
  5
4F0
330
1F
100
AcDbEntity
  8
2
 48
0.086677
370
    60
390
F
100
AcDbLine
 10
-297.895493
 20
471.204529
 30
0.0
 11
-297.333054
 21
474.625671
 31
0.0
  0
LINE
  5
4F1
330
1F
100
AcDbEntity
  8
2
 48
0.05196
370
    60
390
F
100
AcDbLine
 10
-297.333054
 20
474.625671
 30
0.0
 11
-296.966354
 21
476.671478
 31
0.0
  0
LWPOLYLINE
  5
4F2
330
1F
100
AcDbEntity
  8
2
370
    60
390
F
100
AcDbPolyline
 90
        3
 70
     0
 43
0.0
 10
-296.966354
 20
476.671478
 10
-296.028793
 20
481.126587
 10
-295.965744
 20
481.401062
  0
LINE
  5
4F7
330
1F
100
AcDbEntity
  8
2
 48
0.027789
370
    60
390
F
100
AcDbLine
 10
-295.965744
 20
481.401062
 30
0.0
 11
-295.710922
 21
482.483032
 31
0.0
  0
LINE
  5
4F8
330
1F
100
AcDbEntity
  8
2
 48
0.031123
370
    60
390
F
100
AcDbLine
 10
-295.710922
 20
482.483032
 30
0.0
 11
-295.429062
 21
483.695618
 31
0.0
  0
LINE
  5
4F9
330
1F
100
AcDbEntity
  8
2
 48
0.01596
370
    60
390
F
100
AcDbLine
 10
-295.429062
 20
483.695618
 30
0.0
 11
-295.287155
 21
484.318054
 31
0.0
  0
LINE
  5
4FA
330
1F
100
AcDbEntity
  8
2
 48
0.008013
370
    60
390
F
100
AcDbLine
 10
-295.287155
 20
484.318054
 30
0.0
 11
-295.212082
 21
484.629639
 31
0.0
  0
LWPOLYLINE
  5
4FB
330
1F
100
AcDbEntity
  8
2
370
    60
390
F
100
AcDbPolyline
 90
       16
 70
     0
 43
0.0
 10
-321.861984
 20
429.072601
 10
-321.834518
 20
435.9711
 10
-321.742233
 20
442.869049
 10
-321.632614
 20
447.43222
 10
-321.474899
 20
451.993988
 10
-321.29863
 20
455.8367
 10
-321.077316
 20
459.676788
 10
-320.837936
 20
463.095764
 10
-320.554855
 20
466.510986
 10
-320.254196
 20
469.63327
 10
-319.91069
 20
472.750763
 10
-319.549973
 20
475.645874
 10
-319.147079
 20
478.535278
 10
-318.727341
 20
481.246643
 10
-318.265915
 20
483.951416
 10
-317.398727
 20
488.440155
  0
LWPOLYLINE
  5
50D
330
1F
100
AcDbEntity
  8
2
370
    60
390
F
100
AcDbPolyline
 90
        4
 70
     0
 43
0.0
 10
-2.876022
 20
597.83374
 10
6.384232
 20
597.60553
 10
15.643387
 20
597.336853
 10
20.549881
 20
597.17804
  0
LWPOLYLINE
  5
513
330
1F
100
AcDbEntity
  8
2
370
    60
390
F
100
AcDbPolyline
 90
        4
 70
     0
 43
0.0
 10
20.549881
 20
597.17804
 10
29.586624
 20
596.85498
 10
38.62178
 20
596.491699
 10
45.798782
 20
596.174438
  0
LWPOLYLINE
  5
519
330
1F
100
AcDbEntity
  8
2
370
    60
390
F
100
AcDbPolyline
 90
       16
 70
     0
 43
0.0
 10
-197.39006
 20
589.491211
 10
-187.378281
 20
590.835571
 10
-176.915817
 20
592.082336
 10
-165.956894
 20
593.230713
 10
-154.482712
 20
594.275818
 10
-142.470688
 20
595.21283
 10
-129.884689
 20
596.037842
 10
-125.797409
 20
596.273804
 10
-112.282089
 20
596.951172
 10
-98.125168
 20
597.503906
 10
-83.349411
 20
597.923889
 10
-68.041306
 20
598.201599
 10
-52.242294
 20
598.330811
 10
-35.88884
 20
598.307617
 10
-18.723068
 20
598.127991
 10
-16.37175
 20
598.092224
  0
LWPOLYLINE
  5
52B
330
1F
100
AcDbEntity
  8
2
370
    60
390
F
100
AcDbPolyline
 90
       17
 70
     0
 43
0.0
 10
-266.308517
 20
566.370728
 10
-263.038193
 20
568.492554
 10
-259.58757
 20
570.543457
 10
-255.951828
 20
572.521057
 10
-252.124863
 20
574.423523
 10
-248.099045
 20
576.249207
 10
-243.86412
 20
577.997314
 10
-242.604965
 20
578.485901
 10
-238.077866
 20
580.134644
 10
-233.324631
 20
581.69873
 10
-228.327438
 20
583.178101
 10
-223.067917
 20
584.57196
 10
-217.524826
 20
585.879211
 10
-211.673752
 20
587.098694
 10
-205.486374
 20
588.229004
 10
-198.930344
 20
589.268555
 10
-197.39006
 20
589.491211
  0
LINE
  5
53E
330
1F
100
AcDbEntity
  8
2
 48
0.064116
370
    60
390
F
100
AcDbLine
 10
-272.876389
 20
561.482056
 30
0.0
 11
-270.867905
 21
563.076843
 31
0.0
  0
LWPOLYLINE
  5
53F
330
1F
100
AcDbEntity
  8
2
370
    60
390
F
100
AcDbPolyline
 90
       18
 70
     0
 43
0.0
 10
-317.398727
 20
488.440155
 10
-316.489914
 20
492.413055
 10
-315.410019
 20
496.423462
 10
-314.157761
 20
500.464355
 10
-312.731857
 20
504.529816
 10
-311.131393
 20
508.613831
 10
-309.355881
 20
512.70993
 10
-307.405136
 20
516.811401
 10
-305.279587
 20
520.910889
 10
-302.98027
 20
525.00061
 10
-300.509079
 20
529.071899
 10
-297.869064
 20
533.115051
 10
-295.064377
 20
537.119568
 10
-292.100632
 20
541.073669
 10
-288.985214
 20
544.964294
 10
-285.727463
 20
548.777466
 10
-282.338669
 20
552.498108
 10
-278.959763
 20
555.98291
  0
LINE
  5
553
330
1F
100
AcDbEntity
  8
2
 48
0.404325
370
    60
390
F
100
AcDbLine
 10
-204.661301
 20
548.434814
 30
0.0
 11
-188.50444
 21
549.157166
 31
0.0
  0
LINE
  5
554
330
1F
100
AcDbEntity
  8
2
 48
0.269372
370
    60
390
F
100
AcDbLine
 10
-188.50444
 20
549.157166
 30
0.0
 11
-177.738449
 21
549.594727
 31
0.0
  0
LINE
  5
555
330
1F
100
AcDbEntity
  8
2
 48
0.271161
370
    60
390
F
100
AcDbLine
 10
-177.738449
 20
549.594727
 30
0.0
 11
-166.899277
 21
549.991638
 31
0.0
  0
LINE
  5
556
330
1F
100
AcDbEntity
  8
2
 48
0.272516
370
    60
390
F
100
AcDbLine
 10
-166.899277
 20
549.991638
 30
0.0
 11
-156.004318
 21
550.343018
 31
0.0
  0
LINE
  5
557
330
1F
100
AcDbEntity
  8
2
 48
0.273497
370
    60
390
F
100
AcDbLine
 10
-156.004318
 20
550.343018
 30
0.0
 11
-145.068649
 21
550.645874
 31
0.0
  0
LINE
  5
558
330
1F
100
AcDbEntity
  8
2
 48
0.27415
370
    60
390
F
100
AcDbLine
 10
-145.068649
 20
550.645874
 30
0.0
 11
-134.105576
 21
550.899353
 31
0.0
  0
LINE
  5
559
330
1F
100
AcDbEntity
  8
2
 48
0.274534
370
    60
390
F
100
AcDbLine
 10
-134.105576
 20
550.899353
 30
0.0
 11
-123.126144
 21
551.104187
 31
0.0
  0
LINE
  5
55A
330
1F
100
AcDbEntity
  8
2
 48
0.274691
370
    60
390
F
100
AcDbLine
 10
-123.126144
 20
551.104187
 30
0.0
 11
-112.139633
 21
551.262878
 31
0.0
  0
LINE
  5
55B
330
1F
100
AcDbEntity
  8
2
 48
0.274675
370
    60
390
F
100
AcDbLine
 10
-112.139633
 20
551.262878
 30
0.0
 11
-101.153244
 21
551.379456
 31
0.0
  0
LINE
  5
55C
330
1F
100
AcDbEntity
  8
2
 48
0.18354
370
    60
390
F
100
AcDbLine
 10
-101.153244
 20
551.379456
 30
0.0
 11
-93.811874
 21
551.440002
 31
0.0
  0
LINE
  5
55D
330
1F
100
AcDbEntity
  8
2
 48
0.369585
370
    60
390
F
100
AcDbLine
 10
-93.811874
 20
551.440002
 30
0.0
 11
-79.02861
 21
551.505615
 31
0.0
  0
LINE
  5
55E
330
1F
100
AcDbEntity
  8
2
 48
0.276819
370
    60
390
F
100
AcDbLine
 10
-79.02861
 20
551.505615
 30
0.0
 11
-67.955856
 21
551.518433
 31
0.0
  0
LINE
  5
55F
330
1F
100
AcDbEntity
  8
2
 48
0.138249
370
    60
390
F
100
AcDbLine
 10
-67.955856
 20
551.518433
 30
0.0
 11
-62.425888
 21
551.51532
 31
0.0
  0
LINE
  5
560
330
1F
100
AcDbEntity
  8
2
 48
0.252233
370
    60
390
F
100
AcDbLine
 10
-62.425888
 20
551.51532
 30
0.0
 11
-52.336594
 21
551.496155
 31
0.0
  0
LINE
  5
561
330
1F
100
AcDbEntity
  8
2
 48
0.319891
370
    60
390
F
100
AcDbLine
 10
-52.336594
 20
551.496155
 30
0.0
 11
-39.541
 21
551.45752
 31
0.0
  0
LINE
  5
562
330
1F
100
AcDbEntity
  8
2
 48
0.319309
370
    60
390
F
100
AcDbLine
 10
-39.541
 20
551.45752
 30
0.0
 11
-26.768723
 21
551.410767
 31
0.0
  0
LINE
  5
563
330
1F
100
AcDbEntity
  8
2
 48
0.318734
370
    60
390
F
100
AcDbLine
 10
-26.768723
 20
551.410767
 30
0.0
 11
-14.019455
 21
551.366028
 31
0.0
  0
LINE
  5
564
330
1F
100
AcDbEntity
  8
2
 48
0.318183
370
    60
390
F
100
AcDbLine
 10
-14.019455
 20
551.366028
 30
0.0
 11
-1.29216
 21
551.332336
 31
0.0
  0
LINE
  5
565
330
1F
100
AcDbEntity
  8
2
 48
0.317673
370
    60
390
F
100
AcDbLine
 10
-1.29216
 20
551.332336
 30
0.0
 11
11.414749
 21
551.317749
 31
0.0
  0
LINE
  5
566
330
1F
100
AcDbEntity
  8
2
 48
0.317227
370
    60
390
F
100
AcDbLine
 10
11.414749
 20
551.317749
 30
0.0
 11
24.103836
 21
551.329102
 31
0.0
  0
LINE
  5
567
330
1F
100
AcDbEntity
  8
2
 48
0.316848
370
    60
390
F
100
AcDbLine
 10
24.103836
 20
551.329102
 30
0.0
 11
36.777664
 21
551.371826
 31
0.0
  0
LINE
  5
568
330
1F
100
AcDbEntity
  8
2
 48
0.316553
370
    60
390
F
100
AcDbLine
 10
36.777664
 20
551.371826
 30
0.0
 11
49.439529
 21
551.44989
 31
0.0
  0
LINE
  5
569
330
1F
100
AcDbEntity
  8
2
 48
0.316346
370
    60
390
F
100
AcDbLine
 10
49.439529
 20
551.44989
 30
0.0
 11
62.09285
 21
551.565247
 31
0.0
  0
LINE
  5
56A
330
1F
100
AcDbEntity
  8
2
 48
0.225338
370
    60
390
F
100
AcDbLine
 10
62.09285
 20
551.565247
 30
0.0
 11
71.105789
 21
551.667053
 31
0.0
  0
LINE
  5
56B
330
1F
100
AcDbEntity
  8
2
 48
0.268807
370
    60
390
F
100
AcDbLine
 10
71.105789
 20
551.667053
 30
0.0
 11
81.85701
 21
551.818054
 31
0.0
  0
LINE
  5
56C
330
1F
100
AcDbEntity
  8
2
 48
0.112001
370
    60
390
F
100
AcDbLine
 10
81.85701
 20
551.818054
 30
0.0
 11
86.336502
 21
551.888428
 31
0.0
  0
LWPOLYLINE
  5
56D
330
1F
100
AcDbEntity
  8
2
370
    60
390
F
100
AcDbPolyline
 90
        3
 70
     0
 43
0.0
 10
-295.212143
 20
484.629578
 10
-294.747238
 20
486.083435
 10
-293.849655
 20
488.846588
  0
LWPOLYLINE
  5
572
330
1F
100
AcDbEntity
  8
2
370
    60
390
F
100
AcDbPolyline
 90
        6
 70
     0
 43
0.0
 10
-293.849655
 20
488.846588
 10
-293.287399
 20
490.509399
 10
-292.688766
 20
492.154663
 10
-292.055466
 20
493.778168
 10
-291.385971
 20
495.384216
 10
-290.767502
 20
496.781921
  0
LWPOLYLINE
  5
57A
330
1F
100
AcDbEntity
  8
2
370
    60
390
F
100
AcDbPolyline
 90
        6
 70
     0
 43
0.0
 10
-290.767502
 20
496.781921
 10
-290.011887
 20
498.395111
 10
-289.222397
 20
499.986328
 10
-288.401291
 20
501.551147
 10
-287.546432
 20
503.094116
 10
-286.869431
 20
504.260223
  0
LWPOLYLINE
  5
582
330
1F
100
AcDbEntity
  8
2
370
    60
390
F
100
AcDbPolyline
 90
        6
 70
     0
 43
0.0
 10
-286.869431
 20
504.260223
 10
-285.933395
 20
505.801117
 10
-284.966171
 20
507.316345
 10
-283.970505
 20
508.801605
 10
-282.943771
 20
510.261353
 10
-282.248215
 20
511.211975
  0
LWPOLYLINE
  5
58A
330
1F
100
AcDbEntity
  8
2
370
    60
390
F
100
AcDbPolyline
 90
        6
 70
     0
 43
0.0
 10
-282.248215
 20
511.211975
 10
-281.143845
 20
512.664368
 10
-280.011032
 20
514.088013
 10
-278.853012
 20
515.479004
 10
-277.666672
 20
516.841492
 10
-276.993027
 20
517.588623
  0
LWPOLYLINE
  5
592
330
1F
100
AcDbEntity
  8
2
370
    60
390
F
100
AcDbPolyline
 90
        6
 70
     0
 43
0.0
 10
-276.993027
 20
517.588623
 10
-275.731308
 20
518.940918
 10
-274.443893
 20
520.262024
 10
-273.134323
 20
521.548584
 10
-271.799179
 20
522.804077
 10
-271.189072
 20
523.359741
  0
LWPOLYLINE
  5
59A
330
1F
100
AcDbEntity
  8
2
370
    60
390
F
100
AcDbPolyline
 90
        6
 70
     0
 43
0.0
 10
-271.189072
 20
523.359741
 10
-269.779709
 20
524.603882
 10
-268.347458
 20
525.814697
 10
-266.895798
 20
526.989502
 10
-265.421432
 20
528.131226
 10
-264.916794
 20
528.510498
  0
LWPOLYLINE
  5
5A2
330
1F
100
AcDbEntity
  8
2
370
    60
390
F
100
AcDbPolyline
 90
        6
 70
     0
 43
0.0
 10
-264.916794
 20
528.510498
 10
-263.369003
 20
529.640015
 10
-261.801071
 20
530.734619
 10
-260.216354
 20
531.792236
 10
-258.611618
 20
532.815002
 10
-258.250961
 20
533.038391
  0
LWPOLYLINE
  5
5AA
330
1F
100
AcDbEntity
  8
2
370
    60
390
F
100
AcDbPolyline
 90
        6
 70
     0
 43
0.0
 10
-258.250961
 20
533.038391
 10
-256.574265
 20
534.047913
 10
-254.880112
 20
535.02124
 10
-253.171616
 20
535.956665
 10
-251.445724
 20
536.855896
 10
-251.259995
 20
536.950012
  0
LWPOLYLINE
  5
5B2
330
1F
100
AcDbEntity
  8
2
370
    60
390
F
100
AcDbPolyline
 90
        4
 70
     0
 43
0.0
 10
-251.259995
 20
536.950012
 10
-249.464951
 20
537.834534
 10
-247.655197
 20
538.681702
 10
-244.005417
 20
540.258179
  0
LINE
  5
5B8
330
1F
100
AcDbEntity
  8
2
 48
0.108573
370
    60
390
F
100
AcDbLine
 10
-244.005417
 20
540.258179
 30
0.0
 11
-239.978928
 21
541.885498
 31
0.0
  0
LWPOLYLINE
  5
5B9
330
1F
100
AcDbEntity
  8
2
370
    60
390
F
100
AcDbPolyline
 90
        4
 70
     0
 43
0.0
 10
-239.978928
 20
541.885498
 10
-238.042282
 20
542.55896
 10
-236.09343
 20
543.194275
 10
-233.093246
 20
544.090881
  0
LWPOLYLINE
  5
5BF
330
1F
100
AcDbEntity
  8
2
370
    60
390
F
100
AcDbPolyline
 90
        4
 70
     0
 43
0.0
 10
-233.093246
 20
544.090881
 10
-231.088547
 20
544.636719
 10
-229.074142
 20
545.143555
 10
-226.773361
 20
545.672302
  0
LWPOLYLINE
  5
5C5
330
1F
100
AcDbEntity
  8
2
370
    60
390
F
100
AcDbPolyline
 90
        4
 70
     0
 43
0.0
 10
-226.773361
 20
545.672302
 10
-224.675461
 20
546.109741
 10
-222.570236
 20
546.507751
 10
-220.344101
 20
546.884399
  0
LINE
  5
5CB
330
1F
100
AcDbEntity
  8
2
 48
0.054793
370
    60
390
F
100
AcDbLine
 10
-220.344101
 20
546.884399
 30
0.0
 11
-218.176559
 21
547.209045
 31
0.0
  0
LWPOLYLINE
  5
5CC
330
1F
100
AcDbEntity
  8
2
370
    60
390
F
100
AcDbPolyline
 90
        4
 70
     0
 43
0.0
 10
-218.176559
 20
547.209045
 10
-215.904465
 20
547.507935
 10
-213.62767
 20
547.76709
 10
-212.327866
 20
547.896973
  0
LINE
  5
5D2
330
1F
100
AcDbEntity
  8
2
 48
0.018307
370
    60
390
F
100
AcDbLine
 10
-212.327866
 20
547.896973
 30
0.0
 11
-211.598679
 21
547.964111
 31
0.0
  0
LWPOLYLINE
  5
5D3
330
1F
100
AcDbEntity
  8
2
370
    60
390
F
100
AcDbPolyline
 90
        4
 70
     0
 43
0.0
 10
-211.598679
 20
547.964111
 10
-209.03093
 20
548.172424
 10
-206.460312
 20
548.340576
 10
-205.768723
 20
548.378967
  0
LINE
  5
5D9
330
1F
100
AcDbEntity
  8
2
 48
0.027721
370
    60
390
F
100
AcDbLine
 10
-205.768723
 20
548.378967
 30
0.0
 11
-204.661301
 21
548.435181
 31
0.0
  0
LWPOLYLINE
  5
5DA
330
1F
100
AcDbEntity
  8
2
370
    60
390
F
100
AcDbPolyline
 90
       18
 70
     0
 43
0.0
 10
86.684402
 20
548.919678
 10
68.366531
 20
548.660095
 10
63.267044
 20
548.602295
 10
37.495193
 20
548.404602
 10
10.643631
 20
548.353577
 10
6.192459
 20
548.357849
 10
-22.273605
 20
548.438721
 10
-58.782455
 20
548.5625
 10
-78.60997
 20
548.559631
 10
-95.653793
 20
548.481445
 10
-107.898666
 20
548.372253
 10
-120.146896
 20
548.212402
 10
-132.463364
 20
547.993958
 10
-142.476913
 20
547.771484
 10
-152.470322
 20
547.507507
 10
-171.785202
 20
546.87793
 10
-191.734909
 20
546.074219
 10
-204.16716
 20
545.509338
  0
LWPOLYLINE
  5
5EE
330
1F
100
AcDbEntity
  8
2
370
    60
390
F
100
AcDbPolyline
 90
        3
 70
     0
 43
0.0
 10
-292.309494
 20
484.120636
 10
-292.685532
 20
482.50705
 10
-292.703415
 20
482.431488
  0
LWPOLYLINE
  5
5F3
330
1F
100
AcDbEntity
  8
2
370
    60
390
F
100
AcDbPolyline
 90
        3
 70
     0
 43
0.0
 10
-292.703415
 20
482.431488
 10
-293.463852
 20
479.137878
 10
-294.138718
 20
475.818634
  0
LWPOLYLINE
  5
5F8
330
1F
100
AcDbEntity
  8
2
370
    60
390
F
100
AcDbPolyline
 90
       10
 70
     0
 43
0.0
 10
-294.138718
 20
475.818634
 10
-294.927048
 20
471.243713
 10
-295.593918
 20
466.450806
 10
-296.140427
 20
461.391998
 10
-296.5681
 20
455.991547
 10
-296.879807
 20
450.120087
 10
-296.938339
 20
448.603394
 10
-297.113205
 20
441.744995
 10
-297.184982
 20
433.402679
 10
-297.19017
 20
429.072601
  0
LWPOLYLINE
  5
604
330
1F
100
AcDbEntity
  8
2
370
    60
390
F
100
AcDbPolyline
 90
       18
 70
     0
 43
0.0
 10
-280.813156
 20
508.372131
 10
-281.824142
 20
506.923615
 10
-282.803818
 20
505.449341
 10
-283.744247
 20
503.961578
 10
-284.65239
 20
502.449188
 10
-285.520187
 20
500.925964
 10
-286.354782
 20
499.379272
 10
-286.589645
 20
498.92804
 10
-287.047409
 20
498.026733
 10
-287.806015
 20
496.462952
 10
-288.529282
 20
494.878906
 10
-289.667038
 20
492.161682
 10
-290.03508
 20
491.211395
 10
-290.628403
 20
489.590302
 10
-291.183701
 20
487.95285
 10
-291.684006
 20
486.351013
 10
-292.145554
 20
484.73465
 10
-292.309433
 20
484.120941
  0
LWPOLYLINE
  5
618
330
1F
100
AcDbEntity
  8
2
370
    60
390
F
100
AcDbPolyline
 90
        3
 70
     0
 43
0.0
 10
-275.452805
 20
515.06488
 10
-277.756088
 20
512.369812
 10
-279.636337
 20
509.974854
  0
LWPOLYLINE
  5
61D
330
1F
100
AcDbEntity
  8
2
370
    60
390
F
100
AcDbPolyline
 90
        3
 70
     0
 43
0.0
 10
-269.186935
 20
521.339172
 10
-271.814438
 20
518.873413
 10
-273.227829
 20
517.452637
  0
LWPOLYLINE
  5
622
330
1F
100
AcDbEntity
  8
2
370
    60
390
F
100
AcDbPolyline
 90
        3
 70
     0
 43
0.0
 10
-262.00737
 20
527.10907
 10
-264.963058
 20
524.887573
 10
-266.100143
 20
523.978271
  0
LWPOLYLINE
  5
627
330
1F
100
AcDbEntity
  8
2
370
    60
390
F
100
AcDbPolyline
 90
        4
 70
     0
 43
0.0
 10
-204.167221
 20
545.509705
 10
-206.840378
 20
545.368225
 10
-209.485825
 20
545.185425
 10
-210.57164
 20
545.097168
  0
LWPOLYLINE
  5
62D
330
1F
100
AcDbEntity
  8
2
370
    60
390
F
100
AcDbPolyline
 90
        5
 70
     0
 43
0.0
 10
-210.57164
 20
545.097168
 10
-211.556625
 20
545.010803
 10
-213.814743
 20
544.785217
 10
-216.056747
 20
544.520691
 10
-217.717331
 20
544.298035
  0
LWPOLYLINE
  5
634
330
1F
100
AcDbEntity
  8
2
370
    60
390
F
100
AcDbPolyline
 90
       16
 70
     0
 43
0.0
 10
-217.717331
 20
544.298035
 10
-218.679001
 20
544.159058
 10
-220.808151
 20
543.822754
 10
-222.924423
 20
543.447327
 10
-224.99321
 20
543.039429
 10
-227.049606
 20
542.59259
 10
-229.063644
 20
542.11377
 10
-231.065781
 20
541.59613
 10
-232.481491
 20
541.204285
 10
-234.428513
 20
540.6297
 10
-236.363571
 20
540.016418
 10
-238.265854
 20
539.371338
 10
-240.155441
 20
538.687927
 10
-242.012497
 20
537.97345
 10
-243.856247
 20
537.220764
 10
-245.515549
 20
536.505371
  0
LWPOLYLINE
  5
646
330
1F
100
AcDbEntity
  8
2
370
    60
390
F
100
AcDbPolyline
 90
        4
 70
     0
 43
0.0
 10
-254.568161
 20
531.909485
 10
-256.212387
 20
530.936401
 10
-257.838058
 20
529.927429
 10
-258.652512
 20
529.403748
  0
LWPOLYLINE
  5
64C
330
1F
100
AcDbEntity
  8
2
370
    60
390
F
100
AcDbPolyline
 90
        4
 70
     0
 43
0.0
 10
-246.703781
 20
535.970215
 10
-248.477829
 20
535.134644
 10
-250.236191
 20
534.261719
 10
-251.158005
 20
533.785767
  0
LWPOLYLINE
  5
652
330
1F
100
AcDbEntity
  8
2
370
    60
390
F
100
AcDbPolyline
 90
        3
 70
     0
 43
0.0
 10
60.572098
 20
577.165283
 10
64.584915
 20
576.82312
 10
65.091507
 20
576.77594
  0
LWPOLYLINE
  5
657
330
1F
100
AcDbEntity
  8
2
370
    60
390
F
100
AcDbPolyline
 90
        3
 70
     0
 43
0.0
 10
65.091507
 20
576.77594
 10
67.864456
 20
576.50293
 10
69.515091
 20
576.307922
  0
LWPOLYLINE
  5
65C
330
1F
100
AcDbEntity
  8
2
370
    60
390
F
100
AcDbPolyline
 90
        3
 70
     0
 43
0.0
 10
69.515091
 20
576.307922
 10
72.756424
 20
575.762878
 10
72.824661
 20
575.750488
  0
LWPOLYLINE
  5
661
330
1F
100
AcDbEntity
  8
2
370
    60
390
F
100
AcDbPolyline
 90
        3
 70
     0
 43
0.0
 10
72.824661
 20
575.750488
 10
76.649857
 20
574.977661
 10
77.895096
 20
574.698792
  0
LWPOLYLINE
  5
666
330
1F
100
AcDbEntity
  8
2
370
    60
390
F
100
AcDbPolyline
 90
        3
 70
     0
 43
0.0
 10
95.291092
 20
551.16626
 10
95.268997
 20
550.994385
 10
95.197464
 20
550.809204
  0
LINE
  5
66B
330
1F
100
AcDbEntity
  8
2
 48
0.001285
370
    60
390
F
100
AcDbLine
 10
60.090408
 20
577.308411
 30
0.0
 11
60.138504
 21
577.326538
 31
0.0
  0
LINE
  5
66C
330
1F
100
AcDbEntity
  8
2
 48
0.000865
370
    60
390
F
100
AcDbLine
 10
60.138504
 20
577.326538
 30
0.0
 11
60.17305
 21
577.328552
 31
0.0
  0
LINE
  5
66D
330
1F
100
AcDbEntity
  8
2
 48
0.001707
370
    60
390
F
100
AcDbLine
 10
60.17305
 20
577.328552
 30
0.0
 11
60.23848
 21
577.309082
 31
0.0
  0
LWPOLYLINE
  5
66E
330
1F
100
AcDbEntity
  8
2
370
    60
390
F
100
AcDbPolyline
 90
        3
 70
     0
 43
0.0
 10
78.8918
 20
574.312134
 10
78.343826
 20
574.543823
 10
78.262039
 20
574.570862
  0
LWPOLYLINE
  5
673
330
1F
100
AcDbEntity
  8
2
370
    60
390
F
100
AcDbPolyline
 90
        4
 70
     0
 43
0.0
 10
-302.516647
 20
484.747162
 10
-301.647385
 20
488.237915
 10
-300.868759
 20
491.186554
 10
-299.844589
 20
494.674255
  0
LWPOLYLINE
  5
679
330
1F
100
AcDbEntity
  8
2
370
    60
390
F
100
AcDbPolyline
 90
        3
 70
     0
 43
0.0
 10
-299.844589
 20
494.674255
 10
-298.542831
 20
498.451294
 10
-297.519577
 20
501.119019
  0
LWPOLYLINE
  5
67E
330
1F
100
AcDbEntity
  8
2
370
    60
390
F
100
AcDbPolyline
 90
        4
 70
     0
 43
0.0
 10
-297.519577
 20
501.119019
 10
-296.748581
 20
502.99231
 10
-295.940781
 20
504.84967
 10
-294.762009
 20
507.394165
  0
LWPOLYLINE
  5
684
330
1F
100
AcDbEntity
  8
2
370
    60
390
F
100
AcDbPolyline
 90
        3
 70
     0
 43
0.0
 10
-294.762009
 20
507.394165
 10
-292.943893
 20
510.997253
 10
-291.589279
 20
513.471008
  0
LWPOLYLINE
  5
689
330
1F
100
AcDbEntity
  8
2
370
    60
390
F
100
AcDbPolyline
 90
        3
 70
     0
 43
0.0
 10
-291.589279
 20
513.471008
 10
-289.555344
 20
516.903564
 10
-288.010971
 20
519.316406
  0
LWPOLYLINE
  5
68E
330
1F
100
AcDbEntity
  8
2
370
    60
390
F
100
AcDbPolyline
 90
        4
 70
     0
 43
0.0
 10
-288.010971
 20
519.316406
 10
-286.906113
 20
520.952698
 10
-285.768723
 20
522.565613
 10
-284.035568
 20
524.897034
  0
LWPOLYLINE
  5
694
330
1F
100
AcDbEntity
  8
2
370
    60
390
F
100
AcDbPolyline
 90
        4
 70
     0
 43
0.0
 10
-284.035568
 20
524.897034
 10
-282.822006
 20
526.446716
 10
-281.577499
 20
527.971008
 10
-279.676071
 20
530.183472
  0
LWPOLYLINE
  5
69A
330
1F
100
AcDbEntity
  8
2
370
    60
390
F
100
AcDbPolyline
 90
        3
 70
     0
 43
0.0
 10
-279.676071
 20
530.183472
 10
-276.972946
 20
533.114014
 10
-274.956284
 20
535.154297
  0
LWPOLYLINE
  5
69F
330
1F
100
AcDbEntity
  8
2
370
    60
390
F
100
AcDbPolyline
 90
        4
 70
     0
 43
0.0
 10
-274.956284
 20
535.154297
 10
-273.465378
 20
536.591797
 10
-271.947556
 20
537.999573
 10
-269.916611
 20
539.800659
  0
LWPOLYLINE
  5
6A5
330
1F
100
AcDbEntity
  8
2
370
    60
390
F
100
AcDbPolyline
 90
        3
 70
     0
 43
0.0
 10
-269.916611
 20
539.800659
 10
-266.627975
 20
542.537476
 10
-264.567123
 20
544.151123
  0
LWPOLYLINE
  5
6AA
330
1F
100
AcDbEntity
  8
2
370
    60
390
F
100
AcDbPolyline
 90
        4
 70
     0
 43
0.0
 10
-264.567123
 20
544.151123
 10
-262.801865
 20
545.476563
 10
-261.01329
 20
546.769531
 10
-258.940109
 20
548.207642
  0
LWPOLYLINE
  5
6B0
330
1F
100
AcDbEntity
  8
2
370
    60
390
F
100
AcDbPolyline
 90
        3
 70
     0
 43
0.0
 10
-258.940109
 20
548.207642
 10
-255.087936
 20
550.724487
 10
-253.099289
 20
551.950562
  0
LWPOLYLINE
  5
6B5
330
1F
100
AcDbEntity
  8
2
370
    60
390
F
100
AcDbPolyline
 90
        3
 70
     0
 43
0.0
 10
-253.099289
 20
551.950562
 10
-249.02977
 20
554.317017
 10
-247.073471
 20
555.390015
  0
LWPOLYLINE
  5
6BA
330
1F
100
AcDbEntity
  8
2
370
    60
390
F
100
AcDbPolyline
 90
        4
 70
     0
 43
0.0
 10
-247.073471
 20
555.390015
 10
-244.973923
 20
556.497009
 10
-242.856247
 20
557.568237
 10
-240.883835
 20
558.526062
  0
LWPOLYLINE
  5
6C0
330
1F
100
AcDbEntity
  8
2
370
    60
390
F
100
AcDbPolyline
 90
        4
 70
     0
 43
0.0
 10
-240.883835
 20
558.526062
 10
-238.745773
 20
559.521606
 10
-236.591476
 20
560.480652
 10
-234.546677
 20
561.350769
  0
LWPOLYLINE
  5
6C6
330
1F
100
AcDbEntity
  8
2
370
    60
390
F
100
AcDbPolyline
 90
        3
 70
     0
 43
0.0
 10
-234.546677
 20
561.350769
 10
-230.220932
 20
563.064392
 10
-228.075485
 20
563.851318
  0
LWPOLYLINE
  5
6CB
330
1F
100
AcDbEntity
  8
2
370
    60
390
F
100
AcDbPolyline
 90
        4
 70
     0
 43
0.0
 10
-228.075485
 20
563.851318
 10
-225.908981
 20
564.604065
 10
-223.729904
 20
565.318787
 10
-221.4832
 20
566.012024
  0
LWPOLYLINE
  5
6D1
330
1F
100
AcDbEntity
  8
2
370
    60
390
F
100
AcDbPolyline
 90
        4
 70
     0
 43
0.0
 10
-221.4832
 20
566.012024
 10
-219.308395
 20
566.64093
 10
-217.123093
 20
567.231201
 10
-214.784348
 20
567.817383
  0
LWPOLYLINE
  5
6D7
330
1F
100
AcDbEntity
  8
2
370
    60
390
F
100
AcDbPolyline
 90
        3
 70
     0
 43
0.0
 10
-214.784348
 20
567.817383
 10
-210.970871
 20
568.65271
 10
-204.584885
 20
569.879089
  0
LINE
  5
6DC
330
1F
100
AcDbEntity
  8
2
  6
DASHDOT
370
    25
390
F
100
AcDbLine
 10
-321.849899
 20
427.822601
 30
0.0
 11
99.810379
 21
427.822601
 31
0.0
  0
LINE
  5
6DD
330
1F
100
AcDbEntity
  8
2
  6
DASHDOT
370
    25
390
F
100
AcDbLine
 10
-85.276596
 20
257.767334
 30
0.0
 11
-85.276596
 21
597.877869
 31
0.0
  0
LINE
  5
6DE
330
1F
100
AcDbEntity
  8
2
 48
0.20326
370
    60
390
F
100
AcDbLine
 10
-278.910324
 20
299.613464
 30
0.0
 11
-272.867599
 21
294.17392
 31
0.0
  0
LINE
  5
6DF
330
1F
100
AcDbEntity
  8
2
 48
0.20326
370
    60
390
F
100
AcDbLine
 10
-278.910324
 20
556.031738
 30
0.0
 11
-272.867599
 21
561.471313
 31
0.0
  0
LINE
  5
6E0
330
1F
100
AcDbEntity
  8
2
 48
0.016172
370
    60
390
F
100
AcDbLine
 10
60.107132
 20
577.61499
 30
0.0
 11
60.572098
 21
577.165283
 31
0.0
  0
LINE
  5
6E1
330
1F
100
AcDbEntity
  8
2
 48
0.016171
370
    60
390
F
100
AcDbLine
 10
60.107132
 20
278.030212
 30
0.0
 11
60.572098
 21
278.479889
 31
0.0
  0
LINE
  5
6E4
330
1F
100
AcDbEntity
  8
2
 48
0.042625
370
    60
390
F
100
AcDbLine
 10
-273.248642
 20
297.74826
 30
0.0
 11
-271.5912700764572
 21
298.2000383434909
 31
0.0
  0
LINE
  5
6E5
330
1F
100
AcDbEntity
  8
2
 48
0.030424
370
    60
390
F
100
AcDbLine
 10
-280.83287
 20
303.394012
 30
0.0
 11
-280.559372
 21
302.208191
 31
0.0
  0
LINE
  5
6E6
330
1F
100
AcDbEntity
  8
2
 48
0.045508
370
    60
390
F
100
AcDbLine
 10
-280.889023
 20
305.256073
 30
0.0
 11
-280.4219210282158
 21
307.0307050688524
 31
0.0
  0
ARC
  5
6E7
330
1F
100
AcDbEntity
  8
2
370
    60
390
F
100
AcDbCircle
 10
-274.182358
 20
304.439606
 30
0.0
 40
6.756178
100
AcDbArc
 50
292.5515100000001
 51
44.999978
  0
ARC
  5
6E9
330
1F
100
AcDbEntity
  8
2
370
    60
390
F
100
AcDbCircle
 10
-274.182358
 20
304.439606
 30
0.0
 40
6.756178
100
AcDbArc
 50
44.999978
 51
157.448442
  0
ARC
  5
6EA
330
1F
100
AcDbEntity
  8
2
370
    60
390
F
100
AcDbCircle
 10
-274.182358
 20
304.439606
 30
0.0
 40
6.756178
100
AcDbArc
 50
199.285687
 51
224.999983
  0
LINE
  5
6EC
330
1F
100
AcDbEntity
  8
2
 48
0.045032
370
    60
390
F
100
AcDbLine
 10
-5.244431
 20
260.259583
 30
0.0
 11
-4.331862155541827
 21
261.8293712191507
 31
0.0
  0
ARC
  5
6ED
330
1F
100
AcDbEntity
  8
2
370
    60
390
F
100
AcDbCircle
 10
-10.576096
 20
264.409241
 30
0.0
 40
6.756196
100
AcDbArc
 50
90.000003
 51
218.571464
  0
ARC
  5
6EF
330
1F
100
AcDbEntity
  8
2
370
    60
390
F
100
AcDbCircle
 10
-10.576096
 20
264.409241
 30
0.0
 40
6.756196
100
AcDbArc
 50
337.551527
 51
90.000003
  0
LINE
  5
6F0
330
1F
100
AcDbEntity
  8
2
 48
0.002782
370
    60
390
F
100
AcDbLine
 10
60.23848
 20
278.336151
 30
0.0
 11
60.337112
 21
278.387634
 31
0.0
  0
LINE
  5
6F1
330
1F
100
AcDbEntity
  8
2
 48
0.073093
370
    60
390
F
100
AcDbLine
 10
75.044632
 20
280.296021
 30
0.0
 11
77.895096
 21
280.946411
 31
0.0
  0
LINE
  5
6F2
330
1F
100
AcDbEntity
  8
2
 48
0.015656
370
    60
390
F
100
AcDbLine
 10
74.43306
 20
280.161316
 30
0.0
 11
75.044632
 21
280.296021
 31
0.0
  0
LINE
  5
6F3
330
1F
100
AcDbEntity
  8
2
 48
0.07592
370
    60
390
F
100
AcDbLine
 10
70.604691
 20
279.493347
 30
0.0
 11
67.593948
 21
279.096436
 31
0.0
  0
LINE
  5
6F4
330
1F
100
AcDbEntity
  8
2
 48
0.083714
370
    60
390
F
100
AcDbLine
 10
67.593948
 20
279.096436
 30
0.0
 11
64.259964
 21
278.784424
 31
0.0
  0
LINE
  5
6F5
330
1F
100
AcDbEntity
  8
2
 48
0.09251
370
    60
390
F
100
AcDbLine
 10
64.259964
 20
278.784424
 30
0.0
 11
60.572098
 21
278.479889
 31
0.0
  0
LWPOLYLINE
  5
6F6
330
1F
100
AcDbEntity
  8
2
370
    60
390
F
100
AcDbPolyline
 90
        6
 70
     0
 43
0.0
 10
60.089066
 20
278.336548
 10
59.989334
 20
278.462646
 10
59.639725
 20
278.698914
 10
59.041946
 20
278.897461
 10
58.195999
 20
279.005188
 10
57.58992
 20
279.002686
  0
LINE
  5
6FE
330
1F
100
AcDbEntity
  8
2
 48
0.000103
370
    60
390
F
100
AcDbLine
 10
60.085526
 20
278.334412
 30
0.0
 11
60.089066
 21
278.336548
 31
0.0
  0
LINE
  5
6FF
330
1F
100
AcDbEntity
  8
2
 48
0.035035
370
    60
390
F
100
AcDbLine
 10
56.190384
 20
278.931824
 30
0.0
 11
57.590042
 21
279.002045
 31
0.0
  0
LWPOLYLINE
  5
700
330
1F
100
AcDbEntity
  8
2
370
    60
390
F
100
AcDbPolyline
 90
       16
 70
     0
 43
0.0
 10
-178.680954
 20
282.289551
 10
-168.048508
 20
281.155457
 10
-156.74791
 20
280.112518
 10
-144.775375
 20
279.169708
 10
-132.130661
 20
278.335815
 10
-118.817734
 20
277.619537
 10
-104.844528
 20
277.029175
 10
-90.223495
 20
276.572693
 10
-74.97142
 20
276.25766
 10
-59.109787
 20
276.091003
 10
-42.664474
 20
276.079163
 10
-25.666183
 20
276.227722
 10
-8.149582
 20
276.541534
 10
9.845779
 20
277.024597
 10
28.276566
 20
277.679993
 10
30.175735
 20
277.75647
  0
LINE
  5
712
330
1F
100
AcDbEntity
  8
2
370
    60
390
F
100
AcDbLine
 10
-204.584885
 20
285.766144
 30
0.0
 11
-178.680954
 21
282.289551
 31
0.0
  0
LINE
  5
713
330
1F
100
AcDbEntity
  8
2
370
    60
390
F
100
AcDbLine
 10
30.175735
 20
277.75647
 30
0.0
 11
56.031448
 21
278.92926
 31
0.0
  0
LWPOLYLINE
  5
714
330
1F
100
AcDbEntity
  8
2
370
    60
390
F
100
AcDbPolyline
 90
        4
 70
     0
 43
0.0
 10
-302.516647
 20
370.898041
 10
-301.647934
 20
367.409271
 10
-300.869675
 20
364.461945
 10
-299.844589
 20
360.970947
  0
LWPOLYLINE
  5
71A
330
1F
100
AcDbEntity
  8
2
370
    60
390
F
100
AcDbPolyline
 90
        3
 70
     0
 43
0.0
 10
-299.844589
 20
360.970947
 10
-298.543564
 20
357.196045
 10
-297.519577
 20
354.526184
  0
LWPOLYLINE
  5
71F
330
1F
100
AcDbEntity
  8
2
370
    60
390
F
100
AcDbPolyline
 90
        4
 70
     0
 43
0.0
 10
-297.519577
 20
354.526184
 10
-296.749069
 20
352.654083
 10
-295.941818
 20
350.797882
 10
-294.762009
 20
348.251038
  0
LWPOLYLINE
  5
725
330
1F
100
AcDbEntity
  8
2
370
    60
390
F
100
AcDbPolyline
 90
        3
 70
     0
 43
0.0
 10
-294.762009
 20
348.251038
 10
-292.944809
 20
344.649628
 10
-291.589279
 20
342.174225
  0
LWPOLYLINE
  5
72A
330
1F
100
AcDbEntity
  8
2
370
    60
390
F
100
AcDbPolyline
 90
        4
 70
     0
 43
0.0
 10
-291.589279
 20
342.174225
 10
-290.588791
 20
340.446564
 10
-289.554367
 20
338.73999
 10
-288.010971
 20
336.328796
  0
LWPOLYLINE
  5
730
330
1F
100
AcDbEntity
  8
2
370
    60
390
F
100
AcDbPolyline
 90
        3
 70
     0
 43
0.0
 10
-288.010971
 20
336.328796
 10
-285.769943
 20
333.081238
 10
-284.035568
 20
330.748169
  0
LWPOLYLINE
  5
735
330
1F
100
AcDbEntity
  8
2
370
    60
390
F
100
AcDbPolyline
 90
        4
 70
     0
 43
0.0
 10
-284.035568
 20
330.748169
 10
-282.821701
 20
329.19809
 10
-281.576828
 20
327.673401
 10
-279.676071
 20
325.461731
  0
LWPOLYLINE
  5
73B
330
1F
100
AcDbEntity
  8
2
370
    60
390
F
100
AcDbPolyline
 90
        3
 70
     0
 43
0.0
 10
-279.676071
 20
325.461731
 10
-276.974045
 20
322.53241
 10
-274.956284
 20
320.490906
  0
LWPOLYLINE
  5
740
330
1F
100
AcDbEntity
  8
2
370
    60
390
F
100
AcDbPolyline
 90
        3
 70
     0
 43
0.0
 10
-274.956284
 20
320.490906
 10
-271.94902
 20
317.646973
 10
-269.916611
 20
315.844543
  0
LWPOLYLINE
  5
745
330
1F
100
AcDbEntity
  8
2
370
    60
390
F
100
AcDbPolyline
 90
        3
 70
     0
 43
0.0
 10
-269.916611
 20
315.844543
 10
-266.630173
 20
313.109497
 10
-264.567123
 20
311.49408
  0
LWPOLYLINE
  5
74A
330
1F
100
AcDbEntity
  8
2
370
    60
390
F
100
AcDbPolyline
 90
        3
 70
     0
 43
0.0
 10
-264.567123
 20
311.49408
 10
-261.014084
 20
308.876282
 10
-258.940109
 20
307.437561
  0
LWPOLYLINE
  5
74F
330
1F
100
AcDbEntity
  8
2
370
    60
390
F
100
AcDbPolyline
 90
        3
 70
     0
 43
0.0
 10
-258.940109
 20
307.437561
 10
-255.087936
 20
304.920746
 10
-253.099289
 20
303.694641
  0
LWPOLYLINE
  5
754
330
1F
100
AcDbEntity
  8
2
370
    60
390
F
100
AcDbPolyline
 90
        4
 70
     0
 43
0.0
 10
-253.099289
 20
303.694641
 10
-251.072495
 20
302.49292
 10
-249.025742
 20
301.325928
 10
-247.073471
 20
300.255157
  0
LWPOLYLINE
  5
75A
330
1F
100
AcDbEntity
  8
2
370
    60
390
F
100
AcDbPolyline
 90
        3
 70
     0
 43
0.0
 10
-247.073471
 20
300.255157
 10
-242.860947
 20
298.079285
 10
-240.883835
 20
297.119141
  0
LWPOLYLINE
  5
75F
330
1F
100
AcDbEntity
  8
2
370
    60
390
F
100
AcDbPolyline
 90
        3
 70
     0
 43
0.0
 10
-240.883835
 20
297.119141
 10
-236.591782
 20
295.164734
 10
-234.546677
 20
294.294434
  0
LWPOLYLINE
  5
764
330
1F
100
AcDbEntity
  8
2
370
    60
390
F
100
AcDbPolyline
 90
        3
 70
     0
 43
0.0
 10
-234.546677
 20
294.294434
 10
-230.217819
 20
292.579651
 10
-228.075485
 20
291.793884
  0
LWPOLYLINE
  5
769
330
1F
100
AcDbEntity
  8
2
370
    60
390
F
100
AcDbPolyline
 90
        3
 70
     0
 43
0.0
 10
-228.075485
 20
291.793884
 10
-223.732346
 20
290.327148
 10
-221.4832
 20
289.633179
  0
LWPOLYLINE
  5
76E
330
1F
100
AcDbEntity
  8
2
370
    60
390
F
100
AcDbPolyline
 90
        3
 70
     0
 43
0.0
 10
-221.4832
 20
289.633179
 10
-217.127243
 20
288.415039
 10
-214.784348
 20
287.82782
  0
LWPOLYLINE
  5
773
330
1F
100
AcDbEntity
  8
2
370
    60
390
F
100
AcDbPolyline
 90
        3
 70
     0
 43
0.0
 10
-214.784348
 20
287.82782
 10
-210.974045
 20
286.993134
 10
-204.584885
 20
285.766113
  0
LWPOLYLINE
  5
778
330
1F
100
AcDbEntity
  8
2
370
    60
390
F
100
AcDbPolyline
 90
       10
 70
     0
 43
0.0
 10
-303.548386
 20
376.530457
 10
-304.006638
 20
379.422485
 10
-304.418625
 20
382.281189
 10
-304.782761
 20
385.089478
 10
-305.10759
 20
387.907074
 10
-305.64946
 20
393.662354
 10
-306.064804
 20
399.812195
 10
-306.363388
 20
406.669617
 10
-306.54509
 20
414.643311
 10
-306.599106
 20
422.193146
  0
LINE
  5
784
330
1F
100
AcDbEntity
  8
2
 48
0.140729
370
    60
390
F
100
AcDbLine
 10
-306.606186
 20
427.822296
 30
0.0
 11
-306.599106
 21
422.193146
 31
0.0
  0
LINE
  5
785
330
1F
100
AcDbEntity
  8
2
 48
0.143142
370
    60
390
F
100
AcDbLine
 10
-303.548386
 20
376.530457
 30
0.0
 11
-302.51683
 21
370.898468
 31
0.0
  0
LWPOLYLINE
  5
786
330
1F
100
AcDbEntity
  8
2
370
    60
390
F
100
AcDbPolyline
 90
        7
 70
     0
 43
0.0
 10
95.181595
 20
304.827667
 10
94.897293
 20
305.257263
 10
94.42952
 20
305.662811
 10
93.75032
 20
306.031494
 10
92.839066
 20
306.337952
 10
91.69722
 20
306.54895
 10
91.567093
 20
306.563934
  0
LWPOLYLINE
  5
78F
330
1F
100
AcDbEntity
  8
2
370
    60
390
F
100
AcDbPolyline
 90
       23
 70
     0
 43
0.0
 10
-292.437729
 20
371.558167
 10
-291.962692
 20
369.882263
 10
-291.449509
 20
368.218719
 10
-290.898727
 20
366.569153
 10
-290.310349
 20
364.933136
 10
-289.021835
 20
361.705078
 10
-287.585495
 20
358.538269
 10
-286.002853
 20
355.436401
 10
-284.275497
 20
352.403168
 10
-282.405197
 20
349.44223
 10
-280.393478
 20
346.557404
 10
-278.242294
 20
343.752411
 10
-275.953415
 20
341.031097
 10
-273.528976
 20
338.397369
 10
-270.970993
 20
335.855164
 10
-268.281784
 20
333.408417
 10
-265.463913
 20
331.061218
 10
-262.520065
 20
328.817566
 10
-259.453171
 20
326.681641
 10
-256.266342
 20
324.657532
 10
-252.963058
 20
322.749298
 10
-249.547165
 20
320.96106
 10
-248.235703
 20
320.321167
  0
LINE
  5
7A8
330
1F
100
AcDbEntity
  8
2
 48
0.000863
370
    60
390
F
100
AcDbLine
 10
-292.437729
 20
371.558167
 30
0.0
 11
-292.404404
 21
371.5672
 31
0.0
  0
LINE
  5
7A9
330
1F
100
AcDbEntity
  8
2
 48
0.240367
370
    60
390
F
100
AcDbLine
 10
-248.235703
 20
320.321167
 30
0.0
 11
-239.371323
 21
316.597626
 31
0.0
  0
LINE
  5
7AA
330
1F
100
AcDbEntity
  8
2
 48
0.012004
370
    60
390
F
100
AcDbLine
 10
-297.670334
 20
426.572601
 30
0.0
 11
-297.19017
 21
426.572601
 31
0.0
  0
LINE
  5
7AB
330
1F
100
AcDbEntity
  8
2
 48
0.156587
370
    60
390
F
100
AcDbLine
 10
-300.128403
 20
427.823303
 30
0.0
 11
-300.11998
 21
421.559814
 31
0.0
  0
LINE
  5
7AC
330
1F
100
AcDbEntity
  8
2
 48
0.060904
370
    60
390
F
100
AcDbLine
 10
-300.11998
 20
421.559814
 30
0.0
 11
-300.107956
 21
419.123688
 31
0.0
  0
LINE
  5
7AD
330
1F
100
AcDbEntity
  8
2
 48
0.052208
370
    60
390
F
100
AcDbLine
 10
-300.107956
 20
419.123688
 30
0.0
 11
-300.090866
 21
417.035431
 31
0.0
  0
LINE
  5
7AE
330
1F
100
AcDbEntity
  8
2
 48
0.043509
370
    60
390
F
100
AcDbLine
 10
-300.090866
 20
417.035431
 30
0.0
 11
-300.071823
 21
415.295166
 31
0.0
  0
LINE
  5
7AF
330
1F
100
AcDbEntity
  8
2
 48
0.026107
370
    60
390
F
100
AcDbLine
 10
-300.071823
 20
415.295166
 30
0.0
 11
-300.057236
 21
414.251007
 31
0.0
  0
LINE
  5
7B0
330
1F
100
AcDbEntity
  8
2
 48
0.052211
370
    60
390
F
100
AcDbLine
 10
-300.057236
 20
414.251007
 30
0.0
 11
-300.016342
 21
412.162964
 31
0.0
  0
LINE
  5
7B1
330
1F
100
AcDbEntity
  8
2
 48
0.087018
370
    60
390
F
100
AcDbLine
 10
-300.016342
 20
412.162964
 30
0.0
 11
-299.927963
 21
408.68338
 31
0.0
  0
LINE
  5
7B2
330
1F
100
AcDbEntity
  8
2
 48
0.087018
370
    60
390
F
100
AcDbLine
 10
-299.927963
 20
408.68338
 30
0.0
 11
-299.801743
 21
405.204956
 31
0.0
  0
LINE
  5
7B3
330
1F
100
AcDbEntity
  8
2
 48
0.087012
370
    60
390
F
100
AcDbLine
 10
-299.801743
 20
405.204956
 30
0.0
 11
-299.63121
 21
401.728668
 31
0.0
  0
LINE
  5
7B4
330
1F
100
AcDbEntity
  8
2
 48
0.086996
370
    60
390
F
100
AcDbLine
 10
-299.63121
 20
401.728668
 30
0.0
 11
-299.409836
 21
398.25589
 31
0.0
  0
LINE
  5
7B5
330
1F
100
AcDbEntity
  8
2
 48
0.086968
370
    60
390
F
100
AcDbLine
 10
-299.409836
 20
398.25589
 30
0.0
 11
-299.131393
 21
394.78833
 31
0.0
  0
LINE
  5
7B6
330
1F
100
AcDbEntity
  8
2
 48
0.086924
370
    60
390
F
100
AcDbLine
 10
-299.131393
 20
394.78833
 30
0.0
 11
-298.789841
 21
391.328186
 31
0.0
  0
LINE
  5
7B7
330
1F
100
AcDbEntity
  8
2
 48
0.086863
370
    60
390
F
100
AcDbLine
 10
-298.789841
 20
391.328186
 30
0.0
 11
-298.379562
 21
387.877991
 31
0.0
  0
LINE
  5
7B8
330
1F
100
AcDbEntity
  8
2
 48
0.086781
370
    60
390
F
100
AcDbLine
 10
-298.379562
 20
387.877991
 30
0.0
 11
-297.895493
 21
384.440674
 31
0.0
  0
LINE
  5
7B9
330
1F
100
AcDbEntity
  8
2
 48
0.086677
370
    60
390
F
100
AcDbLine
 10
-297.895493
 20
384.440674
 30
0.0
 11
-297.333054
 21
381.019531
 31
0.0
  0
LINE
  5
7BA
330
1F
100
AcDbEntity
  8
2
 48
0.05196
370
    60
390
F
100
AcDbLine
 10
-297.333054
 20
381.019531
 30
0.0
 11
-296.966354
 21
378.973724
 31
0.0
  0
LWPOLYLINE
  5
7BB
330
1F
100
AcDbEntity
  8
2
370
    60
390
F
100
AcDbPolyline
 90
        4
 70
     0
 43
0.0
 10
-296.966354
 20
378.973724
 10
-296.511337
 20
376.715271
 10
-296.016586
 20
374.465302
 10
-295.965744
 20
374.244141
  0
LINE
  5
7C1
330
1F
100
AcDbEntity
  8
2
 48
0.027789
370
    60
390
F
100
AcDbLine
 10
-295.965744
 20
374.244141
 30
0.0
 11
-295.710922
 21
373.16217
 31
0.0
  0
LINE
  5
7C2
330
1F
100
AcDbEntity
  8
2
 48
0.031123
370
    60
390
F
100
AcDbLine
 10
-295.710922
 20
373.16217
 30
0.0
 11
-295.429062
 21
371.949585
 31
0.0
  0
LINE
  5
7C3
330
1F
100
AcDbEntity
  8
2
 48
0.01596
370
    60
390
F
100
AcDbLine
 10
-295.429062
 20
371.949585
 30
0.0
 11
-295.287155
 21
371.327148
 31
0.0
  0
LINE
  5
7C4
330
1F
100
AcDbEntity
  8
2
 48
0.008013
370
    60
390
F
100
AcDbLine
 10
-295.287155
 20
371.327148
 30
0.0
 11
-295.212082
 21
371.015564
 31
0.0
  0
LWPOLYLINE
  5
7C5
330
1F
100
AcDbEntity
  8
2
370
    60
390
F
100
AcDbPolyline
 90
        3
 70
     0
 43
0.0
 10
-295.212143
 20
371.015625
 10
-294.747238
 20
369.561768
 10
-293.849655
 20
366.798615
  0
LWPOLYLINE
  5
7CA
330
1F
100
AcDbEntity
  8
2
370
    60
390
F
100
AcDbPolyline
 90
        6
 70
     0
 43
0.0
 10
-293.849655
 20
366.798615
 10
-293.287399
 20
365.135834
 10
-292.688766
 20
363.490601
 10
-292.055466
 20
361.867065
 10
-291.386032
 20
360.261017
 10
-290.767502
 20
358.863281
  0
LWPOLYLINE
  5
7D2
330
1F
100
AcDbEntity
  8
2
370
    60
390
F
100
AcDbPolyline
 90
        6
 70
     0
 43
0.0
 10
-290.767502
 20
358.863281
 10
-290.011887
 20
357.250092
 10
-289.222397
 20
355.658875
 10
-288.401291
 20
354.094055
 10
-287.546432
 20
352.551086
 10
-286.869431
 20
351.384979
  0
LWPOLYLINE
  5
7DA
330
1F
100
AcDbEntity
  8
2
370
    60
390
F
100
AcDbPolyline
 90
        6
 70
     0
 43
0.0
 10
-286.869431
 20
351.384979
 10
-285.933395
 20
349.844086
 10
-284.96611
 20
348.328857
 10
-283.970505
 20
346.843567
 10
-282.943771
 20
345.38382
 10
-282.248215
 20
344.433228
  0
LWPOLYLINE
  5
7E2
330
1F
100
AcDbEntity
  8
2
370
    60
390
F
100
AcDbPolyline
 90
        6
 70
     0
 43
0.0
 10
-282.248215
 20
344.433228
 10
-281.143845
 20
342.980835
 10
-280.011032
 20
341.55719
 10
-278.853012
 20
340.166168
 10
-277.666672
 20
338.803711
 10
-276.993027
 20
338.05658
  0
LWPOLYLINE
  5
7EA
330
1F
100
AcDbEntity
  8
2
370
    60
390
F
100
AcDbPolyline
 90
        6
 70
     0
 43
0.0
 10
-276.993027
 20
338.05658
 10
-275.731308
 20
336.704285
 10
-274.443954
 20
335.383209
 10
-273.134323
 20
334.096649
 10
-271.79924
 20
332.841156
 10
-271.189072
 20
332.285431
  0
LWPOLYLINE
  5
7F2
330
1F
100
AcDbEntity
  8
2
370
    60
390
F
100
AcDbPolyline
 90
        6
 70
     0
 43
0.0
 10
-271.189072
 20
332.285431
 10
-269.779709
 20
331.041382
 10
-268.347519
 20
329.830566
 10
-266.89592
 20
328.655731
 10
-265.421494
 20
327.514008
 10
-264.916794
 20
327.134674
  0
LWPOLYLINE
  5
7FA
330
1F
100
AcDbEntity
  8
2
370
    60
390
F
100
AcDbPolyline
 90
        6
 70
     0
 43
0.0
 10
-264.916794
 20
327.134674
 10
-263.369064
 20
326.005188
 10
-261.801193
 20
324.910583
 10
-260.216415
 20
323.853027
 10
-258.611679
 20
322.830261
 10
-258.250961
 20
322.606842
  0
LWPOLYLINE
  5
802
330
1F
100
AcDbEntity
  8
2
370
    60
390
F
100
AcDbPolyline
 90
        6
 70
     0
 43
0.0
 10
-258.250961
 20
322.606842
 10
-256.574142
 20
321.597229
 10
-254.879929
 20
320.623901
 10
-253.171432
 20
319.688477
 10
-251.445602
 20
318.789215
 10
-251.259995
 20
318.69519
  0
LWPOLYLINE
  5
80A
330
1F
100
AcDbEntity
  8
2
370
    60
390
F
100
AcDbPolyline
 90
        4
 70
     0
 43
0.0
 10
-251.259995
 20
318.69519
 10
-249.46489
 20
317.810608
 10
-247.655075
 20
316.96344
 10
-244.005417
 20
315.387024
  0
LINE
  5
810
330
1F
100
AcDbEntity
  8
2
 48
0.108572
370
    60
390
F
100
AcDbLine
 10
-244.005417
 20
315.387024
 30
0.0
 11
-239.978928
 21
313.759735
 31
0.0
  0
LWPOLYLINE
  5
811
330
1F
100
AcDbEntity
  8
2
370
    60
390
F
100
AcDbPolyline
 90
        4
 70
     0
 43
0.0
 10
-239.978928
 20
313.759735
 10
-238.041306
 20
313.085876
 10
-236.091476
 20
312.450287
 10
-233.093246
 20
311.554321
  0
LWPOLYLINE
  5
817
330
1F
100
AcDbEntity
  8
2
370
    60
390
F
100
AcDbPolyline
 90
        3
 70
     0
 43
0.0
 10
-233.093246
 20
311.554321
 10
-229.08934
 20
310.50531
 10
-226.773361
 20
309.97287
  0
LWPOLYLINE
  5
81C
330
1F
100
AcDbEntity
  8
2
370
    60
390
F
100
AcDbPolyline
 90
        3
 70
     0
 43
0.0
 10
-226.773361
 20
309.97287
 10
-222.587143
 20
309.140472
 10
-220.344101
 20
308.760773
  0
LINE
  5
821
330
1F
100
AcDbEntity
  8
2
 48
0.054793
370
    60
390
F
100
AcDbLine
 10
-220.344101
 20
308.760773
 30
0.0
 11
-218.176559
 21
308.436188
 31
0.0
  0
LWPOLYLINE
  5
822
330
1F
100
AcDbEntity
  8
2
370
    60
390
F
100
AcDbPolyline
 90
        4
 70
     0
 43
0.0
 10
-218.176559
 20
308.436188
 10
-215.894943
 20
308.136078
 10
-213.608444
 20
307.876099
 10
-212.327866
 20
307.748199
  0
LINE
  5
828
330
1F
100
AcDbEntity
  8
2
 48
0.018307
370
    60
390
F
100
AcDbLine
 10
-212.327866
 20
307.748199
 30
0.0
 11
-211.598679
 21
307.681122
 31
0.0
  0
LWPOLYLINE
  5
829
330
1F
100
AcDbEntity
  8
2
370
    60
390
F
100
AcDbPolyline
 90
        3
 70
     0
 43
0.0
 10
-211.598679
 20
307.681122
 10
-206.495041
 20
307.306641
 10
-205.768723
 20
307.266235
  0
LINE
  5
82E
330
1F
100
AcDbEntity
  8
2
 48
0.027721
370
    60
390
F
100
AcDbLine
 10
-205.768723
 20
307.266235
 30
0.0
 11
-204.661301
 21
307.210022
 31
0.0
  0
LINE
  5
82F
330
1F
100
AcDbEntity
  8
2
 48
0.404325
370
    60
390
F
100
AcDbLine
 10
-204.661301
 20
307.210388
 30
0.0
 11
-188.50444
 21
306.488068
 31
0.0
  0
LINE
  5
830
330
1F
100
AcDbEntity
  8
2
 48
0.269372
370
    60
390
F
100
AcDbLine
 10
-188.50444
 20
306.488068
 30
0.0
 11
-177.738449
 21
306.050476
 31
0.0
  0
LINE
  5
831
330
1F
100
AcDbEntity
  8
2
 48
0.271161
370
    60
390
F
100
AcDbLine
 10
-177.738449
 20
306.050476
 30
0.0
 11
-166.899277
 21
305.653534
 31
0.0
  0
LINE
  5
832
330
1F
100
AcDbEntity
  8
2
 48
0.272516
370
    60
390
F
100
AcDbLine
 10
-166.899277
 20
305.653534
 30
0.0
 11
-156.004318
 21
305.302185
 31
0.0
  0
LINE
  5
833
330
1F
100
AcDbEntity
  8
2
 48
0.273497
370
    60
390
F
100
AcDbLine
 10
-156.004318
 20
305.302185
 30
0.0
 11
-145.068649
 21
304.999298
 31
0.0
  0
LINE
  5
834
330
1F
100
AcDbEntity
  8
2
 48
0.27415
370
    60
390
F
100
AcDbLine
 10
-145.068649
 20
304.999298
 30
0.0
 11
-134.105576
 21
304.74585
 31
0.0
  0
LINE
  5
835
330
1F
100
AcDbEntity
  8
2
 48
0.274534
370
    60
390
F
100
AcDbLine
 10
-134.105576
 20
304.74585
 30
0.0
 11
-123.126144
 21
304.541016
 31
0.0
  0
LINE
  5
836
330
1F
100
AcDbEntity
  8
2
 48
0.274691
370
    60
390
F
100
AcDbLine
 10
-123.126144
 20
304.541016
 30
0.0
 11
-112.139633
 21
304.382355
 31
0.0
  0
LINE
  5
837
330
1F
100
AcDbEntity
  8
2
 48
0.274675
370
    60
390
F
100
AcDbLine
 10
-112.139633
 20
304.382355
 30
0.0
 11
-101.153244
 21
304.265747
 31
0.0
  0
LINE
  5
838
330
1F
100
AcDbEntity
  8
2
 48
0.18354
370
    60
390
F
100
AcDbLine
 10
-101.153244
 20
304.265747
 30
0.0
 11
-93.811874
 21
304.2052
 31
0.0
  0
LINE
  5
839
330
1F
100
AcDbEntity
  8
2
 48
0.369585
370
    60
390
F
100
AcDbLine
 10
-93.811874
 20
304.2052
 30
0.0
 11
-79.02861
 21
304.139587
 31
0.0
  0
LINE
  5
83A
330
1F
100
AcDbEntity
  8
2
 48
0.276819
370
    60
390
F
100
AcDbLine
 10
-79.02861
 20
304.139587
 30
0.0
 11
-67.955856
 21
304.126801
 31
0.0
  0
LINE
  5
83B
330
1F
100
AcDbEntity
  8
2
 48
0.138249
370
    60
390
F
100
AcDbLine
 10
-67.955856
 20
304.126801
 30
0.0
 11
-62.425888
 21
304.129913
 31
0.0
  0
LINE
  5
83C
330
1F
100
AcDbEntity
  8
2
 48
0.252233
370
    60
390
F
100
AcDbLine
 10
-62.425888
 20
304.129913
 30
0.0
 11
-52.336594
 21
304.149048
 31
0.0
  0
LINE
  5
83D
330
1F
100
AcDbEntity
  8
2
 48
0.319891
370
    60
390
F
100
AcDbLine
 10
-52.336594
 20
304.149048
 30
0.0
 11
-39.541
 21
304.187714
 31
0.0
  0
LINE
  5
83E
330
1F
100
AcDbEntity
  8
2
 48
0.319309
370
    60
390
F
100
AcDbLine
 10
-39.541
 20
304.187714
 30
0.0
 11
-26.768723
 21
304.234406
 31
0.0
  0
LINE
  5
83F
330
1F
100
AcDbEntity
  8
2
 48
0.318734
370
    60
390
F
100
AcDbLine
 10
-26.768723
 20
304.234406
 30
0.0
 11
-14.019455
 21
304.279175
 31
0.0
  0
LINE
  5
840
330
1F
100
AcDbEntity
  8
2
 48
0.318183
370
    60
390
F
100
AcDbLine
 10
-14.019455
 20
304.279175
 30
0.0
 11
-1.29216
 21
304.312866
 31
0.0
  0
LINE
  5
841
330
1F
100
AcDbEntity
  8
2
 48
0.317673
370
    60
390
F
100
AcDbLine
 10
-1.29216
 20
304.312866
 30
0.0
 11
11.414749
 21
304.327454
 31
0.0
  0
LINE
  5
842
330
1F
100
AcDbEntity
  8
2
 48
0.317227
370
    60
390
F
100
AcDbLine
 10
11.414749
 20
304.327454
 30
0.0
 11
24.103836
 21
304.316101
 31
0.0
  0
LINE
  5
843
330
1F
100
AcDbEntity
  8
2
 48
0.316848
370
    60
390
F
100
AcDbLine
 10
24.103836
 20
304.316101
 30
0.0
 11
36.777664
 21
304.273346
 31
0.0
  0
LINE
  5
844
330
1F
100
AcDbEntity
  8
2
 48
0.316553
370
    60
390
F
100
AcDbLine
 10
36.777664
 20
304.273346
 30
0.0
 11
49.439529
 21
304.195313
 31
0.0
  0
LINE
  5
845
330
1F
100
AcDbEntity
  8
2
 48
0.316346
370
    60
390
F
100
AcDbLine
 10
49.439529
 20
304.195313
 30
0.0
 11
62.09285
 21
304.079956
 31
0.0
  0
LINE
  5
846
330
1F
100
AcDbEntity
  8
2
 48
0.225704
370
    60
390
F
100
AcDbLine
 10
62.09285
 20
304.079956
 30
0.0
 11
71.120438
 21
303.977966
 31
0.0
  0
LINE
  5
847
330
1F
100
AcDbEntity
  8
2
 48
0.270281
370
    60
390
F
100
AcDbLine
 10
71.120438
 20
303.977966
 30
0.0
 11
81.930618
 21
303.825989
 31
0.0
  0
LINE
  5
848
330
1F
100
AcDbEntity
  8
2
 48
0.110167
370
    60
390
F
100
AcDbLine
 10
81.930618
 20
303.825989
 30
0.0
 11
86.336746
 21
303.756714
 31
0.0
  0
LINE
  5
849
330
1F
100
AcDbEntity
  8
2
 48
0.011583
370
    60
390
F
100
AcDbLine
 10
86.800003
 20
303.748962
 30
0.0
 11
87.26326
 21
303.74115
 31
0.0
  0
LINE
  5
84A
330
1F
100
AcDbEntity
  8
2
 48
0.011586
370
    60
390
F
100
AcDbLine
 10
87.726517
 20
303.733459
 30
0.0
 11
88.189896
 21
303.725983
 31
0.0
  0
LINE
  5
84B
330
1F
100
AcDbEntity
  8
2
 48
0.011586
370
    60
390
F
100
AcDbLine
 10
88.189896
 20
303.725983
 30
0.0
 11
88.653275
 21
303.718872
 31
0.0
  0
LINE
  5
84C
330
1F
100
AcDbEntity
  8
2
 48
0.011586
370
    60
390
F
100
AcDbLine
 10
88.653275
 20
303.718872
 30
0.0
 11
89.116653
 21
303.71228
 31
0.0
  0
LINE
  5
84D
330
1F
100
AcDbEntity
  8
2
 48
0.011583
370
    60
390
F
100
AcDbLine
 10
87.26326
 20
303.74115
 30
0.0
 11
87.726517
 21
303.733459
 31
0.0
  0
LINE
  5
84E
330
1F
100
AcDbEntity
  8
2
 48
0.011583
370
    60
390
F
100
AcDbLine
 10
86.336746
 20
303.756714
 30
0.0
 11
86.800003
 21
303.748962
 31
0.0
  0
LINE
  5
84F
330
1F
100
AcDbEntity
  8
2
 48
0.00911
370
    60
390
F
100
AcDbLine
 10
90.507034
 20
303.69696
 30
0.0
 11
90.871414
 21
303.694489
 31
0.0
  0
LINE
  5
850
330
1F
100
AcDbEntity
  8
2
 48
0.011588
370
    60
390
F
100
AcDbLine
 10
90.043533
 20
303.701202
 30
0.0
 11
90.507034
 21
303.69696
 31
0.0
  0
LINE
  5
851
330
1F
100
AcDbEntity
  8
2
 48
0.011588
370
    60
390
F
100
AcDbLine
 10
89.580032
 20
303.70636
 30
0.0
 11
90.043533
 21
303.701202
 31
0.0
  0
LINE
  5
852
330
1F
100
AcDbEntity
  8
2
 48
0.011585
370
    60
390
F
100
AcDbLine
 10
89.116653
 20
303.71228
 30
0.0
 11
89.580032
 21
303.70636
 31
0.0
  0
LINE
  5
853
330
1F
100
AcDbEntity
  8
2
 48
0.017951
370
    60
390
F
100
AcDbLine
 10
96.062454
 20
303.17804
 30
0.0
 11
96.207962
 21
302.474915
 31
0.0
  0
LWPOLYLINE
  5
854
330
1F
100
AcDbEntity
  8
2
370
    60
390
F
100
AcDbPolyline
 90
        3
 70
     0
 43
0.0
 10
96.207962
 20
302.474915
 10
96.167923
 20
302.060791
 10
96.111649
 20
301.900513
  0
LWPOLYLINE
  5
859
330
1F
100
AcDbEntity
  8
2
370
    60
390
F
100
AcDbPolyline
 90
        3
 70
     0
 43
0.0
 10
96.111649
 20
301.900513
 10
95.808792
 20
301.385681
 10
95.498734
 20
300.959656
  0
LINE
  5
85E
330
1F
100
AcDbEntity
  8
2
 48
0.037638
370
    60
390
F
100
AcDbLine
 10
90.871414
 20
303.694366
 30
0.0
 11
92.375931
 21
303.639343
 31
0.0
  0
LINE
  5
85F
330
1F
100
AcDbEntity
  8
2
 48
0.023154
370
    60
390
F
100
AcDbLine
 10
92.375931
 20
303.639343
 30
0.0
 11
93.295731
 21
303.530975
 31
0.0
  0
LINE
  5
860
330
1F
100
AcDbEntity
  8
2
 48
0.021889
370
    60
390
F
100
AcDbLine
 10
93.295731
 20
303.530975
 30
0.0
 11
94.158279
 21
303.380493
 31
0.0
  0
LWPOLYLINE
  5
861
330
1F
100
AcDbEntity
  8
2
370
    60
390
F
100
AcDbPolyline
 90
       11
 70
     0
 43
0.0
 10
79.64949
 20
281.968567
 10
80.372391
 20
283.794739
 10
81.269119
 20
285.621765
 10
82.356033
 20
287.469055
 10
83.654495
 20
289.356171
 10
85.191849
 20
291.303864
 10
87.002274
 20
293.334625
 10
89.127518
 20
295.473633
 10
91.619461
 20
297.749878
 10
94.541702
 20
300.197662
 10
95.498734
 20
300.959625
  0
LINE
  5
86E
330
1F
100
AcDbEntity
  8
2
 48
0.008543
370
    60
390
F
100
AcDbLine
 10
78.891678
 20
281.333313
 30
0.0
 11
79.204422
 21
281.471008
 31
0.0
  0
LINE
  5
86F
330
1F
100
AcDbEntity
  8
2
 48
0.009717
370
    60
390
F
100
AcDbLine
 10
77.895096
 20
280.946411
 30
0.0
 11
78.261551
 21
281.076019
 31
0.0
  0
LINE
  5
870
330
1F
100
AcDbEntity
  8
2
 48
0.012212
370
    60
390
F
100
AcDbLine
 10
79.204422
 20
281.471008
 30
0.0
 11
79.57576
 21
281.788391
 31
0.0
  0
LINE
  5
871
330
1F
100
AcDbEntity
  8
2
 48
0.017558
370
    60
390
F
100
AcDbLine
 10
78.568069
 20
281.173859
 30
0.0
 11
79.204422
 21
281.471008
 31
0.0
  0
LINE
  5
872
330
1F
100
AcDbEntity
  8
2
 48
0.004864
370
    60
390
F
100
AcDbLine
 10
79.575638
 20
281.788391
 30
0.0
 11
79.686844
 21
281.948059
 31
0.0
  0
LINE
  5
873
330
1F
100
AcDbEntity
  8
2
 48
0.03125
370
    60
390
F
100
AcDbLine
 10
-321.849899
 20
427.822601
 30
0.0
 11
-321.849472
 21
426.572601
 31
0.0
  0
LINE
  5
874
330
1F
100
AcDbEntity
  8
2
 48
0.000313
370
    60
390
F
100
AcDbLine
 10
-321.861984
 20
426.572601
 30
0.0
 11
-321.849472
 21
426.572601
 31
0.0
  0
ARC
  5
875
330
1F
100
AcDbEntity
  8
2
370
    60
390
F
100
AcDbCircle
 10
-274.182297
 20
304.439667
 30
0.0
 40
6.756204
100
AcDbArc
 50
173.571854
 51
188.9353
  0
ARC
  5
876
330
1F
100
AcDbEntity
  8
2
370
    60
390
F
100
AcDbCircle
 10
-274.182175
 20
304.439514
 30
0.0
 40
6.756196
100
AcDbArc
 50
225.586873
 51
277.942144
  0
LINE
  5
877
330
1F
100
AcDbEntity
  8
2
 48
0.144913
370
    60
390
F
100
AcDbLine
 10
-16.37175
 20
257.552979
 30
0.0
 11
-10.576096
 21
257.653015
 31
0.0
  0
LINE
  5
878
330
1F
100
AcDbEntity
  8
2
 48
0.192544
370
    60
390
F
100
AcDbLine
 10
-10.576096
 20
257.653015
 30
0.0
 11
-2.876633
 21
257.840424
 31
0.0
  0
ARC
  5
879
330
1F
100
AcDbEntity
  8
2
370
    60
390
F
100
AcDbCircle
 10
-10.576462
 20
264.410156
 30
0.0
 40
6.757091
100
AcDbArc
 50
270.002623
 51
322.1017210000001
  0
ARC
  5
87A
330
1F
100
AcDbEntity
  8
2
370
    60
390
F
100
AcDbCircle
 10
-10.57608346415478
 20
264.4092401621568
 30
0.0
 40
6.756225162168477
100
AcDbArc
 50
220.0599301484921
 51
269.9998936904845
  0
LWPOLYLINE
  5
87B
330
1F
100
AcDbEntity
  8
2
370
    60
390
F
100
AcDbPolyline
 90
        4
 70
     0
 43
0.0
 10
-262.007248
 20
328.536072
 10
-264.94664
 20
330.744476
 10
-267.801804
 20
333.089935
 10
-268.28154
 20
333.504761
  0
LINE
  5
881
330
1F
100
AcDbEntity
  8
2
 48
0.071238
370
    60
390
F
100
AcDbLine
 10
-281.873947
 20
348.794861
 30
0.0
 11
-283.431808
 21
351.180817
 31
0.0
  0
LWPOLYLINE
  5
882
330
1F
100
AcDbEntity
  8
2
370
    60
390
F
100
AcDbPolyline
 90
        3
 70
     0
 43
0.0
 10
-283.431808
 20
351.180817
 10
-285.216293
 20
354.176575
 10
-286.023605
 20
355.642273
  0
LWPOLYLINE
  5
887
330
1F
100
AcDbEntity
  8
2
370
    60
390
F
100
AcDbPolyline
 90
        4
 70
     0
 43
0.0
 10
-204.167221
 20
310.135498
 10
-206.842636
 20
310.2771
 10
-209.490219
 20
310.460114
 10
-210.57164
 20
310.548035
  0
LWPOLYLINE
  5
88D
330
1F
100
AcDbEntity
  8
2
370
    60
390
F
100
AcDbPolyline
 90
        5
 70
     0
 43
0.0
 10
-210.57164
 20
310.548035
 10
-211.556625
 20
310.63443
 10
-213.813889
 20
310.859894
 10
-216.055038
 20
311.124298
 10
-217.717331
 20
311.347168
  0
LWPOLYLINE
  5
894
330
1F
100
AcDbEntity
  8
2
370
    60
390
F
100
AcDbPolyline
 90
       16
 70
     0
 43
0.0
 10
-217.717331
 20
311.347168
 10
-218.679001
 20
311.486176
 10
-220.807541
 20
311.822357
 10
-222.923264
 20
312.197662
 10
-224.99205
 20
312.60553
 10
-227.048508
 20
313.052338
 10
-229.062546
 20
313.531158
 10
-231.064682
 20
314.048798
 10
-232.481491
 20
314.440887
 10
-234.428391
 20
315.015472
 10
-236.363327
 20
315.628693
 10
-238.265549
 20
316.273743
 10
-240.155136
 20
316.957184
 10
-242.012253
 20
317.671661
 10
-243.856003
 20
318.424316
 10
-245.515549
 20
319.139862
  0
LWPOLYLINE
  5
8A6
330
1F
100
AcDbEntity
  8
2
370
    60
390
F
100
AcDbPolyline
 90
        3
 70
     0
 43
0.0
 10
-288.193222
 20
360.018066
 10
-289.550461
 20
363.190002
 10
-289.610947
 20
363.3414
  0
LWPOLYLINE
  5
8AB
330
1F
100
AcDbEntity
  8
2
370
    60
390
F
100
AcDbPolyline
 90
        4
 70
     0
 43
0.0
 10
-291.326706
 20
368.137329
 10
-291.822556
 20
369.763336
 10
-292.278
 20
371.404266
 10
-292.309433
 20
371.524261
  0
LWPOLYLINE
  5
8B1
330
1F
100
AcDbEntity
  8
2
370
    60
390
F
100
AcDbPolyline
 90
        4
 70
     0
 43
0.0
 10
-254.568161
 20
323.735718
 10
-256.212448
 20
324.708862
 10
-257.838181
 20
325.717865
 10
-258.652451
 20
326.241455
  0
LWPOLYLINE
  5
8B7
330
1F
100
AcDbEntity
  8
2
370
    60
390
F
100
AcDbPolyline
 90
        3
 70
     0
 43
0.0
 10
-276.990158
 20
342.351776
 10
-279.218185
 20
345.121277
 10
-279.636337
 20
345.670349
  0
LWPOLYLINE
  5
8BC
330
1F
100
AcDbEntity
  8
2
370
    60
390
F
100
AcDbPolyline
 90
        4
 70
     0
 43
0.0
 10
-246.703781
 20
319.674988
 10
-248.478256
 20
320.510773
 10
-250.236984
 20
321.383881
 10
-251.157944
 20
321.859406
  0
LWPOLYLINE
  5
8C2
330
1F
100
AcDbEntity
  8
2
370
    60
390
F
100
AcDbPolyline
 90
        3
 70
     0
 43
0.0
 10
-270.912155
 20
335.90033
 10
-273.461166
 20
338.434113
 10
-273.782028
 20
338.769409
  0
LWPOLYLINE
  5
8C7
330
1F
100
AcDbEntity
  8
2
370
    60
390
F
100
AcDbPolyline
 90
        3
 70
     0
 43
0.0
 10
-292.309494
 20
371.524567
 10
-292.685471
 20
373.138
 10
-292.703415
 20
373.213715
  0
LWPOLYLINE
  5
8CC
330
1F
100
AcDbEntity
  8
2
370
    60
390
F
100
AcDbPolyline
 90
        3
 70
     0
 43
0.0
 10
-292.703415
 20
373.213715
 10
-293.463852
 20
376.507324
 10
-294.138718
 20
379.826569
  0
LWPOLYLINE
  5
8D1
330
1F
100
AcDbEntity
  8
2
370
    60
390
F
100
AcDbPolyline
 90
       10
 70
     0
 43
0.0
 10
-294.138718
 20
379.826569
 10
-294.926498
 20
384.397949
 10
-295.593491
 20
389.190643
 10
-296.139999
 20
394.249237
 10
-296.567795
 20
399.649414
 10
-296.879623
 20
405.520416
 10
-296.938339
 20
407.041809
 10
-297.113022
 20
413.888794
 10
-297.184982
 20
422.227753
 10
-297.19017
 20
426.572601
  0
LWPOLYLINE
  5
8DD
330
1F
100
AcDbEntity
  8
2
370
    60
390
F
100
AcDbPolyline
 90
        4
 70
     0
 43
0.0
 10
91.568069
 20
306.570618
 10
90.933914
 20
306.640869
 10
90.264603
 20
306.672485
 10
90.199905
 20
306.67334
  0
ARC
  5
8E3
330
1F
100
AcDbEntity
  8
2
370
    60
390
F
100
AcDbCircle
 10
96.075638
 20
811.177856
 30
0.0
 40
504.53891
100
AcDbArc
 50
268.93348
 51
269.332718
  0
LWPOLYLINE
  5
8E4
330
1F
100
AcDbEntity
  8
2
370
    60
390
F
100
AcDbPolyline
 90
       18
 70
     0
 43
0.0
 10
86.684402
 20
306.725525
 10
68.366531
 20
306.985107
 10
63.267044
 20
307.042938
 10
37.725174
 20
307.239502
 10
10.894974
 20
307.291779
 10
6.192459
 20
307.287354
 10
-22.273605
 20
307.206482
 10
-58.782455
 20
307.082703
 10
-78.60997
 20
307.085571
 10
-95.653793
 20
307.163757
 10
-108.028366
 20
307.274353
 10
-120.406235
 20
307.436768
 10
-132.463364
 20
307.651215
 10
-142.459641
 20
307.873322
 10
-152.435837
 20
308.136688
 10
-171.750656
 20
308.766052
 10
-191.697983
 20
309.569397
 10
-204.16716
 20
310.135864
  0
LINE
  5
8F8
330
1F
100
AcDbEntity
  8
2
 48
0.009556
370
    60
390
F
100
AcDbLine
 10
95.288162
 20
304.478882
 30
0.0
 11
95.469559
 21
304.142426
 31
0.0
  0
LINE
  5
8F9
330
1F
100
AcDbEntity
  8
2
 48
0.024268
370
    60
390
F
100
AcDbLine
 10
95.469559
 20
304.142426
 30
0.0
 11
96.005936
 21
303.333374
 31
0.0
  0
LWPOLYLINE
  5
8FA
330
1F
100
AcDbEntity
  8
2
370
    60
390
F
100
AcDbPolyline
 90
        3
 70
     0
 43
0.0
 10
95.291092
 20
304.478912
 10
95.268997
 20
304.650787
 10
95.197464
 20
304.836029
  0
LINE
  5
8FF
330
1F
100
AcDbEntity
  8
2
 48
0.004211
370
    60
390
F
100
AcDbLine
 10
96.029251
 20
303.342651
 30
0.0
 11
96.066116
 21
303.178284
 31
0.0
  0
LWPOLYLINE
  5
900
330
1F
100
AcDbEntity
  8
2
370
    60
390
F
100
AcDbPolyline
 90
        3
 70
     0
 43
0.0
 10
74.43306
 20
280.161438
 10
71.228714
 20
279.588135
 10
70.604691
 20
279.493286
  0
LWPOLYLINE
  5
905
330
1F
100
AcDbEntity
  8
2
370
    60
390
F
100
AcDbPolyline
 90
        3
 70
     0
 43
0.0
 10
78.8918
 20
281.333099
 10
78.343826
 20
281.101379
 10
78.262039
 20
281.074341
  0
LWPOLYLINE
  5
90A
330
1F
100
AcDbEntity
  8
2
370
    60
390
F
100
AcDbPolyline
 90
       16
 70
     0
 43
0.0
 10
-321.861984
 20
426.572601
 10
-321.834091
 20
419.614899
 10
-321.739914
 20
412.657715
 10
-321.62944
 20
408.106232
 10
-321.471054
 20
403.556152
 10
-321.294052
 20
399.719482
 10
-321.072006
 20
395.885437
 10
-320.831894
 20
392.470428
 10
-320.548141
 20
389.059204
 10
-320.24675
 20
385.93988
 10
-319.902512
 20
382.825317
 10
-319.541183
 20
379.932556
 10
-319.137558
 20
377.045502
 10
-318.717209
 20
374.33606
 10
-318.255112
 20
371.63324
 10
-317.398727
 20
367.205048
  0
LWPOLYLINE
  5
91C
330
1F
100
AcDbEntity
  8
2
370
    60
390
F
100
AcDbPolyline
 90
       18
 70
     0
 43
0.0
 10
-317.398727
 20
367.205048
 10
-316.489365
 20
363.229828
 10
-315.409348
 20
359.219391
 10
-314.156967
 20
355.178497
 10
-312.730942
 20
351.113007
 10
-311.130417
 20
347.028992
 10
-309.354782
 20
342.932892
 10
-307.403915
 20
338.831421
 10
-305.278244
 20
334.731903
 10
-302.978867
 20
330.642212
 10
-300.507614
 20
326.570984
 10
-297.867477
 20
322.527802
 10
-295.062668
 20
318.523315
 10
-292.098862
 20
314.569275
 10
-288.983383
 20
310.67865
 10
-285.725571
 20
306.86554
 10
-282.336655
 20
303.144958
 10
-278.959763
 20
299.662384
  0
LINE
  5
930
330
1F
100
AcDbEntity
  8
2
 48
0.140601
370
    60
390
F
100
AcDbLine
 10
-270.86821
 20
292.567932
 30
0.0
 11
-266.294601
 21
289.295044
 31
0.0
  0
LWPOLYLINE
  5
931
330
1F
100
AcDbEntity
  8
2
370
    60
390
F
100
AcDbPolyline
 90
       17
 70
     0
 43
0.0
 10
-266.308517
 20
289.274475
 10
-263.037521
 20
287.152222
 10
-259.586899
 20
285.101379
 10
-255.951096
 20
283.123779
 10
-252.12413
 20
281.221344
 10
-248.098251
 20
279.39563
 10
-243.863327
 20
277.647583
 10
-242.604965
 20
277.159302
 10
-238.077133
 20
275.510315
 10
-233.323776
 20
273.946198
 10
-228.326645
 20
272.466858
 10
-223.067062
 20
271.073059
 10
-217.523972
 20
269.765808
 10
-211.672775
 20
268.546326
 10
-205.485397
 20
267.415985
 10
-198.929245
 20
266.376526
 10
-197.39006
 20
266.153992
  0
LINE
  5
944
330
1F
100
AcDbEntity
  8
2
 48
0.064116
370
    60
390
F
100
AcDbLine
 10
-272.876389
 20
294.163147
 30
0.0
 11
-270.867905
 21
292.568359
 31
0.0
  0
LWPOLYLINE
  5
945
330
1F
100
AcDbEntity
  8
2
370
    60
390
F
100
AcDbPolyline
 90
       16
 70
     0
 43
0.0
 10
-197.39006
 20
266.153992
 10
-187.431808
 20
264.816437
 10
-176.971909
 20
263.569153
 10
-166.01561
 20
262.420227
 10
-154.544235
 20
261.374573
 10
-142.53508
 20
260.437012
 10
-129.952255
 20
259.611389
 10
-125.797409
 20
259.371429
 10
-112.240158
 20
258.6922
 10
-98.081161
 20
258.139832
 10
-83.303696
 20
257.720276
 10
-67.994064
 20
257.442963
 10
-52.193527
 20
257.314209
 10
-35.838181
 20
257.337891
 10
-18.669235
 20
257.518005
 10
-16.37175
 20
257.552979
  0
LWPOLYLINE
  5
957
330
1F
100
AcDbEntity
  8
2
370
    60
390
F
100
AcDbPolyline
 90
        4
 70
     0
 43
0.0
 10
-2.876022
 20
257.811462
 10
6.410355
 20
258.040344
 10
15.695633
 20
258.309998
 10
20.549881
 20
258.467163
  0
LWPOLYLINE
  5
95D
330
1F
100
AcDbEntity
  8
2
370
    60
390
F
100
AcDbPolyline
 90
        4
 70
     0
 43
0.0
 10
20.549881
 20
258.467163
 10
29.584427
 20
258.790161
 10
38.617386
 20
259.15332
 10
45.798782
 20
259.470764
  0
ARC
  5
963
330
1F
100
AcDbEntity
  8
2
370
    60
390
F
100
AcDbCircle
 10
45.107132
 20
274.454834
 30
0.0
 40
15.00007
100
AcDbArc
 50
272.64312
 51
359.999846
  0
LINE
  5
964
330
1F
100
AcDbEntity
  8
2
 48
0.089386
370
    60
390
F
100
AcDbLine
 10
60.107132
 20
274.454773
 30
0.0
 11
60.107132
 21
278.030212
 31
0.0
  0
CIRCLE
  5
965
330
1F
100
AcDbEntity
  8
2
370
    60
390
F
100
AcDbCircle
 10
-274.182358
 20
304.439606
 30
0.0
 40
2.250001
  0
CIRCLE
  5
966
330
1F
100
AcDbEntity
  8
2
370
    60
390
F
100
AcDbCircle
 10
-10.576096
 20
264.409241
 30
0.0
 40
2.25
  0
LINE
  5
969
330
1F
100
AcDbEntity
  8
2
 48
0.031247
370
    60
390
F
100
AcDbLine
 10
-297.785629
 20
426.572601
 30
0.0
 11
-297.785629
 21
427.822479
 31
0.0
  0
LINE
  5
96A
330
1F
100
AcDbEntity
  8
2
 48
0.002882
370
    60
390
F
100
AcDbLine
 10
-297.785629
 20
426.572601
 30
0.0
 11
-297.670334
 21
426.572601
 31
0.0
  0
LINE
  5
96B
330
1F
100
AcDbEntity
  8
2
 48
0.031253
370
    60
390
F
100
AcDbLine
 10
-297.785629
 20
429.072601
 30
0.0
 11
-297.785629
 21
427.822479
 31
0.0
  0
LINE
  5
96C
330
1F
100
AcDbEntity
  8
2
 48
0.024267
370
    60
390
F
100
AcDbLine
 10
95.469559
 20
551.502808
 30
0.0
 11
96.005936
 21
552.311829
 31
0.0
  0
LINE
  5
96D
330
1F
100
AcDbEntity
  8
2
 48
0.009557
370
    60
390
F
100
AcDbLine
 10
95.288162
 20
551.166321
 30
0.0
 11
95.469559
 21
551.502808
 31
0.0
  0
LINE
  5
96E
330
1F
100
AcDbEntity
  8
2
 48
0.03125
370
    60
390
F
100
AcDbLine
 10
-321.849899
 20
427.822601
 30
0.0
 11
-321.849472
 21
429.072601
 31
0.0
  0
LWPOLYLINE
  5
96F
330
1F
100
AcDbEntity
  8
2
370
    60
390
F
100
AcDbPolyline
 90
        4
 70
     0
 43
0.0
 10
95.498734
 20
554.685547
 10
95.893387
 20
554.133606
 10
96.109207
 20
553.750488
 10
96.111649
 20
553.74469
  0
LWPOLYLINE
  5
975
330
1F
100
AcDbEntity
  8
2
370
    60
390
F
100
AcDbPolyline
 90
        4
 70
     0
 43
0.0
 10
96.111649
 20
553.74469
 10
96.185623
 20
553.514465
 10
96.212845
 20
553.291016
 10
96.207962
 20
553.170288
  0
LINE
  5
97B
330
1F
100
AcDbEntity
  8
2
 48
0.017951
370
    60
390
F
100
AcDbLine
 10
96.207962
 20
553.170288
 30
0.0
 11
96.062454
 21
552.467163
 31
0.0
  0
LINE
  5
97C
330
1F
100
AcDbEntity
  8
2
 48
0.004211
370
    60
390
F
100
AcDbLine
 10
96.029251
 20
552.302551
 30
0.0
 11
96.066116
 21
552.466919
 31
0.0
  0
LINE
  5
97D
330
1F
100
AcDbEntity
  8
2
 48
0.000412
370
    60
390
F
100
AcDbLine
 10
90.871414
 20
551.934326
 30
0.0
 11
90.871414
 21
551.950806
 31
0.0
  0
ARC
  5
97E
330
1F
100
AcDbEntity
  8
2
370
    60
390
F
100
AcDbCircle
 10
90.939651
 20
568.040894
 30
0.0
 40
16.106724
100
AcDbArc
 50
269.757201
 51
282.861356
  0
LINE
  5
97F
330
1F
100
AcDbEntity
  8
2
 48
0.017729
370
    60
390
F
100
AcDbLine
 10
94.524857
 20
552.338257
 30
0.0
 11
95.214798
 21
552.502197
 31
0.0
  0
LINE
  5
980
330
1F
100
AcDbEntity
  8
2
 48
0.156587
370
    60
390
F
100
AcDbLine
 10
-300.128403
 20
427.821899
 30
0.0
 11
-300.11998
 21
434.085388
 31
0.0
  0
LINE
  5
981
330
1F
100
AcDbEntity
  8
2
 48
0.060904
370
    60
390
F
100
AcDbLine
 10
-300.11998
 20
434.085388
 30
0.0
 11
-300.107956
 21
436.521515
 31
0.0
  0
LINE
  5
982
330
1F
100
AcDbEntity
  8
2
 48
0.052208
370
    60
390
F
100
AcDbLine
 10
-300.107956
 20
436.521515
 30
0.0
 11
-300.090866
 21
438.609772
 31
0.0
  0
LINE
  5
983
330
1F
100
AcDbEntity
  8
2
 48
0.043509
370
    60
390
F
100
AcDbLine
 10
-300.090866
 20
438.609772
 30
0.0
 11
-300.071823
 21
440.350037
 31
0.0
  0
LINE
  5
984
330
1F
100
AcDbEntity
  8
2
 48
0.026107
370
    60
390
F
100
AcDbLine
 10
-300.071823
 20
440.350037
 30
0.0
 11
-300.057236
 21
441.394196
 31
0.0
  0
LINE
  5
985
330
1F
100
AcDbEntity
  8
2
 48
0.052211
370
    60
390
F
100
AcDbLine
 10
-300.057236
 20
441.394196
 30
0.0
 11
-300.016342
 21
443.482239
 31
0.0
  0
LINE
  5
986
330
1F
100
AcDbEntity
  8
2
 48
0.087018
370
    60
390
F
100
AcDbLine
 10
-300.016342
 20
443.482239
 30
0.0
 11
-299.927963
 21
446.961823
 31
0.0
  0
LINE
  5
987
330
1F
100
AcDbEntity
  8
2
 48
0.087018
370
    60
390
F
100
AcDbLine
 10
-299.927963
 20
446.961823
 30
0.0
 11
-299.801743
 21
450.440247
 31
0.0
  0
LINE
  5
988
330
1F
100
AcDbEntity
  8
2
 48
0.087012
370
    60
390
F
100
AcDbLine
 10
-299.801743
 20
450.440247
 30
0.0
 11
-299.63121
 21
453.916534
 31
0.0
  0
LINE
  5
989
330
1F
100
AcDbEntity
  8
2
 48
0.086996
370
    60
390
F
100
AcDbLine
 10
-299.63121
 20
453.916534
 30
0.0
 11
-299.409836
 21
457.389313
 31
0.0
  0
LINE
  5
98A
330
1F
100
AcDbEntity
  8
2
 48
0.086968
370
    60
390
F
100
AcDbLine
 10
-299.409836
 20
457.389313
 30
0.0
 11
-299.131393
 21
460.856873
 31
0.0
  0
LINE
  5
98B
330
1F
100
AcDbEntity
  8
2
 48
0.086924
370
    60
390
F
100
AcDbLine
 10
-299.131393
 20
460.856873
 30
0.0
 11
-298.789841
 21
464.317017
 31
0.0
  0
LINE
  5
98C
330
1F
100
AcDbEntity
  8
2
 48
0.086863
370
    60
390
F
100
AcDbLine
 10
-298.789841
 20
464.317017
 30
0.0
 11
-298.379562
 21
467.767212
 31
0.0
  0
LINE
  5
98D
330
1F
100
AcDbEntity
  8
2
 48
0.086781
370
    60
390
F
100
AcDbLine
 10
-298.379562
 20
467.767212
 30
0.0
 11
-297.895493
 21
471.204529
 31
0.0
  0
LINE
  5
98E
330
1F
100
AcDbEntity
  8
2
 48
0.086677
370
    60
390
F
100
AcDbLine
 10
-297.895493
 20
471.204529
 30
0.0
 11
-297.333054
 21
474.625671
 31
0.0
  0
LINE
  5
98F
330
1F
100
AcDbEntity
  8
2
 48
0.05196
370
    60
390
F
100
AcDbLine
 10
-297.333054
 20
474.625671
 30
0.0
 11
-296.966354
 21
476.671478
 31
0.0
  0
LWPOLYLINE
  5
990
330
1F
100
AcDbEntity
  8
2
370
    60
390
F
100
AcDbPolyline
 90
        3
 70
     0
 43
0.0
 10
-296.966354
 20
476.671478
 10
-296.028793
 20
481.126587
 10
-295.965744
 20
481.401062
  0
LINE
  5
995
330
1F
100
AcDbEntity
  8
2
 48
0.027789
370
    60
390
F
100
AcDbLine
 10
-295.965744
 20
481.401062
 30
0.0
 11
-295.710922
 21
482.483032
 31
0.0
  0
LINE
  5
996
330
1F
100
AcDbEntity
  8
2
 48
0.031123
370
    60
390
F
100
AcDbLine
 10
-295.710922
 20
482.483032
 30
0.0
 11
-295.429062
 21
483.695618
 31
0.0
  0
LINE
  5
997
330
1F
100
AcDbEntity
  8
2
 48
0.01596
370
    60
390
F
100
AcDbLine
 10
-295.429062
 20
483.695618
 30
0.0
 11
-295.287155
 21
484.318054
 31
0.0
  0
LINE
  5
998
330
1F
100
AcDbEntity
  8
2
 48
0.008013
370
    60
390
F
100
AcDbLine
 10
-295.287155
 20
484.318054
 30
0.0
 11
-295.212082
 21
484.629639
 31
0.0
  0
LINE
  5
999
330
1F
100
AcDbEntity
  8
2
 48
0.140601
370
    60
390
F
100
AcDbLine
 10
-270.86821
 20
563.077271
 30
0.0
 11
-266.294601
 21
566.350159
 31
0.0
  0
LWPOLYLINE
  5
99A
330
1F
100
AcDbEntity
  8
2
370
    60
390
F
100
AcDbPolyline
 90
       16
 70
     0
 43
0.0
 10
-321.861984
 20
429.072601
 10
-321.834518
 20
435.9711
 10
-321.742233
 20
442.869049
 10
-321.632614
 20
447.43222
 10
-321.474899
 20
451.993988
 10
-321.29863
 20
455.8367
 10
-321.077316
 20
459.676788
 10
-320.837936
 20
463.095764
 10
-320.554855
 20
466.510986
 10
-320.254196
 20
469.63327
 10
-319.91069
 20
472.750763
 10
-319.549973
 20
475.645874
 10
-319.147079
 20
478.535278
 10
-318.727341
 20
481.246643
 10
-318.265915
 20
483.951416
 10
-317.398727
 20
488.440155
  0
LINE
  5
9AC
330
1F
100
AcDbEntity
  8
2
 48
0.192544
370
    60
390
F
100
AcDbLine
 10
-10.576096
 20
597.992188
 30
0.0
 11
-2.876633
 21
597.80481
 31
0.0
  0
LINE
  5
9AD
330
1F
100
AcDbEntity
  8
2
 48
0.144913
370
    60
390
F
100
AcDbLine
 10
-16.37175
 20
598.092224
 30
0.0
 11
-10.576096
 21
597.992188
 31
0.0
  0
LWPOLYLINE
  5
9AE
330
1F
100
AcDbEntity
  8
2
370
    60
390
F
100
AcDbPolyline
 90
        4
 70
     0
 43
0.0
 10
-2.876022
 20
597.83374
 10
6.384232
 20
597.60553
 10
15.643387
 20
597.336853
 10
20.549881
 20
597.17804
  0
LWPOLYLINE
  5
9B4
330
1F
100
AcDbEntity
  8
2
370
    60
390
F
100
AcDbPolyline
 90
        4
 70
     0
 43
0.0
 10
20.549881
 20
597.17804
 10
29.586624
 20
596.85498
 10
38.62178
 20
596.491699
 10
45.798782
 20
596.174438
  0
LWPOLYLINE
  5
9BA
330
1F
100
AcDbEntity
  8
2
370
    60
390
F
100
AcDbPolyline
 90
       16
 70
     0
 43
0.0
 10
-197.39006
 20
589.491211
 10
-187.378281
 20
590.835571
 10
-176.915817
 20
592.082336
 10
-165.956894
 20
593.230713
 10
-154.482712
 20
594.275818
 10
-142.470688
 20
595.21283
 10
-129.884689
 20
596.037842
 10
-125.797409
 20
596.273804
 10
-112.282089
 20
596.951172
 10
-98.125168
 20
597.503906
 10
-83.349411
 20
597.923889
 10
-68.041306
 20
598.201599
 10
-52.242294
 20
598.330811
 10
-35.88884
 20
598.307617
 10
-18.723068
 20
598.127991
 10
-16.37175
 20
598.092224
  0
LWPOLYLINE
  5
9CC
330
1F
100
AcDbEntity
  8
2
370
    60
390
F
100
AcDbPolyline
 90
       17
 70
     0
 43
0.0
 10
-266.308517
 20
566.370728
 10
-263.038193
 20
568.492554
 10
-259.58757
 20
570.543457
 10
-255.951828
 20
572.521057
 10
-252.124863
 20
574.423523
 10
-248.099045
 20
576.249207
 10
-243.86412
 20
577.997314
 10
-242.604965
 20
578.485901
 10
-238.077866
 20
580.134644
 10
-233.324631
 20
581.69873
 10
-228.327438
 20
583.178101
 10
-223.067917
 20
584.57196
 10
-217.524826
 20
585.879211
 10
-211.673752
 20
587.098694
 10
-205.486374
 20
588.229004
 10
-198.930344
 20
589.268555
 10
-197.39006
 20
589.491211
  0
LINE
  5
9DF
330
1F
100
AcDbEntity
  8
2
 48
0.064116
370
    60
390
F
100
AcDbLine
 10
-272.876389
 20
561.482056
 30
0.0
 11
-270.867905
 21
563.076843
 31
0.0
  0
LWPOLYLINE
  5
9E0
330
1F
100
AcDbEntity
  8
2
370
    60
390
F
100
AcDbPolyline
 90
       18
 70
     0
 43
0.0
 10
-317.398727
 20
488.440155
 10
-316.489914
 20
492.413055
 10
-315.410019
 20
496.423462
 10
-314.157761
 20
500.464355
 10
-312.731857
 20
504.529816
 10
-311.131393
 20
508.613831
 10
-309.355881
 20
512.70993
 10
-307.405136
 20
516.811401
 10
-305.279587
 20
520.910889
 10
-302.98027
 20
525.00061
 10
-300.509079
 20
529.071899
 10
-297.869064
 20
533.115051
 10
-295.064377
 20
537.119568
 10
-292.100632
 20
541.073669
 10
-288.985214
 20
544.964294
 10
-285.727463
 20
548.777466
 10
-282.338669
 20
552.498108
 10
-278.959763
 20
555.98291
  0
LINE
  5
9F4
330
1F
100
AcDbEntity
  8
2
 48
0.404325
370
    60
390
F
100
AcDbLine
 10
-204.661301
 20
548.434814
 30
0.0
 11
-188.50444
 21
549.157166
 31
0.0
  0
LINE
  5
9F5
330
1F
100
AcDbEntity
  8
2
 48
0.269372
370
    60
390
F
100
AcDbLine
 10
-188.50444
 20
549.157166
 30
0.0
 11
-177.738449
 21
549.594727
 31
0.0
  0
LINE
  5
9F6
330
1F
100
AcDbEntity
  8
2
 48
0.271161
370
    60
390
F
100
AcDbLine
 10
-177.738449
 20
549.594727
 30
0.0
 11
-166.899277
 21
549.991638
 31
0.0
  0
LINE
  5
9F7
330
1F
100
AcDbEntity
  8
2
 48
0.272516
370
    60
390
F
100
AcDbLine
 10
-166.899277
 20
549.991638
 30
0.0
 11
-156.004318
 21
550.343018
 31
0.0
  0
LINE
  5
9F8
330
1F
100
AcDbEntity
  8
2
 48
0.273497
370
    60
390
F
100
AcDbLine
 10
-156.004318
 20
550.343018
 30
0.0
 11
-145.068649
 21
550.645874
 31
0.0
  0
LINE
  5
9F9
330
1F
100
AcDbEntity
  8
2
 48
0.27415
370
    60
390
F
100
AcDbLine
 10
-145.068649
 20
550.645874
 30
0.0
 11
-134.105576
 21
550.899353
 31
0.0
  0
LINE
  5
9FA
330
1F
100
AcDbEntity
  8
2
 48
0.274534
370
    60
390
F
100
AcDbLine
 10
-134.105576
 20
550.899353
 30
0.0
 11
-123.126144
 21
551.104187
 31
0.0
  0
LINE
  5
9FB
330
1F
100
AcDbEntity
  8
2
 48
0.274691
370
    60
390
F
100
AcDbLine
 10
-123.126144
 20
551.104187
 30
0.0
 11
-112.139633
 21
551.262878
 31
0.0
  0
LINE
  5
9FC
330
1F
100
AcDbEntity
  8
2
 48
0.274675
370
    60
390
F
100
AcDbLine
 10
-112.139633
 20
551.262878
 30
0.0
 11
-101.153244
 21
551.379456
 31
0.0
  0
LINE
  5
9FD
330
1F
100
AcDbEntity
  8
2
 48
0.18354
370
    60
390
F
100
AcDbLine
 10
-101.153244
 20
551.379456
 30
0.0
 11
-93.811874
 21
551.440002
 31
0.0
  0
LINE
  5
9FE
330
1F
100
AcDbEntity
  8
2
 48
0.369585
370
    60
390
F
100
AcDbLine
 10
-93.811874
 20
551.440002
 30
0.0
 11
-79.02861
 21
551.505615
 31
0.0
  0
LINE
  5
9FF
330
1F
100
AcDbEntity
  8
2
 48
0.276819
370
    60
390
F
100
AcDbLine
 10
-79.02861
 20
551.505615
 30
0.0
 11
-67.955856
 21
551.518433
 31
0.0
  0
LINE
  5
A00
330
1F
100
AcDbEntity
  8
2
 48
0.138249
370
    60
390
F
100
AcDbLine
 10
-67.955856
 20
551.518433
 30
0.0
 11
-62.425888
 21
551.51532
 31
0.0
  0
LINE
  5
A01
330
1F
100
AcDbEntity
  8
2
 48
0.252233
370
    60
390
F
100
AcDbLine
 10
-62.425888
 20
551.51532
 30
0.0
 11
-52.336594
 21
551.496155
 31
0.0
  0
LINE
  5
A02
330
1F
100
AcDbEntity
  8
2
 48
0.319891
370
    60
390
F
100
AcDbLine
 10
-52.336594
 20
551.496155
 30
0.0
 11
-39.541
 21
551.45752
 31
0.0
  0
LINE
  5
A03
330
1F
100
AcDbEntity
  8
2
 48
0.319309
370
    60
390
F
100
AcDbLine
 10
-39.541
 20
551.45752
 30
0.0
 11
-26.768723
 21
551.410767
 31
0.0
  0
LINE
  5
A04
330
1F
100
AcDbEntity
  8
2
 48
0.318734
370
    60
390
F
100
AcDbLine
 10
-26.768723
 20
551.410767
 30
0.0
 11
-14.019455
 21
551.366028
 31
0.0
  0
LINE
  5
A05
330
1F
100
AcDbEntity
  8
2
 48
0.318183
370
    60
390
F
100
AcDbLine
 10
-14.019455
 20
551.366028
 30
0.0
 11
-1.29216
 21
551.332336
 31
0.0
  0
LINE
  5
A06
330
1F
100
AcDbEntity
  8
2
 48
0.317673
370
    60
390
F
100
AcDbLine
 10
-1.29216
 20
551.332336
 30
0.0
 11
11.414749
 21
551.317749
 31
0.0
  0
LINE
  5
A07
330
1F
100
AcDbEntity
  8
2
 48
0.317227
370
    60
390
F
100
AcDbLine
 10
11.414749
 20
551.317749
 30
0.0
 11
24.103836
 21
551.329102
 31
0.0
  0
LINE
  5
A08
330
1F
100
AcDbEntity
  8
2
 48
0.316848
370
    60
390
F
100
AcDbLine
 10
24.103836
 20
551.329102
 30
0.0
 11
36.777664
 21
551.371826
 31
0.0
  0
LINE
  5
A09
330
1F
100
AcDbEntity
  8
2
 48
0.316553
370
    60
390
F
100
AcDbLine
 10
36.777664
 20
551.371826
 30
0.0
 11
49.439529
 21
551.44989
 31
0.0
  0
LINE
  5
A0A
330
1F
100
AcDbEntity
  8
2
 48
0.316346
370
    60
390
F
100
AcDbLine
 10
49.439529
 20
551.44989
 30
0.0
 11
62.09285
 21
551.565247
 31
0.0
  0
LINE
  5
A0B
330
1F
100
AcDbEntity
  8
2
 48
0.225338
370
    60
390
F
100
AcDbLine
 10
62.09285
 20
551.565247
 30
0.0
 11
71.105789
 21
551.667053
 31
0.0
  0
LINE
  5
A0C
330
1F
100
AcDbEntity
  8
2
 48
0.268807
370
    60
390
F
100
AcDbLine
 10
71.105789
 20
551.667053
 30
0.0
 11
81.85701
 21
551.818054
 31
0.0
  0
LINE
  5
A0D
330
1F
100
AcDbEntity
  8
2
 48
0.112001
370
    60
390
F
100
AcDbLine
 10
81.85701
 20
551.818054
 30
0.0
 11
86.336502
 21
551.888428
 31
0.0
  0
LWPOLYLINE
  5
A0E
330
1F
100
AcDbEntity
  8
2
370
    60
390
F
100
AcDbPolyline
 90
        3
 70
     0
 43
0.0
 10
-295.212143
 20
484.629578
 10
-294.747238
 20
486.083435
 10
-293.849655
 20
488.846588
  0
LWPOLYLINE
  5
A13
330
1F
100
AcDbEntity
  8
2
370
    60
390
F
100
AcDbPolyline
 90
        6
 70
     0
 43
0.0
 10
-293.849655
 20
488.846588
 10
-293.287399
 20
490.509399
 10
-292.688766
 20
492.154663
 10
-292.055466
 20
493.778168
 10
-291.385971
 20
495.384216
 10
-290.767502
 20
496.781921
  0
LWPOLYLINE
  5
A1B
330
1F
100
AcDbEntity
  8
2
370
    60
390
F
100
AcDbPolyline
 90
        6
 70
     0
 43
0.0
 10
-290.767502
 20
496.781921
 10
-290.011887
 20
498.395111
 10
-289.222397
 20
499.986328
 10
-288.401291
 20
501.551147
 10
-287.546432
 20
503.094116
 10
-286.869431
 20
504.260223
  0
LWPOLYLINE
  5
A23
330
1F
100
AcDbEntity
  8
2
370
    60
390
F
100
AcDbPolyline
 90
        6
 70
     0
 43
0.0
 10
-286.869431
 20
504.260223
 10
-285.933395
 20
505.801117
 10
-284.966171
 20
507.316345
 10
-283.970505
 20
508.801605
 10
-282.943771
 20
510.261353
 10
-282.248215
 20
511.211975
  0
LWPOLYLINE
  5
A2B
330
1F
100
AcDbEntity
  8
2
370
    60
390
F
100
AcDbPolyline
 90
        6
 70
     0
 43
0.0
 10
-282.248215
 20
511.211975
 10
-281.143845
 20
512.664368
 10
-280.011032
 20
514.088013
 10
-278.853012
 20
515.479004
 10
-277.666672
 20
516.841492
 10
-276.993027
 20
517.588623
  0
LWPOLYLINE
  5
A33
330
1F
100
AcDbEntity
  8
2
370
    60
390
F
100
AcDbPolyline
 90
        6
 70
     0
 43
0.0
 10
-276.993027
 20
517.588623
 10
-275.731308
 20
518.940918
 10
-274.443893
 20
520.262024
 10
-273.134323
 20
521.548584
 10
-271.799179
 20
522.804077
 10
-271.189072
 20
523.359741
  0
LWPOLYLINE
  5
A3B
330
1F
100
AcDbEntity
  8
2
370
    60
390
F
100
AcDbPolyline
 90
        6
 70
     0
 43
0.0
 10
-271.189072
 20
523.359741
 10
-269.779709
 20
524.603882
 10
-268.347458
 20
525.814697
 10
-266.895798
 20
526.989502
 10
-265.421432
 20
528.131226
 10
-264.916794
 20
528.510498
  0
LWPOLYLINE
  5
A43
330
1F
100
AcDbEntity
  8
2
370
    60
390
F
100
AcDbPolyline
 90
        6
 70
     0
 43
0.0
 10
-264.916794
 20
528.510498
 10
-263.369003
 20
529.640015
 10
-261.801071
 20
530.734619
 10
-260.216354
 20
531.792236
 10
-258.611618
 20
532.815002
 10
-258.250961
 20
533.038391
  0
LWPOLYLINE
  5
A4B
330
1F
100
AcDbEntity
  8
2
370
    60
390
F
100
AcDbPolyline
 90
        6
 70
     0
 43
0.0
 10
-258.250961
 20
533.038391
 10
-256.574265
 20
534.047913
 10
-254.880112
 20
535.02124
 10
-253.171616
 20
535.956665
 10
-251.445724
 20
536.855896
 10
-251.259995
 20
536.950012
  0
LWPOLYLINE
  5
A53
330
1F
100
AcDbEntity
  8
2
370
    60
390
F
100
AcDbPolyline
 90
        4
 70
     0
 43
0.0
 10
-251.259995
 20
536.950012
 10
-249.464951
 20
537.834534
 10
-247.655197
 20
538.681702
 10
-244.005417
 20
540.258179
  0
LINE
  5
A59
330
1F
100
AcDbEntity
  8
2
 48
0.108573
370
    60
390
F
100
AcDbLine
 10
-244.005417
 20
540.258179
 30
0.0
 11
-239.978928
 21
541.885498
 31
0.0
  0
LWPOLYLINE
  5
A5A
330
1F
100
AcDbEntity
  8
2
370
    60
390
F
100
AcDbPolyline
 90
        4
 70
     0
 43
0.0
 10
-239.978928
 20
541.885498
 10
-238.042282
 20
542.55896
 10
-236.09343
 20
543.194275
 10
-233.093246
 20
544.090881
  0
LWPOLYLINE
  5
A60
330
1F
100
AcDbEntity
  8
2
370
    60
390
F
100
AcDbPolyline
 90
        4
 70
     0
 43
0.0
 10
-233.093246
 20
544.090881
 10
-231.088547
 20
544.636719
 10
-229.074142
 20
545.143555
 10
-226.773361
 20
545.672302
  0
LWPOLYLINE
  5
A66
330
1F
100
AcDbEntity
  8
2
370
    60
390
F
100
AcDbPolyline
 90
        4
 70
     0
 43
0.0
 10
-226.773361
 20
545.672302
 10
-224.675461
 20
546.109741
 10
-222.570236
 20
546.507751
 10
-220.344101
 20
546.884399
  0
LINE
  5
A6C
330
1F
100
AcDbEntity
  8
2
 48
0.054793
370
    60
390
F
100
AcDbLine
 10
-220.344101
 20
546.884399
 30
0.0
 11
-218.176559
 21
547.209045
 31
0.0
  0
LWPOLYLINE
  5
A6D
330
1F
100
AcDbEntity
  8
2
370
    60
390
F
100
AcDbPolyline
 90
        4
 70
     0
 43
0.0
 10
-218.176559
 20
547.209045
 10
-215.904465
 20
547.507935
 10
-213.62767
 20
547.76709
 10
-212.327866
 20
547.896973
  0
LINE
  5
A73
330
1F
100
AcDbEntity
  8
2
 48
0.018307
370
    60
390
F
100
AcDbLine
 10
-212.327866
 20
547.896973
 30
0.0
 11
-211.598679
 21
547.964111
 31
0.0
  0
LWPOLYLINE
  5
A74
330
1F
100
AcDbEntity
  8
2
370
    60
390
F
100
AcDbPolyline
 90
        4
 70
     0
 43
0.0
 10
-211.598679
 20
547.964111
 10
-209.03093
 20
548.172424
 10
-206.460312
 20
548.340576
 10
-205.768723
 20
548.378967
  0
LINE
  5
A7A
330
1F
100
AcDbEntity
  8
2
 48
0.027721
370
    60
390
F
100
AcDbLine
 10
-205.768723
 20
548.378967
 30
0.0
 11
-204.661301
 21
548.435181
 31
0.0
  0
LWPOLYLINE
  5
A7B
330
1F
100
AcDbEntity
  8
2
370
    60
390
F
100
AcDbPolyline
 90
       32
 70
     0
 43
0.0
 10
-239.371262
 20
539.047485
 10
-241.261642
 20
538.336914
 10
-243.128952
 20
537.592163
 10
-244.964218
 20
536.817139
 10
-246.775314
 20
536.008789
 10
-248.553757
 20
535.171204
 10
-250.307053
 20
534.301147
 10
-252.027206
 20
533.402832
 10
-253.721298
 20
532.472961
 10
-255.381882
 20
531.515808
 10
-257.015488
 20
530.527954
 10
-258.615219
 20
529.513855
 10
-260.187119
 20
528.46991
 10
-261.72496
 20
527.400574
 10
-263.234116
 20
526.302307
 10
-264.70903
 20
525.179565
 10
-266.154587
 20
524.028809
 10
-267.565659
 20
522.854248
 10
-268.946579
 20
521.65271
 10
-270.293015
 20
520.428162
 10
-271.608688
 20
519.17749
 10
-272.889694
 20
517.904541
 10
-274.139206
 20
516.606384
 10
-275.35405
 20
515.28656
 10
-276.536789
 20
513.942505
 10
-277.684799
 20
512.577301
 10
-278.800095
 20
511.188843
 10
-279.880539
 20
509.779785
 10
-280.927719
 20
508.348389
 10
-281.940048
 20
506.896912
 10
-282.918442
 20
505.424042
 10
-284.450363
 20
502.960999
  0
LWPOLYLINE
  5
A9D
330
1F
100
AcDbEntity
  8
2
370
    60
390
F
100
AcDbPolyline
 90
       28
 70
     0
 43
0.0
 10
30.085892
 20
577.892334
 10
20.75032
 20
578.252014
 10
11.481644
 20
578.568909
 10
2.351761
 20
578.841064
 10
-6.703171
 20
579.07074
 10
-15.60405
 20
579.256592
 10
-24.422409
 20
579.400513
 10
-33.072678
 20
579.501648
 10
-41.633774
 20
579.561584
 10
-50.014145
 20
579.580261
 10
-58.299179
 20
579.558472
 10
-66.392441
 20
579.497253
 10
-74.385056
 20
579.396545
 10
-82.176315
 20
579.258362
 10
-89.86235
 20
579.081787
 10
-97.338913
 20
578.870056
 10
-104.706589
 20
578.621094
 10
-111.858383
 20
578.339417
 10
-118.898178
 20
578.02179
 10
-125.717209
 20
577.674133
 10
-132.422043
 20
577.29187
 10
-138.902756
 20
576.882385
 10
-145.267807
 20
576.439758
 10
-151.406784
 20
575.972778
 10
-157.429306
 20
575.474182
 10
-163.225327
 20
574.954224
 10
-168.904892
 20
574.404175
 10
-178.690903
 20
573.354492
  0
LINE
  5
ABB
330
1F
100
AcDbEntity
  8
2
370
    60
390
F
100
AcDbLine
 10
-204.584885
 20
569.879028
 30
0.0
 11
-178.690903
 21
573.354492
 31
0.0
  0
LINE
  5
ABC
330
1F
100
AcDbEntity
  8
2
370
    60
390
F
100
AcDbLine
 10
30.085892
 20
577.892334
 30
0.0
 11
56.19014
 21
576.709229
 31
0.0
  0
LINE
  5
ABD
330
1F
100
AcDbEntity
  8
2
 48
0.002882
370
    60
390
F
100
AcDbLine
 10
-297.785629
 20
429.072601
 30
0.0
 11
-297.670334
 21
429.072601
 31
0.0
  0
LINE
  5
ABE
330
1F
100
AcDbEntity
  8
2
 48
0.000313
370
    60
390
F
100
AcDbLine
 10
-321.861984
 20
429.072601
 30
0.0
 11
-321.849472
 21
429.072601
 31
0.0
  0
LINE
  5
ABF
330
1F
100
AcDbEntity
  8
2
 48
0.012004
370
    60
390
F
100
AcDbLine
 10
-297.670334
 20
429.072601
 30
0.0
 11
-297.19017
 21
429.072601
 31
0.0
  0
LINE
  5
AC0
330
1F
100
AcDbEntity
  8
2
 48
0.045047
370
    60
390
F
100
AcDbLine
 10
-5.244797
 20
595.386108
 30
0.0
 11
-4.331861840351321
 21
593.8158310179721
 31
0.0
  0
ARC
  5
AC1
330
1F
100
AcDbEntity
  8
2
370
    60
390
F
100
AcDbCircle
 10
-10.575974
 20
591.23584
 30
0.0
 40
6.756388
100
AcDbArc
 50
90.000959
 51
139.952133
  0
ARC
  5
AC2
330
1F
100
AcDbEntity
  8
2
370
    60
390
F
100
AcDbCircle
 10
-10.576462
 20
591.235046
 30
0.0
 40
6.757091
100
AcDbArc
 50
37.903411
 51
89.99738
  0
ARC
  5
AC3
330
1F
100
AcDbEntity
  8
2
370
    60
390
F
100
AcDbCircle
 10
-10.576096
 20
591.235962
 30
0.0
 40
6.756196
100
AcDbArc
 50
270.000001
 51
22.448466
  0
ARC
  5
AC4
330
1F
100
AcDbEntity
  8
2
370
    60
390
F
100
AcDbCircle
 10
-10.576096
 20
591.235962
 30
0.0
 40
6.756196
100
AcDbArc
 50
141.428533
 51
270.000001
  0
LINE
  5
AC5
330
1F
100
AcDbEntity
  8
2
 48
0.04267
370
    60
390
F
100
AcDbLine
 10
-273.250473
 20
557.897217
 30
0.0
 11
-271.5912696408532
 21
557.445133475617
 31
0.0
  0
LINE
  5
AC6
330
1F
100
AcDbEntity
  8
2
 48
0.030423
370
    60
390
F
100
AcDbLine
 10
-280.83287
 20
552.251221
 30
0.0
 11
-280.559372
 21
553.437012
 31
0.0
  0
LINE
  5
AC7
330
1F
100
AcDbEntity
  8
2
 48
0.045507
370
    60
390
F
100
AcDbLine
 10
-280.888962
 20
550.389099
 30
0.0
 11
-280.275375
 21
548.675354
 31
0.0
  0
ARC
  5
AC8
330
1F
100
AcDbEntity
  8
2
370
    60
390
F
100
AcDbCircle
 10
-274.182175
 20
551.205688
 30
0.0
 40
6.756196
100
AcDbArc
 50
82.073431
 51
134.413122
  0
ARC
  5
AC9
330
1F
100
AcDbEntity
  8
2
370
    60
390
F
100
AcDbCircle
 10
-274.182297
 20
551.205566
 30
0.0
 40
6.756204
100
AcDbArc
 50
171.064506
 51
186.428142
  0
ARC
  5
ACA
330
1F
100
AcDbEntity
  8
2
370
    60
390
F
100
AcDbCircle
 10
-274.1243704700659
 20
551.0145615896511
 30
0.0
 40
6.580786341673258
100
AcDbArc
 50
200.821651237017
 51
315.8189581985826
  0
ARC
  5
ACB
330
1F
100
AcDbEntity
  8
2
370
    60
390
F
100
AcDbCircle
 10
-274.182358
 20
551.205566
 30
0.0
 40
6.756178
100
AcDbArc
 50
135.000029
 51
160.71431
  0
ARC
  5
ACD
330
1F
100
AcDbEntity
  8
2
370
    60
390
F
100
AcDbCircle
 10
-274.182358
 20
551.205566
 30
0.0
 40
6.756178
100
AcDbArc
 50
315.000019
 51
67.448486
  0
LWPOLYLINE
  5
ACE
330
1F
100
AcDbEntity
  8
2
370
    60
390
F
100
AcDbPolyline
 90
       18
 70
     0
 43
0.0
 10
86.684402
 20
548.919678
 10
68.366531
 20
548.660095
 10
63.267044
 20
548.602295
 10
37.495193
 20
548.404602
 10
10.643631
 20
548.353577
 10
6.192459
 20
548.357849
 10
-22.273605
 20
548.438721
 10
-58.782455
 20
548.5625
 10
-78.60997
 20
548.559631
 10
-95.653793
 20
548.481445
 10
-107.898666
 20
548.372253
 10
-120.146896
 20
548.212402
 10
-132.463364
 20
547.993958
 10
-142.476913
 20
547.771484
 10
-152.470322
 20
547.507507
 10
-171.785202
 20
546.87793
 10
-191.734909
 20
546.074219
 10
-204.16716
 20
545.509338
  0
LWPOLYLINE
  5
AE2
330
1F
100
AcDbEntity
  8
2
370
    60
390
F
100
AcDbPolyline
 90
        3
 70
     0
 43
0.0
 10
-292.309494
 20
484.120636
 10
-292.685532
 20
482.50705
 10
-292.703415
 20
482.431488
  0
LWPOLYLINE
  5
AE7
330
1F
100
AcDbEntity
  8
2
370
    60
390
F
100
AcDbPolyline
 90
        3
 70
     0
 43
0.0
 10
-292.703415
 20
482.431488
 10
-293.463852
 20
479.137878
 10
-294.138718
 20
475.818634
  0
LWPOLYLINE
  5
AEC
330
1F
100
AcDbEntity
  8
2
370
    60
390
F
100
AcDbPolyline
 90
       10
 70
     0
 43
0.0
 10
-294.138718
 20
475.818634
 10
-294.927048
 20
471.243713
 10
-295.593918
 20
466.450806
 10
-296.140427
 20
461.391998
 10
-296.5681
 20
455.991547
 10
-296.879807
 20
450.120087
 10
-296.938339
 20
448.603394
 10
-297.113205
 20
441.744995
 10
-297.184982
 20
433.402679
 10
-297.19017
 20
429.072601
  0
LWPOLYLINE
  5
AF8
330
1F
100
AcDbEntity
  8
2
370
    60
390
F
100
AcDbPolyline
 90
       18
 70
     0
 43
0.0
 10
-280.813156
 20
508.372131
 10
-281.824142
 20
506.923615
 10
-282.803818
 20
505.449341
 10
-283.744247
 20
503.961578
 10
-284.65239
 20
502.449188
 10
-285.520187
 20
500.925964
 10
-286.354782
 20
499.379272
 10
-286.589645
 20
498.92804
 10
-287.047409
 20
498.026733
 10
-287.806015
 20
496.462952
 10
-288.529282
 20
494.878906
 10
-289.667038
 20
492.161682
 10
-290.03508
 20
491.211395
 10
-290.628403
 20
489.590302
 10
-291.183701
 20
487.95285
 10
-291.684006
 20
486.351013
 10
-292.145554
 20
484.73465
 10
-292.309433
 20
484.120941
  0
LWPOLYLINE
  5
B0C
330
1F
100
AcDbEntity
  8
2
370
    60
390
F
100
AcDbPolyline
 90
        3
 70
     0
 43
0.0
 10
-275.452805
 20
515.06488
 10
-277.756088
 20
512.369812
 10
-279.636337
 20
509.974854
  0
LWPOLYLINE
  5
B11
330
1F
100
AcDbEntity
  8
2
370
    60
390
F
100
AcDbPolyline
 90
        3
 70
     0
 43
0.0
 10
-269.186935
 20
521.339172
 10
-271.814438
 20
518.873413
 10
-273.227829
 20
517.452637
  0
LWPOLYLINE
  5
B16
330
1F
100
AcDbEntity
  8
2
370
    60
390
F
100
AcDbPolyline
 90
        3
 70
     0
 43
0.0
 10
-262.00737
 20
527.10907
 10
-264.963058
 20
524.887573
 10
-266.100143
 20
523.978271
  0
LWPOLYLINE
  5
B1B
330
1F
100
AcDbEntity
  8
2
370
    60
390
F
100
AcDbPolyline
 90
        4
 70
     0
 43
0.0
 10
-204.167221
 20
545.509705
 10
-206.840378
 20
545.368225
 10
-209.485825
 20
545.185425
 10
-210.57164
 20
545.097168
  0
LWPOLYLINE
  5
B21
330
1F
100
AcDbEntity
  8
2
370
    60
390
F
100
AcDbPolyline
 90
        5
 70
     0
 43
0.0
 10
-210.57164
 20
545.097168
 10
-211.556625
 20
545.010803
 10
-213.814743
 20
544.785217
 10
-216.056747
 20
544.520691
 10
-217.717331
 20
544.298035
  0
LWPOLYLINE
  5
B28
330
1F
100
AcDbEntity
  8
2
370
    60
390
F
100
AcDbPolyline
 90
       16
 70
     0
 43
0.0
 10
-217.717331
 20
544.298035
 10
-218.679001
 20
544.159058
 10
-220.808151
 20
543.822754
 10
-222.924423
 20
543.447327
 10
-224.99321
 20
543.039429
 10
-227.049606
 20
542.59259
 10
-229.063644
 20
542.11377
 10
-231.065781
 20
541.59613
 10
-232.481491
 20
541.204285
 10
-234.428513
 20
540.6297
 10
-236.363571
 20
540.016418
 10
-238.265854
 20
539.371338
 10
-240.155441
 20
538.687927
 10
-242.012497
 20
537.97345
 10
-243.856247
 20
537.220764
 10
-245.515549
 20
536.505371
  0
LWPOLYLINE
  5
B3A
330
1F
100
AcDbEntity
  8
2
370
    60
390
F
100
AcDbPolyline
 90
        4
 70
     0
 43
0.0
 10
-254.568161
 20
531.909485
 10
-256.212387
 20
530.936401
 10
-257.838058
 20
529.927429
 10
-258.652512
 20
529.403748
  0
LWPOLYLINE
  5
B40
330
1F
100
AcDbEntity
  8
2
370
    60
390
F
100
AcDbPolyline
 90
        4
 70
     0
 43
0.0
 10
-246.703781
 20
535.970215
 10
-248.477829
 20
535.134644
 10
-250.236191
 20
534.261719
 10
-251.158005
 20
533.785767
  0
LWPOLYLINE
  5
B46
330
1F
100
AcDbEntity
  8
2
370
    60
390
F
100
AcDbPolyline
 90
        3
 70
     0
 43
0.0
 10
60.572098
 20
577.165283
 10
64.584915
 20
576.82312
 10
65.091507
 20
576.77594
  0
LWPOLYLINE
  5
B4B
330
1F
100
AcDbEntity
  8
2
370
    60
390
F
100
AcDbPolyline
 90
        3
 70
     0
 43
0.0
 10
65.091507
 20
576.77594
 10
67.864456
 20
576.50293
 10
69.515091
 20
576.307922
  0
LWPOLYLINE
  5
B50
330
1F
100
AcDbEntity
  8
2
370
    60
390
F
100
AcDbPolyline
 90
        3
 70
     0
 43
0.0
 10
69.515091
 20
576.307922
 10
72.756424
 20
575.762878
 10
72.824661
 20
575.750488
  0
LWPOLYLINE
  5
B55
330
1F
100
AcDbEntity
  8
2
370
    60
390
F
100
AcDbPolyline
 90
        3
 70
     0
 43
0.0
 10
72.824661
 20
575.750488
 10
76.649857
 20
574.977661
 10
77.895096
 20
574.698792
  0
LINE
  5
B5A
330
1F
100
AcDbEntity
  8
2
 48
0.008543
370
    60
390
F
100
AcDbLine
 10
78.891678
 20
574.31189
 30
0.0
 11
79.204422
 21
574.174194
 31
0.0
  0
LINE
  5
B5B
330
1F
100
AcDbEntity
  8
2
 48
0.012212
370
    60
390
F
100
AcDbLine
 10
79.204422
 20
574.174194
 30
0.0
 11
79.57576
 21
573.856812
 31
0.0
  0
LINE
  5
B5C
330
1F
100
AcDbEntity
  8
2
 48
0.017557
370
    60
390
F
100
AcDbLine
 10
78.568069
 20
574.471313
 30
0.0
 11
79.204422
 21
574.174194
 31
0.0
  0
LINE
  5
B5D
330
1F
100
AcDbEntity
  8
2
 48
0.009717
370
    60
390
F
100
AcDbLine
 10
77.895096
 20
574.698792
 30
0.0
 11
78.261551
 21
574.569214
 31
0.0
  0
LWPOLYLINE
  5
B5E
330
1F
100
AcDbEntity
  8
2
370
    60
390
F
100
AcDbPolyline
 90
       20
 70
     0
 43
0.0
 10
95.498734
 20
554.685547
 10
93.853958
 20
556.006165
 10
92.307816
 20
557.30011
 10
90.919144
 20
558.514587
 10
89.6147
 20
559.709595
 10
88.440628
 20
560.839478
 10
87.339798
 20
561.955627
 10
86.34761
 20
563.018555
 10
85.419632
 20
564.072449
 10
84.58284
 20
565.083374
 10
83.803177
 20
566.089111
 10
83.10054
 20
567.060852
 10
82.449417
 20
568.030579
 10
81.863968
 20
568.974609
 10
81.325516
 20
569.919373
 10
80.843582
 20
570.846191
 10
80.40535
 20
571.776245
 10
80.016434
 20
572.695801
 10
79.669022
 20
573.620911
 10
79.64949
 20
573.676636
  0
LINE
  5
B74
330
1F
100
AcDbEntity
  8
2
 48
0.004864
370
    60
390
F
100
AcDbLine
 10
79.686844
 20
573.697144
 30
0.0
 11
79.575638
 21
573.856812
 31
0.0
  0
ARC
  5
B75
330
1F
100
AcDbEntity
  8
2
370
    60
390
F
100
AcDbCircle
 10
96.075638
 20
44.467346
 30
0.0
 40
504.53891
100
AcDbArc
 50
90.667278
 51
91.066516
  0
LWPOLYLINE
  5
B76
330
1F
100
AcDbEntity
  8
2
370
    60
390
F
100
AcDbPolyline
 90
       12
 70
     0
 43
0.0
 10
90.199783
 20
548.971863
 10
91.043289
 20
549.022095
 10
91.818436
 20
549.109802
 10
92.471024
 20
549.223877
 10
93.061111
 20
549.369446
 10
93.546341
 20
549.530334
 10
93.976395
 20
549.71698
 10
94.321487
 20
549.910583
 10
94.618607
 20
550.125122
 10
94.85054
 20
550.342468
 10
95.039993
 20
550.577026
 10
95.181595
 20
550.817505
  0
LWPOLYLINE
  5
B84
330
1F
100
AcDbEntity
  8
2
370
    60
390
F
100
AcDbPolyline
 90
        3
 70
     0
 43
0.0
 10
95.291092
 20
551.16626
 10
95.268997
 20
550.994385
 10
95.197464
 20
550.809204
  0
LINE
  5
B89
330
1F
100
AcDbEntity
  8
2
 48
0.001285
370
    60
390
F
100
AcDbLine
 10
60.090408
 20
577.308411
 30
0.0
 11
60.138504
 21
577.326538
 31
0.0
  0
LINE
  5
B8A
330
1F
100
AcDbEntity
  8
2
 48
0.000865
370
    60
390
F
100
AcDbLine
 10
60.138504
 20
577.326538
 30
0.0
 11
60.17305
 21
577.328552
 31
0.0
  0
LINE
  5
B8B
330
1F
100
AcDbEntity
  8
2
 48
0.001707
370
    60
390
F
100
AcDbLine
 10
60.17305
 20
577.328552
 30
0.0
 11
60.23848
 21
577.309082
 31
0.0
  0
LWPOLYLINE
  5
B8C
330
1F
100
AcDbEntity
  8
2
370
    60
390
F
100
AcDbPolyline
 90
        3
 70
     0
 43
0.0
 10
78.8918
 20
574.312134
 10
78.343826
 20
574.543823
 10
78.262039
 20
574.570862
  0
LINE
  5
B91
330
1F
100
AcDbEntity
  8
2
 48
0.089691
370
    60
390
F
100
AcDbLine
 10
60.107132
 20
577.61499
 30
0.0
 11
60.107132
 21
581.202637
 31
0.0
  0
ARC
  5
B92
330
1F
100
AcDbEntity
  8
2
370
    60
390
F
100
AcDbCircle
 10
45.107132
 20
581.190369
 30
0.0
 40
15.00007
100
AcDbArc
 50
0.046958
 51
87.35689
  0
LINE
  5
B93
330
1F
100
AcDbEntity
  8
2
 48
0.035035
370
    60
390
F
100
AcDbLine
 10
56.190384
 20
576.713379
 30
0.0
 11
57.590042
 21
576.643188
 31
0.0
  0
LWPOLYLINE
  5
B94
330
1F
100
AcDbEntity
  8
2
370
    60
390
F
100
AcDbPolyline
 90
        8
 70
     0
 43
0.0
 10
57.58992
 20
576.642578
 10
58.091507
 20
576.636169
 10
58.574173
 20
576.669983
 10
59.004593
 20
576.739563
 10
59.384232
 20
576.842834
 10
59.671585
 20
576.962036
 10
59.897537
 20
577.102051
 10
59.984818
 20
577.178101
  0
LINE
  5
B9E
330
1F
100
AcDbEntity
  8
2
 48
0.004205
370
    60
390
F
100
AcDbLine
 10
59.984818
 20
577.178101
 30
0.0
 11
60.090286
 21
577.309143
 31
0.0
  0
CIRCLE
  5
B9F
330
1F
100
AcDbEntity
  8
2
370
    60
390
F
100
AcDbCircle
 10
-10.576096
 20
591.235962
 30
0.0
 40
2.25
  0
CIRCLE
  5
BA0
330
1F
100
AcDbEntity
  8
2
370
    60
390
F
100
AcDbCircle
 10
-274.182358
 20
551.205566
 30
0.0
 40
2.250001
  0
LINE
  5
BA1
330
1F
100
AcDbEntity
  8
2
 48
0.011341
370
    60
390
F
100
AcDbLine
 10
89.511185
 20
551.937988
 30
0.0
 11
89.964798
 21
551.943176
 31
0.0
  0
LINE
  5
BA2
330
1F
100
AcDbEntity
  8
2
 48
0.011344
370
    60
390
F
100
AcDbLine
 10
90.418411
 20
551.94751
 30
0.0
 11
90.872147
 21
551.950806
 31
0.0
  0
LINE
  5
BA3
330
1F
100
AcDbEntity
  8
2
 48
0.011341
370
    60
390
F
100
AcDbLine
 10
89.964798
 20
551.943176
 30
0.0
 11
90.418411
 21
551.94751
 31
0.0
  0
LINE
  5
BA4
330
1F
100
AcDbEntity
  8
2
 48
0.011339
370
    60
390
F
100
AcDbLine
 10
88.150467
 20
551.918579
 30
0.0
 11
88.603958
 21
551.925598
 31
0.0
  0
LINE
  5
BA5
330
1F
100
AcDbEntity
  8
2
 48
0.011342
370
    60
390
F
100
AcDbLine
 10
88.603958
 20
551.925598
 30
0.0
 11
89.057571
 21
551.932129
 31
0.0
  0
LINE
  5
BA6
330
1F
100
AcDbEntity
  8
2
 48
0.011341
370
    60
390
F
100
AcDbLine
 10
89.057571
 20
551.932129
 30
0.0
 11
89.511185
 21
551.937988
 31
0.0
  0
LINE
  5
BA7
330
1F
100
AcDbEntity
  8
2
 48
0.011339
370
    60
390
F
100
AcDbLine
 10
87.696976
 20
551.911255
 30
0.0
 11
88.150467
 21
551.918579
 31
0.0
  0
LINE
  5
BA8
330
1F
100
AcDbEntity
  8
2
 48
0.011336
370
    60
390
F
100
AcDbLine
 10
86.336746
 20
551.888489
 30
0.0
 11
86.790115
 21
551.896118
 31
0.0
  0
LINE
  5
BA9
330
1F
100
AcDbEntity
  8
2
 48
0.011339
370
    60
390
F
100
AcDbLine
 10
87.243484
 20
551.903687
 30
0.0
 11
87.696976
 21
551.911255
 31
0.0
  0
LINE
  5
BAA
330
1F
100
AcDbEntity
  8
2
 48
0.011336
370
    60
390
F
100
AcDbLine
 10
86.790115
 20
551.896118
 30
0.0
 11
87.243484
 21
551.903687
 31
0.0
  0
LWPOLYLINE
  5
BAB
330
1F
100
AcDbEntity
  8
2
370
    60
390
F
100
AcDbPolyline
 90
       13
 70
     0
 43
0.0
 10
-306.599106
 20
433.452057
 10
-306.572922
 20
438.586548
 10
-306.506943
 20
443.348236
 10
-306.40947
 20
447.478394
 10
-306.276169
 20
451.373657
 10
-306.11644
 20
454.867371
 10
-305.922287
 20
458.215454
 10
-305.702194
 20
461.316162
 10
-305.447189
 20
464.333923
 10
-305.163254
 20
467.217102
 10
-304.842087
 20
470.065796
 10
-304.087204
 20
475.685333
 10
-303.548386
 20
479.114746
  0
LINE
  5
BBA
330
1F
100
AcDbEntity
  8
2
 48
0.143142
370
    60
390
F
100
AcDbLine
 10
-303.548386
 20
479.114746
 30
0.0
 11
-302.51683
 21
484.746735
 31
0.0
  0
LINE
  5
BBB
330
1F
100
AcDbEntity
  8
2
 48
0.140744
370
    60
390
F
100
AcDbLine
 10
-306.606186
 20
427.822296
 30
0.0
 11
-306.599106
 21
433.452057
 31
0.0
  0
LWPOLYLINE
  5
BBC
330
1F
100
AcDbEntity
  8
2
370
    60
390
F
100
AcDbPolyline
 90
        4
 70
     0
 43
0.0
 10
-302.516647
 20
484.747162
 10
-301.647385
 20
488.237915
 10
-300.868759
 20
491.186554
 10
-299.844589
 20
494.674255
  0
LWPOLYLINE
  5
BC2
330
1F
100
AcDbEntity
  8
2
370
    60
390
F
100
AcDbPolyline
 90
        3
 70
     0
 43
0.0
 10
-299.844589
 20
494.674255
 10
-298.542831
 20
498.451294
 10
-297.519577
 20
501.119019
  0
LWPOLYLINE
  5
BC7
330
1F
100
AcDbEntity
  8
2
370
    60
390
F
100
AcDbPolyline
 90
        4
 70
     0
 43
0.0
 10
-297.519577
 20
501.119019
 10
-296.748581
 20
502.99231
 10
-295.940781
 20
504.84967
 10
-294.762009
 20
507.394165
  0
LWPOLYLINE
  5
BCD
330
1F
100
AcDbEntity
  8
2
370
    60
390
F
100
AcDbPolyline
 90
        3
 70
     0
 43
0.0
 10
-294.762009
 20
507.394165
 10
-292.943893
 20
510.997253
 10
-291.589279
 20
513.471008
  0
LWPOLYLINE
  5
BD2
330
1F
100
AcDbEntity
  8
2
370
    60
390
F
100
AcDbPolyline
 90
        3
 70
     0
 43
0.0
 10
-291.589279
 20
513.471008
 10
-289.555344
 20
516.903564
 10
-288.010971
 20
519.316406
  0
LWPOLYLINE
  5
BD7
330
1F
100
AcDbEntity
  8
2
370
    60
390
F
100
AcDbPolyline
 90
        4
 70
     0
 43
0.0
 10
-288.010971
 20
519.316406
 10
-286.906113
 20
520.952698
 10
-285.768723
 20
522.565613
 10
-284.035568
 20
524.897034
  0
LWPOLYLINE
  5
BDD
330
1F
100
AcDbEntity
  8
2
370
    60
390
F
100
AcDbPolyline
 90
        4
 70
     0
 43
0.0
 10
-284.035568
 20
524.897034
 10
-282.822006
 20
526.446716
 10
-281.577499
 20
527.971008
 10
-279.676071
 20
530.183472
  0
LWPOLYLINE
  5
BE3
330
1F
100
AcDbEntity
  8
2
370
    60
390
F
100
AcDbPolyline
 90
        3
 70
     0
 43
0.0
 10
-279.676071
 20
530.183472
 10
-276.972946
 20
533.114014
 10
-274.956284
 20
535.154297
  0
LWPOLYLINE
  5
BE8
330
1F
100
AcDbEntity
  8
2
370
    60
390
F
100
AcDbPolyline
 90
        4
 70
     0
 43
0.0
 10
-274.956284
 20
535.154297
 10
-273.465378
 20
536.591797
 10
-271.947556
 20
537.999573
 10
-269.916611
 20
539.800659
  0
LWPOLYLINE
  5
BEE
330
1F
100
AcDbEntity
  8
2
370
    60
390
F
100
AcDbPolyline
 90
        3
 70
     0
 43
0.0
 10
-269.916611
 20
539.800659
 10
-266.627975
 20
542.537476
 10
-264.567123
 20
544.151123
  0
LWPOLYLINE
  5
BF3
330
1F
100
AcDbEntity
  8
2
370
    60
390
F
100
AcDbPolyline
 90
        4
 70
     0
 43
0.0
 10
-264.567123
 20
544.151123
 10
-262.801865
 20
545.476563
 10
-261.01329
 20
546.769531
 10
-258.940109
 20
548.207642
  0
LWPOLYLINE
  5
BF9
330
1F
100
AcDbEntity
  8
2
370
    60
390
F
100
AcDbPolyline
 90
        3
 70
     0
 43
0.0
 10
-258.940109
 20
548.207642
 10
-255.087936
 20
550.724487
 10
-253.099289
 20
551.950562
  0
LWPOLYLINE
  5
BFE
330
1F
100
AcDbEntity
  8
2
370
    60
390
F
100
AcDbPolyline
 90
        3
 70
     0
 43
0.0
 10
-253.099289
 20
551.950562
 10
-249.02977
 20
554.317017
 10
-247.073471
 20
555.390015
  0
LWPOLYLINE
  5
C03
330
1F
100
AcDbEntity
  8
2
370
    60
390
F
100
AcDbPolyline
 90
        4
 70
     0
 43
0.0
 10
-247.073471
 20
555.390015
 10
-244.973923
 20
556.497009
 10
-242.856247
 20
557.568237
 10
-240.883835
 20
558.526062
  0
LWPOLYLINE
  5
C09
330
1F
100
AcDbEntity
  8
2
370
    60
390
F
100
AcDbPolyline
 90
        4
 70
     0
 43
0.0
 10
-240.883835
 20
558.526062
 10
-238.745773
 20
559.521606
 10
-236.591476
 20
560.480652
 10
-234.546677
 20
561.350769
  0
LWPOLYLINE
  5
C0F
330
1F
100
AcDbEntity
  8
2
370
    60
390
F
100
AcDbPolyline
 90
        3
 70
     0
 43
0.0
 10
-234.546677
 20
561.350769
 10
-230.220932
 20
563.064392
 10
-228.075485
 20
563.851318
  0
LWPOLYLINE
  5
C14
330
1F
100
AcDbEntity
  8
2
370
    60
390
F
100
AcDbPolyline
 90
        4
 70
     0
 43
0.0
 10
-228.075485
 20
563.851318
 10
-225.908981
 20
564.604065
 10
-223.729904
 20
565.318787
 10
-221.4832
 20
566.012024
  0
LWPOLYLINE
  5
C1A
330
1F
100
AcDbEntity
  8
2
370
    60
390
F
100
AcDbPolyline
 90
        4
 70
     0
 43
0.0
 10
-221.4832
 20
566.012024
 10
-219.308395
 20
566.64093
 10
-217.123093
 20
567.231201
 10
-214.784348
 20
567.817383
  0
LWPOLYLINE
  5
C20
330
1F
100
AcDbEntity
  8
2
370
    60
390
F
100
AcDbPolyline
 90
        3
 70
     0
 43
0.0
 10
-214.784348
 20
567.817383
 10
-210.970871
 20
568.65271
 10
-204.584885
 20
569.879089
  0
LINE
  5
C2A
330
1F
100
AcDbEntity
  8
2
  6
DASHDOT
370
    25
390
F
100
AcDbLine
 10
-290.938522
 20
304.439606
 30
0.0
 11
-257.426132
 21
304.439606
 31
0.0
  0
LINE
  5
C2B
330
1F
100
AcDbEntity
  8
2
  6
DASHDOT
370
    25
390
F
100
AcDbLine
 10
-274.182358
 20
287.683411
 30
0.0
 11
-274.182358
 21
321.195801
 31
0.0
  0
LINE
  5
C2C
330
1F
100
AcDbEntity
  8
2
  6
DASHDOT
370
    25
390
F
100
AcDbLine
 10
-27.333176
 20
264.409241
 30
0.0
 11
6.180984
 21
264.409241
 31
0.0
  0
LINE
  5
C2D
330
1F
100
AcDbEntity
  8
2
  6
DASHDOT
370
    25
390
F
100
AcDbLine
 10
-10.576096
 20
247.65213
 30
0.0
 11
-10.576096
 21
281.166321
 31
0.0
  0
LINE
  5
C2E
330
1F
100
AcDbEntity
  8
2
  6
DASHDOT
370
    25
390
F
100
AcDbLine
 10
-27.333054
 20
591.23584
 30
0.0
 11
6.181107
 21
591.23584
 31
0.0
  0
LINE
  5
C2F
330
1F
100
AcDbEntity
  8
2
  6
DASHDOT
370
    25
390
F
100
AcDbLine
 10
-10.575974
 20
574.47876
 30
0.0
 11
-10.575974
 21
607.99292
 31
0.0
  0
LINE
  5
C30
330
1F
100
AcDbEntity
  8
2
  6
DASHDOT
370
    25
390
F
100
AcDbLine
 10
-290.938522
 20
551.205566
 30
0.0
 11
-257.426193
 21
551.205566
 31
0.0
  0
LINE
  5
C31
330
1F
100
AcDbEntity
  8
2
  6
DASHDOT
370
    25
390
F
100
AcDbLine
 10
-274.182358
 20
534.449402
 30
0.0
 11
-274.182358
 21
567.961792
 31
0.0
  0
LINE
  5
C32
330
1F
100
AcDbEntity
  8
0
 48
0.057536
370
    60
390
F
100
AcDbLine
 10
96.230179
 20
553.288696
 30
0.0
 11
96.230179
 21
555.590149
 31
0.0
  0
LINE
  5
C33
330
1F
100
AcDbEntity
  8
0
 48
0.070881
370
    60
390
F
100
AcDbLine
 10
-448.298874
 20
307.364105
 30
0.0
 11
-448.42778
 21
304.531799
 31
0.0
  0
LINE
  5
C34
330
1F
100
AcDbEntity
  8
0
 48
0.07088
370
    60
390
F
100
AcDbLine
 10
-448.42778
 20
551.113403
 30
0.0
 11
-448.298874
 21
548.281128
 31
0.0
  0
DIMENSION
  5
CA8
330
1F
100
AcDbEntity
  8
0
370
    25
100
AcDbDimension
  2
*D19
 10
-366.66185
 20
630.5077987248306
 30
0.0
 11
-409.739153342162
 21
656.7077987248307
 31
0.0
 70
   160
  1
82
 71
     5
 41
2.5
 42
81.76592999999997
  3
Standard
100
AcDbAlignedDimension
 13
-448.42778
 23
551.113403
 33
0.0
 14
-366.66185
 24
557.2258114433325
 34
0.0
100
AcDbRotatedDimension
1001
ACAD
1000
DSTYLE
1002
{
1070
    41
1040
10.0
1070
   140
1040
36.0
1070
   147
1040
10.0
1070
   176
1070
     7
1070
   177
1070
     7
1002
}
  0
DIMENSION
  5
CEB
330
1F
100
AcDbEntity
  8
0
370
    25
100
AcDbDimension
  2
*D20
 10
96.20796200000001
 20
630.5077987248306
 30
0.0
 11
-112.0890292420069
 21
656.7077987248307
 31
0.0
 70
   160
  1
418
 71
     5
 41
2.5
 42
418.056213
  3
Standard
100
AcDbAlignedDimension
 13
-321.848251
 23
432.5218505
 33
0.0
 14
96.207962
 24
553.170288
 34
0.0
100
AcDbRotatedDimension
1001
ACAD
1000
DSTYLE
1002
{
1070
    41
1040
10.0
1070
   140
1040
36.0
1070
   147
1040
10.0
1070
   176
1070
     7
1070
   177
1070
     7
1002
}
  0
POINT
  5
D91
330
1F
100
AcDbEntity
  8
0
 62
     7
100
AcDbPoint
 10
-52.242294
 20
598.330811
 30
0.0
  0
POINT
  5
D92
330
1F
100
AcDbEntity
  8
0
 62
     7
100
AcDbPoint
 10
-52.193527
 20
257.314209
 30
0.0
  0
DIMENSION
  5
E23
330
1F
100
AcDbEntity
  8
0
370
    25
100
AcDbDimension
  2
*D23
 10
147.3890043828628
 20
257.314209
 30
0.0
 11
121.1890043828628
 21
427.82251
 31
0.0
 70
    32
 71
     5
 41
2.5
 42
341.016602
  3
Standard
100
AcDbAlignedDimension
 13
-52.242294
 23
598.330811
 33
0.0
 14
-52.193527
 24
257.314209
 34
0.0
 50
90.0
100
AcDbRotatedDimension
1001
ACAD
1000
DSTYLE
1002
{
1070
    41
1040
10.0
1070
   140
1040
36.0
1070
   147
1040
10.0
1070
   271
1070
     0
1002
}
  0
VIEWPORT
  5
C37
330
73
100
AcDbEntity
 67
     1
  8
0
 62
     0
370
     0
390
F
100
AcDbViewport
 10
0.0
 20
0.0
 30
0.0
 40
1000.0
 41
1000.0
 68
     1
 69
     1
 12
0.0
 22
0.0
 13
0.0
 23
0.0
 14
1.0
 24
1.0
 15
1.0
 25
1.0
 16
0.0
 26
0.0
 36
1.0
 17
0.0
 27
0.0
 37
0.0
 42
50.0
 43
0.0
 44
0.0
 45
1000.0
 50
0.0
 51
0.0
 72
   100
 90
   557056
  1

281
     0
 71
     0
 74
     0
110
0.0
120
0.0
130
0.0
111
1.0
121
0.0
131
0.0
112
0.0
122
1.0
132
0.0
 79
     0
146
0.0
170
     0
  0
ENDSEC
  0
SECTION
  2
OBJECTS
  0
DICTIONARY
  5
C
330
0
100
AcDbDictionary
281
     1
  3
ACAD_COLOR
350
6C
  3
ACAD_GROUP
350
D
  3
ACAD_LAYOUT
350
1A
  3
ACAD_MATERIAL
350
6B
  3
ACAD_MLEADERSTYLE
350
D89
  3
ACAD_MLINESTYLE
350
17
  3
ACAD_PLOTSETTINGS
350
19
  3
ACAD_PLOTSTYLENAME
350
E
  3
ACAD_SCALELIST
350
99
  3
ACAD_TABLESTYLE
350
92
  3
ACAD_WIPEOUT_VARS
350
E50
  3
AcDbVariableDictionary
350
59
  0
DICTIONARY
  5
6C
102
{ACAD_REACTORS
330
C
102
}
330
C
100
AcDbDictionary
281
     1
  0
DICTIONARY
  5
D
102
{ACAD_REACTORS
330
C
102
}
330
C
100
AcDbDictionary
281
     1
  0
DICTIONARY
  5
1A
102
{ACAD_REACTORS
330
C
102
}
330
C
100
AcDbDictionary
281
     1
  3
Layout1
350
74
  3
Model
350
22
  0
DICTIONARY
  5
6B
102
{ACAD_REACTORS
330
C
102
}
330
C
100
AcDbDictionary
281
     1
  0
DICTIONARY
  5
D89
102
{ACAD_REACTORS
330
C
102
}
330
C
100
AcDbDictionary
281
     1
  0
DICTIONARY
  5
17
102
{ACAD_REACTORS
330
C
102
}
330
C
100
AcDbDictionary
281
     1
  3
Standard
350
18
  0
DICTIONARY
  5
19
102
{ACAD_REACTORS
330
C
102
}
330
C
100
AcDbDictionary
281
     1
  0
ACDBDICTIONARYWDFLT
  5
E
102
{ACAD_REACTORS
330
C
102
}
330
C
100
AcDbDictionary
281
     1
  3
Normal
350
F
100
AcDbDictionaryWithDefault
340
F
  0
DICTIONARY
  5
99
102
{ACAD_REACTORS
330
C
102
}
330
C
100
AcDbDictionary
281
     1
  3
A0
350
C69
  3
A1
350
C6A
  3
A2
350
C6B
  3
A3
350
C6C
  3
A4
350
C6D
  3
A5
350
C6E
  3
A6
350
C6F
  3
A7
350
C70
  3
A8
350
C71
  3
A9
350
C72
  3
B0
350
C73
  3
B1
350
C74
  3
B2
350
C75
  3
B3
350
C76
  3
B4
350
C77
  3
B5
350
C78
  3
B6
350
C79
  3
B7
350
C7A
  3
B8
350
C7B
  3
B9
350
C7C
  3
C0
350
C7D
  3
C1
350
C7E
  3
C2
350
C7F
  3
C3
350
C80
  3
C4
350
C81
  3
C5
350
C82
  3
C6
350
C83
  3
C7
350
C84
  3
C8
350
C85
  3
C9
350
C86
  3
D0
350
C87
  3
D1
350
C88
  3
D2
350
C89
  0
DICTIONARY
  5
92
102
{ACAD_REACTORS
330
C
102
}
330
C
100
AcDbDictionary
281
     1
  3
Standard
350
E4F
  0
WIPEOUTVARIABLES
  5
E50
102
{ACAD_REACTORS
330
C
102
}
330
C
100
AcDbWipeoutVariables
 70
     1
  0
DICTIONARY
  5
59
102
{ACAD_REACTORS
330
C
102
}
330
C
100
AcDbDictionary
281
     1
  3
CTABLESTYLE
350
E51
  3
DIMASSOC
350
5A
  3
HIDETEXT
350
5E
  0
LAYOUT
  5
74
102
{ACAD_REACTORS
330
1A
102
}
330
1A
100
AcDbPlotSettings
  1

  2
none_device
  4
none_user_media
  6

 40
0.0
 41
0.0
 42
0.0
 43
0.0
 44
0.0
 45
0.0
 46
0.0
 47
0.0
 48
0.0
 49
0.0
140
0.0
141
0.0
142
1.0
143
1.0
 70
   544
 72
     0
 73
     0
 74
     0
  7

 75
    16
 76
     0
 77
     2
 78
   300
147
1.0
148
0.0
149
0.0
100
AcDbLayout
  1
Layout1
 70
     1
 71
     0
 10
0.0
 20
0.0
 11
420.0
 21
297.0
 12
0.0
 22
0.0
 32
0.0
 14
0.0
 24
0.0
 34
0.0
 15
1221.786743
 25
642.770081
 35
2.0
146
0.0
 13
0.0
 23
0.0
 33
0.0
 16
1.0
 26
0.0
 36
0.0
 17
0.0
 27
1.0
 37
0.0
 76
     0
330
73
331
C37
  0
LAYOUT
  5
22
102
{ACAD_REACTORS
330
1A
102
}
330
1A
100
AcDbPlotSettings
  1

  2
none_device
  4
none_user_media
  6

 40
6.349999904632568
 41
6.349999904632568
 42
6.350006103515625
 43
6.350006103515625
 44
215.8999938964844
 45
279.3999938964844
 46
1.587498486042011
 47
-0.0000000000000151
 48
0.0
 49
0.0
140
0.0
141
0.0
142
1.0
143
1.142857194757788
 70
 11956
 72
     0
 73
     1
 74
     1
  7

 75
     0
 76
     0
 77
     2
 78
   300
147
0.8749999602635703
148
0.0
149
0.0
100
AcDbLayout
  1
Model
 70
     1
 71
     0
 10
0.0
 20
0.0
 11
420.0
 21
297.0
 12
0.0
 22
0.0
 32
0.0
 14
-448.42778
 24
247.65213
 34
0.0
 15
149.0556710495295
 25
672.0077987248308
 35
0.0
146
0.0
 13
0.0
 23
0.0
 33
0.0
 16
1.0
 26
0.0
 36
0.0
 17
0.0
 27
1.0
 37
0.0
 76
     0
330
1F
331
97
1001
PROGE_PRINT_SETTINGS
1070
    73
1070
     2
1070
   311
1000
\\PRN100A\W366
1004
303030303030303035323030343930303433303034463030343830303230303034313030363630303639303036333030363930303646303032303030343130303530303033363030333130303330303034453030323030303530303034333030344330303230303033363030303030303030303030303030303030303030
1004
303030303030303030303443303035303030353430303331303033413030303030303030303030303030303030303030303030303030303030303030303030303030303030303030303030303030303030303030303030303030303030303030303030303030303030303030303030303030303030303030303030303030
1004
303030303030303030303030303030303030303030303030303030303030303030303030303030303030303030303030303030303030303030303030303030303030303030303030303030303030303030303030303030303030303030303030303030303030303030303030303030303030303030303030303030303030
1004
303030303030303030303030303030303030303030303030303030303030303030303030303030303030303030303030303030303030303030303030303030303030303030303030303030303030303030303030303030303030303030303030303030303030303030303030303030303030303030303030303030303030
1004
303030303030303030303030303030303030303030303030303030303030303030303030303030303030303030303030303030303030303030303030303030303030303030303030303030303030303030303030303030303030303030303030303030303030303030303030303030303030303030303030373430413030
1004
303030303030303030303030303030303030303130303030303037343041303030303531304430303030303130303030303030363030303030304230303930303030423330443030303030313030303030303030303030303030303030303030303030303030303030303030303030303030303030303030303030303030
1004
303030303030303030303030303030303030303030303030303030303030303030303030303030303030303036343030303030303035303030303030303030303030303030303030303030303030303030303030303130303030303030303030303030303030303030303030303630303030303030303030303030303030
1004
303030303030303030303030303030303030303030303030303030303030313830303030303030303030313032373130323731303237303030303130323730303030303030303030303030303030303130303030303030303030303030303030303030303030303030303030303030303030303030303030303030303030
1004
303030303030303030303030303030303030303030303030303030303030303030303030303030303030303030303030303030303030303030303030303030303030303030303030303030303030303030303030303030303030303030303030303030303030303030303030303030303030303030303030303030303030
1004
303030303030303030303030303030303030303030303030303030303030303030303030303030303030303030303030303030303030303030303030303030303030303030303030303030303030303030303030303030303030303030303030303030303030303030303030303030303030303030303030303030303030
1004
303030303030303030303030303030303030303030303030303030303030303030303030303030303030303030303030303030303030303030303030303030303030303030303030303030303030303030303030303030303030303030303030303030303030303030303030303030303030303030303030303030303030
1004
303030303030303030303030303030303030303030303030303030303030303030303030303030303030303030303030303030303030303030303030303030303030303030303030303030303030303030303030303030303030303030303030303030303030303030303030303030303030303030303030303030303030
1004
303030303030303030303030303030303030303030303030303030303030303030303030303030303030303030303030303030303030303030303030303030303030303030303030303030303030303030303030303030303030303030303030303030303030303030303030303030303030303030303030303030303030
1004
303030303030303030303030303030303030303030303030303030303030303030303030303030303030303030303030303030303030303030303030303030303030303030303030303030303030303030303030303030303030303030303030303030303030303030303030303030303030303030303030303030303030
1004
303030303030303030303030303030303030303030303030303030303030303030303030303030303030303030303030303030303030303030303030303030303030303030303030303030303030303030303030303030303030303030303030303030303030303030303030303030303030303030303030303030303030
1004
303030303030303030303030303030303030303030303030303030303030303030303030303030303030303030303030303030303030303030303030303030303030303030303030303030303030303030303030303030303030303030303030303030303030303030303030303030303030303030303030303030303030
1004
303030303030303030303030303030303030303030303030303030303030303030303030303030303030303030303030303030303030303030303030303030303030303030303030303030303030303030303030303030303030303030303030303030303030303030303030303030303030303030303030303030303030
1004
303030303030303030303030303030303030303030303030303030303030303030303030303030303030303030303030303030303030303030303030303030303030303030303030303030303030303030303030303030303030303030303030303030303030303030303030303030303030303030303030303030303030
1004
303030303030303030303030303030303030303030303030303030303030303030303030303030303030303030303030303030303030303030303030303030303030303030303030303030303030303030303030303030303030303030303030303030303030303030303030303030303030303030303030303030303030
1004
303030303030303030303030303030303030303030303030303030303030303030303030303030303030303030303030303030303030303030303030303030303030303030303030303030303030303030303030303030303030303030303030303030303030303030303030303030303030303030303030303030303030
1004
303030303030303030303030303030303030303030303030303030303030303030303030303030303030303030303030303030303030303030303030303030303030303030303030303030303030303030303030303030303030303030303030303030303030303030303030303030303030303030303030303030303030
1004
303030303030303030303030303030303030303030303030303030303030303030303030303030303030303030303030303030303030303030303030303030303030303030303030303030303030303030303030303030303030303030303030303030303030303030303030303030303030303030303030303030303030
1004
303030303030303030303030303030303030303030303030303030303030303030303030303030303030303030303030303030303030303030303030303030303030303030303030303030303030303030303030303030303030303030303030303030303030303030303030303030303030303030303030303030303030
1004
303030303030303030303030303030303030303030303030303030303030303030303030303030303030303030303030303030303030303030303030303030303030303030303030303030303030303030303030303030303030303030303030303030303030303030303030303030303030303030303030303030303030
1004
303030303030303030303030303030303030303030303030303030303030303030303030303030303030303030303030303130303030303030313030303030303030303030303030303030303030303030303030303030303030303030303030303130303030303030303030303030303031303030303030303030303030
1004
303030303030303030303030303030303030303030303030303030303030303030303030303030303030303030303030303030303030303030303030303030303030303030303030303036343030303030303030303030303030303030303030303030303030303030303034303030303030303630303030303030303030
1004
303030303031303030303030303030303030303030303030303030303030303030303030303030303030303030303030303030303031303030303030303130303030303030303030303030303030303030303030303130303030303030303030303030303030303030303030303030303030303030303030303030303030
1004
303030303030363430303030303030303030303030303030303030303030303030303030303030313030303030303030303030303030303130303030303030303030303030303030303030303030303030303030303030303030303030303030303030303030303030303030303030303030303030303030303030303030
1004
303030303030303030303030303030303030303030303030303030303030303030303030303030303030303030303030303030303030303030303030303030303030303030303030303030303030303030303030303030303030303030303030303030303030303045373033303030304537303330303030453730333030
1004
303045373033303030303030303030303030303030303030303030303030303030303030303030303030303030303030303030363030303030303334303830303030393930423030303030303030303030303434303036353030363630303631303037353030364330303734303030303030303030303030303030303030
1004
303030303030303030303030303030303030303030343030303030303030303030303030303030303030303030303030303030303030303030303030303030303030303030303030303030303030303030303030303030303030303030303030303030303030303030303030303030303030303030303030303030303030
1004
303030303030303030303030303030303030303030303030303030303030303030303030303030303030303030303030303030303030303030303030303030303030303030303030303030303030303030303030303030303030303030303030303030303030303030303030303030303030303030303030303030303030
1004
303030303030303030303030303030303030303030303030303030303030303030303030303030303030303030303030303030303030303030303030303030303030303030303030303030303030303030303030303030303030303030303030303030303030303030303030303030303030303030303030303030303030
1004
303030303030303030303030303030303030303030303030303030303030303030303030303030303030303030303030303030303030303030303030303030303030303030303030303030303030303030303030303030303030303030303030303030303030303030303030303030303030303030303030303030303030
1004
303030303030303030303030303030303030303030303030303030303030303030303030303030303030303030303030303030303030303030303030303030303030303030303030303030303030303030303030303030303030303030303030303030303030303030303030303030303030303030303030303030303030
1004
303030303030303030303030303030303030303030303030303030303030303030303030303030303030303030303030303030303030303030303030303030303030303030303030303030303030303030303030303030303030303030303030303030303030303030303030303030303030303030303030303030303030
1004
303030303030303030303030303030303030303030303030303030303030303030303030303030303030303030303030303030303030303030303030303030303030303030303030303030303030303030303030303030303030303030303030303030303030303030303030303030303030303030303030303030303030
1004
303030303030303030303030303030303030303030303030303030303030303030303030303030303030303030303030303030303030303030303030303030303030303030303030303030303030303030303030303030303030303030303030303030303030303030303030303030303030303030303030303030303030
1004
30303030303030303030303030303030303030303030303030303030303030303030303030303030303030303030303030303030303030303030303030303030303030303030303030303030303030303030303030313030303030303030303030303030303030303030303030303030303030303030303030303030
  0
MLINESTYLE
  5
18
102
{ACAD_REACTORS
330
17
102
}
330
17
100
AcDbMlineStyle
  2
Standard
 70
     0
  3

 62
     0
 51
90.0
 52
90.0
 71
     2
 49
0.5
 62
   256
  6
BYLAYER
 49
-0.5
 62
   256
  6
BYLAYER
  0
ACDBPLACEHOLDER
  5
F
102
{ACAD_REACTORS
330
E
102
}
330
E
  0
SCALE
  5
C69
102
{ACAD_REACTORS
330
99
102
}
330
99
100
AcDbScale
 70
     0
300
1:1
140
1.0
141
1.0
290
     1
  0
SCALE
  5
C6A
102
{ACAD_REACTORS
330
99
102
}
330
99
100
AcDbScale
 70
     0
300
1:2
140
1.0
141
2.0
290
     0
  0
SCALE
  5
C6B
102
{ACAD_REACTORS
330
99
102
}
330
99
100
AcDbScale
 70
     0
300
1:4
140
1.0
141
4.0
290
     0
  0
SCALE
  5
C6C
102
{ACAD_REACTORS
330
99
102
}
330
99
100
AcDbScale
 70
     0
300
1:5
140
1.0
141
5.0
290
     0
  0
SCALE
  5
C6D
102
{ACAD_REACTORS
330
99
102
}
330
99
100
AcDbScale
 70
     0
300
1:8
140
1.0
141
8.0
290
     0
  0
SCALE
  5
C6E
102
{ACAD_REACTORS
330
99
102
}
330
99
100
AcDbScale
 70
     0
300
1:10
140
1.0
141
10.0
290
     0
  0
SCALE
  5
C6F
102
{ACAD_REACTORS
330
99
102
}
330
99
100
AcDbScale
 70
     0
300
1:16
140
1.0
141
16.0
290
     0
  0
SCALE
  5
C70
102
{ACAD_REACTORS
330
99
102
}
330
99
100
AcDbScale
 70
     0
300
1:20
140
1.0
141
20.0
290
     0
  0
SCALE
  5
C71
102
{ACAD_REACTORS
330
99
102
}
330
99
100
AcDbScale
 70
     0
300
1:30
140
1.0
141
30.0
290
     0
  0
SCALE
  5
C72
102
{ACAD_REACTORS
330
99
102
}
330
99
100
AcDbScale
 70
     0
300
1:40
140
1.0
141
40.0
290
     0
  0
SCALE
  5
C73
102
{ACAD_REACTORS
330
99
102
}
330
99
100
AcDbScale
 70
     0
300
1:50
140
1.0
141
50.0
290
     0
  0
SCALE
  5
C74
102
{ACAD_REACTORS
330
99
102
}
330
99
100
AcDbScale
 70
     0
300
1:100
140
1.0
141
100.0
290
     0
  0
SCALE
  5
C75
102
{ACAD_REACTORS
330
99
102
}
330
99
100
AcDbScale
 70
     0
300
2:1
140
2.0
141
1.0
290
     0
  0
SCALE
  5
C76
102
{ACAD_REACTORS
330
99
102
}
330
99
100
AcDbScale
 70
     0
300
4:1
140
4.0
141
1.0
290
     0
  0
SCALE
  5
C77
102
{ACAD_REACTORS
330
99
102
}
330
99
100
AcDbScale
 70
     0
300
8:1
140
8.0
141
1.0
290
     0
  0
SCALE
  5
C78
102
{ACAD_REACTORS
330
99
102
}
330
99
100
AcDbScale
 70
     0
300
10:1
140
10.0
141
1.0
290
     0
  0
SCALE
  5
C79
102
{ACAD_REACTORS
330
99
102
}
330
99
100
AcDbScale
 70
     0
300
100:1
140
100.0
141
1.0
290
     0
  0
SCALE
  5
C7A
102
{ACAD_REACTORS
330
99
102
}
330
99
100
AcDbScale
 70
     0
300
1/128" = 1'-0"
140
0.0078125
141
12.0
290
     0
  0
SCALE
  5
C7B
102
{ACAD_REACTORS
330
99
102
}
330
99
100
AcDbScale
 70
     0
300
1/64" = 1'-0"
140
0.015625
141
12.0
290
     0
  0
SCALE
  5
C7C
102
{ACAD_REACTORS
330
99
102
}
330
99
100
AcDbScale
 70
     0
300
1/32" = 1'-0"
140
0.03125
141
12.0
290
     0
  0
SCALE
  5
C7D
102
{ACAD_REACTORS
330
99
102
}
330
99
100
AcDbScale
 70
     0
300
1/16" = 1'-0"
140
0.0625
141
12.0
290
     0
  0
SCALE
  5
C7E
102
{ACAD_REACTORS
330
99
102
}
330
99
100
AcDbScale
 70
     0
300
3/32" = 1'-0"
140
0.09375
141
12.0
290
     0
  0
SCALE
  5
C7F
102
{ACAD_REACTORS
330
99
102
}
330
99
100
AcDbScale
 70
     0
300
1/8" = 1'-0"
140
0.125
141
12.0
290
     0
  0
SCALE
  5
C80
102
{ACAD_REACTORS
330
99
102
}
330
99
100
AcDbScale
 70
     0
300
3/16" = 1'-0"
140
0.1875
141
12.0
290
     0
  0
SCALE
  5
C81
102
{ACAD_REACTORS
330
99
102
}
330
99
100
AcDbScale
 70
     0
300
1/4" = 1'-0"
140
0.25
141
12.0
290
     0
  0
SCALE
  5
C82
102
{ACAD_REACTORS
330
99
102
}
330
99
100
AcDbScale
 70
     0
300
3/8" = 1'-0"
140
0.375
141
12.0
290
     0
  0
SCALE
  5
C83
102
{ACAD_REACTORS
330
99
102
}
330
99
100
AcDbScale
 70
     0
300
1/2" = 1'-0"
140
0.5
141
12.0
290
     0
  0
SCALE
  5
C84
102
{ACAD_REACTORS
330
99
102
}
330
99
100
AcDbScale
 70
     0
300
3/4" = 1'-0"
140
0.75
141
12.0
290
     0
  0
SCALE
  5
C85
102
{ACAD_REACTORS
330
99
102
}
330
99
100
AcDbScale
 70
     0
300
1" = 1'-0"
140
1.0
141
12.0
290
     0
  0
SCALE
  5
C86
102
{ACAD_REACTORS
330
99
102
}
330
99
100
AcDbScale
 70
     0
300
1-1/2" = 1'-0"
140
1.5
141
12.0
290
     0
  0
SCALE
  5
C87
102
{ACAD_REACTORS
330
99
102
}
330
99
100
AcDbScale
 70
     0
300
3" = 1'-0"
140
3.0
141
12.0
290
     0
  0
SCALE
  5
C88
102
{ACAD_REACTORS
330
99
102
}
330
99
100
AcDbScale
 70
     0
300
6" = 1'-0"
140
6.0
141
12.0
290
     0
  0
SCALE
  5
C89
102
{ACAD_REACTORS
330
99
102
}
330
99
100
AcDbScale
 70
     0
300
1'-0" = 1'-0"
140
12.0
141
12.0
290
     0
  0
TABLESTYLE
  5
E4F
102
{ACAD_REACTORS
330
92
102
}
102
{ACAD_XDICTIONARY
360
E82
102
}
330
92
100
AcDbTableStyle
  3
Standard
 70
     0
 71
     0
 40
0.06
 41
0.06
280
     0
281
     0
  7
Standard
140
0.18
170
     2
 62
     0
 63
     7
283
     0
274
    -2
284
     1
 64
     0
275
    -2
285
     1
 65
     0
276
    -2
286
     1
 66
     0
277
    -2
287
     1
 67
     0
278
    -2
288
     1
 68
     0
279
    -2
289
     1
 69
     0
  7
Standard
140
0.25
170
     5
 62
     0
 63
     7
283
     0
274
    -2
284
     1
 64
     0
275
    -2
285
     1
 65
     0
276
    -2
286
     1
 66
     0
277
    -2
287
     1
 67
     0
278
    -2
288
     1
 68
     0
279
    -2
289
     1
 69
     0
  7
Standard
140
0.18
170
     5
 62
     0
 63
     7
283
     0
274
    -2
284
     1
 64
     0
275
    -2
285
     1
 65
     0
276
    -2
286
     1
 66
     0
277
    -2
287
     1
 67
     0
278
    -2
288
     1
 68
     0
279
    -2
289
     1
 69
     0
  0
DICTIONARYVAR
  5
E51
102
{ACAD_REACTORS
330
59
102
}
330
59
100
DictionaryVariables
280
     0
  1
Standard
  0
DICTIONARYVAR
  5
5A
102
{ACAD_REACTORS
330
59
102
}
330
59
100
DictionaryVariables
280
     0
  1
2
  0
DICTIONARYVAR
  5
5E
102
{ACAD_REACTORS
330
59
102
}
330
59
100
DictionaryVariables
280
     0
  1
1
  0
DICTIONARY
  5
E82
330
E4F
100
AcDbDictionary
280
     1
281
     1
  3
ACAD_XREC_ROUNDTRIP
360
E83
  0
XRECORD
  5
E83
102
{ACAD_REACTORS
330
E82
102
}
330
E82
100
AcDbXrecord
280
     1
102
ACAD_ROUNDTRIP_PRE2007_TABLESTYLE
 90
      512
 91
        0
  1

 92
      512
 93
        0
  2

 94
      512
 95
        0
  3

  0
ENDSEC
  0
EOF
